999
DXF file: 9f0_c_001.dxf
999
Pro/ENGINEER 2016360 by Parametric Technology Corporation
  0
SECTION
  2
HEADER
  9
$ACADVER
  1
AC1014
  9
$DWGCODEPAGE
  3
ANSI_1252
  9
$EXTMAX
 10
420.0
 20
594.0
 30
0.0
  9
$EXTMIN
 10
0.0
 20
0.0
 30
0.0
  9
$LIMMIN
 10
0.0
 20
0.0
  9
$LIMMAX
 10
420.0
 20
594.0
  9
$VIEWCTR
 10
210.0
 20
297.0
  9
$VIEWSIZE
 40
594.0
  9
$CLAYER
  8
0
  9
$LTSCALE
 40
38.72
  9
$CELTYPE
  6
BYLAYER
  9
$DIMSCALE
 40
1.0
  9
$DIMASZ
 40
2.5
  9
$DIMEXO
 40
0.75
  9
$DIMDLI
 40
26.752
  9
$DIMEXE
 40
0.75
  9
$DIMCEN
 40
6.336
  9
$DIMLFAC
 40
1.0
  9
$DIMBLK
  1
_CLOSED
  9
$DIMALT
 70
0
  9
$DIMALTF
 40
25.4
  9
$DIMTXT
 40
3.0
  9
$DIMTOL
 70
1
  9
$DIMLIM
 70
0
  9
$DIMTFAC
 40
1.0
  9
$DIMTP
 40
0.01
  9
$DIMTM
 40
0.01
  9
$DIMGAP
 40
0.625
  9
$AUNITS
 70
0
  9
$PDMODE
 70
3
  9
$PDSIZE
 40
0.3125
  9
$HANDSEED
  5
446
  9
$TILEMODE
 70
1
  9
$MEASUREMENT
 70
1
  0
ENDSEC
  0
SECTION
  2
CLASSES
  0
ENDSEC
  0
SECTION
  2
TABLES
  0
TABLE
  2
VPORT
  5
8
100
AcDbSymbolTable
 70
2
  0
VPORT
  5
1F4
100
AcDbSymbolTableRecord
100
AcDbViewportTableRecord
  2
*ACTIVE
 70
0
 10
0.0
 20
0.0
 11
1.0
 21
1.0
 12
210.0
 22
297.0
 13
0.0
 23
0.0
 14
1.0
 24
1.0
 15
0.0
 25
0.0
 16
0.0
 26
0.0
 36
1.0
 17
0.0
 27
0.0
 37
0.0
 40
594.0
 41
0.7070707071
 42
50.0
 43
0.0
 44
0.0
 50
0.0
 51
0.0
 71
0
 72
100
 73
1
 74
1
 75
0
 76
0
 77
0
 78
0
  0
ENDTAB
  0
TABLE
  2
LTYPE
  5
5
100
AcDbSymbolTable
 70
6
  0
LTYPE
  5
14
100
AcDbSymbolTableRecord
100
AcDbLinetypeTableRecord
  2
BYBLOCK
 70
0
  3

 72
65
 73
0
 40
0.0
  0
LTYPE
  5
15
100
AcDbSymbolTableRecord
100
AcDbLinetypeTableRecord
  2
BYLAYER
 70
0
  3

 72
65
 73
0
 40
0.0
  0
LTYPE
  5
16
100
AcDbSymbolTableRecord
100
AcDbLinetypeTableRecord
  2
CONTINUOUS
 70
64
  3
Solid line
 72
65
 73
0
 40
0.0
  0
LTYPE
  5
1F5
100
AcDbSymbolTableRecord
100
AcDbLinetypeTableRecord
  2
CENTER
 70
64
  3
____ _ ____ _ ____ _ ____ _ ____ _ ____ _ ____
 72
65
 73
4
 40
0.6
 49
0.375
 74
0
 49
-0.075
 74
0
 49
0.075
 74
0
 49
-0.075
 74
0
  0
LTYPE
  5
1F6
100
AcDbSymbolTableRecord
100
AcDbLinetypeTableRecord
  2
HIDDEN
 70
64
  3
- - - - - - - - - - - - - - - - - - - -
 72
65
 73
2
 40
0.2
 49
0.1
 74
0
 49
-0.1
 74
0
  0
LTYPE
  5
1F7
100
AcDbSymbolTableRecord
100
AcDbLinetypeTableRecord
  2
PHANTOM
 70
64
  3
_____ _ _ _____ _ _ _____ _ _ _____
 72
65
 73
6
 40
0.8
 49
0.45
 74
0
 49
-0.05
 74
0
 49
0.1
 74
0
 49
-0.05
 74
0
 49
0.1
 74
0
 49
-0.05
 74
0
  0
LTYPE
  5
1F8
100
AcDbSymbolTableRecord
100
AcDbLinetypeTableRecord
  2
DOT
 70
64
  3
. . . . . . . . . . . . . . . . . . . .
 72
65
 73
2
 40
0.2
 49
0.1
 74
0
 49
-0.1
 74
0
  0
LTYPE
  5
1F9
100
AcDbSymbolTableRecord
100
AcDbLinetypeTableRecord
  2
DASHED
 70
64
  3
- - - - - - - - - - - - - - - - - - - -
 72
65
 73
2
 40
0.2
 49
0.1
 74
0
 49
-0.1
 74
0
  0
ENDTAB
  0
TABLE
  2
LAYER
  5
2
100
AcDbSymbolTable
 70
36
  0
LAYER
  5
10
100
AcDbSymbolTableRecord
100
AcDbLayerTableRecord
  2
0
 70
0
 62
7
  6
CONTINUOUS
  0
LAYER
  5
1FA
100
AcDbSymbolTableRecord
100
AcDbLayerTableRecord
  2
DEFAULT_1
 70
0
 62
7
  6
CENTER
  0
LAYER
  5
1FB
100
AcDbSymbolTableRecord
100
AcDbLayerTableRecord
  2
DEFAULT_2
 70
0
 62
8
  6
HIDDEN
  0
LAYER
  5
1FC
100
AcDbSymbolTableRecord
100
AcDbLayerTableRecord
  2
DEFAULT_3
 70
0
 62
7
  6
PHANTOM
  0
LAYER
  5
1FD
100
AcDbSymbolTableRecord
100
AcDbLayerTableRecord
  2
01_ALL_DTM_PLN
 70
0
 62
7
  6
CONTINUOUS
  0
LAYER
  5
1FE
100
AcDbSymbolTableRecord
100
AcDbLayerTableRecord
  2
01__ASM_ALL_DTM_PLN
 70
0
 62
7
  6
CONTINUOUS
  0
LAYER
  5
1FF
100
AcDbSymbolTableRecord
100
AcDbLayerTableRecord
  2
01__ASM_DEF_DTM_PLN
 70
0
 62
7
  6
CONTINUOUS
  0
LAYER
  5
200
100
AcDbSymbolTableRecord
100
AcDbLayerTableRecord
  2
01___PRT_ALL_DTM_PLN
 70
0
 62
7
  6
CONTINUOUS
  0
LAYER
  5
201
100
AcDbSymbolTableRecord
100
AcDbLayerTableRecord
  2
01___PRT_DEF_DTM_PLN
 70
0
 62
7
  6
CONTINUOUS
  0
LAYER
  5
202
100
AcDbSymbolTableRecord
100
AcDbLayerTableRecord
  2
02_ALL_AXES
 70
0
 62
7
  6
CONTINUOUS
  0
LAYER
  5
203
100
AcDbSymbolTableRecord
100
AcDbLayerTableRecord
  2
02__ASM_ALL_AXES
 70
0
 62
7
  6
CONTINUOUS
  0
LAYER
  5
204
100
AcDbSymbolTableRecord
100
AcDbLayerTableRecord
  2
02___PRT_ALL_AXES
 70
0
 62
7
  6
CONTINUOUS
  0
LAYER
  5
205
100
AcDbSymbolTableRecord
100
AcDbLayerTableRecord
  2
03_ALL_CURVES
 70
0
 62
7
  6
CONTINUOUS
  0
LAYER
  5
206
100
AcDbSymbolTableRecord
100
AcDbLayerTableRecord
  2
03__ASM_ALL_CURVES
 70
0
 62
7
  6
CONTINUOUS
  0
LAYER
  5
207
100
AcDbSymbolTableRecord
100
AcDbLayerTableRecord
  2
03___PRT_ALL_CURVES
 70
0
 62
7
  6
CONTINUOUS
  0
LAYER
  5
208
100
AcDbSymbolTableRecord
100
AcDbLayerTableRecord
  2
04_ALL_DTM_PNT
 70
0
 62
7
  6
CONTINUOUS
  0
LAYER
  5
209
100
AcDbSymbolTableRecord
100
AcDbLayerTableRecord
  2
04__ASM_ALL_DTM_PNT
 70
0
 62
7
  6
CONTINUOUS
  0
LAYER
  5
20A
100
AcDbSymbolTableRecord
100
AcDbLayerTableRecord
  2
04___PRT_ALL_DTM_PNT
 70
0
 62
7
  6
CONTINUOUS
  0
LAYER
  5
20B
100
AcDbSymbolTableRecord
100
AcDbLayerTableRecord
  2
05_ALL_DTM_CSYS
 70
0
 62
7
  6
CONTINUOUS
  0
LAYER
  5
20C
100
AcDbSymbolTableRecord
100
AcDbLayerTableRecord
  2
05__ASM_ALL_DTM_CSYS
 70
0
 62
7
  6
CONTINUOUS
  0
LAYER
  5
20D
100
AcDbSymbolTableRecord
100
AcDbLayerTableRecord
  2
05__ASM_DEF_DTM_CSYS
 70
0
 62
7
  6
CONTINUOUS
  0
LAYER
  5
20E
100
AcDbSymbolTableRecord
100
AcDbLayerTableRecord
  2
05___PRT_ALL_DTM_CSYS
 70
0
 62
7
  6
CONTINUOUS
  0
LAYER
  5
20F
100
AcDbSymbolTableRecord
100
AcDbLayerTableRecord
  2
05___PRT_DEF_DTM_CSYS
 70
0
 62
7
  6
CONTINUOUS
  0
LAYER
  5
210
100
AcDbSymbolTableRecord
100
AcDbLayerTableRecord
  2
06_ALL_SURFS
 70
0
 62
7
  6
CONTINUOUS
  0
LAYER
  5
211
100
AcDbSymbolTableRecord
100
AcDbLayerTableRecord
  2
06__ASM_ALL_SURFS
 70
0
 62
7
  6
CONTINUOUS
  0
LAYER
  5
212
100
AcDbSymbolTableRecord
100
AcDbLayerTableRecord
  2
06___PRT_ALL_SURFS
 70
0
 62
7
  6
CONTINUOUS
  0
LAYER
  5
213
100
AcDbSymbolTableRecord
100
AcDbLayerTableRecord
  2
07__ASM_ALL_SKELETONS
 70
0
 62
7
  6
CONTINUOUS
  0
LAYER
  5
214
100
AcDbSymbolTableRecord
100
AcDbLayerTableRecord
  2
1_ALL_PLANES
 70
0
 62
7
  6
CONTINUOUS
  0
LAYER
  5
215
100
AcDbSymbolTableRecord
100
AcDbLayerTableRecord
  2
3_ALL_AXES
 70
0
 62
7
  6
CONTINUOUS
  0
LAYER
  5
216
100
AcDbSymbolTableRecord
100
AcDbLayerTableRecord
  2
5_ALL_CURVES
 70
0
 62
7
  6
CONTINUOUS
  0
LAYER
  5
217
100
AcDbSymbolTableRecord
100
AcDbLayerTableRecord
  2
7_ALL_FEATURES
 70
0
 62
7
  6
CONTINUOUS
  0
LAYER
  5
218
100
AcDbSymbolTableRecord
100
AcDbLayerTableRecord
  2
8_ALL_NOTES_BALLOONS_SYMBOLS_GT
 70
0
 62
7
  6
CONTINUOUS
  0
LAYER
  5
219
100
AcDbSymbolTableRecord
100
AcDbLayerTableRecord
  2
9_SOLID
 70
0
 62
7
  6
CONTINUOUS
  0
ENDTAB
  0
TABLE
  2
STYLE
  5
3
100
AcDbSymbolTable
 70
1
  0
STYLE
  5
11
100
AcDbSymbolTableRecord
100
AcDbTextStyleTableRecord
  2
STANDARD
 70
0
 40
0.0
 41
0.85
 50
0.0
 71
0
 42
0.2
  3
txt
  4

  0
STYLE
  5
21A
100
AcDbSymbolTableRecord
100
AcDbTextStyleTableRecord
  2
TEXTSTYLE_1
 70
0
 40
0.0
 41
0.8
 50
0.0
 71
0
 42
0.2
  3
gdt
  4

  0
ENDTAB
  0
TABLE
  2
VIEW
  5
6
100
AcDbSymbolTable
 70
0
  0
ENDTAB
  0
TABLE
  2
UCS
  5
7
100
AcDbSymbolTable
 70
0
  0
ENDTAB
  0
TABLE
  2
APPID
  5
9
100
AcDbSymbolTable
 70
1
  0
APPID
  5
21B
100
AcDbSymbolTableRecord
100
AcDbRegAppTableRecord
  2
ACAD
 70
0
  0
ENDTAB
  0
TABLE
  2
BLOCK_RECORD
  5
1
100
AcDbSymbolTable
 70
0
  0
BLOCK_RECORD
  5
1F
100
AcDbSymbolTableRecord
100
AcDbBlockTableRecord
  2
*MODEL_SPACE
  0
BLOCK_RECORD
  5
1B
100
AcDbSymbolTableRecord
100
AcDbBlockTableRecord
  2
*PAPER_SPACE
  0
BLOCK_RECORD
  5
21C
100
AcDbSymbolTableRecord
100
AcDbBlockTableRecord
  2
_CLOSED
  0
BLOCK_RECORD
  5
21D
100
AcDbSymbolTableRecord
100
AcDbBlockTableRecord
  2
*D0
  0
BLOCK_RECORD
  5
21E
100
AcDbSymbolTableRecord
100
AcDbBlockTableRecord
  2
*D1
  0
BLOCK_RECORD
  5
21F
100
AcDbSymbolTableRecord
100
AcDbBlockTableRecord
  2
*D2
  0
BLOCK_RECORD
  5
220
100
AcDbSymbolTableRecord
100
AcDbBlockTableRecord
  2
*D3
  0
BLOCK_RECORD
  5
221
100
AcDbSymbolTableRecord
100
AcDbBlockTableRecord
  2
*D4
  0
BLOCK_RECORD
  5
222
100
AcDbSymbolTableRecord
100
AcDbBlockTableRecord
  2
*D5
  0
BLOCK_RECORD
  5
223
100
AcDbSymbolTableRecord
100
AcDbBlockTableRecord
  2
*D6
  0
BLOCK_RECORD
  5
224
100
AcDbSymbolTableRecord
100
AcDbBlockTableRecord
  2
LOGO2_BL0
  0
ENDTAB
  0
TABLE
  2
DIMSTYLE
  5
A
100
AcDbSymbolTable
 70
1
  0
DIMSTYLE
105
225
100
AcDbSymbolTableRecord
100
AcDbDimStyleTableRecord
  2
STANDARD
 70
0
  3

  4

  5
_CLOSED
  6
_CLOSED
  7
_CLOSED
 40
1.0
 41
2.5
 42
0.75
 43
0.38
 44
0.75
 45
0.0
 46
0.0
 47
0.01
 48
0.01
140
3.0
141
0.09
142
0.0
143
25.4
144
1.0
145
0.0
146
1.0
147
0.625
 71
1.0
 72
0.0
 73
0
 74
0
 75
0
 76
0
 77
1
 78
8
 79
2
170
0
171
1
172
0
173
0
174
0
175
0
176
0
177
0
178
0
270
2
179
2
271
2
272
2
273
2
274
2
275
0
280
0
281
0
282
0
283
1
284
8
285
0
286
0
287
3
288
0
340
11
  0
DIMSTYLE
105
226
100
AcDbSymbolTableRecord
100
AcDbDimStyleTableRecord
  2
DIMSTYLE_1
 70
0
  3

  4

  5
_CLOSED
  6
_CLOSED
  7
_CLOSED
 40
1.0
 41
2.5
 42
0.75
 43
0.38
 44
0.75
 45
0.0
 46
0.0
 47
0.2
 48
0.2
140
3.0
141
0.09
142
0.0
143
25.4
144
1.0
145
0.0
146
1.0
147
0.75
 71
0.0
 72
0.0
 73
0
 74
0
 75
0
 76
0
 77
1
 78
8
 79
2
170
0
171
1
172
0
173
0
174
0
175
0
176
0
177
0
178
0
270
2
179
2
271
2
272
2
273
2
274
2
275
0
280
0
281
0
282
0
283
1
284
8
285
0
286
0
287
3
288
0
340
11
  0
DIMSTYLE
105
227
100
AcDbSymbolTableRecord
100
AcDbDimStyleTableRecord
  2
DIMSTYLE_2
 70
0
  3

  4

  5
_CLOSED
  6
_CLOSED
  7
_CLOSED
 40
1.0
 41
2.5
 42
0.75
 43
0.38
 44
0.75
 45
0.0
 46
0.0
 47
0.3
 48
0.3
140
3.0
141
0.09
142
0.0
143
25.4
144
1.0
145
0.0
146
1.0
147
0.75
 71
0.0
 72
0.0
 73
0
 74
0
 75
0
 76
0
 77
1
 78
8
 79
2
170
0
171
1
172
0
173
0
174
0
175
0
176
0
177
0
178
0
270
2
179
2
271
2
272
2
273
2
274
2
275
0
280
0
281
0
282
0
283
1
284
8
285
0
286
0
287
3
288
0
340
11
  0
DIMSTYLE
105
228
100
AcDbSymbolTableRecord
100
AcDbDimStyleTableRecord
  2
DIMSTYLE_3
 70
0
  3

  4

  5
_CLOSED
  6
_CLOSED
  7
_CLOSED
 40
1.0
 41
2.5
 42
0.75
 43
0.38
 44
0.75
 45
0.0
 46
0.0
 47
0.5
 48
0.5
140
3.0
141
0.09
142
0.0
143
25.4
144
1.0
145
0.0
146
1.0
147
0.75
 71
0.0
 72
0.0
 73
0
 74
0
 75
0
 76
0
 77
1
 78
8
 79
2
170
0
171
1
172
0
173
0
174
0
175
0
176
0
177
0
178
0
270
2
179
2
271
2
272
2
273
2
274
2
275
0
280
0
281
0
282
0
283
1
284
8
285
0
286
0
287
3
288
0
340
11
  0
ENDTAB
  0
ENDSEC
  0
SECTION
  2
BLOCKS
  0
BLOCK
  5
20
100
AcDbEntity
  8
0
100
AcDbBlockBegin
  2
*MODEL_SPACE
 70
0
 10
0.0
 20
0.0
 30
0.0
  3
*MODEL_SPACE
  1

  0
ENDBLK
  5
21
100
AcDbEntity
  8
0
100
AcDbBlockEnd
  0
BLOCK
  5
1C
100
AcDbEntity
  8
0
100
AcDbBlockBegin
  2
*PAPER_SPACE
 70
0
 10
0.0
 20
0.0
 30
0.0
  3
*PAPER_SPACE
  1

  0
ENDBLK
  5
1D
100
AcDbEntity
  8
0
100
AcDbBlockEnd
  0
BLOCK
  5
229
100
AcDbEntity
  8
0
100
AcDbBlockBegin
 62
2
  6
CONTINUOUS
  2
LOGO2_BL0
 70
64
 10
332.9969085068
 20
37.4757791308
  3
LOGO2_BL0
  1

  0
LINE
  5
22A
100
AcDbEntity
  8
0
100
AcDbLine
 62
7
  6
CONTINUOUS
 10
324.739833735
 20
40.6712704697
 11
323.4354928056
 21
40.6712704697
  0
LINE
  5
22B
100
AcDbEntity
  8
0
100
AcDbLine
 62
7
  6
CONTINUOUS
 10
323.4354928056
 20
40.6712704697
 11
323.4354928056
 21
30.2122044098
  0
LINE
  5
22C
100
AcDbEntity
  8
0
100
AcDbLine
 62
7
  6
CONTINUOUS
 10
323.4354928056
 20
30.2122044098
 11
327.9165476939
 21
30.2122044098
  0
LINE
  5
22D
100
AcDbEntity
  8
0
100
AcDbLine
 62
7
  6
CONTINUOUS
 10
327.9165476939
 20
30.2122044098
 11
327.9165476939
 21
31.4050587348
  0
LINE
  5
22E
100
AcDbEntity
  8
0
100
AcDbLine
 62
7
  6
CONTINUOUS
 10
327.9165476939
 20
31.4050587348
 11
324.739833735
 21
31.4050587348
  0
LINE
  5
22F
100
AcDbEntity
  8
0
100
AcDbLine
 62
7
  6
CONTINUOUS
 10
324.739833735
 20
31.4050587348
 11
324.739833735
 21
40.6712704697
  0
LINE
  5
230
100
AcDbEntity
  8
0
100
AcDbLine
 62
7
  6
CONTINUOUS
 10
339.6761599513
 20
40.6712704697
 11
338.3723424332
 21
40.6712704697
  0
LINE
  5
231
100
AcDbEntity
  8
0
100
AcDbLine
 62
7
  6
CONTINUOUS
 10
338.3723424332
 20
40.6712704697
 11
338.3723424332
 21
30.2122044098
  0
LINE
  5
232
100
AcDbEntity
  8
0
100
AcDbLine
 62
7
  6
CONTINUOUS
 10
338.3723424332
 20
30.2122044098
 11
342.8535281743
 21
30.2122044098
  0
LINE
  5
233
100
AcDbEntity
  8
0
100
AcDbLine
 62
7
  6
CONTINUOUS
 10
342.8535281743
 20
30.2122044098
 11
342.8535281743
 21
31.4050587348
  0
LINE
  5
234
100
AcDbEntity
  8
0
100
AcDbLine
 62
7
  6
CONTINUOUS
 10
342.8535281743
 20
31.4050587348
 11
339.6761599513
 21
31.4050587348
  0
LINE
  5
235
100
AcDbEntity
  8
0
100
AcDbLine
 62
7
  6
CONTINUOUS
 10
339.6761599513
 20
31.4050587348
 11
339.6761599513
 21
40.6712704697
  0
LWPOLYLINE
  5
236
100
AcDbEntity
  8
0
100
AcDbPolyline
 62
7
  6
CONTINUOUS
 90
2
 70
0
 43
0.2
 10
321.7898877165
 20
26.8686531029
 10
321.7898877165
 20
25.0115898535
  0
LWPOLYLINE
  5
237
100
AcDbEntity
  8
0
100
AcDbPolyline
 62
7
  6
CONTINUOUS
 90
2
 70
0
 43
0.2
 10
321.7898877165
 20
25.0115898535
 10
322.5856037269
 20
25.0115898535
  0
LWPOLYLINE
  5
238
100
AcDbEntity
  8
0
100
AcDbPolyline
 62
7
  6
CONTINUOUS
 90
2
 70
0
 43
0.2
 10
322.5856037269
 20
25.0115898535
 10
322.5856037269
 20
25.2235714251
  0
LWPOLYLINE
  5
239
100
AcDbEntity
  8
0
100
AcDbPolyline
 62
7
  6
CONTINUOUS
 90
2
 70
0
 43
0.2
 10
322.5856037269
 20
25.2235714251
 10
322.0214972114
 20
25.2235714251
  0
LWPOLYLINE
  5
23A
100
AcDbEntity
  8
0
100
AcDbPolyline
 62
7
  6
CONTINUOUS
 90
2
 70
0
 43
0.2
 10
322.0214972114
 20
25.2235714251
 10
322.0214972114
 20
26.8686531029
  0
LWPOLYLINE
  5
23B
100
AcDbEntity
  8
0
100
AcDbPolyline
 62
7
  6
CONTINUOUS
 90
2
 70
0
 43
0.2
 10
322.0214972114
 20
26.8686531029
 10
321.7898877165
 20
26.8686531029
  0
SPLINE
  5
23C
100
AcDbEntity
  8
0
100
AcDbSpline
 62
7
  6
CONTINUOUS
 70
2
 71
3
 72
35
 73
31
 74
0
 42
0.0000001
 43
0.0000001
 44
0.0000000001
 40
0.0
 40
0.0
 40
0.0
 40
0.0
 40
1.0
 40
1.0
 40
1.0
 40
2.0
 40
2.0
 40
2.0
 40
3.0
 40
3.0
 40
3.0
 40
4.0
 40
4.0
 40
4.0
 40
5.0
 40
5.0
 40
5.0
 40
6.0
 40
6.0
 40
6.0
 40
7.0
 40
7.0
 40
7.0
 40
8.0
 40
8.0
 40
8.0
 40
9.0
 40
9.0
 40
9.0
 40
10.0
 40
10.0
 40
10.0
 40
10.0
 10
323.9838969824
 20
26.1641415094
 30
0.0
 10
323.9838969824
 20
26.1641415094
 30
0.0
 10
323.9838969824
 20
25.5020262302
 30
0.0
 10
323.9838969824
 20
25.5020262302
 30
0.0
 10
323.9838969824
 20
25.186932635
 30
0.0
 10
324.1317606713
 20
24.9723340069
 30
0.0
 10
324.4718471556
 20
24.9723340069
 30
0.0
 10
324.8114102286
 20
24.9723340069
 30
0.0
 10
324.959535623
 20
25.186932635
 30
0.0
 10
324.959535623
 20
25.5020262302
 30
0.0
 10
324.959535623
 20
25.5020262302
 30
0.0
 10
324.959535623
 20
26.1641415094
 30
0.0
 10
324.959535623
 20
26.1641415094
 30
0.0
 10
324.959535623
 20
26.1641415094
 30
0.0
 10
324.7374783842
 20
26.1641415094
 30
0.0
 10
324.7374783842
 20
26.1641415094
 30
0.0
 10
324.7374783842
 20
26.1641415094
 30
0.0
 10
324.7374783842
 20
25.5271499721
 30
0.0
 10
324.7374783842
 20
25.5271499721
 30
0.0
 10
324.7374783842
 20
25.3413389649
 30
0.0
 10
324.6907639267
 20
25.1785580543
 30
0.0
 10
324.4718471556
 20
25.1785580543
 30
0.0
 10
324.2524069731
 20
25.1785580543
 30
0.0
 10
324.2056925157
 20
25.3413389649
 30
0.0
 10
324.2056925157
 20
25.5271499721
 30
0.0
 10
324.2056925157
 20
25.5271499721
 30
0.0
 10
324.2056925157
 20
26.1641415094
 30
0.0
 10
324.2056925157
 20
26.1641415094
 30
0.0
 10
324.2056925157
 20
26.1641415094
 30
0.0
 10
323.9838969824
 20
26.1641415094
 30
0.0
 10
323.9838969824
 20
26.1641415094
 30
0.0
  0
SPLINE
  5
23D
100
AcDbEntity
  8
0
100
AcDbSpline
 62
7
  6
CONTINUOUS
 70
2
 71
3
 72
35
 73
31
 74
0
 42
0.0000001
 43
0.0000001
 44
0.0000000001
 40
0.0
 40
0.0
 40
0.0
 40
0.0
 40
1.0
 40
1.0
 40
1.0
 40
2.0
 40
2.0
 40
2.0
 40
3.0
 40
3.0
 40
3.0
 40
4.0
 40
4.0
 40
4.0
 40
5.0
 40
5.0
 40
5.0
 40
6.0
 40
6.0
 40
6.0
 40
7.0
 40
7.0
 40
7.0
 40
8.0
 40
8.0
 40
8.0
 40
9.0
 40
9.0
 40
9.0
 40
10.0
 40
10.0
 40
10.0
 40
10.0
 10
327.3826681802
 20
26.1227920177
 30
0.0
 10
327.2942116726
 20
26.1740863239
 30
0.0
 10
327.1807622759
 20
26.1992100657
 30
0.0
 10
327.0771268409
 20
26.1992100657
 30
0.0
 10
326.7222539878
 20
26.1992100657
 30
0.0
 10
326.4468087975
 20
25.9354107766
 30
0.0
 10
326.4468087975
 20
25.577920867
 30
0.0
 10
326.4468087975
 20
25.2329928283
 30
0.0
 10
326.7252636027
 20
24.9728574182
 30
0.0
 10
327.0648266757
 20
24.9728574182
 30
0.0
 10
327.1807622759
 20
24.9728574182
 30
0.0
 10
327.2815189489
 20
24.9948406923
 30
0.0
 10
327.3826681802
 20
25.048752055
 30
0.0
 10
327.3826681802
 20
25.048752055
 30
0.0
 10
327.3826681802
 20
25.3313941504
 30
0.0
 10
327.3826681802
 20
25.3313941504
 30
0.0
 10
327.2987915214
 20
25.2382269412
 30
0.0
 10
327.1952869392
 20
25.1790814656
 30
0.0
 10
327.0671820265
 20
25.1790814656
 30
0.0
 10
326.8334788864
 20
25.1790814656
 30
0.0
 10
326.6682117723
 20
25.3512837793
 30
0.0
 10
326.6682117723
 20
25.5878656815
 30
0.0
 10
326.6682117723
 20
25.799847253
 30
0.0
 10
326.8359650901
 20
25.9919391957
 30
0.0
 10
327.0527882161
 20
25.9919391957
 30
0.0
 10
327.1856038304
 20
25.9919391957
 30
0.0
 10
327.2942116726
 20
25.938027833
 30
0.0
 10
327.3826681802
 20
25.8370094545
 30
0.0
 10
327.3826681802
 20
25.8370094545
 30
0.0
 10
327.3826681802
 20
26.1227920177
 30
0.0
 10
327.3826681802
 20
26.1227920177
 30
0.0
  0
SPLINE
  5
23E
100
AcDbEntity
  8
0
100
AcDbSpline
 62
7
  6
CONTINUOUS
 70
2
 71
3
 72
32
 73
28
 74
0
 42
0.0000001
 43
0.0000001
 44
0.0000000001
 40
0.0
 40
0.0
 40
0.0
 40
0.0
 40
1.0
 40
1.0
 40
1.0
 40
2.0
 40
2.0
 40
2.0
 40
3.0
 40
3.0
 40
3.0
 40
4.0
 40
4.0
 40
4.0
 40
5.0
 40
5.0
 40
5.0
 40
6.0
 40
6.0
 40
6.0
 40
7.0
 40
7.0
 40
7.0
 40
8.0
 40
8.0
 40
8.0
 40
9.0
 40
9.0
 40
9.0
 40
9.0
 10
329.9145394325
 20
25.5512268913
 30
0.0
 10
329.9145394325
 20
25.5512268913
 30
0.0
 10
329.9145394325
 20
25.585248625
 30
0.0
 10
329.9145394325
 20
25.585248625
 30
0.0
 10
329.9145394325
 20
25.9275596073
 30
0.0
 10
329.7416828547
 20
26.1992100657
 30
0.0
 10
329.3750332475
 20
26.1992100657
 30
0.0
 10
329.0034112331
 20
26.1992100657
 30
0.0
 10
328.8136746413
 20
25.9327937202
 30
0.0
 10
328.8136746413
 20
25.577920867
 30
0.0
 10
328.8136746413
 20
25.2382269412
 30
0.0
 10
329.027749858
 20
24.9723340069
 30
0.0
 10
329.3798748019
 20
24.9723340069
 30
0.0
 10
329.6038948331
 20
24.9723340069
 30
0.0
 10
329.8060624431
 20
25.0880079015
 30
0.0
 10
329.9145394325
 20
25.2874276022
 30
0.0
 10
329.9145394325
 20
25.2874276022
 30
0.0
 10
329.7268964858
 20
25.3942035049
 30
0.0
 10
329.7268964858
 20
25.3942035049
 30
0.0
 10
329.6434123854
 20
25.2554995137
 30
0.0
 10
329.5522079685
 20
25.1696600625
 30
0.0
 10
329.3826227112
 20
25.1696600625
 30
0.0
 10
329.1706411396
 20
25.1696600625
 30
0.0
 10
329.0376946725
 20
25.3544242471
 30
0.0
 10
329.0353393217
 20
25.5512268913
 30
0.0
 10
329.0353393217
 20
25.5512268913
 30
0.0
 10
329.9145394325
 20
25.5512268913
 30
0.0
 10
329.9145394325
 20
25.5512268913
 30
0.0
  0
SPLINE
  5
23F
100
AcDbEntity
  8
0
100
AcDbSpline
 62
7
  6
CONTINUOUS
 70
2
 71
3
 72
14
 73
10
 74
0
 42
0.0000001
 43
0.0000001
 44
0.0000000001
 40
0.0
 40
0.0
 40
0.0
 40
0.0
 40
1.0
 40
1.0
 40
1.0
 40
2.0
 40
2.0
 40
2.0
 40
3.0
 40
3.0
 40
3.0
 40
3.0
 10
329.0473777813
 20
25.7187185034
 30
0.0
 10
329.0749877267
 20
25.8835930591
 30
0.0
 10
329.2028309338
 20
26.0065947118
 30
0.0
 10
329.3750332475
 20
26.0065947118
 30
0.0
 10
329.5522079685
 20
26.0065947118
 30
0.0
 10
329.6656573651
 20
25.8909208171
 30
0.0
 10
329.6928747521
 20
25.7187185034
 30
0.0
 10
329.6928747521
 20
25.7187185034
 30
0.0
 10
329.0473777813
 20
25.7187185034
 30
0.0
 10
329.0473777813
 20
25.7187185034
 30
0.0
  0
SPLINE
  5
240
100
AcDbEntity
  8
0
100
AcDbSpline
 62
7
  6
CONTINUOUS
 70
2
 71
3
 72
20
 73
16
 74
0
 42
0.0000001
 43
0.0000001
 44
0.0000000001
 40
0.0
 40
0.0
 40
0.0
 40
0.0
 40
1.0
 40
1.0
 40
1.0
 40
2.0
 40
2.0
 40
2.0
 40
3.0
 40
3.0
 40
3.0
 40
4.0
 40
4.0
 40
4.0
 40
5.0
 40
5.0
 40
5.0
 40
5.0
 10
331.9385708827
 20
25.9280830186
 30
0.0
 10
331.9385708827
 20
25.9280830186
 30
0.0
 10
332.3497104493
 20
25.4256081822
 30
0.0
 10
332.3497104493
 20
25.4256081822
 30
0.0
 10
332.2336439962
 20
25.3099342876
 30
0.0
 10
332.0958559747
 20
25.1796048769
 30
0.0
 10
331.9239153666
 20
25.1796048769
 30
0.0
 10
331.74647894
 20
25.1796048769
 30
0.0
 10
331.5789873279
 20
25.3439560213
 30
0.0
 10
331.5789873279
 20
25.5208690366
 30
0.0
 10
331.5789873279
 20
25.6988288745
 30
0.0
 10
331.7887444015
 20
25.8249709949
 30
0.0
 10
331.9163259029
 20
25.9129040912
 30
0.0
 10
331.9163259029
 20
25.9129040912
 30
0.0
 10
331.9385708827
 20
25.9280830186
 30
0.0
 10
331.9385708827
 20
25.9280830186
 30
0.0
  0
SPLINE
  5
241
100
AcDbEntity
  8
0
100
AcDbSpline
 62
7
  6
CONTINUOUS
 70
2
 71
3
 72
23
 73
19
 74
0
 42
0.0000001
 43
0.0000001
 44
0.0000000001
 40
0.0
 40
0.0
 40
0.0
 40
0.0
 40
1.0
 40
1.0
 40
1.0
 40
2.0
 40
2.0
 40
2.0
 40
3.0
 40
3.0
 40
3.0
 40
4.0
 40
4.0
 40
4.0
 40
5.0
 40
5.0
 40
5.0
 40
6.0
 40
6.0
 40
6.0
 40
6.0
 10
331.9879023966
 20
26.2190996946
 30
0.0
 10
331.9879023966
 20
26.2190996946
 30
0.0
 10
331.9262707174
 20
26.2976113878
 30
0.0
 10
331.9262707174
 20
26.2976113878
 30
0.0
 10
331.8723593548
 20
26.3661782665
 30
0.0
 10
331.81556923
 20
26.4352685565
 30
0.0
 10
331.81556923
 20
26.5289591771
 30
0.0
 10
331.81556923
 20
26.6477735394
 30
0.0
 10
331.9114843485
 20
26.72523841
 30
0.0
 10
332.0224475416
 20
26.72523841
 30
0.0
 10
332.1457108999
 20
26.72523841
 30
0.0
 10
332.2390089619
 20
26.6540544749
 30
0.0
 10
332.2390089619
 20
26.5237250642
 30
0.0
 10
332.2390089619
 20
26.3886849519
 30
0.0
 10
332.1109040492
 20
26.3122669039
 30
0.0
 10
332.0173442815
 20
26.2384659123
 30
0.0
 10
332.0173442815
 20
26.2384659123
 30
0.0
 10
331.9879023966
 20
26.2190996946
 30
0.0
 10
331.9879023966
 20
26.2190996946
 30
0.0
  0
SPLINE
  5
242
100
AcDbEntity
  8
0
100
AcDbSpline
 62
7
  6
CONTINUOUS
 70
2
 71
3
 72
50
 73
46
 74
0
 42
0.0000001
 43
0.0000001
 44
0.0000000001
 40
0.0
 40
0.0
 40
0.0
 40
0.0
 40
1.0
 40
1.0
 40
1.0
 40
2.0
 40
2.0
 40
2.0
 40
3.0
 40
3.0
 40
3.0
 40
4.0
 40
4.0
 40
4.0
 40
5.0
 40
5.0
 40
5.0
 40
6.0
 40
6.0
 40
6.0
 40
7.0
 40
7.0
 40
7.0
 40
8.0
 40
8.0
 40
8.0
 40
9.0
 40
9.0
 40
9.0
 40
10.0
 40
10.0
 40
10.0
 40
11.0
 40
11.0
 40
11.0
 40
12.0
 40
12.0
 40
12.0
 40
13.0
 40
13.0
 40
13.0
 40
14.0
 40
14.0
 40
14.0
 40
15.0
 40
15.0
 40
15.0
 40
15.0
 10
332.6900586392
 20
25.0121132648
 30
0.0
 10
332.6900586392
 20
25.0121132648
 30
0.0
 10
332.9754486439
 20
25.0121132648
 30
0.0
 10
332.9754486439
 20
25.0121132648
 30
0.0
 10
332.9754486439
 20
25.0121132648
 30
0.0
 10
332.6430824762
 20
25.4229911258
 30
0.0
 10
332.6430824762
 20
25.4229911258
 30
0.0
 10
332.6430824762
 20
25.4229911258
 30
0.0
 10
332.869588711
 20
25.68888406
 30
0.0
 10
332.869588711
 20
25.68888406
 30
0.0
 10
332.869588711
 20
25.68888406
 30
0.0
 10
332.7213324637
 20
25.8417201561
 30
0.0
 10
332.7213324637
 20
25.8417201561
 30
0.0
 10
332.7213324637
 20
25.8417201561
 30
0.0
 10
332.5054253074
 20
25.5904827379
 30
0.0
 10
332.5054253074
 20
25.5904827379
 30
0.0
 10
332.5054253074
 20
25.5904827379
 30
0.0
 10
332.1183626601
 20
26.0584124293
 30
0.0
 10
332.1183626601
 20
26.0584124293
 30
0.0
 10
332.2738158126
 20
26.17251609
 30
0.0
 10
332.4560937936
 20
26.3122669039
 30
0.0
 10
332.4560937936
 20
26.521631419
 30
0.0
 10
332.4560937936
 20
26.7655410792
 30
0.0
 10
332.2540570364
 20
26.908955772
 30
0.0
 10
332.0275508016
 20
26.908955772
 30
0.0
 10
331.7833794358
 20
26.908955772
 30
0.0
 10
331.5990078097
 20
26.7582133211
 30
0.0
 10
331.5990078097
 20
26.5017417901
 30
0.0
 10
331.5990078097
 20
26.3441949924
 30
0.0
 10
331.6976708374
 20
26.2065378237
 30
0.0
 10
331.8030073591
 20
26.0955746307
 30
0.0
 10
331.8030073591
 20
26.0955746307
 30
0.0
 10
331.6874643173
 20
26.0118288246
 30
0.0
 10
331.6874643173
 20
26.0118288246
 30
0.0
 10
331.5097661851
 20
25.8835930591
 30
0.0
 10
331.3624259076
 20
25.7558807049
 30
0.0
 10
331.3624259076
 20
25.5187753915
 30
0.0
 10
331.3624259076
 20
25.1984476833
 30
0.0
 10
331.6209910838
 20
24.9723340069
 30
0.0
 10
331.9313739775
 20
24.9723340069
 30
0.0
 10
332.1502907486
 20
24.9723340069
 30
0.0
 10
332.3474859513
 20
25.0974293047
 30
0.0
 10
332.4877601765
 20
25.263350683
 30
0.0
 10
332.4877601765
 20
25.263350683
 30
0.0
 10
332.6900586392
 20
25.0121132648
 30
0.0
 10
332.6900586392
 20
25.0121132648
 30
0.0
  0
LWPOLYLINE
  5
243
100
AcDbEntity
  8
0
100
AcDbPolyline
 62
7
  6
CONTINUOUS
 90
2
 70
0
 43
0.2
 10
334.625502729
 20
26.8686531029
 10
334.3941549397
 20
26.8686531029
  0
LWPOLYLINE
  5
244
100
AcDbEntity
  8
0
100
AcDbPolyline
 62
7
  6
CONTINUOUS
 90
2
 70
0
 43
0.2
 10
334.3941549397
 20
26.8686531029
 10
334.3941549397
 20
25.0115898535
  0
LWPOLYLINE
  5
245
100
AcDbEntity
  8
0
100
AcDbPolyline
 62
7
  6
CONTINUOUS
 90
2
 70
0
 43
0.2
 10
334.3941549397
 20
25.0115898535
 10
335.1894783916
 20
25.0115898535
  0
LWPOLYLINE
  5
246
100
AcDbEntity
  8
0
100
AcDbPolyline
 62
7
  6
CONTINUOUS
 90
2
 70
0
 43
0.2
 10
335.1894783916
 20
25.0115898535
 10
335.1894783916
 20
25.2235714251
  0
LWPOLYLINE
  5
247
100
AcDbEntity
  8
0
100
AcDbPolyline
 62
7
  6
CONTINUOUS
 90
2
 70
0
 43
0.2
 10
335.1894783916
 20
25.2235714251
 10
334.625502729
 20
25.2235714251
  0
LWPOLYLINE
  5
248
100
AcDbEntity
  8
0
100
AcDbPolyline
 62
7
  6
CONTINUOUS
 90
2
 70
0
 43
0.2
 10
334.625502729
 20
25.2235714251
 10
334.625502729
 20
26.8686531029
  0
LWPOLYLINE
  5
249
100
AcDbEntity
  8
0
100
AcDbPolyline
 62
7
  6
CONTINUOUS
 90
2
 70
0
 43
0.2
 10
336.8685818031
 20
26.1641415094
 10
336.647440534
 20
26.1641415094
  0
LWPOLYLINE
  5
24A
100
AcDbEntity
  8
0
100
AcDbPolyline
 62
7
  6
CONTINUOUS
 90
2
 70
0
 43
0.2
 10
336.647440534
 20
26.1641415094
 10
336.647440534
 20
25.0121132648
  0
LWPOLYLINE
  5
24B
100
AcDbEntity
  8
0
100
AcDbPolyline
 62
7
  6
CONTINUOUS
 90
2
 70
0
 43
0.2
 10
336.647440534
 20
25.0121132648
 10
336.8685818031
 20
25.0121132648
  0
LWPOLYLINE
  5
24C
100
AcDbEntity
  8
0
100
AcDbPolyline
 62
7
  6
CONTINUOUS
 90
2
 70
0
 43
0.2
 10
336.8685818031
 20
25.0121132648
 10
336.8685818031
 20
26.1641415094
  0
LWPOLYLINE
  5
24D
100
AcDbEntity
  8
0
100
AcDbPolyline
 62
7
  6
CONTINUOUS
 90
2
 70
1
 43
0.2
 10
336.6055585259
 20
26.6940954384
 42
1.0
 10
336.9107255168
 20
26.6940954384
 42
1.0
  0
SPLINE
  5
24E
100
AcDbEntity
  8
0
100
AcDbSpline
 62
7
  6
CONTINUOUS
 70
2
 71
3
 72
17
 73
13
 74
0
 42
0.0000001
 43
0.0000001
 44
0.0000000001
 40
0.0
 40
0.0
 40
0.0
 40
0.0
 40
1.0
 40
1.0
 40
1.0
 40
2.0
 40
2.0
 40
2.0
 40
3.0
 40
3.0
 40
3.0
 40
4.0
 40
4.0
 40
4.0
 40
4.0
 10
338.9988657448
 20
25.1696600625
 30
0.0
 10
338.7649008991
 20
25.1696600625
 30
0.0
 10
338.6345714884
 20
25.3716968196
 30
0.0
 10
338.6345714884
 20
25.5878656815
 30
0.0
 10
338.6345714884
 20
25.8024643095
 30
0.0
 10
338.7703967176
 20
26.0013605989
 30
0.0
 10
338.9988657448
 20
26.0013605989
 30
0.0
 10
339.238326409
 20
26.0013605989
 30
0.0
 10
339.3738899325
 20
25.812409124
 30
0.0
 10
339.3738899325
 20
25.5878656815
 30
0.0
 10
339.3738899325
 20
25.3617520051
 30
0.0
 10
339.2406817598
 20
25.1696600625
 30
0.0
 10
338.9988657448
 20
25.1696600625
 30
0.0
  0
SPLINE
  5
24F
100
AcDbEntity
  8
0
100
AcDbSpline
 62
7
  6
CONTINUOUS
 70
2
 71
3
 72
50
 73
46
 74
0
 42
0.0000001
 43
0.0000001
 44
0.0000000001
 40
0.0
 40
0.0
 40
0.0
 40
0.0
 40
1.0
 40
1.0
 40
1.0
 40
2.0
 40
2.0
 40
2.0
 40
3.0
 40
3.0
 40
3.0
 40
4.0
 40
4.0
 40
4.0
 40
5.0
 40
5.0
 40
5.0
 40
6.0
 40
6.0
 40
6.0
 40
7.0
 40
7.0
 40
7.0
 40
8.0
 40
8.0
 40
8.0
 40
9.0
 40
9.0
 40
9.0
 40
10.0
 40
10.0
 40
10.0
 40
11.0
 40
11.0
 40
11.0
 40
12.0
 40
12.0
 40
12.0
 40
13.0
 40
13.0
 40
13.0
 40
14.0
 40
14.0
 40
14.0
 40
15.0
 40
15.0
 40
15.0
 40
15.0
 10
339.582992742
 20
26.1646649207
 30
0.0
 10
339.582992742
 20
26.1646649207
 30
0.0
 10
339.3613280616
 20
26.1646649207
 30
0.0
 10
339.3613280616
 20
26.1646649207
 30
0.0
 10
339.3613280616
 20
26.1646649207
 30
0.0
 10
339.3613280616
 20
25.9673388652
 30
0.0
 10
339.3613280616
 20
25.9673388652
 30
0.0
 10
339.3613280616
 20
25.9673388652
 30
0.0
 10
339.35661736
 20
25.9673388652
 30
0.0
 10
339.35661736
 20
25.9673388652
 30
0.0
 10
339.2652820903
 20
26.1102301468
 30
0.0
 10
339.1273632159
 20
26.1986866544
 30
0.0
 10
338.9546374909
 20
26.1986866544
 30
0.0
 10
338.6222713231
 20
26.1986866544
 30
0.0
 10
338.4131685136
 20
25.9108104461
 30
0.0
 10
338.4131685136
 20
25.5951934395
 30
0.0
 10
338.4131685136
 20
25.2654443281
 30
0.0
 10
338.6102328635
 20
24.9723340069
 30
0.0
 10
338.9651057167
 20
24.9723340069
 30
0.0
 10
339.1273632159
 20
24.9723340069
 30
0.0
 10
339.2673757354
 20
25.0607905146
 30
0.0
 10
339.35661736
 20
25.1916433365
 30
0.0
 10
339.35661736
 20
25.1916433365
 30
0.0
 10
339.3613280616
 20
25.1916433365
 30
0.0
 10
339.3613280616
 20
25.1916433365
 30
0.0
 10
339.3613280616
 20
25.1916433365
 30
0.0
 10
339.3613280616
 20
24.9723340069
 30
0.0
 10
339.3613280616
 20
24.9723340069
 30
0.0
 10
339.3613280616
 20
24.7357521048
 30
0.0
 10
339.3047996425
 20
24.548894275
 30
0.0
 10
339.0315789502
 20
24.548894275
 30
0.0
 10
338.8292804875
 20
24.548894275
 30
0.0
 10
338.6866509115
 20
24.6671852261
 30
0.0
 10
338.6866509115
 20
24.8734092735
 30
0.0
 10
338.6866509115
 20
24.8734092735
 30
0.0
 10
338.4649862311
 20
24.8734092735
 30
0.0
 10
338.4649862311
 20
24.8734092735
 30
0.0
 10
338.4699586384
 20
24.548894275
 30
0.0
 10
338.701044722
 20
24.3520916308
 30
0.0
 10
339.0213724301
 20
24.3520916308
 30
0.0
 10
339.4694124926
 20
24.3520916308
 30
0.0
 10
339.582992742
 20
24.6373507827
 30
0.0
 10
339.582992742
 20
25.0340965389
 30
0.0
 10
339.582992742
 20
25.0340965389
 30
0.0
 10
339.582992742
 20
26.1646649207
 30
0.0
 10
339.582992742
 20
26.1646649207
 30
0.0
  0
SPLINE
  5
250
100
AcDbEntity
  8
0
100
AcDbSpline
 62
7
  6
CONTINUOUS
 70
2
 71
3
 72
44
 73
40
 74
0
 42
0.0000001
 43
0.0000001
 44
0.0000000001
 40
0.0
 40
0.0
 40
0.0
 40
0.0
 40
1.0
 40
1.0
 40
1.0
 40
2.0
 40
2.0
 40
2.0
 40
3.0
 40
3.0
 40
3.0
 40
4.0
 40
4.0
 40
4.0
 40
5.0
 40
5.0
 40
5.0
 40
6.0
 40
6.0
 40
6.0
 40
7.0
 40
7.0
 40
7.0
 40
8.0
 40
8.0
 40
8.0
 40
9.0
 40
9.0
 40
9.0
 40
10.0
 40
10.0
 40
10.0
 40
11.0
 40
11.0
 40
11.0
 40
12.0
 40
12.0
 40
12.0
 40
13.0
 40
13.0
 40
13.0
 40
13.0
 10
341.1519180774
 20
27.1497249645
 30
0.0
 10
341.1519180774
 20
27.1497249645
 30
0.0
 10
341.1519180774
 20
25.0115898535
 30
0.0
 10
341.1519180774
 20
25.0115898535
 30
0.0
 10
341.1519180774
 20
25.0115898535
 30
0.0
 10
341.3733210522
 20
25.0115898535
 30
0.0
 10
341.3733210522
 20
25.0115898535
 30
0.0
 10
341.3733210522
 20
25.0115898535
 30
0.0
 10
341.3733210522
 20
25.5412820768
 30
0.0
 10
341.3733210522
 20
25.5412820768
 30
0.0
 10
341.3733210522
 20
25.7511700033
 30
0.0
 10
341.3733210522
 20
26.0018840102
 30
0.0
 10
341.6585802041
 20
26.0018840102
 30
0.0
 10
341.8854789974
 20
26.0018840102
 30
0.0
 10
341.9124346787
 20
25.868937543
 30
0.0
 10
341.9124346787
 20
25.6726583101
 30
0.0
 10
341.9124346787
 20
25.6726583101
 30
0.0
 10
341.9124346787
 20
25.0115898535
 30
0.0
 10
341.9124346787
 20
25.0115898535
 30
0.0
 10
341.9124346787
 20
25.0115898535
 30
0.0
 10
342.1343610647
 20
25.0115898535
 30
0.0
 10
342.1343610647
 20
25.0115898535
 30
0.0
 10
342.1343610647
 20
25.0115898535
 30
0.0
 10
342.1343610647
 20
25.6988288745
 30
0.0
 10
342.1343610647
 20
25.6988288745
 30
0.0
 10
342.1343610647
 20
25.9793773248
 30
0.0
 10
342.050353553
 20
26.1992100657
 30
0.0
 10
341.7253151433
 20
26.1992100657
 30
0.0
 10
341.5855643294
 20
26.1992100657
 30
0.0
 10
341.4473837494
 20
26.1327368321
 30
0.0
 10
341.3780317538
 20
26.0097351795
 30
0.0
 10
341.3780317538
 20
26.0097351795
 30
0.0
 10
341.3733210522
 20
26.0097351795
 30
0.0
 10
341.3733210522
 20
26.0097351795
 30
0.0
 10
341.3733210522
 20
26.0097351795
 30
0.0
 10
341.3733210522
 20
27.1497249645
 30
0.0
 10
341.3733210522
 20
27.1497249645
 30
0.0
 10
341.3733210522
 20
27.1497249645
 30
0.0
 10
341.1519180774
 20
27.1497249645
 30
0.0
 10
341.1519180774
 20
27.1497249645
 30
0.0
  0
LWPOLYLINE
  5
251
100
AcDbEntity
  8
0
100
AcDbPolyline
 62
7
  6
CONTINUOUS
 90
2
 70
0
 43
0.2
 10
343.9741517416
 20
25.9573940507
 10
344.1905823091
 20
25.9573940507
  0
LWPOLYLINE
  5
252
100
AcDbEntity
  8
0
100
AcDbPolyline
 62
7
  6
CONTINUOUS
 90
2
 70
0
 43
0.2
 10
344.1905823091
 20
25.9573940507
 10
344.1905823091
 20
26.1641415094
  0
LWPOLYLINE
  5
253
100
AcDbEntity
  8
0
100
AcDbPolyline
 62
7
  6
CONTINUOUS
 90
2
 70
0
 43
0.2
 10
344.1905823091
 20
26.1641415094
 10
343.9741517416
 20
26.1641415094
  0
LWPOLYLINE
  5
254
100
AcDbEntity
  8
0
100
AcDbPolyline
 62
7
  6
CONTINUOUS
 90
2
 70
0
 43
0.2
 10
343.9741517416
 20
26.1641415094
 10
343.9741517416
 20
26.6048538138
  0
LWPOLYLINE
  5
255
100
AcDbEntity
  8
0
100
AcDbPolyline
 62
7
  6
CONTINUOUS
 90
2
 70
0
 43
0.2
 10
343.9741517416
 20
26.6048538138
 10
343.7524870612
 20
26.6048538138
  0
LWPOLYLINE
  5
256
100
AcDbEntity
  8
0
100
AcDbPolyline
 62
7
  6
CONTINUOUS
 90
2
 70
0
 43
0.2
 10
343.7524870612
 20
26.6048538138
 10
343.7524870612
 20
26.1641415094
  0
LWPOLYLINE
  5
257
100
AcDbEntity
  8
0
100
AcDbPolyline
 62
7
  6
CONTINUOUS
 90
2
 70
0
 43
0.2
 10
343.7524870612
 20
26.1641415094
 10
343.6318407593
 20
26.1641415094
  0
LWPOLYLINE
  5
258
100
AcDbEntity
  8
0
100
AcDbPolyline
 62
7
  6
CONTINUOUS
 90
2
 70
0
 43
0.2
 10
343.6318407593
 20
26.1641415094
 10
343.6318407593
 20
25.9573940507
  0
LWPOLYLINE
  5
259
100
AcDbEntity
  8
0
100
AcDbPolyline
 62
7
  6
CONTINUOUS
 90
2
 70
0
 43
0.2
 10
343.6318407593
 20
25.9573940507
 10
343.7524870612
 20
25.9573940507
  0
LWPOLYLINE
  5
25A
100
AcDbEntity
  8
0
100
AcDbPolyline
 62
7
  6
CONTINUOUS
 90
2
 70
0
 43
0.2
 10
343.7524870612
 20
25.9573940507
 10
343.7524870612
 20
25.0115898535
  0
LWPOLYLINE
  5
25B
100
AcDbEntity
  8
0
100
AcDbPolyline
 62
7
  6
CONTINUOUS
 90
2
 70
0
 43
0.2
 10
343.7524870612
 20
25.0115898535
 10
343.9741517416
 20
25.0115898535
  0
LWPOLYLINE
  5
25C
100
AcDbEntity
  8
0
100
AcDbPolyline
 62
7
  6
CONTINUOUS
 90
2
 70
0
 43
0.2
 10
343.9741517416
 20
25.0115898535
 10
343.9741517416
 20
25.9573940507
  0
SPLINE
  5
25D
100
AcDbEntity
  8
0
100
AcDbSpline
 62
7
  6
CONTINUOUS
 70
2
 71
3
 72
20
 73
16
 74
0
 42
0.0000001
 43
0.0000001
 44
0.0000000001
 40
0.0
 40
0.0
 40
0.0
 40
0.0
 40
1.0
 40
1.0
 40
1.0
 40
2.0
 40
2.0
 40
2.0
 40
3.0
 40
3.0
 40
3.0
 40
4.0
 40
4.0
 40
4.0
 40
5.0
 40
5.0
 40
5.0
 40
5.0
 10
331.7561620489
 20
35.3725162969
 30
0.0
 10
331.7561620489
 20
35.3725162969
 30
0.0
 10
334.0725187033
 20
32.5429548747
 30
0.0
 10
334.0725187033
 20
32.5429548747
 30
0.0
 10
333.4208716499
 20
31.89078441
 30
0.0
 10
332.6439984459
 20
31.1548681392
 30
0.0
 10
331.6728088013
 20
31.1548681392
 30
0.0
 10
330.6742709168
 20
31.1548681392
 30
0.0
 10
329.7309529233
 20
32.0844465865
 30
0.0
 10
329.7309529233
 20
33.083638735
 30
0.0
 10
329.7309529233
 20
34.0828308836
 30
0.0
 10
330.9098059964
 20
34.7894361222
 30
0.0
 10
331.6313284567
 20
35.2892939021
 30
0.0
 10
331.6313284567
 20
35.2892939021
 30
0.0
 10
331.7561620489
 20
35.3725162969
 30
0.0
 10
331.7561620489
 20
35.3725162969
 30
0.0
  0
SPLINE
  5
25E
100
AcDbEntity
  8
0
100
AcDbSpline
 62
7
  6
CONTINUOUS
 70
2
 71
3
 72
23
 73
19
 74
0
 42
0.0000001
 43
0.0000001
 44
0.0000000001
 40
0.0
 40
0.0
 40
0.0
 40
0.0
 40
1.0
 40
1.0
 40
1.0
 40
2.0
 40
2.0
 40
2.0
 40
3.0
 40
3.0
 40
3.0
 40
4.0
 40
4.0
 40
4.0
 40
5.0
 40
5.0
 40
5.0
 40
6.0
 40
6.0
 40
6.0
 40
6.0
 10
332.0335700314
 20
37.0102702166
 30
0.0
 10
332.0335700314
 20
37.0102702166
 30
0.0
 10
331.6870717589
 20
37.4535995775
 30
0.0
 10
331.6870717589
 20
37.4535995775
 30
0.0
 10
331.3812687139
 20
37.8417090474
 30
0.0
 10
331.0623803868
 20
38.2302110759
 30
0.0
 10
331.0623803868
 20
38.7571553899
 30
0.0
 10
331.0623803868
 20
39.4233271066
 30
0.0
 10
331.6037185113
 20
39.8670490258
 30
0.0
 10
332.2276247664
 20
39.8670490258
 30
0.0
 10
332.9214064285
 20
39.8670490258
 30
0.0
 10
333.4486124482
 20
39.4648074511
 30
0.0
 10
333.4486124482
 20
38.7298071501
 30
0.0
 10
333.4486124482
 20
37.9665426396
 30
0.0
 10
332.7273516935
 20
37.5364294138
 30
0.0
 10
332.2002765266
 20
37.1207099984
 30
0.0
 10
332.2002765266
 20
37.1207099984
 30
0.0
 10
332.0335700314
 20
37.0102702166
 30
0.0
 10
332.0335700314
 20
37.0102702166
 30
0.0
  0
SPLINE
  5
25F
100
AcDbEntity
  8
0
100
AcDbSpline
 62
7
  6
CONTINUOUS
 70
2
 71
3
 72
50
 73
46
 74
0
 42
0.0000001
 43
0.0000001
 44
0.0000000001
 40
0.0
 40
0.0
 40
0.0
 40
0.0
 40
1.0
 40
1.0
 40
1.0
 40
2.0
 40
2.0
 40
2.0
 40
3.0
 40
3.0
 40
3.0
 40
4.0
 40
4.0
 40
4.0
 40
5.0
 40
5.0
 40
5.0
 40
6.0
 40
6.0
 40
6.0
 40
7.0
 40
7.0
 40
7.0
 40
8.0
 40
8.0
 40
8.0
 40
9.0
 40
9.0
 40
9.0
 40
10.0
 40
10.0
 40
10.0
 40
11.0
 40
11.0
 40
11.0
 40
12.0
 40
12.0
 40
12.0
 40
13.0
 40
13.0
 40
13.0
 40
14.0
 40
14.0
 40
14.0
 40
15.0
 40
15.0
 40
15.0
 40
15.0
 10
335.9871571944
 20
30.2116809985
 30
0.0
 10
335.9871571944
 20
30.2116809985
 30
0.0
 10
337.5963851989
 20
30.2116809985
 30
0.0
 10
337.5963851989
 20
30.2116809985
 30
0.0
 10
337.5963851989
 20
30.2116809985
 30
0.0
 10
335.7233579053
 20
32.5288227699
 30
0.0
 10
335.7233579053
 20
32.5288227699
 30
0.0
 10
335.7233579053
 20
32.5288227699
 30
0.0
 10
336.9996963307
 20
34.0263024645
 30
0.0
 10
336.9996963307
 20
34.0263024645
 30
0.0
 10
336.9996963307
 20
34.0263024645
 30
0.0
 10
336.167472383
 20
34.887314033
 30
0.0
 10
336.167472383
 20
34.887314033
 30
0.0
 10
336.167472383
 20
34.887314033
 30
0.0
 10
334.9468772597
 20
33.4720099106
 30
0.0
 10
334.9468772597
 20
33.4720099106
 30
0.0
 10
334.9468772597
 20
33.4720099106
 30
0.0
 10
332.7689628909
 20
36.1073857451
 30
0.0
 10
332.7689628909
 20
36.1073857451
 30
0.0
 10
333.6425363303
 20
36.745424105
 30
0.0
 10
334.6692075715
 20
37.5364294138
 30
0.0
 10
334.6692075715
 20
38.7152824869
 30
0.0
 10
334.6692075715
 20
40.0889754119
 30
0.0
 10
333.5313114317
 20
40.8934585614
 30
0.0
 10
332.2560198288
 20
40.8934585614
 30
0.0
 10
330.8825886094
 20
40.8934585614
 30
0.0
 10
329.8416544106
 20
40.0472333617
 30
0.0
 10
329.8416544106
 20
38.6045809995
 30
0.0
 10
329.8416544106
 20
37.7170063081
 30
0.0
 10
330.3969937871
 20
36.9401331041
 30
0.0
 10
330.993159244
 20
36.3157034376
 30
0.0
 10
330.993159244
 20
36.3157034376
 30
0.0
 10
330.3412504849
 20
35.8441098673
 30
0.0
 10
330.3412504849
 20
35.8441098673
 30
0.0
 10
329.3427126005
 20
35.1228491126
 30
0.0
 10
328.5098343887
 20
34.4015883579
 30
0.0
 10
328.5098343887
 20
33.0700300416
 30
0.0
 10
328.5098343887
 20
31.2663547436
 30
0.0
 10
329.9668805613
 20
29.9897546124
 30
0.0
 10
331.7144199986
 20
29.9897546124
 30
0.0
 10
332.9492780796
 20
29.9897546124
 30
0.0
 10
334.0586483042
 20
30.6979300849
 30
0.0
 10
334.8495227602
 20
31.6264617096
 30
0.0
 10
334.8495227602
 20
31.6264617096
 30
0.0
 10
335.9871571944
 20
30.2116809985
 30
0.0
 10
335.9871571944
 20
30.2116809985
 30
0.0
  0
LINE
  5
260
100
AcDbEntity
  8
0
100
AcDbLine
 62
7
  6
CONTINUOUS
 10
321.7900185693
 20
28.1855559032
 11
344.203929297
 21
28.1855559032
  0
LINE
  5
261
100
AcDbEntity
  8
0
100
AcDbLine
 62
7
  6
CONTINUOUS
 10
344.203929297
 20
28.1855559032
 11
344.203929297
 21
50.5994666308
  0
LINE
  5
262
100
AcDbEntity
  8
0
100
AcDbLine
 62
7
  6
CONTINUOUS
 10
344.203929297
 20
50.5994666308
 11
321.7900185693
 21
50.5994666308
  0
LINE
  5
263
100
AcDbEntity
  8
0
100
AcDbLine
 62
7
  6
CONTINUOUS
 10
321.7900185693
 20
50.5994666308
 11
321.7900185693
 21
28.1855559032
  0
ENDBLK
  5
264
100
AcDbEntity
  8
0
  6
BYBLOCK
 62
0
100
AcDbBlockEnd
  0
BLOCK
  5
265
100
AcDbEntity
  8
0
100
AcDbBlockBegin
  2
_CLOSED
 70
64
 10
0.0
 20
0.0
  3
_CLOSED
  1

  0
LINE
  5
266
100
AcDbEntity
  8
0
  6
BYBLOCK
 62
0
100
AcDbLine
 10
0.0
 20
0.0
 11
-1.0
 21
0.2
  0
LINE
  5
267
100
AcDbEntity
  8
0
  6
BYBLOCK
 62
0
100
AcDbLine
 10
-1.0
 20
0.2
 11
-1.0
 21
-0.2
  0
LINE
  5
268
100
AcDbEntity
  8
0
  6
BYBLOCK
 62
0
100
AcDbLine
 10
-1.0
 20
-0.2
 11
0.0
 21
0.0
  0
LINE
  5
269
100
AcDbEntity
  8
0
  6
BYBLOCK
 62
0
100
AcDbLine
 10
-1.0
 20
0.0
 11
0.0
 21
0.0
  0
ENDBLK
  5
26A
100
AcDbEntity
  8
0
  6
BYBLOCK
 62
0
100
AcDbBlockEnd
  0
BLOCK
  5
26B
100
AcDbEntity
  8
0
100
AcDbBlockBegin
 62
2
  6
CONTINUOUS
  2
*D0
 70
65
 10
0.0
 20
0.0
  3
*D0
  1

  0
MTEXT
  5
26C
100
AcDbEntity
  8
0
100
AcDbMText
 62
2
  6
CONTINUOUS
  7
STANDARD
 71
2
 72
1
 10
205.2957450466
 20
244.2031786488
 30
0.0
 11
1.0
 21
0.0
 31
0.0
  1
M8
 40
3.0
 41
7.3928571429
  0
LINE
  5
26D
100
AcDbEntity
  8
0
100
AcDbLine
 62
2
  6
CONTINUOUS
 10
201.2957450466
 20
261.0283022828
 11
201.2957450466
 21
239.7031786488
  0
LINE
  5
26E
100
AcDbEntity
  8
0
100
AcDbLine
 62
2
  6
CONTINUOUS
 10
209.2957450466
 20
261.0283022828
 11
209.2957450466
 21
239.7031786488
  0
LINE
  5
26F
100
AcDbEntity
  8
0
100
AcDbLine
 62
2
  6
CONTINUOUS
 10
201.2957450466
 20
240.4531786488
 11
200.2957450466
 21
240.4531786488
  0
LINE
  5
270
100
AcDbEntity
  8
0
100
AcDbLine
 62
2
  6
CONTINUOUS
 10
200.2957450466
 20
240.4531786488
 11
205.2957450466
 21
240.4531786488
  0
LINE
  5
271
100
AcDbEntity
  8
0
100
AcDbLine
 62
2
  6
CONTINUOUS
 10
209.2957450466
 20
240.4531786488
 11
210.2957450466
 21
240.4531786488
  0
LINE
  5
272
100
AcDbEntity
  8
0
100
AcDbLine
 62
2
  6
CONTINUOUS
 10
210.2957450466
 20
240.4531786488
 11
205.2957450466
 21
240.4531786488
  0
INSERT
  5
273
100
AcDbEntity
  8
0
100
AcDbBlockReference
 62
2
  6
CONTINUOUS
  2
_CLOSED
 10
201.2957450466
 20
240.4531786488
 41
2.5
 42
2.5
 43
2.5
  0
INSERT
  5
274
100
AcDbEntity
  8
0
100
AcDbBlockReference
 62
2
  6
CONTINUOUS
  2
_CLOSED
 10
209.2957450466
 20
240.4531786488
 41
2.5
 42
2.5
 43
2.5
 50
180.0
  0
ENDBLK
  5
275
100
AcDbEntity
  8
0
  6
BYBLOCK
 62
0
100
AcDbBlockEnd
  0
BLOCK
  5
276
100
AcDbEntity
  8
0
100
AcDbBlockBegin
 62
2
  6
CONTINUOUS
  2
*D1
 70
65
 10
0.0
 20
0.0
  3
*D1
  1

  0
MTEXT
  5
277
100
AcDbEntity
  8
0
100
AcDbMText
 62
2
  6
CONTINUOUS
  7
STANDARD
 71
2
 72
1
 10
224.8888894237
 20
278.9783020276
 30
0.0
 11
0.0
 21
1.0
 31
0.0
  1
35
 40
3.0
 41
6.4285714286
  0
LINE
  5
278
100
AcDbEntity
  8
0
100
AcDbLine
 62
2
  6
CONTINUOUS
 10
220.4949907167
 20
261.4783022828
 11
229.3888894237
 21
261.4783022828
  0
LINE
  5
279
100
AcDbEntity
  8
0
100
AcDbLine
 62
2
  6
CONTINUOUS
 10
221.0097462077
 20
296.4783017724
 11
229.3888894237
 21
296.4783017724
  0
LINE
  5
27A
100
AcDbEntity
  8
0
100
AcDbLine
 62
2
  6
CONTINUOUS
 10
228.6388894237
 20
261.4783022828
 11
228.6388894237
 21
278.9783020276
  0
LINE
  5
27B
100
AcDbEntity
  8
0
100
AcDbLine
 62
2
  6
CONTINUOUS
 10
228.6388894237
 20
296.4783017724
 11
228.6388894237
 21
278.9783020276
  0
INSERT
  5
27C
100
AcDbEntity
  8
0
100
AcDbBlockReference
 62
2
  6
CONTINUOUS
  2
_CLOSED
 10
228.6388894237
 20
261.4783022828
 41
2.5
 42
2.5
 43
2.5
 50
270.0
  0
INSERT
  5
27D
100
AcDbEntity
  8
0
100
AcDbBlockReference
 62
2
  6
CONTINUOUS
  2
_CLOSED
 10
228.6388894237
 20
296.4783017724
 41
2.5
 42
2.5
 43
2.5
 50
90.0
  0
ENDBLK
  5
27E
100
AcDbEntity
  8
0
  6
BYBLOCK
 62
0
100
AcDbBlockEnd
  0
BLOCK
  5
27F
100
AcDbEntity
  8
0
100
AcDbBlockBegin
 62
2
  6
CONTINUOUS
  2
*D2
 70
65
 10
0.0
 20
0.0
  3
*D2
  1

  0
MTEXT
  5
280
100
AcDbEntity
  8
0
100
AcDbMText
 62
2
  6
CONTINUOUS
  7
STANDARD
 71
2
 72
1
 10
63.1340443567
 20
568.4004599278
 30
0.0
 11
1.0
 21
0.0
 31
0.0
  1
35
 40
3.0
 41
6.4285714286
  0
LINE
  5
281
100
AcDbEntity
  8
0
100
AcDbLine
 62
2
  6
CONTINUOUS
 10
45.6340443567
 20
557.7283022828
 11
45.6340443567
 21
565.4004599278
  0
LINE
  5
282
100
AcDbEntity
  8
0
100
AcDbLine
 62
2
  6
CONTINUOUS
 10
80.6340443567
 20
557.7283022828
 11
80.6340443567
 21
565.4004599278
  0
LINE
  5
283
100
AcDbEntity
  8
0
100
AcDbLine
 62
2
  6
CONTINUOUS
 10
45.6340443567
 20
564.6504599278
 11
63.1340443567
 21
564.6504599278
  0
LINE
  5
284
100
AcDbEntity
  8
0
100
AcDbLine
 62
2
  6
CONTINUOUS
 10
80.6340443567
 20
564.6504599278
 11
63.1340443567
 21
564.6504599278
  0
INSERT
  5
285
100
AcDbEntity
  8
0
100
AcDbBlockReference
 62
2
  6
CONTINUOUS
  2
_CLOSED
 10
45.6340443567
 20
564.6504599278
 41
2.5
 42
2.5
 43
2.5
 50
180.0
  0
INSERT
  5
286
100
AcDbEntity
  8
0
100
AcDbBlockReference
 62
2
  6
CONTINUOUS
  2
_CLOSED
 10
80.6340443567
 20
564.6504599278
 41
2.5
 42
2.5
 43
2.5
  0
ENDBLK
  5
287
100
AcDbEntity
  8
0
  6
BYBLOCK
 62
0
100
AcDbBlockEnd
  0
BLOCK
  5
288
100
AcDbEntity
  8
0
100
AcDbBlockBegin
 62
2
  6
CONTINUOUS
  2
*D3
 70
65
 10
0.0
 20
0.0
  3
*D3
  1

  0
MTEXT
  5
289
100
AcDbEntity
  8
0
100
AcDbMText
 62
2
  6
CONTINUOUS
  7
STANDARD
 71
2
 72
1
 10
33.6953236889
 20
543.4783022828
 30
0.0
 11
0.0
 21
1.0
 31
0.0
  1
Ø28
 40
3.0
 41
10.8964285714
  0
LINE
  5
28A
100
AcDbEntity
  8
0
100
AcDbLine
 62
2
  6
CONTINUOUS
 10
45.3840443567
 20
557.4783022828
 11
36.6953236889
 21
557.4783022828
  0
LINE
  5
28B
100
AcDbEntity
  8
0
100
AcDbLine
 62
2
  6
CONTINUOUS
 10
45.3840443567
 20
529.4783022828
 11
36.6953236889
 21
529.4783022828
  0
LINE
  5
28C
100
AcDbEntity
  8
0
100
AcDbLine
 62
2
  6
CONTINUOUS
 10
37.4453236889
 20
557.4783022828
 11
37.4453236889
 21
558.4783022828
  0
LINE
  5
28D
100
AcDbEntity
  8
0
100
AcDbLine
 62
2
  6
CONTINUOUS
 10
37.4453236889
 20
558.4783022828
 11
37.4453236889
 21
543.4783022828
  0
LINE
  5
28E
100
AcDbEntity
  8
0
100
AcDbLine
 62
2
  6
CONTINUOUS
 10
37.4453236889
 20
529.4783022828
 11
37.4453236889
 21
528.4783022828
  0
LINE
  5
28F
100
AcDbEntity
  8
0
100
AcDbLine
 62
2
  6
CONTINUOUS
 10
37.4453236889
 20
528.4783022828
 11
37.4453236889
 21
543.4783022828
  0
INSERT
  5
290
100
AcDbEntity
  8
0
100
AcDbBlockReference
 62
2
  6
CONTINUOUS
  2
_CLOSED
 10
37.4453236889
 20
557.4783022828
 41
2.5
 42
2.5
 43
2.5
 50
270.0
  0
INSERT
  5
291
100
AcDbEntity
  8
0
100
AcDbBlockReference
 62
2
  6
CONTINUOUS
  2
_CLOSED
 10
37.4453236889
 20
529.4783022828
 41
2.5
 42
2.5
 43
2.5
 50
90.0
  0
ENDBLK
  5
292
100
AcDbEntity
  8
0
  6
BYBLOCK
 62
0
100
AcDbBlockEnd
  0
BLOCK
  5
293
100
AcDbEntity
  8
0
100
AcDbBlockBegin
 62
2
  6
CONTINUOUS
  2
*D4
 70
65
 10
0.0
 20
0.0
  3
*D4
  1

  0
MTEXT
  5
294
100
AcDbEntity
  8
0
100
AcDbMText
 62
2
  6
CONTINUOUS
  7
STANDARD
 71
2
 72
1
 10
177.3441179448
 20
509.9783022828
 30
0.0
 11
0.0
 21
1.0
 31
0.0
  1
33
 40
3.0
 41
6.4285714286
  0
LINE
  5
295
100
AcDbEntity
  8
0
100
AcDbLine
 62
2
  6
CONTINUOUS
 10
199.5457450466
 20
526.4783022828
 11
180.3441179448
 21
526.4783022828
  0
LINE
  5
296
100
AcDbEntity
  8
0
100
AcDbLine
 62
2
  6
CONTINUOUS
 10
199.5457450466
 20
493.4783022828
 11
180.3441179448
 21
493.4783022828
  0
LINE
  5
297
100
AcDbEntity
  8
0
100
AcDbLine
 62
2
  6
CONTINUOUS
 10
181.0941179448
 20
526.4783022828
 11
181.0941179448
 21
509.9783022828
  0
LINE
  5
298
100
AcDbEntity
  8
0
100
AcDbLine
 62
2
  6
CONTINUOUS
 10
181.0941179448
 20
493.4783022828
 11
181.0941179448
 21
509.9783022828
  0
INSERT
  5
299
100
AcDbEntity
  8
0
100
AcDbBlockReference
 62
2
  6
CONTINUOUS
  2
_CLOSED
 10
181.0941179448
 20
526.4783022828
 41
2.5
 42
2.5
 43
2.5
 50
90.0
  0
INSERT
  5
29A
100
AcDbEntity
  8
0
100
AcDbBlockReference
 62
2
  6
CONTINUOUS
  2
_CLOSED
 10
181.0941179448
 20
493.4783022828
 41
2.5
 42
2.5
 43
2.5
 50
270.0
  0
ENDBLK
  5
29B
100
AcDbEntity
  8
0
  6
BYBLOCK
 62
0
100
AcDbBlockEnd
  0
BLOCK
  5
29C
100
AcDbEntity
  8
0
100
AcDbBlockBegin
 62
2
  6
CONTINUOUS
  2
*D5
 70
65
 10
0.0
 20
0.0
  3
*D5
  1

  0
MTEXT
  5
29D
100
AcDbEntity
  8
0
100
AcDbMText
 62
2
  6
CONTINUOUS
  7
STANDARD
 71
2
 72
1
 10
177.3441179448
 20
393.4783022828
 30
0.0
 11
0.0
 21
1.0
 31
0.0
  1
200-400mm
 40
3.0
 41
32.7857142857
  0
LINE
  5
29E
100
AcDbEntity
  8
0
100
AcDbLine
 62
2
  6
CONTINUOUS
 10
199.5457450466
 20
493.4783022828
 11
180.3441179448
 21
493.4783022828
  0
LINE
  5
29F
100
AcDbEntity
  8
0
100
AcDbLine
 62
2
  6
CONTINUOUS
 10
197.0457450466
 20
293.4783022828
 11
180.3441179448
 21
293.4783022828
  0
LINE
  5
2A0
100
AcDbEntity
  8
0
100
AcDbLine
 62
2
  6
CONTINUOUS
 10
181.0941179448
 20
493.4783022828
 11
181.0941179448
 21
393.4783022828
  0
LINE
  5
2A1
100
AcDbEntity
  8
0
100
AcDbLine
 62
2
  6
CONTINUOUS
 10
181.0941179448
 20
293.4783022828
 11
181.0941179448
 21
393.4783022828
  0
INSERT
  5
2A2
100
AcDbEntity
  8
0
100
AcDbBlockReference
 62
2
  6
CONTINUOUS
  2
_CLOSED
 10
181.0941179448
 20
493.4783022828
 41
2.5
 42
2.5
 43
2.5
 50
90.0
  0
INSERT
  5
2A3
100
AcDbEntity
  8
0
100
AcDbBlockReference
 62
2
  6
CONTINUOUS
  2
_CLOSED
 10
181.0941179448
 20
293.4783022828
 41
2.5
 42
2.5
 43
2.5
 50
270.0
  0
ENDBLK
  5
2A4
100
AcDbEntity
  8
0
  6
BYBLOCK
 62
0
100
AcDbBlockEnd
  0
BLOCK
  5
2A5
100
AcDbEntity
  8
0
100
AcDbBlockBegin
 62
2
  6
CONTINUOUS
  2
*D6
 70
65
 10
0.0
 20
0.0
  3
*D6
  1

  0
MTEXT
  5
2A6
100
AcDbEntity
  8
0
100
AcDbMText
 62
2
  6
CONTINUOUS
  7
STANDARD
 71
2
 72
1
 10
165.1576697476
 20
393.9783022828
 30
0.0
 11
0.0
 21
1.0
 31
0.0
  1
265
 40
3.0
 41
10.2857142857
  0
LINE
  5
2A7
100
AcDbEntity
  8
0
100
AcDbLine
 62
2
  6
CONTINUOUS
 10
199.5457450466
 20
526.4783022828
 11
168.1576697476
 21
526.4783022828
  0
LINE
  5
2A8
100
AcDbEntity
  8
0
100
AcDbLine
 62
2
  6
CONTINUOUS
 10
200.8457450466
 20
261.4783022828
 11
168.1576697476
 21
261.4783022828
  0
LINE
  5
2A9
100
AcDbEntity
  8
0
100
AcDbLine
 62
2
  6
CONTINUOUS
 10
168.9076697476
 20
526.4783022828
 11
168.9076697476
 21
393.9783022828
  0
LINE
  5
2AA
100
AcDbEntity
  8
0
100
AcDbLine
 62
2
  6
CONTINUOUS
 10
168.9076697476
 20
261.4783022828
 11
168.9076697476
 21
393.9783022828
  0
INSERT
  5
2AB
100
AcDbEntity
  8
0
100
AcDbBlockReference
 62
2
  6
CONTINUOUS
  2
_CLOSED
 10
168.9076697476
 20
526.4783022828
 41
2.5
 42
2.5
 43
2.5
 50
90.0
  0
INSERT
  5
2AC
100
AcDbEntity
  8
0
100
AcDbBlockReference
 62
2
  6
CONTINUOUS
  2
_CLOSED
 10
168.9076697476
 20
261.4783022828
 41
2.5
 42
2.5
 43
2.5
 50
270.0
  0
ENDBLK
  5
2AD
100
AcDbEntity
  8
0
  6
BYBLOCK
 62
0
100
AcDbBlockEnd
  0
ENDSEC
  0
SECTION
  2
ENTITIES
  0
DIMENSION
  5
2AE
100
AcDbEntity
  8
0
100
AcDbDimension
 62
2
  6
CONTINUOUS
  2
*D0
 10
209.2957450466
 20
240.4531786488
 11
205.2957450466
 21
240.4531786488
 70
160
  1
M<>
  3
DIMSTYLE_1
100
AcDbAlignedDimension
 13
201.2957450466
 23
261.7783022828
 14
209.2957450466
 24
261.7783022828
100
AcDbRotatedDimension
  0
DIMENSION
  5
2AF
100
AcDbEntity
  8
0
100
AcDbDimension
 62
2
  6
CONTINUOUS
  2
*D1
 10
228.6388894237
 20
296.4783017724
 11
228.6388894237
 21
278.5497156172
 70
160
  3
DIMSTYLE_2
100
AcDbAlignedDimension
 13
219.7449907167
 23
261.4783022828
 14
220.2597462077
 24
296.4783017724
 50
90.0
100
AcDbRotatedDimension
  0
DIMENSION
  5
2B0
100
AcDbEntity
  8
0
100
AcDbDimension
 62
2
  6
CONTINUOUS
  2
*D2
 10
80.6340443567
 20
564.6504599278
 11
62.7054667969
 21
564.6504599278
 70
160
  3
DIMSTYLE_2
100
AcDbAlignedDimension
 13
45.6340443567
 23
556.9783022828
 14
80.6340443567
 24
556.9783022828
100
AcDbRotatedDimension
  0
DIMENSION
  5
2B1
100
AcDbEntity
  8
0
100
AcDbDimension
 62
2
  6
CONTINUOUS
  2
*D3
 10
37.4453236889
 20
529.4783022828
 11
37.4453236889
 21
543.4783022828
 70
160
  1
Ø<>
  3
DIMSTYLE_1
100
AcDbAlignedDimension
 13
46.1340443567
 23
557.4783022828
 14
46.1340443567
 24
529.4783022828
 50
270.0
100
AcDbRotatedDimension
  0
DIMENSION
  5
2B2
100
AcDbEntity
  8
0
100
AcDbDimension
 62
2
  6
CONTINUOUS
  2
*D4
 10
181.0941179448
 20
493.4783022828
 11
181.0941179448
 21
509.5497266092
 70
160
  3
DIMSTYLE_2
100
AcDbAlignedDimension
 13
200.2957450466
 23
526.4783022828
 14
200.2957450466
 24
493.4783022828
 50
270.0
100
AcDbRotatedDimension
  0
DIMENSION
  5
2B3
100
AcDbEntity
  8
0
100
AcDbDimension
 62
2
  6
CONTINUOUS
  2
*D5
 10
181.0941179448
 20
293.4783022828
 11
181.0941179448
 21
393.4783022828
 70
160
  1
<>-400mm
  3
DIMSTYLE_3
100
AcDbAlignedDimension
 13
200.2957450466
 23
493.4783022828
 14
197.7957450466
 24
293.4783022828
 50
270.0
100
AcDbRotatedDimension
  0
DIMENSION
  5
2B4
100
AcDbEntity
  8
0
100
AcDbDimension
 62
2
  6
CONTINUOUS
  2
*D6
 10
168.9076697476
 20
261.4783022828
 11
168.9076697476
 21
393.5497290754
 70
160
  3
DIMSTYLE_3
100
AcDbAlignedDimension
 13
200.2957450466
 23
526.4783022828
 14
201.5957450466
 24
261.4783022828
 50
270.0
100
AcDbRotatedDimension
  0
LINE
  5
2B5
100
AcDbEntity
  8
0
100
AcDbLine
 62
2
  6
CONTINUOUS
 10
319.170861462
 20
50.9757791308
 11
409.170861462
 21
50.9757791308
  0
LINE
  5
2B6
100
AcDbEntity
  8
0
100
AcDbLine
 62
2
  6
CONTINUOUS
 10
319.170861462
 20
50.9757791308
 11
319.170861462
 21
10.9757791308
  0
LINE
  5
2B7
100
AcDbEntity
  8
0
100
AcDbLine
 62
2
  6
CONTINUOUS
 10
349.170861462
 20
44.9757791308
 11
409.170861462
 21
44.9757791308
  0
LINE
  5
2B8
100
AcDbEntity
  8
0
100
AcDbLine
 62
2
  6
CONTINUOUS
 10
349.170861462
 20
38.9757791308
 11
409.170861462
 21
38.9757791308
  0
LINE
  5
2B9
100
AcDbEntity
  8
0
100
AcDbLine
 62
2
  6
CONTINUOUS
 10
349.170861462
 20
28.9757791308
 11
409.170861462
 21
28.9757791308
  0
LINE
  5
2BA
100
AcDbEntity
  8
0
100
AcDbLine
 62
2
  6
CONTINUOUS
 10
319.170861462
 20
23.9757791308
 11
409.170861462
 21
23.9757791308
  0
LINE
  5
2BB
100
AcDbEntity
  8
0
100
AcDbLine
 62
2
  6
CONTINUOUS
 10
319.170861462
 20
10.9757791308
 11
409.170861462
 21
10.9757791308
  0
LINE
  5
2BC
100
AcDbEntity
  8
0
100
AcDbLine
 62
2
  6
CONTINUOUS
 10
349.170861462
 20
50.9757791308
 11
349.170861462
 21
23.9757791308
  0
LINE
  5
2BD
100
AcDbEntity
  8
0
100
AcDbLine
 62
2
  6
CONTINUOUS
 10
389.170861462
 20
50.9757791308
 11
389.170861462
 21
38.9757791308
  0
LINE
  5
2BE
100
AcDbEntity
  8
0
100
AcDbLine
 62
2
  6
CONTINUOUS
 10
409.170861462
 20
50.9757791308
 11
409.170861462
 21
10.9757791308
  0
INSERT
  5
2BF
100
AcDbEntity
  8
0
100
AcDbBlockReference
 62
2
  6
CONTINUOUS
  2
LOGO2_BL0
 10
332.9969085068
 20
37.4757791308
  0
MTEXT
  5
2C0
100
AcDbEntity
  8
9_SOLID
100
AcDbMText
 62
2
  6
CONTINUOUS
  7
STANDARD
 71
1
 72
1
 10
350.658361462
 20
49.4757791308
 30
0.0
 11
1.0
 21
0.0
 31
0.0
  1
9F0_C_001
 40
3.0
 41
31.6071428571
  0
MTEXT
  5
2C1
100
AcDbEntity
  8
0
100
AcDbMText
 62
2
  6
CONTINUOUS
  7
STANDARD
 71
1
 72
1
 10
390.658361462
 20
49.2257791308
 30
0.0
 11
1.0
 21
0.0
 31
0.0
  1
Rev:03
 40
3.5
 41
22.375
  0
MTEXT
  5
2C2
100
AcDbEntity
  8
9_SOLID
100
AcDbMText
 62
2
  6
CONTINUOUS
  7
STANDARD
 71
1
 72
1
 10
350.658361462
 20
43.2257791308
 30
0.0
 11
1.0
 21
0.0
 31
0.0
  1
Scale:1:1
 40
3.5
 41
28.375
  0
MTEXT
  5
2C3
100
AcDbEntity
  8
9_SOLID
100
AcDbMText
 62
2
  6
CONTINUOUS
  7
STANDARD
 71
1
 72
1
 10
390.658361462
 20
43.7257791308
 30
0.0
 11
1.0
 21
0.0
 31
0.0
  1
A2
 40
3.5
 41
9.625
  0
MTEXT
  5
2C4
100
AcDbEntity
  8
0
100
AcDbMText
 62
2
  6
CONTINUOUS
  7
STANDARD
 71
1
 72
1
 10
350.658361462
 20
35.7257791308
 30
0.0
 11
1.0
 21
0.0
 31
0.0
  1
Wall 7.0
 40
3.5
 41
32.5
  0
MTEXT
  5
2C5
100
AcDbEntity
  8
0
100
AcDbMText
 62
2
  6
CONTINUOUS
  7
STANDARD
 71
1
 72
1
 10
350.658361462
 20
27.7257791308
 30
0.0
 11
1.0
 21
0.0
 31
0.0
  1
DATE:22/03/2018
 40
2.5
 41
42.7678571429
  0
MTEXT
  5
2C6
100
AcDbEntity
  8
9_SOLID
100
AcDbMText
 62
2
  6
CONTINUOUS
  7
STANDARD
 71
1
 72
1
 10
320.658361462
 20
23.6632791308
 30
0.0
 11
1.0
 21
0.0
 31
0.0
  1
Any integral or partial reproductions are prohibited \Pwithout prior authorisation of L {\Ftxt.shx;\W0.190476;\H2.250000; }& L Luce & Light s.r.l., \Pin accordance with the law in force. \PAll rights reserved.
 40
2.25
 41
134.5982142857
  0
LINE
  5
2C7
100
AcDbEntity
  8
0
100
AcDbLine
 62
7
  6
CONTINUOUS
 10
0.0
 20
0.0
 11
420.0
 21
0.0
  0
LINE
  5
2C8
100
AcDbEntity
  8
0
100
AcDbLine
 62
7
  6
CONTINUOUS
 10
0.0
 20
0.0
 11
0.0
 21
594.0
  0
LINE
  5
2C9
100
AcDbEntity
  8
0
100
AcDbLine
 62
7
  6
CONTINUOUS
 10
420.0
 20
0.0
 11
420.0
 21
594.0
  0
LINE
  5
2CA
100
AcDbEntity
  8
0
100
AcDbLine
 62
7
  6
CONTINUOUS
 10
0.0
 20
594.0
 11
420.0
 21
594.0
  0
LINE
  5
2CB
100
AcDbEntity
  8
7_ALL_FEATURES
100
AcDbLine
 62
7
  6
CONTINUOUS
 10
56.3327698794
 20
261.4783022828
 11
48.935318834
 21
261.4783022828
  0
LINE
  5
2CC
100
AcDbEntity
  8
7_ALL_FEATURES
100
AcDbLine
 62
7
  6
CONTINUOUS
 10
56.6340443567
 20
261.7783022828
 11
48.6340443567
 21
261.7783022828
  0
LINE
  5
2CD
100
AcDbEntity
  8
7_ALL_FEATURES
100
AcDbLine
 62
7
  6
CONTINUOUS
 10
47.1340443567
 20
262.4783022828
 11
58.1340443567
 21
262.4783022828
  0
LINE
  5
2CE
100
AcDbEntity
  8
3_ALL_AXES
100
AcDbLine
 62
7
  6
CONTINUOUS
 10
60.6340443567
 20
266.4783022828
 11
44.6340443567
 21
266.4783022828
  0
LINE
  5
2CF
100
AcDbEntity
  8
3_ALL_AXES
100
AcDbLine
 62
7
  6
CONTINUOUS
 10
60.6340443567
 20
268.0783022828
 11
44.6340443567
 21
268.0783022828
  0
LINE
  5
2D0
100
AcDbEntity
  8
7_ALL_FEATURES
100
AcDbLine
 62
7
  6
CONTINUOUS
 10
45.6340443567
 20
556.9783022828
 11
46.1340443567
 21
557.4783022828
  0
LINE
  5
2D1
100
AcDbEntity
  8
02___PRT_ALL_AXES
100
AcDbLine
 62
7
  6
CONTINUOUS
 10
45.1340443567
 20
293.4783022828
 11
60.1340443567
 21
293.4783022828
  0
LINE
  5
2D2
100
AcDbEntity
  8
7_ALL_FEATURES
100
AcDbLine
 62
7
  6
CONTINUOUS
 10
45.1340443567
 20
294.9783022717
 11
60.1340443567
 21
294.9783022717
  0
LINE
  5
2D3
100
AcDbEntity
  8
7_ALL_FEATURES
100
AcDbLine
 62
7
  6
CONTINUOUS
 10
46.6340935846
 20
296.4783022828
 11
58.6339951288
 21
296.4783022828
  0
LINE
  5
2D4
100
AcDbEntity
  8
7_ALL_FEATURES
100
AcDbLine
 62
7
  6
CONTINUOUS
 10
48.6340443567
 20
261.7783022828
 11
48.9340443567
 21
261.4783022828
  0
LINE
  5
2D5
100
AcDbEntity
  8
7_ALL_FEATURES
100
AcDbLine
 62
7
  6
CONTINUOUS
 10
58.6340437094
 20
296.4783016428
 11
60.1340435568
 21
294.9783014735
  0
LINE
  5
2D6
100
AcDbEntity
  8
7_ALL_FEATURES
100
AcDbLine
 62
7
  6
CONTINUOUS
 10
80.6340443567
 20
529.9783022828
 11
80.1340443567
 21
529.4783022828
  0
LINE
  5
2D7
100
AcDbEntity
  8
3_ALL_AXES
100
AcDbLine
 62
7
  6
CONTINUOUS
 10
44.6340443567
 20
268.0783022828
 11
44.6340443567
 21
266.4783022828
  0
LINE
  5
2D8
100
AcDbEntity
  8
02___PRT_ALL_AXES
100
AcDbLine
 62
7
  6
CONTINUOUS
 10
45.1340443567
 20
293.4783022828
 11
45.1340443567
 21
294.9783022734
  0
LINE
  5
2D9
100
AcDbEntity
  8
7_ALL_FEATURES
100
AcDbLine
 62
7
  6
CONTINUOUS
 10
45.6340443567
 20
556.9783022828
 11
45.6340443567
 21
529.9783022828
  0
LINE
  5
2DA
100
AcDbEntity
  8
7_ALL_FEATURES
100
AcDbLine
 62
7
  6
CONTINUOUS
 10
46.1340443567
 20
557.4783022828
 11
46.1340443567
 21
529.4783022828
  0
LINE
  5
2DB
100
AcDbEntity
  8
7_ALL_FEATURES
100
AcDbLine
 62
7
  6
CONTINUOUS
 10
47.1340443567
 20
262.4783022828
 11
47.1340443567
 21
266.4783022828
  0
LINE
  5
2DC
100
AcDbEntity
  8
02___PRT_ALL_AXES
100
AcDbLine
 62
7
  6
CONTINUOUS
 10
47.6340443567
 20
526.4783022828
 11
47.6340443567
 21
503.9783022828
  0
LINE
  5
2DD
100
AcDbEntity
  8
02___PRT_ALL_AXES
100
AcDbLine
 62
7
  6
CONTINUOUS
 10
47.6340443567
 20
503.4783022828
 11
47.6340443567
 21
493.4783022828
  0
LINE
  5
2DE
100
AcDbEntity
  8
7_ALL_FEATURES
100
AcDbLine
 62
7
  6
CONTINUOUS
 10
48.1340443567
 20
557.4783022828
 11
48.1340443567
 21
529.6489855968
  0
LINE
  5
2DF
100
AcDbEntity
  8
7_ALL_FEATURES
100
AcDbLine
 62
7
  6
CONTINUOUS
 10
48.1340443567
 20
503.9783022828
 11
48.1340443567
 21
503.4783022828
  0
LINE
  5
2E0
100
AcDbEntity
  8
02___PRT_ALL_AXES
100
AcDbLine
 62
7
  6
CONTINUOUS
 10
48.6340443567
 20
493.4783022828
 11
48.6340443567
 21
296.4783022828
  0
LINE
  5
2E1
100
AcDbEntity
  8
02___PRT_ALL_AXES
100
AcDbLine
 62
7
  6
CONTINUOUS
 10
48.6340443567
 20
293.4783022828
 11
48.6340443567
 21
268.0783022828
  0
LINE
  5
2E2
100
AcDbEntity
  8
02___PRT_ALL_AXES
100
AcDbLine
 62
7
  6
CONTINUOUS
 10
48.6340443567
 20
262.4783022828
 11
48.6340443567
 21
261.7783022828
  0
LINE
  5
2E3
100
AcDbEntity
  8
02___PRT_ALL_AXES
100
AcDbLine
 62
7
  6
CONTINUOUS
 10
48.6340443567
 20
526.4783022828
 11
48.6340443567
 21
531.8576460642
  0
LINE
  5
2E4
100
AcDbEntity
  8
02___PRT_ALL_AXES
100
AcDbLine
 62
7
  6
CONTINUOUS
 10
49.5115453575
 20
532.1313041408
 11
49.5115453575
 21
526.4783022828
  0
LINE
  5
2E5
100
AcDbEntity
  8
7_ALL_FEATURES
100
AcDbLine
 62
7
  6
CONTINUOUS
 10
50.1340443567
 20
530.1647753271
 11
50.1340443567
 21
557.4781575516
  0
LINE
  5
2E6
100
AcDbEntity
  8
7_ALL_FEATURES
100
AcDbLine
 62
7
  6
CONTINUOUS
 10
51.6340443567
 20
557.4783022828
 11
51.6340443567
 21
530.3634252341
  0
LINE
  5
2E7
100
AcDbEntity
  8
7_ALL_FEATURES
100
AcDbLine
 62
7
  6
CONTINUOUS
 10
52.6340443567
 20
262.4783022828
 11
52.6340443567
 21
266.4783022828
  0
LINE
  5
2E8
100
AcDbEntity
  8
7_ALL_FEATURES
100
AcDbLine
 62
7
  6
CONTINUOUS
 10
53.6340443567
 20
530.3634252341
 11
53.6340443567
 21
557.4783022828
  0
LINE
  5
2E9
100
AcDbEntity
  8
7_ALL_FEATURES
100
AcDbLine
 62
7
  6
CONTINUOUS
 10
55.1340443567
 20
557.4781575516
 11
55.1340443567
 21
530.1647753271
  0
LINE
  5
2EA
100
AcDbEntity
  8
02___PRT_ALL_AXES
100
AcDbLine
 62
7
  6
CONTINUOUS
 10
55.7565433559
 20
532.1313026421
 11
55.7565433559
 21
526.4783022828
  0
LINE
  5
2EB
100
AcDbEntity
  8
02___PRT_ALL_AXES
100
AcDbLine
 62
7
  6
CONTINUOUS
 10
56.6340443567
 20
493.4783022828
 11
56.6340443567
 21
296.4783022828
  0
LINE
  5
2EC
100
AcDbEntity
  8
02___PRT_ALL_AXES
100
AcDbLine
 62
7
  6
CONTINUOUS
 10
56.6340443567
 20
293.4783022828
 11
56.6340443567
 21
268.0783022828
  0
LINE
  5
2ED
100
AcDbEntity
  8
02___PRT_ALL_AXES
100
AcDbLine
 62
7
  6
CONTINUOUS
 10
56.6340443567
 20
262.4783022828
 11
56.6340443567
 21
261.7783022828
  0
LINE
  5
2EE
100
AcDbEntity
  8
02___PRT_ALL_AXES
100
AcDbLine
 62
7
  6
CONTINUOUS
 10
56.6340443567
 20
526.4783022828
 11
56.6340443567
 21
531.8576491759
  0
LINE
  5
2EF
100
AcDbEntity
  8
02___PRT_ALL_AXES
100
AcDbLine
 62
7
  6
CONTINUOUS
 10
56.9641713756
 20
526.4783022828
 11
56.9641713756
 21
518.4783022828
  0
LINE
  5
2F0
100
AcDbEntity
  8
7_ALL_FEATURES
100
AcDbLine
 62
7
  6
CONTINUOUS
 10
57.1340443567
 20
503.9783022828
 11
57.1340443567
 21
503.4783022828
  0
LINE
  5
2F1
100
AcDbEntity
  8
7_ALL_FEATURES
100
AcDbLine
 62
7
  6
CONTINUOUS
 10
57.1340443567
 20
529.6489855968
 11
57.1340443567
 21
557.4783022828
  0
LINE
  5
2F2
100
AcDbEntity
  8
02___PRT_ALL_AXES
100
AcDbLine
 62
7
  6
CONTINUOUS
 10
57.6340443567
 20
515.9783014529
 11
57.6340443567
 21
503.9783022828
  0
LINE
  5
2F3
100
AcDbEntity
  8
02___PRT_ALL_AXES
100
AcDbLine
 62
7
  6
CONTINUOUS
 10
57.6340443567
 20
503.4783022828
 11
57.6340443567
 21
493.4783022828
  0
LINE
  5
2F4
100
AcDbEntity
  8
7_ALL_FEATURES
100
AcDbLine
 62
7
  6
CONTINUOUS
 10
58.1340443567
 20
262.4783022828
 11
58.1340443567
 21
266.4783022828
  0
LINE
  5
2F5
100
AcDbEntity
  8
02___PRT_ALL_AXES
100
AcDbLine
 62
7
  6
CONTINUOUS
 10
60.1340443567
 20
293.4783022828
 11
60.1340443567
 21
294.9783022734
  0
LINE
  5
2F6
100
AcDbEntity
  8
3_ALL_AXES
100
AcDbLine
 62
7
  6
CONTINUOUS
 10
60.6340443567
 20
268.0783022828
 11
60.6340443567
 21
266.4783022828
  0
LINE
  5
2F7
100
AcDbEntity
  8
7_ALL_FEATURES
100
AcDbLine
 62
7
  6
CONTINUOUS
 10
80.1340443567
 20
557.4783022828
 11
80.1340443567
 21
529.4783022828
  0
LINE
  5
2F8
100
AcDbEntity
  8
7_ALL_FEATURES
100
AcDbLine
 62
7
  6
CONTINUOUS
 10
80.6340443567
 20
556.9783022828
 11
80.6340443567
 21
529.9783022828
  0
LINE
  5
2F9
100
AcDbEntity
  8
7_ALL_FEATURES
100
AcDbLine
 62
7
  6
CONTINUOUS
 10
46.634045004
 20
296.4783016428
 11
45.1340451566
 21
294.9783014735
  0
LINE
  5
2FA
100
AcDbEntity
  8
7_ALL_FEATURES
100
AcDbLine
 62
7
  6
CONTINUOUS
 10
45.6340443567
 20
529.9783022828
 11
46.1340443567
 21
529.4783022828
  0
LINE
  5
2FB
100
AcDbEntity
  8
02___PRT_ALL_AXES
100
AcDbLine
 62
7
  6
CONTINUOUS
 10
47.6340443567
 20
493.4783022828
 11
57.6340443567
 21
493.4783022828
  0
LINE
  5
2FC
100
AcDbEntity
  8
7_ALL_FEATURES
100
AcDbLine
 62
7
  6
CONTINUOUS
 10
56.6340443567
 20
261.7783022828
 11
56.3340443567
 21
261.4783022828
  0
LINE
  5
2FD
100
AcDbEntity
  8
7_ALL_FEATURES
100
AcDbLine
 62
7
  6
CONTINUOUS
 10
57.6340436322
 20
503.4783022828
 11
47.6340450812
 21
503.4783022828
  0
LINE
  5
2FE
100
AcDbEntity
  8
7_ALL_FEATURES
100
AcDbLine
 62
7
  6
CONTINUOUS
 10
57.6340436322
 20
503.9783022828
 11
47.6340450812
 21
503.9783022828
  0
LINE
  5
2FF
100
AcDbEntity
  8
02___PRT_ALL_AXES
100
AcDbLine
 62
7
  6
CONTINUOUS
 10
47.6340443567
 20
526.4783022828
 11
56.9641713756
 21
526.4783022828
  0
LINE
  5
300
100
AcDbEntity
  8
7_ALL_FEATURES
100
AcDbLine
 62
7
  6
CONTINUOUS
 10
46.1340443567
 20
529.4783022828
 11
47.6340443567
 21
529.4783022828
  0
LINE
  5
301
100
AcDbEntity
  8
02___PRT_ALL_AXES
100
AcDbLine
 62
7
  6
CONTINUOUS
 10
46.1340443567
 20
529.4783022828
 11
47.6340443567
 21
529.4783022828
  0
LINE
  5
302
100
AcDbEntity
  8
7_ALL_FEATURES
100
AcDbLine
 62
7
  6
CONTINUOUS
 10
57.6340443567
 20
529.4783022828
 11
80.1340443567
 21
529.4783022828
  0
LINE
  5
303
100
AcDbEntity
  8
02___PRT_ALL_AXES
100
AcDbLine
 62
7
  6
CONTINUOUS
 10
57.6340443567
 20
529.4783022828
 11
80.1340443567
 21
529.4783022828
  0
LINE
  5
304
100
AcDbEntity
  8
7_ALL_FEATURES
100
AcDbLine
 62
7
  6
CONTINUOUS
 10
80.1340443567
 20
557.4783022828
 11
80.6340443567
 21
556.9783022828
  0
LINE
  5
305
100
AcDbEntity
  8
7_ALL_FEATURES
100
AcDbLine
 62
7
  6
CONTINUOUS
 10
48.1340443567
 20
555.4783022828
 11
50.1340443567
 21
555.4783022828
  0
LINE
  5
306
100
AcDbEntity
  8
7_ALL_FEATURES
100
AcDbLine
 62
7
  6
CONTINUOUS
 10
51.6340443567
 20
555.4783022828
 11
53.6340443567
 21
555.4783022828
  0
LINE
  5
307
100
AcDbEntity
  8
7_ALL_FEATURES
100
AcDbLine
 62
7
  6
CONTINUOUS
 10
55.1340443567
 20
555.4783022828
 11
57.1340443567
 21
555.4783022828
  0
LINE
  5
308
100
AcDbEntity
  8
7_ALL_FEATURES
100
AcDbLine
 62
7
  6
CONTINUOUS
 10
46.1340443567
 20
557.4783022828
 11
48.1340443567
 21
557.4783022828
  0
LINE
  5
309
100
AcDbEntity
  8
02___PRT_ALL_AXES
100
AcDbLine
 62
7
  6
CONTINUOUS
 10
46.1340443567
 20
557.4783022828
 11
48.1340443567
 21
557.4783022828
  0
LINE
  5
30A
100
AcDbEntity
  8
02___PRT_ALL_AXES
100
AcDbLine
 62
7
  6
CONTINUOUS
 10
50.1340443567
 20
557.4783022828
 11
51.6340443567
 21
557.4783022828
  0
LINE
  5
30B
100
AcDbEntity
  8
02___PRT_ALL_AXES
100
AcDbLine
 62
7
  6
CONTINUOUS
 10
53.6340443567
 20
557.4783022828
 11
55.1340443567
 21
557.4783022828
  0
LINE
  5
30C
100
AcDbEntity
  8
7_ALL_FEATURES
100
AcDbLine
 62
7
  6
CONTINUOUS
 10
57.1340443567
 20
557.4783022828
 11
80.1340443567
 21
557.4783022828
  0
LINE
  5
30D
100
AcDbEntity
  8
02___PRT_ALL_AXES
100
AcDbLine
 62
7
  6
CONTINUOUS
 10
57.1340443567
 20
557.4783022828
 11
80.1340443567
 21
557.4783022828
  0
LINE
  5
30E
100
AcDbEntity
  8
7_ALL_FEATURES
100
AcDbLine
 62
7
  6
CONTINUOUS
 10
208.9957450466
 20
261.4783022828
 11
201.5957450466
 21
261.4783022828
  0
LINE
  5
30F
100
AcDbEntity
  8
7_ALL_FEATURES
100
AcDbLine
 62
7
  6
CONTINUOUS
 10
209.2957450466
 20
261.7783022828
 11
201.2957450466
 21
261.7783022828
  0
LINE
  5
310
100
AcDbEntity
  8
7_ALL_FEATURES
100
AcDbLine
 62
7
  6
CONTINUOUS
 10
198.9448920855
 20
262.4783022828
 11
211.6465980076
 21
262.4783022828
  0
LINE
  5
311
100
AcDbEntity
  8
3_ALL_AXES
100
AcDbLine
 62
7
  6
CONTINUOUS
 10
213.2957450466
 20
266.4783022828
 11
197.2957450466
 21
266.4783022828
  0
LINE
  5
312
100
AcDbEntity
  8
3_ALL_AXES
100
AcDbLine
 62
7
  6
CONTINUOUS
 10
213.2957450466
 20
268.0783022828
 11
197.2957450466
 21
268.0783022828
  0
LINE
  5
313
100
AcDbEntity
  8
02___PRT_ALL_AXES
100
AcDbLine
 62
7
  6
CONTINUOUS
 10
197.7957450466
 20
293.4783022828
 11
212.7957450466
 21
293.4783022828
  0
LINE
  5
314
100
AcDbEntity
  8
7_ALL_FEATURES
100
AcDbLine
 62
7
  6
CONTINUOUS
 10
197.7957450466
 20
294.9783022828
 11
212.7957450466
 21
294.9783022828
  0
LINE
  5
315
100
AcDbEntity
  8
7_ALL_FEATURES
100
AcDbLine
 62
7
  6
CONTINUOUS
 10
199.2957450466
 20
296.4783022828
 11
211.2957450465
 21
296.4783022828
  0
LINE
  5
316
100
AcDbEntity
  8
7_ALL_FEATURES
100
AcDbLine
 62
7
  6
CONTINUOUS
 10
201.5957450466
 20
261.4783022828
 11
201.2957450466
 21
261.7783022828
  0
LINE
  5
317
100
AcDbEntity
  8
7_ALL_FEATURES
100
AcDbLine
 62
7
  6
CONTINUOUS
 10
211.2957444029
 20
296.4783016391
 11
212.795744242
 21
294.9783014782
  0
LINE
  5
318
100
AcDbEntity
  8
3_ALL_AXES
100
AcDbLine
 62
7
  6
CONTINUOUS
 10
197.2957450466
 20
268.0783022828
 11
197.2957450466
 21
266.4783022828
  0
LINE
  5
319
100
AcDbEntity
  8
7_ALL_FEATURES
100
AcDbLine
 62
7
  6
CONTINUOUS
 10
197.7957450466
 20
293.4783022828
 11
197.7957450466
 21
294.9783022828
  0
LINE
  5
31A
100
AcDbEntity
  8
02___PRT_ALL_AXES
100
AcDbLine
 62
7
  6
CONTINUOUS
 10
197.7957450466
 20
293.4783022828
 11
197.7957450466
 21
294.9783022828
  0
LINE
  5
31B
100
AcDbEntity
  8
7_ALL_FEATURES
100
AcDbLine
 62
7
  6
CONTINUOUS
 10
198.9448920855
 20
262.4783022828
 11
198.9448920855
 21
266.4783022828
  0
LINE
  5
31C
100
AcDbEntity
  8
02___PRT_ALL_AXES
100
AcDbLine
 62
7
  6
CONTINUOUS
 10
200.2957450466
 20
526.4783022828
 11
200.2957450466
 21
503.9783022828
  0
LINE
  5
31D
100
AcDbEntity
  8
02___PRT_ALL_AXES
100
AcDbLine
 62
7
  6
CONTINUOUS
 10
200.2957450466
 20
503.4783022828
 11
200.2957450466
 21
493.4783022828
  0
LINE
  5
31E
100
AcDbEntity
  8
7_ALL_FEATURES
100
AcDbLine
 62
7
  6
CONTINUOUS
 10
200.2957450466
 20
493.4783022828
 11
200.2957450466
 21
503.4783022828
  0
LINE
  5
31F
100
AcDbEntity
  8
7_ALL_FEATURES
100
AcDbLine
 62
7
  6
CONTINUOUS
 10
200.2957450466
 20
503.9783022828
 11
200.2957450466
 21
526.4783022828
  0
LINE
  5
320
100
AcDbEntity
  8
7_ALL_FEATURES
100
AcDbLine
 62
7
  6
CONTINUOUS
 10
200.7957450466
 20
503.9783022828
 11
200.7957450466
 21
503.4783022828
  0
LINE
  5
321
100
AcDbEntity
  8
7_ALL_FEATURES
100
AcDbLine
 62
7
  6
CONTINUOUS
 10
201.2957450466
 20
493.4783022828
 11
201.2957450466
 21
296.4783022828
  0
LINE
  5
322
100
AcDbEntity
  8
02___PRT_ALL_AXES
100
AcDbLine
 62
7
  6
CONTINUOUS
 10
201.2957450466
 20
493.4783022828
 11
201.2957450466
 21
296.4783022828
  0
LINE
  5
323
100
AcDbEntity
  8
7_ALL_FEATURES
100
AcDbLine
 62
7
  6
CONTINUOUS
 10
201.2957450466
 20
293.4783022828
 11
201.2957450466
 21
268.0783022828
  0
LINE
  5
324
100
AcDbEntity
  8
02___PRT_ALL_AXES
100
AcDbLine
 62
7
  6
CONTINUOUS
 10
201.2957450466
 20
293.4783022828
 11
201.2957450466
 21
268.0783022828
  0
LINE
  5
325
100
AcDbEntity
  8
7_ALL_FEATURES
100
AcDbLine
 62
7
  6
CONTINUOUS
 10
201.2957450466
 20
262.4783022828
 11
201.2957450466
 21
261.7783022828
  0
LINE
  5
326
100
AcDbEntity
  8
02___PRT_ALL_AXES
100
AcDbLine
 62
7
  6
CONTINUOUS
 10
201.2957450466
 20
262.4783022828
 11
201.2957450466
 21
261.7783022828
  0
LINE
  5
327
100
AcDbEntity
  8
7_ALL_FEATURES
100
AcDbLine
 62
7
  6
CONTINUOUS
 10
202.120318566
 20
262.4783022828
 11
202.120318566
 21
266.4783022828
  0
LINE
  5
328
100
AcDbEntity
  8
02___PRT_ALL_AXES
100
AcDbLine
 62
7
  6
CONTINUOUS
 10
202.7957450466
 20
529.7250701207
 11
202.7957450466
 21
526.4783022828
  0
LINE
  5
329
100
AcDbEntity
  8
02___PRT_ALL_AXES
100
AcDbLine
 62
7
  6
CONTINUOUS
 10
207.7957450466
 20
529.7250701207
 11
207.7957450466
 21
526.4783022828
  0
LINE
  5
32A
100
AcDbEntity
  8
7_ALL_FEATURES
100
AcDbLine
 62
7
  6
CONTINUOUS
 10
208.4711715271
 20
262.4783022828
 11
208.4711715271
 21
266.4783022828
  0
LINE
  5
32B
100
AcDbEntity
  8
7_ALL_FEATURES
100
AcDbLine
 62
7
  6
CONTINUOUS
 10
209.2957450466
 20
493.4783022828
 11
209.2957450466
 21
296.4783022828
  0
LINE
  5
32C
100
AcDbEntity
  8
02___PRT_ALL_AXES
100
AcDbLine
 62
7
  6
CONTINUOUS
 10
209.2957450466
 20
493.4783022828
 11
209.2957450466
 21
296.4783022828
  0
LINE
  5
32D
100
AcDbEntity
  8
7_ALL_FEATURES
100
AcDbLine
 62
7
  6
CONTINUOUS
 10
209.2957450466
 20
293.4783022828
 11
209.2957450466
 21
268.0783022828
  0
LINE
  5
32E
100
AcDbEntity
  8
02___PRT_ALL_AXES
100
AcDbLine
 62
7
  6
CONTINUOUS
 10
209.2957450466
 20
293.4783022828
 11
209.2957450466
 21
268.0783022828
  0
LINE
  5
32F
100
AcDbEntity
  8
7_ALL_FEATURES
100
AcDbLine
 62
7
  6
CONTINUOUS
 10
209.2957450466
 20
262.4783022828
 11
209.2957450466
 21
261.7783022828
  0
LINE
  5
330
100
AcDbEntity
  8
02___PRT_ALL_AXES
100
AcDbLine
 62
7
  6
CONTINUOUS
 10
209.2957450466
 20
262.4783022828
 11
209.2957450466
 21
261.7783022828
  0
LINE
  5
331
100
AcDbEntity
  8
7_ALL_FEATURES
100
AcDbLine
 62
7
  6
CONTINUOUS
 10
209.7957450466
 20
503.9783022828
 11
209.7957450466
 21
503.4783022828
  0
LINE
  5
332
100
AcDbEntity
  8
02___PRT_ALL_AXES
100
AcDbLine
 62
7
  6
CONTINUOUS
 10
210.2957450466
 20
526.4783022828
 11
210.2957450466
 21
503.9783022828
  0
LINE
  5
333
100
AcDbEntity
  8
02___PRT_ALL_AXES
100
AcDbLine
 62
7
  6
CONTINUOUS
 10
210.2957450466
 20
503.4783022828
 11
210.2957450466
 21
493.4783022828
  0
LINE
  5
334
100
AcDbEntity
  8
7_ALL_FEATURES
100
AcDbLine
 62
7
  6
CONTINUOUS
 10
210.2957450466
 20
493.4783022828
 11
210.2957450466
 21
503.4783022828
  0
LINE
  5
335
100
AcDbEntity
  8
7_ALL_FEATURES
100
AcDbLine
 62
7
  6
CONTINUOUS
 10
210.2957450466
 20
503.9783022828
 11
210.2957450466
 21
526.4783022828
  0
LINE
  5
336
100
AcDbEntity
  8
7_ALL_FEATURES
100
AcDbLine
 62
7
  6
CONTINUOUS
 10
211.6465980076
 20
262.4783022828
 11
211.6465980076
 21
266.4783022828
  0
LINE
  5
337
100
AcDbEntity
  8
7_ALL_FEATURES
100
AcDbLine
 62
7
  6
CONTINUOUS
 10
212.7957450466
 20
293.4783022828
 11
212.7957450466
 21
294.9783022828
  0
LINE
  5
338
100
AcDbEntity
  8
02___PRT_ALL_AXES
100
AcDbLine
 62
7
  6
CONTINUOUS
 10
212.7957450466
 20
293.4783022828
 11
212.7957450466
 21
294.9783022828
  0
LINE
  5
339
100
AcDbEntity
  8
3_ALL_AXES
100
AcDbLine
 62
7
  6
CONTINUOUS
 10
213.2957450466
 20
268.0783022828
 11
213.2957450466
 21
266.4783022828
  0
LINE
  5
33A
100
AcDbEntity
  8
7_ALL_FEATURES
100
AcDbLine
 62
7
  6
CONTINUOUS
 10
199.2957456902
 20
296.4783016391
 11
197.7957458511
 21
294.9783014782
  0
LINE
  5
33B
100
AcDbEntity
  8
02___PRT_ALL_AXES
100
AcDbLine
 62
7
  6
CONTINUOUS
 10
200.2957450466
 20
493.4783022828
 11
210.2957450466
 21
493.4783022828
  0
LINE
  5
33C
100
AcDbEntity
  8
7_ALL_FEATURES
100
AcDbLine
 62
7
  6
CONTINUOUS
 10
210.2957450466
 20
503.4783022828
 11
200.2957450466
 21
503.4783022828
  0
LINE
  5
33D
100
AcDbEntity
  8
7_ALL_FEATURES
100
AcDbLine
 62
7
  6
CONTINUOUS
 10
210.2957450466
 20
503.9783022828
 11
200.2957450466
 21
503.9783022828
  0
LINE
  5
33E
100
AcDbEntity
  8
7_ALL_FEATURES
100
AcDbLine
 62
7
  6
CONTINUOUS
 10
209.2957450466
 20
261.7783022828
 11
208.9957450466
 21
261.4783022828
  0
LINE
  5
33F
100
AcDbEntity
  8
02___PRT_ALL_AXES
100
AcDbLine
 62
7
  6
CONTINUOUS
 10
200.2957450466
 20
526.4783022828
 11
210.2957450466
 21
526.4783022828
  0
LINE
  5
340
100
AcDbEntity
  8
7_ALL_FEATURES
100
AcDbLine
 62
7
  6
CONTINUOUS
 10
45.6340443567
 20
180.4081058434
 11
46.1340443567
 21
180.9081058434
  0
LINE
  5
341
100
AcDbEntity
  8
7_ALL_FEATURES
100
AcDbLine
 62
7
  6
CONTINUOUS
 10
45.6340443567
 20
153.4081058434
 11
46.1340443567
 21
152.9081058434
  0
LINE
  5
342
100
AcDbEntity
  8
7_ALL_FEATURES
100
AcDbLine
 62
7
  6
CONTINUOUS
 10
45.6340443567
 20
180.4081058434
 11
45.6340443567
 21
153.4081058434
  0
LINE
  5
343
100
AcDbEntity
  8
7_ALL_FEATURES
100
AcDbLine
 62
7
  6
CONTINUOUS
 10
46.1340443567
 20
180.9081058434
 11
46.1340443567
 21
152.9081058434
  0
LINE
  5
344
100
AcDbEntity
  8
7_ALL_FEATURES
100
AcDbLine
 62
7
  6
CONTINUOUS
 10
48.1340443567
 20
180.9081012233
 11
48.1340443567
 21
152.9081104636
  0
LINE
  5
345
100
AcDbEntity
  8
02___PRT_ALL_AXES
100
AcDbLine
 62
7
  6
CONTINUOUS
 10
46.1340443567
 20
152.9081058434
 11
48.1340443567
 21
152.9081058434
  0
LINE
  5
346
100
AcDbEntity
  8
02___PRT_ALL_AXES
100
AcDbLine
 62
7
  6
CONTINUOUS
 10
50.1340443567
 20
152.9081058434
 11
51.6340443567
 21
152.9081058434
  0
LINE
  5
347
100
AcDbEntity
  8
02___PRT_ALL_AXES
100
AcDbLine
 62
7
  6
CONTINUOUS
 10
53.6340443567
 20
152.9081058434
 11
55.1340443567
 21
152.9081058434
  0
LINE
  5
348
100
AcDbEntity
  8
02___PRT_ALL_AXES
100
AcDbLine
 62
7
  6
CONTINUOUS
 10
57.1340443567
 20
152.9081058434
 11
80.1340443567
 21
152.9081058434
  0
LINE
  5
349
100
AcDbEntity
  8
7_ALL_FEATURES
100
AcDbLine
 62
7
  6
CONTINUOUS
 10
50.1340443567
 20
152.9082205173
 11
50.1340443567
 21
180.9079911696
  0
LINE
  5
34A
100
AcDbEntity
  8
7_ALL_FEATURES
100
AcDbLine
 62
7
  6
CONTINUOUS
 10
48.1340443567
 20
154.9081058434
 11
50.1340443567
 21
154.9081058434
  0
LINE
  5
34B
100
AcDbEntity
  8
7_ALL_FEATURES
100
AcDbLine
 62
7
  6
CONTINUOUS
 10
51.6340443567
 20
154.9081058434
 11
53.6340443567
 21
154.9081058434
  0
LINE
  5
34C
100
AcDbEntity
  8
7_ALL_FEATURES
100
AcDbLine
 62
7
  6
CONTINUOUS
 10
55.1340443567
 20
154.9081058434
 11
57.1340443567
 21
154.9081058434
  0
LINE
  5
34D
100
AcDbEntity
  8
7_ALL_FEATURES
100
AcDbLine
 62
7
  6
CONTINUOUS
 10
51.6340443567
 20
180.908007599
 11
51.6340443567
 21
152.9082040879
  0
LINE
  5
34E
100
AcDbEntity
  8
7_ALL_FEATURES
100
AcDbLine
 62
7
  6
CONTINUOUS
 10
53.6340443567
 20
152.9082040879
 11
53.6340443567
 21
180.908007599
  0
LINE
  5
34F
100
AcDbEntity
  8
7_ALL_FEATURES
100
AcDbLine
 62
7
  6
CONTINUOUS
 10
55.1340443567
 20
180.9079911696
 11
55.1340443567
 21
152.9082205173
  0
LINE
  5
350
100
AcDbEntity
  8
7_ALL_FEATURES
100
AcDbLine
 62
7
  6
CONTINUOUS
 10
57.1340443567
 20
152.9081104624
 11
57.1340443567
 21
180.9081012233
  0
LINE
  5
351
100
AcDbEntity
  8
7_ALL_FEATURES
100
AcDbLine
 62
7
  6
CONTINUOUS
 10
48.1340443567
 20
178.9081058434
 11
50.1340443567
 21
178.9081058434
  0
LINE
  5
352
100
AcDbEntity
  8
7_ALL_FEATURES
100
AcDbLine
 62
7
  6
CONTINUOUS
 10
51.6340443567
 20
178.9081058434
 11
53.6340443567
 21
178.9081058434
  0
LINE
  5
353
100
AcDbEntity
  8
7_ALL_FEATURES
100
AcDbLine
 62
7
  6
CONTINUOUS
 10
55.1340443567
 20
178.9081058434
 11
57.1340443567
 21
178.9081058434
  0
LINE
  5
354
100
AcDbEntity
  8
02___PRT_ALL_AXES
100
AcDbLine
 62
7
  6
CONTINUOUS
 10
46.1340443567
 20
180.9081058434
 11
48.1340443567
 21
180.9081058434
  0
LINE
  5
355
100
AcDbEntity
  8
02___PRT_ALL_AXES
100
AcDbLine
 62
7
  6
CONTINUOUS
 10
50.1340443567
 20
180.9081058434
 11
51.6340443567
 21
180.9081058434
  0
LINE
  5
356
100
AcDbEntity
  8
02___PRT_ALL_AXES
100
AcDbLine
 62
7
  6
CONTINUOUS
 10
53.6340443567
 20
180.9081058434
 11
55.1340443567
 21
180.9081058434
  0
LINE
  5
357
100
AcDbEntity
  8
02___PRT_ALL_AXES
100
AcDbLine
 62
7
  6
CONTINUOUS
 10
57.1340443567
 20
180.9081058434
 11
80.1340443567
 21
180.9081058434
  0
LINE
  5
358
100
AcDbEntity
  8
7_ALL_FEATURES
100
AcDbLine
 62
7
  6
CONTINUOUS
 10
80.1340443567
 20
180.9081058434
 11
80.1340443567
 21
152.9081058434
  0
LINE
  5
359
100
AcDbEntity
  8
7_ALL_FEATURES
100
AcDbLine
 62
7
  6
CONTINUOUS
 10
80.6340443567
 20
180.4081058434
 11
80.6340443567
 21
153.4081058434
  0
LINE
  5
35A
100
AcDbEntity
  8
7_ALL_FEATURES
100
AcDbLine
 62
7
  6
CONTINUOUS
 10
80.1340443567
 20
152.9081058434
 11
80.6340443567
 21
153.4081058434
  0
LINE
  5
35B
100
AcDbEntity
  8
7_ALL_FEATURES
100
AcDbLine
 62
7
  6
CONTINUOUS
 10
80.1340443567
 20
180.9081058434
 11
80.6340443567
 21
180.4081058434
  0
LINE
  5
35C
100
AcDbEntity
  8
7_ALL_FEATURES
100
AcDbLine
 62
7
  6
CONTINUOUS
 10
337.8801704392
 20
119.3764470252
 11
344.0146233333
 21
118.5545861757
  0
LINE
  5
35D
100
AcDbEntity
  8
02___PRT_ALL_AXES
100
AcDbLine
 62
7
  6
CONTINUOUS
 10
338.4818143378
 20
350.4292959171
 11
339.3029500126
 21
350.8398637546
  0
LINE
  5
35E
100
AcDbEntity
  8
02___PRT_ALL_AXES
100
AcDbLine
 62
7
  6
CONTINUOUS
 10
352.9966448334
 20
351.7066828218
 11
353.1738669052
 21
351.7952938577
  0
LINE
  5
35F
100
AcDbEntity
  8
02___PRT_ALL_AXES
100
AcDbLine
 62
7
  6
CONTINUOUS
 10
353.9870397036
 20
351.3887074585
 11
352.9509572889
 21
350.8706662511
  0
LINE
  5
360
100
AcDbEntity
  8
02___PRT_ALL_AXES
100
AcDbLine
 62
7
  6
CONTINUOUS
 10
345.8157195704
 20
343.4521737132
 11
343.6649968598
 21
342.3768123579
  0
LINE
  5
361
100
AcDbEntity
  8
7_ALL_FEATURES
100
AcDbLine
 62
7
  6
CONTINUOUS
 10
347.269880044
 20
152.7987268049
 11
348.4946273481
 21
151.9326994022
  0
LINE
  5
362
100
AcDbEntity
  8
7_ALL_FEATURES
100
AcDbLine
 62
7
  6
CONTINUOUS
 10
336.2364487402
 20
122.4436734722
 11
337.8801704392
 21
119.3764470252
  0
LINE
  5
363
100
AcDbEntity
  8
3_ALL_AXES
100
AcDbLine
 62
7
  6
CONTINUOUS
 10
334.3709016343
 20
126.4715548839
 11
334.3709016343
 21
125.0859142379
  0
LINE
  5
364
100
AcDbEntity
  8
02___PRT_ALL_AXES
100
AcDbLine
 62
7
  6
CONTINUOUS
 10
334.8709016343
 20
148.4686001401
 11
334.8709016343
 21
149.7676382039
  0
LINE
  5
365
100
AcDbEntity
  8
7_ALL_FEATURES
100
AcDbLine
 62
7
  6
CONTINUOUS
 10
336.2364487402
 20
122.4436734722
 11
336.2364487402
 21
122.5192953455
  0
LINE
  5
366
100
AcDbEntity
  8
02___PRT_ALL_AXES
100
AcDbLine
 62
7
  6
CONTINUOUS
 10
337.3709016343
 20
350.2525192218
 11
337.3709016343
 21
330.7669476367
  0
LINE
  5
367
100
AcDbEntity
  8
02___PRT_ALL_AXES
100
AcDbLine
 62
7
  6
CONTINUOUS
 10
337.3709016343
 20
330.3339349348
 11
337.3709016343
 21
321.673680897
  0
LINE
  5
368
100
AcDbEntity
  8
7_ALL_FEATURES
100
AcDbLine
 62
7
  6
CONTINUOUS
 10
337.8801704392
 20
119.3764470252
 11
337.8801704392
 21
121.7757249268
  0
LINE
  5
369
100
AcDbEntity
  8
02___PRT_ALL_AXES
100
AcDbLine
 62
7
  6
CONTINUOUS
 10
338.3709016343
 20
320.1738242566
 11
338.3709016343
 21
151.0666763514
  0
LINE
  5
36A
100
AcDbEntity
  8
02___PRT_ALL_AXES
100
AcDbLine
 62
7
  6
CONTINUOUS
 10
338.3709016343
 20
145.2975890108
 11
338.3709016343
 21
125.8336617331
  0
LINE
  5
36B
100
AcDbEntity
  8
02___PRT_ALL_AXES
100
AcDbLine
 62
7
  6
CONTINUOUS
 10
342.8110748979
 20
349.1023886119
 11
342.8110748979
 21
348.2646656371
  0
LINE
  5
36C
100
AcDbEntity
  8
02___PRT_ALL_AXES
100
AcDbLine
 62
7
  6
CONTINUOUS
 10
343.6649968598
 20
347.8377046561
 11
343.6649968598
 21
340.9095014258
  0
LINE
  5
36D
100
AcDbEntity
  8
7_ALL_FEATURES
100
AcDbLine
 62
7
  6
CONTINUOUS
 10
344.0146233333
 20
118.5545861757
 11
344.0146233333
 21
121.1718572915
  0
LINE
  5
36E
100
AcDbEntity
  8
02___PRT_ALL_AXES
100
AcDbLine
 62
7
  6
CONTINUOUS
 10
346.3709016343
 20
320.1738242566
 11
346.3709016343
 21
151.0666763514
  0
LINE
  5
36F
100
AcDbEntity
  8
02___PRT_ALL_AXES
100
AcDbLine
 62
7
  6
CONTINUOUS
 10
346.3709016343
 20
145.2975890108
 11
346.3709016343
 21
125.8326053177
  0
LINE
  5
370
100
AcDbEntity
  8
02___PRT_ALL_AXES
100
AcDbLine
 62
7
  6
CONTINUOUS
 10
347.2005307657
 20
346.907660678
 11
347.2005307657
 21
342.6772683788
  0
LINE
  5
371
100
AcDbEntity
  8
02___PRT_ALL_AXES
100
AcDbLine
 62
7
  6
CONTINUOUS
 10
347.3709016343
 20
346.8224752437
 11
347.3709016343
 21
330.7669476367
  0
LINE
  5
372
100
AcDbEntity
  8
02___PRT_ALL_AXES
100
AcDbLine
 62
7
  6
CONTINUOUS
 10
347.3709016343
 20
330.3339349348
 11
347.3709016343
 21
321.673680897
  0
LINE
  5
373
100
AcDbEntity
  8
7_ALL_FEATURES
100
AcDbLine
 62
7
  6
CONTINUOUS
 10
348.5053545284
 20
120.7999517733
 11
348.5053545284
 21
122.5192953455
  0
LINE
  5
374
100
AcDbEntity
  8
02___PRT_ALL_AXES
100
AcDbLine
 62
7
  6
CONTINUOUS
 10
349.8709016343
 20
148.4686001401
 11
349.8709016343
 21
149.7676382039
  0
LINE
  5
375
100
AcDbEntity
  8
3_ALL_AXES
100
AcDbLine
 62
7
  6
CONTINUOUS
 10
350.3709016343
 20
126.4715548839
 11
350.3709016343
 21
125.0859142379
  0
LINE
  5
376
100
AcDbEntity
  8
7_ALL_FEATURES
100
AcDbLine
 62
7
  6
CONTINUOUS
 10
337.4719221476
 20
152.7987260433
 11
336.2471772787
 21
151.9327003626
  0
LINE
  5
377
100
AcDbEntity
  8
02___PRT_ALL_AXES
100
AcDbLine
 62
9
  6
CONTINUOUS
 10
347.2005307657
 20
342.6772683788
 11
345.7332198337
 21
343.4109238448
  0
LINE
  5
378
100
AcDbEntity
  8
02___PRT_ALL_AXES
100
AcDbLine
 62
7
  6
CONTINUOUS
 10
343.6649968598
 20
347.8377046561
 11
338.4818143378
 21
350.4292959171
  0
LINE
  5
379
100
AcDbEntity
  8
02___PRT_ALL_AXES
100
AcDbLine
 62
7
  6
CONTINUOUS
 10
331.5137172196
 20
354.751067451
 11
332.9279307819
 21
354.0439606698
  0
LINE
  5
37A
100
AcDbEntity
  8
02___PRT_ALL_AXES
100
AcDbLine
 62
7
  6
CONTINUOUS
 10
334.3421443443
 20
353.3368538887
 11
335.4028045161
 21
352.8065238028
  0
LINE
  5
37B
100
AcDbEntity
  8
02___PRT_ALL_AXES
100
AcDbLine
 62
7
  6
CONTINUOUS
 10
336.8170180785
 20
352.0994170216
 11
337.8776782503
 21
351.5690869357
  0
LINE
  5
37C
100
AcDbEntity
  8
02___PRT_ALL_AXES
100
AcDbLine
 62
7
  6
CONTINUOUS
 10
339.2918918126
 20
350.8619801545
 11
355.5553477799
 21
342.7302521709
  0
LINE
  5
37D
100
AcDbEntity
  8
02___PRT_ALL_AXES
100
AcDbLine
 62
7
  6
CONTINUOUS
 10
353.1738669052
 20
351.7952938577
 11
353.9870397036
 21
351.3887074585
  0
LINE
  5
37E
100
AcDbEntity
  8
02___PRT_ALL_AXES
100
AcDbLine
 62
7
  6
CONTINUOUS
 10
354.4561210284
 20
354.8814275808
 11
353.5593869468
 21
354.8327982994
  0
LINE
  5
37F
100
AcDbEntity
  8
7_ALL_FEATURES
100
AcDbLine
 62
7
  6
CONTINUOUS
 10
344.0146233333
 20
118.5545861757
 11
348.5053545284
 21
120.7999517733
  0
LINE
  5
380
100
AcDbEntity
  8
02___PRT_ALL_AXES
100
AcDbLine
 62
7
  6
CONTINUOUS
 10
344.0356978936
 20
379.795028799
 11
345.4499114559
 21
379.0879220178
  0
LINE
  5
381
100
AcDbEntity
  8
02___PRT_ALL_AXES
100
AcDbLine
 62
7
  6
CONTINUOUS
 10
346.8641250183
 20
378.3808152367
 11
347.9247851901
 21
377.8504851508
  0
LINE
  5
382
100
AcDbEntity
  8
02___PRT_ALL_AXES
100
AcDbLine
 62
7
  6
CONTINUOUS
 10
349.3389987525
 20
377.1433783696
 11
350.3996589243
 21
376.6130482837
  0
LINE
  5
383
100
AcDbEntity
  8
02___PRT_ALL_AXES
100
AcDbLine
 62
7
  6
CONTINUOUS
 10
351.8138724866
 20
375.9059415025
 11
368.0773284539
 21
367.7742135189
  0
ARC
  5
384
100
AcDbEntity
  8
7_ALL_FEATURES
100
AcDbCircle
 62
7
  6
CONTINUOUS
 10
53.9064720104
 20
511.921533793
 40
18.6435905467
100
AcDbArc
 50
108.0363286742
 51
109.6600557785
  0
ARC
  5
385
100
AcDbEntity
  8
7_ALL_FEATURES
100
AcDbCircle
 62
7
  6
CONTINUOUS
 10
51.3967514504
 20
512.0244575838
 40
18.534846036
100
AcDbArc
 50
70.3351806715
 51
71.9684348758
  0
ARC
  5
386
100
AcDbEntity
  8
7_ALL_FEATURES
100
AcDbCircle
 62
7
  6
CONTINUOUS
 10
52.7092949608
 20
516.4816830312
 40
13.9233232545
100
AcDbArc
 50
94.429166977
 51
100.6587698987
  0
ARC
  5
387
100
AcDbEntity
  8
7_ALL_FEATURES
100
AcDbCircle
 62
7
  6
CONTINUOUS
 10
52.5847202229
 20
516.6774530972
 40
13.7261398241
100
AcDbArc
 50
79.2964392019
 51
85.6156239224
  0
ARC
  5
388
100
AcDbEntity
  8
7_ALL_FEATURES
100
AcDbCircle
 62
7
  6
CONTINUOUS
 10
52.6340443567
 20
521.6010762441
 40
10.9684552817
100
AcDbArc
 50
84.7690489856
 51
95.2309510144
  0
CIRCLE
  5
389
100
AcDbEntity
  8
7_ALL_FEATURES
100
AcDbCircle
 62
7
  6
CONTINUOUS
 10
205.2957450466
 20
543.4783022828
 40
14.0
  0
CIRCLE
  5
38A
100
AcDbEntity
  8
7_ALL_FEATURES
100
AcDbCircle
 62
7
  6
CONTINUOUS
 10
205.2957450466
 20
543.4783022828
 40
13.5
  0
CIRCLE
  5
38B
100
AcDbEntity
  8
7_ALL_FEATURES
100
AcDbCircle
 62
7
  6
CONTINUOUS
 10
205.2957450466
 20
543.4783022828
 40
10.0
  0
CIRCLE
  5
38C
100
AcDbEntity
  8
7_ALL_FEATURES
100
AcDbCircle
 62
7
  6
CONTINUOUS
 10
205.2957450466
 20
543.4783022828
 40
8.0
  0
CIRCLE
  5
38D
100
AcDbEntity
  8
7_ALL_FEATURES
100
AcDbCircle
 62
7
  6
CONTINUOUS
 10
205.2957450466
 20
543.4783022828
 40
5.0
  0
CIRCLE
  5
38E
100
AcDbEntity
  8
7_ALL_FEATURES
100
AcDbCircle
 62
7
  6
CONTINUOUS
 10
205.2957450466
 20
543.4783022828
 40
3.0
  0
ARC
  5
38F
100
AcDbEntity
  8
3_ALL_AXES
100
AcDbCircle
 62
7
  6
CONTINUOUS
 10
52.6340443567
 20
166.9081058434
 40
8.0
100
AcDbArc
 50
151.3105672734
 51
208.6894327266
  0
ARC
  5
390
100
AcDbEntity
  8
7_ALL_FEATURES
100
AcDbCircle
 62
7
  6
CONTINUOUS
 10
52.6340443567
 20
166.9081058434
 40
7.5
100
AcDbArc
 50
159.1498517451
 51
200.8501500508
  0
ARC
  5
391
100
AcDbEntity
  8
7_ALL_FEATURES
100
AcDbCircle
 62
7
  6
CONTINUOUS
 10
343.0168056751
 20
362.3216775605
 40
15.1415931422
100
AcDbArc
 50
178.6623787492
 51
179.9938582048
  0
ARC
  5
392
100
AcDbEntity
  8
7_ALL_FEATURES
100
AcDbCircle
 62
7
  6
CONTINUOUS
 10
344.8365054654
 20
366.1079963059
 40
15.0686185172
100
AcDbArc
 50
126.8723998969
 51
128.207988194
  0
ARC
  5
393
100
AcDbEntity
  8
7_ALL_FEATURES
100
AcDbCircle
 62
7
  6
CONTINUOUS
 10
357.6374204054
 20
359.8489562602
 40
14.0784126581
100
AcDbArc
 50
359.997845722
 51
1.4432544283
  0
ARC
  5
394
100
AcDbEntity
  8
7_ALL_FEATURES
100
AcDbCircle
 62
7
  6
CONTINUOUS
 10
355.6820855626
 20
355.7677936382
 40
13.9924983913
100
AcDbArc
 50
305.4257056117
 51
306.874818733
  0
ARC
  5
395
100
AcDbEntity
  8
7_ALL_FEATURES
100
AcDbCircle
 62
7
  6
CONTINUOUS
 10
367.6475443434
 20
354.8902657609
 40
12.6623692373
100
AcDbArc
 50
124.7606069897
 51
125.3120255817
  0
ARC
  5
396
100
AcDbEntity
  8
7_ALL_FEATURES
100
AcDbCircle
 62
7
  6
CONTINUOUS
 10
356.6537125529
 20
353.4506597318
 40
11.541773784
100
AcDbArc
 50
296.5705315952
 51
298.7107359931
  0
ARC
  5
397
100
AcDbEntity
  8
7_ALL_FEATURES
100
AcDbCircle
 62
7
  6
CONTINUOUS
 10
357.4700569229
 20
352.7771179506
 40
10.5031892011
100
AcDbArc
 50
294.2345526683
 51
296.5813096074
  0
ARC
  5
398
100
AcDbEntity
  8
02___PRT_ALL_AXES
100
AcDbCircle
 62
7
  6
CONTINUOUS
 10
357.1210285611
 20
354.8904362663
 40
10.2531666198
100
AcDbArc
 50
301.3993244598
 51
302.5792923056
  0
ARC
  5
399
100
AcDbEntity
  8
7_ALL_FEATURES
100
AcDbCircle
 62
7
  6
CONTINUOUS
 10
342.2937858358
 20
336.9957195846
 40
9.1578213287
100
AcDbArc
 50
260.1013748125
 51
263.1253370444
  0
ARC
  5
39A
100
AcDbEntity
  8
7_ALL_FEATURES
100
AcDbCircle
 62
7
  6
CONTINUOUS
 10
349.7515884726
 20
367.4773004589
 40
9.052645624
100
AcDbArc
 50
107.5787156335
 51
107.9915401642
  0
ARC
  5
39B
100
AcDbEntity
  8
7_ALL_FEATURES
100
AcDbCircle
 62
7
  6
CONTINUOUS
 10
342.6236062994
 20
336.4742088723
 40
8.187200764
100
AcDbArc
 50
280.6697031007
 51
283.9426041616
  0
ARC
  5
39C
100
AcDbEntity
  8
7_ALL_FEATURES
100
AcDbCircle
 62
7
  6
CONTINUOUS
 10
343.8543968472
 20
147.6671146345
 40
6.17195451
100
AcDbArc
 50
63.4457060688
 51
65.9301222637
  0
ARC
  5
39D
100
AcDbEntity
  8
7_ALL_FEATURES
100
AcDbCircle
 62
7
  6
CONTINUOUS
 10
337.7966562421
 20
357.5816057569
 40
5.3415138288
100
AcDbArc
 50
230.8675086932
 51
243.3790100893
  0
ARC
  5
39E
100
AcDbEntity
  8
7_ALL_FEATURES
100
AcDbCircle
 62
7
  6
CONTINUOUS
 10
340.2708612145
 20
356.3431030426
 40
5.3402541722
100
AcDbArc
 50
230.8721652508
 51
243.3744489217
  0
ARC
  5
39F
100
AcDbEntity
  8
7_ALL_FEATURES
100
AcDbCircle
 62
7
  6
CONTINUOUS
 10
345.5542319509
 20
373.1060802043
 40
5.3036554493
100
AcDbArc
 50
63.4471825278
 51
76.0838240074
  0
ARC
  5
3A0
100
AcDbEntity
  8
7_ALL_FEATURES
100
AcDbCircle
 62
7
  6
CONTINUOUS
 10
348.0293032086
 20
371.8769201285
 40
5.2961695931
100
AcDbArc
 50
54.8271511433
 51
63.4173011911
  0
ARC
  5
3A1
100
AcDbEntity
  8
7_ALL_FEATURES
100
AcDbCircle
 62
7
  6
CONTINUOUS
 10
340.2430514254
 20
356.3034883285
 40
5.2923820198
100
AcDbArc
 50
243.4513903924
 51
251.9975205815
  0
ARC
  5
3A2
100
AcDbEntity
  8
7_ALL_FEATURES
100
AcDbCircle
 62
7
  6
CONTINUOUS
 10
343.0816449203
 20
374.3554631269
 40
5.2919556733
100
AcDbArc
 50
54.8460101907
 51
63.411003717
  0
ARC
  5
3A3
100
AcDbEntity
  8
7_ALL_FEATURES
100
AcDbCircle
 62
7
  6
CONTINUOUS
 10
337.7676867197
 20
357.5398714965
 40
5.2912278517
100
AcDbArc
 50
243.4569522297
 51
252.0939174967
  0
ARC
  5
3A4
100
AcDbEntity
  8
7_ALL_FEATURES
100
AcDbCircle
 62
7
  6
CONTINUOUS
 10
345.5578628686
 20
373.1201349759
 40
5.289460906
100
AcDbArc
 50
54.802876546
 51
63.4143087005
  0
ARC
  5
3A5
100
AcDbEntity
  8
7_ALL_FEATURES
100
AcDbCircle
 62
7
  6
CONTINUOUS
 10
335.2876132168
 20
358.7646844887
 40
5.2776175279
100
AcDbArc
 50
243.4376155563
 51
252.1188663854
  0
ARC
  5
3A6
100
AcDbEntity
  8
02___PRT_ALL_AXES
100
AcDbCircle
 62
7
  6
CONTINUOUS
 10
363.9638763909
 20
361.7363149541
 40
4.2407913234
100
AcDbArc
 50
51.1422964194
 51
57.0661765335
  0
ARC
  5
3A7
100
AcDbEntity
  8
02___PRT_ALL_AXES
100
AcDbCircle
 62
7
  6
CONTINUOUS
 10
357.9120524567
 20
349.6257409931
 40
4.2219754098
100
AcDbArc
 50
249.7945788387
 51
255.9544354348
  0
ARC
  5
3A8
100
AcDbEntity
  8
7_ALL_FEATURES
100
AcDbCircle
 62
7
  6
CONTINUOUS
 10
346.104532906
 20
330.3331270658
 40
1.2663689376
100
AcDbArc
 50
0.0363321537
 51
9.9019213272
  0
ARC
  5
3A9
100
AcDbEntity
  8
7_ALL_FEATURES
100
AcDbCircle
 62
7
  6
CONTINUOUS
 10
338.6300991225
 20
330.3337457994
 40
1.2591974579
100
AcDbArc
 50
170.1111961151
 51
179.9911735597
  0
SPLINE
  5
3AA
100
AcDbEntity
  8
02___PRT_ALL_AXES
100
AcDbSpline
 62
7
  6
CONTINUOUS
 70
0
 71
3
 72
13
 73
9
 74
0
 42
0.0000001
 43
0.0000001
 44
0.0000000001
 40
0.0
 40
0.0
 40
0.0
 40
0.0
 40
0.1868167647
 40
0.3667709697
 40
0.5340091576
 40
0.6835308719
 40
0.9090300568
 40
1.0
 40
1.0
 40
1.0
 40
1.0
 10
56.9641713756
 20
518.4783022828
 30
0.0
 10
56.9641713756
 20
518.3157513459
 30
0.0
 10
56.9822980908
 20
517.9963372871
 30
0.0
 10
57.058196757
 20
517.5371863928
 30
0.0
 10
57.1674328614
 20
517.1185034632
 30
0.0
 10
57.3194328398
 20
516.6715312226
 30
0.0
 10
57.4782134232
 20
516.297904013
 30
0.0
 10
57.5981861479
 20
516.0500387302
 30
0.0
 10
57.6335768262
 20
515.979237475
 30
0.0
  0
LINE
  5
3AB
100
AcDbEntity
  8
02___PRT_ALL_AXES
100
AcDbLine
 62
7
  6
CONTINUOUS
 10
57.6335768262
 20
515.979237475
 11
57.634044232
 21
515.9783024006
  0
SPLINE
  5
3AC
100
AcDbEntity
  8
7_ALL_FEATURES
100
AcDbSpline
 62
7
  6
CONTINUOUS
 70
0
 71
3
 72
9
 73
5
 74
0
 42
0.0000001
 43
0.0000001
 44
0.0000000001
 40
0.0
 40
0.0
 40
0.0
 40
0.0
 40
0.1910917491
 40
1.0
 40
1.0
 40
1.0
 40
1.0
 10
57.1340443567
 20
531.6778785615
 30
0.0
 10
57.0095694085
 20
531.725346117
 30
0.0
 10
56.355359994
 20
531.966039373
 30
0.0
 10
55.6844058197
 20
532.1638459559
 30
0.0
 10
55.1340443567
 20
532.28678764
 30
0.0
  0
SPLINE
  5
3AD
100
AcDbEntity
  8
7_ALL_FEATURES
100
AcDbSpline
 62
7
  6
CONTINUOUS
 70
0
 71
3
 72
9
 73
5
 74
0
 42
0.0000001
 43
0.0000001
 44
0.0000000001
 40
0.0
 40
0.0
 40
0.0
 40
0.0
 40
0.3030591423
 40
1.0
 40
1.0
 40
1.0
 40
1.0
 10
50.1340443567
 20
532.28678764
 30
0.0
 10
49.9278104447
 20
532.2407183815
 30
0.0
 10
49.2510917099
 20
532.0716735995
 30
0.0
 10
48.588111297
 20
531.8510334651
 30
0.0
 10
48.1340443567
 20
531.6778785615
 30
0.0
  0
LINE
  5
3AE
100
AcDbEntity
  8
0
100
AcDbLine
 62
2
  6
CONTINUOUS
 10
346.3709016343
 20
151.0666763514
 11
346.3708617905
 21
151.0577495834
  0
SPLINE
  5
3AF
100
AcDbEntity
  8
0
100
AcDbSpline
 62
2
  6
CONTINUOUS
 70
0
 71
3
 72
72
 73
68
 74
0
 42
0.0000001
 43
0.0000001
 44
0.0000000001
 40
0.0
 40
0.0
 40
0.0
 40
0.0
 40
0.0625
 40
0.09375
 40
0.125
 40
0.140625
 40
0.15625
 40
0.1640625
 40
0.16796875
 40
0.171875
 40
0.1796875
 40
0.1875
 40
0.203125
 40
0.21875
 40
0.25
 40
0.28125
 40
0.296875
 40
0.3125
 40
0.3203125
 40
0.328125
 40
0.33203125
 40
0.3359375
 40
0.34375
 40
0.359375
 40
0.375
 40
0.40625
 40
0.4375
 40
0.453125
 40
0.46875
 40
0.484375
 40
0.4921875
 40
0.49609375
 40
0.5
 40
0.50390625
 40
0.5078125
 40
0.515625
 40
0.53125
 40
0.546875
 40
0.5625
 40
0.59375
 40
0.625
 40
0.640625
 40
0.65625
 40
0.6640625
 40
0.66796875
 40
0.671875
 40
0.6796875
 40
0.6875
 40
0.703125
 40
0.71875
 40
0.75
 40
0.78125
 40
0.796875
 40
0.8125
 40
0.8203125
 40
0.828125
 40
0.83203125
 40
0.833984375
 40
0.8359375
 40
0.83984375
 40
0.84375
 40
0.859375
 40
0.875
 40
0.890625
 40
0.90625
 40
0.9375
 40
1.0
 40
1.0
 40
1.0
 40
1.0
 10
346.3708617905
 20
151.0577495838
 30
0.0
 10
346.3707818937
 20
151.0542591822
 30
0.0
 10
346.3706619717
 20
151.0490231538
 30
0.0
 10
346.3705023829
 20
151.0420434871
 30
0.0
 10
346.3704019999
 20
151.0376776442
 30
0.0
 10
346.3703231527
 20
151.0341930665
 30
0.0
 10
346.3702705452
 20
151.0319967396
 30
0.0
 10
346.3702403896
 20
151.030496318
 30
0.0
 10
346.3702127226
 20
151.029581033
 30
0.0
 10
346.3701457443
 20
151.0284476258
 30
0.0
 10
346.3700754816
 20
151.0271055513
 30
0.0
 10
346.3699555391
 20
151.0249164958
 30
0.0
 10
346.369808187
 20
151.0221944612
 30
0.0
 10
346.3695709812
 20
151.0178312561
 30
0.0
 10
346.3692749878
 20
151.0123797331
 30
0.0
 10
346.368978742
 20
151.0069282136
 30
0.0
 10
346.3687419402
 20
151.002565003
 30
0.0
 10
346.3685935782
 20
150.9998429821
 30
0.0
 10
346.3684757059
 20
150.9976538985
 30
0.0
 10
346.368400173
 20
150.9963118956
 30
0.0
 10
346.3683440128
 20
150.9951783415
 30
0.0
 10
346.3682722782
 20
150.9942636549
 30
0.0
 10
346.3681395076
 20
150.9927646272
 30
0.0
 10
346.3679536096
 20
150.990570107
 30
0.0
 10
346.367654067
 20
150.9870885444
 30
0.0
 10
346.3672803357
 20
150.9827262762
 30
0.0
 10
346.3669064488
 20
150.9783681805
 30
0.0
 10
346.3666071552
 20
150.974879942
 30
0.0
 10
346.3663833303
 20
150.9722665453
 30
0.0
 10
346.3661947354
 20
150.9700801751
 30
0.0
 10
346.3660667924
 20
150.968566432
 30
0.0
 10
346.3659873213
 20
150.9676753417
 30
0.0
 10
346.3659456366
 20
150.9670805308
 30
0.0
 10
346.3658354579
 20
150.9662047397
 30
0.0
 10
346.3657124443
 20
150.9651350273
 30
0.0
 10
346.3654860392
 20
150.9632173657
 30
0.0
 10
346.3651684228
 20
150.9605017293
 30
0.0
 10
346.3647847924
 20
150.9572327179
 30
0.0
 10
346.3642741543
 20
150.9528777457
 30
0.0
 10
346.3636355654
 20
150.9474318276
 30
0.0
 10
346.362997055
 20
150.9419900841
 30
0.0
 10
346.3624862914
 20
150.9376284324
 30
0.0
 10
346.3621669129
 20
150.9349209552
 30
0.0
 10
346.3619436558
 20
150.9329885616
 30
0.0
 10
346.361815598
 20
150.9319424722
 30
0.0
 10
346.361685723
 20
150.931115387
 30
0.0
 10
346.3615240014
 20
150.9300065439
 30
0.0
 10
346.3612648991
 20
150.9282743004
 30
0.0
 10
346.3609411412
 20
150.9260946507
 30
0.0
 10
346.3604230563
 20
150.9226152109
 30
0.0
 10
346.3597755114
 20
150.9182632947
 30
0.0
 10
346.359127812
 20
150.9139118446
 30
0.0
 10
346.3586099745
 20
150.9104316592
 30
0.0
 10
346.3582855981
 20
150.9082538736
 30
0.0
 10
346.3580277636
 20
150.9065178087
 30
0.0
 10
346.3578628145
 20
150.905418694
 30
0.0
 10
346.3577549708
 20
150.9046775212
 30
0.0
 10
346.3576814226
 20
150.9042098604
 30
0.0
 10
346.3575629658
 20
150.9035759712
 30
0.0
 10
346.3574302447
 20
150.9028404273
 30
0.0
 10
346.3570990803
 20
150.9010283585
 30
0.0
 10
346.3566076401
 20
150.8983298965
 30
0.0
 10
346.3559493535
 20
150.8947207211
 30
0.0
 10
346.3552918783
 20
150.8911145487
 30
0.0
 10
346.3544149616
 20
150.886305271
 30
0.0
 10
346.3528804901
 20
150.8778895262
 30
0.0
 10
346.3515651832
 20
150.8706758623
 30
0.0
 10
346.3506883221
 20
150.8658667904
 30
0.0
  0
SPLINE
  5
3B0
100
AcDbEntity
  8
0
100
AcDbSpline
 62
2
  6
CONTINUOUS
 70
0
 71
3
 72
75
 73
71
 74
0
 42
0.0000001
 43
0.0000001
 44
0.0000000001
 40
0.0
 40
0.0
 40
0.0
 40
0.0
 40
0.0625
 40
0.09375
 40
0.109375
 40
0.125
 40
0.140625
 40
0.15625
 40
0.16015625
 40
0.1640625
 40
0.16796875
 40
0.171875
 40
0.1796875
 40
0.1875
 40
0.203125
 40
0.21875
 40
0.25
 40
0.28125
 40
0.296875
 40
0.3125
 40
0.3203125
 40
0.328125
 40
0.33203125
 40
0.3359375
 40
0.34375
 40
0.359375
 40
0.375
 40
0.40625
 40
0.4375
 40
0.453125
 40
0.46875
 40
0.484375
 40
0.4921875
 40
0.49609375
 40
0.5
 40
0.50390625
 40
0.5078125
 40
0.515625
 40
0.53125
 40
0.546875
 40
0.5625
 40
0.59375
 40
0.625
 40
0.640625
 40
0.65625
 40
0.6640625
 40
0.66796875
 40
0.671875
 40
0.6796875
 40
0.6875
 40
0.703125
 40
0.71875
 40
0.75
 40
0.78125
 40
0.796875
 40
0.8125
 40
0.8203125
 40
0.828125
 40
0.83203125
 40
0.833984375
 40
0.8359375
 40
0.83984375
 40
0.84375
 40
0.8515625
 40
0.859375
 40
0.875
 40
0.890625
 40
0.90625
 40
0.9375
 40
1.0
 40
1.0
 40
1.0
 40
1.0
 10
346.0181591923
 20
150.245471093
 30
0.0
 10
346.0152482983
 20
150.2422983697
 30
0.0
 10
346.0108819303
 20
150.2375392606
 30
0.0
 10
346.0057879288
 20
150.2319870514
 30
0.0
 10
346.0028769359
 20
150.2288142394
 30
0.0
 10
346.0006940689
 20
150.2264349692
 30
0.0
 10
345.9985097586
 20
150.2240544044
 30
0.0
 10
345.9968755724
 20
150.2222726104
 30
0.0
 10
345.9957798219
 20
150.221079103
 30
0.0
 10
345.9952431839
 20
150.220492429
 30
0.0
 10
345.9946628553
 20
150.2198665649
 30
0.0
 10
345.9936811953
 20
150.2188456054
 30
0.0
 10
345.9925253009
 20
150.2176332543
 30
0.0
 10
345.9906360915
 20
150.2156578118
 30
0.0
 10
345.9882881955
 20
150.2132007204
 30
0.0
 10
345.9845239774
 20
150.2092625808
 30
0.0
 10
345.9798211257
 20
150.2043420101
 30
0.0
 10
345.9751180709
 20
150.199421516
 30
0.0
 10
345.9713541778
 20
150.1954832538
 30
0.0
 10
345.9690054692
 20
150.1930264689
 30
0.0
 10
345.9671179256
 20
150.1910503982
 30
0.0
 10
345.9659577904
 20
150.1898396465
 30
0.0
 10
345.9649848356
 20
150.1888154038
 30
0.0
 10
345.9641756033
 20
150.1879942925
 30
0.0
 10
345.9628355033
 20
150.1866517114
 30
0.0
 10
345.9608813887
 20
150.1846845008
 30
0.0
 10
345.9577770045
 20
150.1815644993
 30
0.0
 10
345.9538887745
 20
150.1776549317
 30
0.0
 10
345.9500037946
 20
150.1737492078
 30
0.0
 10
345.9468942102
 20
150.1706230564
 30
0.0
 10
345.9445648734
 20
150.1682808535
 30
0.0
 10
345.9426149211
 20
150.1663216372
 30
0.0
 10
345.9412672674
 20
150.1649646303
 30
0.0
 10
345.9404701519
 20
150.16416665
 30
0.0
 10
345.9399484517
 20
150.1636316811
 30
0.0
 10
345.9391357196
 20
150.1628539205
 30
0.0
 10
345.9381535921
 20
150.161901595
 30
0.0
 10
345.9363875705
 20
150.1601955666
 30
0.0
 10
345.9338894155
 20
150.1577790181
 30
0.0
 10
345.9308810219
 20
150.1548703036
 30
0.0
 10
345.9268736407
 20
150.1509952301
 30
0.0
 10
345.9218623569
 20
150.1461494348
 30
0.0
 10
345.916854539
 20
150.1413074377
 30
0.0
 10
345.9128416123
 20
150.137426287
 30
0.0
 10
345.9103484813
 20
150.1350175513
 30
0.0
 10
345.9085733579
 20
150.1332974233
 30
0.0
 10
345.9076058286
 20
150.1323677059
 30
0.0
 10
345.906814702
 20
150.1316384484
 30
0.0
 10
345.9057653938
 20
150.1306582394
 30
0.0
 10
345.9041202545
 20
150.1291282623
 30
0.0
 10
345.9020522764
 20
150.12720266
 30
0.0
 10
345.8987499493
 20
150.1241290195
 30
0.0
 10
345.8946199727
 20
150.1202845691
 30
0.0
 10
345.8904902198
 20
150.1164405638
 30
0.0
 10
345.8871875346
 20
150.1133662112
 30
0.0
 10
345.8851204518
 20
150.1114423893
 30
0.0
 10
345.8834734772
 20
150.1099087623
 30
0.0
 10
345.8824288413
 20
150.1089378451
 30
0.0
 10
345.8817282135
 20
150.1082830558
 30
0.0
 10
345.881279951
 20
150.1078700059
 30
0.0
 10
345.8806512284
 20
150.1073104719
 30
0.0
 10
345.8799271144
 20
150.1066612103
 30
0.0
 10
345.8787340012
 20
150.1055943623
 30
0.0
 10
345.8772544331
 20
150.1042703997
 30
0.0
 10
345.874880516
 20
150.1021466955
 30
0.0
 10
345.8719153869
 20
150.0994939056
 30
0.0
 10
345.8683562615
 20
150.0963097701
 30
0.0
 10
345.8636110996
 20
150.0920645308
 30
0.0
 10
345.8553069076
 20
150.0846352333
 30
0.0
 10
345.8481890832
 20
150.0782673082
 30
0.0
 10
345.8434438548
 20
150.074022015
 30
0.0
  0
SPLINE
  5
3B1
100
AcDbEntity
  8
0
100
AcDbSpline
 62
2
  6
CONTINUOUS
 70
0
 71
3
 72
189
 73
185
 74
0
 42
0.0000001
 43
0.0000001
 44
0.0000000001
 40
0.0
 40
0.0
 40
0.0
 40
0.0
 40
0.03125
 40
0.046875
 40
0.0625
 40
0.078125
 40
0.09375
 40
0.1015625
 40
0.109375
 40
0.1171875
 40
0.12109375
 40
0.125
 40
0.12890625
 40
0.1328125
 40
0.134765625
 40
0.13671875
 40
0.138671875
 40
0.1396484375
 40
0.140625
 40
0.1416015625
 40
0.1420898438
 40
0.142578125
 40
0.1428222656
 40
0.1430664062
 40
0.1435546875
 40
0.14453125
 40
0.1455078125
 40
0.146484375
 40
0.1484375
 40
0.150390625
 40
0.15234375
 40
0.15625
 40
0.1640625
 40
0.171875
 40
0.1796875
 40
0.1875
 40
0.203125
 40
0.21875
 40
0.234375
 40
0.2421875
 40
0.25
 40
0.2578125
 40
0.265625
 40
0.26953125
 40
0.2734375
 40
0.27734375
 40
0.279296875
 40
0.28125
 40
0.283203125
 40
0.2841796875
 40
0.28515625
 40
0.2854003906
 40
0.2856445312
 40
0.2861328125
 40
0.2866210938
 40
0.287109375
 40
0.2890625
 40
0.29296875
 40
0.296875
 40
0.30078125
 40
0.3046875
 40
0.3125
 40
0.3203125
 40
0.328125
 40
0.34375
 40
0.359375
 40
0.375
 40
0.3828125
 40
0.390625
 40
0.3984375
 40
0.40625
 40
0.4140625
 40
0.41796875
 40
0.421875
 40
0.423828125
 40
0.42578125
 40
0.4267578125
 40
0.427734375
 40
0.4287109375
 40
0.4291992188
 40
0.4296875
 40
0.4306640625
 40
0.431640625
 40
0.43359375
 40
0.435546875
 40
0.4375
 40
0.44140625
 40
0.4453125
 40
0.44921875
 40
0.453125
 40
0.4609375
 40
0.46875
 40
0.484375
 40
0.5
 40
0.515625
 40
0.53125
 40
0.5390625
 40
0.546875
 40
0.55078125
 40
0.5546875
 40
0.55859375
 40
0.5625
 40
0.564453125
 40
0.56640625
 40
0.568359375
 40
0.5693359375
 40
0.5703125
 40
0.5708007812
 40
0.5712890625
 40
0.572265625
 40
0.5732421875
 40
0.57421875
 40
0.576171875
 40
0.578125
 40
0.58203125
 40
0.5859375
 40
0.59375
 40
0.6015625
 40
0.609375
 40
0.6171875
 40
0.625
 40
0.640625
 40
0.65625
 40
0.671875
 40
0.6796875
 40
0.6875
 40
0.6953125
 40
0.69921875
 40
0.703125
 40
0.70703125
 40
0.7109375
 40
0.712890625
 40
0.7133789062
 40
0.7138671875
 40
0.7143554688
 40
0.7145996094
 40
0.71484375
 40
0.7158203125
 40
0.716796875
 40
0.71875
 40
0.720703125
 40
0.72265625
 40
0.7265625
 40
0.73046875
 40
0.734375
 40
0.7421875
 40
0.75
 40
0.7578125
 40
0.765625
 40
0.78125
 40
0.796875
 40
0.8125
 40
0.8203125
 40
0.828125
 40
0.8359375
 40
0.84375
 40
0.84765625
 40
0.849609375
 40
0.8515625
 40
0.853515625
 40
0.85546875
 40
0.8564453125
 40
0.8569335938
 40
0.8571777344
 40
0.857421875
 40
0.8579101562
 40
0.8583984375
 40
0.859375
 40
0.8603515625
 40
0.861328125
 40
0.86328125
 40
0.8671875
 40
0.87109375
 40
0.875
 40
0.87890625
 40
0.8828125
 40
0.890625
 40
0.8984375
 40
0.90625
 40
0.921875
 40
0.9375
 40
0.953125
 40
0.96875
 40
1.0
 40
1.0
 40
1.0
 40
1.0
 10
345.1759646694
 20
149.6408764558
 30
0.0
 10
345.1274048246
 20
149.6216126547
 30
0.0
 10
345.0545650574
 20
149.5927169531
 30
0.0
 10
344.9574453679
 20
149.554189351
 30
0.0
 10
344.8846056007
 20
149.5252936494
 30
0.0
 10
344.8117658335
 20
149.4963979478
 30
0.0
 10
344.7510660275
 20
149.4723181964
 30
0.0
 10
344.7025061827
 20
149.4530543953
 30
0.0
 10
344.6660862992
 20
149.4386065445
 30
0.0
 10
344.635736396
 20
149.426566669
 30
0.0
 10
344.6114564741
 20
149.4169347681
 30
0.0
 10
344.5932465309
 20
149.4097108437
 30
0.0
 10
344.5750365944
 20
149.4024869147
 30
0.0
 10
344.5598616263
 20
149.3964669881
 30
0.0
 10
344.5477216991
 20
149.3916510149
 30
0.0
 10
344.5386166242
 20
149.3880391222
 30
0.0
 10
344.5310294738
 20
149.3850289341
 30
0.0
 10
344.5249588296
 20
149.3826214061
 30
0.0
 10
344.5204083707
 20
149.3808140592
 30
0.0
 10
344.5166082922
 20
149.3793133472
 30
0.0
 10
344.513586238
 20
149.3781006431
 30
0.0
 10
344.5116564473
 20
149.377370334
 30
0.0
 10
344.510206529
 20
149.3767228059
 30
0.0
 10
344.508413759
 20
149.3763062965
 30
0.0
 10
344.5053362916
 20
149.3755370568
 30
0.0
 10
344.5009086035
 20
149.3744592375
 30
0.0
 10
344.495608778
 20
149.3731568251
 30
0.0
 10
344.488537663
 20
149.3714234292
 30
0.0
 10
344.4797003753
 20
149.3692556023
 30
0.0
 10
344.4690949427
 20
149.3666546731
 30
0.0
 10
344.4549546057
 20
149.363186606
 30
0.0
 10
344.4302089041
 20
149.3571175639
 30
0.0
 10
344.3948579604
 20
149.3484474643
 30
0.0
 10
344.3524368028
 20
149.3380433617
 30
0.0
 10
344.3100156519
 20
149.3276392546
 30
0.0
 10
344.2534541151
 20
149.3137671133
 30
0.0
 10
344.1827521949
 20
149.2964269361
 30
0.0
 10
344.0979098903
 20
149.2756187238
 30
0.0
 10
344.0272079699
 20
149.2582785468
 30
0.0
 10
343.9706464334
 20
149.2444064053
 30
0.0
 10
343.9282252815
 20
149.2340022987
 30
0.0
 10
343.8858041279
 20
149.2235981943
 30
0.0
 10
343.8504531718
 20
149.2149281001
 30
0.0
 10
343.8221723951
 20
149.2079920411
 30
0.0
 10
343.800961845
 20
149.202789952
 30
0.0
 10
343.7832862833
 20
149.1984550203
 30
0.0
 10
343.7691460658
 20
149.1949867552
 30
0.0
 10
343.758540269
 20
149.1923864302
 30
0.0
 10
343.7497041204
 20
149.1902167133
 30
0.0
 10
343.7426306816
 20
149.1884871732
 30
0.0
 10
343.7386611352
 20
149.1875015326
 30
0.0
 10
343.7360000389
 20
149.1868647554
 30
0.0
 10
343.7342611432
 20
149.1863917372
 30
0.0
 10
343.731831126
 20
149.1861540571
 30
0.0
 10
343.728974917
 20
149.1857863561
 30
0.0
 10
343.7232317641
 20
149.1850933398
 30
0.0
 10
343.7108062292
 20
149.1835670322
 30
0.0
 10
343.6916778834
 20
149.1812356062
 30
0.0
 10
343.6687290717
 20
149.1784307193
 30
0.0
 10
343.6457788681
 20
149.175627752
 30
0.0
 10
343.6151790828
 20
149.1718897917
 30
0.0
 10
343.5769291844
 20
149.1672175715
 30
0.0
 10
343.5310293777
 20
149.1616108086
 30
0.0
 10
343.4698296104
 20
149.1541351593
 30
0.0
 10
343.39332991
 20
149.1447905858
 30
0.0
 10
343.3015302657
 20
149.1335771029
 30
0.0
 10
343.2250305632
 20
149.1242325317
 30
0.0
 10
343.1638308004
 20
149.1167568773
 30
0.0
 10
343.11793098
 20
149.1111501302
 30
0.0
 10
343.0720311533
 20
149.1055434067
 30
0.0
 10
343.0261313499
 20
149.0999365952
 30
0.0
 10
342.9878814415
 20
149.095264526
 30
0.0
 10
342.9572816766
 20
149.0915262578
 30
0.0
 10
342.9381564549
 20
149.0891912353
 30
0.0
 10
342.9228571219
 20
149.0873200223
 30
0.0
 10
342.913293112
 20
149.086157804
 30
0.0
 10
342.9056463174
 20
149.0852113326
 30
0.0
 10
342.8998991376
 20
149.0845471953
 30
0.0
 10
342.8951482616
 20
149.0838483173
 30
0.0
 10
342.8911897103
 20
149.0838864044
 30
0.0
 10
342.8872587259
 20
149.0838201986
 30
0.0
 10
342.8823355565
 20
149.0837731514
 30
0.0
 10
342.8744637608
 20
149.0836779175
 30
0.0
 10
342.8646222063
 20
149.0835657228
 30
0.0
 10
342.8528131155
 20
149.083428158
 30
0.0
 10
342.8370673906
 20
149.0832457623
 30
0.0
 10
342.8173853274
 20
149.0830174162
 30
0.0
 10
342.7937668116
 20
149.0827435515
 30
0.0
 10
342.7701483065
 20
149.0824696466
 30
0.0
 10
342.7386569627
 20
149.0821044541
 30
0.0
 10
342.6992927842
 20
149.0816479586
 30
0.0
 10
342.6363100978
 20
149.0809175685
 30
0.0
 10
342.5575817401
 20
149.08000458
 30
0.0
 10
342.4631077108
 20
149.0789089942
 30
0.0
 10
342.3686336814
 20
149.0778134082
 30
0.0
 10
342.2899053237
 20
149.0769004202
 30
0.0
 10
342.2269226374
 20
149.0761700291
 30
0.0
 10
342.1875584587
 20
149.0757135363
 30
0.0
 10
342.1560671152
 20
149.0753483382
 30
0.0
 10
342.1324486093
 20
149.0750744503
 30
0.0
 10
342.1088300965
 20
149.0748005218
 30
0.0
 10
342.089148024
 20
149.0745723742
 30
0.0
 10
342.0734023179
 20
149.0743895737
 30
0.0
 10
342.0615931698
 20
149.0742532451
 30
0.0
 10
342.0517517947
 20
149.074137183
 30
0.0
 10
342.043879633
 20
149.0740498391
 30
0.0
 10
342.038957395
 20
149.0739827122
 30
0.0
 10
342.0350244988
 20
149.073957723
 30
0.0
 10
342.0310737356
 20
149.073827914
 30
0.0
 10
342.0262631656
 20
149.0744159109
 30
0.0
 10
342.0204605845
 20
149.0749461093
 30
0.0
 10
342.0127342521
 20
149.0757143033
 30
0.0
 10
342.0030727611
 20
149.0766535695
 30
0.0
 10
341.9876163737
 20
149.0781681179
 30
0.0
 10
341.9682952053
 20
149.0800572897
 30
0.0
 10
341.9373817182
 20
149.0830822078
 30
0.0
 10
341.8987397281
 20
149.0868625856
 30
0.0
 10
341.8523693963
 20
149.0913993691
 30
0.0
 10
341.8059990494
 20
149.0959360641
 30
0.0
 10
341.7596287065
 20
149.1004727828
 30
0.0
 10
341.6978015812
 20
149.1065217328
 30
0.0
 10
341.6205176753
 20
149.1140829233
 30
0.0
 10
341.5277769871
 20
149.1231563494
 30
0.0
 10
341.450493083
 20
149.1307175424
 30
0.0
 10
341.3886659538
 20
149.1367664871
 30
0.0
 10
341.3422956231
 20
149.1413032218
 30
0.0
 10
341.3036536291
 20
149.1450837508
 30
0.0
 10
341.2727401501
 20
149.1481083609
 30
0.0
 10
341.2495547232
 20
149.1503763076
 30
0.0
 10
341.2263705088
 20
149.1526462042
 30
0.0
 10
341.2070465532
 20
149.1545317109
 30
0.0
 10
341.1944928545
 20
149.155768342
 30
0.0
 10
341.1886916182
 20
149.1563274816
 30
0.0
 10
341.1858043858
 20
149.1566285777
 30
0.0
 10
341.1833549431
 20
149.1568096722
 30
0.0
 10
341.1815740572
 20
149.1572418727
 30
0.0
 10
341.1788567781
 20
149.1578162785
 30
0.0
 10
341.1748001079
 20
149.1587088416
 30
0.0
 10
341.1675739058
 20
149.1602725532
 30
0.0
 10
341.1585460746
 20
149.162235107
 30
0.0
 10
341.1477105706
 20
149.164586784
 30
0.0
 10
341.1332639677
 20
149.1677235367
 30
0.0
 10
341.1152054616
 20
149.1716440715
 30
0.0
 10
341.0935353624
 20
149.176348887
 30
0.0
 10
341.0646418591
 20
149.1826219137
 30
0.0
 10
341.0285249929
 20
149.1904632179
 30
0.0
 10
340.9851847478
 20
149.199872774
 30
0.0
 10
340.9418445043
 20
149.2092823324
 30
0.0
 10
340.8840575124
 20
149.2218284096
 30
0.0
 10
340.8118237727
 20
149.2375110063
 30
0.0
 10
340.7251432852
 20
149.2563301224
 30
0.0
 10
340.6529095448
 20
149.2720127184
 30
0.0
 10
340.5951225543
 20
149.284558797
 30
0.0
 10
340.5517823064
 20
149.293968351
 30
0.0
 10
340.5084420775
 20
149.3033779241
 30
0.0
 10
340.4723251613
 20
149.3112191752
 30
0.0
 10
340.4470434351
 20
149.3167081683
 30
0.0
 10
340.4325965546
 20
149.3198445526
 30
0.0
 10
340.4217619007
 20
149.3221973568
 30
0.0
 10
340.4109253109
 20
149.3245481886
 30
0.0
 10
340.4019008504
 20
149.32651336
 30
0.0
 10
340.3955719098
 20
149.3278769387
 30
0.0
 10
340.3924235838
 20
149.3285751768
 30
0.0
 10
340.3905985527
 20
149.3289476923
 30
0.0
 10
340.3890344376
 20
149.3295860441
 30
0.0
 10
340.3869899557
 20
149.3302929612
 30
0.0
 10
340.3837687158
 20
149.3314749012
 30
0.0
 10
340.379725035
 20
149.3329348722
 30
0.0
 10
340.3748799499
 20
149.3346943076
 30
0.0
 10
340.368417279
 20
149.3370376158
 30
0.0
 10
340.3571087965
 20
149.3411396191
 30
0.0
 10
340.3409531984
 20
149.346998989
 30
0.0
 10
340.3215667478
 20
149.354030505
 30
0.0
 10
340.3021802257
 20
149.3610619482
 30
0.0
 10
340.2827937227
 20
149.3680934108
 30
0.0
 10
340.2569450453
 20
149.3774686876
 30
0.0
 10
340.2246342009
 20
149.3891877858
 30
0.0
 10
340.1858611866
 20
149.4032507027
 30
0.0
 10
340.1341638346
 20
149.4220012589
 30
0.0
 10
340.0695421444
 20
149.445439454
 30
0.0
 10
339.9919961163
 20
149.4735652882
 30
0.0
 10
339.9144500882
 20
149.5016911224
 30
0.0
 10
339.811055384
 20
149.5391922346
 30
0.0
 10
339.7335093559
 20
149.5673180688
 30
0.0
 10
339.6818120038
 20
149.5860686249
 30
0.0
  0
SPLINE
  5
3B2
100
AcDbEntity
  8
0
100
AcDbSpline
 62
2
  6
CONTINUOUS
 70
0
 71
3
 72
57
 73
53
 74
0
 42
0.0000001
 43
0.0000001
 44
0.0000000001
 40
0.0
 40
0.0
 40
0.0
 40
0.0
 40
0.125
 40
0.1875
 40
0.25
 40
0.3125
 40
0.34375
 40
0.375
 40
0.40625
 40
0.4375
 40
0.453125
 40
0.46875
 40
0.4765625
 40
0.484375
 40
0.4921875
 40
0.49609375
 40
0.5
 40
0.50390625
 40
0.5078125
 40
0.515625
 40
0.5234375
 40
0.53125
 40
0.546875
 40
0.5625
 40
0.59375
 40
0.609375
 40
0.625
 40
0.640625
 40
0.65625
 40
0.66015625
 40
0.6640625
 40
0.666015625
 40
0.66796875
 40
0.671875
 40
0.6796875
 40
0.6875
 40
0.703125
 40
0.71875
 40
0.75
 40
0.78125
 40
0.796875
 40
0.8125
 40
0.8203125
 40
0.828125
 40
0.83203125
 40
0.8359375
 40
0.84375
 40
0.859375
 40
0.875
 40
0.90625
 40
0.9375
 40
1.0
 40
1.0
 40
1.0
 40
1.0
 10
339.6818118415
 20
149.5860686986
 30
0.0
 10
339.6766599706
 20
149.5884243734
 30
0.0
 10
339.6689274411
 20
149.5919553203
 30
0.0
 10
339.6586362943
 20
149.5966735109
 30
0.0
 10
339.650969753
 20
149.6002402777
 30
0.0
 10
339.6445654511
 20
149.6032041909
 30
0.0
 10
339.6394533421
 20
149.6055814016
 30
0.0
 10
339.6356444724
 20
149.6073778199
 30
0.0
 10
339.6318288867
 20
149.6091705875
 30
0.0
 10
339.6286506087
 20
149.6106654712
 30
0.0
 10
339.6261080402
 20
149.6118610177
 30
0.0
 10
339.6245181118
 20
149.6126086801
 30
0.0
 10
339.6232481309
 20
149.61320583
 30
0.0
 10
339.6222902536
 20
149.6136563652
 30
0.0
 10
339.6215091773
 20
149.6140233103
 30
0.0
 10
339.6208458405
 20
149.6143359321
 30
0.0
 10
339.6204534724
 20
149.6145183016
 30
0.0
 10
339.6196598042
 20
149.6148995258
 30
0.0
 10
339.6187417592
 20
149.6153383622
 30
0.0
 10
339.6175461082
 20
149.61591074
 30
0.0
 10
339.6161319132
 20
149.6165873922
 30
0.0
 10
339.6142391291
 20
149.6174931585
 30
0.0
 10
339.6118756142
 20
149.6186241448
 30
0.0
 10
339.6080925939
 20
149.6204344142
 30
0.0
 10
339.6043100638
 20
149.6222444441
 30
0.0
 10
339.6005271106
 20
149.6240546741
 30
0.0
 10
339.5976906747
 20
149.625411986
 30
0.0
 10
339.5948513344
 20
149.6267706401
 30
0.0
 10
339.5927299581
 20
149.6277858744
 30
0.0
 10
339.5913030666
 20
149.6284685383
 30
0.0
 10
339.5907273383
 20
149.62874429
 30
0.0
 10
339.5902228761
 20
149.6289851672
 30
0.0
 10
339.5898788842
 20
149.6291518942
 30
0.0
 10
339.5893514565
 20
149.6294092148
 30
0.0
 10
339.5885590879
 20
149.6297947907
 30
0.0
 10
339.5873130366
 20
149.6304016672
 30
0.0
 10
339.5857480356
 20
149.631163699
 30
0.0
 10
339.5832481528
 20
149.6323810489
 30
0.0
 10
339.5801221565
 20
149.6339032486
 30
0.0
 10
339.5769955831
 20
149.635425775
 30
0.0
 10
339.5744966236
 20
149.6366426022
 30
0.0
 10
339.5729293143
 20
149.6374059407
 30
0.0
 10
339.5716879951
 20
149.6380101385
 30
0.0
 10
339.5708835798
 20
149.6384025336
 30
0.0
 10
339.5703055335
 20
149.6386826165
 30
0.0
 10
339.569488416
 20
149.6390862151
 30
0.0
 10
339.5679474017
 20
149.6398498911
 30
0.0
 10
339.5658038977
 20
149.6409109197
 30
0.0
 10
339.5623419082
 20
149.6426252959
 30
0.0
 10
339.558025514
 20
149.6447625352
 30
0.0
 10
339.5511130559
 20
149.6481853355
 30
0.0
 10
339.5459301135
 20
149.6507517118
 30
0.0
 10
339.5424745072
 20
149.6524627902
 30
0.0
  0
SPLINE
  5
3B3
100
AcDbEntity
  8
0
100
AcDbSpline
 62
2
  6
CONTINUOUS
 70
0
 71
3
 72
57
 73
53
 74
0
 42
0.0000001
 43
0.0000001
 44
0.0000000001
 40
0.0
 40
0.0
 40
0.0
 40
0.0
 40
0.125
 40
0.1875
 40
0.25
 40
0.3125
 40
0.34375
 40
0.375
 40
0.40625
 40
0.4375
 40
0.453125
 40
0.46875
 40
0.4765625
 40
0.484375
 40
0.4921875
 40
0.49609375
 40
0.5
 40
0.50390625
 40
0.5078125
 40
0.515625
 40
0.5234375
 40
0.53125
 40
0.546875
 40
0.5625
 40
0.59375
 40
0.609375
 40
0.625
 40
0.640625
 40
0.65625
 40
0.66015625
 40
0.6640625
 40
0.666015625
 40
0.66796875
 40
0.671875
 40
0.6796875
 40
0.6875
 40
0.703125
 40
0.71875
 40
0.75
 40
0.78125
 40
0.796875
 40
0.8125
 40
0.8203125
 40
0.828125
 40
0.83203125
 40
0.8359375
 40
0.84375
 40
0.859375
 40
0.875
 40
0.90625
 40
0.9375
 40
1.0
 40
1.0
 40
1.0
 40
1.0
 10
339.5424745095
 20
149.652462789
 30
0.0
 10
339.5375552447
 20
149.6549396531
 30
0.0
 10
339.530171383
 20
149.6586525005
 30
0.0
 10
339.5203460921
 20
149.6636127588
 30
0.0
 10
339.5130315884
 20
149.6673597975
 30
0.0
 10
339.5069198617
 20
149.6704743201
 30
0.0
 10
339.5020423848
 20
149.6729717388
 30
0.0
 10
339.4984107598
 20
149.674857691
 30
0.0
 10
339.4947720753
 20
149.6767401582
 30
0.0
 10
339.491741301
 20
149.6783097576
 30
0.0
 10
339.4893167007
 20
149.6795650756
 30
0.0
 10
339.4878005463
 20
149.6803501146
 30
0.0
 10
339.4865894881
 20
149.6809771196
 30
0.0
 10
339.4856760661
 20
149.6814501727
 30
0.0
 10
339.4849311983
 20
149.68183548
 30
0.0
 10
339.4842987071
 20
149.682163695
 30
0.0
 10
339.4839243391
 20
149.6823552909
 30
0.0
 10
339.4831682677
 20
149.6827551636
 30
0.0
 10
339.4822935065
 20
149.6832155734
 30
0.0
 10
339.4811543087
 20
149.6838160471
 30
0.0
 10
339.4798068522
 20
149.6845259313
 30
0.0
 10
339.478003404
 20
149.6854761755
 30
0.0
 10
339.4757514387
 20
149.6866627014
 30
0.0
 10
339.4721469658
 20
149.6885618669
 30
0.0
 10
339.4685429594
 20
149.6904607815
 30
0.0
 10
339.4649385498
 20
149.692359906
 30
0.0
 10
339.4622359859
 20
149.6937838705
 30
0.0
 10
339.4595306501
 20
149.6952092455
 30
0.0
 10
339.4575094065
 20
149.6962743294
 30
0.0
 10
339.4561498466
 20
149.6969905236
 30
0.0
 10
339.4556013152
 20
149.6972798038
 30
0.0
 10
339.455120612
 20
149.6975325358
 30
0.0
 10
339.4547930593
 20
149.6977073438
 30
0.0
 10
339.4542909993
 20
149.6979770525
 30
0.0
 10
339.4535366446
 20
149.6983812406
 30
0.0
 10
339.4523504241
 20
149.6990173855
 30
0.0
 10
339.4508605508
 20
149.6998161775
 30
0.0
 10
339.4484806845
 20
149.701092247
 30
0.0
 10
339.4455047594
 20
149.7026878732
 30
0.0
 10
339.4425282894
 20
149.7042838395
 30
0.0
 10
339.4401492951
 20
149.7055593648
 30
0.0
 10
339.4386572418
 20
149.7063595175
 30
0.0
 10
339.4374754902
 20
149.706992873
 30
0.0
 10
339.4367097588
 20
149.7074041622
 30
0.0
 10
339.4361593288
 20
149.7076978244
 30
0.0
 10
339.4353819879
 20
149.7081206096
 30
0.0
 10
339.4339162316
 20
149.7089204671
 30
0.0
 10
339.4318772917
 20
149.7100318243
 30
0.0
 10
339.428584252
 20
149.7118274861
 30
0.0
 10
339.4244784808
 20
149.714066072
 30
0.0
 10
339.4179033362
 20
149.7176511731
 30
0.0
 10
339.4129733077
 20
149.7203392421
 30
0.0
 10
339.4096863264
 20
149.7221314562
 30
0.0
  0
LINE
  5
3B4
100
AcDbEntity
  8
0
100
AcDbLine
 62
2
  6
CONTINUOUS
 10
339.4096863286
 20
149.722131455
 11
339.3725667561
 21
149.742857259
  0
SPLINE
  5
3B5
100
AcDbEntity
  8
0
100
AcDbSpline
 62
2
  6
CONTINUOUS
 70
0
 71
3
 72
59
 73
55
 74
0
 42
0.0000001
 43
0.0000001
 44
0.0000000001
 40
0.0
 40
0.0
 40
0.0
 40
0.0
 40
0.0625
 40
0.09375
 40
0.109375
 40
0.125
 40
0.140625
 40
0.15625
 40
0.16015625
 40
0.1640625
 40
0.166015625
 40
0.16796875
 40
0.171875
 40
0.1796875
 40
0.1875
 40
0.203125
 40
0.21875
 40
0.25
 40
0.28125
 40
0.296875
 40
0.3125
 40
0.3203125
 40
0.328125
 40
0.33203125
 40
0.333984375
 40
0.3359375
 40
0.33984375
 40
0.34375
 40
0.359375
 40
0.375
 40
0.390625
 40
0.40625
 40
0.4375
 40
0.453125
 40
0.46875
 40
0.484375
 40
0.4921875
 40
0.49609375
 40
0.5
 40
0.50390625
 40
0.5078125
 40
0.515625
 40
0.53125
 40
0.546875
 40
0.5625
 40
0.59375
 40
0.625
 40
0.65625
 40
0.6875
 40
0.75
 40
0.8125
 40
0.875
 40
0.9375
 40
1.0
 40
1.0
 40
1.0
 40
1.0
 10
339.3725667549
 20
149.7428572596
 30
0.0
 10
339.3714137905
 20
149.7435124016
 30
0.0
 10
339.3696843921
 20
149.7444950867
 30
0.0
 10
339.3676665921
 20
149.7456416504
 30
0.0
 10
339.3665138042
 20
149.74629669
 30
0.0
 10
339.3656485393
 20
149.7467883609
 30
0.0
 10
339.3647858502
 20
149.7472785368
 30
0.0
 10
339.3641316112
 20
149.7476503602
 30
0.0
 10
339.363706684
 20
149.7478917238
 30
0.0
 10
339.363512917
 20
149.7480019922
 30
0.0
 10
339.3633968937
 20
149.7480675782
 30
0.0
 10
339.3631382805
 20
149.7482159187
 30
0.0
 10
339.362619457
 20
149.7485139642
 30
0.0
 10
339.3619128466
 20
149.7489196825
 30
0.0
 10
339.3607629532
 20
149.7495800425
 30
0.0
 10
339.3593321979
 20
149.7504016554
 30
0.0
 10
339.3570393101
 20
149.7517183717
 30
0.0
 10
339.3541743488
 20
149.753363599
 30
0.0
 10
339.3513093931
 20
149.7550088288
 30
0.0
 10
339.3490164963
 20
149.7563255411
 30
0.0
 10
339.3475857635
 20
149.7571471638
 30
0.0
 10
339.346435824
 20
149.7578075038
 30
0.0
 10
339.3457293309
 20
149.7582132731
 30
0.0
 10
339.3452102967
 20
149.7585112269
 30
0.0
 10
339.3449520213
 20
149.7586597144
 30
0.0
 10
339.3448380609
 20
149.7587261986
 30
0.0
 10
339.344646283
 20
149.7588373328
 30
0.0
 10
339.3442266147
 20
149.7590809859
 30
0.0
 10
339.3435800612
 20
149.7594561544
 30
0.0
 10
339.3427277316
 20
149.7599508437
 30
0.0
 10
339.3418728108
 20
149.7604470049
 30
0.0
 10
339.3407337469
 20
149.7611080833
 30
0.0
 10
339.3395948823
 20
149.7617690373
 30
0.0
 10
339.338454797
 20
149.762430717
 30
0.0
 10
339.3376031958
 20
149.7629249238
 30
0.0
 10
339.3368824942
 20
149.7633433038
 30
0.0
 10
339.3363996593
 20
149.7636233319
 30
0.0
 10
339.336089939
 20
149.7638033936
 30
0.0
 10
339.3359529052
 20
149.7638819709
 30
0.0
 10
339.3354517529
 20
149.764176401
 30
0.0
 10
339.3349105586
 20
149.7644936827
 30
0.0
 10
339.3339042924
 20
149.7650840053
 30
0.0
 10
339.3324977099
 20
149.7659089845
 30
0.0
 10
339.3307965555
 20
149.7669068038
 30
0.0
 10
339.3285330385
 20
149.7682345159
 30
0.0
 10
339.3257016143
 20
149.7698948983
 30
0.0
 10
339.3223066057
 20
149.7718878645
 30
0.0
 10
339.3189040403
 20
149.773877614
 30
0.0
 10
339.3144039888
 20
149.7765470924
 30
0.0
 10
339.3088015585
 20
149.7798864703
 30
0.0
 10
339.3020265487
 20
149.7839040944
 30
0.0
 10
339.2954236981
 20
149.7878761881
 30
0.0
 10
339.2888663049
 20
149.7918357299
 30
0.0
 10
339.2844860509
 20
149.7944778153
 30
0.0
 10
339.2822970062
 20
149.7957985592
 30
0.0
  0
LINE
  5
3B6
100
AcDbEntity
  8
0
100
AcDbLine
 62
2
  6
CONTINUOUS
 10
339.2822970037
 20
149.7957985607
 11
339.2421478486
 21
149.8205925111
  0
SPLINE
  5
3B7
100
AcDbEntity
  8
0
100
AcDbSpline
 62
2
  6
CONTINUOUS
 70
0
 71
3
 72
63
 73
59
 74
0
 42
0.0000001
 43
0.0000001
 44
0.0000000001
 40
0.0
 40
0.0
 40
0.0
 40
0.0
 40
0.0625
 40
0.09375
 40
0.109375
 40
0.125
 40
0.140625
 40
0.15625
 40
0.16015625
 40
0.1640625
 40
0.166015625
 40
0.16796875
 40
0.171875
 40
0.1796875
 40
0.1875
 40
0.203125
 40
0.21875
 40
0.25
 40
0.28125
 40
0.296875
 40
0.3125
 40
0.3203125
 40
0.328125
 40
0.33203125
 40
0.333984375
 40
0.3359375
 40
0.33984375
 40
0.34375
 40
0.359375
 40
0.375
 40
0.40625
 40
0.4375
 40
0.453125
 40
0.46875
 40
0.484375
 40
0.4921875
 40
0.49609375
 40
0.5
 40
0.50390625
 40
0.5078125
 40
0.515625
 40
0.53125
 40
0.546875
 40
0.5625
 40
0.59375
 40
0.625
 40
0.65625
 40
0.6875
 40
0.75
 40
0.78125
 40
0.8125
 40
0.828125
 40
0.8359375
 40
0.84375
 40
0.859375
 40
0.875
 40
0.9375
 40
1.0
 40
1.0
 40
1.0
 40
1.0
 10
339.2421478474
 20
149.8205925118
 30
0.0
 10
339.241062819
 20
149.8212760476
 30
0.0
 10
339.2394353217
 20
149.8223013221
 30
0.0
 10
339.2375364164
 20
149.8234975776
 30
0.0
 10
339.2364515539
 20
149.8241810065
 30
0.0
 10
339.2356372735
 20
149.824693986
 30
0.0
 10
339.2348254141
 20
149.8252054072
 30
0.0
 10
339.2342097318
 20
149.8255933423
 30
0.0
 10
339.2338098333
 20
149.8258451706
 30
0.0
 10
339.2336275004
 20
149.8259602106
 30
0.0
 10
339.2335182789
 20
149.8260286544
 30
0.0
 10
339.233275045
 20
149.8261833618
 30
0.0
 10
339.2327871204
 20
149.8264941801
 30
0.0
 10
339.2321225721
 20
149.8269172944
 30
0.0
 10
339.2310411401
 20
149.8276059636
 30
0.0
 10
339.2296955636
 20
149.8284628003
 30
0.0
 10
339.2275391835
 20
149.829835965
 30
0.0
 10
339.2248447875
 20
149.8315517247
 30
0.0
 10
339.2221503973
 20
149.8332674867
 30
0.0
 10
339.2199940078
 20
149.8346406477
 30
0.0
 10
339.2186484548
 20
149.8354974936
 30
0.0
 10
339.2175669747
 20
149.8361861439
 30
0.0
 10
339.2169025487
 20
149.8366093063
 30
0.0
 10
339.2164144044
 20
149.8369200383
 30
0.0
 10
339.2161715227
 20
149.837074884
 30
0.0
 10
339.2160644526
 20
149.8371441725
 30
0.0
 10
339.2158841943
 20
149.8372600266
 30
0.0
 10
339.215489778
 20
149.8375140095
 30
0.0
 10
339.214882147
 20
149.8379050677
 30
0.0
 10
339.2138138624
 20
149.8385927544
 30
0.0
 10
339.2124742621
 20
149.8394550408
 30
0.0
 10
339.2111367051
 20
149.8403160247
 30
0.0
 10
339.2100651512
 20
149.8410057953
 30
0.0
 10
339.2092647845
 20
149.8415209545
 30
0.0
 10
339.208587445
 20
149.8419570732
 30
0.0
 10
339.2081336355
 20
149.8422489844
 30
0.0
 10
339.2078425777
 20
149.8424366682
 30
0.0
 10
339.2077136905
 20
149.8425186193
 30
0.0
 10
339.2072430477
 20
149.8428253788
 30
0.0
 10
339.2067347323
 20
149.8431559757
 30
0.0
 10
339.2057896385
 20
149.8437710555
 30
0.0
 10
339.2044685454
 20
149.8446306411
 30
0.0
 10
339.2028707905
 20
149.8456703142
 30
0.0
 10
339.20074486
 20
149.8470537155
 30
0.0
 10
339.198085485
 20
149.8487837628
 30
0.0
 10
339.1948970381
 20
149.8508602447
 30
0.0
 10
339.1917005175
 20
149.852933753
 30
0.0
 10
339.1874778121
 20
149.8557137231
 30
0.0
 10
339.1832678244
 20
149.8584965695
 30
0.0
 10
339.1790483173
 20
149.8612814885
 30
0.0
 10
339.1764243259
 20
149.8630144846
 30
0.0
 10
339.1745618932
 20
149.8642430429
 30
0.0
 10
339.1735376378
 20
149.864920845
 30
0.0
 10
339.1726639788
 20
149.8655073693
 30
0.0
 10
339.1715204294
 20
149.8662717245
 30
0.0
 10
339.1688182874
 20
149.8680804921
 30
0.0
 10
339.1647471328
 20
149.8708045182
 30
0.0
 10
339.1611356192
 20
149.8732214558
 30
0.0
 10
339.1593289511
 20
149.8744304769
 30
0.0
  0
LINE
  5
3B8
100
AcDbEntity
  8
0
100
AcDbLine
 62
2
  6
CONTINUOUS
 10
339.1593289504
 20
149.8744304774
 11
339.1243718456
 21
149.8983394639
  0
SPLINE
  5
3B9
100
AcDbEntity
  8
0
100
AcDbSpline
 62
2
  6
CONTINUOUS
 70
0
 71
3
 72
78
 73
74
 74
0
 42
0.0000001
 43
0.0000001
 44
0.0000000001
 40
0.0
 40
0.0
 40
0.0
 40
0.0
 40
0.0625
 40
0.09375
 40
0.109375
 40
0.125
 40
0.140625
 40
0.15625
 40
0.16015625
 40
0.1640625
 40
0.16796875
 40
0.171875
 40
0.1796875
 40
0.1875
 40
0.203125
 40
0.21875
 40
0.25
 40
0.28125
 40
0.296875
 40
0.3125
 40
0.3203125
 40
0.328125
 40
0.33203125
 40
0.333984375
 40
0.3359375
 40
0.33984375
 40
0.34375
 40
0.359375
 40
0.375
 40
0.40625
 40
0.4375
 40
0.453125
 40
0.46875
 40
0.484375
 40
0.4921875
 40
0.49609375
 40
0.5
 40
0.50390625
 40
0.5078125
 40
0.515625
 40
0.53125
 40
0.546875
 40
0.5625
 40
0.59375
 40
0.625
 40
0.640625
 40
0.65625
 40
0.66015625
 40
0.6640625
 40
0.66796875
 40
0.671875
 40
0.6796875
 40
0.6875
 40
0.703125
 40
0.71875
 40
0.75
 40
0.78125
 40
0.796875
 40
0.8125
 40
0.8203125
 40
0.828125
 40
0.83203125
 40
0.833984375
 40
0.8359375
 40
0.83984375
 40
0.84375
 40
0.8515625
 40
0.859375
 40
0.875
 40
0.890625
 40
0.90625
 40
0.9375
 40
1.0
 40
1.0
 40
1.0
 40
1.0
 10
339.1243718464
 20
149.8983394633
 30
0.0
 10
339.1203332711
 20
149.9011867386
 30
0.0
 10
339.1142753798
 20
149.9054576752
 30
0.0
 10
339.1072079395
 20
149.9104403514
 30
0.0
 10
339.10316926
 20
149.9132877139
 30
0.0
 10
339.1001406483
 20
149.9154229028
 30
0.0
 10
339.0971105164
 20
149.917559364
 30
0.0
 10
339.0948421794
 20
149.9191581425
 30
0.0
 10
339.0933233266
 20
149.920229543
 30
0.0
 10
339.0925757357
 20
149.9207553361
 30
0.0
 10
339.0917821284
 20
149.9213196481
 30
0.0
 10
339.0905050304
 20
149.9222553444
 30
0.0
 10
339.0889836276
 20
149.92336221
 30
0.0
 10
339.086507487
 20
149.925168265
 30
0.0
 10
339.083426654
 20
149.9274138273
 30
0.0
 10
339.0784893194
 20
149.9310134284
 30
0.0
 10
339.0723202937
 20
149.935510695
 30
0.0
 10
339.0661507002
 20
149.9400085238
 30
0.0
 10
339.0612142739
 20
149.9436072254
 30
0.0
 10
339.0581311701
 20
149.9458550365
 30
0.0
 10
339.0556596847
 20
149.9476564814
 30
0.0
 10
339.0541264309
 20
149.9487750831
 30
0.0
 10
339.0530302559
 20
149.949572738
 30
0.0
 10
339.0524396954
 20
149.9500056448
 30
0.0
 10
339.0519840702
 20
149.950352314
 30
0.0
 10
339.0513684176
 20
149.9508151266
 30
0.0
 10
339.0499288085
 20
149.9519016184
 30
0.0
 10
339.047753492
 20
149.9535415202
 30
0.0
 10
339.0438981301
 20
149.9564493124
 30
0.0
 10
339.0390747374
 20
149.9600867605
 30
0.0
 10
339.0342532716
 20
149.9637228627
 30
0.0
 10
339.0303948265
 20
149.9666328085
 30
0.0
 10
339.0275036541
 20
149.9688128832
 30
0.0
 10
339.0250860027
 20
149.9706371176
 30
0.0
 10
339.0234099985
 20
149.9718993633
 30
0.0
 10
339.0224267525
 20
149.9726436265
 30
0.0
 10
339.021761234
 20
149.9731370895
 30
0.0
 10
339.0208208163
 20
149.9738780001
 30
0.0
 10
339.019662814
 20
149.9747795684
 30
0.0
 10
339.0175916341
 20
149.9763975274
 30
0.0
 10
339.0146561611
 20
149.9786878739
 30
0.0
 10
339.011123604
 20
149.9814452835
 30
0.0
 10
339.0064169805
 20
149.985118713
 30
0.0
 10
339.00053278
 20
149.9897113901
 30
0.0
 10
338.9946479484
 20
149.9943044021
 30
0.0
 10
338.9899423346
 20
149.9979772957
 30
0.0
 10
338.9872906449
 20
150.0000465587
 30
0.0
 10
338.9855304699
 20
150.0014208704
 30
0.0
 10
338.9846367402
 20
150.0021173333
 30
0.0
 10
338.9837960557
 20
150.0027776075
 30
0.0
 10
338.9829275438
 20
150.0034857802
 30
0.0
 10
338.9817554825
 20
150.0044299545
 30
0.0
 10
338.9799284804
 20
150.005907685
 30
0.0
 10
338.977628194
 20
150.0077661269
 30
0.0
 10
338.9739569596
 20
150.0107333463
 30
0.0
 10
338.9693648733
 20
150.0144444132
 30
0.0
 10
338.9647734301
 20
150.018155169
 30
0.0
 10
338.9611011668
 20
150.0211228863
 30
0.0
 10
338.9588034523
 20
150.0229800836
 30
0.0
 10
338.9569711779
 20
150.0244603656
 30
0.0
 10
338.9558125385
 20
150.0253980445
 30
0.0
 10
338.9550284833
 20
150.0260293619
 30
0.0
 10
338.9545382196
 20
150.0264293202
 30
0.0
 10
338.9538888606
 20
150.0269769712
 30
0.0
 10
338.9531316359
 20
150.0276109653
 30
0.0
 10
338.9518896337
 20
150.0286536165
 30
0.0
 10
338.9503475546
 20
150.0299472541
 30
0.0
 10
338.9478744022
 20
150.0320224823
 30
0.0
 10
338.9447849605
 20
150.0346146621
 30
0.0
 10
338.941076775
 20
150.037726072
 30
0.0
 10
338.9361328261
 20
150.0418743414
 30
0.0
 10
338.9274807756
 20
150.0491339429
 30
0.0
 10
338.9200647804
 20
150.0553564138
 30
0.0
 10
338.9151207729
 20
150.0595047377
 30
0.0
  0
LINE
  5
3BA
100
AcDbEntity
  8
0
100
AcDbLine
 62
2
  6
CONTINUOUS
 10
338.9151207719
 20
150.0595047385
 11
338.8870615542
 21
150.0839685749
  0
SPLINE
  5
3BB
100
AcDbEntity
  8
0
100
AcDbSpline
 62
2
  6
CONTINUOUS
 70
0
 71
3
 72
57
 73
53
 74
0
 42
0.0000001
 43
0.0000001
 44
0.0000000001
 40
0.0
 40
0.0
 40
0.0
 40
0.0
 40
0.0625
 40
0.09375
 40
0.125
 40
0.140625
 40
0.15625
 40
0.16015625
 40
0.1640625
 40
0.16796875
 40
0.171875
 40
0.1796875
 40
0.1875
 40
0.203125
 40
0.21875
 40
0.25
 40
0.28125
 40
0.296875
 40
0.3125
 40
0.3203125
 40
0.328125
 40
0.33203125
 40
0.3359375
 40
0.33984375
 40
0.34375
 40
0.359375
 40
0.375
 40
0.40625
 40
0.4375
 40
0.453125
 40
0.46875
 40
0.484375
 40
0.4921875
 40
0.49609375
 40
0.5
 40
0.50390625
 40
0.5078125
 40
0.515625
 40
0.53125
 40
0.546875
 40
0.5625
 40
0.59375
 40
0.625
 40
0.6875
 40
0.75
 40
0.78125
 40
0.8125
 40
0.828125
 40
0.84375
 40
0.875
 40
0.9375
 40
1.0
 40
1.0
 40
1.0
 40
1.0
 10
338.8870615538
 20
150.0839685752
 30
0.0
 10
338.8862066343
 20
150.084729378
 30
0.0
 10
338.8849243547
 20
150.0858704914
 30
0.0
 10
338.8832142501
 20
150.0873923394
 30
0.0
 10
338.882146265
 20
150.0883427371
 30
0.0
 10
338.8812899838
 20
150.089104782
 30
0.0
 10
338.8808122116
 20
150.0895298877
 30
0.0
 10
338.8804875159
 20
150.0898189294
 30
0.0
 10
338.8803362345
 20
150.0899533559
 30
0.0
 10
338.8801419235
 20
150.0901270319
 30
0.0
 10
338.8796780984
 20
150.0905453568
 30
0.0
 10
338.8791684208
 20
150.0910043178
 30
0.0
 10
338.8783137601
 20
150.0917743901
 30
0.0
 10
338.8772588428
 20
150.0927247499
 30
0.0
 10
338.8755635135
 20
150.0942521324
 30
0.0
 10
338.8734466792
 20
150.0961592321
 30
0.0
 10
338.8713298628
 20
150.0980663368
 30
0.0
 10
338.8696345049
 20
150.0995937113
 30
0.0
 10
338.8685796593
 20
150.100544091
 30
0.0
 10
338.8677248515
 20
150.1013141225
 30
0.0
 10
338.8672155484
 20
150.1017731874
 30
0.0
 10
338.8667509545
 20
150.102191299
 30
0.0
 10
338.8665589921
 20
150.1023656266
 30
0.0
 10
338.8664108788
 20
150.1025009324
 30
0.0
 10
338.8660920979
 20
150.1027916152
 30
0.0
 10
338.8656233724
 20
150.1032192337
 30
0.0
 10
338.8647830575
 20
150.1039856952
 30
0.0
 10
338.8637349741
 20
150.1049417212
 30
0.0
 10
338.8626864313
 20
150.1058981369
 30
0.0
 10
338.8618468515
 20
150.1066639751
 30
0.0
 10
338.861219679
 20
150.1072360028
 30
0.0
 10
338.8606889712
 20
150.1077202349
 30
0.0
 10
338.8603333112
 20
150.1080443872
 30
0.0
 10
338.8601053496
 20
150.1082527432
 30
0.0
 10
338.8600040357
 20
150.1083438631
 30
0.0
 10
338.8596364565
 20
150.1086840085
 30
0.0
 10
338.8592392271
 20
150.1090506728
 30
0.0
 10
338.8585008032
 20
150.1097328064
 30
0.0
 10
338.8574685334
 20
150.1106861235
 30
0.0
 10
338.856220135
 20
150.1118391641
 30
0.0
 10
338.8545589426
 20
150.1133733715
 30
0.0
 10
338.8524815982
 20
150.1152923306
 30
0.0
 10
338.849156634
 20
150.1183613466
 30
0.0
 10
338.8450129434
 20
150.1222027066
 30
0.0
 10
338.8409280645
 20
150.1260541718
 30
0.0
 10
338.8376378263
 20
150.1291416
 30
0.0
 10
338.8356078592
 20
150.13105055
 30
0.0
 10
338.8339260331
 20
150.1326258082
 30
0.0
 10
338.8324544712
 20
150.1340252279
 30
0.0
 10
338.8299769314
 20
150.1363924658
 30
0.0
 10
338.8263861711
 20
150.1398172587
 30
0.0
 10
338.8235292331
 20
150.1425439808
 30
0.0
 10
338.8220988053
 20
150.1439089808
 30
0.0
  0
SPLINE
  5
3BC
100
AcDbEntity
  8
0
100
AcDbSpline
 62
2
  6
CONTINUOUS
 70
0
 71
3
 72
27
 73
23
 74
0
 42
0.0000001
 43
0.0000001
 44
0.0000000001
 40
0.0
 40
0.0
 40
0.0
 40
0.0
 40
0.125
 40
0.25
 40
0.375
 40
0.5
 40
0.5625
 40
0.625
 40
0.65625
 40
0.6875
 40
0.71875
 40
0.734375
 40
0.7421875
 40
0.75
 40
0.7578125
 40
0.765625
 40
0.78125
 40
0.8125
 40
0.84375
 40
0.875
 40
0.9375
 40
1.0
 40
1.0
 40
1.0
 40
1.0
 10
338.8220988059
 20
150.1439089803
 30
0.0
 10
338.8210287229
 20
150.14494222
 30
0.0
 10
338.8188905269
 20
150.1470092086
 30
0.0
 10
338.8156714129
 20
150.1501066374
 30
0.0
 10
338.8124936691
 20
150.1532147551
 30
0.0
 10
338.8098257966
 20
150.1557996889
 30
0.0
 10
338.80771822
 20
150.1578746857
 30
0.0
 10
338.8063983037
 20
150.159170382
 30
0.0
 10
338.8053421246
 20
150.1602080007
 30
0.0
 10
338.8045523368
 20
150.1609837358
 30
0.0
 10
338.8038864612
 20
150.1616380026
 30
0.0
 10
338.8034355318
 20
150.1620806499
 30
0.0
 10
338.8031541448
 20
150.1623575412
 30
0.0
 10
338.8030099055
 20
150.1624977425
 30
0.0
 10
338.8026103188
 20
150.1628958374
 30
0.0
 10
338.8021666046
 20
150.1633366744
 30
0.0
 10
338.8013486063
 20
150.1641500514
 30
0.0
 10
338.8002017332
 20
150.1652901063
 30
0.0
 10
338.7988161986
 20
150.1666675516
 30
0.0
 10
338.7969720643
 20
150.168500868
 30
0.0
 10
338.7946657756
 20
150.1707936454
 30
0.0
 10
338.7928210862
 20
150.1726275224
 30
0.0
 10
338.7918986988
 20
150.173544504
 30
0.0
  0
SPLINE
  5
3BD
100
AcDbEntity
  8
0
100
AcDbSpline
 62
2
  6
CONTINUOUS
 70
0
 71
3
 72
55
 73
51
 74
0
 42
0.0000001
 43
0.0000001
 44
0.0000000001
 40
0.0
 40
0.0
 40
0.0
 40
0.0
 40
0.0625
 40
0.09375
 40
0.125
 40
0.140625
 40
0.15625
 40
0.1640625
 40
0.16796875
 40
0.171875
 40
0.1796875
 40
0.1875
 40
0.203125
 40
0.21875
 40
0.25
 40
0.28125
 40
0.296875
 40
0.3125
 40
0.3203125
 40
0.328125
 40
0.33203125
 40
0.3359375
 40
0.34375
 40
0.359375
 40
0.375
 40
0.40625
 40
0.4375
 40
0.453125
 40
0.46875
 40
0.484375
 40
0.4921875
 40
0.49609375
 40
0.5
 40
0.50390625
 40
0.5078125
 40
0.515625
 40
0.53125
 40
0.546875
 40
0.5625
 40
0.59375
 40
0.625
 40
0.6875
 40
0.75
 40
0.78125
 40
0.8125
 40
0.828125
 40
0.84375
 40
0.875
 40
0.9375
 40
1.0
 40
1.0
 40
1.0
 40
1.0
 10
338.7918986982
 20
150.1735445045
 30
0.0
 10
338.7911220208
 20
150.1743260004
 30
0.0
 10
338.7899566328
 20
150.1754986285
 30
0.0
 10
338.7884042696
 20
150.1770605957
 30
0.0
 10
338.7874309437
 20
150.1780400269
 30
0.0
 10
338.7866593484
 20
150.178816272
 30
0.0
 10
338.7861609874
 20
150.1793180742
 30
0.0
 10
338.7858444284
 20
150.1796359695
 30
0.0
 10
338.7856130111
 20
150.1798698285
 30
0.0
 10
338.7851912538
 20
150.1803003497
 30
0.0
 10
338.7847292291
 20
150.1807711645
 30
0.0
 10
338.7839535692
 20
150.1815620983
 30
0.0
 10
338.7829964595
 20
150.1825378862
 30
0.0
 10
338.7814581475
 20
150.1841063147
 30
0.0
 10
338.7795374204
 20
150.1860646092
 30
0.0
 10
338.7776167122
 20
150.1880229083
 30
0.0
 10
338.7760783699
 20
150.1895913293
 30
0.0
 10
338.7751213358
 20
150.1905671358
 30
0.0
 10
338.7743455209
 20
150.1913580316
 30
0.0
 10
338.7738838907
 20
150.1918289432
 30
0.0
 10
338.7734613236
 20
150.1922592657
 30
0.0
 10
338.7732332049
 20
150.1924939336
 30
0.0
 10
338.7729243271
 20
150.1928137119
 30
0.0
 10
338.7724359402
 20
150.1933179635
 30
0.0
 10
338.7716808801
 20
150.1940982428
 30
0.0
 10
338.7707278946
 20
150.1950828146
 30
0.0
 10
338.7697786017
 20
150.1960636497
 30
0.0
 10
338.7690176335
 20
150.1968499078
 30
0.0
 10
338.7684492936
 20
150.1974370735
 30
0.0
 10
338.7679683617
 20
150.1979341418
 30
0.0
 10
338.7676460276
 20
150.1982668921
 30
0.0
 10
338.7674394857
 20
150.1984807589
 30
0.0
 10
338.7673475414
 20
150.1985743299
 30
0.0
 10
338.7670149243
 20
150.1989233556
 30
0.0
 10
338.7666553842
 20
150.1992996178
 30
0.0
 10
338.7659870758
 20
150.1999995926
 30
0.0
 10
338.7650527964
 20
150.2009778508
 30
0.0
 10
338.7639229175
 20
150.2021610544
 30
0.0
 10
338.7624194244
 20
150.2037353986
 30
0.0
 10
338.760539327
 20
150.2057045487
 30
0.0
 10
338.7575298256
 20
150.2088539029
 30
0.0
 10
338.7537809637
 20
150.2127953618
 30
0.0
 10
338.7500918625
 20
150.216745422
 30
0.0
 10
338.7471189095
 20
150.2199122844
 30
0.0
 10
338.7452851135
 20
150.2218702374
 30
0.0
 10
338.7437651757
 20
150.2234861025
 30
0.0
 10
338.7424374022
 20
150.2249210254
 30
0.0
 10
338.7402030778
 20
150.2273480224
 30
0.0
 10
338.7369641968
 20
150.2308594336
 30
0.0
 10
338.7343874124
 20
150.23365507
 30
0.0
 10
338.7330972302
 20
150.2350545748
 30
0.0
  0
LINE
  5
3BE
100
AcDbEntity
  8
0
100
AcDbLine
 62
2
  6
CONTINUOUS
 10
338.7330972307
 20
150.2350545742
 11
338.7100067064
 21
150.2607842484
  0
SPLINE
  5
3BF
100
AcDbEntity
  8
0
100
AcDbSpline
 62
2
  6
CONTINUOUS
 70
0
 71
3
 72
72
 73
68
 74
0
 42
0.0000001
 43
0.0000001
 44
0.0000000001
 40
0.0
 40
0.0
 40
0.0
 40
0.0
 40
0.0625
 40
0.09375
 40
0.125
 40
0.140625
 40
0.15625
 40
0.1640625
 40
0.16796875
 40
0.171875
 40
0.1796875
 40
0.1875
 40
0.203125
 40
0.21875
 40
0.25
 40
0.28125
 40
0.296875
 40
0.3125
 40
0.3203125
 40
0.328125
 40
0.33203125
 40
0.3359375
 40
0.34375
 40
0.359375
 40
0.375
 40
0.40625
 40
0.4375
 40
0.453125
 40
0.46875
 40
0.484375
 40
0.4921875
 40
0.49609375
 40
0.5
 40
0.50390625
 40
0.5078125
 40
0.515625
 40
0.53125
 40
0.546875
 40
0.5625
 40
0.59375
 40
0.625
 40
0.640625
 40
0.65625
 40
0.6640625
 40
0.66796875
 40
0.671875
 40
0.6796875
 40
0.6875
 40
0.703125
 40
0.71875
 40
0.75
 40
0.78125
 40
0.796875
 40
0.8125
 40
0.8203125
 40
0.828125
 40
0.83203125
 40
0.833984375
 40
0.8359375
 40
0.83984375
 40
0.84375
 40
0.859375
 40
0.875
 40
0.890625
 40
0.90625
 40
0.9375
 40
1.0
 40
1.0
 40
1.0
 40
1.0
 10
338.710006706
 20
150.2607842488
 30
0.0
 10
338.7072383095
 20
150.2639886979
 30
0.0
 10
338.7030854379
 20
150.2687957764
 30
0.0
 10
338.6975493828
 20
150.2752035949
 30
0.0
 10
338.6940870422
 20
150.2792118554
 30
0.0
 10
338.6913224278
 20
150.2824107713
 30
0.0
 10
338.6895825515
 20
150.284427638
 30
0.0
 10
338.6883886718
 20
150.2858042844
 30
0.0
 10
338.6876688519
 20
150.2866459511
 30
0.0
 10
338.6868073762
 20
150.2876948544
 30
0.0
 10
338.6857790341
 20
150.2889350263
 30
0.0
 10
338.684106582
 20
150.2909589548
 30
0.0
 10
338.6820252924
 20
150.2934752932
 30
0.0
 10
338.6786900751
 20
150.2975089896
 30
0.0
 10
338.6745226058
 20
150.3025487372
 30
0.0
 10
338.6703553699
 20
150.307588533
 30
0.0
 10
338.6670197792
 20
150.3116221522
 30
0.0
 10
338.6649394232
 20
150.3141386837
 30
0.0
 10
338.6632650573
 20
150.3161622165
 30
0.0
 10
338.6622415873
 20
150.3174033956
 30
0.0
 10
338.6613701106
 20
150.3184502315
 30
0.0
 10
338.6606910299
 20
150.3193003199
 30
0.0
 10
338.659592015
 20
150.3206965766
 30
0.0
 10
338.6579753591
 20
150.3227389195
 30
0.0
 10
338.655414786
 20
150.3259799958
 30
0.0
 10
338.652205036
 20
150.3300406212
 30
0.0
 10
338.6489988249
 20
150.3340974671
 30
0.0
 10
338.6464325897
 20
150.3373445906
 30
0.0
 10
338.6445095888
 20
150.3397772607
 30
0.0
 10
338.6429020308
 20
150.3418127081
 30
0.0
 10
338.6417866273
 20
150.3432214235
 30
0.0
 10
338.6411338218
 20
150.3440515332
 30
0.0
 10
338.640687689
 20
150.3446033265
 30
0.0
 10
338.6400753868
 20
150.3454257111
 30
0.0
 10
338.6393169456
 20
150.3464278385
 30
0.0
 10
338.6379626676
 20
150.348225538
 30
0.0
 10
338.6360421086
 20
150.3507706833
 30
0.0
 10
338.6337313708
 20
150.3538347249
 30
0.0
 10
338.6306526131
 20
150.3579165484
 30
0.0
 10
338.6268026386
 20
150.3630208993
 30
0.0
 10
338.622955991
 20
150.3681214209
 30
0.0
 10
338.6198719103
 20
150.3722093712
 30
0.0
 10
338.6179596029
 20
150.3747474224
 30
0.0
 10
338.6165904567
 20
150.3765579377
 30
0.0
 10
338.6158558535
 20
150.377539514
 30
0.0
 10
338.6153011913
 20
150.3783214184
 30
0.0
 10
338.6145462521
 20
150.379367166
 30
0.0
 10
338.6133727806
 20
150.3810021559
 30
0.0
 10
338.6118941536
 20
150.3830589722
 30
0.0
 10
338.6095349285
 20
150.3863425858
 30
0.0
 10
338.6065837114
 20
150.3904494803
 30
0.0
 10
338.6036330149
 20
150.3945559806
 30
0.0
 10
338.6012729568
 20
150.397840225
 30
0.0
 10
338.5997964122
 20
150.3998954644
 30
0.0
 10
338.5986186718
 20
150.4015336868
 30
0.0
 10
338.5978746001
 20
150.4025712053
 30
0.0
 10
338.5973697515
 20
150.4032701521
 30
0.0
 10
338.5970562305
 20
150.4037122891
 30
0.0
 10
338.5966484108
 20
150.4043154012
 30
0.0
 10
338.5961708679
 20
150.4050142694
 30
0.0
 10
338.5949982368
 20
150.4067368387
 30
0.0
 10
338.5932504323
 20
150.4093016721
 30
0.0
 10
338.5909136579
 20
150.4127323213
 30
0.0
 10
338.588578587
 20
150.4161600624
 30
0.0
 10
338.5854645648
 20
150.4207313985
 30
0.0
 10
338.5800153046
 20
150.4287307611
 30
0.0
 10
338.5753444146
 20
150.4355875207
 30
0.0
 10
338.5722305092
 20
150.4401586575
 30
0.0
  0
LINE
  5
3C0
100
AcDbEntity
  8
0
100
AcDbLine
 62
2
  6
CONTINUOUS
 10
338.5722305086
 20
150.4401586584
 11
338.5540922266
 21
150.4683524539
  0
SPLINE
  5
3C1
100
AcDbEntity
  8
0
100
AcDbSpline
 62
2
  6
CONTINUOUS
 70
0
 71
3
 72
55
 73
51
 74
0
 42
0.0000001
 43
0.0000001
 44
0.0000000001
 40
0.0
 40
0.0
 40
0.0
 40
0.0
 40
0.0625
 40
0.09375
 40
0.125
 40
0.140625
 40
0.15625
 40
0.1640625
 40
0.16796875
 40
0.171875
 40
0.1796875
 40
0.1875
 40
0.203125
 40
0.21875
 40
0.25
 40
0.28125
 40
0.296875
 40
0.3125
 40
0.3203125
 40
0.328125
 40
0.33203125
 40
0.3359375
 40
0.34375
 40
0.359375
 40
0.375
 40
0.40625
 40
0.4375
 40
0.453125
 40
0.46875
 40
0.484375
 40
0.4921875
 40
0.49609375
 40
0.5
 40
0.50390625
 40
0.5078125
 40
0.515625
 40
0.53125
 40
0.546875
 40
0.5625
 40
0.59375
 40
0.625
 40
0.6875
 40
0.75
 40
0.78125
 40
0.8125
 40
0.828125
 40
0.84375
 40
0.875
 40
0.9375
 40
1.0
 40
1.0
 40
1.0
 40
1.0
 10
338.554092227
 20
150.4683524533
 30
0.0
 10
338.5535729986
 20
150.4691856059
 30
0.0
 10
338.5527939106
 20
150.4704357436
 30
0.0
 10
338.5517561083
 20
150.4721009586
 30
0.0
 10
338.5511054367
 20
150.4731451248
 30
0.0
 10
338.5505895623
 20
150.4739726903
 30
0.0
 10
338.5502565062
 20
150.474507634
 30
0.0
 10
338.5500446797
 20
150.4748465916
 30
0.0
 10
338.5498902902
 20
150.4750958294
 30
0.0
 10
338.5496102828
 20
150.4755543239
 30
0.0
 10
338.5493032848
 20
150.4760557931
 30
0.0
 10
338.5487880517
 20
150.4768981839
 30
0.0
 10
338.548152237
 20
150.4779374681
 30
0.0
 10
338.5471303558
 20
150.4796079496
 30
0.0
 10
338.5458544298
 20
150.4816936674
 30
0.0
 10
338.5445785239
 20
150.4837793882
 30
0.0
 10
338.5435566105
 20
150.4854498648
 30
0.0
 10
338.5429208763
 20
150.4864891613
 30
0.0
 10
338.5424054782
 20
150.4873315268
 30
0.0
 10
338.5420989003
 20
150.4878330603
 30
0.0
 10
338.5418180304
 20
150.4882914229
 30
0.0
 10
338.5416671541
 20
150.488541198
 30
0.0
 10
338.5414635084
 20
150.4888814063
 30
0.0
 10
338.5411410766
 20
150.4894179783
 30
0.0
 10
338.5406428069
 20
150.4902482172
 30
0.0
 10
338.5400138478
 20
150.4912958477
 30
0.0
 10
338.5393873504
 20
150.4923394961
 30
0.0
 10
338.5388851418
 20
150.4931761062
 30
0.0
 10
338.5385100406
 20
150.4938008789
 30
0.0
 10
338.5381926933
 20
150.4943297677
 30
0.0
 10
338.5379798719
 20
150.4946838501
 30
0.0
 10
338.5378437085
 20
150.4949113777
 30
0.0
 10
338.537782576
 20
150.4950110505
 30
0.0
 10
338.5375647588
 20
150.4953820174
 30
0.0
 10
338.5373289893
 20
150.4957820094
 30
0.0
 10
338.5368909288
 20
150.4965260857
 30
0.0
 10
338.5362784388
 20
150.4975660005
 30
0.0
 10
338.5355377625
 20
150.4988237672
 30
0.0
 10
338.5345521353
 20
150.5004973309
 30
0.0
 10
338.5333197635
 20
150.5025905525
 30
0.0
 10
338.5313462482
 20
150.5059385156
 30
0.0
 10
338.5288936079
 20
150.5101273378
 30
0.0
 10
338.5265031071
 20
150.5143191806
 30
0.0
 10
338.5245705735
 20
150.517682716
 30
0.0
 10
338.5233820025
 20
150.5197582623
 30
0.0
 10
338.5223899489
 20
150.5214801761
 30
0.0
 10
338.5215472729
 20
150.5229775134
 30
0.0
 10
338.5201419776
 20
150.5254934566
 30
0.0
 10
338.5180978932
 20
150.529142607
 30
0.0
 10
338.5164737554
 20
150.5320451819
 30
0.0
 10
338.5156602953
 20
150.5334985625
 30
0.0
  0
SPLINE
  5
3C2
100
AcDbEntity
  8
0
100
AcDbSpline
 62
2
  6
CONTINUOUS
 70
0
 71
3
 72
26
 73
22
 74
0
 42
0.0000001
 43
0.0000001
 44
0.0000000001
 40
0.0
 40
0.0
 40
0.0
 40
0.0
 40
0.25
 40
0.375
 40
0.5
 40
0.5625
 40
0.625
 40
0.65625
 40
0.6875
 40
0.71875
 40
0.734375
 40
0.7421875
 40
0.75
 40
0.7578125
 40
0.765625
 40
0.78125
 40
0.8125
 40
0.84375
 40
0.875
 40
0.9375
 40
1.0
 40
1.0
 40
1.0
 40
1.0
 10
338.515660295
 20
150.5334985631
 30
0.0
 10
338.5144273656
 20
150.5357425298
 30
0.0
 10
338.5125616226
 20
150.5391062443
 30
0.0
 10
338.5101393611
 20
150.543600139
 30
0.0
 10
338.508606756
 20
150.5464062306
 30
0.0
 10
338.507409183
 20
150.5486550907
 30
0.0
 10
338.5066575986
 20
150.5500598732
 30
0.0
 10
338.5060566464
 20
150.5511845145
 30
0.0
 10
338.5056068469
 20
150.5520260026
 30
0.0
 10
338.505228834
 20
150.5527335458
 30
0.0
 10
338.5049705027
 20
150.5532164615
 30
0.0
 10
338.504813077
 20
150.5535117187
 30
0.0
 10
338.5047226375
 20
150.5536787784
 30
0.0
 10
338.5045265827
 20
150.554053718
 30
0.0
 10
338.5043020161
 20
150.5544811266
 30
0.0
 10
338.5038918602
 20
150.5552628758
 30
0.0
 10
338.5033148969
 20
150.5563619977
 30
0.0
 10
338.5026186997
 20
150.5576885043
 30
0.0
 10
338.5016917791
 20
150.559454538
 30
0.0
 10
338.5005326647
 20
150.5616629927
 30
0.0
 10
338.4996055145
 20
150.5634294783
 30
0.0
 10
338.4991419218
 20
150.5643127559
 30
0.0
  0
SPLINE
  5
3C3
100
AcDbEntity
  8
0
100
AcDbSpline
 62
2
  6
CONTINUOUS
 70
0
 71
3
 72
51
 73
47
 74
0
 42
0.0000001
 43
0.0000001
 44
0.0000000001
 40
0.0
 40
0.0
 40
0.0
 40
0.0
 40
0.0625
 40
0.09375
 40
0.125
 40
0.140625
 40
0.15625
 40
0.1640625
 40
0.16796875
 40
0.171875
 40
0.1796875
 40
0.1875
 40
0.203125
 40
0.21875
 40
0.25
 40
0.28125
 40
0.296875
 40
0.3125
 40
0.3203125
 40
0.328125
 40
0.33203125
 40
0.3359375
 40
0.34375
 40
0.359375
 40
0.375
 40
0.40625
 40
0.4375
 40
0.453125
 40
0.46875
 40
0.484375
 40
0.4921875
 40
0.49609375
 40
0.5
 40
0.50390625
 40
0.5078125
 40
0.515625
 40
0.53125
 40
0.546875
 40
0.5625
 40
0.59375
 40
0.625
 40
0.6875
 40
0.75
 40
0.8125
 40
0.875
 40
1.0
 40
1.0
 40
1.0
 40
1.0
 10
338.4991419213
 20
150.5643127568
 30
0.0
 10
338.4987064758
 20
150.5651578246
 30
0.0
 10
338.4980531031
 20
150.5664258407
 30
0.0
 10
338.4971827569
 20
150.5681148711
 30
0.0
 10
338.4966370879
 20
150.5691739687
 30
0.0
 10
338.4962044347
 20
150.5700133726
 30
0.0
 10
338.4959251727
 20
150.5705559587
 30
0.0
 10
338.4957474329
 20
150.5708997784
 30
0.0
 10
338.4956181059
 20
150.5711525572
 30
0.0
 10
338.4953841981
 20
150.5716174659
 30
0.0
 10
338.4951276216
 20
150.572125969
 30
0.0
 10
338.4946970882
 20
150.5729801638
 30
0.0
 10
338.4941657703
 20
150.5740340148
 30
0.0
 10
338.4933118509
 20
150.5757279081
 30
0.0
 10
338.4922456375
 20
150.5778428578
 30
0.0
 10
338.4911794444
 20
150.5799578102
 30
0.0
 10
338.4903254924
 20
150.5816516993
 30
0.0
 10
338.4897942561
 20
150.5827055607
 30
0.0
 10
338.4893635554
 20
150.5835597343
 30
0.0
 10
338.4891074049
 20
150.5840682911
 30
0.0
 10
338.4888726226
 20
150.5845330896
 30
0.0
 10
338.488746858
 20
150.5847863175
 30
0.0
 10
338.4885774137
 20
150.5851311822
 30
0.0
 10
338.4883089252
 20
150.5856751295
 30
0.0
 10
338.4878941216
 20
150.5865167643
 30
0.0
 10
338.4873704836
 20
150.5875787802
 30
0.0
 10
338.486848907
 20
150.5886367576
 30
0.0
 10
338.4864308051
 20
150.5894848541
 30
0.0
 10
338.4861185139
 20
150.590118206
 30
0.0
 10
338.4858543371
 20
150.5906543528
 30
0.0
 10
338.4856771129
 20
150.5910133034
 30
0.0
 10
338.4855638229
 20
150.5912439443
 30
0.0
 10
338.4855127125
 20
150.591345018
 30
0.0
 10
338.4853321835
 20
150.5917209566
 30
0.0
 10
338.4851366208
 20
150.5921263321
 30
0.0
 10
338.4847733536
 20
150.5928804097
 30
0.0
 10
338.4842653944
 20
150.5939343087
 30
0.0
 10
338.4836511466
 20
150.595208986
 30
0.0
 10
338.4828337452
 20
150.5969050534
 30
0.0
 10
338.4818117675
 20
150.5990264094
 30
0.0
 10
338.4801748584
 20
150.6024194448
 30
0.0
 10
338.4781427117
 20
150.6066641581
 30
0.0
 10
338.4757818683
 20
150.6117599813
 30
0.0
 10
338.4733722435
 20
150.6168754197
 30
0.0
 10
338.4703159341
 20
150.6235885002
 30
0.0
 10
338.4680547027
 20
150.6285997039
 30
0.0
 10
338.4665403261
 20
150.6319457523
 30
0.0
  0
LINE
  5
3C4
100
AcDbEntity
  8
0
100
AcDbLine
 62
2
  6
CONTINUOUS
 10
338.4665403253
 20
150.6319457542
 11
338.4548236074
 21
150.6591432586
  0
SPLINE
  5
3C5
100
AcDbEntity
  8
0
100
AcDbSpline
 62
2
  6
CONTINUOUS
 70
0
 71
3
 72
72
 73
68
 74
0
 42
0.0000001
 43
0.0000001
 44
0.0000000001
 40
0.0
 40
0.0
 40
0.0
 40
0.0
 40
0.0625
 40
0.09375
 40
0.125
 40
0.140625
 40
0.15625
 40
0.1640625
 40
0.16796875
 40
0.171875
 40
0.1796875
 40
0.1875
 40
0.203125
 40
0.21875
 40
0.25
 40
0.28125
 40
0.296875
 40
0.3125
 40
0.3203125
 40
0.328125
 40
0.33203125
 40
0.3359375
 40
0.34375
 40
0.359375
 40
0.375
 40
0.40625
 40
0.4375
 40
0.453125
 40
0.46875
 40
0.484375
 40
0.4921875
 40
0.49609375
 40
0.5
 40
0.50390625
 40
0.5078125
 40
0.515625
 40
0.53125
 40
0.546875
 40
0.5625
 40
0.59375
 40
0.625
 40
0.640625
 40
0.65625
 40
0.6640625
 40
0.66796875
 40
0.671875
 40
0.6796875
 40
0.6875
 40
0.703125
 40
0.71875
 40
0.75
 40
0.78125
 40
0.796875
 40
0.8125
 40
0.8203125
 40
0.828125
 40
0.83203125
 40
0.833984375
 40
0.8359375
 40
0.83984375
 40
0.84375
 40
0.859375
 40
0.875
 40
0.890625
 40
0.90625
 40
0.9375
 40
1.0
 40
1.0
 40
1.0
 40
1.0
 10
338.454823607
 20
150.6591432594
 30
0.0
 10
338.4534488098
 20
150.6625655367
 30
0.0
 10
338.4513865118
 20
150.6676993775
 30
0.0
 10
338.4486371901
 20
150.6745427993
 30
0.0
 10
338.4469180119
 20
150.6788234779
 30
0.0
 10
338.4455446124
 20
150.6822399497
 30
0.0
 10
338.444681806
 20
150.6843936524
 30
0.0
 10
338.444086723
 20
150.6858643534
 30
0.0
 10
338.4437327798
 20
150.6867624731
 30
0.0
 10
338.4433264895
 20
150.6878780292
 30
0.0
 10
338.4428365502
 20
150.6891980246
 30
0.0
 10
338.4420426311
 20
150.6913516225
 30
0.0
 10
338.4410536589
 20
150.6940293798
 30
0.0
 10
338.4394694051
 20
150.6983217172
 30
0.0
 10
338.4374896189
 20
150.7036846564
 30
0.0
 10
338.4355100811
 20
150.7090476186
 30
0.0
 10
338.4339254299
 20
150.7133399193
 30
0.0
 10
338.4329374511
 20
150.7160177683
 30
0.0
 10
338.4321414955
 20
150.7181711782
 30
0.0
 10
338.4316567407
 20
150.7194916521
 30
0.0
 10
338.4312398081
 20
150.7206062261
 30
0.0
 10
338.4309292165
 20
150.7215083465
 30
0.0
 10
338.4304350814
 20
150.722988363
 30
0.0
 10
338.4297033986
 20
150.7251541696
 30
0.0
 10
338.4285471164
 20
150.7285906595
 30
0.0
 10
338.4270967882
 20
150.7328962883
 30
0.0
 10
338.4256483492
 20
150.7371978522
 30
0.0
 10
338.4244890444
 20
150.7406408458
 30
0.0
 10
338.4236200928
 20
150.7432203026
 30
0.0
 10
338.4228944405
 20
150.7453784185
 30
0.0
 10
338.422389458
 20
150.7468723256
 30
0.0
 10
338.4220962558
 20
150.7477521716
 30
0.0
 10
338.4218894266
 20
150.7483382944
 30
0.0
 10
338.4216326282
 20
150.7492063719
 30
0.0
 10
338.4213076602
 20
150.7502654595
 30
0.0
 10
338.4207308451
 20
150.7521646861
 30
0.0
 10
338.4199110717
 20
150.7548539043
 30
0.0
 10
338.4189255143
 20
150.7580912484
 30
0.0
 10
338.4176121318
 20
150.7624039885
 30
0.0
 10
338.4159697714
 20
150.7677970987
 30
0.0
 10
338.4143290722
 20
150.7731861173
 30
0.0
 10
338.4130130319
 20
150.7775054038
 30
0.0
 10
338.4121983786
 20
150.7801868247
 30
0.0
 10
338.4116123518
 20
150.7821001332
 30
0.0
 10
338.4113021511
 20
150.7831366401
 30
0.0
 10
338.4110848924
 20
150.7839591281
 30
0.0
 10
338.4107814958
 20
150.7850605177
 30
0.0
 10
338.4103138455
 20
150.7867817895
 30
0.0
 10
338.4097231937
 20
150.788947398
 30
0.0
 10
338.4087815513
 20
150.792404555
 30
0.0
 10
338.4076033501
 20
150.7967285504
 30
0.0
 10
338.4064254911
 20
150.8010521199
 30
0.0
 10
338.4054833012
 20
150.8045099582
 30
0.0
 10
338.4048940181
 20
150.8066738633
 30
0.0
 10
338.404423562
 20
150.808398627
 30
0.0
 10
338.4041273083
 20
150.8094911273
 30
0.0
 10
338.4039243774
 20
150.8102267705
 30
0.0
 10
338.4038014596
 20
150.8106926789
 30
0.0
 10
338.4036523371
 20
150.8113301163
 30
0.0
 10
338.4034748909
 20
150.8120682837
 30
0.0
 10
338.4030416479
 20
150.8138881402
 30
0.0
 10
338.4023948798
 20
150.8165976574
 30
0.0
 10
338.4015307527
 20
150.820221931
 30
0.0
 10
338.4006670989
 20
150.8238431059
 30
0.0
 10
338.3995153954
 20
150.8286724203
 30
0.0
 10
338.3974999916
 20
150.8371232136
 30
0.0
 10
338.3957724761
 20
150.8443669245
 30
0.0
 10
338.394620805
 20
150.8491960265
 30
0.0
  0
LINE
  5
3C6
100
AcDbEntity
  8
0
100
AcDbLine
 62
2
  6
CONTINUOUS
 10
338.3946208057
 20
150.8491960233
 11
338.3889550845
 21
150.8768727196
  0
SPLINE
  5
3C7
100
AcDbEntity
  8
0
100
AcDbSpline
 62
2
  6
CONTINUOUS
 70
0
 71
3
 72
51
 73
47
 74
0
 42
0.0000001
 43
0.0000001
 44
0.0000000001
 40
0.0
 40
0.0
 40
0.0
 40
0.0
 40
0.0625
 40
0.09375
 40
0.125
 40
0.140625
 40
0.15625
 40
0.1640625
 40
0.16796875
 40
0.171875
 40
0.1796875
 40
0.1875
 40
0.203125
 40
0.21875
 40
0.25
 40
0.28125
 40
0.296875
 40
0.3125
 40
0.3203125
 40
0.328125
 40
0.33203125
 40
0.3359375
 40
0.34375
 40
0.359375
 40
0.375
 40
0.40625
 40
0.4375
 40
0.453125
 40
0.46875
 40
0.484375
 40
0.4921875
 40
0.49609375
 40
0.5
 40
0.50390625
 40
0.5078125
 40
0.515625
 40
0.53125
 40
0.546875
 40
0.5625
 40
0.59375
 40
0.625
 40
0.6875
 40
0.75
 40
0.8125
 40
0.875
 40
1.0
 40
1.0
 40
1.0
 40
1.0
 10
338.3889550843
 20
150.8768727205
 30
0.0
 10
338.3887924822
 20
150.8777415892
 30
0.0
 10
338.3885485083
 20
150.8790453177
 30
0.0
 10
338.3882234923
 20
150.8807819209
 30
0.0
 10
338.3880197688
 20
150.8818708426
 30
0.0
 10
338.3878581319
 20
150.882733898
 30
0.0
 10
338.3877540483
 20
150.8832917403
 30
0.0
 10
338.3876873233
 20
150.8836452892
 30
0.0
 10
338.3876395983
 20
150.8839051143
 30
0.0
 10
338.3875557224
 20
150.88438267
 30
0.0
 10
338.3874632555
 20
150.8849050643
 30
0.0
 10
338.3873083913
 20
150.8857825566
 30
0.0
 10
338.3871171783
 20
150.8868651628
 30
0.0
 10
338.3868099208
 20
150.8886052682
 30
0.0
 10
338.3864262552
 20
150.89077792
 30
0.0
 10
338.3860426105
 20
150.8929505726
 30
0.0
 10
338.3857353195
 20
150.8946906766
 30
0.0
 10
338.3855441904
 20
150.8957732865
 30
0.0
 10
338.3853891542
 20
150.8966507712
 30
0.0
 10
338.385297125
 20
150.8971731848
 30
0.0
 10
338.3852123507
 20
150.8976507008
 30
0.0
 10
338.3851682853
 20
150.8979106876
 30
0.0
 10
338.385110082
 20
150.8982646122
 30
0.0
 10
338.3850170669
 20
150.8988229465
 30
0.0
 10
338.3848737606
 20
150.8996867929
 30
0.0
 10
338.384692714
 20
150.9007768536
 30
0.0
 10
338.3845124252
 20
150.9018627637
 30
0.0
 10
338.3843679064
 20
150.9027332512
 30
0.0
 10
338.3842599259
 20
150.903383329
 30
0.0
 10
338.3841687002
 20
150.9039336201
 30
0.0
 10
338.3841072714
 20
150.9043020685
 30
0.0
 10
338.3840683776
 20
150.904538766
 30
0.0
 10
338.3840498881
 20
150.9046426096
 30
0.0
 10
338.3839905708
 20
150.9050280936
 30
0.0
 10
338.3839257223
 20
150.9054438328
 30
0.0
 10
338.3838056023
 20
150.9062171481
 30
0.0
 10
338.3836374691
 20
150.9072979541
 30
0.0
 10
338.3834342349
 20
150.9086051654
 30
0.0
 10
338.3831637235
 20
150.9103445293
 30
0.0
 10
338.3828257634
 20
150.9125200077
 30
0.0
 10
338.3822829457
 20
150.9159997914
 30
0.0
 10
338.3816193188
 20
150.9203517904
 30
0.0
 10
338.380900406
 20
150.9255701811
 30
0.0
 10
338.3801395319
 20
150.9308117982
 30
0.0
 10
338.3792455741
 20
150.9376820906
 30
0.0
 10
338.3785982475
 20
150.9428090484
 30
0.0
 10
338.3781615537
 20
150.946232745
 30
0.0
  0
SPLINE
  5
3C8
100
AcDbEntity
  8
0
100
AcDbSpline
 62
2
  6
CONTINUOUS
 70
0
 71
3
 72
24
 73
20
 74
0
 42
0.0000001
 43
0.0000001
 44
0.0000000001
 40
0.0
 40
0.0
 40
0.0
 40
0.0
 40
0.25
 40
0.375
 40
0.5
 40
0.5625
 40
0.625
 40
0.65625
 40
0.6875
 40
0.71875
 40
0.734375
 40
0.75
 40
0.765625
 40
0.78125
 40
0.8125
 40
0.84375
 40
0.875
 40
0.9375
 40
1.0
 40
1.0
 40
1.0
 40
1.0
 10
338.3781615535
 20
150.9462327469
 30
0.0
 10
338.3778893775
 20
150.9485558688
 30
0.0
 10
338.3774641897
 20
150.9520400946
 30
0.0
 10
338.3769649675
 20
150.9566875572
 30
0.0
 10
338.3766335733
 20
150.9595918693
 30
0.0
 10
338.3763980469
 20
150.9619157068
 30
0.0
 10
338.3762473978
 20
150.9633689337
 30
0.0
 10
338.3761277496
 20
150.96452943
 30
0.0
 10
338.3760374671
 20
150.9654055609
 30
0.0
 10
338.3759636899
 20
150.966117343
 30
0.0
 10
338.3759014415
 20
150.9667278742
 30
0.0
 10
338.3758635604
 20
150.9670734523
 30
0.0
 10
338.3757920719
 20
150.9678477588
 30
0.0
 10
338.3757084933
 20
150.9687304071
 30
0.0
 10
338.3755999924
 20
150.9698850996
 30
0.0
 10
338.3754715153
 20
150.9712487368
 30
0.0
 10
338.3752996102
 20
150.9730746049
 30
0.0
 10
338.3750849368
 20
150.9753542856
 30
0.0
 10
338.3749131346
 20
150.9771788392
 30
0.0
 10
338.3748272415
 20
150.9780910148
 30
0.0
  0
SPLINE
  5
3C9
100
AcDbEntity
  8
0
100
AcDbSpline
 62
2
  6
CONTINUOUS
 70
0
 71
3
 72
55
 73
51
 74
0
 42
0.0000001
 43
0.0000001
 44
0.0000000001
 40
0.0
 40
0.0
 40
0.0
 40
0.0
 40
0.0625
 40
0.09375
 40
0.125
 40
0.140625
 40
0.15625
 40
0.1640625
 40
0.16796875
 40
0.171875
 40
0.1796875
 40
0.1875
 40
0.203125
 40
0.21875
 40
0.25
 40
0.28125
 40
0.296875
 40
0.3125
 40
0.3203125
 40
0.328125
 40
0.33203125
 40
0.3359375
 40
0.34375
 40
0.359375
 40
0.375
 40
0.40625
 40
0.4375
 40
0.453125
 40
0.46875
 40
0.484375
 40
0.4921875
 40
0.49609375
 40
0.5
 40
0.50390625
 40
0.5078125
 40
0.515625
 40
0.53125
 40
0.546875
 40
0.5625
 40
0.59375
 40
0.625
 40
0.6875
 40
0.75
 40
0.78125
 40
0.8125
 40
0.828125
 40
0.84375
 40
0.875
 40
0.9375
 40
1.0
 40
1.0
 40
1.0
 40
1.0
 10
338.3748272414
 20
150.9780910158
 30
0.0
 10
338.3747529795
 20
150.9789628896
 30
0.0
 10
338.3746415592
 20
150.9802711271
 30
0.0
 10
338.3744931083
 20
150.9820137372
 30
0.0
 10
338.3744000983
 20
150.9831064237
 30
0.0
 10
338.3743262106
 20
150.9839724671
 30
0.0
 10
338.374278844
 20
150.9845322309
 30
0.0
 10
338.374248066
 20
150.9848870168
 30
0.0
 10
338.374226757
 20
150.9851477178
 30
0.0
 10
338.3741914283
 20
150.9856267859
 30
0.0
 10
338.3741520679
 20
150.9861508527
 30
0.0
 10
338.3740864085
 20
150.9870311428
 30
0.0
 10
338.3740052524
 20
150.9881172045
 30
0.0
 10
338.3738748924
 20
150.9898628621
 30
0.0
 10
338.3737120966
 20
150.9920424469
 30
0.0
 10
338.3735493218
 20
150.9942220321
 30
0.0
 10
338.3734189281
 20
150.995967689
 30
0.0
 10
338.3733378561
 20
150.9970537524
 30
0.0
 10
338.3732720243
 20
150.9979340392
 30
0.0
 10
338.3732331029
 20
150.9984581142
 30
0.0
 10
338.373196873
 20
150.9989371655
 30
0.0
 10
338.3731792353
 20
150.999197935
 30
0.0
 10
338.3731570061
 20
150.9995528801
 30
0.0
 10
338.3731207436
 20
151.0001128546
 30
0.0
 10
338.3730652433
 20
151.0009792232
 30
0.0
 10
338.3729949965
 20
151.0020724722
 30
0.0
 10
338.3729250856
 20
151.0031615566
 30
0.0
 10
338.3728690479
 20
151.0040345886
 30
0.0
 10
338.3728271449
 20
151.004686568
 30
0.0
 10
338.3727918537
 20
151.0052384642
 30
0.0
 10
338.3727678763
 20
151.0056079961
 30
0.0
 10
338.3727530412
 20
151.0058453753
 30
0.0
 10
338.3727451085
 20
151.0059495542
 30
0.0
 10
338.3727249679
 20
151.0063360462
 30
0.0
 10
338.372702372
 20
151.0067528949
 30
0.0
 10
338.3726608455
 20
151.007528261
 30
0.0
 10
338.3726025567
 20
151.0086119396
 30
0.0
 10
338.3725321772
 20
151.0099226223
 30
0.0
 10
338.372438439
 20
151.0116666074
 30
0.0
 10
338.3723215901
 20
151.0138478567
 30
0.0
 10
338.3721323575
 20
151.0173369247
 30
0.0
 10
338.3719115786
 20
151.0217001696
 30
0.0
 10
338.3717524087
 20
151.0260583614
 30
0.0
 10
338.3716107775
 20
151.0295572223
 30
0.0
 10
338.3715271917
 20
151.0317157683
 30
0.0
 10
338.371452056
 20
151.0335073091
 30
0.0
 10
338.3714060416
 20
151.0350626275
 30
0.0
 10
338.3713390036
 20
151.0376746306
 30
0.0
 10
338.3712361366
 20
151.0414638553
 30
0.0
 10
338.3711560063
 20
151.0444776223
 30
0.0
 10
338.3711156707
 20
151.0459867074
 30
0.0
  0
SPLINE
  5
3CA
100
AcDbEntity
  8
0
100
AcDbSpline
 62
7
  6
CONTINUOUS
 70
0
 71
3
 72
40
 73
36
 74
0
 42
0.0000001
 43
0.0000001
 44
0.0000000001
 40
0.0
 40
0.0
 40
0.0
 40
0.0
 40
0.0625
 40
0.09375
 40
0.125
 40
0.140625
 40
0.15625
 40
0.1640625
 40
0.16796875
 40
0.171875
 40
0.1796875
 40
0.1875
 40
0.203125
 40
0.21875
 40
0.25
 40
0.28125
 40
0.3125
 40
0.34375
 40
0.375
 40
0.4375
 40
0.46875
 40
0.5
 40
0.53125
 40
0.5625
 40
0.625
 40
0.65625
 40
0.6875
 40
0.75
 40
0.78125
 40
0.8125
 40
0.828125
 40
0.84375
 40
0.875
 40
0.9375
 40
1.0
 40
1.0
 40
1.0
 40
1.0
 10
346.3709016343
 20
151.0666763514
 30
0.0
 10
346.3708528963
 20
151.0631858063
 30
0.0
 10
346.3707797163
 20
151.0579495624
 30
0.0
 10
346.370682435
 20
151.050969609
 30
0.0
 10
346.3706210258
 20
151.0466035857
 30
0.0
 10
346.3705732854
 20
151.0431188667
 30
0.0
 10
346.3705402846
 20
151.0409224443
 30
0.0
 10
346.3705235231
 20
151.0394219703
 30
0.0
 10
346.3705040269
 20
151.0385066327
 30
0.0
 10
346.370447167
 20
151.0373730873
 30
0.0
 10
346.3703888858
 20
151.0360308695
 30
0.0
 10
346.370288483
 20
151.0338415675
 30
0.0
 10
346.3701654513
 20
151.0311192361
 30
0.0
 10
346.369967087
 20
151.0267555177
 30
0.0
 10
346.3697205971
 20
151.021303596
 30
0.0
 10
346.3694200448
 20
151.0147601859
 30
0.0
 10
346.3691362054
 20
151.0082168301
 30
0.0
 10
346.3687902788
 20
151.0016743612
 30
0.0
 10
346.3680289726
 20
150.9929558352
 30
0.0
 10
346.3673655089
 20
150.9842356439
 30
0.0
 10
346.3666335708
 20
150.975516874
 30
0.0
 10
346.3661921978
 20
150.9689751978
 30
0.0
 10
346.3653547398
 20
150.9624432059
 30
0.0
 10
346.3643816658
 20
150.9537303392
 30
0.0
 10
346.3633395414
 20
150.9450193686
 30
0.0
 10
346.3623969157
 20
150.936305368
 30
0.0
 10
346.3611483622
 20
150.9276009591
 30
0.0
 10
346.359812237
 20
150.918902593
 30
0.0
 10
346.3585123628
 20
150.9101940456
 30
0.0
 10
346.3576822903
 20
150.9047716209
 30
0.0
 10
346.3570515322
 20
150.9003872247
 30
0.0
 10
346.3563016956
 20
150.8961723203
 30
0.0
 10
346.3549342463
 20
150.8888750176
 30
0.0
 10
346.3530098184
 20
150.8784088363
 30
0.0
 10
346.3514614164
 20
150.8700485276
 30
0.0
 10
346.3506883228
 20
150.8658667937
 30
0.0
  0
LINE
  5
3CB
100
AcDbEntity
  8
0
100
AcDbLine
 62
7
  6
CONTINUOUS
 10
346.350688322
 20
150.8658667895
 11
346.3446297415
 21
150.8378287329
  0
SPLINE
  5
3CC
100
AcDbEntity
  8
0
100
AcDbSpline
 62
7
  6
CONTINUOUS
 70
0
 71
3
 72
55
 73
51
 74
0
 42
0.0000001
 43
0.0000001
 44
0.0000000001
 40
0.0
 40
0.0
 40
0.0
 40
0.0
 40
0.0625
 40
0.09375
 40
0.125
 40
0.140625
 40
0.15625
 40
0.1640625
 40
0.16796875
 40
0.171875
 40
0.1796875
 40
0.1875
 40
0.203125
 40
0.21875
 40
0.25
 40
0.28125
 40
0.296875
 40
0.3125
 40
0.3203125
 40
0.328125
 40
0.33203125
 40
0.3359375
 40
0.34375
 40
0.359375
 40
0.375
 40
0.40625
 40
0.4375
 40
0.453125
 40
0.46875
 40
0.484375
 40
0.4921875
 40
0.49609375
 40
0.5
 40
0.50390625
 40
0.5078125
 40
0.515625
 40
0.53125
 40
0.546875
 40
0.5625
 40
0.59375
 40
0.625
 40
0.6875
 40
0.75
 40
0.78125
 40
0.8125
 40
0.828125
 40
0.84375
 40
0.875
 40
0.9375
 40
1.0
 40
1.0
 40
1.0
 40
1.0
 10
346.3446297414
 20
150.8378287325
 30
0.0
 10
346.3444270084
 20
150.8369619756
 30
0.0
 10
346.3441228009
 20
150.8356614168
 30
0.0
 10
346.3437176231
 20
150.8339290319
 30
0.0
 10
346.3434634866
 20
150.8328427631
 30
0.0
 10
346.3432622301
 20
150.8319817926
 30
0.0
 10
346.3431317633
 20
150.8314253387
 30
0.0
 10
346.3430498186
 20
150.8310725907
 30
0.0
 10
346.342988314
 20
150.8308134907
 30
0.0
 10
346.3428715114
 20
150.8303376677
 30
0.0
 10
346.3427444421
 20
150.8298170943
 30
0.0
 10
346.3425305502
 20
150.8289427082
 30
0.0
 10
346.3422668069
 20
150.8278639188
 30
0.0
 10
346.3418428014
 20
150.826129957
 30
0.0
 10
346.3413134298
 20
150.8239649727
 30
0.0
 10
346.3407840373
 20
150.8217999897
 30
0.0
 10
346.3403600653
 20
150.8200660258
 30
0.0
 10
346.3400962384
 20
150.8189872415
 30
0.0
 10
346.3398825178
 20
150.818112845
 30
0.0
 10
346.3397550123
 20
150.8175922983
 30
0.0
 10
346.3396391049
 20
150.8171164205
 30
0.0
 10
346.3395739537
 20
150.8168575434
 30
0.0
 10
346.3394835175
 20
150.8165053149
 30
0.0
 10
346.3393420199
 20
150.815949532
 30
0.0
 10
346.339122505
 20
150.8150896959
 30
0.0
 10
346.3388457143
 20
150.8140046735
 30
0.0
 10
346.3385699105
 20
150.8129237896
 30
0.0
 10
346.3383488164
 20
150.8120573318
 30
0.0
 10
346.338183757
 20
150.8114102576
 30
0.0
 10
346.3380438582
 20
150.8108625279
 30
0.0
 10
346.3379505296
 20
150.8104957582
 30
0.0
 10
346.337890017
 20
150.8102601983
 30
0.0
 10
346.3378648638
 20
150.8101567053
 30
0.0
 10
346.3377623768
 20
150.8097734931
 30
0.0
 10
346.3376527024
 20
150.8093601127
 30
0.0
 10
346.3374482038
 20
150.8085912377
 30
0.0
 10
346.3371626361
 20
150.8075166115
 30
0.0
 10
346.3368171311
 20
150.806216887
 30
0.0
 10
346.336357495
 20
150.8044874748
 30
0.0
 10
346.3357822302
 20
150.8023244881
 30
0.0
 10
346.3348643381
 20
150.7988644196
 30
0.0
 10
346.3337008646
 20
150.7945388939
 30
0.0
 10
346.3324779322
 20
150.7902224773
 30
0.0
 10
346.3315103013
 20
150.7867577188
 30
0.0
 10
346.3309084739
 20
150.7846167534
 30
0.0
 10
346.3304172727
 20
150.7828480665
 30
0.0
 10
346.3299626748
 20
150.7812834309
 30
0.0
 10
346.3291841916
 20
150.7786401646
 30
0.0
 10
346.3280630921
 20
150.774814151
 30
0.0
 10
346.3271689495
 20
150.7717685534
 30
0.0
 10
346.3267215361
 20
150.770243853
 30
0.0
  0
SPLINE
  5
3CD
100
AcDbEntity
  8
0
100
AcDbSpline
 62
7
  6
CONTINUOUS
 70
0
 71
3
 72
27
 73
23
 74
0
 42
0.0000001
 43
0.0000001
 44
0.0000000001
 40
0.0
 40
0.0
 40
0.0
 40
0.0
 40
0.125
 40
0.25
 40
0.375
 40
0.5
 40
0.5625
 40
0.625
 40
0.65625
 40
0.6875
 40
0.71875
 40
0.734375
 40
0.7421875
 40
0.75
 40
0.7578125
 40
0.765625
 40
0.78125
 40
0.8125
 40
0.84375
 40
0.875
 40
0.9375
 40
1.0
 40
1.0
 40
1.0
 40
1.0
 10
346.3267215363
 20
150.7702438536
 30
0.0
 10
346.3263726054
 20
150.7690934556
 30
0.0
 10
346.3256725515
 20
150.7667928267
 30
0.0
 10
346.3246356235
 20
150.7633408802
 30
0.0
 10
346.3235526607
 20
150.7598924448
 30
0.0
 10
346.322672243
 20
150.7570171213
 30
0.0
 10
346.3219380032
 20
150.7547190124
 30
0.0
 10
346.3214826556
 20
150.7532828584
 30
0.0
 10
346.3211173285
 20
150.752133004
 30
0.0
 10
346.320844349
 20
150.7512733084
 30
0.0
 10
346.3206139169
 20
150.7505482995
 30
0.0
 10
346.3204583634
 20
150.7500576654
 30
0.0
 10
346.320360505
 20
150.7497509581
 30
0.0
 10
346.3203123805
 20
150.749595142
 30
0.0
 10
346.3201676643
 20
150.7491556409
 30
0.0
 10
346.3200084017
 20
150.7486685919
 30
0.0
 10
346.3197139942
 20
150.7477701524
 30
0.0
 10
346.3193016191
 20
150.7465107711
 30
0.0
 10
346.318803256
 20
150.744989196
 30
0.0
 10
346.3181399994
 20
150.7429640345
 30
0.0
 10
346.3173105046
 20
150.7404313373
 30
0.0
 10
346.316647038
 20
150.7384055591
 30
0.0
 10
346.3163152886
 20
150.7373926225
 30
0.0
  0
SPLINE
  5
3CE
100
AcDbEntity
  8
0
100
AcDbSpline
 62
7
  6
CONTINUOUS
 70
0
 71
3
 72
55
 73
51
 74
0
 42
0.0000001
 43
0.0000001
 44
0.0000000001
 40
0.0
 40
0.0
 40
0.0
 40
0.0
 40
0.0625
 40
0.09375
 40
0.125
 40
0.140625
 40
0.15625
 40
0.1640625
 40
0.16796875
 40
0.171875
 40
0.1796875
 40
0.1875
 40
0.203125
 40
0.21875
 40
0.25
 40
0.28125
 40
0.296875
 40
0.3125
 40
0.3203125
 40
0.328125
 40
0.33203125
 40
0.3359375
 40
0.34375
 40
0.359375
 40
0.375
 40
0.40625
 40
0.4375
 40
0.453125
 40
0.46875
 40
0.484375
 40
0.4921875
 40
0.49609375
 40
0.5
 40
0.50390625
 40
0.5078125
 40
0.515625
 40
0.53125
 40
0.546875
 40
0.5625
 40
0.59375
 40
0.625
 40
0.6875
 40
0.75
 40
0.78125
 40
0.8125
 40
0.828125
 40
0.84375
 40
0.875
 40
0.9375
 40
1.0
 40
1.0
 40
1.0
 40
1.0
 10
346.3163152884
 20
150.7373926219
 30
0.0
 10
346.3160249301
 20
150.7365321187
 30
0.0
 10
346.3155892419
 20
150.7352409437
 30
0.0
 10
346.3150089275
 20
150.7335210576
 30
0.0
 10
346.3146449741
 20
150.7324426278
 30
0.0
 10
346.3143566771
 20
150.7315878662
 30
0.0
 10
346.3141699557
 20
150.731035435
 30
0.0
 10
346.314052349
 20
150.7306852179
 30
0.0
 10
346.3139646517
 20
150.7304280102
 30
0.0
 10
346.3137997526
 20
150.7299557599
 30
0.0
 10
346.3136200624
 20
150.7294390771
 30
0.0
 10
346.313317786
 20
150.7285712374
 30
0.0
 10
346.3129449965
 20
150.7275005209
 30
0.0
 10
346.3123457189
 20
150.7257795371
 30
0.0
 10
346.3115975065
 20
150.7236307561
 30
0.0
 10
346.3108492734
 20
150.7214819768
 30
0.0
 10
346.3102500289
 20
150.7197609901
 30
0.0
 10
346.3098771565
 20
150.7186902808
 30
0.0
 10
346.3095750501
 20
150.7178224264
 30
0.0
 10
346.3093949271
 20
150.7173057812
 30
0.0
 10
346.3092309165
 20
150.7168334536
 30
0.0
 10
346.3091395998
 20
150.7165765609
 30
0.0
 10
346.3090135652
 20
150.7162270779
 30
0.0
 10
346.3088158952
 20
150.7156755965
 30
0.0
 10
346.3085094784
 20
150.7148224307
 30
0.0
 10
346.3081230262
 20
150.7137458199
 30
0.0
 10
346.3077379795
 20
150.7126733175
 30
0.0
 10
346.307429314
 20
150.7118135784
 30
0.0
 10
346.3071988559
 20
150.7111715205
 30
0.0
 10
346.3070035991
 20
150.7106280414
 30
0.0
 10
346.3068732014
 20
150.7102641092
 30
0.0
 10
346.3067888818
 20
150.7100303861
 30
0.0
 10
346.3067532671
 20
150.7099276639
 30
0.0
 10
346.3066120556
 20
150.7095475424
 30
0.0
 10
346.3064606069
 20
150.7091374738
 30
0.0
 10
346.3061784101
 20
150.7083747713
 30
0.0
 10
346.3057842465
 20
150.7073087659
 30
0.0
 10
346.3053073984
 20
150.7060194711
 30
0.0
 10
346.3046729973
 20
150.7043039343
 30
0.0
 10
346.3038791533
 20
150.7021583116
 30
0.0
 10
346.3026116031
 20
150.6987259604
 30
0.0
 10
346.3010110333
 20
150.6944354903
 30
0.0
 10
346.2993520046
 20
150.6901556247
 30
0.0
 10
346.2980343041
 20
150.6867198503
 30
0.0
 10
346.2972161644
 20
150.684596894
 30
0.0
 10
346.2965462565
 20
150.6828429331
 30
0.0
 10
346.2959335948
 20
150.6812918332
 30
0.0
 10
346.2948880951
 20
150.6786716999
 30
0.0
 10
346.2933804935
 20
150.6748790253
 30
0.0
 10
346.2921786882
 20
150.6718600101
 30
0.0
 10
346.291577251
 20
150.6703486119
 30
0.0
  0
LINE
  5
3CF
100
AcDbEntity
  8
0
100
AcDbLine
 62
7
  6
CONTINUOUS
 10
346.2915772513
 20
150.6703486125
 11
346.2800108318
 21
150.642746734
  0
SPLINE
  5
3D0
100
AcDbEntity
  8
0
100
AcDbSpline
 62
7
  6
CONTINUOUS
 70
0
 71
3
 72
72
 73
68
 74
0
 42
0.0000001
 43
0.0000001
 44
0.0000000001
 40
0.0
 40
0.0
 40
0.0
 40
0.0
 40
0.0625
 40
0.09375
 40
0.125
 40
0.140625
 40
0.15625
 40
0.1640625
 40
0.16796875
 40
0.171875
 40
0.1796875
 40
0.1875
 40
0.203125
 40
0.21875
 40
0.25
 40
0.28125
 40
0.296875
 40
0.3125
 40
0.3203125
 40
0.328125
 40
0.33203125
 40
0.3359375
 40
0.34375
 40
0.359375
 40
0.375
 40
0.40625
 40
0.4375
 40
0.453125
 40
0.46875
 40
0.484375
 40
0.4921875
 40
0.49609375
 40
0.5
 40
0.50390625
 40
0.5078125
 40
0.515625
 40
0.53125
 40
0.546875
 40
0.5625
 40
0.59375
 40
0.625
 40
0.640625
 40
0.65625
 40
0.6640625
 40
0.66796875
 40
0.671875
 40
0.6796875
 40
0.6875
 40
0.703125
 40
0.71875
 40
0.75
 40
0.78125
 40
0.796875
 40
0.8125
 40
0.8203125
 40
0.828125
 40
0.83203125
 40
0.833984375
 40
0.8359375
 40
0.83984375
 40
0.84375
 40
0.859375
 40
0.875
 40
0.890625
 40
0.90625
 40
0.9375
 40
1.0
 40
1.0
 40
1.0
 40
1.0
 10
346.2800108316
 20
150.6427467336
 30
0.0
 10
346.2784834556
 20
150.6393406685
 30
0.0
 10
346.2761921396
 20
150.6342311619
 30
0.0
 10
346.2731380598
 20
150.6274201221
 30
0.0
 10
346.2712271594
 20
150.6231598148
 30
0.0
 10
346.2697032282
 20
150.6197593378
 30
0.0
 10
346.2687398487
 20
150.6176163215
 30
0.0
 10
346.2680873728
 20
150.6161517187
 30
0.0
 10
346.2676802808
 20
150.6152592463
 30
0.0
 10
346.2671441695
 20
150.6141574843
 30
0.0
 10
346.2665182062
 20
150.612851942
 30
0.0
 10
346.2654919778
 20
150.6107230281
 30
0.0
 10
346.2642176431
 20
150.6080755919
 30
0.0
 10
346.2621739961
 20
150.6038320672
 30
0.0
 10
346.259620971
 20
150.5985300373
 30
0.0
 10
346.2570677004
 20
150.5932280369
 30
0.0
 10
346.2550244461
 20
150.5889844649
 30
0.0
 10
346.2537491294
 20
150.5863371469
 30
0.0
 10
346.2527249143
 20
150.5842079907
 30
0.0
 10
346.2520938254
 20
150.5829030654
 30
0.0
 10
346.2515682355
 20
150.5818000368
 30
0.0
 10
346.2511182845
 20
150.580912724
 30
0.0
 10
346.250366008
 20
150.5794601362
 30
0.0
 10
346.249272992
 20
150.5773327229
 30
0.0
 10
346.2475344254
 20
150.5739581035
 30
0.0
 10
346.2453576163
 20
150.5697296667
 30
0.0
 10
346.2431823872
 20
150.5655053276
 30
0.0
 10
346.2414412924
 20
150.562124152
 30
0.0
 10
346.2401372577
 20
150.5595909247
 30
0.0
 10
346.2390449875
 20
150.5574717637
 30
0.0
 10
346.2382913236
 20
150.5560042802
 30
0.0
 10
346.2378436018
 20
150.5551408526
 30
0.0
 10
346.2375558589
 20
150.5545633273
 30
0.0
 10
346.2370844508
 20
150.5537180531
 30
0.0
 10
346.2365199711
 20
150.5526844147
 30
0.0
 10
346.2355022826
 20
150.5508320329
 30
0.0
 10
346.2340640497
 20
150.548208529
 30
0.0
 10
346.2323314789
 20
150.5450505585
 30
0.0
 10
346.2300237749
 20
150.5408434697
 30
0.0
 10
346.2271379453
 20
150.535582484
 30
0.0
 10
346.2242539258
 20
150.5303255739
 30
0.0
 10
346.2219433257
 20
150.5261119641
 30
0.0
 10
346.2205067568
 20
150.5234966246
 30
0.0
 10
346.219486031
 20
150.5216295049
 30
0.0
 10
346.2189264253
 20
150.5206194985
 30
0.0
 10
346.2184559728
 20
150.5198239135
 30
0.0
 10
346.2178373812
 20
150.5187560148
 30
0.0
 10
346.2168646938
 20
150.5170884056
 30
0.0
 10
346.2156429956
 20
150.5149898486
 30
0.0
 10
346.2136915294
 20
150.5116399906
 30
0.0
 10
346.2112511702
 20
150.5074501022
 30
0.0
 10
346.2088108533
 20
150.5032606857
 30
0.0
 10
346.2068593195
 20
150.4999100726
 30
0.0
 10
346.2056377903
 20
150.4978134033
 30
0.0
 10
346.2046647564
 20
150.4961419243
 30
0.0
 10
346.2040470469
 20
150.4950838771
 30
0.0
 10
346.2036338167
 20
150.4943700459
 30
0.0
 10
346.2033676974
 20
150.4939202081
 30
0.0
 10
346.2029886296
 20
150.4933124249
 30
0.0
 10
346.2025534011
 20
150.4926066824
 30
0.0
 10
346.2014770779
 20
150.4908684669
 30
0.0
 10
346.199875939
 20
150.4882798062
 30
0.0
 10
346.1977334592
 20
150.484817592
 30
0.0
 10
346.1955930199
 20
150.4813582311
 30
0.0
 10
346.1927383888
 20
150.4767447543
 30
0.0
 10
346.1877431183
 20
150.4686716366
 30
0.0
 10
346.1834613433
 20
150.4617516615
 30
0.0
 10
346.1806068521
 20
150.4571383803
 30
0.0
  0
LINE
  5
3D1
100
AcDbEntity
  8
0
100
AcDbLine
 62
7
  6
CONTINUOUS
 10
346.1806068516
 20
150.4571383794
 11
346.1621372355
 21
150.4289984123
  0
SPLINE
  5
3D2
100
AcDbEntity
  8
0
100
AcDbSpline
 62
7
  6
CONTINUOUS
 70
0
 71
3
 72
55
 73
51
 74
0
 42
0.0000001
 43
0.0000001
 44
0.0000000001
 40
0.0
 40
0.0
 40
0.0
 40
0.0
 40
0.0625
 40
0.09375
 40
0.125
 40
0.140625
 40
0.15625
 40
0.1640625
 40
0.16796875
 40
0.171875
 40
0.1796875
 40
0.1875
 40
0.203125
 40
0.21875
 40
0.25
 40
0.28125
 40
0.296875
 40
0.3125
 40
0.3203125
 40
0.328125
 40
0.33203125
 40
0.3359375
 40
0.34375
 40
0.359375
 40
0.375
 40
0.40625
 40
0.4375
 40
0.453125
 40
0.46875
 40
0.484375
 40
0.4921875
 40
0.49609375
 40
0.5
 40
0.50390625
 40
0.5078125
 40
0.515625
 40
0.53125
 40
0.546875
 40
0.5625
 40
0.59375
 40
0.625
 40
0.6875
 40
0.75
 40
0.78125
 40
0.8125
 40
0.828125
 40
0.84375
 40
0.875
 40
0.9375
 40
1.0
 40
1.0
 40
1.0
 40
1.0
 10
346.1621372359
 20
150.4289984129
 30
0.0
 10
346.1615778709
 20
150.4281717809
 30
0.0
 10
346.1607385413
 20
150.42693143
 30
0.0
 10
346.1596205633
 20
150.4252792403
 30
0.0
 10
346.1589194767
 20
150.4242432646
 30
0.0
 10
346.1583639663
 20
150.4234221384
 30
0.0
 10
346.1580045503
 20
150.4228914771
 30
0.0
 10
346.1577774531
 20
150.4225550004
 30
0.0
 10
346.1576093601
 20
150.4223079888
 30
0.0
 10
346.1572968982
 20
150.4218547668
 30
0.0
 10
346.1569557524
 20
150.4213588453
 30
0.0
 10
346.1563822951
 20
150.4205259137
 30
0.0
 10
346.1556749281
 20
150.4194982538
 30
0.0
 10
346.1545378786
 20
150.4178464825
 30
0.0
 10
346.1531182161
 20
150.4157841162
 30
0.0
 10
346.1516985337
 20
150.4137217532
 30
0.0
 10
346.150561516
 20
150.4120699765
 30
0.0
 10
346.1498540695
 20
150.4110423303
 30
0.0
 10
346.1492807753
 20
150.4102093706
 30
0.0
 10
346.148939214
 20
150.4097135206
 30
0.0
 10
346.148627605
 20
150.4092601518
 30
0.0
 10
346.1484560381
 20
150.409013738
 30
0.0
 10
346.1482208522
 20
150.4086786538
 30
0.0
 10
346.1478509268
 20
150.4081497976
 30
0.0
 10
346.1472780311
 20
150.4073316825
 30
0.0
 10
346.1465553063
 20
150.4062992851
 30
0.0
 10
346.1458352709
 20
150.4052708329
 30
0.0
 10
346.1452580721
 20
150.4044464057
 30
0.0
 10
346.144827071
 20
150.4038307145
 30
0.0
 10
346.1444620642
 20
150.4033095684
 30
0.0
 10
346.1442179915
 20
150.402960563
 30
0.0
 10
346.1440606754
 20
150.402736472
 30
0.0
 10
346.1439929601
 20
150.4026378686
 30
0.0
 10
346.1437330802
 20
150.4022737352
 30
0.0
 10
346.1434536029
 20
150.4018808439
 30
0.0
 10
346.1429332872
 20
150.4011501308
 30
0.0
 10
346.1422063089
 20
150.4001288158
 30
0.0
 10
346.1413269351
 20
150.3988935819
 30
0.0
 10
346.1401569321
 20
150.3972499718
 30
0.0
 10
346.1386932123
 20
150.3951943349
 30
0.0
 10
346.136354053
 20
150.3919057743
 30
0.0
 10
346.133414025
 20
150.3877961331
 30
0.0
 10
346.130420174
 20
150.3837023105
 30
0.0
 10
346.1280295534
 20
150.3804131958
 30
0.0
 10
346.1265511765
 20
150.3783847313
 30
0.0
 10
346.1253295337
 20
150.3767001165
 30
0.0
 10
346.1242510474
 20
150.375241089
 30
0.0
 10
346.1224302865
 20
150.3727926422
 30
0.0
 10
346.1197941521
 20
150.3692396762
 30
0.0
 10
346.1176959256
 20
150.3664141217
 30
0.0
 10
346.1166454773
 20
150.3649992422
 30
0.0
  0
SPLINE
  5
3D3
100
AcDbEntity
  8
0
100
AcDbSpline
 62
7
  6
CONTINUOUS
 70
0
 71
3
 72
27
 73
23
 74
0
 42
0.0000001
 43
0.0000001
 44
0.0000000001
 40
0.0
 40
0.0
 40
0.0
 40
0.0
 40
0.125
 40
0.25
 40
0.375
 40
0.5
 40
0.5625
 40
0.625
 40
0.65625
 40
0.6875
 40
0.71875
 40
0.734375
 40
0.7421875
 40
0.75
 40
0.7578125
 40
0.765625
 40
0.78125
 40
0.8125
 40
0.84375
 40
0.875
 40
0.9375
 40
1.0
 40
1.0
 40
1.0
 40
1.0
 10
346.1166454769
 20
150.3649992416
 30
0.0
 10
346.1158252367
 20
150.3639103636
 30
0.0
 10
346.1141826822
 20
150.3617329995
 30
0.0
 10
346.111731296
 20
150.3584646014
 30
0.0
 10
346.1092363504
 20
150.3552044354
 30
0.0
 10
346.1071781038
 20
150.3524837233
 30
0.0
 10
346.105503187
 20
150.3503124147
 30
0.0
 10
346.1044598252
 20
150.3489550338
 30
0.0
 10
346.1036239086
 20
150.3478685649
 30
0.0
 10
346.1029985758
 20
150.3470555938
 30
0.0
 10
346.1024726278
 20
150.3463720842
 30
0.0
 10
346.1021139207
 20
150.3459054755
 30
0.0
 10
346.1018941852
 20
150.3456203412
 30
0.0
 10
346.1017709617
 20
150.3454586076
 30
0.0
 10
346.1014888055
 20
150.345097656
 30
0.0
 10
346.1011680347
 20
150.3446858767
 30
0.0
 10
346.1005808565
 20
150.3439328865
 30
0.0
 10
346.0997555344
 20
150.342874113
 30
0.0
 10
346.0987593676
 20
150.3415963393
 30
0.0
 10
346.097433165
 20
150.3398951729
 30
0.0
 10
346.0957747141
 20
150.3377678404
 30
0.0
 10
346.094448166
 20
150.3360662409
 30
0.0
 10
346.0937848654
 20
150.3352154079
 30
0.0
  0
SPLINE
  5
3D4
100
AcDbEntity
  8
0
100
AcDbSpline
 62
7
  6
CONTINUOUS
 70
0
 71
3
 72
51
 73
47
 74
0
 42
0.0000001
 43
0.0000001
 44
0.0000000001
 40
0.0
 40
0.0
 40
0.0
 40
0.0
 40
0.0625
 40
0.09375
 40
0.125
 40
0.140625
 40
0.15625
 40
0.1640625
 40
0.16796875
 40
0.171875
 40
0.1796875
 40
0.1875
 40
0.203125
 40
0.21875
 40
0.25
 40
0.28125
 40
0.296875
 40
0.3125
 40
0.3203125
 40
0.328125
 40
0.33203125
 40
0.3359375
 40
0.34375
 40
0.359375
 40
0.375
 40
0.40625
 40
0.4375
 40
0.453125
 40
0.46875
 40
0.484375
 40
0.4921875
 40
0.49609375
 40
0.5
 40
0.50390625
 40
0.5078125
 40
0.515625
 40
0.53125
 40
0.546875
 40
0.5625
 40
0.59375
 40
0.625
 40
0.6875
 40
0.75
 40
0.8125
 40
0.875
 40
1.0
 40
1.0
 40
1.0
 40
1.0
 10
346.0937848647
 20
150.335215407
 30
0.0
 10
346.0931437107
 20
150.3344037586
 30
0.0
 10
346.092181658
 20
150.3331858906
 30
0.0
 10
346.0909002085
 20
150.3315636479
 30
0.0
 10
346.0900966201
 20
150.3305464518
 30
0.0
 10
346.0894598654
 20
150.3297402062
 30
0.0
 10
346.0890479449
 20
150.3292191719
 30
0.0
 10
346.0887875552
 20
150.3288887795
 30
0.0
 10
346.0885950235
 20
150.3286462688
 30
0.0
 10
346.088237726
 20
150.328201406
 30
0.0
 10
346.0878475195
 20
150.3277146124
 30
0.0
 10
346.0871916622
 20
150.3268970238
 30
0.0
 10
346.0863826311
 20
150.3258882899
 30
0.0
 10
346.0850821755
 20
150.3242669409
 30
0.0
 10
346.0834584877
 20
150.3222425583
 30
0.0
 10
346.0818347804
 20
150.3202181796
 30
0.0
 10
346.0805343561
 20
150.3185968244
 30
0.0
 10
346.0797252469
 20
150.3175881062
 30
0.0
 10
346.0790695497
 20
150.3167704854
 30
0.0
 10
346.0786789355
 20
150.3162837736
 30
0.0
 10
346.078322475
 20
150.315838743
 30
0.0
 10
346.0781265335
 20
150.315596916
 30
0.0
 10
346.077858204
 20
150.3152681161
 30
0.0
 10
346.0774359673
 20
150.3147491468
 30
0.0
 10
346.0767821494
 20
150.3139463422
 30
0.0
 10
346.0759573069
 20
150.3129332599
 30
0.0
 10
346.0751355441
 20
150.3119240507
 30
0.0
 10
346.0744767986
 20
150.3111150492
 30
0.0
 10
346.0739848976
 20
150.3105108766
 30
0.0
 10
346.0735683427
 20
150.3099994851
 30
0.0
 10
346.0732897485
 20
150.3096570031
 30
0.0
 10
346.0731102673
 20
150.3094371156
 30
0.0
 10
346.0730327973
 20
150.3093403243
 30
0.0
 10
346.0727369059
 20
150.3089831274
 30
0.0
 10
346.072418572
 20
150.3085976973
 30
0.0
 10
346.07182599
 20
150.3078808742
 30
0.0
 10
346.070998005
 20
150.3068789666
 30
0.0
 10
346.0699964689
 20
150.305667208
 30
0.0
 10
346.0686639136
 20
150.3040548324
 30
0.0
 10
346.0669969075
 20
150.3020382677
 30
0.0
 10
346.0643324424
 20
150.2988121689
 30
0.0
 10
346.0609865239
 20
150.2947808908
 30
0.0
 10
346.0569059869
 20
150.2899644487
 30
0.0
 10
346.0528418558
 20
150.2851178012
 30
0.0
 10
346.0474227625
 20
150.2787885781
 30
0.0
 10
346.0433611139
 20
150.2740698699
 30
0.0
 10
346.0406527546
 20
150.2709177958
 30
0.0
  0
LINE
  5
3D5
100
AcDbEntity
  8
0
100
AcDbLine
 62
7
  6
CONTINUOUS
 10
346.040652753
 20
150.2709177941
 11
346.018159193
 21
150.2454710938
  0
SPLINE
  5
3D6
100
AcDbEntity
  8
0
100
AcDbSpline
 62
7
  6
CONTINUOUS
 70
0
 71
3
 72
51
 73
47
 74
0
 42
0.0000001
 43
0.0000001
 44
0.0000000001
 40
0.0
 40
0.0
 40
0.0
 40
0.0
 40
0.125
 40
0.1875
 40
0.25
 40
0.3125
 40
0.375
 40
0.40625
 40
0.4375
 40
0.453125
 40
0.46875
 40
0.484375
 40
0.4921875
 40
0.49609375
 40
0.5
 40
0.50390625
 40
0.5078125
 40
0.515625
 40
0.53125
 40
0.546875
 40
0.5625
 40
0.59375
 40
0.625
 40
0.640625
 40
0.65625
 40
0.6640625
 40
0.66796875
 40
0.671875
 40
0.6796875
 40
0.6875
 40
0.703125
 40
0.71875
 40
0.75
 40
0.78125
 40
0.796875
 40
0.8125
 40
0.8203125
 40
0.828125
 40
0.83203125
 40
0.8359375
 40
0.84375
 40
0.859375
 40
0.875
 40
0.90625
 40
0.9375
 40
1.0
 40
1.0
 40
1.0
 40
1.0
 10
346.0181591923
 20
150.245471093
 30
0.0
 10
346.0152704481
 20
150.2422932892
 30
0.0
 10
346.0109433937
 20
150.237525196
 30
0.0
 10
346.0051497408
 20
150.2311732889
 30
0.0
 10
346.0007322195
 20
150.2264259649
 30
0.0
 10
345.9963501498
 20
150.2216704063
 30
0.0
 10
345.9926404876
 20
150.2177210507
 30
0.0
 10
345.9896616114
 20
150.2145639659
 30
0.0
 10
345.9878014527
 20
150.2125908781
 30
0.0
 10
345.986312179
 20
150.2110115915
 30
0.0
 10
345.9851976805
 20
150.2098295213
 30
0.0
 10
345.9842612203
 20
150.2088368205
 30
0.0
 10
345.9836208174
 20
150.208156931
 30
0.0
 10
345.9832312677
 20
150.2077449994
 30
0.0
 10
345.9830056012
 20
150.2075020347
 30
0.0
 10
345.9825257541
 20
150.2070068456
 30
0.0
 10
345.9819746192
 20
150.2064345722
 30
0.0
 10
345.9809688235
 20
150.2053921021
 30
0.0
 10
345.9795535747
 20
150.2039242955
 30
0.0
 10
345.9778460079
 20
150.2021537284
 30
0.0
 10
345.9755725982
 20
150.1997963034
 30
0.0
 10
345.9727289109
 20
150.1968475364
 30
0.0
 10
345.9698887417
 20
150.1939025487
 30
0.0
 10
345.9676097031
 20
150.1915390769
 30
0.0
 10
345.9662008029
 20
150.1900787215
 30
0.0
 10
345.9651835351
 20
150.1890227989
 30
0.0
 10
345.964650797
 20
150.1884720968
 30
0.0
 10
345.9643009825
 20
150.1881198555
 30
0.0
 10
345.9638010817
 20
150.1876116013
 30
0.0
 10
345.9630362419
 20
150.1868363691
 30
0.0
 10
345.9620682119
 20
150.1858543303
 30
0.0
 10
345.9605260347
 20
150.1842903097
 30
0.0
 10
345.9585962034
 20
150.1823329674
 30
0.0
 10
345.9566664726
 20
150.1803758394
 30
0.0
 10
345.9551241345
 20
150.1788114758
 30
0.0
 10
345.9541565067
 20
150.1778302946
 30
0.0
 10
345.9533908424
 20
150.1770533044
 30
0.0
 10
345.9528930406
 20
150.1765495255
 30
0.0
 10
345.9525389175
 20
150.1761880978
 30
0.0
 10
345.9520237304
 20
150.1756748165
 30
0.0
 10
345.951047332
 20
150.1747060318
 30
0.0
 10
345.949691515
 20
150.1733588592
 30
0.0
 10
345.9475003911
 20
150.171182814
 30
0.0
 10
345.9447689595
 20
150.1684698033
 30
0.0
 10
345.9403944735
 20
150.1641250307
 30
0.0
 10
345.937114553
 20
150.1608673412
 30
0.0
 10
345.9349277296
 20
150.1586953505
 30
0.0
  0
SPLINE
  5
3D7
100
AcDbEntity
  8
0
100
AcDbSpline
 62
7
  6
CONTINUOUS
 70
0
 71
3
 72
51
 73
47
 74
0
 42
0.0000001
 43
0.0000001
 44
0.0000000001
 40
0.0
 40
0.0
 40
0.0
 40
0.0
 40
0.125
 40
0.1875
 40
0.25
 40
0.3125
 40
0.375
 40
0.40625
 40
0.4375
 40
0.453125
 40
0.46875
 40
0.484375
 40
0.4921875
 40
0.49609375
 40
0.5
 40
0.50390625
 40
0.5078125
 40
0.515625
 40
0.53125
 40
0.546875
 40
0.5625
 40
0.59375
 40
0.625
 40
0.640625
 40
0.65625
 40
0.6640625
 40
0.66796875
 40
0.671875
 40
0.6796875
 40
0.6875
 40
0.703125
 40
0.71875
 40
0.75
 40
0.78125
 40
0.796875
 40
0.8125
 40
0.8203125
 40
0.828125
 40
0.83203125
 40
0.8359375
 40
0.84375
 40
0.859375
 40
0.875
 40
0.90625
 40
0.9375
 40
1.0
 40
1.0
 40
1.0
 40
1.0
 10
345.934927731
 20
150.1586953519
 30
0.0
 10
345.931736592
 20
150.1555907094
 30
0.0
 10
345.9269558046
 20
150.1509322138
 30
0.0
 10
345.9205577366
 20
150.1447270137
 30
0.0
 10
345.9156885853
 20
150.1400914392
 30
0.0
 10
345.9108540523
 20
150.1354467871
 30
0.0
 10
345.9067687139
 20
150.1315912313
 30
0.0
 10
345.9034895405
 20
150.1285094517
 30
0.0
 10
345.9014417028
 20
150.12658339
 30
0.0
 10
345.8998022087
 20
150.1250417529
 30
0.0
 10
345.8985752725
 20
150.123887858
 30
0.0
 10
345.8975443878
 20
150.1229188309
 30
0.0
 10
345.8968393135
 20
150.122255132
 30
0.0
 10
345.8964105825
 20
150.121853047
 30
0.0
 10
345.8961618014
 20
150.1216157915
 30
0.0
 10
345.8956348673
 20
150.1211327173
 30
0.0
 10
345.8950293115
 20
150.1205743627
 30
0.0
 10
345.8939243833
 20
150.1195572917
 30
0.0
 10
345.892369554
 20
150.118125225
 30
0.0
 10
345.8904936162
 20
150.1163977794
 30
0.0
 10
345.8879960285
 20
150.1140977654
 30
0.0
 10
345.88487193
 20
150.1112208107
 30
0.0
 10
345.881751709
 20
150.1083475464
 30
0.0
 10
345.8792479172
 20
150.1060416279
 30
0.0
 10
345.8777001461
 20
150.1046168511
 30
0.0
 10
345.8765824647
 20
150.103586619
 30
0.0
 10
345.8759973599
 20
150.1030493683
 30
0.0
 10
345.8756140609
 20
150.1027059488
 30
0.0
 10
345.8750658393
 20
150.102210307
 30
0.0
 10
345.8742272992
 20
150.1014543688
 30
0.0
 10
345.8731659071
 20
150.1004967507
 30
0.0
 10
345.8714750394
 20
150.0989716344
 30
0.0
 10
345.8693591247
 20
150.0970629758
 30
0.0
 10
345.867243331
 20
150.095154529
 30
0.0
 10
345.8655522697
 20
150.0936290739
 30
0.0
 10
345.8644913618
 20
150.0926723028
 30
0.0
 10
345.863651829
 20
150.0919146284
 30
0.0
 10
345.8631061346
 20
150.0914234063
 30
0.0
 10
345.8627176481
 20
150.0910709146
 30
0.0
 10
345.8621536743
 20
150.0905706192
 30
0.0
 10
345.8610851986
 20
150.0896264412
 30
0.0
 10
345.8596013386
 20
150.0883134393
 30
0.0
 10
345.8572033922
 20
150.0861926159
 30
0.0
 10
345.8542141017
 20
150.0835484446
 30
0.0
 10
345.8494266658
 20
150.0793139204
 30
0.0
 10
345.8458371173
 20
150.0761388935
 30
0.0
 10
345.8434438564
 20
150.0740220164
 30
0.0
  0
LINE
  5
3D8
100
AcDbEntity
  8
0
100
AcDbLine
 62
7
  6
CONTINUOUS
 10
345.843443858
 20
150.0740220178
 11
345.815491615
 21
150.0499659865
  0
SPLINE
  5
3D9
100
AcDbEntity
  8
0
100
AcDbSpline
 62
7
  6
CONTINUOUS
 70
0
 71
3
 72
54
 73
50
 74
0
 42
0.0000001
 43
0.0000001
 44
0.0000000001
 40
0.0
 40
0.0
 40
0.0
 40
0.0
 40
0.0625
 40
0.09375
 40
0.109375
 40
0.125
 40
0.140625
 40
0.15625
 40
0.16015625
 40
0.1640625
 40
0.16796875
 40
0.171875
 40
0.1796875
 40
0.1875
 40
0.203125
 40
0.21875
 40
0.25
 40
0.28125
 40
0.296875
 40
0.3125
 40
0.3203125
 40
0.328125
 40
0.33203125
 40
0.3359375
 40
0.33984375
 40
0.34375
 40
0.359375
 40
0.375
 40
0.40625
 40
0.4375
 40
0.453125
 40
0.46875
 40
0.484375
 40
0.4921875
 40
0.49609375
 40
0.5
 40
0.50390625
 40
0.5078125
 40
0.515625
 40
0.53125
 40
0.546875
 40
0.5625
 40
0.59375
 40
0.625
 40
0.6875
 40
0.75
 40
0.8125
 40
0.875
 40
1.0
 40
1.0
 40
1.0
 40
1.0
 10
345.8154916141
 20
150.0499659857
 30
0.0
 10
345.8146017455
 20
150.0492152686
 30
0.0
 10
345.813266914
 20
150.0480891692
 30
0.0
 10
345.8117097109
 20
150.0467754693
 30
0.0
 10
345.8108197372
 20
150.0460246655
 30
0.0
 10
345.8101526584
 20
150.0454618934
 30
0.0
 10
345.8094840453
 20
150.0448978574
 30
0.0
 10
345.8089868872
 20
150.0444783742
 30
0.0
 10
345.8086487585
 20
150.0441932073
 30
0.0
 10
345.8084916401
 20
150.0440604654
 30
0.0
 10
345.8082880758
 20
150.0438894597
 30
0.0
 10
345.8077956583
 20
150.0434793861
 30
0.0
 10
345.8072558058
 20
150.043029133
 30
0.0
 10
345.806349755
 20
150.0422738909
 30
0.0
 10
345.8052316648
 20
150.0413417616
 30
0.0
 10
345.8034346652
 20
150.0398437194
 30
0.0
 10
345.8011909374
 20
150.0379732388
 30
0.0
 10
345.7989471919
 20
150.0361027635
 30
0.0
 10
345.7971502204
 20
150.0346047128
 30
0.0
 10
345.7960320599
 20
150.0336726047
 30
0.0
 10
345.7951261534
 20
150.0329173193
 30
0.0
 10
345.7945859336
 20
150.0324671764
 30
0.0
 10
345.79409427
 20
150.0320568766
 30
0.0
 10
345.7938884024
 20
150.0318865617
 30
0.0
 10
345.7937281765
 20
150.0317547515
 30
0.0
 10
345.7933842484
 20
150.0314713257
 30
0.0
 10
345.7928781879
 20
150.0310544814
 30
0.0
 10
345.791971214
 20
150.0303072565
 30
0.0
 10
345.7908398924
 20
150.0293752514
 30
0.0
 10
345.7897081261
 20
150.0284428526
 30
0.0
 10
345.7888018638
 20
150.0276962577
 30
0.0
 10
345.7881249815
 20
150.0271385753
 30
0.0
 10
345.7875518855
 20
150.0266665757
 30
0.0
 10
345.7871684446
 20
150.0263504405
 30
0.0
 10
345.7869216558
 20
150.0261475176
 30
0.0
 10
345.7868145386
 20
150.0260580725
 30
0.0
 10
345.7864093638
 20
150.0257287765
 30
0.0
 10
345.7859730965
 20
150.0253733778
 30
0.0
 10
345.7851611889
 20
150.0247124503
 30
0.0
 10
345.784026648
 20
150.0237886468
 30
0.0
 10
345.7826543488
 20
150.0226713615
 30
0.0
 10
345.7808284522
 20
150.0211846853
 30
0.0
 10
345.7785444394
 20
150.0193253623
 30
0.0
 10
345.7748928571
 20
150.016350628
 30
0.0
 10
345.7703136608
 20
150.0126347518
 30
0.0
 10
345.7647606874
 20
150.0082017019
 30
0.0
 10
345.7592143569
 20
150.0037375293
 30
0.0
 10
345.7518610709
 20
149.9979166184
 30
0.0
 10
345.7463576688
 20
149.9935785779
 30
0.0
 10
345.7426861647
 20
149.9906804081
 30
0.0
  0
LINE
  5
3DA
100
AcDbEntity
  8
0
100
AcDbLine
 62
7
  6
CONTINUOUS
 10
345.7426861626
 20
149.9906804065
 11
345.7079320377
 21
149.9639265966
  0
SPLINE
  5
3DB
100
AcDbEntity
  8
0
100
AcDbSpline
 62
7
  6
CONTINUOUS
 70
0
 71
3
 72
60
 73
56
 74
0
 42
0.0000001
 43
0.0000001
 44
0.0000000001
 40
0.0
 40
0.0
 40
0.0
 40
0.0
 40
0.0625
 40
0.09375
 40
0.109375
 40
0.125
 40
0.140625
 40
0.15625
 40
0.16015625
 40
0.1640625
 40
0.16796875
 40
0.171875
 40
0.1796875
 40
0.1875
 40
0.203125
 40
0.21875
 40
0.25
 40
0.28125
 40
0.296875
 40
0.3125
 40
0.3203125
 40
0.328125
 40
0.33203125
 40
0.3359375
 40
0.33984375
 40
0.34375
 40
0.359375
 40
0.375
 40
0.40625
 40
0.4375
 40
0.453125
 40
0.46875
 40
0.484375
 40
0.4921875
 40
0.49609375
 40
0.5
 40
0.50390625
 40
0.5078125
 40
0.515625
 40
0.53125
 40
0.546875
 40
0.5625
 40
0.59375
 40
0.625
 40
0.6875
 40
0.75
 40
0.78125
 40
0.8125
 40
0.828125
 40
0.8359375
 40
0.84375
 40
0.859375
 40
0.875
 40
0.9375
 40
1.0
 40
1.0
 40
1.0
 40
1.0
 10
345.7079320366
 20
149.9639265958
 30
0.0
 10
345.7069671666
 20
149.96319941
 30
0.0
 10
345.7055198305
 20
149.9621086084
 30
0.0
 10
345.7038313803
 20
149.9608360865
 30
0.0
 10
345.7028663965
 20
149.9601088169
 30
0.0
 10
345.7021430931
 20
149.9595636848
 30
0.0
 10
345.7014181293
 20
149.9590173292
 30
0.0
 10
345.700879062
 20
149.9586109928
 30
0.0
 10
345.7005124434
 20
149.9583347671
 30
0.0
 10
345.700342063
 20
149.9582061802
 30
0.0
 10
345.7001214152
 20
149.9580405566
 30
0.0
 10
345.6995880369
 20
149.9576434974
 30
0.0
 10
345.6990032091
 20
149.9572075133
 30
0.0
 10
345.6980217187
 20
149.9564762187
 30
0.0
 10
345.6968105198
 20
149.9555736414
 30
0.0
 10
345.6948638835
 20
149.9541230952
 30
0.0
 10
345.6924333168
 20
149.9523119181
 30
0.0
 10
345.690002733
 20
149.9505007467
 30
0.0
 10
345.688056124
 20
149.9490501914
 30
0.0
 10
345.6868448569
 20
149.948147637
 30
0.0
 10
345.6858635062
 20
149.9474162955
 30
0.0
 10
345.6852783228
 20
149.9469804307
 30
0.0
 10
345.6847456745
 20
149.9465831266
 30
0.0
 10
345.6845227964
 20
149.9464182513
 30
0.0
 10
345.6843494069
 20
149.9462906736
 30
0.0
 10
345.683977173
 20
149.9460163339
 30
0.0
 10
345.6834294825
 20
149.9456128587
 30
0.0
 10
345.6824478834
 20
149.9448895944
 30
0.0
 10
345.6812234827
 20
149.9439874767
 30
0.0
 10
345.6799985979
 20
149.9430849771
 30
0.0
 10
345.6790177734
 20
149.9423623239
 30
0.0
 10
345.6782851954
 20
149.9418225235
 30
0.0
 10
345.6776649611
 20
149.9413656639
 30
0.0
 10
345.6772499474
 20
149.9410596588
 30
0.0
 10
345.6769828934
 20
149.9408632551
 30
0.0
 10
345.6768668415
 20
149.9407766413
 30
0.0
 10
345.6764287869
 20
149.9404580435
 30
0.0
 10
345.6759570324
 20
149.9401141651
 30
0.0
 10
345.6750791305
 20
149.9394746764
 30
0.0
 10
345.6738523464
 20
149.9385808312
 30
0.0
 10
345.6723684852
 20
149.937499783
 30
0.0
 10
345.6703941408
 20
149.9360613183
 30
0.0
 10
345.6679244825
 20
149.9342623262
 30
0.0
 10
345.6639758123
 20
149.9313839049
 30
0.0
 10
345.659026012
 20
149.9277897775
 30
0.0
 10
345.6540283614
 20
149.9242147442
 30
0.0
 10
345.6500359851
 20
149.9213473506
 30
0.0
 10
345.6475503147
 20
149.9195641001
 30
0.0
 10
345.6457890027
 20
149.9182988083
 30
0.0
 10
345.6448162568
 20
149.9176022942
 30
0.0
 10
345.6439705973
 20
149.9170055985
 30
0.0
 10
345.6428700833
 20
149.9162256098
 30
0.0
 10
345.6402646108
 20
149.9143817249
 30
0.0
 10
345.6363412612
 20
149.9116040055
 30
0.0
 10
345.6328599917
 20
149.909139754
 30
0.0
 10
345.631118588
 20
149.9079070242
 30
0.0
  0
LINE
  5
3DC
100
AcDbEntity
  8
0
100
AcDbLine
 62
7
  6
CONTINUOUS
 10
345.6311185873
 20
149.9079070237
 11
345.5964021423
 21
149.883867568
  0
SPLINE
  5
3DD
100
AcDbEntity
  8
0
100
AcDbSpline
 62
7
  6
CONTINUOUS
 70
0
 71
3
 72
80
 73
76
 74
0
 42
0.0000001
 43
0.0000001
 44
0.0000000001
 40
0.0
 40
0.0
 40
0.0
 40
0.0
 40
0.0625
 40
0.09375
 40
0.109375
 40
0.125
 40
0.140625
 40
0.15625
 40
0.16015625
 40
0.1640625
 40
0.166015625
 40
0.16796875
 40
0.171875
 40
0.1796875
 40
0.1875
 40
0.203125
 40
0.21875
 40
0.25
 40
0.28125
 40
0.296875
 40
0.3125
 40
0.3203125
 40
0.328125
 40
0.33203125
 40
0.3359375
 40
0.33984375
 40
0.34375
 40
0.359375
 40
0.375
 40
0.40625
 40
0.4375
 40
0.453125
 40
0.46875
 40
0.4765625
 40
0.484375
 40
0.4921875
 40
0.49609375
 40
0.5
 40
0.50390625
 40
0.5078125
 40
0.515625
 40
0.5234375
 40
0.53125
 40
0.546875
 40
0.5625
 40
0.59375
 40
0.625
 40
0.640625
 40
0.65625
 40
0.66015625
 40
0.6640625
 40
0.66796875
 40
0.671875
 40
0.6796875
 40
0.6875
 40
0.703125
 40
0.71875
 40
0.75
 40
0.78125
 40
0.796875
 40
0.8125
 40
0.8203125
 40
0.828125
 40
0.83203125
 40
0.833984375
 40
0.8359375
 40
0.83984375
 40
0.84375
 40
0.8515625
 40
0.859375
 40
0.875
 40
0.890625
 40
0.90625
 40
0.9375
 40
1.0
 40
1.0
 40
1.0
 40
1.0
 10
345.5964021432
 20
149.8838675686
 30
0.0
 10
345.5922341947
 20
149.8810672918
 30
0.0
 10
345.5859823206
 20
149.8768669044
 30
0.0
 10
345.5786882973
 20
149.8719663551
 30
0.0
 10
345.5745205272
 20
149.8691661803
 30
0.0
 10
345.5713940184
 20
149.8670656595
 30
0.0
 10
345.5682701129
 20
149.8649666282
 30
0.0
 10
345.5659198849
 20
149.8633881787
 30
0.0
 10
345.5643644174
 20
149.8623423735
 30
0.0
 10
345.5636994149
 20
149.8618969571
 30
0.0
 10
345.5632068163
 20
149.8615631687
 30
0.0
 10
345.5625701167
 20
149.861146933
 30
0.0
 10
345.5613889396
 20
149.8603802137
 30
0.0
 10
345.5597364762
 20
149.8593048869
 30
0.0
 10
345.5570730139
 20
149.8575731953
 30
0.0
 10
345.5537503634
 20
149.8554124002
 30
0.0
 10
345.5484304284
 20
149.8519530214
 30
0.0
 10
345.5417815071
 20
149.8476293197
 30
0.0
 10
345.5351332137
 20
149.843306164
 30
0.0
 10
345.5298122739
 20
149.8398459116
 30
0.0
 10
345.5264921352
 20
149.8376873004
 30
0.0
 10
345.5238235238
 20
149.8359511318
 30
0.0
 10
345.5221841684
 20
149.8348872021
 30
0.0
 10
345.5208073451
 20
149.8339875567
 30
0.0
 10
345.5199536286
 20
149.833445622
 30
0.0
 10
345.5191500433
 20
149.8329409
 30
0.0
 10
345.517517087
 20
149.831912315
 30
0.0
 10
345.5150784552
 20
149.8303774563
 30
0.0
 10
345.510735053
 20
149.8276428391
 30
0.0
 10
345.5053086122
 20
149.8242266462
 30
0.0
 10
345.4998809941
 20
149.8208096135
 30
0.0
 10
345.4955394756
 20
149.8180763401
 30
0.0
 10
345.4928251754
 20
149.8163675821
 30
0.0
 10
345.4906556339
 20
149.8150015966
 30
0.0
 10
345.4890232925
 20
149.8139743221
 30
0.0
 10
345.4876795012
 20
149.813127119
 30
0.0
 10
345.486567477
 20
149.8124294878
 30
0.0
 10
345.4858345366
 20
149.8119605553
 30
0.0
 10
345.4847157806
 20
149.8112843934
 30
0.0
 10
345.4833588764
 20
149.8104552322
 30
0.0
 10
345.481616507
 20
149.8093939448
 30
0.0
 10
345.4795454558
 20
149.8081310305
 30
0.0
 10
345.4767771403
 20
149.8064434312
 30
0.0
 10
345.4733191195
 20
149.8043352079
 30
0.0
 10
345.4677849228
 20
149.800961312
 30
0.0
 10
345.460867909
 20
149.7967443788
 30
0.0
 10
345.4539496712
 20
149.7925266221
 30
0.0
 10
345.4484174328
 20
149.7891540439
 30
0.0
 10
345.4453008078
 20
149.7872536781
 30
0.0
 10
345.4432305919
 20
149.7859919976
 30
0.0
 10
345.4421819961
 20
149.7853517941
 30
0.0
 10
345.4411858446
 20
149.7847479976
 30
0.0
 10
345.4401071832
 20
149.7841161677
 30
0.0
 10
345.4386734142
 20
149.783267066
 30
0.0
 10
345.4364271323
 20
149.7819416506
 30
0.0
 10
345.4336029351
 20
149.7802735338
 30
0.0
 10
345.4290933296
 20
149.7776108762
 30
0.0
 10
345.423453377
 20
149.7742804755
 30
0.0
 10
345.4178138199
 20
149.770950478
 30
0.0
 10
345.4133035816
 20
149.7682871752
 30
0.0
 10
345.4104809666
 20
149.7666206713
 30
0.0
 10
345.4082314412
 20
149.7652919495
 30
0.0
 10
345.4068059292
 20
149.764451265
 30
0.0
 10
345.4058472701
 20
149.7638832955
 30
0.0
 10
345.4052381337
 20
149.7635266522
 30
0.0
 10
345.4043979537
 20
149.7630491235
 30
0.0
 10
345.4034268377
 20
149.7624936036
 30
0.0
 10
345.4018288422
 20
149.7615816405
 30
0.0
 10
345.3998464854
 20
149.7604496067
 30
0.0
 10
345.3966662541
 20
149.7586339262
 30
0.0
 10
345.3926938676
 20
149.7563658443
 30
0.0
 10
345.3879257616
 20
149.753643496
 30
0.0
 10
345.3815687203
 20
149.750013925
 30
0.0
 10
345.3704436948
 20
149.7436620695
 30
0.0
 10
345.3609080284
 20
149.7382176583
 30
0.0
 10
345.3545509019
 20
149.7345880428
 30
0.0
  0
LINE
  5
3DE
100
AcDbEntity
  8
0
100
AcDbLine
 62
7
  6
CONTINUOUS
 10
345.3545509006
 20
149.734588042
 11
345.3188252834
 21
149.7148492398
  0
SPLINE
  5
3DF
100
AcDbEntity
  8
0
100
AcDbSpline
 62
7
  6
CONTINUOUS
 70
0
 71
3
 72
61
 73
57
 74
0
 42
0.0000001
 43
0.0000001
 44
0.0000000001
 40
0.0
 40
0.0
 40
0.0
 40
0.0
 40
0.0625
 40
0.09375
 40
0.109375
 40
0.125
 40
0.140625
 40
0.15625
 40
0.16015625
 40
0.1640625
 40
0.166015625
 40
0.16796875
 40
0.171875
 40
0.1796875
 40
0.1875
 40
0.203125
 40
0.21875
 40
0.25
 40
0.28125
 40
0.3125
 40
0.375
 40
0.40625
 40
0.4375
 40
0.453125
 40
0.46875
 40
0.4765625
 40
0.484375
 40
0.4921875
 40
0.49609375
 40
0.5
 40
0.50390625
 40
0.5078125
 40
0.515625
 40
0.5234375
 40
0.53125
 40
0.546875
 40
0.5625
 40
0.59375
 40
0.609375
 40
0.625
 40
0.640625
 40
0.65625
 40
0.66015625
 40
0.6640625
 40
0.666015625
 40
0.66796875
 40
0.671875
 40
0.6796875
 40
0.6875
 40
0.703125
 40
0.71875
 40
0.75
 40
0.78125
 40
0.8125
 40
0.875
 40
1.0
 40
1.0
 40
1.0
 40
1.0
 10
345.318825283
 20
149.7148492395
 30
0.0
 10
345.3176433487
 20
149.7142071332
 30
0.0
 10
345.3158704978
 20
149.7132440004
 30
0.0
 10
345.3138019949
 20
149.7121202515
 30
0.0
 10
345.3126202459
 20
149.7114782437
 30
0.0
 10
345.3117332268
 20
149.7109963615
 30
0.0
 10
345.3108489106
 20
149.7105159173
 30
0.0
 10
345.3101780954
 20
149.7101515527
 30
0.0
 10
345.3097426707
 20
149.7099149126
 30
0.0
 10
345.3095437062
 20
149.7098069829
 30
0.0
 10
345.3094254463
 20
149.7097424033
 30
0.0
 10
345.3091575699
 20
149.709598231
 30
0.0
 10
345.3086192709
 20
149.7093089489
 30
0.0
 10
345.3078865421
 20
149.7089149833
 30
0.0
 10
345.3066939059
 20
149.708273856
 30
0.0
 10
345.3052100575
 20
149.7074761358
 30
0.0
 10
345.3028319802
 20
149.7061977392
 30
0.0
 10
345.2998609951
 20
149.7046003198
 30
0.0
 10
345.2962939577
 20
149.7026837164
 30
0.0
 10
345.2915443649
 20
149.7001254162
 30
0.0
 10
345.2867597401
 20
149.6975834903
 30
0.0
 10
345.2819686512
 20
149.6950445393
 30
0.0
 10
345.2789751085
 20
149.6934574358
 30
0.0
 10
345.2765797595
 20
149.6921876311
 30
0.0
 10
345.2750835097
 20
149.6913944375
 30
0.0
 10
345.2738846145
 20
149.6907588709
 30
0.0
 10
345.2729906231
 20
149.6902849704
 30
0.0
 10
345.2722291535
 20
149.6898812266
 30
0.0
 10
345.271656932
 20
149.6895780284
 30
0.0
 10
345.2711267894
 20
149.6892965353
 30
0.0
 10
345.2709820757
 20
149.6892215215
 30
0.0
 10
345.2706544887
 20
149.6890493772
 30
0.0
 10
345.2702911977
 20
149.6888589428
 30
0.0
 10
345.2698354765
 20
149.6886198294
 30
0.0
 10
345.2692347546
 20
149.6883047114
 30
0.0
 10
345.2684814844
 20
149.6879095455
 30
0.0
 10
345.2672775933
 20
149.6872779981
 30
0.0
 10
345.2660732325
 20
149.6866462012
 30
0.0
 10
345.2648692748
 20
149.6860146143
 30
0.0
 10
345.2639655667
 20
149.6855405436
 30
0.0
 10
345.2630646165
 20
149.6850678898
 30
0.0
 10
345.262381185
 20
149.6847094342
 30
0.0
 10
345.2619375669
 20
149.6844766298
 30
0.0
 10
345.2617348654
 20
149.6843704528
 30
0.0
 10
345.2616143693
 20
149.684306915
 30
0.0
 10
345.2613415014
 20
149.6841651022
 30
0.0
 10
345.2607931871
 20
149.6838805614
 30
0.0
 10
345.2600468187
 20
149.6834930498
 30
0.0
 10
345.2588319848
 20
149.6828624269
 30
0.0
 10
345.2573205255
 20
149.6820777801
 30
0.0
 10
345.2548981477
 20
149.6808203101
 30
0.0
 10
345.2518721644
 20
149.6792492085
 30
0.0
 10
345.2482375021
 20
149.677363407
 30
0.0
 10
345.2434056152
 20
149.6748499929
 30
0.0
 10
345.2348115415
 20
149.6704428242
 30
0.0
 10
345.2274224375
 20
149.6666638419
 30
0.0
 10
345.2225014248
 20
149.6641448335
 30
0.0
  0
LINE
  5
3E0
100
AcDbEntity
  8
0
100
AcDbLine
 62
7
  6
CONTINUOUS
 10
345.2225014255
 20
149.6641448339
 11
345.17596467
 21
149.6408764561
  0
SPLINE
  5
3E1
100
AcDbEntity
  8
0
100
AcDbSpline
 62
7
  6
CONTINUOUS
 70
0
 71
3
 72
195
 73
191
 74
0
 42
0.0000001
 43
0.0000001
 44
0.0000000001
 40
0.0
 40
0.0
 40
0.0
 40
0.0
 40
0.03125
 40
0.046875
 40
0.0625
 40
0.078125
 40
0.09375
 40
0.1015625
 40
0.109375
 40
0.1171875
 40
0.12109375
 40
0.125
 40
0.12890625
 40
0.1328125
 40
0.134765625
 40
0.13671875
 40
0.138671875
 40
0.1396484375
 40
0.140625
 40
0.1416015625
 40
0.1420898438
 40
0.142578125
 40
0.1428222656
 40
0.1430664062
 40
0.1435546875
 40
0.14453125
 40
0.1455078125
 40
0.146484375
 40
0.1484375
 40
0.150390625
 40
0.15234375
 40
0.15625
 40
0.1640625
 40
0.171875
 40
0.1796875
 40
0.1875
 40
0.203125
 40
0.21875
 40
0.234375
 40
0.2421875
 40
0.25
 40
0.2578125
 40
0.265625
 40
0.26953125
 40
0.2734375
 40
0.27734375
 40
0.279296875
 40
0.28125
 40
0.2822265625
 40
0.283203125
 40
0.2841796875
 40
0.28515625
 40
0.2854003906
 40
0.2856445312
 40
0.2861328125
 40
0.2866210938
 40
0.287109375
 40
0.2890625
 40
0.291015625
 40
0.29296875
 40
0.296875
 40
0.30078125
 40
0.3046875
 40
0.3125
 40
0.3203125
 40
0.328125
 40
0.34375
 40
0.359375
 40
0.375
 40
0.3828125
 40
0.390625
 40
0.3984375
 40
0.40625
 40
0.4140625
 40
0.41796875
 40
0.421875
 40
0.423828125
 40
0.42578125
 40
0.4267578125
 40
0.427734375
 40
0.4287109375
 40
0.4291992188
 40
0.4296875
 40
0.4306640625
 40
0.431640625
 40
0.43359375
 40
0.435546875
 40
0.4375
 40
0.44140625
 40
0.4453125
 40
0.44921875
 40
0.453125
 40
0.4609375
 40
0.46875
 40
0.484375
 40
0.5
 40
0.515625
 40
0.53125
 40
0.5390625
 40
0.546875
 40
0.55078125
 40
0.5546875
 40
0.55859375
 40
0.5625
 40
0.564453125
 40
0.56640625
 40
0.568359375
 40
0.5693359375
 40
0.5703125
 40
0.5708007812
 40
0.5712890625
 40
0.572265625
 40
0.5732421875
 40
0.57421875
 40
0.576171875
 40
0.578125
 40
0.58203125
 40
0.5859375
 40
0.59375
 40
0.6015625
 40
0.609375
 40
0.6171875
 40
0.625
 40
0.640625
 40
0.65625
 40
0.671875
 40
0.6796875
 40
0.6875
 40
0.6953125
 40
0.69921875
 40
0.703125
 40
0.70703125
 40
0.708984375
 40
0.7109375
 40
0.712890625
 40
0.7133789062
 40
0.7138671875
 40
0.7143554688
 40
0.7145996094
 40
0.71484375
 40
0.7158203125
 40
0.716796875
 40
0.7177734375
 40
0.71875
 40
0.720703125
 40
0.72265625
 40
0.7265625
 40
0.73046875
 40
0.734375
 40
0.7421875
 40
0.75
 40
0.7578125
 40
0.765625
 40
0.78125
 40
0.796875
 40
0.8125
 40
0.8203125
 40
0.828125
 40
0.8359375
 40
0.84375
 40
0.84765625
 40
0.849609375
 40
0.8515625
 40
0.853515625
 40
0.8544921875
 40
0.85546875
 40
0.8564453125
 40
0.8569335938
 40
0.8571777344
 40
0.857421875
 40
0.8579101562
 40
0.8583984375
 40
0.859375
 40
0.8603515625
 40
0.861328125
 40
0.86328125
 40
0.865234375
 40
0.8671875
 40
0.87109375
 40
0.875
 40
0.87890625
 40
0.8828125
 40
0.890625
 40
0.8984375
 40
0.90625
 40
0.921875
 40
0.9375
 40
0.953125
 40
0.96875
 40
1.0
 40
1.0
 40
1.0
 40
1.0
 10
345.1759646694
 20
149.6408764558
 30
0.0
 10
345.1256804448
 20
149.6210712032
 30
0.0
 10
345.050254108
 20
149.5913633243
 30
0.0
 10
344.9496856589
 20
149.551752819
 30
0.0
 10
344.874259322
 20
149.5220449401
 30
0.0
 10
344.7988329852
 20
149.4923370612
 30
0.0
 10
344.7359777045
 20
149.4675804954
 30
0.0
 10
344.6856934799
 20
149.4477752428
 30
0.0
 10
344.6479803116
 20
149.4329213033
 30
0.0
 10
344.616552671
 20
149.4205430205
 30
0.0
 10
344.5914105592
 20
149.4106403939
 30
0.0
 10
344.5725539735
 20
149.4032134252
 30
0.0
 10
344.5536973949
 20
149.3957864516
 30
0.0
 10
344.5379835573
 20
149.3895973222
 30
0.0
 10
344.5254125368
 20
149.3846459844
 30
0.0
 10
344.5159841357
 20
149.3809325748
 30
0.0
 10
344.5081275667
 20
149.3778377686
 30
0.0
 10
344.5018413427
 20
149.3753625925
 30
0.0
 10
344.4971293219
 20
149.3735043826
 30
0.0
 10
344.4931942177
 20
149.3719616884
 30
0.0
 10
344.4900650193
 20
149.3707144933
 30
0.0
 10
344.4880662679
 20
149.3699646888
 30
0.0
 10
344.4865657512
 20
149.3692968432
 30
0.0
 10
344.484705699
 20
149.3688772515
 30
0.0
 10
344.4815134016
 20
149.3680996077
 30
0.0
 10
344.4769201473
 20
149.3670113562
 30
0.0
 10
344.4714222944
 20
149.3656957516
 30
0.0
 10
344.4640869151
 20
149.3639450014
 30
0.0
 10
344.4549193752
 20
149.3617554008
 30
0.0
 10
344.4439176065
 20
149.3591283778
 30
0.0
 10
344.429248833
 20
149.3556255069
 30
0.0
 10
344.4035783622
 20
149.3494955637
 30
0.0
 10
344.3669063223
 20
149.3407384597
 30
0.0
 10
344.3228998482
 20
149.330229953
 30
0.0
 10
344.2788933811
 20
149.3197214414
 30
0.0
 10
344.2202180891
 20
149.3057100944
 30
0.0
 10
344.1468739751
 20
149.28819591
 30
0.0
 10
344.0588610378
 20
149.267178889
 30
0.0
 10
343.9855169235
 20
149.2496647048
 30
0.0
 10
343.9268416321
 20
149.2356533574
 30
0.0
 10
343.8828351635
 20
149.225144847
 30
0.0
 10
343.8388286952
 20
149.2146363359
 30
0.0
 10
343.8021566369
 20
149.2058792455
 30
0.0
 10
343.7728189936
 20
149.1988735684
 30
0.0
 10
343.7508157521
 20
149.1936193235
 30
0.0
 10
343.732479746
 20
149.1892407451
 30
0.0
 10
343.7178108774
 20
149.1857379742
 30
0.0
 10
343.7086429795
 20
149.1835485334
 30
0.0
 10
343.7013083291
 20
149.1817974593
 30
0.0
 10
343.6958082504
 20
149.1804828434
 30
0.0
 10
343.6903047017
 20
149.1791732297
 30
0.0
 10
343.6861867683
 20
149.1781769955
 30
0.0
 10
343.6834263501
 20
149.1775346494
 30
0.0
 10
343.6816220924
 20
149.1770544914
 30
0.0
 10
343.6791041771
 20
149.1768328435
 30
0.0
 10
343.6761439404
 20
149.1764785524
 30
0.0
 10
343.670191954
 20
149.1758153987
 30
0.0
 10
343.6612772078
 20
149.1748015911
 30
0.0
 10
343.6493833271
 20
149.1734607351
 30
0.0
 10
343.6335274576
 20
149.171669124
 30
0.0
 10
343.6137067156
 20
149.169430915
 30
0.0
 10
343.5899222127
 20
149.1667445057
 30
0.0
 10
343.5582094068
 20
149.1631628216
 30
0.0
 10
343.5185684458
 20
149.1586856496
 30
0.0
 10
343.4709992728
 20
149.1533130719
 30
0.0
 10
343.4075737157
 20
149.1461496249
 30
0.0
 10
343.3282917669
 20
149.1371953196
 30
0.0
 10
343.2331534293
 20
149.126450152
 30
0.0
 10
343.1538714814
 20
149.117495845
 30
0.0
 10
343.0904459225
 20
149.1103324017
 30
0.0
 10
343.0428767548
 20
149.1049598126
 30
0.0
 10
342.9953075815
 20
149.0995872487
 30
0.0
 10
342.9477384291
 20
149.0942145908
 30
0.0
 10
342.9080974039
 20
149.0897376682
 30
0.0
 10
342.876384729
 20
149.0861554757
 30
0.0
 10
342.8565639766
 20
149.0839180952
 30
0.0
 10
342.8407081316
 20
149.0821247787
 30
0.0
 10
342.8307965015
 20
149.0810117414
 30
0.0
 10
342.8228711529
 20
149.0801034795
 30
0.0
 10
342.8169163114
 20
149.0794711078
 30
0.0
 10
342.8119883955
 20
149.0787888122
 30
0.0
 10
342.8079045902
 20
149.0788807733
 30
0.0
 10
342.8038454916
 20
149.0788613497
 30
0.0
 10
342.7987631587
 20
149.0788752085
 30
0.0
 10
342.7906361543
 20
149.0788760671
 30
0.0
 10
342.7804757765
 20
149.0788844536
 30
0.0
 10
342.7682840176
 20
149.078891387
 30
0.0
 10
342.7520280964
 20
149.0789017251
 30
0.0
 10
342.7317082782
 20
149.0789142724
 30
0.0
 10
342.7073244606
 20
149.0789294901
 30
0.0
 10
342.6829406526
 20
149.0789446647
 30
0.0
 10
342.6504289053
 20
149.0789649126
 30
0.0
 10
342.6097892223
 20
149.0789902173
 30
0.0
 10
342.5447657288
 20
149.0790307076
 30
0.0
 10
342.4634863621
 20
149.0790813196
 30
0.0
 10
342.3659511221
 20
149.0791420545
 30
0.0
 10
342.268415882
 20
149.0792027891
 30
0.0
 10
342.1871365154
 20
149.0792534016
 30
0.0
 10
342.1221130219
 20
149.0792938909
 30
0.0
 10
342.0814733389
 20
149.0793191985
 30
0.0
 10
342.0489615915
 20
149.0793394404
 30
0.0
 10
342.0245777836
 20
149.0793546331
 30
0.0
 10
342.0001939658
 20
149.0793697828
 30
0.0
 10
341.9798741481
 20
149.0793825416
 30
0.0
 10
341.9636182259
 20
149.0793924485
 30
0.0
 10
341.9514264702
 20
149.0794006986
 30
0.0
 10
341.9412660822
 20
149.0794049658
 30
0.0
 10
341.9331390987
 20
149.0794142285
 30
0.0
 10
341.9280567126
 20
149.0794066992
 30
0.0
 10
341.9239977233
 20
149.0794311778
 30
0.0
 10
341.9199134726
 20
149.0793443029
 30
0.0
 10
341.9149889708
 20
149.0800327336
 30
0.0
 10
341.909037298
 20
149.0806725194
 30
0.0
 10
341.9011164985
 20
149.0815906486
 30
0.0
 10
341.8912104438
 20
149.0827160264
 30
0.0
 10
341.8753635815
 20
149.084529084
 30
0.0
 10
341.8555540363
 20
149.086791142
 30
0.0
 10
341.8238593046
 20
149.090412818
 30
0.0
 10
341.7842407044
 20
149.0949390953
 30
0.0
 10
341.7366984637
 20
149.1003709786
 30
0.0
 10
341.6891562017
 20
149.1058027679
 30
0.0
 10
341.6416139454
 20
149.1112345824
 30
0.0
 10
341.5782242684
 20
149.1184769929
 30
0.0
 10
341.4989871727
 20
149.127530009
 30
0.0
 10
341.4039026579
 20
149.1383936274
 30
0.0
 10
341.3246655614
 20
149.1474466418
 30
0.0
 10
341.2612758861
 20
149.154689056
 30
0.0
 10
341.2137336244
 20
149.1601208592
 30
0.0
 10
341.1741150897
 20
149.1646473857
 30
0.0
 10
341.1424202245
 20
149.1682685534
 30
0.0
 10
341.1186491778
 20
149.1709845753
 30
0.0
 10
341.0988396471
 20
149.173247462
 30
0.0
 10
341.0829927518
 20
149.1750588142
 30
0.0
 10
341.0711055875
 20
149.1764144785
 30
0.0
 10
341.0621959194
 20
149.1774393853
 30
0.0
 10
341.0562472549
 20
149.1781099495
 30
0.0
 10
341.0532887923
 20
149.1784679262
 30
0.0
 10
341.050771989
 20
149.1786927091
 30
0.0
 10
341.0489701288
 20
149.1791751127
 30
0.0
 10
341.0462129191
 20
149.1798208945
 30
0.0
 10
341.0420999613
 20
149.1808222541
 30
0.0
 10
341.0366029535
 20
149.1821387178
 30
0.0
 10
341.0311094407
 20
149.1834601793
 30
0.0
 10
341.0237835362
 20
149.1852203824
 30
0.0
 10
341.0146265735
 20
149.187421234
 30
0.0
 10
340.9999751997
 20
149.1909422625
 30
0.0
 10
340.9816610625
 20
149.1953436628
 30
0.0
 10
340.9596840636
 20
149.200625294
 30
0.0
 10
340.9303814104
 20
149.2076674861
 30
0.0
 10
340.8937530898
 20
149.2164702203
 30
0.0
 10
340.8497991068
 20
149.227033504
 30
0.0
 10
340.8058451234
 20
149.2375967869
 30
0.0
 10
340.7472398122
 20
149.2516811644
 30
0.0
 10
340.6739831733
 20
149.2692866362
 30
0.0
 10
340.5860752065
 20
149.2904132023
 30
0.0
 10
340.5128185678
 20
149.3080186743
 30
0.0
 10
340.4542132562
 20
149.3221030514
 30
0.0
 10
340.4102592741
 20
149.3326663356
 30
0.0
 10
340.366305286
 20
149.3432296144
 30
0.0
 10
340.3296769814
 20
149.3520323634
 30
0.0
 10
340.3040371312
 20
149.3581942552
 30
0.0
 10
340.289385846
 20
149.361715387
 30
0.0
 10
340.2783972195
 20
149.3643560927
 30
0.0
 10
340.2692405485
 20
149.3665571369
 30
0.0
 10
340.2619140504
 20
149.368316949
 30
0.0
 10
340.2564223503
 20
149.3696396043
 30
0.0
 10
340.2518358389
 20
149.3707329228
 30
0.0
 10
340.2486450914
 20
149.3715157002
 30
0.0
 10
340.2467908746
 20
149.371935748
 30
0.0
 10
340.2452465965
 20
149.372628872
 30
0.0
 10
340.2432101255
 20
149.3734017754
 30
0.0
 10
340.2400110842
 20
149.374690679
 30
0.0
 10
340.2359919329
 20
149.3762838789
 30
0.0
 10
340.2311776617
 20
149.3782033933
 30
0.0
 10
340.2247555908
 20
149.380760065
 30
0.0
 10
340.216729046
 20
149.3839568244
 30
0.0
 10
340.2070967455
 20
149.387792542
 30
0.0
 10
340.1942538343
 20
149.3929069696
 30
0.0
 10
340.1782001416
 20
149.399299957
 30
0.0
 10
340.1589357334
 20
149.4069715621
 30
0.0
 10
340.1396713191
 20
149.4146431617
 30
0.0
 10
340.1139854354
 20
149.4248719631
 30
0.0
 10
340.0818780801
 20
149.4376579643
 30
0.0
 10
340.0433492541
 20
149.4530011659
 30
0.0
 10
339.9919774859
 20
149.473458768
 30
0.0
 10
339.9277627758
 20
149.4990307707
 30
0.0
 10
339.8507051235
 20
149.5297171738
 30
0.0
 10
339.7736474713
 20
149.560403577
 30
0.0
 10
339.670903935
 20
149.6013187812
 30
0.0
 10
339.5938462828
 20
149.6320051844
 30
0.0
 10
339.5424745147
 20
149.6524627865
 30
0.0
  0
SPLINE
  5
3E2
100
AcDbEntity
  8
0
100
AcDbSpline
 62
7
  6
CONTINUOUS
 70
0
 71
3
 72
141
 73
137
 74
0
 42
0.0000001
 43
0.0000001
 44
0.0000000001
 40
0.0
 40
0.0
 40
0.0
 40
0.0
 40
0.03125
 40
0.0625
 40
0.078125
 40
0.09375
 40
0.109375
 40
0.125
 40
0.140625
 40
0.1484375
 40
0.15234375
 40
0.15625
 40
0.16015625
 40
0.162109375
 40
0.1640625
 40
0.1650390625
 40
0.166015625
 40
0.1665039062
 40
0.1669921875
 40
0.16796875
 40
0.169921875
 40
0.171875
 40
0.17578125
 40
0.1796875
 40
0.1875
 40
0.1953125
 40
0.203125
 40
0.21875
 40
0.234375
 40
0.25
 40
0.265625
 40
0.28125
 40
0.296875
 40
0.3046875
 40
0.3125
 40
0.3203125
 40
0.32421875
 40
0.328125
 40
0.330078125
 40
0.33203125
 40
0.3330078125
 40
0.3334960938
 40
0.333984375
 40
0.3349609375
 40
0.3359375
 40
0.337890625
 40
0.33984375
 40
0.34375
 40
0.34765625
 40
0.3515625
 40
0.359375
 40
0.375
 40
0.390625
 40
0.40625
 40
0.421875
 40
0.4375
 40
0.453125
 40
0.4609375
 40
0.46875
 40
0.4765625
 40
0.484375
 40
0.48828125
 40
0.4921875
 40
0.494140625
 40
0.49609375
 40
0.498046875
 40
0.4990234375
 40
0.4995117188
 40
0.5
 40
0.5004882812
 40
0.5009765625
 40
0.501953125
 40
0.50390625
 40
0.505859375
 40
0.5078125
 40
0.51171875
 40
0.515625
 40
0.5234375
 40
0.53125
 40
0.5390625
 40
0.546875
 40
0.5625
 40
0.578125
 40
0.59375
 40
0.609375
 40
0.625
 40
0.640625
 40
0.6484375
 40
0.65234375
 40
0.65625
 40
0.66015625
 40
0.662109375
 40
0.6640625
 40
0.6650390625
 40
0.666015625
 40
0.6665039062
 40
0.6669921875
 40
0.66796875
 40
0.669921875
 40
0.671875
 40
0.67578125
 40
0.6796875
 40
0.6875
 40
0.6953125
 40
0.703125
 40
0.71875
 40
0.734375
 40
0.75
 40
0.765625
 40
0.78125
 40
0.796875
 40
0.8046875
 40
0.8125
 40
0.8203125
 40
0.82421875
 40
0.828125
 40
0.830078125
 40
0.83203125
 40
0.8330078125
 40
0.8334960938
 40
0.833984375
 40
0.8349609375
 40
0.8359375
 40
0.837890625
 40
0.83984375
 40
0.84375
 40
0.84765625
 40
0.8515625
 40
0.859375
 40
0.875
 40
0.890625
 40
0.90625
 40
0.921875
 40
0.9375
 40
0.96875
 40
1.0
 40
1.0
 40
1.0
 40
1.0
 10
339.5424745095
 20
149.652462789
 30
0.0
 10
339.521178794
 20
149.6645829912
 30
0.0
 10
339.4785873629
 20
149.6888233955
 30
0.0
 10
339.425348074
 20
149.7191239009
 30
0.0
 10
339.3827566431
 20
149.7433643053
 30
0.0
 10
339.3508130692
 20
149.7615446083
 30
0.0
 10
339.3188694982
 20
149.7797249124
 30
0.0
 10
339.2869259163
 20
149.7979052124
 30
0.0
 10
339.2603062985
 20
149.8130554753
 30
0.0
 10
339.2416724999
 20
149.8236606339
 30
0.0
 10
339.2310247181
 20
149.8297207643
 30
0.0
 10
339.2230385913
 20
149.8342657502
 30
0.0
 10
339.216384411
 20
149.8380535947
 30
0.0
 10
339.2110589912
 20
149.8410830712
 30
0.0
 10
339.2077353299
 20
149.8429783138
 30
0.0
 10
339.2050655771
 20
149.8444903401
 30
0.0
 10
339.2034216781
 20
149.845444866
 30
0.0
 10
339.2020499932
 20
149.846186706
 30
0.0
 10
339.2008848138
 20
149.8470080614
 30
0.0
 10
339.1989416805
 20
149.8484823714
 30
0.0
 10
339.1961157239
 20
149.8505692561
 30
0.0
 10
339.1916221647
 20
149.853919042
 30
0.0
 10
339.1859956383
 20
149.8581025866
 30
0.0
 10
339.1769985489
 20
149.8647983191
 30
0.0
 10
339.1657503505
 20
149.8731672775
 30
0.0
 10
339.1522532987
 20
149.8832103303
 30
0.0
 10
339.1342569549
 20
149.8966009616
 30
0.0
 10
339.1117616194
 20
149.913339287
 30
0.0
 10
339.0847671762
 20
149.9334252619
 30
0.0
 10
339.0577727447
 20
149.9535112412
 30
0.0
 10
339.0307783071
 20
149.9735972185
 30
0.0
 10
339.0037838821
 20
149.9936831995
 30
0.0
 10
338.981288491
 20
150.0104215063
 30
0.0
 10
338.9632922605
 20
150.0238121756
 30
0.0
 10
338.9497948628
 20
150.0338551122
 30
0.0
 10
338.9385477461
 20
150.0422244341
 30
0.0
 10
338.92954845
 20
150.0489194251
 30
0.0
 10
338.9239275394
 20
150.0531048565
 30
0.0
 10
338.9194224529
 20
150.0564507694
 30
0.0
 10
338.9166258442
 20
150.0585475146
 30
0.0
 10
338.9146299986
 20
150.0600041141
 30
0.0
 10
338.9135493135
 20
150.0608538583
 30
0.0
 10
338.9126938963
 20
150.061769157
 30
0.0
 10
338.9115474935
 20
150.0628908347
 30
0.0
 10
338.9097563536
 20
150.0646980628
 30
0.0
 10
338.9075026696
 20
150.0669528028
 30
0.0
 10
338.9039050241
 20
150.0705627873
 30
0.0
 10
338.8994051372
 20
150.0750744444
 30
0.0
 10
338.8940064841
 20
150.0804887854
 30
0.0
 10
338.8868078575
 20
150.0877077838
 30
0.0
 10
338.8742104577
 20
150.1003410883
 30
0.0
 10
338.8562140695
 20
150.1183886361
 30
0.0
 10
338.8346184477
 20
150.1400457064
 30
0.0
 10
338.8130228141
 20
150.1617027732
 30
0.0
 10
338.7914271836
 20
150.1833598409
 30
0.0
 10
338.7698315526
 20
150.2050169084
 30
0.0
 10
338.7518351924
 20
150.2230644645
 30
0.0
 10
338.737438107
 20
150.23750251
 30
0.0
 10
338.7266402852
 20
150.2483310424
 30
0.0
 10
338.7158424931
 20
150.2591595811
 30
0.0
 10
338.7068442405
 20
150.2681833439
 30
0.0
 10
338.6996458456
 20
150.2754023977
 30
0.0
 10
338.695146377
 20
150.2799142072
 30
0.0
 10
338.6915478827
 20
150.2835238818
 30
0.0
 10
338.6888460533
 20
150.286230516
 30
0.0
 10
338.6866039407
 20
150.2884880227
 30
0.0
 10
338.6850159914
 20
150.2900643952
 30
0.0
 10
338.684137432
 20
150.2909712411
 30
0.0
 10
338.6833972691
 20
150.2916342998
 30
0.0
 10
338.6829676593
 20
150.2923626307
 30
0.0
 10
338.6822865218
 20
150.293310971
 30
0.0
 10
338.6811450015
 20
150.2949811742
 30
0.0
 10
338.6794878719
 20
150.297361633
 30
0.0
 10
338.6775106105
 20
150.3002205573
 30
0.0
 10
338.6748703172
 20
150.3040316273
 30
0.0
 10
338.6715713012
 20
150.3087957487
 30
0.0
 10
338.6662921208
 20
150.3164181842
 30
0.0
 10
338.6596934043
 20
150.3259462831
 30
0.0
 10
338.6517748335
 20
150.3373799783
 30
0.0
 10
338.6438562924
 20
150.3488136799
 30
0.0
 10
338.6332982272
 20
150.3640586131
 30
0.0
 10
338.6201006492
 20
150.3831147803
 30
0.0
 10
338.6042635543
 20
150.4059821807
 30
0.0
 10
338.5884264589
 20
150.428849581
 30
0.0
 10
338.5725893669
 20
150.4517169818
 30
0.0
 10
338.5567522618
 20
150.4745843808
 30
0.0
 10
338.5435547152
 20
150.4936405523
 30
0.0
 10
338.5343163522
 20
150.5069798613
 30
0.0
 10
338.5290374131
 20
150.5146023408
 30
0.0
 10
338.5250778553
 20
150.5203191518
 30
0.0
 10
338.5217793498
 20
150.525083316
 30
0.0
 10
338.5191380198
 20
150.5288942996
 30
0.0
 10
338.5174929395
 20
150.5312769563
 30
0.0
 10
338.5161637043
 20
150.5331812678
 30
0.0
 10
338.5153629842
 20
150.5343756013
 30
0.0
 10
338.5146535764
 20
150.5353215884
 30
0.0
 10
338.5141954541
 20
150.5363021833
 30
0.0
 10
338.5135104731
 20
150.5380343011
 30
0.0
 10
338.5124710233
 20
150.5405003671
 30
0.0
 10
338.5108419405
 20
150.5444507603
 30
0.0
 10
338.5087939328
 20
150.5493871467
 30
0.0
 10
338.505523634
 20
150.5572862621
 30
0.0
 10
338.5014335257
 20
150.5671598486
 30
0.0
 10
338.4965263523
 20
150.5790082841
 30
0.0
 10
338.4899831203
 20
150.5948061521
 30
0.0
 10
338.481804195
 20
150.6145535029
 30
0.0
 10
338.4719894352
 20
150.6382503171
 30
0.0
 10
338.4621746895
 20
150.6619471331
 30
0.0
 10
338.4523599367
 20
150.6856439484
 30
0.0
 10
338.4425451984
 20
150.7093407648
 30
0.0
 10
338.4343662075
 20
150.7290881087
 30
0.0
 10
338.4278231091
 20
150.7448859907
 30
0.0
 10
338.4229155278
 20
150.7567343832
 30
0.0
 10
338.4188266955
 20
150.7666081043
 30
0.0
 10
338.4155537934
 20
150.7745069451
 30
0.0
 10
338.4135124108
 20
150.7794440305
 30
0.0
 10
338.411869729
 20
150.783392989
 30
0.0
 10
338.4108649016
 20
150.7858627076
 30
0.0
 10
338.4101177348
 20
150.7875882649
 30
0.0
 10
338.4097592921
 20
150.7885793759
 30
0.0
 10
338.4096589362
 20
150.7895896174
 30
0.0
 10
338.4094451229
 20
150.790845869
 30
0.0
 10
338.409152406
 20
150.7928595321
 30
0.0
 10
338.4087696006
 20
150.7953753577
 30
0.0
 10
338.4081665625
 20
150.7994013791
 30
0.0
 10
338.4074095225
 20
150.8044336656
 30
0.0
 10
338.4065024623
 20
150.8104725121
 30
0.0
 10
338.4052925645
 20
150.8185242717
 30
0.0
 10
338.403175469
 20
150.8326148676
 30
0.0
 10
338.4001509289
 20
150.8527442817
 30
0.0
 10
338.3965215313
 20
150.8768995823
 30
0.0
 10
338.3928921202
 20
150.9010548818
 30
0.0
 10
338.3892627127
 20
150.9252101817
 30
0.0
 10
338.3844235014
 20
150.9574172481
 30
0.0
 10
338.3783744878
 20
150.9976760811
 30
0.0
 10
338.3735352768
 20
151.0298831475
 30
0.0
 10
338.3711156712
 20
151.0459866807
 30
0.0
  0
LINE
  5
3E3
100
AcDbEntity
  8
0
100
AcDbLine
 62
7
  6
CONTINUOUS
 10
338.3711156707
 20
151.045986708
 11
338.3709016343
 21
151.0666763517
  0
SPLINE
  5
3E4
100
AcDbEntity
  8
3_ALL_AXES
100
AcDbSpline
 62
7
  6
CONTINUOUS
 70
0
 71
3
 72
14
 73
10
 74
0
 42
0.0000001
 43
0.0000001
 44
0.0000000001
 40
0.0
 40
0.0
 40
0.0
 40
0.0
 40
0.3019469909
 40
0.4381625606
 40
0.5647573591
 40
0.6825479728
 40
0.7929267169
 40
0.8978971356
 40
1.0
 40
1.0
 40
1.0
 40
1.0
 10
348.0277558838
 20
129.2999820087
 30
0.0
 10
348.3751032738
 20
129.1263083137
 30
0.0
 10
348.8633185252
 20
128.836705475
 30
0.0
 10
349.423924888
 20
128.3729199496
 30
0.0
 10
349.762879303
 20
128.017906982
 30
0.0
 10
350.0312675086
 20
127.6469335242
 30
0.0
 10
350.2260108347
 20
127.2630080476
 30
0.0
 10
350.3443029784
 20
126.8698981189
 30
0.0
 10
350.3708931117
 20
126.6028734907
 30
0.0
 10
350.3708930769
 20
126.4715548839
 30
0.0
  0
SPLINE
  5
3E5
100
AcDbEntity
  8
3_ALL_AXES
100
AcDbSpline
 62
7
  6
CONTINUOUS
 70
0
 71
3
 72
21
 73
17
 74
0
 42
0.0000001
 43
0.0000001
 44
0.0000000001
 40
0.0
 40
0.0
 40
0.0
 40
0.0
 40
0.0626161943
 40
0.129913073
 40
0.2010159609
 40
0.2748980813
 40
0.4262193264
 40
0.574287591
 40
0.6442308393
 40
0.7100522669
 40
0.7709629798
 40
0.826448352
 40
0.8763720402
 40
0.921113944
 40
0.96172494
 40
1.0
 40
1.0
 40
1.0
 40
1.0
 10
339.4010531533
 20
124.9866306434
 30
0.0
 10
339.5529689366
 20
124.9106727518
 30
0.0
 10
339.8779059429
 20
124.7721853452
 30
0.0
 10
340.3988882739
 20
124.6089187157
 30
0.0
 10
340.9619892529
 20
124.4852540918
 30
0.0
 10
341.7589596339
 20
124.3759794655
 30
0.0
 10
342.7749532846
 20
124.3519415036
 30
0.0
 10
343.7737283782
 20
124.4727014992
 30
0.0
 10
344.5216296852
 20
124.6590237903
 30
0.0
 10
345.0262201736
 20
124.8348111828
 30
0.0
 10
345.4744778257
 20
125.0455101
 30
0.0
 10
345.8571862986
 20
125.2869961593
 30
0.0
 10
346.1665043837
 20
125.55484963
 30
0.0
 10
346.3956873704
 20
125.8449214924
 30
0.0
 10
346.5380961458
 20
126.1524721305
 30
0.0
 10
346.5708897623
 20
126.3675848456
 30
0.0
 10
346.5708967644
 20
126.4714063013
 30
0.0
  0
SPLINE
  5
3E6
100
AcDbEntity
  8
3_ALL_AXES
100
AcDbSpline
 62
7
  6
CONTINUOUS
 70
0
 71
3
 72
14
 73
10
 74
0
 42
0.0000001
 43
0.0000001
 44
0.0000000001
 40
0.0
 40
0.0
 40
0.0
 40
0.0
 40
0.3019469909
 40
0.4381625606
 40
0.5647573591
 40
0.6825479728
 40
0.7929267169
 40
0.8978971356
 40
1.0
 40
1.0
 40
1.0
 40
1.0
 10
336.7140473848
 20
122.2574871131
 30
0.0
 10
336.3666999948
 20
122.4311608081
 30
0.0
 10
335.8784847434
 20
122.7207636468
 30
0.0
 10
335.3178783806
 20
123.1845491722
 30
0.0
 10
334.9789239656
 20
123.5395621398
 30
0.0
 10
334.7105357599
 20
123.9105355976
 30
0.0
 10
334.5157924338
 20
124.2944610742
 30
0.0
 10
334.3975002902
 20
124.6875710029
 30
0.0
 10
334.3709101568
 20
124.9545956312
 30
0.0
 10
334.3709101917
 20
125.0859142379
 30
0.0
  0
SPLINE
  5
3E7
100
AcDbEntity
  8
3_ALL_AXES
100
AcDbSpline
 62
7
  6
CONTINUOUS
 70
0
 71
3
 72
24
 73
20
 74
0
 42
0.0000001
 43
0.0000001
 44
0.0000000001
 40
0.0
 40
0.0
 40
0.0
 40
0.0
 40
0.0190294029
 40
0.0383633628
 40
0.0789606165
 40
0.1236871222
 40
0.1735938031
 40
0.2290606358
 40
0.2899513739
 40
0.3557515508
 40
0.4256725705
 40
0.4987299014
 40
0.5738053291
 40
0.6497002543
 40
0.7251846119
 40
0.799043842
 40
0.870127787
 40
0.937399779
 40
1.0
 40
1.0
 40
1.0
 40
1.0
 10
350.3708930769
 20
125.0859142379
 30
0.0
 10
350.3708930508
 20
124.987562625
 30
0.0
 10
350.3561492406
 20
124.7889706549
 30
0.0
 10
350.2669034494
 20
124.3894985353
 30
0.0
 10
350.0373425379
 20
123.8922500389
 30
0.0
 10
349.6008199602
 20
123.3401108082
 30
0.0
 10
349.01168626
 20
122.8297521927
 30
0.0
 10
348.282735799
 20
122.369790815
 30
0.0
 10
347.428916723
 20
121.9684079391
 30
0.0
 10
346.4678115511
 20
121.6335902074
 30
0.0
 10
345.4195145238
 20
121.3722584524
 30
0.0
 10
344.3061820607
 20
121.1899603201
 30
0.0
 10
343.1515033271
 20
121.0906079519
 30
0.0
 10
341.9801356276
 20
121.0763451785
 30
0.0
 10
340.817120455
 20
121.147483902
 30
0.0
 10
339.6873220181
 20
121.3024767063
 30
0.0
 10
338.6147647628
 20
121.5380196756
 30
0.0
 10
337.6223668785
 20
121.8489958988
 30
0.0
 10
337.0034331637
 20
122.1127942237
 30
0.0
 10
336.7140473848
 20
122.2574871131
 30
0.0
  0
SPLINE
  5
3E8
100
AcDbEntity
  8
3_ALL_AXES
100
AcDbSpline
 62
7
  6
CONTINUOUS
 70
0
 71
3
 72
15
 73
11
 74
0
 42
0.0000001
 43
0.0000001
 44
0.0000000001
 40
0.0
 40
0.0
 40
0.0
 40
0.0
 40
0.0934741216
 40
0.191512054
 40
0.2978132405
 40
0.4148085798
 40
0.5436987002
 40
0.6846772591
 40
0.8371650341
 40
1.0
 40
1.0
 40
1.0
 40
1.0
 10
334.3709101917
 20
126.4715548839
 30
0.0
 10
334.3709102383
 20
126.6470504064
 30
0.0
 10
334.4194248596
 20
127.0081886174
 30
0.0
 10
334.632344208
 20
127.530578032
 30
0.0
 10
334.9780756372
 20
128.0299161534
 30
0.0
 10
335.4482413237
 20
128.4989722687
 30
0.0
 10
336.0342477174
 20
128.9317702661
 30
0.0
 10
336.7263993661
 20
129.3221154451
 30
0.0
 10
337.5133019381
 20
129.6640069888
 30
0.0
 10
338.0760406764
 20
129.8504989923
 30
0.0
 10
338.3697560917
 20
129.9353241789
 30
0.0
  0
SPLINE
  5
3E9
100
AcDbEntity
  8
3_ALL_AXES
100
AcDbSpline
 62
7
  6
CONTINUOUS
 70
0
 71
3
 72
9
 73
5
 74
0
 42
0.0000001
 43
0.0000001
 44
0.0000000001
 40
0.0
 40
0.0
 40
0.0
 40
0.0
 40
0.5164117521
 40
1.0
 40
1.0
 40
1.0
 40
1.0
 10
346.3720489687
 20
129.9353257748
 30
0.0
 10
346.665637965
 20
129.8505409232
 30
0.0
 10
347.2280620947
 20
129.6641592767
 30
0.0
 10
347.7718039263
 20
129.4279579874
 30
0.0
 10
348.0277558838
 20
129.2999820087
 30
0.0
  0
SPLINE
  5
3EA
100
AcDbEntity
  8
3_ALL_AXES
100
AcDbSpline
 62
7
  6
CONTINUOUS
 70
0
 71
3
 72
13
 73
9
 74
0
 42
0.0000001
 43
0.0000001
 44
0.0000000001
 40
0.0
 40
0.0
 40
0.0
 40
0.0
 40
0.102175423
 40
0.2072183757
 40
0.4348476178
 40
0.5615209023
 40
0.6978360542
 40
1.0
 40
1.0
 40
1.0
 40
1.0
 10
338.1709065041
 20
126.4717034666
 30
0.0
 10
338.170901854
 20
126.4027555085
 30
0.0
 10
338.1848497605
 20
126.2625434759
 30
0.0
 10
338.2697582913
 20
125.9800833259
 30
0.0
 10
338.4390024855
 20
125.7130846699
 30
0.0
 10
338.6679600137
 20
125.4734764688
 30
0.0
 10
338.9623754876
 20
125.2298121096
 30
0.0
 10
339.2186792884
 20
125.0778175759
 30
0.0
 10
339.4010531533
 20
124.9866306434
 30
0.0
  0
SPLINE
  5
3EB
100
AcDbEntity
  8
3_ALL_AXES
100
AcDbSpline
 62
7
  6
CONTINUOUS
 70
0
 71
3
 72
14
 73
10
 74
0
 42
0.0000001
 43
0.0000001
 44
0.0000000001
 40
0.0
 40
0.0
 40
0.0
 40
0.0
 40
0.3019469909
 40
0.4381625606
 40
0.5647573591
 40
0.6825479728
 40
0.7929267169
 40
0.8978971356
 40
1.0
 40
1.0
 40
1.0
 40
1.0
 10
336.7140473848
 20
123.6431277592
 30
0.0
 10
336.3666999948
 20
123.8168014542
 30
0.0
 10
335.8784847434
 20
124.1064042929
 30
0.0
 10
335.3178783806
 20
124.5701898183
 30
0.0
 10
334.9789239656
 20
124.9252027858
 30
0.0
 10
334.7105357599
 20
125.2961762437
 30
0.0
 10
334.5157924338
 20
125.6801017203
 30
0.0
 10
334.3975002902
 20
126.073211649
 30
0.0
 10
334.3709101568
 20
126.3402362772
 30
0.0
 10
334.3709101917
 20
126.4715548839
 30
0.0
  0
SPLINE
  5
3EC
100
AcDbEntity
  8
3_ALL_AXES
100
AcDbSpline
 62
7
  6
CONTINUOUS
 70
0
 71
3
 72
24
 73
20
 74
0
 42
0.0000001
 43
0.0000001
 44
0.0000000001
 40
0.0
 40
0.0
 40
0.0
 40
0.0
 40
0.0190294029
 40
0.0383633628
 40
0.0789606165
 40
0.1236871222
 40
0.1735938031
 40
0.2290606358
 40
0.2899513739
 40
0.3557515508
 40
0.4256725705
 40
0.4987299014
 40
0.5738053291
 40
0.6497002543
 40
0.7251846119
 40
0.799043842
 40
0.870127787
 40
0.937399779
 40
1.0
 40
1.0
 40
1.0
 40
1.0
 10
350.3708930769
 20
126.4715548839
 30
0.0
 10
350.3708930508
 20
126.373203271
 30
0.0
 10
350.3561492406
 20
126.1746113009
 30
0.0
 10
350.2669034494
 20
125.7751391814
 30
0.0
 10
350.0373425379
 20
125.277890685
 30
0.0
 10
349.6008199602
 20
124.7257514543
 30
0.0
 10
349.01168626
 20
124.2153928388
 30
0.0
 10
348.282735799
 20
123.7554314611
 30
0.0
 10
347.428916723
 20
123.3540485852
 30
0.0
 10
346.4678115511
 20
123.0192308534
 30
0.0
 10
345.4195145238
 20
122.7578990984
 30
0.0
 10
344.3061820607
 20
122.5756009662
 30
0.0
 10
343.1515033271
 20
122.476248598
 30
0.0
 10
341.9801356276
 20
122.4619858246
 30
0.0
 10
340.817120455
 20
122.5331245481
 30
0.0
 10
339.6873220181
 20
122.6881173524
 30
0.0
 10
338.6147647628
 20
122.9236603217
 30
0.0
 10
337.6223668785
 20
123.2346365449
 30
0.0
 10
337.0034331637
 20
123.4984348698
 30
0.0
 10
336.7140473848
 20
123.6431277592
 30
0.0
  0
SPLINE
  5
3ED
100
AcDbEntity
  8
3_ALL_AXES
100
AcDbSpline
 62
7
  6
CONTINUOUS
 70
0
 71
3
 72
9
 73
5
 74
0
 42
0.0000001
 43
0.0000001
 44
0.0000000001
 40
0.0
 40
0.0
 40
0.0
 40
0.0
 40
0.5161664457
 40
1.0
 40
1.0
 40
1.0
 40
1.0
 10
338.3701177054
 20
127.1106296636
 30
0.0
 10
338.3074757339
 20
127.0125833638
 30
0.0
 10
338.2072504568
 20
126.8073465052
 30
0.0
 10
338.1709138597
 20
126.5807643291
 30
0.0
 10
338.1709065041
 20
126.4717034666
 30
0.0
  0
SPLINE
  5
3EE
100
AcDbEntity
  8
3_ALL_AXES
100
AcDbSpline
 62
7
  6
CONTINUOUS
 70
0
 71
3
 72
9
 73
5
 74
0
 42
0.0000001
 43
0.0000001
 44
0.0000000001
 40
0.0
 40
0.0
 40
0.0
 40
0.0
 40
0.4838761468
 40
1.0
 40
1.0
 40
1.0
 40
1.0
 10
346.5708967644
 20
126.4714063013
 30
0.0
 10
346.5709041116
 20
126.5803422013
 30
0.0
 10
346.5347451773
 20
126.8066514171
 30
0.0
 10
346.4347983827
 20
127.0117135687
 30
0.0
 10
346.3723025213
 20
127.1096714717
 30
0.0
  0
SPLINE
  5
3EF
100
AcDbEntity
  8
02___PRT_ALL_AXES
100
AcDbSpline
 62
7
  6
CONTINUOUS
 70
0
 71
3
 72
24
 73
20
 74
0
 42
0.0000001
 43
0.0000001
 44
0.0000000001
 40
0.0
 40
0.0
 40
0.0
 40
0.0
 40
0.062600221
 40
0.129872213
 40
0.200956158
 40
0.2748153881
 40
0.3502997457
 40
0.4261946709
 40
0.5012700986
 40
0.5743274295
 40
0.6442484492
 40
0.7100486261
 40
0.7709393642
 40
0.8264061969
 40
0.8763128778
 40
0.9210393835
 40
0.9616366372
 40
0.9809705971
 40
1.0
 40
1.0
 40
1.0
 40
1.0
 10
337.0676007754
 20
145.8169497106
 30
0.0
 10
337.3388999431
 20
145.6813001268
 30
0.0
 10
337.9191503008
 20
145.4339891972
 30
0.0
 10
338.8495233173
 20
145.1424489879
 30
0.0
 10
339.8550457441
 20
144.9216274542
 30
0.0
 10
340.9142317787
 20
144.7763217002
 30
0.0
 10
342.004558503
 20
144.7096291469
 30
0.0
 10
343.1027157213
 20
144.723000497
 30
0.0
 10
344.185227034
 20
144.8161433422
 30
0.0
 10
345.2289762182
 20
144.9870478411
 30
0.0
 10
346.2117546813
 20
145.2320463615
 30
0.0
 10
347.11279078
 20
145.545937985
 30
0.0
 10
347.9132461637
 20
145.9222344311
 30
0.0
 10
348.5966372209
 20
146.3534482227
 30
0.0
 10
349.1489500649
 20
146.8319094248
 30
0.0
 10
349.5581899815
 20
147.3495399536
 30
0.0
 10
349.773403336
 20
147.8157104189
 30
0.0
 10
349.8570712652
 20
148.190215531
 30
0.0
 10
349.8708935872
 20
148.376395503
 30
0.0
 10
349.8708936117
 20
148.4686001401
 30
0.0
  0
SPLINE
  5
3F0
100
AcDbEntity
  8
7_ALL_FEATURES
100
AcDbSpline
 62
7
  6
CONTINUOUS
 70
0
 71
3
 72
9
 73
5
 74
0
 42
0.0000001
 43
0.0000001
 44
0.0000000001
 40
0.0
 40
0.0
 40
0.0
 40
0.0
 40
0.2635385357
 40
1.0
 40
1.0
 40
1.0
 40
1.0
 10
338.3700570905
 20
153.3023661455
 30
0.0
 10
338.2874047248
 20
153.2653877271
 30
0.0
 10
337.9768027506
 20
153.1185814086
 30
0.0
 10
337.6783874582
 20
152.9447235412
 30
0.0
 10
337.4717876947
 20
152.7986293475
 30
0.0
  0
SPLINE
  5
3F1
100
AcDbEntity
  8
7_ALL_FEATURES
100
AcDbSpline
 62
7
  6
CONTINUOUS
 70
0
 71
3
 72
13
 73
9
 74
0
 42
0.0000001
 43
0.0000001
 44
0.0000000001
 40
0.0
 40
0.0
 40
0.0
 40
0.0
 40
0.3021603037
 40
0.4384728755
 40
0.5651503503
 40
0.7927820962
 40
0.8978251189
 40
1.0
 40
1.0
 40
1.0
 40
1.0
 10
345.199328759
 20
149.652462789
 30
0.0
 10
345.3730034881
 20
149.7393001536
 30
0.0
 10
345.6170808761
 20
149.8840435869
 30
0.0
 10
345.8974620993
 20
150.1160792001
 30
0.0
 10
346.1155105277
 20
150.344253897
 30
0.0
 10
346.2767154097
 20
150.5985080378
 30
0.0
 10
346.3575800869
 20
150.8674952503
 30
0.0
 10
346.3709015029
 20
151.0010167308
 30
0.0
 10
346.3709016343
 20
151.0666763514
 30
0.0
  0
SPLINE
  5
3F2
100
AcDbEntity
  8
7_ALL_FEATURES
100
AcDbSpline
 62
7
  6
CONTINUOUS
 70
0
 71
3
 72
12
 73
8
 74
0
 42
0.0000001
 43
0.0000001
 44
0.0000000001
 40
0.0
 40
0.0
 40
0.0
 40
0.0
 40
0.108602682
 40
0.219099588
 40
0.4520439341
 40
0.7103373474
 40
1.0
 40
1.0
 40
1.0
 40
1.0
 10
349.8708978581
 20
149.7676382789
 30
0.0
 10
349.8708940488
 20
149.8639967649
 30
0.0
 10
349.8557695466
 20
150.0587276051
 30
0.0
 10
349.7642165323
 20
150.4505617837
 30
0.0
 10
349.5284117592
 20
150.9375356925
 30
0.0
 10
349.0824412086
 20
151.4741781281
 30
0.0
 10
348.7044767287
 20
151.784312061
 30
0.0
 10
348.4946332389
 20
151.9326946266
 30
0.0
  0
SPLINE
  5
3F3
100
AcDbEntity
  8
02___PRT_ALL_AXES
100
AcDbSpline
 62
7
  6
CONTINUOUS
 70
0
 71
3
 72
14
 73
10
 74
0
 42
0.0000001
 43
0.0000001
 44
0.0000000001
 40
0.0
 40
0.0
 40
0.0
 40
0.0
 40
0.1021028644
 40
0.2070732831
 40
0.3174520272
 40
0.4352426409
 40
0.5618374394
 40
0.6980530091
 40
1.0
 40
1.0
 40
1.0
 40
1.0
 10
334.8709096569
 20
148.4686001401
 30
0.0
 10
334.8709096242
 20
148.3454889463
 30
0.0
 10
334.8958378742
 20
148.0951533573
 30
0.0
 10
335.0067367589
 20
147.7266127991
 30
0.0
 10
335.1893086271
 20
147.3666826648
 30
0.0
 10
335.4409225699
 20
147.0188950481
 30
0.0
 10
335.7586923339
 20
146.686070391
 30
0.0
 10
336.284260799
 20
146.251271461
 30
0.0
 10
336.7419625973
 20
145.9797687997
 30
0.0
 10
337.0676007754
 20
145.8169497106
 30
0.0
  0
SPLINE
  5
3F4
100
AcDbEntity
  8
7_ALL_FEATURES
100
AcDbSpline
 62
7
  6
CONTINUOUS
 70
0
 71
3
 72
12
 73
8
 74
0
 42
0.0000001
 43
0.0000001
 44
0.0000000001
 40
0.0
 40
0.0
 40
0.0
 40
0.0
 40
0.2896733936
 40
0.5479606421
 40
0.7809032047
 40
0.891398541
 40
1.0
 40
1.0
 40
1.0
 40
1.0
 10
336.2471803668
 20
151.9327005193
 30
0.0
 10
336.0373246038
 20
151.7843163296
 30
0.0
 10
335.6593519745
 20
151.4741789285
 30
0.0
 10
335.213385035
 20
150.9375285768
 30
0.0
 10
334.977571997
 20
150.4505609118
 30
0.0
 10
334.8860433358
 20
150.0587246196
 30
0.0
 10
334.8709016011
 20
149.8639960552
 30
0.0
 10
334.8709054105
 20
149.7676381187
 30
0.0
  0
SPLINE
  5
3F5
100
AcDbEntity
  8
7_ALL_FEATURES
100
AcDbSpline
 62
7
  6
CONTINUOUS
 70
0
 71
3
 72
9
 73
5
 74
0
 42
0.0000001
 43
0.0000001
 44
0.0000000001
 40
0.0
 40
0.0
 40
0.0
 40
0.0
 40
0.2396089337
 40
1.0
 40
1.0
 40
1.0
 40
1.0
 10
347.2697326576
 20
152.7988305443
 30
0.0
 10
347.2199516821
 20
152.8340279386
 30
0.0
 10
347.0090262996
 20
152.9764305037
 30
0.0
 10
346.7865938323
 20
153.1014709396
 30
0.0
 10
346.6135423214
 20
153.187996695
 30
0.0
  0
SPLINE
  5
3F6
100
AcDbEntity
  8
7_ALL_FEATURES
100
AcDbSpline
 62
7
  6
CONTINUOUS
 70
0
 71
3
 72
12
 73
8
 74
0
 42
0.0000001
 43
0.0000001
 44
0.0000000001
 40
0.0
 40
0.0
 40
0.0
 40
0.0
 40
0.1061088847
 40
0.2144707192
 40
0.44525749
 40
0.70517355
 40
1.0
 40
1.0
 40
1.0
 40
1.0
 10
338.3709016343
 20
151.0666763514
 30
0.0
 10
338.3709015205
 20
151.00982052
 30
0.0
 10
338.3808277467
 20
150.8946671909
 30
0.0
 10
338.4408951366
 20
150.6627862615
 30
0.0
 10
338.595947544
 20
150.3760403447
 30
0.0
 10
338.8853622048
 20
150.0660795096
 30
0.0
 10
339.1277856594
 20
149.8911102887
 30
0.0
 10
339.2622010079
 20
149.8081116795
 30
0.0
  0
SPLINE
  5
3F7
100
AcDbEntity
  8
7_ALL_FEATURES
100
AcDbSpline
 62
7
  6
CONTINUOUS
 70
0
 71
3
 72
9
 73
5
 74
0
 42
0.0000001
 43
0.0000001
 44
0.0000000001
 40
0.0
 40
0.0
 40
0.0
 40
0.0
 40
0.2437619257
 40
1.0
 40
1.0
 40
1.0
 40
1.0
 10
339.2622010079
 20
149.8081116795
 30
0.0
 10
339.2843697167
 20
149.794422975
 30
0.0
 10
339.3759899662
 20
149.7393657886
 30
0.0
 10
339.4701777381
 20
149.6886111748
 30
0.0
 10
339.5424745095
 20
149.652462789
 30
0.0
  0
SPLINE
  5
3F8
100
AcDbEntity
  8
7_ALL_FEATURES
100
AcDbSpline
 62
7
  6
CONTINUOUS
 70
0
 71
3
 72
9
 73
5
 74
0
 42
0.0000001
 43
0.0000001
 44
0.0000000001
 40
0.0
 40
0.0
 40
0.0
 40
0.0
 40
0.2444744593
 40
1.0
 40
1.0
 40
1.0
 40
1.0
 10
339.5424745095
 20
149.652462789
 30
0.0
 10
339.5673612263
 20
149.6400194306
 30
0.0
 10
339.6696951731
 20
149.5901992882
 30
0.0
 10
339.774068971
 20
149.5445957039
 30
0.0
 10
339.8537722905
 20
149.5123260383
 30
0.0
  0
SPLINE
  5
3F9
100
AcDbEntity
  8
7_ALL_FEATURES
100
AcDbSpline
 62
7
  6
CONTINUOUS
 70
0
 71
3
 72
15
 73
11
 74
0
 42
0.0000001
 43
0.0000001
 44
0.0000000001
 40
0.0
 40
0.0
 40
0.0
 40
0.0
 40
0.1170620787
 40
0.2425501756
 40
0.3736210461
 40
0.5070757671
 40
0.6395717987
 40
0.7678262724
 40
0.8888091702
 40
1.0
 40
1.0
 40
1.0
 40
1.0
 10
339.8537722905
 20
149.5123260383
 30
0.0
 10
340.0520403846
 20
149.4320527805
 30
0.0
 10
340.4742799878
 20
149.293278424
 30
0.0
 10
341.1432309735
 20
149.1516180676
 30
0.0
 10
341.8525567376
 20
149.0724080526
 30
0.0
 10
342.5788724432
 20
149.0583329316
 30
0.0
 10
343.2983555148
 20
149.1098358571
 30
0.0
 10
343.9874385828
 20
149.2252386245
 30
0.0
 10
344.6234858318
 20
149.4006269288
 30
0.0
 10
345.0176047022
 20
149.5616007606
 30
0.0
 10
345.199328759
 20
149.652462789
 30
0.0
  0
SPLINE
  5
3FA
100
AcDbEntity
  8
7_ALL_FEATURES
100
AcDbSpline
 62
7
  6
CONTINUOUS
 70
0
 71
3
 72
14
 73
10
 74
0
 42
0.0000001
 43
0.0000001
 44
0.0000000001
 40
0.0
 40
0.0
 40
0.0
 40
0.0
 40
0.1021029853
 40
0.2070737168
 40
0.3174521063
 40
0.4352417369
 40
0.5618382043
 40
0.6980545862
 40
1.0
 40
1.0
 40
1.0
 40
1.0
 10
334.8709054105
 20
149.7676381187
 30
0.0
 10
334.8709102774
 20
149.644526747
 30
0.0
 10
334.8958303384
 20
149.3941899003
 30
0.0
 10
335.0067441969
 20
149.0256529957
 30
0.0
 10
335.1893060558
 20
148.6657205751
 30
0.0
 10
335.4409174937
 20
148.3179290145
 30
0.0
 10
335.7586976848
 20
147.9851120511
 30
0.0
 10
336.2842583919
 20
147.550302422
 30
0.0
 10
336.7419642133
 20
147.2788060975
 30
0.0
 10
337.0676007754
 20
147.1159878163
 30
0.0
  0
SPLINE
  5
3FB
100
AcDbEntity
  8
7_ALL_FEATURES
100
AcDbSpline
 62
7
  6
CONTINUOUS
 70
0
 71
3
 72
20
 73
16
 74
0
 42
0.0000001
 43
0.0000001
 44
0.0000000001
 40
0.0
 40
0.0
 40
0.0
 40
0.0
 40
0.1385914626
 40
0.2014750128
 40
0.2605486083
 40
0.3164697402
 40
0.370114889
 40
0.4225491266
 40
0.4749482313
 40
0.5284915902
 40
0.5842519575
 40
0.7055108378
 40
0.7723846129
 40
0.8437423968
 40
1.0
 40
1.0
 40
1.0
 40
1.0
 10
337.4717876947
 20
152.7986293475
 30
0.0
 10
337.2822948564
 20
152.6646320818
 30
0.0
 10
337.0209996915
 20
152.446380304
 30
0.0
 10
336.7389424338
 20
152.1123097639
 30
0.0
 10
336.5770956392
 20
151.8611033136
 30
0.0
 10
336.4596969621
 20
151.603049594
 30
0.0
 10
336.3880660005
 20
151.3400791062
 30
0.0
 10
336.363135265
 20
151.0744961085
 30
0.0
 10
336.3852911393
 20
150.8088388955
 30
0.0
 10
336.4542270363
 20
150.5456378339
 30
0.0
 10
336.6114627846
 20
150.1914525811
 30
0.0
 10
336.8596738733
 20
149.8601454303
 30
0.0
 10
337.1740434694
 20
149.5596531342
 30
0.0
 10
337.5632537066
 20
149.2556006789
 30
0.0
 10
337.8942187595
 20
149.0623771016
 30
0.0
 10
338.1282609472
 20
148.9453560079
 30
0.0
  0
SPLINE
  5
3FC
100
AcDbEntity
  8
7_ALL_FEATURES
100
AcDbSpline
 62
7
  6
CONTINUOUS
 70
0
 71
3
 72
24
 73
20
 74
0
 42
0.0000001
 43
0.0000001
 44
0.0000000001
 40
0.0
 40
0.0
 40
0.0
 40
0.0
 40
0.0626006868
 40
0.1298720449
 40
0.2009561988
 40
0.2748153342
 40
0.3502996571
 40
0.4261945331
 40
0.5012699242
 40
0.5743272432
 40
0.6442482857
 40
0.7100485187
 40
0.7709393336
 40
0.8264062437
 40
0.8763129704
 40
0.9210394862
 40
0.961636728
 40
0.9809705881
 40
1.0
 40
1.0
 40
1.0
 40
1.0
 10
337.0676007754
 20
147.1159878163
 30
0.0
 10
337.3389020429
 20
146.9803371827
 30
0.0
 10
337.9191496585
 20
146.7330209166
 30
0.0
 10
338.8495266225
 20
146.441491253
 30
0.0
 10
339.8550454602
 20
146.2206650251
 30
0.0
 10
340.914232821
 20
146.0753622672
 30
0.0
 10
342.0045588403
 20
146.0086689566
 30
0.0
 10
343.1027158385
 20
146.0220406467
 30
0.0
 10
344.1852270191
 20
146.1151829607
 30
0.0
 10
345.2289764893
 20
146.2860868538
 30
0.0
 10
346.2117558203
 20
146.5310845052
 30
0.0
 10
347.112793225
 20
146.8449753668
 30
0.0
 10
347.9132505479
 20
147.2212710498
 30
0.0
 10
348.596642656
 20
147.6524846499
 30
0.0
 10
349.1489585247
 20
148.1309455355
 30
0.0
 10
349.5581925919
 20
148.6485777468
 30
0.0
 10
349.7734207539
 20
149.114745676
 30
0.0
 10
349.8570575639
 20
149.4892556937
 30
0.0
 10
349.8709015032
 20
149.6754335706
 30
0.0
 10
349.8708978581
 20
149.7676382789
 30
0.0
  0
SPLINE
  5
3FD
100
AcDbEntity
  8
7_ALL_FEATURES
100
AcDbSpline
 62
7
  6
CONTINUOUS
 70
0
 71
3
 72
27
 73
23
 74
0
 42
0.0000001
 43
0.0000001
 44
0.0000000001
 40
0.0
 40
0.0
 40
0.0
 40
0.0
 40
0.0674006875
 40
0.1407950793
 40
0.2186056213
 40
0.2989415234
 40
0.3797544471
 40
0.4589668378
 40
0.5346001937
 40
0.6049121951
 40
0.6685562256
 40
0.7247939952
 40
0.7501868728
 40
0.773894795
 40
0.7961485068
 40
0.8172817312
 40
0.8377237706
 40
0.8579723812
 40
0.8785460655
 40
0.8999288972
 40
0.9465353388
 40
1.0
 40
1.0
 40
1.0
 40
1.0
 10
338.1282609472
 20
148.9453560079
 30
0.0
 10
338.4047056347
 20
148.807133664
 30
0.0
 10
339.004808533
 20
148.5627641999
 30
0.0
 10
339.9735849075
 20
148.298037946
 30
0.0
 10
341.0231205517
 20
148.1258978331
 30
0.0
 10
342.1180025352
 20
148.0523308461
 30
0.0
 10
343.2214309194
 20
148.0797974589
 30
0.0
 10
344.2961865712
 20
148.2073847416
 30
0.0
 10
345.306139349
 20
148.4307152408
 30
0.0
 10
346.2178549804
 20
148.7423828666
 30
0.0
 10
347.0012270573
 20
149.1321193998
 30
0.0
 10
347.544524026
 20
149.5256394046
 30
0.0
 10
347.8834529757
 20
149.8713050947
 30
0.0
 10
348.0818761879
 20
150.1327419642
 30
0.0
 10
348.2312225791
 20
150.4031194931
 30
0.0
 10
348.3297437016
 20
150.6802572257
 30
0.0
 10
348.3760062559
 20
150.9615794719
 30
0.0
 10
348.3691884785
 20
151.2440812158
 30
0.0
 10
348.3094294129
 20
151.5246092287
 30
0.0
 10
348.1562340189
 20
151.9027118634
 30
0.0
 10
347.8237614489
 20
152.3596192057
 30
0.0
 10
347.4699182181
 20
152.657290327
 30
0.0
 10
347.2697326576
 20
152.7988305443
 30
0.0
  0
SPLINE
  5
3FE
100
AcDbEntity
  8
02___PRT_ALL_AXES
100
AcDbSpline
 62
7
  6
CONTINUOUS
 70
0
 71
3
 72
22
 73
18
 74
0
 42
0.0000001
 43
0.0000001
 44
0.0000000001
 40
0.0
 40
0.0
 40
0.0
 40
0.0
 40
0.1536067273
 40
0.2285318156
 40
0.3017473707
 40
0.3729639339
 40
0.4419319925
 40
0.5084504412
 40
0.5723758215
 40
0.6336323664
 40
0.6922226846
 40
0.7482385432
 40
0.8018705702
 40
0.8534148109
 40
0.9032731044
 40
0.9519437703
 40
1.0
 40
1.0
 40
1.0
 40
1.0
 10
346.4310178923
 20
347.2924542361
 30
0.0
 10
346.5085017993
 20
347.0904937242
 30
0.0
 10
346.6076918127
 20
346.7833855378
 30
0.0
 10
346.7026116265
 20
346.3690096366
 30
0.0
 10
346.7533500708
 20
346.0640863555
 30
0.0
 10
346.7838104414
 20
345.7649057798
 30
0.0
 10
346.7937542209
 20
345.4737536674
 30
0.0
 10
346.7830921031
 20
345.1928759766
 30
0.0
 10
346.7518878209
 20
344.9244296223
 30
0.0
 10
346.7003527763
 20
344.6704762869
 30
0.0
 10
346.6288411044
 20
344.4329688984
 30
0.0
 10
346.5378452484
 20
344.2137454219
 30
0.0
 10
346.427992389
 20
344.0145254332
 30
0.0
 10
346.3000565646
 20
343.8369134885
 30
0.0
 10
346.1549516049
 20
343.682383416
 30
0.0
 10
345.9938361239
 20
343.5523004336
 30
0.0
 10
345.8762515677
 20
343.4824397898
 30
0.0
 10
345.8157217796
 20
343.4521748283
 30
0.0
  0
SPLINE
  5
3FF
100
AcDbEntity
  8
02___PRT_ALL_AXES
100
AcDbSpline
 62
7
  6
CONTINUOUS
 70
0
 71
3
 72
15
 73
11
 74
0
 42
0.0000001
 43
0.0000001
 44
0.0000000001
 40
0.0
 40
0.0
 40
0.0
 40
0.0
 40
0.1462346051
 40
0.2874134024
 40
0.4228741046
 40
0.552059544
 40
0.6745404791
 40
0.7900431052
 40
0.898482133
 40
1.0
 40
1.0
 40
1.0
 40
1.0
 10
344.0383010795
 20
344.1044414961
 30
0.0
 10
344.1443223944
 20
344.1287518199
 30
0.0
 10
344.3515474233
 20
344.1817721061
 30
0.0
 10
344.6517479668
 20
344.2762055426
 30
0.0
 10
344.9340803041
 20
344.3835530922
 30
0.0
 10
345.1963379339
 20
344.5029820849
 30
0.0
 10
345.43648674
 20
344.6335744838
 30
0.0
 10
345.6526780425
 20
344.7743539134
 30
0.0
 10
345.8432084007
 20
344.9242425099
 30
0.0
 10
345.9557624348
 20
345.0330433561
 30
0.0
 10
346.006803048
 20
345.0886924803
 30
0.0
  0
SPLINE
  5
400
100
AcDbEntity
  8
02___PRT_ALL_AXES
100
AcDbSpline
 62
7
  6
CONTINUOUS
 70
0
 71
3
 72
14
 73
10
 74
0
 42
0.0000001
 43
0.0000001
 44
0.0000000001
 40
0.0
 40
0.0
 40
0.0
 40
0.0
 40
0.2482226793
 40
0.3712712918
 40
0.4941938754
 40
0.6176649917
 40
0.742530949
 40
0.8697127425
 40
1.0
 40
1.0
 40
1.0
 40
1.0
 10
343.6650618955
 20
344.964424164
 30
0.0
 10
343.7165623673
 20
344.9041528104
 30
0.0
 10
343.7898069228
 20
344.8105096635
 30
0.0
 10
343.8747560075
 20
344.6773508733
 30
0.0
 10
343.9304554545
 20
344.5731725674
 30
0.0
 10
343.9767111889
 20
344.46378993
 30
0.0
 10
344.0116752294
 20
344.3488047196
 30
0.0
 10
344.0334979093
 20
344.2283774617
 30
0.0
 10
344.0383010795
 20
344.1460527561
 30
0.0
 10
344.0383010795
 20
344.1044414961
 30
0.0
  0
SPLINE
  5
401
100
AcDbEntity
  8
02___PRT_ALL_AXES
100
AcDbSpline
 62
7
  6
CONTINUOUS
 70
0
 71
3
 72
17
 73
13
 74
0
 42
0.0000001
 43
0.0000001
 44
0.0000000001
 40
0.0
 40
0.0
 40
0.0
 40
0.0
 40
0.1165187329
 40
0.1779975913
 40
0.2407286623
 40
0.3042059772
 40
0.368069254
 40
0.4960696689
 40
0.6236331277
 40
0.7502806441
 40
0.8757824598
 40
1.0
 40
1.0
 40
1.0
 40
1.0
 10
346.006803048
 20
345.0886924803
 30
0.0
 10
346.006803048
 20
345.177193431
 30
0.0
 10
346.0144392804
 20
345.3124257397
 30
0.0
 10
346.0347057196
 20
345.4941427545
 30
0.0
 10
346.0545177525
 20
345.6353364343
 30
0.0
 10
346.077474322
 20
345.7778717385
 30
0.0
 10
346.110889262
 20
345.9689181114
 30
0.0
 10
346.1554100301
 20
346.207419014
 30
0.0
 10
346.2081733283
 20
346.4928908205
 30
0.0
 10
346.2568800127
 20
346.7771718598
 30
0.0
 10
346.2991272212
 20
347.0599261996
 30
0.0
 10
346.321921047
 20
347.2482606709
 30
0.0
 10
346.331679098
 20
347.3421032217
 30
0.0
  0
SPLINE
  5
402
100
AcDbEntity
  8
02___PRT_ALL_AXES
100
AcDbSpline
 62
7
  6
CONTINUOUS
 70
0
 71
3
 72
15
 73
11
 74
0
 42
0.0000001
 43
0.0000001
 44
0.0000000001
 40
0.0
 40
0.0
 40
0.0
 40
0.0
 40
0.1301514366
 40
0.2582842588
 40
0.3848676346
 40
0.5102070781
 40
0.6344307112
 40
0.7575287247
 40
0.8794159986
 40
1.0
 40
1.0
 40
1.0
 40
1.0
 10
343.6649968598
 20
340.9095014258
 30
0.0
 10
343.6649968598
 20
340.8287330146
 30
0.0
 10
343.6766301401
 20
340.6681785366
 30
0.0
 10
343.7292903893
 20
340.4343539971
 30
0.0
 10
343.8145664822
 20
340.2135615321
 30
0.0
 10
343.9290398803
 20
340.0092675662
 30
0.0
 10
344.0689116888
 20
339.824229785
 30
0.0
 10
344.2304174592
 20
339.6607805479
 30
0.0
 10
344.409911991
 20
339.521055518
 30
0.0
 10
344.5401228023
 20
339.4446156199
 30
0.0
 10
344.6070557253
 20
339.4111539873
 30
0.0
  0
SPLINE
  5
403
100
AcDbEntity
  8
02___PRT_ALL_AXES
100
AcDbSpline
 62
7
  6
CONTINUOUS
 70
0
 71
3
 72
14
 73
10
 74
0
 42
0.0000001
 43
0.0000001
 44
0.0000000001
 40
0.0
 40
0.0
 40
0.0
 40
0.0
 40
0.2814686485
 40
0.4124705868
 40
0.5376850823
 40
0.6579395044
 40
0.7742557449
 40
0.8878315249
 40
1.0
 40
1.0
 40
1.0
 40
1.0
 10
338.0335888987
 20
351.4962754098
 30
0.0
 10
337.9308494857
 20
351.4067051942
 30
0.0
 10
337.7890337563
 20
351.2643098742
 30
0.0
 10
337.6323827887
 20
351.0559258421
 30
0.0
 10
337.5376938058
 20
350.8997376802
 30
0.0
 10
337.4635034058
 20
350.7406199959
 30
0.0
 10
337.410191769
 20
350.5792165188
 30
0.0
 10
337.3780703859
 20
350.416284957
 30
0.0
 10
337.3709017202
 20
350.3068370914
 30
0.0
 10
337.3709017202
 20
350.2525192218
 30
0.0
  0
SPLINE
  5
404
100
AcDbEntity
  8
7_ALL_FEATURES
100
AcDbSpline
 62
7
  6
CONTINUOUS
 70
0
 71
3
 72
17
 73
13
 74
0
 42
0.0000001
 43
0.0000001
 44
0.0000000001
 40
0.0
 40
0.0
 40
0.0
 40
0.0
 40
0.1559743681
 40
0.3020775186
 40
0.4382292106
 40
0.5647574121
 40
0.6824841606
 40
0.7928041695
 40
0.8458433112
 40
0.8978301726
 40
0.9490977036
 40
1.0
 40
1.0
 40
1.0
 40
1.0
 10
338.8353677284
 20
328.9991806837
 30
0.0
 10
338.723166167
 20
329.0552814644
 30
0.0
 10
338.5098483779
 20
329.1722385837
 30
0.0
 10
338.2165505807
 20
329.3685975056
 30
0.0
 10
337.9627542211
 20
329.5786079156
 30
0.0
 10
337.7509094259
 20
329.800482948
 30
0.0
 10
337.5831719964
 20
330.0323106346
 30
0.0
 10
337.4804015382
 20
330.234985501
 30
0.0
 10
337.4233897762
 20
330.3987512676
 30
0.0
 10
337.3931379769
 20
330.5209573712
 30
0.0
 10
337.3749520758
 20
330.6437848342
 30
0.0
 10
337.3709016003
 20
330.7260134042
 30
0.0
 10
337.3709016796
 20
330.7669524813
 30
0.0
  0
SPLINE
  5
405
100
AcDbEntity
  8
02___PRT_ALL_AXES
100
AcDbSpline
 62
7
  6
CONTINUOUS
 70
0
 71
3
 72
17
 73
13
 74
0
 42
0.0000001
 43
0.0000001
 44
0.0000000001
 40
0.0
 40
0.0
 40
0.0
 40
0.0
 40
0.05090228
 40
0.102169807
 40
0.1541566742
 40
0.2071958287
 40
0.3175158747
 40
0.4352426591
 40
0.561770881
 40
0.6979225669
 40
0.8440256668
 40
1.0
 40
1.0
 40
1.0
 40
1.0
 10
337.3709017202
 20
321.673680897
 30
0.0
 10
337.3709017202
 20
321.6327419156
 30
0.0
 10
337.3749526163
 20
321.5505135439
 30
0.0
 10
337.3931388583
 20
321.4276864048
 30
0.0
 10
337.4233909956
 20
321.3054806325
 30
0.0
 10
337.4804031077
 20
321.1417153139
 30
0.0
 10
337.5831738403
 20
320.9390410323
 30
0.0
 10
337.7509113344
 20
320.707214022
 30
0.0
 10
337.9627559566
 20
320.4853396316
 30
0.0
 10
338.2165519095
 20
320.2753298248
 30
0.0
 10
338.5098491079
 20
320.0789714252
 30
0.0
 10
338.7231664184
 20
319.962014599
 30
0.0
 10
338.8353677284
 20
319.905913944
 30
0.0
  0
SPLINE
  5
406
100
AcDbEntity
  8
7_ALL_FEATURES
100
AcDbSpline
 62
7
  6
CONTINUOUS
 70
0
 71
3
 72
21
 73
17
 74
0
 42
0.0000001
 43
0.0000001
 44
0.0000000001
 40
0.0
 40
0.0
 40
0.0
 40
0.0
 40
0.0456023694
 40
0.091853044
 40
0.1393617379
 40
0.1886686005
 40
0.2402248887
 40
0.2943855059
 40
0.3514104691
 40
0.4114716955
 40
0.4746624047
 40
0.5410067959
 40
0.6104693303
 40
0.6829630185
 40
0.8364348278
 40
1.0
 40
1.0
 40
1.0
 40
1.0
 10
347.370901589
 20
330.7669427921
 30
0.0
 10
347.3709014769
 20
330.7090623486
 30
0.0
 10
347.36274758
 20
330.5923210812
 30
0.0
 10
347.3262382692
 20
330.4187241281
 30
0.0
 10
347.2656908211
 20
330.2469990594
 30
0.0
 10
347.1815097521
 20
330.0780526908
 30
0.0
 10
347.0742012019
 20
329.9126702234
 30
0.0
 10
346.9443523387
 20
329.7516058297
 30
0.0
 10
346.7926275869
 20
329.5955786276
 30
0.0
 10
346.6197728621
 20
329.4452872382
 30
0.0
 10
346.4266190836
 20
329.3014112532
 30
0.0
 10
346.2140869634
 20
329.1646106808
 30
0.0
 10
345.9831838453
 20
329.0355132082
 30
0.0
 10
345.6458633249
 20
328.8713626577
 30
0.0
 10
345.1846969078
 20
328.6907921714
 30
0.0
 10
344.7977861112
 20
328.5782921206
 30
0.0
 10
344.5963105565
 20
328.528222825
 30
0.0
  0
SPLINE
  5
407
100
AcDbEntity
  8
7_ALL_FEATURES
100
AcDbSpline
 62
7
  6
CONTINUOUS
 70
0
 71
3
 72
11
 73
7
 74
0
 42
0.0000001
 43
0.0000001
 44
0.0000000001
 40
0.0
 40
0.0
 40
0.0
 40
0.0
 40
0.246789617
 40
0.499721947
 40
0.7527952989
 40
1.0
 40
1.0
 40
1.0
 40
1.0
 10
344.1394419824
 20
328.4285579644
 30
0.0
 10
343.8552334052
 20
328.3748207343
 30
0.0
 10
343.2740094046
 20
328.2947176998
 30
0.0
 10
342.3915446507
 20
328.2538448504
 30
0.0
 10
341.5084334664
 20
328.2910922276
 30
0.0
 10
340.9262281933
 20
328.368763916
 30
0.0
 10
340.6412982659
 20
328.421288265
 30
0.0
  0
SPLINE
  5
408
100
AcDbEntity
  8
7_ALL_FEATURES
100
AcDbSpline
 62
7
  6
CONTINUOUS
 70
0
 71
3
 72
11
 73
7
 74
0
 42
0.0000001
 43
0.0000001
 44
0.0000000001
 40
0.0
 40
0.0
 40
0.0
 40
0.0
 40
0.2666852885
 40
0.5234430713
 40
0.7684022359
 40
1.0
 40
1.0
 40
1.0
 40
1.0
 10
340.6412982659
 20
328.421288265
 30
0.0
 10
340.4750326944
 20
328.4519378742
 30
0.0
 10
340.1503452351
 20
328.5216179635
 30
0.0
 10
339.6811235386
 20
328.6537787735
 30
0.0
 10
339.2429939592
 20
328.8103510145
 30
0.0
 10
338.966690202
 20
328.9335194469
 30
0.0
 10
338.8353677284
 20
328.9991806837
 30
0.0
  0
SPLINE
  5
409
100
AcDbEntity
  8
02___PRT_ALL_AXES
100
AcDbSpline
 62
7
  6
CONTINUOUS
 70
0
 71
3
 72
30
 73
26
 74
0
 42
0.0000001
 43
0.0000001
 44
0.0000000001
 40
0.0
 40
0.0
 40
0.0
 40
0.0
 40
0.0190243006
 40
0.0383529488
 40
0.0582700011
 40
0.0790233513
 40
0.1008154975
 40
0.1238007289
 40
0.1480868303
 40
0.1737392708
 40
0.2007863336
 40
0.2292241634
 40
0.2590214555
 40
0.2901234384
 40
0.322455408
 40
0.3559256443
 40
0.4258278083
 40
0.4988654267
 40
0.5739205808
 40
0.6497950103
 40
0.7252589319
 40
0.7990982818
 40
0.8701627312
 40
0.9374171087
 40
1.0
 40
1.0
 40
1.0
 40
1.0
 10
347.3709015484
 20
321.673680897
 30
0.0
 10
347.3709015484
 20
321.6122109903
 30
0.0
 10
347.361689467
 20
321.4880996777
 30
0.0
 10
347.3204706882
 20
321.3037655292
 30
0.0
 10
347.2521696582
 20
321.1217002072
 30
0.0
 10
347.1573093865
 20
320.9429813232
 30
0.0
 10
347.0365331755
 20
320.7685316417
 30
0.0
 10
346.8905795993
 20
320.599235085
 30
0.0
 10
346.7202818436
 20
320.4359346152
 30
0.0
 10
346.5265749419
 20
320.27945022
 30
0.0
 10
346.3105024856
 20
320.130578662
 30
0.0
 10
346.0732209259
 20
319.9900885323
 30
0.0
 10
345.8159975674
 20
319.8587148544
 30
0.0
 10
345.5402094554
 20
319.7371523232
 30
0.0
 10
345.2473299041
 20
319.6260433868
 30
0.0
 10
344.8301125304
 20
319.4906950754
 30
0.0
 10
344.2762610798
 20
319.3526433908
 30
0.0
 10
343.5804597533
 20
319.2387089109
 30
0.0
 10
342.8587761654
 20
319.1766133554
 30
0.0
 10
342.1266736127
 20
319.167699694
 30
0.0
 10
341.3997880307
 20
319.212161115
 30
0.0
 10
340.6936649473
 20
319.3090327307
 30
0.0
 10
340.0233149255
 20
319.4562458815
 30
0.0
 10
339.4030671052
 20
319.6506079986
 30
0.0
 10
339.0162327026
 20
319.8154814569
 30
0.0
 10
338.8353677284
 20
319.905913944
 30
0.0
  0
SPLINE
  5
40A
100
AcDbEntity
  8
7_ALL_FEATURES
100
AcDbSpline
 62
7
  6
CONTINUOUS
 70
0
 71
3
 72
9
 73
5
 74
0
 42
0.0000001
 43
0.0000001
 44
0.0000000001
 40
0.0
 40
0.0
 40
0.0
 40
0.0
 40
0.5209605406
 40
1.0
 40
1.0
 40
1.0
 40
1.0
 10
339.1889211189
 20
328.7429446771
 30
0.0
 10
339.0631844911
 20
328.8058129911
 30
0.0
 10
338.8273001491
 20
328.9379441005
 30
0.0
 10
338.6078117193
 20
329.0963475464
 30
0.0
 10
338.5086483083
 20
329.179270625
 30
0.0
  0
SPLINE
  5
40B
100
AcDbEntity
  8
7_ALL_FEATURES
100
AcDbSpline
 62
7
  6
CONTINUOUS
 70
0
 71
3
 72
10
 73
6
 74
0
 42
0.0000001
 43
0.0000001
 44
0.0000000001
 40
0.0
 40
0.0
 40
0.0
 40
0.0
 40
0.2348689562
 40
0.4804565746
 40
1.0
 40
1.0
 40
1.0
 40
1.0
 10
339.1889211189
 20
328.7429446771
 30
0.0
 10
339.2789851041
 20
328.6979126845
 30
0.0
 10
339.4663906447
 20
328.6120080399
 30
0.0
 10
339.8663177907
 20
328.4570544914
 30
0.0
 10
340.1818240355
 20
328.3644229681
 30
0.0
 10
340.3982243351
 20
328.3116501105
 30
0.0
  0
SPLINE
  5
40C
100
AcDbEntity
  8
7_ALL_FEATURES
100
AcDbSpline
 62
7
  6
CONTINUOUS
 70
0
 71
3
 72
15
 73
11
 74
0
 42
0.0000001
 43
0.0000001
 44
0.0000000001
 40
0.0
 40
0.0
 40
0.0
 40
0.0
 40
0.1207884722
 40
0.2451584363
 40
0.3719634349
 40
0.5000000002
 40
0.6280365655
 40
0.754841564
 40
0.8792115281
 40
1.0
 40
1.0
 40
1.0
 40
1.0
 10
340.3982243351
 20
328.3116501105
 30
0.0
 10
340.5539189547
 20
328.2736813554
 30
0.0
 10
340.8725935162
 20
328.2072259457
 30
0.0
 10
341.3612680505
 20
328.1363724187
 30
0.0
 10
341.8628458514
 20
328.0934895668
 30
0.0
 10
342.3709016351
 20
328.0791345316
 30
0.0
 10
342.8789574187
 20
328.0934895669
 30
0.0
 10
343.3805352196
 20
328.1363724188
 30
0.0
 10
343.8692097534
 20
328.2072259461
 30
0.0
 10
344.1878843146
 20
328.2736813551
 30
0.0
 10
344.3435789337
 20
328.3116501103
 30
0.0
  0
SPLINE
  5
40D
100
AcDbEntity
  8
7_ALL_FEATURES
100
AcDbSpline
 62
7
  6
CONTINUOUS
 70
0
 71
3
 72
14
 73
10
 74
0
 42
0.0000001
 43
0.0000001
 44
0.0000000001
 40
0.0
 40
0.0
 40
0.0
 40
0.0
 40
0.2791703779
 40
0.4122832114
 40
0.5405412755
 40
0.6636337522
 40
0.7813240258
 40
0.8934621897
 40
1.0
 40
1.0
 40
1.0
 40
1.0
 10
344.3435789337
 20
328.3116501103
 30
0.0
 10
344.5331125763
 20
328.3578710813
 30
0.0
 10
344.8105006477
 20
328.4376134082
 30
0.0
 10
345.1652202489
 20
328.5677954292
 30
0.0
 10
345.4125386565
 20
328.6730889869
 30
0.0
 10
345.6440491349
 20
328.7870260308
 30
0.0
 10
345.8585710566
 20
328.9090343529
 30
0.0
 10
346.0549803736
 20
329.0384814872
 30
0.0
 10
346.1762892227
 20
329.1317066606
 30
0.0
 10
346.2333964416
 20
329.1794725788
 30
0.0
  0
SPLINE
  5
40E
100
AcDbEntity
  8
02___PRT_ALL_AXES
100
AcDbSpline
 62
7
  6
CONTINUOUS
 70
0
 71
3
 72
15
 73
11
 74
0
 42
0.0000001
 43
0.0000001
 44
0.0000000001
 40
0.0
 40
0.0
 40
0.0
 40
0.0
 40
0.1305490896
 40
0.2627897698
 40
0.3950304039
 40
0.5255795353
 40
0.6527972684
 40
0.7751489308
 40
0.8912634518
 40
1.0
 40
1.0
 40
1.0
 40
1.0
 10
343.6649968598
 20
347.8377046561
 30
0.0
 10
343.4520234539
 20
347.8091716301
 30
0.0
 10
343.021196775
 20
347.7666037303
 30
0.0
 10
342.3709071185
 20
347.7454311736
 30
0.0
 10
341.7205850638
 20
347.766605705
 30
0.0
 10
341.0812881498
 20
347.8297709612
 30
0.0
 10
340.463829961
 20
347.9338443415
 30
0.0
 10
339.8786096521
 20
348.0770688111
 30
0.0
 10
339.3355404144
 20
348.2569921822
 30
0.0
 10
338.995447006
 20
348.4047126301
 30
0.0
 10
338.8353677284
 20
348.4847522689
 30
0.0
  0
SPLINE
  5
40F
100
AcDbEntity
  8
02___PRT_ALL_AXES
100
AcDbSpline
 62
7
  6
CONTINUOUS
 70
0
 71
3
 72
17
 73
13
 74
0
 42
0.0000001
 43
0.0000001
 44
0.0000000001
 40
0.0
 40
0.0
 40
0.0
 40
0.0
 40
0.05090228
 40
0.102169807
 40
0.1541566742
 40
0.2071958287
 40
0.3175158747
 40
0.4352426591
 40
0.561770881
 40
0.6979225669
 40
0.8440256668
 40
1.0
 40
1.0
 40
1.0
 40
1.0
 10
337.3709017202
 20
350.2525192218
 30
0.0
 10
337.3709017202
 20
350.2115802405
 30
0.0
 10
337.3749526163
 20
350.1293518688
 30
0.0
 10
337.3931388583
 20
350.0065247297
 30
0.0
 10
337.4233909956
 20
349.8843189574
 30
0.0
 10
337.4804031077
 20
349.7205536388
 30
0.0
 10
337.5831738403
 20
349.5178793571
 30
0.0
 10
337.7509113344
 20
349.2860523469
 30
0.0
 10
337.9627559566
 20
349.0641779565
 30
0.0
 10
338.2165519095
 20
348.8541681497
 30
0.0
 10
338.5098491079
 20
348.6578097501
 30
0.0
 10
338.7231664184
 20
348.5408529239
 30
0.0
 10
338.8353677284
 20
348.4847522689
 30
0.0
  0
SPLINE
  5
410
100
AcDbEntity
  8
7_ALL_FEATURES
100
AcDbSpline
 62
7
  6
CONTINUOUS
 70
0
 71
3
 72
17
 73
13
 74
0
 42
0.0000001
 43
0.0000001
 44
0.0000000001
 40
0.0
 40
0.0
 40
0.0
 40
0.0
 40
0.1559743681
 40
0.3020775186
 40
0.4382292106
 40
0.5647574121
 40
0.6824841606
 40
0.7928041695
 40
0.8458433112
 40
0.8978301726
 40
0.9490977036
 40
1.0
 40
1.0
 40
1.0
 40
1.0
 10
338.8353677284
 20
328.5661679818
 30
0.0
 10
338.723166167
 20
328.6222687625
 30
0.0
 10
338.5098483779
 20
328.7392258818
 30
0.0
 10
338.2165505807
 20
328.9355848037
 30
0.0
 10
337.9627542211
 20
329.1455952137
 30
0.0
 10
337.7509094259
 20
329.3674702462
 30
0.0
 10
337.5831719964
 20
329.5992979327
 30
0.0
 10
337.4804015382
 20
329.8019727991
 30
0.0
 10
337.4233897762
 20
329.9657385657
 30
0.0
 10
337.3931379769
 20
330.0879446693
 30
0.0
 10
337.3749520758
 20
330.2107721323
 30
0.0
 10
337.3709016003
 20
330.2930007023
 30
0.0
 10
337.3709016796
 20
330.3339397794
 30
0.0
  0
SPLINE
  5
411
100
AcDbEntity
  8
02___PRT_ALL_AXES
100
AcDbSpline
 62
7
  6
CONTINUOUS
 70
0
 71
3
 72
23
 73
19
 74
0
 42
0.0000001
 43
0.0000001
 44
0.0000000001
 40
0.0
 40
0.0
 40
0.0
 40
0.0
 40
0.0557275566
 40
0.1107602641
 40
0.1653955676
 40
0.2201714246
 40
0.2758174518
 40
0.333103328
 40
0.3926479919
 40
0.4547910843
 40
0.5195705162
 40
0.5867666238
 40
0.6559490637
 40
0.7264846232
 40
0.7974974881
 40
0.8678042138
 40
0.9358866561
 40
1.0
 40
1.0
 40
1.0
 40
1.0
 10
344.6070557253
 20
339.4111539873
 30
0.0
 10
344.690811016
 20
339.3692823846
 30
0.0
 10
344.8647040697
 20
339.2999293275
 30
0.0
 10
345.1385543574
 20
339.2443386497
 30
0.0
 10
345.4166604049
 20
339.2417759948
 30
0.0
 10
345.6907897603
 20
339.2951426466
 30
0.0
 10
345.9524567014
 20
339.4048380682
 30
0.0
 10
346.1940259261
 20
339.5680772679
 30
0.0
 10
346.4100632916
 20
339.7793270522
 30
0.0
 10
346.5977460486
 20
340.0315761341
 30
0.0
 10
346.7564558031
 20
340.3174483983
 30
0.0
 10
346.8871015068
 20
340.6297980396
 30
0.0
 10
346.9915293392
 20
340.9618366831
 30
0.0
 10
347.07207814
 20
341.3069256104
 30
0.0
 10
347.1312599183
 20
341.6581436759
 30
0.0
 10
347.171510097
 20
342.0078313663
 30
0.0
 10
347.1949271091
 20
342.3473896983
 30
0.0
 10
347.2005307657
 20
342.5695392492
 30
0.0
 10
347.2005307657
 20
342.6772683788
 30
0.0
  0
SPLINE
  5
412
100
AcDbEntity
  8
7_ALL_FEATURES
100
AcDbSpline
 62
7
  6
CONTINUOUS
 70
0
 71
3
 72
25
 73
21
 74
0
 42
0.0000001
 43
0.0000001
 44
0.0000000001
 40
0.0
 40
0.0
 40
0.0
 40
0.0
 40
0.0195569803
 40
0.039299367
 40
0.0594051227
 40
0.0800383377
 40
0.1234021296
 40
0.1703477454
 40
0.2214275798
 40
0.2768855909
 40
0.3367145142
 40
0.4007087236
 40
0.4685073024
 40
0.539628141
 40
0.6134954098
 40
0.6894625284
 40
0.7668322071
 40
0.8448747014
 40
0.9228450724
 40
1.0
 40
1.0
 40
1.0
 40
1.0
 10
347.370901589
 20
330.3339300902
 30
0.0
 10
347.3709014977
 20
330.2868055745
 30
0.0
 10
347.3655213894
 20
330.1920238047
 30
0.0
 10
347.3413892738
 20
330.0506479974
 30
0.0
 10
347.3012814177
 20
329.9102409639
 30
0.0
 10
347.2255215734
 20
329.7219411852
 30
0.0
 10
347.0889315184
 20
329.4901888978
 30
0.0
 10
346.8680106986
 20
329.2291197167
 30
0.0
 10
346.5905717522
 20
328.9829532058
 30
0.0
 10
346.2602105123
 20
328.7544378544
 30
0.0
 10
345.8810095862
 20
328.5461260089
 30
0.0
 10
345.4576512515
 20
328.3604961473
 30
0.0
 10
344.9953902119
 20
328.1998117169
 30
0.0
 10
344.5000027555
 20
328.0660721552
 30
0.0
 10
343.9777107528
 20
327.9609590751
 30
0.0
 10
343.4350968466
 20
327.8858033101
 30
0.0
 10
342.879017914
 20
327.8415598384
 30
0.0
 10
342.3165017338
 20
327.8287927714
 30
0.0
 10
341.7546947063
 20
327.8476619672
 30
0.0
 10
341.3821876203
 20
327.8814618474
 30
0.0
 10
341.1976146319
 20
327.9037395923
 30
0.0
  0
SPLINE
  5
413
100
AcDbEntity
  8
7_ALL_FEATURES
100
AcDbSpline
 62
7
  6
CONTINUOUS
 70
0
 71
3
 72
11
 73
7
 74
0
 42
0.0000001
 43
0.0000001
 44
0.0000000001
 40
0.0
 40
0.0
 40
0.0
 40
0.0
 40
0.2670064484
 40
0.5239779673
 40
0.7688760884
 40
1.0
 40
1.0
 40
1.0
 40
1.0
 10
340.7195063245
 20
327.974226609
 30
0.0
 10
340.5458059269
 20
328.004616808
 30
0.0
 10
340.2066133523
 20
328.0744929438
 30
0.0
 10
339.7166053016
 20
328.209134801
 30
0.0
 10
339.2596622586
 20
328.370224262
 30
0.0
 10
338.9718939725
 20
328.4979048598
 30
0.0
 10
338.8353677284
 20
328.5661679818
 30
0.0
  0
SPLINE
  5
414
100
AcDbEntity
  8
02___PRT_ALL_AXES
100
AcDbSpline
 62
7
  6
CONTINUOUS
 70
0
 71
3
 72
25
 73
21
 74
0
 42
0.0000001
 43
0.0000001
 44
0.0000000001
 40
0.0
 40
0.0
 40
0.0
 40
0.0
 40
0.0234875587
 40
0.0476883305
 40
0.0989725971
 40
0.1550974911
 40
0.2163932223
 40
0.2825297002
 40
0.3526854813
 40
0.4256965294
 40
0.5001825903
 40
0.5746589907
 40
0.6476417332
 40
0.7177526311
 40
0.7838312251
 40
0.8450613812
 40
0.9011203775
 40
0.9523479939
 40
0.9765274542
 40
1.0
 40
1.0
 40
1.0
 40
1.0
 10
356.8874066857
 20
345.5299898526
 30
0.0
 10
357.0881056199
 20
345.4796799267
 30
0.0
 10
357.5035281683
 20
345.4069129313
 30
0.0
 10
358.3769808294
 20
345.3740866281
 30
0.0
 10
359.5340303237
 20
345.5561841691
 30
0.0
 10
360.928299751
 20
346.0953335886
 30
0.0
 10
362.3173225232
 20
346.9369937415
 30
0.0
 10
363.6597088285
 20
348.0536942097
 30
0.0
 10
364.9153276116
 20
349.4102947616
 30
0.0
 10
366.0454073394
 20
350.9643805186
 30
0.0
 10
367.0146947388
 20
352.6671866772
 30
0.0
 10
367.7927388742
 20
354.465169684
 30
0.0
 10
368.3550582438
 20
356.3018170242
 30
0.0
 10
368.6838834376
 20
358.1196680418
 30
0.0
 10
368.768637621
 20
359.8622844144
 30
0.0
 10
368.6053691973
 20
361.4765262269
 30
0.0
 10
368.1970073958
 20
362.9128624703
 30
0.0
 10
367.6459279811
 20
363.9450241865
 30
0.0
 10
367.0938140336
 20
364.6215944998
 30
0.0
 10
366.7855379126
 20
364.9089428715
 30
0.0
 10
366.6244995822
 20
365.0386467489
 30
0.0
  0
SPLINE
  5
415
100
AcDbEntity
  8
02___PRT_ALL_AXES
100
AcDbSpline
 62
7
  6
CONTINUOUS
 70
0
 71
3
 72
18
 73
14
 74
0
 42
0.0000001
 43
0.0000001
 44
0.0000000001
 40
0.0
 40
0.0
 40
0.0
 40
0.0
 40
0.0452984096
 40
0.0916378107
 40
0.1399362754
 40
0.1909036846
 40
0.3022480632
 40
0.3630980603
 40
0.4271679762
 40
0.5634948976
 40
0.7076662305
 40
0.8548918416
 40
1.0
 40
1.0
 40
1.0
 40
1.0
 10
366.6846188209
 20
365.1164661287
 30
0.0
 10
366.4447577164
 20
365.2363989162
 30
0.0
 10
365.934302051
 20
365.4317479003
 30
0.0
 10
365.1138420035
 20
365.5756027482
 30
0.0
 10
364.2475332813
 20
365.5710446583
 30
0.0
 10
363.0137036185
 20
365.3628398388
 30
0.0
 10
361.7744647894
 20
364.8568633411
 30
0.0
 10
360.581696676
 20
364.1241051277
 30
0.0
 10
359.3502869242
 20
363.1840451875
 30
0.0
 10
357.9093667086
 20
361.7249805519
 30
0.0
 10
356.4279970221
 20
359.6599812116
 30
0.0
 10
355.2380648474
 20
357.356458979
 30
0.0
 10
354.6713048836
 20
355.7131043327
 30
0.0
 10
354.4561210284
 20
354.8814275808
 30
0.0
  0
SPLINE
  5
416
100
AcDbEntity
  8
02___PRT_ALL_AXES
100
AcDbSpline
 62
7
  6
CONTINUOUS
 70
0
 71
3
 72
14
 73
10
 74
0
 42
0.0000001
 43
0.0000001
 44
0.0000000001
 40
0.0
 40
0.0
 40
0.0
 40
0.0
 40
0.28915074
 40
0.4227186071
 40
0.5489641475
 40
0.6685090823
 40
0.7824374351
 40
0.8922924628
 40
1.0
 40
1.0
 40
1.0
 40
1.0
 10
353.9870397036
 20
351.3887074585
 30
0.0
 10
353.9870397036
 20
350.7197098032
 30
0.0
 10
354.0705000155
 20
349.7363916109
 30
0.0
 10
354.389490096
 20
348.5045212763
 30
0.0
 10
354.7134510397
 20
347.6860062163
 30
0.0
 10
355.1249488364
 20
346.9592239628
 30
0.0
 10
355.6198447183
 20
346.3334142769
 30
0.0
 10
356.1922742889
 20
345.8174575884
 30
0.0
 10
356.6228945478
 20
345.5505854073
 30
0.0
 10
356.8457837236
 20
345.4391377424
 30
0.0
  0
SPLINE
  5
417
100
AcDbEntity
  8
02___PRT_ALL_AXES
100
AcDbSpline
 62
7
  6
CONTINUOUS
 70
0
 71
3
 72
13
 73
9
 74
0
 42
0.0000001
 43
0.0000001
 44
0.0000000001
 40
0.0
 40
0.0
 40
0.0
 40
0.0
 40
0.1106963189
 40
0.2230817256
 40
0.3387109447
 40
0.4588985231
 40
0.7162455328
 40
1.0
 40
1.0
 40
1.0
 40
1.0
 10
356.8457837236
 20
345.4391377424
 30
0.0
 10
357.0401186374
 20
345.3419676027
 30
0.0
 10
357.4480327559
 20
345.1769906078
 30
0.0
 10
358.0980629862
 20
345.0262079342
 30
0.0
 10
358.7818292993
 20
344.972279648
 30
0.0
 10
359.7507393322
 20
345.030949948
 30
0.0
 10
361.0189456991
 20
345.362491491
 30
0.0
 10
361.9744827953
 20
345.8416419806
 30
0.0
 10
362.4503134
 20
346.1310910468
 30
0.0
  0
LINE
  5
418
100
AcDbEntity
  8
02___PRT_ALL_AXES
100
AcDbLine
 62
7
  6
CONTINUOUS
 10
362.4503134
 20
346.1310910468
 11
362.4629239417
 21
346.1387747397
  0
SPLINE
  5
419
100
AcDbEntity
  8
02___PRT_ALL_AXES
100
AcDbSpline
 62
7
  6
CONTINUOUS
 70
0
 71
3
 72
22
 73
18
 74
0
 42
0.0000001
 43
0.0000001
 44
0.0000000001
 40
0.0
 40
0.0
 40
0.0
 40
0.0
 40
0.0626358253
 40
0.1288349021
 40
0.1979596754
 40
0.2692146804
 40
0.4143062479
 40
0.4863592665
 40
0.5567722277
 40
0.6246848122
 40
0.6893650867
 40
0.7502645295
 40
0.8070820496
 40
0.8598354574
 40
0.9089353912
 40
0.9552340082
 40
1.0
 40
1.0
 40
1.0
 40
1.0
 10
362.6420129756
 20
346.2506355262
 30
0.0
 10
363.0312219883
 20
346.4993173524
 30
0.0
 10
363.7984680304
 20
347.0642745835
 30
0.0
 10
364.8702320144
 20
348.0591071804
 30
0.0
 10
365.8762598079
 20
349.2064996275
 30
0.0
 10
367.1079146846
 20
350.9164539902
 30
0.0
 10
368.1112728002
 20
352.8071856593
 30
0.0
 10
368.8471421057
 20
354.7981303622
 30
0.0
 10
369.2483823943
 20
356.2992490318
 30
0.0
 10
369.4914080029
 20
357.7789499545
 30
0.0
 10
369.5710245218
 20
359.2065609791
 30
0.0
 10
369.48517307
 20
360.552422656
 30
0.0
 10
369.2348258352
 20
361.788841216
 30
0.0
 10
368.8236339868
 20
362.8902048145
 30
0.0
 10
368.2574462868
 20
363.8328933666
 30
0.0
 10
367.5460339224
 20
364.5939029362
 30
0.0
 10
366.9798695564
 20
364.9688380096
 30
0.0
 10
366.6846188209
 20
365.1164661287
 30
0.0
  0
SPLINE
  5
41A
100
AcDbEntity
  8
7_ALL_FEATURES
100
AcDbSpline
 62
7
  6
CONTINUOUS
 70
0
 71
3
 72
9
 73
5
 74
0
 42
0.0000001
 43
0.0000001
 44
0.0000000001
 40
0.0
 40
0.0
 40
0.0
 40
0.0
 40
0.2566941062
 40
1.0
 40
1.0
 40
1.0
 40
1.0
 10
345.5528821496
 20
375.5083164815
 30
0.0
 10
345.6690673899
 20
375.5664091016
 30
0.0
 10
346.1255443165
 20
375.7848581338
 30
0.0
 10
346.5976834816
 20
375.971110019
 30
0.0
 10
346.9554383825
 20
376.0872910203
 30
0.0
  0
SPLINE
  5
41B
100
AcDbEntity
  8
7_ALL_FEATURES
100
AcDbSpline
 62
7
  6
CONTINUOUS
 70
0
 71
3
 72
11
 73
7
 74
0
 42
0.0000001
 43
0.0000001
 44
0.0000000001
 40
0.0
 40
0.0
 40
0.0
 40
0.0
 40
0.2704908424
 40
0.5242799621
 40
0.7655244286
 40
1.0
 40
1.0
 40
1.0
 40
1.0
 10
347.0175466754
 20
376.1072140301
 30
0.0
 10
347.4401376046
 20
376.2410923919
 30
0.0
 10
348.2803295559
 20
376.4408599164
 30
0.0
 10
349.539800978
 20
376.515155267
 30
0.0
 10
350.7320964644
 20
376.3497255472
 30
0.0
 10
351.470525298
 20
376.0776239331
 30
0.0
 10
351.8142184003
 20
375.9057621798
 30
0.0
  0
SPLINE
  5
41C
100
AcDbEntity
  8
7_ALL_FEATURES
100
AcDbSpline
 62
7
  6
CONTINUOUS
 70
0
 71
3
 72
15
 73
11
 74
0
 42
0.0000001
 43
0.0000001
 44
0.0000000001
 40
0.0
 40
0.0
 40
0.0
 40
0.0
 40
0.1172491856
 40
0.2409861577
 40
0.3693073586
 40
0.4999969682
 40
0.6306865387
 40
0.7590103017
 40
0.8827461571
 40
1.0
 40
1.0
 40
1.0
 40
1.0
 10
360.3248613759
 20
365.2263508555
 30
0.0
 10
359.7922619089
 20
364.8269205508
 30
0.0
 10
358.7555672569
 20
363.9267309415
 30
0.0
 10
357.3489738804
 20
362.3656490295
 30
0.0
 10
356.0808382295
 20
360.5954194821
 30
0.0
 10
354.9877240173
 20
358.6669549514
 30
0.0
 10
354.1007356041
 20
356.6354056294
 30
0.0
 10
353.4453655195
 20
354.5587723415
 30
0.0
 10
353.0403548432
 20
352.4968351271
 30
0.0
 10
352.942148013
 20
351.1273486025
 30
0.0
 10
352.942148013
 20
350.4615844023
 30
0.0
  0
SPLINE
  5
41D
100
AcDbEntity
  8
7_ALL_FEATURES
100
AcDbSpline
 62
7
  6
CONTINUOUS
 70
0
 71
3
 72
14
 73
10
 74
0
 42
0.0000001
 43
0.0000001
 44
0.0000000001
 40
0.0
 40
0.0
 40
0.0
 40
0.0
 40
0.2876624834
 40
0.4207485961
 40
0.5468199756
 40
0.6665113
 40
0.7808948597
 40
0.8914526833
 40
1.0
 40
1.0
 40
1.0
 40
1.0
 10
352.9469579782
 20
350.460221634
 30
0.0
 10
352.9667386111
 20
349.735107039
 30
0.0
 10
353.0853850993
 20
348.6713646599
 30
0.0
 10
353.4641777124
 20
347.3429150102
 30
0.0
 10
353.8365118916
 20
346.4601904029
 30
0.0
 10
354.3007977735
 20
345.6761418156
 30
0.0
 10
354.852517245
 20
345.0000364609
 30
0.0
 10
355.4855279636
 20
344.4407212346
 30
0.0
 10
355.958997903
 20
344.1496054403
 30
0.0
 10
356.2038149613
 20
344.0271865332
 30
0.0
  0
SPLINE
  5
41E
100
AcDbEntity
  8
7_ALL_FEATURES
100
AcDbSpline
 62
7
  6
CONTINUOUS
 70
0
 71
3
 72
14
 73
10
 74
0
 42
0.0000001
 43
0.0000001
 44
0.0000000001
 40
0.0
 40
0.0
 40
0.0
 40
0.0
 40
0.2891509538
 40
0.4227188873
 40
0.5489645457
 40
0.6685086385
 40
0.7824369895
 40
0.8922923025
 40
1.0
 40
1.0
 40
1.0
 40
1.0
 10
327.87521262
 20
362.3233006567
 30
0.0
 10
327.87521262
 20
361.4718382246
 30
0.0
 10
327.9814641685
 20
360.2203303057
 30
0.0
 10
328.3874338926
 20
358.6524702098
 30
0.0
 10
328.7997626507
 20
357.610715239
 30
0.0
 10
329.3235227262
 20
356.6857275474
 30
0.0
 10
329.9533959056
 20
355.8892378074
 30
0.0
 10
330.6819468997
 20
355.2325424205
 30
0.0
 10
331.2300486483
 20
354.8929366415
 30
0.0
 10
331.5137262392
 20
354.7510854897
 30
0.0
  0
SPLINE
  5
41F
100
AcDbEntity
  8
7_ALL_FEATURES
100
AcDbSpline
 62
7
  6
CONTINUOUS
 70
0
 71
3
 72
15
 73
11
 74
0
 42
0.0000001
 43
0.0000001
 44
0.0000000001
 40
0.0
 40
0.0
 40
0.0
 40
0.0
 40
0.1172442324
 40
0.2409829796
 40
0.3693043565
 40
0.4999945088
 40
0.6306850646
 40
0.759008214
 40
0.8827477834
 40
1.0
 40
1.0
 40
1.0
 40
1.0
 10
335.5124996638
 20
377.9507649209
 30
0.0
 10
334.9615517923
 20
377.5375864241
 30
0.0
 10
333.8891503414
 20
376.6063356195
 30
0.0
 10
332.4340336266
 20
374.9914670576
 30
0.0
 10
331.1221673542
 20
373.1601753847
 30
0.0
 10
329.9913412263
 20
371.1652104613
 30
0.0
 10
329.0737714447
 20
369.0635991231
 30
0.0
 10
328.395774028
 20
366.9153402976
 30
0.0
 10
327.9768169596
 20
364.7822879032
 30
0.0
 10
327.87521262
 20
363.3655663402
 30
0.0
 10
327.87521262
 20
362.6768540473
 30
0.0
  0
SPLINE
  5
420
100
AcDbEntity
  8
7_ALL_FEATURES
100
AcDbSpline
 62
7
  6
CONTINUOUS
 70
0
 71
3
 72
15
 73
11
 74
0
 42
0.0000001
 43
0.0000001
 44
0.0000000001
 40
0.0
 40
0.0
 40
0.0
 40
0.0
 40
0.1172442324
 40
0.2409829796
 40
0.3693043565
 40
0.4999945088
 40
0.6306850646
 40
0.759008214
 40
0.8827477834
 40
1.0
 40
1.0
 40
1.0
 40
1.0
 10
364.0785460097
 20
344.574516049
 30
0.0
 10
364.6294938812
 20
344.9876945458
 30
0.0
 10
365.701895332
 20
345.9189453504
 30
0.0
 10
367.1570120469
 20
347.5338139123
 30
0.0
 10
368.4688783193
 20
349.3651055852
 30
0.0
 10
369.5997044472
 20
351.3600705086
 30
0.0
 10
370.5172742288
 20
353.4616818468
 30
0.0
 10
371.1952716455
 20
355.6099406723
 30
0.0
 10
371.6142287139
 20
357.7429930667
 30
0.0
 10
371.7158330535
 20
359.1597146297
 30
0.0
 10
371.7158330535
 20
359.8484269226
 30
0.0
  0
SPLINE
  5
421
100
AcDbEntity
  8
7_ALL_FEATURES
100
AcDbSpline
 62
7
  6
CONTINUOUS
 70
0
 71
3
 72
14
 73
10
 74
0
 42
0.0000001
 43
0.0000001
 44
0.0000000001
 40
0.0
 40
0.0
 40
0.0
 40
0.0
 40
0.2891509538
 40
0.4227188873
 40
0.5489645457
 40
0.6685086385
 40
0.7824369895
 40
0.8922923025
 40
1.0
 40
1.0
 40
1.0
 40
1.0
 10
371.7158330535
 20
360.2019803132
 30
0.0
 10
371.7158330535
 20
361.0534427453
 30
0.0
 10
371.609581505
 20
362.3049506642
 30
0.0
 10
371.2036117809
 20
363.8728107601
 30
0.0
 10
370.7912830228
 20
364.9145657309
 30
0.0
 10
370.2675229473
 20
365.8395534225
 30
0.0
 10
369.6376497679
 20
366.6360431625
 30
0.0
 10
368.9090987738
 20
367.2927385494
 30
0.0
 10
368.3609970252
 20
367.6323443284
 30
0.0
 10
368.0773194343
 20
367.7741954802
 30
0.0
  0
SPLINE
  5
422
100
AcDbEntity
  8
7_ALL_FEATURES
100
AcDbSpline
 62
7
  6
CONTINUOUS
 70
0
 71
3
 72
9
 73
5
 74
0
 42
0.0000001
 43
0.0000001
 44
0.0000000001
 40
0.0
 40
0.0
 40
0.0
 40
0.0
 40
0.2431821775
 40
1.0
 40
1.0
 40
1.0
 40
1.0
 10
362.1982404148
 20
343.327875882
 30
0.0
 10
362.3336802658
 20
343.402010869
 30
0.0
 10
362.8846978096
 20
343.7176390866
 30
0.0
 10
363.4118236656
 20
344.0744687097
 30
0.0
 10
363.7962377774
 20
344.3627847125
 30
0.0
  0
SPLINE
  5
423
100
AcDbEntity
  8
7_ALL_FEATURES
100
AcDbSpline
 62
7
  6
CONTINUOUS
 70
0
 71
3
 72
9
 73
5
 74
0
 42
0.0000001
 43
0.0000001
 44
0.0000000001
 40
0.0
 40
0.0
 40
0.0
 40
0.0
 40
0.241364168
 40
1.0
 40
1.0
 40
1.0
 40
1.0
 10
337.7747075566
 20
379.397403778
 30
0.0
 10
337.6066607093
 20
379.3133803544
 30
0.0
 10
336.9191843125
 20
378.9478442136
 30
0.0
 10
336.2672330124
 20
378.5168217542
 30
0.0
 10
335.7948078961
 20
378.1624962574
 30
0.0
  0
SPLINE
  5
424
100
AcDbEntity
  8
7_ALL_FEATURES
100
AcDbSpline
 62
7
  6
CONTINUOUS
 70
0
 71
3
 72
12
 73
8
 74
0
 42
0.0000001
 43
0.0000001
 44
0.0000000001
 40
0.0
 40
0.0
 40
0.0
 40
0.0
 40
0.1130840501
 40
0.2275285954
 40
0.4649662132
 40
0.7209183337
 40
1.0
 40
1.0
 40
1.0
 40
1.0
 10
344.0356888739
 20
379.7950107603
 30
0.0
 10
343.8166563991
 20
379.9045365383
 30
0.0
 10
343.3597693078
 20
380.0941418271
 30
0.0
 10
342.3827970745
 20
380.3486816077
 30
0.0
 10
341.0523842525
 20
380.416313042
 30
0.0
 10
339.3964277358
 20
380.1046432294
 30
0.0
 10
338.3152702005
 20
379.6676851
 30
0.0
 10
337.7747075566
 20
379.397403778
 30
0.0
  0
SPLINE
  5
425
100
AcDbEntity
  8
7_ALL_FEATURES
100
AcDbSpline
 62
7
  6
CONTINUOUS
 70
0
 71
3
 72
27
 73
23
 74
0
 42
0.0000001
 43
0.0000001
 44
0.0000000001
 40
0.0
 40
0.0
 40
0.0
 40
0.0
 40
0.0234606371
 40
0.0472903772
 40
0.0718287843
 40
0.0973607347
 40
0.152111328
 40
0.2125654825
 40
0.2786410349
 40
0.3495146464
 40
0.4238516422
 40
0.4999975527
 40
0.5761436224
 40
0.6504811716
 40
0.7213553966
 40
0.787431862
 40
0.8478871803
 40
0.9026385537
 40
0.9281710138
 40
0.9527097064
 40
0.9765396306
 40
1.0
 40
1.0
 40
1.0
 40
1.0
 10
334.3420507911
 20
353.3369259097
 30
0.0
 10
334.0907122599
 20
353.4625963954
 30
0.0
 10
333.6036765535
 20
353.7573880198
 30
0.0
 10
332.9448916363
 20
354.3158460396
 30
0.0
 10
332.3616122422
 20
354.9859596301
 30
0.0
 10
331.6764537085
 20
356.0422783089
 30
0.0
 10
331.0478361997
 20
357.6251063415
 30
0.0
 10
330.6827871164
 20
359.7778568539
 30
0.0
 10
330.6930292563
 20
362.152356067
 30
0.0
 10
331.0760133064
 20
364.661997822
 30
0.0
 10
331.816336807
 20
367.215174744
 30
0.0
 10
332.8862863885
 20
369.7169937425
 30
0.0
 10
334.2457359634
 20
372.0740712601
 30
0.0
 10
335.8440261991
 20
374.1982990665
 30
0.0
 10
337.621936909
 20
376.0105211081
 30
0.0
 10
339.5153792488
 20
377.4434754827
 30
0.0
 10
341.4565943746
 20
378.4431996969
 30
0.0
 10
343.1000457715
 20
378.8900306573
 30
0.0
 10
344.3562070011
 20
378.9757946432
 30
0.0
 10
345.2422823122
 20
378.9112658205
 30
0.0
 10
346.0843221742
 20
378.7193335655
 30
0.0
 10
346.6124061519
 20
378.506653528
 30
0.0
 10
346.8637472881
 20
378.3809954232
 30
0.0
  0
SPLINE
  5
426
100
AcDbEntity
  8
7_ALL_FEATURES
100
AcDbSpline
 62
7
  6
CONTINUOUS
 70
0
 71
3
 72
11
 73
7
 74
0
 42
0.0000001
 43
0.0000001
 44
0.0000000001
 40
0.0
 40
0.0
 40
0.0
 40
0.0
 40
0.2344792761
 40
0.4757226274
 40
0.729510413
 40
1.0
 40
1.0
 40
1.0
 40
1.0
 10
336.8174089007
 20
352.0992382619
 30
0.0
 10
336.4737282665
 20
352.2710665215
 30
0.0
 10
335.8130246041
 20
352.698486141
 30
0.0
 10
334.9653539983
 20
353.5529753529
 30
0.0
 10
334.269113992
 20
354.6050014624
 30
0.0
 10
333.9248365792
 20
355.3969400107
 30
0.0
 10
333.7783576719
 20
355.8152887672
 30
0.0
  0
SPLINE
  5
427
100
AcDbEntity
  8
7_ALL_FEATURES
100
AcDbSpline
 62
7
  6
CONTINUOUS
 70
0
 71
3
 72
17
 73
13
 74
0
 42
0.0000001
 43
0.0000001
 44
0.0000000001
 40
0.0
 40
0.0
 40
0.0
 40
0.0
 40
0.1083628037
 40
0.1677424513
 40
0.2301790048
 40
0.3622055176
 40
0.4998556183
 40
0.6375279972
 40
0.7696182904
 40
0.8320992974
 40
0.8915292995
 40
1.0
 40
1.0
 40
1.0
 40
1.0
 10
333.7783576719
 20
355.8152887672
 30
0.0
 10
333.4671681718
 20
356.7040565956
 30
0.0
 10
333.1978726419
 20
358.1581932424
 30
0.0
 10
333.1594471566
 20
360.1593132056
 30
0.0
 10
333.3416134776
 20
362.3615310681
 30
0.0
 10
333.9845217514
 20
365.1911915379
 30
0.0
 10
335.3202166647
 20
368.4847075195
 30
0.0
 10
337.1501881681
 20
371.5320734983
 30
0.0
 10
339.0259635102
 20
373.7475219614
 30
0.0
 10
340.6772438844
 20
375.2179860945
 30
0.0
 10
342.3006691268
 20
376.39165885
 30
0.0
 10
343.6254489172
 20
377.0518574031
 30
0.0
 10
344.5234113069
 20
377.338523501
 30
0.0
  0
LINE
  5
428
100
AcDbEntity
  8
7_ALL_FEATURES
100
AcDbLine
 62
7
  6
CONTINUOUS
 10
344.5234113069
 20
377.338523501
 11
344.5425480795
 21
377.3446092912
  0
SPLINE
  5
429
100
AcDbEntity
  8
7_ALL_FEATURES
100
AcDbSpline
 62
7
  6
CONTINUOUS
 70
0
 71
3
 72
11
 73
7
 74
0
 42
0.0000001
 43
0.0000001
 44
0.0000000001
 40
0.0
 40
0.0
 40
0.0
 40
0.0
 40
0.2704933588
 40
0.524282504
 40
0.7655255255
 40
1.0
 40
1.0
 40
1.0
 40
1.0
 10
344.5425480795
 20
377.3446092912
 30
0.0
 10
344.9651515912
 20
377.4784858694
 30
0.0
 10
345.8053532744
 20
377.6782866164
 30
0.0
 10
347.0648490295
 20
377.7525934506
 30
0.0
 10
348.2571601006
 20
377.5871699725
 30
0.0
 10
348.9956017259
 20
377.3150761857
 30
0.0
 10
349.3392994074
 20
377.1432133978
 30
0.0
  0
SPLINE
  5
42A
100
AcDbEntity
  8
7_ALL_FEATURES
100
AcDbSpline
 62
7
  6
CONTINUOUS
 70
0
 71
3
 72
11
 73
7
 74
0
 42
0.0000001
 43
0.0000001
 44
0.0000000001
 40
0.0
 40
0.0
 40
0.0
 40
0.0
 40
0.234472121
 40
0.4757158777
 40
0.7295063232
 40
1.0
 40
1.0
 40
1.0
 40
1.0
 10
339.2915716404
 20
350.8621495075
 30
0.0
 10
338.9479043908
 20
351.0339997706
 30
0.0
 10
338.28729274
 20
351.4615857148
 30
0.0
 10
337.4397111997
 20
352.3161839489
 30
0.0
 10
336.7435919812
 20
353.3683432521
 30
0.0
 10
336.3993695935
 20
354.1603401489
 30
0.0
 10
336.2529371733
 20
354.5787240059
 30
0.0
  0
SPLINE
  5
42B
100
AcDbEntity
  8
7_ALL_FEATURES
100
AcDbSpline
 62
7
  6
CONTINUOUS
 70
0
 71
3
 72
16
 73
12
 74
0
 42
0.0000001
 43
0.0000001
 44
0.0000000001
 40
0.0
 40
0.0
 40
0.0
 40
0.0
 40
0.106642092
 40
0.1647570393
 40
0.2257501464
 40
0.3547566476
 40
0.4899525899
 40
0.6266615335
 40
0.7600167028
 40
0.8855773893
 40
1.0
 40
1.0
 40
1.0
 40
1.0
 10
336.2529371733
 20
354.5787240059
 30
0.0
 10
335.9651120376
 20
355.4010923736
 30
0.0
 10
335.7020601382
 20
356.738737932
 30
0.0
 10
335.6305884039
 20
358.5828895084
 30
0.0
 10
335.7481545852
 20
360.6097879825
 30
0.0
 10
336.258213243
 20
363.2306639873
 30
0.0
 10
337.3726899144
 20
366.3230281379
 30
0.0
 10
338.9399202313
 20
369.252928196
 30
0.0
 10
340.8741896452
 20
371.8586956723
 30
0.0
 10
343.0684059651
 20
373.9967119108
 30
0.0
 10
344.7167264835
 20
375.0902386484
 30
0.0
 10
345.5528821496
 20
375.5083164815
 30
0.0
  0
SPLINE
  5
42C
100
AcDbEntity
  8
7_ALL_FEATURES
100
AcDbSpline
 62
7
  6
CONTINUOUS
 70
0
 71
3
 72
12
 73
8
 74
0
 42
0.0000001
 43
0.0000001
 44
0.0000000001
 40
0.0
 40
0.0
 40
0.0
 40
0.0
 40
0.1130840501
 40
0.2275285954
 40
0.4649662132
 40
0.7209183337
 40
1.0
 40
1.0
 40
1.0
 40
1.0
 10
355.5553567996
 20
342.7302702096
 30
0.0
 10
355.7743892744
 20
342.6207444316
 30
0.0
 10
356.2312763657
 20
342.4311391428
 30
0.0
 10
357.208248599
 20
342.1765993622
 30
0.0
 10
358.538661421
 20
342.1089679278
 30
0.0
 10
360.1946179377
 20
342.4206377405
 30
0.0
 10
361.275775473
 20
342.8575958699
 30
0.0
 10
361.8163381169
 20
343.1278771919
 30
0.0
  0
SPLINE
  5
42D
100
AcDbEntity
  8
7_ALL_FEATURES
100
AcDbSpline
 62
7
  6
CONTINUOUS
 70
0
 71
3
 72
14
 73
10
 74
0
 42
0.0000001
 43
0.0000001
 44
0.0000000001
 40
0.0
 40
0.0
 40
0.0
 40
0.0
 40
0.1088447419
 40
0.2196528031
 40
0.334204393
 40
0.4539554662
 40
0.5799709909
 40
0.7129119146
 40
1.0
 40
1.0
 40
1.0
 40
1.0
 10
367.4288612725
 20
366.4772791565
 30
0.0
 10
367.1873201536
 20
366.5980599551
 30
0.0
 10
366.6776827786
 20
366.7999053165
 30
0.0
 10
365.862668503
 20
366.9711882503
 30
0.0
 10
365.0038471257
 20
367.010901712
 30
0.0
 10
364.1115939123
 20
366.9194697526
 30
0.0
 10
363.1955646512
 20
366.6987301593
 30
0.0
 10
361.9240293044
 20
366.2240919631
 30
0.0
 10
361.0132955149
 20
365.6990344366
 30
0.0
 10
360.4281089353
 20
365.2929263385
 30
0.0
  0
SPLINE
  5
42E
100
AcDbEntity
  8
7_ALL_FEATURES
100
AcDbSpline
 62
7
  6
CONTINUOUS
 70
0
 71
3
 72
15
 73
11
 74
0
 42
0.0000001
 43
0.0000001
 44
0.0000000001
 40
0.0
 40
0.0
 40
0.0
 40
0.0
 40
0.1157384397
 40
0.2391624251
 40
0.3680948182
 40
0.4998994298
 40
0.6317180267
 40
0.7606910594
 40
0.884179115
 40
1.0
 40
1.0
 40
1.0
 40
1.0
 10
330.7222345963
 20
361.6451191794
 30
0.0
 10
330.6857895793
 20
362.2998979534
 30
0.0
 10
330.7234875792
 20
363.6605788886
 30
0.0
 10
331.0688095875
 20
365.722969139
 30
0.0
 10
331.692574851
 20
367.8139485744
 30
0.0
 10
332.5733873252
 20
369.861666423
 30
0.0
 10
333.6810529115
 20
371.7963707966
 30
0.0
 10
334.9779697788
 20
373.5519893367
 30
0.0
 10
336.4195268302
 20
375.0682433578
 30
0.0
 10
337.4848989029
 20
375.9168134622
 30
0.0
 10
338.0303978561
 20
376.2816521898
 30
0.0
  0
SPLINE
  5
42F
100
AcDbEntity
  8
7_ALL_FEATURES
100
AcDbSpline
 62
7
  6
CONTINUOUS
 70
0
 71
3
 72
28
 73
24
 74
0
 42
0.0000001
 43
0.0000001
 44
0.0000000001
 40
0.0
 40
0.0
 40
0.0
 40
0.0
 40
0.0631843811
 40
0.1316013632
 40
0.2041981775
 40
0.2795081042
 40
0.3558353149
 40
0.4314000651
 40
0.5044847662
 40
0.5735829857
 40
0.6062907226
 40
0.6376217964
 40
0.6675260499
 40
0.6960042826
 40
0.7488786988
 40
0.7736894604
 40
0.7977034697
 40
0.8212356006
 40
0.8446386757
 40
0.868276005
 40
0.8924922264
 40
0.9436841526
 40
1.0
 40
1.0
 40
1.0
 40
1.0
 10
362.1698915075
 20
366.7667991007
 30
0.0
 10
361.5252143979
 20
366.4444605458
 30
0.0
 10
360.2471065859
 20
365.6399040293
 30
0.0
 10
358.4889788665
 20
364.1004197219
 30
0.0
 10
356.8664989861
 20
362.2316465183
 30
0.0
 10
355.4388608925
 20
360.1017395617
 30
0.0
 10
354.2574979171
 20
357.7881373401
 30
0.0
 10
353.3655235455
 20
355.375058303
 30
0.0
 10
352.7955697387
 20
352.9507606472
 30
0.0
 10
352.6028257017
 20
350.9572365345
 30
0.0
 10
352.635548574
 20
349.4373290429
 30
0.0
 10
352.7487271875
 20
348.3703254186
 30
0.0
 10
352.9503404382
 20
347.3651060739
 30
0.0
 10
353.3246312785
 20
346.1511287509
 30
0.0
 10
353.8723709357
 20
345.0543618295
 30
0.0
 10
354.5953725985
 20
344.1426768133
 30
0.0
 10
355.1993309941
 20
343.5753733135
 30
0.0
 10
355.8703753005
 20
343.1169631503
 30
0.0
 10
356.6016523496
 20
342.7722542021
 30
0.0
 10
357.3855831747
 20
342.5450400039
 30
0.0
 10
358.5098009965
 20
342.3983714932
 30
0.0
 10
360.0255383354
 20
342.534392735
 30
0.0
 10
361.1955030541
 20
342.9359073628
 30
0.0
 10
361.7813327186
 20
343.1995460031
 30
0.0
  0
SPLINE
  5
430
100
AcDbEntity
  8
7_ALL_FEATURES
100
AcDbSpline
 62
7
  6
CONTINUOUS
 70
0
 71
3
 72
15
 73
11
 74
0
 42
0.0000001
 43
0.0000001
 44
0.0000000001
 40
0.0
 40
0.0
 40
0.0
 40
0.0
 40
0.1097681985
 40
0.2283813617
 40
0.3541688858
 40
0.4847894128
 40
0.6175185315
 40
0.749468557
 40
0.8778109459
 40
1.0
 40
1.0
 40
1.0
 40
1.0
 10
361.8163381169
 20
367.3765884978
 30
0.0
 10
361.1711871106
 20
367.0540129947
 30
0.0
 10
359.8912751312
 20
366.2543312826
 30
0.0
 10
358.1231732961
 20
364.730083786
 30
0.0
 10
356.4824526771
 20
362.8823179188
 30
0.0
 10
355.025094216
 20
360.7740855562
 30
0.0
 10
353.8001785226
 20
358.4771202609
 30
0.0
 10
352.8495512217
 20
356.0695714155
 30
0.0
 10
352.2056985099
 20
353.6341631456
 30
0.0
 10
351.9891196122
 20
351.996129457
 30
0.0
 10
351.9429105528
 20
351.1945404852
 30
0.0
  0
SPLINE
  5
431
100
AcDbEntity
  8
7_ALL_FEATURES
100
AcDbSpline
 62
7
  6
CONTINUOUS
 70
0
 71
3
 72
13
 73
9
 74
0
 42
0.0000001
 43
0.0000001
 44
0.0000000001
 40
0.0
 40
0.0
 40
0.0
 40
0.0
 40
0.2923874561
 40
0.5532499598
 40
0.6725935656
 40
0.7856365513
 40
0.8940493126
 40
1.0
 40
1.0
 40
1.0
 40
1.0
 10
351.9429105528
 20
351.1945404852
 30
0.0
 10
351.8883935415
 20
350.2488333961
 30
0.0
 10
351.9397209954
 20
348.4444225151
 30
0.0
 10
352.4899660166
 20
346.3086875507
 30
0.0
 10
353.220959905
 20
344.8809315134
 30
0.0
 10
353.8798511466
 20
343.9880820668
 30
0.0
 10
354.6563540847
 20
343.2568528134
 30
0.0
 10
355.2483418445
 20
342.8837910599
 30
0.0
 10
355.5553567996
 20
342.7302702096
 30
0.0
  0
SPLINE
  5
432
100
AcDbEntity
  8
7_ALL_FEATURES
100
AcDbSpline
 62
7
  6
CONTINUOUS
 70
0
 71
3
 72
9
 73
5
 74
0
 42
0.0000001
 43
0.0000001
 44
0.0000000001
 40
0.0
 40
0.0
 40
0.0
 40
0.0
 40
0.2425375181
 40
1.0
 40
1.0
 40
1.0
 40
1.0
 10
362.1698915075
 20
343.3841131985
 30
0.0
 10
362.3071205335
 20
343.4527277115
 30
0.0
 10
362.8668941267
 20
343.7476219853
 30
0.0
 10
363.4023266464
 20
344.0880281277
 30
0.0
 10
363.7927927468
 20
344.3657569691
 30
0.0
  0
SPLINE
  5
433
100
AcDbEntity
  8
7_ALL_FEATURES
100
AcDbSpline
 62
7
  6
CONTINUOUS
 70
0
 71
3
 72
15
 73
11
 74
0
 42
0.0000001
 43
0.0000001
 44
0.0000000001
 40
0.0
 40
0.0
 40
0.0
 40
0.0
 40
0.1178603098
 40
0.2417125783
 40
0.36976994
 40
0.4999948525
 40
0.6302200828
 40
0.7582789585
 40
0.8821318075
 40
1.0
 40
1.0
 40
1.0
 40
1.0
 10
335.5162943745
 20
377.9484747268
 30
0.0
 10
334.9738125128
 20
377.5215506459
 30
0.0
 10
333.9191269974
 20
376.5707104681
 30
0.0
 10
332.4859944872
 20
374.9414195877
 30
0.0
 10
331.1924419295
 20
373.1098390031
 30
0.0
 10
330.0727268
 20
371.1244825008
 30
0.0
 10
329.1561885214
 20
369.0375214871
 30
0.0
 10
328.4669872625
 20
366.9037405281
 30
0.0
 10
328.023300691
 20
364.7796254494
 30
0.0
 10
327.8954304206
 20
363.365324645
 30
0.0
 10
327.879338663
 20
362.6751394937
 30
0.0
  0
SPLINE
  5
434
100
AcDbEntity
  8
7_ALL_FEATURES
100
AcDbSpline
 62
7
  6
CONTINUOUS
 70
0
 71
3
 72
26
 73
22
 74
0
 42
0.0000001
 43
0.0000001
 44
0.0000000001
 40
0.0
 40
0.0
 40
0.0
 40
0.0
 40
0.0634091337
 40
0.1210431663
 40
0.1732789833
 40
0.1978421067
 40
0.2216889039
 40
0.2451569332
 40
0.2686153575
 40
0.2924341591
 40
0.3169536108
 40
0.3690648731
 40
0.4265550518
 40
0.4898180406
 40
0.5583792885
 40
0.6311400371
 40
0.7065875943
 40
0.7829722402
 40
0.8584667791
 40
0.9313135607
 40
1.0
 40
1.0
 40
1.0
 40
1.0
 10
352.942148013
 20
350.4615844023
 30
0.0
 10
352.942148013
 20
349.7536950712
 30
0.0
 10
353.0451709504
 20
348.3983565379
 30
0.0
 10
353.554567305
 20
346.5188464796
 30
0.0
 10
354.2794583598
 20
345.1833618574
 30
0.0
 10
355.016590066
 20
344.3304400959
 30
0.0
 10
355.6290867838
 20
343.806972228
 30
0.0
 10
356.3062305844
 20
343.3933156106
 30
0.0
 10
357.0407273221
 20
343.0938932687
 30
0.0
 10
357.8246922047
 20
342.9118778095
 30
0.0
 10
358.9465450033
 20
342.8257618218
 30
0.0
 10
360.4479019076
 20
343.0366304257
 30
0.0
 10
362.2570965489
 20
343.7458463954
 30
0.0
 10
364.0531806734
 20
344.8798829811
 30
0.0
 10
365.7732378343
 20
346.3949341723
 30
0.0
 10
367.3563016161
 20
348.2344494391
 30
0.0
 10
368.7441667045
 20
350.3301140895
 30
0.0
 10
369.8852565663
 20
352.6036374896
 30
0.0
 10
370.7368777591
 20
354.9702457258
 30
0.0
 10
371.2672305127
 20
357.3408637506
 30
0.0
 10
371.397635002
 20
358.9225235782
 30
0.0
 10
371.397635002
 20
359.6893278968
 30
0.0
  0
SPLINE
  5
435
100
AcDbEntity
  8
7_ALL_FEATURES
100
AcDbSpline
 62
7
  6
CONTINUOUS
 70
0
 71
3
 72
21
 73
17
 74
0
 42
0.0000001
 43
0.0000001
 44
0.0000000001
 40
0.0
 40
0.0
 40
0.0
 40
0.0
 40
0.1445816944
 40
0.2113608533
 40
0.274484762
 40
0.3342583513
 40
0.3912230297
 40
0.446151436
 40
0.5000057466
 40
0.5538597012
 40
0.6087869421
 40
0.6657508205
 40
0.7255225311
 40
0.7886439875
 40
0.8554264692
 40
1.0
 40
1.0
 40
1.0
 40
1.0
 10
371.397635002
 20
359.6893278968
 30
0.0
 10
371.397635002
 20
360.4830158811
 30
0.0
 10
371.2986332534
 20
361.6495686228
 30
0.0
 10
370.9201826865
 20
363.1109857513
 30
0.0
 10
370.5358787859
 20
364.0820052725
 30
0.0
 10
370.0476800401
 20
364.9442316916
 30
0.0
 10
369.4606351755
 20
365.68664002
 30
0.0
 10
368.7813514937
 20
366.2988795842
 30
0.0
 10
368.0183336211
 20
366.7718271763
 30
0.0
 10
367.1821948779
 20
367.0985205493
 30
0.0
 10
366.2848714143
 20
367.2747309388
 30
0.0
 10
365.3387364777
 20
367.2989855262
 30
0.0
 10
364.3560594882
 20
367.1722637964
 30
0.0
 10
363.3486411674
 20
366.897189168
 30
0.0
 10
361.9524498383
 20
366.3231707785
 30
0.0
 10
360.959786953
 20
365.7025220357
 30
0.0
 10
360.3248613759
 20
365.2263508555
 30
0.0
  0
SPLINE
  5
436
100
AcDbEntity
  8
7_ALL_FEATURES
100
AcDbSpline
 62
7
  6
CONTINUOUS
 70
0
 71
3
 72
14
 73
10
 74
0
 42
0.0000001
 43
0.0000001
 44
0.0000000001
 40
0.0
 40
0.0
 40
0.0
 40
0.0
 40
0.2891608924
 40
0.4227176872
 40
0.5489638382
 40
0.6685092897
 40
0.7824369911
 40
0.8922923854
 40
1.0
 40
1.0
 40
1.0
 40
1.0
 10
370.6905282208
 20
359.6893278968
 30
0.0
 10
370.6905282208
 20
360.4526295474
 30
0.0
 10
370.5953132786
 20
361.574520665
 30
0.0
 10
370.2313411793
 20
362.979981122
 30
0.0
 10
369.8617335632
 20
363.9138182279
 30
0.0
 10
369.3922272485
 20
364.7430127516
 30
0.0
 10
368.8275818586
 20
365.457004833
 30
0.0
 10
368.1744913162
 20
366.0456858521
 30
0.0
 10
367.6831579477
 20
366.3501200391
 30
0.0
 10
367.4288612725
 20
366.4772791565
 30
0.0
  0
SPLINE
  5
437
100
AcDbEntity
  8
7_ALL_FEATURES
100
AcDbSpline
 62
7
  6
CONTINUOUS
 70
0
 71
3
 72
18
 73
14
 74
0
 42
0.0000001
 43
0.0000001
 44
0.0000000001
 40
0.0
 40
0.0
 40
0.0
 40
0.0
 40
0.1473897047
 40
0.2814363262
 40
0.4032584257
 40
0.4607428115
 40
0.5167013782
 40
0.5719150096
 40
0.6272240519
 40
0.683462181
 40
0.7413905759
 40
0.8644566467
 40
1.0
 40
1.0
 40
1.0
 40
1.0
 10
371.7113668316
 20
360.2035475216
 30
0.0
 10
371.6934358657
 20
360.9119966815
 30
0.0
 10
371.555409949
 20
362.266226932
 30
0.0
 10
370.9938765299
 20
364.1357704746
 30
0.0
 10
370.2284898093
 20
365.4553326717
 30
0.0
 10
369.4632068195
 20
366.2933630285
 30
0.0
 10
368.8307927044
 20
366.8061172104
 30
0.0
 10
368.1352002039
 20
367.2088965811
 30
0.0
 10
367.3836296817
 20
367.4975979623
 30
0.0
 10
366.5838285496
 20
367.6694002472
 30
0.0
 10
365.4418425761
 20
367.7423854765
 30
0.0
 10
363.9186322393
 20
367.5176795463
 30
0.0
 10
362.752804615
 20
367.0582556544
 30
0.0
 10
362.1698915075
 20
366.7667991007
 30
0.0
  0
SPLINE
  5
438
100
AcDbEntity
  8
7_ALL_FEATURES
100
AcDbSpline
 62
7
  6
CONTINUOUS
 70
0
 71
3
 72
12
 73
8
 74
0
 42
0.0000001
 43
0.0000001
 44
0.0000000001
 40
0.0
 40
0.0
 40
0.0
 40
0.0
 40
0.1130853158
 40
0.2275293592
 40
0.4649659771
 40
0.7209156878
 40
1.0
 40
1.0
 40
1.0
 40
1.0
 10
345.4502573696
 20
379.0877426952
 30
0.0
 10
345.2312094767
 20
379.1972763305
 30
0.0
 10
344.7743097645
 20
379.3869281349
 30
0.0
 10
343.7972927207
 20
379.6415394425
 30
0.0
 10
342.4668100345
 20
379.7092210328
 30
0.0
 10
340.8107469627
 20
379.397577013
 30
0.0
 10
339.7295210347
 20
378.9605969547
 30
0.0
 10
339.1889211189
 20
378.6902969968
 30
0.0
  0
SPLINE
  5
439
100
AcDbEntity
  8
7_ALL_FEATURES
100
AcDbSpline
 62
7
  6
CONTINUOUS
 70
0
 71
3
 72
12
 73
8
 74
0
 42
0.0000001
 43
0.0000001
 44
0.0000000001
 40
0.0
 40
0.0
 40
0.0
 40
0.0
 40
0.1130840501
 40
0.2275285954
 40
0.4649662132
 40
0.7209183337
 40
1.0
 40
1.0
 40
1.0
 40
1.0
 10
368.0773194343
 20
367.7741954802
 30
0.0
 10
367.8582869594
 20
367.8837212581
 30
0.0
 10
367.4013998681
 20
368.0733265469
 30
0.0
 10
366.4244276348
 20
368.3278663276
 30
0.0
 10
365.0940148129
 20
368.3954977619
 30
0.0
 10
363.4380582961
 20
368.0838279492
 30
0.0
 10
362.3569007608
 20
367.6468698198
 30
0.0
 10
361.8163381169
 20
367.3765884978
 30
0.0
  0
SPLINE
  5
43A
100
AcDbEntity
  8
7_ALL_FEATURES
100
AcDbSpline
 62
7
  6
CONTINUOUS
 70
0
 71
3
 72
13
 73
9
 74
0
 42
0.0000001
 43
0.0000001
 44
0.0000000001
 40
0.0
 40
0.0
 40
0.0
 40
0.0
 40
0.1024700057
 40
0.2096739995
 40
0.3231625632
 40
0.4439021856
 40
0.7078618117
 40
1.0
 40
1.0
 40
1.0
 40
1.0
 10
346.8297721699
 20
378.2540660506
 30
0.0
 10
346.4796299253
 20
378.3413175046
 30
0.0
 10
345.7438765359
 20
378.4489634367
 30
0.0
 10
344.601324466
 20
378.4074539121
 30
0.0
 10
343.4179317333
 20
378.1689870716
 30
0.0
 10
341.760924014
 20
377.5774660543
 30
0.0
 10
339.6933505976
 20
376.3472145057
 30
0.0
 10
338.2328219058
 20
375.025515851
 30
0.0
 10
337.527972474
 20
374.2761478622
 30
0.0
  0
SPLINE
  5
43B
100
AcDbEntity
  8
7_ALL_FEATURES
100
AcDbSpline
 62
7
  6
CONTINUOUS
 70
0
 71
3
 72
17
 73
13
 74
0
 42
0.0000001
 43
0.0000001
 44
0.0000000001
 40
0.0
 40
0.0
 40
0.0
 40
0.0
 40
0.138342875
 40
0.2812142338
 40
0.4237158725
 40
0.5609935073
 40
0.6888537634
 40
0.8044526875
 40
0.8574550751
 40
0.9073952662
 40
0.9546930795
 40
1.0
 40
1.0
 40
1.0
 40
1.0
 10
337.527972474
 20
374.2761478622
 30
0.0
 10
336.8003428262
 20
373.5025608503
 30
0.0
 10
335.4513422089
 20
371.803956106
 30
0.0
 10
333.8178446319
 20
368.9790307908
 30
0.0
 10
332.6050000655
 20
365.9573750358
 30
0.0
 10
331.8786508396
 20
362.9002991299
 30
0.0
 10
331.6777253473
 20
359.9700740464
 30
0.0
 10
331.970236708
 20
357.6916853242
 30
0.0
 10
332.496644033
 20
356.0939028104
 30
0.0
 10
333.0096984371
 20
355.0560247792
 30
0.0
 10
333.6458268014
 20
354.1597709639
 30
0.0
 10
334.1556351657
 20
353.6576177852
 30
0.0
 10
334.4255425403
 20
353.4382541676
 30
0.0
  0
SPLINE
  5
43C
100
AcDbEntity
  8
7_ALL_FEATURES
100
AcDbSpline
 62
7
  6
CONTINUOUS
 70
0
 71
3
 72
9
 73
5
 74
0
 42
0.0000001
 43
0.0000001
 44
0.0000000001
 40
0.0
 40
0.0
 40
0.0
 40
0.0
 40
0.2490139398
 40
1.0
 40
1.0
 40
1.0
 40
1.0
 10
350.399281194
 20
376.6132284702
 30
0.0
 10
350.3130787447
 20
376.6563254203
 30
0.0
 10
349.9622046276
 20
376.8198665361
 30
0.0
 10
349.5932375761
 20
376.9443128487
 30
0.0
 10
349.311302636
 20
377.0149642768
 30
0.0
  0
SPLINE
  5
43D
100
AcDbEntity
  8
7_ALL_FEATURES
100
AcDbSpline
 62
7
  6
CONTINUOUS
 70
0
 71
3
 72
23
 73
19
 74
0
 42
0.0000001
 43
0.0000001
 44
0.0000000001
 40
0.0
 40
0.0
 40
0.0
 40
0.0
 40
0.0475772516
 40
0.0988551791
 40
0.1549679251
 40
0.2162463558
 40
0.2823627777
 40
0.3524991636
 40
0.4254950386
 40
0.499973683
 40
0.5744537383
 40
0.6474536529
 40
0.717596419
 40
0.7837212638
 40
0.8450092891
 40
0.9011315164
 40
0.9524174954
 40
1.0
 40
1.0
 40
1.0
 40
1.0
 10
349.311302636
 20
377.0149642768
 30
0.0
 10
348.7943561588
 20
377.1445083726
 30
0.0
 10
347.6762044089
 20
377.2549820713
 30
0.0
 10
345.9470876486
 20
376.98196978
 30
0.0
 10
344.1733217799
 20
376.2975496449
 30
0.0
 10
342.4073735663
 20
375.2284412643
 30
0.0
 10
340.700073274
 20
373.8099079861
 30
0.0
 10
339.1028882982
 20
372.0863599338
 30
0.0
 10
337.6648883309
 20
370.1116286154
 30
0.0
 10
336.430878999
 20
367.947558181
 30
0.0
 10
335.4395383245
 20
365.6620715121
 30
0.0
 10
334.7220268901
 20
363.3268560434
 30
0.0
 10
334.3009457213
 20
361.014867506
 30
0.0
 10
334.1899091161
 20
358.7976666812
 30
0.0
 10
334.3935956978
 20
356.7430780292
 30
0.0
 10
334.9097474516
 20
354.9129423595
 30
0.0
 10
335.728269086
 20
353.3652736389
 30
0.0
 10
336.4872211318
 20
352.536557433
 30
0.0
 10
336.9008791731
 20
352.2004546548
 30
0.0
  0
SPLINE
  5
43E
100
AcDbEntity
  8
7_ALL_FEATURES
100
AcDbSpline
 62
7
  6
CONTINUOUS
 70
0
 71
3
 72
15
 73
11
 74
0
 42
0.0000001
 43
0.0000001
 44
0.0000000001
 40
0.0
 40
0.0
 40
0.0
 40
0.0
 40
0.1157785164
 40
0.2392370887
 40
0.3681948543
 40
0.5000121276
 40
0.6318276249
 40
0.7607804991
 40
0.8842315477
 40
1.0
 40
1.0
 40
1.0
 40
1.0
 10
335.6715700188
 20
359.1777518974
 30
0.0
 10
335.6355459473
 20
359.8329909706
 30
0.0
 10
335.6740836649
 20
361.1945016679
 30
0.0
 10
336.020820033
 20
363.2579082713
 30
0.0
 10
336.6461016143
 20
365.3495917745
 30
0.0
 10
337.5285071176
 20
367.397618063
 30
0.0
 10
338.6377431341
 20
369.3321770387
 30
0.0
 10
339.9361103246
 20
371.0871735746
 30
0.0
 10
341.3789317382
 20
372.6022970234
 30
0.0
 10
342.4450721195
 20
373.4498131199
 30
0.0
 10
342.9909129122
 20
373.8139819584
 30
0.0
  0
SPLINE
  5
43F
100
AcDbEntity
  8
7_ALL_FEATURES
100
AcDbSpline
 62
7
  6
CONTINUOUS
 70
0
 71
3
 72
22
 73
18
 74
0
 42
0.0000001
 43
0.0000001
 44
0.0000000001
 40
0.0
 40
0.0
 40
0.0
 40
0.0
 40
0.059835279
 40
0.1237572893
 40
0.191228337
 40
0.2614766663
 40
0.4063314577
 40
0.4790057832
 40
0.5503777776
 40
0.6194585502
 40
0.6853845955
 40
0.7474819799
 40
0.8053399434
 40
0.8588955764
 40
0.9085234601
 40
0.9551027787
 40
1.0
 40
1.0
 40
1.0
 40
1.0
 10
339.1889211189
 20
378.6902969968
 30
0.0
 10
338.6638065746
 20
378.4277397246
 30
0.0
 10
337.6188925181
 20
377.7998656788
 30
0.0
 10
336.1456355106
 20
376.6311858185
 30
0.0
 10
334.7435185124
 20
375.2293505073
 30
0.0
 10
332.9958610402
 20
373.0722053585
 30
0.0
 10
331.5478155124
 20
370.6242922991
 30
0.0
 10
330.4547136118
 20
368.0056694248
 30
0.0
 10
329.835991789
 20
366.0043830665
 30
0.0
 10
329.434201052
 20
364.0160121867
 30
0.0
 10
329.2586769878
 20
362.0857954456
 30
0.0
 10
329.3139236096
 20
360.2577667637
 30
0.0
 10
329.5997814229
 20
358.5731450829
 30
0.0
 10
330.1119026421
 20
357.0700075308
 30
0.0
 10
330.8427451559
 20
355.783374923
 30
0.0
 10
331.779085832
 20
354.7474498911
 30
0.0
 10
332.5336001277
 20
354.241154339
 30
0.0
 10
332.9276106139
 20
354.0441300207
 30
0.0
  0
SPLINE
  5
440
100
AcDbEntity
  8
7_ALL_FEATURES
100
AcDbSpline
 62
7
  6
CONTINUOUS
 70
0
 71
3
 72
19
 73
15
 74
0
 42
0.0000001
 43
0.0000001
 44
0.0000000001
 40
0.0
 40
0.0
 40
0.0
 40
0.0
 40
0.0447548243
 40
0.0909329636
 40
0.1397289893
 40
0.1919712994
 40
0.248092135
 40
0.308164872
 40
0.3719657648
 40
0.4390368486
 40
0.5801705908
 40
0.7253588027
 40
0.8674921913
 40
1.0
 40
1.0
 40
1.0
 40
1.0
 10
356.2038149613
 20
344.0271865332
 30
0.0
 10
356.5278775184
 20
343.8651415174
 30
0.0
 10
357.2273627418
 20
343.61214156
 30
0.0
 10
358.3585538353
 20
343.4741656063
 30
0.0
 10
359.5536546348
 20
343.5740407049
 30
0.0
 10
360.7878654389
 20
343.9063693184
 30
0.0
 10
362.0382707284
 20
344.462077064
 30
0.0
 10
363.281675668
 20
345.2291665887
 30
0.0
 10
364.4949667766
 20
346.1923063171
 30
0.0
 10
366.0675477145
 20
347.7385273626
 30
0.0
 10
367.8035474006
 20
350.0345259485
 30
0.0
 10
369.399213104
 20
353.1327033725
 30
0.0
 10
370.4254123036
 20
356.3898673007
 30
0.0
 10
370.6905282208
 20
358.6165919314
 30
0.0
 10
370.6905282208
 20
359.6893278968
 30
0.0
  0
SPLINE
  5
441
100
AcDbEntity
  8
7_ALL_FEATURES
100
AcDbSpline
 62
7
  6
CONTINUOUS
 70
0
 71
3
 72
15
 73
11
 74
0
 42
0.0000001
 43
0.0000001
 44
0.0000000001
 40
0.0
 40
0.0
 40
0.0
 40
0.0
 40
0.1158289059
 40
0.2393187672
 40
0.3682885751
 40
0.5001013555
 40
0.6319000565
 40
0.7608289132
 40
0.8842541701
 40
1.0
 40
1.0
 40
1.0
 40
1.0
 10
333.1959257397
 20
360.4292264244
 30
0.0
 10
333.160702641
 20
361.0843339707
 30
0.0
 10
333.2006227789
 20
362.4452913973
 30
0.0
 10
333.5488673801
 20
364.5074807139
 30
0.0
 10
334.1751156319
 20
366.5974935656
 30
0.0
 10
335.0579585613
 20
368.6435621965
 30
0.0
 10
336.1671444326
 20
370.5760429426
 30
0.0
 10
337.4650240268
 20
372.3290172496
 30
0.0
 10
338.9070046555
 20
373.8423394073
 30
0.0
 10
339.9723714413
 20
374.6888396576
 30
0.0
 10
340.5177871363
 20
375.0525855914
 30
0.0
  0
ENDSEC
  0
SECTION
  2
OBJECTS
  0
DICTIONARY
  5
442
100
AcDbDictionary
  3
ACAD_GROUP
350
443
  3
ACAD_MLINESTYLE
350
444
  0
DICTIONARY
  5
443
102
{ACAD_REACTORS
330
442
102
}
100
AcDbDictionary
  0
DICTIONARY
  5
444
102
{ACAD_REACTORS
330
442
102
}
100
AcDbDictionary
  3
STANDARD
350
445
  0
MLINESTYLE
  5
445
102
{ACAD_REACTORS
330
444
102
}
100
AcDbMlineStyle
  2
STANDARD
 70
0
  3

 62
256
 51
90.0
 52
90.0
 71
2
 49
0.5
 62
256
  6
BYLAYER
 49
-0.5
 62
256
  6
BYLAYER
  0
ENDSEC
  0
EOF
