  0
SECTION
  2
HEADER
  9
$ACADVER
  1
AC1015
  9
$ACADMAINTVER
 70
     6
  9
$DWGCODEPAGE
  3
ANSI_1252
  9
$INSBASE
 10
0.0
 20
0.0
 30
0.0
  9
$EXTMIN
 10
0.0
 20
0.0
 30
0.0
  9
$EXTMAX
 10
420.0
 20
297.0
 30
0.0
  9
$LIMMIN
 10
0.0
 20
0.0
  9
$LIMMAX
 10
420.0
 20
297.0
  9
$ORTHOMODE
 70
     0
  9
$REGENMODE
 70
     1
  9
$FILLMODE
 70
     1
  9
$QTEXTMODE
 70
     0
  9
$MIRRTEXT
 70
     1
  9
$LTSCALE
 40
23.1
  9
$ATTMODE
 70
     1
  9
$TEXTSIZE
 40
0.2
  9
$TRACEWID
 40
0.05
  9
$TEXTSTYLE
  7
STANDARD
  9
$CLAYER
  8
0
  9
$CELTYPE
  6
BYLAYER
  9
$CECOLOR
 62
   256
  9
$CELTSCALE
 40
1.0
  9
$DISPSILH
 70
     0
  9
$DIMSCALE
 40
1.0
  9
$DIMASZ
 40
2.5
  9
$DIMEXO
 40
2.625
  9
$DIMDLI
 40
15.96
  9
$DIMRND
 40
0.0
  9
$DIMDLE
 40
0.0
  9
$DIMEXE
 40
7.56
  9
$DIMTP
 40
0.01
  9
$DIMTM
 40
0.01
  9
$DIMTXT
 40
3.0
  9
$DIMCEN
 40
3.78
  9
$DIMTSZ
 40
0.0
  9
$DIMTOL
 70
     1
  9
$DIMLIM
 70
     0
  9
$DIMTIH
 70
     1
  9
$DIMTOH
 70
     1
  9
$DIMSE1
 70
     0
  9
$DIMSE2
 70
     0
  9
$DIMTAD
 70
     0
  9
$DIMZIN
 70
     0
  9
$DIMBLK
  1
CLOSED
  9
$DIMASO
 70
     1
  9
$DIMSHO
 70
     1
  9
$DIMPOST
  1

  9
$DIMAPOST
  1

  9
$DIMALT
 70
     0
  9
$DIMALTD
 70
     2
  9
$DIMALTF
 40
25.4
  9
$DIMLFAC
 40
1.0
  9
$DIMTOFL
 70
     0
  9
$DIMTVP
 40
0.0
  9
$DIMTIX
 70
     0
  9
$DIMSOXD
 70
     0
  9
$DIMSAH
 70
     0
  9
$DIMBLK1
  1

  9
$DIMBLK2
  1

  9
$DIMSTYLE
  2
STANDARD
  9
$DIMCLRD
 70
     0
  9
$DIMCLRE
 70
     0
  9
$DIMCLRT
 70
     0
  9
$DIMTFAC
 40
1.0
  9
$DIMGAP
 40
0.09
  9
$DIMJUST
 70
     0
  9
$DIMSD1
 70
     0
  9
$DIMSD2
 70
     0
  9
$DIMTOLJ
 70
     1
  9
$DIMTZIN
 70
     0
  9
$DIMALTZ
 70
     0
  9
$DIMALTTZ
 70
     0
  9
$DIMUPT
 70
     0
  9
$DIMDEC
 70
     4
  9
$DIMTDEC
 70
     4
  9
$DIMALTU
 70
     2
  9
$DIMALTTD
 70
     2
  9
$DIMTXSTY
  7
STANDARD
  9
$DIMAUNIT
 70
     0
  9
$DIMADEC
 70
     0
  9
$DIMALTRND
 40
0.0
  9
$DIMAZIN
 70
     0
  9
$DIMDSEP
 70
    46
  9
$DIMATFIT
 70
     3
  9
$DIMFRAC
 70
     0
  9
$DIMLDRBLK
  1

  9
$DIMLUNIT
 70
     2
  9
$DIMLWD
 70
    -2
  9
$DIMLWE
 70
    -2
  9
$DIMTMOVE
 70
     0
  9
$LUNITS
 70
     2
  9
$LUPREC
 70
     4
  9
$SKETCHINC
 40
0.1
  9
$FILLETRAD
 40
0.5
  9
$AUNITS
 70
     0
  9
$AUPREC
 70
     0
  9
$MENU
  1
.
  9
$ELEVATION
 40
0.0
  9
$PELEVATION
 40
0.0
  9
$THICKNESS
 40
0.0
  9
$LIMCHECK
 70
     0
  9
$CHAMFERA
 40
0.0
  9
$CHAMFERB
 40
0.0
  9
$CHAMFERC
 40
0.0
  9
$CHAMFERD
 40
0.0
  9
$SKPOLY
 70
     0
  9
$TDCREATE
 40
2447893.041666667
  9
$TDUCREATE
 40
0.0
  9
$TDUPDATE
 40
2456745.68548022
  9
$TDUUPDATE
 40
2456745.643813553
  9
$TDINDWG
 40
0.0003084375
  9
$TDUSRTIMER
 40
2456745.643505231
  9
$USRTIMER
 70
     1
  9
$ANGBASE
 50
0.0
  9
$ANGDIR
 70
     0
  9
$PDMODE
 70
     3
  9
$PDSIZE
 40
0.3125
  9
$PLINEWID
 40
0.0
  9
$SPLFRAME
 70
     0
  9
$SPLINETYPE
 70
     6
  9
$SPLINESEGS
 70
     8
  9
$HANDSEED
  5
3F7
  9
$SURFTAB1
 70
     6
  9
$SURFTAB2
 70
     6
  9
$SURFTYPE
 70
     6
  9
$SURFU
 70
     6
  9
$SURFV
 70
     6
  9
$UCSBASE
  2

  9
$UCSNAME
  2

  9
$UCSORG
 10
0.0
 20
0.0
 30
0.0
  9
$UCSXDIR
 10
1.0
 20
0.0
 30
0.0
  9
$UCSYDIR
 10
0.0
 20
1.0
 30
0.0
  9
$UCSORTHOREF
  2

  9
$UCSORTHOVIEW
 70
     0
  9
$UCSORGTOP
 10
0.0
 20
0.0
 30
0.0
  9
$UCSORGBOTTOM
 10
0.0
 20
0.0
 30
0.0
  9
$UCSORGLEFT
 10
0.0
 20
0.0
 30
0.0
  9
$UCSORGRIGHT
 10
0.0
 20
0.0
 30
0.0
  9
$UCSORGFRONT
 10
0.0
 20
0.0
 30
0.0
  9
$UCSORGBACK
 10
0.0
 20
0.0
 30
0.0
  9
$PUCSBASE
  2

  9
$PUCSNAME
  2

  9
$PUCSORG
 10
0.0
 20
0.0
 30
0.0
  9
$PUCSXDIR
 10
1.0
 20
0.0
 30
0.0
  9
$PUCSYDIR
 10
0.0
 20
1.0
 30
0.0
  9
$PUCSORTHOREF
  2

  9
$PUCSORTHOVIEW
 70
     0
  9
$PUCSORGTOP
 10
0.0
 20
0.0
 30
0.0
  9
$PUCSORGBOTTOM
 10
0.0
 20
0.0
 30
0.0
  9
$PUCSORGLEFT
 10
0.0
 20
0.0
 30
0.0
  9
$PUCSORGRIGHT
 10
0.0
 20
0.0
 30
0.0
  9
$PUCSORGFRONT
 10
0.0
 20
0.0
 30
0.0
  9
$PUCSORGBACK
 10
0.0
 20
0.0
 30
0.0
  9
$USERI1
 70
     0
  9
$USERI2
 70
     0
  9
$USERI3
 70
     0
  9
$USERI4
 70
     0
  9
$USERI5
 70
     0
  9
$USERR1
 40
0.0
  9
$USERR2
 40
0.0
  9
$USERR3
 40
0.0
  9
$USERR4
 40
0.0
  9
$USERR5
 40
0.0
  9
$WORLDVIEW
 70
     1
  9
$SHADEDGE
 70
     3
  9
$SHADEDIF
 70
    70
  9
$TILEMODE
 70
     1
  9
$MAXACTVP
 70
    64
  9
$PINSBASE
 10
0.0
 20
0.0
 30
0.0
  9
$PLIMCHECK
 70
     0
  9
$PEXTMIN
 10
1.000000000000000E+20
 20
1.000000000000000E+20
 30
1.000000000000000E+20
  9
$PEXTMAX
 10
-1.000000000000000E+20
 20
-1.000000000000000E+20
 30
-1.000000000000000E+20
  9
$PLIMMIN
 10
0.0
 20
0.0
  9
$PLIMMAX
 10
420.0
 20
297.0
  9
$UNITMODE
 70
     0
  9
$VISRETAIN
 70
     1
  9
$PLINEGEN
 70
     0
  9
$PSLTSCALE
 70
     1
  9
$TREEDEPTH
 70
  3020
  9
$CMLSTYLE
  2

  9
$CMLJUST
 70
     0
  9
$CMLSCALE
 40
1.0
  9
$PROXYGRAPHICS
 70
     1
  9
$MEASUREMENT
 70
     1
  9
$CELWEIGHT
370
    -1
  9
$ENDCAPS
280
     0
  9
$JOINSTYLE
280
     0
  9
$LWDISPLAY
290
     0
  9
$INSUNITS
 70
     4
  9
$HYPERLINKBASE
  1

  9
$STYLESHEET
  1

  9
$XEDIT
290
     1
  9
$CEPSNTYPE
380
     0
  9
$PSTYLEMODE
290
     1
  9
$FINGERPRINTGUID
  2
{57E4C260-8379-4A61-90D6-C382D9751854}
  9
$VERSIONGUID
  2
{FAEB1C32-E019-11D5-929B-00C0DF256EC4}
  9
$EXTNAMES
290
     1
  9
$PSVPSCALE
 40
0.0
  9
$OLESTARTUP
290
     0
  0
ENDSEC
  0
SECTION
  2
CLASSES
  0
CLASS
  1
ACDBDICTIONARYWDFLT
  2
AcDbDictionaryWithDefault
  3
ObjectDBX Classes
 90
        0
280
     0
281
     0
  0
CLASS
  1
ACDBPLACEHOLDER
  2
AcDbPlaceHolder
  3
ObjectDBX Classes
 90
        0
280
     0
281
     0
  0
CLASS
  1
LAYOUT
  2
AcDbLayout
  3
ObjectDBX Classes
 90
        0
280
     0
281
     0
  0
CLASS
  1
TABLESTYLE
  2
AcDbTableStyle
  3
ObjectDBX Classes
 90
     4095
280
     0
281
     0
  0
CLASS
  1
ACAD_TABLE
  2
AcDbTable
  3
ObjectDBX Classes
 90
     1025
280
     0
281
     1
  0
CLASS
  1
SCALE
  2
AcDbScale
  3
ObjectDBX Classes
 90
     1153
280
     0
281
     0
  0
CLASS
  1
TABLEGEOMETRY
  2
AcDbTableGeometry
  3
ObjectDBX Classes
 90
     1152
280
     0
281
     0
  0
CLASS
  1
VISUALSTYLE
  2
AcDbVisualStyle
  3
ObjectDBX Classes
 90
     4095
280
     0
281
     0
  0
CLASS
  1
MATERIAL
  2
AcDbMaterial
  3
ObjectDBX Classes
 90
     1153
280
     0
281
     0
  0
CLASS
  1
SUN
  2
AcDbSun
  3
SCENEOE
 90
     1153
280
     0
281
     0
  0
CLASS
  1
RASTERVARIABLES
  2
AcDbRasterVariables
  3
ISM
 90
        0
280
     0
281
     0
  0
ENDSEC
  0
SECTION
  2
TABLES
  0
TABLE
  2
VPORT
  5
8
330
0
100
AcDbSymbolTable
 70
     1
  0
VPORT
  5
1F4
330
8
100
AcDbSymbolTableRecord
100
AcDbViewportTableRecord
  2
*ACTIVE
 70
     0
 10
0.0
 20
0.0
 11
1.0
 21
1.0
 12
210.0
 22
148.5
 13
0.0
 23
0.0
 14
1.0
 24
1.0
 15
0.0
 25
0.0
 16
0.0
 26
0.0
 36
1.0
 17
0.0
 27
0.0
 37
0.0
 40
297.0
 41
1.4141414141
 42
50.0
 43
0.0
 44
0.0
 50
0.0
 51
0.0
 71
     0
 72
   100
 73
     1
 74
     1
 75
     0
 76
     0
 77
     0
 78
     0
281
     0
 65
     1
110
0.0
120
0.0
130
0.0
111
1.0
121
0.0
131
0.0
112
0.0
122
1.0
132
0.0
 79
     0
146
0.0
  0
ENDTAB
  0
TABLE
  2
LTYPE
  5
5
330
0
100
AcDbSymbolTable
 70
     6
  0
LTYPE
  5
14
330
5
100
AcDbSymbolTableRecord
100
AcDbLinetypeTableRecord
  2
BYBLOCK
 70
     0
  3

 72
    65
 73
     0
 40
0.0
  0
LTYPE
  5
15
330
5
100
AcDbSymbolTableRecord
100
AcDbLinetypeTableRecord
  2
BYLAYER
 70
     0
  3

 72
    65
 73
     0
 40
0.0
  0
LTYPE
  5
16
330
5
100
AcDbSymbolTableRecord
100
AcDbLinetypeTableRecord
  2
CONTINUOUS
 70
     0
  3
Solid line
 72
    65
 73
     0
 40
0.0
  0
LTYPE
  5
1F5
330
5
100
AcDbSymbolTableRecord
100
AcDbLinetypeTableRecord
  2
CENTER
 70
     0
  3
____ _ ____ _ ____ _ ____ _ ____ _ ____ _ ____
 72
    65
 73
     4
 40
0.6
 49
0.375
 74
     0
 49
-0.075
 74
     0
 49
0.075
 74
     0
 49
-0.075
 74
     0
  0
LTYPE
  5
1F6
330
5
100
AcDbSymbolTableRecord
100
AcDbLinetypeTableRecord
  2
HIDDEN
 70
     0
  3
- - - - - - - - - - - - - - - - - - - -
 72
    65
 73
     2
 40
0.2
 49
0.1
 74
     0
 49
-0.1
 74
     0
  0
LTYPE
  5
1F7
330
5
100
AcDbSymbolTableRecord
100
AcDbLinetypeTableRecord
  2
PHANTOM
 70
     0
  3
_____ _ _ _____ _ _ _____ _ _ _____
 72
    65
 73
     6
 40
0.8
 49
0.45
 74
     0
 49
-0.05
 74
     0
 49
0.1
 74
     0
 49
-0.05
 74
     0
 49
0.1
 74
     0
 49
-0.05
 74
     0
  0
LTYPE
  5
1F8
330
5
100
AcDbSymbolTableRecord
100
AcDbLinetypeTableRecord
  2
DOT
 70
     0
  3
. . . . . . . . . . . . . . . . . . . .
 72
    65
 73
     2
 40
0.2
 49
0.1
 74
     0
 49
-0.1
 74
     0
  0
LTYPE
  5
1F9
330
5
100
AcDbSymbolTableRecord
100
AcDbLinetypeTableRecord
  2
DASHED
 70
     0
  3
- - - - - - - - - - - - - - - - - - - -
 72
    65
 73
     2
 40
0.2
 49
0.1
 74
     0
 49
-0.1
 74
     0
  0
ENDTAB
  0
TABLE
  2
LAYER
  5
2
330
0
100
AcDbSymbolTable
 70
    35
  0
LAYER
  5
10
330
2
100
AcDbSymbolTableRecord
100
AcDbLayerTableRecord
  2
0
 70
     0
 62
     7
  6
CONTINUOUS
370
    -3
390
F
  0
LAYER
  5
1FA
330
2
100
AcDbSymbolTableRecord
100
AcDbLayerTableRecord
  2
DEFAULT_1
 70
     0
 62
     7
  6
CENTER
370
    -3
390
F
  0
LAYER
  5
1FB
330
2
100
AcDbSymbolTableRecord
100
AcDbLayerTableRecord
  2
DEFAULT_2
 70
     0
 62
     8
  6
HIDDEN
370
    -3
390
F
  0
LAYER
  5
1FC
330
2
100
AcDbSymbolTableRecord
100
AcDbLayerTableRecord
  2
DEFAULT_3
 70
     0
 62
     7
  6
PHANTOM
370
    -3
390
F
  0
LAYER
  5
1FD
330
2
100
AcDbSymbolTableRecord
100
AcDbLayerTableRecord
  2
01_ALL_DTM_PLN
 70
     0
 62
     7
  6
CONTINUOUS
370
    -3
390
F
  0
LAYER
  5
1FE
330
2
100
AcDbSymbolTableRecord
100
AcDbLayerTableRecord
  2
01__ASM_ALL_DTM_PLN
 70
     0
 62
     7
  6
CONTINUOUS
370
    -3
390
F
  0
LAYER
  5
1FF
330
2
100
AcDbSymbolTableRecord
100
AcDbLayerTableRecord
  2
01__ASM_DEF_DTM_PLN
 70
     0
 62
     7
  6
CONTINUOUS
370
    -3
390
F
  0
LAYER
  5
200
330
2
100
AcDbSymbolTableRecord
100
AcDbLayerTableRecord
  2
01___PRT_ALL_DTM_PLN
 70
     0
 62
     7
  6
CONTINUOUS
370
    -3
390
F
  0
LAYER
  5
201
330
2
100
AcDbSymbolTableRecord
100
AcDbLayerTableRecord
  2
01___PRT_DEF_DTM_PLN
 70
     0
 62
     7
  6
CONTINUOUS
370
    -3
390
F
  0
LAYER
  5
202
330
2
100
AcDbSymbolTableRecord
100
AcDbLayerTableRecord
  2
02_ALL_AXES
 70
     0
 62
     7
  6
CONTINUOUS
370
    -3
390
F
  0
LAYER
  5
203
330
2
100
AcDbSymbolTableRecord
100
AcDbLayerTableRecord
  2
02__ASM_ALL_AXES
 70
     0
 62
     7
  6
CONTINUOUS
370
    -3
390
F
  0
LAYER
  5
204
330
2
100
AcDbSymbolTableRecord
100
AcDbLayerTableRecord
  2
02___PRT_ALL_AXES
 70
     0
 62
     7
  6
CONTINUOUS
370
    -3
390
F
  0
LAYER
  5
205
330
2
100
AcDbSymbolTableRecord
100
AcDbLayerTableRecord
  2
03_ALL_CURVES
 70
     0
 62
     7
  6
CONTINUOUS
370
    -3
390
F
  0
LAYER
  5
206
330
2
100
AcDbSymbolTableRecord
100
AcDbLayerTableRecord
  2
03__ASM_ALL_CURVES
 70
     0
 62
     7
  6
CONTINUOUS
370
    -3
390
F
  0
LAYER
  5
207
330
2
100
AcDbSymbolTableRecord
100
AcDbLayerTableRecord
  2
03___PRT_ALL_CURVES
 70
     0
 62
     7
  6
CONTINUOUS
370
    -3
390
F
  0
LAYER
  5
208
330
2
100
AcDbSymbolTableRecord
100
AcDbLayerTableRecord
  2
04_ALL_DTM_PNT
 70
     0
 62
     7
  6
CONTINUOUS
370
    -3
390
F
  0
LAYER
  5
209
330
2
100
AcDbSymbolTableRecord
100
AcDbLayerTableRecord
  2
04__ASM_ALL_DTM_PNT
 70
     0
 62
     7
  6
CONTINUOUS
370
    -3
390
F
  0
LAYER
  5
20A
330
2
100
AcDbSymbolTableRecord
100
AcDbLayerTableRecord
  2
04___PRT_ALL_DTM_PNT
 70
     0
 62
     7
  6
CONTINUOUS
370
    -3
390
F
  0
LAYER
  5
20B
330
2
100
AcDbSymbolTableRecord
100
AcDbLayerTableRecord
  2
05_ALL_DTM_CSYS
 70
     0
 62
     7
  6
CONTINUOUS
370
    -3
390
F
  0
LAYER
  5
20C
330
2
100
AcDbSymbolTableRecord
100
AcDbLayerTableRecord
  2
05__ASM_ALL_DTM_CSYS
 70
     0
 62
     7
  6
CONTINUOUS
370
    -3
390
F
  0
LAYER
  5
20D
330
2
100
AcDbSymbolTableRecord
100
AcDbLayerTableRecord
  2
05__ASM_DEF_DTM_CSYS
 70
     0
 62
     7
  6
CONTINUOUS
370
    -3
390
F
  0
LAYER
  5
20E
330
2
100
AcDbSymbolTableRecord
100
AcDbLayerTableRecord
  2
05___PRT_ALL_DTM_CSYS
 70
     0
 62
     7
  6
CONTINUOUS
370
    -3
390
F
  0
LAYER
  5
20F
330
2
100
AcDbSymbolTableRecord
100
AcDbLayerTableRecord
  2
05___PRT_DEF_DTM_CSYS
 70
     0
 62
     7
  6
CONTINUOUS
370
    -3
390
F
  0
LAYER
  5
210
330
2
100
AcDbSymbolTableRecord
100
AcDbLayerTableRecord
  2
06_ALL_SURFS
 70
     0
 62
     7
  6
CONTINUOUS
370
    -3
390
F
  0
LAYER
  5
211
330
2
100
AcDbSymbolTableRecord
100
AcDbLayerTableRecord
  2
06__ASM_ALL_SURFS
 70
     0
 62
     7
  6
CONTINUOUS
370
    -3
390
F
  0
LAYER
  5
212
330
2
100
AcDbSymbolTableRecord
100
AcDbLayerTableRecord
  2
06___PRT_ALL_SURFS
 70
     0
 62
     7
  6
CONTINUOUS
370
    -3
390
F
  0
LAYER
  5
213
330
2
100
AcDbSymbolTableRecord
100
AcDbLayerTableRecord
  2
07__ASM_ALL_SKELETONS
 70
     0
 62
     7
  6
CONTINUOUS
370
    -3
390
F
  0
LAYER
  5
214
330
2
100
AcDbSymbolTableRecord
100
AcDbLayerTableRecord
  2
1_ALL_PLANES
 70
     0
 62
     7
  6
CONTINUOUS
370
    -3
390
F
  0
LAYER
  5
215
330
2
100
AcDbSymbolTableRecord
100
AcDbLayerTableRecord
  2
2_ALL_CSYS
 70
     0
 62
     7
  6
CONTINUOUS
370
    -3
390
F
  0
LAYER
  5
216
330
2
100
AcDbSymbolTableRecord
100
AcDbLayerTableRecord
  2
3_ALL_AXES
 70
     0
 62
     7
  6
CONTINUOUS
370
    -3
390
F
  0
LAYER
  5
217
330
2
100
AcDbSymbolTableRecord
100
AcDbLayerTableRecord
  2
4_ALL_POINTS
 70
     0
 62
     7
  6
CONTINUOUS
370
    -3
390
F
  0
LAYER
  5
218
330
2
100
AcDbSymbolTableRecord
100
AcDbLayerTableRecord
  2
5_ALL_CURVES
 70
     0
 62
     7
  6
CONTINUOUS
370
    -3
390
F
  0
LAYER
  5
219
330
2
100
AcDbSymbolTableRecord
100
AcDbLayerTableRecord
  2
7_ALL_FEATURES
 70
     0
 62
     7
  6
CONTINUOUS
370
    -3
390
F
  0
LAYER
  5
21A
330
2
100
AcDbSymbolTableRecord
100
AcDbLayerTableRecord
  2
8_ALL_NOTES_BALLOONS_SYMBOLS_GT
 70
     0
 62
     7
  6
CONTINUOUS
370
    -3
390
F
  0
LAYER
  5
3D4
330
2
100
AcDbSymbolTableRecord
100
AcDbLayerTableRecord
  2
Defpoints
 70
     0
 62
     7
  6
CONTINUOUS
290
     0
370
    -3
390
F
  0
ENDTAB
  0
TABLE
  2
STYLE
  5
3
330
0
100
AcDbSymbolTable
 70
     6
  0
STYLE
  5
11
330
3
100
AcDbSymbolTableRecord
100
AcDbTextStyleTableRecord
  2
STANDARD
 70
     0
 40
0.0
 41
0.85
 50
0.0
 71
     0
 42
0.2
  3
txt
  4

  0
STYLE
  5
21B
330
3
100
AcDbSymbolTableRecord
100
AcDbTextStyleTableRecord
  2
TEXTSTYLE_1
 70
     0
 40
0.0
 41
0.8
 50
0.0
 71
     0
 42
0.2
  3
gdt
  4

  0
STYLE
  5
21C
330
3
100
AcDbSymbolTableRecord
100
AcDbTextStyleTableRecord
  2
TEXTSTYLE_2
 70
     0
 40
0.0
 41
0.9
 50
0.0
 71
     0
 42
0.2
  3
txt
  4

  0
STYLE
  5
21D
330
3
100
AcDbSymbolTableRecord
100
AcDbTextStyleTableRecord
  2
TEXTSTYLE_3
 70
     0
 40
0.0
 41
0.9
 50
0.0
 71
     0
 42
0.2
  3
txt
  4

  0
STYLE
  5
21E
330
3
100
AcDbSymbolTableRecord
100
AcDbTextStyleTableRecord
  2
TEXTSTYLE_4
 70
     0
 40
0.0
 41
0.85
 50
0.0
 71
     0
 42
0.2
  3
gdt
  4

  0
STYLE
  5
21F
330
3
100
AcDbSymbolTableRecord
100
AcDbTextStyleTableRecord
  2
TEXTSTYLE_5
 70
     0
 40
0.0
 41
0.85
 50
0.0
 71
     0
 42
0.2
  3
txt
  4

  0
ENDTAB
  0
TABLE
  2
VIEW
  5
6
330
0
100
AcDbSymbolTable
 70
     0
  0
ENDTAB
  0
TABLE
  2
UCS
  5
7
330
0
100
AcDbSymbolTable
 70
     0
  0
ENDTAB
  0
TABLE
  2
APPID
  5
9
330
0
100
AcDbSymbolTable
 70
     1
  0
APPID
  5
220
330
9
100
AcDbSymbolTableRecord
100
AcDbRegAppTableRecord
  2
ACAD
 70
     0
  0
ENDTAB
  0
TABLE
  2
DIMSTYLE
  5
A
330
0
100
AcDbSymbolTable
 70
     3
100
AcDbDimStyleTable
  0
DIMSTYLE
105
228
330
A
100
AcDbSymbolTableRecord
100
AcDbDimStyleTableRecord
  2
STANDARD
 70
     0
 41
2.5
 47
0.01
 48
0.01
 71
     1
 73
     0
 74
     0
 77
     1
 78
     8
140
3.0
178
     0
271
     2
272
     2
284
     8
340
11
341
223
342
223
343
223
344
223
  0
DIMSTYLE
105
229
330
A
100
AcDbSymbolTableRecord
100
AcDbDimStyleTableRecord
  2
DIMSTYLE_1
 70
     0
 41
2.5
 47
0.3
 48
0.3
 73
     0
 74
     0
 77
     1
 78
     8
140
3.0
178
     0
271
     0
272
     0
284
     8
340
11
341
223
342
223
343
223
344
223
  0
DIMSTYLE
105
22A
330
A
100
AcDbSymbolTableRecord
100
AcDbDimStyleTableRecord
  2
DIMSTYLE_2
 70
     0
 41
2.5
 47
0.3
 48
0.3
 73
     0
 74
     0
 77
     1
 78
     8
140
3.0
178
     0
271
     0
272
     0
284
     8
340
11
341
223
342
223
343
223
344
223
  0
ENDTAB
  0
TABLE
  2
BLOCK_RECORD
  5
1
330
0
100
AcDbSymbolTable
 70
     5
  0
BLOCK_RECORD
  5
221
330
1
100
AcDbSymbolTableRecord
100
AcDbBlockTableRecord
  2
*Model_Space
340
38B
  0
BLOCK_RECORD
  5
222
330
1
100
AcDbSymbolTableRecord
100
AcDbBlockTableRecord
  2
*Paper_Space
340
38C
  0
BLOCK_RECORD
  5
223
330
1
100
AcDbSymbolTableRecord
100
AcDbBlockTableRecord
  2
_CLOSED
340
0
102
{BLKREFS
331
0
331
0
331
279
331
272
331
271
102
}
  0
BLOCK_RECORD
  5
224
330
1
100
AcDbSymbolTableRecord
100
AcDbBlockTableRecord
  2
*D1
340
0
  0
BLOCK_RECORD
  5
225
330
1
100
AcDbSymbolTableRecord
100
AcDbBlockTableRecord
  2
*D2
340
0
  0
BLOCK_RECORD
  5
226
330
1
100
AcDbSymbolTableRecord
100
AcDbBlockTableRecord
  2
LOGO2_BL0
340
0
102
{BLKREFS
331
29E
102
}
  0
BLOCK_RECORD
  5
227
330
1
100
AcDbSymbolTableRecord
100
AcDbBlockTableRecord
  2
*T4
340
0
102
{BLKREFS
331
29F
331
29F
102
}
  0
ENDTAB
  0
ENDSEC
  0
SECTION
  2
BLOCKS
  0
BLOCK
  5
20
330
221
100
AcDbEntity
  8
0
100
AcDbBlockBegin
  2
*Model_Space
 70
     0
 10
0.0
 20
0.0
 30
0.0
  3
*Model_Space
  1
*Model_Space
  0
ENDBLK
  5
21
330
221
100
AcDbEntity
  8
0
100
AcDbBlockEnd
  0
BLOCK
  5
1C
330
222
100
AcDbEntity
 67
     1
  8
0
100
AcDbBlockBegin
  2
*Paper_Space
 70
     0
 10
0.0
 20
0.0
 30
0.0
  3
*Paper_Space
  1
*Paper_Space
  0
ENDBLK
  5
1D
330
222
100
AcDbEntity
 67
     1
  8
0
100
AcDbBlockEnd
  0
BLOCK
  5
267
330
223
100
AcDbEntity
  8
0
100
AcDbBlockBegin
  2
_CLOSED
 70
     0
 10
0.0
 20
0.0
 30
0.0
  3
_CLOSED
  1
_CLOSED
  0
LINE
  5
268
330
223
100
AcDbEntity
  8
0
  6
ByBlock
 62
     0
100
AcDbLine
 10
0.0
 20
0.0
 30
0.0
 11
-1.0
 21
0.2
 31
0.0
  0
LINE
  5
269
330
223
100
AcDbEntity
  8
0
  6
ByBlock
 62
     0
100
AcDbLine
 10
-1.0
 20
0.2
 30
0.0
 11
-1.0
 21
-0.2
 31
0.0
  0
LINE
  5
26A
330
223
100
AcDbEntity
  8
0
  6
ByBlock
 62
     0
100
AcDbLine
 10
-1.0
 20
-0.2
 30
0.0
 11
0.0
 21
0.0
 31
0.0
  0
LINE
  5
26B
330
223
100
AcDbEntity
  8
0
  6
ByBlock
 62
     0
100
AcDbLine
 10
-1.0
 20
0.0
 30
0.0
 11
0.0
 21
0.0
 31
0.0
  0
ENDBLK
  5
26C
330
223
100
AcDbEntity
  8
0
  6
ByBlock
 62
     0
100
AcDbBlockEnd
  0
BLOCK
  5
26D
330
224
100
AcDbEntity
  8
0
100
AcDbBlockBegin
  2
*D1
 70
     1
 10
0.0
 20
0.0
 30
0.0
  3
*D1
  1
*D1
  0
LINE
  5
26E
330
224
100
AcDbEntity
  8
0
  6
Continuous
 62
     0
370
    -2
100
AcDbLine
 10
118.5741399751
 20
86.3759273672
 30
0.0
 11
130.8657710153
 21
86.3759273672
 31
0.0
  0
LINE
  5
26F
330
224
100
AcDbEntity
  8
0
  6
Continuous
 62
     0
370
    -2
100
AcDbLine
 10
118.4547508842
 20
51.3759273672
 30
0.0
 11
130.8657710153
 21
51.3759273672
 31
0.0
  0
LINE
  5
270
330
224
100
AcDbEntity
  8
0
  6
Continuous
 62
     0
370
    -2
100
AcDbLine
 10
130.6857710153
 20
83.8759273672
 30
0.0
 11
130.6857710153
 21
53.8759273672
 31
0.0
  0
INSERT
  5
271
330
224
100
AcDbEntity
  8
0
 62
     0
370
    -2
100
AcDbBlockReference
  2
_CLOSED
 10
130.6857710153
 20
86.3759273672
 30
0.0
 41
2.5
 42
2.5
 43
2.5
 50
90.0
  0
INSERT
  5
272
330
224
100
AcDbEntity
  8
0
 62
     0
370
    -2
100
AcDbBlockReference
  2
_CLOSED
 10
130.6857710153
 20
51.3759273672
 30
0.0
 41
2.5
 42
2.5
 43
2.5
 50
270.0
  0
MTEXT
  5
273
330
224
100
AcDbEntity
  8
0
 62
     0
100
AcDbMText
 10
125.6857710153
 20
68.8759273672
 30
0.0
 40
3.0
 41
0.0
 71
     2
 72
     1
  1
\A1;35
 11
0.0
 21
1.0
 31
0.0
 73
     1
 44
1.0
  0
POINT
  5
274
330
224
100
AcDbEntity
  8
Defpoints
 62
     0
100
AcDbPoint
 10
118.5116399751
 20
86.3759273672
 30
0.0
  0
POINT
  5
3D7
330
224
100
AcDbEntity
  8
Defpoints
 62
     0
100
AcDbPoint
 10
118.3922508842
 20
51.3759273672
 30
0.0
  0
POINT
  5
3D8
330
224
100
AcDbEntity
  8
Defpoints
 62
     0
100
AcDbPoint
 10
130.6857710153
 20
51.3759273672
 30
0.0
  0
ENDBLK
  5
275
330
224
100
AcDbEntity
  8
0
  6
ByBlock
 62
     0
100
AcDbBlockEnd
  0
BLOCK
  5
276
330
225
100
AcDbEntity
  8
0
100
AcDbBlockBegin
  2
*D2
 70
     1
 10
0.0
 20
0.0
 30
0.0
  3
*D2
  1
*D2
  0
LINE
  5
277
330
225
100
AcDbEntity
  8
0
  6
Continuous
 62
     0
370
    -2
100
AcDbLine
 10
110.280589128768
 20
247.8332167728246
 30
0.0
 11
120.3535551459922
 21
255.8520059966318
 31
0.0
  0
MTEXT
  5
278
330
225
100
AcDbEntity
  8
0
 62
     0
100
AcDbMText
 10
110.6871445430183
 20
254.5477318480287
 30
0.0
 40
3.0
 41
0.0
 71
     1
 72
     1
  1
\A1;%%c80
 11
0.782366292599932
 21
0.6228185804898868
 31
0.0
 73
     1
 44
1.0
  0
INSERT
  5
279
330
225
100
AcDbEntity
  8
0
 62
     0
370
    -2
100
AcDbBlockReference
  2
_CLOSED
 10
108.3246733972682
 20
246.2761703215998
 30
0.0
 41
2.5
 42
2.5
 43
2.5
 50
218.5222555706657
  0
LINE
  5
3D5
330
225
100
AcDbEntity
  8
0
  6
Continuous
 62
     0
100
AcDbLine
 10
77.13561326645052
 20
221.5191317471504
 30
0.0
 11
77.31561326645053
 21
221.5191317471504
 31
0.0
  0
LINE
  5
3D6
330
225
100
AcDbEntity
  8
0
  6
Continuous
 62
     0
100
AcDbLine
 10
77.22561326645052
 20
221.4291317471504
 30
0.0
 11
77.22561326645052
 21
221.6091317471504
 31
0.0
  0
POINT
  5
3D9
330
225
100
AcDbEntity
  8
Defpoints
 62
     0
100
AcDbPoint
 10
108.3246733972682
 20
246.2761703215998
 30
0.0
  0
POINT
  5
3DA
330
225
100
AcDbEntity
  8
Defpoints
 62
     0
100
AcDbPoint
 10
46.12655313563282
 20
196.762093172701
 30
0.0
  0
ENDBLK
  5
27A
330
225
100
AcDbEntity
  8
0
  6
ByBlock
 62
     0
100
AcDbBlockEnd
  0
BLOCK
  5
22B
330
226
100
AcDbEntity
  8
0
100
AcDbBlockBegin
  2
LOGO2_BL0
 70
     0
 10
333.1473869546
 20
37.5239270671
 30
0.0
  3
LOGO2_BL0
  1
LOGO2_BL0
  0
LINE
  5
22C
330
226
100
AcDbEntity
  8
0
  6
Continuous
 62
     7
100
AcDbLine
 10
324.8903121828
 20
40.7194184059
 30
0.0
 11
323.5859712535
 21
40.7194184059
 31
0.0
  0
LINE
  5
22D
330
226
100
AcDbEntity
  8
0
  6
Continuous
 62
     7
100
AcDbLine
 10
323.5859712535
 20
40.7194184059
 30
0.0
 11
323.5859712535
 21
30.260352346
 31
0.0
  0
LINE
  5
22E
330
226
100
AcDbEntity
  8
0
  6
Continuous
 62
     7
100
AcDbLine
 10
323.5859712535
 20
30.260352346
 30
0.0
 11
328.0670261417
 21
30.260352346
 31
0.0
  0
LINE
  5
22F
330
226
100
AcDbEntity
  8
0
  6
Continuous
 62
     7
100
AcDbLine
 10
328.0670261417
 20
30.260352346
 30
0.0
 11
328.0670261417
 21
31.4532066711
 31
0.0
  0
LINE
  5
230
330
226
100
AcDbEntity
  8
0
  6
Continuous
 62
     7
100
AcDbLine
 10
328.0670261417
 20
31.4532066711
 30
0.0
 11
324.8903121828
 21
31.4532066711
 31
0.0
  0
LINE
  5
231
330
226
100
AcDbEntity
  8
0
  6
Continuous
 62
     7
100
AcDbLine
 10
324.8903121828
 20
31.4532066711
 30
0.0
 11
324.8903121828
 21
40.7194184059
 31
0.0
  0
LINE
  5
232
330
226
100
AcDbEntity
  8
0
  6
Continuous
 62
     7
100
AcDbLine
 10
339.8266383991
 20
40.7194184059
 30
0.0
 11
338.522820881
 21
40.7194184059
 31
0.0
  0
LINE
  5
233
330
226
100
AcDbEntity
  8
0
  6
Continuous
 62
     7
100
AcDbLine
 10
338.522820881
 20
40.7194184059
 30
0.0
 11
338.522820881
 21
30.260352346
 31
0.0
  0
LINE
  5
234
330
226
100
AcDbEntity
  8
0
  6
Continuous
 62
     7
100
AcDbLine
 10
338.522820881
 20
30.260352346
 30
0.0
 11
343.0040066221
 21
30.260352346
 31
0.0
  0
LINE
  5
235
330
226
100
AcDbEntity
  8
0
  6
Continuous
 62
     7
100
AcDbLine
 10
343.0040066221
 20
30.260352346
 30
0.0
 11
343.0040066221
 21
31.4532066711
 31
0.0
  0
LINE
  5
236
330
226
100
AcDbEntity
  8
0
  6
Continuous
 62
     7
100
AcDbLine
 10
343.0040066221
 20
31.4532066711
 30
0.0
 11
339.8266383991
 21
31.4532066711
 31
0.0
  0
LINE
  5
237
330
226
100
AcDbEntity
  8
0
  6
Continuous
 62
     7
100
AcDbLine
 10
339.8266383991
 20
31.4532066711
 30
0.0
 11
339.8266383991
 21
40.7194184059
 31
0.0
  0
LWPOLYLINE
  5
238
330
226
100
AcDbEntity
  8
0
  6
Continuous
 62
     7
100
AcDbPolyline
 90
        2
 70
     0
 43
0.2
 10
321.9403661644
 20
26.9168010391
 10
321.9403661644
 20
25.0597377898
  0
LWPOLYLINE
  5
239
330
226
100
AcDbEntity
  8
0
  6
Continuous
 62
     7
100
AcDbPolyline
 90
        2
 70
     0
 43
0.2
 10
321.9403661644
 20
25.0597377898
 10
322.7360821748
 20
25.0597377898
  0
LWPOLYLINE
  5
23A
330
226
100
AcDbEntity
  8
0
  6
Continuous
 62
     7
100
AcDbPolyline
 90
        2
 70
     0
 43
0.2
 10
322.7360821748
 20
25.0597377898
 10
322.7360821748
 20
25.2717193614
  0
LWPOLYLINE
  5
23B
330
226
100
AcDbEntity
  8
0
  6
Continuous
 62
     7
100
AcDbPolyline
 90
        2
 70
     0
 43
0.2
 10
322.7360821748
 20
25.2717193614
 10
322.1719756593
 20
25.2717193614
  0
LWPOLYLINE
  5
23C
330
226
100
AcDbEntity
  8
0
  6
Continuous
 62
     7
100
AcDbPolyline
 90
        2
 70
     0
 43
0.2
 10
322.1719756593
 20
25.2717193614
 10
322.1719756593
 20
26.9168010391
  0
LWPOLYLINE
  5
23D
330
226
100
AcDbEntity
  8
0
  6
Continuous
 62
     7
100
AcDbPolyline
 90
        2
 70
     0
 43
0.2
 10
322.1719756593
 20
26.9168010391
 10
321.9403661644
 20
26.9168010391
  0
SPLINE
  5
23E
330
226
100
AcDbEntity
  8
0
  6
Continuous
 62
     7
100
AcDbSpline
 70
     3
 71
     3
 72
    35
 73
    31
 74
     0
 42
0.000000001
 43
0.0000001
 40
0.0
 40
0.0
 40
0.0
 40
0.0
 40
1.0
 40
1.0
 40
1.0
 40
2.0
 40
2.0
 40
2.0
 40
3.0
 40
3.0
 40
3.0
 40
4.0
 40
4.0
 40
4.0
 40
5.0
 40
5.0
 40
5.0
 40
6.0
 40
6.0
 40
6.0
 40
7.0
 40
7.0
 40
7.0
 40
8.0
 40
8.0
 40
8.0
 40
9.0
 40
9.0
 40
9.0
 40
10.0
 40
10.0
 40
10.0
 40
10.0
 10
324.1343754303
 20
26.2122894457
 30
0.0
 10
324.1343754303
 20
26.2122894457
 30
0.0
 10
324.1343754303
 20
25.5501741665
 30
0.0
 10
324.1343754303
 20
25.5501741665
 30
0.0
 10
324.1343754303
 20
25.2350805712
 30
0.0
 10
324.2822391191
 20
25.0204819432
 30
0.0
 10
324.6223256034
 20
25.0204819432
 30
0.0
 10
324.9618886764
 20
25.0204819432
 30
0.0
 10
325.1100140709
 20
25.2350805712
 30
0.0
 10
325.1100140709
 20
25.5501741665
 30
0.0
 10
325.1100140709
 20
25.5501741665
 30
0.0
 10
325.1100140709
 20
26.2122894457
 30
0.0
 10
325.1100140709
 20
26.2122894457
 30
0.0
 10
325.1100140709
 20
26.2122894457
 30
0.0
 10
324.887956832
 20
26.2122894457
 30
0.0
 10
324.887956832
 20
26.2122894457
 30
0.0
 10
324.887956832
 20
26.2122894457
 30
0.0
 10
324.887956832
 20
25.5752979083
 30
0.0
 10
324.887956832
 20
25.5752979083
 30
0.0
 10
324.887956832
 20
25.3894869011
 30
0.0
 10
324.8412423746
 20
25.2267059906
 30
0.0
 10
324.6223256034
 20
25.2267059906
 30
0.0
 10
324.402885421
 20
25.2267059906
 30
0.0
 10
324.3561709636
 20
25.3894869011
 30
0.0
 10
324.3561709636
 20
25.5752979083
 30
0.0
 10
324.3561709636
 20
25.5752979083
 30
0.0
 10
324.3561709636
 20
26.2122894457
 30
0.0
 10
324.3561709636
 20
26.2122894457
 30
0.0
 10
324.3561709636
 20
26.2122894457
 30
0.0
 10
324.1343754303
 20
26.2122894457
 30
0.0
 10
324.1343754303
 20
26.2122894457
 30
0.0
  0
SPLINE
  5
23F
330
226
100
AcDbEntity
  8
0
  6
Continuous
 62
     7
100
AcDbSpline
 70
     3
 71
     3
 72
    35
 73
    31
 74
     0
 42
0.000000001
 43
0.0000001
 40
0.0
 40
0.0
 40
0.0
 40
0.0
 40
1.0
 40
1.0
 40
1.0
 40
2.0
 40
2.0
 40
2.0
 40
3.0
 40
3.0
 40
3.0
 40
4.0
 40
4.0
 40
4.0
 40
5.0
 40
5.0
 40
5.0
 40
6.0
 40
6.0
 40
6.0
 40
7.0
 40
7.0
 40
7.0
 40
8.0
 40
8.0
 40
8.0
 40
9.0
 40
9.0
 40
9.0
 40
10.0
 40
10.0
 40
10.0
 40
10.0
 10
327.5331466281
 20
26.1709399539
 30
0.0
 10
327.4446901205
 20
26.2222342601
 30
0.0
 10
327.3312407238
 20
26.2473580019
 30
0.0
 10
327.2276052888
 20
26.2473580019
 30
0.0
 10
326.8727324356
 20
26.2473580019
 30
0.0
 10
326.5972872454
 20
25.9835587129
 30
0.0
 10
326.5972872454
 20
25.6260688032
 30
0.0
 10
326.5972872454
 20
25.2811407645
 30
0.0
 10
326.8757420505
 20
25.0210053545
 30
0.0
 10
327.2153051235
 20
25.0210053545
 30
0.0
 10
327.3312407238
 20
25.0210053545
 30
0.0
 10
327.4319973967
 20
25.0429886286
 30
0.0
 10
327.5331466281
 20
25.0968999912
 30
0.0
 10
327.5331466281
 20
25.0968999912
 30
0.0
 10
327.5331466281
 20
25.3795420867
 30
0.0
 10
327.5331466281
 20
25.3795420867
 30
0.0
 10
327.4492699692
 20
25.2863748774
 30
0.0
 10
327.345765387
 20
25.2272294019
 30
0.0
 10
327.2176604743
 20
25.2272294019
 30
0.0
 10
326.9839573343
 20
25.2272294019
 30
0.0
 10
326.8186902202
 20
25.3994317156
 30
0.0
 10
326.8186902202
 20
25.6360136177
 30
0.0
 10
326.8186902202
 20
25.8479951893
 30
0.0
 10
326.9864435379
 20
26.040087132
 30
0.0
 10
327.2032666639
 20
26.040087132
 30
0.0
 10
327.3360822782
 20
26.040087132
 30
0.0
 10
327.4446901205
 20
25.9861757693
 30
0.0
 10
327.5331466281
 20
25.8851573907
 30
0.0
 10
327.5331466281
 20
25.8851573907
 30
0.0
 10
327.5331466281
 20
26.1709399539
 30
0.0
 10
327.5331466281
 20
26.1709399539
 30
0.0
  0
SPLINE
  5
240
330
226
100
AcDbEntity
  8
0
  6
Continuous
 62
     7
100
AcDbSpline
 70
     3
 71
     3
 72
    32
 73
    28
 74
     0
 42
0.000000001
 43
0.0000001
 40
0.0
 40
0.0
 40
0.0
 40
0.0
 40
1.0
 40
1.0
 40
1.0
 40
2.0
 40
2.0
 40
2.0
 40
3.0
 40
3.0
 40
3.0
 40
4.0
 40
4.0
 40
4.0
 40
5.0
 40
5.0
 40
5.0
 40
6.0
 40
6.0
 40
6.0
 40
7.0
 40
7.0
 40
7.0
 40
8.0
 40
8.0
 40
8.0
 40
9.0
 40
9.0
 40
9.0
 40
9.0
 10
330.0650178804
 20
25.5993748276
 30
0.0
 10
330.0650178804
 20
25.5993748276
 30
0.0
 10
330.0650178804
 20
25.6333965613
 30
0.0
 10
330.0650178804
 20
25.6333965613
 30
0.0
 10
330.0650178804
 20
25.9757075435
 30
0.0
 10
329.8921613025
 20
26.2473580019
 30
0.0
 10
329.5255116954
 20
26.2473580019
 30
0.0
 10
329.153889681
 20
26.2473580019
 30
0.0
 10
328.9641530891
 20
25.9809416564
 30
0.0
 10
328.9641530891
 20
25.6260688032
 30
0.0
 10
328.9641530891
 20
25.2863748774
 30
0.0
 10
329.1782283059
 20
25.0204819432
 30
0.0
 10
329.5303532498
 20
25.0204819432
 30
0.0
 10
329.754373281
 20
25.0204819432
 30
0.0
 10
329.9565408909
 20
25.1361558378
 30
0.0
 10
330.0650178804
 20
25.3355755385
 30
0.0
 10
330.0650178804
 20
25.3355755385
 30
0.0
 10
329.8773749337
 20
25.4423514412
 30
0.0
 10
329.8773749337
 20
25.4423514412
 30
0.0
 10
329.7938908332
 20
25.3036474499
 30
0.0
 10
329.7026864163
 20
25.2178079987
 30
0.0
 10
329.5331011591
 20
25.2178079987
 30
0.0
 10
329.3211195875
 20
25.2178079987
 30
0.0
 10
329.1881731204
 20
25.4025721833
 30
0.0
 10
329.1858177696
 20
25.5993748276
 30
0.0
 10
329.1858177696
 20
25.5993748276
 30
0.0
 10
330.0650178804
 20
25.5993748276
 30
0.0
 10
330.0650178804
 20
25.5993748276
 30
0.0
  0
SPLINE
  5
241
330
226
100
AcDbEntity
  8
0
  6
Continuous
 62
     7
100
AcDbSpline
 70
     3
 71
     3
 72
    14
 73
    10
 74
     0
 42
0.000000001
 43
0.0000001
 40
0.0
 40
0.0
 40
0.0
 40
0.0
 40
1.0
 40
1.0
 40
1.0
 40
2.0
 40
2.0
 40
2.0
 40
3.0
 40
3.0
 40
3.0
 40
3.0
 10
329.1978562292
 20
25.7668664397
 30
0.0
 10
329.2254661746
 20
25.9317409954
 30
0.0
 10
329.3533093817
 20
26.054742648
 30
0.0
 10
329.5255116954
 20
26.054742648
 30
0.0
 10
329.7026864163
 20
26.054742648
 30
0.0
 10
329.816135813
 20
25.9390687534
 30
0.0
 10
329.8433531999
 20
25.7668664397
 30
0.0
 10
329.8433531999
 20
25.7668664397
 30
0.0
 10
329.1978562292
 20
25.7668664397
 30
0.0
 10
329.1978562292
 20
25.7668664397
 30
0.0
  0
SPLINE
  5
242
330
226
100
AcDbEntity
  8
0
  6
Continuous
 62
     7
100
AcDbSpline
 70
     3
 71
     3
 72
    20
 73
    16
 74
     0
 42
0.000000001
 43
0.0000001
 40
0.0
 40
0.0
 40
0.0
 40
0.0
 40
1.0
 40
1.0
 40
1.0
 40
2.0
 40
2.0
 40
2.0
 40
3.0
 40
3.0
 40
3.0
 40
4.0
 40
4.0
 40
4.0
 40
5.0
 40
5.0
 40
5.0
 40
5.0
 10
332.0890493306
 20
25.9762309548
 30
0.0
 10
332.0890493306
 20
25.9762309548
 30
0.0
 10
332.5001888972
 20
25.4737561185
 30
0.0
 10
332.5001888972
 20
25.4737561185
 30
0.0
 10
332.3841224441
 20
25.3580822239
 30
0.0
 10
332.2463344226
 20
25.2277528132
 30
0.0
 10
332.0743938145
 20
25.2277528132
 30
0.0
 10
331.8969573879
 20
25.2277528132
 30
0.0
 10
331.7294657758
 20
25.3921039576
 30
0.0
 10
331.7294657758
 20
25.5690169729
 30
0.0
 10
331.7294657758
 20
25.7469768107
 30
0.0
 10
331.9392228494
 20
25.8731189311
 30
0.0
 10
332.0668043508
 20
25.9610520275
 30
0.0
 10
332.0668043508
 20
25.9610520275
 30
0.0
 10
332.0890493306
 20
25.9762309548
 30
0.0
 10
332.0890493306
 20
25.9762309548
 30
0.0
  0
SPLINE
  5
243
330
226
100
AcDbEntity
  8
0
  6
Continuous
 62
     7
100
AcDbSpline
 70
     3
 71
     3
 72
    23
 73
    19
 74
     0
 42
0.000000001
 43
0.0000001
 40
0.0
 40
0.0
 40
0.0
 40
0.0
 40
1.0
 40
1.0
 40
1.0
 40
2.0
 40
2.0
 40
2.0
 40
3.0
 40
3.0
 40
3.0
 40
4.0
 40
4.0
 40
4.0
 40
5.0
 40
5.0
 40
5.0
 40
6.0
 40
6.0
 40
6.0
 40
6.0
 10
332.1383808444
 20
26.2672476309
 30
0.0
 10
332.1383808444
 20
26.2672476309
 30
0.0
 10
332.0767491653
 20
26.3457593241
 30
0.0
 10
332.0767491653
 20
26.3457593241
 30
0.0
 10
332.0228378026
 20
26.4143262028
 30
0.0
 10
331.9660476779
 20
26.4834164928
 30
0.0
 10
331.9660476779
 20
26.5771071133
 30
0.0
 10
331.9660476779
 20
26.6959214757
 30
0.0
 10
332.0619627964
 20
26.7733863463
 30
0.0
 10
332.1729259894
 20
26.7733863463
 30
0.0
 10
332.2961893477
 20
26.7733863463
 30
0.0
 10
332.3894874098
 20
26.7022024111
 30
0.0
 10
332.3894874098
 20
26.5718730004
 30
0.0
 10
332.3894874098
 20
26.4368328882
 30
0.0
 10
332.2613824971
 20
26.3604148401
 30
0.0
 10
332.1678227294
 20
26.2866138485
 30
0.0
 10
332.1678227294
 20
26.2866138485
 30
0.0
 10
332.1383808444
 20
26.2672476309
 30
0.0
 10
332.1383808444
 20
26.2672476309
 30
0.0
  0
SPLINE
  5
244
330
226
100
AcDbEntity
  8
0
  6
Continuous
 62
     7
100
AcDbSpline
 70
     3
 71
     3
 72
    50
 73
    46
 74
     0
 42
0.000000001
 43
0.0000001
 40
0.0
 40
0.0
 40
0.0
 40
0.0
 40
1.0
 40
1.0
 40
1.0
 40
2.0
 40
2.0
 40
2.0
 40
3.0
 40
3.0
 40
3.0
 40
4.0
 40
4.0
 40
4.0
 40
5.0
 40
5.0
 40
5.0
 40
6.0
 40
6.0
 40
6.0
 40
7.0
 40
7.0
 40
7.0
 40
8.0
 40
8.0
 40
8.0
 40
9.0
 40
9.0
 40
9.0
 40
10.0
 40
10.0
 40
10.0
 40
11.0
 40
11.0
 40
11.0
 40
12.0
 40
12.0
 40
12.0
 40
13.0
 40
13.0
 40
13.0
 40
14.0
 40
14.0
 40
14.0
 40
15.0
 40
15.0
 40
15.0
 40
15.0
 10
332.8405370871
 20
25.0602612011
 30
0.0
 10
332.8405370871
 20
25.0602612011
 30
0.0
 10
333.1259270918
 20
25.0602612011
 30
0.0
 10
333.1259270918
 20
25.0602612011
 30
0.0
 10
333.1259270918
 20
25.0602612011
 30
0.0
 10
332.793560924
 20
25.471139062
 30
0.0
 10
332.793560924
 20
25.471139062
 30
0.0
 10
332.793560924
 20
25.471139062
 30
0.0
 10
333.0200671588
 20
25.7370319963
 30
0.0
 10
333.0200671588
 20
25.7370319963
 30
0.0
 10
333.0200671588
 20
25.7370319963
 30
0.0
 10
332.8718109116
 20
25.8898680923
 30
0.0
 10
332.8718109116
 20
25.8898680923
 30
0.0
 10
332.8718109116
 20
25.8898680923
 30
0.0
 10
332.6559037553
 20
25.6386306742
 30
0.0
 10
332.6559037553
 20
25.6386306742
 30
0.0
 10
332.6559037553
 20
25.6386306742
 30
0.0
 10
332.2688411079
 20
26.1065603655
 30
0.0
 10
332.2688411079
 20
26.1065603655
 30
0.0
 10
332.4242942604
 20
26.2206640263
 30
0.0
 10
332.6065722414
 20
26.3604148401
 30
0.0
 10
332.6065722414
 20
26.5697793553
 30
0.0
 10
332.6065722414
 20
26.8136890154
 30
0.0
 10
332.4045354843
 20
26.9571037083
 30
0.0
 10
332.1780292495
 20
26.9571037083
 30
0.0
 10
331.9338578837
 20
26.9571037083
 30
0.0
 10
331.7494862575
 20
26.8063612574
 30
0.0
 10
331.7494862575
 20
26.5498897263
 30
0.0
 10
331.7494862575
 20
26.3923429287
 30
0.0
 10
331.8481492853
 20
26.25468576
 30
0.0
 10
331.953485807
 20
26.1437225669
 30
0.0
 10
331.953485807
 20
26.1437225669
 30
0.0
 10
331.8379427652
 20
26.0599767609
 30
0.0
 10
331.8379427652
 20
26.0599767609
 30
0.0
 10
331.660244633
 20
25.9317409954
 30
0.0
 10
331.5129043554
 20
25.8040286411
 30
0.0
 10
331.5129043554
 20
25.5669233277
 30
0.0
 10
331.5129043554
 20
25.2465956195
 30
0.0
 10
331.7714695316
 20
25.0204819432
 30
0.0
 10
332.0818524253
 20
25.0204819432
 30
0.0
 10
332.3007691965
 20
25.0204819432
 30
0.0
 10
332.4979643992
 20
25.145577241
 30
0.0
 10
332.6382386243
 20
25.3114986192
 30
0.0
 10
332.6382386243
 20
25.3114986192
 30
0.0
 10
332.8405370871
 20
25.0602612011
 30
0.0
 10
332.8405370871
 20
25.0602612011
 30
0.0
  0
LWPOLYLINE
  5
245
330
226
100
AcDbEntity
  8
0
  6
Continuous
 62
     7
100
AcDbPolyline
 90
        2
 70
     0
 43
0.2
 10
334.7759811768
 20
26.9168010391
 10
334.5446333876
 20
26.9168010391
  0
LWPOLYLINE
  5
246
330
226
100
AcDbEntity
  8
0
  6
Continuous
 62
     7
100
AcDbPolyline
 90
        2
 70
     0
 43
0.2
 10
334.5446333876
 20
26.9168010391
 10
334.5446333876
 20
25.0597377898
  0
LWPOLYLINE
  5
247
330
226
100
AcDbEntity
  8
0
  6
Continuous
 62
     7
100
AcDbPolyline
 90
        2
 70
     0
 43
0.2
 10
334.5446333876
 20
25.0597377898
 10
335.3399568395
 20
25.0597377898
  0
LWPOLYLINE
  5
248
330
226
100
AcDbEntity
  8
0
  6
Continuous
 62
     7
100
AcDbPolyline
 90
        2
 70
     0
 43
0.2
 10
335.3399568395
 20
25.0597377898
 10
335.3399568395
 20
25.2717193614
  0
LWPOLYLINE
  5
249
330
226
100
AcDbEntity
  8
0
  6
Continuous
 62
     7
100
AcDbPolyline
 90
        2
 70
     0
 43
0.2
 10
335.3399568395
 20
25.2717193614
 10
334.7759811768
 20
25.2717193614
  0
LWPOLYLINE
  5
24A
330
226
100
AcDbEntity
  8
0
  6
Continuous
 62
     7
100
AcDbPolyline
 90
        2
 70
     0
 43
0.2
 10
334.7759811768
 20
25.2717193614
 10
334.7759811768
 20
26.9168010391
  0
LWPOLYLINE
  5
24B
330
226
100
AcDbEntity
  8
0
  6
Continuous
 62
     7
100
AcDbPolyline
 90
        2
 70
     0
 43
0.2
 10
337.019060251
 20
26.2122894457
 10
336.7979189819
 20
26.2122894457
  0
LWPOLYLINE
  5
24C
330
226
100
AcDbEntity
  8
0
  6
Continuous
 62
     7
100
AcDbPolyline
 90
        2
 70
     0
 43
0.2
 10
336.7979189819
 20
26.2122894457
 10
336.7979189819
 20
25.0602612011
  0
LWPOLYLINE
  5
24D
330
226
100
AcDbEntity
  8
0
  6
Continuous
 62
     7
100
AcDbPolyline
 90
        2
 70
     0
 43
0.2
 10
336.7979189819
 20
25.0602612011
 10
337.019060251
 20
25.0602612011
  0
LWPOLYLINE
  5
24E
330
226
100
AcDbEntity
  8
0
  6
Continuous
 62
     7
100
AcDbPolyline
 90
        2
 70
     0
 43
0.2
 10
337.019060251
 20
25.0602612011
 10
337.019060251
 20
26.2122894457
  0
SPLINE
  5
24F
330
226
100
AcDbEntity
  8
0
  6
Continuous
 62
     7
100
AcDbSpline
 70
     3
 71
     3
 72
    17
 73
    13
 74
     0
 42
0.000000001
 43
0.0000001
 40
0.0
 40
0.0
 40
0.0
 40
0.0
 40
1.0
 40
1.0
 40
1.0
 40
2.0
 40
2.0
 40
2.0
 40
3.0
 40
3.0
 40
3.0
 40
4.0
 40
4.0
 40
4.0
 40
4.0
 10
336.9086204693
 20
26.894817765
 30
0.0
 10
336.8246129576
 20
26.894817765
 30
0.0
 10
336.7560460788
 20
26.825727475
 30
0.0
 10
336.7560460788
 20
26.7398880238
 30
0.0
 10
336.7560460788
 20
26.6556188065
 30
0.0
 10
336.8246129576
 20
26.5896689842
 30
0.0
 10
336.9086204693
 20
26.5896689842
 30
0.0
 10
336.9923662753
 20
26.5896689842
 30
0.0
 10
337.0611948597
 20
26.6556188065
 30
0.0
 10
337.0611948597
 20
26.7398880238
 30
0.0
 10
337.0611948597
 20
26.825727475
 30
0.0
 10
336.9923662753
 20
26.894817765
 30
0.0
 10
336.9086204693
 20
26.894817765
 30
0.0
  0
SPLINE
  5
250
330
226
100
AcDbEntity
  8
0
  6
Continuous
 62
     7
100
AcDbSpline
 70
     3
 71
     3
 72
    17
 73
    13
 74
     0
 42
0.000000001
 43
0.0000001
 40
0.0
 40
0.0
 40
0.0
 40
0.0
 40
1.0
 40
1.0
 40
1.0
 40
2.0
 40
2.0
 40
2.0
 40
3.0
 40
3.0
 40
3.0
 40
4.0
 40
4.0
 40
4.0
 40
4.0
 10
339.1493441926
 20
25.2178079987
 30
0.0
 10
338.915379347
 20
25.2178079987
 30
0.0
 10
338.7850499363
 20
25.4198447558
 30
0.0
 10
338.7850499363
 20
25.6360136177
 30
0.0
 10
338.7850499363
 20
25.8506122457
 30
0.0
 10
338.9208751655
 20
26.0495085351
 30
0.0
 10
339.1493441926
 20
26.0495085351
 30
0.0
 10
339.3888048568
 20
26.0495085351
 30
0.0
 10
339.5243683804
 20
25.8605570602
 30
0.0
 10
339.5243683804
 20
25.6360136177
 30
0.0
 10
339.5243683804
 20
25.4098999414
 30
0.0
 10
339.3911602076
 20
25.2178079987
 30
0.0
 10
339.1493441926
 20
25.2178079987
 30
0.0
  0
SPLINE
  5
251
330
226
100
AcDbEntity
  8
0
  6
Continuous
 62
     7
100
AcDbSpline
 70
     3
 71
     3
 72
    50
 73
    46
 74
     0
 42
0.000000001
 43
0.0000001
 40
0.0
 40
0.0
 40
0.0
 40
0.0
 40
1.0
 40
1.0
 40
1.0
 40
2.0
 40
2.0
 40
2.0
 40
3.0
 40
3.0
 40
3.0
 40
4.0
 40
4.0
 40
4.0
 40
5.0
 40
5.0
 40
5.0
 40
6.0
 40
6.0
 40
6.0
 40
7.0
 40
7.0
 40
7.0
 40
8.0
 40
8.0
 40
8.0
 40
9.0
 40
9.0
 40
9.0
 40
10.0
 40
10.0
 40
10.0
 40
11.0
 40
11.0
 40
11.0
 40
12.0
 40
12.0
 40
12.0
 40
13.0
 40
13.0
 40
13.0
 40
14.0
 40
14.0
 40
14.0
 40
15.0
 40
15.0
 40
15.0
 40
15.0
 10
339.7334711899
 20
26.2128128569
 30
0.0
 10
339.7334711899
 20
26.2128128569
 30
0.0
 10
339.5118065095
 20
26.2128128569
 30
0.0
 10
339.5118065095
 20
26.2128128569
 30
0.0
 10
339.5118065095
 20
26.2128128569
 30
0.0
 10
339.5118065095
 20
26.0154868014
 30
0.0
 10
339.5118065095
 20
26.0154868014
 30
0.0
 10
339.5118065095
 20
26.0154868014
 30
0.0
 10
339.5070958079
 20
26.0154868014
 30
0.0
 10
339.5070958079
 20
26.0154868014
 30
0.0
 10
339.4157605382
 20
26.158378083
 30
0.0
 10
339.2778416638
 20
26.2468345907
 30
0.0
 10
339.1051159388
 20
26.2468345907
 30
0.0
 10
338.772749771
 20
26.2468345907
 30
0.0
 10
338.5636469615
 20
25.9589583823
 30
0.0
 10
338.5636469615
 20
25.6433413757
 30
0.0
 10
338.5636469615
 20
25.3135922644
 30
0.0
 10
338.7607113114
 20
25.0204819432
 30
0.0
 10
339.1155841646
 20
25.0204819432
 30
0.0
 10
339.2778416638
 20
25.0204819432
 30
0.0
 10
339.4178541833
 20
25.1089384508
 30
0.0
 10
339.5070958079
 20
25.2397912728
 30
0.0
 10
339.5070958079
 20
25.2397912728
 30
0.0
 10
339.5118065095
 20
25.2397912728
 30
0.0
 10
339.5118065095
 20
25.2397912728
 30
0.0
 10
339.5118065095
 20
25.2397912728
 30
0.0
 10
339.5118065095
 20
25.0204819432
 30
0.0
 10
339.5118065095
 20
25.0204819432
 30
0.0
 10
339.5118065095
 20
24.7839000411
 30
0.0
 10
339.4552780904
 20
24.5970422113
 30
0.0
 10
339.1820573981
 20
24.5970422113
 30
0.0
 10
338.9797589354
 20
24.5970422113
 30
0.0
 10
338.8371293594
 20
24.7153331624
 30
0.0
 10
338.8371293594
 20
24.9215572098
 30
0.0
 10
338.8371293594
 20
24.9215572098
 30
0.0
 10
338.615464679
 20
24.9215572098
 30
0.0
 10
338.615464679
 20
24.9215572098
 30
0.0
 10
338.6204370862
 20
24.5970422113
 30
0.0
 10
338.8515231698
 20
24.4002395671
 30
0.0
 10
339.171850878
 20
24.4002395671
 30
0.0
 10
339.6198909404
 20
24.4002395671
 30
0.0
 10
339.7334711899
 20
24.6854987189
 30
0.0
 10
339.7334711899
 20
25.0822444751
 30
0.0
 10
339.7334711899
 20
25.0822444751
 30
0.0
 10
339.7334711899
 20
26.2128128569
 30
0.0
 10
339.7334711899
 20
26.2128128569
 30
0.0
  0
SPLINE
  5
252
330
226
100
AcDbEntity
  8
0
  6
Continuous
 62
     7
100
AcDbSpline
 70
     3
 71
     3
 72
    44
 73
    40
 74
     0
 42
0.000000001
 43
0.0000001
 40
0.0
 40
0.0
 40
0.0
 40
0.0
 40
1.0
 40
1.0
 40
1.0
 40
2.0
 40
2.0
 40
2.0
 40
3.0
 40
3.0
 40
3.0
 40
4.0
 40
4.0
 40
4.0
 40
5.0
 40
5.0
 40
5.0
 40
6.0
 40
6.0
 40
6.0
 40
7.0
 40
7.0
 40
7.0
 40
8.0
 40
8.0
 40
8.0
 40
9.0
 40
9.0
 40
9.0
 40
10.0
 40
10.0
 40
10.0
 40
11.0
 40
11.0
 40
11.0
 40
12.0
 40
12.0
 40
12.0
 40
13.0
 40
13.0
 40
13.0
 40
13.0
 10
341.3023965253
 20
27.1978729007
 30
0.0
 10
341.3023965253
 20
27.1978729007
 30
0.0
 10
341.3023965253
 20
25.0597377898
 30
0.0
 10
341.3023965253
 20
25.0597377898
 30
0.0
 10
341.3023965253
 20
25.0597377898
 30
0.0
 10
341.5237995001
 20
25.0597377898
 30
0.0
 10
341.5237995001
 20
25.0597377898
 30
0.0
 10
341.5237995001
 20
25.0597377898
 30
0.0
 10
341.5237995001
 20
25.5894300131
 30
0.0
 10
341.5237995001
 20
25.5894300131
 30
0.0
 10
341.5237995001
 20
25.7993179395
 30
0.0
 10
341.5237995001
 20
26.0500319464
 30
0.0
 10
341.8090586519
 20
26.0500319464
 30
0.0
 10
342.0359574452
 20
26.0500319464
 30
0.0
 10
342.0629131266
 20
25.9170854793
 30
0.0
 10
342.0629131266
 20
25.7208062464
 30
0.0
 10
342.0629131266
 20
25.7208062464
 30
0.0
 10
342.0629131266
 20
25.0597377898
 30
0.0
 10
342.0629131266
 20
25.0597377898
 30
0.0
 10
342.0629131266
 20
25.0597377898
 30
0.0
 10
342.2848395126
 20
25.0597377898
 30
0.0
 10
342.2848395126
 20
25.0597377898
 30
0.0
 10
342.2848395126
 20
25.0597377898
 30
0.0
 10
342.2848395126
 20
25.7469768107
 30
0.0
 10
342.2848395126
 20
25.7469768107
 30
0.0
 10
342.2848395126
 20
26.027525261
 30
0.0
 10
342.2008320009
 20
26.2473580019
 30
0.0
 10
341.8757935911
 20
26.2473580019
 30
0.0
 10
341.7360427773
 20
26.2473580019
 30
0.0
 10
341.5978621973
 20
26.1808847684
 30
0.0
 10
341.5285102016
 20
26.0578831157
 30
0.0
 10
341.5285102016
 20
26.0578831157
 30
0.0
 10
341.5237995001
 20
26.0578831157
 30
0.0
 10
341.5237995001
 20
26.0578831157
 30
0.0
 10
341.5237995001
 20
26.0578831157
 30
0.0
 10
341.5237995001
 20
27.1978729007
 30
0.0
 10
341.5237995001
 20
27.1978729007
 30
0.0
 10
341.5237995001
 20
27.1978729007
 30
0.0
 10
341.3023965253
 20
27.1978729007
 30
0.0
 10
341.3023965253
 20
27.1978729007
 30
0.0
  0
LWPOLYLINE
  5
253
330
226
100
AcDbEntity
  8
0
  6
Continuous
 62
     7
100
AcDbPolyline
 90
        2
 70
     0
 43
0.2
 10
344.1246301895
 20
26.005541987
 10
344.341060757
 20
26.005541987
  0
LWPOLYLINE
  5
254
330
226
100
AcDbEntity
  8
0
  6
Continuous
 62
     7
100
AcDbPolyline
 90
        2
 70
     0
 43
0.2
 10
344.341060757
 20
26.005541987
 10
344.341060757
 20
26.2122894457
  0
LWPOLYLINE
  5
255
330
226
100
AcDbEntity
  8
0
  6
Continuous
 62
     7
100
AcDbPolyline
 90
        2
 70
     0
 43
0.2
 10
344.341060757
 20
26.2122894457
 10
344.1246301895
 20
26.2122894457
  0
LWPOLYLINE
  5
256
330
226
100
AcDbEntity
  8
0
  6
Continuous
 62
     7
100
AcDbPolyline
 90
        2
 70
     0
 43
0.2
 10
344.1246301895
 20
26.2122894457
 10
344.1246301895
 20
26.65300175
  0
LWPOLYLINE
  5
257
330
226
100
AcDbEntity
  8
0
  6
Continuous
 62
     7
100
AcDbPolyline
 90
        2
 70
     0
 43
0.2
 10
344.1246301895
 20
26.65300175
 10
343.9029655091
 20
26.65300175
  0
LWPOLYLINE
  5
258
330
226
100
AcDbEntity
  8
0
  6
Continuous
 62
     7
100
AcDbPolyline
 90
        2
 70
     0
 43
0.2
 10
343.9029655091
 20
26.65300175
 10
343.9029655091
 20
26.2122894457
  0
LWPOLYLINE
  5
259
330
226
100
AcDbEntity
  8
0
  6
Continuous
 62
     7
100
AcDbPolyline
 90
        2
 70
     0
 43
0.2
 10
343.9029655091
 20
26.2122894457
 10
343.7823192072
 20
26.2122894457
  0
LWPOLYLINE
  5
25A
330
226
100
AcDbEntity
  8
0
  6
Continuous
 62
     7
100
AcDbPolyline
 90
        2
 70
     0
 43
0.2
 10
343.7823192072
 20
26.2122894457
 10
343.7823192072
 20
26.005541987
  0
LWPOLYLINE
  5
25B
330
226
100
AcDbEntity
  8
0
  6
Continuous
 62
     7
100
AcDbPolyline
 90
        2
 70
     0
 43
0.2
 10
343.7823192072
 20
26.005541987
 10
343.9029655091
 20
26.005541987
  0
LWPOLYLINE
  5
25C
330
226
100
AcDbEntity
  8
0
  6
Continuous
 62
     7
100
AcDbPolyline
 90
        2
 70
     0
 43
0.2
 10
343.9029655091
 20
26.005541987
 10
343.9029655091
 20
25.0597377898
  0
LWPOLYLINE
  5
25D
330
226
100
AcDbEntity
  8
0
  6
Continuous
 62
     7
100
AcDbPolyline
 90
        2
 70
     0
 43
0.2
 10
343.9029655091
 20
25.0597377898
 10
344.1246301895
 20
25.0597377898
  0
LWPOLYLINE
  5
25E
330
226
100
AcDbEntity
  8
0
  6
Continuous
 62
     7
100
AcDbPolyline
 90
        2
 70
     0
 43
0.2
 10
344.1246301895
 20
25.0597377898
 10
344.1246301895
 20
26.005541987
  0
SPLINE
  5
25F
330
226
100
AcDbEntity
  8
0
  6
Continuous
 62
     7
100
AcDbSpline
 70
     3
 71
     3
 72
    20
 73
    16
 74
     0
 42
0.000000001
 43
0.0000001
 40
0.0
 40
0.0
 40
0.0
 40
0.0
 40
1.0
 40
1.0
 40
1.0
 40
2.0
 40
2.0
 40
2.0
 40
3.0
 40
3.0
 40
3.0
 40
4.0
 40
4.0
 40
4.0
 40
5.0
 40
5.0
 40
5.0
 40
5.0
 10
331.9066404967
 20
35.4206642332
 30
0.0
 10
331.9066404967
 20
35.4206642332
 30
0.0
 10
334.2229971512
 20
32.5911028109
 30
0.0
 10
334.2229971512
 20
32.5911028109
 30
0.0
 10
333.5713500978
 20
31.9389323462
 30
0.0
 10
332.7944768938
 20
31.2030160755
 30
0.0
 10
331.8232872491
 20
31.2030160755
 30
0.0
 10
330.8247493647
 20
31.2030160755
 30
0.0
 10
329.8814313711
 20
32.1325945228
 30
0.0
 10
329.8814313711
 20
33.1317866713
 30
0.0
 10
329.8814313711
 20
34.1309788198
 30
0.0
 10
331.0602844442
 20
34.8375840585
 30
0.0
 10
331.7818069046
 20
35.3374418384
 30
0.0
 10
331.7818069046
 20
35.3374418384
 30
0.0
 10
331.9066404967
 20
35.4206642332
 30
0.0
 10
331.9066404967
 20
35.4206642332
 30
0.0
  0
SPLINE
  5
260
330
226
100
AcDbEntity
  8
0
  6
Continuous
 62
     7
100
AcDbSpline
 70
     3
 71
     3
 72
    23
 73
    19
 74
     0
 42
0.000000001
 43
0.0000001
 40
0.0
 40
0.0
 40
0.0
 40
0.0
 40
1.0
 40
1.0
 40
1.0
 40
2.0
 40
2.0
 40
2.0
 40
3.0
 40
3.0
 40
3.0
 40
4.0
 40
4.0
 40
4.0
 40
5.0
 40
5.0
 40
5.0
 40
6.0
 40
6.0
 40
6.0
 40
6.0
 10
332.1840484793
 20
37.0584181529
 30
0.0
 10
332.1840484793
 20
37.0584181529
 30
0.0
 10
331.8375502067
 20
37.5017475137
 30
0.0
 10
331.8375502067
 20
37.5017475137
 30
0.0
 10
331.5317471618
 20
37.8898569837
 30
0.0
 10
331.2128588347
 20
38.2783590121
 30
0.0
 10
331.2128588347
 20
38.8053033262
 30
0.0
 10
331.2128588347
 20
39.4714750428
 30
0.0
 10
331.7541969591
 20
39.9151969621
 30
0.0
 10
332.3781032143
 20
39.9151969621
 30
0.0
 10
333.0718848763
 20
39.9151969621
 30
0.0
 10
333.5990908961
 20
39.5129553874
 30
0.0
 10
333.5990908961
 20
38.7779550864
 30
0.0
 10
333.5990908961
 20
38.0146905758
 30
0.0
 10
332.8778301414
 20
37.58457735
 30
0.0
 10
332.3507549745
 20
37.1688579346
 30
0.0
 10
332.3507549745
 20
37.1688579346
 30
0.0
 10
332.1840484793
 20
37.0584181529
 30
0.0
 10
332.1840484793
 20
37.0584181529
 30
0.0
  0
SPLINE
  5
261
330
226
100
AcDbEntity
  8
0
  6
Continuous
 62
     7
100
AcDbSpline
 70
     3
 71
     3
 72
    50
 73
    46
 74
     0
 42
0.000000001
 43
0.0000001
 40
0.0
 40
0.0
 40
0.0
 40
0.0
 40
1.0
 40
1.0
 40
1.0
 40
2.0
 40
2.0
 40
2.0
 40
3.0
 40
3.0
 40
3.0
 40
4.0
 40
4.0
 40
4.0
 40
5.0
 40
5.0
 40
5.0
 40
6.0
 40
6.0
 40
6.0
 40
7.0
 40
7.0
 40
7.0
 40
8.0
 40
8.0
 40
8.0
 40
9.0
 40
9.0
 40
9.0
 40
10.0
 40
10.0
 40
10.0
 40
11.0
 40
11.0
 40
11.0
 40
12.0
 40
12.0
 40
12.0
 40
13.0
 40
13.0
 40
13.0
 40
14.0
 40
14.0
 40
14.0
 40
15.0
 40
15.0
 40
15.0
 40
15.0
 10
336.1376356422
 20
30.2598289348
 30
0.0
 10
336.1376356422
 20
30.2598289348
 30
0.0
 10
337.7468636468
 20
30.2598289348
 30
0.0
 10
337.7468636468
 20
30.2598289348
 30
0.0
 10
337.7468636468
 20
30.2598289348
 30
0.0
 10
335.8738363531
 20
32.5769707062
 30
0.0
 10
335.8738363531
 20
32.5769707062
 30
0.0
 10
335.8738363531
 20
32.5769707062
 30
0.0
 10
337.1501747786
 20
34.0744504008
 30
0.0
 10
337.1501747786
 20
34.0744504008
 30
0.0
 10
337.1501747786
 20
34.0744504008
 30
0.0
 10
336.3179508309
 20
34.9354619693
 30
0.0
 10
336.3179508309
 20
34.9354619693
 30
0.0
 10
336.3179508309
 20
34.9354619693
 30
0.0
 10
335.0973557076
 20
33.5201578469
 30
0.0
 10
335.0973557076
 20
33.5201578469
 30
0.0
 10
335.0973557076
 20
33.5201578469
 30
0.0
 10
332.9194413388
 20
36.1555336813
 30
0.0
 10
332.9194413388
 20
36.1555336813
 30
0.0
 10
333.7930147782
 20
36.7935720412
 30
0.0
 10
334.8196860194
 20
37.58457735
 30
0.0
 10
334.8196860194
 20
38.7634304231
 30
0.0
 10
334.8196860194
 20
40.1371233482
 30
0.0
 10
333.6817898795
 20
40.9416064976
 30
0.0
 10
332.4064982766
 20
40.9416064976
 30
0.0
 10
331.0330670573
 20
40.9416064976
 30
0.0
 10
329.9921328585
 20
40.0953812979
 30
0.0
 10
329.9921328585
 20
38.6527289358
 30
0.0
 10
329.9921328585
 20
37.7651542444
 30
0.0
 10
330.547472235
 20
36.9882810403
 30
0.0
 10
331.1436376918
 20
36.3638513739
 30
0.0
 10
331.1436376918
 20
36.3638513739
 30
0.0
 10
330.4917289328
 20
35.8922578035
 30
0.0
 10
330.4917289328
 20
35.8922578035
 30
0.0
 10
329.4931910484
 20
35.1709970488
 30
0.0
 10
328.6603128365
 20
34.4497362942
 30
0.0
 10
328.6603128365
 20
33.1181779778
 30
0.0
 10
328.6603128365
 20
31.3145026798
 30
0.0
 10
330.1173590091
 20
30.0379025487
 30
0.0
 10
331.8648984465
 20
30.0379025487
 30
0.0
 10
333.0997565274
 20
30.0379025487
 30
0.0
 10
334.2091267521
 20
30.7460780212
 30
0.0
 10
335.000001208
 20
31.6746096459
 30
0.0
 10
335.000001208
 20
31.6746096459
 30
0.0
 10
336.1376356422
 20
30.2598289348
 30
0.0
 10
336.1376356422
 20
30.2598289348
 30
0.0
  0
LINE
  5
262
330
226
100
AcDbEntity
  8
0
  6
Continuous
 62
     7
100
AcDbLine
 10
321.9404970172
 20
28.2337038394
 30
0.0
 11
344.3544077449
 21
28.2337038394
 31
0.0
  0
LINE
  5
263
330
226
100
AcDbEntity
  8
0
  6
Continuous
 62
     7
100
AcDbLine
 10
344.3544077449
 20
28.2337038394
 30
0.0
 11
344.3544077449
 21
50.6476145671
 31
0.0
  0
LINE
  5
264
330
226
100
AcDbEntity
  8
0
  6
Continuous
 62
     7
100
AcDbLine
 10
344.3544077449
 20
50.6476145671
 30
0.0
 11
321.9404970172
 21
50.6476145671
 31
0.0
  0
LINE
  5
265
330
226
100
AcDbEntity
  8
0
  6
Continuous
 62
     7
100
AcDbLine
 10
321.9404970172
 20
50.6476145671
 30
0.0
 11
321.9404970172
 21
28.2337038394
 31
0.0
  0
ENDBLK
  5
266
330
226
100
AcDbEntity
  8
0
  6
ByBlock
 62
     0
100
AcDbBlockEnd
  0
BLOCK
  5
27B
330
227
100
AcDbEntity
  8
0
100
AcDbBlockBegin
  2
*T4
 70
     1
 10
0.0
 20
0.0
 30
0.0
  3
*T4
  1
*T4
  0
MTEXT
  5
27C
330
227
100
AcDbEntity
  8
0
  6
Continuous
 62
     0
100
AcDbMText
 10
30.06
 20
-3.0
 30
0.0
 40
3.0
 41
39.88
 71
     4
 72
     5
  1
361_C_002
 73
     1
 44
1.0
  0
MTEXT
  5
27D
330
227
100
AcDbEntity
  8
0
  6
Continuous
 62
     0
100
AcDbMText
 10
70.06
 20
-0.06
 30
0.0
 40
3.5
 41
19.88
 71
     1
 72
     5
  1
Rev:00
 73
     1
 44
1.0
  0
MTEXT
  5
27E
330
227
100
AcDbEntity
  8
0
  6
Continuous
 62
     0
100
AcDbMText
 10
30.06
 20
-6.06
 30
0.0
 40
3.5
 41
39.88
 71
     1
 72
     5
  1
Scale:1:1
 73
     1
 44
1.0
  0
MTEXT
  5
27F
330
227
100
AcDbEntity
  8
0
  6
Continuous
 62
     0
100
AcDbMText
 10
70.06
 20
-9.0
 30
0.0
 40
3.5
 41
19.88
 71
     4
 72
     5
  1
A3
 73
     1
 44
1.0
  0
MTEXT
  5
280
330
227
100
AcDbEntity
  8
0
  6
Continuous
 62
     0
100
AcDbMText
 10
30.06
 20
-17.0
 30
0.0
 40
3.5
 41
59.88
 71
     4
 72
     5
  1
UPDOWN 6.0
 73
     1
 44
1.0
  0
MTEXT
  5
281
330
227
100
AcDbEntity
  8
0
  6
Continuous
 62
     0
100
AcDbMText
 10
30.06
 20
-24.5
 30
0.0
 40
2.5
 41
59.88
 71
     4
 72
     5
  1
DATE:28/03/2014
 73
     1
 44
1.0
  0
MTEXT
  5
282
330
227
100
AcDbEntity
  8
0
  6
Continuous
 62
     0
100
AcDbMText
 10
0.06
 20
-27.06
 30
0.0
 40
1.85
 41
89.88
 71
     1
 72
     5
  1
Any integral or partial reproductions are prohibited \Pwithout prior authorisation of L & L Luce & Light s.r.l., \Pin accordance with the law in force. \PAll rights reserved.
 73
     1
 44
1.0
  0
LINE
  5
283
330
227
100
AcDbEntity
  8
0
  6
Continuous
 62
     0
370
    -2
100
AcDbLine
 10
0.0
 20
0.0
 30
0.0
 11
10.0
 21
0.0
 31
0.0
  0
LINE
  5
284
330
227
100
AcDbEntity
  8
0
  6
Continuous
 62
     0
370
    -2
100
AcDbLine
 10
10.0
 20
0.0
 30
0.0
 11
20.0
 21
0.0
 31
0.0
  0
LINE
  5
285
330
227
100
AcDbEntity
  8
0
  6
Continuous
 62
     0
370
    -2
100
AcDbLine
 10
20.0
 20
0.0
 30
0.0
 11
30.0
 21
0.0
 31
0.0
  0
LINE
  5
286
330
227
100
AcDbEntity
  8
0
  6
Continuous
 62
     0
370
    -2
100
AcDbLine
 10
0.0
 20
0.0
 30
0.0
 11
0.0
 21
-6.0
 31
0.0
  0
LINE
  5
287
330
227
100
AcDbEntity
  8
0
  6
Continuous
 62
     0
370
    -2
100
AcDbLine
 10
0.0
 20
-6.0
 30
0.0
 11
0.0
 21
-12.0
 31
0.0
  0
LINE
  5
288
330
227
100
AcDbEntity
  8
0
  6
Continuous
 62
     0
370
    -2
100
AcDbLine
 10
0.0
 20
-12.0
 30
0.0
 11
0.0
 21
-22.0
 31
0.0
  0
LINE
  5
289
330
227
100
AcDbEntity
  8
0
  6
Continuous
 62
     0
370
    -2
100
AcDbLine
 10
0.0
 20
-22.0
 30
0.0
 11
0.0
 21
-27.0
 31
0.0
  0
LINE
  5
28A
330
227
100
AcDbEntity
  8
0
  6
Continuous
 62
     0
370
    -2
100
AcDbLine
 10
30.0
 20
0.0
 30
0.0
 11
70.0
 21
0.0
 31
0.0
  0
LINE
  5
28B
330
227
100
AcDbEntity
  8
0
  6
Continuous
 62
     0
370
    -2
100
AcDbLine
 10
30.0
 20
0.0
 30
0.0
 11
30.0
 21
-6.0
 31
0.0
  0
LINE
  5
28C
330
227
100
AcDbEntity
  8
0
  6
Continuous
 62
     0
370
    -2
100
AcDbLine
 10
70.0
 20
0.0
 30
0.0
 11
90.0
 21
0.0
 31
0.0
  0
LINE
  5
3DB
330
227
100
AcDbEntity
  8
0
  6
Continuous
 62
     0
370
    -2
100
AcDbLine
 10
70.0
 20
0.0
 30
0.0
 11
70.0
 21
-6.0
 31
0.0
  0
LINE
  5
3DC
330
227
100
AcDbEntity
  8
0
  6
Continuous
 62
     0
370
    -2
100
AcDbLine
 10
90.0
 20
0.0
 30
0.0
 11
90.0
 21
-6.0
 31
0.0
  0
LINE
  5
3DD
330
227
100
AcDbEntity
  8
0
  6
Continuous
 62
     0
370
    -2
100
AcDbLine
 10
30.0
 20
-6.0
 30
0.0
 11
70.0
 21
-6.0
 31
0.0
  0
LINE
  5
3DE
330
227
100
AcDbEntity
  8
0
  6
Continuous
 62
     0
370
    -2
100
AcDbLine
 10
30.0
 20
-6.0
 30
0.0
 11
30.0
 21
-12.0
 31
0.0
  0
LINE
  5
3DF
330
227
100
AcDbEntity
  8
0
  6
Continuous
 62
     0
370
    -2
100
AcDbLine
 10
70.0
 20
-6.0
 30
0.0
 11
90.0
 21
-6.0
 31
0.0
  0
LINE
  5
3E0
330
227
100
AcDbEntity
  8
0
  6
Continuous
 62
     0
370
    -2
100
AcDbLine
 10
70.0
 20
-6.0
 30
0.0
 11
70.0
 21
-12.0
 31
0.0
  0
LINE
  5
3E1
330
227
100
AcDbEntity
  8
0
  6
Continuous
 62
     0
370
    -2
100
AcDbLine
 10
90.0
 20
-6.0
 30
0.0
 11
90.0
 21
-12.0
 31
0.0
  0
LINE
  5
3E2
330
227
100
AcDbEntity
  8
0
  6
Continuous
 62
     0
370
    -2
100
AcDbLine
 10
30.0
 20
-12.0
 30
0.0
 11
70.0
 21
-12.0
 31
0.0
  0
LINE
  5
3E3
330
227
100
AcDbEntity
  8
0
  6
Continuous
 62
     0
370
    -2
100
AcDbLine
 10
70.0
 20
-12.0
 30
0.0
 11
90.0
 21
-12.0
 31
0.0
  0
LINE
  5
3E4
330
227
100
AcDbEntity
  8
0
  6
Continuous
 62
     0
370
    -2
100
AcDbLine
 10
30.0
 20
-12.0
 30
0.0
 11
30.0
 21
-22.0
 31
0.0
  0
LINE
  5
3E5
330
227
100
AcDbEntity
  8
0
  6
Continuous
 62
     0
370
    -2
100
AcDbLine
 10
90.0
 20
-12.0
 30
0.0
 11
90.0
 21
-22.0
 31
0.0
  0
LINE
  5
3E6
330
227
100
AcDbEntity
  8
0
  6
Continuous
 62
     0
370
    -2
100
AcDbLine
 10
30.0
 20
-22.0
 30
0.0
 11
70.0
 21
-22.0
 31
0.0
  0
LINE
  5
3E7
330
227
100
AcDbEntity
  8
0
  6
Continuous
 62
     0
370
    -2
100
AcDbLine
 10
70.0
 20
-22.0
 30
0.0
 11
90.0
 21
-22.0
 31
0.0
  0
LINE
  5
3E8
330
227
100
AcDbEntity
  8
0
  6
Continuous
 62
     0
370
    -2
100
AcDbLine
 10
30.0
 20
-22.0
 30
0.0
 11
30.0
 21
-27.0
 31
0.0
  0
LINE
  5
3E9
330
227
100
AcDbEntity
  8
0
  6
Continuous
 62
     0
370
    -2
100
AcDbLine
 10
90.0
 20
-22.0
 30
0.0
 11
90.0
 21
-27.0
 31
0.0
  0
LINE
  5
3EA
330
227
100
AcDbEntity
  8
0
  6
Continuous
 62
     0
370
    -2
100
AcDbLine
 10
0.0
 20
-27.0
 30
0.0
 11
10.0
 21
-27.0
 31
0.0
  0
LINE
  5
3EB
330
227
100
AcDbEntity
  8
0
  6
Continuous
 62
     0
370
    -2
100
AcDbLine
 10
10.0
 20
-27.0
 30
0.0
 11
20.0
 21
-27.0
 31
0.0
  0
LINE
  5
3EC
330
227
100
AcDbEntity
  8
0
  6
Continuous
 62
     0
370
    -2
100
AcDbLine
 10
20.0
 20
-27.0
 30
0.0
 11
30.0
 21
-27.0
 31
0.0
  0
LINE
  5
3ED
330
227
100
AcDbEntity
  8
0
  6
Continuous
 62
     0
370
    -2
100
AcDbLine
 10
30.0
 20
-27.0
 30
0.0
 11
70.0
 21
-27.0
 31
0.0
  0
LINE
  5
3EE
330
227
100
AcDbEntity
  8
0
  6
Continuous
 62
     0
370
    -2
100
AcDbLine
 10
70.0
 20
-27.0
 30
0.0
 11
90.0
 21
-27.0
 31
0.0
  0
LINE
  5
3EF
330
227
100
AcDbEntity
  8
0
  6
Continuous
 62
     0
370
    -2
100
AcDbLine
 10
0.0
 20
-27.0
 30
0.0
 11
0.0
 21
-40.0
 31
0.0
  0
LINE
  5
3F0
330
227
100
AcDbEntity
  8
0
  6
Continuous
 62
     0
370
    -2
100
AcDbLine
 10
90.0
 20
-27.0
 30
0.0
 11
90.0
 21
-40.0
 31
0.0
  0
LINE
  5
3F1
330
227
100
AcDbEntity
  8
0
  6
Continuous
 62
     0
370
    -2
100
AcDbLine
 10
0.0
 20
-40.0
 30
0.0
 11
10.0
 21
-40.0
 31
0.0
  0
LINE
  5
3F2
330
227
100
AcDbEntity
  8
0
  6
Continuous
 62
     0
370
    -2
100
AcDbLine
 10
10.0
 20
-40.0
 30
0.0
 11
20.0
 21
-40.0
 31
0.0
  0
LINE
  5
3F3
330
227
100
AcDbEntity
  8
0
  6
Continuous
 62
     0
370
    -2
100
AcDbLine
 10
20.0
 20
-40.0
 30
0.0
 11
30.0
 21
-40.0
 31
0.0
  0
LINE
  5
3F4
330
227
100
AcDbEntity
  8
0
  6
Continuous
 62
     0
370
    -2
100
AcDbLine
 10
30.0
 20
-40.0
 30
0.0
 11
70.0
 21
-40.0
 31
0.0
  0
LINE
  5
3F5
330
227
100
AcDbEntity
  8
0
  6
Continuous
 62
     0
370
    -2
100
AcDbLine
 10
70.0
 20
-40.0
 30
0.0
 11
90.0
 21
-40.0
 31
0.0
  0
ENDBLK
  5
28D
330
227
100
AcDbEntity
  8
0
100
AcDbBlockEnd
  0
ENDSEC
  0
SECTION
  2
ENTITIES
  0
MTEXT
  5
28E
330
221
100
AcDbEntity
  8
0
  6
Continuous
 62
     2
100
AcDbMText
 10
1.6467220993
 20
53.595027386
 30
0.0
 40
4.0
 41
2.2857142857
 71
     1
 72
     1
  1
1
  7
TEXTSTYLE_2
 73
     1
 44
0.9
  0
MTEXT
  5
28F
330
221
100
AcDbEntity
  8
0
  6
Continuous
 62
     2
100
AcDbMText
 10
1.6467220993
 20
153.595027386
 30
0.0
 40
4.0
 41
3.1428571429
 71
     1
 72
     1
  1
2
  7
TEXTSTYLE_2
 73
     1
 44
0.9
  0
MTEXT
  5
290
330
221
100
AcDbEntity
  8
0
  6
Continuous
 62
     2
100
AcDbMText
 10
1.6467220993
 20
253.595027386
 30
0.0
 40
4.0
 41
2.8571428571
 71
     1
 72
     1
  1
3
  7
TEXTSTYLE_2
 73
     1
 44
0.9
  0
MTEXT
  5
291
330
221
100
AcDbEntity
  8
0
  6
Continuous
 62
     2
100
AcDbMText
 10
414.6467220993
 20
60.6268709614
 30
0.0
 40
4.0
 41
2.2857142857
 71
     1
 72
     1
  1
1
  7
TEXTSTYLE_2
 73
     1
 44
0.9
  0
MTEXT
  5
292
330
221
100
AcDbEntity
  8
0
  6
Continuous
 62
     2
100
AcDbMText
 10
414.6467220993
 20
160.6268709614
 30
0.0
 40
4.0
 41
3.1428571429
 71
     1
 72
     1
  1
2
  7
TEXTSTYLE_2
 73
     1
 44
0.9
  0
MTEXT
  5
293
330
221
100
AcDbEntity
  8
0
  6
Continuous
 62
     2
100
AcDbMText
 10
414.6467220993
 20
260.6268709614
 30
0.0
 40
4.0
 41
2.8571428571
 71
     1
 72
     1
  1
3
  7
TEXTSTYLE_2
 73
     1
 44
0.9
  0
MTEXT
  5
294
330
221
100
AcDbEntity
  8
0
  6
Continuous
 62
     2
100
AcDbMText
 10
362.154890719
 20
5.35876025
 30
0.0
 40
4.0
 41
3.6
 71
     1
 72
     1
  1
A
  7
TEXTSTYLE_3
 73
     1
 44
0.9
  0
MTEXT
  5
295
330
221
100
AcDbEntity
  8
0
  6
Continuous
 62
     2
100
AcDbMText
 10
262.154890719
 20
5.35876025
 30
0.0
 40
4.0
 41
3.6
 71
     1
 72
     1
  1
B
  7
TEXTSTYLE_3
 73
     1
 44
0.9
  0
MTEXT
  5
296
330
221
100
AcDbEntity
  8
0
  6
Continuous
 62
     2
100
AcDbMText
 10
162.154890719
 20
5.35876025
 30
0.0
 40
4.0
 41
3.6
 71
     1
 72
     1
  1
C
  7
TEXTSTYLE_3
 73
     1
 44
0.9
  0
MTEXT
  5
297
330
221
100
AcDbEntity
  8
0
  6
Continuous
 62
     2
100
AcDbMText
 10
55.7978688212
 20
5.5353441916
 30
0.0
 40
4.0
 41
3.6
 71
     1
 72
     1
  1
D
  7
TEXTSTYLE_3
 73
     1
 44
0.9
  0
MTEXT
  5
298
330
221
100
AcDbEntity
  8
0
  6
Continuous
 62
     2
100
AcDbMText
 10
362.154890719
 20
295.35876025
 30
0.0
 40
4.0
 41
3.6
 71
     1
 72
     1
  1
A
  7
TEXTSTYLE_3
 73
     1
 44
0.9
  0
MTEXT
  5
299
330
221
100
AcDbEntity
  8
0
  6
Continuous
 62
     2
100
AcDbMText
 10
262.154890719
 20
295.35876025
 30
0.0
 40
4.0
 41
3.6
 71
     1
 72
     1
  1
B
  7
TEXTSTYLE_3
 73
     1
 44
0.9
  0
MTEXT
  5
29A
330
221
100
AcDbEntity
  8
0
  6
Continuous
 62
     2
100
AcDbMText
 10
162.154890719
 20
295.35876025
 30
0.0
 40
4.0
 41
3.6
 71
     1
 72
     1
  1
C
  7
TEXTSTYLE_3
 73
     1
 44
0.9
  0
MTEXT
  5
29B
330
221
100
AcDbEntity
  8
0
  6
Continuous
 62
     2
100
AcDbMText
 10
53.9878834197
 20
295.579490177
 30
0.0
 40
4.0
 41
3.6
 71
     1
 72
     1
  1
D
  7
TEXTSTYLE_3
 73
     1
 44
0.9
  0
DIMENSION
  5
29C
330
221
100
AcDbEntity
  8
0
  6
Continuous
 62
     2
100
AcDbDimension
  2
*D1
 10
130.6857710153
 20
51.3759273672
 30
0.0
 11
130.6857710153
 21
68.8759273672
 31
0.0
 70
   160
 71
     2
 42
35.00000000000001
  3
DIMSTYLE_1
100
AcDbAlignedDimension
 13
118.5116399751
 23
86.3759273672
 33
0.0
 14
118.3922508842
 24
51.3759273672
 34
0.0
 50
270.0
100
AcDbRotatedDimension
1001
ACAD
1000
DSTYLE
1002
{
1070
   147
1040
2.0
1002
}
  0
DIMENSION
  5
29D
330
221
100
AcDbEntity
  8
0
  6
Continuous
 62
     2
100
AcDbDimension
  2
*D2
 10
46.12655313563282
 20
196.762093172701
 30
0.0
 11
116.29503000313
 21
252.6211346103406
 31
0.0
 70
   163
  1
<>
 71
     1
 42
79.49999999992434
  3
DIMSTYLE_2
100
AcDbDiametricDimension
 15
108.3246733972682
 25
246.2761703215998
 35
0.0
 40
0.0
1001
ACAD
1000
DSTYLE
1002
{
1070
   147
1040
2.0
1002
}
  0
INSERT
  5
29E
330
221
100
AcDbEntity
  8
0
  6
Continuous
 62
     2
100
AcDbBlockReference
  2
LOGO2_BL0
 10
333.1473869546
 20
37.5239270671
 30
0.0
  0
INSERT
  5
29F
330
221
100
AcDbEntity
  8
0
  6
Continuous
 62
     2
100
AcDbBlockReference
  2
*T4
 10
319.3213399098
 20
51.0239270671
 30
0.0
  0
LINE
  5
2A0
330
221
100
AcDbEntity
  8
0
  6
Continuous
 62
     7
100
AcDbLine
 10
0.0
 20
0.0
 30
0.0
 11
0.0
 21
297.0
 31
0.0
  0
LWPOLYLINE
  5
2A1
330
221
100
AcDbEntity
  8
0
  6
Continuous
 62
     7
100
AcDbPolyline
 90
        2
 70
     0
 43
0.1000000003
 10
7.0536312849
 20
0.0
 10
7.0536312849
 20
297.0
  0
LWPOLYLINE
  5
2A2
330
221
100
AcDbEntity
  8
0
  6
Continuous
 62
     7
100
AcDbPolyline
 90
        2
 70
     0
 43
0.4999999952
 10
10.0536312849
 20
10.0318435754
 10
10.0536312849
 20
287.0
  0
LINE
  5
2A3
330
221
100
AcDbEntity
  8
0
  6
Continuous
 62
     7
100
AcDbLine
 10
0.0
 20
0.0
 30
0.0
 11
420.0
 21
0.0
 31
0.0
  0
LWPOLYLINE
  5
2A4
330
221
100
AcDbEntity
  8
0
  6
Continuous
 62
     7
100
AcDbPolyline
 90
        2
 70
     0
 43
0.1000000003
 10
0.0
 20
7.0318435754
 10
420.0
 20
7.0318435754
  0
LWPOLYLINE
  5
2A5
330
221
100
AcDbEntity
  8
0
  6
Continuous
 62
     7
100
AcDbPolyline
 90
        2
 70
     0
 43
0.4999999952
 10
10.0536312849
 20
10.0318435754
 10
410.0
 20
10.0318435754
  0
LINE
  5
2A6
330
221
100
AcDbEntity
  8
0
  6
Continuous
 62
     7
100
AcDbLine
 10
113.0
 20
297.0
 30
0.0
 11
113.0
 21
290.0
 31
0.0
  0
LINE
  5
2A7
330
221
100
AcDbEntity
  8
0
  6
Continuous
 62
     7
100
AcDbLine
 10
113.0
 20
7.0
 30
0.0
 11
113.0
 21
0.0
 31
0.0
  0
LWPOLYLINE
  5
2A8
330
221
100
AcDbEntity
  8
0
  6
Continuous
 62
     7
100
AcDbPolyline
 90
        2
 70
     0
 43
0.1000000003
 10
123.0
 20
10.0
 10
123.0
 20
0.0
  0
LWPOLYLINE
  5
2A9
330
221
100
AcDbEntity
  8
0
  6
Continuous
 62
     7
100
AcDbPolyline
 90
        2
 70
     0
 43
0.1000000003
 10
123.0
 20
287.0
 10
123.0
 20
297.0
  0
LINE
  5
2AA
330
221
100
AcDbEntity
  8
0
  6
Continuous
 62
     7
100
AcDbLine
 10
0.0
 20
99.9681564246
 30
0.0
 11
7.0
 21
99.9681564246
 31
0.0
  0
LINE
  5
2AB
330
221
100
AcDbEntity
  8
0
  6
Continuous
 62
     7
100
AcDbLine
 10
413.0
 20
107.0
 30
0.0
 11
420.0
 21
107.0
 31
0.0
  0
LWPOLYLINE
  5
2AC
330
221
100
AcDbEntity
  8
0
  6
Continuous
 62
     7
100
AcDbPolyline
 90
        2
 70
     0
 43
0.1000000003
 10
210.0
 20
10.0
 10
210.0
 20
0.0
  0
LWPOLYLINE
  5
2AD
330
221
100
AcDbEntity
  8
0
  6
Continuous
 62
     7
100
AcDbPolyline
 90
        2
 70
     0
 43
0.1000000003
 10
210.0
 20
287.0
 10
210.0
 20
297.0
  0
LWPOLYLINE
  5
2AE
330
221
100
AcDbEntity
  8
0
  6
Continuous
 62
     7
100
AcDbPolyline
 90
        2
 70
     0
 43
0.1000000003
 10
10.0
 20
148.5
 10
0.0
 20
148.5
  0
LWPOLYLINE
  5
2AF
330
221
100
AcDbEntity
  8
0
  6
Continuous
 62
     7
100
AcDbPolyline
 90
        2
 70
     0
 43
0.1000000003
 10
410.0
 20
148.5
 10
420.0
 20
148.5
  0
LINE
  5
2B0
330
221
100
AcDbEntity
  8
0
  6
Continuous
 62
     7
100
AcDbLine
 10
0.0
 20
199.9681564246
 30
0.0
 11
7.0
 21
199.9681564246
 31
0.0
  0
LWPOLYLINE
  5
2B1
330
221
100
AcDbEntity
  8
0
  6
Continuous
 62
     7
100
AcDbPolyline
 90
        2
 70
     0
 43
0.1000000003
 10
10.0
 20
202.9681564246
 10
0.0
 20
202.9681564246
  0
LWPOLYLINE
  5
2B2
330
221
100
AcDbEntity
  8
0
  6
Continuous
 62
     7
100
AcDbPolyline
 90
        2
 70
     0
 43
0.1000000003
 10
410.0
 20
210.0
 10
420.0
 20
210.0
  0
LINE
  5
2B3
330
221
100
AcDbEntity
  8
0
  6
Continuous
 62
     7
100
AcDbLine
 10
313.0
 20
297.0
 30
0.0
 11
313.0
 21
290.0
 31
0.0
  0
LINE
  5
2B4
330
221
100
AcDbEntity
  8
0
  6
Continuous
 62
     7
100
AcDbLine
 10
313.0
 20
7.0
 30
0.0
 11
313.0
 21
0.0
 31
0.0
  0
LWPOLYLINE
  5
2B5
330
221
100
AcDbEntity
  8
0
  6
Continuous
 62
     7
100
AcDbPolyline
 90
        2
 70
     0
 43
0.4999999952
 10
10.0536312849
 20
287.0
 10
410.0
 20
287.0
  0
LWPOLYLINE
  5
2B6
330
221
100
AcDbEntity
  8
0
  6
Continuous
 62
     7
100
AcDbPolyline
 90
        2
 70
     0
 43
0.1000000003
 10
0.0
 20
290.0
 10
420.0
 20
290.0
  0
LINE
  5
2B7
330
221
100
AcDbEntity
  8
0
  6
Continuous
 62
     7
100
AcDbLine
 10
0.0
 20
297.0
 30
0.0
 11
420.0
 21
297.0
 31
0.0
  0
LWPOLYLINE
  5
2B8
330
221
100
AcDbEntity
  8
0
  6
Continuous
 62
     7
100
AcDbPolyline
 90
        2
 70
     0
 43
0.4999999952
 10
410.0
 20
10.0318435754
 10
410.0
 20
287.0
  0
LWPOLYLINE
  5
2B9
330
221
100
AcDbEntity
  8
0
  6
Continuous
 62
     7
100
AcDbPolyline
 90
        2
 70
     0
 43
0.1000000003
 10
413.0
 20
0.0
 10
413.0
 20
297.0
  0
LINE
  5
2BA
330
221
100
AcDbEntity
  8
0
  6
Continuous
 62
     7
100
AcDbLine
 10
420.0
 20
0.0
 30
0.0
 11
420.0
 21
297.0
 31
0.0
  0
LINE
  5
2BB
330
221
100
AcDbEntity
  8
02___PRT_ALL_AXES
  6
Continuous
 62
     7
100
AcDbLine
 10
37.4756132665
 20
86.3759273672
 30
0.0
 11
37.4756132665
 21
81.4384273672
 31
0.0
  0
LINE
  5
2BC
330
221
100
AcDbEntity
  8
02___PRT_ALL_AXES
  6
Continuous
 62
     7
100
AcDbLine
 10
37.4756132665
 20
77.3134273672
 30
0.0
 11
37.4756132665
 21
51.3759273672
 31
0.0
  0
LINE
  5
2BD
330
221
100
AcDbEntity
  8
02___PRT_ALL_AXES
  6
Continuous
 62
     7
100
AcDbLine
 10
116.9756132665
 20
51.3759273672
 30
0.0
 11
37.4756132665
 21
51.3759273672
 31
0.0
  0
LINE
  5
2BE
330
221
100
AcDbEntity
  8
02___PRT_ALL_AXES
  6
Continuous
 62
     7
100
AcDbLine
 10
70.2974100362
 20
86.3759273672
 30
0.0
 11
70.2974100362
 21
86.8759273672
 31
0.0
  0
LINE
  5
2BF
330
221
100
AcDbEntity
  8
02___PRT_ALL_AXES
  6
Continuous
 62
     7
100
AcDbLine
 10
70.2974100362
 20
89.8759273672
 30
0.0
 11
70.2974100362
 21
96.5810894688
 31
0.0
  0
LINE
  5
2C0
330
221
100
AcDbEntity
  8
02___PRT_ALL_AXES
  6
Continuous
 62
     7
100
AcDbLine
 10
71.2256132665
 20
89.8759273672
 30
0.0
 11
71.2256132665
 21
86.8759273672
 31
0.0
  0
LINE
  5
2C1
330
221
100
AcDbEntity
  8
7_ALL_FEATURES
  6
Continuous
 62
     9
100
AcDbLine
 10
63.3769404162
 20
68.8759263324
 30
0.0
 11
64.7253434978
 21
68.8759263711
 31
0.0
  0
LINE
  5
2C2
330
221
100
AcDbEntity
  8
7_ALL_FEATURES
  6
Continuous
 62
     9
100
AcDbLine
 10
91.074286054
 20
68.8759284015
 30
0.0
 11
89.7258829766
 21
68.8759283628
 31
0.0
  0
LINE
  5
2C3
330
221
100
AcDbEntity
  8
02___PRT_ALL_AXES
  6
Continuous
 62
     7
100
AcDbLine
 10
72.8954862476
 20
95.8759273672
 30
0.0
 11
72.8954862476
 21
95.3759273672
 31
0.0
  0
LINE
  5
2C4
330
221
100
AcDbEntity
  8
02___PRT_ALL_AXES
  6
Continuous
 62
     7
100
AcDbLine
 10
74.6275370551
 20
95.8759273672
 30
0.0
 11
74.6275370551
 21
95.3759273672
 31
0.0
  0
LINE
  5
2C5
330
221
100
AcDbEntity
  8
02___PRT_ALL_AXES
  6
Continuous
 62
     7
100
AcDbLine
 10
77.2256132665
 20
86.3759273672
 30
0.0
 11
77.2256132665
 21
86.8759273672
 31
0.0
  0
LINE
  5
2C6
330
221
100
AcDbEntity
  8
02___PRT_ALL_AXES
  6
Continuous
 62
     7
100
AcDbLine
 10
77.2256132665
 20
89.8759273672
 30
0.0
 11
77.2256132665
 21
94.3759273672
 31
0.0
  0
LINE
  5
2C7
330
221
100
AcDbEntity
  8
02___PRT_ALL_AXES
  6
Continuous
 62
     7
100
AcDbLine
 10
79.8236894778
 20
95.8759273672
 30
0.0
 11
79.8236894778
 21
95.3759273672
 31
0.0
  0
LINE
  5
2C8
330
221
100
AcDbEntity
  8
02___PRT_ALL_AXES
  6
Continuous
 62
     7
100
AcDbLine
 10
81.5557402854
 20
95.8759273672
 30
0.0
 11
81.5557402854
 21
95.3759273672
 31
0.0
  0
LINE
  5
2C9
330
221
100
AcDbEntity
  8
02___PRT_ALL_AXES
  6
Continuous
 62
     7
100
AcDbLine
 10
83.2256132665
 20
89.8759273672
 30
0.0
 11
83.2256132665
 21
86.8759273672
 31
0.0
  0
LINE
  5
2CA
330
221
100
AcDbEntity
  8
02___PRT_ALL_AXES
  6
Continuous
 62
     7
100
AcDbLine
 10
84.1538164968
 20
86.3759273672
 30
0.0
 11
84.1538164968
 21
86.8759273672
 31
0.0
  0
LINE
  5
2CB
330
221
100
AcDbEntity
  8
02___PRT_ALL_AXES
  6
Continuous
 62
     7
100
AcDbLine
 10
84.1538164968
 20
89.8759273672
 30
0.0
 11
84.1538164968
 21
96.5810894688
 31
0.0
  0
LINE
  5
2CC
330
221
100
AcDbEntity
  8
02___PRT_ALL_AXES
  6
Continuous
 62
     7
100
AcDbLine
 10
116.9756132665
 20
86.3759273672
 30
0.0
 11
37.4756132665
 21
86.3759273672
 31
0.0
  0
LINE
  5
2CD
330
221
100
AcDbEntity
  8
02___PRT_ALL_AXES
  6
Continuous
 62
     7
100
AcDbLine
 10
70.2974100362
 20
86.8759273672
 30
0.0
 11
84.1538164968
 21
86.8759273672
 31
0.0
  0
LINE
  5
2CE
330
221
100
AcDbEntity
  8
02___PRT_ALL_AXES
  6
Continuous
 62
     7
100
AcDbLine
 10
70.2974100362
 20
89.8759273672
 30
0.0
 11
84.1538164968
 21
89.8759273672
 31
0.0
  0
LINE
  5
2CF
330
221
100
AcDbEntity
  8
02___PRT_ALL_AXES
  6
Continuous
 62
     7
100
AcDbLine
 10
79.8236894778
 20
95.3759273672
 30
0.0
 11
74.6275370551
 21
95.3759273672
 31
0.0
  0
LINE
  5
2D0
330
221
100
AcDbEntity
  8
02___PRT_ALL_AXES
  6
Continuous
 62
     7
100
AcDbLine
 10
72.8954862476
 20
95.3759273672
 30
0.0
 11
70.2974100362
 21
95.3759273672
 31
0.0
  0
LINE
  5
2D1
330
221
100
AcDbEntity
  8
02___PRT_ALL_AXES
  6
Continuous
 62
     7
100
AcDbLine
 10
81.5557402854
 20
95.3759273672
 30
0.0
 11
84.1538164968
 21
95.3759273672
 31
0.0
  0
LINE
  5
2D2
330
221
100
AcDbEntity
  8
02___PRT_ALL_AXES
  6
Continuous
 62
     9
100
AcDbLine
 10
72.8954862476
 20
95.8759273672
 30
0.0
 11
70.2974100362
 21
95.8759273672
 31
0.0
  0
LINE
  5
2D3
330
221
100
AcDbEntity
  8
02___PRT_ALL_AXES
  6
Continuous
 62
     9
100
AcDbLine
 10
74.6275370551
 20
95.8759273672
 30
0.0
 11
79.8236894778
 21
95.8759273672
 31
0.0
  0
LINE
  5
2D4
330
221
100
AcDbEntity
  8
02___PRT_ALL_AXES
  6
Continuous
 62
     9
100
AcDbLine
 10
81.5557402854
 20
95.8759273672
 30
0.0
 11
84.1538164968
 21
95.8759273672
 31
0.0
  0
LINE
  5
2D5
330
221
100
AcDbEntity
  8
02___PRT_ALL_AXES
  6
Continuous
 62
     7
100
AcDbLine
 10
80.7256132665
 20
99.3759273672
 30
0.0
 11
73.7256132665
 21
99.3759273672
 31
0.0
  0
LINE
  5
2D6
330
221
100
AcDbEntity
  8
7_ALL_FEATURES
  6
Continuous
 62
     7
100
AcDbLine
 10
80.7256132665
 20
99.3759273672
 30
0.0
 11
73.7256132665
 21
99.3759273672
 31
0.0
  0
LINE
  5
2D7
330
221
100
AcDbEntity
  8
02___PRT_ALL_AXES
  6
Continuous
 62
     7
100
AcDbLine
 10
116.9756132665
 20
86.3759273672
 30
0.0
 11
116.9756132665
 21
51.3759273672
 31
0.0
  0
LINE
  5
2D8
330
221
100
AcDbEntity
  8
02___PRT_ALL_AXES
  6
Continuous
 62
     7
100
AcDbLine
 10
192.2806198139
 20
181.7691317472
 30
0.0
 11
196.2807183322
 21
181.7691317472
 31
0.0
  0
LINE
  5
2D9
330
221
100
AcDbEntity
  8
02___PRT_ALL_AXES
  6
Continuous
 62
     7
100
AcDbLine
 10
223.2805384589
 20
181.7691317472
 30
0.0
 11
227.2806198139
 21
181.7691317472
 31
0.0
  0
LINE
  5
2DA
330
221
100
AcDbEntity
  8
02___PRT_ALL_AXES
  6
Continuous
 62
     7
100
AcDbLine
 10
179.2806198139
 20
225.0191317472
 30
0.0
 11
179.2806198139
 21
218.0191317472
 31
0.0
  0
LINE
  5
2DB
330
221
100
AcDbEntity
  8
7_ALL_FEATURES
  6
Continuous
 62
     7
100
AcDbLine
 10
179.2806198139
 20
225.0191317472
 30
0.0
 11
179.2806198139
 21
218.0191317472
 31
0.0
  0
LINE
  5
2DC
330
221
100
AcDbEntity
  8
02___PRT_ALL_AXES
  6
Continuous
 62
     9
100
AcDbLine
 10
182.7806198139
 20
228.5191317472
 30
0.0
 11
182.7806198139
 21
228.0191317472
 31
0.0
  0
LINE
  5
2DD
330
221
100
AcDbEntity
  8
02___PRT_ALL_AXES
  6
Continuous
 62
     9
100
AcDbLine
 10
182.7806198139
 20
227.0191317472
 30
0.0
 11
182.7806198139
 21
222.5191317472
 31
0.0
  0
LINE
  5
2DE
330
221
100
AcDbEntity
  8
02___PRT_ALL_AXES
  6
Continuous
 62
     9
100
AcDbLine
 10
182.7806198139
 20
220.5191317472
 30
0.0
 11
182.7806198139
 21
216.0191317472
 31
0.0
  0
LINE
  5
2DF
330
221
100
AcDbEntity
  8
02___PRT_ALL_AXES
  6
Continuous
 62
     9
100
AcDbLine
 10
182.7806198139
 20
215.0191317472
 30
0.0
 11
182.7806198139
 21
214.5191317472
 31
0.0
  0
LINE
  5
2E0
330
221
100
AcDbEntity
  8
02___PRT_ALL_AXES
  6
Continuous
 62
     7
100
AcDbLine
 10
183.2806198139
 20
228.5191317472
 30
0.0
 11
183.2806198139
 21
228.0191317472
 31
0.0
  0
LINE
  5
2E1
330
221
100
AcDbEntity
  8
02___PRT_ALL_AXES
  6
Continuous
 62
     7
100
AcDbLine
 10
183.2806198139
 20
227.0191317472
 30
0.0
 11
183.2806198139
 21
222.5191317472
 31
0.0
  0
LINE
  5
2E2
330
221
100
AcDbEntity
  8
02___PRT_ALL_AXES
  6
Continuous
 62
     7
100
AcDbLine
 10
183.2806198139
 20
220.5191317472
 30
0.0
 11
183.2806198139
 21
216.0191317472
 31
0.0
  0
LINE
  5
2E3
330
221
100
AcDbEntity
  8
02___PRT_ALL_AXES
  6
Continuous
 62
     7
100
AcDbLine
 10
183.2806198139
 20
215.0191317472
 30
0.0
 11
183.2806198139
 21
214.5191317472
 31
0.0
  0
LINE
  5
2E4
330
221
100
AcDbEntity
  8
02___PRT_ALL_AXES
  6
Continuous
 62
     7
100
AcDbLine
 10
183.2806198139
 20
228.5191317472
 30
0.0
 11
184.2806198139
 21
229.5191317472
 31
0.0
  0
LINE
  5
2E5
330
221
100
AcDbEntity
  8
02___PRT_ALL_AXES
  6
Continuous
 62
     7
100
AcDbLine
 10
183.2806198139
 20
214.5191317472
 30
0.0
 11
184.2806198139
 21
213.5191317472
 31
0.0
  0
LINE
  5
2E6
330
221
100
AcDbEntity
  8
02___PRT_ALL_AXES
  6
Continuous
 62
     7
100
AcDbLine
 10
188.7806198139
 20
213.5191317472
 30
0.0
 11
188.7806198139
 21
229.5191317472
 31
0.0
  0
LINE
  5
2E7
330
221
100
AcDbEntity
  8
02___PRT_ALL_AXES
  6
Continuous
 62
     7
100
AcDbLine
 10
191.7806198139
 20
213.5191317472
 30
0.0
 11
191.7806198139
 21
229.5191317472
 31
0.0
  0
LINE
  5
2E8
330
221
100
AcDbEntity
  8
02___PRT_ALL_AXES
  6
Continuous
 62
     7
100
AcDbLine
 10
192.2806198139
 20
261.2691317472
 30
0.0
 11
192.2806198139
 21
181.7691317472
 31
0.0
  0
LINE
  5
2E9
330
221
100
AcDbEntity
  8
02___PRT_ALL_AXES
  6
Continuous
 62
     7
100
AcDbLine
 10
192.2806198139
 20
213.5191317472
 30
0.0
 11
191.7806198139
 21
213.5191317472
 31
0.0
  0
LINE
  5
2EA
330
221
100
AcDbEntity
  8
02___PRT_ALL_AXES
  6
Continuous
 62
     7
100
AcDbLine
 10
188.7806198139
 20
213.5191317472
 30
0.0
 11
184.2806198139
 21
213.5191317472
 31
0.0
  0
LINE
  5
2EB
330
221
100
AcDbEntity
  8
02___PRT_ALL_AXES
  6
Continuous
 62
     7
100
AcDbLine
 10
182.7806198139
 20
214.5191317472
 30
0.0
 11
183.2806198139
 21
214.5191317472
 31
0.0
  0
LINE
  5
2EC
330
221
100
AcDbEntity
  8
02___PRT_ALL_AXES
  6
Continuous
 62
     7
100
AcDbLine
 10
182.7806198139
 20
215.0191317472
 30
0.0
 11
183.2806198139
 21
215.0191317472
 31
0.0
  0
LINE
  5
2ED
330
221
100
AcDbEntity
  8
02___PRT_ALL_AXES
  6
Continuous
 62
     7
100
AcDbLine
 10
191.7806198139
 20
215.5191317472
 30
0.0
 11
188.7806198139
 21
215.5191317472
 31
0.0
  0
LINE
  5
2EE
330
221
100
AcDbEntity
  8
7_ALL_FEATURES
  6
Continuous
 62
     7
100
AcDbLine
 10
198.2806198139
 20
222.0964820163
 30
0.0
 11
198.2806198139
 21
220.941781478
 31
0.0
  0
LINE
  5
2EF
330
221
100
AcDbEntity
  8
7_ALL_FEATURES
  6
Continuous
 62
     7
100
AcDbLine
 10
200.2806198139
 20
220.941781478
 30
0.0
 11
200.2806198139
 21
222.0964820163
 31
0.0
  0
LINE
  5
2F0
330
221
100
AcDbEntity
  8
7_ALL_FEATURES
  6
Continuous
 62
     7
100
AcDbLine
 10
198.2806198139
 20
222.0964820163
 30
0.0
 11
199.2806198139
 21
222.6738322855
 31
0.0
  0
LINE
  5
2F1
330
221
100
AcDbEntity
  8
02___PRT_ALL_AXES
  6
Continuous
 62
     7
100
AcDbLine
 10
182.7806198139
 20
216.0191317472
 30
0.0
 11
183.2806198139
 21
216.0191317472
 31
0.0
  0
LINE
  5
2F2
330
221
100
AcDbEntity
  8
02___PRT_ALL_AXES
  6
Continuous
 62
     7
100
AcDbLine
 10
192.2806198139
 20
217.5191317472
 30
0.0
 11
191.7806198139
 21
217.5191317472
 31
0.0
  0
LINE
  5
2F3
330
221
100
AcDbEntity
  8
02___PRT_ALL_AXES
  6
Continuous
 62
     7
100
AcDbLine
 10
188.7806198139
 20
217.5191317472
 30
0.0
 11
184.2806198139
 21
217.5191317472
 31
0.0
  0
LINE
  5
2F4
330
221
100
AcDbEntity
  8
7_ALL_FEATURES
  6
Continuous
 62
     7
100
AcDbLine
 10
199.2806198139
 20
220.3644312088
 30
0.0
 11
198.2806198139
 21
220.941781478
 31
0.0
  0
LINE
  5
2F5
330
221
100
AcDbEntity
  8
7_ALL_FEATURES
  6
Continuous
 62
     7
100
AcDbLine
 10
200.2806198139
 20
220.941781478
 30
0.0
 11
199.2806198139
 21
220.3644312088
 31
0.0
  0
LINE
  5
2F6
330
221
100
AcDbEntity
  8
02___PRT_ALL_AXES
  6
Continuous
 62
     7
100
AcDbLine
 10
182.7806198139
 20
220.5191317472
 30
0.0
 11
183.2806198139
 21
220.5191317472
 31
0.0
  0
LINE
  5
2F7
330
221
100
AcDbEntity
  8
7_ALL_FEATURES
  6
Continuous
 62
     7
100
AcDbLine
 10
199.2806198139
 20
222.6738322855
 30
0.0
 11
200.2806198139
 21
222.0964820163
 31
0.0
  0
LINE
  5
2F8
330
221
100
AcDbEntity
  8
02___PRT_ALL_AXES
  6
Continuous
 62
     7
100
AcDbLine
 10
182.7806198139
 20
222.5191317472
 30
0.0
 11
183.2806198139
 21
222.5191317472
 31
0.0
  0
LINE
  5
2F9
330
221
100
AcDbEntity
  8
02___PRT_ALL_AXES
  6
Continuous
 62
     7
100
AcDbLine
 10
192.2806198139
 20
225.5191317472
 30
0.0
 11
191.7806198139
 21
225.5191317472
 31
0.0
  0
LINE
  5
2FA
330
221
100
AcDbEntity
  8
02___PRT_ALL_AXES
  6
Continuous
 62
     7
100
AcDbLine
 10
188.7806198139
 20
225.5191317472
 30
0.0
 11
184.2806198139
 21
225.5191317472
 31
0.0
  0
LINE
  5
2FB
330
221
100
AcDbEntity
  8
02___PRT_ALL_AXES
  6
Continuous
 62
     7
100
AcDbLine
 10
182.7806198139
 20
227.0191317472
 30
0.0
 11
183.2806198139
 21
227.0191317472
 31
0.0
  0
LINE
  5
2FC
330
221
100
AcDbEntity
  8
02___PRT_ALL_AXES
  6
Continuous
 62
     7
100
AcDbLine
 10
191.7806198139
 20
227.5191317472
 30
0.0
 11
188.7806198139
 21
227.5191317472
 31
0.0
  0
LINE
  5
2FD
330
221
100
AcDbEntity
  8
02___PRT_ALL_AXES
  6
Continuous
 62
     7
100
AcDbLine
 10
182.7806198139
 20
228.0191317472
 30
0.0
 11
183.2806198139
 21
228.0191317472
 31
0.0
  0
LINE
  5
2FE
330
221
100
AcDbEntity
  8
02___PRT_ALL_AXES
  6
Continuous
 62
     7
100
AcDbLine
 10
182.7806198139
 20
228.5191317472
 30
0.0
 11
183.2806198139
 21
228.5191317472
 31
0.0
  0
LINE
  5
2FF
330
221
100
AcDbEntity
  8
02___PRT_ALL_AXES
  6
Continuous
 62
     7
100
AcDbLine
 10
192.2806198139
 20
229.5191317472
 30
0.0
 11
191.7806198139
 21
229.5191317472
 31
0.0
  0
LINE
  5
300
330
221
100
AcDbEntity
  8
02___PRT_ALL_AXES
  6
Continuous
 62
     7
100
AcDbLine
 10
188.7806198139
 20
229.5191317472
 30
0.0
 11
184.2806198139
 21
229.5191317472
 31
0.0
  0
LINE
  5
301
330
221
100
AcDbEntity
  8
02___PRT_ALL_AXES
  6
Continuous
 62
     7
100
AcDbLine
 10
227.2806198139
 20
261.2691317472
 30
0.0
 11
227.2806198139
 21
181.7691317472
 31
0.0
  0
LINE
  5
302
330
221
100
AcDbEntity
  8
02___PRT_ALL_AXES
  6
Continuous
 62
     7
100
AcDbLine
 10
192.2806198139
 20
261.2691317472
 30
0.0
 11
196.2807012312
 21
261.2691317472
 31
0.0
  0
LINE
  5
303
330
221
100
AcDbEntity
  8
02___PRT_ALL_AXES
  6
Continuous
 62
     7
100
AcDbLine
 10
223.2805212218
 20
261.2691317472
 30
0.0
 11
227.2806198139
 21
261.2691317472
 31
0.0
  0
LINE
  5
304
330
221
100
AcDbEntity
  8
02___PRT_ALL_AXES
  6
Continuous
 62
     7
100
AcDbLine
 10
314.0356781279
 20
166.9754854904
 30
0.0
 11
290.0716182638
 21
157.8794614242
 31
0.0
  0
LINE
  5
305
330
221
100
AcDbEntity
  8
7_ALL_FEATURES
  6
Continuous
 62
     7
100
AcDbLine
 10
326.2406051869
 20
158.5018130488
 30
0.0
 11
324.82456136
 21
157.7990695096
 31
0.0
  0
LINE
  5
306
330
221
100
AcDbEntity
  8
7_ALL_FEATURES
  6
Continuous
 62
     7
100
AcDbLine
 10
352.335687919
 20
120.124783256
 30
0.0
 11
351.3496726191
 21
120.3891503528
 31
0.0
  0
LINE
  5
307
330
221
100
AcDbEntity
  8
7_ALL_FEATURES
  6
Continuous
 62
     7
100
AcDbLine
 10
352.291851026
 20
121.2168005436
 30
0.0
 11
351.4827870863
 21
121.4337240385
 31
0.0
  0
LINE
  5
308
330
221
100
AcDbEntity
  8
02___PRT_ALL_AXES
  6
Continuous
 62
     7
100
AcDbLine
 10
324.5383431342
 20
159.6186628602
 30
0.0
 11
324.5103483309
 21
160.3160391363
 31
0.0
  0
LINE
  5
309
330
221
100
AcDbEntity
  8
7_ALL_FEATURES
  6
Continuous
 62
     9
100
AcDbLine
 10
304.6652846888
 20
163.2036063013
 30
0.0
 11
305.2949637872
 21
162.4918552074
 31
0.0
  0
LINE
  5
30A
330
221
100
AcDbEntity
  8
7_ALL_FEATURES
  6
Continuous
 62
     7
100
AcDbLine
 10
350.8909493095
 20
119.8313649785
 30
0.0
 11
351.3496726191
 21
120.3891503528
 31
0.0
  0
LINE
  5
30B
330
221
100
AcDbEntity
  8
02___PRT_ALL_AXES
  6
Continuous
 62
     7
100
AcDbLine
 10
350.8771464977
 20
119.5685926525
 30
0.0
 11
350.8685556431
 21
119.7001738972
 31
0.0
  0
LINE
  5
30C
330
221
100
AcDbEntity
  8
7_ALL_FEATURES
  6
Continuous
 62
     7
100
AcDbLine
 10
351.3496726191
 20
120.3891503528
 30
0.0
 11
351.3130165609
 21
121.3022864463
 31
0.0
  0
LINE
  5
30D
330
221
100
AcDbEntity
  8
02___PRT_ALL_AXES
  6
Continuous
 62
     7
100
AcDbLine
 10
342.2475223612
 20
92.6495691155
 30
0.0
 11
318.2834624971
 21
83.5535450494
 31
0.0
  0
ARC
  5
30E
330
221
100
AcDbEntity
  8
02___PRT_ALL_AXES
  6
Continuous
 62
     7
100
AcDbCircle
 10
-4.3664065151
 20
79.3733119011
 30
0.0
 40
41.8929507351
100
AcDbArc
 50
0.0035770975
 51
2.8255439505
  0
ARC
  5
30F
330
221
100
AcDbEntity
  8
02___PRT_ALL_AXES
  6
Continuous
 62
     7
100
AcDbCircle
 10
-4.3016192644
 20
79.3769429927
 30
0.0
 40
41.8281634151
100
AcDbArc
 50
357.1722701451999
 51
359.9986088068
  0
CIRCLE
  5
310
330
221
100
AcDbEntity
  8
7_ALL_FEATURES
  6
Continuous
 62
     7
100
AcDbCircle
 10
77.2256132665
 20
68.8759273672
 30
0.0
 40
12.5
  0
CIRCLE
  5
311
330
221
100
AcDbEntity
  8
7_ALL_FEATURES
  6
Continuous
 62
     7
100
AcDbCircle
 10
77.2256132665
 20
68.8759273672
 30
0.0
 40
10.3000004203
  0
CIRCLE
  5
312
330
221
100
AcDbEntity
  8
7_ALL_FEATURES
  6
Continuous
 62
     7
100
AcDbCircle
 10
77.2256132665
 20
68.8759273672
 30
0.0
 40
10.0
  0
CIRCLE
  5
313
330
221
100
AcDbEntity
  8
7_ALL_FEATURES
  6
Continuous
 62
     7
100
AcDbCircle
 10
77.2256132665
 20
68.8759273672
 30
0.0
 40
9.75
  0
CIRCLE
  5
314
330
221
100
AcDbEntity
  8
7_ALL_FEATURES
  6
Continuous
 62
     7
100
AcDbCircle
 10
77.2256132665
 20
68.8759273672
 30
0.0
 40
9.65
  0
ARC
  5
315
330
221
100
AcDbEntity
  8
02___PRT_ALL_AXES
  6
Continuous
 62
     7
100
AcDbCircle
 10
80.7256132665
 20
95.8759273672
 30
0.0
 40
3.5
100
AcDbArc
 50
11.5683651059
 51
90.0
  0
ARC
  5
316
330
221
100
AcDbEntity
  8
02___PRT_ALL_AXES
  6
Continuous
 62
     7
100
AcDbCircle
 10
73.7256132665
 20
95.8759273672
 30
0.0
 40
3.5
100
AcDbArc
 50
90.0
 51
168.4316348941
  0
CIRCLE
  5
317
330
221
100
AcDbEntity
  8
02___PRT_ALL_AXES
  6
Continuous
 62
     7
100
AcDbCircle
 10
77.2256132665
 20
80.1759273672
 30
0.0
 40
0.9
  0
CIRCLE
  5
318
330
221
100
AcDbEntity
  8
02___PRT_ALL_AXES
  6
Continuous
 62
     7
100
AcDbCircle
 10
77.2256132665
 20
57.5759273672
 30
0.0
 40
0.9
  0
CIRCLE
  5
319
330
221
100
AcDbEntity
  8
02___PRT_ALL_AXES
  6
Continuous
 62
     7
100
AcDbCircle
 10
77.2256132665
 20
221.5191317472
 30
0.0
 40
39.75
  0
ARC
  5
31A
330
221
100
AcDbEntity
  8
02___PRT_ALL_AXES
  6
Continuous
 62
     7
100
AcDbCircle
 10
182.7806198139
 20
218.0191317472
 30
0.0
 40
3.5
100
AcDbArc
 50
180.0
 51
270.0
  0
ARC
  5
31B
330
221
100
AcDbEntity
  8
02___PRT_ALL_AXES
  6
Continuous
 62
     7
100
AcDbCircle
 10
182.7806198139
 20
225.0191317472
 30
0.0
 40
3.5
100
AcDbArc
 50
90.0
 51
180.0
  0
ARC
  5
31C
330
221
100
AcDbEntity
  8
7_ALL_FEATURES
  6
Continuous
 62
     7
100
AcDbCircle
 10
182.7806198139
 20
225.0191317472
 30
0.0
 40
3.5
100
AcDbArc
 50
90.0
 51
180.0
  0
ARC
  5
31D
330
221
100
AcDbEntity
  8
7_ALL_FEATURES
  6
Continuous
 62
     7
100
AcDbCircle
 10
182.7806198139
 20
218.0191317472
 30
0.0
 40
3.5
100
AcDbArc
 50
180.0
 51
270.0
  0
CIRCLE
  5
31E
330
221
100
AcDbEntity
  8
02___PRT_ALL_AXES
  6
Continuous
 62
     7
100
AcDbCircle
 10
199.2806198139
 20
221.5191317472
 30
0.0
 40
1.65
  0
CIRCLE
  5
31F
330
221
100
AcDbEntity
  8
7_ALL_FEATURES
  6
Continuous
 62
     7
100
AcDbCircle
 10
199.2806198139
 20
221.5191317472
 30
0.0
 40
1.3
  0
ARC
  5
320
330
221
100
AcDbEntity
  8
7_ALL_FEATURES
  6
Continuous
 62
     7
100
AcDbCircle
 10
311.9489008169
 20
150.1261758481
 30
0.0
 40
12.5679347588
100
AcDbArc
 50
109.7056406443
 51
110.7815632473
  0
ARC
  5
321
330
221
100
AcDbEntity
  8
7_ALL_FEATURES
  6
Continuous
 62
     7
100
AcDbCircle
 10
322.4168571182
 20
161.6009233752
 30
0.0
 40
2.9681567734
100
AcDbArc
 50
313.9566165705
 51
314.8608760847
  0
ARC
  5
322
330
221
100
AcDbEntity
  8
7_ALL_FEATURES
  6
Continuous
 62
     7
100
AcDbCircle
 10
353.5551006654
 20
120.6053444704
 30
0.0
 40
2.7753359012
100
AcDbArc
 50
198.3032517789
 51
201.1270421301
  0
ARC
  5
323
330
221
100
AcDbEntity
  8
7_ALL_FEATURES
  6
Continuous
 62
     7
100
AcDbCircle
 10
307.4940659846
 20
158.809646902
 30
0.0
 40
2.6477857204
100
AcDbArc
 50
133.9203138447
 51
136.6276253502
  0
ARC
  5
324
330
221
100
AcDbEntity
  8
7_ALL_FEATURES
  6
Continuous
 62
     7
100
AcDbCircle
 10
322.1088598728
 20
159.3970374785
 30
0.0
 40
2.64687363
100
AcDbArc
 50
47.8865645156
 51
50.6804134027
  0
ARC
  5
325
330
221
100
AcDbEntity
  8
7_ALL_FEATURES
  6
Continuous
 62
     7
100
AcDbCircle
 10
352.9288055093
 20
119.3644179404
 30
0.0
 40
2.5250989498
100
AcDbArc
 50
125.5967532319
 51
125.711960408
  0
ARC
  5
326
330
221
100
AcDbEntity
  8
7_ALL_FEATURES
  6
Continuous
 62
     7
100
AcDbCircle
 10
322.8809930906
 20
160.6806434414
 30
0.0
 40
1.979617922
100
AcDbArc
 50
323.1506674466
 51
324.3514246537
  0
ARC
  5
327
330
221
100
AcDbEntity
  8
7_ALL_FEATURES
  6
Continuous
 62
     7
100
AcDbCircle
 10
352.7261069801
 20
120.3457823438
 30
0.0
 40
1.9064299438
100
AcDbArc
 50
194.0662338612
 51
194.9754548673
  0
ARC
  5
328
330
221
100
AcDbEntity
  8
7_ALL_FEATURES
  6
Continuous
 62
     7
100
AcDbCircle
 10
306.4350780228
 20
158.7661167015
 30
0.0
 40
1.6861772804
100
AcDbArc
 50
146.2136269112
 51
150.4073271714
  0
ARC
  5
329
330
221
100
AcDbEntity
  8
02___PRT_ALL_AXES
  6
Continuous
 62
     7
100
AcDbCircle
 10
352.5006231163
 20
119.9021489355
 30
0.0
 40
1.6454199516
100
AcDbArc
 50
191.7514755563
 51
196.7965898869
  0
ARC
  5
32A
330
221
100
AcDbEntity
  8
7_ALL_FEATURES
  6
Continuous
 62
     7
100
AcDbCircle
 10
306.2606206774
 20
158.8635523546
 30
0.0
 40
1.4863604552
100
AcDbArc
 50
150.3523416711
 51
155.3472549268
  0
ARC
  5
32B
330
221
100
AcDbEntity
  8
7_ALL_FEATURES
  6
Continuous
 62
     7
100
AcDbCircle
 10
352.2381558884
 20
120.2110776154
 30
0.0
 40
1.4314254539
100
AcDbArc
 50
133.2020044854
 51
136.1106117181
  0
ARC
  5
32C
330
221
100
AcDbEntity
  8
7_ALL_FEATURES
  6
Continuous
 62
     7
100
AcDbCircle
 10
352.1974747867
 20
120.0691217374
 30
0.0
 40
1.3508235609
100
AcDbArc
 50
191.102823385
 51
195.6019466839
  0
ARC
  5
32D
330
221
100
AcDbEntity
  8
7_ALL_FEATURES
  6
Continuous
 62
     7
100
AcDbCircle
 10
352.1041837981
 20
120.044330767
 30
0.0
 40
1.2543030175
100
AcDbArc
 50
195.6573713359
 51
196.8228028561
  0
ARC
  5
32E
330
221
100
AcDbEntity
  8
7_ALL_FEATURES
  6
Continuous
 62
     7
100
AcDbCircle
 10
352.1529477461
 20
120.5700689256
 30
0.0
 40
1.1478104593
100
AcDbArc
 50
129.5257762472
 51
130.1502412
  0
ARC
  5
32F
330
221
100
AcDbEntity
  8
7_ALL_FEATURES
  6
Continuous
 62
     7
100
AcDbCircle
 10
306.0446318336
 20
159.5749347788
 30
0.0
 40
1.0194151704
100
AcDbArc
 50
182.3080940052
 51
187.075066414
  0
SPLINE
  5
330
330
221
100
AcDbEntity
  8
02___PRT_ALL_AXES
  6
Continuous
 62
     7
100
AcDbSpline
 70
     0
 71
     3
 72
    11
 73
     7
 74
     0
 42
0.000000001
 43
0.0000001
 40
0.0
 40
0.0
 40
0.0
 40
0.0
 40
0.2471884812
 40
0.4961682871
 40
0.7471358372
 40
1.0
 40
1.0
 40
1.0
 40
1.0
 10
79.8236894778
 20
95.3759273672
 30
0.0
 10
79.5962139483
 20
95.3384036362
 30
0.0
 10
79.143957247
 20
95.2345382859
 30
0.0
 10
78.4845983099
 20
95.0058488826
 30
0.0
 10
77.8436868034
 20
94.7172598838
 30
0.0
 10
77.4298595566
 20
94.4938490178
 30
0.0
 10
77.2256132665
 20
94.3759273672
 30
0.0
  0
SPLINE
  5
331
330
221
100
AcDbEntity
  8
02___PRT_ALL_AXES
  6
Continuous
 62
     7
100
AcDbSpline
 70
     0
 71
     3
 72
    19
 73
    15
 74
     0
 42
0.000000001
 43
0.0000001
 40
0.0
 40
0.0
 40
0.0
 40
0.0
 40
0.067939647
 40
0.1343369129
 40
0.1986396402
 40
0.2610648807
 40
0.3817414899
 40
0.5000607139
 40
0.6183763092
 40
0.739024176
 40
0.8014382043
 40
0.865725454
 40
0.9320917545
 40
1.0
 40
1.0
 40
1.0
 40
1.0
 10
81.5557402854
 20
95.8759273672
 30
0.0
 10
81.5557402854
 20
95.9318130177
 30
0.0
 10
81.5393534486
 20
96.0429579825
 30
0.0
 10
81.4711786683
 20
96.1934178698
 30
0.0
 10
81.3717656335
 20
96.3191046334
 30
0.0
 10
81.2143217519
 20
96.449846467
 30
0.0
 10
80.9843305372
 20
96.5544867719
 30
0.0
 10
80.6895653163
 20
96.5944652563
 30
0.0
 10
80.3948365926
 20
96.5544008316
 30
0.0
 10
80.1649057797
 20
96.4497214284
 30
0.0
 10
80.0075266905
 20
96.3189715404
 30
0.0
 10
79.9081837646
 20
96.1932905497
 30
0.0
 10
79.8400627564
 20
96.0428801583
 30
0.0
 10
79.8236894778
 20
95.9317871875
 30
0.0
 10
79.8236894778
 20
95.8759273672
 30
0.0
  0
SPLINE
  5
332
330
221
100
AcDbEntity
  8
02___PRT_ALL_AXES
  6
Continuous
 62
     7
100
AcDbSpline
 70
     0
 71
     3
 72
    11
 73
     7
 74
     0
 42
0.000000001
 43
0.0000001
 40
0.0
 40
0.0
 40
0.0
 40
0.0
 40
0.2528641712
 40
0.5038317346
 40
0.7528115376
 40
1.0
 40
1.0
 40
1.0
 40
1.0
 10
84.1538164968
 20
94.3759273672
 30
0.0
 10
83.9495701998
 20
94.4938490217
 30
0.0
 10
83.5357429363
 20
94.7172598994
 30
0.0
 10
82.8948314118
 20
95.0058489016
 30
0.0
 10
82.2354724795
 20
95.234538295
 30
0.0
 10
81.7832157977
 20
95.3384036391
 30
0.0
 10
81.5557402854
 20
95.3759273672
 30
0.0
  0
SPLINE
  5
333
330
221
100
AcDbEntity
  8
02___PRT_ALL_AXES
  6
Continuous
 62
     7
100
AcDbSpline
 70
     0
 71
     3
 72
    19
 73
    15
 74
     0
 42
0.000000001
 43
0.0000001
 40
0.0
 40
0.0
 40
0.0
 40
0.0
 40
0.0679313718
 40
0.134330414
 40
0.1986328954
 40
0.2610542132
 40
0.3817238737
 40
0.5000536105
 40
0.6183773004
 40
0.7390372629
 40
0.8014553941
 40
0.8657396837
 40
0.9320963707
 40
1.0
 40
1.0
 40
1.0
 40
1.0
 10
74.6275370551
 20
95.8759273672
 30
0.0
 10
74.6275370551
 20
95.9318062187
 30
0.0
 10
74.6111513144
 20
96.0429452306
 30
0.0
 10
74.5429860128
 20
96.1934033068
 30
0.0
 10
74.4435764501
 20
96.3190907934
 30
0.0
 10
74.2861421226
 20
96.4498291435
 30
0.0
 10
74.0561574565
 20
96.5544822891
 30
0.0
 10
73.7613817864
 20
96.5944659961
 30
0.0
 10
73.4666274395
 20
96.5544021815
 30
0.0
 10
73.2366778473
 20
96.4497113989
 30
0.0
 10
73.0792968427
 20
96.3189457885
 30
0.0
 10
72.9799681098
 20
96.1932628981
 30
0.0
 10
72.911855921
 20
96.0428649111
 30
0.0
 10
72.8954862476
 20
95.9317833983
 30
0.0
 10
72.8954862476
 20
95.8759273672
 30
0.0
  0
SPLINE
  5
334
330
221
100
AcDbEntity
  8
02___PRT_ALL_AXES
  6
Continuous
 62
     7
100
AcDbSpline
 70
     0
 71
     3
 72
    11
 73
     7
 74
     0
 42
0.000000001
 43
0.0000001
 40
0.0
 40
0.0
 40
0.0
 40
0.0
 40
0.2528641712
 40
0.5038317346
 40
0.7528115376
 40
1.0
 40
1.0
 40
1.0
 40
1.0
 10
77.2256132665
 20
94.3759273672
 30
0.0
 10
77.0213669695
 20
94.4938490217
 30
0.0
 10
76.607539706
 20
94.7172598994
 30
0.0
 10
75.9666281815
 20
95.0058489016
 30
0.0
 10
75.3072692493
 20
95.234538295
 30
0.0
 10
74.8550125675
 20
95.3384036391
 30
0.0
 10
74.6275370551
 20
95.3759273672
 30
0.0
  0
SPLINE
  5
335
330
221
100
AcDbEntity
  8
02___PRT_ALL_AXES
  6
Continuous
 62
     7
100
AcDbSpline
 70
     0
 71
     3
 72
    11
 73
     7
 74
     0
 42
0.000000001
 43
0.0000001
 40
0.0
 40
0.0
 40
0.0
 40
0.0
 40
0.2471884812
 40
0.4961682871
 40
0.7471358372
 40
1.0
 40
1.0
 40
1.0
 40
1.0
 10
72.8954862476
 20
95.3759273672
 30
0.0
 10
72.668010718
 20
95.3384036362
 30
0.0
 10
72.2157540167
 20
95.2345382859
 30
0.0
 10
71.5563950796
 20
95.0058488826
 30
0.0
 10
70.9154835732
 20
94.7172598838
 30
0.0
 10
70.5016563263
 20
94.4938490178
 30
0.0
 10
70.2974100362
 20
94.3759273672
 30
0.0
  0
SPLINE
  5
336
330
221
100
AcDbEntity
  8
7_ALL_FEATURES
  6
Continuous
 62
     7
100
AcDbSpline
 70
     0
 71
     3
 72
    23
 73
    19
 74
     0
 42
0.000000001
 43
0.0000001
 40
0.0
 40
0.0
 40
0.0
 40
0.0
 40
0.0580835239
 40
0.118706963
 40
0.1811898445
 40
0.2447714467
 40
0.308988146
 40
0.3733742034
 40
0.4369662955
 40
0.4999590377
 40
0.5629542844
 40
0.6265492255
 40
0.6909617539
 40
0.7551826255
 40
0.8187565546
 40
0.8812424521
 40
0.9418826331
 40
1.0
 40
1.0
 40
1.0
 40
1.0
 10
91.0743741451
 20
68.8759284484
 30
0.0
 10
91.0756521332
 20
68.0455033852
 30
0.0
 10
90.9111968288
 20
66.3441608726
 30
0.0
 10
90.171799792
 20
63.8449344061
 30
0.0
 10
88.9136385379
 20
61.4701944064
 30
0.0
 10
87.1743565987
 20
59.3545500254
 30
0.0
 10
85.0265822882
 20
57.6113179495
 30
0.0
 10
82.5766317483
 20
56.3277617083
 30
0.0
 10
79.9418764217
 20
55.5491622385
 30
0.0
 10
77.2273482513
 20
55.2898786996
 30
0.0
 10
74.5127194706
 20
55.5485256446
 30
0.0
 10
71.8773316162
 20
56.3265909755
 30
0.0
 10
69.4266778551
 20
57.6098901934
 30
0.0
 10
67.2784151348
 20
59.353044416
 30
0.0
 10
65.5387934814
 20
61.4683949362
 30
0.0
 10
64.2801743383
 20
63.8430814206
 30
0.0
 10
63.5401639803
 20
66.3429662041
 30
0.0
 10
63.3757040915
 20
68.0450192553
 30
0.0
 10
63.3767411747
 20
68.8759285118
 30
0.0
  0
SPLINE
  5
337
330
221
100
AcDbEntity
  8
7_ALL_FEATURES
  6
Continuous
 62
     7
100
AcDbSpline
 70
     0
 71
     3
 72
    23
 73
    19
 74
     0
 42
0.000000001
 43
0.0000001
 40
0.0
 40
0.0
 40
0.0
 40
0.0
 40
0.0580822123
 40
0.1187054463
 40
0.1811886859
 40
0.2447706187
 40
0.3089873985
 40
0.3733760559
 40
0.4369704392
 40
0.4999637591
 40
0.5629584658
 40
0.6265512691
 40
0.6909613188
 40
0.7551820838
 40
0.8187555917
 40
0.881241062
 40
0.9418813864
 40
1.0
 40
1.0
 40
1.0
 40
1.0
 10
63.3768522753
 20
68.8759262854
 30
0.0
 10
63.3755739478
 20
69.7063325965
 30
0.0
 10
63.5400241785
 20
71.4076531532
 30
0.0
 10
64.2794048182
 20
73.9068668413
 30
0.0
 10
65.5375585406
 20
76.2816192558
 30
0.0
 10
67.2768428365
 20
78.397275888
 30
0.0
 10
69.4246431662
 20
80.1405449475
 30
0.0
 10
71.8746638228
 20
81.424125162
 30
0.0
 10
74.5095013826
 20
82.2027270293
 30
0.0
 10
77.2240671961
 20
82.4619759984
 30
0.0
 10
79.9386616902
 20
82.2032945839
 30
0.0
 10
82.5739711538
 20
81.425228509
 30
0.0
 10
85.0245574301
 20
80.1419505077
 30
0.0
 10
87.1727923404
 20
78.3988308807
 30
0.0
 10
88.9124082422
 20
76.28349341
 30
0.0
 10
90.1710322461
 20
73.9088215598
 30
0.0
 10
90.911057338
 20
71.4089264891
 30
0.0
 10
91.0755220553
 20
69.7068533038
 30
0.0
 10
91.0744852209
 20
68.875926223
 30
0.0
  0
SPLINE
  5
338
330
221
100
AcDbEntity
  8
02___PRT_ALL_AXES
  6
Continuous
 62
     7
100
AcDbSpline
 70
     0
 71
     3
 72
    19
 73
    15
 74
     0
 42
0.000000001
 43
0.0000001
 40
0.0
 40
0.0
 40
0.0
 40
0.0
 40
0.1683075029
 40
0.2404576968
 40
0.3036660769
 40
0.4090527407
 40
0.4554823394
 40
0.5000445236
 40
0.5446094138
 40
0.5910415449
 40
0.6964181475
 40
0.7596236278
 40
0.8317654351
 40
1.0
 40
1.0
 40
1.0
 40
1.0
 10
182.7806198139
 20
216.0191317472
 30
0.0
 10
182.6740094816
 20
216.0191317472
 30
0.0
 10
182.5196782842
 20
215.9949568202
 30
0.0
 10
182.3432803627
 20
215.9161337179
 30
0.0
 10
182.2167450419
 20
215.8301821105
 30
0.0
 10
182.125763644
 20
215.7227377239
 30
0.0
 10
182.0822933639
 20
215.605103706
 30
0.0
 10
182.0719191853
 20
215.5190428981
 30
0.0
 10
182.0823253159
 20
215.4329821467
 30
0.0
 10
182.1258739713
 20
215.3153808174
 30
0.0
 10
182.2168681227
 20
215.2079677318
 30
0.0
 10
182.3434142194
 20
215.1220524546
 30
0.0
 10
182.5197807564
 20
215.0432936099
 30
0.0
 10
182.6740556824
 20
215.0191317472
 30
0.0
 10
182.7806198139
 20
215.0191317472
 30
0.0
  0
SPLINE
  5
339
330
221
100
AcDbEntity
  8
02___PRT_ALL_AXES
  6
Continuous
 62
     7
100
AcDbSpline
 70
     0
 71
     3
 72
    11
 73
     7
 74
     0
 42
0.000000001
 43
0.0000001
 40
0.0
 40
0.0
 40
0.0
 40
0.0
 40
0.2699449571
 40
0.5270499909
 40
0.7701654741
 40
1.0
 40
1.0
 40
1.0
 40
1.0
 10
184.2806198139
 20
229.5191317472
 30
0.0
 10
184.164793849
 20
229.4033057822
 30
0.0
 10
183.9457935376
 20
229.1697711676
 30
0.0
 10
183.6570348919
 20
228.8012605663
 30
0.0
 10
183.4268478918
 20
228.4212597956
 30
0.0
 10
183.3189334205
 20
228.1532293704
 30
0.0
 10
183.2806198139
 20
228.0191317472
 30
0.0
  0
SPLINE
  5
33A
330
221
100
AcDbEntity
  8
02___PRT_ALL_AXES
  6
Continuous
 62
     7
100
AcDbSpline
 70
     0
 71
     3
 72
    11
 73
     7
 74
     0
 42
0.000000001
 43
0.0000001
 40
0.0
 40
0.0
 40
0.0
 40
0.0
 40
0.2500103617
 40
0.5000189242
 40
0.7500124732
 40
1.0
 40
1.0
 40
1.0
 40
1.0
 10
184.2806198139
 20
225.5191317472
 30
0.0
 10
184.162283475
 20
225.2824590694
 30
0.0
 10
183.9380987395
 20
224.802691557
 30
0.0
 10
183.6496617416
 20
224.0624008399
 30
0.0
 10
183.4213113385
 20
223.3011835703
 30
0.0
 10
183.318037632
 20
222.7810564743
 30
0.0
 10
183.2806198139
 20
222.5191317472
 30
0.0
  0
SPLINE
  5
33B
330
221
100
AcDbEntity
  8
02___PRT_ALL_AXES
  6
Continuous
 62
     7
100
AcDbSpline
 70
     0
 71
     3
 72
    11
 73
     7
 74
     0
 42
0.000000001
 43
0.0000001
 40
0.0
 40
0.0
 40
0.0
 40
0.0
 40
0.2499875457
 40
0.4999810974
 40
0.7499896465
 40
1.0
 40
1.0
 40
1.0
 40
1.0
 10
183.2806198139
 20
220.5191317472
 30
0.0
 10
183.3180376349
 20
220.2572070002
 30
0.0
 10
183.4213113475
 20
219.737079882
 30
0.0
 10
183.6496617607
 20
218.9758626063
 30
0.0
 10
183.9380987553
 20
218.2355719097
 30
0.0
 10
184.1622834789
 20
217.7558044171
 30
0.0
 10
184.2806198139
 20
217.5191317472
 30
0.0
  0
SPLINE
  5
33C
330
221
100
AcDbEntity
  8
02___PRT_ALL_AXES
  6
Continuous
 62
     7
100
AcDbSpline
 70
     0
 71
     3
 72
    19
 73
    15
 74
     0
 42
0.000000001
 43
0.0000001
 40
0.0
 40
0.0
 40
0.0
 40
0.0
 40
0.062499569
 40
0.1250450196
 40
0.1876243679
 40
0.2502137548
 40
0.3750836247
 40
0.5000591496
 40
0.6250261711
 40
0.7498800617
 40
0.8124624827
 40
0.8750225901
 40
0.9375286272
 40
1.0
 40
1.0
 40
1.0
 40
1.0
 10
182.7806198139
 20
222.5191317472
 30
0.0
 10
182.7245462022
 20
222.5191317472
 30
0.0
 10
182.6115571082
 20
222.4996226321
 30
0.0
 10
182.460834725
 20
222.419838662
 30
0.0
 10
182.3357850161
 20
222.3047792075
 30
0.0
 10
182.2046191501
 20
222.1213355078
 30
0.0
 10
182.1014883988
 20
221.8559355704
 30
0.0
 10
182.0622319763
 20
221.5189778593
 30
0.0
 10
182.1015696884
 20
221.1820460262
 30
0.0
 10
182.2047380061
 20
220.9166918395
 30
0.0
 10
182.3359291624
 20
220.7333102123
 30
0.0
 10
182.4609791916
 20
220.6183394423
 30
0.0
 10
182.611643295
 20
220.5386216666
 30
0.0
 10
182.7245714993
 20
220.5191317472
 30
0.0
 10
182.7806198139
 20
220.5191317472
 30
0.0
  0
SPLINE
  5
33D
330
221
100
AcDbEntity
  8
02___PRT_ALL_AXES
  6
Continuous
 62
     7
100
AcDbSpline
 70
     0
 71
     3
 72
    11
 73
     7
 74
     0
 42
0.000000001
 43
0.0000001
 40
0.0
 40
0.0
 40
0.0
 40
0.0
 40
0.2699449571
 40
0.5270499909
 40
0.7701654741
 40
1.0
 40
1.0
 40
1.0
 40
1.0
 10
184.2806198139
 20
217.5191317472
 30
0.0
 10
184.164793849
 20
217.4033057822
 30
0.0
 10
183.9457935376
 20
217.1697711676
 30
0.0
 10
183.6570348919
 20
216.8012605663
 30
0.0
 10
183.4268478918
 20
216.4212597956
 30
0.0
 10
183.3189334205
 20
216.1532293704
 30
0.0
 10
183.2806198139
 20
216.0191317472
 30
0.0
  0
SPLINE
  5
33E
330
221
100
AcDbEntity
  8
02___PRT_ALL_AXES
  6
Continuous
 62
     7
100
AcDbSpline
 70
     0
 71
     3
 72
    11
 73
     7
 74
     0
 42
0.000000001
 43
0.0000001
 40
0.0
 40
0.0
 40
0.0
 40
0.0
 40
0.2298345438
 40
0.4729500311
 40
0.7300550521
 40
1.0
 40
1.0
 40
1.0
 40
1.0
 10
183.2806198139
 20
227.0191317472
 30
0.0
 10
183.3189334235
 20
226.8850341135
 30
0.0
 10
183.4268479017
 20
226.6170036763
 30
0.0
 10
183.6570349108
 20
226.2370029047
 30
0.0
 10
183.9457935521
 20
225.8684923143
 30
0.0
 10
184.1647938529
 20
225.6349577081
 30
0.0
 10
184.2806198139
 20
225.5191317472
 30
0.0
  0
SPLINE
  5
33F
330
221
100
AcDbEntity
  8
02___PRT_ALL_AXES
  6
Continuous
 62
     7
100
AcDbSpline
 70
     0
 71
     3
 72
    19
 73
    15
 74
     0
 42
0.000000001
 43
0.0000001
 40
0.0
 40
0.0
 40
0.0
 40
0.0
 40
0.1683000113
 40
0.2404505744
 40
0.3036556532
 40
0.4090388234
 40
0.4554737865
 40
0.5000393211
 40
0.5446067335
 40
0.591042408
 40
0.696430429
 40
0.7596418824
 40
0.8317824151
 40
1.0
 40
1.0
 40
1.0
 40
1.0
 10
182.7806198139
 20
228.0191317472
 30
0.0
 10
182.6740141386
 20
228.0191317472
 30
0.0
 10
182.5196877121
 20
227.9949588824
 30
0.0
 10
182.3432939891
 20
227.916141806
 30
0.0
 10
182.2167611253
 20
227.8301940527
 30
0.0
 10
182.1257734688
 20
227.722757182
 30
0.0
 10
182.0822957674
 20
227.6051216208
 30
0.0
 10
182.0719196882
 20
227.5190538106
 30
0.0
 10
182.0823227759
 20
227.4329865251
 30
0.0
 10
182.1258757858
 20
227.315374482
 30
0.0
 10
182.2168809213
 20
227.2079516932
 30
0.0
 10
182.3434405407
 20
227.1220374683
 30
0.0
 10
182.5198040581
 20
227.043291344
 30
0.0
 10
182.6740663497
 20
227.0191317472
 30
0.0
 10
182.7806198139
 20
227.0191317472
 30
0.0
  0
SPLINE
  5
340
330
221
100
AcDbEntity
  8
02___PRT_ALL_AXES
  6
Continuous
 62
     7
100
AcDbSpline
 70
     0
 71
     3
 72
    11
 73
     7
 74
     0
 42
0.000000001
 43
0.0000001
 40
0.0
 40
0.0
 40
0.0
 40
0.0
 40
0.2298345438
 40
0.4729500311
 40
0.7300550521
 40
1.0
 40
1.0
 40
1.0
 40
1.0
 10
183.2806198139
 20
215.0191317472
 30
0.0
 10
183.3189334235
 20
214.8850341135
 30
0.0
 10
183.4268479017
 20
214.6170036763
 30
0.0
 10
183.6570349108
 20
214.2370029047
 30
0.0
 10
183.9457935521
 20
213.8684923143
 30
0.0
 10
184.1647938529
 20
213.6349577081
 30
0.0
 10
184.2806198139
 20
213.5191317472
 30
0.0
  0
SPLINE
  5
341
330
221
100
AcDbEntity
  8
7_ALL_FEATURES
  6
Continuous
 62
     7
100
AcDbSpline
 70
     0
 71
     3
 72
    28
 73
    24
 74
     0
 42
0.000000001
 43
0.0000001
 40
0.0
 40
0.0
 40
0.0
 40
0.0
 40
0.0003100149
 40
0.0012389146
 40
0.0027860163
 40
0.0049506382
 40
0.0077321
 40
0.0111297224
 40
0.0197709403
 40
0.0308745352
 40
0.0444468068
 40
0.0604945496
 40
0.0790160882
 40
0.0999582738
 40
0.1232493591
 40
0.1765791405
 40
0.2382387311
 40
0.3073367412
 40
0.3829596502
 40
0.4641377739
 40
0.6383668501
 40
0.8200990804
 40
1.0
 40
1.0
 40
1.0
 40
1.0
 10
196.2806198079
 20
181.7691319089
 30
0.0
 10
196.2816282617
 20
181.7701395219
 30
0.0
 10
196.2877996971
 20
181.770788903
 30
0.0
 10
196.299079817
 20
181.7763386226
 30
0.0
 10
196.3196216274
 20
181.7828133369
 30
0.0
 10
196.3475528831
 20
181.7931402213
 30
0.0
 10
196.3837840193
 20
181.8058616112
 30
0.0
 10
196.4479870646
 20
181.82867188
 30
0.0
 10
196.5483665329
 20
181.8640407739
 30
0.0
 10
196.6929616381
 20
181.9146660723
 30
0.0
 10
196.8699456508
 20
181.9758638369
 30
0.0
 10
197.0794644565
 20
182.0473381522
 30
0.0
 10
197.3214302139
 20
182.128658957
 30
0.0
 10
197.5954769309
 20
182.2190655885
 30
0.0
 10
198.0224268561
 20
182.356866936
 30
0.0
 10
198.6296989165
 20
182.5455093747
 30
0.0
 10
199.4423367989
 20
182.7827436894
 30
0.0
 10
200.3585857235
 20
183.0302661176
 30
0.0
 10
201.3675406049
 20
183.2778675561
 30
0.0
 10
202.8550148014
 20
183.6018467345
 30
0.0
 10
204.8374056409
 20
183.9434469755
 30
0.0
 10
207.2898818434
 20
184.1998641283
 30
0.0
 10
208.9533640609
 20
184.2609861833
 30
0.0
 10
209.7806208949
 20
184.2597889417
 30
0.0
  0
SPLINE
  5
342
330
221
100
AcDbEntity
  8
7_ALL_FEATURES
  6
Continuous
 62
     7
100
AcDbSpline
 70
     0
 71
     3
 72
    33
 73
    29
 74
     0
 42
0.000000001
 43
0.0000001
 40
0.0
 40
0.0
 40
0.0
 40
0.0
 40
0.1799726252
 40
0.2711890807
 40
0.3617408346
 40
0.4504229803
 40
0.5359549246
 40
0.6171026618
 40
0.6926977847
 40
0.7617803679
 40
0.8234360311
 40
0.8767694878
 40
0.9000656292
 40
0.9210105772
 40
0.93952821
 40
0.9555693816
 40
0.9691360274
 40
0.9802354932
 40
0.9848622638
 40
0.9888743087
 40
0.9922710122
 40
0.9950516784
 40
0.99721561
 40
0.9987621079
 40
0.9993036005
 40
0.9996904718
 40
0.9999226341
 40
1.0
 40
1.0
 40
1.0
 40
1.0
 10
209.7806186698
 20
184.2598950426
 30
0.0
 10
210.6082451873
 20
184.2608742407
 30
0.0
 10
211.8558750618
 20
184.2148855722
 30
0.0
 10
213.5132853442
 20
184.0703769512
 30
0.0
 10
214.7480704639
 20
183.9194827966
 30
0.0
 10
215.9513035928
 20
183.73192783
 30
0.0
 10
217.1055645715
 20
183.5148713429
 30
0.0
 10
218.1943095533
 20
183.2777333382
 30
0.0
 10
219.2029683472
 20
183.0301771398
 30
0.0
 10
220.1190553047
 20
182.7827036345
 30
0.0
 10
220.9316597534
 20
182.5454692282
 30
0.0
 10
221.5389844763
 20
182.3568186474
 30
0.0
 10
221.966002167
 20
182.2189852189
 30
0.0
 10
222.2400772016
 20
182.1285626289
 30
0.0
 10
222.4820234681
 20
182.0472577249
 30
0.0
 10
222.69148417
 20
181.9758068602
 30
0.0
 10
222.8683983709
 20
181.9146169882
 30
0.0
 10
222.9955447709
 20
181.8701153472
 30
0.0
 10
223.0811555512
 20
181.8399623594
 30
0.0
 10
223.133348902
 20
181.8215234552
 30
0.0
 10
223.177499657
 20
181.8058970896
 30
0.0
 10
223.2136938582
 20
181.7930049074
 30
0.0
 10
223.2416890395
 20
181.7831229207
 30
0.0
 10
223.2603603105
 20
181.7762669486
 30
0.0
 10
223.2707291734
 20
181.772806587
 30
0.0
 10
223.2763225284
 20
181.7703892685
 30
0.0
 10
223.2783311865
 20
181.7703972901
 30
0.0
 10
223.2807124006
 20
181.7687883959
 30
0.0
 10
223.2806198069
 20
181.7691319127
 30
0.0
  0
SPLINE
  5
343
330
221
100
AcDbEntity
  8
7_ALL_FEATURES
  6
Continuous
 62
     7
100
AcDbSpline
 70
     0
 71
     3
 72
    28
 73
    24
 74
     0
 42
0.000000001
 43
0.0000001
 40
0.0
 40
0.0
 40
0.0
 40
0.0
 40
0.1798953731
 40
0.3616256227
 40
0.5358547199
 40
0.6170330458
 40
0.6926561088
 40
0.7617542768
 40
0.8234143585
 40
0.8767458417
 40
0.9000382531
 40
0.9209817796
 40
0.9395044165
 40
0.9555528383
 40
0.9691254429
 40
0.9802291458
 40
0.9888703651
 40
0.992267974
 40
0.9950494175
 40
0.9972140197
 40
0.9987611034
 40
0.9996899901
 40
1.0
 40
1.0
 40
1.0
 40
1.0
 10
209.7806208956
 20
258.7784743043
 30
0.0
 10
208.953389564
 20
258.7772772451
 30
0.0
 10
207.2899420235
 20
258.8383964827
 30
0.0
 10
204.837499539
 20
259.0948037576
 30
0.0
 10
202.8551157371
 20
259.4363973249
 30
0.0
 10
201.3676390203
 20
259.7603731128
 30
0.0
 10
200.3586812614
 20
260.0079727677
 30
0.0
 10
199.4424282156
 20
260.2554941087
 30
0.0
 10
198.6297794151
 20
260.4927296184
 30
0.0
 10
198.0224916483
 20
260.6813760622
 30
0.0
 10
197.5955224677
 20
260.8191831614
 30
0.0
 10
197.3214592177
 20
260.9095949466
 30
0.0
 10
197.0794797997
 20
260.9909201178
 30
0.0
 10
196.8699517732
 20
261.0623974618
 30
0.0
 10
196.6929628851
 20
261.1235968884
 30
0.0
 10
196.5483658742
 20
261.1742229037
 30
0.0
 10
196.4479860124
 20
261.2095920087
 30
0.0
 10
196.3837831028
 20
261.2324022438
 30
0.0
 10
196.3475521897
 20
261.2451235536
 30
0.0
 10
196.3196211726
 20
261.2554503431
 30
0.0
 10
196.2990795829
 20
261.2619249757
 30
0.0
 10
196.2877996068
 20
261.2674746175
 30
0.0
 10
196.2816282593
 20
261.2681239834
 30
0.0
 10
196.2806198217
 20
261.2691315802
 30
0.0
  0
SPLINE
  5
344
330
221
100
AcDbEntity
  8
7_ALL_FEATURES
  6
Continuous
 62
     7
100
AcDbSpline
 70
     0
 71
     3
 72
    33
 73
    29
 74
     0
 42
0.000000001
 43
0.0000001
 40
0.0
 40
0.0
 40
0.0
 40
0.0
 40
0.0000773685
 40
0.0003095307
 40
0.0006963995
 40
0.0012378876
 40
0.0027843728
 40
0.0049482894
 40
0.0077289419
 40
0.0111256364
 40
0.0151376807
 40
0.0197644631
 40
0.0308640339
 40
0.0444309826
 40
0.0604727628
 40
0.0789913913
 40
0.0999375843
 40
0.1232349736
 40
0.1765700381
 40
0.2382261087
 40
0.307308827
 40
0.382904141
 40
0.4640521227
 40
0.549584249
 40
0.6382663357
 40
0.728817534
 40
0.8200327086
 40
1.0
 40
1.0
 40
1.0
 40
1.0
 10
223.2806198207
 20
261.2691315864
 30
0.0
 10
223.2807002333
 20
261.2694781693
 30
0.0
 10
223.2783486675
 20
261.2678618199
 30
0.0
 10
223.2763113484
 20
261.2678770191
 30
0.0
 10
223.2707342548
 20
261.2654556574
 30
0.0
 10
223.2603556014
 20
261.2619977986
 30
0.0
 10
223.24169181
 20
261.2551400489
 30
0.0
 10
223.2136932652
 20
261.2452590175
 30
0.0
 10
223.1775006061
 20
261.2323665503
 30
0.0
 10
223.1333494556
 20
261.2167403394
 30
0.0
 10
223.081156271
 20
261.1983013723
 30
0.0
 10
222.9955449289
 20
261.1681481815
 30
0.0
 10
222.8683967662
 20
261.1236458484
 30
0.0
 10
222.6914781252
 20
261.0624544623
 30
0.0
 10
222.4820090949
 20
260.9910008599
 30
0.0
 10
222.2400503388
 20
260.9096919794
 30
0.0
 10
221.9659599814
 20
260.8192646263
 30
0.0
 10
221.538924213
 20
260.6814258064
 30
0.0
 10
220.931584934
 20
260.4927714786
 30
0.0
 10
220.1189704896
 20
260.2555359997
 30
0.0
 10
219.2028797462
 20
260.0080635572
 30
0.0
 10
218.1942178716
 20
259.7605088717
 30
0.0
 10
217.1054695424
 20
259.523372854
 30
0.0
 10
215.9512063561
 20
259.3063189196
 30
0.0
 10
214.7479746849
 20
259.1187674842
 30
0.0
 10
213.5131978452
 20
258.9678774179
 30
0.0
 10
211.8558200527
 20
258.8233757126
 30
0.0
 10
210.6082206628
 20
258.7773892964
 30
0.0
 10
209.7806186693
 20
258.77836816
 30
0.0
  0
SPLINE
  5
345
330
221
100
AcDbEntity
  8
02___PRT_ALL_AXES
  6
Continuous
 62
     7
100
AcDbSpline
 70
     0
 71
     3
 72
    11
 73
     7
 74
     0
 42
0.000000001
 43
0.0000001
 40
0.0
 40
0.0
 40
0.0
 40
0.0
 40
0.2499476438
 40
0.4998745564
 40
0.7498739244
 40
1.0
 40
1.0
 40
1.0
 40
1.0
 10
201.3431198139
 20
221.5191317472
 30
0.0
 10
201.3431198139
 20
221.2542507418
 30
0.0
 10
201.2325335581
 20
220.7183764057
 30
0.0
 10
200.7660173717
 20
220.0498114495
 30
0.0
 10
200.0811614208
 20
219.6094205633
 30
0.0
 10
199.5456899116
 20
219.507562619
 30
0.0
 10
199.2806198139
 20
219.507562619
 30
0.0
  0
SPLINE
  5
346
330
221
100
AcDbEntity
  8
02___PRT_ALL_AXES
  6
Continuous
 62
     7
100
AcDbSpline
 70
     0
 71
     3
 72
    11
 73
     7
 74
     0
 42
0.000000001
 43
0.0000001
 40
0.0
 40
0.0
 40
0.0
 40
0.0
 40
0.2499469839
 40
0.4998742209
 40
0.7498735305
 40
1.0
 40
1.0
 40
1.0
 40
1.0
 10
197.2181198139
 20
221.5191317472
 30
0.0
 10
197.2181198139
 20
221.7840120548
 30
0.0
 10
197.3287055169
 20
222.3198860297
 30
0.0
 10
197.7952211142
 20
222.9884510322
 30
0.0
 10
198.4800774245
 20
223.4288425754
 30
0.0
 10
199.0155492972
 20
223.5307008753
 30
0.0
 10
199.2806198139
 20
223.5307008753
 30
0.0
  0
SPLINE
  5
347
330
221
100
AcDbEntity
  8
02___PRT_ALL_AXES
  6
Continuous
 62
     7
100
AcDbSpline
 70
     0
 71
     3
 72
    11
 73
     7
 74
     0
 42
0.000000001
 43
0.0000001
 40
0.0
 40
0.0
 40
0.0
 40
0.0
 40
0.2502783915
 40
0.5002757577
 40
0.7501431314
 40
1.0
 40
1.0
 40
1.0
 40
1.0
 10
199.2806198139
 20
223.5307008753
 30
0.0
 10
199.545851539
 20
223.5307008753
 30
0.0
 10
200.0814934562
 20
223.4287471607
 30
0.0
 10
200.7663237905
 20
222.9881376516
 30
0.0
 10
201.2326158062
 20
222.3196276028
 30
0.0
 10
201.3431198139
 20
221.7839167647
 30
0.0
 10
201.3431198139
 20
221.5191317472
 30
0.0
  0
SPLINE
  5
348
330
221
100
AcDbEntity
  8
02___PRT_ALL_AXES
  6
Continuous
 62
     7
100
AcDbSpline
 70
     0
 71
     3
 72
    11
 73
     7
 74
     0
 42
0.000000001
 43
0.0000001
 40
0.0
 40
0.0
 40
0.0
 40
0.0
 40
0.2502749397
 40
0.5002729312
 40
0.7501421355
 40
1.0
 40
1.0
 40
1.0
 40
1.0
 10
199.2806198139
 20
219.507562619
 30
0.0
 10
199.0153917566
 20
219.507562619
 30
0.0
 10
198.4797531415
 20
219.6095144507
 30
0.0
 10
197.7949212999
 20
220.0501198105
 30
0.0
 10
197.328625075
 20
220.7186318537
 30
0.0
 10
197.2181198139
 20
221.254345684
 30
0.0
 10
197.2181198139
 20
221.5191317472
 30
0.0
  0
SPLINE
  5
349
330
221
100
AcDbEntity
  8
7_ALL_FEATURES
  6
Continuous
 62
     7
100
AcDbSpline
 70
     0
 71
     3
 72
     9
 73
     5
 74
     0
 42
0.000000001
 43
0.0000001
 40
0.0
 40
0.0
 40
0.0
 40
0.0
 40
0.2495301596
 40
1.0
 40
1.0
 40
1.0
 40
1.0
 10
350.8844258523
 20
119.853150885
 30
0.0
 10
350.8871040603
 20
119.8431358372
 30
0.0
 10
350.8981562005
 20
119.8030858103
 30
0.0
 10
350.9104149657
 20
119.7633722176
 30
0.0
 10
350.9201755137
 20
119.7337603901
 30
0.0
  0
SPLINE
  5
34A
330
221
100
AcDbEntity
  8
7_ALL_FEATURES
  6
Continuous
 62
     7
100
AcDbSpline
 70
     0
 71
     3
 72
     9
 73
     5
 74
     0
 42
0.000000001
 43
0.0000001
 40
0.0
 40
0.0
 40
0.0
 40
0.0
 40
0.247809307
 40
1.0
 40
1.0
 40
1.0
 40
1.0
 10
351.2582412317
 20
121.2545075822
 30
0.0
 10
351.2656767579
 20
121.2615002189
 30
0.0
 10
351.2959647596
 20
121.2894165561
 30
0.0
 10
351.3273107983
 20
121.3161773582
 30
0.0
 10
351.3513494402
 20
121.3357230583
 30
0.0
  0
SPLINE
  5
34B
330
221
100
AcDbEntity
  8
7_ALL_FEATURES
  6
Continuous
 62
     7
100
AcDbSpline
 70
     0
 71
     3
 72
     9
 73
     5
 74
     0
 42
0.000000001
 43
0.0000001
 40
0.0
 40
0.0
 40
0.0
 40
0.0
 40
0.2486477945
 40
1.0
 40
1.0
 40
1.0
 40
1.0
 10
351.3513494402
 20
121.3357230583
 30
0.0
 10
351.3597239404
 20
121.3425323226
 30
0.0
 10
351.3936336732
 20
121.3696347946
 30
0.0
 10
351.4283959996
 20
121.3956637311
 30
0.0
 10
351.4548781837
 20
121.4147015659
 30
0.0
  0
SPLINE
  5
34C
330
221
100
AcDbEntity
  8
7_ALL_FEATURES
  6
Continuous
 62
     7
100
AcDbSpline
 70
     0
 71
     3
 72
     9
 73
     5
 74
     0
 42
0.000000001
 43
0.0000001
 40
0.0
 40
0.0
 40
0.0
 40
0.0
 40
0.2492500206
 40
1.0
 40
1.0
 40
1.0
 40
1.0
 10
351.4590037571
 20
121.4176611105
 30
0.0
 10
351.4692959617
 20
121.4250287507
 30
0.0
 10
351.5108096701
 20
121.4542789766
 30
0.0
 10
351.5531352619
 20
121.4823691485
 30
0.0
 10
351.5852451548
 20
121.5029227855
 30
0.0
  0
SPLINE
  5
34D
330
221
100
AcDbEntity
  8
7_ALL_FEATURES
  6
Continuous
 62
     7
100
AcDbSpline
 70
     0
 71
     3
 72
    14
 73
    10
 74
     0
 42
0.000000001
 43
0.0000001
 40
0.0
 40
0.0
 40
0.0
 40
0.0
 40
0.3514492377
 40
0.5103358334
 40
0.6513445347
 40
0.7703508948
 40
0.8663658317
 40
0.9416404023
 40
1.0
 40
1.0
 40
1.0
 40
1.0
 10
351.6729189408
 20
119.3188882103
 30
0.0
 10
351.5886338351
 20
119.3487171794
 30
0.0
 10
351.4664236305
 20
119.3925539887
 30
0.0
 10
351.3113025876
 20
119.4508226346
 30
0.0
 10
351.2120846528
 20
119.4897269925
 30
0.0
 10
351.128445095
 20
119.5245035369
 30
0.0
 10
351.0610700312
 20
119.5547783673
 30
0.0
 10
351.0087115665
 20
119.5807313182
 30
0.0
 10
350.9790119868
 20
119.5973191024
 30
0.0
 10
350.9663130696
 20
119.6050104522
 30
0.0
  0
SPLINE
  5
34E
330
221
100
AcDbEntity
  8
7_ALL_FEATURES
  6
Continuous
 62
     7
100
AcDbSpline
 70
     0
 71
     3
 72
     9
 73
     5
 74
     0
 42
0.000000001
 43
0.0000001
 40
0.0
 40
0.0
 40
0.0
 40
0.0
 40
0.256097191
 40
1.0
 40
1.0
 40
1.0
 40
1.0
 10
350.9035594415
 20
119.6813194528
 30
0.0
 10
350.9077418801
 20
119.667488779
 30
0.0
 10
350.9250170149
 20
119.6137762299
 30
0.0
 10
350.9461370171
 20
119.5612757677
 30
0.0
 10
350.9641644389
 20
119.5233728321
 30
0.0
  0
SPLINE
  5
34F
330
221
100
AcDbEntity
  8
7_ALL_FEATURES
  6
Continuous
 62
     7
100
AcDbSpline
 70
     0
 71
     3
 72
    22
 73
    18
 74
     0
 42
0.000000001
 43
0.0000001
 40
0.0
 40
0.0
 40
0.0
 40
0.0
 40
0.0582921828
 40
0.1126408559
 40
0.1639409071
 40
0.2136127763
 40
0.2633994998
 40
0.315020276
 40
0.3698356323
 40
0.4286679385
 40
0.4917857789
 40
0.5589787731
 40
0.6296592287
 40
0.7029619355
 40
0.7778340644
 40
0.8531196375
 40
1.0
 40
1.0
 40
1.0
 40
1.0
 10
350.9641644389
 20
119.5233728321
 30
0.0
 10
350.9881840859
 20
119.472871149
 30
0.0
 10
351.0427487344
 20
119.3787891566
 30
0.0
 10
351.1474264518
 20
119.2599008444
 30
0.0
 10
351.269536295
 20
119.1720484971
 30
0.0
 10
351.4056135492
 20
119.1185678056
 30
0.0
 10
351.5511244513
 20
119.1015162889
 30
0.0
 10
351.7011024065
 20
119.1211392536
 30
0.0
 10
351.8510064307
 20
119.176158913
 30
0.0
 10
351.9968470455
 20
119.2644465434
 30
0.0
 10
352.134932445
 20
119.3832832983
 30
0.0
 10
352.2617436388
 20
119.5293334292
 30
0.0
 10
352.3739800449
 20
119.6986182413
 30
0.0
 10
352.4686583822
 20
119.8865236306
 30
0.0
 10
352.5432534964
 20
120.0880215176
 30
0.0
 10
352.6125613864
 20
120.3647564394
 30
0.0
 10
352.6305835527
 20
120.5796060673
 30
0.0
 10
352.624931539
 20
120.7204029214
 30
0.0
  0
SPLINE
  5
350
330
221
100
AcDbEntity
  8
7_ALL_FEATURES
  6
Continuous
 62
     7
100
AcDbSpline
 70
     0
 71
     3
 72
    15
 73
    11
 74
     0
 42
0.000000001
 43
0.0000001
 40
0.0
 40
0.0
 40
0.0
 40
0.0
 40
0.1397695154
 40
0.277956677
 40
0.4131295704
 40
0.5434042847
 40
0.667156005
 40
0.7839032414
 40
0.8944063156
 40
1.0
 40
1.0
 40
1.0
 40
1.0
 10
352.335687919
 20
120.124783256
 30
0.0
 10
352.2936671939
 20
120.097885666
 30
0.0
 10
352.2112388393
 20
120.0425738886
 30
0.0
 10
352.0936725208
 20
119.9533715351
 30
0.0
 10
351.9857756761
 20
119.8576093565
 30
0.0
 10
351.8911824852
 20
119.7554920362
 30
0.0
 10
351.8127842543
 20
119.6484628795
 30
0.0
 10
351.7513539209
 20
119.5389187305
 30
0.0
 10
351.7053047544
 20
119.4291568015
 30
0.0
 10
351.6825418576
 20
119.3553318553
 30
0.0
 10
351.6729189408
 20
119.3188882103
 30
0.0
  0
SPLINE
  5
351
330
221
100
AcDbEntity
  8
7_ALL_FEATURES
  6
Continuous
 62
     7
100
AcDbSpline
 70
     0
 71
     3
 72
    11
 73
     7
 74
     0
 42
0.000000001
 43
0.0000001
 40
0.0
 40
0.0
 40
0.0
 40
0.0
 40
0.2654195675
 40
0.5198926138
 40
0.7641351087
 40
1.0
 40
1.0
 40
1.0
 40
1.0
 10
352.2011710838
 20
120.7009814
 30
0.0
 10
352.1992998976
 20
120.7475943678
 30
0.0
 10
352.2008194691
 20
120.8392082137
 30
0.0
 10
352.2187760332
 20
120.9725871471
 30
0.0
 10
352.2495793923
 20
121.0981820436
 30
0.0
 10
352.276979073
 20
121.178104033
 30
0.0
 10
352.291851026
 20
121.2168005436
 30
0.0
  0
SPLINE
  5
352
330
221
100
AcDbEntity
  8
7_ALL_FEATURES
  6
Continuous
 62
     7
100
AcDbSpline
 70
     0
 71
     3
 72
    11
 73
     7
 74
     0
 42
0.000000001
 43
0.0000001
 40
0.0
 40
0.0
 40
0.0
 40
0.0
 40
0.2536476281
 40
0.5062932457
 40
0.756006367
 40
1.0
 40
1.0
 40
1.0
 40
1.0
 10
352.335687919
 20
120.124783256
 30
0.0
 10
352.3176291545
 20
120.1716632948
 30
0.0
 10
352.2837891115
 20
120.266117132
 30
0.0
 10
352.2421735546
 20
120.410087075
 30
0.0
 10
352.2127713007
 20
120.5551534964
 30
0.0
 10
352.2031094716
 20
120.6526943784
 30
0.0
 10
352.2011710838
 20
120.7009814
 30
0.0
  0
SPLINE
  5
353
330
221
100
AcDbEntity
  8
7_ALL_FEATURES
  6
Continuous
 62
     7
100
AcDbSpline
 70
     0
 71
     3
 72
    14
 73
    10
 74
     0
 42
0.000000001
 43
0.0000001
 40
0.0
 40
0.0
 40
0.0
 40
0.0
 40
0.0583595978
 40
0.1336341683
 40
0.2296491051
 40
0.3486554653
 40
0.4896641665
 40
0.6485507623
 40
1.0
 40
1.0
 40
1.0
 40
1.0
 10
351.5852451548
 20
121.5029227855
 30
0.0
 10
351.597944072
 20
121.4952314357
 30
0.0
 10
351.6276436517
 20
121.4786436515
 30
0.0
 10
351.6800021164
 20
121.4526907006
 30
0.0
 10
351.7473771801
 20
121.4224158702
 30
0.0
 10
351.8310167379
 20
121.3876393258
 30
0.0
 10
351.9302346728
 20
121.3487349679
 30
0.0
 10
352.0853557156
 20
121.2904663219
 30
0.0
 10
352.2075659202
 20
121.2466295127
 30
0.0
 10
352.291851026
 20
121.2168005436
 30
0.0
  0
SPLINE
  5
354
330
221
100
AcDbEntity
  8
7_ALL_FEATURES
  6
Continuous
 62
     7
100
AcDbSpline
 70
     0
 71
     3
 72
    20
 73
    16
 74
     0
 42
0.000000001
 43
0.0000001
 40
0.0
 40
0.0
 40
0.0
 40
0.0
 40
0.15099688
 40
0.2899392122
 40
0.3545919824
 40
0.4160768494
 40
0.4747346568
 40
0.5311204741
 40
0.5859892745
 40
0.6402448137
 40
0.6948546
 40
0.7507490416
 40
0.8087300376
 40
0.869409631
 40
1.0
 40
1.0
 40
1.0
 40
1.0
 10
352.624931539
 20
120.7204029214
 30
0.0
 10
352.6212096349
 20
120.813118974
 30
0.0
 10
352.5993877157
 20
120.9910234052
 30
0.0
 10
352.5307756918
 20
121.199806065
 30
0.0
 10
352.4526424534
 20
121.3431972014
 30
0.0
 10
352.3854598785
 20
121.4352086925
 30
0.0
 10
352.3091689008
 20
121.5129183956
 30
0.0
 10
352.2247415732
 20
121.5751629109
 30
0.0
 10
352.1333341679
 20
121.6209420349
 30
0.0
 10
352.0362911147
 20
121.6495004093
 30
0.0
 10
351.9350973668
 20
121.6603901471
 30
0.0
 10
351.8313005343
 20
121.6535085075
 30
0.0
 10
351.7263945709
 20
121.6290502823
 30
0.0
 10
351.5836537245
 20
121.5723243449
 30
0.0
 10
351.4843530417
 20
121.5064918483
 30
0.0
 10
351.4224521364
 20
121.455419147
 30
0.0
  0
SPLINE
  5
355
330
221
100
AcDbEntity
  8
7_ALL_FEATURES
  6
Continuous
 62
     7
100
AcDbSpline
 70
     0
 71
     3
 72
     9
 73
     5
 74
     0
 42
0.000000001
 43
0.0000001
 40
0.0
 40
0.0
 40
0.0
 40
0.0
 40
0.2444521515
 40
1.0
 40
1.0
 40
1.0
 40
1.0
 10
351.4128463088
 20
121.4474050715
 30
0.0
 10
351.4018792617
 20
121.4381537374
 30
0.0
 10
351.3577225692
 20
121.3994747264
 30
0.0
 10
351.3163811336
 20
121.3576099588
 30
0.0
 10
351.2867699605
 20
121.3245982267
 30
0.0
  0
SPLINE
  5
356
330
221
100
AcDbEntity
  8
7_ALL_FEATURES
  6
Continuous
 62
     7
100
AcDbSpline
 70
     0
 71
     3
 72
    11
 73
     7
 74
     0
 42
0.000000001
 43
0.0000001
 40
0.0
 40
0.0
 40
0.0
 40
0.0
 40
0.2194694515
 40
0.4524867661
 40
0.7101150396
 40
1.0
 40
1.0
 40
1.0
 40
1.0
 10
324.5103457697
 20
160.3160390334
 30
0.0
 10
324.5066499322
 20
160.4079412648
 30
0.0
 10
324.4725201617
 20
160.5972021786
 30
0.0
 10
324.3454565883
 20
160.8692541532
 30
0.0
 10
324.1459379425
 20
161.1309490773
 30
0.0
 10
323.977213222
 20
161.2879031601
 30
0.0
 10
323.8832845157
 20
161.3649512248
 30
0.0
  0
SPLINE
  5
357
330
221
100
AcDbEntity
  8
7_ALL_FEATURES
  6
Continuous
 62
     7
100
AcDbSpline
 70
     0
 71
     3
 72
    11
 73
     7
 74
     0
 42
0.000000001
 43
0.0000001
 40
0.0
 40
0.0
 40
0.0
 40
0.0
 40
0.2194699453
 40
0.45248403
 40
0.7101174264
 40
1.0
 40
1.0
 40
1.0
 40
1.0
 10
305.0260436985
 20
159.5338799273
 30
0.0
 10
305.0223478625
 20
159.625782121
 30
0.0
 10
305.0412291473
 20
159.8171658684
 30
0.0
 10
305.1460381606
 20
160.0985394433
 30
0.0
 10
305.3239732832
 20
160.3753641633
 30
0.0
 10
305.4795513413
 20
160.5453565087
 30
0.0
 10
305.5670048961
 20
160.6296806474
 30
0.0
  0
SPLINE
  5
358
330
221
100
AcDbEntity
  8
7_ALL_FEATURES
  6
Continuous
 62
     7
100
AcDbSpline
 70
     0
 71
     3
 72
    21
 73
    17
 74
     0
 42
0.000000001
 43
0.0000001
 40
0.0
 40
0.0
 40
0.0
 40
0.0
 40
0.0368525136
 40
0.0800147601
 40
0.1294351171
 40
0.1847463094
 40
0.2453636224
 40
0.3105444101
 40
0.3794280984
 40
0.4510667321
 40
0.5985022345
 40
0.7444898676
 40
0.8143500714
 40
0.8807954509
 40
0.9429448013
 40
1.0
 40
1.0
 40
1.0
 40
1.0
 10
323.7860391023
 20
161.4447214984
 30
0.0
 10
323.6295346758
 20
161.5731039738
 30
0.0
 10
323.2606859788
 20
161.8165393397
 30
0.0
 10
322.6184133029
 20
162.1244767787
 30
0.0
 10
321.8528744382
 20
162.3997392944
 30
0.0
 10
320.975637882
 20
162.6378758234
 30
0.0
 10
319.9999724128
 20
162.835152125
 30
0.0
 10
318.9411556283
 20
162.98828853
 30
0.0
 10
317.815865359
 20
163.0947819443
 30
0.0
 10
316.2356511564
 20
163.1728214273
 30
0.0
 10
314.2282777339
 20
163.1446353097
 30
0.0
 10
312.2391186857
 20
162.9576008418
 30
0.0
 10
310.7078551149
 20
162.7105625919
 30
0.0
 10
309.6407343812
 20
162.4856470626
 30
0.0
 10
308.6551098388
 20
162.2221348706
 30
0.0
 10
308.0336685262
 20
162.0139221417
 30
0.0
 10
307.7406706866
 20
161.9027091246
 30
0.0
  0
SPLINE
  5
359
330
221
100
AcDbEntity
  8
7_ALL_FEATURES
  6
Continuous
 62
     7
100
AcDbSpline
 70
     0
 71
     3
 72
    11
 73
     7
 74
     0
 42
0.000000001
 43
0.0000001
 40
0.0
 40
0.0
 40
0.0
 40
0.0
 40
0.2058319717
 40
0.441160991
 40
0.7062690344
 40
1.0
 40
1.0
 40
1.0
 40
1.0
 10
305.6574102196
 20
160.7168607919
 30
0.0
 10
305.7764935583
 20
160.8317019099
 30
0.0
 10
306.0528939844
 20
161.0560697648
 30
0.0
 10
306.5341848953
 20
161.358764819
 30
0.0
 10
307.1045937962
 20
161.6469378334
 30
0.0
 10
307.5199504884
 20
161.8189304891
 30
0.0
 10
307.7406706866
 20
161.9027091246
 30
0.0
  0
SPLINE
  5
35A
330
221
100
AcDbEntity
  8
7_ALL_FEATURES
  6
Continuous
 62
     7
100
AcDbSpline
 70
     0
 71
     3
 72
    15
 73
    11
 74
     0
 42
0.000000001
 43
0.0000001
 40
0.0
 40
0.0
 40
0.0
 40
0.0
 40
0.1702890514
 40
0.3260421768
 40
0.4673869621
 40
0.5948519481
 40
0.7095155113
 40
0.8132436772
 40
0.9088210119
 40
1.0
 40
1.0
 40
1.0
 40
1.0
 10
322.8159321203
 20
158.4391631761
 30
0.0
 10
322.9502226705
 20
158.5075991293
 30
0.0
 10
323.2035954131
 20
158.6462468612
 30
0.0
 10
323.5515304205
 20
158.8707963496
 30
0.0
 10
323.8487561411
 20
159.1016672336
 30
0.0
 10
324.093722446
 20
159.3377351313
 30
0.0
 10
324.284941647
 20
159.5781641739
 30
0.0
 10
324.4210309265
 20
159.8222088987
 30
0.0
 10
324.5000873216
 20
160.0688325757
 30
0.0
 10
324.5135885952
 20
160.235401588
 30
0.0
 10
324.5103457697
 20
160.3160390334
 30
0.0
  0
SPLINE
  5
35B
330
221
100
AcDbEntity
  8
7_ALL_FEATURES
  6
Continuous
 62
     7
100
AcDbSpline
 70
     0
 71
     3
 72
    21
 73
    17
 74
     0
 42
0.000000001
 43
0.0000001
 40
0.0
 40
0.0
 40
0.0
 40
0.0
 40
0.1891892945
 40
0.3538265596
 40
0.4267395972
 40
0.4934697659
 40
0.5542802836
 40
0.6096483803
 40
0.6603296352
 40
0.7073961354
 40
0.7522580966
 40
0.7965746684
 40
0.8420760087
 40
0.8903465263
 40
0.9426708173
 40
1.0
 40
1.0
 40
1.0
 40
1.0
 10
321.788126009
 20
158.1363527786
 30
0.0
 10
322.0695052809
 20
158.2431557429
 30
0.0
 10
322.5885367437
 20
158.4628970051
 30
0.0
 10
323.1851471094
 20
158.7907382241
 30
0.0
 10
323.5819169443
 20
159.0688234805
 30
0.0
 10
323.827098088
 20
159.2734208851
 30
0.0
 10
324.0310704698
 20
159.48176004
 30
0.0
 10
324.1928210368
 20
159.6932190285
 30
0.0
 10
324.3114485565
 20
159.9071521869
 30
0.0
 10
324.3857619257
 20
160.1229037806
 30
0.0
 10
324.4146889263
 20
160.3392811846
 30
0.0
 10
324.3973617902
 20
160.5544642996
 30
0.0
 10
324.3341991912
 20
160.7664106799
 30
0.0
 10
324.2261965008
 20
160.9735900598
 30
0.0
 10
324.0747312838
 20
161.1751648594
 30
0.0
 10
323.9514936341
 20
161.2993610731
 30
0.0
 10
323.883854888
 20
161.3605375954
 30
0.0
  0
SPLINE
  5
35C
330
221
100
AcDbEntity
  8
7_ALL_FEATURES
  6
Continuous
 62
     7
100
AcDbSpline
 70
     0
 71
     3
 72
    11
 73
     7
 74
     0
 42
0.000000001
 43
0.0000001
 40
0.0
 40
0.0
 40
0.0
 40
0.0
 40
0.2220789348
 40
0.4652928635
 40
0.7259759772
 40
1.0
 40
1.0
 40
1.0
 40
1.0
 10
321.788126009
 20
158.1363527786
 30
0.0
 10
321.4691720119
 20
158.0152875981
 30
0.0
 10
320.7899054911
 20
157.7902594962
 30
0.0
 10
319.7097626178
 20
157.5101811841
 30
0.0
 10
318.5372879099
 20
157.2761416974
 30
0.0
 10
317.724311914
 20
157.1561215503
 30
0.0
 10
317.3065712561
 20
157.1041959602
 30
0.0
  0
SPLINE
  5
35D
330
221
100
AcDbEntity
  8
7_ALL_FEATURES
  6
Continuous
 62
     7
100
AcDbSpline
 70
     0
 71
     3
 72
    11
 73
     7
 74
     0
 42
0.000000001
 43
0.0000001
 40
0.0
 40
0.0
 40
0.0
 40
0.0
 40
0.2270019949
 40
0.4588636503
 40
0.7124088934
 40
1.0
 40
1.0
 40
1.0
 40
1.0
 10
305.1559508988
 20
159.4103077061
 30
0.0
 10
305.1299058626
 20
159.5085236048
 30
0.0
 10
305.1060862059
 20
159.7163354895
 30
0.0
 10
305.169511903
 20
160.0334341715
 30
0.0
 10
305.3273683439
 20
160.3450725881
 30
0.0
 10
305.4809930754
 20
160.5343825087
 30
0.0
 10
305.5693750072
 20
160.627979617
 30
0.0
  0
SPLINE
  5
35E
330
221
100
AcDbEntity
  8
7_ALL_FEATURES
  6
Continuous
 62
     7
100
AcDbSpline
 70
     0
 71
     3
 72
    11
 73
     7
 74
     0
 42
0.000000001
 43
0.0000001
 40
0.0
 40
0.0
 40
0.0
 40
0.0
 40
0.2220826882
 40
0.46528654
 40
0.7259744876
 40
1.0
 40
1.0
 40
1.0
 40
1.0
 10
322.2536340634
 20
158.1986495229
 30
0.0
 10
321.9132688894
 20
158.0694573136
 30
0.0
 10
321.1884239262
 20
157.8293374149
 30
0.0
 10
320.0358052601
 20
157.5304209685
 30
0.0
 10
318.7846564816
 20
157.2806431427
 30
0.0
 10
317.9171153428
 20
157.1525348796
 30
0.0
 10
317.4713394127
 20
157.0971058603
 30
0.0
  0
SPLINE
  5
35F
330
221
100
AcDbEntity
  8
7_ALL_FEATURES
  6
Continuous
 62
     7
100
AcDbSpline
 70
     0
 71
     3
 72
    11
 73
     7
 74
     0
 42
0.000000001
 43
0.0000001
 40
0.0
 40
0.0
 40
0.0
 40
0.0
 40
0.2937306493
 40
0.5588073864
 40
0.7941481355
 40
1.0
 40
1.0
 40
1.0
 40
1.0
 10
305.6587127498
 20
162.6480238591
 30
0.0
 10
305.3728580109
 20
162.5395221448
 30
0.0
 10
304.8349572743
 20
162.3167928656
 30
0.0
 10
304.096230881
 20
161.9436027781
 30
0.0
 10
303.4728938074
 20
161.5516150347
 30
0.0
 10
303.1148465142
 20
161.2610817801
 30
0.0
 10
302.9605946078
 20
161.1123489505
 30
0.0
  0
SPLINE
  5
360
330
221
100
AcDbEntity
  8
02___PRT_ALL_AXES
  6
Continuous
 62
     7
100
AcDbSpline
 70
     0
 71
     3
 72
    18
 73
    14
 74
     0
 42
0.000000001
 43
0.0000001
 40
0.0
 40
0.0
 40
0.0
 40
0.0
 40
0.131632207
 40
0.2835655642
 40
0.4443548171
 40
0.6014332975
 40
0.7427007429
 40
0.8041755709
 40
0.8582046841
 40
0.9042279454
 40
0.9422746811
 40
0.9733238615
 40
1.0
 40
1.0
 40
1.0
 40
1.0
 10
323.1488361576
 20
162.969757038
 30
0.0
 10
323.0810712215
 20
162.9440355411
 30
0.0
 10
322.92993603
 20
162.9022656207
 30
0.0
 10
322.6878762828
 20
162.8643486332
 30
0.0
 10
322.4292168121
 20
162.8490198008
 30
0.0
 10
322.1762088558
 20
162.857704198
 30
0.0
 10
321.9793880087
 20
162.8850896853
 30
0.0
 10
321.84224002
 20
162.9200554753
 30
0.0
 10
321.7582672868
 20
162.9498478832
 30
0.0
 10
321.6899461784
 20
162.9838020166
 30
0.0
 10
321.6384247509
 20
163.0214539379
 30
0.0
 10
321.6044756884
 20
163.0629209267
 30
0.0
 10
321.5950918286
 20
163.0945664494
 30
0.0
 10
321.5945009995
 20
163.1092435778
 30
0.0
  0
SPLINE
  5
361
330
221
100
AcDbEntity
  8
02___PRT_ALL_AXES
  6
Continuous
 62
     7
100
AcDbSpline
 70
     0
 71
     3
 72
    12
 73
     8
 74
     0
 42
0.000000001
 43
0.0000001
 40
0.0
 40
0.0
 40
0.0
 40
0.0
 40
0.1700328754
 40
0.2698634256
 40
0.3837929062
 40
0.6594653174
 40
1.0
 40
1.0
 40
1.0
 40
1.0
 10
323.3930459489
 20
163.1815368931
 30
0.0
 10
323.3938214614
 20
163.1622719377
 30
0.0
 10
323.3846287102
 20
163.1310811263
 30
0.0
 10
323.3591196285
 20
163.0957445892
 30
0.0
 10
323.3193472751
 20
163.056651606
 30
0.0
 10
323.2490502024
 20
163.0116389017
 30
0.0
 10
323.1849373212
 20
162.9834599353
 30
0.0
 10
323.1488361576
 20
162.969757038
 30
0.0
  0
SPLINE
  5
362
330
221
100
AcDbEntity
  8
7_ALL_FEATURES
  6
Continuous
 62
     7
100
AcDbSpline
 70
     0
 71
     3
 72
    23
 73
    19
 74
     0
 42
0.000000001
 43
0.0000001
 40
0.0
 40
0.0
 40
0.0
 40
0.0
 40
0.0368492875
 40
0.0800081419
 40
0.1294248381
 40
0.184732011
 40
0.2453452053
 40
0.3105219454
 40
0.379401659
 40
0.4510362996
 40
0.5244163744
 40
0.5984947727
 40
0.6722097791
 40
0.7445070754
 40
0.8143632277
 40
0.8808063889
 40
0.9429474489
 40
1.0
 40
1.0
 40
1.0
 40
1.0
 10
326.4430065397
 20
162.0546738284
 30
0.0
 10
326.240287468
 20
162.2209741301
 30
0.0
 10
325.7625247889
 20
162.5363240666
 30
0.0
 10
324.9305764713
 20
162.9352160264
 30
0.0
 10
323.9389548608
 20
163.2917871004
 30
0.0
 10
322.8026415843
 20
163.600269595
 30
0.0
 10
321.538824292
 20
163.8558220023
 30
0.0
 10
320.1672853716
 20
164.0542021921
 30
0.0
 10
318.709650361
 20
164.1921335215
 30
0.0
 10
317.1890486276
 20
164.2673148597
 30
0.0
 10
315.629669891
 20
164.2784820929
 30
0.0
 10
314.0563546535
 20
164.2254220944
 30
0.0
 10
312.494177983
 20
164.1089752281
 30
0.0
 10
310.9680226796
 20
163.9310239284
 30
0.0
 10
309.5021979393
 20
163.6944528945
 30
0.0
 10
308.1199313448
 20
163.4031267801
 30
0.0
 10
306.8432120293
 20
163.0617855575
 30
0.0
 10
306.0382531696
 20
162.7920857927
 30
0.0
 10
305.6587127498
 20
162.6480238591
 30
0.0
  0
SPLINE
  5
363
330
221
100
AcDbEntity
  8
7_ALL_FEATURES
  6
Continuous
 62
     7
100
AcDbSpline
 70
     0
 71
     3
 72
    10
 73
     6
 74
     0
 42
0.000000001
 43
0.0000001
 40
0.0
 40
0.0
 40
0.0
 40
0.0
 40
0.2329041224
 40
0.4732172533
 40
1.0
 40
1.0
 40
1.0
 40
1.0
 10
324.7601367164
 20
160.326088928
 30
0.0
 10
324.7628109804
 20
160.2595723806
 30
0.0
 10
324.7551077266
 20
160.123536422
 30
0.0
 10
324.685827857
 20
159.844912487
 30
0.0
 10
324.57738857
 20
159.6492578463
 30
0.0
 10
324.4896443629
 20
159.5268981483
 30
0.0
  0
SPLINE
  5
364
330
221
100
AcDbEntity
  8
7_ALL_FEATURES
  6
Continuous
 62
     7
100
AcDbSpline
 70
     0
 71
     3
 72
     9
 73
     5
 74
     0
 42
0.000000001
 43
0.0000001
 40
0.0
 40
0.0
 40
0.0
 40
0.0
 40
0.2434331192
 40
1.0
 40
1.0
 40
1.0
 40
1.0
 10
324.4651136511
 20
159.4934411978
 30
0.0
 10
324.454666504
 20
159.4794991106
 30
0.0
 10
324.4110111109
 20
159.4227822532
 30
0.0
 10
324.3645105296
 20
159.3682716888
 30
0.0
 10
324.3280541886
 20
159.3282379359
 30
0.0
  0
SPLINE
  5
365
330
221
100
AcDbEntity
  8
7_ALL_FEATURES
  6
Continuous
 62
     7
100
AcDbSpline
 70
     0
 71
     3
 72
    11
 73
     7
 74
     0
 42
0.000000001
 43
0.0000001
 40
0.0
 40
0.0
 40
0.0
 40
0.0
 40
0.2058437229
 40
0.4411818183
 40
0.7062709839
 40
1.0
 40
1.0
 40
1.0
 40
1.0
 10
324.4770948019
 20
159.4642494837
 30
0.0
 10
324.3499889257
 20
159.3416771404
 30
0.0
 10
324.0549570132
 20
159.1022249267
 30
0.0
 10
323.5412720418
 20
158.7791792739
 30
0.0
 10
322.9324910338
 20
158.4716235975
 30
0.0
 10
322.4892038605
 20
158.2880646113
 30
0.0
 10
322.2536340634
 20
158.1986495229
 30
0.0
  0
SPLINE
  5
366
330
221
100
AcDbEntity
  8
7_ALL_FEATURES
  6
Continuous
 62
     7
100
AcDbSpline
 70
     0
 71
     3
 72
     9
 73
     5
 74
     0
 42
0.000000001
 43
0.0000001
 40
0.0
 40
0.0
 40
0.0
 40
0.0
 40
0.2593311075
 40
1.0
 40
1.0
 40
1.0
 40
1.0
 10
324.5865738536
 20
160.3482318348
 30
0.0
 10
324.6014475221
 20
160.3249226
 30
0.0
 10
324.6563639336
 20
160.2335313029
 30
0.0
 10
324.7009488267
 20
160.1357550053
 30
0.0
 10
324.7262067798
 20
160.0609314566
 30
0.0
  0
SPLINE
  5
367
330
221
100
AcDbEntity
  8
7_ALL_FEATURES
  6
Continuous
 62
     7
100
AcDbSpline
 70
     0
 71
     3
 72
     9
 73
     5
 74
     0
 42
0.000000001
 43
0.0000001
 40
0.0
 40
0.0
 40
0.0
 40
0.0
 40
0.277703515
 40
1.0
 40
1.0
 40
1.0
 40
1.0
 10
302.9605946078
 20
161.1123489505
 30
0.0
 10
302.8917875017
 20
161.0460037374
 30
0.0
 10
302.653735744
 20
160.7981484925
 30
0.0
 10
302.4559769881
 20
160.5050396929
 30
0.0
 10
302.3659333157
 20
160.273311507
 30
0.0
  0
SPLINE
  5
368
330
221
100
AcDbEntity
  8
7_ALL_FEATURES
  6
Continuous
 62
     7
100
AcDbSpline
 70
     0
 71
     3
 72
     9
 73
     5
 74
     0
 42
0.000000001
 43
0.0000001
 40
0.0
 40
0.0
 40
0.0
 40
0.0
 40
0.5188259319
 40
1.0
 40
1.0
 40
1.0
 40
1.0
 10
321.8118959844
 20
157.1304617537
 30
0.0
 10
322.1705565146
 20
157.2227089135
 30
0.0
 10
322.8578751996
 20
157.4164977718
 30
0.0
 10
323.5337936704
 20
157.6474423958
 30
0.0
 10
323.8548984006
 20
157.7693239291
 30
0.0
  0
SPLINE
  5
369
330
221
100
AcDbEntity
  8
7_ALL_FEATURES
  6
Continuous
 62
     7
100
AcDbSpline
 70
     0
 71
     3
 72
    12
 73
     8
 74
     0
 42
0.000000001
 43
0.0000001
 40
0.0
 40
0.0
 40
0.0
 40
0.0
 40
0.3077697728
 40
0.5771507676
 40
0.6971172787
 40
0.8073538699
 40
1.0
 40
1.0
 40
1.0
 40
1.0
 10
323.8548984006
 20
157.7693239291
 30
0.0
 10
324.2073364223
 20
157.9030986207
 30
0.0
 10
324.8594930647
 20
158.1782973455
 30
0.0
 10
325.6118666927
 20
158.5863182556
 30
0.0
 10
326.1176355251
 20
158.9319984187
 30
0.0
 10
326.5209259747
 20
159.256999211
 30
0.0
 10
326.7794088486
 20
159.5288508675
 30
0.0
 10
326.9159156004
 20
159.7213202185
 30
0.0
  0
SPLINE
  5
36A
330
221
100
AcDbEntity
  8
7_ALL_FEATURES
  6
Continuous
 62
     7
100
AcDbSpline
 70
     0
 71
     3
 72
     9
 73
     5
 74
     0
 42
0.000000001
 43
0.0000001
 40
0.0
 40
0.0
 40
0.0
 40
0.0
 40
0.2460402776
 40
1.0
 40
1.0
 40
1.0
 40
1.0
 10
327.2180803171
 20
160.9350433567
 30
0.0
 10
327.2133678064
 20
160.9569160271
 30
0.0
 10
327.1920165148
 20
161.0453330023
 30
0.0
 10
327.1619565426
 20
161.131597798
 30
0.0
 10
327.1351567406
 20
161.1947072592
 30
0.0
  0
SPLINE
  5
36B
330
221
100
AcDbEntity
  8
7_ALL_FEATURES
  6
Continuous
 62
     7
100
AcDbSpline
 70
     0
 71
     3
 72
    10
 73
     6
 74
     0
 42
0.000000001
 43
0.0000001
 40
0.0
 40
0.0
 40
0.0
 40
0.0
 40
0.2239883827
 40
0.589641285
 40
1.0
 40
1.0
 40
1.0
 40
1.0
 10
327.1351567406
 20
161.1947072592
 30
0.0
 10
327.1026661229
 20
161.2712177267
 30
0.0
 10
327.0008523084
 20
161.4659459238
 30
0.0
 10
326.7726641313
 20
161.7614115015
 30
0.0
 10
326.56074461
 20
161.95808757
 30
0.0
 10
326.4430065397
 20
162.0546738284
 30
0.0
  0
SPLINE
  5
36C
330
221
100
AcDbEntity
  8
02___PRT_ALL_AXES
  6
Continuous
 62
     7
100
AcDbSpline
 70
     0
 71
     3
 72
    12
 73
     8
 74
     0
 42
0.000000001
 43
0.0000001
 40
0.0
 40
0.0
 40
0.0
 40
0.0
 40
0.1700328754
 40
0.2698634256
 40
0.3837929062
 40
0.6594653174
 40
1.0
 40
1.0
 40
1.0
 40
1.0
 10
321.5945009995
 20
163.1092435778
 30
0.0
 10
321.593725487
 20
163.1285085332
 30
0.0
 10
321.6029182382
 20
163.1596993446
 30
0.0
 10
321.6284273199
 20
163.1950358817
 30
0.0
 10
321.6681996733
 20
163.2341288649
 30
0.0
 10
321.738496746
 20
163.2791415691
 30
0.0
 10
321.8026096273
 20
163.3073205356
 30
0.0
 10
321.8387107908
 20
163.3210234329
 30
0.0
  0
SPLINE
  5
36D
330
221
100
AcDbEntity
  8
7_ALL_FEATURES
  6
Continuous
 62
     7
100
AcDbSpline
 70
     0
 71
     3
 72
    15
 73
    11
 74
     0
 42
0.000000001
 43
0.0000001
 40
0.0
 40
0.0
 40
0.0
 40
0.0
 40
0.0825578605
 40
0.1712814033
 40
0.2709696951
 40
0.3847089816
 40
0.5141611314
 40
0.6599754547
 40
0.8221406126
 40
1.0
 40
1.0
 40
1.0
 40
1.0
 10
304.7761577191
 20
159.5262645214
 30
0.0
 10
304.7722162061
 20
159.6303558887
 30
0.0
 10
304.7975582457
 20
159.8486944488
 30
0.0
 10
304.9311201865
 20
160.167204184
 30
0.0
 10
305.154859532
 20
160.4789602753
 30
0.0
 10
305.464948838
 20
160.7829225694
 30
0.0
 10
305.8585325259
 20
161.0780011011
 30
0.0
 10
306.3324872514
 20
161.3623152347
 30
0.0
 10
306.8828403614
 20
161.63351265
 30
0.0
 10
307.2799147427
 20
161.7968036137
 30
0.0
 10
307.4897204738
 20
161.8764394524
 30
0.0
  0
SPLINE
  5
36E
330
221
100
AcDbEntity
  8
7_ALL_FEATURES
  6
Continuous
 62
     7
100
AcDbSpline
 70
     0
 71
     3
 72
    27
 73
    23
 74
     0
 42
0.000000001
 43
0.0000001
 40
0.0
 40
0.0
 40
0.0
 40
0.0
 40
0.0640261798
 40
0.134058331
 40
0.2088904795
 40
0.2871436667
 40
0.3673431033
 40
0.4479575012
 40
0.5274440139
 40
0.6042912014
 40
0.6770646407
 40
0.7444548846
 40
0.8053325876
 40
0.8588208583
 40
0.8826288865
 40
0.904437889
 40
0.9242763932
 40
0.9422278209
 40
0.9584551042
 40
0.973218431
 40
0.9868997944
 40
1.0
 40
1.0
 40
1.0
 40
1.0
 10
307.711144754
 20
161.9580990921
 30
0.0
 10
308.0754224686
 20
162.0886462764
 30
0.0
 10
308.8501447122
 20
162.3289718959
 30
0.0
 10
310.0790087867
 20
162.6215546365
 30
0.0
 10
311.407278417
 20
162.8581110498
 30
0.0
 10
312.8068677739
 20
163.0332865199
 30
0.0
 10
314.24809444
 20
163.1433659606
 30
0.0
 10
315.7003408861
 20
163.1859030123
 30
0.0
 10
317.1327368675
 20
163.1600330986
 30
0.0
 10
318.5148690996
 20
163.0663746534
 30
0.0
 10
319.8174407417
 20
162.9070457169
 30
0.0
 10
321.0131098109
 20
162.6856342344
 30
0.0
 10
322.0767833071
 20
162.407022451
 30
0.0
 10
322.8637766943
 20
162.1222416186
 30
0.0
 10
323.4054614577
 20
161.8655960061
 30
0.0
 10
323.7499257358
 20
161.6701976388
 30
0.0
 10
324.046918848
 20
161.4653947482
 30
0.0
 10
324.2949262615
 20
161.2519256448
 30
0.0
 10
324.4926939835
 20
161.0305864305
 30
0.0
 10
324.6387944656
 20
160.8018573557
 30
0.0
 10
324.7316397646
 20
160.5667238606
 30
0.0
 10
324.7569560766
 20
160.4052004814
 30
0.0
 10
324.7601367164
 20
160.326088928
 30
0.0
  0
SPLINE
  5
36F
330
221
100
AcDbEntity
  8
7_ALL_FEATURES
  6
Continuous
 62
     7
100
AcDbSpline
 70
     0
 71
     3
 72
    17
 73
    13
 74
     0
 42
0.000000001
 43
0.0000001
 40
0.0
 40
0.0
 40
0.0
 40
0.0
 40
0.0420991464
 40
0.0840664123
 40
0.1268527172
 40
0.1713473336
 40
0.2682521875
 40
0.3795546925
 40
0.5077803593
 40
0.6539828603
 40
0.8182847894
 40
1.0
 40
1.0
 40
1.0
 40
1.0
 10
304.4907013226
 20
159.6011298148
 30
0.0
 10
304.4781306175
 20
159.6572493395
 30
0.0
 10
304.461683011
 20
159.7714826513
 30
0.0
 10
304.464885881
 20
159.9454585242
 30
0.0
 10
304.4961610032
 20
160.1199581319
 30
0.0
 10
304.5771031082
 20
160.3590542739
 30
0.0
 10
304.7549901832
 20
160.6592714517
 30
0.0
 10
305.0671795757
 20
160.9995533471
 30
0.0
 10
305.4799056161
 20
161.3297055662
 30
0.0
 10
305.9893608466
 20
161.6473538864
 30
0.0
 10
306.5907207395
 20
161.9497956799
 30
0.0
 10
307.0278979767
 20
162.1306081347
 30
0.0
 10
307.2599770871
 20
162.2186982652
 30
0.0
  0
SPLINE
  5
370
330
221
100
AcDbEntity
  8
7_ALL_FEATURES
  6
Continuous
 62
     7
100
AcDbSpline
 70
     0
 71
     3
 72
    29
 73
    25
 74
     0
 42
0.000000001
 43
0.0000001
 40
0.0
 40
0.0
 40
0.0
 40
0.0
 40
0.0664598336
 40
0.1401518817
 40
0.2194795601
 40
0.3026074596
 40
0.3875659398
 40
0.4723188352
 40
0.5548369598
 40
0.633171179
 40
0.705530197
 40
0.7703673429
 40
0.7995874301
 40
0.8265201088
 40
0.8511045325
 40
0.8733314614
 40
0.89326361
 40
0.9110614673
 40
0.9270165477
 40
0.9415912169
 40
0.9554264847
 40
0.9692877039
 40
0.983935346
 40
1.0
 40
1.0
 40
1.0
 40
1.0
 10
307.2599770871
 20
162.2186982652
 30
0.0
 10
307.6702642331
 20
162.3744307164
 30
0.0
 10
308.5525368312
 20
162.6584328023
 30
0.0
 10
309.962774641
 20
162.9968870588
 30
0.0
 10
311.5002131503
 20
163.2630805601
 30
0.0
 10
313.1240639368
 20
163.449674965
 30
0.0
 10
314.7912803978
 20
163.5515426665
 30
0.0
 10
316.4575222952
 20
163.5659399953
 30
0.0
 10
318.0784722872
 20
163.4925388498
 30
0.0
 10
319.6111958364
 20
163.3335019579
 30
0.0
 10
321.0150835115
 20
163.0932939742
 30
0.0
 10
322.0819078231
 20
162.8226824833
 30
0.0
 10
322.8386751169
 20
162.5653809748
 30
0.0
 10
323.3324871349
 20
162.3634385524
 30
0.0
 10
323.7693393473
 20
162.14719937
 30
0.0
 10
324.1465070768
 20
161.9179155338
 30
0.0
 10
324.461701415
 20
161.6768135258
 30
0.0
 10
324.7129949979
 20
161.4249160483
 30
0.0
 10
324.8983813611
 20
161.1628840542
 30
0.0
 10
325.0153956427
 20
160.8915457886
 30
0.0
 10
325.0608164123
 20
160.6130469953
 30
0.0
 10
325.0330387494
 20
160.3317593777
 30
0.0
 10
324.9335736343
 20
160.0521659931
 30
0.0
 10
324.8272375653
 20
159.8779074179
 30
0.0
 10
324.7650647503
 20
159.7919588016
 30
0.0
  0
SPLINE
  5
371
330
221
100
AcDbEntity
  8
7_ALL_FEATURES
  6
Continuous
 62
     7
100
AcDbSpline
 70
     0
 71
     3
 72
     9
 73
     5
 74
     0
 42
0.000000001
 43
0.0000001
 40
0.0
 40
0.0
 40
0.0
 40
0.0
 40
0.2386624823
 40
1.0
 40
1.0
 40
1.0
 40
1.0
 10
324.7650647503
 20
159.7919588016
 30
0.0
 10
324.7468893833
 20
159.7668329061
 30
0.0
 10
324.6683017206
 20
159.6633190968
 30
0.0
 10
324.5806742426
 20
159.5668133337
 30
0.0
 10
324.5105584649
 20
159.4970295321
 30
0.0
  0
SPLINE
  5
372
330
221
100
AcDbEntity
  8
02___PRT_ALL_AXES
  6
Continuous
 62
     7
100
AcDbSpline
 70
     0
 71
     3
 72
    18
 73
    14
 74
     0
 42
0.000000001
 43
0.0000001
 40
0.0
 40
0.0
 40
0.0
 40
0.0
 40
0.131632207
 40
0.2835655642
 40
0.4443548171
 40
0.6014332975
 40
0.7427007429
 40
0.8041755709
 40
0.8582046841
 40
0.9042279454
 40
0.9422746811
 40
0.9733238615
 40
1.0
 40
1.0
 40
1.0
 40
1.0
 10
321.8387107908
 20
163.3210234329
 30
0.0
 10
321.9064757269
 20
163.3467449297
 30
0.0
 10
322.0576109184
 20
163.3885148502
 30
0.0
 10
322.2996706657
 20
163.4264318376
 30
0.0
 10
322.5583301363
 20
163.44176067
 30
0.0
 10
322.8113380926
 20
163.4330762729
 30
0.0
 10
323.0081589397
 20
163.4056907856
 30
0.0
 10
323.1453069284
 20
163.3707249956
 30
0.0
 10
323.2292796617
 20
163.3409325877
 30
0.0
 10
323.29760077
 20
163.3069784543
 30
0.0
 10
323.3491221975
 20
163.269326533
 30
0.0
 10
323.38307126
 20
163.2278595442
 30
0.0
 10
323.3924551198
 20
163.1962140215
 30
0.0
 10
323.3930459489
 20
163.1815368931
 30
0.0
  0
SPLINE
  5
373
330
221
100
AcDbEntity
  8
02___PRT_ALL_AXES
  6
Continuous
 62
     7
100
AcDbSpline
 70
     0
 71
     3
 72
    20
 73
    16
 74
     0
 42
0.000000001
 43
0.0000001
 40
0.0
 40
0.0
 40
0.0
 40
0.0
 40
0.1380663703
 40
0.2088953914
 40
0.2800946773
 40
0.4210250339
 40
0.4897229996
 40
0.5564974667
 40
0.6209212582
 40
0.6826780077
 40
0.7974005741
 40
0.8507978056
 40
0.9019299656
 40
0.951404275
 40
1.0
 40
1.0
 40
1.0
 40
1.0
 10
357.0735354293
 20
122.0553944143
 30
0.0
 10
356.943053015
 20
125.3058312572
 30
0.0
 10
356.2624179431
 20
130.2167489218
 30
0.0
 10
354.5148214123
 20
136.5861879922
 30
0.0
 10
352.2016518738
 20
142.8460693044
 30
0.0
 10
349.115982367
 20
148.7450297404
 30
0.0
 10
345.339703145
 20
154.0600971277
 30
0.0
 10
342.2558628131
 20
157.6298728861
 30
0.0
 10
338.9444950887
 20
160.758961163
 30
0.0
 10
334.4141928314
 20
164.1887102285
 30
0.0
 10
329.5253799487
 20
166.6927762384
 30
0.0
 10
324.502445502
 20
167.9751946445
 30
0.0
 10
320.8707646155
 20
168.3001835157
 30
0.0
 10
317.3501503371
 20
168.0004786675
 30
0.0
 10
315.1073463934
 20
167.3821978625
 30
0.0
 10
314.0368621099
 20
166.9759165186
 30
0.0
  0
SPLINE
  5
374
330
221
100
AcDbEntity
  8
02___PRT_ALL_AXES
  6
Continuous
 62
     7
100
AcDbSpline
 70
     0
 71
     3
 72
    20
 73
    16
 74
     0
 42
0.000000001
 43
0.0000001
 40
0.0
 40
0.0
 40
0.0
 40
0.0
 40
0.1380663703
 40
0.2088953914
 40
0.2800946773
 40
0.4210250339
 40
0.4897229996
 40
0.5564974667
 40
0.6209212582
 40
0.6826780077
 40
0.7974005741
 40
0.8507978056
 40
0.9019299656
 40
0.951404275
 40
1.0
 40
1.0
 40
1.0
 40
1.0
 10
275.2456051957
 20
128.4736361255
 30
0.0
 10
275.37608761
 20
125.2231992825
 30
0.0
 10
276.0567226819
 20
120.3122816179
 30
0.0
 10
277.8043192127
 20
113.9428425476
 30
0.0
 10
280.1174887512
 20
107.6829612354
 30
0.0
 10
283.203158258
 20
101.7840007994
 30
0.0
 10
286.9794374799
 20
96.4689334121
 30
0.0
 10
290.0632778119
 20
92.8991576537
 30
0.0
 10
293.3746455363
 20
89.7700693767
 30
0.0
 10
297.9049477936
 20
86.3403203113
 30
0.0
 10
302.7937606763
 20
83.8362543014
 30
0.0
 10
307.816695123
 20
82.5538358953
 30
0.0
 10
311.4483760095
 20
82.2288470241
 30
0.0
 10
314.9689902879
 20
82.5285518723
 30
0.0
 10
317.2117942316
 20
83.1468326773
 30
0.0
 10
318.2822785151
 20
83.5531140212
 30
0.0
  0
SPLINE
  5
375
330
221
100
AcDbEntity
  8
02___PRT_ALL_AXES
  6
Continuous
 62
     7
100
AcDbSpline
 70
     0
 71
     3
 72
     9
 73
     5
 74
     0
 42
0.000000001
 43
0.0000001
 40
0.0
 40
0.0
 40
0.0
 40
0.0
 40
0.5045568538
 40
1.0
 40
1.0
 40
1.0
 40
1.0
 10
350.8685556431
 20
119.7001738972
 30
0.0
 10
350.8557478177
 20
120.0192285956
 30
0.0
 10
350.9403129589
 20
120.6578931773
 30
0.0
 10
351.2080600607
 20
121.2453146849
 30
0.0
 10
351.388881873
 20
121.5014656478
 30
0.0
  0
SPLINE
  5
376
330
221
100
AcDbEntity
  8
7_ALL_FEATURES
  6
Continuous
 62
     7
100
AcDbSpline
 70
     0
 71
     3
 72
    22
 73
    18
 74
     0
 42
0.000000001
 43
0.0000001
 40
0.0
 40
0.0
 40
0.0
 40
0.0
 40
0.0547060717
 40
0.1160684206
 40
0.1837701213
 40
0.2570092923
 40
0.3344303603
 40
0.4143767979
 40
0.575000111
 40
0.7231466023
 40
0.7886518039
 40
0.8473829603
 40
0.8985605173
 40
0.9414856254
 40
0.9755017338
 40
0.9889508005
 40
1.0
 40
1.0
 40
1.0
 40
1.0
 10
324.8249321751
 20
157.7985443125
 30
0.0
 10
324.4143774283
 20
157.6416748139
 30
0.0
 10
323.517531959
 20
157.3751823131
 30
0.0
 10
322.0613045809
 20
157.117893997
 30
0.0
 10
320.4387014332
 20
156.9915170604
 30
0.0
 10
318.6829467902
 20
156.9955188561
 30
0.0
 10
316.8333212367
 20
157.1180617676
 30
0.0
 10
314.2952196708
 20
157.4159816591
 30
0.0
 10
311.2178037954
 20
157.9602332457
 30
0.0
 10
308.2828499278
 20
158.6163663598
 30
0.0
 10
306.1595331035
 20
159.1460832737
 30
0.0
 10
304.7979594468
 20
159.5097363372
 30
0.0
 10
303.6181788022
 20
159.8507232275
 30
0.0
 10
302.6389638781
 20
160.1678540635
 30
0.0
 10
301.9599223779
 20
160.4286082393
 30
0.0
 10
301.538628893
 20
160.6378700286
 30
0.0
 10
301.3709256888
 20
160.7420956514
 30
0.0
 10
301.2997361403
 20
160.7951224897
 30
0.0
  0
SPLINE
  5
377
330
221
100
AcDbEntity
  8
02___PRT_ALL_AXES
  6
Continuous
 62
     7
100
AcDbSpline
 70
     0
 71
     3
 72
     9
 73
     5
 74
     0
 42
0.000000001
 43
0.0000001
 40
0.0
 40
0.0
 40
0.0
 40
0.0
 40
0.2559227256
 40
1.0
 40
1.0
 40
1.0
 40
1.0
 10
351.3998450175
 20
121.4989123897
 30
0.0
 10
351.4134417436
 20
121.5143848941
 30
0.0
 10
351.4676108331
 20
121.5739138987
 30
0.0
 10
351.5260174171
 20
121.6296346166
 30
0.0
 10
351.5718047748
 20
121.6682342112
 30
0.0
  0
SPLINE
  5
378
330
221
100
AcDbEntity
  8
02___PRT_ALL_AXES
  6
Continuous
 62
     7
100
AcDbSpline
 70
     0
 71
     3
 72
     9
 73
     5
 74
     0
 42
0.000000001
 43
0.0000001
 40
0.0
 40
0.0
 40
0.0
 40
0.0
 40
0.2634621203
 40
1.0
 40
1.0
 40
1.0
 40
1.0
 10
351.5718047748
 20
121.6682342112
 30
0.0
 10
351.5990141377
 20
121.6911722104
 30
0.0
 10
351.7053800317
 20
121.7743812373
 30
0.0
 10
351.8248310479
 20
121.8418117876
 30
0.0
 10
351.9178460193
 20
121.8771174254
 30
0.0
  0
SPLINE
  5
379
330
221
100
AcDbEntity
  8
02___PRT_ALL_AXES
  6
Continuous
 62
     7
100
AcDbSpline
 70
     0
 71
     3
 72
    11
 73
     7
 74
     0
 42
0.000000001
 43
0.0000001
 40
0.0
 40
0.0
 40
0.0
 40
0.0
 40
0.2257252971
 40
0.4629351215
 40
0.7197897368
 40
1.0
 40
1.0
 40
1.0
 40
1.0
 10
351.5531858132
 20
118.7229765476
 30
0.0
 10
351.4817799899
 20
118.7421318596
 30
0.0
 10
351.3407330545
 20
118.8050924752
 30
0.0
 10
351.1612008608
 20
118.9623738622
 30
0.0
 10
351.0177527644
 20
119.1742652191
 30
0.0
 10
350.9519641103
 20
119.338816221
 30
0.0
 10
350.9254022125
 20
119.4266640028
 30
0.0
  0
SPLINE
  5
37A
330
221
100
AcDbEntity
  8
02___PRT_ALL_AXES
  6
Continuous
 62
     7
100
AcDbSpline
 70
     0
 71
     3
 72
     9
 73
     5
 74
     0
 42
0.000000001
 43
0.0000001
 40
0.0
 40
0.0
 40
0.0
 40
0.0
 40
0.4860145182
 40
1.0
 40
1.0
 40
1.0
 40
1.0
 10
352.4077869733
 20
121.9103997523
 30
0.0
 10
352.3299861267
 20
121.931270592
 30
0.0
 10
352.1613619963
 20
121.9462480032
 30
0.0
 10
351.9974892812
 20
121.9073475713
 30
0.0
 10
351.9178460193
 20
121.8771174254
 30
0.0
  0
SPLINE
  5
37B
330
221
100
AcDbEntity
  8
02___PRT_ALL_AXES
  6
Continuous
 62
     7
100
AcDbSpline
 70
     0
 71
     3
 72
    15
 73
    11
 74
     0
 42
0.000000001
 43
0.0000001
 40
0.0
 40
0.0
 40
0.0
 40
0.0
 40
0.1076222642
 40
0.2175821009
 40
0.3319033681
 40
0.4520767097
 40
0.5789716089
 40
0.7128480408
 40
0.8534328494
 40
1.0
 40
1.0
 40
1.0
 40
1.0
 10
290.0728022458
 20
157.8798924525
 30
0.0
 10
288.8954225732
 20
157.4330410572
 30
0.0
 10
286.6019408435
 20
156.2800685197
 30
0.0
 10
283.5339391075
 20
153.8602816231
 30
0.0
 10
280.8795707897
 20
150.7976237107
 30
0.0
 10
278.6884353907
 20
147.159050152
 30
0.0
 10
276.9969247449
 20
143.0178349227
 30
0.0
 10
275.8330932721
 20
138.4539840827
 30
0.0
 10
275.2161319283
 20
133.5549742888
 30
0.0
 10
275.1768139934
 20
130.1872881886
 30
0.0
 10
275.2456051957
 20
128.4736361255
 30
0.0
  0
SPLINE
  5
37C
330
221
100
AcDbEntity
  8
02___PRT_ALL_AXES
  6
Continuous
 62
     7
100
AcDbSpline
 70
     0
 71
     3
 72
    15
 73
    11
 74
     0
 42
0.000000001
 43
0.0000001
 40
0.0
 40
0.0
 40
0.0
 40
0.0
 40
0.1076222642
 40
0.2175821009
 40
0.3319033681
 40
0.4520767097
 40
0.5789716089
 40
0.7128480408
 40
0.8534328494
 40
1.0
 40
1.0
 40
1.0
 40
1.0
 10
342.2463383792
 20
92.6491380873
 30
0.0
 10
343.4237180518
 20
93.0959894825
 30
0.0
 10
345.7171997815
 20
94.2489620201
 30
0.0
 10
348.7852015175
 20
96.6687489166
 30
0.0
 10
351.4395698353
 20
99.7314068291
 30
0.0
 10
353.6307052343
 20
103.3699803877
 30
0.0
 10
355.3222158801
 20
107.5111956171
 30
0.0
 10
356.4860473529
 20
112.0750464571
 30
0.0
 10
357.1030086967
 20
116.974056251
 30
0.0
 10
357.1423266316
 20
120.3417423512
 30
0.0
 10
357.0735354293
 20
122.0553944143
 30
0.0
  0
SPLINE
  5
37D
330
221
100
AcDbEntity
  8
7_ALL_FEATURES
  6
Continuous
 62
     7
100
AcDbSpline
 70
     0
 71
     3
 72
    19
 73
    15
 74
     0
 42
0.000000001
 43
0.0000001
 40
0.0
 40
0.0
 40
0.0
 40
0.0
 40
0.0396505509
 40
0.0719413115
 40
0.0993896054
 40
0.1259970268
 40
0.1560645357
 40
0.1925678916
 40
0.2370247224
 40
0.2901283304
 40
0.4224937446
 40
0.5879553537
 40
0.7821884887
 40
1.0
 40
1.0
 40
1.0
 40
1.0
 10
301.2997361403
 20
160.7951224897
 30
0.0
 10
301.2492974902
 20
160.8326926415
 30
0.0
 10
301.1615734896
 20
160.9065524548
 30
0.0
 10
301.063436667
 20
161.0321482417
 30
0.0
 10
301.0174872064
 20
161.1649283825
 30
0.0
 10
301.0312036719
 20
161.3015945797
 30
0.0
 10
301.1003204841
 20
161.4349258848
 30
0.0
 10
301.2173618406
 20
161.567825514
 30
0.0
 10
301.3811408711
 20
161.7043121889
 30
0.0
 10
301.6839030995
 20
161.9083491626
 30
0.0
 10
302.1762618145
 20
162.1702970684
 30
0.0
 10
302.8862465152
 20
162.4946107131
 30
0.0
 10
303.7330068762
 20
162.8445661434
 30
0.0
 10
304.3423762167
 20
163.0809060357
 30
0.0
 10
304.6652775768
 20
163.2037820963
 30
0.0
  0
SPLINE
  5
37E
330
221
100
AcDbEntity
  8
7_ALL_FEATURES
  6
Continuous
 62
     7
100
AcDbSpline
 70
     0
 71
     3
 72
    24
 73
    20
 74
     0
 42
0.000000001
 43
0.0000001
 40
0.0
 40
0.0
 40
0.0
 40
0.0
 40
0.1320689971
 40
0.2961107076
 40
0.3814369047
 40
0.4644239361
 40
0.541718526
 40
0.6114901392
 40
0.6737960022
 40
0.7290925307
 40
0.778497778
 40
0.801428838
 40
0.8233622843
 40
0.8445846052
 40
0.8654347109
 40
0.8862785976
 40
0.9074573237
 40
0.9517393484
 40
1.0
 40
1.0
 40
1.0
 40
1.0
 10
304.665199238
 20
163.2037028399
 30
0.0
 10
305.9301606787
 20
163.6828308127
 30
0.0
 10
308.7927752582
 20
164.6866962871
 30
0.0
 10
312.5484084856
 20
165.7807048214
 30
0.0
 10
315.8856097596
 20
166.4637688929
 30
0.0
 10
318.3841958836
 20
166.7809255532
 30
0.0
 10
320.7442672963
 20
166.8483630016
 30
0.0
 10
322.885592147
 20
166.6413003343
 30
0.0
 10
324.7529941119
 20
166.157212029
 30
0.0
 10
326.3039705866
 20
165.4045655195
 30
0.0
 10
327.3133426243
 20
164.5427320937
 30
0.0
 10
327.8789635612
 20
163.7551051824
 30
0.0
 10
328.1747911452
 20
163.1422514854
 30
0.0
 10
328.3484415268
 20
162.5061462804
 30
0.0
 10
328.3974904226
 20
161.8596226044
 30
0.0
 10
328.3216107694
 20
161.2161468038
 30
0.0
 10
328.0543811452
 20
160.3686403939
 30
0.0
 10
327.4023969601
 20
159.3745952655
 30
0.0
 10
326.6567054656
 20
158.7689074514
 30
0.0
 10
326.2408281121
 20
158.5017597197
 30
0.0
  0
SPLINE
  5
37F
330
221
100
AcDbEntity
  8
02___PRT_ALL_AXES
  6
Continuous
 62
     7
100
AcDbSpline
 70
     0
 71
     3
 72
    12
 73
     8
 74
     0
 42
0.000000001
 43
0.0000001
 40
0.0
 40
0.0
 40
0.0
 40
0.0
 40
0.1314009698
 40
0.2665349388
 40
0.4694861786
 40
0.6646082859
 40
1.0
 40
1.0
 40
1.0
 40
1.0
 10
353.6928912699
 20
120.772205305
 30
0.0
 10
353.6980528276
 20
120.6436261608
 30
0.0
 10
353.6875768775
 20
120.3815903331
 30
0.0
 10
353.6035926095
 20
119.9284250433
 30
0.0
 10
353.420736293
 20
119.4341729121
 30
0.0
 10
353.0437297343
 20
118.8229367613
 30
0.0
 10
352.6270973369
 20
118.4603151178
 30
0.0
 10
352.3200204873
 20
118.3437581391
 30
0.0
  0
SPLINE
  5
380
330
221
100
AcDbEntity
  8
02___PRT_ALL_AXES
  6
Continuous
 62
     7
100
AcDbSpline
 70
     0
 71
     3
 72
    11
 73
     7
 74
     0
 42
0.000000001
 43
0.0000001
 40
0.0
 40
0.0
 40
0.0
 40
0.0
 40
0.2637556139
 40
0.5106665953
 40
0.751666802
 40
1.0
 40
1.0
 40
1.0
 40
1.0
 10
352.3200204873
 20
118.3437581391
 30
0.0
 10
352.232068231
 20
118.3103741531
 30
0.0
 10
352.0536978562
 20
118.26400482
 30
0.0
 10
351.7819792196
 20
118.2681083751
 30
0.0
 10
351.5286640728
 20
118.3513125757
 30
0.0
 10
351.3844469157
 20
118.4545839843
 30
0.0
 10
351.3197943361
 20
118.5151267049
 30
0.0
  0
SPLINE
  5
381
330
221
100
AcDbEntity
  8
02___PRT_ALL_AXES
  6
Continuous
 62
     7
100
AcDbSpline
 70
     0
 71
     3
 72
     9
 73
     5
 74
     0
 42
0.000000001
 43
0.0000001
 40
0.0
 40
0.0
 40
0.0
 40
0.0
 40
0.4592671814
 40
1.0
 40
1.0
 40
1.0
 40
1.0
 10
351.3197943361
 20
118.5151267049
 30
0.0
 10
351.1900502213
 20
118.6366231979
 30
0.0
 10
350.9775277978
 20
118.9760341381
 30
0.0
 10
350.896207282
 20
119.3601929411
 30
0.0
 10
350.8771700032
 20
119.568604456
 30
0.0
  0
SPLINE
  5
382
330
221
100
AcDbEntity
  8
02___PRT_ALL_AXES
  6
Continuous
 62
     7
100
AcDbSpline
 70
     0
 71
     3
 72
    13
 73
     9
 74
     0
 42
0.000000001
 43
0.0000001
 40
0.0
 40
0.0
 40
0.0
 40
0.0
 40
0.1169276135
 40
0.2287142948
 40
0.3396509426
 40
0.4543309582
 40
0.7068325113
 40
1.0
 40
1.0
 40
1.0
 40
1.0
 10
352.1672866177
 20
122.1484991783
 30
0.0
 10
352.2555907154
 20
122.1820167125
 30
0.0
 10
352.4369722331
 20
122.2278654923
 30
0.0
 10
352.7148021374
 20
122.2213540047
 30
0.0
 10
352.9777686614
 20
122.1362406287
 30
0.0
 10
353.3011764774
 20
121.9165515796
 30
0.0
 10
353.6023567369
 20
121.4515901057
 30
0.0
 10
353.6833925071
 20
121.0088282151
 30
0.0
 10
353.6928912699
 20
120.772205305
 30
0.0
  0
SPLINE
  5
383
330
221
100
AcDbEntity
  8
02___PRT_ALL_AXES
  6
Continuous
 62
     7
100
AcDbSpline
 70
     0
 71
     3
 72
    20
 73
    16
 74
     0
 42
0.000000001
 43
0.0000001
 40
0.0
 40
0.0
 40
0.0
 40
0.0
 40
0.1380663703
 40
0.2088953914
 40
0.2800946773
 40
0.4210250339
 40
0.4897229996
 40
0.5564974667
 40
0.6209212582
 40
0.6826780077
 40
0.7974005741
 40
0.8507978056
 40
0.9019299656
 40
0.951404275
 40
1.0
 40
1.0
 40
1.0
 40
1.0
 10
333.1094755652
 20
112.9593703482
 30
0.0
 10
332.9789931509
 20
116.2098071911
 30
0.0
 10
332.298358079
 20
121.1207248557
 30
0.0
 10
330.5507615482
 20
127.490163926
 30
0.0
 10
328.2375920096
 20
133.7500452383
 30
0.0
 10
325.1519225029
 20
139.6490056742
 30
0.0
 10
321.3756432809
 20
144.9640730615
 30
0.0
 10
318.291802949
 20
148.53384882
 30
0.0
 10
314.9804352246
 20
151.6629370969
 30
0.0
 10
310.4501329673
 20
155.0926861623
 30
0.0
 10
305.5613200846
 20
157.5967521722
 30
0.0
 10
300.5383856379
 20
158.8791705783
 30
0.0
 10
296.9067047513
 20
159.2041594496
 30
0.0
 10
293.386090473
 20
158.9044546014
 30
0.0
 10
291.1432865293
 20
158.2861737964
 30
0.0
 10
290.0728022458
 20
157.8798924525
 30
0.0
  0
SPLINE
  5
384
330
221
100
AcDbEntity
  8
02___PRT_ALL_AXES
  6
Continuous
 62
     7
100
AcDbSpline
 70
     0
 71
     3
 72
    12
 73
     8
 74
     0
 42
0.000000001
 43
0.0000001
 40
0.0
 40
0.0
 40
0.0
 40
0.0
 40
0.2194223617
 40
0.3451882609
 40
0.4781044857
 40
0.7488510868
 40
1.0
 40
1.0
 40
1.0
 40
1.0
 10
352.0431267672
 20
118.7562588744
 30
0.0
 10
352.2375529515
 20
118.8300571065
 30
0.0
 10
352.5072282056
 20
119.0423165147
 30
0.0
 10
352.7739248978
 20
119.408839339
 30
0.0
 10
352.9987411709
 20
119.8603043769
 30
0.0
 10
353.1431434906
 20
120.4730977297
 30
0.0
 10
353.1044617709
 20
120.9788694341
 30
0.0
 10
353.035570574
 20
121.206712297
 30
0.0
  0
SPLINE
  5
385
330
221
100
AcDbEntity
  8
02___PRT_ALL_AXES
  6
Continuous
 62
     7
100
AcDbSpline
 70
     0
 71
     3
 72
    11
 73
     7
 74
     0
 42
0.000000001
 43
0.0000001
 40
0.0
 40
0.0
 40
0.0
 40
0.0
 40
0.2802102632
 40
0.5370648785
 40
0.7742747029
 40
1.0
 40
1.0
 40
1.0
 40
1.0
 10
353.035570574
 20
121.206712297
 30
0.0
 10
353.0090086762
 20
121.2945600788
 30
0.0
 10
352.9432200221
 20
121.4591110807
 30
0.0
 10
352.7997719257
 20
121.6710024376
 30
0.0
 10
352.620239732
 20
121.8282838246
 30
0.0
 10
352.4791927966
 20
121.8912444402
 30
0.0
 10
352.4077869733
 20
121.9103997523
 30
0.0
  0
SPLINE
  5
386
330
221
100
AcDbEntity
  8
02___PRT_ALL_AXES
  6
Continuous
 62
     7
100
AcDbSpline
 70
     0
 71
     3
 72
     9
 73
     5
 74
     0
 42
0.000000001
 43
0.0000001
 40
0.0
 40
0.0
 40
0.0
 40
0.0
 40
0.5139854818
 40
1.0
 40
1.0
 40
1.0
 40
1.0
 10
352.0431267672
 20
118.7562588744
 30
0.0
 10
351.9634835053
 20
118.7260287285
 30
0.0
 10
351.7996107902
 20
118.6871282966
 30
0.0
 10
351.6309866598
 20
118.7021057078
 30
0.0
 10
351.5531858132
 20
118.7229765476
 30
0.0
  0
SPLINE
  5
387
330
221
100
AcDbEntity
  8
02___PRT_ALL_AXES
  6
Continuous
 62
     7
100
AcDbSpline
 70
     0
 71
     3
 72
     9
 73
     5
 74
     0
 42
0.000000001
 43
0.0000001
 40
0.0
 40
0.0
 40
0.0
 40
0.0
 40
0.2617957193
 40
1.0
 40
1.0
 40
1.0
 40
1.0
 10
351.388881873
 20
121.5014656478
 30
0.0
 10
351.4195093277
 20
121.5448522942
 30
0.0
 10
351.541857962
 20
121.7066275004
 30
0.0
 10
351.6867896994
 20
121.8521215304
 30
0.0
 10
351.8056081227
 20
121.9432688924
 30
0.0
  0
SPLINE
  5
388
330
221
100
AcDbEntity
  8
02___PRT_ALL_AXES
  6
Continuous
 62
     7
100
AcDbSpline
 70
     0
 71
     3
 72
     9
 73
     5
 74
     0
 42
0.000000001
 43
0.0000001
 40
0.0
 40
0.0
 40
0.0
 40
0.0
 40
0.2603697231
 40
1.0
 40
1.0
 40
1.0
 40
1.0
 10
351.8056081227
 20
121.9432688924
 30
0.0
 10
351.8342998187
 20
121.9652787149
 30
0.0
 10
351.9471812799
 20
122.0461787143
 30
0.0
 10
352.0712487764
 20
122.1120461515
 30
0.0
 10
352.1672866177
 20
122.1484991783
 30
0.0
  0
SPLINE
  5
389
330
221
100
AcDbEntity
  8
02___PRT_ALL_AXES
  6
Continuous
 62
     7
100
AcDbSpline
 70
     0
 71
     3
 72
    15
 73
    11
 74
     0
 42
0.000000001
 43
0.0000001
 40
0.0
 40
0.0
 40
0.0
 40
0.0
 40
0.1076222642
 40
0.2175821009
 40
0.3319033681
 40
0.4520767097
 40
0.5789716089
 40
0.7128480408
 40
0.8534328494
 40
1.0
 40
1.0
 40
1.0
 40
1.0
 10
318.2822785151
 20
83.5531140212
 30
0.0
 10
319.4596581877
 20
83.9999654164
 30
0.0
 10
321.7531399173
 20
85.152937954
 30
0.0
 10
324.8211416534
 20
87.5727248505
 30
0.0
 10
327.4755099712
 20
90.635382763
 30
0.0
 10
329.6666453702
 20
94.2739563216
 30
0.0
 10
331.358156016
 20
98.415171551
 30
0.0
 10
332.5219874888
 20
102.979022391
 30
0.0
 10
333.1389488326
 20
107.8780321849
 30
0.0
 10
333.1782667675
 20
111.2457182851
 30
0.0
 10
333.1094755652
 20
112.9593703482
 30
0.0
  0
ENDSEC
  0
SECTION
  2
OBJECTS
  0
DICTIONARY
  5
C
330
0
100
AcDbDictionary
281
     1
  3
ACAD_GROUP
350
D
  3
ACAD_IMAGE_VARS
350
3D3
  3
ACAD_LAYOUT
350
1A
  3
ACAD_MLINESTYLE
350
17
  3
ACAD_PLOTSETTINGS
350
19
  3
ACAD_PLOTSTYLENAME
350
E
  3
ACAD_SCALELIST
350
38F
  3
APPDATA
350
3D1
  3
DWGPROPS
350
3F6
  0
DICTIONARY
  5
D
102
{ACAD_REACTORS
330
C
102
}
330
C
100
AcDbDictionary
281
     1
  0
RASTERVARIABLES
  5
3D3
102
{ACAD_REACTORS
330
C
102
}
330
C
100
AcDbRasterVariables
 90
        0
 70
     1
 71
     1
 72
     1
  0
DICTIONARY
  5
1A
102
{ACAD_REACTORS
330
C
102
}
330
C
100
AcDbDictionary
281
     1
  3
Layout1
350
38C
  3
Model
350
38B
  0
DICTIONARY
  5
17
102
{ACAD_REACTORS
330
C
102
}
330
C
100
AcDbDictionary
281
     1
  3
Standard
350
18
  0
DICTIONARY
  5
19
102
{ACAD_REACTORS
330
C
102
}
330
C
100
AcDbDictionary
281
     1
  0
ACDBDICTIONARYWDFLT
  5
E
102
{ACAD_REACTORS
330
C
102
}
330
C
100
AcDbDictionary
281
     1
  3
Normal
350
F
100
AcDbDictionaryWithDefault
340
F
  0
DICTIONARY
  5
38F
102
{ACAD_REACTORS
330
C
102
}
330
C
100
AcDbDictionary
281
     1
  3
A0
350
390
  3
A1
350
391
  3
A2
350
392
  3
A3
350
393
  3
A4
350
394
  3
A5
350
395
  3
A6
350
396
  3
A7
350
397
  3
A8
350
398
  3
A9
350
399
  3
B0
350
39A
  3
B1
350
39B
  3
B2
350
39C
  3
B3
350
39D
  3
B4
350
39E
  3
B5
350
39F
  3
B6
350
3A0
  3
B7
350
3A1
  3
B8
350
3A2
  3
B9
350
3A3
  3
C0
350
3A4
  3
C1
350
3A5
  3
C2
350
3A6
  3
C3
350
3A7
  3
C4
350
3A8
  3
C5
350
3A9
  3
C6
350
3AA
  3
C7
350
3AB
  3
C8
350
3AC
  3
C9
350
3AD
  3
D0
350
3AE
  3
D1
350
3AF
  3
D2
350
3B0
  0
DICTIONARY
  5
3D1
102
{ACAD_REACTORS
330
C
102
}
330
C
100
AcDbDictionary
281
     1
  0
XRECORD
  5
3F6
102
{ACAD_REACTORS
330
C
102
}
330
C
100
AcDbXrecord
280
     1
  1
DWGPROPS COOKIE
  2

  3

  4

  6

  7

  8
andrea.faggionato
  9

300
=
301
=
302
=
303
=
304
=
305
=
306
=
307
=
308
=
309
=
 40
0.0
 41
0.0
 42
2456745.643813553
  1

 90
        0
  0
LAYOUT
  5
38C
102
{ACAD_REACTORS
330
1A
102
}
330
1A
100
AcDbPlotSettings
  1

  2
none_device
  4
ISO_A3_(420.00_x_297.00_MM)
  6

 40
0.0
 41
0.0
 42
0.0
 43
0.0
 44
420.0
 45
297.0
 46
0.0
 47
0.0
 48
0.0
 49
0.0
140
0.0
141
0.0
142
1.0
143
1.0
 70
     0
 72
     1
 73
     0
 74
     0
  7

 75
     0
147
1.0
148
0.0
149
0.0
100
AcDbLayout
  1
Layout1
 70
     0
 71
     1
 10
0.0
 20
0.0
 11
420.0
 21
297.0
 12
0.0
 22
0.0
 32
0.0
 14
0.0
 24
0.0
 34
0.0
 15
0.0
 25
0.0
 35
0.0
146
0.0
 13
0.0
 23
0.0
 33
0.0
 16
1.0
 26
0.0
 36
0.0
 17
0.0
 27
1.0
 37
0.0
 76
     0
330
222
  0
LAYOUT
  5
38B
102
{ACAD_REACTORS
330
1A
102
}
330
1A
100
AcDbPlotSettings
  1

  2
none_device
  4
ISO_A3_(420.00_x_297.00_MM)
  6

 40
0.0
 41
0.0
 42
0.0
 43
0.0
 44
420.0
 45
297.0
 46
0.0
 47
0.0
 48
0.0
 49
0.0
140
0.0
141
0.0
142
1.0
143
1.0
 70
  1024
 72
     1
 73
     0
 74
     0
  7

 75
     0
147
1.0
148
0.0
149
0.0
100
AcDbLayout
  1
Model
 70
     0
 71
     0
 10
0.0
 20
0.0
 11
420.0
 21
297.0
 12
0.0
 22
0.0
 32
0.0
 14
0.0
 24
0.0
 34
0.0
 15
0.0
 25
0.0
 35
0.0
146
0.0
 13
0.0
 23
0.0
 33
0.0
 16
1.0
 26
0.0
 36
0.0
 17
0.0
 27
1.0
 37
0.0
 76
     0
330
221
331
1F4
  0
MLINESTYLE
  5
18
102
{ACAD_REACTORS
330
17
102
}
330
17
100
AcDbMlineStyle
  2
STANDARD
 70
     0
  3

 62
   256
 51
90.0
 52
90.0
 71
     2
 49
0.5
 62
   256
  6
BYLAYER
 49
-0.5
 62
   256
  6
BYLAYER
  0
ACDBPLACEHOLDER
  5
F
102
{ACAD_REACTORS
330
E
102
}
330
E
  0
SCALE
  5
390
102
{ACAD_REACTORS
330
38F
102
}
330
38F
100
AcDbScale
 70
     0
300
1:1
140
1.0
141
1.0
290
     1
  0
SCALE
  5
391
102
{ACAD_REACTORS
330
38F
102
}
330
38F
100
AcDbScale
 70
     0
300
1:2
140
1.0
141
2.0
290
     0
  0
SCALE
  5
392
102
{ACAD_REACTORS
330
38F
102
}
330
38F
100
AcDbScale
 70
     0
300
1:4
140
1.0
141
4.0
290
     0
  0
SCALE
  5
393
102
{ACAD_REACTORS
330
38F
102
}
330
38F
100
AcDbScale
 70
     0
300
1:5
140
1.0
141
5.0
290
     0
  0
SCALE
  5
394
102
{ACAD_REACTORS
330
38F
102
}
330
38F
100
AcDbScale
 70
     0
300
1:8
140
1.0
141
8.0
290
     0
  0
SCALE
  5
395
102
{ACAD_REACTORS
330
38F
102
}
330
38F
100
AcDbScale
 70
     0
300
1:10
140
1.0
141
10.0
290
     0
  0
SCALE
  5
396
102
{ACAD_REACTORS
330
38F
102
}
330
38F
100
AcDbScale
 70
     0
300
1:16
140
1.0
141
16.0
290
     0
  0
SCALE
  5
397
102
{ACAD_REACTORS
330
38F
102
}
330
38F
100
AcDbScale
 70
     0
300
1:20
140
1.0
141
20.0
290
     0
  0
SCALE
  5
398
102
{ACAD_REACTORS
330
38F
102
}
330
38F
100
AcDbScale
 70
     0
300
1:30
140
1.0
141
30.0
290
     0
  0
SCALE
  5
399
102
{ACAD_REACTORS
330
38F
102
}
330
38F
100
AcDbScale
 70
     0
300
1:40
140
1.0
141
40.0
290
     0
  0
SCALE
  5
39A
102
{ACAD_REACTORS
330
38F
102
}
330
38F
100
AcDbScale
 70
     0
300
1:50
140
1.0
141
50.0
290
     0
  0
SCALE
  5
39B
102
{ACAD_REACTORS
330
38F
102
}
330
38F
100
AcDbScale
 70
     0
300
1:100
140
1.0
141
100.0
290
     0
  0
SCALE
  5
39C
102
{ACAD_REACTORS
330
38F
102
}
330
38F
100
AcDbScale
 70
     0
300
2:1
140
2.0
141
1.0
290
     0
  0
SCALE
  5
39D
102
{ACAD_REACTORS
330
38F
102
}
330
38F
100
AcDbScale
 70
     0
300
4:1
140
4.0
141
1.0
290
     0
  0
SCALE
  5
39E
102
{ACAD_REACTORS
330
38F
102
}
330
38F
100
AcDbScale
 70
     0
300
8:1
140
8.0
141
1.0
290
     0
  0
SCALE
  5
39F
102
{ACAD_REACTORS
330
38F
102
}
330
38F
100
AcDbScale
 70
     0
300
10:1
140
10.0
141
1.0
290
     0
  0
SCALE
  5
3A0
102
{ACAD_REACTORS
330
38F
102
}
330
38F
100
AcDbScale
 70
     0
300
100:1
140
100.0
141
1.0
290
     0
  0
SCALE
  5
3A1
102
{ACAD_REACTORS
330
38F
102
}
330
38F
100
AcDbScale
 70
     0
300
1/128" = 1'-0"
140
0.0078125
141
12.0
290
     0
  0
SCALE
  5
3A2
102
{ACAD_REACTORS
330
38F
102
}
330
38F
100
AcDbScale
 70
     0
300
1/64" = 1'-0"
140
0.015625
141
12.0
290
     0
  0
SCALE
  5
3A3
102
{ACAD_REACTORS
330
38F
102
}
330
38F
100
AcDbScale
 70
     0
300
1/32" = 1'-0"
140
0.03125
141
12.0
290
     0
  0
SCALE
  5
3A4
102
{ACAD_REACTORS
330
38F
102
}
330
38F
100
AcDbScale
 70
     0
300
1/16" = 1'-0"
140
0.0625
141
12.0
290
     0
  0
SCALE
  5
3A5
102
{ACAD_REACTORS
330
38F
102
}
330
38F
100
AcDbScale
 70
     0
300
3/32" = 1'-0"
140
0.09375
141
12.0
290
     0
  0
SCALE
  5
3A6
102
{ACAD_REACTORS
330
38F
102
}
330
38F
100
AcDbScale
 70
     0
300
1/8" = 1'-0"
140
0.125
141
12.0
290
     0
  0
SCALE
  5
3A7
102
{ACAD_REACTORS
330
38F
102
}
330
38F
100
AcDbScale
 70
     0
300
3/16" = 1'-0"
140
0.1875
141
12.0
290
     0
  0
SCALE
  5
3A8
102
{ACAD_REACTORS
330
38F
102
}
330
38F
100
AcDbScale
 70
     0
300
1/4" = 1'-0"
140
0.25
141
12.0
290
     0
  0
SCALE
  5
3A9
102
{ACAD_REACTORS
330
38F
102
}
330
38F
100
AcDbScale
 70
     0
300
3/8" = 1'-0"
140
0.375
141
12.0
290
     0
  0
SCALE
  5
3AA
102
{ACAD_REACTORS
330
38F
102
}
330
38F
100
AcDbScale
 70
     0
300
1/2" = 1'-0"
140
0.5
141
12.0
290
     0
  0
SCALE
  5
3AB
102
{ACAD_REACTORS
330
38F
102
}
330
38F
100
AcDbScale
 70
     0
300
3/4" = 1'-0"
140
0.75
141
12.0
290
     0
  0
SCALE
  5
3AC
102
{ACAD_REACTORS
330
38F
102
}
330
38F
100
AcDbScale
 70
     0
300
1" = 1'-0"
140
1.0
141
12.0
290
     0
  0
SCALE
  5
3AD
102
{ACAD_REACTORS
330
38F
102
}
330
38F
100
AcDbScale
 70
     0
300
1-1/2" = 1'-0"
140
1.5
141
12.0
290
     0
  0
SCALE
  5
3AE
102
{ACAD_REACTORS
330
38F
102
}
330
38F
100
AcDbScale
 70
     0
300
3" = 1'-0"
140
3.0
141
12.0
290
     0
  0
SCALE
  5
3AF
102
{ACAD_REACTORS
330
38F
102
}
330
38F
100
AcDbScale
 70
     0
300
6" = 1'-0"
140
6.0
141
12.0
290
     0
  0
SCALE
  5
3B0
102
{ACAD_REACTORS
330
38F
102
}
330
38F
100
AcDbScale
 70
     0
300
1'-0" = 1'-0"
140
12.0
141
12.0
290
     0
  0
ENDSEC
  0
EOF
