999
DXF file: 679_c_001.dxf
999
Pro/ENGINEER 2011490 by Parametric Technology Corporation
  0
SECTION
  2
HEADER
  9
$ACADVER
  1
AC1021
  9
$DWGCODEPAGE
  3
ANSI_1252
  9
$EXTMAX
 10
420.0
 20
297.0
 30
0.0
  9
$EXTMIN
 10
0.0
 20
0.0
 30
0.0
  9
$LIMMIN
 10
0.0
 20
0.0
  9
$LIMMAX
 10
420.0
 20
297.0
  9
$VIEWCTR
 10
210.0
 20
148.5
  9
$VIEWSIZE
 40
297.0
  9
$CLAYER
  8
0
  9
$LTSCALE
 40
23.1
  9
$CELTYPE
  6
BYLAYER
  9
$DIMSCALE
 40
1.0
  9
$DIMASZ
 40
2.5
  9
$DIMEXO
 40
2.625
  9
$DIMDLI
 40
15.96
  9
$DIMEXE
 40
7.56
  9
$DIMCEN
 40
3.78
  9
$DIMLFAC
 40
1.0
  9
$DIMBLK
  1
_CLOSED
  9
$DIMTXT
 40
3.0
  9
$DIMTOL
 70
1
  9
$DIMLIM
 70
0
  9
$DIMTFAC
 40
1.0
  9
$DIMTP
 40
0.01
  9
$DIMTM
 40
0.01
  9
$PDMODE
 70
3
  9
$PDSIZE
 40
0.3125
  9
$HANDSEED
  5
5D9
  9
$TILEMODE
 70
1
  9
$MEASUREMENT
 70
1
  9
$INSUNITS
 70
4
  0
ENDSEC
  0
SECTION
  2
CLASSES
  0
CLASS
  1
ACDBDICTIONARYWDFLT
  2
AcDbDictionaryWithDefault
  3
AutoCAD 2000
 90
0
 91
1
280
0
281
0
  0
CLASS
  1
ACDBPLACEHOLDER
  2
AcDbPlaceHolder
  3
AutoCAD 2000
 90
0
 91
1
280
0
281
0
  0
CLASS
  1
LAYOUT
  2
AcDbLayout
  3
AutoCAD 2000
 90
0
 91
0
280
0
281
0
  0
CLASS
  1
TABLESTYLE
  2
AcDbTableStyle
  3
ObjectDBX Classes
 90
2047
 91
1
280
0
281
0
  0
CLASS
  1
ACAD_TABLE
  2
AcDbTable
  3
ObjectDBX Classes
 90
1025
 91
1
280
0
281
1
  0
ENDSEC
  0
SECTION
  2
TABLES
  0
TABLE
  2
VPORT
  5
8
100
AcDbSymbolTable
 70
2
  0
VPORT
  5
1F4
100
AcDbSymbolTableRecord
100
AcDbViewportTableRecord
  2
*ACTIVE
 70
0
 10
0.0
 20
0.0
 11
1.0
 21
1.0
 12
210.0
 22
148.5
 13
0.0
 23
0.0
 14
1.0
 24
1.0
 15
0.0
 25
0.0
 16
0.0
 26
0.0
 36
1.0
 17
0.0
 27
0.0
 37
0.0
 40
297.0
 41
1.4141414141
 42
50.0
 43
0.0
 44
0.0
 50
0.0
 51
0.0
 71
0
 72
100
 73
1
 74
1
 75
0
 76
0
 77
0
 78
0
  0
ENDTAB
  0
TABLE
  2
LTYPE
  5
5
100
AcDbSymbolTable
 70
6
  0
LTYPE
  5
14
100
AcDbSymbolTableRecord
100
AcDbLinetypeTableRecord
  2
BYBLOCK
 70
0
  3

 72
65
 73
0
 40
0.0
  0
LTYPE
  5
15
100
AcDbSymbolTableRecord
100
AcDbLinetypeTableRecord
  2
BYLAYER
 70
0
  3

 72
65
 73
0
 40
0.0
  0
LTYPE
  5
16
100
AcDbSymbolTableRecord
100
AcDbLinetypeTableRecord
  2
CONTINUOUS
 70
64
  3
Solid line
 72
65
 73
0
 40
0.0
  0
LTYPE
  5
1F5
100
AcDbSymbolTableRecord
100
AcDbLinetypeTableRecord
  2
CENTER
 70
64
  3
____ _ ____ _ ____ _ ____ _ ____ _ ____ _ ____
 72
65
 73
4
 40
0.6
 49
0.375
 74
0
 49
-0.075
 74
0
 49
0.075
 74
0
 49
-0.075
 74
0
  0
LTYPE
  5
1F6
100
AcDbSymbolTableRecord
100
AcDbLinetypeTableRecord
  2
HIDDEN
 70
64
  3
- - - - - - - - - - - - - - - - - - - -
 72
65
 73
2
 40
0.2
 49
0.1
 74
0
 49
-0.1
 74
0
  0
LTYPE
  5
1F7
100
AcDbSymbolTableRecord
100
AcDbLinetypeTableRecord
  2
PHANTOM
 70
64
  3
_____ _ _ _____ _ _ _____ _ _ _____
 72
65
 73
6
 40
0.8
 49
0.45
 74
0
 49
-0.05
 74
0
 49
0.1
 74
0
 49
-0.05
 74
0
 49
0.1
 74
0
 49
-0.05
 74
0
  0
LTYPE
  5
1F8
100
AcDbSymbolTableRecord
100
AcDbLinetypeTableRecord
  2
DOT
 70
64
  3
. . . . . . . . . . . . . . . . . . . .
 72
65
 73
2
 40
0.2
 49
0.1
 74
0
 49
-0.1
 74
0
  0
LTYPE
  5
1F9
100
AcDbSymbolTableRecord
100
AcDbLinetypeTableRecord
  2
DASHED
 70
64
  3
- - - - - - - - - - - - - - - - - - - -
 72
65
 73
2
 40
0.2
 49
0.1
 74
0
 49
-0.1
 74
0
  0
ENDTAB
  0
TABLE
  2
LAYER
  5
2
100
AcDbSymbolTable
 70
36
  0
LAYER
  5
10
100
AcDbSymbolTableRecord
100
AcDbLayerTableRecord
  2
0
 70
0
 62
7
  6
CONTINUOUS
370
-3
390
F
  0
LAYER
  5
1FA
100
AcDbSymbolTableRecord
100
AcDbLayerTableRecord
  2
DEFAULT_1
 70
0
 62
7
  6
CENTER
370
-3
390
F
  0
LAYER
  5
1FB
100
AcDbSymbolTableRecord
100
AcDbLayerTableRecord
  2
DEFAULT_2
 70
0
 62
8
  6
HIDDEN
370
-3
390
F
  0
LAYER
  5
1FC
100
AcDbSymbolTableRecord
100
AcDbLayerTableRecord
  2
DEFAULT_3
 70
0
 62
7
  6
PHANTOM
370
-3
390
F
  0
LAYER
  5
1FD
100
AcDbSymbolTableRecord
100
AcDbLayerTableRecord
  2
01_ALL_DTM_PLN
 70
0
 62
7
  6
CONTINUOUS
370
-3
390
F
  0
LAYER
  5
1FE
100
AcDbSymbolTableRecord
100
AcDbLayerTableRecord
  2
01__ASM_ALL_DTM_PLN
 70
0
 62
7
  6
CONTINUOUS
370
-3
390
F
  0
LAYER
  5
1FF
100
AcDbSymbolTableRecord
100
AcDbLayerTableRecord
  2
01__ASM_DEF_DTM_PLN
 70
0
 62
7
  6
CONTINUOUS
370
-3
390
F
  0
LAYER
  5
200
100
AcDbSymbolTableRecord
100
AcDbLayerTableRecord
  2
01___PRT_ALL_DTM_PLN
 70
0
 62
7
  6
CONTINUOUS
370
-3
390
F
  0
LAYER
  5
201
100
AcDbSymbolTableRecord
100
AcDbLayerTableRecord
  2
01___PRT_DEF_DTM_PLN
 70
0
 62
7
  6
CONTINUOUS
370
-3
390
F
  0
LAYER
  5
202
100
AcDbSymbolTableRecord
100
AcDbLayerTableRecord
  2
02_ALL_AXES
 70
0
 62
7
  6
CONTINUOUS
370
-3
390
F
  0
LAYER
  5
203
100
AcDbSymbolTableRecord
100
AcDbLayerTableRecord
  2
02__ASM_ALL_AXES
 70
0
 62
7
  6
CONTINUOUS
370
-3
390
F
  0
LAYER
  5
204
100
AcDbSymbolTableRecord
100
AcDbLayerTableRecord
  2
02___PRT_ALL_AXES
 70
0
 62
7
  6
CONTINUOUS
370
-3
390
F
  0
LAYER
  5
205
100
AcDbSymbolTableRecord
100
AcDbLayerTableRecord
  2
03_ALL_CURVES
 70
0
 62
7
  6
CONTINUOUS
370
-3
390
F
  0
LAYER
  5
206
100
AcDbSymbolTableRecord
100
AcDbLayerTableRecord
  2
03__ASM_ALL_CURVES
 70
0
 62
7
  6
CONTINUOUS
370
-3
390
F
  0
LAYER
  5
207
100
AcDbSymbolTableRecord
100
AcDbLayerTableRecord
  2
03___PRT_ALL_CURVES
 70
0
 62
7
  6
CONTINUOUS
370
-3
390
F
  0
LAYER
  5
208
100
AcDbSymbolTableRecord
100
AcDbLayerTableRecord
  2
04_ALL_DTM_PNT
 70
0
 62
7
  6
CONTINUOUS
370
-3
390
F
  0
LAYER
  5
209
100
AcDbSymbolTableRecord
100
AcDbLayerTableRecord
  2
04__ASM_ALL_DTM_PNT
 70
0
 62
7
  6
CONTINUOUS
370
-3
390
F
  0
LAYER
  5
20A
100
AcDbSymbolTableRecord
100
AcDbLayerTableRecord
  2
04___PRT_ALL_DTM_PNT
 70
0
 62
7
  6
CONTINUOUS
370
-3
390
F
  0
LAYER
  5
20B
100
AcDbSymbolTableRecord
100
AcDbLayerTableRecord
  2
05_ALL_DTM_CSYS
 70
0
 62
7
  6
CONTINUOUS
370
-3
390
F
  0
LAYER
  5
20C
100
AcDbSymbolTableRecord
100
AcDbLayerTableRecord
  2
05__ASM_ALL_DTM_CSYS
 70
0
 62
7
  6
CONTINUOUS
370
-3
390
F
  0
LAYER
  5
20D
100
AcDbSymbolTableRecord
100
AcDbLayerTableRecord
  2
05__ASM_DEF_DTM_CSYS
 70
0
 62
7
  6
CONTINUOUS
370
-3
390
F
  0
LAYER
  5
20E
100
AcDbSymbolTableRecord
100
AcDbLayerTableRecord
  2
05___PRT_ALL_DTM_CSYS
 70
0
 62
7
  6
CONTINUOUS
370
-3
390
F
  0
LAYER
  5
20F
100
AcDbSymbolTableRecord
100
AcDbLayerTableRecord
  2
05___PRT_DEF_DTM_CSYS
 70
0
 62
7
  6
CONTINUOUS
370
-3
390
F
  0
LAYER
  5
210
100
AcDbSymbolTableRecord
100
AcDbLayerTableRecord
  2
06_ALL_SURFS
 70
0
 62
7
  6
CONTINUOUS
370
-3
390
F
  0
LAYER
  5
211
100
AcDbSymbolTableRecord
100
AcDbLayerTableRecord
  2
06__ASM_ALL_SURFS
 70
0
 62
7
  6
CONTINUOUS
370
-3
390
F
  0
LAYER
  5
212
100
AcDbSymbolTableRecord
100
AcDbLayerTableRecord
  2
06___PRT_ALL_SURFS
 70
0
 62
7
  6
CONTINUOUS
370
-3
390
F
  0
LAYER
  5
213
100
AcDbSymbolTableRecord
100
AcDbLayerTableRecord
  2
07__ASM_ALL_SKELETONS
 70
0
 62
7
  6
CONTINUOUS
370
-3
390
F
  0
LAYER
  5
214
100
AcDbSymbolTableRecord
100
AcDbLayerTableRecord
  2
1_ALL_PLANES
 70
0
 62
7
  6
CONTINUOUS
370
-3
390
F
  0
LAYER
  5
215
100
AcDbSymbolTableRecord
100
AcDbLayerTableRecord
  2
3_ALL_AXES
 70
0
 62
7
  6
CONTINUOUS
370
-3
390
F
  0
LAYER
  5
216
100
AcDbSymbolTableRecord
100
AcDbLayerTableRecord
  2
5_ALL_CURVES
 70
0
 62
7
  6
CONTINUOUS
370
-3
390
F
  0
LAYER
  5
217
100
AcDbSymbolTableRecord
100
AcDbLayerTableRecord
  2
6_ALL_SURFS
 70
0
 62
7
  6
CONTINUOUS
370
-3
390
F
  0
LAYER
  5
218
100
AcDbSymbolTableRecord
100
AcDbLayerTableRecord
  2
7_ALL_FEATURES
 70
0
 62
7
  6
CONTINUOUS
370
-3
390
F
  0
LAYER
  5
219
100
AcDbSymbolTableRecord
100
AcDbLayerTableRecord
  2
8_ALL_NOTES_BALLOONS_SYMBOLS_GT
 70
0
 62
7
  6
CONTINUOUS
370
-3
390
F
  0
LAYER
  5
21A
100
AcDbSymbolTableRecord
100
AcDbLayerTableRecord
  2
INTFCLR_3
 70
0
 62
7
  6
CONTINUOUS
370
-3
390
F
  0
LAYER
  5
21B
100
AcDbSymbolTableRecord
100
AcDbLayerTableRecord
  2
INTFCLR_5
 70
0
 62
7
  6
CONTINUOUS
370
-3
390
F
  0
LAYER
  5
21C
100
AcDbSymbolTableRecord
100
AcDbLayerTableRecord
  2
INTF_GREEN
 70
0
 62
7
  6
CONTINUOUS
370
-3
390
F
  0
LAYER
  5
21D
100
AcDbSymbolTableRecord
100
AcDbLayerTableRecord
  2
INTF_YELLOW
 70
0
 62
7
  6
CONTINUOUS
370
-3
390
F
  0
LAYER
  5
21E
100
AcDbSymbolTableRecord
100
AcDbLayerTableRecord
  2
NONE
 70
0
 62
7
  6
CONTINUOUS
370
-3
390
F
  0
ENDTAB
  0
TABLE
  2
STYLE
  5
3
100
AcDbSymbolTable
 70
1
  0
STYLE
  5
11
100
AcDbSymbolTableRecord
100
AcDbTextStyleTableRecord
  2
STANDARD
 70
0
 40
0.0
 41
0.85
 50
0.0
 71
0
 42
0.2
  3
txt
  4

  0
STYLE
  5
21F
100
AcDbSymbolTableRecord
100
AcDbTextStyleTableRecord
  2
TEXTSTYLE_1
 70
0
 40
0.0
 41
0.8
 50
0.0
 71
0
 42
0.2
  3
gdt
  4

  0
STYLE
  5
220
100
AcDbSymbolTableRecord
100
AcDbTextStyleTableRecord
  2
TEXTSTYLE_2
 70
0
 40
0.0
 41
0.9
 50
0.0
 71
0
 42
0.2
  3
txt
  4

  0
STYLE
  5
221
100
AcDbSymbolTableRecord
100
AcDbTextStyleTableRecord
  2
TEXTSTYLE_3
 70
0
 40
0.0
 41
0.9
 50
0.0
 71
0
 42
0.2
  3
txt
  4

  0
STYLE
  5
222
100
AcDbSymbolTableRecord
100
AcDbTextStyleTableRecord
  2
TEXTSTYLE_4
 70
0
 40
0.0
 41
0.85
 50
0.0
 71
0
 42
0.2
  3
txt
  4

  0
ENDTAB
  0
TABLE
  2
VIEW
  5
6
100
AcDbSymbolTable
 70
0
  0
ENDTAB
  0
TABLE
  2
UCS
  5
7
100
AcDbSymbolTable
 70
0
  0
ENDTAB
  0
TABLE
  2
APPID
  5
9
100
AcDbSymbolTable
 70
1
  0
APPID
  5
223
100
AcDbSymbolTableRecord
100
AcDbRegAppTableRecord
  2
ACAD
 70
0
  0
ENDTAB
  0
TABLE
  2
BLOCK_RECORD
  5
1
100
AcDbSymbolTable
 70
0
  0
BLOCK_RECORD
  5
224
100
AcDbSymbolTableRecord
100
AcDbBlockTableRecord
  2
*Model_Space
  0
BLOCK_RECORD
  5
225
100
AcDbSymbolTableRecord
100
AcDbBlockTableRecord
  2
*Paper_Space
  0
BLOCK_RECORD
  5
226
100
AcDbSymbolTableRecord
100
AcDbBlockTableRecord
  2
_CLOSED
  0
BLOCK_RECORD
  5
227
100
AcDbSymbolTableRecord
100
AcDbBlockTableRecord
  2
*D0
  0
BLOCK_RECORD
  5
228
100
AcDbSymbolTableRecord
100
AcDbBlockTableRecord
  2
*D1
  0
BLOCK_RECORD
  5
229
100
AcDbSymbolTableRecord
100
AcDbBlockTableRecord
  2
*D2
  0
BLOCK_RECORD
  5
22A
100
AcDbSymbolTableRecord
100
AcDbBlockTableRecord
  2
LOGO2_BL0
  0
BLOCK_RECORD
  5
22B
100
AcDbSymbolTableRecord
100
AcDbBlockTableRecord
  2
*T1
  0
ENDTAB
  0
TABLE
  2
DIMSTYLE
  5
A
100
AcDbSymbolTable
 70
1
100
AcDbDimStyleTable
 71
0
  0
DIMSTYLE
105
22C
100
AcDbSymbolTableRecord
100
AcDbDimStyleTableRecord
  2
STANDARD
 70
0
  3

  4

 40
1.0
 41
2.5
 42
0.0625
 43
0.38
 44
0.18
 45
0.0
 46
0.0
 47
0.01
 48
0.01
140
3.0
141
0.09
142
0.0
143
25.4
144
1.0
145
0.0
146
1.0
147
0.09
 71
1.0
 72
0.0
 73
0
 74
0
 75
0
 76
0
 77
1
 78
8
170
0
171
2
172
0
173
0
174
0
175
0
176
0
177
0
178
0
270
2
271
2
272
2
273
2
274
2
275
0
280
0
281
0
282
0
283
1
284
8
285
0
286
0
287
3
288
0
340
11
341
226
342
226
343
226
344
226
  0
DIMSTYLE
105
22D
100
AcDbSymbolTableRecord
100
AcDbDimStyleTableRecord
  2
DIMSTYLE_1
 70
0
  3

  4

 40
1.0
 41
2.5
 42
0.0625
 43
0.38
 44
0.18
 45
0.0
 46
0.0
 47
0.3
 48
0.3
140
3.0
141
0.09
142
0.0
143
25.4
144
1.0
145
0.0
146
1.0
147
0.09
 71
0.0
 72
0.0
 73
0
 74
0
 75
0
 76
0
 77
1
 78
8
170
0
171
2
172
0
173
0
174
0
175
0
176
0
177
0
178
0
270
2
271
2
272
2
273
2
274
2
275
0
280
0
281
0
282
0
283
1
284
8
285
0
286
0
287
3
288
0
340
11
341
226
342
226
343
226
344
226
  0
DIMSTYLE
105
22E
100
AcDbSymbolTableRecord
100
AcDbDimStyleTableRecord
  2
DIMSTYLE_2
 70
0
  3

  4

 40
1.0
 41
2.5
 42
0.0625
 43
0.38
 44
0.18
 45
0.0
 46
0.0
 47
0.3
 48
0.3
140
3.0
141
0.09
142
0.0
143
25.4
144
1.0
145
0.0
146
1.0
147
0.09
 71
0.0
 72
0.0
 73
0
 74
0
 75
0
 76
0
 77
1
 78
8
170
0
171
2
172
0
173
0
174
0
175
0
176
0
177
0
178
0
270
2
271
0
272
0
273
2
274
2
275
0
280
0
281
0
282
0
283
1
284
8
285
0
286
0
287
3
288
0
340
11
341
226
342
226
343
226
344
226
  0
ENDTAB
  0
ENDSEC
  0
SECTION
  2
BLOCKS
  0
BLOCK
  5
20
100
AcDbEntity
  8
0
100
AcDbBlockBegin
  2
*Model_Space
 70
0
 10
0.0
 20
0.0
 30
0.0
  3
*Model_Space
  1

  0
ENDBLK
  5
21
100
AcDbEntity
  8
0
100
AcDbBlockEnd
  0
BLOCK
  5
1C
100
AcDbEntity
  8
0
100
AcDbBlockBegin
  2
*Paper_Space
 70
0
 10
0.0
 20
0.0
 30
0.0
  3
*Paper_Space
  1

  0
ENDBLK
  5
1D
100
AcDbEntity
  8
0
100
AcDbBlockEnd
  0
BLOCK
  5
22F
100
AcDbEntity
  8
0
100
AcDbBlockBegin
 62
2
  6
CONTINUOUS
  2
LOGO2_BL0
 70
64
 10
333.1473869546
 20
37.5239270671
  3
LOGO2_BL0
  1

  0
LINE
  5
230
100
AcDbEntity
  8
0
100
AcDbLine
 62
7
  6
CONTINUOUS
 10
324.8903121828
 20
40.7194184059
 11
323.5859712535
 21
40.7194184059
  0
LINE
  5
231
100
AcDbEntity
  8
0
100
AcDbLine
 62
7
  6
CONTINUOUS
 10
323.5859712535
 20
40.7194184059
 11
323.5859712535
 21
30.260352346
  0
LINE
  5
232
100
AcDbEntity
  8
0
100
AcDbLine
 62
7
  6
CONTINUOUS
 10
323.5859712535
 20
30.260352346
 11
328.0670261417
 21
30.260352346
  0
LINE
  5
233
100
AcDbEntity
  8
0
100
AcDbLine
 62
7
  6
CONTINUOUS
 10
328.0670261417
 20
30.260352346
 11
328.0670261417
 21
31.4532066711
  0
LINE
  5
234
100
AcDbEntity
  8
0
100
AcDbLine
 62
7
  6
CONTINUOUS
 10
328.0670261417
 20
31.4532066711
 11
324.8903121828
 21
31.4532066711
  0
LINE
  5
235
100
AcDbEntity
  8
0
100
AcDbLine
 62
7
  6
CONTINUOUS
 10
324.8903121828
 20
31.4532066711
 11
324.8903121828
 21
40.7194184059
  0
LINE
  5
236
100
AcDbEntity
  8
0
100
AcDbLine
 62
7
  6
CONTINUOUS
 10
339.8266383991
 20
40.7194184059
 11
338.522820881
 21
40.7194184059
  0
LINE
  5
237
100
AcDbEntity
  8
0
100
AcDbLine
 62
7
  6
CONTINUOUS
 10
338.522820881
 20
40.7194184059
 11
338.522820881
 21
30.260352346
  0
LINE
  5
238
100
AcDbEntity
  8
0
100
AcDbLine
 62
7
  6
CONTINUOUS
 10
338.522820881
 20
30.260352346
 11
343.0040066221
 21
30.260352346
  0
LINE
  5
239
100
AcDbEntity
  8
0
100
AcDbLine
 62
7
  6
CONTINUOUS
 10
343.0040066221
 20
30.260352346
 11
343.0040066221
 21
31.4532066711
  0
LINE
  5
23A
100
AcDbEntity
  8
0
100
AcDbLine
 62
7
  6
CONTINUOUS
 10
343.0040066221
 20
31.4532066711
 11
339.8266383991
 21
31.4532066711
  0
LINE
  5
23B
100
AcDbEntity
  8
0
100
AcDbLine
 62
7
  6
CONTINUOUS
 10
339.8266383991
 20
31.4532066711
 11
339.8266383991
 21
40.7194184059
  0
LWPOLYLINE
  5
23C
100
AcDbEntity
  8
0
100
AcDbPolyline
 62
7
  6
CONTINUOUS
 90
2
 70
0
 43
0.2
 10
321.9403661644
 20
26.9168010391
 10
321.9403661644
 20
25.0597377898
  0
LWPOLYLINE
  5
23D
100
AcDbEntity
  8
0
100
AcDbPolyline
 62
7
  6
CONTINUOUS
 90
2
 70
0
 43
0.2
 10
321.9403661644
 20
25.0597377898
 10
322.7360821748
 20
25.0597377898
  0
LWPOLYLINE
  5
23E
100
AcDbEntity
  8
0
100
AcDbPolyline
 62
7
  6
CONTINUOUS
 90
2
 70
0
 43
0.2
 10
322.7360821748
 20
25.0597377898
 10
322.7360821748
 20
25.2717193614
  0
LWPOLYLINE
  5
23F
100
AcDbEntity
  8
0
100
AcDbPolyline
 62
7
  6
CONTINUOUS
 90
2
 70
0
 43
0.2
 10
322.7360821748
 20
25.2717193614
 10
322.1719756593
 20
25.2717193614
  0
LWPOLYLINE
  5
240
100
AcDbEntity
  8
0
100
AcDbPolyline
 62
7
  6
CONTINUOUS
 90
2
 70
0
 43
0.2
 10
322.1719756593
 20
25.2717193614
 10
322.1719756593
 20
26.9168010391
  0
LWPOLYLINE
  5
241
100
AcDbEntity
  8
0
100
AcDbPolyline
 62
7
  6
CONTINUOUS
 90
2
 70
0
 43
0.2
 10
322.1719756593
 20
26.9168010391
 10
321.9403661644
 20
26.9168010391
  0
SPLINE
  5
242
100
AcDbEntity
  8
0
100
AcDbSpline
 62
7
  6
CONTINUOUS
 70
2
 71
3
 72
35
 73
31
 74
0
 42
0.0000001
 43
0.0000001
 44
0.0000000001
 40
0.0
 40
0.0
 40
0.0
 40
0.0
 40
1.0
 40
1.0
 40
1.0
 40
2.0
 40
2.0
 40
2.0
 40
3.0
 40
3.0
 40
3.0
 40
4.0
 40
4.0
 40
4.0
 40
5.0
 40
5.0
 40
5.0
 40
6.0
 40
6.0
 40
6.0
 40
7.0
 40
7.0
 40
7.0
 40
8.0
 40
8.0
 40
8.0
 40
9.0
 40
9.0
 40
9.0
 40
10.0
 40
10.0
 40
10.0
 40
10.0
 10
324.1343754303
 20
26.2122894457
 30
0.0
 10
324.1343754303
 20
26.2122894457
 30
0.0
 10
324.1343754303
 20
25.5501741665
 30
0.0
 10
324.1343754303
 20
25.5501741665
 30
0.0
 10
324.1343754303
 20
25.2350805712
 30
0.0
 10
324.2822391191
 20
25.0204819432
 30
0.0
 10
324.6223256034
 20
25.0204819432
 30
0.0
 10
324.9618886764
 20
25.0204819432
 30
0.0
 10
325.1100140709
 20
25.2350805712
 30
0.0
 10
325.1100140709
 20
25.5501741665
 30
0.0
 10
325.1100140709
 20
25.5501741665
 30
0.0
 10
325.1100140709
 20
26.2122894457
 30
0.0
 10
325.1100140709
 20
26.2122894457
 30
0.0
 10
325.1100140709
 20
26.2122894457
 30
0.0
 10
324.887956832
 20
26.2122894457
 30
0.0
 10
324.887956832
 20
26.2122894457
 30
0.0
 10
324.887956832
 20
26.2122894457
 30
0.0
 10
324.887956832
 20
25.5752979083
 30
0.0
 10
324.887956832
 20
25.5752979083
 30
0.0
 10
324.887956832
 20
25.3894869011
 30
0.0
 10
324.8412423746
 20
25.2267059906
 30
0.0
 10
324.6223256034
 20
25.2267059906
 30
0.0
 10
324.402885421
 20
25.2267059906
 30
0.0
 10
324.3561709636
 20
25.3894869011
 30
0.0
 10
324.3561709636
 20
25.5752979083
 30
0.0
 10
324.3561709636
 20
25.5752979083
 30
0.0
 10
324.3561709636
 20
26.2122894457
 30
0.0
 10
324.3561709636
 20
26.2122894457
 30
0.0
 10
324.3561709636
 20
26.2122894457
 30
0.0
 10
324.1343754303
 20
26.2122894457
 30
0.0
 10
324.1343754303
 20
26.2122894457
 30
0.0
  0
SPLINE
  5
243
100
AcDbEntity
  8
0
100
AcDbSpline
 62
7
  6
CONTINUOUS
 70
2
 71
3
 72
35
 73
31
 74
0
 42
0.0000001
 43
0.0000001
 44
0.0000000001
 40
0.0
 40
0.0
 40
0.0
 40
0.0
 40
1.0
 40
1.0
 40
1.0
 40
2.0
 40
2.0
 40
2.0
 40
3.0
 40
3.0
 40
3.0
 40
4.0
 40
4.0
 40
4.0
 40
5.0
 40
5.0
 40
5.0
 40
6.0
 40
6.0
 40
6.0
 40
7.0
 40
7.0
 40
7.0
 40
8.0
 40
8.0
 40
8.0
 40
9.0
 40
9.0
 40
9.0
 40
10.0
 40
10.0
 40
10.0
 40
10.0
 10
327.5331466281
 20
26.1709399539
 30
0.0
 10
327.4446901205
 20
26.2222342601
 30
0.0
 10
327.3312407238
 20
26.2473580019
 30
0.0
 10
327.2276052888
 20
26.2473580019
 30
0.0
 10
326.8727324356
 20
26.2473580019
 30
0.0
 10
326.5972872454
 20
25.9835587129
 30
0.0
 10
326.5972872454
 20
25.6260688032
 30
0.0
 10
326.5972872454
 20
25.2811407645
 30
0.0
 10
326.8757420505
 20
25.0210053545
 30
0.0
 10
327.2153051235
 20
25.0210053545
 30
0.0
 10
327.3312407238
 20
25.0210053545
 30
0.0
 10
327.4319973967
 20
25.0429886286
 30
0.0
 10
327.5331466281
 20
25.0968999912
 30
0.0
 10
327.5331466281
 20
25.0968999912
 30
0.0
 10
327.5331466281
 20
25.3795420867
 30
0.0
 10
327.5331466281
 20
25.3795420867
 30
0.0
 10
327.4492699692
 20
25.2863748774
 30
0.0
 10
327.345765387
 20
25.2272294019
 30
0.0
 10
327.2176604743
 20
25.2272294019
 30
0.0
 10
326.9839573343
 20
25.2272294019
 30
0.0
 10
326.8186902202
 20
25.3994317156
 30
0.0
 10
326.8186902202
 20
25.6360136177
 30
0.0
 10
326.8186902202
 20
25.8479951893
 30
0.0
 10
326.9864435379
 20
26.040087132
 30
0.0
 10
327.2032666639
 20
26.040087132
 30
0.0
 10
327.3360822782
 20
26.040087132
 30
0.0
 10
327.4446901205
 20
25.9861757693
 30
0.0
 10
327.5331466281
 20
25.8851573907
 30
0.0
 10
327.5331466281
 20
25.8851573907
 30
0.0
 10
327.5331466281
 20
26.1709399539
 30
0.0
 10
327.5331466281
 20
26.1709399539
 30
0.0
  0
SPLINE
  5
244
100
AcDbEntity
  8
0
100
AcDbSpline
 62
7
  6
CONTINUOUS
 70
2
 71
3
 72
32
 73
28
 74
0
 42
0.0000001
 43
0.0000001
 44
0.0000000001
 40
0.0
 40
0.0
 40
0.0
 40
0.0
 40
1.0
 40
1.0
 40
1.0
 40
2.0
 40
2.0
 40
2.0
 40
3.0
 40
3.0
 40
3.0
 40
4.0
 40
4.0
 40
4.0
 40
5.0
 40
5.0
 40
5.0
 40
6.0
 40
6.0
 40
6.0
 40
7.0
 40
7.0
 40
7.0
 40
8.0
 40
8.0
 40
8.0
 40
9.0
 40
9.0
 40
9.0
 40
9.0
 10
330.0650178804
 20
25.5993748276
 30
0.0
 10
330.0650178804
 20
25.5993748276
 30
0.0
 10
330.0650178804
 20
25.6333965613
 30
0.0
 10
330.0650178804
 20
25.6333965613
 30
0.0
 10
330.0650178804
 20
25.9757075435
 30
0.0
 10
329.8921613025
 20
26.2473580019
 30
0.0
 10
329.5255116954
 20
26.2473580019
 30
0.0
 10
329.153889681
 20
26.2473580019
 30
0.0
 10
328.9641530891
 20
25.9809416564
 30
0.0
 10
328.9641530891
 20
25.6260688032
 30
0.0
 10
328.9641530891
 20
25.2863748774
 30
0.0
 10
329.1782283059
 20
25.0204819432
 30
0.0
 10
329.5303532498
 20
25.0204819432
 30
0.0
 10
329.754373281
 20
25.0204819432
 30
0.0
 10
329.9565408909
 20
25.1361558378
 30
0.0
 10
330.0650178804
 20
25.3355755385
 30
0.0
 10
330.0650178804
 20
25.3355755385
 30
0.0
 10
329.8773749337
 20
25.4423514412
 30
0.0
 10
329.8773749337
 20
25.4423514412
 30
0.0
 10
329.7938908332
 20
25.3036474499
 30
0.0
 10
329.7026864163
 20
25.2178079987
 30
0.0
 10
329.5331011591
 20
25.2178079987
 30
0.0
 10
329.3211195875
 20
25.2178079987
 30
0.0
 10
329.1881731204
 20
25.4025721833
 30
0.0
 10
329.1858177696
 20
25.5993748276
 30
0.0
 10
329.1858177696
 20
25.5993748276
 30
0.0
 10
330.0650178804
 20
25.5993748276
 30
0.0
 10
330.0650178804
 20
25.5993748276
 30
0.0
  0
SPLINE
  5
245
100
AcDbEntity
  8
0
100
AcDbSpline
 62
7
  6
CONTINUOUS
 70
2
 71
3
 72
14
 73
10
 74
0
 42
0.0000001
 43
0.0000001
 44
0.0000000001
 40
0.0
 40
0.0
 40
0.0
 40
0.0
 40
1.0
 40
1.0
 40
1.0
 40
2.0
 40
2.0
 40
2.0
 40
3.0
 40
3.0
 40
3.0
 40
3.0
 10
329.1978562292
 20
25.7668664397
 30
0.0
 10
329.2254661746
 20
25.9317409954
 30
0.0
 10
329.3533093817
 20
26.054742648
 30
0.0
 10
329.5255116954
 20
26.054742648
 30
0.0
 10
329.7026864163
 20
26.054742648
 30
0.0
 10
329.816135813
 20
25.9390687534
 30
0.0
 10
329.8433531999
 20
25.7668664397
 30
0.0
 10
329.8433531999
 20
25.7668664397
 30
0.0
 10
329.1978562292
 20
25.7668664397
 30
0.0
 10
329.1978562292
 20
25.7668664397
 30
0.0
  0
SPLINE
  5
246
100
AcDbEntity
  8
0
100
AcDbSpline
 62
7
  6
CONTINUOUS
 70
2
 71
3
 72
20
 73
16
 74
0
 42
0.0000001
 43
0.0000001
 44
0.0000000001
 40
0.0
 40
0.0
 40
0.0
 40
0.0
 40
1.0
 40
1.0
 40
1.0
 40
2.0
 40
2.0
 40
2.0
 40
3.0
 40
3.0
 40
3.0
 40
4.0
 40
4.0
 40
4.0
 40
5.0
 40
5.0
 40
5.0
 40
5.0
 10
332.0890493306
 20
25.9762309548
 30
0.0
 10
332.0890493306
 20
25.9762309548
 30
0.0
 10
332.5001888972
 20
25.4737561185
 30
0.0
 10
332.5001888972
 20
25.4737561185
 30
0.0
 10
332.3841224441
 20
25.3580822239
 30
0.0
 10
332.2463344226
 20
25.2277528132
 30
0.0
 10
332.0743938145
 20
25.2277528132
 30
0.0
 10
331.8969573879
 20
25.2277528132
 30
0.0
 10
331.7294657758
 20
25.3921039576
 30
0.0
 10
331.7294657758
 20
25.5690169729
 30
0.0
 10
331.7294657758
 20
25.7469768107
 30
0.0
 10
331.9392228494
 20
25.8731189311
 30
0.0
 10
332.0668043508
 20
25.9610520275
 30
0.0
 10
332.0668043508
 20
25.9610520275
 30
0.0
 10
332.0890493306
 20
25.9762309548
 30
0.0
 10
332.0890493306
 20
25.9762309548
 30
0.0
  0
SPLINE
  5
247
100
AcDbEntity
  8
0
100
AcDbSpline
 62
7
  6
CONTINUOUS
 70
2
 71
3
 72
23
 73
19
 74
0
 42
0.0000001
 43
0.0000001
 44
0.0000000001
 40
0.0
 40
0.0
 40
0.0
 40
0.0
 40
1.0
 40
1.0
 40
1.0
 40
2.0
 40
2.0
 40
2.0
 40
3.0
 40
3.0
 40
3.0
 40
4.0
 40
4.0
 40
4.0
 40
5.0
 40
5.0
 40
5.0
 40
6.0
 40
6.0
 40
6.0
 40
6.0
 10
332.1383808444
 20
26.2672476309
 30
0.0
 10
332.1383808444
 20
26.2672476309
 30
0.0
 10
332.0767491653
 20
26.3457593241
 30
0.0
 10
332.0767491653
 20
26.3457593241
 30
0.0
 10
332.0228378026
 20
26.4143262028
 30
0.0
 10
331.9660476779
 20
26.4834164928
 30
0.0
 10
331.9660476779
 20
26.5771071133
 30
0.0
 10
331.9660476779
 20
26.6959214757
 30
0.0
 10
332.0619627964
 20
26.7733863463
 30
0.0
 10
332.1729259894
 20
26.7733863463
 30
0.0
 10
332.2961893477
 20
26.7733863463
 30
0.0
 10
332.3894874098
 20
26.7022024111
 30
0.0
 10
332.3894874098
 20
26.5718730004
 30
0.0
 10
332.3894874098
 20
26.4368328882
 30
0.0
 10
332.2613824971
 20
26.3604148401
 30
0.0
 10
332.1678227294
 20
26.2866138485
 30
0.0
 10
332.1678227294
 20
26.2866138485
 30
0.0
 10
332.1383808444
 20
26.2672476309
 30
0.0
 10
332.1383808444
 20
26.2672476309
 30
0.0
  0
SPLINE
  5
248
100
AcDbEntity
  8
0
100
AcDbSpline
 62
7
  6
CONTINUOUS
 70
2
 71
3
 72
50
 73
46
 74
0
 42
0.0000001
 43
0.0000001
 44
0.0000000001
 40
0.0
 40
0.0
 40
0.0
 40
0.0
 40
1.0
 40
1.0
 40
1.0
 40
2.0
 40
2.0
 40
2.0
 40
3.0
 40
3.0
 40
3.0
 40
4.0
 40
4.0
 40
4.0
 40
5.0
 40
5.0
 40
5.0
 40
6.0
 40
6.0
 40
6.0
 40
7.0
 40
7.0
 40
7.0
 40
8.0
 40
8.0
 40
8.0
 40
9.0
 40
9.0
 40
9.0
 40
10.0
 40
10.0
 40
10.0
 40
11.0
 40
11.0
 40
11.0
 40
12.0
 40
12.0
 40
12.0
 40
13.0
 40
13.0
 40
13.0
 40
14.0
 40
14.0
 40
14.0
 40
15.0
 40
15.0
 40
15.0
 40
15.0
 10
332.8405370871
 20
25.0602612011
 30
0.0
 10
332.8405370871
 20
25.0602612011
 30
0.0
 10
333.1259270918
 20
25.0602612011
 30
0.0
 10
333.1259270918
 20
25.0602612011
 30
0.0
 10
333.1259270918
 20
25.0602612011
 30
0.0
 10
332.793560924
 20
25.471139062
 30
0.0
 10
332.793560924
 20
25.471139062
 30
0.0
 10
332.793560924
 20
25.471139062
 30
0.0
 10
333.0200671588
 20
25.7370319963
 30
0.0
 10
333.0200671588
 20
25.7370319963
 30
0.0
 10
333.0200671588
 20
25.7370319963
 30
0.0
 10
332.8718109116
 20
25.8898680923
 30
0.0
 10
332.8718109116
 20
25.8898680923
 30
0.0
 10
332.8718109116
 20
25.8898680923
 30
0.0
 10
332.6559037553
 20
25.6386306742
 30
0.0
 10
332.6559037553
 20
25.6386306742
 30
0.0
 10
332.6559037553
 20
25.6386306742
 30
0.0
 10
332.2688411079
 20
26.1065603655
 30
0.0
 10
332.2688411079
 20
26.1065603655
 30
0.0
 10
332.4242942604
 20
26.2206640263
 30
0.0
 10
332.6065722414
 20
26.3604148401
 30
0.0
 10
332.6065722414
 20
26.5697793553
 30
0.0
 10
332.6065722414
 20
26.8136890154
 30
0.0
 10
332.4045354843
 20
26.9571037083
 30
0.0
 10
332.1780292495
 20
26.9571037083
 30
0.0
 10
331.9338578837
 20
26.9571037083
 30
0.0
 10
331.7494862575
 20
26.8063612574
 30
0.0
 10
331.7494862575
 20
26.5498897263
 30
0.0
 10
331.7494862575
 20
26.3923429287
 30
0.0
 10
331.8481492853
 20
26.25468576
 30
0.0
 10
331.953485807
 20
26.1437225669
 30
0.0
 10
331.953485807
 20
26.1437225669
 30
0.0
 10
331.8379427652
 20
26.0599767609
 30
0.0
 10
331.8379427652
 20
26.0599767609
 30
0.0
 10
331.660244633
 20
25.9317409954
 30
0.0
 10
331.5129043554
 20
25.8040286411
 30
0.0
 10
331.5129043554
 20
25.5669233277
 30
0.0
 10
331.5129043554
 20
25.2465956195
 30
0.0
 10
331.7714695316
 20
25.0204819432
 30
0.0
 10
332.0818524253
 20
25.0204819432
 30
0.0
 10
332.3007691965
 20
25.0204819432
 30
0.0
 10
332.4979643992
 20
25.145577241
 30
0.0
 10
332.6382386243
 20
25.3114986192
 30
0.0
 10
332.6382386243
 20
25.3114986192
 30
0.0
 10
332.8405370871
 20
25.0602612011
 30
0.0
 10
332.8405370871
 20
25.0602612011
 30
0.0
  0
LWPOLYLINE
  5
249
100
AcDbEntity
  8
0
100
AcDbPolyline
 62
7
  6
CONTINUOUS
 90
2
 70
0
 43
0.2
 10
334.7759811768
 20
26.9168010391
 10
334.5446333876
 20
26.9168010391
  0
LWPOLYLINE
  5
24A
100
AcDbEntity
  8
0
100
AcDbPolyline
 62
7
  6
CONTINUOUS
 90
2
 70
0
 43
0.2
 10
334.5446333876
 20
26.9168010391
 10
334.5446333876
 20
25.0597377898
  0
LWPOLYLINE
  5
24B
100
AcDbEntity
  8
0
100
AcDbPolyline
 62
7
  6
CONTINUOUS
 90
2
 70
0
 43
0.2
 10
334.5446333876
 20
25.0597377898
 10
335.3399568395
 20
25.0597377898
  0
LWPOLYLINE
  5
24C
100
AcDbEntity
  8
0
100
AcDbPolyline
 62
7
  6
CONTINUOUS
 90
2
 70
0
 43
0.2
 10
335.3399568395
 20
25.0597377898
 10
335.3399568395
 20
25.2717193614
  0
LWPOLYLINE
  5
24D
100
AcDbEntity
  8
0
100
AcDbPolyline
 62
7
  6
CONTINUOUS
 90
2
 70
0
 43
0.2
 10
335.3399568395
 20
25.2717193614
 10
334.7759811768
 20
25.2717193614
  0
LWPOLYLINE
  5
24E
100
AcDbEntity
  8
0
100
AcDbPolyline
 62
7
  6
CONTINUOUS
 90
2
 70
0
 43
0.2
 10
334.7759811768
 20
25.2717193614
 10
334.7759811768
 20
26.9168010391
  0
LWPOLYLINE
  5
24F
100
AcDbEntity
  8
0
100
AcDbPolyline
 62
7
  6
CONTINUOUS
 90
2
 70
0
 43
0.2
 10
337.019060251
 20
26.2122894457
 10
336.7979189819
 20
26.2122894457
  0
LWPOLYLINE
  5
250
100
AcDbEntity
  8
0
100
AcDbPolyline
 62
7
  6
CONTINUOUS
 90
2
 70
0
 43
0.2
 10
336.7979189819
 20
26.2122894457
 10
336.7979189819
 20
25.0602612011
  0
LWPOLYLINE
  5
251
100
AcDbEntity
  8
0
100
AcDbPolyline
 62
7
  6
CONTINUOUS
 90
2
 70
0
 43
0.2
 10
336.7979189819
 20
25.0602612011
 10
337.019060251
 20
25.0602612011
  0
LWPOLYLINE
  5
252
100
AcDbEntity
  8
0
100
AcDbPolyline
 62
7
  6
CONTINUOUS
 90
2
 70
0
 43
0.2
 10
337.019060251
 20
25.0602612011
 10
337.019060251
 20
26.2122894457
  0
SPLINE
  5
253
100
AcDbEntity
  8
0
100
AcDbSpline
 62
7
  6
CONTINUOUS
 70
2
 71
3
 72
17
 73
13
 74
0
 42
0.0000001
 43
0.0000001
 44
0.0000000001
 40
0.0
 40
0.0
 40
0.0
 40
0.0
 40
1.0
 40
1.0
 40
1.0
 40
2.0
 40
2.0
 40
2.0
 40
3.0
 40
3.0
 40
3.0
 40
4.0
 40
4.0
 40
4.0
 40
4.0
 10
336.9086204693
 20
26.894817765
 30
0.0
 10
336.8246129576
 20
26.894817765
 30
0.0
 10
336.7560460788
 20
26.825727475
 30
0.0
 10
336.7560460788
 20
26.7398880238
 30
0.0
 10
336.7560460788
 20
26.6556188065
 30
0.0
 10
336.8246129576
 20
26.5896689842
 30
0.0
 10
336.9086204693
 20
26.5896689842
 30
0.0
 10
336.9923662753
 20
26.5896689842
 30
0.0
 10
337.0611948597
 20
26.6556188065
 30
0.0
 10
337.0611948597
 20
26.7398880238
 30
0.0
 10
337.0611948597
 20
26.825727475
 30
0.0
 10
336.9923662753
 20
26.894817765
 30
0.0
 10
336.9086204693
 20
26.894817765
 30
0.0
  0
SPLINE
  5
254
100
AcDbEntity
  8
0
100
AcDbSpline
 62
7
  6
CONTINUOUS
 70
2
 71
3
 72
17
 73
13
 74
0
 42
0.0000001
 43
0.0000001
 44
0.0000000001
 40
0.0
 40
0.0
 40
0.0
 40
0.0
 40
1.0
 40
1.0
 40
1.0
 40
2.0
 40
2.0
 40
2.0
 40
3.0
 40
3.0
 40
3.0
 40
4.0
 40
4.0
 40
4.0
 40
4.0
 10
339.1493441926
 20
25.2178079987
 30
0.0
 10
338.915379347
 20
25.2178079987
 30
0.0
 10
338.7850499363
 20
25.4198447558
 30
0.0
 10
338.7850499363
 20
25.6360136177
 30
0.0
 10
338.7850499363
 20
25.8506122457
 30
0.0
 10
338.9208751655
 20
26.0495085351
 30
0.0
 10
339.1493441926
 20
26.0495085351
 30
0.0
 10
339.3888048568
 20
26.0495085351
 30
0.0
 10
339.5243683804
 20
25.8605570602
 30
0.0
 10
339.5243683804
 20
25.6360136177
 30
0.0
 10
339.5243683804
 20
25.4098999414
 30
0.0
 10
339.3911602076
 20
25.2178079987
 30
0.0
 10
339.1493441926
 20
25.2178079987
 30
0.0
  0
SPLINE
  5
255
100
AcDbEntity
  8
0
100
AcDbSpline
 62
7
  6
CONTINUOUS
 70
2
 71
3
 72
50
 73
46
 74
0
 42
0.0000001
 43
0.0000001
 44
0.0000000001
 40
0.0
 40
0.0
 40
0.0
 40
0.0
 40
1.0
 40
1.0
 40
1.0
 40
2.0
 40
2.0
 40
2.0
 40
3.0
 40
3.0
 40
3.0
 40
4.0
 40
4.0
 40
4.0
 40
5.0
 40
5.0
 40
5.0
 40
6.0
 40
6.0
 40
6.0
 40
7.0
 40
7.0
 40
7.0
 40
8.0
 40
8.0
 40
8.0
 40
9.0
 40
9.0
 40
9.0
 40
10.0
 40
10.0
 40
10.0
 40
11.0
 40
11.0
 40
11.0
 40
12.0
 40
12.0
 40
12.0
 40
13.0
 40
13.0
 40
13.0
 40
14.0
 40
14.0
 40
14.0
 40
15.0
 40
15.0
 40
15.0
 40
15.0
 10
339.7334711899
 20
26.2128128569
 30
0.0
 10
339.7334711899
 20
26.2128128569
 30
0.0
 10
339.5118065095
 20
26.2128128569
 30
0.0
 10
339.5118065095
 20
26.2128128569
 30
0.0
 10
339.5118065095
 20
26.2128128569
 30
0.0
 10
339.5118065095
 20
26.0154868014
 30
0.0
 10
339.5118065095
 20
26.0154868014
 30
0.0
 10
339.5118065095
 20
26.0154868014
 30
0.0
 10
339.5070958079
 20
26.0154868014
 30
0.0
 10
339.5070958079
 20
26.0154868014
 30
0.0
 10
339.4157605382
 20
26.158378083
 30
0.0
 10
339.2778416638
 20
26.2468345907
 30
0.0
 10
339.1051159388
 20
26.2468345907
 30
0.0
 10
338.772749771
 20
26.2468345907
 30
0.0
 10
338.5636469615
 20
25.9589583823
 30
0.0
 10
338.5636469615
 20
25.6433413757
 30
0.0
 10
338.5636469615
 20
25.3135922644
 30
0.0
 10
338.7607113114
 20
25.0204819432
 30
0.0
 10
339.1155841646
 20
25.0204819432
 30
0.0
 10
339.2778416638
 20
25.0204819432
 30
0.0
 10
339.4178541833
 20
25.1089384508
 30
0.0
 10
339.5070958079
 20
25.2397912728
 30
0.0
 10
339.5070958079
 20
25.2397912728
 30
0.0
 10
339.5118065095
 20
25.2397912728
 30
0.0
 10
339.5118065095
 20
25.2397912728
 30
0.0
 10
339.5118065095
 20
25.2397912728
 30
0.0
 10
339.5118065095
 20
25.0204819432
 30
0.0
 10
339.5118065095
 20
25.0204819432
 30
0.0
 10
339.5118065095
 20
24.7839000411
 30
0.0
 10
339.4552780904
 20
24.5970422113
 30
0.0
 10
339.1820573981
 20
24.5970422113
 30
0.0
 10
338.9797589354
 20
24.5970422113
 30
0.0
 10
338.8371293594
 20
24.7153331624
 30
0.0
 10
338.8371293594
 20
24.9215572098
 30
0.0
 10
338.8371293594
 20
24.9215572098
 30
0.0
 10
338.615464679
 20
24.9215572098
 30
0.0
 10
338.615464679
 20
24.9215572098
 30
0.0
 10
338.6204370862
 20
24.5970422113
 30
0.0
 10
338.8515231698
 20
24.4002395671
 30
0.0
 10
339.171850878
 20
24.4002395671
 30
0.0
 10
339.6198909404
 20
24.4002395671
 30
0.0
 10
339.7334711899
 20
24.6854987189
 30
0.0
 10
339.7334711899
 20
25.0822444751
 30
0.0
 10
339.7334711899
 20
25.0822444751
 30
0.0
 10
339.7334711899
 20
26.2128128569
 30
0.0
 10
339.7334711899
 20
26.2128128569
 30
0.0
  0
SPLINE
  5
256
100
AcDbEntity
  8
0
100
AcDbSpline
 62
7
  6
CONTINUOUS
 70
2
 71
3
 72
44
 73
40
 74
0
 42
0.0000001
 43
0.0000001
 44
0.0000000001
 40
0.0
 40
0.0
 40
0.0
 40
0.0
 40
1.0
 40
1.0
 40
1.0
 40
2.0
 40
2.0
 40
2.0
 40
3.0
 40
3.0
 40
3.0
 40
4.0
 40
4.0
 40
4.0
 40
5.0
 40
5.0
 40
5.0
 40
6.0
 40
6.0
 40
6.0
 40
7.0
 40
7.0
 40
7.0
 40
8.0
 40
8.0
 40
8.0
 40
9.0
 40
9.0
 40
9.0
 40
10.0
 40
10.0
 40
10.0
 40
11.0
 40
11.0
 40
11.0
 40
12.0
 40
12.0
 40
12.0
 40
13.0
 40
13.0
 40
13.0
 40
13.0
 10
341.3023965253
 20
27.1978729007
 30
0.0
 10
341.3023965253
 20
27.1978729007
 30
0.0
 10
341.3023965253
 20
25.0597377898
 30
0.0
 10
341.3023965253
 20
25.0597377898
 30
0.0
 10
341.3023965253
 20
25.0597377898
 30
0.0
 10
341.5237995001
 20
25.0597377898
 30
0.0
 10
341.5237995001
 20
25.0597377898
 30
0.0
 10
341.5237995001
 20
25.0597377898
 30
0.0
 10
341.5237995001
 20
25.5894300131
 30
0.0
 10
341.5237995001
 20
25.5894300131
 30
0.0
 10
341.5237995001
 20
25.7993179395
 30
0.0
 10
341.5237995001
 20
26.0500319464
 30
0.0
 10
341.8090586519
 20
26.0500319464
 30
0.0
 10
342.0359574452
 20
26.0500319464
 30
0.0
 10
342.0629131266
 20
25.9170854793
 30
0.0
 10
342.0629131266
 20
25.7208062464
 30
0.0
 10
342.0629131266
 20
25.7208062464
 30
0.0
 10
342.0629131266
 20
25.0597377898
 30
0.0
 10
342.0629131266
 20
25.0597377898
 30
0.0
 10
342.0629131266
 20
25.0597377898
 30
0.0
 10
342.2848395126
 20
25.0597377898
 30
0.0
 10
342.2848395126
 20
25.0597377898
 30
0.0
 10
342.2848395126
 20
25.0597377898
 30
0.0
 10
342.2848395126
 20
25.7469768107
 30
0.0
 10
342.2848395126
 20
25.7469768107
 30
0.0
 10
342.2848395126
 20
26.027525261
 30
0.0
 10
342.2008320009
 20
26.2473580019
 30
0.0
 10
341.8757935911
 20
26.2473580019
 30
0.0
 10
341.7360427773
 20
26.2473580019
 30
0.0
 10
341.5978621973
 20
26.1808847684
 30
0.0
 10
341.5285102016
 20
26.0578831157
 30
0.0
 10
341.5285102016
 20
26.0578831157
 30
0.0
 10
341.5237995001
 20
26.0578831157
 30
0.0
 10
341.5237995001
 20
26.0578831157
 30
0.0
 10
341.5237995001
 20
26.0578831157
 30
0.0
 10
341.5237995001
 20
27.1978729007
 30
0.0
 10
341.5237995001
 20
27.1978729007
 30
0.0
 10
341.5237995001
 20
27.1978729007
 30
0.0
 10
341.3023965253
 20
27.1978729007
 30
0.0
 10
341.3023965253
 20
27.1978729007
 30
0.0
  0
LWPOLYLINE
  5
257
100
AcDbEntity
  8
0
100
AcDbPolyline
 62
7
  6
CONTINUOUS
 90
2
 70
0
 43
0.2
 10
344.1246301895
 20
26.005541987
 10
344.341060757
 20
26.005541987
  0
LWPOLYLINE
  5
258
100
AcDbEntity
  8
0
100
AcDbPolyline
 62
7
  6
CONTINUOUS
 90
2
 70
0
 43
0.2
 10
344.341060757
 20
26.005541987
 10
344.341060757
 20
26.2122894457
  0
LWPOLYLINE
  5
259
100
AcDbEntity
  8
0
100
AcDbPolyline
 62
7
  6
CONTINUOUS
 90
2
 70
0
 43
0.2
 10
344.341060757
 20
26.2122894457
 10
344.1246301895
 20
26.2122894457
  0
LWPOLYLINE
  5
25A
100
AcDbEntity
  8
0
100
AcDbPolyline
 62
7
  6
CONTINUOUS
 90
2
 70
0
 43
0.2
 10
344.1246301895
 20
26.2122894457
 10
344.1246301895
 20
26.65300175
  0
LWPOLYLINE
  5
25B
100
AcDbEntity
  8
0
100
AcDbPolyline
 62
7
  6
CONTINUOUS
 90
2
 70
0
 43
0.2
 10
344.1246301895
 20
26.65300175
 10
343.9029655091
 20
26.65300175
  0
LWPOLYLINE
  5
25C
100
AcDbEntity
  8
0
100
AcDbPolyline
 62
7
  6
CONTINUOUS
 90
2
 70
0
 43
0.2
 10
343.9029655091
 20
26.65300175
 10
343.9029655091
 20
26.2122894457
  0
LWPOLYLINE
  5
25D
100
AcDbEntity
  8
0
100
AcDbPolyline
 62
7
  6
CONTINUOUS
 90
2
 70
0
 43
0.2
 10
343.9029655091
 20
26.2122894457
 10
343.7823192072
 20
26.2122894457
  0
LWPOLYLINE
  5
25E
100
AcDbEntity
  8
0
100
AcDbPolyline
 62
7
  6
CONTINUOUS
 90
2
 70
0
 43
0.2
 10
343.7823192072
 20
26.2122894457
 10
343.7823192072
 20
26.005541987
  0
LWPOLYLINE
  5
25F
100
AcDbEntity
  8
0
100
AcDbPolyline
 62
7
  6
CONTINUOUS
 90
2
 70
0
 43
0.2
 10
343.7823192072
 20
26.005541987
 10
343.9029655091
 20
26.005541987
  0
LWPOLYLINE
  5
260
100
AcDbEntity
  8
0
100
AcDbPolyline
 62
7
  6
CONTINUOUS
 90
2
 70
0
 43
0.2
 10
343.9029655091
 20
26.005541987
 10
343.9029655091
 20
25.0597377898
  0
LWPOLYLINE
  5
261
100
AcDbEntity
  8
0
100
AcDbPolyline
 62
7
  6
CONTINUOUS
 90
2
 70
0
 43
0.2
 10
343.9029655091
 20
25.0597377898
 10
344.1246301895
 20
25.0597377898
  0
LWPOLYLINE
  5
262
100
AcDbEntity
  8
0
100
AcDbPolyline
 62
7
  6
CONTINUOUS
 90
2
 70
0
 43
0.2
 10
344.1246301895
 20
25.0597377898
 10
344.1246301895
 20
26.005541987
  0
SPLINE
  5
263
100
AcDbEntity
  8
0
100
AcDbSpline
 62
7
  6
CONTINUOUS
 70
2
 71
3
 72
20
 73
16
 74
0
 42
0.0000001
 43
0.0000001
 44
0.0000000001
 40
0.0
 40
0.0
 40
0.0
 40
0.0
 40
1.0
 40
1.0
 40
1.0
 40
2.0
 40
2.0
 40
2.0
 40
3.0
 40
3.0
 40
3.0
 40
4.0
 40
4.0
 40
4.0
 40
5.0
 40
5.0
 40
5.0
 40
5.0
 10
331.9066404967
 20
35.4206642332
 30
0.0
 10
331.9066404967
 20
35.4206642332
 30
0.0
 10
334.2229971512
 20
32.5911028109
 30
0.0
 10
334.2229971512
 20
32.5911028109
 30
0.0
 10
333.5713500978
 20
31.9389323462
 30
0.0
 10
332.7944768938
 20
31.2030160755
 30
0.0
 10
331.8232872491
 20
31.2030160755
 30
0.0
 10
330.8247493647
 20
31.2030160755
 30
0.0
 10
329.8814313711
 20
32.1325945228
 30
0.0
 10
329.8814313711
 20
33.1317866713
 30
0.0
 10
329.8814313711
 20
34.1309788198
 30
0.0
 10
331.0602844442
 20
34.8375840585
 30
0.0
 10
331.7818069046
 20
35.3374418384
 30
0.0
 10
331.7818069046
 20
35.3374418384
 30
0.0
 10
331.9066404967
 20
35.4206642332
 30
0.0
 10
331.9066404967
 20
35.4206642332
 30
0.0
  0
SPLINE
  5
264
100
AcDbEntity
  8
0
100
AcDbSpline
 62
7
  6
CONTINUOUS
 70
2
 71
3
 72
23
 73
19
 74
0
 42
0.0000001
 43
0.0000001
 44
0.0000000001
 40
0.0
 40
0.0
 40
0.0
 40
0.0
 40
1.0
 40
1.0
 40
1.0
 40
2.0
 40
2.0
 40
2.0
 40
3.0
 40
3.0
 40
3.0
 40
4.0
 40
4.0
 40
4.0
 40
5.0
 40
5.0
 40
5.0
 40
6.0
 40
6.0
 40
6.0
 40
6.0
 10
332.1840484793
 20
37.0584181529
 30
0.0
 10
332.1840484793
 20
37.0584181529
 30
0.0
 10
331.8375502067
 20
37.5017475137
 30
0.0
 10
331.8375502067
 20
37.5017475137
 30
0.0
 10
331.5317471618
 20
37.8898569837
 30
0.0
 10
331.2128588347
 20
38.2783590121
 30
0.0
 10
331.2128588347
 20
38.8053033262
 30
0.0
 10
331.2128588347
 20
39.4714750428
 30
0.0
 10
331.7541969591
 20
39.9151969621
 30
0.0
 10
332.3781032143
 20
39.9151969621
 30
0.0
 10
333.0718848763
 20
39.9151969621
 30
0.0
 10
333.5990908961
 20
39.5129553874
 30
0.0
 10
333.5990908961
 20
38.7779550864
 30
0.0
 10
333.5990908961
 20
38.0146905758
 30
0.0
 10
332.8778301414
 20
37.58457735
 30
0.0
 10
332.3507549745
 20
37.1688579346
 30
0.0
 10
332.3507549745
 20
37.1688579346
 30
0.0
 10
332.1840484793
 20
37.0584181529
 30
0.0
 10
332.1840484793
 20
37.0584181529
 30
0.0
  0
SPLINE
  5
265
100
AcDbEntity
  8
0
100
AcDbSpline
 62
7
  6
CONTINUOUS
 70
2
 71
3
 72
50
 73
46
 74
0
 42
0.0000001
 43
0.0000001
 44
0.0000000001
 40
0.0
 40
0.0
 40
0.0
 40
0.0
 40
1.0
 40
1.0
 40
1.0
 40
2.0
 40
2.0
 40
2.0
 40
3.0
 40
3.0
 40
3.0
 40
4.0
 40
4.0
 40
4.0
 40
5.0
 40
5.0
 40
5.0
 40
6.0
 40
6.0
 40
6.0
 40
7.0
 40
7.0
 40
7.0
 40
8.0
 40
8.0
 40
8.0
 40
9.0
 40
9.0
 40
9.0
 40
10.0
 40
10.0
 40
10.0
 40
11.0
 40
11.0
 40
11.0
 40
12.0
 40
12.0
 40
12.0
 40
13.0
 40
13.0
 40
13.0
 40
14.0
 40
14.0
 40
14.0
 40
15.0
 40
15.0
 40
15.0
 40
15.0
 10
336.1376356422
 20
30.2598289348
 30
0.0
 10
336.1376356422
 20
30.2598289348
 30
0.0
 10
337.7468636468
 20
30.2598289348
 30
0.0
 10
337.7468636468
 20
30.2598289348
 30
0.0
 10
337.7468636468
 20
30.2598289348
 30
0.0
 10
335.8738363531
 20
32.5769707062
 30
0.0
 10
335.8738363531
 20
32.5769707062
 30
0.0
 10
335.8738363531
 20
32.5769707062
 30
0.0
 10
337.1501747786
 20
34.0744504008
 30
0.0
 10
337.1501747786
 20
34.0744504008
 30
0.0
 10
337.1501747786
 20
34.0744504008
 30
0.0
 10
336.3179508309
 20
34.9354619693
 30
0.0
 10
336.3179508309
 20
34.9354619693
 30
0.0
 10
336.3179508309
 20
34.9354619693
 30
0.0
 10
335.0973557076
 20
33.5201578469
 30
0.0
 10
335.0973557076
 20
33.5201578469
 30
0.0
 10
335.0973557076
 20
33.5201578469
 30
0.0
 10
332.9194413388
 20
36.1555336813
 30
0.0
 10
332.9194413388
 20
36.1555336813
 30
0.0
 10
333.7930147782
 20
36.7935720412
 30
0.0
 10
334.8196860194
 20
37.58457735
 30
0.0
 10
334.8196860194
 20
38.7634304231
 30
0.0
 10
334.8196860194
 20
40.1371233482
 30
0.0
 10
333.6817898795
 20
40.9416064976
 30
0.0
 10
332.4064982766
 20
40.9416064976
 30
0.0
 10
331.0330670573
 20
40.9416064976
 30
0.0
 10
329.9921328585
 20
40.0953812979
 30
0.0
 10
329.9921328585
 20
38.6527289358
 30
0.0
 10
329.9921328585
 20
37.7651542444
 30
0.0
 10
330.547472235
 20
36.9882810403
 30
0.0
 10
331.1436376918
 20
36.3638513739
 30
0.0
 10
331.1436376918
 20
36.3638513739
 30
0.0
 10
330.4917289328
 20
35.8922578035
 30
0.0
 10
330.4917289328
 20
35.8922578035
 30
0.0
 10
329.4931910484
 20
35.1709970488
 30
0.0
 10
328.6603128365
 20
34.4497362942
 30
0.0
 10
328.6603128365
 20
33.1181779778
 30
0.0
 10
328.6603128365
 20
31.3145026798
 30
0.0
 10
330.1173590091
 20
30.0379025487
 30
0.0
 10
331.8648984465
 20
30.0379025487
 30
0.0
 10
333.0997565274
 20
30.0379025487
 30
0.0
 10
334.2091267521
 20
30.7460780212
 30
0.0
 10
335.000001208
 20
31.6746096459
 30
0.0
 10
335.000001208
 20
31.6746096459
 30
0.0
 10
336.1376356422
 20
30.2598289348
 30
0.0
 10
336.1376356422
 20
30.2598289348
 30
0.0
  0
LINE
  5
266
100
AcDbEntity
  8
0
100
AcDbLine
 62
7
  6
CONTINUOUS
 10
321.9404970172
 20
28.2337038394
 11
344.3544077449
 21
28.2337038394
  0
LINE
  5
267
100
AcDbEntity
  8
0
100
AcDbLine
 62
7
  6
CONTINUOUS
 10
344.3544077449
 20
28.2337038394
 11
344.3544077449
 21
50.6476145671
  0
LINE
  5
268
100
AcDbEntity
  8
0
100
AcDbLine
 62
7
  6
CONTINUOUS
 10
344.3544077449
 20
50.6476145671
 11
321.9404970172
 21
50.6476145671
  0
LINE
  5
269
100
AcDbEntity
  8
0
100
AcDbLine
 62
7
  6
CONTINUOUS
 10
321.9404970172
 20
50.6476145671
 11
321.9404970172
 21
28.2337038394
  0
ENDBLK
  5
26A
100
AcDbEntity
  8
0
  6
BYBLOCK
 62
0
100
AcDbBlockEnd
  0
BLOCK
  5
26B
100
AcDbEntity
  8
0
100
AcDbBlockBegin
  2
_CLOSED
 70
64
 10
0.0
 20
0.0
  3
_CLOSED
  1

  0
LINE
  5
26C
100
AcDbEntity
  8
0
  6
BYBLOCK
 62
0
100
AcDbLine
 10
0.0
 20
0.0
 11
-1.0
 21
0.2
  0
LINE
  5
26D
100
AcDbEntity
  8
0
  6
BYBLOCK
 62
0
100
AcDbLine
 10
-1.0
 20
0.2
 11
-1.0
 21
-0.2
  0
LINE
  5
26E
100
AcDbEntity
  8
0
  6
BYBLOCK
 62
0
100
AcDbLine
 10
-1.0
 20
-0.2
 11
0.0
 21
0.0
  0
LINE
  5
26F
100
AcDbEntity
  8
0
  6
BYBLOCK
 62
0
100
AcDbLine
 10
-1.0
 20
0.0
 11
0.0
 21
0.0
  0
ENDBLK
  5
270
100
AcDbEntity
  8
0
  6
BYBLOCK
 62
0
100
AcDbBlockEnd
  0
BLOCK
  5
271
100
AcDbEntity
  8
0
100
AcDbBlockBegin
 62
2
  6
CONTINUOUS
  2
*D0
 70
65
 10
0.0
 20
0.0
  3
*D0
  1

  0
LINE
  5
272
100
AcDbEntity
  8
0
100
AcDbLine
 62
2
  6
CONTINUOUS
 10
96.9500583891
 20
92.528681296
 11
113.3725881923
 21
92.528681296
  0
LINE
  5
273
100
AcDbEntity
  8
0
100
AcDbLine
 62
2
  6
CONTINUOUS
 10
97.1474903804
 20
50.528681296
 11
113.3725881923
 21
50.528681296
  0
LINE
  5
274
100
AcDbEntity
  8
0
100
AcDbLine
 62
2
  6
CONTINUOUS
 10
112.6225881923
 20
92.528681296
 11
112.6225881923
 21
71.528681296
  0
LINE
  5
275
100
AcDbEntity
  8
0
100
AcDbLine
 62
2
  6
CONTINUOUS
 10
112.6225881923
 20
50.528681296
 11
112.6225881923
 21
71.528681296
  0
INSERT
  5
276
100
AcDbEntity
  8
0
100
AcDbBlockReference
 62
2
  6
CONTINUOUS
  2
_CLOSED
 10
112.6225881923
 20
92.528681296
 41
2.5
 42
2.5
 43
2.5
 50
90.0
  0
INSERT
  5
277
100
AcDbEntity
  8
0
100
AcDbBlockReference
 62
2
  6
CONTINUOUS
  2
_CLOSED
 10
112.6225881923
 20
50.528681296
 41
2.5
 42
2.5
 43
2.5
 50
270.0
  0
ENDBLK
  5
278
100
AcDbEntity
  8
0
  6
BYBLOCK
 62
0
100
AcDbBlockEnd
  0
BLOCK
  5
279
100
AcDbEntity
  8
0
100
AcDbBlockBegin
 62
2
  6
CONTINUOUS
  2
*D1
 70
65
 10
0.0
 20
0.0
  3
*D1
  1

  0
LINE
  5
27A
100
AcDbEntity
  8
0
100
AcDbLine
 62
2
  6
CONTINUOUS
 10
49.7792114202
 20
46.7181070179
 11
49.7792114202
 21
29.778681296
  0
LINE
  5
27B
100
AcDbEntity
  8
0
100
AcDbLine
 62
2
  6
CONTINUOUS
 10
91.7792114202
 20
46.3390375946
 11
91.7792114202
 21
29.778681296
  0
LINE
  5
27C
100
AcDbEntity
  8
0
100
AcDbLine
 62
2
  6
CONTINUOUS
 10
49.7792114202
 20
30.528681296
 11
70.7792114202
 21
30.528681296
  0
LINE
  5
27D
100
AcDbEntity
  8
0
100
AcDbLine
 62
2
  6
CONTINUOUS
 10
91.7792114202
 20
30.528681296
 11
70.7792114202
 21
30.528681296
  0
INSERT
  5
27E
100
AcDbEntity
  8
0
100
AcDbBlockReference
 62
2
  6
CONTINUOUS
  2
_CLOSED
 10
49.7792114202
 20
30.528681296
 41
2.5
 42
2.5
 43
2.5
 50
180.0
  0
INSERT
  5
27F
100
AcDbEntity
  8
0
100
AcDbBlockReference
 62
2
  6
CONTINUOUS
  2
_CLOSED
 10
91.7792114202
 20
30.528681296
 41
2.5
 42
2.5
 43
2.5
  0
ENDBLK
  5
280
100
AcDbEntity
  8
0
  6
BYBLOCK
 62
0
100
AcDbBlockEnd
  0
BLOCK
  5
281
100
AcDbEntity
  8
0
100
AcDbBlockBegin
 62
2
  6
CONTINUOUS
  2
*D2
 70
65
 10
0.0
 20
0.0
  3
*D2
  1

  0
LINE
  5
282
100
AcDbEntity
  8
0
100
AcDbLine
 62
2
  6
CONTINUOUS
 10
93.2028608918
 20
254.1072949696
 11
113.3725881923
 21
254.1072949696
  0
LINE
  5
283
100
AcDbEntity
  8
0
100
AcDbLine
 62
2
  6
CONTINUOUS
 10
93.734643264
 20
189.1072949696
 11
113.3725881923
 21
189.1072949696
  0
LINE
  5
284
100
AcDbEntity
  8
0
100
AcDbLine
 62
2
  6
CONTINUOUS
 10
112.6225881923
 20
254.1072949696
 11
112.6225881923
 21
221.6072949696
  0
LINE
  5
285
100
AcDbEntity
  8
0
100
AcDbLine
 62
2
  6
CONTINUOUS
 10
112.6225881923
 20
189.1072949696
 11
112.6225881923
 21
221.6072949696
  0
INSERT
  5
286
100
AcDbEntity
  8
0
100
AcDbBlockReference
 62
2
  6
CONTINUOUS
  2
_CLOSED
 10
112.6225881923
 20
254.1072949696
 41
2.5
 42
2.5
 43
2.5
 50
90.0
  0
INSERT
  5
287
100
AcDbEntity
  8
0
100
AcDbBlockReference
 62
2
  6
CONTINUOUS
  2
_CLOSED
 10
112.6225881923
 20
189.1072949696
 41
2.5
 42
2.5
 43
2.5
 50
270.0
  0
ENDBLK
  5
288
100
AcDbEntity
  8
0
  6
BYBLOCK
 62
0
100
AcDbBlockEnd
  0
BLOCK
  5
289
100
AcDbEntity
  8
0
100
AcDbBlockBegin
  2
*T1
 70
1
 10
0.0
 20
0.0
  3
*T1
  1

  0
LINE
  5
28A
100
AcDbEntity
  8
0
100
AcDbLine
 62
2
  6
CONTINUOUS
 10
0.0
 20
0.0
 11
90.0
 21
0.0
  0
LINE
  5
28B
100
AcDbEntity
  8
0
100
AcDbLine
 62
2
  6
CONTINUOUS
 10
0.0
 20
0.0
 11
0.0
 21
-40.0
  0
LINE
  5
28C
100
AcDbEntity
  8
0
100
AcDbLine
 62
2
  6
CONTINUOUS
 10
30.0
 20
-6.0
 11
90.0
 21
-6.0
  0
LINE
  5
28D
100
AcDbEntity
  8
0
100
AcDbLine
 62
2
  6
CONTINUOUS
 10
30.0
 20
-12.0
 11
90.0
 21
-12.0
  0
LINE
  5
28E
100
AcDbEntity
  8
0
100
AcDbLine
 62
2
  6
CONTINUOUS
 10
30.0
 20
-22.0
 11
90.0
 21
-22.0
  0
LINE
  5
28F
100
AcDbEntity
  8
0
100
AcDbLine
 62
2
  6
CONTINUOUS
 10
0.0
 20
-27.0
 11
90.0
 21
-27.0
  0
LINE
  5
290
100
AcDbEntity
  8
0
100
AcDbLine
 62
2
  6
CONTINUOUS
 10
0.0
 20
-40.0
 11
90.0
 21
-40.0
  0
LINE
  5
291
100
AcDbEntity
  8
0
100
AcDbLine
 62
2
  6
CONTINUOUS
 10
30.0
 20
0.0
 11
30.0
 21
-27.0
  0
LINE
  5
292
100
AcDbEntity
  8
0
100
AcDbLine
 62
2
  6
CONTINUOUS
 10
70.0
 20
0.0
 11
70.0
 21
-12.0
  0
LINE
  5
293
100
AcDbEntity
  8
0
100
AcDbLine
 62
2
  6
CONTINUOUS
 10
90.0
 20
0.0
 11
90.0
 21
-40.0
  0
ENDBLK
  5
294
100
AcDbEntity
  8
0
100
AcDbBlockEnd
  0
ENDSEC
  0
SECTION
  2
ENTITIES
  0
DIMENSION
  5
295
100
AcDbEntity
  8
0
100
AcDbDimension
 62
2
  6
CONTINUOUS
  2
*D0
 10
112.6225881923
 20
50.528681296
 11
111.8725881923
 21
69.1715384389
 70
160
 71
2
 42
42.0
  3
DIMSTYLE_1
100
AcDbAlignedDimension
 13
96.9500583891
 23
92.528681296
 14
97.1474903804
 24
50.528681296
 50
270.0
100
AcDbRotatedDimension
  0
DIMENSION
  5
296
100
AcDbEntity
  8
0
100
AcDbDimension
 62
2
  6
CONTINUOUS
  2
*D1
 10
91.7792114202
 20
30.528681296
 11
68.4220685631
 21
31.278681296
 70
160
 71
2
 42
42.0
  3
DIMSTYLE_1
100
AcDbAlignedDimension
 13
49.7792114202
 23
46.7181070179
 14
91.7792114202
 24
46.3390375946
100
AcDbRotatedDimension
  0
DIMENSION
  5
297
100
AcDbEntity
  8
0
100
AcDbDimension
 62
2
  6
CONTINUOUS
  2
*D2
 10
112.6225881923
 20
189.1072949696
 11
111.8725881923
 21
219.3572949696
 70
160
 71
2
 42
65.0
  3
DIMSTYLE_2
100
AcDbAlignedDimension
 13
93.2028608918
 23
254.1072949696
 14
93.734643264
 24
189.1072949696
 50
270.0
100
AcDbRotatedDimension
  0
INSERT
  5
298
100
AcDbEntity
  8
0
100
AcDbBlockReference
 62
2
  6
CONTINUOUS
  2
LOGO2_BL0
 10
333.1473869546
 20
37.5239270671
  0
LWPOLYLINE
  5
299
100
AcDbEntity
  8
0
100
AcDbPolyline
 62
2
  6
CONTINUOUS
 90
10
 70
0
 10
352.4517004395
 20
49.5239263916
 10
351.8088317871
 20
48.8810705566
 10
351.3802697754
 20
48.0239273071
 10
351.3802697754
 20
46.9524966431
 10
351.8088317871
 20
46.5239282227
 10
352.4517004395
 20
46.5239282227
 10
352.8802624512
 20
46.9524966431
 10
352.8802624512
 20
47.8096398926
 10
352.4517004395
 20
48.2382147217
 10
351.5231323242
 20
48.2382147217
  0
LWPOLYLINE
  5
29A
100
AcDbEntity
  8
0
100
AcDbPolyline
 62
2
  6
CONTINUOUS
 90
4
 70
0
 10
353.7374121094
 20
48.8810705566
 10
353.7374121094
 20
49.5239263916
 10
355.2374047852
 20
49.5239263916
 10
354.3802807617
 20
46.5239282227
  0
LWPOLYLINE
  5
29B
100
AcDbEntity
  8
0
100
AcDbPolyline
 62
2
  6
CONTINUOUS
 90
10
 70
0
 10
356.5231164551
 20
46.5239282227
 10
357.3802661133
 20
47.3810714722
 10
357.5945471191
 20
48.2382147217
 10
357.5945471191
 20
49.0953579712
 10
357.1659851074
 20
49.5239263916
 10
356.5231164551
 20
49.5239263916
 10
356.0945544434
 20
49.0953579712
 10
356.0945544434
 20
48.2382147217
 10
356.5231164551
 20
47.8096398926
 10
357.4516845703
 20
47.8096398926
  0
LINE
  5
29C
100
AcDbEntity
  8
0
100
AcDbLine
 62
2
  6
CONTINUOUS
 10
358.4516967773
 20
46.5239282227
 11
360.165970459
 21
46.5239282227
  0
LWPOLYLINE
  5
29D
100
AcDbEntity
  8
0
100
AcDbPolyline
 62
2
  6
CONTINUOUS
 90
6
 70
0
 10
362.0945507813
 20
46.5239282227
 10
361.237401123
 20
46.5239282227
 10
360.8088391113
 20
46.9524966431
 10
360.8088391113
 20
49.0953579712
 10
361.237401123
 20
49.5239263916
 10
362.0945507813
 20
49.5239263916
  0
LINE
  5
29E
100
AcDbEntity
  8
0
100
AcDbLine
 62
2
  6
CONTINUOUS
 10
363.3088439941
 20
46.5239282227
 11
365.0231176758
 21
46.5239282227
  0
LWPOLYLINE
  5
29F
100
AcDbEntity
  8
0
100
AcDbPolyline
 62
2
  6
CONTINUOUS
 90
13
 70
0
 10
365.6659863281
 20
47.3810714722
 10
365.6659863281
 20
48.6667831421
 10
365.880267334
 20
49.0953579712
 10
366.3088293457
 20
49.5239263916
 10
366.5231359863
 20
49.5239263916
 10
366.951697998
 20
49.0953579712
 10
367.1659790039
 20
48.6667831421
 10
367.1659790039
 20
47.3810714722
 10
366.951697998
 20
46.9524966431
 10
366.5231359863
 20
46.5239282227
 10
366.3088293457
 20
46.5239282227
 10
365.880267334
 20
46.9524966431
 10
365.6659863281
 20
47.3810714722
  0
LWPOLYLINE
  5
2A0
100
AcDbEntity
  8
0
100
AcDbPolyline
 62
2
  6
CONTINUOUS
 90
13
 70
0
 10
368.0231286621
 20
47.3810714722
 10
368.0231286621
 20
48.6667831421
 10
368.237409668
 20
49.0953579712
 10
368.6659716797
 20
49.5239263916
 10
368.8802783203
 20
49.5239263916
 10
369.308840332
 20
49.0953579712
 10
369.5231213379
 20
48.6667831421
 10
369.5231213379
 20
47.3810714722
 10
369.308840332
 20
46.9524966431
 10
368.8802783203
 20
46.5239282227
 10
368.6659716797
 20
46.5239282227
 10
368.237409668
 20
46.9524966431
 10
368.0231286621
 20
47.3810714722
  0
LWPOLYLINE
  5
2A1
100
AcDbEntity
  8
0
100
AcDbPolyline
 62
2
  6
CONTINUOUS
 90
3
 70
0
 10
370.3802709961
 20
48.6667831421
 10
371.2374206543
 20
49.5239263916
 10
371.2374206543
 20
46.5239282227
  0
LWPOLYLINE
  5
2A2
100
AcDbEntity
  8
0
100
AcDbPolyline
 62
2
  6
CONTINUOUS
 90
9
 70
0
 10
391.5525878906
 20
45.7739254761
 10
391.5525878906
 20
49.2739297485
 10
392.4822839355
 20
49.2739297485
 10
392.8541418457
 20
48.9822573853
 10
393.0400964355
 20
48.6905914307
 10
393.0400964355
 20
48.1072595215
 10
392.8541418457
 20
47.8155935669
 10
392.4822839355
 20
47.5239276123
 10
391.5525878906
 20
47.5239276123
  0
LINE
  5
2A3
100
AcDbEntity
  8
0
100
AcDbLine
 62
2
  6
CONTINUOUS
 10
392.4822839355
 20
47.5239276123
 11
393.0400964355
 21
45.7739254761
  0
LWPOLYLINE
  5
2A4
100
AcDbEntity
  8
0
100
AcDbPolyline
 62
2
  6
CONTINUOUS
 90
11
 70
0
 10
395.8291589355
 20
46.3572573853
 10
395.6432043457
 20
46.0655914307
 10
395.2713464355
 20
45.7739254761
 10
394.8994628906
 20
46.0655914307
 10
394.5275793457
 20
46.6489297485
 10
394.5275793457
 20
47.2322616577
 10
394.8994628906
 20
47.8155935669
 10
395.2713464355
 20
48.1072595215
 10
395.6432043457
 20
47.8155935669
 10
395.8291589355
 20
47.2322616577
 10
394.5275793457
 20
47.2322616577
  0
LWPOLYLINE
  5
2A5
100
AcDbEntity
  8
0
100
AcDbPolyline
 62
2
  6
CONTINUOUS
 90
3
 70
0
 10
397.6885253906
 20
48.1072595215
 10
398.2463378906
 20
45.7739254761
 10
398.8041503906
 20
48.1072595215
  0
LWPOLYLINE
  5
2A6
100
AcDbEntity
  8
0
100
AcDbPolyline
 62
2
  6
CONTINUOUS
 90
4
 70
0
 10
401.2213293457
 20
45.7739254761
 10
401.0354003906
 20
45.7739254761
 10
401.0354003906
 20
46.0655914307
 10
401.2213293457
 20
45.7739254761
  0
LWPOLYLINE
  5
2A7
100
AcDbEntity
  8
0
100
AcDbPolyline
 62
2
  6
CONTINUOUS
 90
4
 70
0
 10
401.2213293457
 20
48.1072595215
 10
401.2213293457
 20
47.8155935669
 10
401.0354003906
 20
48.1072595215
 10
401.2213293457
 20
48.1072595215
  0
LWPOLYLINE
  5
2A8
100
AcDbEntity
  8
0
100
AcDbPolyline
 62
2
  6
CONTINUOUS
 90
15
 70
0
 10
404.1963464355
 20
45.7739254761
 10
403.8244628906
 20
46.0655914307
 10
403.6385339355
 20
46.3572573853
 10
403.4525793457
 20
46.9405957031
 10
403.4525793457
 20
48.1072595215
 10
403.6385339355
 20
48.6905914307
 10
403.8244628906
 20
48.9822573853
 10
404.1963464355
 20
49.2739297485
 10
404.5682043457
 20
48.9822573853
 10
404.7541589355
 20
48.6905914307
 10
404.9400878906
 20
48.1072595215
 10
404.9400878906
 20
46.9405957031
 10
404.7541589355
 20
46.3572573853
 10
404.5682043457
 20
46.0655914307
 10
404.1963464355
 20
45.7739254761
  0
LWPOLYLINE
  5
2A9
100
AcDbEntity
  8
0
100
AcDbPolyline
 62
2
  6
CONTINUOUS
 90
15
 70
0
 10
407.1713378906
 20
45.7739254761
 10
406.7994543457
 20
46.0655914307
 10
406.6135253906
 20
46.3572573853
 10
406.4275964355
 20
46.9405957031
 10
406.4275964355
 20
48.1072595215
 10
406.6135253906
 20
48.6905914307
 10
406.7994543457
 20
48.9822573853
 10
407.1713378906
 20
49.2739297485
 10
407.5432214355
 20
48.9822573853
 10
407.7291503906
 20
48.6905914307
 10
407.9150793457
 20
48.1072595215
 10
407.9150793457
 20
46.9405957031
 10
407.7291503906
 20
46.3572573853
 10
407.5432214355
 20
46.0655914307
 10
407.1713378906
 20
45.7739254761
  0
LWPOLYLINE
  5
2AA
100
AcDbEntity
  8
0
100
AcDbPolyline
 62
2
  6
CONTINUOUS
 90
10
 70
0
 10
350.8088452148
 20
40.0239257812
 10
351.0588354492
 20
39.7739291382
 10
352.0588476563
 20
39.7739291382
 10
352.558828125
 20
40.273928833
 10
352.558828125
 20
40.7739285278
 10
350.8088452148
 20
42.2739276123
 10
350.8088452148
 20
42.7739273071
 10
351.3088513184
 20
43.273927002
 10
352.3088378906
 20
43.273927002
 10
352.558828125
 20
43.0239239502
  0
LWPOLYLINE
  5
2AB
100
AcDbEntity
  8
0
100
AcDbPolyline
 62
2
  6
CONTINUOUS
 90
6
 70
0
 10
354.8088427734
 20
39.7739291382
 10
353.8088305664
 20
39.7739291382
 10
353.558840332
 20
40.0239257812
 10
353.558840332
 20
42.0239245605
 10
353.8088305664
 20
42.2739276123
 10
354.8088427734
 20
42.2739276123
  0
LWPOLYLINE
  5
2AC
100
AcDbEntity
  8
0
100
AcDbPolyline
 62
2
  6
CONTINUOUS
 90
4
 70
0
 10
357.3088476563
 20
39.7739291382
 10
357.3088476563
 20
41.7739279175
 10
357.0588317871
 20
42.2739276123
 10
355.8088293457
 20
42.2739276123
  0
LWPOLYLINE
  5
2AD
100
AcDbEntity
  8
0
100
AcDbPolyline
 62
2
  6
CONTINUOUS
 90
6
 70
0
 10
357.3088476563
 20
39.7739291382
 10
356.3088354492
 20
39.7739291382
 10
355.8088293457
 20
40.0239257812
 10
355.8088293457
 20
40.7739285278
 10
356.3088354492
 20
41.0239251709
 10
357.3088476563
 20
41.0239251709
  0
LWPOLYLINE
  5
2AE
100
AcDbEntity
  8
0
100
AcDbPolyline
 62
2
  6
CONTINUOUS
 90
4
 70
0
 10
359.0588305664
 20
39.7739291382
 10
358.5588500977
 20
39.7739291382
 10
358.3088342285
 20
40.0239257812
 10
358.3088342285
 20
43.273927002
  0
LWPOLYLINE
  5
2AF
100
AcDbEntity
  8
0
100
AcDbPolyline
 62
2
  6
CONTINUOUS
 90
9
 70
0
 10
361.5588354492
 20
39.7739291382
 10
360.558848877
 20
39.7739291382
 10
360.0588427734
 20
40.273928833
 10
360.0588427734
 20
41.7739279175
 10
360.558848877
 20
42.2739276123
 10
361.0588293457
 20
42.2739276123
 10
361.5588354492
 20
41.7739279175
 10
361.5588354492
 20
41.0239251709
 10
360.0588427734
 20
41.0239251709
  0
LWPOLYLINE
  5
2B0
100
AcDbEntity
  8
0
100
AcDbPolyline
 62
2
  6
CONTINUOUS
 90
4
 70
0
 10
362.5588476563
 20
39.7739291382
 10
362.5588476563
 20
40.0239257812
 10
362.7254992676
 20
40.0239257812
 10
362.5588476563
 20
39.7739291382
  0
LWPOLYLINE
  5
2B1
100
AcDbEntity
  8
0
100
AcDbPolyline
 62
2
  6
CONTINUOUS
 90
4
 70
0
 10
362.5588476563
 20
41.2739282227
 10
362.5588476563
 20
41.5239248657
 10
362.7254992676
 20
41.5239248657
 10
362.5588476563
 20
41.2739282227
  0
LWPOLYLINE
  5
2B2
100
AcDbEntity
  8
0
100
AcDbPolyline
 62
2
  6
CONTINUOUS
 90
3
 70
0
 10
363.8088500977
 20
42.2739276123
 10
364.8088366699
 20
43.273927002
 10
364.8088366699
 20
39.7739291382
  0
LWPOLYLINE
  5
2B3
100
AcDbEntity
  8
0
100
AcDbPolyline
 62
2
  6
CONTINUOUS
 90
4
 70
0
 10
365.808848877
 20
39.7739291382
 10
365.808848877
 20
40.0239257812
 10
365.9755004883
 20
40.0239257812
 10
365.808848877
 20
39.7739291382
  0
LWPOLYLINE
  5
2B4
100
AcDbEntity
  8
0
100
AcDbPolyline
 62
2
  6
CONTINUOUS
 90
4
 70
0
 10
365.808848877
 20
41.2739282227
 10
365.808848877
 20
41.5239248657
 10
365.9755004883
 20
41.5239248657
 10
365.808848877
 20
41.2739282227
  0
LWPOLYLINE
  5
2B5
100
AcDbEntity
  8
0
100
AcDbPolyline
 62
2
  6
CONTINUOUS
 90
3
 70
0
 10
367.0588513184
 20
42.2739276123
 10
368.0588378906
 20
43.273927002
 10
368.0588378906
 20
39.7739291382
  0
LWPOLYLINE
  5
2B6
100
AcDbEntity
  8
0
100
AcDbPolyline
 62
2
  6
CONTINUOUS
 90
3
 70
0
 10
390.8088464355
 20
40.273928833
 10
391.8088330078
 20
43.7739266968
 10
392.8088452148
 20
40.273928833
  0
LINE
  5
2B7
100
AcDbEntity
  8
0
100
AcDbLine
 62
2
  6
CONTINUOUS
 10
391.142175293
 20
41.2739282227
 11
392.4755163574
 21
41.2739282227
  0
LWPOLYLINE
  5
2B8
100
AcDbEntity
  8
0
100
AcDbPolyline
 62
2
  6
CONTINUOUS
 90
6
 70
0
 10
393.8088317871
 20
40.273928833
 10
395.0588342285
 20
40.273928833
 10
395.3088500977
 20
40.5239254761
 10
395.3088500977
 20
41.7739279175
 10
394.8088439941
 20
42.2739276123
 10
394.3088378906
 20
42.2739276123
  0
LWPOLYLINE
  5
2B9
100
AcDbEntity
  8
0
100
AcDbPolyline
 62
2
  6
CONTINUOUS
 90
5
 70
0
 10
394.8088439941
 20
42.2739276123
 10
395.2255114746
 20
42.5239242554
 10
395.2255114746
 20
43.273927002
 10
394.8088439941
 20
43.7739266968
 10
393.8088317871
 20
43.7739266968
  0
LINE
  5
2BA
100
AcDbEntity
  8
0
100
AcDbLine
 62
2
  6
CONTINUOUS
 10
352.4755151367
 20
32.2739273071
 11
352.4755151367
 21
35.7739251709
  0
LINE
  5
2BB
100
AcDbEntity
  8
0
100
AcDbLine
 62
2
  6
CONTINUOUS
 10
351.4755029297
 20
35.7739251709
 11
353.475501709
 21
35.7739251709
  0
LWPOLYLINE
  5
2BC
100
AcDbEntity
  8
0
100
AcDbPolyline
 62
2
  6
CONTINUOUS
 90
6
 70
0
 10
354.475513916
 20
35.7739251709
 10
354.475513916
 20
32.773927002
 10
354.9754943848
 20
32.2739273071
 10
355.7255163574
 20
32.2739273071
 10
356.2254968262
 20
32.773927002
 10
356.2254968262
 20
35.7739251709
  0
LWPOLYLINE
  5
2BD
100
AcDbEntity
  8
0
100
AcDbPolyline
 62
2
  6
CONTINUOUS
 90
7
 70
0
 10
357.2255090332
 20
32.2739273071
 10
357.2255090332
 20
35.7739251709
 10
358.4755114746
 20
35.7739251709
 10
358.9755175781
 20
35.2739254761
 10
358.9755175781
 20
34.2739260864
 10
358.4755114746
 20
33.7739263916
 10
357.2255090332
 20
33.7739263916
  0
LINE
  5
2BE
100
AcDbEntity
  8
0
100
AcDbLine
 62
2
  6
CONTINUOUS
 10
357.9755053711
 20
33.7739263916
 11
358.9755175781
 21
32.2739273071
  0
LINE
  5
2BF
100
AcDbEntity
  8
0
100
AcDbLine
 62
2
  6
CONTINUOUS
 10
360.6421618652
 20
32.2739273071
 11
360.6421618652
 21
35.7739251709
  0
LWPOLYLINE
  5
2C0
100
AcDbEntity
  8
0
100
AcDbPolyline
 62
2
  6
CONTINUOUS
 90
10
 70
0
 10
362.2255187988
 20
32.5239239502
 10
362.4755090332
 20
32.2739273071
 10
363.4754956055
 20
32.2739273071
 10
363.975501709
 20
32.773927002
 10
363.975501709
 20
33.2739266968
 10
362.2255187988
 20
34.7739257812
 10
362.2255187988
 20
35.2739254761
 10
362.7254992676
 20
35.7739251709
 10
363.7255114746
 20
35.7739251709
 10
363.975501709
 20
35.5239285278
  0
LWPOLYLINE
  5
2C1
100
AcDbEntity
  8
0
100
AcDbPolyline
 62
2
  6
CONTINUOUS
 90
5
 70
0
 10
367.7255090332
 20
32.2739273071
 10
367.7255090332
 20
35.7739251709
 10
368.7254956055
 20
33.7739263916
 10
369.7255078125
 20
35.7739251709
 10
369.7255078125
 20
32.2739273071
  0
LINE
  5
2C2
100
AcDbEntity
  8
0
100
AcDbLine
 62
2
  6
CONTINUOUS
 10
371.3921777344
 20
32.2739273071
 11
371.3921777344
 21
35.7739251709
  0
LWPOLYLINE
  5
2C3
100
AcDbEntity
  8
0
100
AcDbPolyline
 62
2
  6
CONTINUOUS
 90
4
 70
0
 10
372.9755090332
 20
32.2739273071
 10
372.9755090332
 20
35.7739251709
 10
374.7255175781
 20
32.2739273071
 10
374.7255175781
 20
35.7739251709
  0
LINE
  5
2C4
100
AcDbEntity
  8
0
100
AcDbLine
 62
2
  6
CONTINUOUS
 10
376.3921618652
 20
32.2739273071
 11
376.3921618652
 21
35.7739251709
  0
LWPOLYLINE
  5
2C5
100
AcDbEntity
  8
0
100
AcDbPolyline
 62
2
  6
CONTINUOUS
 90
3
 70
0
 10
380.725513916
 20
34.7739257812
 10
381.7255004883
 20
35.7739251709
 10
381.7255004883
 20
32.2739273071
  0
LWPOLYLINE
  5
2C6
100
AcDbEntity
  8
0
100
AcDbPolyline
 62
2
  6
CONTINUOUS
 90
9
 70
0
 10
383.4755090332
 20
32.8572592163
 10
383.5588476563
 20
32.6905947876
 10
383.5588476563
 20
32.6072625732
 10
383.4755090332
 20
32.4405917358
 10
383.3088317871
 20
32.4405917358
 10
383.2255187988
 20
32.6072625732
 10
383.2255187988
 20
32.6905947876
 10
383.3088317871
 20
32.8572592163
 10
383.4755090332
 20
32.8572592163
  0
LWPOLYLINE
  5
2C7
100
AcDbEntity
  8
0
100
AcDbPolyline
 62
2
  6
CONTINUOUS
 90
13
 70
0
 10
384.7255114746
 20
33.2739266968
 10
384.7255114746
 20
34.7739257812
 10
384.975501709
 20
35.2739254761
 10
385.4755078125
 20
35.7739251709
 10
385.7254980469
 20
35.7739251709
 10
386.2255041504
 20
35.2739254761
 10
386.4754943848
 20
34.7739257812
 10
386.4754943848
 20
33.2739266968
 10
386.2255041504
 20
32.773927002
 10
385.7254980469
 20
32.2739273071
 10
385.4755078125
 20
32.2739273071
 10
384.975501709
 20
32.773927002
 10
384.7255114746
 20
33.2739266968
  0
LWPOLYLINE
  5
2C8
100
AcDbEntity
  8
0
100
AcDbPolyline
 62
2
  6
CONTINUOUS
 90
7
 70
0
 10
350.8088452148
 20
25.2739251709
 10
350.8088452148
 20
27.7739300537
 10
351.7017041016
 20
27.7739300537
 10
352.0588476563
 20
27.416786499
 10
352.0588476563
 20
25.6310687256
 10
351.7017041016
 20
25.2739251709
 10
350.8088452148
 20
25.2739251709
  0
LWPOLYLINE
  5
2C9
100
AcDbEntity
  8
0
100
AcDbPolyline
 62
2
  6
CONTINUOUS
 90
3
 70
0
 10
353.0707543945
 20
25.2739251709
 10
353.7850415039
 20
27.7739300537
 10
354.4993286133
 20
25.2739251709
  0
LINE
  5
2CA
100
AcDbEntity
  8
0
100
AcDbLine
 62
2
  6
CONTINUOUS
 10
353.3088500977
 20
25.9882122803
 11
354.2612329102
 21
25.9882122803
  0
LINE
  5
2CB
100
AcDbEntity
  8
0
100
AcDbLine
 62
2
  6
CONTINUOUS
 10
355.9278771973
 20
25.2739251709
 11
355.9278771973
 21
27.7739300537
  0
LINE
  5
2CC
100
AcDbEntity
  8
0
100
AcDbLine
 62
2
  6
CONTINUOUS
 10
355.2135900879
 20
27.7739300537
 11
356.6421643066
 21
27.7739300537
  0
LWPOLYLINE
  5
2CD
100
AcDbEntity
  8
0
100
AcDbPolyline
 62
2
  6
CONTINUOUS
 90
3
 70
0
 10
357.356451416
 20
25.2739251709
 10
357.356451416
 20
27.7739300537
 10
358.4278820801
 20
27.7739300537
  0
LINE
  5
2CE
100
AcDbEntity
  8
0
100
AcDbLine
 62
2
  6
CONTINUOUS
 10
358.0707385254
 20
26.7024993896
 11
357.356451416
 21
26.7024993896
  0
LINE
  5
2CF
100
AcDbEntity
  8
0
100
AcDbLine
 62
2
  6
CONTINUOUS
 10
357.356451416
 20
25.2739251709
 11
358.4278820801
 21
25.2739251709
  0
LWPOLYLINE
  5
2D0
100
AcDbEntity
  8
0
100
AcDbPolyline
 62
2
  6
CONTINUOUS
 90
4
 70
0
 10
359.1421691895
 20
25.2739251709
 10
359.1421691895
 20
25.4524969482
 10
359.261217041
 20
25.4524969482
 10
359.1421691895
 20
25.2739251709
  0
LWPOLYLINE
  5
2D1
100
AcDbEntity
  8
0
100
AcDbPolyline
 62
2
  6
CONTINUOUS
 90
4
 70
0
 10
359.1421691895
 20
26.345355835
 10
359.1421691895
 20
26.5239276123
 10
359.261217041
 20
26.5239276123
 10
359.1421691895
 20
26.345355835
  0
LWPOLYLINE
  5
2D2
100
AcDbEntity
  8
0
100
AcDbPolyline
 62
2
  6
CONTINUOUS
 90
13
 70
0
 10
360.0350280762
 20
25.9882122803
 10
360.0350280762
 20
27.0596429443
 10
360.2135998535
 20
27.416786499
 10
360.5707434082
 20
27.7739300537
 10
360.7493151855
 20
27.7739300537
 10
361.1064587402
 20
27.416786499
 10
361.2850305176
 20
27.0596429443
 10
361.2850305176
 20
25.9882122803
 10
361.1064587402
 20
25.6310687256
 10
360.7493151855
 20
25.2739251709
 10
360.5707434082
 20
25.2739251709
 10
360.2135998535
 20
25.6310687256
 10
360.0350280762
 20
25.9882122803
  0
LWPOLYLINE
  5
2D3
100
AcDbEntity
  8
0
100
AcDbPolyline
 62
2
  6
CONTINUOUS
 90
4
 70
0
 10
361.999317627
 20
27.2382147217
 10
361.999317627
 20
27.7739300537
 10
363.2493200684
 20
27.7739300537
 10
362.535032959
 20
25.2739251709
  0
LINE
  5
2D4
100
AcDbEntity
  8
0
100
AcDbLine
 62
2
  6
CONTINUOUS
 10
365.3921813965
 20
27.5358343506
 11
363.9636071777
 21
25.3334490967
  0
LWPOLYLINE
  5
2D5
100
AcDbEntity
  8
0
100
AcDbPolyline
 62
2
  6
CONTINUOUS
 90
13
 70
0
 10
365.8683728027
 20
25.9882122803
 10
365.8683728027
 20
27.0596429443
 10
366.0469445801
 20
27.416786499
 10
366.4040881348
 20
27.7739300537
 10
366.5826599121
 20
27.7739300537
 10
366.9398034668
 20
27.416786499
 10
367.1183752441
 20
27.0596429443
 10
367.1183752441
 20
25.9882122803
 10
366.9398034668
 20
25.6310687256
 10
366.5826599121
 20
25.2739251709
 10
366.4040881348
 20
25.2739251709
 10
366.0469445801
 20
25.6310687256
 10
365.8683728027
 20
25.9882122803
  0
LWPOLYLINE
  5
2D6
100
AcDbEntity
  8
0
100
AcDbPolyline
 62
2
  6
CONTINUOUS
 90
7
 70
0
 10
369.0826391602
 20
25.2739251709
 10
367.8326367187
 20
25.2739251709
 10
369.0826391602
 20
27.0596429443
 10
369.0826391602
 20
27.416786499
 10
368.7254956055
 20
27.7739300537
 10
368.1897802734
 20
27.7739300537
 10
367.8326367187
 20
27.2382147217
  0
LINE
  5
2D7
100
AcDbEntity
  8
0
100
AcDbLine
 62
2
  6
CONTINUOUS
 10
371.2255004883
 20
27.5358343506
 11
369.7969262695
 21
25.3334490967
  0
LWPOLYLINE
  5
2D8
100
AcDbEntity
  8
0
100
AcDbPolyline
 62
2
  6
CONTINUOUS
 90
7
 70
0
 10
372.9516943359
 20
25.2739251709
 10
371.7016918945
 20
25.2739251709
 10
372.9516943359
 20
27.0596429443
 10
372.9516943359
 20
27.416786499
 10
372.5945507813
 20
27.7739300537
 10
372.0588354492
 20
27.7739300537
 10
371.7016918945
 20
27.2382147217
  0
LWPOLYLINE
  5
2D9
100
AcDbEntity
  8
0
100
AcDbPolyline
 62
2
  6
CONTINUOUS
 90
13
 70
0
 10
373.6659814453
 20
25.9882122803
 10
373.6659814453
 20
27.0596429443
 10
373.8445532227
 20
27.416786499
 10
374.2016967773
 20
27.7739300537
 10
374.3802685547
 20
27.7739300537
 10
374.7374121094
 20
27.416786499
 10
374.9159838867
 20
27.0596429443
 10
374.9159838867
 20
25.9882122803
 10
374.7374121094
 20
25.6310687256
 10
374.3802685547
 20
25.2739251709
 10
374.2016967773
 20
25.2739251709
 10
373.8445532227
 20
25.6310687256
 10
373.6659814453
 20
25.9882122803
  0
LWPOLYLINE
  5
2DA
100
AcDbEntity
  8
0
100
AcDbPolyline
 62
2
  6
CONTINUOUS
 90
3
 70
0
 10
375.6302709961
 20
27.0596429443
 10
376.3445581055
 20
27.7739300537
 10
376.3445581055
 20
25.2739251709
  0
LINE
  5
2DB
100
AcDbEntity
  8
0
100
AcDbLine
 62
2
  6
CONTINUOUS
 10
377.8921801758
 20
25.2739251709
 11
377.8921801758
 21
26.5239276123
  0
LWPOLYLINE
  5
2DC
100
AcDbEntity
  8
0
100
AcDbPolyline
 62
2
  6
CONTINUOUS
 90
3
 70
0
 10
378.3088476563
 20
25.8096405029
 10
377.0588452148
 20
25.8096405029
 10
377.5945605469
 20
27.7739300537
  0
LWPOLYLINE
  5
2DD
100
AcDbEntity
  8
0
100
AcDbPolyline
 62
2
  6
CONTINUOUS
 90
3
 70
0
 10
321.1036889648
 20
20.4239268494
 10
321.5950817871
 20
22.273927002
 10
322.0865002441
 20
20.4239268494
  0
LINE
  5
2DE
100
AcDbEntity
  8
0
100
AcDbLine
 62
2
  6
CONTINUOUS
 10
321.3002563477
 20
21.0405935669
 11
321.8899328613
 21
21.0405935669
  0
LINE
  5
2DF
100
AcDbEntity
  8
0
100
AcDbLine
 62
2
  6
CONTINUOUS
 10
322.8727441406
 20
20.4239268494
 11
322.8727441406
 21
21.6572602844
  0
LWPOLYLINE
  5
2E0
100
AcDbEntity
  8
0
100
AcDbPolyline
 62
2
  6
CONTINUOUS
 90
5
 70
0
 10
322.8727441406
 20
21.3489285278
 10
323.0693115234
 20
21.6572602844
 10
323.2658789063
 20
21.6572602844
 10
323.4624462891
 20
21.3489285278
 10
323.4624462891
 20
20.4239268494
  0
LWPOLYLINE
  5
2E1
100
AcDbEntity
  8
0
100
AcDbPolyline
 62
2
  6
CONTINUOUS
 90
5
 70
0
 10
324.346973877
 20
21.6572602844
 10
324.7400830078
 20
20.5780943298
 10
324.6417993164
 20
20.1155950928
 10
324.4452575684
 20
19.8072601318
 10
324.2486901855
 20
19.8072601318
  0
LINE
  5
2E2
100
AcDbEntity
  8
0
100
AcDbLine
 62
2
  6
CONTINUOUS
 10
324.7400830078
 20
20.5780943298
 11
325.1332177734
 21
21.6572602844
  0
LINE
  5
2E3
100
AcDbEntity
  8
0
100
AcDbLine
 62
2
  6
CONTINUOUS
 10
327.8850842285
 20
22.273927002
 11
327.8850842285
 21
22.1197595215
  0
LINE
  5
2E4
100
AcDbEntity
  8
0
100
AcDbLine
 62
2
  6
CONTINUOUS
 10
327.8850842285
 20
21.6572602844
 11
327.8850842285
 21
20.4239268494
  0
LINE
  5
2E5
100
AcDbEntity
  8
0
100
AcDbLine
 62
2
  6
CONTINUOUS
 10
329.162746582
 20
20.4239268494
 11
329.162746582
 21
21.6572602844
  0
LWPOLYLINE
  5
2E6
100
AcDbEntity
  8
0
100
AcDbPolyline
 62
2
  6
CONTINUOUS
 90
5
 70
0
 10
329.162746582
 20
21.3489285278
 10
329.3593139648
 20
21.6572602844
 10
329.5558813477
 20
21.6572602844
 10
329.7524230957
 20
21.3489285278
 10
329.7524230957
 20
20.4239268494
  0
LINE
  5
2E7
100
AcDbEntity
  8
0
100
AcDbLine
 62
2
  6
CONTINUOUS
 10
331.0300854492
 20
20.4239268494
 11
331.0300854492
 21
22.273927002
  0
LINE
  5
2E8
100
AcDbEntity
  8
0
100
AcDbLine
 62
2
  6
CONTINUOUS
 10
330.735234375
 20
21.503092804
 11
331.3249365234
 21
21.503092804
  0
LWPOLYLINE
  5
2E9
100
AcDbEntity
  8
0
100
AcDbPolyline
 62
2
  6
CONTINUOUS
 90
11
 70
0
 10
332.8974243164
 20
20.7322618103
 10
332.799140625
 20
20.5780943298
 10
332.602598877
 20
20.4239268494
 10
332.4060314941
 20
20.5780943298
 10
332.2094641113
 20
20.8864260864
 10
332.2094641113
 20
21.1947610474
 10
332.4060314941
 20
21.503092804
 10
332.602598877
 20
21.6572602844
 10
332.799140625
 20
21.503092804
 10
332.8974243164
 20
21.1947610474
 10
332.2094641113
 20
21.1947610474
  0
LWPOLYLINE
  5
2EA
100
AcDbEntity
  8
0
100
AcDbPolyline
 62
2
  6
CONTINUOUS
 90
10
 70
0
 10
334.5682214355
 20
20.8864260864
 10
334.3716540527
 20
20.5780943298
 10
334.1750866699
 20
20.4239268494
 10
333.9785192871
 20
20.5780943298
 10
333.7819775391
 20
20.8864260864
 10
333.7819775391
 20
21.1947610474
 10
333.9785192871
 20
21.503092804
 10
334.1750866699
 20
21.6572602844
 10
334.3716540527
 20
21.503092804
 10
334.5682214355
 20
21.1947610474
  0
LWPOLYLINE
  5
2EB
100
AcDbEntity
  8
0
100
AcDbPolyline
 62
2
  6
CONTINUOUS
 90
6
 70
0
 10
334.5682214355
 20
21.6572602844
 10
334.5682214355
 20
20.2697593689
 10
334.4699377441
 20
19.9614276123
 10
334.3716540527
 20
19.8072601318
 10
333.9785192871
 20
19.8072601318
 10
333.8802355957
 20
19.9614276123
  0
LINE
  5
2EC
100
AcDbEntity
  8
0
100
AcDbLine
 62
2
  6
CONTINUOUS
 10
335.4527490234
 20
20.4239268494
 11
335.4527490234
 21
21.6572602844
  0
LWPOLYLINE
  5
2ED
100
AcDbEntity
  8
0
100
AcDbPolyline
 62
2
  6
CONTINUOUS
 90
4
 70
0
 10
335.4527490234
 20
21.3489285278
 10
335.6493164062
 20
21.6572602844
 10
335.8458837891
 20
21.6572602844
 10
335.9441418457
 20
21.503092804
  0
LWPOLYLINE
  5
2EE
100
AcDbEntity
  8
0
100
AcDbPolyline
 62
2
  6
CONTINUOUS
 90
10
 70
0
 10
337.7132226562
 20
20.8864260864
 10
337.5166552734
 20
20.5780943298
 10
337.3200878906
 20
20.4239268494
 10
337.1235205078
 20
20.5780943298
 10
336.926953125
 20
20.8864260864
 10
336.926953125
 20
21.1947610474
 10
337.1235205078
 20
21.503092804
 10
337.3200878906
 20
21.6572602844
 10
337.5166552734
 20
21.503092804
 10
337.7132226562
 20
21.1947610474
  0
LINE
  5
2EF
100
AcDbEntity
  8
0
100
AcDbLine
 62
2
  6
CONTINUOUS
 10
337.7132226562
 20
21.6572602844
 11
337.7132226562
 21
20.4239268494
  0
LINE
  5
2F0
100
AcDbEntity
  8
0
100
AcDbLine
 62
2
  6
CONTINUOUS
 10
338.8926013184
 20
20.4239268494
 11
338.8926013184
 21
22.273927002
  0
LWPOLYLINE
  5
2F1
100
AcDbEntity
  8
0
100
AcDbPolyline
 62
2
  6
CONTINUOUS
 90
11
 70
0
 10
342.4307116699
 20
20.8864260864
 10
342.2341442871
 20
20.5780943298
 10
342.0376025391
 20
20.4239268494
 10
341.8410351562
 20
20.5780943298
 10
341.6444677734
 20
20.8864260864
 10
341.6444677734
 20
21.1947610474
 10
341.8410351562
 20
21.503092804
 10
342.0376025391
 20
21.6572602844
 10
342.2341442871
 20
21.503092804
 10
342.4307116699
 20
21.1947610474
 10
342.4307116699
 20
20.8864260864
  0
LINE
  5
2F2
100
AcDbEntity
  8
0
100
AcDbLine
 62
2
  6
CONTINUOUS
 10
343.3152392578
 20
20.4239268494
 11
343.3152392578
 21
21.6572602844
  0
LWPOLYLINE
  5
2F3
100
AcDbEntity
  8
0
100
AcDbPolyline
 62
2
  6
CONTINUOUS
 90
4
 70
0
 10
343.3152392578
 20
21.3489285278
 10
343.5118066406
 20
21.6572602844
 10
343.7083740234
 20
21.6572602844
 10
343.8066577148
 20
21.503092804
  0
LWPOLYLINE
  5
2F4
100
AcDbEntity
  8
0
100
AcDbPolyline
 62
2
  6
CONTINUOUS
 90
10
 70
0
 10
346.3619567871
 20
21.1947610474
 10
346.5585241699
 20
21.503092804
 10
346.7550915527
 20
21.6572602844
 10
346.9516589355
 20
21.503092804
 10
347.1482263184
 20
21.1947610474
 10
347.1482263184
 20
20.8864260864
 10
346.9516589355
 20
20.5780943298
 10
346.7550915527
 20
20.4239268494
 10
346.5585241699
 20
20.4239268494
 10
346.3619567871
 20
20.8864260864
  0
LINE
  5
2F5
100
AcDbEntity
  8
0
100
AcDbLine
 62
2
  6
CONTINUOUS
 10
346.3619567871
 20
21.6572602844
 11
346.3619567871
 21
19.8072601318
  0
LWPOLYLINE
  5
2F6
100
AcDbEntity
  8
0
100
AcDbPolyline
 62
2
  6
CONTINUOUS
 90
10
 70
0
 10
348.7207141113
 20
20.8864260864
 10
348.5241467285
 20
20.5780943298
 10
348.3275793457
 20
20.4239268494
 10
348.1310375977
 20
20.5780943298
 10
347.9344702148
 20
20.8864260864
 10
347.9344702148
 20
21.1947610474
 10
348.1310375977
 20
21.503092804
 10
348.3275793457
 20
21.6572602844
 10
348.5241467285
 20
21.503092804
 10
348.7207141113
 20
21.1947610474
  0
LINE
  5
2F7
100
AcDbEntity
  8
0
100
AcDbLine
 62
2
  6
CONTINUOUS
 10
348.7207141113
 20
21.6572602844
 11
348.7207141113
 21
20.4239268494
  0
LINE
  5
2F8
100
AcDbEntity
  8
0
100
AcDbLine
 62
2
  6
CONTINUOUS
 10
349.6052416992
 20
20.4239268494
 11
349.6052416992
 21
21.6572602844
  0
LWPOLYLINE
  5
2F9
100
AcDbEntity
  8
0
100
AcDbPolyline
 62
2
  6
CONTINUOUS
 90
4
 70
0
 10
349.6052416992
 20
21.3489285278
 10
349.801809082
 20
21.6572602844
 10
349.9983764648
 20
21.6572602844
 10
350.0966601562
 20
21.503092804
  0
LINE
  5
2FA
100
AcDbEntity
  8
0
100
AcDbLine
 62
2
  6
CONTINUOUS
 10
351.4725805664
 20
20.4239268494
 11
351.4725805664
 21
22.273927002
  0
LINE
  5
2FB
100
AcDbEntity
  8
0
100
AcDbLine
 62
2
  6
CONTINUOUS
 10
351.177755127
 20
21.503092804
 11
351.7674316406
 21
21.503092804
  0
LINE
  5
2FC
100
AcDbEntity
  8
0
100
AcDbLine
 62
2
  6
CONTINUOUS
 10
353.0450939941
 20
22.273927002
 11
353.0450939941
 21
22.1197595215
  0
LINE
  5
2FD
100
AcDbEntity
  8
0
100
AcDbLine
 62
2
  6
CONTINUOUS
 10
353.0450939941
 20
21.6572602844
 11
353.0450939941
 21
20.4239268494
  0
LWPOLYLINE
  5
2FE
100
AcDbEntity
  8
0
100
AcDbPolyline
 62
2
  6
CONTINUOUS
 90
10
 70
0
 10
355.0107165527
 20
20.8864260864
 10
354.8141491699
 20
20.5780943298
 10
354.6175817871
 20
20.4239268494
 10
354.4210400391
 20
20.5780943298
 10
354.2244726562
 20
20.8864260864
 10
354.2244726562
 20
21.1947610474
 10
354.4210400391
 20
21.503092804
 10
354.6175817871
 20
21.6572602844
 10
354.8141491699
 20
21.503092804
 10
355.0107165527
 20
21.1947610474
  0
LINE
  5
2FF
100
AcDbEntity
  8
0
100
AcDbLine
 62
2
  6
CONTINUOUS
 10
355.0107165527
 20
21.6572602844
 11
355.0107165527
 21
20.4239268494
  0
LINE
  5
300
100
AcDbEntity
  8
0
100
AcDbLine
 62
2
  6
CONTINUOUS
 10
356.1900952148
 20
20.4239268494
 11
356.1900952148
 21
22.273927002
  0
LINE
  5
301
100
AcDbEntity
  8
0
100
AcDbLine
 62
2
  6
CONTINUOUS
 10
359.0402453613
 20
20.4239268494
 11
359.0402453613
 21
21.6572602844
  0
LWPOLYLINE
  5
302
100
AcDbEntity
  8
0
100
AcDbPolyline
 62
2
  6
CONTINUOUS
 90
4
 70
0
 10
359.0402453613
 20
21.3489285278
 10
359.2368127441
 20
21.6572602844
 10
359.433380127
 20
21.6572602844
 10
359.5316638184
 20
21.503092804
  0
LWPOLYLINE
  5
303
100
AcDbEntity
  8
0
100
AcDbPolyline
 62
2
  6
CONTINUOUS
 90
11
 70
0
 10
361.2024353027
 20
20.7322618103
 10
361.1041516113
 20
20.5780943298
 10
360.9075842285
 20
20.4239268494
 10
360.7110168457
 20
20.5780943298
 10
360.5144750977
 20
20.8864260864
 10
360.5144750977
 20
21.1947610474
 10
360.7110168457
 20
21.503092804
 10
360.9075842285
 20
21.6572602844
 10
361.1041516113
 20
21.503092804
 10
361.2024353027
 20
21.1947610474
 10
360.5144750977
 20
21.1947610474
  0
LWPOLYLINE
  5
304
100
AcDbEntity
  8
0
100
AcDbPolyline
 62
2
  6
CONTINUOUS
 90
10
 70
0
 10
362.0869628906
 20
21.1947610474
 10
362.2835302734
 20
21.503092804
 10
362.4800976562
 20
21.6572602844
 10
362.6766650391
 20
21.503092804
 10
362.8732067871
 20
21.1947610474
 10
362.8732067871
 20
20.8864260864
 10
362.6766650391
 20
20.5780943298
 10
362.4800976562
 20
20.4239268494
 10
362.2835302734
 20
20.4239268494
 10
362.0869628906
 20
20.8864260864
  0
LINE
  5
305
100
AcDbEntity
  8
0
100
AcDbLine
 62
2
  6
CONTINUOUS
 10
362.0869628906
 20
21.6572602844
 11
362.0869628906
 21
19.8072601318
  0
LINE
  5
306
100
AcDbEntity
  8
0
100
AcDbLine
 62
2
  6
CONTINUOUS
 10
363.757734375
 20
20.4239268494
 11
363.757734375
 21
21.6572602844
  0
LWPOLYLINE
  5
307
100
AcDbEntity
  8
0
100
AcDbPolyline
 62
2
  6
CONTINUOUS
 90
4
 70
0
 10
363.757734375
 20
21.3489285278
 10
363.9543017578
 20
21.6572602844
 10
364.1508691406
 20
21.6572602844
 10
364.249152832
 20
21.503092804
  0
LWPOLYLINE
  5
308
100
AcDbEntity
  8
0
100
AcDbPolyline
 62
2
  6
CONTINUOUS
 90
11
 70
0
 10
366.0182080078
 20
20.8864260864
 10
365.821640625
 20
20.5780943298
 10
365.625098877
 20
20.4239268494
 10
365.4285314941
 20
20.5780943298
 10
365.2319641113
 20
20.8864260864
 10
365.2319641113
 20
21.1947610474
 10
365.4285314941
 20
21.503092804
 10
365.625098877
 20
21.6572602844
 10
365.821640625
 20
21.503092804
 10
366.0182080078
 20
21.1947610474
 10
366.0182080078
 20
20.8864260864
  0
LWPOLYLINE
  5
309
100
AcDbEntity
  8
0
100
AcDbPolyline
 62
2
  6
CONTINUOUS
 90
10
 70
0
 10
367.5907214355
 20
20.8864260864
 10
367.3941540527
 20
20.5780943298
 10
367.1975866699
 20
20.4239268494
 10
367.0010192871
 20
20.5780943298
 10
366.8044775391
 20
20.8864260864
 10
366.8044775391
 20
21.1947610474
 10
367.0010192871
 20
21.503092804
 10
367.1975866699
 20
21.6572602844
 10
367.3941540527
 20
21.503092804
 10
367.5907214355
 20
21.1947610474
  0
LINE
  5
30A
100
AcDbEntity
  8
0
100
AcDbLine
 62
2
  6
CONTINUOUS
 10
367.5907214355
 20
22.273927002
 11
367.5907214355
 21
20.4239268494
  0
LWPOLYLINE
  5
30B
100
AcDbEntity
  8
0
100
AcDbPolyline
 62
2
  6
CONTINUOUS
 90
5
 70
0
 10
368.4752490234
 20
21.6572602844
 10
368.4752490234
 20
20.7322618103
 10
368.6718164063
 20
20.4239268494
 10
368.8683837891
 20
20.4239268494
 10
369.0649255371
 20
20.7322618103
  0
LINE
  5
30C
100
AcDbEntity
  8
0
100
AcDbLine
 62
2
  6
CONTINUOUS
 10
369.0649255371
 20
21.6572602844
 11
369.0649255371
 21
20.4239268494
  0
LWPOLYLINE
  5
30D
100
AcDbEntity
  8
0
100
AcDbPolyline
 62
2
  6
CONTINUOUS
 90
8
 70
0
 10
370.5391552734
 20
20.5780943298
 10
370.3425878906
 20
20.4239268494
 10
370.1460205078
 20
20.5780943298
 10
369.949453125
 20
20.8864260864
 10
369.949453125
 20
21.1947610474
 10
370.1460205078
 20
21.503092804
 10
370.3425878906
 20
21.6572602844
 10
370.5391552734
 20
21.503092804
  0
LINE
  5
30E
100
AcDbEntity
  8
0
100
AcDbLine
 62
2
  6
CONTINUOUS
 10
371.9151013184
 20
20.4239268494
 11
371.9151013184
 21
22.273927002
  0
LINE
  5
30F
100
AcDbEntity
  8
0
100
AcDbLine
 62
2
  6
CONTINUOUS
 10
371.6202502441
 20
21.503092804
 11
372.2099267578
 21
21.503092804
  0
LINE
  5
310
100
AcDbEntity
  8
0
100
AcDbLine
 62
2
  6
CONTINUOUS
 10
373.4875891113
 20
22.273927002
 11
373.4875891113
 21
22.1197595215
  0
LINE
  5
311
100
AcDbEntity
  8
0
100
AcDbLine
 62
2
  6
CONTINUOUS
 10
373.4875891113
 20
21.6572602844
 11
373.4875891113
 21
20.4239268494
  0
LWPOLYLINE
  5
312
100
AcDbEntity
  8
0
100
AcDbPolyline
 62
2
  6
CONTINUOUS
 90
11
 70
0
 10
375.4532116699
 20
20.8864260864
 10
375.2566442871
 20
20.5780943298
 10
375.0601025391
 20
20.4239268494
 10
374.8635351563
 20
20.5780943298
 10
374.6669677734
 20
20.8864260864
 10
374.6669677734
 20
21.1947610474
 10
374.8635351563
 20
21.503092804
 10
375.0601025391
 20
21.6572602844
 10
375.2566442871
 20
21.503092804
 10
375.4532116699
 20
21.1947610474
 10
375.4532116699
 20
20.8864260864
  0
LINE
  5
313
100
AcDbEntity
  8
0
100
AcDbLine
 62
2
  6
CONTINUOUS
 10
376.3377392578
 20
20.4239268494
 11
376.3377392578
 21
21.6572602844
  0
LWPOLYLINE
  5
314
100
AcDbEntity
  8
0
100
AcDbPolyline
 62
2
  6
CONTINUOUS
 90
5
 70
0
 10
376.3377392578
 20
21.3489285278
 10
376.5343066406
 20
21.6572602844
 10
376.7308740234
 20
21.6572602844
 10
376.9274414063
 20
21.3489285278
 10
376.9274414063
 20
20.4239268494
  0
LWPOLYLINE
  5
315
100
AcDbEntity
  8
0
100
AcDbPolyline
 62
2
  6
CONTINUOUS
 90
14
 70
0
 10
378.4016455078
 20
21.503092804
 10
378.3033618164
 20
21.6572602844
 10
378.1068200684
 20
21.6572602844
 10
378.008536377
 20
21.503092804
 10
378.008536377
 20
21.3489285278
 10
378.205078125
 20
21.1947610474
 10
378.4016455078
 20
21.0405935669
 10
378.4999291992
 20
20.8864260864
 10
378.4999291992
 20
20.7322618103
 10
378.4016455078
 20
20.5780943298
 10
378.3033618164
 20
20.4239268494
 10
378.1068200684
 20
20.4239268494
 10
378.008536377
 20
20.5780943298
 10
377.9102526855
 20
20.7322618103
  0
LWPOLYLINE
  5
316
100
AcDbEntity
  8
0
100
AcDbPolyline
 62
2
  6
CONTINUOUS
 90
10
 70
0
 10
381.7432141113
 20
20.8864260864
 10
381.5466467285
 20
20.5780943298
 10
381.3500793457
 20
20.4239268494
 10
381.1535375977
 20
20.5780943298
 10
380.9569702148
 20
20.8864260864
 10
380.9569702148
 20
21.1947610474
 10
381.1535375977
 20
21.503092804
 10
381.3500793457
 20
21.6572602844
 10
381.5466467285
 20
21.503092804
 10
381.7432141113
 20
21.1947610474
  0
LINE
  5
317
100
AcDbEntity
  8
0
100
AcDbLine
 62
2
  6
CONTINUOUS
 10
381.7432141113
 20
21.6572602844
 11
381.7432141113
 21
20.4239268494
  0
LINE
  5
318
100
AcDbEntity
  8
0
100
AcDbLine
 62
2
  6
CONTINUOUS
 10
382.6277416992
 20
20.4239268494
 11
382.6277416992
 21
21.6572602844
  0
LWPOLYLINE
  5
319
100
AcDbEntity
  8
0
100
AcDbPolyline
 62
2
  6
CONTINUOUS
 90
4
 70
0
 10
382.6277416992
 20
21.3489285278
 10
382.824309082
 20
21.6572602844
 10
383.0208764648
 20
21.6572602844
 10
383.1191601562
 20
21.503092804
  0
LWPOLYLINE
  5
31A
100
AcDbEntity
  8
0
100
AcDbPolyline
 62
2
  6
CONTINUOUS
 90
11
 70
0
 10
384.7899316406
 20
20.7322618103
 10
384.6916479492
 20
20.5780943298
 10
384.4950805664
 20
20.4239268494
 10
384.2985388184
 20
20.5780943298
 10
384.1019714355
 20
20.8864260864
 10
384.1019714355
 20
21.1947610474
 10
384.2985388184
 20
21.503092804
 10
384.4950805664
 20
21.6572602844
 10
384.6916479492
 20
21.503092804
 10
384.7899316406
 20
21.1947610474
 10
384.1019714355
 20
21.1947610474
  0
LWPOLYLINE
  5
31B
100
AcDbEntity
  8
0
100
AcDbPolyline
 62
2
  6
CONTINUOUS
 90
10
 70
0
 10
387.2469726562
 20
21.1947610474
 10
387.4435400391
 20
21.503092804
 10
387.6400817871
 20
21.6572602844
 10
387.8366491699
 20
21.503092804
 10
388.0332165527
 20
21.1947610474
 10
388.0332165527
 20
20.8864260864
 10
387.8366491699
 20
20.5780943298
 10
387.6400817871
 20
20.4239268494
 10
387.4435400391
 20
20.4239268494
 10
387.2469726562
 20
20.8864260864
  0
LINE
  5
31C
100
AcDbEntity
  8
0
100
AcDbLine
 62
2
  6
CONTINUOUS
 10
387.2469726562
 20
21.6572602844
 11
387.2469726562
 21
19.8072601318
  0
LINE
  5
31D
100
AcDbEntity
  8
0
100
AcDbLine
 62
2
  6
CONTINUOUS
 10
388.9177441406
 20
20.4239268494
 11
388.9177441406
 21
21.6572602844
  0
LWPOLYLINE
  5
31E
100
AcDbEntity
  8
0
100
AcDbPolyline
 62
2
  6
CONTINUOUS
 90
4
 70
0
 10
388.9177441406
 20
21.3489285278
 10
389.1143115234
 20
21.6572602844
 10
389.3108789062
 20
21.6572602844
 10
389.4091625977
 20
21.503092804
  0
LWPOLYLINE
  5
31F
100
AcDbEntity
  8
0
100
AcDbPolyline
 62
2
  6
CONTINUOUS
 90
11
 70
0
 10
391.1782177734
 20
20.8864260864
 10
390.9816503906
 20
20.5780943298
 10
390.7850830078
 20
20.4239268494
 10
390.588515625
 20
20.5780943298
 10
390.391973877
 20
20.8864260864
 10
390.391973877
 20
21.1947610474
 10
390.588515625
 20
21.503092804
 10
390.7850830078
 20
21.6572602844
 10
390.9816503906
 20
21.503092804
 10
391.1782177734
 20
21.1947610474
 10
391.1782177734
 20
20.8864260864
  0
LINE
  5
320
100
AcDbEntity
  8
0
100
AcDbLine
 62
2
  6
CONTINUOUS
 10
392.0627453613
 20
20.4239268494
 11
392.0627453613
 21
22.273927002
  0
LWPOLYLINE
  5
321
100
AcDbEntity
  8
0
100
AcDbPolyline
 62
2
  6
CONTINUOUS
 90
7
 70
0
 10
392.0627453613
 20
21.3489285278
 10
392.0627453613
 20
21.503092804
 10
392.2593127441
 20
21.6572602844
 10
392.3575964355
 20
21.6572602844
 10
392.455880127
 20
21.6572602844
 10
392.652421875
 20
21.3489285278
 10
392.652421875
 20
20.4239268494
  0
LINE
  5
322
100
AcDbEntity
  8
0
100
AcDbLine
 62
2
  6
CONTINUOUS
 10
393.9300842285
 20
22.273927002
 11
393.9300842285
 21
22.1197595215
  0
LINE
  5
323
100
AcDbEntity
  8
0
100
AcDbLine
 62
2
  6
CONTINUOUS
 10
393.9300842285
 20
21.6572602844
 11
393.9300842285
 21
20.4239268494
  0
LWPOLYLINE
  5
324
100
AcDbEntity
  8
0
100
AcDbPolyline
 62
2
  6
CONTINUOUS
 90
10
 70
0
 10
395.1094628906
 20
21.1947610474
 10
395.3060302734
 20
21.503092804
 10
395.5025976562
 20
21.6572602844
 10
395.6991650391
 20
21.503092804
 10
395.8957067871
 20
21.1947610474
 10
395.8957067871
 20
20.8864260864
 10
395.6991650391
 20
20.5780943298
 10
395.5025976562
 20
20.4239268494
 10
395.3060302734
 20
20.5780943298
 10
395.1094628906
 20
20.8864260864
  0
LINE
  5
325
100
AcDbEntity
  8
0
100
AcDbLine
 62
2
  6
CONTINUOUS
 10
395.1094628906
 20
22.273927002
 11
395.1094628906
 21
20.4239268494
  0
LINE
  5
326
100
AcDbEntity
  8
0
100
AcDbLine
 62
2
  6
CONTINUOUS
 10
397.0750854492
 20
22.273927002
 11
397.0750854492
 21
22.1197595215
  0
LINE
  5
327
100
AcDbEntity
  8
0
100
AcDbLine
 62
2
  6
CONTINUOUS
 10
397.0750854492
 20
21.6572602844
 11
397.0750854492
 21
20.4239268494
  0
LINE
  5
328
100
AcDbEntity
  8
0
100
AcDbLine
 62
2
  6
CONTINUOUS
 10
398.647598877
 20
20.4239268494
 11
398.647598877
 21
22.273927002
  0
LINE
  5
329
100
AcDbEntity
  8
0
100
AcDbLine
 62
2
  6
CONTINUOUS
 10
398.3527478027
 20
21.503092804
 11
398.9424243164
 21
21.503092804
  0
LWPOLYLINE
  5
32A
100
AcDbEntity
  8
0
100
AcDbPolyline
 62
2
  6
CONTINUOUS
 90
11
 70
0
 10
400.5149377441
 20
20.7322618103
 10
400.4166540527
 20
20.5780943298
 10
400.2200866699
 20
20.4239268494
 10
400.0235192871
 20
20.5780943298
 10
399.8269775391
 20
20.8864260864
 10
399.8269775391
 20
21.1947610474
 10
400.0235192871
 20
21.503092804
 10
400.2200866699
 20
21.6572602844
 10
400.4166540527
 20
21.503092804
 10
400.5149377441
 20
21.1947610474
 10
399.8269775391
 20
21.1947610474
  0
LWPOLYLINE
  5
32B
100
AcDbEntity
  8
0
100
AcDbPolyline
 62
2
  6
CONTINUOUS
 90
10
 70
0
 10
402.1857092285
 20
20.8864260864
 10
401.9891418457
 20
20.5780943298
 10
401.7926000977
 20
20.4239268494
 10
401.5960327148
 20
20.5780943298
 10
401.399465332
 20
20.8864260864
 10
401.399465332
 20
21.1947610474
 10
401.5960327148
 20
21.503092804
 10
401.7926000977
 20
21.6572602844
 10
401.9891418457
 20
21.503092804
 10
402.1857092285
 20
21.1947610474
  0
LINE
  5
32C
100
AcDbEntity
  8
0
100
AcDbLine
 62
2
  6
CONTINUOUS
 10
402.1857092285
 20
22.273927002
 11
402.1857092285
 21
20.4239268494
  0
LWPOLYLINE
  5
32D
100
AcDbEntity
  8
0
100
AcDbPolyline
 62
2
  6
CONTINUOUS
 90
5
 70
0
 10
321.1036889648
 20
18.8822616577
 10
321.3002563477
 20
17.6489282227
 10
321.5950817871
 20
18.8822616577
 10
321.7916491699
 20
17.6489282227
 10
322.0865002441
 20
18.8822616577
  0
LINE
  5
32E
100
AcDbEntity
  8
0
100
AcDbLine
 62
2
  6
CONTINUOUS
 10
323.1675952148
 20
19.4989283752
 11
323.1675952148
 21
19.3447608948
  0
LINE
  5
32F
100
AcDbEntity
  8
0
100
AcDbLine
 62
2
  6
CONTINUOUS
 10
323.1675952148
 20
18.8822616577
 11
323.1675952148
 21
17.6489282227
  0
LINE
  5
330
100
AcDbEntity
  8
0
100
AcDbLine
 62
2
  6
CONTINUOUS
 10
324.7400830078
 20
17.6489282227
 11
324.7400830078
 21
19.4989283752
  0
LINE
  5
331
100
AcDbEntity
  8
0
100
AcDbLine
 62
2
  6
CONTINUOUS
 10
324.4452575684
 20
18.7280941772
 11
325.034934082
 21
18.7280941772
  0
LINE
  5
332
100
AcDbEntity
  8
0
100
AcDbLine
 62
2
  6
CONTINUOUS
 10
326.0177453613
 20
17.6489282227
 11
326.0177453613
 21
19.4989283752
  0
LWPOLYLINE
  5
333
100
AcDbEntity
  8
0
100
AcDbPolyline
 62
2
  6
CONTINUOUS
 90
7
 70
0
 10
326.0177453613
 20
18.5739266968
 10
326.0177453613
 20
18.7280941772
 10
326.2143127441
 20
18.8822616577
 10
326.3125964355
 20
18.8822616577
 10
326.410880127
 20
18.8822616577
 10
326.607421875
 20
18.5739266968
 10
326.607421875
 20
17.6489282227
  0
LWPOLYLINE
  5
334
100
AcDbEntity
  8
0
100
AcDbPolyline
 62
2
  6
CONTINUOUS
 90
11
 70
0
 10
328.2782189941
 20
18.1114274597
 10
328.0816516113
 20
17.8030924988
 10
327.8850842285
 20
17.6489282227
 10
327.6885168457
 20
17.8030924988
 10
327.4919750977
 20
18.1114274597
 10
327.4919750977
 20
18.4197592163
 10
327.6885168457
 20
18.7280941772
 10
327.8850842285
 20
18.8822616577
 10
328.0816516113
 20
18.7280941772
 10
328.2782189941
 20
18.4197592163
 10
328.2782189941
 20
18.1114274597
  0
LWPOLYLINE
  5
335
100
AcDbEntity
  8
0
100
AcDbPolyline
 62
2
  6
CONTINUOUS
 90
5
 70
0
 10
329.162746582
 20
18.8822616577
 10
329.162746582
 20
17.9572599792
 10
329.3593139648
 20
17.6489282227
 10
329.5558813477
 20
17.6489282227
 10
329.7524230957
 20
17.9572599792
  0
LINE
  5
336
100
AcDbEntity
  8
0
100
AcDbLine
 62
2
  6
CONTINUOUS
 10
329.7524230957
 20
18.8822616577
 11
329.7524230957
 21
17.6489282227
  0
LINE
  5
337
100
AcDbEntity
  8
0
100
AcDbLine
 62
2
  6
CONTINUOUS
 10
331.0300854492
 20
17.6489282227
 11
331.0300854492
 21
19.4989283752
  0
LINE
  5
338
100
AcDbEntity
  8
0
100
AcDbLine
 62
2
  6
CONTINUOUS
 10
330.735234375
 20
18.7280941772
 11
331.3249365234
 21
18.7280941772
  0
LWPOLYLINE
  5
339
100
AcDbEntity
  8
0
100
AcDbPolyline
 62
2
  6
CONTINUOUS
 90
10
 70
0
 10
333.7819775391
 20
18.4197592163
 10
333.9785192871
 20
18.7280941772
 10
334.1750866699
 20
18.8822616577
 10
334.3716540527
 20
18.7280941772
 10
334.5682214355
 20
18.4197592163
 10
334.5682214355
 20
18.1114274597
 10
334.3716540527
 20
17.8030924988
 10
334.1750866699
 20
17.6489282227
 10
333.9785192871
 20
17.6489282227
 10
333.7819775391
 20
18.1114274597
  0
LINE
  5
33A
100
AcDbEntity
  8
0
100
AcDbLine
 62
2
  6
CONTINUOUS
 10
333.7819775391
 20
18.8822616577
 11
333.7819775391
 21
17.0322615051
  0
LINE
  5
33B
100
AcDbEntity
  8
0
100
AcDbLine
 62
2
  6
CONTINUOUS
 10
335.4527490234
 20
17.6489282227
 11
335.4527490234
 21
18.8822616577
  0
LWPOLYLINE
  5
33C
100
AcDbEntity
  8
0
100
AcDbPolyline
 62
2
  6
CONTINUOUS
 90
4
 70
0
 10
335.4527490234
 20
18.5739266968
 10
335.6493164062
 20
18.8822616577
 10
335.8458837891
 20
18.8822616577
 10
335.9441418457
 20
18.7280941772
  0
LINE
  5
33D
100
AcDbEntity
  8
0
100
AcDbLine
 62
2
  6
CONTINUOUS
 10
337.3200878906
 20
19.4989283752
 11
337.3200878906
 21
19.3447608948
  0
LINE
  5
33E
100
AcDbEntity
  8
0
100
AcDbLine
 62
2
  6
CONTINUOUS
 10
337.3200878906
 20
18.8822616577
 11
337.3200878906
 21
17.6489282227
  0
LWPOLYLINE
  5
33F
100
AcDbEntity
  8
0
100
AcDbPolyline
 62
2
  6
CONTINUOUS
 90
11
 70
0
 10
339.2857104492
 20
18.1114274597
 10
339.0891430664
 20
17.8030924988
 10
338.8926013184
 20
17.6489282227
 10
338.6960339355
 20
17.8030924988
 10
338.4994665527
 20
18.1114274597
 10
338.4994665527
 20
18.4197592163
 10
338.6960339355
 20
18.7280941772
 10
338.8926013184
 20
18.8822616577
 10
339.0891430664
 20
18.7280941772
 10
339.2857104492
 20
18.4197592163
 10
339.2857104492
 20
18.1114274597
  0
LINE
  5
340
100
AcDbEntity
  8
0
100
AcDbLine
 62
2
  6
CONTINUOUS
 10
340.1702380371
 20
17.6489282227
 11
340.1702380371
 21
18.8822616577
  0
LWPOLYLINE
  5
341
100
AcDbEntity
  8
0
100
AcDbPolyline
 62
2
  6
CONTINUOUS
 90
4
 70
0
 10
340.1702380371
 20
18.5739266968
 10
340.3668054199
 20
18.8822616577
 10
340.5633728027
 20
18.8822616577
 10
340.6616564941
 20
18.7280941772
  0
LWPOLYLINE
  5
342
100
AcDbEntity
  8
0
100
AcDbPolyline
 62
2
  6
CONTINUOUS
 90
10
 70
0
 10
344.0032250977
 20
18.1114274597
 10
343.8066577148
 20
17.8030924988
 10
343.610090332
 20
17.6489282227
 10
343.4135229492
 20
17.8030924988
 10
343.2169555664
 20
18.1114274597
 10
343.2169555664
 20
18.4197592163
 10
343.4135229492
 20
18.7280941772
 10
343.610090332
 20
18.8822616577
 10
343.8066577148
 20
18.7280941772
 10
344.0032250977
 20
18.4197592163
  0
LINE
  5
343
100
AcDbEntity
  8
0
100
AcDbLine
 62
2
  6
CONTINUOUS
 10
344.0032250977
 20
18.8822616577
 11
344.0032250977
 21
17.6489282227
  0
LWPOLYLINE
  5
344
100
AcDbEntity
  8
0
100
AcDbPolyline
 62
2
  6
CONTINUOUS
 90
5
 70
0
 10
344.8877526855
 20
18.8822616577
 10
344.8877526855
 20
17.9572599792
 10
345.0843200684
 20
17.6489282227
 10
345.2808618164
 20
17.6489282227
 10
345.4774291992
 20
17.9572599792
  0
LINE
  5
345
100
AcDbEntity
  8
0
100
AcDbLine
 62
2
  6
CONTINUOUS
 10
345.4774291992
 20
18.8822616577
 11
345.4774291992
 21
17.6489282227
  0
LINE
  5
346
100
AcDbEntity
  8
0
100
AcDbLine
 62
2
  6
CONTINUOUS
 10
346.7550915527
 20
17.6489282227
 11
346.7550915527
 21
19.4989283752
  0
LINE
  5
347
100
AcDbEntity
  8
0
100
AcDbLine
 62
2
  6
CONTINUOUS
 10
346.4602404785
 20
18.7280941772
 11
347.049942627
 21
18.7280941772
  0
LINE
  5
348
100
AcDbEntity
  8
0
100
AcDbLine
 62
2
  6
CONTINUOUS
 10
348.0327539062
 20
17.6489282227
 11
348.0327539062
 21
19.4989283752
  0
LWPOLYLINE
  5
349
100
AcDbEntity
  8
0
100
AcDbPolyline
 62
2
  6
CONTINUOUS
 90
7
 70
0
 10
348.0327539062
 20
18.5739266968
 10
348.0327539062
 20
18.7280941772
 10
348.2293212891
 20
18.8822616577
 10
348.3275793457
 20
18.8822616577
 10
348.4258630371
 20
18.8822616577
 10
348.6224304199
 20
18.5739266968
 10
348.6224304199
 20
17.6489282227
  0
LWPOLYLINE
  5
34A
100
AcDbEntity
  8
0
100
AcDbPolyline
 62
2
  6
CONTINUOUS
 90
11
 70
0
 10
350.2932275391
 20
18.1114274597
 10
350.0966601562
 20
17.8030924988
 10
349.9000927734
 20
17.6489282227
 10
349.7035253906
 20
17.8030924988
 10
349.5069580078
 20
18.1114274597
 10
349.5069580078
 20
18.4197592163
 10
349.7035253906
 20
18.7280941772
 10
349.9000927734
 20
18.8822616577
 10
350.0966601562
 20
18.7280941772
 10
350.2932275391
 20
18.4197592163
 10
350.2932275391
 20
18.1114274597
  0
LINE
  5
34B
100
AcDbEntity
  8
0
100
AcDbLine
 62
2
  6
CONTINUOUS
 10
351.177755127
 20
17.6489282227
 11
351.177755127
 21
18.8822616577
  0
LWPOLYLINE
  5
34C
100
AcDbEntity
  8
0
100
AcDbPolyline
 62
2
  6
CONTINUOUS
 90
4
 70
0
 10
351.177755127
 20
18.5739266968
 10
351.374296875
 20
18.8822616577
 10
351.5708642578
 20
18.8822616577
 10
351.6691479492
 20
18.7280941772
  0
LINE
  5
34D
100
AcDbEntity
  8
0
100
AcDbLine
 62
2
  6
CONTINUOUS
 10
353.0450939941
 20
19.4989283752
 11
353.0450939941
 21
19.3447608948
  0
LINE
  5
34E
100
AcDbEntity
  8
0
100
AcDbLine
 62
2
  6
CONTINUOUS
 10
353.0450939941
 20
18.8822616577
 11
353.0450939941
 21
17.6489282227
  0
LWPOLYLINE
  5
34F
100
AcDbEntity
  8
0
100
AcDbPolyline
 62
2
  6
CONTINUOUS
 90
14
 70
0
 10
354.8141491699
 20
18.7280941772
 10
354.7158654785
 20
18.8822616577
 10
354.5192980957
 20
18.8822616577
 10
354.4210400391
 20
18.7280941772
 10
354.4210400391
 20
18.5739266968
 10
354.6175817871
 20
18.4197592163
 10
354.8141491699
 20
18.2655949402
 10
354.9124328613
 20
18.1114274597
 10
354.9124328613
 20
17.9572599792
 10
354.8141491699
 20
17.8030924988
 10
354.7158654785
 20
17.6489282227
 10
354.5192980957
 20
17.6489282227
 10
354.4210400391
 20
17.8030924988
 10
354.3227563477
 20
17.9572599792
  0
LWPOLYLINE
  5
350
100
AcDbEntity
  8
0
100
AcDbPolyline
 62
2
  6
CONTINUOUS
 90
10
 70
0
 10
356.5832043457
 20
18.1114274597
 10
356.3866625977
 20
17.8030924988
 10
356.1900952148
 20
17.6489282227
 10
355.993527832
 20
17.8030924988
 10
355.7969604492
 20
18.1114274597
 10
355.7969604492
 20
18.4197592163
 10
355.993527832
 20
18.7280941772
 10
356.1900952148
 20
18.8822616577
 10
356.3866625977
 20
18.7280941772
 10
356.5832043457
 20
18.4197592163
  0
LINE
  5
351
100
AcDbEntity
  8
0
100
AcDbLine
 62
2
  6
CONTINUOUS
 10
356.5832043457
 20
18.8822616577
 11
356.5832043457
 21
17.6489282227
  0
LINE
  5
352
100
AcDbEntity
  8
0
100
AcDbLine
 62
2
  6
CONTINUOUS
 10
357.7625830078
 20
17.6489282227
 11
357.7625830078
 21
19.4989283752
  0
LINE
  5
353
100
AcDbEntity
  8
0
100
AcDbLine
 62
2
  6
CONTINUOUS
 10
357.4677575684
 20
18.7280941772
 11
358.057434082
 21
18.7280941772
  0
LINE
  5
354
100
AcDbEntity
  8
0
100
AcDbLine
 62
2
  6
CONTINUOUS
 10
359.3350964355
 20
19.4989283752
 11
359.3350964355
 21
19.3447608948
  0
LINE
  5
355
100
AcDbEntity
  8
0
100
AcDbLine
 62
2
  6
CONTINUOUS
 10
359.3350964355
 20
18.8822616577
 11
359.3350964355
 21
17.6489282227
  0
LWPOLYLINE
  5
356
100
AcDbEntity
  8
0
100
AcDbPolyline
 62
2
  6
CONTINUOUS
 90
11
 70
0
 10
361.3007189941
 20
18.1114274597
 10
361.1041516113
 20
17.8030924988
 10
360.9075842285
 20
17.6489282227
 10
360.7110168457
 20
17.8030924988
 10
360.5144750977
 20
18.1114274597
 10
360.5144750977
 20
18.4197592163
 10
360.7110168457
 20
18.7280941772
 10
360.9075842285
 20
18.8822616577
 10
361.1041516113
 20
18.7280941772
 10
361.3007189941
 20
18.4197592163
 10
361.3007189941
 20
18.1114274597
  0
LINE
  5
357
100
AcDbEntity
  8
0
100
AcDbLine
 62
2
  6
CONTINUOUS
 10
362.185246582
 20
17.6489282227
 11
362.185246582
 21
18.8822616577
  0
LWPOLYLINE
  5
358
100
AcDbEntity
  8
0
100
AcDbPolyline
 62
2
  6
CONTINUOUS
 90
5
 70
0
 10
362.185246582
 20
18.5739266968
 10
362.3818139648
 20
18.8822616577
 10
362.5783813477
 20
18.8822616577
 10
362.7749230957
 20
18.5739266968
 10
362.7749230957
 20
17.6489282227
  0
LWPOLYLINE
  5
359
100
AcDbEntity
  8
0
100
AcDbPolyline
 62
2
  6
CONTINUOUS
 90
11
 70
0
 10
366.0182080078
 20
18.1114274597
 10
365.821640625
 20
17.8030924988
 10
365.625098877
 20
17.6489282227
 10
365.4285314941
 20
17.8030924988
 10
365.2319641113
 20
18.1114274597
 10
365.2319641113
 20
18.4197592163
 10
365.4285314941
 20
18.7280941772
 10
365.625098877
 20
18.8822616577
 10
365.821640625
 20
18.7280941772
 10
366.0182080078
 20
18.4197592163
 10
366.0182080078
 20
18.1114274597
  0
LWPOLYLINE
  5
35A
100
AcDbEntity
  8
0
100
AcDbPolyline
 62
2
  6
CONTINUOUS
 90
5
 70
0
 10
367.1975866699
 20
17.6489282227
 10
367.1975866699
 20
19.1905934143
 10
367.3941540527
 20
19.4989283752
 10
367.4924377441
 20
19.4989283752
 10
367.5907214355
 20
19.3447608948
  0
LINE
  5
35B
100
AcDbEntity
  8
0
100
AcDbLine
 62
2
  6
CONTINUOUS
 10
367.0010192871
 20
18.7280941772
 11
367.3941540527
 21
18.7280941772
  0
LWPOLYLINE
  5
35C
100
AcDbEntity
  8
0
100
AcDbPolyline
 62
2
  6
CONTINUOUS
 90
3
 70
0
 10
369.949453125
 20
19.4989283752
 10
369.949453125
 20
17.6489282227
 10
370.7357226563
 20
17.6489282227
  0
LWPOLYLINE
  5
35D
100
AcDbEntity
  8
0
100
AcDbPolyline
 62
2
  6
CONTINUOUS
 90
3
 70
0
 10
374.6669677734
 20
19.4989283752
 10
374.6669677734
 20
17.6489282227
 10
375.4532116699
 20
17.6489282227
  0
LWPOLYLINE
  5
35E
100
AcDbEntity
  8
0
100
AcDbPolyline
 62
2
  6
CONTINUOUS
 90
5
 70
0
 10
376.3377392578
 20
18.8822616577
 10
376.3377392578
 20
17.9572599792
 10
376.5343066406
 20
17.6489282227
 10
376.7308740234
 20
17.6489282227
 10
376.9274414063
 20
17.9572599792
  0
LINE
  5
35F
100
AcDbEntity
  8
0
100
AcDbLine
 62
2
  6
CONTINUOUS
 10
376.9274414063
 20
18.8822616577
 11
376.9274414063
 21
17.6489282227
  0
LWPOLYLINE
  5
360
100
AcDbEntity
  8
0
100
AcDbPolyline
 62
2
  6
CONTINUOUS
 90
8
 70
0
 10
378.4016455078
 20
17.8030924988
 10
378.205078125
 20
17.6489282227
 10
378.008536377
 20
17.8030924988
 10
377.8119689941
 20
18.1114274597
 10
377.8119689941
 20
18.4197592163
 10
378.008536377
 20
18.7280941772
 10
378.205078125
 20
18.8822616577
 10
378.4016455078
 20
18.7280941772
  0
LWPOLYLINE
  5
361
100
AcDbEntity
  8
0
100
AcDbPolyline
 62
2
  6
CONTINUOUS
 90
11
 70
0
 10
380.072442627
 20
17.9572599792
 10
379.9741589355
 20
17.8030924988
 10
379.7775915527
 20
17.6489282227
 10
379.5810241699
 20
17.8030924988
 10
379.3844567871
 20
18.1114274597
 10
379.3844567871
 20
18.4197592163
 10
379.5810241699
 20
18.7280941772
 10
379.7775915527
 20
18.8822616577
 10
379.9741589355
 20
18.7280941772
 10
380.072442627
 20
18.4197592163
 10
379.3844567871
 20
18.4197592163
  0
LWPOLYLINE
  5
362
100
AcDbEntity
  8
0
100
AcDbPolyline
 62
2
  6
CONTINUOUS
 90
14
 70
0
 10
384.6916479492
 20
18.7280941772
 10
384.5933642578
 20
18.8822616577
 10
384.396796875
 20
18.8822616577
 10
384.2985388184
 20
18.7280941772
 10
384.2985388184
 20
18.5739266968
 10
384.4950805664
 20
18.4197592163
 10
384.6916479492
 20
18.2655949402
 10
384.7899316406
 20
18.1114274597
 10
384.7899316406
 20
17.9572599792
 10
384.6916479492
 20
17.8030924988
 10
384.5933642578
 20
17.6489282227
 10
384.396796875
 20
17.6489282227
 10
384.2985388184
 20
17.8030924988
 10
384.200255127
 20
17.9572599792
  0
LWPOLYLINE
  5
363
100
AcDbEntity
  8
0
100
AcDbPolyline
 62
2
  6
CONTINUOUS
 90
4
 70
0
 10
386.0675939941
 20
17.6489282227
 10
385.9693103027
 20
17.6489282227
 10
385.9693103027
 20
17.8030924988
 10
386.0675939941
 20
17.6489282227
  0
LINE
  5
364
100
AcDbEntity
  8
0
100
AcDbLine
 62
2
  6
CONTINUOUS
 10
387.3452563477
 20
17.6489282227
 11
387.3452563477
 21
18.8822616577
  0
LWPOLYLINE
  5
365
100
AcDbEntity
  8
0
100
AcDbPolyline
 62
2
  6
CONTINUOUS
 90
4
 70
0
 10
387.3452563477
 20
18.5739266968
 10
387.5417980957
 20
18.8822616577
 10
387.7383654785
 20
18.8822616577
 10
387.8366491699
 20
18.7280941772
  0
LWPOLYLINE
  5
366
100
AcDbEntity
  8
0
100
AcDbPolyline
 62
2
  6
CONTINUOUS
 90
4
 70
0
 10
389.2125952148
 20
17.6489282227
 10
389.1143115234
 20
17.6489282227
 10
389.1143115234
 20
17.8030924988
 10
389.2125952148
 20
17.6489282227
  0
LINE
  5
367
100
AcDbEntity
  8
0
100
AcDbLine
 62
2
  6
CONTINUOUS
 10
390.7850830078
 20
17.6489282227
 11
390.7850830078
 21
19.4989283752
  0
LWPOLYLINE
  5
368
100
AcDbEntity
  8
0
100
AcDbPolyline
 62
2
  6
CONTINUOUS
 90
4
 70
0
 10
392.3575964355
 20
17.6489282227
 10
392.2593127441
 20
17.6489282227
 10
392.2593127441
 20
17.8030924988
 10
392.3575964355
 20
17.6489282227
  0
LWPOLYLINE
  5
369
100
AcDbEntity
  8
0
100
AcDbPolyline
 62
2
  6
CONTINUOUS
 90
5
 70
0
 10
393.9300842285
 20
17.6489282227
 10
393.8318005371
 20
17.8030924988
 10
393.9300842285
 20
17.8030924988
 10
393.9300842285
 20
17.6489282227
 10
393.7335168457
 20
17.3405932617
  0
LINE
  5
36A
100
AcDbEntity
  8
0
100
AcDbLine
 62
2
  6
CONTINUOUS
 10
321.5950817871
 20
16.7239265442
 11
321.5950817871
 21
16.5697590637
  0
LINE
  5
36B
100
AcDbEntity
  8
0
100
AcDbLine
 62
2
  6
CONTINUOUS
 10
321.5950817871
 20
16.1072598267
 11
321.5950817871
 21
14.8739263916
  0
LINE
  5
36C
100
AcDbEntity
  8
0
100
AcDbLine
 62
2
  6
CONTINUOUS
 10
322.8727441406
 20
14.8739263916
 11
322.8727441406
 21
16.1072598267
  0
LWPOLYLINE
  5
36D
100
AcDbEntity
  8
0
100
AcDbPolyline
 62
2
  6
CONTINUOUS
 90
5
 70
0
 10
322.8727441406
 20
15.7989280701
 10
323.0693115234
 20
16.1072598267
 10
323.2658789063
 20
16.1072598267
 10
323.4624462891
 20
15.7989280701
 10
323.4624462891
 20
14.8739263916
  0
LWPOLYLINE
  5
36E
100
AcDbEntity
  8
0
100
AcDbPolyline
 62
2
  6
CONTINUOUS
 90
10
 70
0
 10
326.7057055664
 20
15.3364256287
 10
326.5091638184
 20
15.0280938721
 10
326.3125964355
 20
14.8739263916
 10
326.1160290527
 20
15.0280938721
 10
325.9194616699
 20
15.3364256287
 10
325.9194616699
 20
15.6447605896
 10
326.1160290527
 20
15.9530923462
 10
326.3125964355
 20
16.1072598267
 10
326.5091638184
 20
15.9530923462
 10
326.7057055664
 20
15.6447605896
  0
LINE
  5
36F
100
AcDbEntity
  8
0
100
AcDbLine
 62
2
  6
CONTINUOUS
 10
326.7057055664
 20
16.1072598267
 11
326.7057055664
 21
14.8739263916
  0
LWPOLYLINE
  5
370
100
AcDbEntity
  8
0
100
AcDbPolyline
 62
2
  6
CONTINUOUS
 90
8
 70
0
 10
328.0816516113
 20
15.0280938721
 10
327.8850842285
 20
14.8739263916
 10
327.6885168457
 20
15.0280938721
 10
327.4919750977
 20
15.3364256287
 10
327.4919750977
 20
15.6447605896
 10
327.6885168457
 20
15.9530923462
 10
327.8850842285
 20
16.1072598267
 10
328.0816516113
 20
15.9530923462
  0
LWPOLYLINE
  5
371
100
AcDbEntity
  8
0
100
AcDbPolyline
 62
2
  6
CONTINUOUS
 90
8
 70
0
 10
329.6541650391
 20
15.0280938721
 10
329.4575976563
 20
14.8739263916
 10
329.2610302734
 20
15.0280938721
 10
329.0644628906
 20
15.3364256287
 10
329.0644628906
 20
15.6447605896
 10
329.2610302734
 20
15.9530923462
 10
329.4575976563
 20
16.1072598267
 10
329.6541650391
 20
15.9530923462
  0
LWPOLYLINE
  5
372
100
AcDbEntity
  8
0
100
AcDbPolyline
 62
2
  6
CONTINUOUS
 90
11
 70
0
 10
331.4232202148
 20
15.3364256287
 10
331.226652832
 20
15.0280938721
 10
331.0300854492
 20
14.8739263916
 10
330.8335180664
 20
15.0280938721
 10
330.6369763184
 20
15.3364256287
 10
330.6369763184
 20
15.6447605896
 10
330.8335180664
 20
15.9530923462
 10
331.0300854492
 20
16.1072598267
 10
331.226652832
 20
15.9530923462
 10
331.4232202148
 20
15.6447605896
 10
331.4232202148
 20
15.3364256287
  0
LINE
  5
373
100
AcDbEntity
  8
0
100
AcDbLine
 62
2
  6
CONTINUOUS
 10
332.3077478027
 20
14.8739263916
 11
332.3077478027
 21
16.1072598267
  0
LWPOLYLINE
  5
374
100
AcDbEntity
  8
0
100
AcDbPolyline
 62
2
  6
CONTINUOUS
 90
4
 70
0
 10
332.3077478027
 20
15.7989280701
 10
332.5043151855
 20
16.1072598267
 10
332.7008825684
 20
16.1072598267
 10
332.799140625
 20
15.9530923462
  0
LWPOLYLINE
  5
375
100
AcDbEntity
  8
0
100
AcDbPolyline
 62
2
  6
CONTINUOUS
 90
10
 70
0
 10
334.5682214355
 20
15.3364256287
 10
334.3716540527
 20
15.0280938721
 10
334.1750866699
 20
14.8739263916
 10
333.9785192871
 20
15.0280938721
 10
333.7819775391
 20
15.3364256287
 10
333.7819775391
 20
15.6447605896
 10
333.9785192871
 20
15.9530923462
 10
334.1750866699
 20
16.1072598267
 10
334.3716540527
 20
15.9530923462
 10
334.5682214355
 20
15.6447605896
  0
LINE
  5
376
100
AcDbEntity
  8
0
100
AcDbLine
 62
2
  6
CONTINUOUS
 10
334.5682214355
 20
16.7239265442
 11
334.5682214355
 21
14.8739263916
  0
LWPOLYLINE
  5
377
100
AcDbEntity
  8
0
100
AcDbPolyline
 62
2
  6
CONTINUOUS
 90
10
 70
0
 10
336.1407092285
 20
15.3364256287
 10
335.9441418457
 20
15.0280938721
 10
335.7476000977
 20
14.8739263916
 10
335.5510327148
 20
15.0280938721
 10
335.354465332
 20
15.3364256287
 10
335.354465332
 20
15.6447605896
 10
335.5510327148
 20
15.9530923462
 10
335.7476000977
 20
16.1072598267
 10
335.9441418457
 20
15.9530923462
 10
336.1407092285
 20
15.6447605896
  0
LINE
  5
378
100
AcDbEntity
  8
0
100
AcDbLine
 62
2
  6
CONTINUOUS
 10
336.1407092285
 20
16.1072598267
 11
336.1407092285
 21
14.8739263916
  0
LINE
  5
379
100
AcDbEntity
  8
0
100
AcDbLine
 62
2
  6
CONTINUOUS
 10
337.0252368164
 20
14.8739263916
 11
337.0252368164
 21
16.1072598267
  0
LWPOLYLINE
  5
37A
100
AcDbEntity
  8
0
100
AcDbPolyline
 62
2
  6
CONTINUOUS
 90
5
 70
0
 10
337.0252368164
 20
15.7989280701
 10
337.2218041992
 20
16.1072598267
 10
337.418371582
 20
16.1072598267
 10
337.6149389648
 20
15.7989280701
 10
337.6149389648
 20
14.8739263916
  0
LWPOLYLINE
  5
37B
100
AcDbEntity
  8
0
100
AcDbPolyline
 62
2
  6
CONTINUOUS
 90
8
 70
0
 10
339.0891430664
 20
15.0280938721
 10
338.8926013184
 20
14.8739263916
 10
338.6960339355
 20
15.0280938721
 10
338.4994665527
 20
15.3364256287
 10
338.4994665527
 20
15.6447605896
 10
338.6960339355
 20
15.9530923462
 10
338.8926013184
 20
16.1072598267
 10
339.0891430664
 20
15.9530923462
  0
LWPOLYLINE
  5
37C
100
AcDbEntity
  8
0
100
AcDbPolyline
 62
2
  6
CONTINUOUS
 90
11
 70
0
 10
340.7599401855
 20
15.1822613525
 10
340.6616564941
 20
15.0280938721
 10
340.4650891113
 20
14.8739263916
 10
340.2685217285
 20
15.0280938721
 10
340.0719543457
 20
15.3364256287
 10
340.0719543457
 20
15.6447605896
 10
340.2685217285
 20
15.9530923462
 10
340.4650891113
 20
16.1072598267
 10
340.6616564941
 20
15.9530923462
 10
340.7599401855
 20
15.6447605896
 10
340.0719543457
 20
15.6447605896
  0
LWPOLYLINE
  5
37D
100
AcDbEntity
  8
0
100
AcDbPolyline
 62
2
  6
CONTINUOUS
 90
5
 70
0
 10
343.118671875
 20
16.1072598267
 10
343.3152392578
 20
14.8739263916
 10
343.610090332
 20
16.1072598267
 10
343.8066577148
 20
14.8739263916
 10
344.1015087891
 20
16.1072598267
  0
LINE
  5
37E
100
AcDbEntity
  8
0
100
AcDbLine
 62
2
  6
CONTINUOUS
 10
345.182578125
 20
16.7239265442
 11
345.182578125
 21
16.5697590637
  0
LINE
  5
37F
100
AcDbEntity
  8
0
100
AcDbLine
 62
2
  6
CONTINUOUS
 10
345.182578125
 20
16.1072598267
 11
345.182578125
 21
14.8739263916
  0
LINE
  5
380
100
AcDbEntity
  8
0
100
AcDbLine
 62
2
  6
CONTINUOUS
 10
346.7550915527
 20
14.8739263916
 11
346.7550915527
 21
16.7239265442
  0
LINE
  5
381
100
AcDbEntity
  8
0
100
AcDbLine
 62
2
  6
CONTINUOUS
 10
346.4602404785
 20
15.9530923462
 11
347.049942627
 21
15.9530923462
  0
LINE
  5
382
100
AcDbEntity
  8
0
100
AcDbLine
 62
2
  6
CONTINUOUS
 10
348.0327539062
 20
14.8739263916
 11
348.0327539062
 21
16.7239265442
  0
LWPOLYLINE
  5
383
100
AcDbEntity
  8
0
100
AcDbPolyline
 62
2
  6
CONTINUOUS
 90
7
 70
0
 10
348.0327539062
 20
15.7989280701
 10
348.0327539062
 20
15.9530923462
 10
348.2293212891
 20
16.1072598267
 10
348.3275793457
 20
16.1072598267
 10
348.4258630371
 20
16.1072598267
 10
348.6224304199
 20
15.7989280701
 10
348.6224304199
 20
14.8739263916
  0
LINE
  5
384
100
AcDbEntity
  8
0
100
AcDbLine
 62
2
  6
CONTINUOUS
 10
351.4725805664
 20
14.8739263916
 11
351.4725805664
 21
16.7239265442
  0
LINE
  5
385
100
AcDbEntity
  8
0
100
AcDbLine
 62
2
  6
CONTINUOUS
 10
351.177755127
 20
15.9530923462
 11
351.7674316406
 21
15.9530923462
  0
LINE
  5
386
100
AcDbEntity
  8
0
100
AcDbLine
 62
2
  6
CONTINUOUS
 10
352.7502429199
 20
14.8739263916
 11
352.7502429199
 21
16.7239265442
  0
LWPOLYLINE
  5
387
100
AcDbEntity
  8
0
100
AcDbPolyline
 62
2
  6
CONTINUOUS
 90
7
 70
0
 10
352.7502429199
 20
15.7989280701
 10
352.7502429199
 20
15.9530923462
 10
352.9468103027
 20
16.1072598267
 10
353.0450939941
 20
16.1072598267
 10
353.1433776855
 20
16.1072598267
 10
353.3399450684
 20
15.7989280701
 10
353.3399450684
 20
14.8739263916
  0
LWPOLYLINE
  5
388
100
AcDbEntity
  8
0
100
AcDbPolyline
 62
2
  6
CONTINUOUS
 90
11
 70
0
 10
354.9124328613
 20
15.1822613525
 10
354.8141491699
 20
15.0280938721
 10
354.6175817871
 20
14.8739263916
 10
354.4210400391
 20
15.0280938721
 10
354.2244726562
 20
15.3364256287
 10
354.2244726562
 20
15.6447605896
 10
354.4210400391
 20
15.9530923462
 10
354.6175817871
 20
16.1072598267
 10
354.8141491699
 20
15.9530923462
 10
354.9124328613
 20
15.6447605896
 10
354.2244726562
 20
15.6447605896
  0
LINE
  5
389
100
AcDbEntity
  8
0
100
AcDbLine
 62
2
  6
CONTINUOUS
 10
357.7625830078
 20
14.8739263916
 11
357.7625830078
 21
16.7239265442
  0
LWPOLYLINE
  5
38A
100
AcDbEntity
  8
0
100
AcDbPolyline
 62
2
  6
CONTINUOUS
 90
10
 70
0
 10
359.7282055664
 20
15.3364256287
 10
359.5316638184
 20
15.0280938721
 10
359.3350964355
 20
14.8739263916
 10
359.1385290527
 20
15.0280938721
 10
358.9419616699
 20
15.3364256287
 10
358.9419616699
 20
15.6447605896
 10
359.1385290527
 20
15.9530923462
 10
359.3350964355
 20
16.1072598267
 10
359.5316638184
 20
15.9530923462
 10
359.7282055664
 20
15.6447605896
  0
LINE
  5
38B
100
AcDbEntity
  8
0
100
AcDbLine
 62
2
  6
CONTINUOUS
 10
359.7282055664
 20
16.1072598267
 11
359.7282055664
 21
14.8739263916
  0
LWPOLYLINE
  5
38C
100
AcDbEntity
  8
0
100
AcDbPolyline
 62
2
  6
CONTINUOUS
 90
5
 70
0
 10
360.4161914062
 20
16.1072598267
 10
360.6127587891
 20
14.8739263916
 10
360.9075842285
 20
16.1072598267
 10
361.1041516113
 20
14.8739263916
 10
361.3990026855
 20
16.1072598267
  0
LINE
  5
38D
100
AcDbEntity
  8
0
100
AcDbLine
 62
2
  6
CONTINUOUS
 10
364.0525854492
 20
16.7239265442
 11
364.0525854492
 21
16.5697590637
  0
LINE
  5
38E
100
AcDbEntity
  8
0
100
AcDbLine
 62
2
  6
CONTINUOUS
 10
364.0525854492
 20
16.1072598267
 11
364.0525854492
 21
14.8739263916
  0
LINE
  5
38F
100
AcDbEntity
  8
0
100
AcDbLine
 62
2
  6
CONTINUOUS
 10
365.3302478027
 20
14.8739263916
 11
365.3302478027
 21
16.1072598267
  0
LWPOLYLINE
  5
390
100
AcDbEntity
  8
0
100
AcDbPolyline
 62
2
  6
CONTINUOUS
 90
5
 70
0
 10
365.3302478027
 20
15.7989280701
 10
365.5268151855
 20
16.1072598267
 10
365.7233825684
 20
16.1072598267
 10
365.9199243164
 20
15.7989280701
 10
365.9199243164
 20
14.8739263916
  0
LWPOLYLINE
  5
391
100
AcDbEntity
  8
0
100
AcDbPolyline
 62
2
  6
CONTINUOUS
 90
5
 70
0
 10
368.7701000977
 20
14.8739263916
 10
368.7701000977
 20
16.4155947876
 10
368.9666418457
 20
16.7239265442
 10
369.0649255371
 20
16.7239265442
 10
369.1632092285
 20
16.5697590637
  0
LINE
  5
392
100
AcDbEntity
  8
0
100
AcDbLine
 62
2
  6
CONTINUOUS
 10
368.5735327148
 20
15.9530923462
 11
368.9666418457
 21
15.9530923462
  0
LWPOLYLINE
  5
393
100
AcDbEntity
  8
0
100
AcDbPolyline
 62
2
  6
CONTINUOUS
 90
11
 70
0
 10
370.7357226563
 20
15.3364256287
 10
370.5391552734
 20
15.0280938721
 10
370.3425878906
 20
14.8739263916
 10
370.1460205078
 20
15.0280938721
 10
369.949453125
 20
15.3364256287
 10
369.949453125
 20
15.6447605896
 10
370.1460205078
 20
15.9530923462
 10
370.3425878906
 20
16.1072598267
 10
370.5391552734
 20
15.9530923462
 10
370.7357226563
 20
15.6447605896
 10
370.7357226563
 20
15.3364256287
  0
LINE
  5
394
100
AcDbEntity
  8
0
100
AcDbLine
 62
2
  6
CONTINUOUS
 10
371.6202502441
 20
14.8739263916
 11
371.6202502441
 21
16.1072598267
  0
LWPOLYLINE
  5
395
100
AcDbEntity
  8
0
100
AcDbPolyline
 62
2
  6
CONTINUOUS
 90
4
 70
0
 10
371.6202502441
 20
15.7989280701
 10
371.816817627
 20
16.1072598267
 10
372.013359375
 20
16.1072598267
 10
372.1116430664
 20
15.9530923462
  0
LWPOLYLINE
  5
396
100
AcDbEntity
  8
0
100
AcDbPolyline
 62
2
  6
CONTINUOUS
 90
8
 70
0
 10
373.6841564941
 20
15.0280938721
 10
373.4875891113
 20
14.8739263916
 10
373.2910217285
 20
15.0280938721
 10
373.0944543457
 20
15.3364256287
 10
373.0944543457
 20
15.6447605896
 10
373.2910217285
 20
15.9530923462
 10
373.4875891113
 20
16.1072598267
 10
373.6841564941
 20
15.9530923462
  0
LWPOLYLINE
  5
397
100
AcDbEntity
  8
0
100
AcDbPolyline
 62
2
  6
CONTINUOUS
 90
11
 70
0
 10
375.3549279785
 20
15.1822613525
 10
375.2566442871
 20
15.0280938721
 10
375.0601025391
 20
14.8739263916
 10
374.8635351563
 20
15.0280938721
 10
374.6669677734
 20
15.3364256287
 10
374.6669677734
 20
15.6447605896
 10
374.8635351563
 20
15.9530923462
 10
375.0601025391
 20
16.1072598267
 10
375.2566442871
 20
15.9530923462
 10
375.3549279785
 20
15.6447605896
 10
374.6669677734
 20
15.6447605896
  0
LWPOLYLINE
  5
398
100
AcDbEntity
  8
0
100
AcDbPolyline
 62
2
  6
CONTINUOUS
 90
4
 70
0
 10
376.632590332
 20
14.8739263916
 10
376.5343066406
 20
14.8739263916
 10
376.5343066406
 20
15.0280938721
 10
376.632590332
 20
14.8739263916
  0
LWPOLYLINE
  5
399
100
AcDbEntity
  8
0
100
AcDbPolyline
 62
2
  6
CONTINUOUS
 90
3
 70
0
 10
321.1036889648
 20
12.0989277649
 10
321.5950817871
 20
13.9489279175
 10
322.0865002441
 20
12.0989277649
  0
LINE
  5
39A
100
AcDbEntity
  8
0
100
AcDbLine
 62
2
  6
CONTINUOUS
 10
321.3002563477
 20
12.7155944824
 11
321.8899328613
 21
12.7155944824
  0
LINE
  5
39B
100
AcDbEntity
  8
0
100
AcDbLine
 62
2
  6
CONTINUOUS
 10
323.1675952148
 20
12.0989277649
 11
323.1675952148
 21
13.9489279175
  0
LINE
  5
39C
100
AcDbEntity
  8
0
100
AcDbLine
 62
2
  6
CONTINUOUS
 10
324.7400830078
 20
12.0989277649
 11
324.7400830078
 21
13.9489279175
  0
LINE
  5
39D
100
AcDbEntity
  8
0
100
AcDbLine
 62
2
  6
CONTINUOUS
 10
327.5902587891
 20
12.0989277649
 11
327.5902587891
 21
13.3322612
  0
LWPOLYLINE
  5
39E
100
AcDbEntity
  8
0
100
AcDbPolyline
 62
2
  6
CONTINUOUS
 90
4
 70
0
 10
327.5902587891
 20
13.023926239
 10
327.7868005371
 20
13.3322612
 10
327.9833679199
 20
13.3322612
 10
328.0816516113
 20
13.1780937195
  0
LINE
  5
39F
100
AcDbEntity
  8
0
100
AcDbLine
 62
2
  6
CONTINUOUS
 10
329.4575976563
 20
13.9489279175
 11
329.4575976563
 21
13.794760437
  0
LINE
  5
3A0
100
AcDbEntity
  8
0
100
AcDbLine
 62
2
  6
CONTINUOUS
 10
329.4575976563
 20
13.3322612
 11
329.4575976563
 21
12.0989277649
  0
LWPOLYLINE
  5
3A1
100
AcDbEntity
  8
0
100
AcDbPolyline
 62
2
  6
CONTINUOUS
 90
10
 70
0
 10
331.4232202148
 20
12.561427002
 10
331.226652832
 20
12.2530952454
 10
331.0300854492
 20
12.0989277649
 10
330.8335180664
 20
12.2530952454
 10
330.6369763184
 20
12.561427002
 10
330.6369763184
 20
12.8697619629
 10
330.8335180664
 20
13.1780937195
 10
331.0300854492
 20
13.3322612
 10
331.226652832
 20
13.1780937195
 10
331.4232202148
 20
12.8697619629
  0
LWPOLYLINE
  5
3A2
100
AcDbEntity
  8
0
100
AcDbPolyline
 62
2
  6
CONTINUOUS
 90
6
 70
0
 10
331.4232202148
 20
13.3322612
 10
331.4232202148
 20
11.9447602844
 10
331.3249365234
 20
11.6364285278
 10
331.226652832
 20
11.4822610474
 10
330.8335180664
 20
11.4822610474
 10
330.735234375
 20
11.6364285278
  0
LINE
  5
3A3
100
AcDbEntity
  8
0
100
AcDbLine
 62
2
  6
CONTINUOUS
 10
332.3077478027
 20
12.0989277649
 11
332.3077478027
 21
13.9489279175
  0
LWPOLYLINE
  5
3A4
100
AcDbEntity
  8
0
100
AcDbPolyline
 62
2
  6
CONTINUOUS
 90
7
 70
0
 10
332.3077478027
 20
13.023926239
 10
332.3077478027
 20
13.1780937195
 10
332.5043151855
 20
13.3322612
 10
332.602598877
 20
13.3322612
 10
332.7008825684
 20
13.3322612
 10
332.8974243164
 20
13.023926239
 10
332.8974243164
 20
12.0989277649
  0
LINE
  5
3A5
100
AcDbEntity
  8
0
100
AcDbLine
 62
2
  6
CONTINUOUS
 10
334.1750866699
 20
12.0989277649
 11
334.1750866699
 21
13.9489279175
  0
LINE
  5
3A6
100
AcDbEntity
  8
0
100
AcDbLine
 62
2
  6
CONTINUOUS
 10
333.8802355957
 20
13.1780937195
 11
334.4699377441
 21
13.1780937195
  0
LWPOLYLINE
  5
3A7
100
AcDbEntity
  8
0
100
AcDbPolyline
 62
2
  6
CONTINUOUS
 90
14
 70
0
 10
335.9441418457
 20
13.1780937195
 10
335.8458837891
 20
13.3322612
 10
335.6493164062
 20
13.3322612
 10
335.5510327148
 20
13.1780937195
 10
335.5510327148
 20
13.023926239
 10
335.7476000977
 20
12.8697619629
 10
335.9441418457
 20
12.7155944824
 10
336.0424255371
 20
12.561427002
 10
336.0424255371
 20
12.4072595215
 10
335.9441418457
 20
12.2530952454
 10
335.8458837891
 20
12.0989277649
 10
335.6493164062
 20
12.0989277649
 10
335.5510327148
 20
12.2530952454
 10
335.4527490234
 20
12.4072595215
  0
LINE
  5
3A8
100
AcDbEntity
  8
0
100
AcDbLine
 62
2
  6
CONTINUOUS
 10
338.5977502441
 20
12.0989277649
 11
338.5977502441
 21
13.3322612
  0
LWPOLYLINE
  5
3A9
100
AcDbEntity
  8
0
100
AcDbPolyline
 62
2
  6
CONTINUOUS
 90
4
 70
0
 10
338.5977502441
 20
13.023926239
 10
338.794317627
 20
13.3322612
 10
338.990859375
 20
13.3322612
 10
339.0891430664
 20
13.1780937195
  0
LWPOLYLINE
  5
3AA
100
AcDbEntity
  8
0
100
AcDbPolyline
 62
2
  6
CONTINUOUS
 90
11
 70
0
 10
340.7599401855
 20
12.4072595215
 10
340.6616564941
 20
12.2530952454
 10
340.4650891113
 20
12.0989277649
 10
340.2685217285
 20
12.2530952454
 10
340.0719543457
 20
12.561427002
 10
340.0719543457
 20
12.8697619629
 10
340.2685217285
 20
13.1780937195
 10
340.4650891113
 20
13.3322612
 10
340.6616564941
 20
13.1780937195
 10
340.7599401855
 20
12.8697619629
 10
340.0719543457
 20
12.8697619629
  0
LWPOLYLINE
  5
3AB
100
AcDbEntity
  8
0
100
AcDbPolyline
 62
2
  6
CONTINUOUS
 90
14
 70
0
 10
342.2341442871
 20
13.1780937195
 10
342.1358605957
 20
13.3322612
 10
341.9393188477
 20
13.3322612
 10
341.8410351562
 20
13.1780937195
 10
341.8410351562
 20
13.023926239
 10
342.0376025391
 20
12.8697619629
 10
342.2341442871
 20
12.7155944824
 10
342.3324279785
 20
12.561427002
 10
342.3324279785
 20
12.4072595215
 10
342.2341442871
 20
12.2530952454
 10
342.1358605957
 20
12.0989277649
 10
341.9393188477
 20
12.0989277649
 10
341.8410351562
 20
12.2530952454
 10
341.7427514648
 20
12.4072595215
  0
LWPOLYLINE
  5
3AC
100
AcDbEntity
  8
0
100
AcDbPolyline
 62
2
  6
CONTINUOUS
 90
11
 70
0
 10
343.9049414062
 20
12.4072595215
 10
343.8066577148
 20
12.2530952454
 10
343.610090332
 20
12.0989277649
 10
343.4135229492
 20
12.2530952454
 10
343.2169555664
 20
12.561427002
 10
343.2169555664
 20
12.8697619629
 10
343.4135229492
 20
13.1780937195
 10
343.610090332
 20
13.3322612
 10
343.8066577148
 20
13.1780937195
 10
343.9049414062
 20
12.8697619629
 10
343.2169555664
 20
12.8697619629
  0
LINE
  5
3AD
100
AcDbEntity
  8
0
100
AcDbLine
 62
2
  6
CONTINUOUS
 10
344.8877526855
 20
12.0989277649
 11
344.8877526855
 21
13.3322612
  0
LWPOLYLINE
  5
3AE
100
AcDbEntity
  8
0
100
AcDbPolyline
 62
2
  6
CONTINUOUS
 90
4
 70
0
 10
344.8877526855
 20
13.023926239
 10
345.0843200684
 20
13.3322612
 10
345.2808618164
 20
13.3322612
 10
345.3791455078
 20
13.1780937195
  0
LWPOLYLINE
  5
3AF
100
AcDbEntity
  8
0
100
AcDbPolyline
 62
2
  6
CONTINUOUS
 90
3
 70
0
 10
346.4602404785
 20
13.3322612
 10
346.7550915527
 20
12.0989277649
 10
347.049942627
 20
13.3322612
  0
LWPOLYLINE
  5
3B0
100
AcDbEntity
  8
0
100
AcDbPolyline
 62
2
  6
CONTINUOUS
 90
11
 70
0
 10
348.6224304199
 20
12.4072595215
 10
348.5241467285
 20
12.2530952454
 10
348.3275793457
 20
12.0989277649
 10
348.1310375977
 20
12.2530952454
 10
347.9344702148
 20
12.561427002
 10
347.9344702148
 20
12.8697619629
 10
348.1310375977
 20
13.1780937195
 10
348.3275793457
 20
13.3322612
 10
348.5241467285
 20
13.1780937195
 10
348.6224304199
 20
12.8697619629
 10
347.9344702148
 20
12.8697619629
  0
LWPOLYLINE
  5
3B1
100
AcDbEntity
  8
0
100
AcDbPolyline
 62
2
  6
CONTINUOUS
 90
10
 70
0
 10
350.2932275391
 20
12.561427002
 10
350.0966601562
 20
12.2530952454
 10
349.9000927734
 20
12.0989277649
 10
349.7035253906
 20
12.2530952454
 10
349.5069580078
 20
12.561427002
 10
349.5069580078
 20
12.8697619629
 10
349.7035253906
 20
13.1780937195
 10
349.9000927734
 20
13.3322612
 10
350.0966601562
 20
13.1780937195
 10
350.2932275391
 20
12.8697619629
  0
LINE
  5
3B2
100
AcDbEntity
  8
0
100
AcDbLine
 62
2
  6
CONTINUOUS
 10
350.2932275391
 20
13.9489279175
 11
350.2932275391
 21
12.0989277649
  0
LWPOLYLINE
  5
3B3
100
AcDbEntity
  8
0
100
AcDbPolyline
 62
2
  6
CONTINUOUS
 90
4
 70
0
 10
351.4725805664
 20
12.0989277649
 10
351.374296875
 20
12.0989277649
 10
351.374296875
 20
12.2530952454
 10
351.4725805664
 20
12.0989277649
  0
ACAD_TABLE
  5
3B4
100
AcDbEntity
  8
0
 62
2
  6
CONTINUOUS
100
AcDbBlockReference
  2
*T1
 10
319.3213399098
 20
51.0239270671
 30
0.0
100
AcDbTable
342
       5D7
343
22B
 11
1.0
 21
0.0
 31
0.0
 90
22
 91
5
 92
5
 93
0
 94
0
 95
0
 96
0
141
6.0
141
6.0
141
10.0
141
5.0
141
13.0
142
10.0
142
10.0
142
10.0
142
40.0
142
20.0
171
1
172
0
173
0
174
0
175
3
176
4
 91
1
178
0
145
0.0
170
5
171
1
172
0
173
1
174
0
175
1
176
1
 91
1
178
0
145
0.0
170
1
171
1
172
0
173
1
174
0
175
1
176
1
 91
1
178
0
145
0.0
170
1
171
1
172
0
173
0
174
0
175
1
176
1
 91
33
178
0
145
0.0
301
CELL_VALUE
 90
4
  1
{\Ftxt.shx;\W7.095238;\H3.000000; }
304
ACVALUE_END
170
4
140
3.0
171
1
172
0
173
0
174
0
175
1
176
1
 91
33
178
0
145
0.0
301
CELL_VALUE
 90
4
  1
{\Ftxt.shx;\W5.100000;\H3.500000; }
304
ACVALUE_END
170
1
140
3.5
171
1
172
0
173
1
174
0
175
1
176
1
 91
1
178
0
145
0.0
170
1
171
1
172
0
173
1
174
0
175
1
176
1
 91
1
178
0
145
0.0
170
1
171
1
172
0
173
1
174
0
175
1
176
1
 91
1
178
0
145
0.0
170
1
171
1
172
0
173
0
174
0
175
1
176
1
 91
33
178
0
145
0.0
301
CELL_VALUE
 90
4
  1
{\Ftxt.shx;\W3.714286;\H3.500000; }{\Ftxt.shx;\W1.500000;\H3.500000; }
304
ACVALUE_END
170
1
140
3.5
171
1
172
0
173
0
174
0
175
1
176
1
 91
33
178
0
145
0.0
301
CELL_VALUE
 90
4
  1
{\Ftxt.shx;\W1.571429;\H3.500000; }
304
ACVALUE_END
170
4
140
3.5
171
1
172
0
173
1
174
0
175
1
176
1
 91
1
178
0
145
0.0
170
1
171
1
172
0
173
1
174
0
175
1
176
1
 91
1
178
0
145
0.0
170
1
171
1
172
0
173
1
174
0
175
1
176
1
 91
1
178
0
145
0.0
170
1
171
1
172
0
173
0
174
0
175
2
176
1
 91
33
178
0
145
0.0
301
CELL_VALUE
 90
4
  1
{\Ftxt.shx;\W10.476190;\H3.500000; }
304
ACVALUE_END
170
4
140
3.5
171
1
172
0
173
1
174
0
175
1
176
1
 91
1
178
0
145
0.0
170
1
171
1
172
0
173
1
174
0
175
1
176
1
 91
1
178
0
145
0.0
170
1
171
1
172
0
173
1
174
0
175
1
176
1
 91
1
178
0
145
0.0
170
1
171
1
172
0
173
1
174
0
175
1
176
1
 91
1
178
0
145
0.0
170
1
171
1
172
0
173
0
174
0
175
2
176
1
 91
33
178
0
145
0.0
301
CELL_VALUE
 90
4
  1
{\Ftxt.shx;\W3.690476;\H2.500000; }{\Ftxt.shx;\W7.595238;\H2.500000; }
304
ACVALUE_END
170
4
140
2.5
171
1
172
0
173
1
174
0
175
1
176
1
 91
1
178
0
145
0.0
170
1
171
1
172
0
173
0
174
0
175
5
176
1
 91
33
178
0
145
0.0
301
CELL_VALUE
 90
4
  1
{\Ftxt.shx;\W45.050000;\H1.850000; }\P{\Ftxt.shx;\W27.200000;\H1.850000; }{\Ftxt.shx;\W0.850000;\H1.850000; }{\Ftxt.shx;\W4.250000;\H1.850000; }{\Ftxt.shx;\W0.850000;\H1.850000; }{\Ftxt.shx;\W7.650000;\H1.850000; }\P{\Ftxt.shx;\W31.450000;\H1.850000; }\P{\Ftxt.shx;\W17.000000;\H1.850000; }
304
ACVALUE_END
170
1
140
1.85
171
1
172
0
173
1
174
0
175
1
176
1
 91
1
178
0
145
0.0
170
1
171
1
172
0
173
1
174
0
175
1
176
1
 91
1
178
0
145
0.0
170
1
171
1
172
0
173
1
174
0
175
1
176
1
 91
1
178
0
145
0.0
170
1
171
1
172
0
173
1
174
0
175
1
176
1
 91
1
178
0
145
0.0
170
1
  0
LINE
  5
3B5
100
AcDbEntity
  8
0
100
AcDbLine
 62
7
  6
CONTINUOUS
 10
0.0
 20
0.0
 11
0.0
 21
297.0
  0
LWPOLYLINE
  5
3B6
100
AcDbEntity
  8
0
100
AcDbPolyline
 62
7
  6
CONTINUOUS
 90
2
 70
0
 43
0.1000000003
 10
7.0536312849
 20
0.0
 10
7.0536312849
 20
297.0
  0
LWPOLYLINE
  5
3B7
100
AcDbEntity
  8
0
100
AcDbPolyline
 62
7
  6
CONTINUOUS
 90
2
 70
0
 43
0.4999999952
 10
10.0536312849
 20
10.0318435754
 10
10.0536312849
 20
287.0
  0
LWPOLYLINE
  5
3B8
100
AcDbEntity
  8
0
100
AcDbPolyline
 62
2
  6
CONTINUOUS
 90
5
 70
0
 10
2.7895792007
 20
251.8807543945
 10
3.2657698059
 20
252.1664538574
 10
3.2657698059
 20
253.0236035156
 10
2.7895792007
 20
253.5950280762
 10
1.6467220688
 20
253.5950280762
  0
LINE
  5
3B9
100
AcDbEntity
  8
0
100
AcDbLine
 62
7
  6
CONTINUOUS
 10
0.0
 20
0.0
 11
420.0
 21
0.0
  0
LINE
  5
3BA
100
AcDbEntity
  8
0
100
AcDbLine
 62
2
  6
CONTINUOUS
 10
363.2799023437
 20
2.6920935059
 11
364.6298803711
 21
2.6920935059
  0
LINE
  5
3BB
100
AcDbEntity
  8
0
100
AcDbLine
 62
2
  6
CONTINUOUS
 10
262.8298937988
 20
3.6920928955
 11
264.4048937988
 21
3.6920928955
  0
LWPOLYLINE
  5
3BC
100
AcDbEntity
  8
0
100
AcDbPolyline
 62
2
  6
CONTINUOUS
 90
12
 70
0
 10
56.6978659058
 20
5.535344696
 10
57.5978704834
 20
5.535344696
 10
58.0478695679
 20
5.2020094299
 10
58.2728659058
 20
4.8686773682
 10
58.4978686523
 20
4.5353453064
 10
58.7228713989
 20
3.5353427124
 10
58.4978686523
 20
2.5353433228
 10
58.2728659058
 20
2.202011261
 10
58.0478695679
 20
1.8686759949
 10
57.5978704834
 20
1.5353439331
 10
56.6978659058
 20
1.5353439331
 10
56.6978659058
 20
5.535344696
  0
LWPOLYLINE
  5
3BD
100
AcDbEntity
  8
0
100
AcDbPolyline
 62
7
  6
CONTINUOUS
 90
2
 70
0
 43
0.1000000003
 10
0.0
 20
7.0318435754
 10
420.0
 20
7.0318435754
  0
LWPOLYLINE
  5
3BE
100
AcDbEntity
  8
0
100
AcDbPolyline
 62
7
  6
CONTINUOUS
 90
2
 70
0
 43
0.4999999952
 10
10.0536312849
 20
10.0318435754
 10
410.0
 20
10.0318435754
  0
LWPOLYLINE
  5
3BF
100
AcDbEntity
  8
0
100
AcDbPolyline
 62
2
  6
CONTINUOUS
 90
15
 70
0
 10
164.8548962402
 20
292.0254382324
 10
164.629887085
 20
291.6920837402
 10
164.1798944092
 20
291.3587548828
 10
163.729888916
 20
291.3587548828
 10
163.2798962402
 20
291.6920837402
 10
163.054887085
 20
292.0254382324
 10
162.8298907471
 20
292.3587670898
 10
162.6048944092
 20
293.3587536621
 10
162.8298907471
 20
294.3587658691
 10
163.054887085
 20
294.6920947266
 10
163.2798962402
 20
295.025423584
 10
163.729888916
 20
295.3587524414
 10
164.1798944092
 20
295.3587524414
 10
164.629887085
 20
295.025423584
 10
164.8548962402
 20
294.6920947266
  0
LINE
  5
3C0
100
AcDbEntity
  8
0
100
AcDbLine
 62
7
  6
CONTINUOUS
 10
113.0
 20
297.0
 11
113.0
 21
290.0
  0
LINE
  5
3C1
100
AcDbEntity
  8
0
100
AcDbLine
 62
7
  6
CONTINUOUS
 10
113.0
 20
7.0
 11
113.0
 21
0.0
  0
LWPOLYLINE
  5
3C2
100
AcDbEntity
  8
0
100
AcDbPolyline
 62
7
  6
CONTINUOUS
 90
2
 70
0
 43
0.1000000003
 10
123.0
 20
10.0
 10
123.0
 20
0.0
  0
LWPOLYLINE
  5
3C3
100
AcDbEntity
  8
0
100
AcDbPolyline
 62
7
  6
CONTINUOUS
 90
2
 70
0
 43
0.1000000003
 10
123.0
 20
287.0
 10
123.0
 20
297.0
  0
LWPOLYLINE
  5
3C4
100
AcDbEntity
  8
0
100
AcDbPolyline
 62
2
  6
CONTINUOUS
 90
3
 70
0
 10
1.6467220688
 20
52.4521728516
 10
2.7895792007
 20
53.5950283813
 10
2.7895792007
 20
49.5950244141
  0
LINE
  5
3C5
100
AcDbEntity
  8
0
100
AcDbLine
 62
7
  6
CONTINUOUS
 10
-0.0
 20
99.9681564246
 11
7.0
 21
99.9681564246
  0
LWPOLYLINE
  5
3C6
100
AcDbEntity
  8
0
100
AcDbPolyline
 62
2
  6
CONTINUOUS
 90
9
 70
0
 10
56.2378820801
 20
295.2461645508
 10
56.6878811646
 20
294.5794812012
 10
56.9128839111
 20
293.5794946289
 10
56.6878811646
 20
292.5794824219
 10
56.4628848267
 20
292.2461535645
 10
56.2378820801
 20
291.912824707
 10
55.7878829956
 20
291.5794958496
 10
54.8878848267
 20
291.5794958496
 10
54.8878848267
 20
295.5794934082
  0
LINE
  5
3C7
100
AcDbEntity
  8
0
100
AcDbLine
 62
7
  6
CONTINUOUS
 10
413.0
 20
107.0
 11
420.0
 21
107.0
  0
LWPOLYLINE
  5
3C8
100
AcDbEntity
  8
0
100
AcDbPolyline
 62
7
  6
CONTINUOUS
 90
2
 70
0
 43
0.1000000003
 10
210.0
 20
10.0
 10
210.0
 20
0.0
  0
LWPOLYLINE
  5
3C9
100
AcDbEntity
  8
0
100
AcDbPolyline
 62
7
  6
CONTINUOUS
 90
2
 70
0
 43
0.1000000003
 10
210.0
 20
287.0
 10
210.0
 20
297.0
  0
LWPOLYLINE
  5
3CA
100
AcDbEntity
  8
0
100
AcDbPolyline
 62
7
  6
CONTINUOUS
 90
2
 70
0
 43
0.1000000003
 10
10.0
 20
148.5
 10
0.0
 20
148.5
  0
LWPOLYLINE
  5
3CB
100
AcDbEntity
  8
0
100
AcDbPolyline
 62
7
  6
CONTINUOUS
 90
2
 70
0
 43
0.1000000003
 10
410.0
 20
148.5
 10
420.0
 20
148.5
  0
LWPOLYLINE
  5
3CC
100
AcDbEntity
  8
0
100
AcDbPolyline
 62
2
  6
CONTINUOUS
 90
7
 70
0
 10
3.6467220497
 20
149.5950274658
 10
1.6467220688
 20
149.5950274658
 10
3.6467220497
 20
152.4521759033
 10
3.6467220497
 20
153.0236004639
 10
3.0752934837
 20
153.5950250244
 10
2.2181506348
 20
153.5950250244
 10
1.6467220688
 20
152.7378881836
  0
LWPOLYLINE
  5
3CD
100
AcDbEntity
  8
0
100
AcDbPolyline
 62
2
  6
CONTINUOUS
 90
5
 70
0
 10
415.7895666504
 20
258.9125756836
 10
416.2657580566
 20
259.1983007812
 10
416.2657580566
 20
260.0554504395
 10
415.7895666504
 20
260.626875
 10
414.6467175293
 20
260.626875
  0
LWPOLYLINE
  5
3CE
100
AcDbEntity
  8
0
100
AcDbPolyline
 62
2
  6
CONTINUOUS
 90
7
 70
0
 10
416.6467163086
 20
156.6268743896
 10
414.6467175293
 20
156.6268743896
 10
416.6467163086
 20
159.4840100098
 10
416.6467163086
 20
160.0554473877
 10
416.075291748
 20
160.6268719482
 10
415.2181420898
 20
160.6268719482
 10
414.6467175293
 20
159.76972229
  0
LWPOLYLINE
  5
3CF
100
AcDbEntity
  8
0
100
AcDbPolyline
 62
2
  6
CONTINUOUS
 90
15
 70
0
 10
164.8548962402
 20
2.025426178
 10
164.629887085
 20
1.6920941162
 10
164.1798944092
 20
1.3587588501
 10
163.729888916
 20
1.3587588501
 10
163.2798962402
 20
1.6920941162
 10
163.054887085
 20
2.025426178
 10
162.8298907471
 20
2.3587614441
 10
162.6048944092
 20
3.3587608337
 10
162.8298907471
 20
4.3587602234
 10
163.054887085
 20
4.6920922852
 10
163.2798962402
 20
5.0254275513
 10
163.729888916
 20
5.358759613
 10
164.1798944092
 20
5.358759613
 10
164.629887085
 20
5.0254275513
 10
164.8548962402
 20
4.6920922852
  0
LWPOLYLINE
  5
3D0
100
AcDbEntity
  8
0
100
AcDbPolyline
 62
2
  6
CONTINUOUS
 90
6
 70
0
 10
262.8298937988
 20
295.3587524414
 10
262.8298937988
 20
291.3587548828
 10
264.4048937988
 20
291.3587548828
 10
264.6298901367
 20
291.6920837402
 10
264.8548864746
 20
292.0254382324
 10
264.8548864746
 20
293.0254248047
  0
LWPOLYLINE
  5
3D1
100
AcDbEntity
  8
0
100
AcDbPolyline
 62
2
  6
CONTINUOUS
 90
12
 70
0
 10
262.8298937988
 20
5.358759613
 10
262.8298937988
 20
1.3587588501
 10
264.4048937988
 20
1.3587588501
 10
264.6298901367
 20
1.6920941162
 10
264.8548864746
 20
2.025426178
 10
264.8548864746
 20
3.0254255676
 10
264.6298901367
 20
3.3587608337
 10
264.4048937988
 20
3.6920928955
 10
264.6298901367
 20
4.0254281616
 10
264.6298901367
 20
5.0254275513
 10
264.4048937988
 20
5.358759613
 10
262.8298937988
 20
5.358759613
  0
LINE
  5
3D2
100
AcDbEntity
  8
0
100
AcDbLine
 62
7
  6
CONTINUOUS
 10
-0.0
 20
199.9681564246
 11
7.0
 21
199.9681564246
  0
LWPOLYLINE
  5
3D3
100
AcDbEntity
  8
0
100
AcDbPolyline
 62
7
  6
CONTINUOUS
 90
2
 70
0
 43
0.1000000003
 10
10.0
 20
202.9681564246
 10
0.0
 20
202.9681564246
  0
LWPOLYLINE
  5
3D4
100
AcDbEntity
  8
0
100
AcDbPolyline
 62
7
  6
CONTINUOUS
 90
2
 70
0
 43
0.1000000003
 10
410.0
 20
210.0
 10
420.0
 20
210.0
  0
LINE
  5
3D5
100
AcDbEntity
  8
0
100
AcDbLine
 62
7
  6
CONTINUOUS
 10
313.0
 20
297.0
 11
313.0
 21
290.0
  0
LINE
  5
3D6
100
AcDbEntity
  8
0
100
AcDbLine
 62
7
  6
CONTINUOUS
 10
313.0
 20
7.0
 11
313.0
 21
0.0
  0
LWPOLYLINE
  5
3D7
100
AcDbEntity
  8
0
100
AcDbPolyline
 62
2
  6
CONTINUOUS
 90
6
 70
0
 10
1.6467220688
 20
249.5950305176
 10
3.0752934837
 20
249.5950305176
 10
3.3610077667
 20
249.8807299805
 10
3.3610077667
 20
251.3093041992
 10
2.7895792007
 20
251.8807543945
 10
2.2181506348
 20
251.8807543945
  0
LWPOLYLINE
  5
3D8
100
AcDbEntity
  8
0
100
AcDbPolyline
 62
2
  6
CONTINUOUS
 90
3
 70
0
 10
362.8298840332
 20
291.3587548828
 10
363.9548913574
 20
295.3587524414
 10
365.0798986816
 20
291.3587548828
  0
LWPOLYLINE
  5
3D9
100
AcDbEntity
  8
0
100
AcDbPolyline
 62
2
  6
CONTINUOUS
 90
6
 70
0
 10
414.6467175293
 20
256.6268774414
 10
416.075291748
 20
256.6268774414
 10
416.3610168457
 20
256.9125769043
 10
416.3610168457
 20
258.341151123
 10
415.7895666504
 20
258.9125756836
 10
415.2181420898
 20
258.9125756836
  0
LWPOLYLINE
  5
3DA
100
AcDbEntity
  8
0
100
AcDbPolyline
 62
2
  6
CONTINUOUS
 90
6
 70
0
 10
264.8548864746
 20
293.0254248047
 10
264.4048937988
 20
293.6920825195
 10
264.6298901367
 20
294.0254370117
 10
264.6298901367
 20
295.025423584
 10
264.4048937988
 20
295.3587524414
 10
262.8298937988
 20
295.3587524414
  0
LWPOLYLINE
  5
3DB
100
AcDbEntity
  8
0
100
AcDbPolyline
 62
7
  6
CONTINUOUS
 90
2
 70
0
 43
0.4999999952
 10
10.0536312849
 20
287.0
 10
410.0
 20
287.0
  0
LWPOLYLINE
  5
3DC
100
AcDbEntity
  8
0
100
AcDbPolyline
 62
7
  6
CONTINUOUS
 90
2
 70
0
 43
0.1000000003
 10
0.0
 20
290.0
 10
420.0
 20
290.0
  0
LINE
  5
3DD
100
AcDbEntity
  8
0
100
AcDbLine
 62
2
  6
CONTINUOUS
 10
363.2799023437
 20
292.6920959473
 11
364.6298803711
 21
292.6920959473
  0
LINE
  5
3DE
100
AcDbEntity
  8
0
100
AcDbLine
 62
2
  6
CONTINUOUS
 10
262.8298937988
 20
293.6920825195
 11
264.4048937988
 21
293.6920825195
  0
LWPOLYLINE
  5
3DF
100
AcDbEntity
  8
0
100
AcDbPolyline
 62
2
  6
CONTINUOUS
 90
3
 70
0
 10
54.8878848267
 20
295.5794934082
 10
55.7878829956
 20
295.5794934082
 10
56.2378820801
 20
295.2461645508
  0
LINE
  5
3E0
100
AcDbEntity
  8
0
100
AcDbLine
 62
7
  6
CONTINUOUS
 10
0.0
 20
297.0
 11
420.0
 21
297.0
  0
LWPOLYLINE
  5
3E1
100
AcDbEntity
  8
0
100
AcDbPolyline
 62
2
  6
CONTINUOUS
 90
3
 70
0
 10
362.8298840332
 20
1.3587588501
 10
363.9548913574
 20
5.358759613
 10
365.0798986816
 20
1.3587588501
  0
LWPOLYLINE
  5
3E2
100
AcDbEntity
  8
0
100
AcDbPolyline
 62
7
  6
CONTINUOUS
 90
2
 70
0
 43
0.4999999952
 10
410.0
 20
10.0318435754
 10
410.0
 20
287.0
  0
LWPOLYLINE
  5
3E3
100
AcDbEntity
  8
0
100
AcDbPolyline
 62
7
  6
CONTINUOUS
 90
2
 70
0
 43
0.1000000003
 10
413.0
 20
0.0
 10
413.0
 20
297.0
  0
LINE
  5
3E4
100
AcDbEntity
  8
0
100
AcDbLine
 62
7
  6
CONTINUOUS
 10
420.0
 20
0.0
 11
420.0
 21
297.0
  0
LWPOLYLINE
  5
3E5
100
AcDbEntity
  8
0
100
AcDbPolyline
 62
2
  6
CONTINUOUS
 90
3
 70
0
 10
414.6467175293
 20
59.4840133667
 10
415.7895666504
 20
60.6268688965
 10
415.7895666504
 20
56.6268713379
  0
LINE
  5
3E6
100
AcDbEntity
  8
7_ALL_FEATURES
100
AcDbLine
 62
7
  6
CONTINUOUS
 10
336.651560084
 20
124.8233844414
 11
307.9640020372
 21
136.6484740289
  0
LINE
  5
3E7
100
AcDbEntity
  8
7_ALL_FEATURES
100
AcDbLine
 62
7
  6
CONTINUOUS
 10
315.7376345539
 20
136.5963043674
 11
336.9117845408
 21
127.8682620528
  0
LINE
  5
3E8
100
AcDbEntity
  8
7_ALL_FEATURES
100
AcDbLine
 62
7
  6
CONTINUOUS
 10
316.4379262013
 20
136.4165026687
 11
336.7241279629
 21
128.0544750318
  0
LINE
  5
3E9
100
AcDbEntity
  8
7_ALL_FEATURES
100
AcDbLine
 62
7
  6
CONTINUOUS
 10
307.9640020372
 20
136.6484740289
 11
307.9570539081
 21
137.5686428838
  0
LINE
  5
3EA
100
AcDbEntity
  8
7_ALL_FEATURES
100
AcDbLine
 62
3
  6
CONTINUOUS
 10
312.0518528397
 20
145.8732925367
 11
313.0900262741
 21
141.2845712437
  0
LINE
  5
3EB
100
AcDbEntity
  8
7_ALL_FEATURES
100
AcDbLine
 62
7
  6
CONTINUOUS
 10
313.3982746949
 20
165.1115482764
 11
313.4660459535
 21
156.1363262252
  0
LINE
  5
3EC
100
AcDbEntity
  8
7_ALL_FEATURES
100
AcDbLine
 62
7
  6
CONTINUOUS
 10
313.5832176869
 20
140.6187993723
 11
313.5904036505
 21
139.6671331375
  0
LINE
  5
3ED
100
AcDbEntity
  8
7_ALL_FEATURES
100
AcDbLine
 62
9
  6
CONTINUOUS
 10
313.9370631692
 20
165.6030190672
 11
313.9965378246
 21
157.7265497545
  0
LINE
  5
3EE
100
AcDbEntity
  8
7_ALL_FEATURES
100
AcDbLine
 62
9
  6
CONTINUOUS
 10
314.125978496
 20
140.5841977773
 11
314.1313815168
 21
139.8686538724
  0
LINE
  5
3EF
100
AcDbEntity
  8
7_ALL_FEATURES
100
AcDbLine
 62
3
  6
CONTINUOUS
 10
314.3610065959
 20
164.5108047101
 11
314.4026953704
 21
158.9897915804
  0
LINE
  5
3F0
100
AcDbEntity
  8
02___PRT_ALL_AXES
100
AcDbLine
 62
7
  6
CONTINUOUS
 10
314.5855986991
 20
195.5794890649
 11
314.8094948904
 21
165.9280103332
  0
LINE
  5
3F1
100
AcDbEntity
  8
7_ALL_FEATURES
100
AcDbLine
 62
7
  6
CONTINUOUS
 10
314.0078382807
 20
140.5611077668
 11
313.8459733328
 21
140.5569632449
  0
LINE
  5
3F2
100
AcDbEntity
  8
7_ALL_FEATURES
100
AcDbLine
 62
9
  6
CONTINUOUS
 10
314.1999199899
 20
140.5986438809
 11
314.0380550421
 21
140.594499359
  0
LINE
  5
3F3
100
AcDbEntity
  8
02___PRT_ALL_AXES
100
AcDbLine
 62
7
  6
CONTINUOUS
 10
316.2342199055
 20
168.2879456158
 11
315.7610069804
 21
196.0261825737
  0
LINE
  5
3F4
100
AcDbEntity
  8
7_ALL_FEATURES
100
AcDbLine
 62
7
  6
CONTINUOUS
 10
316.3570399436
 20
136.4958567625
 11
316.3545462149
 21
136.8261113503
  0
LINE
  5
3F5
100
AcDbEntity
  8
7_ALL_FEATURES
100
AcDbLine
 62
9
  6
CONTINUOUS
 10
316.4521202626
 20
136.582586902
 11
316.4500128971
 21
136.8616738329
  0
LINE
  5
3F6
100
AcDbEntity
  8
7_ALL_FEATURES
100
AcDbLine
 62
3
  6
CONTINUOUS
 10
312.170301928
 20
152.2521524047
 11
314.390912042
 21
158.9087415923
  0
LINE
  5
3F7
100
AcDbEntity
  8
02___PRT_ALL_AXES
100
AcDbLine
 62
7
  6
CONTINUOUS
 10
320.1275361288
 20
197.6484027846
 11
320.0089342388
 21
169.6869763559
  0
LINE
  5
3F8
100
AcDbEntity
  8
7_ALL_FEATURES
100
AcDbLine
 62
7
  6
CONTINUOUS
 10
318.9256076728
 20
164.9342354607
 11
318.5108876667
 21
163.8569901748
  0
LINE
  5
3F9
100
AcDbEntity
  8
7_ALL_FEATURES
100
AcDbLine
 62
7
  6
CONTINUOUS
 10
319.9501633173
 20
164.5119108326
 11
319.5354433113
 21
163.4346655467
  0
LINE
  5
3FA
100
AcDbEntity
  8
7_ALL_FEATURES
100
AcDbLine
 62
9
  6
CONTINUOUS
 10
362.9094333998
 20
148.5308505791
 11
362.7517588616
 21
148.5099373451
  0
LINE
  5
3FB
100
AcDbEntity
  8
7_ALL_FEATURES
100
AcDbLine
 62
9
  6
CONTINUOUS
 10
334.6497377405
 20
148.2164459352
 11
334.4878727927
 21
148.2123014133
  0
LINE
  5
3FC
100
AcDbEntity
  8
7_ALL_FEATURES
100
AcDbLine
 62
7
  6
CONTINUOUS
 10
358.8537521716
 20
136.298025112
 11
338.5675504099
 21
144.6600527489
  0
LINE
  5
3FD
100
AcDbEntity
  8
7_ALL_FEATURES
100
AcDbLine
 62
7
  6
CONTINUOUS
 10
359.5526541932
 20
136.3022571844
 11
338.3785042063
 21
145.0302994989
  0
LINE
  5
3FE
100
AcDbEntity
  8
7_ALL_FEATURES
100
AcDbLine
 62
7
  6
CONTINUOUS
 10
318.5108876667
 20
163.8569901748
 11
318.9395039309
 21
163.0938977508
  0
LINE
  5
3FF
100
AcDbEntity
  8
7_ALL_FEATURES
100
AcDbLine
 62
7
  6
CONTINUOUS
 10
319.5354433113
 20
163.4346655467
 11
319.5906129122
 21
163.3364436451
  0
LINE
  5
400
100
AcDbEntity
  8
02___PRT_ALL_AXES
100
AcDbLine
 62
7
  6
CONTINUOUS
 10
321.8533292231
 20
170.3314036592
 11
321.3134845188
 21
198.0901827649
  0
LINE
  5
401
100
AcDbEntity
  8
02___PRT_ALL_AXES
100
AcDbLine
 62
7
  6
CONTINUOUS
 10
321.6818832581
 20
164.9310261635
 11
321.6643919433
 21
164.5483348917
  0
LINE
  5
402
100
AcDbEntity
  8
7_ALL_FEATURES
100
AcDbLine
 62
7
  6
CONTINUOUS
 10
319.7828402012
 20
163.4080506127
 11
320.1975602072
 21
164.4852958986
  0
LINE
  5
403
100
AcDbEntity
  8
7_ALL_FEATURES
100
AcDbLine
 62
9
  6
CONTINUOUS
 10
335.1624102404
 20
149.450646538
 11
335.0005452926
 21
149.4465020162
  0
LINE
  5
404
100
AcDbEntity
  8
7_ALL_FEATURES
100
AcDbLine
 62
7
  6
CONTINUOUS
 10
338.6387286631
 20
148.0751771103
 11
367.3262867098
 21
136.2500875229
  0
LINE
  5
405
100
AcDbEntity
  8
7_ALL_FEATURES
100
AcDbLine
 62
7
  6
CONTINUOUS
 10
338.631780534
 20
148.9953459653
 11
367.3193385807
 21
137.1702563778
  0
LINE
  5
406
100
AcDbEntity
  8
7_ALL_FEATURES
100
AcDbLine
 62
7
  6
CONTINUOUS
 10
320.1975602072
 20
164.4852958986
 11
319.768943943
 21
165.2483883226
  0
LINE
  5
407
100
AcDbEntity
  8
02___PRT_ALL_AXES
100
AcDbLine
 62
7
  6
CONTINUOUS
 10
327.4039940411
 20
172.3990927882
 11
326.8641493369
 21
200.1578718939
  0
LINE
  5
408
100
AcDbEntity
  8
02___PRT_ALL_AXES
100
AcDbLine
 62
7
  6
CONTINUOUS
 10
325.6782009468
 20
199.7160919137
 11
325.5594179421
 21
171.7119660975
  0
LINE
  5
409
100
AcDbEntity
  8
7_ALL_FEATURES
100
AcDbLine
 62
9
  6
CONTINUOUS
 10
333.9623718582
 20
154.0352233092
 11
334.124236806
 21
154.0393678311
  0
LINE
  5
40A
100
AcDbEntity
  8
02___PRT_ALL_AXES
100
AcDbLine
 62
7
  6
CONTINUOUS
 10
318.3475432525
 20
161.3412267134
 11
318.2109358332
 21
161.3975366638
  0
LINE
  5
40B
100
AcDbEntity
  8
02___PRT_ALL_AXES
100
AcDbLine
 62
7
  6
CONTINUOUS
 10
331.2288657648
 20
201.7837810427
 11
331.1100827601
 21
173.7796552265
  0
LINE
  5
40C
100
AcDbEntity
  8
7_ALL_FEATURES
100
AcDbLine
 62
7
  6
CONTINUOUS
 10
330.6112178159
 20
169.287265206
 11
330.1964978099
 21
168.2100199201
  0
LINE
  5
40D
100
AcDbEntity
  8
7_ALL_FEATURES
100
AcDbLine
 62
7
  6
CONTINUOUS
 10
331.6357734605
 20
168.8649405779
 11
331.2210534544
 21
167.787695292
  0
LINE
  5
40E
100
AcDbEntity
  8
7_ALL_FEATURES
100
AcDbLine
 62
7
  6
CONTINUOUS
 10
331.4684503443
 20
167.761080358
 11
331.8831703504
 21
168.8383256439
  0
LINE
  5
40F
100
AcDbEntity
  8
7_ALL_FEATURES
100
AcDbLine
 62
7
  6
CONTINUOUS
 10
313.9370631692
 20
165.6030190672
 11
337.0161432019
 21
174.2002528142
  0
LINE
  5
410
100
AcDbEntity
  8
7_ALL_FEATURES
100
AcDbLine
 62
3
  6
CONTINUOUS
 10
335.5342268513
 20
173.3208399784
 11
315.0844091007
 21
165.7030379241
  0
LINE
  5
411
100
AcDbEntity
  8
7_ALL_FEATURES
100
AcDbLine
 62
7
  6
CONTINUOUS
 10
331.4545540862
 20
169.6014180679
 11
330.6112178159
 21
169.287265206
  0
LINE
  5
412
100
AcDbEntity
  8
7_ALL_FEATURES
100
AcDbLine
 62
7
  6
CONTINUOUS
 10
319.768943943
 20
165.2483883226
 11
318.9256076728
 21
164.9342354607
  0
LINE
  5
413
100
AcDbEntity
  8
7_ALL_FEATURES
100
AcDbLine
 62
7
  6
CONTINUOUS
 10
318.5108876667
 20
163.8569901748
 11
319.5354433113
 21
163.4346655467
  0
LINE
  5
414
100
AcDbEntity
  8
7_ALL_FEATURES
100
AcDbLine
 62
7
  6
CONTINUOUS
 10
318.9256076728
 20
164.9342354607
 11
319.9501633173
 21
164.5119108326
  0
LINE
  5
415
100
AcDbEntity
  8
02___PRT_ALL_AXES
100
AcDbLine
 62
7
  6
CONTINUOUS
 10
332.953835729
 20
174.5091072114
 11
332.4148141549
 21
202.225561023
  0
LINE
  5
416
100
AcDbEntity
  8
02___PRT_ALL_AXES
100
AcDbLine
 62
7
  6
CONTINUOUS
 10
333.3674934013
 20
169.2840559089
 11
333.3500020865
 21
168.901364637
  0
LINE
  5
417
100
AcDbEntity
  8
7_ALL_FEATURES
100
AcDbLine
 62
7
  6
CONTINUOUS
 10
331.8280007494
 20
168.9365475455
 11
331.6357734605
 21
168.8649405779
  0
LINE
  5
418
100
AcDbEntity
  8
7_ALL_FEATURES
100
AcDbLine
 62
7
  6
CONTINUOUS
 10
320.1423906063
 20
164.5835178002
 11
319.9501633173
 21
164.5119108326
  0
LINE
  5
419
100
AcDbEntity
  8
7_ALL_FEATURES
100
AcDbLine
 62
7
  6
CONTINUOUS
 10
318.9395039309
 20
163.0938977508
 11
319.7828402012
 21
163.4080506127
  0
LINE
  5
41A
100
AcDbEntity
  8
7_ALL_FEATURES
100
AcDbLine
 62
7
  6
CONTINUOUS
 10
330.6251140741
 20
167.4469274961
 11
331.4684503443
 21
167.761080358
  0
LINE
  5
41B
100
AcDbEntity
  8
02___PRT_ALL_AXES
100
AcDbLine
 62
9
  6
CONTINUOUS
 10
318.5652685583
 20
167.32708101
 11
316.2342199055
 21
168.2879456158
  0
LINE
  5
41C
100
AcDbEntity
  8
02___PRT_ALL_AXES
100
AcDbLine
 62
7
  6
CONTINUOUS
 10
320.63411946
 20
166.8884394592
 11
320.4975120407
 21
166.9447494096
  0
LINE
  5
41D
100
AcDbEntity
  8
7_ALL_FEATURES
100
AcDbLine
 62
9
  6
CONTINUOUS
 10
334.0808209464
 20
160.4140831772
 11
334.2397968921
 21
160.2626457511
  0
LINE
  5
41E
100
AcDbEntity
  8
7_ALL_FEATURES
100
AcDbLine
 62
7
  6
CONTINUOUS
 10
330.1964978099
 20
168.2100199201
 11
330.6251140741
 21
167.4469274961
  0
LINE
  5
41F
100
AcDbEntity
  8
7_ALL_FEATURES
100
AcDbLine
 62
7
  6
CONTINUOUS
 10
331.2210534544
 20
167.787695292
 11
331.2762230554
 21
167.6894733904
  0
LINE
  5
420
100
AcDbEntity
  8
7_ALL_FEATURES
100
AcDbLine
 62
7
  6
CONTINUOUS
 10
331.8831703504
 20
168.8383256439
 11
331.4545540862
 21
169.6014180679
  0
LINE
  5
421
100
AcDbEntity
  8
7_ALL_FEATURES
100
AcDbLine
 62
3
  6
CONTINUOUS
 10
335.0005452926
 20
149.4465020162
 11
333.9623718582
 21
154.0352233092
  0
LINE
  5
422
100
AcDbEntity
  8
7_ALL_FEATURES
100
AcDbLine
 62
7
  6
CONTINUOUS
 10
335.1624102404
 20
149.450646538
 11
334.124236806
 21
154.0393678311
  0
LINE
  5
423
100
AcDbEntity
  8
7_ALL_FEATURES
100
AcDbLine
 62
3
  6
CONTINUOUS
 10
336.3132143889
 20
167.1517223529
 11
336.2715256143
 21
172.6727354826
  0
LINE
  5
424
100
AcDbEntity
  8
7_ALL_FEATURES
100
AcDbLine
 62
7
  6
CONTINUOUS
 10
336.483973663
 20
167.0813349148
 11
336.4422848884
 21
172.6023480445
  0
LINE
  5
425
100
AcDbEntity
  8
7_ALL_FEATURES
100
AcDbLine
 62
7
  6
CONTINUOUS
 10
336.9117845408
 20
127.8682620528
 11
336.9106368669
 21
128.0202531533
  0
LINE
  5
426
100
AcDbEntity
  8
7_ALL_FEATURES
100
AcDbLine
 62
9
  6
CONTINUOUS
 10
337.0161432019
 20
174.2002528142
 11
337.2104615496
 21
148.4658876194
  0
LINE
  5
427
100
AcDbEntity
  8
7_ALL_FEATURES
100
AcDbLine
 62
9
  6
CONTINUOUS
 10
338.1435340908
 20
144.6628983668
 11
338.1414267254
 21
144.9419852976
  0
LINE
  5
428
100
AcDbEntity
  8
02___PRT_ALL_AXES
100
AcDbLine
 62
7
  6
CONTINUOUS
 10
336.7812775806
 20
203.8564851472
 11
336.7284432068
 21
175.9222892696
  0
LINE
  5
429
100
AcDbEntity
  8
7_ALL_FEATURES
100
AcDbLine
 62
3
  6
CONTINUOUS
 10
336.3014310605
 20
167.0706723648
 11
334.0808209464
 21
160.4140831772
  0
LINE
  5
42A
100
AcDbEntity
  8
7_ALL_FEATURES
100
AcDbLine
 62
7
  6
CONTINUOUS
 10
336.4604070062
 20
166.9192349386
 11
334.2397968921
 21
160.2626457511
  0
LINE
  5
42B
100
AcDbEntity
  8
7_ALL_FEATURES
100
AcDbLine
 62
9
  6
CONTINUOUS
 10
314.4026953704
 20
158.9897915804
 11
336.3132143889
 21
167.1517223529
  0
LINE
  5
42C
100
AcDbEntity
  8
7_ALL_FEATURES
100
AcDbLine
 62
9
  6
CONTINUOUS
 10
314.390912042
 20
158.9087415923
 11
336.3014310605
 21
167.0706723648
  0
LINE
  5
42D
100
AcDbEntity
  8
02___PRT_ALL_AXES
100
AcDbLine
 62
7
  6
CONTINUOUS
 10
330.0331533957
 20
165.6942564587
 11
329.8965459764
 21
165.7505664091
  0
LINE
  5
42E
100
AcDbEntity
  8
02___PRT_ALL_AXES
100
AcDbLine
 62
9
  6
CONTINUOUS
 10
324.1210077346
 20
169.3966603983
 11
321.8533292231
 21
170.3314036592
  0
LINE
  5
42F
100
AcDbEntity
  8
7_ALL_FEATURES
100
AcDbLine
 62
7
  6
CONTINUOUS
 10
330.1964978099
 20
168.2100199201
 11
331.2210534544
 21
167.787695292
  0
LINE
  5
430
100
AcDbEntity
  8
7_ALL_FEATURES
100
AcDbLine
 62
9
  6
CONTINUOUS
 10
363.1252555393
 20
142.0142032002
 11
362.9623170465
 21
142.1522325853
  0
LINE
  5
431
100
AcDbEntity
  8
02___PRT_ALL_AXES
100
AcDbLine
 62
7
  6
CONTINUOUS
 10
338.1826089726
 20
174.3832667806
 11
337.9568189855
 21
204.2855485556
  0
LINE
  5
432
100
AcDbEntity
  8
7_ALL_FEATURES
100
AcDbLine
 62
9
  6
CONTINUOUS
 10
338.5675504099
 20
144.6600527489
 11
338.5653362204
 21
144.9532868337
  0
LINE
  5
433
100
AcDbEntity
  8
7_ALL_FEATURES
100
AcDbLine
 62
7
  6
CONTINUOUS
 10
338.6387286631
 20
148.0751771103
 11
338.631780534
 21
148.9953459653
  0
LINE
  5
434
100
AcDbEntity
  8
7_ALL_FEATURES
100
AcDbLine
 62
9
  6
CONTINUOUS
 10
339.4189023434
 20
174.1841276461
 11
339.6121524496
 21
148.5912339906
  0
LINE
  5
435
100
AcDbEntity
  8
7_ALL_FEATURES
100
AcDbLine
 62
9
  6
CONTINUOUS
 10
334.0808209464
 20
160.4140831772
 11
312.170301928
 21
152.2521524047
  0
LINE
  5
436
100
AcDbEntity
  8
7_ALL_FEATURES
100
AcDbLine
 62
7
  6
CONTINUOUS
 10
330.6112178159
 20
169.287265206
 11
331.6357734605
 21
168.8649405779
  0
LINE
  5
437
100
AcDbEntity
  8
7_ALL_FEATURES
100
AcDbLine
 62
9
  6
CONTINUOUS
 10
336.483973663
 20
167.0813349148
 11
336.3132143889
 21
167.1517223529
  0
LINE
  5
438
100
AcDbEntity
  8
02___PRT_ALL_AXES
100
AcDbLine
 62
9
  6
CONTINUOUS
 10
329.6716725526
 20
171.4643495274
 11
327.4039940411
 21
172.3990927882
  0
LINE
  5
439
100
AcDbEntity
  8
7_ALL_FEATURES
100
AcDbLine
 62
9
  6
CONTINUOUS
 10
336.4604070062
 20
166.9192349386
 11
336.3014310605
 21
167.0706723648
  0
LINE
  5
43A
100
AcDbEntity
  8
02___PRT_ALL_AXES
100
AcDbLine
 62
7
  6
CONTINUOUS
 10
332.3197296031
 20
171.2414692045
 11
332.1831221839
 21
171.2977791549
  0
LINE
  5
43B
100
AcDbEntity
  8
7_ALL_FEATURES
100
AcDbLine
 62
9
  6
CONTINUOUS
 10
336.4422848884
 20
172.6023480445
 11
336.2715256143
 21
172.6727354826
  0
LINE
  5
43C
100
AcDbEntity
  8
7_ALL_FEATURES
100
AcDbLine
 62
9
  6
CONTINUOUS
 10
333.9623718582
 20
154.0352233092
 11
312.0518528397
 21
145.8732925367
  0
LINE
  5
43D
100
AcDbEntity
  8
02___PRT_ALL_AXES
100
AcDbLine
 62
9
  6
CONTINUOUS
 10
335.2758421637
 20
173.5519698326
 11
332.953835729
 21
174.5091072114
  0
LINE
  5
43E
100
AcDbEntity
  8
7_ALL_FEATURES
100
AcDbLine
 62
7
  6
CONTINUOUS
 10
336.093030289
 20
173.2548191431
 11
335.9222710149
 21
173.3252065811
  0
LINE
  5
43F
100
AcDbEntity
  8
7_ALL_FEATURES
100
AcDbLine
 62
7
  6
CONTINUOUS
 10
339.4189023434
 20
174.1841276461
 11
361.0028745882
 21
165.2871554803
  0
LINE
  5
440
100
AcDbEntity
  8
7_ALL_FEATURES
100
AcDbLine
 62
3
  6
CONTINUOUS
 10
314.0380550421
 20
140.594499359
 11
334.4878727927
 21
148.2123014133
  0
LINE
  5
441
100
AcDbEntity
  8
7_ALL_FEATURES
100
AcDbLine
 62
7
  6
CONTINUOUS
 10
314.1999199899
 20
140.5986438809
 11
334.6497377405
 21
148.2164459352
  0
LINE
  5
442
100
AcDbEntity
  8
7_ALL_FEATURES
100
AcDbLine
 62
7
  6
CONTINUOUS
 10
307.9570539081
 20
137.5686428838
 11
338.631780534
 21
148.9953459653
  0
LINE
  5
443
100
AcDbEntity
  8
7_ALL_FEATURES
100
AcDbLine
 62
7
  6
CONTINUOUS
 10
307.9640020372
 20
136.6484740289
 11
338.6387286631
 21
148.0751771103
  0
LINE
  5
444
100
AcDbEntity
  8
7_ALL_FEATURES
100
AcDbLine
 62
7
  6
CONTINUOUS
 10
338.3785042063
 20
145.0302994989
 11
315.7376345539
 21
136.5963043674
  0
LINE
  5
445
100
AcDbEntity
  8
7_ALL_FEATURES
100
AcDbLine
 62
7
  6
CONTINUOUS
 10
338.1435340908
 20
144.6628983668
 11
316.4521202626
 21
136.582586902
  0
LINE
  5
446
100
AcDbEntity
  8
7_ALL_FEATURES
100
AcDbLine
 62
7
  6
CONTINUOUS
 10
362.7517588616
 20
148.5099373451
 11
361.551393719
 21
152.8967425017
  0
LINE
  5
447
100
AcDbEntity
  8
7_ALL_FEATURES
100
AcDbLine
 62
3
  6
CONTINUOUS
 10
362.9094333998
 20
148.5308505791
 11
361.5467567684
 21
153.5108326373
  0
LINE
  5
448
100
AcDbEntity
  8
7_ALL_FEATURES
100
AcDbLine
 62
9
  6
CONTINUOUS
 10
358.8537521716
 20
136.298025112
 11
358.851537982
 21
136.5912591968
  0
LINE
  5
449
100
AcDbEntity
  8
7_ALL_FEATURES
100
AcDbLine
 62
7
  6
CONTINUOUS
 10
358.9346384293
 20
136.2186710182
 11
358.9320757174
 21
136.5580613229
  0
LINE
  5
44A
100
AcDbEntity
  8
02___PRT_ALL_AXES
100
AcDbLine
 62
7
  6
CONTINUOUS
 10
360.0374444423
 20
165.6851084168
 11
359.8140060688
 21
195.2759564889
  0
LINE
  5
44B
100
AcDbEntity
  8
7_ALL_FEATURES
100
AcDbLine
 62
9
  6
CONTINUOUS
 10
361.0028745882
 20
165.2871554803
 11
361.1961246944
 21
139.6942618248
  0
LINE
  5
44C
100
AcDbEntity
  8
02___PRT_ALL_AXES
100
AcDbLine
 62
9
  6
CONTINUOUS
 10
320.1130461323
 20
194.2322601779
 11
315.7610069804
 21
196.0261825737
  0
LINE
  5
44D
100
AcDbEntity
  8
02___PRT_ALL_AXES
100
AcDbLine
 62
7
  6
CONTINUOUS
 10
320.1147418212
 20
194.6320335756
 11
315.4800484496
 21
196.5424668108
  0
LINE
  5
44E
100
AcDbEntity
  8
7_ALL_FEATURES
100
AcDbLine
 62
7
  6
CONTINUOUS
 10
361.4612300485
 20
164.8374822822
 11
361.6525051949
 21
139.506140539
  0
LINE
  5
44F
100
AcDbEntity
  8
7_ALL_FEATURES
100
AcDbLine
 62
9
  6
CONTINUOUS
 10
361.5877921889
 20
148.0763458179
 11
362.7517588616
 21
148.5099373451
  0
LINE
  5
450
100
AcDbEntity
  8
02___PRT_ALL_AXES
100
AcDbLine
 62
9
  6
CONTINUOUS
 10
325.6636984944
 20
196.2970127118
 11
321.3134845188
 21
198.0901827649
  0
LINE
  5
451
100
AcDbEntity
  8
02___PRT_ALL_AXES
100
AcDbLine
 62
7
  6
CONTINUOUS
 10
325.6654001154
 20
196.6981846547
 11
321.0300417101
 21
198.6088920187
  0
LINE
  5
452
100
AcDbEntity
  8
7_ALL_FEATURES
100
AcDbLine
 62
7
  6
CONTINUOUS
 10
367.3262867098
 20
136.2500875229
 11
367.3193385807
 21
137.1702563778
  0
LINE
  5
453
100
AcDbEntity
  8
7_ALL_FEATURES
100
AcDbLine
 62
7
  6
CONTINUOUS
 10
362.9623170465
 20
142.1522325853
 11
362.2156303741
 21
139.2740188059
  0
LINE
  5
454
100
AcDbEntity
  8
7_ALL_FEATURES
100
AcDbLine
 62
9
  6
CONTINUOUS
 10
361.6362547066
 20
141.6582584804
 11
362.9623170465
 21
142.1522325853
  0
LINE
  5
455
100
AcDbEntity
  8
02___PRT_ALL_AXES
100
AcDbLine
 62
9
  6
CONTINUOUS
 10
331.2143633124
 20
198.3647018409
 11
326.8641493369
 21
200.1578718939
  0
LINE
  5
456
100
AcDbEntity
  8
02___PRT_ALL_AXES
100
AcDbLine
 62
7
  6
CONTINUOUS
 10
331.2160649334
 20
198.7658737838
 11
326.5807065281
 21
200.6765811477
  0
LINE
  5
457
100
AcDbEntity
  8
7_ALL_FEATURES
100
AcDbLine
 62
3
  6
CONTINUOUS
 10
363.1252555393
 20
142.0142032002
 11
362.3951773002
 21
139.2000090737
  0
LINE
  5
458
100
AcDbEntity
  8
02___PRT_ALL_AXES
100
AcDbLine
 62
9
  6
CONTINUOUS
 10
336.7747936799
 20
200.4283655838
 11
332.4148141549
 21
202.225561023
  0
LINE
  5
459
100
AcDbEntity
  8
02___PRT_ALL_AXES
100
AcDbLine
 62
7
  6
CONTINUOUS
 10
336.7755531858
 20
200.8299258691
 11
332.1313713461
 21
202.7442702767
  0
LINE
  5
45A
100
AcDbEntity
  8
7_ALL_FEATURES
100
AcDbLine
 62
7
  6
CONTINUOUS
 10
337.148144282
 20
128.0516294139
 11
358.8395581103
 21
136.1319408787
  0
LINE
  5
45B
100
AcDbEntity
  8
7_ALL_FEATURES
100
AcDbLine
 62
7
  6
CONTINUOUS
 10
336.9117845408
 20
127.8682620528
 11
359.5526541932
 21
136.3022571844
  0
LINE
  5
45C
100
AcDbEntity
  8
02___PRT_ALL_AXES
100
AcDbLine
 62
9
  6
CONTINUOUS
 10
359.8140060688
 20
195.2759564889
 11
337.9568189855
 21
204.2855485556
  0
LINE
  5
45D
100
AcDbEntity
  8
02___PRT_ALL_AXES
100
AcDbLine
 62
7
  6
CONTINUOUS
 10
359.532939331
 20
195.8010402629
 11
337.6757522478
 21
204.8106323296
  0
LINE
  5
45E
100
AcDbEntity
  8
7_ALL_FEATURES
100
AcDbLine
 62
7
  6
CONTINUOUS
 10
367.3262867098
 20
136.2500875229
 11
336.651560084
 21
124.8233844414
  0
LWPOLYLINE
  5
45F
100
AcDbEntity
  8
0
100
AcDbPolyline
 62
2
  6
CONTINUOUS
 90
7
 70
0
 43
0.1500000036
 10
72.279208374
 20
31.2786831665
 10
70.7792092896
 20
31.2786831665
 10
72.279208374
 20
33.4215380859
 10
72.279208374
 20
33.850112915
 10
71.8506399536
 20
34.2786813354
 10
71.2077841187
 20
34.2786813354
 10
70.7792092896
 20
33.6358255005
  0
LWPOLYLINE
  5
460
100
AcDbEntity
  8
0
100
AcDbPolyline
 62
2
  6
CONTINUOUS
 90
3
 70
0
 43
0.1500000036
 10
69.92206604
 20
31.9215390015
 10
68.4220669556
 20
31.9215390015
 10
69.0649227905
 20
34.2786813354
  0
LINE
  5
461
100
AcDbEntity
  8
7_ALL_FEATURES
100
AcDbLine
 62
3
  6
CONTINUOUS
 10
48.9295906252
 20
56.528681296
 11
48.9295906252
 21
86.528681296
  0
LINE
  5
462
100
AcDbEntity
  8
7_ALL_FEATURES
100
AcDbLine
 62
9
  6
CONTINUOUS
 10
49.6759561159
 20
56.528681296
 11
49.6759561159
 21
86.528681296
  0
LINE
  5
463
100
AcDbEntity
  8
7_ALL_FEATURES
100
AcDbLine
 62
7
  6
CONTINUOUS
 10
49.7792114202
 20
92.528681296
 11
49.7792114202
 21
86.528681296
  0
LINE
  5
464
100
AcDbEntity
  8
7_ALL_FEATURES
100
AcDbLine
 62
7
  6
CONTINUOUS
 10
49.7792114202
 20
56.528681296
 11
49.7792114202
 21
50.528681296
  0
LINE
  5
465
100
AcDbEntity
  8
7_ALL_FEATURES
100
AcDbLine
 62
7
  6
CONTINUOUS
 10
49.7792114202
 20
50.528681296
 11
91.7792114202
 21
50.528681296
  0
LINE
  5
466
100
AcDbEntity
  8
02___PRT_ALL_AXES
100
AcDbLine
 62
7
  6
CONTINUOUS
 10
52.8292114202
 20
60.528681296
 11
52.8292114202
 21
66.528681296
  0
LINE
  5
467
100
AcDbEntity
  8
02___PRT_ALL_AXES
100
AcDbLine
 62
7
  6
CONTINUOUS
 10
52.8292114202
 20
76.528681296
 11
52.8292114202
 21
82.528681296
  0
LINE
  5
468
100
AcDbEntity
  8
02___PRT_ALL_AXES
100
AcDbLine
 62
7
  6
CONTINUOUS
 10
81.2792114202
 20
52.528681296
 11
80.2792114202
 21
52.528681296
  0
LINE
  5
469
100
AcDbEntity
  8
02___PRT_ALL_AXES
100
AcDbLine
 62
7
  6
CONTINUOUS
 10
61.2792114202
 20
52.528681296
 11
60.2792114202
 21
52.528681296
  0
LINE
  5
46A
100
AcDbEntity
  8
7_ALL_FEATURES
100
AcDbLine
 62
9
  6
CONTINUOUS
 10
53.0110073839
 20
86.528681296
 11
53.0110073839
 21
82.528681296
  0
LINE
  5
46B
100
AcDbEntity
  8
7_ALL_FEATURES
100
AcDbLine
 62
9
  6
CONTINUOUS
 10
53.0110073839
 20
76.528681296
 11
53.0110073839
 21
66.528681296
  0
LINE
  5
46C
100
AcDbEntity
  8
7_ALL_FEATURES
100
AcDbLine
 62
9
  6
CONTINUOUS
 10
53.0110073839
 20
60.528681296
 11
53.0110073839
 21
56.528681296
  0
LINE
  5
46D
100
AcDbEntity
  8
7_ALL_FEATURES
100
AcDbLine
 62
3
  6
CONTINUOUS
 10
53.0292114202
 20
56.528681296
 11
53.0292114202
 21
86.528681296
  0
LINE
  5
46E
100
AcDbEntity
  8
7_ALL_FEATURES
100
AcDbLine
 62
7
  6
CONTINUOUS
 10
53.2792114202
 20
87.328681296
 11
53.2792114202
 21
55.728681296
  0
LINE
  5
46F
100
AcDbEntity
  8
7_ALL_FEATURES
100
AcDbLine
 62
7
  6
CONTINUOUS
 10
54.2792114202
 20
55.828681296
 11
54.2792114202
 21
87.228681296
  0
LINE
  5
470
100
AcDbEntity
  8
7_ALL_FEATURES
100
AcDbLine
 62
7
  6
CONTINUOUS
 10
54.5077723032
 20
86.7251186303
 11
54.5077723032
 21
81.050120413
  0
LINE
  5
471
100
AcDbEntity
  8
7_ALL_FEATURES
100
AcDbLine
 62
7
  6
CONTINUOUS
 10
54.5077723032
 20
78.007242179
 11
54.5077723032
 21
65.050120413
  0
LINE
  5
472
100
AcDbEntity
  8
7_ALL_FEATURES
100
AcDbLine
 62
7
  6
CONTINUOUS
 10
54.5077723032
 20
62.007242179
 11
54.5077723032
 21
56.3322439617
  0
LINE
  5
473
100
AcDbEntity
  8
02___PRT_ALL_AXES
100
AcDbLine
 62
7
  6
CONTINUOUS
 10
54.5292114202
 20
62.028681296
 11
54.5292114202
 21
65.028681296
  0
LINE
  5
474
100
AcDbEntity
  8
02___PRT_ALL_AXES
100
AcDbLine
 62
7
  6
CONTINUOUS
 10
54.5292114202
 20
78.028681296
 11
54.5292114202
 21
81.028681296
  0
LINE
  5
475
100
AcDbEntity
  8
7_ALL_FEATURES
100
AcDbLine
 62
7
  6
CONTINUOUS
 10
54.6148125552
 20
56.1908226055
 11
54.6148125552
 21
55.257242179
  0
LINE
  5
476
100
AcDbEntity
  8
7_ALL_FEATURES
100
AcDbLine
 62
7
  6
CONTINUOUS
 10
54.6148125552
 20
86.8665399865
 11
54.6148125552
 21
87.800120413
  0
LINE
  5
477
100
AcDbEntity
  8
02___PRT_ALL_AXES
100
AcDbLine
 62
7
  6
CONTINUOUS
 10
54.7792114202
 20
55.528681296
 11
54.7792114202
 21
87.528681296
  0
LINE
  5
478
100
AcDbEntity
  8
02___PRT_ALL_AXES
100
AcDbLine
 62
7
  6
CONTINUOUS
 10
54.5292114202
 20
78.028681296
 11
54.2792114202
 21
77.778681296
  0
LINE
  5
479
100
AcDbEntity
  8
7_ALL_FEATURES
100
AcDbLine
 62
7
  6
CONTINUOUS
 10
54.9792114202
 20
54.028681296
 11
86.5792114202
 21
54.028681296
  0
LINE
  5
47A
100
AcDbEntity
  8
7_ALL_FEATURES
100
AcDbLine
 62
7
  6
CONTINUOUS
 10
86.4792114202
 20
55.028681296
 11
55.0792114202
 21
55.028681296
  0
LINE
  5
47B
100
AcDbEntity
  8
7_ALL_FEATURES
100
AcDbLine
 62
7
  6
CONTINUOUS
 10
54.6148125552
 20
55.257242179
 11
86.9436102853
 21
55.257242179
  0
LINE
  5
47C
100
AcDbEntity
  8
02___PRT_ALL_AXES
100
AcDbLine
 62
7
  6
CONTINUOUS
 10
86.7792114202
 20
55.528681296
 11
54.7792114202
 21
55.528681296
  0
LINE
  5
47D
100
AcDbEntity
  8
02___PRT_ALL_AXES
100
AcDbLine
 62
7
  6
CONTINUOUS
 10
54.2792114202
 20
65.278681296
 11
54.5292114202
 21
65.028681296
  0
LINE
  5
47E
100
AcDbEntity
  8
7_ALL_FEATURES
100
AcDbLine
 62
7
  6
CONTINUOUS
 10
54.6409535373
 20
56.3322439617
 11
54.5077723032
 21
56.3322439617
  0
LINE
  5
47F
100
AcDbEntity
  8
7_ALL_FEATURES
100
AcDbLine
 62
7
  6
CONTINUOUS
 10
86.9174693032
 20
56.3322439617
 11
87.0506505373
 21
56.3322439617
  0
LINE
  5
480
100
AcDbEntity
  8
7_ALL_FEATURES
100
AcDbLine
 62
3
  6
CONTINUOUS
 10
92.62878095
 20
56.528681296
 11
88.5292114202
 21
56.528681296
  0
LINE
  5
481
100
AcDbEntity
  8
7_ALL_FEATURES
100
AcDbLine
 62
7
  6
CONTINUOUS
 10
53.2792114202
 20
56.528681296
 11
53.0292114202
 21
56.528681296
  0
LINE
  5
482
100
AcDbEntity
  8
7_ALL_FEATURES
100
AcDbLine
 62
3
  6
CONTINUOUS
 10
48.9296418905
 20
56.528681296
 11
53.0292114202
 21
56.528681296
  0
LINE
  5
483
100
AcDbEntity
  8
7_ALL_FEATURES
100
AcDbLine
 62
7
  6
CONTINUOUS
 10
88.2792114202
 20
56.528681296
 11
88.5292114202
 21
56.528681296
  0
LINE
  5
484
100
AcDbEntity
  8
02___PRT_ALL_AXES
100
AcDbLine
 62
9
  6
CONTINUOUS
 10
86.7792114202
 20
57.1381477474
 11
54.7792114202
 21
57.1381477474
  0
LINE
  5
485
100
AcDbEntity
  8
02___PRT_ALL_AXES
100
AcDbLine
 62
9
  6
CONTINUOUS
 10
86.7792114202
 20
57.4982811371
 11
54.7792114202
 21
57.4982811371
  0
LINE
  5
486
100
AcDbEntity
  8
7_ALL_FEATURES
100
AcDbLine
 62
9
  6
CONTINUOUS
 10
53.2792114202
 20
57.528681296
 11
53.0292114202
 21
57.528681296
  0
LINE
  5
487
100
AcDbEntity
  8
7_ALL_FEATURES
100
AcDbLine
 62
9
  6
CONTINUOUS
 10
88.2792114202
 20
57.528681296
 11
88.5292114202
 21
57.528681296
  0
LINE
  5
488
100
AcDbEntity
  8
7_ALL_FEATURES
100
AcDbLine
 62
3
  6
CONTINUOUS
 10
54.6148125552
 20
56.1908226055
 11
54.7792114202
 21
57.0802119323
  0
LINE
  5
489
100
AcDbEntity
  8
7_ALL_FEATURES
100
AcDbLine
 62
7
  6
CONTINUOUS
 10
54.7792114202
 20
56.1466315058
 11
54.6148125552
 21
55.257242179
  0
LINE
  5
48A
100
AcDbEntity
  8
7_ALL_FEATURES
100
AcDbLine
 62
3
  6
CONTINUOUS
 10
54.7792114202
 20
85.9771506597
 11
54.6148125552
 21
86.8665399865
  0
LINE
  5
48B
100
AcDbEntity
  8
7_ALL_FEATURES
100
AcDbLine
 62
7
  6
CONTINUOUS
 10
54.6148125552
 20
87.800120413
 11
54.7792114202
 21
86.9107310862
  0
LINE
  5
48C
100
AcDbEntity
  8
02___PRT_ALL_AXES
100
AcDbLine
 62
7
  6
CONTINUOUS
 10
60.2792114202
 20
90.528681296
 11
60.2792114202
 21
89.028681296
  0
LINE
  5
48D
100
AcDbEntity
  8
02___PRT_ALL_AXES
100
AcDbLine
 62
7
  6
CONTINUOUS
 10
60.2792114202
 20
52.528681296
 11
60.2792114202
 21
54.028681296
  0
LINE
  5
48E
100
AcDbEntity
  8
7_ALL_FEATURES
100
AcDbLine
 62
9
  6
CONTINUOUS
 10
60.2866124844
 20
68.8386955009
 11
60.2866124844
 21
66.618667297
  0
LINE
  5
48F
100
AcDbEntity
  8
02___PRT_ALL_AXES
100
AcDbLine
 62
7
  6
CONTINUOUS
 10
88.7292114202
 20
60.528681296
 11
88.5292114202
 21
60.528681296
  0
LINE
  5
490
100
AcDbEntity
  8
02___PRT_ALL_AXES
100
AcDbLine
 62
7
  6
CONTINUOUS
 10
53.0292114202
 20
60.528681296
 11
52.8292114202
 21
60.528681296
  0
LINE
  5
491
100
AcDbEntity
  8
02___PRT_ALL_AXES
100
AcDbLine
 62
7
  6
CONTINUOUS
 10
61.2792114202
 20
90.528681296
 11
61.2792114202
 21
89.028681296
  0
LINE
  5
492
100
AcDbEntity
  8
02___PRT_ALL_AXES
100
AcDbLine
 62
7
  6
CONTINUOUS
 10
61.2792114202
 20
52.528681296
 11
61.2792114202
 21
54.028681296
  0
LINE
  5
493
100
AcDbEntity
  8
7_ALL_FEATURES
100
AcDbLine
 62
7
  6
CONTINUOUS
 10
87.0292114202
 20
62.028681296
 11
86.7792114202
 21
62.028681296
  0
LINE
  5
494
100
AcDbEntity
  8
02___PRT_ALL_AXES
100
AcDbLine
 62
7
  6
CONTINUOUS
 10
54.7792114202
 20
62.028681296
 11
54.5292114202
 21
62.028681296
  0
LINE
  5
495
100
AcDbEntity
  8
7_ALL_FEATURES
100
AcDbLine
 62
7
  6
CONTINUOUS
 10
54.5292114202
 20
62.028681296
 11
54.7792114202
 21
62.028681296
  0
LINE
  5
496
100
AcDbEntity
  8
02___PRT_ALL_AXES
100
AcDbLine
 62
7
  6
CONTINUOUS
 10
86.7792114202
 20
62.028681296
 11
87.0292114202
 21
62.028681296
  0
LINE
  5
497
100
AcDbEntity
  8
02___PRT_ALL_AXES
100
AcDbLine
 62
9
  6
CONTINUOUS
 10
86.7792114202
 20
62.6665670673
 11
71.9756115562
 21
62.6665670673
  0
LINE
  5
498
100
AcDbEntity
  8
02___PRT_ALL_AXES
100
AcDbLine
 62
9
  6
CONTINUOUS
 10
69.5828112843
 20
62.6665670673
 11
54.7792114202
 21
62.6665670673
  0
LINE
  5
499
100
AcDbEntity
  8
02___PRT_ALL_AXES
100
AcDbLine
 62
9
  6
CONTINUOUS
 10
86.7792114202
 20
63.116777852
 11
54.7792114202
 21
63.116777852
  0
LINE
  5
49A
100
AcDbEntity
  8
02___PRT_ALL_AXES
100
AcDbLine
 62
9
  6
CONTINUOUS
 10
86.7792114202
 20
64.74058474
 11
54.7792114202
 21
64.74058474
  0
LINE
  5
49B
100
AcDbEntity
  8
7_ALL_FEATURES
100
AcDbLine
 62
7
  6
CONTINUOUS
 10
87.0292114202
 20
65.028681296
 11
86.7792114202
 21
65.028681296
  0
LINE
  5
49C
100
AcDbEntity
  8
02___PRT_ALL_AXES
100
AcDbLine
 62
7
  6
CONTINUOUS
 10
54.7792114202
 20
65.028681296
 11
54.5292114202
 21
65.028681296
  0
LINE
  5
49D
100
AcDbEntity
  8
7_ALL_FEATURES
100
AcDbLine
 62
7
  6
CONTINUOUS
 10
54.5292114202
 20
65.028681296
 11
54.7792114202
 21
65.028681296
  0
LINE
  5
49E
100
AcDbEntity
  8
02___PRT_ALL_AXES
100
AcDbLine
 62
7
  6
CONTINUOUS
 10
86.7792114202
 20
65.028681296
 11
87.0292114202
 21
65.028681296
  0
LINE
  5
49F
100
AcDbEntity
  8
02___PRT_ALL_AXES
100
AcDbLine
 62
9
  6
CONTINUOUS
 10
86.7792114202
 20
65.1914830335
 11
54.7792114202
 21
65.1914830335
  0
LINE
  5
4A0
100
AcDbEntity
  8
02___PRT_ALL_AXES
100
AcDbLine
 62
7
  6
CONTINUOUS
 10
54.5292114202
 20
62.028681296
 11
54.2792114202
 21
61.778681296
  0
LINE
  5
4A1
100
AcDbEntity
  8
02___PRT_ALL_AXES
100
AcDbLine
 62
7
  6
CONTINUOUS
 10
88.7292114202
 20
66.528681296
 11
88.5292114202
 21
66.528681296
  0
LINE
  5
4A2
100
AcDbEntity
  8
02___PRT_ALL_AXES
100
AcDbLine
 62
7
  6
CONTINUOUS
 10
53.0292114202
 20
66.528681296
 11
52.8292114202
 21
66.528681296
  0
LINE
  5
4A3
100
AcDbEntity
  8
02___PRT_ALL_AXES
100
AcDbLine
 62
7
  6
CONTINUOUS
 10
54.2792114202
 20
81.278681296
 11
54.5292114202
 21
81.028681296
  0
LWPOLYLINE
  5
4A4
100
AcDbEntity
  8
0
100
AcDbPolyline
 62
2
  6
CONTINUOUS
 90
2
 70
0
 43
0.1500000036
 10
69.4220663452
 20
31.2786831665
 10
69.4220663452
 20
32.778682251
  0
LINE
  5
4A5
100
AcDbEntity
  8
7_ALL_FEATURES
100
AcDbLine
 62
7
  6
CONTINUOUS
 10
54.6711537191
 20
56.4956253776
 11
54.5077723032
 21
56.3322439617
  0
LWPOLYLINE
  5
4A6
100
AcDbEntity
  8
0
100
AcDbPolyline
 62
2
  6
CONTINUOUS
 90
2
 70
0
 43
0.1500000036
 10
111.8725909424
 20
70.1715380859
 10
110.3725854492
 20
70.1715380859
  0
LINE
  5
4A7
100
AcDbEntity
  8
02___PRT_ALL_AXES
100
AcDbLine
 62
9
  6
CONTINUOUS
 10
86.7792114202
 20
70.2658795585
 11
54.7792114202
 21
70.2658795585
  0
LINE
  5
4A8
100
AcDbEntity
  8
02___PRT_ALL_AXES
100
AcDbLine
 62
9
  6
CONTINUOUS
 10
86.7792114202
 20
70.716777852
 11
54.7792114202
 21
70.716777852
  0
LINE
  5
4A9
100
AcDbEntity
  8
7_ALL_FEATURES
100
AcDbLine
 62
7
  6
CONTINUOUS
 10
54.6711537191
 20
86.5617372144
 11
54.5077723032
 21
86.7251186303
  0
LINE
  5
4AA
100
AcDbEntity
  8
7_ALL_FEATURES
100
AcDbLine
 62
7
  6
CONTINUOUS
 10
86.8872691214
 20
86.5617372144
 11
87.0506505373
 21
86.7251186303
  0
LINE
  5
4AB
100
AcDbEntity
  8
02___PRT_ALL_AXES
100
AcDbLine
 62
9
  6
CONTINUOUS
 10
86.7792114202
 20
72.34058474
 11
54.7792114202
 21
72.34058474
  0
LINE
  5
4AC
100
AcDbEntity
  8
02___PRT_ALL_AXES
100
AcDbLine
 62
9
  6
CONTINUOUS
 10
86.7792114202
 20
72.7914830335
 11
54.7792114202
 21
72.7914830335
  0
LINE
  5
4AD
100
AcDbEntity
  8
7_ALL_FEATURES
100
AcDbLine
 62
7
  6
CONTINUOUS
 10
86.8872691214
 20
56.4956253776
 11
87.0506505373
 21
56.3322439617
  0
LINE
  5
4AE
100
AcDbEntity
  8
02___PRT_ALL_AXES
100
AcDbLine
 62
7
  6
CONTINUOUS
 10
87.2792114202
 20
81.278681296
 11
87.0292114202
 21
81.028681296
  0
LINE
  5
4AF
100
AcDbEntity
  8
02___PRT_ALL_AXES
100
AcDbLine
 62
7
  6
CONTINUOUS
 10
88.7292114202
 20
76.528681296
 11
88.5292114202
 21
76.528681296
  0
LINE
  5
4B0
100
AcDbEntity
  8
02___PRT_ALL_AXES
100
AcDbLine
 62
7
  6
CONTINUOUS
 10
53.0292114202
 20
76.528681296
 11
52.8292114202
 21
76.528681296
  0
LINE
  5
4B1
100
AcDbEntity
  8
02___PRT_ALL_AXES
100
AcDbLine
 62
7
  6
CONTINUOUS
 10
87.0292114202
 20
62.028681296
 11
87.2792114202
 21
61.778681296
  0
LINE
  5
4B2
100
AcDbEntity
  8
02___PRT_ALL_AXES
100
AcDbLine
 62
9
  6
CONTINUOUS
 10
86.7792114202
 20
77.8658795585
 11
54.7792114202
 21
77.8658795585
  0
LINE
  5
4B3
100
AcDbEntity
  8
7_ALL_FEATURES
100
AcDbLine
 62
7
  6
CONTINUOUS
 10
87.0292114202
 20
78.028681296
 11
86.7792114202
 21
78.028681296
  0
LINE
  5
4B4
100
AcDbEntity
  8
02___PRT_ALL_AXES
100
AcDbLine
 62
7
  6
CONTINUOUS
 10
54.7792114202
 20
78.028681296
 11
54.5292114202
 21
78.028681296
  0
LINE
  5
4B5
100
AcDbEntity
  8
7_ALL_FEATURES
100
AcDbLine
 62
7
  6
CONTINUOUS
 10
54.5292114202
 20
78.028681296
 11
54.7792114202
 21
78.028681296
  0
LINE
  5
4B6
100
AcDbEntity
  8
02___PRT_ALL_AXES
100
AcDbLine
 62
7
  6
CONTINUOUS
 10
86.7792114202
 20
78.028681296
 11
87.0292114202
 21
78.028681296
  0
LINE
  5
4B7
100
AcDbEntity
  8
02___PRT_ALL_AXES
100
AcDbLine
 62
9
  6
CONTINUOUS
 10
86.7792114202
 20
78.316777852
 11
54.7792114202
 21
78.316777852
  0
LINE
  5
4B8
100
AcDbEntity
  8
02___PRT_ALL_AXES
100
AcDbLine
 62
7
  6
CONTINUOUS
 10
80.2792114202
 20
90.528681296
 11
80.2792114202
 21
89.028681296
  0
LINE
  5
4B9
100
AcDbEntity
  8
02___PRT_ALL_AXES
100
AcDbLine
 62
7
  6
CONTINUOUS
 10
80.2792114202
 20
52.528681296
 11
80.2792114202
 21
54.028681296
  0
LINE
  5
4BA
100
AcDbEntity
  8
02___PRT_ALL_AXES
100
AcDbLine
 62
9
  6
CONTINUOUS
 10
86.7792114202
 20
79.94058474
 11
54.7792114202
 21
79.94058474
  0
LINE
  5
4BB
100
AcDbEntity
  8
02___PRT_ALL_AXES
100
AcDbLine
 62
9
  6
CONTINUOUS
 10
86.7792114202
 20
80.3907955247
 11
71.9756115562
 21
80.3907955247
  0
LINE
  5
4BC
100
AcDbEntity
  8
02___PRT_ALL_AXES
100
AcDbLine
 62
9
  6
CONTINUOUS
 10
69.5828112843
 20
80.3907955247
 11
54.7792114202
 21
80.3907955247
  0
LINE
  5
4BD
100
AcDbEntity
  8
7_ALL_FEATURES
100
AcDbLine
 62
7
  6
CONTINUOUS
 10
87.0292114202
 20
81.028681296
 11
86.7792114202
 21
81.028681296
  0
LINE
  5
4BE
100
AcDbEntity
  8
02___PRT_ALL_AXES
100
AcDbLine
 62
7
  6
CONTINUOUS
 10
54.7792114202
 20
81.028681296
 11
54.5292114202
 21
81.028681296
  0
LINE
  5
4BF
100
AcDbEntity
  8
7_ALL_FEATURES
100
AcDbLine
 62
7
  6
CONTINUOUS
 10
54.5292114202
 20
81.028681296
 11
54.7792114202
 21
81.028681296
  0
LINE
  5
4C0
100
AcDbEntity
  8
02___PRT_ALL_AXES
100
AcDbLine
 62
7
  6
CONTINUOUS
 10
86.7792114202
 20
81.028681296
 11
87.0292114202
 21
81.028681296
  0
LINE
  5
4C1
100
AcDbEntity
  8
7_ALL_FEATURES
100
AcDbLine
 62
9
  6
CONTINUOUS
 10
81.271810356
 20
66.6186677091
 11
81.271810356
 21
68.8386959081
  0
LINE
  5
4C2
100
AcDbEntity
  8
02___PRT_ALL_AXES
100
AcDbLine
 62
7
  6
CONTINUOUS
 10
81.2792114202
 20
90.528681296
 11
81.2792114202
 21
89.028681296
  0
LINE
  5
4C3
100
AcDbEntity
  8
02___PRT_ALL_AXES
100
AcDbLine
 62
7
  6
CONTINUOUS
 10
81.2792114202
 20
52.528681296
 11
81.2792114202
 21
54.028681296
  0
LINE
  5
4C4
100
AcDbEntity
  8
02___PRT_ALL_AXES
100
AcDbLine
 62
7
  6
CONTINUOUS
 10
88.7292114202
 20
82.528681296
 11
88.5292114202
 21
82.528681296
  0
LINE
  5
4C5
100
AcDbEntity
  8
02___PRT_ALL_AXES
100
AcDbLine
 62
7
  6
CONTINUOUS
 10
53.0292114202
 20
82.528681296
 11
52.8292114202
 21
82.528681296
  0
LINE
  5
4C6
100
AcDbEntity
  8
7_ALL_FEATURES
100
AcDbLine
 62
7
  6
CONTINUOUS
 10
86.7792114202
 20
86.9107310862
 11
86.9436102853
 21
87.800120413
  0
LINE
  5
4C7
100
AcDbEntity
  8
7_ALL_FEATURES
100
AcDbLine
 62
3
  6
CONTINUOUS
 10
86.9436102853
 20
86.8665399865
 11
86.7792114202
 21
85.9771506597
  0
LINE
  5
4C8
100
AcDbEntity
  8
7_ALL_FEATURES
100
AcDbLine
 62
9
  6
CONTINUOUS
 10
53.2792114202
 20
85.528681296
 11
53.0292114202
 21
85.528681296
  0
LINE
  5
4C9
100
AcDbEntity
  8
7_ALL_FEATURES
100
AcDbLine
 62
9
  6
CONTINUOUS
 10
88.2792114202
 20
85.528681296
 11
88.5292114202
 21
85.528681296
  0
LINE
  5
4CA
100
AcDbEntity
  8
02___PRT_ALL_AXES
100
AcDbLine
 62
9
  6
CONTINUOUS
 10
86.7792114202
 20
85.5590814549
 11
54.7792114202
 21
85.5590814549
  0
LINE
  5
4CB
100
AcDbEntity
  8
02___PRT_ALL_AXES
100
AcDbLine
 62
9
  6
CONTINUOUS
 10
86.7792114202
 20
85.9192148446
 11
54.7792114202
 21
85.9192148446
  0
LINE
  5
4CC
100
AcDbEntity
  8
7_ALL_FEATURES
100
AcDbLine
 62
7
  6
CONTINUOUS
 10
86.9436102853
 20
55.257242179
 11
86.7792114202
 21
56.1466315058
  0
LINE
  5
4CD
100
AcDbEntity
  8
7_ALL_FEATURES
100
AcDbLine
 62
3
  6
CONTINUOUS
 10
86.7792114202
 20
57.0802119323
 11
86.9436102853
 21
56.1908226055
  0
LINE
  5
4CE
100
AcDbEntity
  8
02___PRT_ALL_AXES
100
AcDbLine
 62
7
  6
CONTINUOUS
 10
86.7792114202
 20
55.528681296
 11
86.7792114202
 21
87.528681296
  0
LINE
  5
4CF
100
AcDbEntity
  8
7_ALL_FEATURES
100
AcDbLine
 62
7
  6
CONTINUOUS
 10
86.9436102853
 20
56.1908226055
 11
86.9436102853
 21
55.257242179
  0
LINE
  5
4D0
100
AcDbEntity
  8
7_ALL_FEATURES
100
AcDbLine
 62
7
  6
CONTINUOUS
 10
86.9436102853
 20
86.8665399865
 11
86.9436102853
 21
87.800120413
  0
LINE
  5
4D1
100
AcDbEntity
  8
02___PRT_ALL_AXES
100
AcDbLine
 62
7
  6
CONTINUOUS
 10
87.0292114202
 20
81.028681296
 11
87.0292114202
 21
78.028681296
  0
LINE
  5
4D2
100
AcDbEntity
  8
02___PRT_ALL_AXES
100
AcDbLine
 62
7
  6
CONTINUOUS
 10
87.0292114202
 20
65.028681296
 11
87.0292114202
 21
62.028681296
  0
LINE
  5
4D3
100
AcDbEntity
  8
7_ALL_FEATURES
100
AcDbLine
 62
7
  6
CONTINUOUS
 10
87.0506505373
 20
56.3322439617
 11
87.0506505373
 21
62.007242179
  0
LINE
  5
4D4
100
AcDbEntity
  8
7_ALL_FEATURES
100
AcDbLine
 62
7
  6
CONTINUOUS
 10
87.0506505373
 20
65.050120413
 11
87.0506505373
 21
78.007242179
  0
LINE
  5
4D5
100
AcDbEntity
  8
7_ALL_FEATURES
100
AcDbLine
 62
7
  6
CONTINUOUS
 10
87.0506505373
 20
81.050120413
 11
87.0506505373
 21
86.7251186303
  0
LINE
  5
4D6
100
AcDbEntity
  8
02___PRT_ALL_AXES
100
AcDbLine
 62
7
  6
CONTINUOUS
 10
87.2792114202
 20
65.278681296
 11
87.0292114202
 21
65.028681296
  0
LINE
  5
4D7
100
AcDbEntity
  8
7_ALL_FEATURES
100
AcDbLine
 62
7
  6
CONTINUOUS
 10
53.2792114202
 20
86.528681296
 11
53.0292114202
 21
86.528681296
  0
LINE
  5
4D8
100
AcDbEntity
  8
7_ALL_FEATURES
100
AcDbLine
 62
3
  6
CONTINUOUS
 10
48.9296418905
 20
86.528681296
 11
53.0292114202
 21
86.528681296
  0
LINE
  5
4D9
100
AcDbEntity
  8
7_ALL_FEATURES
100
AcDbLine
 62
7
  6
CONTINUOUS
 10
88.2792114202
 20
86.528681296
 11
88.5292114202
 21
86.528681296
  0
LINE
  5
4DA
100
AcDbEntity
  8
7_ALL_FEATURES
100
AcDbLine
 62
3
  6
CONTINUOUS
 10
88.5292114202
 20
86.528681296
 11
92.62878095
 21
86.528681296
  0
LINE
  5
4DB
100
AcDbEntity
  8
7_ALL_FEATURES
100
AcDbLine
 62
7
  6
CONTINUOUS
 10
54.6409535373
 20
86.7251186303
 11
54.5077723032
 21
86.7251186303
  0
LINE
  5
4DC
100
AcDbEntity
  8
7_ALL_FEATURES
100
AcDbLine
 62
7
  6
CONTINUOUS
 10
86.9174693032
 20
86.7251186303
 11
87.0506505373
 21
86.7251186303
  0
LINE
  5
4DD
100
AcDbEntity
  8
02___PRT_ALL_AXES
100
AcDbLine
 62
7
  6
CONTINUOUS
 10
86.7792114202
 20
87.528681296
 11
54.7792114202
 21
87.528681296
  0
LINE
  5
4DE
100
AcDbEntity
  8
7_ALL_FEATURES
100
AcDbLine
 62
7
  6
CONTINUOUS
 10
86.9436102853
 20
87.800120413
 11
54.6148125552
 21
87.800120413
  0
LINE
  5
4DF
100
AcDbEntity
  8
02___PRT_ALL_AXES
100
AcDbLine
 62
7
  6
CONTINUOUS
 10
87.0292114202
 20
78.028681296
 11
87.2792114202
 21
77.778681296
  0
LINE
  5
4E0
100
AcDbEntity
  8
7_ALL_FEATURES
100
AcDbLine
 62
7
  6
CONTINUOUS
 10
87.2792114202
 20
87.228681296
 11
87.2792114202
 21
55.828681296
  0
LINE
  5
4E1
100
AcDbEntity
  8
7_ALL_FEATURES
100
AcDbLine
 62
7
  6
CONTINUOUS
 10
88.2792114202
 20
55.728681296
 11
88.2792114202
 21
87.328681296
  0
LINE
  5
4E2
100
AcDbEntity
  8
7_ALL_FEATURES
100
AcDbLine
 62
3
  6
CONTINUOUS
 10
88.5292114202
 20
86.528681296
 11
88.5292114202
 21
56.528681296
  0
LINE
  5
4E3
100
AcDbEntity
  8
7_ALL_FEATURES
100
AcDbLine
 62
9
  6
CONTINUOUS
 10
88.5474154566
 20
56.528681296
 11
88.5474154566
 21
60.528681296
  0
LINE
  5
4E4
100
AcDbEntity
  8
7_ALL_FEATURES
100
AcDbLine
 62
9
  6
CONTINUOUS
 10
88.5474154566
 20
66.528681296
 11
88.5474154566
 21
76.528681296
  0
LINE
  5
4E5
100
AcDbEntity
  8
7_ALL_FEATURES
100
AcDbLine
 62
9
  6
CONTINUOUS
 10
88.5474154566
 20
82.528681296
 11
88.5474154566
 21
86.528681296
  0
LINE
  5
4E6
100
AcDbEntity
  8
02___PRT_ALL_AXES
100
AcDbLine
 62
7
  6
CONTINUOUS
 10
88.7292114202
 20
82.528681296
 11
88.7292114202
 21
76.528681296
  0
LINE
  5
4E7
100
AcDbEntity
  8
02___PRT_ALL_AXES
100
AcDbLine
 62
7
  6
CONTINUOUS
 10
88.7292114202
 20
66.528681296
 11
88.7292114202
 21
60.528681296
  0
LINE
  5
4E8
100
AcDbEntity
  8
7_ALL_FEATURES
100
AcDbLine
 62
7
  6
CONTINUOUS
 10
55.0792114202
 20
88.028681296
 11
86.4792114202
 21
88.028681296
  0
LINE
  5
4E9
100
AcDbEntity
  8
7_ALL_FEATURES
100
AcDbLine
 62
7
  6
CONTINUOUS
 10
86.5792114202
 20
89.028681296
 11
54.9792114202
 21
89.028681296
  0
LINE
  5
4EA
100
AcDbEntity
  8
02___PRT_ALL_AXES
100
AcDbLine
 62
7
  6
CONTINUOUS
 10
60.2792114202
 20
90.528681296
 11
61.2792114202
 21
90.528681296
  0
LINE
  5
4EB
100
AcDbEntity
  8
02___PRT_ALL_AXES
100
AcDbLine
 62
7
  6
CONTINUOUS
 10
80.2792114202
 20
90.528681296
 11
81.2792114202
 21
90.528681296
  0
LINE
  5
4EC
100
AcDbEntity
  8
7_ALL_FEATURES
100
AcDbLine
 62
7
  6
CONTINUOUS
 10
91.7792114202
 20
50.528681296
 11
91.7792114202
 21
56.528681296
  0
LINE
  5
4ED
100
AcDbEntity
  8
7_ALL_FEATURES
100
AcDbLine
 62
7
  6
CONTINUOUS
 10
91.7792114202
 20
86.528681296
 11
91.7792114202
 21
92.528681296
  0
LINE
  5
4EE
100
AcDbEntity
  8
7_ALL_FEATURES
100
AcDbLine
 62
9
  6
CONTINUOUS
 10
91.8824667246
 20
86.528681296
 11
91.8824667246
 21
56.528681296
  0
LINE
  5
4EF
100
AcDbEntity
  8
7_ALL_FEATURES
100
AcDbLine
 62
3
  6
CONTINUOUS
 10
92.6288322153
 20
86.528681296
 11
92.6288322153
 21
56.528681296
  0
LINE
  5
4F0
100
AcDbEntity
  8
7_ALL_FEATURES
100
AcDbLine
 62
7
  6
CONTINUOUS
 10
91.7792114202
 20
92.528681296
 11
49.7792114202
 21
92.528681296
  0
LWPOLYLINE
  5
4F1
100
AcDbEntity
  8
0
100
AcDbPolyline
 62
2
  6
CONTINUOUS
 90
3
 70
0
 43
0.1500000036
 10
111.2297351074
 20
70.6715377808
 10
111.2297351074
 20
69.1715386963
 10
108.8725927734
 20
69.8143945313
  0
LWPOLYLINE
  5
4F2
100
AcDbEntity
  8
0
100
AcDbPolyline
 62
2
  6
CONTINUOUS
 90
7
 70
0
 43
0.1500000036
 10
111.8725909424
 20
73.0286801147
 10
111.8725909424
 20
71.5286810303
 10
109.7297296143
 20
73.0286801147
 10
109.3011547852
 20
73.0286801147
 10
108.8725927734
 20
72.6001116943
 10
108.8725927734
 20
71.9572558594
 10
109.5154486084
 20
71.5286810303
  0
LINE
  5
4F3
100
AcDbEntity
  8
7_ALL_FEATURES
100
AcDbLine
 62
7
  6
CONTINUOUS
 10
85.9292114202
 20
189.1072949696
 11
55.6292114202
 21
189.1072949696
  0
LINE
  5
4F4
100
AcDbEntity
  8
7_ALL_FEATURES
100
AcDbLine
 62
7
  6
CONTINUOUS
 10
49.7792114202
 20
189.2072949696
 11
91.7792114202
 21
189.2072949696
  0
LINE
  5
4F5
100
AcDbEntity
  8
7_ALL_FEATURES
100
AcDbLine
 62
7
  6
CONTINUOUS
 10
49.7792114202
 20
190.2072949696
 11
91.7792114202
 21
190.2072949696
  0
LINE
  5
4F6
100
AcDbEntity
  8
02___PRT_ALL_AXES
100
AcDbLine
 62
7
  6
CONTINUOUS
 10
81.2792114202
 20
191.7072949696
 11
80.2792114202
 21
191.7072949696
  0
LINE
  5
4F7
100
AcDbEntity
  8
02___PRT_ALL_AXES
100
AcDbLine
 62
7
  6
CONTINUOUS
 10
61.2792114202
 20
191.7072949696
 11
60.2792114202
 21
191.7072949696
  0
LINE
  5
4F8
100
AcDbEntity
  8
7_ALL_FEATURES
100
AcDbLine
 62
3
  6
CONTINUOUS
 10
51.2140746544
 20
191.8650247888
 11
49.4312613331
 21
197.3519599974
  0
LINE
  5
4F9
100
AcDbEntity
  8
7_ALL_FEATURES
100
AcDbLine
 62
7
  6
CONTINUOUS
 10
51.4518387835
 20
191.9422790373
 11
49.6690254622
 21
197.429214246
  0
LINE
  5
4FA
100
AcDbEntity
  8
7_ALL_FEATURES
100
AcDbLine
 62
7
  6
CONTINUOUS
 10
49.7792114202
 20
189.2072949696
 11
49.7792114202
 21
190.2072949696
  0
LINE
  5
4FB
100
AcDbEntity
  8
7_ALL_FEATURES
100
AcDbLine
 62
7
  6
CONTINUOUS
 10
90.106584057
 20
191.9422790373
 11
90.3443481861
 21
191.8650247888
  0
LINE
  5
4FC
100
AcDbEntity
  8
7_ALL_FEATURES
100
AcDbLine
 62
9
  6
CONTINUOUS
 10
49.6759561159
 20
204.3591017723
 11
49.9077520795
 21
204.2654501239
  0
LINE
  5
4FD
100
AcDbEntity
  8
7_ALL_FEATURES
100
AcDbLine
 62
9
  6
CONTINUOUS
 10
90.4156010514
 20
192.8933355536
 11
90.6533651805
 21
192.816081305
  0
LINE
  5
4FE
100
AcDbEntity
  8
02___PRT_ALL_AXES
100
AcDbLine
 62
7
  6
CONTINUOUS
 10
52.8292114202
 20
213.2072949696
 11
52.8292114202
 21
219.2072949696
  0
LINE
  5
4FF
100
AcDbEntity
  8
7_ALL_FEATURES
100
AcDbLine
 62
3
  6
CONTINUOUS
 10
53.0292114202
 20
212.7072949696
 11
53.0292114202
 21
219.7072949696
  0
LINE
  5
500
100
AcDbEntity
  8
7_ALL_FEATURES
100
AcDbLine
 62
7
  6
CONTINUOUS
 10
53.2792114202
 20
220.2072949696
 11
53.2792114202
 21
190.2072949696
  0
LINE
  5
501
100
AcDbEntity
  8
02___PRT_ALL_AXES
100
AcDbLine
 62
7
  6
CONTINUOUS
 10
54.7792114202
 20
220.2072949696
 11
54.7792114202
 21
254.1072948904
  0
LINE
  5
502
100
AcDbEntity
  8
7_ALL_FEATURES
100
AcDbLine
 62
9
  6
CONTINUOUS
 10
54.9792114202
 20
220.2072949696
 11
54.9792114202
 21
190.2072949696
  0
LINE
  5
503
100
AcDbEntity
  8
7_ALL_FEATURES
100
AcDbLine
 62
9
  6
CONTINUOUS
 10
92.1271615073
 20
197.3519599974
 11
91.8893973783
 21
197.429214246
  0
LINE
  5
504
100
AcDbEntity
  8
7_ALL_FEATURES
100
AcDbLine
 62
7
  6
CONTINUOUS
 10
55.6292114202
 20
189.1072949696
 11
55.6292114202
 21
189.2072949696
  0
LINE
  5
505
100
AcDbEntity
  8
7_ALL_FEATURES
100
AcDbLine
 62
9
  6
CONTINUOUS
 10
55.9292114202
 20
189.1072949696
 11
55.9292114202
 21
189.2072949696
  0
LINE
  5
506
100
AcDbEntity
  8
7_ALL_FEATURES
100
AcDbLine
 62
3
  6
CONTINUOUS
 10
53.0110073839
 20
212.6136433213
 11
49.6759561159
 21
204.3591017723
  0
LINE
  5
507
100
AcDbEntity
  8
7_ALL_FEATURES
100
AcDbLine
 62
7
  6
CONTINUOUS
 10
53.2428033475
 20
212.5199916729
 11
49.9077520795
 21
204.2654501239
  0
LINE
  5
508
100
AcDbEntity
  8
7_ALL_FEATURES
100
AcDbLine
 62
9
  6
CONTINUOUS
 10
53.2428033475
 20
212.5199916729
 11
53.0110073839
 21
212.6136433213
  0
LINE
  5
509
100
AcDbEntity
  8
02___PRT_ALL_AXES
100
AcDbLine
 62
7
  6
CONTINUOUS
 10
60.2792114202
 20
190.2072949696
 11
60.2792114202
 21
191.7072949696
  0
LINE
  5
50A
100
AcDbEntity
  8
02___PRT_ALL_AXES
100
AcDbLine
 62
7
  6
CONTINUOUS
 10
61.2792114202
 20
190.2072949696
 11
61.2792114202
 21
191.7072949696
  0
LINE
  5
50B
100
AcDbEntity
  8
7_ALL_FEATURES
100
AcDbLine
 62
9
  6
CONTINUOUS
 10
53.2792114202
 20
212.7072949696
 11
53.0292114202
 21
212.7072949696
  0
LINE
  5
50C
100
AcDbEntity
  8
7_ALL_FEATURES
100
AcDbLine
 62
9
  6
CONTINUOUS
 10
88.2792114202
 20
212.7072949696
 11
88.5292114202
 21
212.7072949696
  0
LINE
  5
50D
100
AcDbEntity
  8
02___PRT_ALL_AXES
100
AcDbLine
 62
7
  6
CONTINUOUS
 10
53.0292114202
 20
213.2072949696
 11
52.8292114202
 21
213.2072949696
  0
LINE
  5
50E
100
AcDbEntity
  8
02___PRT_ALL_AXES
100
AcDbLine
 62
7
  6
CONTINUOUS
 10
88.5292114202
 20
213.2072949696
 11
88.7292114202
 21
213.2072949696
  0
LINE
  5
50F
100
AcDbEntity
  8
7_ALL_FEATURES
100
AcDbLine
 62
9
  6
CONTINUOUS
 10
53.2792114202
 20
218.7072949696
 11
53.0292114202
 21
218.7072949696
  0
LINE
  5
510
100
AcDbEntity
  8
7_ALL_FEATURES
100
AcDbLine
 62
9
  6
CONTINUOUS
 10
88.2792114202
 20
218.7072949696
 11
88.5292114202
 21
218.7072949696
  0
LINE
  5
511
100
AcDbEntity
  8
02___PRT_ALL_AXES
100
AcDbLine
 62
7
  6
CONTINUOUS
 10
53.0292114202
 20
219.2072949696
 11
52.8292114202
 21
219.2072949696
  0
LINE
  5
512
100
AcDbEntity
  8
02___PRT_ALL_AXES
100
AcDbLine
 62
7
  6
CONTINUOUS
 10
88.5292114202
 20
219.2072949696
 11
88.7292114202
 21
219.2072949696
  0
LINE
  5
513
100
AcDbEntity
  8
7_ALL_FEATURES
100
AcDbLine
 62
7
  6
CONTINUOUS
 10
53.2792114202
 20
219.7072949696
 11
53.0292114202
 21
219.7072949696
  0
LINE
  5
514
100
AcDbEntity
  8
7_ALL_FEATURES
100
AcDbLine
 62
7
  6
CONTINUOUS
 10
88.2792114202
 20
219.7072949696
 11
88.5292114202
 21
219.7072949696
  0
LINE
  5
515
100
AcDbEntity
  8
7_ALL_FEATURES
100
AcDbLine
 62
7
  6
CONTINUOUS
 10
53.2792114202
 20
220.2072949696
 11
88.2792114202
 21
220.2072949696
  0
LINE
  5
516
100
AcDbEntity
  8
02___PRT_ALL_AXES
100
AcDbLine
 62
7
  6
CONTINUOUS
 10
80.2792114202
 20
190.2072949696
 11
80.2792114202
 21
191.7072949696
  0
LINE
  5
517
100
AcDbEntity
  8
02___PRT_ALL_AXES
100
AcDbLine
 62
7
  6
CONTINUOUS
 10
81.2792114202
 20
190.2072949696
 11
81.2792114202
 21
191.7072949696
  0
LINE
  5
518
100
AcDbEntity
  8
7_ALL_FEATURES
100
AcDbLine
 62
7
  6
CONTINUOUS
 10
91.650670761
 20
204.2654501239
 11
88.315619493
 21
212.5199916729
  0
LINE
  5
519
100
AcDbEntity
  8
7_ALL_FEATURES
100
AcDbLine
 62
3
  6
CONTINUOUS
 10
91.8824667246
 20
204.3591017723
 11
88.5474154566
 21
212.6136433213
  0
LINE
  5
51A
100
AcDbEntity
  8
7_ALL_FEATURES
100
AcDbLine
 62
9
  6
CONTINUOUS
 10
85.6292114202
 20
189.1072949696
 11
85.6292114202
 21
189.2072949696
  0
LINE
  5
51B
100
AcDbEntity
  8
7_ALL_FEATURES
100
AcDbLine
 62
7
  6
CONTINUOUS
 10
85.9292114202
 20
189.1072949696
 11
85.9292114202
 21
189.2072949696
  0
LINE
  5
51C
100
AcDbEntity
  8
7_ALL_FEATURES
100
AcDbLine
 62
9
  6
CONTINUOUS
 10
86.5792114202
 20
220.2072949696
 11
86.5792114202
 21
190.2072949696
  0
LINE
  5
51D
100
AcDbEntity
  8
02___PRT_ALL_AXES
100
AcDbLine
 62
7
  6
CONTINUOUS
 10
86.7792114202
 20
220.2072949696
 11
86.7792114202
 21
254.1072948904
  0
LINE
  5
51E
100
AcDbEntity
  8
7_ALL_FEATURES
100
AcDbLine
 62
9
  6
CONTINUOUS
 10
88.315619493
 20
212.5199916729
 11
88.5474154566
 21
212.6136433213
  0
LINE
  5
51F
100
AcDbEntity
  8
7_ALL_FEATURES
100
AcDbLine
 62
9
  6
CONTINUOUS
 10
49.4312613331
 20
197.3519599974
 11
49.6690254622
 21
197.429214246
  0
LINE
  5
520
100
AcDbEntity
  8
7_ALL_FEATURES
100
AcDbLine
 62
7
  6
CONTINUOUS
 10
88.2792114202
 20
220.2072949696
 11
88.2792114202
 21
190.2072949696
  0
LINE
  5
521
100
AcDbEntity
  8
7_ALL_FEATURES
100
AcDbLine
 62
3
  6
CONTINUOUS
 10
88.5292114202
 20
219.7072949696
 11
88.5292114202
 21
212.7072949696
  0
LINE
  5
522
100
AcDbEntity
  8
02___PRT_ALL_AXES
100
AcDbLine
 62
7
  6
CONTINUOUS
 10
88.7292114202
 20
213.2072949696
 11
88.7292114202
 21
219.2072949696
  0
LINE
  5
523
100
AcDbEntity
  8
7_ALL_FEATURES
100
AcDbLine
 62
7
  6
CONTINUOUS
 10
91.7792114202
 20
189.2072949696
 11
91.7792114202
 21
190.2072949696
  0
LINE
  5
524
100
AcDbEntity
  8
7_ALL_FEATURES
100
AcDbLine
 62
9
  6
CONTINUOUS
 10
51.1428217891
 20
192.8933355536
 11
50.90505766
 21
192.816081305
  0
LINE
  5
525
100
AcDbEntity
  8
7_ALL_FEATURES
100
AcDbLine
 62
9
  6
CONTINUOUS
 10
91.8824667246
 20
204.3591017723
 11
91.650670761
 21
204.2654501239
  0
LINE
  5
526
100
AcDbEntity
  8
7_ALL_FEATURES
100
AcDbLine
 62
7
  6
CONTINUOUS
 10
51.4518387835
 20
191.9422790373
 11
51.2140746544
 21
191.8650247888
  0
LWPOLYLINE
  5
527
100
AcDbEntity
  8
0
100
AcDbPolyline
 62
2
  6
CONTINUOUS
 90
10
 70
0
 43
0.1500000036
 10
108.8725927734
 20
220.428717041
 10
109.5154486084
 20
219.7858740234
 10
110.3725854492
 20
219.357286377
 10
111.4440161133
 20
219.357286377
 10
111.8725909424
 20
219.7858740234
 10
111.8725909424
 20
220.428717041
 10
111.4440161133
 20
220.8573046875
 10
110.5868792725
 20
220.8573046875
 10
110.1583044434
 20
220.428717041
 10
110.1583044434
 20
219.5001489258
  0
LINE
  5
528
100
AcDbEntity
  8
7_ALL_FEATURES
100
AcDbLine
 62
7
  6
CONTINUOUS
 10
90.106584057
 20
191.9422790373
 11
91.8893973783
 21
197.429214246
  0
LINE
  5
529
100
AcDbEntity
  8
7_ALL_FEATURES
100
AcDbLine
 62
3
  6
CONTINUOUS
 10
92.1271615073
 20
197.3519599974
 11
90.3443481861
 21
191.8650247888
  0
LINE
  5
52A
100
AcDbEntity
  8
02___PRT_ALL_AXES
100
AcDbLine
 62
9
  6
CONTINUOUS
 10
86.7792114202
 20
253.3025332336
 11
54.7792114202
 21
253.3025332336
  0
LINE
  5
52B
100
AcDbEntity
  8
02___PRT_ALL_AXES
100
AcDbLine
 62
7
  6
CONTINUOUS
 10
86.7792114202
 20
254.1072949696
 11
54.7792114202
 21
254.1072949696
  0
LWPOLYLINE
  5
52C
100
AcDbEntity
  8
0
100
AcDbPolyline
 62
2
  6
CONTINUOUS
 90
8
 70
0
 43
0.1500000036
 10
111.8725909424
 20
221.7144287109
 10
111.8725909424
 20
222.5715783691
 10
111.4440161133
 20
223.0001403809
 10
110.5868792725
 20
223.0001403809
 10
110.1583044434
 20
222.5715783691
 10
110.1583044434
 20
221.7144287109
 10
108.8725927734
 20
221.7144287109
 10
108.8725927734
 20
223.0001403809
  0
LINE
  5
52D
100
AcDbEntity
  8
7_ALL_FEATURES
100
AcDbLine
 62
7
  6
CONTINUOUS
 10
219.975325117
 20
189.1072949696
 11
189.675325117
 21
189.1072949696
  0
LINE
  5
52E
100
AcDbEntity
  8
7_ALL_FEATURES
100
AcDbLine
 62
7
  6
CONTINUOUS
 10
183.825325117
 20
189.2072949696
 11
225.825325117
 21
189.2072949696
  0
LINE
  5
52F
100
AcDbEntity
  8
7_ALL_FEATURES
100
AcDbLine
 62
7
  6
CONTINUOUS
 10
183.825325117
 20
190.2072949696
 11
225.825325117
 21
190.2072949696
  0
LINE
  5
530
100
AcDbEntity
  8
02___PRT_ALL_AXES
100
AcDbLine
 62
7
  6
CONTINUOUS
 10
215.325325117
 20
191.7072949696
 11
214.325325117
 21
191.7072949696
  0
LINE
  5
531
100
AcDbEntity
  8
02___PRT_ALL_AXES
100
AcDbLine
 62
7
  6
CONTINUOUS
 10
195.325325117
 20
191.7072949696
 11
194.325325117
 21
191.7072949696
  0
LINE
  5
532
100
AcDbEntity
  8
7_ALL_FEATURES
100
AcDbLine
 62
3
  6
CONTINUOUS
 10
190.825325117
 20
191.8650247888
 11
218.825325117
 21
191.8650247888
  0
LINE
  5
533
100
AcDbEntity
  8
7_ALL_FEATURES
100
AcDbLine
 62
9
  6
CONTINUOUS
 10
219.825325117
 20
197.3519599974
 11
189.825325117
 21
197.3519599974
  0
LINE
  5
534
100
AcDbEntity
  8
7_ALL_FEATURES
100
AcDbLine
 62
7
  6
CONTINUOUS
 10
183.825325117
 20
189.2072949696
 11
183.825325117
 21
190.2072949696
  0
LINE
  5
535
100
AcDbEntity
  8
7_ALL_FEATURES
100
AcDbLine
 62
7
  6
CONTINUOUS
 10
187.325325117
 20
220.2072949696
 11
187.325325117
 21
190.2072949696
  0
LINE
  5
536
100
AcDbEntity
  8
02___PRT_ALL_AXES
100
AcDbLine
 62
7
  6
CONTINUOUS
 10
188.825325117
 20
253.3025332336
 11
188.825325117
 21
220.2072949696
  0
LINE
  5
537
100
AcDbEntity
  8
7_ALL_FEATURES
100
AcDbLine
 62
9
  6
CONTINUOUS
 10
189.025325117
 20
220.2072949696
 11
189.025325117
 21
190.2072949696
  0
LINE
  5
538
100
AcDbEntity
  8
7_ALL_FEATURES
100
AcDbLine
 62
9
  6
CONTINUOUS
 10
219.825325117
 20
204.3591017723
 11
189.825325117
 21
204.3591017723
  0
LINE
  5
539
100
AcDbEntity
  8
02___PRT_ALL_AXES
100
AcDbLine
 62
7
  6
CONTINUOUS
 10
190.7949249581
 20
223.0609083211
 11
190.4347915685
 21
253.3121130516
  0
LINE
  5
53A
100
AcDbEntity
  8
7_ALL_FEATURES
100
AcDbLine
 62
7
  6
CONTINUOUS
 10
189.675325117
 20
189.1072949696
 11
189.675325117
 21
189.2072949696
  0
LINE
  5
53B
100
AcDbEntity
  8
7_ALL_FEATURES
100
AcDbLine
 62
3
  6
CONTINUOUS
 10
189.825325117
 20
192.816081305
 11
189.825325117
 21
218.7072949696
  0
LINE
  5
53C
100
AcDbEntity
  8
7_ALL_FEATURES
100
AcDbLine
 62
9
  6
CONTINUOUS
 10
189.975325117
 20
189.1072949696
 11
189.975325117
 21
189.2072949696
  0
LINE
  5
53D
100
AcDbEntity
  8
02___PRT_ALL_AXES
100
AcDbLine
 62
7
  6
CONTINUOUS
 10
194.325325117
 20
190.2072949696
 11
194.325325117
 21
191.7072949696
  0
LINE
  5
53E
100
AcDbEntity
  8
7_ALL_FEATURES
100
AcDbLine
 62
7
  6
CONTINUOUS
 10
195.6706245787
 20
216.2072949696
 11
196.2479748479
 21
215.2072949696
  0
LINE
  5
53F
100
AcDbEntity
  8
02___PRT_ALL_AXES
100
AcDbLine
 62
7
  6
CONTINUOUS
 10
195.325325117
 20
190.2072949696
 11
195.325325117
 21
191.7072949696
  0
LINE
  5
540
100
AcDbEntity
  8
02___PRT_ALL_AXES
100
AcDbLine
 62
7
  6
CONTINUOUS
 10
196.413421673
 20
253.307383532
 11
195.9632108883
 21
223.0532187986
  0
LINE
  5
541
100
AcDbEntity
  8
7_ALL_FEATURES
100
AcDbLine
 62
9
  6
CONTINUOUS
 10
189.825325117
 20
212.6136433213
 11
219.825325117
 21
212.6136433213
  0
LINE
  5
542
100
AcDbEntity
  8
7_ALL_FEATURES
100
AcDbLine
 62
9
  6
CONTINUOUS
 10
189.825325117
 20
212.7072949696
 11
219.825325117
 21
212.7072949696
  0
LINE
  5
543
100
AcDbEntity
  8
7_ALL_FEATURES
100
AcDbLine
 62
7
  6
CONTINUOUS
 10
197.9800256554
 20
216.2072949696
 11
197.4026753862
 21
217.2072949696
  0
LINE
  5
544
100
AcDbEntity
  8
02___PRT_ALL_AXES
100
AcDbLine
 62
7
  6
CONTINUOUS
 10
198.4881268545
 20
223.0070182121
 11
198.0372285611
 21
253.307383532
  0
LINE
  5
545
100
AcDbEntity
  8
7_ALL_FEATURES
100
AcDbLine
 62
7
  6
CONTINUOUS
 10
196.2479748479
 20
217.2072949696
 11
195.6706245787
 21
216.2072949696
  0
LINE
  5
546
100
AcDbEntity
  8
7_ALL_FEATURES
100
AcDbLine
 62
7
  6
CONTINUOUS
 10
196.2479748479
 20
215.2072949696
 11
197.4026753862
 21
215.2072949696
  0
LINE
  5
547
100
AcDbEntity
  8
7_ALL_FEATURES
100
AcDbLine
 62
7
  6
CONTINUOUS
 10
212.2479748479
 20
215.2072949696
 11
213.4026753862
 21
215.2072949696
  0
LINE
  5
548
100
AcDbEntity
  8
7_ALL_FEATURES
100
AcDbLine
 62
7
  6
CONTINUOUS
 10
197.4026753862
 20
215.2072949696
 11
197.9800256554
 21
216.2072949696
  0
LINE
  5
549
100
AcDbEntity
  8
7_ALL_FEATURES
100
AcDbLine
 62
7
  6
CONTINUOUS
 10
213.4026753862
 20
217.2072949696
 11
212.2479748479
 21
217.2072949696
  0
LINE
  5
54A
100
AcDbEntity
  8
7_ALL_FEATURES
100
AcDbLine
 62
7
  6
CONTINUOUS
 10
197.4026753862
 20
217.2072949696
 11
196.2479748479
 21
217.2072949696
  0
LINE
  5
54B
100
AcDbEntity
  8
02___PRT_ALL_AXES
100
AcDbLine
 62
7
  6
CONTINUOUS
 10
204.013421673
 20
253.307383532
 11
203.5625233796
 21
223.0070182121
  0
LINE
  5
54C
100
AcDbEntity
  8
7_ALL_FEATURES
100
AcDbLine
 62
3
  6
CONTINUOUS
 10
218.825325117
 20
219.7072949696
 11
190.825325117
 21
219.7072949696
  0
LINE
  5
54D
100
AcDbEntity
  8
7_ALL_FEATURES
100
AcDbLine
 62
7
  6
CONTINUOUS
 10
187.325325117
 20
220.2072949696
 11
222.325325117
 21
220.2072949696
  0
LINE
  5
54E
100
AcDbEntity
  8
02___PRT_ALL_AXES
100
AcDbLine
 62
7
  6
CONTINUOUS
 10
206.0881268545
 20
223.0070182121
 11
205.6372285611
 21
253.307383532
  0
LINE
  5
54F
100
AcDbEntity
  8
7_ALL_FEATURES
100
AcDbLine
 62
7
  6
CONTINUOUS
 10
211.6706245787
 20
216.2072949696
 11
212.2479748479
 21
215.2072949696
  0
LINE
  5
550
100
AcDbEntity
  8
7_ALL_FEATURES
100
AcDbLine
 62
7
  6
CONTINUOUS
 10
213.9800256554
 20
216.2072949696
 11
213.4026753862
 21
217.2072949696
  0
LINE
  5
551
100
AcDbEntity
  8
02___PRT_ALL_AXES
100
AcDbLine
 62
7
  6
CONTINUOUS
 10
211.613421673
 20
253.307383532
 11
211.1625233796
 21
223.0070182121
  0
LINE
  5
552
100
AcDbEntity
  8
02___PRT_ALL_AXES
100
AcDbLine
 62
7
  6
CONTINUOUS
 10
213.6874393458
 20
223.0532187986
 11
213.2372285611
 21
253.307383532
  0
LINE
  5
553
100
AcDbEntity
  8
02___PRT_ALL_AXES
100
AcDbLine
 62
7
  6
CONTINUOUS
 10
214.325325117
 20
190.2072949696
 11
214.325325117
 21
191.7072949696
  0
LINE
  5
554
100
AcDbEntity
  8
02___PRT_ALL_AXES
100
AcDbLine
 62
7
  6
CONTINUOUS
 10
215.325325117
 20
190.2072949696
 11
215.325325117
 21
191.7072949696
  0
LINE
  5
555
100
AcDbEntity
  8
7_ALL_FEATURES
100
AcDbLine
 62
7
  6
CONTINUOUS
 10
212.2479748479
 20
217.2072949696
 11
211.6706245787
 21
216.2072949696
  0
LINE
  5
556
100
AcDbEntity
  8
7_ALL_FEATURES
100
AcDbLine
 62
7
  6
CONTINUOUS
 10
213.4026753862
 20
215.2072949696
 11
213.9800256554
 21
216.2072949696
  0
LINE
  5
557
100
AcDbEntity
  8
7_ALL_FEATURES
100
AcDbLine
 62
9
  6
CONTINUOUS
 10
219.675325117
 20
189.1072949696
 11
219.675325117
 21
189.2072949696
  0
LINE
  5
558
100
AcDbEntity
  8
7_ALL_FEATURES
100
AcDbLine
 62
3
  6
CONTINUOUS
 10
219.825325117
 20
192.816081305
 11
219.825325117
 21
218.7072949696
  0
LINE
  5
559
100
AcDbEntity
  8
7_ALL_FEATURES
100
AcDbLine
 62
7
  6
CONTINUOUS
 10
219.975325117
 20
189.1072949696
 11
219.975325117
 21
189.2072949696
  0
LINE
  5
55A
100
AcDbEntity
  8
7_ALL_FEATURES
100
AcDbLine
 62
9
  6
CONTINUOUS
 10
220.625325117
 20
220.2072949696
 11
220.625325117
 21
190.2072949696
  0
LINE
  5
55B
100
AcDbEntity
  8
02___PRT_ALL_AXES
100
AcDbLine
 62
7
  6
CONTINUOUS
 10
220.825325117
 20
220.2072949696
 11
220.825325117
 21
253.3025332336
  0
LINE
  5
55C
100
AcDbEntity
  8
02___PRT_ALL_AXES
100
AcDbLine
 62
7
  6
CONTINUOUS
 10
219.2158586656
 20
253.3121130516
 11
218.855725276
 21
223.0609083211
  0
LINE
  5
55D
100
AcDbEntity
  8
7_ALL_FEATURES
100
AcDbLine
 62
7
  6
CONTINUOUS
 10
222.325325117
 20
220.2072949696
 11
222.325325117
 21
190.2072949696
  0
LINE
  5
55E
100
AcDbEntity
  8
7_ALL_FEATURES
100
AcDbLine
 62
7
  6
CONTINUOUS
 10
225.825325117
 20
189.2072949696
 11
225.825325117
 21
190.2072949696
  0
ARC
  5
55F
100
AcDbEntity
  8
02___PRT_ALL_AXES
100
AcDbCircle
 62
7
  6
CONTINUOUS
 10
318.732213989
 20
162.6627336312
 40
1.3683761613
100
AcDbArc
 50
247.6049356798
 51
253.7619750287
  0
ARC
  5
560
100
AcDbEntity
  8
02___PRT_ALL_AXES
100
AcDbCircle
 62
7
  6
CONTINUOUS
 10
330.4178241322
 20
167.0157633765
 40
1.3683761612
100
AcDbArc
 50
247.6049356797
 51
253.7619750288
  0
ARC
  5
561
100
AcDbEntity
  8
02___PRT_ALL_AXES
100
AcDbCircle
 62
7
  6
CONTINUOUS
 10
319.9762594976
 20
165.6806368852
 40
1.3673638055
100
AcDbArc
 50
61.4514448365
 51
67.5886154719
  0
ARC
  5
562
100
AcDbEntity
  8
02___PRT_ALL_AXES
100
AcDbCircle
 62
7
  6
CONTINUOUS
 10
331.6618696408
 20
170.0336666305
 40
1.3673638055
100
AcDbArc
 50
61.4514448365
 51
67.5886154719
  0
ARC
  5
563
100
AcDbEntity
  8
7_ALL_FEATURES
100
AcDbCircle
 62
3
  6
CONTINUOUS
 10
334.2248312239
 20
148.8792546409
 40
0.718007414
100
AcDbArc
 50
302.872748145
 51
308.2641229454
  0
ARC
  5
564
100
AcDbEntity
  8
7_ALL_FEATURES
100
AcDbCircle
 62
3
  6
CONTINUOUS
 10
313.8248798931
 20
141.1666655636
 40
0.6105880852
100
AcDbArc
 50
287.0114837157
 51
290.434164424
  0
ARC
  5
565
100
AcDbEntity
  8
7_ALL_FEATURES
100
AcDbCircle
 62
7
  6
CONTINUOUS
 10
313.9927820409
 20
141.1410180673
 40
0.5801045076
100
AcDbArc
 50
271.4823333343
 51
275.0185023887
  0
ARC
  5
566
100
AcDbEntity
  8
7_ALL_FEATURES
100
AcDbCircle
 62
3
  6
CONTINUOUS
 10
335.7238556271
 20
172.8696499316
 40
0.4980523045
100
AcDbArc
 50
46.8803295975
 51
48.6805776609
  0
ARC
  5
567
100
AcDbEntity
  8
7_ALL_FEATURES
100
AcDbCircle
 62
7
  6
CONTINUOUS
 10
86.5792114202
 20
87.328681296
 40
1.7
100
AcDbArc
 50
0.0
 51
90.0
  0
ARC
  5
568
100
AcDbEntity
  8
7_ALL_FEATURES
100
AcDbCircle
 62
7
  6
CONTINUOUS
 10
86.5792114202
 20
55.728681296
 40
1.7
100
AcDbArc
 50
270.0
 51
360.0
  0
ARC
  5
569
100
AcDbEntity
  8
7_ALL_FEATURES
100
AcDbCircle
 62
7
  6
CONTINUOUS
 10
54.9792114202
 20
55.728681296
 40
1.7
100
AcDbArc
 50
180.0
 51
270.0
  0
ARC
  5
56A
100
AcDbEntity
  8
7_ALL_FEATURES
100
AcDbCircle
 62
7
  6
CONTINUOUS
 10
54.9792114202
 20
87.328681296
 40
1.7
100
AcDbArc
 50
90.0
 51
180.0
  0
CIRCLE
  5
56B
100
AcDbEntity
  8
02___PRT_ALL_AXES
100
AcDbCircle
 62
7
  6
CONTINUOUS
 10
59.2792114202
 20
67.728681296
 40
1.5
  0
CIRCLE
  5
56C
100
AcDbEntity
  8
02___PRT_ALL_AXES
100
AcDbCircle
 62
7
  6
CONTINUOUS
 10
82.2792114202
 20
67.728681296
 40
1.5
  0
ARC
  5
56D
100
AcDbEntity
  8
02___PRT_ALL_AXES
100
AcDbCircle
 62
7
  6
CONTINUOUS
 10
70.7792114202
 20
63.028681296
 40
1.25
100
AcDbArc
 50
196.729709698
 51
343.270290302
  0
ARC
  5
56E
100
AcDbEntity
  8
02___PRT_ALL_AXES
100
AcDbCircle
 62
7
  6
CONTINUOUS
 10
70.7792114202
 20
80.028681296
 40
1.25
100
AcDbArc
 50
16.729709698
 51
163.270290302
  0
ARC
  5
56F
100
AcDbEntity
  8
7_ALL_FEATURES
100
AcDbCircle
 62
7
  6
CONTINUOUS
 10
70.7792114202
 20
63.028681296
 40
1.0
100
AcDbArc
 50
201.0412263864
 51
338.9587701089
  0
ARC
  5
570
100
AcDbEntity
  8
7_ALL_FEATURES
100
AcDbCircle
 62
7
  6
CONTINUOUS
 10
70.7792114202
 20
80.028681296
 40
1.0
100
AcDbArc
 50
21.0412263864
 51
158.9587701089
  0
ARC
  5
571
100
AcDbEntity
  8
7_ALL_FEATURES
100
AcDbCircle
 62
7
  6
CONTINUOUS
 10
86.4792114202
 20
55.828681296
 40
0.8
100
AcDbArc
 50
270.0
 51
360.0
  0
ARC
  5
572
100
AcDbEntity
  8
7_ALL_FEATURES
100
AcDbCircle
 62
7
  6
CONTINUOUS
 10
55.0792114202
 20
55.828681296
 40
0.8
100
AcDbArc
 50
180.0
 51
270.0
  0
ARC
  5
573
100
AcDbEntity
  8
7_ALL_FEATURES
100
AcDbCircle
 62
7
  6
CONTINUOUS
 10
55.0792114202
 20
87.228681296
 40
0.8
100
AcDbArc
 50
90.0
 51
180.0
  0
ARC
  5
574
100
AcDbEntity
  8
7_ALL_FEATURES
100
AcDbCircle
 62
7
  6
CONTINUOUS
 10
86.4792114202
 20
87.228681296
 40
0.8
100
AcDbArc
 50
0.0
 51
90.0
  0
ARC
  5
575
100
AcDbEntity
  8
7_ALL_FEATURES
100
AcDbCircle
 62
3
  6
CONTINUOUS
 10
82.3788322153
 20
200.5193841898
 40
10.25
100
AcDbArc
 50
342.0
 51
22.0
  0
ARC
  5
576
100
AcDbEntity
  8
7_ALL_FEATURES
100
AcDbCircle
 62
3
  6
CONTINUOUS
 10
59.1795906252
 20
200.5193841898
 40
10.25
100
AcDbArc
 50
158.0
 51
198.0
  0
ARC
  5
577
100
AcDbEntity
  8
7_ALL_FEATURES
100
AcDbCircle
 62
7
  6
CONTINUOUS
 10
82.3788322153
 20
200.5193841898
 40
10.0
100
AcDbArc
 50
342.0
 51
22.0
  0
ARC
  5
578
100
AcDbEntity
  8
7_ALL_FEATURES
100
AcDbCircle
 62
7
  6
CONTINUOUS
 10
59.1795906252
 20
200.5193841898
 40
10.0
100
AcDbArc
 50
158.0
 51
198.0
  0
ARC
  5
579
100
AcDbEntity
  8
02___PRT_ALL_AXES
100
AcDbCircle
 62
7
  6
CONTINUOUS
 10
53.2792114202
 20
190.2072949696
 40
1.5
100
AcDbArc
 50
90.0
 51
180.0
  0
ARC
  5
57A
100
AcDbEntity
  8
02___PRT_ALL_AXES
100
AcDbCircle
 62
7
  6
CONTINUOUS
 10
88.2792114202
 20
190.2072949696
 40
1.5
100
AcDbArc
 50
0.0
 51
90.0
  0
ARC
  5
57B
100
AcDbEntity
  8
7_ALL_FEATURES
100
AcDbCircle
 62
7
  6
CONTINUOUS
 10
88.7792114202
 20
212.7072949696
 40
0.5
100
AcDbArc
 50
180.0
 51
202.0
  0
ARC
  5
57C
100
AcDbEntity
  8
7_ALL_FEATURES
100
AcDbCircle
 62
7
  6
CONTINUOUS
 10
52.7792114202
 20
212.7072949696
 40
0.5
100
AcDbArc
 50
338.0
 51
360.0
  0
ARC
  5
57D
100
AcDbEntity
  8
7_ALL_FEATURES
100
AcDbCircle
 62
3
  6
CONTINUOUS
 10
88.7792114202
 20
212.7072949696
 40
0.25
100
AcDbArc
 50
180.0
 51
202.0
  0
ARC
  5
57E
100
AcDbEntity
  8
7_ALL_FEATURES
100
AcDbCircle
 62
3
  6
CONTINUOUS
 10
52.7792114202
 20
212.7072949696
 40
0.25
100
AcDbArc
 50
338.0
 51
360.0
  0
CIRCLE
  5
57F
100
AcDbEntity
  8
02___PRT_ALL_AXES
100
AcDbCircle
 62
7
  6
CONTINUOUS
 10
196.825325117
 20
216.2072949696
 40
3.0
  0
CIRCLE
  5
580
100
AcDbEntity
  8
02___PRT_ALL_AXES
100
AcDbCircle
 62
7
  6
CONTINUOUS
 10
212.825325117
 20
216.2072949696
 40
3.0
  0
ARC
  5
581
100
AcDbEntity
  8
02___PRT_ALL_AXES
100
AcDbCircle
 62
7
  6
CONTINUOUS
 10
193.3791194154
 20
223.0916725408
 40
2.5843775712
100
AcDbArc
 50
180.6820603932
 51
359.1474471603
  0
ARC
  5
582
100
AcDbEntity
  8
02___PRT_ALL_AXES
100
AcDbCircle
 62
7
  6
CONTINUOUS
 10
216.2715308187
 20
223.0916725408
 40
2.5843775712
100
AcDbArc
 50
180.8525528397
 51
359.3179396068
  0
ARC
  5
583
100
AcDbEntity
  8
02___PRT_ALL_AXES
100
AcDbCircle
 62
7
  6
CONTINUOUS
 10
201.025325117
 20
223.0447741387
 40
2.5374791691
100
AcDbArc
 50
180.8525528397
 51
359.1474471603
  0
ARC
  5
584
100
AcDbEntity
  8
02___PRT_ALL_AXES
100
AcDbCircle
 62
7
  6
CONTINUOUS
 10
208.625325117
 20
223.0447741387
 40
2.5374791691
100
AcDbArc
 50
180.8525528397
 51
359.1474471603
  0
ARC
  5
585
100
AcDbEntity
  8
02___PRT_ALL_AXES
100
AcDbCircle
 62
7
  6
CONTINUOUS
 10
222.325325117
 20
190.2072949696
 40
1.5
100
AcDbArc
 50
0.0
 51
90.0
  0
ARC
  5
586
100
AcDbEntity
  8
02___PRT_ALL_AXES
100
AcDbCircle
 62
7
  6
CONTINUOUS
 10
187.325325117
 20
190.2072949696
 40
1.5
100
AcDbArc
 50
90.0
 51
180.0
  0
ARC
  5
587
100
AcDbEntity
  8
7_ALL_FEATURES
100
AcDbCircle
 62
3
  6
CONTINUOUS
 10
190.825325117
 20
218.7072949696
 40
1.0
100
AcDbArc
 50
90.0
 51
180.0
  0
ARC
  5
588
100
AcDbEntity
  8
7_ALL_FEATURES
100
AcDbCircle
 62
3
  6
CONTINUOUS
 10
218.825325117
 20
218.7072949696
 40
1.0
100
AcDbArc
 50
0.0
 51
90.0
  0
ARC
  5
589
100
AcDbEntity
  8
02___PRT_ALL_AXES
100
AcDbCircle
 62
7
  6
CONTINUOUS
 10
197.225325117
 20
253.2953016355
 40
0.8119933341
100
AcDbArc
 50
0.8525528397
 51
179.1474471603
  0
ARC
  5
58A
100
AcDbEntity
  8
02___PRT_ALL_AXES
100
AcDbCircle
 62
7
  6
CONTINUOUS
 10
204.825325117
 20
253.2953016355
 40
0.8119933341
100
AcDbArc
 50
0.8525528397
 51
179.1474471603
  0
ARC
  5
58B
100
AcDbEntity
  8
02___PRT_ALL_AXES
100
AcDbCircle
 62
7
  6
CONTINUOUS
 10
212.425325117
 20
253.2953016355
 40
0.8119933341
100
AcDbArc
 50
0.8525528397
 51
179.1474471603
  0
ARC
  5
58C
100
AcDbEntity
  8
02___PRT_ALL_AXES
100
AcDbCircle
 62
7
  6
CONTINUOUS
 10
189.6300868531
 20
253.3025332336
 40
0.8047617361
100
AcDbArc
 50
0.6820603932
 51
180.0
  0
ARC
  5
58D
100
AcDbEntity
  8
02___PRT_ALL_AXES
100
AcDbCircle
 62
7
  6
CONTINUOUS
 10
220.020563381
 20
253.3025332336
 40
0.8047617361
100
AcDbArc
 50
0.0
 51
179.3179396068
  0
SPLINE
  5
58E
100
AcDbEntity
  8
02___PRT_ALL_AXES
100
AcDbSpline
 62
7
  6
CONTINUOUS
 70
0
 71
3
 72
14
 73
10
 74
0
 42
0.0000001
 43
0.0000001
 44
0.0000000001
 40
0.0
 40
0.0
 40
0.0
 40
0.0
 40
0.284995523
 40
0.4180347159
 40
0.5444747253
 40
0.6647356983
 40
0.7797395796
 40
0.890891139
 40
1.0
 40
1.0
 40
1.0
 40
1.0
 10
321.6818832581
 20
164.9310261635
 30
0.0
 10
321.6801983442
 20
165.1541661268
 30
0.0
 10
321.6462412859
 20
165.4832629086
 30
0.0
 10
321.5262568351
 20
165.8932872009
 30
0.0
 10
321.4055732428
 20
166.1661095692
 30
0.0
 10
321.253883551
 20
166.4065734324
 30
0.0
 10
321.0733095658
 20
166.610714996
 30
0.0
 10
320.866689112
 20
166.7748367277
 30
0.0
 10
320.7131034168
 20
166.8558839114
 30
0.0
 10
320.6341193293
 20
166.8884391421
 30
0.0
  0
SPLINE
  5
58F
100
AcDbEntity
  8
02___PRT_ALL_AXES
100
AcDbSpline
 62
7
  6
CONTINUOUS
 70
0
 71
3
 72
20
 73
16
 74
0
 42
0.0000001
 43
0.0000001
 44
0.0000000001
 40
0.0
 40
0.0
 40
0.0
 40
0.0
 40
0.0480999881
 40
0.0971928427
 40
0.1481470864
 40
0.20161832
 40
0.3172139773
 40
0.3796910514
 40
0.4449197619
 40
0.5124919726
 40
0.5818830523
 40
0.7234914377
 40
0.7945083091
 40
0.8647103949
 40
1.0
 40
1.0
 40
1.0
 40
1.0
 10
320.4975725188
 20
166.9447241094
 30
0.0
 10
320.4144960013
 20
166.9789708158
 30
0.0
 10
320.2392487818
 20
167.0315589516
 30
0.0
 10
319.9622054168
 20
167.0583585172
 30
0.0
 10
319.6749676065
 20
167.0334098995
 30
0.0
 10
319.2756104335
 20
166.9297393773
 30
0.0
 10
318.887127163
 20
166.7253485877
 30
0.0
 10
318.528042248
 20
166.445906305
 30
0.0
 10
318.2660501313
 20
166.1909004695
 30
0.0
 10
318.0233628801
 20
165.9006452665
 30
0.0
 10
317.7291167916
 20
165.470656045
 30
0.0
 10
317.4928353138
 20
164.9959463643
 30
0.0
 10
317.3220655639
 20
164.4953054477
 30
0.0
 10
317.200073088
 20
163.9929070098
 30
0.0
 10
317.1612636481
 20
163.6076853733
 30
0.0
 10
317.1631720351
 20
163.3549499595
 30
0.0
  0
SPLINE
  5
590
100
AcDbEntity
  8
02___PRT_ALL_AXES
100
AcDbSpline
 62
7
  6
CONTINUOUS
 70
0
 71
3
 72
14
 73
10
 74
0
 42
0.0000001
 43
0.0000001
 44
0.0000000001
 40
0.0
 40
0.0
 40
0.0
 40
0.0
 40
0.1091086512
 40
0.2202603671
 40
0.3352645793
 40
0.4555258811
 40
0.5819660828
 40
0.7150052467
 40
1.0
 40
1.0
 40
1.0
 40
1.0
 10
318.2108753551
 20
161.397561964
 30
0.0
 10
318.1318951804
 20
161.4301200314
 30
0.0
 10
317.9783175302
 20
161.5111718497
 30
0.0
 10
317.7717089095
 20
161.6752968527
 30
0.0
 10
317.5911456196
 20
161.879438467
 30
0.0
 10
317.439465111
 20
162.1198994595
 30
0.0
 10
317.318788931
 20
162.3927163781
 30
0.0
 10
317.1988119921
 20
162.8027299325
 30
0.0
 10
317.1648568977
 20
163.1318167949
 30
0.0
 10
317.1631720351
 20
163.3549499595
 30
0.0
  0
SPLINE
  5
591
100
AcDbEntity
  8
02___PRT_ALL_AXES
100
AcDbSpline
 62
7
  6
CONTINUOUS
 70
0
 71
3
 72
15
 73
11
 74
0
 42
0.0000001
 43
0.0000001
 44
0.0000000001
 40
0.0
 40
0.0
 40
0.0
 40
0.0
 40
0.1475314339
 40
0.2889951133
 40
0.4235194365
 40
0.5507076325
 40
0.6707465692
 40
0.7844966313
 40
0.893521591
 40
1.0
 40
1.0
 40
1.0
 40
1.0
 10
320.7275637676
 20
162.2755995259
 30
0.0
 10
320.6425618215
 20
162.1715294605
 30
0.0
 10
320.4652394788
 20
161.9761622717
 30
0.0
 10
320.1744734751
 20
161.7213442113
 30
0.0
 10
319.8693443641
 20
161.5151103768
 30
0.0
 10
319.5558522055
 20
161.3618148548
 30
0.0
 10
319.2401182716
 20
161.2648477392
 30
0.0
 10
318.9283774899
 20
161.2267322335
 30
0.0
 10
318.6273376105
 20
161.248878693
 30
0.0
 10
318.4372066496
 20
161.304270114
 30
0.0
 10
318.3475433832
 20
161.3412270305
 30
0.0
  0
SPLINE
  5
592
100
AcDbEntity
  8
02___PRT_ALL_AXES
100
AcDbSpline
 62
7
  6
CONTINUOUS
 70
0
 71
3
 72
9
 73
5
 74
0
 42
0.0000001
 43
0.0000001
 44
0.0000000001
 40
0.0
 40
0.0
 40
0.0
 40
0.0
 40
0.2449469347
 40
1.0
 40
1.0
 40
1.0
 40
1.0
 10
321.5452758388
 20
164.987336114
 30
0.0
 10
321.5456613788
 20
164.9362774975
 30
0.0
 10
321.5426214921
 20
164.7278107026
 30
0.0
 10
321.5216724263
 20
164.5196854646
 30
0.0
 10
321.496858525
 20
164.3642602572
 30
0.0
  0
SPLINE
  5
593
100
AcDbEntity
  8
02___PRT_ALL_AXES
100
AcDbSpline
 62
7
  6
CONTINUOUS
 70
0
 71
3
 72
18
 73
14
 74
0
 42
0.0000001
 43
0.0000001
 44
0.0000000001
 40
0.0
 40
0.0
 40
0.0
 40
0.0
 40
0.1402457906
 40
0.2824088343
 40
0.4224410884
 40
0.5565689277
 40
0.6205173813
 40
0.681980602
 40
0.7967941812
 40
0.8504564255
 40
0.9018858109
 40
0.9515339837
 40
1.0
 40
1.0
 40
1.0
 40
1.0
 10
321.496858525
 20
164.3642602572
 30
0.0
 10
321.4612378712
 20
164.1411455028
 30
0.0
 10
321.3520126133
 20
163.69715271
 30
0.0
 10
321.0890466054
 20
163.0666947483
 30
0.0
 10
320.7375712351
 20
162.4922736623
 30
0.0
 10
320.3796000057
 20
162.0777559033
 30
0.0
 10
320.0643905742
 20
161.8020331417
 30
0.0
 10
319.7489903988
 20
161.57711669
 30
0.0
 10
319.4135691957
 20
161.4102623259
 30
0.0
 10
319.0705487665
 20
161.3178753066
 30
0.0
 10
318.822128462
 20
161.2877344607
 30
0.0
 10
318.5803799977
 20
161.2958495761
 30
0.0
 10
318.4245413839
 20
161.3271062694
 30
0.0
 10
318.3495772155
 20
161.3489442957
 30
0.0
  0
SPLINE
  5
594
100
AcDbEntity
  8
02___PRT_ALL_AXES
100
AcDbSpline
 62
7
  6
CONTINUOUS
 70
0
 71
3
 72
11
 73
7
 74
0
 42
0.0000001
 43
0.0000001
 44
0.0000000001
 40
0.0
 40
0.0
 40
0.0
 40
0.0
 40
0.2469823858
 40
0.5000009699
 40
0.7530177912
 40
1.0
 40
1.0
 40
1.0
 40
1.0
 10
321.6643914055
 20
164.5483347844
 30
0.0
 10
321.6445291769
 20
164.3442728185
 30
0.0
 10
321.5713949429
 20
163.9338274414
 30
0.0
 10
321.3737588999
 20
163.3386845395
 30
0.0
 10
321.0946108322
 20
162.7771385823
 30
0.0
 10
320.8572603411
 20
162.4343903714
 30
0.0
 10
320.7275637676
 20
162.2755995259
 30
0.0
  0
SPLINE
  5
595
100
AcDbEntity
  8
02___PRT_ALL_AXES
100
AcDbSpline
 62
7
  6
CONTINUOUS
 70
0
 71
3
 72
13
 73
9
 74
0
 42
0.0000001
 43
0.0000001
 44
0.0000000001
 40
0.0
 40
0.0
 40
0.0
 40
0.0
 40
0.2832410365
 40
0.5425820168
 40
0.6635951193
 40
0.7794153531
 40
0.8910837014
 40
1.0
 40
1.0
 40
1.0
 40
1.0
 10
321.5452758388
 20
164.987336114
 30
0.0
 10
321.5437060058
 20
165.1952354467
 30
0.0
 10
321.505195049
 20
165.594527451
 30
0.0
 10
321.3535470601
 20
166.0628234853
 30
0.0
 10
321.1737763141
 20
166.3808187597
 30
0.0
 10
321.016433619
 20
166.5837848742
 30
0.0
 10
320.835665551
 20
166.7535182771
 30
0.0
 10
320.6999562813
 20
166.8435441163
 30
0.0
 10
320.6297272274
 20
166.8817462485
 30
0.0
  0
SPLINE
  5
596
100
AcDbEntity
  8
02___PRT_ALL_AXES
100
AcDbSpline
 62
7
  6
CONTINUOUS
 70
0
 71
3
 72
14
 73
10
 74
0
 42
0.0000001
 43
0.0000001
 44
0.0000000001
 40
0.0
 40
0.0
 40
0.0
 40
0.0
 40
0.284995523
 40
0.4180347159
 40
0.5444747253
 40
0.6647356983
 40
0.7797395796
 40
0.890891139
 40
1.0
 40
1.0
 40
1.0
 40
1.0
 10
333.3674934013
 20
169.2840559089
 30
0.0
 10
333.3658084874
 20
169.5071958721
 30
0.0
 10
333.3318514291
 20
169.8362926539
 30
0.0
 10
333.2118669782
 20
170.2463169462
 30
0.0
 10
333.091183386
 20
170.5191393145
 30
0.0
 10
332.9394936942
 20
170.7596031777
 30
0.0
 10
332.758919709
 20
170.9637447413
 30
0.0
 10
332.5522992552
 20
171.127866473
 30
0.0
 10
332.39871356
 20
171.2089136567
 30
0.0
 10
332.3197294724
 20
171.2414688874
 30
0.0
  0
SPLINE
  5
597
100
AcDbEntity
  8
02___PRT_ALL_AXES
100
AcDbSpline
 62
7
  6
CONTINUOUS
 70
0
 71
3
 72
20
 73
16
 74
0
 42
0.0000001
 43
0.0000001
 44
0.0000000001
 40
0.0
 40
0.0
 40
0.0
 40
0.0
 40
0.0480999881
 40
0.0971928427
 40
0.1481470864
 40
0.20161832
 40
0.3172139773
 40
0.3796910514
 40
0.4449197619
 40
0.5124919726
 40
0.5818830523
 40
0.7234914377
 40
0.7945083091
 40
0.8647103949
 40
1.0
 40
1.0
 40
1.0
 40
1.0
 10
332.183182662
 20
171.2977538547
 30
0.0
 10
332.1001061445
 20
171.3320005612
 30
0.0
 10
331.924858925
 20
171.3845886969
 30
0.0
 10
331.64781556
 20
171.4113882625
 30
0.0
 10
331.3605777497
 20
171.3864396449
 30
0.0
 10
330.9612205766
 20
171.2827691226
 30
0.0
 10
330.5727373061
 20
171.078378333
 30
0.0
 10
330.2136523912
 20
170.7989360503
 30
0.0
 10
329.9516602745
 20
170.5439302148
 30
0.0
 10
329.7089730233
 20
170.2536750119
 30
0.0
 10
329.4147269348
 20
169.8236857904
 30
0.0
 10
329.1784454569
 20
169.3489761097
 30
0.0
 10
329.007675707
 20
168.8483351931
 30
0.0
 10
328.8856832312
 20
168.3459367551
 30
0.0
 10
328.8468737913
 20
167.9607151186
 30
0.0
 10
328.8487821783
 20
167.7079797048
 30
0.0
  0
SPLINE
  5
598
100
AcDbEntity
  8
02___PRT_ALL_AXES
100
AcDbSpline
 62
7
  6
CONTINUOUS
 70
0
 71
3
 72
14
 73
10
 74
0
 42
0.0000001
 43
0.0000001
 44
0.0000000001
 40
0.0
 40
0.0
 40
0.0
 40
0.0
 40
0.1091086512
 40
0.2202603671
 40
0.3352645793
 40
0.4555258811
 40
0.5819660828
 40
0.7150052467
 40
1.0
 40
1.0
 40
1.0
 40
1.0
 10
329.8964854983
 20
165.7505917093
 30
0.0
 10
329.8175053236
 20
165.7831497767
 30
0.0
 10
329.6639276734
 20
165.864201595
 30
0.0
 10
329.4573190526
 20
166.028326598
 30
0.0
 10
329.2767557627
 20
166.2324682123
 30
0.0
 10
329.1250752542
 20
166.4729292048
 30
0.0
 10
329.0043990742
 20
166.7457461235
 30
0.0
 10
328.8844221353
 20
167.1557596778
 30
0.0
 10
328.8504670408
 20
167.4848465402
 30
0.0
 10
328.8487821783
 20
167.7079797048
 30
0.0
  0
SPLINE
  5
599
100
AcDbEntity
  8
02___PRT_ALL_AXES
100
AcDbSpline
 62
7
  6
CONTINUOUS
 70
0
 71
3
 72
15
 73
11
 74
0
 42
0.0000001
 43
0.0000001
 44
0.0000000001
 40
0.0
 40
0.0
 40
0.0
 40
0.0
 40
0.1475314339
 40
0.2889951133
 40
0.4235194365
 40
0.5507076325
 40
0.6707465692
 40
0.7844966313
 40
0.893521591
 40
1.0
 40
1.0
 40
1.0
 40
1.0
 10
332.4131739108
 20
166.6286292712
 30
0.0
 10
332.3281719647
 20
166.5245592058
 30
0.0
 10
332.150849622
 20
166.329192017
 30
0.0
 10
331.8600836183
 20
166.0743739566
 30
0.0
 10
331.5549545072
 20
165.8681401222
 30
0.0
 10
331.2414623487
 20
165.7148446002
 30
0.0
 10
330.9257284148
 20
165.6178774845
 30
0.0
 10
330.6139876331
 20
165.5797619789
 30
0.0
 10
330.3129477537
 20
165.6019084384
 30
0.0
 10
330.1228167927
 20
165.6572998593
 30
0.0
 10
330.0331535264
 20
165.6942567758
 30
0.0
  0
SPLINE
  5
59A
100
AcDbEntity
  8
02___PRT_ALL_AXES
100
AcDbSpline
 62
7
  6
CONTINUOUS
 70
0
 71
3
 72
9
 73
5
 74
0
 42
0.0000001
 43
0.0000001
 44
0.0000000001
 40
0.0
 40
0.0
 40
0.0
 40
0.0
 40
0.2449469347
 40
1.0
 40
1.0
 40
1.0
 40
1.0
 10
333.230885982
 20
169.3403658593
 30
0.0
 10
333.2312715219
 20
169.2893072429
 30
0.0
 10
333.2282316353
 20
169.0808404479
 30
0.0
 10
333.2072825695
 20
168.8727152099
 30
0.0
 10
333.1824686681
 20
168.7172900025
 30
0.0
  0
SPLINE
  5
59B
100
AcDbEntity
  8
02___PRT_ALL_AXES
100
AcDbSpline
 62
7
  6
CONTINUOUS
 70
0
 71
3
 72
18
 73
14
 74
0
 42
0.0000001
 43
0.0000001
 44
0.0000000001
 40
0.0
 40
0.0
 40
0.0
 40
0.0
 40
0.1402457906
 40
0.2824088343
 40
0.4224410884
 40
0.5565689277
 40
0.6205173813
 40
0.681980602
 40
0.7967941812
 40
0.8504564255
 40
0.9018858109
 40
0.9515339837
 40
1.0
 40
1.0
 40
1.0
 40
1.0
 10
333.1824686681
 20
168.7172900025
 30
0.0
 10
333.1468480144
 20
168.4941752482
 30
0.0
 10
333.0376227564
 20
168.0501824554
 30
0.0
 10
332.7746567486
 20
167.4197244936
 30
0.0
 10
332.4231813783
 20
166.8453034076
 30
0.0
 10
332.0652101489
 20
166.4307856486
 30
0.0
 10
331.7500007174
 20
166.155062887
 30
0.0
 10
331.4346005419
 20
165.9301464353
 30
0.0
 10
331.0991793389
 20
165.7632920712
 30
0.0
 10
330.7561589097
 20
165.6709050519
 30
0.0
 10
330.5077386052
 20
165.640764206
 30
0.0
 10
330.2659901408
 20
165.6488793214
 30
0.0
 10
330.110151527
 20
165.6801360147
 30
0.0
 10
330.0351873586
 20
165.701974041
 30
0.0
  0
SPLINE
  5
59C
100
AcDbEntity
  8
02___PRT_ALL_AXES
100
AcDbSpline
 62
7
  6
CONTINUOUS
 70
0
 71
3
 72
11
 73
7
 74
0
 42
0.0000001
 43
0.0000001
 44
0.0000000001
 40
0.0
 40
0.0
 40
0.0
 40
0.0
 40
0.2469823858
 40
0.5000009699
 40
0.7530177912
 40
1.0
 40
1.0
 40
1.0
 40
1.0
 10
333.3500015486
 20
168.9013645297
 30
0.0
 10
333.3301393201
 20
168.6973025638
 30
0.0
 10
333.257005086
 20
168.2868571867
 30
0.0
 10
333.0593690431
 20
167.6917142848
 30
0.0
 10
332.7802209753
 20
167.1301683276
 30
0.0
 10
332.5428704843
 20
166.7874201167
 30
0.0
 10
332.4131739108
 20
166.6286292712
 30
0.0
  0
SPLINE
  5
59D
100
AcDbEntity
  8
02___PRT_ALL_AXES
100
AcDbSpline
 62
7
  6
CONTINUOUS
 70
0
 71
3
 72
13
 73
9
 74
0
 42
0.0000001
 43
0.0000001
 44
0.0000000001
 40
0.0
 40
0.0
 40
0.0
 40
0.0
 40
0.2832410365
 40
0.5425820168
 40
0.6635951193
 40
0.7794153531
 40
0.8910837014
 40
1.0
 40
1.0
 40
1.0
 40
1.0
 10
333.230885982
 20
169.3403658593
 30
0.0
 10
333.229316149
 20
169.548265192
 30
0.0
 10
333.1908051922
 20
169.9475571963
 30
0.0
 10
333.0391572033
 20
170.4158532306
 30
0.0
 10
332.8593864573
 20
170.733848505
 30
0.0
 10
332.7020437622
 20
170.9368146196
 30
0.0
 10
332.5212756942
 20
171.1065480224
 30
0.0
 10
332.3855664245
 20
171.1965738616
 30
0.0
 10
332.3153373706
 20
171.2347759938
 30
0.0
  0
SPLINE
  5
59E
100
AcDbEntity
  8
7_ALL_FEATURES
100
AcDbSpline
 62
7
  6
CONTINUOUS
 70
0
 71
3
 72
11
 73
7
 74
0
 42
0.0000001
 43
0.0000001
 44
0.0000000001
 40
0.0
 40
0.0
 40
0.0
 40
0.0
 40
0.2295004529
 40
0.4748669832
 40
0.7330520056
 40
1.0
 40
1.0
 40
1.0
 40
1.0
 10
362.9623170465
 20
142.1522325853
 30
0.0
 10
363.0857716414
 20
142.6281065087
 30
0.0
 10
363.257599835
 20
143.6355373095
 30
0.0
 10
363.301400391
 20
145.2094943962
 30
0.0
 10
363.1406702945
 20
146.8560784981
 30
0.0
 10
362.9026852069
 20
147.9583681214
 30
0.0
 10
362.7517588616
 20
148.5099373451
 30
0.0
  0
SPLINE
  5
59F
100
AcDbEntity
  8
7_ALL_FEATURES
100
AcDbSpline
 62
7
  6
CONTINUOUS
 70
0
 71
3
 72
11
 73
7
 74
0
 42
0.0000001
 43
0.0000001
 44
0.0000000001
 40
0.0
 40
0.0
 40
0.0
 40
0.0
 40
0.2198304797
 40
0.4548525569
 40
0.7143640213
 40
1.0
 40
1.0
 40
1.0
 40
1.0
 10
336.0928703909
 20
173.2548795859
 30
0.0
 10
336.1458089016
 20
173.2330650079
 30
0.0
 10
336.2473549012
 20
173.1659800485
 30
0.0
 10
336.3587454186
 20
173.0130381984
 30
0.0
 10
336.4270413459
 20
172.8192509687
 30
0.0
 10
336.4417231406
 20
172.6767425836
 30
0.0
 10
336.4422848884
 20
172.6023480445
 30
0.0
  0
SPLINE
  5
5A0
100
AcDbEntity
  8
7_ALL_FEATURES
100
AcDbSpline
 62
7
  6
CONTINUOUS
 70
0
 71
3
 72
11
 73
7
 74
0
 42
0.0000001
 43
0.0000001
 44
0.0000000001
 40
0.0
 40
0.0
 40
0.0
 40
0.0
 40
0.2695380448
 40
0.5283676682
 40
0.7727127907
 40
1.0
 40
1.0
 40
1.0
 40
1.0
 10
334.124236806
 20
154.0393678311
 30
0.0
 10
333.9994494983
 20
154.5909270959
 30
0.0
 10
333.8142254189
 20
155.6867584105
 30
0.0
 10
333.7351345014
 20
157.3101132682
 30
0.0
 10
333.8609548395
 20
158.8420525622
 30
0.0
 10
334.0888950204
 20
159.8102962994
 30
0.0
 10
334.2397968921
 20
160.2626457511
 30
0.0
  0
SPLINE
  5
5A1
100
AcDbEntity
  8
7_ALL_FEATURES
100
AcDbSpline
 62
7
  6
CONTINUOUS
 70
0
 71
3
 72
9
 73
5
 74
0
 42
0.0000001
 43
0.0000001
 44
0.0000000001
 40
0.0
 40
0.0
 40
0.0
 40
0.0
 40
0.2354789338
 40
1.0
 40
1.0
 40
1.0
 40
1.0
 10
336.4604070062
 20
166.9192349386
 30
0.0
 10
336.4644864147
 20
166.9314635359
 30
0.0
 10
336.4792367564
 20
166.9842482381
 30
0.0
 10
336.4842896832
 20
167.0394830699
 30
0.0
 10
336.483973663
 20
167.0813349148
 30
0.0
  0
SPLINE
  5
5A2
100
AcDbEntity
  8
7_ALL_FEATURES
100
AcDbSpline
 62
7
  6
CONTINUOUS
 70
0
 71
3
 72
9
 73
5
 74
0
 42
0.0000001
 43
0.0000001
 44
0.0000000001
 40
0.0
 40
0.0
 40
0.0
 40
0.0
 40
0.2521446857
 40
1.0
 40
1.0
 40
1.0
 40
1.0
 10
314.1999199899
 20
140.5986438809
 30
0.0
 10
314.1872675458
 20
140.5939306939
 30
0.0
 10
314.1364896747
 20
140.5768910983
 30
0.0
 10
314.0834207448
 20
140.5666387829
 30
0.0
 10
314.0435280964
 20
140.5631373896
 30
0.0
  0
SPLINE
  5
5A3
100
AcDbEntity
  8
7_ALL_FEATURES
100
AcDbSpline
 62
7
  6
CONTINUOUS
 70
0
 71
3
 72
13
 73
9
 74
0
 42
0.0000001
 43
0.0000001
 44
0.0000000001
 40
0.0
 40
0.0
 40
0.0
 40
0.0
 40
0.2699890571
 40
0.5340168448
 40
0.6595620496
 40
0.778971278
 40
0.8922077739
 40
1.0
 40
1.0
 40
1.0
 40
1.0
 10
335.1624102404
 20
149.450646538
 30
0.0
 10
335.1910909558
 20
149.3238779224
 30
0.0
 10
335.2094896744
 20
149.0631468383
 30
0.0
 10
335.1376019847
 20
148.7482607013
 30
0.0
 10
335.0249789397
 20
148.529387114
 30
0.0
 10
334.9189007892
 20
148.3920454636
 30
0.0
 10
334.7936684411
 20
148.2845013791
 30
0.0
 10
334.6983645584
 20
148.2345600073
 30
0.0
 10
334.6497377405
 20
148.2164459352
 30
0.0
  0
SPLINE
  5
5A4
100
AcDbEntity
  8
7_ALL_FEATURES
100
AcDbSpline
 62
7
  6
CONTINUOUS
 70
0
 71
3
 72
10
 73
6
 74
0
 42
0.0000001
 43
0.0000001
 44
0.0000000001
 40
0.0
 40
0.0
 40
0.0
 40
0.0
 40
0.189231866
 40
0.536447699
 40
1.0
 40
1.0
 40
1.0
 40
1.0
 10
316.3570529474
 20
136.4958232749
 30
0.0
 10
316.3571108939
 20
136.4883336937
 30
0.0
 10
316.3629504984
 20
136.467006524
 30
0.0
 10
316.3922240268
 20
136.4381308761
 30
0.0
 10
316.420963361
 20
136.4234947977
 30
0.0
 10
316.4379262013
 20
136.4165026687
 30
0.0
  0
SPLINE
  5
5A5
100
AcDbEntity
  8
7_ALL_FEATURES
100
AcDbSpline
 62
7
  6
CONTINUOUS
 70
0
 71
3
 72
11
 73
7
 74
0
 42
0.0000001
 43
0.0000001
 44
0.0000000001
 40
0.0
 40
0.0
 40
0.0
 40
0.0
 40
0.3272698756
 40
0.5990806394
 40
0.8172443567
 40
1.0
 40
1.0
 40
1.0
 40
1.0
 10
358.8395581103
 20
136.1319408787
 30
0.0
 10
358.8534179015
 20
136.1371038169
 30
0.0
 10
358.8782939823
 20
136.148089609
 30
0.0
 10
358.90914763
 20
136.1688277318
 30
0.0
 10
358.9295126466
 20
136.192168274
 30
0.0
 10
358.9346893247
 20
136.2104455424
 30
0.0
 10
358.9346254255
 20
136.2187045058
 30
0.0
  0
SPLINE
  5
5A6
100
AcDbEntity
  8
7_ALL_FEATURES
100
AcDbSpline
 62
7
  6
CONTINUOUS
 70
0
 71
3
 72
11
 73
7
 74
0
 42
0.0000001
 43
0.0000001
 44
0.0000000001
 40
0.0
 40
0.0
 40
0.0
 40
0.0
 40
0.2286795461
 40
0.493876864
 40
0.7623259399
 40
1.0
 40
1.0
 40
1.0
 40
1.0
 10
336.7241279629
 20
128.0544750318
 30
0.0
 10
336.7545222877
 20
128.0419464084
 30
0.0
 10
336.8240656032
 20
128.024557384
 30
0.0
 10
336.933643813
 20
128.0158490257
 30
0.0
 10
337.0446349107
 20
128.0232750483
 30
0.0
 10
337.1161253897
 20
128.039701993
 30
0.0
 10
337.148144282
 20
128.0516294139
 30
0.0
  0
SPLINE
  5
5A7
100
AcDbEntity
  8
7_ALL_FEATURES
100
AcDbSpline
 62
7
  6
CONTINUOUS
 70
0
 71
3
 72
11
 73
7
 74
0
 42
0.0000001
 43
0.0000001
 44
0.0000000001
 40
0.0
 40
0.0
 40
0.0
 40
0.0
 40
0.3272698756
 40
0.5990806394
 40
0.8172443567
 40
1.0
 40
1.0
 40
1.0
 40
1.0
 10
316.4521202626
 20
136.582586902
 30
0.0
 10
316.4382604714
 20
136.5774239638
 30
0.0
 10
316.4133843905
 20
136.5664381717
 30
0.0
 10
316.3825307428
 20
136.5457000489
 30
0.0
 10
316.3621657262
 20
136.5223595067
 30
0.0
 10
316.3569890482
 20
136.5040822383
 30
0.0
 10
316.3570529474
 20
136.4958232749
 30
0.0
  0
SPLINE
  5
5A8
100
AcDbEntity
  8
7_ALL_FEATURES
100
AcDbSpline
 62
7
  6
CONTINUOUS
 70
0
 71
3
 72
11
 73
7
 74
0
 42
0.0000001
 43
0.0000001
 44
0.0000000001
 40
0.0
 40
0.0
 40
0.0
 40
0.0
 40
0.2286795461
 40
0.493876864
 40
0.7623259399
 40
1.0
 40
1.0
 40
1.0
 40
1.0
 10
338.5675504099
 20
144.6600527489
 30
0.0
 10
338.5371560851
 20
144.6725813724
 30
0.0
 10
338.4676127697
 20
144.6899703968
 30
0.0
 10
338.3580345599
 20
144.698678755
 30
0.0
 10
338.2470434621
 20
144.6912527325
 30
0.0
 10
338.1755529831
 20
144.6748257877
 30
0.0
 10
338.1435340908
 20
144.6628983668
 30
0.0
  0
SPLINE
  5
5A9
100
AcDbEntity
  8
7_ALL_FEATURES
100
AcDbSpline
 62
7
  6
CONTINUOUS
 70
0
 71
3
 72
10
 73
6
 74
0
 42
0.0000001
 43
0.0000001
 44
0.0000000001
 40
0.0
 40
0.0
 40
0.0
 40
0.0
 40
0.189231866
 40
0.536447699
 40
1.0
 40
1.0
 40
1.0
 40
1.0
 10
358.9346254255
 20
136.2187045058
 30
0.0
 10
358.9345674789
 20
136.226194087
 30
0.0
 10
358.9287278745
 20
136.2475212568
 30
0.0
 10
358.899454346
 20
136.2763969046
 30
0.0
 10
358.8707150119
 20
136.291032983
 30
0.0
 10
358.8537521716
 20
136.298025112
 30
0.0
  0
SPLINE
  5
5AA
100
AcDbEntity
  8
7_ALL_FEATURES
100
AcDbSpline
 62
7
  6
CONTINUOUS
 70
0
 71
3
 72
11
 73
7
 74
0
 42
0.0000001
 43
0.0000001
 44
0.0000000001
 40
0.0
 40
0.0
 40
0.0
 40
0.0
 40
0.322153839
 40
0.5910644369
 40
0.8111625558
 40
1.0
 40
1.0
 40
1.0
 40
1.0
 10
361.0028745882
 20
165.2871554803
 30
0.0
 10
361.0698462715
 20
165.25954957
 30
0.0
 10
361.1900063087
 20
165.2013875351
 30
0.0
 10
361.3384312169
 20
165.0931744513
 30
0.0
 10
361.435777059
 20
164.9724416529
 30
0.0
 10
361.460893999
 20
164.8800335456
 30
0.0
 10
361.4612233034
 20
164.8375736047
 30
0.0
  0
SPLINE
  5
5AB
100
AcDbEntity
  8
7_ALL_FEATURES
100
AcDbSpline
 62
7
  6
CONTINUOUS
 70
0
 71
3
 72
13
 73
9
 74
0
 42
0.0000001
 43
0.0000001
 44
0.0000000001
 40
0.0
 40
0.0
 40
0.0
 40
0.0
 40
0.1131239878
 40
0.2378011447
 40
0.5061015617
 40
0.7711496894
 40
0.8919495505
 40
1.0
 40
1.0
 40
1.0
 40
1.0
 10
337.0161432019
 20
174.2002528142
 30
0.0
 10
337.1025573308
 20
174.2324431123
 30
0.0
 10
337.2887296994
 20
174.2881864454
 30
0.0
 10
337.6940935952
 20
174.3673206551
 30
0.0
 10
338.2315842432
 20
174.4028803019
 30
0.0
 10
338.76561674
 20
174.3609179007
 30
0.0
 10
339.1597104386
 20
174.2761339103
 30
0.0
 10
339.3374699335
 20
174.2176943074
 30
0.0
 10
339.4189023434
 20
174.1841276461
 30
0.0
  0
SPLINE
  5
5AC
100
AcDbEntity
  8
7_ALL_FEATURES
100
AcDbSpline
 62
7
  6
CONTINUOUS
 70
0
 71
3
 72
13
 73
9
 74
0
 42
0.0000001
 43
0.0000001
 44
0.0000000001
 40
0.0
 40
0.0
 40
0.0
 40
0.0
 40
0.089409153
 40
0.1837752289
 40
0.2871586749
 40
0.4023224239
 40
0.6732131478
 40
1.0
 40
1.0
 40
1.0
 40
1.0
 10
313.39828144
 20
165.1114569539
 30
0.0
 10
313.3981034862
 20
165.1344020115
 30
0.0
 10
313.4041164586
 20
165.1818208188
 30
0.0
 10
313.4316610988
 20
165.2508666892
 30
0.0
 10
313.4768318992
 20
165.3178716047
 30
0.0
 10
313.5642989617
 20
165.4086993981
 30
0.0
 10
313.7176954355
 20
165.5116142745
 30
0.0
 10
313.8584730912
 20
165.5737433219
 30
0.0
 10
313.9370631692
 20
165.6030190672
 30
0.0
  0
SPLINE
  5
5AD
100
AcDbEntity
  8
02___PRT_ALL_AXES
100
AcDbSpline
 62
7
  6
CONTINUOUS
 70
0
 71
3
 72
14
 73
10
 74
0
 42
0.0000001
 43
0.0000001
 44
0.0000000001
 40
0.0
 40
0.0
 40
0.0
 40
0.0
 40
0.2849923787
 40
0.4180358786
 40
0.544474515
 40
0.6647360355
 40
0.7797397392
 40
0.8908912296
 40
1.0
 40
1.0
 40
1.0
 40
1.0
 10
359.8140060688
 20
195.2759564889
 30
0.0
 10
359.8135540886
 20
195.3358140523
 30
0.0
 10
359.8044439442
 20
195.4240955527
 30
0.0
 10
359.7722600106
 20
195.534087003
 30
0.0
 10
359.7398847651
 20
195.607272944
 30
0.0
 10
359.6991941765
 20
195.6717786161
 30
0.0
 10
359.6507539212
 20
195.7265400713
 30
0.0
 10
359.595327127
 20
195.7705664088
 30
0.0
 10
359.5541267789
 20
195.7923067442
 30
0.0
 10
359.5329391949
 20
195.801040319
 30
0.0
  0
SPLINE
  5
5AE
100
AcDbEntity
  8
02___PRT_ALL_AXES
100
AcDbSpline
 62
7
  6
CONTINUOUS
 70
0
 71
3
 72
11
 73
7
 74
0
 42
0.0000001
 43
0.0000001
 44
0.0000000001
 40
0.0
 40
0.0
 40
0.0
 40
0.0
 40
0.2422192627
 40
0.493874059
 40
0.7486836191
 40
1.0
 40
1.0
 40
1.0
 40
1.0
 10
320.0089342388
 20
169.6869763559
 30
0.0
 10
320.0081727263
 20
169.5074431507
 30
0.0
 10
319.9741882667
 20
169.1410069801
 30
0.0
 10
319.8377413262
 20
168.6010728602
 30
0.0
 10
319.6210343116
 20
168.0807906026
 30
0.0
 10
319.4265417263
 20
167.7580062985
 30
0.0
 10
319.3180734355
 20
167.6065665337
 30
0.0
  0
SPLINE
  5
5AF
100
AcDbEntity
  8
02___PRT_ALL_AXES
100
AcDbSpline
 62
7
  6
CONTINUOUS
 70
0
 71
3
 72
11
 73
7
 74
0
 42
0.0000001
 43
0.0000001
 44
0.0000000001
 40
0.0
 40
0.0
 40
0.0
 40
0.0
 40
0.2421606214
 40
0.4937302839
 40
0.748527363
 40
1.0
 40
1.0
 40
1.0
 40
1.0
 10
325.5594179421
 20
171.7119660975
 30
0.0
 10
325.5586758312
 20
171.5370070149
 30
0.0
 10
325.5257928031
 20
171.1799290524
 30
0.0
 10
325.3937043773
 20
170.6535366458
 30
0.0
 10
325.1838155698
 20
170.1458104976
 30
0.0
 10
324.9953948055
 20
169.8303885406
 30
0.0
 10
324.8902787086
 20
169.6821949388
 30
0.0
  0
SPLINE
  5
5B0
100
AcDbEntity
  8
02___PRT_ALL_AXES
100
AcDbSpline
 62
7
  6
CONTINUOUS
 70
0
 71
3
 72
14
 73
10
 74
0
 42
0.0000001
 43
0.0000001
 44
0.0000000001
 40
0.0
 40
0.0
 40
0.0
 40
0.0
 40
0.2235244381
 40
0.3473332792
 40
0.4767430656
 40
0.6093856581
 40
0.7425905838
 40
0.8736366204
 40
1.0
 40
1.0
 40
1.0
 40
1.0
 10
326.2656172539
 20
200.6730354954
 30
0.0
 10
326.1830437281
 20
200.642275868
 30
0.0
 10
326.0652451299
 20
200.5647496707
 30
0.0
 10
325.9357232027
 20
200.4283320593
 30
0.0
 10
325.8473828129
 20
200.3037666657
 30
0.0
 10
325.7748660454
 20
200.1653833321
 30
0.0
 10
325.7206567612
 20
200.0181238103
 30
0.0
 10
325.6867906886
 20
199.8674646944
 30
0.0
 10
325.6784122385
 20
199.7659057778
 30
0.0
 10
325.6782009468
 20
199.7160919137
 30
0.0
  0
SPLINE
  5
5B1
100
AcDbEntity
  8
02___PRT_ALL_AXES
100
AcDbSpline
 62
7
  6
CONTINUOUS
 70
0
 71
3
 72
11
 73
7
 74
0
 42
0.0000001
 43
0.0000001
 44
0.0000000001
 40
0.0
 40
0.0
 40
0.0
 40
0.0
 40
0.2421606214
 40
0.4937302839
 40
0.748527363
 40
1.0
 40
1.0
 40
1.0
 40
1.0
 10
331.1100827601
 20
173.7796552265
 30
0.0
 10
331.1093406492
 20
173.6046961439
 30
0.0
 10
331.0764576211
 20
173.2476181814
 30
0.0
 10
330.9443691953
 20
172.7212257748
 30
0.0
 10
330.7344803878
 20
172.2134996266
 30
0.0
 10
330.5460596235
 20
171.8980776696
 30
0.0
 10
330.4409435266
 20
171.7498840678
 30
0.0
  0
SPLINE
  5
5B2
100
AcDbEntity
  8
02___PRT_ALL_AXES
100
AcDbSpline
 62
7
  6
CONTINUOUS
 70
0
 71
3
 72
11
 73
7
 74
0
 42
0.0000001
 43
0.0000001
 44
0.0000000001
 40
0.0
 40
0.0
 40
0.0
 40
0.0
 40
0.2421186513
 40
0.4937654454
 40
0.7486236068
 40
1.0
 40
1.0
 40
1.0
 40
1.0
 10
336.7284432068
 20
175.9222892696
 30
0.0
 10
336.7281027186
 20
175.7422689277
 30
0.0
 10
336.6947139984
 20
175.3746875701
 30
0.0
 10
336.5585352433
 20
174.8329239068
 30
0.0
 10
336.341517609
 20
174.3107694245
 30
0.0
 10
336.1464670836
 20
173.9868398489
 30
0.0
 10
336.0376400345
 20
173.834886633
 30
0.0
  0
SPLINE
  5
5B3
100
AcDbEntity
  8
02___PRT_ALL_AXES
100
AcDbSpline
 62
7
  6
CONTINUOUS
 70
0
 71
3
 72
18
 73
14
 74
0
 42
0.0000001
 43
0.0000001
 44
0.0000000001
 40
0.0
 40
0.0
 40
0.0
 40
0.0
 40
0.0481262661
 40
0.0972353687
 40
0.1481881529
 40
0.2016365416
 40
0.3171301523
 40
0.3795375541
 40
0.4446959023
 40
0.5813967069
 40
0.7230199167
 40
0.8642923945
 40
1.0
 40
1.0
 40
1.0
 40
1.0
 10
337.6757521117
 20
204.8106323856
 30
0.0
 10
337.6535916379
 20
204.8197669881
 30
0.0
 10
337.6068612135
 20
204.8338149416
 30
0.0
 10
337.5329970672
 20
204.8410790952
 30
0.0
 10
337.4564110193
 20
204.8346169363
 30
0.0
 10
337.3499204204
 20
204.8073286686
 30
0.0
 10
337.2462387066
 20
204.7532900634
 30
0.0
 10
337.1502824547
 20
204.679267635
 30
0.0
 10
337.0553762311
 20
204.5877023202
 30
0.0
 10
336.951339774
 20
204.4504554799
 30
0.0
 10
336.856732309
 20
204.2629148784
 30
0.0
 10
336.7964511288
 20
204.0622536669
 30
0.0
 10
336.7814054177
 20
203.9240742489
 30
0.0
 10
336.7812775806
 20
203.8564851472
 30
0.0
  0
SPLINE
  5
5B4
100
AcDbEntity
  8
02___PRT_ALL_AXES
100
AcDbSpline
 62
7
  6
CONTINUOUS
 70
0
 71
3
 72
18
 73
14
 74
0
 42
0.0000001
 43
0.0000001
 44
0.0000000001
 40
0.0
 40
0.0
 40
0.0
 40
0.0
 40
0.0481293249
 40
0.0972389357
 40
0.1481876566
 40
0.2016264852
 40
0.3170861649
 40
0.379471538
 40
0.4446074036
 40
0.5812721887
 40
0.7228879161
 40
0.8641987525
 40
1.0
 40
1.0
 40
1.0
 40
1.0
 10
332.1313666373
 20
202.7442721963
 30
0.0
 10
332.1090385906
 20
202.7534756981
 30
0.0
 10
332.06195894
 20
202.7676350733
 30
0.0
 10
331.9875454405
 20
202.7749828805
 30
0.0
 10
331.9103888456
 20
202.7685205417
 30
0.0
 10
331.8031026192
 20
202.7411177093
 30
0.0
 10
331.6986228077
 20
202.6867918099
 30
0.0
 10
331.6018997235
 20
202.6123410427
 30
0.0
 10
331.5062083268
 20
202.5202248509
 30
0.0
 10
331.401246493
 20
202.3821036837
 30
0.0
 10
331.305674438
 20
202.1932923658
 30
0.0
 10
331.244598867
 20
201.9911683535
 30
0.0
 10
331.2291547984
 20
201.8519232205
 30
0.0
 10
331.2288657648
 20
201.7837810427
 30
0.0
  0
SPLINE
  5
5B5
100
AcDbEntity
  8
02___PRT_ALL_AXES
100
AcDbSpline
 62
7
  6
CONTINUOUS
 70
0
 71
3
 72
18
 73
14
 74
0
 42
0.0000001
 43
0.0000001
 44
0.0000000001
 40
0.0
 40
0.0
 40
0.0
 40
0.0
 40
0.0481146461
 40
0.0972227192
 40
0.1481929085
 40
0.2016809547
 40
0.3173128361
 40
0.3798093105
 40
0.4450582162
 40
0.5819031271
 40
0.7235545441
 40
0.8646704245
 40
1.0
 40
1.0
 40
1.0
 40
1.0
 10
315.4800429519
 20
196.542469043
 30
0.0
 10
315.4577574369
 20
196.5516549816
 30
0.0
 10
315.4107459965
 20
196.5657575051
 30
0.0
 10
315.3364287989
 20
196.5729429114
 30
0.0
 10
315.2593772022
 20
196.5662467482
 30
0.0
 10
315.1522497735
 20
196.5384326528
 30
0.0
 10
315.0480425621
 20
196.4836027734
 30
0.0
 10
314.9517131916
 20
196.408637363
 30
0.0
 10
314.8565459582
 20
196.3159915982
 30
0.0
 10
314.7524823974
 20
196.1773224886
 30
0.0
 10
314.6583428853
 20
195.988145053
 30
0.0
 10
314.599078401
 20
195.7861482183
 30
0.0
 10
314.5850867804
 20
195.6472845379
 30
0.0
 10
314.5855986991
 20
195.5794890649
 30
0.0
  0
SPLINE
  5
5B6
100
AcDbEntity
  8
02___PRT_ALL_AXES
100
AcDbSpline
 62
7
  6
CONTINUOUS
 70
0
 71
3
 72
11
 73
7
 74
0
 42
0.0000001
 43
0.0000001
 44
0.0000000001
 40
0.0
 40
0.0
 40
0.0
 40
0.0
 40
0.2375932546
 40
0.4805689685
 40
0.7335690262
 40
1.0
 40
1.0
 40
1.0
 40
1.0
 10
326.5807018191
 20
200.6765830669
 30
0.0
 10
326.5571078887
 20
200.6863083611
 30
0.0
 10
326.5071763776
 20
200.7010176557
 30
0.0
 10
326.4281563624
 20
200.7075184711
 30
0.0
 10
326.3463070619
 20
200.6986066509
 30
0.0
 10
326.2924341814
 20
200.6830251221
 30
0.0
 10
326.2656172539
 20
200.6730354954
 30
0.0
  0
SPLINE
  5
5B7
100
AcDbEntity
  8
02___PRT_ALL_AXES
100
AcDbSpline
 62
7
  6
CONTINUOUS
 70
0
 71
3
 72
18
 73
14
 74
0
 42
0.0000001
 43
0.0000001
 44
0.0000000001
 40
0.0
 40
0.0
 40
0.0
 40
0.0
 40
0.0481293249
 40
0.0972389357
 40
0.1481876566
 40
0.2016264852
 40
0.3170861649
 40
0.379471538
 40
0.4446074036
 40
0.5812721887
 40
0.7228879161
 40
0.8641987525
 40
1.0
 40
1.0
 40
1.0
 40
1.0
 10
321.0300370013
 20
198.6088939382
 30
0.0
 10
321.0077089546
 20
198.61809744
 30
0.0
 10
320.960629304
 20
198.6322568152
 30
0.0
 10
320.8862158044
 20
198.6396046225
 30
0.0
 10
320.8090592096
 20
198.6331422836
 30
0.0
 10
320.7017729832
 20
198.6057394513
 30
0.0
 10
320.5972931717
 20
198.5514135518
 30
0.0
 10
320.5005700875
 20
198.4769627846
 30
0.0
 10
320.4048786908
 20
198.3848465929
 30
0.0
 10
320.299916857
 20
198.2467254257
 30
0.0
 10
320.204344802
 20
198.0579141077
 30
0.0
 10
320.143269231
 20
197.8557900954
 30
0.0
 10
320.1278251623
 20
197.7165449625
 30
0.0
 10
320.1275361288
 20
197.6484027846
 30
0.0
  0
SPLINE
  5
5B8
100
AcDbEntity
  8
02___PRT_ALL_AXES
100
AcDbSpline
 62
7
  6
CONTINUOUS
 70
0
 71
3
 72
14
 73
10
 74
0
 42
0.0000001
 43
0.0000001
 44
0.0000000001
 40
0.0
 40
0.0
 40
0.0
 40
0.0
 40
0.2845200315
 40
0.417392221
 40
0.5437531184
 40
0.6640499194
 40
0.7792026666
 40
0.8905962999
 40
1.0
 40
1.0
 40
1.0
 40
1.0
 10
326.8641493369
 20
200.1578718939
 30
0.0
 10
326.8629973135
 20
200.2171088585
 30
0.0
 10
326.8529894009
 20
200.304380483
 30
0.0
 10
326.8200087406
 20
200.4129496239
 30
0.0
 10
326.7872558055
 20
200.4851618536
 30
0.0
 10
326.7463910586
 20
200.5488020226
 30
0.0
 10
326.6979694428
 20
200.6028501908
 30
0.0
 10
326.642734319
 20
200.6463571486
 30
0.0
 10
326.6017647529
 20
200.6679010361
 30
0.0
 10
326.5807018191
 20
200.6765830669
 30
0.0
  0
SPLINE
  5
5B9
100
AcDbEntity
  8
02___PRT_ALL_AXES
100
AcDbSpline
 62
7
  6
CONTINUOUS
 70
0
 71
3
 72
14
 73
10
 74
0
 42
0.0000001
 43
0.0000001
 44
0.0000000001
 40
0.0
 40
0.0
 40
0.0
 40
0.0
 40
0.2846156378
 40
0.4175221397
 40
0.5438983853
 40
0.6641878263
 40
0.7793104776
 40
0.8906554415
 40
1.0
 40
1.0
 40
1.0
 40
1.0
 10
315.7610069804
 20
196.0261825737
 30
0.0
 10
315.7600014767
 20
196.085122007
 30
0.0
 10
315.7502420192
 20
196.1719739981
 30
0.0
 10
315.7176528371
 20
196.2800535731
 30
0.0
 10
315.6852070451
 20
196.3519453204
 30
0.0
 10
315.6446668589
 20
196.4153042778
 30
0.0
 10
315.5965855225
 20
196.4691091885
 30
0.0
 10
315.541704903
 20
196.5124093102
 30
0.0
 10
315.5009808261
 20
196.5338385927
 30
0.0
 10
315.4800429519
 20
196.542469043
 30
0.0
  0
SPLINE
  5
5BA
100
AcDbEntity
  8
02___PRT_ALL_AXES
100
AcDbSpline
 62
7
  6
CONTINUOUS
 70
0
 71
3
 72
14
 73
10
 74
0
 42
0.0000001
 43
0.0000001
 44
0.0000000001
 40
0.0
 40
0.0
 40
0.0
 40
0.0
 40
0.2845200318
 40
0.4173922214
 40
0.5437531188
 40
0.6640499199
 40
0.7792026671
 40
0.8905963008
 40
1.0
 40
1.0
 40
1.0
 40
1.0
 10
332.4148141549
 20
202.225561023
 30
0.0
 10
332.4136621315
 20
202.2847979876
 30
0.0
 10
332.4036542189
 20
202.3720696121
 30
0.0
 10
332.3706735585
 20
202.4806387531
 30
0.0
 10
332.3379206234
 20
202.5528509829
 30
0.0
 10
332.2970558764
 20
202.6164911518
 30
0.0
 10
332.2486342608
 20
202.6705393205
 30
0.0
 10
332.1933991361
 20
202.7140462765
 30
0.0
 10
332.1524295715
 20
202.7355901671
 30
0.0
 10
332.1313666373
 20
202.7442721963
 30
0.0
  0
SPLINE
  5
5BB
100
AcDbEntity
  8
02___PRT_ALL_AXES
100
AcDbSpline
 62
7
  6
CONTINUOUS
 70
0
 71
3
 72
14
 73
10
 74
0
 42
0.0000001
 43
0.0000001
 44
0.0000000001
 40
0.0
 40
0.0
 40
0.0
 40
0.0
 40
0.2849923787
 40
0.4180358786
 40
0.544474515
 40
0.6647360355
 40
0.7797397392
 40
0.8908912296
 40
1.0
 40
1.0
 40
1.0
 40
1.0
 10
337.9568189855
 20
204.2855485556
 30
0.0
 10
337.9563670053
 20
204.3454061189
 30
0.0
 10
337.947256861
 20
204.4336876194
 30
0.0
 10
337.9150729273
 20
204.5436790696
 30
0.0
 10
337.8826976819
 20
204.6168650106
 30
0.0
 10
337.8420070933
 20
204.6813706828
 30
0.0
 10
337.793566838
 20
204.736132138
 30
0.0
 10
337.7381400437
 20
204.7801584754
 30
0.0
 10
337.6969396957
 20
204.8018988108
 30
0.0
 10
337.6757521117
 20
204.8106323856
 30
0.0
  0
SPLINE
  5
5BC
100
AcDbEntity
  8
02___PRT_ALL_AXES
100
AcDbSpline
 62
7
  6
CONTINUOUS
 70
0
 71
3
 72
14
 73
10
 74
0
 42
0.0000001
 43
0.0000001
 44
0.0000000001
 40
0.0
 40
0.0
 40
0.0
 40
0.0
 40
0.2845200318
 40
0.4173922214
 40
0.5437531188
 40
0.6640499199
 40
0.7792026671
 40
0.8905963008
 40
1.0
 40
1.0
 40
1.0
 40
1.0
 10
321.3134845188
 20
198.0901827649
 30
0.0
 10
321.3123324955
 20
198.1494197295
 30
0.0
 10
321.3023245828
 20
198.2366913541
 30
0.0
 10
321.2693439225
 20
198.3452604951
 30
0.0
 10
321.2365909874
 20
198.4174727248
 30
0.0
 10
321.1957262403
 20
198.4811128937
 30
0.0
 10
321.1473046247
 20
198.5351610624
 30
0.0
 10
321.0920695001
 20
198.5786680185
 30
0.0
 10
321.0510999355
 20
198.600211909
 30
0.0
 10
321.0300370013
 20
198.6088939382
 30
0.0
  0
SPLINE
  5
5BD
100
AcDbEntity
  8
02___PRT_ALL_AXES
100
AcDbSpline
 62
7
  6
CONTINUOUS
 70
0
 71
3
 72
14
 73
10
 74
0
 42
0.0000001
 43
0.0000001
 44
0.0000000001
 40
0.0
 40
0.0
 40
0.0
 40
0.0
 40
0.1092334727
 40
0.2214909335
 40
0.3379045587
 40
0.4593025959
 40
0.7183641366
 40
0.856543632
 40
1.0
 40
1.0
 40
1.0
 40
1.0
 10
333.6721508375
 20
172.953632295
 30
0.0
 10
333.6174018688
 20
172.9884308207
 30
0.0
 10
333.5119523061
 20
173.0681445088
 30
0.0
 10
333.3718705324
 20
173.2128180784
 30
0.0
 10
333.2498004833
 20
173.3819642797
 30
0.0
 10
333.1100357088
 20
173.6426454706
 30
0.0
 10
333.0162189381
 20
173.9392720504
 30
0.0
 10
332.9659962384
 20
174.2566829366
 30
0.0
 10
332.9554922933
 20
174.4239267848
 30
0.0
 10
332.953835729
 20
174.5091072114
 30
0.0
  0
SPLINE
  5
5BE
100
AcDbEntity
  8
02___PRT_ALL_AXES
100
AcDbSpline
 62
7
  6
CONTINUOUS
 70
0
 71
3
 72
14
 73
10
 74
0
 42
0.0000001
 43
0.0000001
 44
0.0000000001
 40
0.0
 40
0.0
 40
0.0
 40
0.0
 40
0.1092560923
 40
0.2215752814
 40
0.3380589186
 40
0.4595097446
 40
0.7185673674
 40
0.8566686632
 40
1.0
 40
1.0
 40
1.0
 40
1.0
 10
328.0999468415
 20
170.8778347628
 30
0.0
 10
328.0468399696
 20
170.9122921112
 30
0.0
 10
327.9446040849
 20
170.990974002
 30
0.0
 10
327.808879807
 20
171.1331409751
 30
0.0
 10
327.6906411549
 20
171.2989012792
 30
0.0
 10
327.5553076426
 20
171.5538473276
 30
0.0
 10
327.464456912
 20
171.8433916528
 30
0.0
 10
327.4157987944
 20
172.1530051445
 30
0.0
 10
327.4056088706
 20
172.3160583602
 30
0.0
 10
327.4039940411
 20
172.3990927882
 30
0.0
  0
SPLINE
  5
5BF
100
AcDbEntity
  8
02___PRT_ALL_AXES
100
AcDbSpline
 62
7
  6
CONTINUOUS
 70
0
 71
3
 72
14
 73
10
 74
0
 42
0.0000001
 43
0.0000001
 44
0.0000000001
 40
0.0
 40
0.0
 40
0.0
 40
0.0
 40
0.1092560923
 40
0.2215752814
 40
0.3380589186
 40
0.4595097446
 40
0.7185673674
 40
0.8566686632
 40
1.0
 40
1.0
 40
1.0
 40
1.0
 10
322.5492820235
 20
168.8101456338
 30
0.0
 10
322.4961751516
 20
168.8446029822
 30
0.0
 10
322.3939392669
 20
168.923284873
 30
0.0
 10
322.258214989
 20
169.065451846
 30
0.0
 10
322.1399763369
 20
169.2312121502
 30
0.0
 10
322.0046428246
 20
169.4861581986
 30
0.0
 10
321.913792094
 20
169.7757025238
 30
0.0
 10
321.8651339764
 20
170.0853160154
 30
0.0
 10
321.8549440526
 20
170.2483692312
 30
0.0
 10
321.8533292231
 20
170.3314036592
 30
0.0
  0
SPLINE
  5
5C0
100
AcDbEntity
  8
02___PRT_ALL_AXES
100
AcDbSpline
 62
7
  6
CONTINUOUS
 70
0
 71
3
 72
14
 73
10
 74
0
 42
0.0000001
 43
0.0000001
 44
0.0000000001
 40
0.0
 40
0.0
 40
0.0
 40
0.0
 40
0.1091762251
 40
0.2213895403
 40
0.3377774308
 40
0.4591703466
 40
0.7182761024
 40
0.8564976345
 40
1.0
 40
1.0
 40
1.0
 40
1.0
 10
316.9525830145
 20
166.7254742976
 30
0.0
 10
316.8976524349
 20
166.7603944064
 30
0.0
 10
316.7918655271
 20
166.8404217287
 30
0.0
 10
316.6514097094
 20
166.9857245704
 30
0.0
 10
316.5290989394
 20
167.1556476982
 30
0.0
 10
316.3891937003
 20
167.4175729673
 30
0.0
 10
316.2955747917
 20
167.7155954339
 30
0.0
 10
316.2458378812
 20
168.0344296887
 30
0.0
 10
316.2356792695
 20
168.2024023386
 30
0.0
 10
316.2342199055
 20
168.2879456158
 30
0.0
  0
SPLINE
  5
5C1
100
AcDbEntity
  8
7_ALL_FEATURES
100
AcDbSpline
 62
3
  6
CONTINUOUS
 70
0
 71
3
 72
11
 73
7
 74
0
 42
0.0000001
 43
0.0000001
 44
0.0000000001
 40
0.0
 40
0.0
 40
0.0
 40
0.0
 40
0.2295004529
 40
0.4748669832
 40
0.7330520056
 40
1.0
 40
1.0
 40
1.0
 40
1.0
 10
363.1252555393
 20
142.0142032002
 30
0.0
 10
363.2517964991
 20
142.5019739718
 30
0.0
 10
363.4279203975
 20
143.5345905425
 30
0.0
 10
363.4728159674
 20
145.1478965565
 30
0.0
 10
363.3080676186
 20
146.8356452609
 30
0.0
 10
363.0641329038
 20
147.9654921247
 30
0.0
 10
362.9094333998
 20
148.5308505791
 30
0.0
  0
SPLINE
  5
5C2
100
AcDbEntity
  8
7_ALL_FEATURES
100
AcDbSpline
 62
3
  6
CONTINUOUS
 70
0
 71
3
 72
11
 73
7
 74
0
 42
0.0000001
 43
0.0000001
 44
0.0000000001
 40
0.0
 40
0.0
 40
0.0
 40
0.0
 40
0.2241460775
 40
0.4775033333
 40
0.7433318384
 40
1.0
 40
1.0
 40
1.0
 40
1.0
 10
315.0844091007
 20
165.7030379241
 30
0.0
 10
314.9816752147
 20
165.6647683211
 30
0.0
 10
314.7814674495
 20
165.5323252735
 30
0.0
 10
314.5525340173
 20
165.2444387945
 30
0.0
 10
314.3991378635
 20
164.8929970343
 30
0.0
 10
314.3600587022
 20
164.6363381069
 30
0.0
 10
314.3610065959
 20
164.5108047101
 30
0.0
  0
SPLINE
  5
5C3
100
AcDbEntity
  8
7_ALL_FEATURES
100
AcDbSpline
 62
3
  6
CONTINUOUS
 70
0
 71
3
 72
9
 73
5
 74
0
 42
0.0000001
 43
0.0000001
 44
0.0000000001
 40
0.0
 40
0.0
 40
0.0
 40
0.0
 40
0.480199799
 40
1.0
 40
1.0
 40
1.0
 40
1.0
 10
335.9221111169
 20
173.3252670239
 30
0.0
 10
335.8636634461
 20
173.3493517829
 30
0.0
 10
335.7298986228
 20
173.3731913702
 30
0.0
 10
335.5983509546
 20
173.344726975
 30
0.0
 10
335.5342268513
 20
173.3208399784
 30
0.0
  0
SPLINE
  5
5C4
100
AcDbEntity
  8
7_ALL_FEATURES
100
AcDbSpline
 62
3
  6
CONTINUOUS
 70
0
 71
3
 72
9
 73
5
 74
0
 42
0.0000001
 43
0.0000001
 44
0.0000000001
 40
0.0
 40
0.0
 40
0.0
 40
0.0
 40
0.2354789338
 40
1.0
 40
1.0
 40
1.0
 40
1.0
 10
314.390912042
 20
158.9087415923
 30
0.0
 10
314.3929517463
 20
158.9148558909
 30
0.0
 10
314.4003269171
 20
158.941248242
 30
0.0
 10
314.4028533805
 20
158.9688656579
 30
0.0
 10
314.4026953704
 20
158.9897915804
 30
0.0
  0
SPLINE
  5
5C5
100
AcDbEntity
  8
7_ALL_FEATURES
100
AcDbSpline
 62
3
  6
CONTINUOUS
 70
0
 71
3
 72
12
 73
8
 74
0
 42
0.0000001
 43
0.0000001
 44
0.0000000001
 40
0.0
 40
0.0
 40
0.0
 40
0.0
 40
0.2790225021
 40
0.5386215103
 40
0.7762179145
 40
0.8891309925
 40
1.0
 40
1.0
 40
1.0
 40
1.0
 10
313.0900262741
 20
141.2845712437
 30
0.0
 10
313.1132387377
 20
141.181972273
 30
0.0
 10
313.1831547947
 20
140.9883062794
 30
0.0
 10
313.3575671673
 20
140.7480335329
 30
0.0
 10
313.5518415422
 20
140.6140363731
 30
0.0
 10
313.7192846033
 20
140.5629854066
 30
0.0
 10
313.8041397333
 20
140.5558843396
 30
0.0
 10
313.8459236491
 20
140.5569631704
 30
0.0
  0
SPLINE
  5
5C6
100
AcDbEntity
  8
7_ALL_FEATURES
100
AcDbSpline
 62
3
  6
CONTINUOUS
 70
0
 71
3
 72
11
 73
7
 74
0
 42
0.0000001
 43
0.0000001
 44
0.0000000001
 40
0.0
 40
0.0
 40
0.0
 40
0.0
 40
0.2695380448
 40
0.5283676682
 40
0.7727127907
 40
1.0
 40
1.0
 40
1.0
 40
1.0
 10
312.0518528397
 20
145.8732925367
 30
0.0
 10
311.9239458493
 20
146.4386407831
 30
0.0
 10
311.7340911679
 20
147.5618678806
 30
0.0
 10
311.6530229775
 20
149.2258066098
 30
0.0
 10
311.781988824
 20
150.7960443862
 30
0.0
 10
312.0156275095
 20
151.7884942167
 30
0.0
 10
312.170301928
 20
152.2521524047
 30
0.0
  0
SPLINE
  5
5C7
100
AcDbEntity
  8
7_ALL_FEATURES
100
AcDbSpline
 62
3
  6
CONTINUOUS
 70
0
 71
3
 72
11
 73
7
 74
0
 42
0.0000001
 43
0.0000001
 44
0.0000000001
 40
0.0
 40
0.0
 40
0.0
 40
0.0
 40
0.277519731
 40
0.5367143953
 40
0.7766400804
 40
1.0
 40
1.0
 40
1.0
 40
1.0
 10
336.2715256143
 20
172.6727354826
 30
0.0
 10
336.2710975705
 20
172.7294230587
 30
0.0
 10
336.2622082948
 20
172.8392384729
 30
0.0
 10
336.2225786124
 20
172.9937614539
 30
0.0
 10
336.1580090503
 20
173.1276531892
 30
0.0
 10
336.0975917951
 20
173.2020074033
 30
0.0
 10
336.0642865336
 20
173.2331920831
 30
0.0
  0
SPLINE
  5
5C8
100
AcDbEntity
  8
7_ALL_FEATURES
100
AcDbSpline
 62
3
  6
CONTINUOUS
 70
0
 71
3
 72
9
 73
5
 74
0
 42
0.0000001
 43
0.0000001
 44
0.0000000001
 40
0.0
 40
0.0
 40
0.0
 40
0.0
 40
0.2536993775
 40
1.0
 40
1.0
 40
1.0
 40
1.0
 10
336.0526977971
 20
173.2437073139
 30
0.0
 10
336.0428936328
 20
173.2523254254
 30
0.0
 10
336.0029278068
 20
173.2847575217
 30
0.0
 10
335.9576140451
 20
173.3106371942
 30
0.0
 10
335.9221111169
 20
173.3252670239
 30
0.0
  0
SPLINE
  5
5C9
100
AcDbEntity
  8
7_ALL_FEATURES
100
AcDbSpline
 62
3
  6
CONTINUOUS
 70
0
 71
3
 72
9
 73
5
 74
0
 42
0.0000001
 43
0.0000001
 44
0.0000000001
 40
0.0
 40
0.0
 40
0.0
 40
0.0
 40
0.2354789338
 40
1.0
 40
1.0
 40
1.0
 40
1.0
 10
336.3014310605
 20
167.0706723648
 30
0.0
 10
336.3034707647
 20
167.0767866634
 30
0.0
 10
336.3108459356
 20
167.1031790145
 30
0.0
 10
336.313372399
 20
167.1307964304
 30
0.0
 10
336.3132143889
 20
167.1517223529
 30
0.0
  0
SPLINE
  5
5CA
100
AcDbEntity
  8
7_ALL_FEATURES
100
AcDbSpline
 62
3
  6
CONTINUOUS
 70
0
 71
3
 72
9
 73
5
 74
0
 42
0.0000001
 43
0.0000001
 44
0.0000000001
 40
0.0
 40
0.0
 40
0.0
 40
0.0
 40
0.2463384812
 40
1.0
 40
1.0
 40
1.0
 40
1.0
 10
334.4878727927
 20
148.2123014133
 30
0.0
 10
334.4988026971
 20
148.2163729337
 30
0.0
 10
334.5426965709
 20
148.2341604655
 30
0.0
 10
334.5845688466
 20
148.2568603486
 30
0.0
 10
334.6145477241
 20
148.2762159224
 30
0.0
  0
SPLINE
  5
5CB
100
AcDbEntity
  8
7_ALL_FEATURES
100
AcDbSpline
 62
3
  6
CONTINUOUS
 70
0
 71
3
 72
11
 73
7
 74
0
 42
0.0000001
 43
0.0000001
 44
0.0000000001
 40
0.0
 40
0.0
 40
0.0
 40
0.0
 40
0.228061933
 40
0.4757346002
 40
0.7365696957
 40
1.0
 40
1.0
 40
1.0
 40
1.0
 10
334.6694842438
 20
148.3155008485
 30
0.0
 10
334.7431991887
 20
148.3735969258
 30
0.0
 10
334.8742706873
 20
148.5248538736
 30
0.0
 10
334.9968359952
 20
148.8060876453
 30
0.0
 10
335.0451690417
 20
149.1233550741
 30
0.0
 10
335.0244682971
 20
149.340762458
 30
0.0
 10
335.0005452926
 20
149.4465020162
 30
0.0
  0
SPLINE
  5
5CC
100
AcDbEntity
  8
7_ALL_FEATURES
100
AcDbSpline
 62
3
  6
CONTINUOUS
 70
0
 71
3
 72
9
 73
5
 74
0
 42
0.0000001
 43
0.0000001
 44
0.0000000001
 40
0.0
 40
0.0
 40
0.0
 40
0.0
 40
0.7482863136
 40
1.0
 40
1.0
 40
1.0
 40
1.0
 10
313.8459236491
 20
140.5569631704
 30
0.0
 10
313.885811223
 20
140.557993039
 30
0.0
 10
313.9391895748
 20
140.5649597853
 30
0.0
 10
313.9906804716
 20
140.5788671307
 30
0.0
 10
314.0035156008
 20
140.5827930658
 30
0.0
  0
SPLINE
  5
5CD
100
AcDbEntity
  8
7_ALL_FEATURES
100
AcDbSpline
 62
3
  6
CONTINUOUS
 70
0
 71
3
 72
11
 73
7
 74
0
 42
0.0000001
 43
0.0000001
 44
0.0000000001
 40
0.0
 40
0.0
 40
0.0
 40
0.0
 40
0.2695380448
 40
0.5283676682
 40
0.7727127907
 40
1.0
 40
1.0
 40
1.0
 40
1.0
 10
333.9623718582
 20
154.0352233092
 30
0.0
 10
333.8344648677
 20
154.6005715556
 30
0.0
 10
333.6446101864
 20
155.7237986531
 30
0.0
 10
333.5635419959
 20
157.3877373823
 30
0.0
 10
333.6925078425
 20
158.9579751586
 30
0.0
 10
333.926146528
 20
159.9504249892
 30
0.0
 10
334.0808209464
 20
160.4140831772
 30
0.0
  0
SPLINE
  5
5CE
100
AcDbEntity
  8
02___PRT_ALL_AXES
100
AcDbSpline
 62
7
  6
CONTINUOUS
 70
0
 71
3
 72
10
 73
6
 74
0
 42
0.0000001
 43
0.0000001
 44
0.0000000001
 40
0.0
 40
0.0
 40
0.0
 40
0.0
 40
0.482969264
 40
0.7324677998
 40
1.0
 40
1.0
 40
1.0
 40
1.0
 10
71.9763031208
 20
62.6688598674
 30
0.0
 10
71.7835859972
 20
62.6705143471
 30
0.0
 10
71.4913121495
 20
62.6729962763
 30
0.0
 10
71.092283219
 20
62.6759741668
 30
0.0
 10
70.8859675637
 20
62.676891101
 30
0.0
 10
70.7792114202
 20
62.676891101
 30
0.0
  0
SPLINE
  5
5CF
100
AcDbEntity
  8
02___PRT_ALL_AXES
100
AcDbSpline
 62
7
  6
CONTINUOUS
 70
0
 71
3
 72
10
 73
6
 74
0
 42
0.0000001
 43
0.0000001
 44
0.0000000001
 40
0.0
 40
0.0
 40
0.0
 40
0.0
 40
0.2675334556
 40
0.5170314074
 40
1.0
 40
1.0
 40
1.0
 40
1.0
 10
70.7792114202
 20
62.676891101
 30
0.0
 10
70.6724547758
 20
62.676891101
 30
0.0
 10
70.4661388526
 20
62.6759741634
 30
0.0
 10
70.0671099221
 20
62.6729962686
 30
0.0
 10
69.7748365754
 20
62.6705143448
 30
0.0
 10
69.5821197197
 20
62.6688598674
 30
0.0
  0
SPLINE
  5
5D0
100
AcDbEntity
  8
02___PRT_ALL_AXES
100
AcDbSpline
 62
7
  6
CONTINUOUS
 70
0
 71
3
 72
10
 73
6
 74
0
 42
0.0000001
 43
0.0000001
 44
0.0000000001
 40
0.0
 40
0.0
 40
0.0
 40
0.0
 40
0.482969264
 40
0.7324677998
 40
1.0
 40
1.0
 40
1.0
 40
1.0
 10
69.5821197197
 20
80.3885027246
 30
0.0
 10
69.7748368433
 20
80.3868482449
 30
0.0
 10
70.0671106909
 20
80.3843663157
 30
0.0
 10
70.4661396215
 20
80.3813884252
 30
0.0
 10
70.6724552768
 20
80.3804714909
 30
0.0
 10
70.7792114202
 20
80.3804714909
 30
0.0
  0
SPLINE
  5
5D1
100
AcDbEntity
  8
02___PRT_ALL_AXES
100
AcDbSpline
 62
7
  6
CONTINUOUS
 70
0
 71
3
 72
10
 73
6
 74
0
 42
0.0000001
 43
0.0000001
 44
0.0000000001
 40
0.0
 40
0.0
 40
0.0
 40
0.0
 40
0.2675334556
 40
0.5170314074
 40
1.0
 40
1.0
 40
1.0
 40
1.0
 10
70.7792114202
 20
80.3804714909
 30
0.0
 10
70.8859680647
 20
80.3804714909
 30
0.0
 10
71.0922839878
 20
80.3813884285
 30
0.0
 10
71.4913129184
 20
80.3843663234
 30
0.0
 10
71.7835862651
 20
80.3868482472
 30
0.0
 10
71.9763031208
 20
80.3885027246
 30
0.0
  0
SPLINE
  5
5D2
100
AcDbEntity
  8
7_ALL_FEATURES
100
AcDbSpline
 62
3
  6
CONTINUOUS
 70
0
 71
3
 72
11
 73
7
 74
0
 42
0.0000001
 43
0.0000001
 44
0.0000000001
 40
0.0
 40
0.0
 40
0.0
 40
0.0
 40
0.2441973981
 40
0.4918081848
 40
0.7442162199
 40
1.0
 40
1.0
 40
1.0
 40
1.0
 10
189.825325117
 20
192.816081305
 30
0.0
 10
189.825325117
 20
192.6921293287
 30
0.0
 10
189.8783287163
 20
192.4395833086
 30
0.0
 10
190.1027539292
 20
192.1235056845
 30
0.0
 10
190.4349112165
 20
191.9137018475
 30
0.0
 10
190.6954920176
 20
191.8650247888
 30
0.0
 10
190.825325117
 20
191.8650247888
 30
0.0
  0
SPLINE
  5
5D3
100
AcDbEntity
  8
7_ALL_FEATURES
100
AcDbSpline
 62
3
  6
CONTINUOUS
 70
0
 71
3
 72
11
 73
7
 74
0
 42
0.0000001
 43
0.0000001
 44
0.0000000001
 40
0.0
 40
0.0
 40
0.0
 40
0.0
 40
0.2557837801
 40
0.5081918152
 40
0.7558026019
 40
1.0
 40
1.0
 40
1.0
 40
1.0
 10
218.825325117
 20
191.8650247888
 30
0.0
 10
218.9551582165
 20
191.8650247888
 30
0.0
 10
219.2157390176
 20
191.9137018475
 30
0.0
 10
219.5478963049
 20
192.1235056845
 30
0.0
 10
219.7723215178
 20
192.4395833086
 30
0.0
 10
219.825325117
 20
192.6921293287
 30
0.0
 10
219.825325117
 20
192.816081305
 30
0.0
  0
ENDSEC
  0
SECTION
  2
OBJECTS
  0
DICTIONARY
  5
C
100
AcDbDictionary
280
0
281
1
  3
ACAD_GROUP
350
D
  3
ACAD_MLINESTYLE
350
17
  3
ACAD_LAYOUT
350
1A
  3
ACAD_PLOTSETTINGS
350
19
  3
ACAD_PLOTSTYLENAME
350
E
  3
ACAD_TABLESTYLE
350
       5D4
  0
DICTIONARY
  5
D
102
{ACAD_REACTORS
330
C
102
}
100
AcDbDictionary
280
0
281
1
  0
ACDBDICTIONARYWDFLT
  5
E
102
{ACAD_REACTORS
330
C
102
}
100
AcDbDictionary
281
1
  3
Normal
350
F
100
AcDbDictionaryWithDefault
340
F
  0
DICTIONARY
  5
17
102
{ACAD_REACTORS
330
C
102
}
100
AcDbDictionary
280
0
281
1
  3
Standard
350
18
  0
DICTIONARY
  5
5D4
330
C
100
AcDbDictionary
281
1
  3
Standard
350
       5D7
  3
Standard1
350
       5D8
  0
DICTIONARY
  5
19
102
{ACAD_REACTORS
330
C
102
}
100
AcDbDictionary
281
1
  0
DICTIONARY
  5
1A
102
{ACAD_REACTORS
330
C
102
}
100
AcDbDictionary
281
1
  3
Model
350
5D5
  3
Layout1
350
5D6
  0
ACDBPLACEHOLDER
  5
F
102
{ACAD_REACTORS
330
E
102
}
  0
MLINESTYLE
  5
18
102
{ACAD_REACTORS
330
17
102
}
100
AcDbMlineStyle
  2
STANDARD
 70
0
  3

 62
256
 51
90.0
 52
90.0
 71
2
 49
0.5
 62
256
  6
BYLAYER
 49
-0.5
 62
256
  6
BYLAYER
  0
LAYOUT
  5
5D5
102
{ACAD_REACTORS
330
1A
102
}
100
AcDbPlotSettings
  1

  2
none_device
  4
ISO_A3_(420.00_x_297.00_MM)
  6

 40
0.0
 41
0.0
 42
0.0
 43
0.0
 44
420.0
 45
297.0
 46
0.0
 47
0.0
 48
0.0
 49
0.0
140
0.0
141
0.0
142
1.0
143
1.0
 70
1024
 72
1
 73
0
 74
0
  7

 75
0
147
1.0
148
0.0
149
0.0
100
AcDbLayout
  1
Model
 70
0
 71
0
 10
0.0
 20
0.0
 11
420.0
 21
297.0
 12
0.0
 22
0.0
 32
0.0
 14
0.0
 24
0.0
 34
0.0
 15
0.0
 25
0.0
 35
0.0
146
0.0
 13
0.0
 23
0.0
 33
0.0
 16
1.0
 26
0.0
 36
0.0
 17
0.0
 27
1.0
 37
0.0
 76
0
330
224
345
0
346
0
  0
LAYOUT
  5
5D6
102
{ACAD_REACTORS
330
1A
102
}
100
AcDbPlotSettings
  1

  2
none_device
  4
ISO_A3_(420.00_x_297.00_MM)
  6

 40
0.0
 41
0.0
 42
0.0
 43
0.0
 44
420.0
 45
297.0
 46
0.0
 47
0.0
 48
0.0
 49
0.0
140
0.0
141
0.0
142
1.0
143
1.0
 70
0
 72
1
 73
0
 74
0
  7

 75
0
147
1.0
148
0.0
149
0.0
100
AcDbLayout
  1
Layout1
 70
0
 71
1
 10
0.0
 20
0.0
 11
420.0
 21
297.0
 12
0.0
 22
0.0
 32
0.0
 14
0.0
 24
0.0
 34
0.0
 15
0.0
 25
0.0
 35
0.0
146
0.0
 13
0.0
 23
0.0
 33
0.0
 16
1.0
 26
0.0
 36
0.0
 17
0.0
 27
1.0
 37
0.0
 76
0
330
225
345
0
346
0
  0
TABLESTYLE
  5
5D7
102
{ACAD_REACTORS
330
5D4
330
3B4
102
}
330
5D4
100
AcDbTableStyle
  3
Standard
 70
0
 71
0
 40
0.06
 41
0.06
280
1
281
1
  7
Standard
140
0.18
170
1
 62
0
 63
7
283
0
  7
Standard
140
0.18
170
1
 62
0
 63
7
283
0
  7
Standard
140
0.18
170
1
 62
0
 63
7
283
0
  0
TABLESTYLE
  5
5D8
102
{ACAD_REACTORS
330
5D4
102
}
330
5D4
100
AcDbTableStyle
  3
Standard1
 70
1
 71
0
 40
0.06
 41
0.06
280
1
281
1
  7
Standard
140
0.18
170
1
 62
0
 63
7
283
0
  7
Standard
140
0.18
170
1
 62
0
 63
7
283
0
  7
Standard
140
0.18
170
1
 62
0
 63
7
283
0
  0
ENDSEC
  0
EOF
