999
DXF file: 6e6_c_001.dxf
999
Pro/ENGINEER 2011490 by Parametric Technology Corporation
  0
SECTION
  2
HEADER
  9
$ACADVER
  1
AC1021
  9
$DWGCODEPAGE
  3
ANSI_1252
  9
$EXTMAX
 10
420.0
 20
297.0
 30
0.0
  9
$EXTMIN
 10
0.0
 20
0.0
 30
0.0
  9
$LIMMIN
 10
0.0
 20
0.0
  9
$LIMMAX
 10
420.0
 20
297.0
  9
$VIEWCTR
 10
210.0
 20
148.5
  9
$VIEWSIZE
 40
297.0
  9
$CLAYER
  8
0
  9
$LTSCALE
 40
23.1
  9
$CELTYPE
  6
BYLAYER
  9
$DIMSCALE
 40
1.0
  9
$DIMASZ
 40
2.5
  9
$DIMEXO
 40
2.625
  9
$DIMDLI
 40
15.96
  9
$DIMEXE
 40
7.56
  9
$DIMCEN
 40
3.78
  9
$DIMLFAC
 40
1.0
  9
$DIMBLK
  1
_CLOSED
  9
$DIMTXT
 40
3.0
  9
$DIMTOL
 70
1
  9
$DIMLIM
 70
0
  9
$DIMTFAC
 40
1.0
  9
$DIMTP
 40
0.01
  9
$DIMTM
 40
0.01
  9
$PDMODE
 70
3
  9
$PDSIZE
 40
0.3125
  9
$HANDSEED
  5
6D0
  9
$TILEMODE
 70
1
  9
$MEASUREMENT
 70
1
  9
$INSUNITS
 70
4
  0
ENDSEC
  0
SECTION
  2
CLASSES
  0
CLASS
  1
ACDBDICTIONARYWDFLT
  2
AcDbDictionaryWithDefault
  3
AutoCAD 2000
 90
0
 91
1
280
0
281
0
  0
CLASS
  1
ACDBPLACEHOLDER
  2
AcDbPlaceHolder
  3
AutoCAD 2000
 90
0
 91
1
280
0
281
0
  0
CLASS
  1
LAYOUT
  2
AcDbLayout
  3
AutoCAD 2000
 90
0
 91
0
280
0
281
0
  0
CLASS
  1
TABLESTYLE
  2
AcDbTableStyle
  3
ObjectDBX Classes
 90
2047
 91
1
280
0
281
0
  0
CLASS
  1
ACAD_TABLE
  2
AcDbTable
  3
ObjectDBX Classes
 90
1025
 91
1
280
0
281
1
  0
ENDSEC
  0
SECTION
  2
TABLES
  0
TABLE
  2
VPORT
  5
8
100
AcDbSymbolTable
 70
2
  0
VPORT
  5
1F4
100
AcDbSymbolTableRecord
100
AcDbViewportTableRecord
  2
*ACTIVE
 70
0
 10
0.0
 20
0.0
 11
1.0
 21
1.0
 12
210.0
 22
148.5
 13
0.0
 23
0.0
 14
1.0
 24
1.0
 15
0.0
 25
0.0
 16
0.0
 26
0.0
 36
1.0
 17
0.0
 27
0.0
 37
0.0
 40
297.0
 41
1.4141414141
 42
50.0
 43
0.0
 44
0.0
 50
0.0
 51
0.0
 71
0
 72
100
 73
1
 74
1
 75
0
 76
0
 77
0
 78
0
  0
ENDTAB
  0
TABLE
  2
LTYPE
  5
5
100
AcDbSymbolTable
 70
6
  0
LTYPE
  5
14
100
AcDbSymbolTableRecord
100
AcDbLinetypeTableRecord
  2
BYBLOCK
 70
0
  3

 72
65
 73
0
 40
0.0
  0
LTYPE
  5
15
100
AcDbSymbolTableRecord
100
AcDbLinetypeTableRecord
  2
BYLAYER
 70
0
  3

 72
65
 73
0
 40
0.0
  0
LTYPE
  5
16
100
AcDbSymbolTableRecord
100
AcDbLinetypeTableRecord
  2
CONTINUOUS
 70
64
  3
Solid line
 72
65
 73
0
 40
0.0
  0
LTYPE
  5
1F5
100
AcDbSymbolTableRecord
100
AcDbLinetypeTableRecord
  2
CENTER
 70
64
  3
____ _ ____ _ ____ _ ____ _ ____ _ ____ _ ____
 72
65
 73
4
 40
0.6
 49
0.375
 74
0
 49
-0.075
 74
0
 49
0.075
 74
0
 49
-0.075
 74
0
  0
LTYPE
  5
1F6
100
AcDbSymbolTableRecord
100
AcDbLinetypeTableRecord
  2
HIDDEN
 70
64
  3
- - - - - - - - - - - - - - - - - - - -
 72
65
 73
2
 40
0.2
 49
0.1
 74
0
 49
-0.1
 74
0
  0
LTYPE
  5
1F7
100
AcDbSymbolTableRecord
100
AcDbLinetypeTableRecord
  2
PHANTOM
 70
64
  3
_____ _ _ _____ _ _ _____ _ _ _____
 72
65
 73
6
 40
0.8
 49
0.45
 74
0
 49
-0.05
 74
0
 49
0.1
 74
0
 49
-0.05
 74
0
 49
0.1
 74
0
 49
-0.05
 74
0
  0
LTYPE
  5
1F8
100
AcDbSymbolTableRecord
100
AcDbLinetypeTableRecord
  2
DOT
 70
64
  3
. . . . . . . . . . . . . . . . . . . .
 72
65
 73
2
 40
0.2
 49
0.1
 74
0
 49
-0.1
 74
0
  0
LTYPE
  5
1F9
100
AcDbSymbolTableRecord
100
AcDbLinetypeTableRecord
  2
DASHED
 70
64
  3
- - - - - - - - - - - - - - - - - - - -
 72
65
 73
2
 40
0.2
 49
0.1
 74
0
 49
-0.1
 74
0
  0
ENDTAB
  0
TABLE
  2
LAYER
  5
2
100
AcDbSymbolTable
 70
36
  0
LAYER
  5
10
100
AcDbSymbolTableRecord
100
AcDbLayerTableRecord
  2
0
 70
0
 62
7
  6
CONTINUOUS
370
-3
390
F
  0
LAYER
  5
1FA
100
AcDbSymbolTableRecord
100
AcDbLayerTableRecord
  2
DEFAULT_1
 70
0
 62
7
  6
CENTER
370
-3
390
F
  0
LAYER
  5
1FB
100
AcDbSymbolTableRecord
100
AcDbLayerTableRecord
  2
DEFAULT_2
 70
0
 62
8
  6
HIDDEN
370
-3
390
F
  0
LAYER
  5
1FC
100
AcDbSymbolTableRecord
100
AcDbLayerTableRecord
  2
DEFAULT_3
 70
0
 62
7
  6
PHANTOM
370
-3
390
F
  0
LAYER
  5
1FD
100
AcDbSymbolTableRecord
100
AcDbLayerTableRecord
  2
01_ALL_DTM_PLN
 70
0
 62
7
  6
CONTINUOUS
370
-3
390
F
  0
LAYER
  5
1FE
100
AcDbSymbolTableRecord
100
AcDbLayerTableRecord
  2
01__ASM_ALL_DTM_PLN
 70
0
 62
7
  6
CONTINUOUS
370
-3
390
F
  0
LAYER
  5
1FF
100
AcDbSymbolTableRecord
100
AcDbLayerTableRecord
  2
01__ASM_DEF_DTM_PLN
 70
0
 62
7
  6
CONTINUOUS
370
-3
390
F
  0
LAYER
  5
200
100
AcDbSymbolTableRecord
100
AcDbLayerTableRecord
  2
01___PRT_ALL_DTM_PLN
 70
0
 62
7
  6
CONTINUOUS
370
-3
390
F
  0
LAYER
  5
201
100
AcDbSymbolTableRecord
100
AcDbLayerTableRecord
  2
01___PRT_DEF_DTM_PLN
 70
0
 62
7
  6
CONTINUOUS
370
-3
390
F
  0
LAYER
  5
202
100
AcDbSymbolTableRecord
100
AcDbLayerTableRecord
  2
02_ALL_AXES
 70
0
 62
7
  6
CONTINUOUS
370
-3
390
F
  0
LAYER
  5
203
100
AcDbSymbolTableRecord
100
AcDbLayerTableRecord
  2
02__ASM_ALL_AXES
 70
0
 62
7
  6
CONTINUOUS
370
-3
390
F
  0
LAYER
  5
204
100
AcDbSymbolTableRecord
100
AcDbLayerTableRecord
  2
02___PRT_ALL_AXES
 70
0
 62
7
  6
CONTINUOUS
370
-3
390
F
  0
LAYER
  5
205
100
AcDbSymbolTableRecord
100
AcDbLayerTableRecord
  2
03_ALL_CURVES
 70
0
 62
7
  6
CONTINUOUS
370
-3
390
F
  0
LAYER
  5
206
100
AcDbSymbolTableRecord
100
AcDbLayerTableRecord
  2
03__ASM_ALL_CURVES
 70
0
 62
7
  6
CONTINUOUS
370
-3
390
F
  0
LAYER
  5
207
100
AcDbSymbolTableRecord
100
AcDbLayerTableRecord
  2
03___PRT_ALL_CURVES
 70
0
 62
7
  6
CONTINUOUS
370
-3
390
F
  0
LAYER
  5
208
100
AcDbSymbolTableRecord
100
AcDbLayerTableRecord
  2
04_ALL_DTM_PNT
 70
0
 62
7
  6
CONTINUOUS
370
-3
390
F
  0
LAYER
  5
209
100
AcDbSymbolTableRecord
100
AcDbLayerTableRecord
  2
04__ASM_ALL_DTM_PNT
 70
0
 62
7
  6
CONTINUOUS
370
-3
390
F
  0
LAYER
  5
20A
100
AcDbSymbolTableRecord
100
AcDbLayerTableRecord
  2
04___PRT_ALL_DTM_PNT
 70
0
 62
7
  6
CONTINUOUS
370
-3
390
F
  0
LAYER
  5
20B
100
AcDbSymbolTableRecord
100
AcDbLayerTableRecord
  2
05_ALL_DTM_CSYS
 70
0
 62
7
  6
CONTINUOUS
370
-3
390
F
  0
LAYER
  5
20C
100
AcDbSymbolTableRecord
100
AcDbLayerTableRecord
  2
05__ASM_ALL_DTM_CSYS
 70
0
 62
7
  6
CONTINUOUS
370
-3
390
F
  0
LAYER
  5
20D
100
AcDbSymbolTableRecord
100
AcDbLayerTableRecord
  2
05__ASM_DEF_DTM_CSYS
 70
0
 62
7
  6
CONTINUOUS
370
-3
390
F
  0
LAYER
  5
20E
100
AcDbSymbolTableRecord
100
AcDbLayerTableRecord
  2
05___PRT_ALL_DTM_CSYS
 70
0
 62
7
  6
CONTINUOUS
370
-3
390
F
  0
LAYER
  5
20F
100
AcDbSymbolTableRecord
100
AcDbLayerTableRecord
  2
05___PRT_DEF_DTM_CSYS
 70
0
 62
7
  6
CONTINUOUS
370
-3
390
F
  0
LAYER
  5
210
100
AcDbSymbolTableRecord
100
AcDbLayerTableRecord
  2
06_ALL_SURFS
 70
0
 62
7
  6
CONTINUOUS
370
-3
390
F
  0
LAYER
  5
211
100
AcDbSymbolTableRecord
100
AcDbLayerTableRecord
  2
06__ASM_ALL_SURFS
 70
0
 62
7
  6
CONTINUOUS
370
-3
390
F
  0
LAYER
  5
212
100
AcDbSymbolTableRecord
100
AcDbLayerTableRecord
  2
06___PRT_ALL_SURFS
 70
0
 62
7
  6
CONTINUOUS
370
-3
390
F
  0
LAYER
  5
213
100
AcDbSymbolTableRecord
100
AcDbLayerTableRecord
  2
07__ASM_ALL_SKELETONS
 70
0
 62
7
  6
CONTINUOUS
370
-3
390
F
  0
LAYER
  5
214
100
AcDbSymbolTableRecord
100
AcDbLayerTableRecord
  2
1_ALL_PLANES
 70
0
 62
7
  6
CONTINUOUS
370
-3
390
F
  0
LAYER
  5
215
100
AcDbSymbolTableRecord
100
AcDbLayerTableRecord
  2
2_ALL_CSYS
 70
0
 62
7
  6
CONTINUOUS
370
-3
390
F
  0
LAYER
  5
216
100
AcDbSymbolTableRecord
100
AcDbLayerTableRecord
  2
3_ALL_AXES
 70
0
 62
7
  6
CONTINUOUS
370
-3
390
F
  0
LAYER
  5
217
100
AcDbSymbolTableRecord
100
AcDbLayerTableRecord
  2
4_ALL_POINTS
 70
0
 62
7
  6
CONTINUOUS
370
-3
390
F
  0
LAYER
  5
218
100
AcDbSymbolTableRecord
100
AcDbLayerTableRecord
  2
5_ALL_CURVES
 70
0
 62
7
  6
CONTINUOUS
370
-3
390
F
  0
LAYER
  5
219
100
AcDbSymbolTableRecord
100
AcDbLayerTableRecord
  2
6_ALL_SURFS
 70
0
 62
7
  6
CONTINUOUS
370
-3
390
F
  0
LAYER
  5
21A
100
AcDbSymbolTableRecord
100
AcDbLayerTableRecord
  2
7_ALL_FEATURES
 70
0
 62
7
  6
CONTINUOUS
370
-3
390
F
  0
LAYER
  5
21B
100
AcDbSymbolTableRecord
100
AcDbLayerTableRecord
  2
8_ALL_NOTES_BALLOONS_SYMBOLS_GT
 70
0
 62
7
  6
CONTINUOUS
370
-3
390
F
  0
LAYER
  5
21C
100
AcDbSymbolTableRecord
100
AcDbLayerTableRecord
  2
INTFCLR_2
 70
0
 62
7
  6
CONTINUOUS
370
-3
390
F
  0
LAYER
  5
21D
100
AcDbSymbolTableRecord
100
AcDbLayerTableRecord
  2
NONE
 70
0
 62
7
  6
CONTINUOUS
370
-3
390
F
  0
ENDTAB
  0
TABLE
  2
STYLE
  5
3
100
AcDbSymbolTable
 70
1
  0
STYLE
  5
11
100
AcDbSymbolTableRecord
100
AcDbTextStyleTableRecord
  2
STANDARD
 70
0
 40
0.0
 41
0.85
 50
0.0
 71
0
 42
0.2
  3
txt
  4

  0
STYLE
  5
21E
100
AcDbSymbolTableRecord
100
AcDbTextStyleTableRecord
  2
TEXTSTYLE_1
 70
0
 40
0.0
 41
0.8
 50
0.0
 71
0
 42
0.2
  3
gdt
  4

  0
ENDTAB
  0
TABLE
  2
VIEW
  5
6
100
AcDbSymbolTable
 70
0
  0
ENDTAB
  0
TABLE
  2
UCS
  5
7
100
AcDbSymbolTable
 70
0
  0
ENDTAB
  0
TABLE
  2
APPID
  5
9
100
AcDbSymbolTable
 70
1
  0
APPID
  5
21F
100
AcDbSymbolTableRecord
100
AcDbRegAppTableRecord
  2
ACAD
 70
0
  0
ENDTAB
  0
TABLE
  2
BLOCK_RECORD
  5
1
100
AcDbSymbolTable
 70
0
  0
BLOCK_RECORD
  5
220
100
AcDbSymbolTableRecord
100
AcDbBlockTableRecord
  2
*Model_Space
  0
BLOCK_RECORD
  5
221
100
AcDbSymbolTableRecord
100
AcDbBlockTableRecord
  2
*Paper_Space
  0
BLOCK_RECORD
  5
222
100
AcDbSymbolTableRecord
100
AcDbBlockTableRecord
  2
_CLOSED
  0
BLOCK_RECORD
  5
223
100
AcDbSymbolTableRecord
100
AcDbBlockTableRecord
  2
*D0
  0
BLOCK_RECORD
  5
224
100
AcDbSymbolTableRecord
100
AcDbBlockTableRecord
  2
*D1
  0
BLOCK_RECORD
  5
225
100
AcDbSymbolTableRecord
100
AcDbBlockTableRecord
  2
*D2
  0
BLOCK_RECORD
  5
226
100
AcDbSymbolTableRecord
100
AcDbBlockTableRecord
  2
LOGO2_BL0
  0
BLOCK_RECORD
  5
227
100
AcDbSymbolTableRecord
100
AcDbBlockTableRecord
  2
*T1
  0
ENDTAB
  0
TABLE
  2
DIMSTYLE
  5
A
100
AcDbSymbolTable
 70
1
100
AcDbDimStyleTable
 71
0
  0
DIMSTYLE
105
228
100
AcDbSymbolTableRecord
100
AcDbDimStyleTableRecord
  2
STANDARD
 70
0
  3

  4

 40
1.0
 41
2.5
 42
0.0625
 43
0.38
 44
0.18
 45
0.0
 46
0.0
 47
0.01
 48
0.01
140
3.0
141
0.09
142
0.0
143
25.4
144
1.0
145
0.0
146
1.0
147
0.09
 71
1.0
 72
0.0
 73
0
 74
0
 75
0
 76
0
 77
1
 78
8
170
0
171
2
172
0
173
0
174
0
175
0
176
0
177
0
178
0
270
2
271
2
272
2
273
2
274
2
275
0
280
0
281
0
282
0
283
1
284
8
285
0
286
0
287
3
288
0
340
11
341
222
342
222
343
222
344
222
  0
DIMSTYLE
105
229
100
AcDbSymbolTableRecord
100
AcDbDimStyleTableRecord
  2
DIMSTYLE_1
 70
0
  3

  4

 40
1.0
 41
2.5
 42
0.0625
 43
0.38
 44
0.18
 45
0.0
 46
0.0
 47
0.3
 48
0.3
140
3.0
141
0.09
142
0.0
143
25.4
144
1.0
145
0.0
146
1.0
147
0.09
 71
0.0
 72
0.0
 73
0
 74
0
 75
0
 76
0
 77
1
 78
8
170
0
171
2
172
0
173
0
174
0
175
0
176
0
177
0
178
0
270
2
271
0
272
0
273
2
274
2
275
0
280
0
281
0
282
0
283
1
284
8
285
0
286
0
287
3
288
0
340
11
341
222
342
222
343
222
344
222
  0
DIMSTYLE
105
22A
100
AcDbSymbolTableRecord
100
AcDbDimStyleTableRecord
  2
DIMSTYLE_2
 70
0
  3

  4

 40
1.0
 41
2.5
 42
0.0625
 43
0.38
 44
0.18
 45
0.0
 46
0.0
 47
0.3
 48
0.3
140
3.0
141
0.09
142
0.0
143
25.4
144
1.0
145
0.0
146
1.0
147
0.09
 71
0.0
 72
0.0
 73
0
 74
0
 75
0
 76
0
 77
1
 78
8
170
0
171
2
172
0
173
0
174
0
175
0
176
0
177
0
178
0
270
2
271
2
272
2
273
2
274
2
275
0
280
0
281
0
282
0
283
1
284
8
285
0
286
0
287
3
288
0
340
11
341
222
342
222
343
222
344
222
  0
ENDTAB
  0
ENDSEC
  0
SECTION
  2
BLOCKS
  0
BLOCK
  5
20
100
AcDbEntity
  8
0
100
AcDbBlockBegin
  2
*Model_Space
 70
0
 10
0.0
 20
0.0
 30
0.0
  3
*Model_Space
  1

  0
ENDBLK
  5
21
100
AcDbEntity
  8
0
100
AcDbBlockEnd
  0
BLOCK
  5
1C
100
AcDbEntity
  8
0
100
AcDbBlockBegin
  2
*Paper_Space
 70
0
 10
0.0
 20
0.0
 30
0.0
  3
*Paper_Space
  1

  0
ENDBLK
  5
1D
100
AcDbEntity
  8
0
100
AcDbBlockEnd
  0
BLOCK
  5
22B
100
AcDbEntity
  8
0
100
AcDbBlockBegin
 62
2
  6
CONTINUOUS
  2
LOGO2_BL0
 70
64
 10
333.6475659158
 20
36.9217920391
  3
LOGO2_BL0
  1

  0
LINE
  5
22C
100
AcDbEntity
  8
0
100
AcDbLine
 62
7
  6
CONTINUOUS
 10
325.390491144
 20
40.1172833779
 11
324.0861502147
 21
40.1172833779
  0
LINE
  5
22D
100
AcDbEntity
  8
0
100
AcDbLine
 62
7
  6
CONTINUOUS
 10
324.0861502147
 20
40.1172833779
 11
324.0861502147
 21
29.6582173181
  0
LINE
  5
22E
100
AcDbEntity
  8
0
100
AcDbLine
 62
7
  6
CONTINUOUS
 10
324.0861502147
 20
29.6582173181
 11
328.567205103
 21
29.6582173181
  0
LINE
  5
22F
100
AcDbEntity
  8
0
100
AcDbLine
 62
7
  6
CONTINUOUS
 10
328.567205103
 20
29.6582173181
 11
328.567205103
 21
30.8510716431
  0
LINE
  5
230
100
AcDbEntity
  8
0
100
AcDbLine
 62
7
  6
CONTINUOUS
 10
328.567205103
 20
30.8510716431
 11
325.390491144
 21
30.8510716431
  0
LINE
  5
231
100
AcDbEntity
  8
0
100
AcDbLine
 62
7
  6
CONTINUOUS
 10
325.390491144
 20
30.8510716431
 11
325.390491144
 21
40.1172833779
  0
LINE
  5
232
100
AcDbEntity
  8
0
100
AcDbLine
 62
7
  6
CONTINUOUS
 10
340.3268173604
 20
40.1172833779
 11
339.0229998423
 21
40.1172833779
  0
LINE
  5
233
100
AcDbEntity
  8
0
100
AcDbLine
 62
7
  6
CONTINUOUS
 10
339.0229998423
 20
40.1172833779
 11
339.0229998423
 21
29.6582173181
  0
LINE
  5
234
100
AcDbEntity
  8
0
100
AcDbLine
 62
7
  6
CONTINUOUS
 10
339.0229998423
 20
29.6582173181
 11
343.5041855834
 21
29.6582173181
  0
LINE
  5
235
100
AcDbEntity
  8
0
100
AcDbLine
 62
7
  6
CONTINUOUS
 10
343.5041855834
 20
29.6582173181
 11
343.5041855834
 21
30.8510716431
  0
LINE
  5
236
100
AcDbEntity
  8
0
100
AcDbLine
 62
7
  6
CONTINUOUS
 10
343.5041855834
 20
30.8510716431
 11
340.3268173604
 21
30.8510716431
  0
LINE
  5
237
100
AcDbEntity
  8
0
100
AcDbLine
 62
7
  6
CONTINUOUS
 10
340.3268173604
 20
30.8510716431
 11
340.3268173604
 21
40.1172833779
  0
LWPOLYLINE
  5
238
100
AcDbEntity
  8
0
100
AcDbPolyline
 62
7
  6
CONTINUOUS
 90
2
 70
0
 43
0.2
 10
322.4405451256
 20
26.3146660112
 10
322.4405451256
 20
24.4576027618
  0
LWPOLYLINE
  5
239
100
AcDbEntity
  8
0
100
AcDbPolyline
 62
7
  6
CONTINUOUS
 90
2
 70
0
 43
0.2
 10
322.4405451256
 20
24.4576027618
 10
323.236261136
 20
24.4576027618
  0
LWPOLYLINE
  5
23A
100
AcDbEntity
  8
0
100
AcDbPolyline
 62
7
  6
CONTINUOUS
 90
2
 70
0
 43
0.2
 10
323.236261136
 20
24.4576027618
 10
323.236261136
 20
24.6695843334
  0
LWPOLYLINE
  5
23B
100
AcDbEntity
  8
0
100
AcDbPolyline
 62
7
  6
CONTINUOUS
 90
2
 70
0
 43
0.2
 10
323.236261136
 20
24.6695843334
 10
322.6721546205
 20
24.6695843334
  0
LWPOLYLINE
  5
23C
100
AcDbEntity
  8
0
100
AcDbPolyline
 62
7
  6
CONTINUOUS
 90
2
 70
0
 43
0.2
 10
322.6721546205
 20
24.6695843334
 10
322.6721546205
 20
26.3146660112
  0
LWPOLYLINE
  5
23D
100
AcDbEntity
  8
0
100
AcDbPolyline
 62
7
  6
CONTINUOUS
 90
2
 70
0
 43
0.2
 10
322.6721546205
 20
26.3146660112
 10
322.4405451256
 20
26.3146660112
  0
SPLINE
  5
23E
100
AcDbEntity
  8
0
100
AcDbSpline
 62
7
  6
CONTINUOUS
 70
2
 71
3
 72
35
 73
31
 74
0
 42
0.0000001
 43
0.0000001
 44
0.0000000001
 40
0.0
 40
0.0
 40
0.0
 40
0.0
 40
1.0
 40
1.0
 40
1.0
 40
2.0
 40
2.0
 40
2.0
 40
3.0
 40
3.0
 40
3.0
 40
4.0
 40
4.0
 40
4.0
 40
5.0
 40
5.0
 40
5.0
 40
6.0
 40
6.0
 40
6.0
 40
7.0
 40
7.0
 40
7.0
 40
8.0
 40
8.0
 40
8.0
 40
9.0
 40
9.0
 40
9.0
 40
10.0
 40
10.0
 40
10.0
 40
10.0
 10
324.6345543915
 20
25.6101544177
 30
0.0
 10
324.6345543915
 20
25.6101544177
 30
0.0
 10
324.6345543915
 20
24.9480391385
 30
0.0
 10
324.6345543915
 20
24.9480391385
 30
0.0
 10
324.6345543915
 20
24.6329455432
 30
0.0
 10
324.7824180804
 20
24.4183469152
 30
0.0
 10
325.1225045647
 20
24.4183469152
 30
0.0
 10
325.4620676377
 20
24.4183469152
 30
0.0
 10
325.6101930321
 20
24.6329455432
 30
0.0
 10
325.6101930321
 20
24.9480391385
 30
0.0
 10
325.6101930321
 20
24.9480391385
 30
0.0
 10
325.6101930321
 20
25.6101544177
 30
0.0
 10
325.6101930321
 20
25.6101544177
 30
0.0
 10
325.6101930321
 20
25.6101544177
 30
0.0
 10
325.3881357933
 20
25.6101544177
 30
0.0
 10
325.3881357933
 20
25.6101544177
 30
0.0
 10
325.3881357933
 20
25.6101544177
 30
0.0
 10
325.3881357933
 20
24.9731628803
 30
0.0
 10
325.3881357933
 20
24.9731628803
 30
0.0
 10
325.3881357933
 20
24.7873518732
 30
0.0
 10
325.3414213358
 20
24.6245709626
 30
0.0
 10
325.1225045647
 20
24.6245709626
 30
0.0
 10
324.9030643822
 20
24.6245709626
 30
0.0
 10
324.8563499248
 20
24.7873518732
 30
0.0
 10
324.8563499248
 20
24.9731628803
 30
0.0
 10
324.8563499248
 20
24.9731628803
 30
0.0
 10
324.8563499248
 20
25.6101544177
 30
0.0
 10
324.8563499248
 20
25.6101544177
 30
0.0
 10
324.8563499248
 20
25.6101544177
 30
0.0
 10
324.6345543915
 20
25.6101544177
 30
0.0
 10
324.6345543915
 20
25.6101544177
 30
0.0
  0
SPLINE
  5
23F
100
AcDbEntity
  8
0
100
AcDbSpline
 62
7
  6
CONTINUOUS
 70
2
 71
3
 72
35
 73
31
 74
0
 42
0.0000001
 43
0.0000001
 44
0.0000000001
 40
0.0
 40
0.0
 40
0.0
 40
0.0
 40
1.0
 40
1.0
 40
1.0
 40
2.0
 40
2.0
 40
2.0
 40
3.0
 40
3.0
 40
3.0
 40
4.0
 40
4.0
 40
4.0
 40
5.0
 40
5.0
 40
5.0
 40
6.0
 40
6.0
 40
6.0
 40
7.0
 40
7.0
 40
7.0
 40
8.0
 40
8.0
 40
8.0
 40
9.0
 40
9.0
 40
9.0
 40
10.0
 40
10.0
 40
10.0
 40
10.0
 10
328.0333255893
 20
25.5688049259
 30
0.0
 10
327.9448690817
 20
25.6200992322
 30
0.0
 10
327.831419685
 20
25.645222974
 30
0.0
 10
327.72778425
 20
25.645222974
 30
0.0
 10
327.3729113969
 20
25.645222974
 30
0.0
 10
327.0974662066
 20
25.3814236849
 30
0.0
 10
327.0974662066
 20
25.0239337753
 30
0.0
 10
327.0974662066
 20
24.6790057366
 30
0.0
 10
327.3759210118
 20
24.4188703265
 30
0.0
 10
327.7154840848
 20
24.4188703265
 30
0.0
 10
327.831419685
 20
24.4188703265
 30
0.0
 10
327.9321763579
 20
24.4408536006
 30
0.0
 10
328.0333255893
 20
24.4947649632
 30
0.0
 10
328.0333255893
 20
24.4947649632
 30
0.0
 10
328.0333255893
 20
24.7774070587
 30
0.0
 10
328.0333255893
 20
24.7774070587
 30
0.0
 10
327.9494489304
 20
24.6842398494
 30
0.0
 10
327.8459443483
 20
24.6250943739
 30
0.0
 10
327.7178394356
 20
24.6250943739
 30
0.0
 10
327.4841362955
 20
24.6250943739
 30
0.0
 10
327.3188691814
 20
24.7972966876
 30
0.0
 10
327.3188691814
 20
25.0338785897
 30
0.0
 10
327.3188691814
 20
25.2458601613
 30
0.0
 10
327.4866224991
 20
25.437952104
 30
0.0
 10
327.7034456251
 20
25.437952104
 30
0.0
 10
327.8362612394
 20
25.437952104
 30
0.0
 10
327.9448690817
 20
25.3840407413
 30
0.0
 10
328.0333255893
 20
25.2830223628
 30
0.0
 10
328.0333255893
 20
25.2830223628
 30
0.0
 10
328.0333255893
 20
25.5688049259
 30
0.0
 10
328.0333255893
 20
25.5688049259
 30
0.0
  0
SPLINE
  5
240
100
AcDbEntity
  8
0
100
AcDbSpline
 62
7
  6
CONTINUOUS
 70
2
 71
3
 72
32
 73
28
 74
0
 42
0.0000001
 43
0.0000001
 44
0.0000000001
 40
0.0
 40
0.0
 40
0.0
 40
0.0
 40
1.0
 40
1.0
 40
1.0
 40
2.0
 40
2.0
 40
2.0
 40
3.0
 40
3.0
 40
3.0
 40
4.0
 40
4.0
 40
4.0
 40
5.0
 40
5.0
 40
5.0
 40
6.0
 40
6.0
 40
6.0
 40
7.0
 40
7.0
 40
7.0
 40
8.0
 40
8.0
 40
8.0
 40
9.0
 40
9.0
 40
9.0
 40
9.0
 10
330.5651968416
 20
24.9972397996
 30
0.0
 10
330.5651968416
 20
24.9972397996
 30
0.0
 10
330.5651968416
 20
25.0312615333
 30
0.0
 10
330.5651968416
 20
25.0312615333
 30
0.0
 10
330.5651968416
 20
25.3735725156
 30
0.0
 10
330.3923402638
 20
25.645222974
 30
0.0
 10
330.0256906566
 20
25.645222974
 30
0.0
 10
329.6540686422
 20
25.645222974
 30
0.0
 10
329.4643320504
 20
25.3788066284
 30
0.0
 10
329.4643320504
 20
25.0239337753
 30
0.0
 10
329.4643320504
 20
24.6842398494
 30
0.0
 10
329.6784072671
 20
24.4183469152
 30
0.0
 10
330.030532211
 20
24.4183469152
 30
0.0
 10
330.2545522422
 20
24.4183469152
 30
0.0
 10
330.4567198522
 20
24.5340208098
 30
0.0
 10
330.5651968416
 20
24.7334405105
 30
0.0
 10
330.5651968416
 20
24.7334405105
 30
0.0
 10
330.3775538949
 20
24.8402164132
 30
0.0
 10
330.3775538949
 20
24.8402164132
 30
0.0
 10
330.2940697945
 20
24.7015124219
 30
0.0
 10
330.2028653775
 20
24.6156729707
 30
0.0
 10
330.0332801203
 20
24.6156729707
 30
0.0
 10
329.8212985487
 20
24.6156729707
 30
0.0
 10
329.6883520816
 20
24.8004371554
 30
0.0
 10
329.6859967308
 20
24.9972397996
 30
0.0
 10
329.6859967308
 20
24.9972397996
 30
0.0
 10
330.5651968416
 20
24.9972397996
 30
0.0
 10
330.5651968416
 20
24.9972397996
 30
0.0
  0
SPLINE
  5
241
100
AcDbEntity
  8
0
100
AcDbSpline
 62
7
  6
CONTINUOUS
 70
2
 71
3
 72
14
 73
10
 74
0
 42
0.0000001
 43
0.0000001
 44
0.0000000001
 40
0.0
 40
0.0
 40
0.0
 40
0.0
 40
1.0
 40
1.0
 40
1.0
 40
2.0
 40
2.0
 40
2.0
 40
3.0
 40
3.0
 40
3.0
 40
3.0
 10
329.6980351904
 20
25.1647314117
 30
0.0
 10
329.7256451358
 20
25.3296059674
 30
0.0
 10
329.8534883429
 20
25.45260762
 30
0.0
 10
330.0256906566
 20
25.45260762
 30
0.0
 10
330.2028653775
 20
25.45260762
 30
0.0
 10
330.3163147742
 20
25.3369337254
 30
0.0
 10
330.3435321612
 20
25.1647314117
 30
0.0
 10
330.3435321612
 20
25.1647314117
 30
0.0
 10
329.6980351904
 20
25.1647314117
 30
0.0
 10
329.6980351904
 20
25.1647314117
 30
0.0
  0
SPLINE
  5
242
100
AcDbEntity
  8
0
100
AcDbSpline
 62
7
  6
CONTINUOUS
 70
2
 71
3
 72
20
 73
16
 74
0
 42
0.0000001
 43
0.0000001
 44
0.0000000001
 40
0.0
 40
0.0
 40
0.0
 40
0.0
 40
1.0
 40
1.0
 40
1.0
 40
2.0
 40
2.0
 40
2.0
 40
3.0
 40
3.0
 40
3.0
 40
4.0
 40
4.0
 40
4.0
 40
5.0
 40
5.0
 40
5.0
 40
5.0
 10
332.5892282918
 20
25.3740959269
 30
0.0
 10
332.5892282918
 20
25.3740959269
 30
0.0
 10
333.0003678584
 20
24.8716210905
 30
0.0
 10
333.0003678584
 20
24.8716210905
 30
0.0
 10
332.8843014053
 20
24.7559471959
 30
0.0
 10
332.7465133838
 20
24.6256177852
 30
0.0
 10
332.5745727757
 20
24.6256177852
 30
0.0
 10
332.3971363491
 20
24.6256177852
 30
0.0
 10
332.229644737
 20
24.7899689296
 30
0.0
 10
332.229644737
 20
24.9668819449
 30
0.0
 10
332.229644737
 20
25.1448417828
 30
0.0
 10
332.4394018106
 20
25.2709839031
 30
0.0
 10
332.566983312
 20
25.3589169995
 30
0.0
 10
332.566983312
 20
25.3589169995
 30
0.0
 10
332.5892282918
 20
25.3740959269
 30
0.0
 10
332.5892282918
 20
25.3740959269
 30
0.0
  0
SPLINE
  5
243
100
AcDbEntity
  8
0
100
AcDbSpline
 62
7
  6
CONTINUOUS
 70
2
 71
3
 72
23
 73
19
 74
0
 42
0.0000001
 43
0.0000001
 44
0.0000000001
 40
0.0
 40
0.0
 40
0.0
 40
0.0
 40
1.0
 40
1.0
 40
1.0
 40
2.0
 40
2.0
 40
2.0
 40
3.0
 40
3.0
 40
3.0
 40
4.0
 40
4.0
 40
4.0
 40
5.0
 40
5.0
 40
5.0
 40
6.0
 40
6.0
 40
6.0
 40
6.0
 10
332.6385598056
 20
25.6651126029
 30
0.0
 10
332.6385598056
 20
25.6651126029
 30
0.0
 10
332.5769281265
 20
25.7436242961
 30
0.0
 10
332.5769281265
 20
25.7436242961
 30
0.0
 10
332.5230167639
 20
25.8121911748
 30
0.0
 10
332.4662266391
 20
25.8812814648
 30
0.0
 10
332.4662266391
 20
25.9749720853
 30
0.0
 10
332.4662266391
 20
26.0937864477
 30
0.0
 10
332.5621417576
 20
26.1712513183
 30
0.0
 10
332.6731049506
 20
26.1712513183
 30
0.0
 10
332.7963683089
 20
26.1712513183
 30
0.0
 10
332.889666371
 20
26.1000673831
 30
0.0
 10
332.889666371
 20
25.9697379725
 30
0.0
 10
332.889666371
 20
25.8346978602
 30
0.0
 10
332.7615614583
 20
25.7582798122
 30
0.0
 10
332.6680016906
 20
25.6844788206
 30
0.0
 10
332.6680016906
 20
25.6844788206
 30
0.0
 10
332.6385598056
 20
25.6651126029
 30
0.0
 10
332.6385598056
 20
25.6651126029
 30
0.0
  0
SPLINE
  5
244
100
AcDbEntity
  8
0
100
AcDbSpline
 62
7
  6
CONTINUOUS
 70
2
 71
3
 72
50
 73
46
 74
0
 42
0.0000001
 43
0.0000001
 44
0.0000000001
 40
0.0
 40
0.0
 40
0.0
 40
0.0
 40
1.0
 40
1.0
 40
1.0
 40
2.0
 40
2.0
 40
2.0
 40
3.0
 40
3.0
 40
3.0
 40
4.0
 40
4.0
 40
4.0
 40
5.0
 40
5.0
 40
5.0
 40
6.0
 40
6.0
 40
6.0
 40
7.0
 40
7.0
 40
7.0
 40
8.0
 40
8.0
 40
8.0
 40
9.0
 40
9.0
 40
9.0
 40
10.0
 40
10.0
 40
10.0
 40
11.0
 40
11.0
 40
11.0
 40
12.0
 40
12.0
 40
12.0
 40
13.0
 40
13.0
 40
13.0
 40
14.0
 40
14.0
 40
14.0
 40
15.0
 40
15.0
 40
15.0
 40
15.0
 10
333.3407160483
 20
24.4581261731
 30
0.0
 10
333.3407160483
 20
24.4581261731
 30
0.0
 10
333.626106053
 20
24.4581261731
 30
0.0
 10
333.626106053
 20
24.4581261731
 30
0.0
 10
333.626106053
 20
24.4581261731
 30
0.0
 10
333.2937398852
 20
24.8690040341
 30
0.0
 10
333.2937398852
 20
24.8690040341
 30
0.0
 10
333.2937398852
 20
24.8690040341
 30
0.0
 10
333.5202461201
 20
25.1348969683
 30
0.0
 10
333.5202461201
 20
25.1348969683
 30
0.0
 10
333.5202461201
 20
25.1348969683
 30
0.0
 10
333.3719898728
 20
25.2877330644
 30
0.0
 10
333.3719898728
 20
25.2877330644
 30
0.0
 10
333.3719898728
 20
25.2877330644
 30
0.0
 10
333.1560827165
 20
25.0364956462
 30
0.0
 10
333.1560827165
 20
25.0364956462
 30
0.0
 10
333.1560827165
 20
25.0364956462
 30
0.0
 10
332.7690200692
 20
25.5044253375
 30
0.0
 10
332.7690200692
 20
25.5044253375
 30
0.0
 10
332.9244732216
 20
25.6185289983
 30
0.0
 10
333.1067512026
 20
25.7582798122
 30
0.0
 10
333.1067512026
 20
25.9676443273
 30
0.0
 10
333.1067512026
 20
26.2115539874
 30
0.0
 10
332.9047144455
 20
26.3549686803
 30
0.0
 10
332.6782082107
 20
26.3549686803
 30
0.0
 10
332.4340368449
 20
26.3549686803
 30
0.0
 10
332.2496652188
 20
26.2042262294
 30
0.0
 10
332.2496652188
 20
25.9477546984
 30
0.0
 10
332.2496652188
 20
25.7902079007
 30
0.0
 10
332.3483282465
 20
25.652550732
 30
0.0
 10
332.4536647682
 20
25.541587539
 30
0.0
 10
332.4536647682
 20
25.541587539
 30
0.0
 10
332.3381217264
 20
25.4578417329
 30
0.0
 10
332.3381217264
 20
25.4578417329
 30
0.0
 10
332.1604235942
 20
25.3296059674
 30
0.0
 10
332.0130833166
 20
25.2018936131
 30
0.0
 10
332.0130833166
 20
24.9647882997
 30
0.0
 10
332.0130833166
 20
24.6444605916
 30
0.0
 10
332.2716484929
 20
24.4183469152
 30
0.0
 10
332.5820313866
 20
24.4183469152
 30
0.0
 10
332.8009481577
 20
24.4183469152
 30
0.0
 10
332.9981433604
 20
24.543442213
 30
0.0
 10
333.1384175856
 20
24.7093635913
 30
0.0
 10
333.1384175856
 20
24.7093635913
 30
0.0
 10
333.3407160483
 20
24.4581261731
 30
0.0
 10
333.3407160483
 20
24.4581261731
 30
0.0
  0
LWPOLYLINE
  5
245
100
AcDbEntity
  8
0
100
AcDbPolyline
 62
7
  6
CONTINUOUS
 90
2
 70
0
 43
0.2
 10
335.276160138
 20
26.3146660112
 10
335.0448123488
 20
26.3146660112
  0
LWPOLYLINE
  5
246
100
AcDbEntity
  8
0
100
AcDbPolyline
 62
7
  6
CONTINUOUS
 90
2
 70
0
 43
0.2
 10
335.0448123488
 20
26.3146660112
 10
335.0448123488
 20
24.4576027618
  0
LWPOLYLINE
  5
247
100
AcDbEntity
  8
0
100
AcDbPolyline
 62
7
  6
CONTINUOUS
 90
2
 70
0
 43
0.2
 10
335.0448123488
 20
24.4576027618
 10
335.8401358007
 20
24.4576027618
  0
LWPOLYLINE
  5
248
100
AcDbEntity
  8
0
100
AcDbPolyline
 62
7
  6
CONTINUOUS
 90
2
 70
0
 43
0.2
 10
335.8401358007
 20
24.4576027618
 10
335.8401358007
 20
24.6695843334
  0
LWPOLYLINE
  5
249
100
AcDbEntity
  8
0
100
AcDbPolyline
 62
7
  6
CONTINUOUS
 90
2
 70
0
 43
0.2
 10
335.8401358007
 20
24.6695843334
 10
335.276160138
 20
24.6695843334
  0
LWPOLYLINE
  5
24A
100
AcDbEntity
  8
0
100
AcDbPolyline
 62
7
  6
CONTINUOUS
 90
2
 70
0
 43
0.2
 10
335.276160138
 20
24.6695843334
 10
335.276160138
 20
26.3146660112
  0
LWPOLYLINE
  5
24B
100
AcDbEntity
  8
0
100
AcDbPolyline
 62
7
  6
CONTINUOUS
 90
2
 70
0
 43
0.2
 10
337.5192392122
 20
25.6101544177
 10
337.2980979431
 20
25.6101544177
  0
LWPOLYLINE
  5
24C
100
AcDbEntity
  8
0
100
AcDbPolyline
 62
7
  6
CONTINUOUS
 90
2
 70
0
 43
0.2
 10
337.2980979431
 20
25.6101544177
 10
337.2980979431
 20
24.4581261731
  0
LWPOLYLINE
  5
24D
100
AcDbEntity
  8
0
100
AcDbPolyline
 62
7
  6
CONTINUOUS
 90
2
 70
0
 43
0.2
 10
337.2980979431
 20
24.4581261731
 10
337.5192392122
 20
24.4581261731
  0
LWPOLYLINE
  5
24E
100
AcDbEntity
  8
0
100
AcDbPolyline
 62
7
  6
CONTINUOUS
 90
2
 70
0
 43
0.2
 10
337.5192392122
 20
24.4581261731
 10
337.5192392122
 20
25.6101544177
  0
SPLINE
  5
24F
100
AcDbEntity
  8
0
100
AcDbSpline
 62
7
  6
CONTINUOUS
 70
2
 71
3
 72
17
 73
13
 74
0
 42
0.0000001
 43
0.0000001
 44
0.0000000001
 40
0.0
 40
0.0
 40
0.0
 40
0.0
 40
1.0
 40
1.0
 40
1.0
 40
2.0
 40
2.0
 40
2.0
 40
3.0
 40
3.0
 40
3.0
 40
4.0
 40
4.0
 40
4.0
 40
4.0
 10
337.4087994305
 20
26.2926827371
 30
0.0
 10
337.3247919188
 20
26.2926827371
 30
0.0
 10
337.2562250401
 20
26.2235924471
 30
0.0
 10
337.2562250401
 20
26.1377529959
 30
0.0
 10
337.2562250401
 20
26.0534837785
 30
0.0
 10
337.3247919188
 20
25.9875339562
 30
0.0
 10
337.4087994305
 20
25.9875339562
 30
0.0
 10
337.4925452365
 20
25.9875339562
 30
0.0
 10
337.5613738209
 20
26.0534837785
 30
0.0
 10
337.5613738209
 20
26.1377529959
 30
0.0
 10
337.5613738209
 20
26.2235924471
 30
0.0
 10
337.4925452365
 20
26.2926827371
 30
0.0
 10
337.4087994305
 20
26.2926827371
 30
0.0
  0
SPLINE
  5
250
100
AcDbEntity
  8
0
100
AcDbSpline
 62
7
  6
CONTINUOUS
 70
2
 71
3
 72
17
 73
13
 74
0
 42
0.0000001
 43
0.0000001
 44
0.0000000001
 40
0.0
 40
0.0
 40
0.0
 40
0.0
 40
1.0
 40
1.0
 40
1.0
 40
2.0
 40
2.0
 40
2.0
 40
3.0
 40
3.0
 40
3.0
 40
4.0
 40
4.0
 40
4.0
 40
4.0
 10
339.6495231538
 20
24.6156729707
 30
0.0
 10
339.4155583082
 20
24.6156729707
 30
0.0
 10
339.2852288975
 20
24.8177097279
 30
0.0
 10
339.2852288975
 20
25.0338785897
 30
0.0
 10
339.2852288975
 20
25.2484772178
 30
0.0
 10
339.4210541267
 20
25.4473735072
 30
0.0
 10
339.6495231538
 20
25.4473735072
 30
0.0
 10
339.888983818
 20
25.4473735072
 30
0.0
 10
340.0245473416
 20
25.2584220322
 30
0.0
 10
340.0245473416
 20
25.0338785897
 30
0.0
 10
340.0245473416
 20
24.8077649134
 30
0.0
 10
339.8913391688
 20
24.6156729707
 30
0.0
 10
339.6495231538
 20
24.6156729707
 30
0.0
  0
SPLINE
  5
251
100
AcDbEntity
  8
0
100
AcDbSpline
 62
7
  6
CONTINUOUS
 70
2
 71
3
 72
50
 73
46
 74
0
 42
0.0000001
 43
0.0000001
 44
0.0000000001
 40
0.0
 40
0.0
 40
0.0
 40
0.0
 40
1.0
 40
1.0
 40
1.0
 40
2.0
 40
2.0
 40
2.0
 40
3.0
 40
3.0
 40
3.0
 40
4.0
 40
4.0
 40
4.0
 40
5.0
 40
5.0
 40
5.0
 40
6.0
 40
6.0
 40
6.0
 40
7.0
 40
7.0
 40
7.0
 40
8.0
 40
8.0
 40
8.0
 40
9.0
 40
9.0
 40
9.0
 40
10.0
 40
10.0
 40
10.0
 40
11.0
 40
11.0
 40
11.0
 40
12.0
 40
12.0
 40
12.0
 40
13.0
 40
13.0
 40
13.0
 40
14.0
 40
14.0
 40
14.0
 40
15.0
 40
15.0
 40
15.0
 40
15.0
 10
340.2336501511
 20
25.610677829
 30
0.0
 10
340.2336501511
 20
25.610677829
 30
0.0
 10
340.0119854707
 20
25.610677829
 30
0.0
 10
340.0119854707
 20
25.610677829
 30
0.0
 10
340.0119854707
 20
25.610677829
 30
0.0
 10
340.0119854707
 20
25.4133517734
 30
0.0
 10
340.0119854707
 20
25.4133517734
 30
0.0
 10
340.0119854707
 20
25.4133517734
 30
0.0
 10
340.0072747691
 20
25.4133517734
 30
0.0
 10
340.0072747691
 20
25.4133517734
 30
0.0
 10
339.9159394994
 20
25.556243055
 30
0.0
 10
339.778020625
 20
25.6446995627
 30
0.0
 10
339.6052949
 20
25.6446995627
 30
0.0
 10
339.2729287322
 20
25.6446995627
 30
0.0
 10
339.0638259227
 20
25.3568233544
 30
0.0
 10
339.0638259227
 20
25.0412063478
 30
0.0
 10
339.0638259227
 20
24.7114572364
 30
0.0
 10
339.2608902726
 20
24.4183469152
 30
0.0
 10
339.6157631258
 20
24.4183469152
 30
0.0
 10
339.778020625
 20
24.4183469152
 30
0.0
 10
339.9180331445
 20
24.5068034229
 30
0.0
 10
340.0072747691
 20
24.6376562448
 30
0.0
 10
340.0072747691
 20
24.6376562448
 30
0.0
 10
340.0119854707
 20
24.6376562448
 30
0.0
 10
340.0119854707
 20
24.6376562448
 30
0.0
 10
340.0119854707
 20
24.6376562448
 30
0.0
 10
340.0119854707
 20
24.4183469152
 30
0.0
 10
340.0119854707
 20
24.4183469152
 30
0.0
 10
340.0119854707
 20
24.1817650131
 30
0.0
 10
339.9554570516
 20
23.9949071833
 30
0.0
 10
339.6822363593
 20
23.9949071833
 30
0.0
 10
339.4799378966
 20
23.9949071833
 30
0.0
 10
339.3373083206
 20
24.1131981344
 30
0.0
 10
339.3373083206
 20
24.3194221818
 30
0.0
 10
339.3373083206
 20
24.3194221818
 30
0.0
 10
339.1156436402
 20
24.3194221818
 30
0.0
 10
339.1156436402
 20
24.3194221818
 30
0.0
 10
339.1206160475
 20
23.9949071833
 30
0.0
 10
339.351702131
 20
23.7981045391
 30
0.0
 10
339.6720298392
 20
23.7981045391
 30
0.0
 10
340.1200699016
 20
23.7981045391
 30
0.0
 10
340.2336501511
 20
24.083363691
 30
0.0
 10
340.2336501511
 20
24.4801094472
 30
0.0
 10
340.2336501511
 20
24.4801094472
 30
0.0
 10
340.2336501511
 20
25.610677829
 30
0.0
 10
340.2336501511
 20
25.610677829
 30
0.0
  0
SPLINE
  5
252
100
AcDbEntity
  8
0
100
AcDbSpline
 62
7
  6
CONTINUOUS
 70
2
 71
3
 72
44
 73
40
 74
0
 42
0.0000001
 43
0.0000001
 44
0.0000000001
 40
0.0
 40
0.0
 40
0.0
 40
0.0
 40
1.0
 40
1.0
 40
1.0
 40
2.0
 40
2.0
 40
2.0
 40
3.0
 40
3.0
 40
3.0
 40
4.0
 40
4.0
 40
4.0
 40
5.0
 40
5.0
 40
5.0
 40
6.0
 40
6.0
 40
6.0
 40
7.0
 40
7.0
 40
7.0
 40
8.0
 40
8.0
 40
8.0
 40
9.0
 40
9.0
 40
9.0
 40
10.0
 40
10.0
 40
10.0
 40
11.0
 40
11.0
 40
11.0
 40
12.0
 40
12.0
 40
12.0
 40
13.0
 40
13.0
 40
13.0
 40
13.0
 10
341.8025754865
 20
26.5957378727
 30
0.0
 10
341.8025754865
 20
26.5957378727
 30
0.0
 10
341.8025754865
 20
24.4576027618
 30
0.0
 10
341.8025754865
 20
24.4576027618
 30
0.0
 10
341.8025754865
 20
24.4576027618
 30
0.0
 10
342.0239784613
 20
24.4576027618
 30
0.0
 10
342.0239784613
 20
24.4576027618
 30
0.0
 10
342.0239784613
 20
24.4576027618
 30
0.0
 10
342.0239784613
 20
24.9872949851
 30
0.0
 10
342.0239784613
 20
24.9872949851
 30
0.0
 10
342.0239784613
 20
25.1971829116
 30
0.0
 10
342.0239784613
 20
25.4478969184
 30
0.0
 10
342.3092376132
 20
25.4478969184
 30
0.0
 10
342.5361364065
 20
25.4478969184
 30
0.0
 10
342.5630920878
 20
25.3149504513
 30
0.0
 10
342.5630920878
 20
25.1186712184
 30
0.0
 10
342.5630920878
 20
25.1186712184
 30
0.0
 10
342.5630920878
 20
24.4576027618
 30
0.0
 10
342.5630920878
 20
24.4576027618
 30
0.0
 10
342.5630920878
 20
24.4576027618
 30
0.0
 10
342.7850184738
 20
24.4576027618
 30
0.0
 10
342.7850184738
 20
24.4576027618
 30
0.0
 10
342.7850184738
 20
24.4576027618
 30
0.0
 10
342.7850184738
 20
25.1448417828
 30
0.0
 10
342.7850184738
 20
25.1448417828
 30
0.0
 10
342.7850184738
 20
25.4253902331
 30
0.0
 10
342.7010109621
 20
25.645222974
 30
0.0
 10
342.3759725524
 20
25.645222974
 30
0.0
 10
342.2362217385
 20
25.645222974
 30
0.0
 10
342.0980411585
 20
25.5787497404
 30
0.0
 10
342.0286891629
 20
25.4557480878
 30
0.0
 10
342.0286891629
 20
25.4557480878
 30
0.0
 10
342.0239784613
 20
25.4557480878
 30
0.0
 10
342.0239784613
 20
25.4557480878
 30
0.0
 10
342.0239784613
 20
25.4557480878
 30
0.0
 10
342.0239784613
 20
26.5957378727
 30
0.0
 10
342.0239784613
 20
26.5957378727
 30
0.0
 10
342.0239784613
 20
26.5957378727
 30
0.0
 10
341.8025754865
 20
26.5957378727
 30
0.0
 10
341.8025754865
 20
26.5957378727
 30
0.0
  0
LWPOLYLINE
  5
253
100
AcDbEntity
  8
0
100
AcDbPolyline
 62
7
  6
CONTINUOUS
 90
2
 70
0
 43
0.2
 10
344.6248091507
 20
25.403406959
 10
344.8412397182
 20
25.403406959
  0
LWPOLYLINE
  5
254
100
AcDbEntity
  8
0
100
AcDbPolyline
 62
7
  6
CONTINUOUS
 90
2
 70
0
 43
0.2
 10
344.8412397182
 20
25.403406959
 10
344.8412397182
 20
25.6101544177
  0
LWPOLYLINE
  5
255
100
AcDbEntity
  8
0
100
AcDbPolyline
 62
7
  6
CONTINUOUS
 90
2
 70
0
 43
0.2
 10
344.8412397182
 20
25.6101544177
 10
344.6248091507
 20
25.6101544177
  0
LWPOLYLINE
  5
256
100
AcDbEntity
  8
0
100
AcDbPolyline
 62
7
  6
CONTINUOUS
 90
2
 70
0
 43
0.2
 10
344.6248091507
 20
25.6101544177
 10
344.6248091507
 20
26.0508667221
  0
LWPOLYLINE
  5
257
100
AcDbEntity
  8
0
100
AcDbPolyline
 62
7
  6
CONTINUOUS
 90
2
 70
0
 43
0.2
 10
344.6248091507
 20
26.0508667221
 10
344.4031444703
 20
26.0508667221
  0
LWPOLYLINE
  5
258
100
AcDbEntity
  8
0
100
AcDbPolyline
 62
7
  6
CONTINUOUS
 90
2
 70
0
 43
0.2
 10
344.4031444703
 20
26.0508667221
 10
344.4031444703
 20
25.6101544177
  0
LWPOLYLINE
  5
259
100
AcDbEntity
  8
0
100
AcDbPolyline
 62
7
  6
CONTINUOUS
 90
2
 70
0
 43
0.2
 10
344.4031444703
 20
25.6101544177
 10
344.2824981684
 20
25.6101544177
  0
LWPOLYLINE
  5
25A
100
AcDbEntity
  8
0
100
AcDbPolyline
 62
7
  6
CONTINUOUS
 90
2
 70
0
 43
0.2
 10
344.2824981684
 20
25.6101544177
 10
344.2824981684
 20
25.403406959
  0
LWPOLYLINE
  5
25B
100
AcDbEntity
  8
0
100
AcDbPolyline
 62
7
  6
CONTINUOUS
 90
2
 70
0
 43
0.2
 10
344.2824981684
 20
25.403406959
 10
344.4031444703
 20
25.403406959
  0
LWPOLYLINE
  5
25C
100
AcDbEntity
  8
0
100
AcDbPolyline
 62
7
  6
CONTINUOUS
 90
2
 70
0
 43
0.2
 10
344.4031444703
 20
25.403406959
 10
344.4031444703
 20
24.4576027618
  0
LWPOLYLINE
  5
25D
100
AcDbEntity
  8
0
100
AcDbPolyline
 62
7
  6
CONTINUOUS
 90
2
 70
0
 43
0.2
 10
344.4031444703
 20
24.4576027618
 10
344.6248091507
 20
24.4576027618
  0
LWPOLYLINE
  5
25E
100
AcDbEntity
  8
0
100
AcDbPolyline
 62
7
  6
CONTINUOUS
 90
2
 70
0
 43
0.2
 10
344.6248091507
 20
24.4576027618
 10
344.6248091507
 20
25.403406959
  0
SPLINE
  5
25F
100
AcDbEntity
  8
0
100
AcDbSpline
 62
7
  6
CONTINUOUS
 70
2
 71
3
 72
20
 73
16
 74
0
 42
0.0000001
 43
0.0000001
 44
0.0000000001
 40
0.0
 40
0.0
 40
0.0
 40
0.0
 40
1.0
 40
1.0
 40
1.0
 40
2.0
 40
2.0
 40
2.0
 40
3.0
 40
3.0
 40
3.0
 40
4.0
 40
4.0
 40
4.0
 40
5.0
 40
5.0
 40
5.0
 40
5.0
 10
332.4068194579
 20
34.8185292052
 30
0.0
 10
332.4068194579
 20
34.8185292052
 30
0.0
 10
334.7231761124
 20
31.988967783
 30
0.0
 10
334.7231761124
 20
31.988967783
 30
0.0
 10
334.071529059
 20
31.3367973183
 30
0.0
 10
333.294655855
 20
30.6008810475
 30
0.0
 10
332.3234662104
 20
30.6008810475
 30
0.0
 10
331.3249283259
 20
30.6008810475
 30
0.0
 10
330.3816103324
 20
31.5304594948
 30
0.0
 10
330.3816103324
 20
32.5296516433
 30
0.0
 10
330.3816103324
 20
33.5288437919
 30
0.0
 10
331.5604634055
 20
34.2354490305
 30
0.0
 10
332.2819858658
 20
34.7353068104
 30
0.0
 10
332.2819858658
 20
34.7353068104
 30
0.0
 10
332.4068194579
 20
34.8185292052
 30
0.0
 10
332.4068194579
 20
34.8185292052
 30
0.0
  0
SPLINE
  5
260
100
AcDbEntity
  8
0
100
AcDbSpline
 62
7
  6
CONTINUOUS
 70
2
 71
3
 72
23
 73
19
 74
0
 42
0.0000001
 43
0.0000001
 44
0.0000000001
 40
0.0
 40
0.0
 40
0.0
 40
0.0
 40
1.0
 40
1.0
 40
1.0
 40
2.0
 40
2.0
 40
2.0
 40
3.0
 40
3.0
 40
3.0
 40
4.0
 40
4.0
 40
4.0
 40
5.0
 40
5.0
 40
5.0
 40
6.0
 40
6.0
 40
6.0
 40
6.0
 10
332.6842274405
 20
36.4562831249
 30
0.0
 10
332.6842274405
 20
36.4562831249
 30
0.0
 10
332.3377291679
 20
36.8996124858
 30
0.0
 10
332.3377291679
 20
36.8996124858
 30
0.0
 10
332.031926123
 20
37.2877219557
 30
0.0
 10
331.7130377959
 20
37.6762239841
 30
0.0
 10
331.7130377959
 20
38.2031682982
 30
0.0
 10
331.7130377959
 20
38.8693400148
 30
0.0
 10
332.2543759204
 20
39.3130619341
 30
0.0
 10
332.8782821755
 20
39.3130619341
 30
0.0
 10
333.5720638376
 20
39.3130619341
 30
0.0
 10
334.0992698573
 20
38.9108203594
 30
0.0
 10
334.0992698573
 20
38.1758200584
 30
0.0
 10
334.0992698573
 20
37.4125555479
 30
0.0
 10
333.3780091026
 20
36.9824423221
 30
0.0
 10
332.8509339357
 20
36.5667229067
 30
0.0
 10
332.8509339357
 20
36.5667229067
 30
0.0
 10
332.6842274405
 20
36.4562831249
 30
0.0
 10
332.6842274405
 20
36.4562831249
 30
0.0
  0
SPLINE
  5
261
100
AcDbEntity
  8
0
100
AcDbSpline
 62
7
  6
CONTINUOUS
 70
2
 71
3
 72
50
 73
46
 74
0
 42
0.0000001
 43
0.0000001
 44
0.0000000001
 40
0.0
 40
0.0
 40
0.0
 40
0.0
 40
1.0
 40
1.0
 40
1.0
 40
2.0
 40
2.0
 40
2.0
 40
3.0
 40
3.0
 40
3.0
 40
4.0
 40
4.0
 40
4.0
 40
5.0
 40
5.0
 40
5.0
 40
6.0
 40
6.0
 40
6.0
 40
7.0
 40
7.0
 40
7.0
 40
8.0
 40
8.0
 40
8.0
 40
9.0
 40
9.0
 40
9.0
 40
10.0
 40
10.0
 40
10.0
 40
11.0
 40
11.0
 40
11.0
 40
12.0
 40
12.0
 40
12.0
 40
13.0
 40
13.0
 40
13.0
 40
14.0
 40
14.0
 40
14.0
 40
15.0
 40
15.0
 40
15.0
 40
15.0
 10
336.6378146034
 20
29.6576939068
 30
0.0
 10
336.6378146034
 20
29.6576939068
 30
0.0
 10
338.247042608
 20
29.6576939068
 30
0.0
 10
338.247042608
 20
29.6576939068
 30
0.0
 10
338.247042608
 20
29.6576939068
 30
0.0
 10
336.3740153144
 20
31.9748356782
 30
0.0
 10
336.3740153144
 20
31.9748356782
 30
0.0
 10
336.3740153144
 20
31.9748356782
 30
0.0
 10
337.6503537398
 20
33.4723153728
 30
0.0
 10
337.6503537398
 20
33.4723153728
 30
0.0
 10
337.6503537398
 20
33.4723153728
 30
0.0
 10
336.8181297921
 20
34.3333269413
 30
0.0
 10
336.8181297921
 20
34.3333269413
 30
0.0
 10
336.8181297921
 20
34.3333269413
 30
0.0
 10
335.5975346688
 20
32.9180228189
 30
0.0
 10
335.5975346688
 20
32.9180228189
 30
0.0
 10
335.5975346688
 20
32.9180228189
 30
0.0
 10
333.4196203
 20
35.5533986534
 30
0.0
 10
333.4196203
 20
35.5533986534
 30
0.0
 10
334.2931937394
 20
36.1914370133
 30
0.0
 10
335.3198649806
 20
36.9824423221
 30
0.0
 10
335.3198649806
 20
38.1612953952
 30
0.0
 10
335.3198649806
 20
39.5349883202
 30
0.0
 10
334.1819688408
 20
40.3394714696
 30
0.0
 10
332.9066772379
 20
40.3394714696
 30
0.0
 10
331.5332460185
 20
40.3394714696
 30
0.0
 10
330.4923118197
 20
39.49324627
 30
0.0
 10
330.4923118197
 20
38.0505939078
 30
0.0
 10
330.4923118197
 20
37.1630192164
 30
0.0
 10
331.0476511962
 20
36.3861460124
 30
0.0
 10
331.6438166531
 20
35.7617163459
 30
0.0
 10
331.6438166531
 20
35.7617163459
 30
0.0
 10
330.991907894
 20
35.2901227756
 30
0.0
 10
330.991907894
 20
35.2901227756
 30
0.0
 10
329.9933700096
 20
34.5688620209
 30
0.0
 10
329.1604917978
 20
33.8476012662
 30
0.0
 10
329.1604917978
 20
32.5160429498
 30
0.0
 10
329.1604917978
 20
30.7123676518
 30
0.0
 10
330.6175379704
 20
29.4357675207
 30
0.0
 10
332.3650774077
 20
29.4357675207
 30
0.0
 10
333.5999354886
 20
29.4357675207
 30
0.0
 10
334.7093057133
 20
30.1439429932
 30
0.0
 10
335.5001801693
 20
31.0724746179
 30
0.0
 10
335.5001801693
 20
31.0724746179
 30
0.0
 10
336.6378146034
 20
29.6576939068
 30
0.0
 10
336.6378146034
 20
29.6576939068
 30
0.0
  0
LINE
  5
262
100
AcDbEntity
  8
0
100
AcDbLine
 62
7
  6
CONTINUOUS
 10
322.4406759784
 20
27.6315688114
 11
344.8545867061
 21
27.6315688114
  0
LINE
  5
263
100
AcDbEntity
  8
0
100
AcDbLine
 62
7
  6
CONTINUOUS
 10
344.8545867061
 20
27.6315688114
 11
344.8545867061
 21
50.0454795391
  0
LINE
  5
264
100
AcDbEntity
  8
0
100
AcDbLine
 62
7
  6
CONTINUOUS
 10
344.8545867061
 20
50.0454795391
 11
322.4406759784
 21
50.0454795391
  0
LINE
  5
265
100
AcDbEntity
  8
0
100
AcDbLine
 62
7
  6
CONTINUOUS
 10
322.4406759784
 20
50.0454795391
 11
322.4406759784
 21
27.6315688114
  0
ENDBLK
  5
266
100
AcDbEntity
  8
0
  6
BYBLOCK
 62
0
100
AcDbBlockEnd
  0
BLOCK
  5
267
100
AcDbEntity
  8
0
100
AcDbBlockBegin
  2
_CLOSED
 70
64
 10
0.0
 20
0.0
  3
_CLOSED
  1

  0
LINE
  5
268
100
AcDbEntity
  8
0
  6
BYBLOCK
 62
0
100
AcDbLine
 10
0.0
 20
0.0
 11
-1.0
 21
0.2
  0
LINE
  5
269
100
AcDbEntity
  8
0
  6
BYBLOCK
 62
0
100
AcDbLine
 10
-1.0
 20
0.2
 11
-1.0
 21
-0.2
  0
LINE
  5
26A
100
AcDbEntity
  8
0
  6
BYBLOCK
 62
0
100
AcDbLine
 10
-1.0
 20
-0.2
 11
0.0
 21
0.0
  0
LINE
  5
26B
100
AcDbEntity
  8
0
  6
BYBLOCK
 62
0
100
AcDbLine
 10
-1.0
 20
0.0
 11
0.0
 21
0.0
  0
ENDBLK
  5
26C
100
AcDbEntity
  8
0
  6
BYBLOCK
 62
0
100
AcDbBlockEnd
  0
BLOCK
  5
26D
100
AcDbEntity
  8
0
100
AcDbBlockBegin
 62
2
  6
CONTINUOUS
  2
*D0
 70
65
 10
0.0
 20
0.0
  3
*D0
  1

  0
LINE
  5
26E
100
AcDbEntity
  8
0
100
AcDbLine
 62
2
  6
CONTINUOUS
 10
334.6160979435
 20
270.4904354614
 11
354.0820070344
 21
270.4904354614
  0
LINE
  5
26F
100
AcDbEntity
  8
0
100
AcDbLine
 62
2
  6
CONTINUOUS
 10
334.3092797617
 20
178.0404354614
 11
354.0820070344
 21
178.0404354614
  0
LINE
  5
270
100
AcDbEntity
  8
0
100
AcDbLine
 62
2
  6
CONTINUOUS
 10
353.3320070344
 20
270.4904354614
 11
353.3320070344
 21
224.2654354614
  0
LINE
  5
271
100
AcDbEntity
  8
0
100
AcDbLine
 62
2
  6
CONTINUOUS
 10
353.3320070344
 20
178.0404354614
 11
353.3320070344
 21
224.2654354614
  0
INSERT
  5
272
100
AcDbEntity
  8
0
100
AcDbBlockReference
 62
2
  6
CONTINUOUS
  2
_CLOSED
 10
353.3320070344
 20
270.4904354614
 41
2.5
 42
2.5
 43
2.5
 50
90.0
  0
INSERT
  5
273
100
AcDbEntity
  8
0
100
AcDbBlockReference
 62
2
  6
CONTINUOUS
  2
_CLOSED
 10
353.3320070344
 20
178.0404354614
 41
2.5
 42
2.5
 43
2.5
 50
270.0
  0
ENDBLK
  5
274
100
AcDbEntity
  8
0
  6
BYBLOCK
 62
0
100
AcDbBlockEnd
  0
BLOCK
  5
275
100
AcDbEntity
  8
0
100
AcDbBlockBegin
 62
2
  6
CONTINUOUS
  2
*D1
 70
65
 10
0.0
 20
0.0
  3
*D1
  1

  0
LINE
  5
276
100
AcDbEntity
  8
0
100
AcDbLine
 62
2
  6
CONTINUOUS
 10
131.3763229455
 20
124.9448551723
 11
140.2906689135
 21
141.2912922314
  0
INSERT
  5
277
100
AcDbEntity
  8
0
100
AcDbBlockReference
 62
2
  6
CONTINUOUS
  2
_CLOSED
 10
131.3763229455
 20
124.9448551723
 41
2.5
 42
2.5
 43
2.5
 50
241.3946527447
  0
ENDBLK
  5
278
100
AcDbEntity
  8
0
  6
BYBLOCK
 62
0
100
AcDbBlockEnd
  0
BLOCK
  5
279
100
AcDbEntity
  8
0
100
AcDbBlockBegin
 62
2
  6
CONTINUOUS
  2
*D2
 70
65
 10
0.0
 20
0.0
  3
*D2
  1

  0
LINE
  5
27A
100
AcDbEntity
  8
0
100
AcDbLine
 62
2
  6
CONTINUOUS
 10
62.3876331676
 20
273.8681964809
 11
62.3876331676
 21
285.4308527309
  0
LINE
  5
27B
100
AcDbEntity
  8
0
100
AcDbLine
 62
2
  6
CONTINUOUS
 10
152.4876331676
 20
273.6718328445
 11
152.4876331676
 21
285.4308527309
  0
LINE
  5
27C
100
AcDbEntity
  8
0
100
AcDbLine
 62
2
  6
CONTINUOUS
 10
62.3876331676
 20
284.6808527309
 11
107.4376331676
 21
284.6808527309
  0
LINE
  5
27D
100
AcDbEntity
  8
0
100
AcDbLine
 62
2
  6
CONTINUOUS
 10
152.4876331676
 20
284.6808527309
 11
107.4376331676
 21
284.6808527309
  0
INSERT
  5
27E
100
AcDbEntity
  8
0
100
AcDbBlockReference
 62
2
  6
CONTINUOUS
  2
_CLOSED
 10
62.3876331676
 20
284.6808527309
 41
2.5
 42
2.5
 43
2.5
 50
180.0
  0
INSERT
  5
27F
100
AcDbEntity
  8
0
100
AcDbBlockReference
 62
2
  6
CONTINUOUS
  2
_CLOSED
 10
152.4876331676
 20
284.6808527309
 41
2.5
 42
2.5
 43
2.5
  0
ENDBLK
  5
280
100
AcDbEntity
  8
0
  6
BYBLOCK
 62
0
100
AcDbBlockEnd
  0
BLOCK
  5
281
100
AcDbEntity
  8
0
100
AcDbBlockBegin
  2
*T1
 70
1
 10
0.0
 20
0.0
  3
*T1
  1

  0
LINE
  5
282
100
AcDbEntity
  8
0
100
AcDbLine
 62
2
  6
CONTINUOUS
 10
0.0
 20
0.0
 11
90.0
 21
0.0
  0
LINE
  5
283
100
AcDbEntity
  8
0
100
AcDbLine
 62
2
  6
CONTINUOUS
 10
0.0
 20
0.0
 11
0.0
 21
-40.0
  0
LINE
  5
284
100
AcDbEntity
  8
0
100
AcDbLine
 62
2
  6
CONTINUOUS
 10
30.0
 20
-6.0
 11
90.0
 21
-6.0
  0
LINE
  5
285
100
AcDbEntity
  8
0
100
AcDbLine
 62
2
  6
CONTINUOUS
 10
30.0
 20
-12.0
 11
90.0
 21
-12.0
  0
LINE
  5
286
100
AcDbEntity
  8
0
100
AcDbLine
 62
2
  6
CONTINUOUS
 10
30.0
 20
-22.0
 11
90.0
 21
-22.0
  0
LINE
  5
287
100
AcDbEntity
  8
0
100
AcDbLine
 62
2
  6
CONTINUOUS
 10
0.0
 20
-27.0
 11
90.0
 21
-27.0
  0
LINE
  5
288
100
AcDbEntity
  8
0
100
AcDbLine
 62
2
  6
CONTINUOUS
 10
0.0
 20
-40.0
 11
90.0
 21
-40.0
  0
LINE
  5
289
100
AcDbEntity
  8
0
100
AcDbLine
 62
2
  6
CONTINUOUS
 10
30.0
 20
0.0
 11
30.0
 21
-27.0
  0
LINE
  5
28A
100
AcDbEntity
  8
0
100
AcDbLine
 62
2
  6
CONTINUOUS
 10
70.0
 20
0.0
 11
70.0
 21
-12.0
  0
LINE
  5
28B
100
AcDbEntity
  8
0
100
AcDbLine
 62
2
  6
CONTINUOUS
 10
90.0
 20
0.0
 11
90.0
 21
-40.0
  0
ENDBLK
  5
28C
100
AcDbEntity
  8
0
100
AcDbBlockEnd
  0
ENDSEC
  0
SECTION
  2
ENTITIES
  0
DIMENSION
  5
28D
100
AcDbEntity
  8
0
100
AcDbDimension
 62
2
  6
CONTINUOUS
  2
*D0
 10
353.3320070344
 20
178.0404354614
 11
352.5820070344
 21
221.9082926042
 70
160
 71
2
 42
92.45
  3
DIMSTYLE_1
100
AcDbAlignedDimension
 13
334.6160979435
 23
270.4904354614
 14
334.3092797617
 24
178.0404354614
 50
270.0
100
AcDbRotatedDimension
  0
DIMENSION
  5
28E
100
AcDbEntity
  8
0
100
AcDbDimension
 62
2
  6
CONTINUOUS
  2
*D1
 10
131.3763229455
 20
124.9448551723
 11
134.6392884659
 21
132.4947303418
 70
163
 71
1
 42
100.0
  1
<>
  3
DIMSTYLE_2
100
AcDbDiametricDimension
 15
83.4989433897
 25
37.1510255095
  0
DIMENSION
  5
28F
100
AcDbEntity
  8
0
100
AcDbDimension
 62
2
  6
CONTINUOUS
  2
*D2
 10
152.4876331676
 20
284.6808527309
 11
103.0804903105
 21
285.4308527309
 70
160
 71
2
 42
90.1
  1
%%c<>
  3
DIMSTYLE_1
100
AcDbAlignedDimension
 13
62.3876331676
 23
273.8681964809
 14
152.4876331676
 24
273.6718328445
100
AcDbRotatedDimension
  0
INSERT
  5
290
100
AcDbEntity
  8
0
100
AcDbBlockReference
 62
2
  6
CONTINUOUS
  2
LOGO2_BL0
 10
333.6475659158
 20
36.9217920391
  0
LWPOLYLINE
  5
291
100
AcDbEntity
  8
0
100
AcDbPolyline
 62
2
  6
CONTINUOUS
 90
10
 70
0
 10
352.380435791
 20
48.9217913818
 10
351.7375927734
 20
48.2789355469
 10
351.3090307617
 20
47.4217922974
 10
351.3090307617
 20
46.3503616333
 10
351.7375927734
 20
45.9217932129
 10
352.380435791
 20
45.9217932129
 10
352.8090234375
 20
46.3503616333
 10
352.8090234375
 20
47.2075048828
 10
352.380435791
 20
47.6360797119
 10
351.4518676758
 20
47.6360797119
  0
LWPOLYLINE
  5
292
100
AcDbEntity
  8
0
100
AcDbPolyline
 62
2
  6
CONTINUOUS
 90
3
 70
0
 10
353.6661730957
 20
45.9217932129
 10
353.6661730957
 20
48.9217913818
 10
354.9518847656
 20
48.9217913818
  0
LINE
  5
293
100
AcDbEntity
  8
0
100
AcDbLine
 62
2
  6
CONTINUOUS
 10
354.5232971191
 20
47.6360797119
 11
353.6661730957
 21
47.6360797119
  0
LINE
  5
294
100
AcDbEntity
  8
0
100
AcDbLine
 62
2
  6
CONTINUOUS
 10
353.6661730957
 20
45.9217932129
 11
354.9518847656
 21
45.9217932129
  0
LWPOLYLINE
  5
295
100
AcDbEntity
  8
0
100
AcDbPolyline
 62
2
  6
CONTINUOUS
 90
10
 70
0
 10
356.8804394531
 20
48.9217913818
 10
356.2375964355
 20
48.2789355469
 10
355.8090087891
 20
47.4217922974
 10
355.8090087891
 20
46.3503616333
 10
356.2375964355
 20
45.9217932129
 10
356.8804394531
 20
45.9217932129
 10
357.3090270996
 20
46.3503616333
 10
357.3090270996
 20
47.2075048828
 10
356.8804394531
 20
47.6360797119
 10
355.9518713379
 20
47.6360797119
  0
LINE
  5
296
100
AcDbEntity
  8
0
100
AcDbLine
 62
2
  6
CONTINUOUS
 10
358.166151123
 20
45.9217932129
 11
359.8804504395
 21
45.9217932129
  0
LWPOLYLINE
  5
297
100
AcDbEntity
  8
0
100
AcDbPolyline
 62
2
  6
CONTINUOUS
 90
6
 70
0
 10
361.8090307617
 20
45.9217932129
 10
360.9518811035
 20
45.9217932129
 10
360.523293457
 20
46.3503616333
 10
360.523293457
 20
48.4932229614
 10
360.9518811035
 20
48.9217913818
 10
361.8090307617
 20
48.9217913818
  0
LINE
  5
298
100
AcDbEntity
  8
0
100
AcDbLine
 62
2
  6
CONTINUOUS
 10
363.0232983398
 20
45.9217932129
 11
364.7375976562
 21
45.9217932129
  0
LWPOLYLINE
  5
299
100
AcDbEntity
  8
0
100
AcDbPolyline
 62
2
  6
CONTINUOUS
 90
13
 70
0
 10
365.3804406738
 20
46.7789364624
 10
365.3804406738
 20
48.0646481323
 10
365.5947216797
 20
48.4932229614
 10
366.0233093262
 20
48.9217913818
 10
366.237590332
 20
48.9217913818
 10
366.6661523438
 20
48.4932229614
 10
366.8804589844
 20
48.0646481323
 10
366.8804589844
 20
46.7789364624
 10
366.6661523438
 20
46.3503616333
 10
366.237590332
 20
45.9217932129
 10
366.0233093262
 20
45.9217932129
 10
365.5947216797
 20
46.3503616333
 10
365.3804406738
 20
46.7789364624
  0
LWPOLYLINE
  5
29A
100
AcDbEntity
  8
0
100
AcDbPolyline
 62
2
  6
CONTINUOUS
 90
13
 70
0
 10
367.7375830078
 20
46.7789364624
 10
367.7375830078
 20
48.0646481323
 10
367.9518640137
 20
48.4932229614
 10
368.3804516602
 20
48.9217913818
 10
368.594732666
 20
48.9217913818
 10
369.0232946777
 20
48.4932229614
 10
369.2376013184
 20
48.0646481323
 10
369.2376013184
 20
46.7789364624
 10
369.0232946777
 20
46.3503616333
 10
368.594732666
 20
45.9217932129
 10
368.3804516602
 20
45.9217932129
 10
367.9518640137
 20
46.3503616333
 10
367.7375830078
 20
46.7789364624
  0
LWPOLYLINE
  5
29B
100
AcDbEntity
  8
0
100
AcDbPolyline
 62
2
  6
CONTINUOUS
 90
3
 70
0
 10
370.0947253418
 20
48.0646481323
 10
370.951875
 20
48.9217913818
 10
370.951875
 20
45.9217932129
  0
LWPOLYLINE
  5
29C
100
AcDbEntity
  8
0
100
AcDbPolyline
 62
2
  6
CONTINUOUS
 90
7
 70
0
 10
391.3090063477
 20
45.6717901611
 10
391.3090063477
 20
49.1717944336
 10
392.5590087891
 20
49.1717944336
 10
393.0590148926
 20
48.6717947388
 10
393.0590148926
 20
47.6717889404
 10
392.5590087891
 20
47.1717892456
 10
391.3090063477
 20
47.1717892456
  0
LINE
  5
29D
100
AcDbEntity
  8
0
100
AcDbLine
 62
2
  6
CONTINUOUS
 10
392.0590283203
 20
47.1717892456
 11
393.0590148926
 21
45.6717901611
  0
LWPOLYLINE
  5
29E
100
AcDbEntity
  8
0
100
AcDbPolyline
 62
2
  6
CONTINUOUS
 90
9
 70
0
 10
395.5590197754
 20
45.6717901611
 10
394.5590075684
 20
45.6717901611
 10
394.0590270996
 20
46.171789856
 10
394.0590270996
 20
47.6717889404
 10
394.5590075684
 20
48.1717950439
 10
395.0590136719
 20
48.1717950439
 10
395.5590197754
 20
47.6717889404
 10
395.5590197754
 20
46.9217926025
 10
394.0590270996
 20
46.9217926025
  0
LWPOLYLINE
  5
29F
100
AcDbEntity
  8
0
100
AcDbPolyline
 62
2
  6
CONTINUOUS
 90
3
 70
0
 10
396.5590063477
 20
48.1717950439
 10
397.3090283203
 20
45.6717901611
 10
398.0590246582
 20
48.1717950439
  0
LWPOLYLINE
  5
2A0
100
AcDbEntity
  8
0
100
AcDbPolyline
 62
2
  6
CONTINUOUS
 90
4
 70
0
 10
399.0590112305
 20
45.6717901611
 10
399.0590112305
 20
45.9217932129
 10
399.2256884766
 20
45.9217932129
 10
399.0590112305
 20
45.6717901611
  0
LWPOLYLINE
  5
2A1
100
AcDbEntity
  8
0
100
AcDbPolyline
 62
2
  6
CONTINUOUS
 90
4
 70
0
 10
399.0590112305
 20
47.1717892456
 10
399.0590112305
 20
47.4217922974
 10
399.2256884766
 20
47.4217922974
 10
399.0590112305
 20
47.1717892456
  0
LWPOLYLINE
  5
2A2
100
AcDbEntity
  8
0
100
AcDbPolyline
 62
2
  6
CONTINUOUS
 90
13
 70
0
 10
400.3090136719
 20
46.6717895508
 10
400.3090136719
 20
48.1717950439
 10
400.559029541
 20
48.6717947388
 10
401.0590100098
 20
49.1717944336
 10
401.3090258789
 20
49.1717944336
 10
401.8090063477
 20
48.6717947388
 10
402.0590222168
 20
48.1717950439
 10
402.0590222168
 20
46.6717895508
 10
401.8090063477
 20
46.171789856
 10
401.3090258789
 20
45.6717901611
 10
401.0590100098
 20
45.6717901611
 10
400.559029541
 20
46.171789856
 10
400.3090136719
 20
46.6717895508
  0
LWPOLYLINE
  5
2A3
100
AcDbEntity
  8
0
100
AcDbPolyline
 62
2
  6
CONTINUOUS
 90
13
 70
0
 10
403.0590087891
 20
46.6717895508
 10
403.0590087891
 20
48.1717950439
 10
403.3090246582
 20
48.6717947388
 10
403.8090307617
 20
49.1717944336
 10
404.0590209961
 20
49.1717944336
 10
404.5590270996
 20
48.6717947388
 10
404.809017334
 20
48.1717950439
 10
404.809017334
 20
46.6717895508
 10
404.5590270996
 20
46.171789856
 10
404.0590209961
 20
45.6717901611
 10
403.8090307617
 20
45.6717901611
 10
403.3090246582
 20
46.171789856
 10
403.0590087891
 20
46.6717895508
  0
LWPOLYLINE
  5
2A4
100
AcDbEntity
  8
0
100
AcDbPolyline
 62
2
  6
CONTINUOUS
 90
10
 70
0
 10
351.3090307617
 20
39.4217907715
 10
351.5590209961
 20
39.1717941284
 10
352.5590075684
 20
39.1717941284
 10
353.0590136719
 20
39.6717938232
 10
353.0590136719
 20
40.1717935181
 10
351.3090307617
 20
41.6717926025
 10
351.3090307617
 20
42.1717922974
 10
351.8090112305
 20
42.6717919922
 10
352.8090234375
 20
42.6717919922
 10
353.0590136719
 20
42.4217889404
  0
LWPOLYLINE
  5
2A5
100
AcDbEntity
  8
0
100
AcDbPolyline
 62
2
  6
CONTINUOUS
 90
6
 70
0
 10
355.3090283203
 20
39.1717941284
 10
354.3090161133
 20
39.1717941284
 10
354.0590258789
 20
39.4217907715
 10
354.0590258789
 20
41.4217895508
 10
354.3090161133
 20
41.6717926025
 10
355.3090283203
 20
41.6717926025
  0
LWPOLYLINE
  5
2A6
100
AcDbEntity
  8
0
100
AcDbPolyline
 62
2
  6
CONTINUOUS
 90
4
 70
0
 10
357.8090075684
 20
39.1717941284
 10
357.8090075684
 20
41.1717929077
 10
357.559017334
 20
41.6717926025
 10
356.3090148926
 20
41.6717926025
  0
LWPOLYLINE
  5
2A7
100
AcDbEntity
  8
0
100
AcDbPolyline
 62
2
  6
CONTINUOUS
 90
6
 70
0
 10
357.8090075684
 20
39.1717941284
 10
356.8090209961
 20
39.1717941284
 10
356.3090148926
 20
39.4217907715
 10
356.3090148926
 20
40.1717935181
 10
356.8090209961
 20
40.4217901611
 10
357.8090075684
 20
40.4217901611
  0
LWPOLYLINE
  5
2A8
100
AcDbEntity
  8
0
100
AcDbPolyline
 62
2
  6
CONTINUOUS
 90
4
 70
0
 10
359.5590161133
 20
39.1717941284
 10
359.0590100098
 20
39.1717941284
 10
358.8090197754
 20
39.4217907715
 10
358.8090197754
 20
42.6717919922
  0
LWPOLYLINE
  5
2A9
100
AcDbEntity
  8
0
100
AcDbPolyline
 62
2
  6
CONTINUOUS
 90
9
 70
0
 10
362.0590209961
 20
39.1717941284
 10
361.0590087891
 20
39.1717941284
 10
360.5590283203
 20
39.6717938232
 10
360.5590283203
 20
41.1717929077
 10
361.0590087891
 20
41.6717926025
 10
361.5590148926
 20
41.6717926025
 10
362.0590209961
 20
41.1717929077
 10
362.0590209961
 20
40.4217901611
 10
360.5590283203
 20
40.4217901611
  0
LWPOLYLINE
  5
2AA
100
AcDbEntity
  8
0
100
AcDbPolyline
 62
2
  6
CONTINUOUS
 90
4
 70
0
 10
363.0590075684
 20
39.1717941284
 10
363.0590075684
 20
39.4217907715
 10
363.2256848145
 20
39.4217907715
 10
363.0590075684
 20
39.1717941284
  0
LWPOLYLINE
  5
2AB
100
AcDbEntity
  8
0
100
AcDbPolyline
 62
2
  6
CONTINUOUS
 90
4
 70
0
 10
363.0590075684
 20
40.6717932129
 10
363.0590075684
 20
40.921789856
 10
363.2256848145
 20
40.921789856
 10
363.0590075684
 20
40.6717932129
  0
LWPOLYLINE
  5
2AC
100
AcDbEntity
  8
0
100
AcDbPolyline
 62
2
  6
CONTINUOUS
 90
3
 70
0
 10
364.3090100098
 20
41.6717926025
 10
365.3090222168
 20
42.6717919922
 10
365.3090222168
 20
39.1717941284
  0
LWPOLYLINE
  5
2AD
100
AcDbEntity
  8
0
100
AcDbPolyline
 62
2
  6
CONTINUOUS
 90
4
 70
0
 10
366.3090087891
 20
39.1717941284
 10
366.3090087891
 20
39.4217907715
 10
366.4756860352
 20
39.4217907715
 10
366.3090087891
 20
39.1717941284
  0
LWPOLYLINE
  5
2AE
100
AcDbEntity
  8
0
100
AcDbPolyline
 62
2
  6
CONTINUOUS
 90
4
 70
0
 10
366.3090087891
 20
40.6717932129
 10
366.3090087891
 20
40.921789856
 10
366.4756860352
 20
40.921789856
 10
366.3090087891
 20
40.6717932129
  0
LWPOLYLINE
  5
2AF
100
AcDbEntity
  8
0
100
AcDbPolyline
 62
2
  6
CONTINUOUS
 90
3
 70
0
 10
367.5590112305
 20
41.6717926025
 10
368.5590234375
 20
42.6717919922
 10
368.5590234375
 20
39.1717941284
  0
LWPOLYLINE
  5
2B0
100
AcDbEntity
  8
0
100
AcDbPolyline
 62
2
  6
CONTINUOUS
 90
3
 70
0
 10
391.3090063477
 20
39.6717938232
 10
392.3090185547
 20
43.171791687
 10
393.3090307617
 20
39.6717938232
  0
LINE
  5
2B1
100
AcDbEntity
  8
0
100
AcDbLine
 62
2
  6
CONTINUOUS
 10
391.6423608398
 20
40.6717932129
 11
392.9756762695
 21
40.6717932129
  0
LWPOLYLINE
  5
2B2
100
AcDbEntity
  8
0
100
AcDbPolyline
 62
2
  6
CONTINUOUS
 90
6
 70
0
 10
394.309017334
 20
39.6717938232
 10
395.5590197754
 20
39.6717938232
 10
395.8090100098
 20
39.9217904663
 10
395.8090100098
 20
41.1717929077
 10
395.309029541
 20
41.6717926025
 10
394.8090234375
 20
41.6717926025
  0
LWPOLYLINE
  5
2B3
100
AcDbEntity
  8
0
100
AcDbPolyline
 62
2
  6
CONTINUOUS
 90
5
 70
0
 10
395.309029541
 20
41.6717926025
 10
395.7256970215
 20
41.9217892456
 10
395.7256970215
 20
42.6717919922
 10
395.309029541
 20
43.171791687
 10
394.309017334
 20
43.171791687
  0
LINE
  5
2B4
100
AcDbEntity
  8
0
100
AcDbLine
 62
2
  6
CONTINUOUS
 10
352.309017334
 20
31.6717922974
 11
352.309017334
 21
35.1717901611
  0
LINE
  5
2B5
100
AcDbEntity
  8
0
100
AcDbLine
 62
2
  6
CONTINUOUS
 10
351.3090307617
 20
35.1717901611
 11
353.309029541
 21
35.1717901611
  0
LWPOLYLINE
  5
2B6
100
AcDbEntity
  8
0
100
AcDbPolyline
 62
2
  6
CONTINUOUS
 90
5
 70
0
 10
354.3090161133
 20
34.1717907715
 10
354.3090161133
 20
31.9217889404
 10
354.5590063477
 20
31.6717922974
 10
355.8090087891
 20
31.6717922974
 10
355.8090087891
 20
34.1717907715
  0
LWPOLYLINE
  5
2B7
100
AcDbEntity
  8
0
100
AcDbPolyline
 62
2
  6
CONTINUOUS
 90
5
 70
0
 10
356.8090209961
 20
31.6717922974
 10
356.8090209961
 20
34.1717907715
 10
357.8090075684
 20
34.1717907715
 10
357.9756848145
 20
33.9217941284
 10
357.9756848145
 20
33.4217944336
  0
LINE
  5
2B8
100
AcDbEntity
  8
0
100
AcDbLine
 62
2
  6
CONTINUOUS
 10
359.5590161133
 20
31.6717922974
 11
359.5590161133
 21
34.1717907715
  0
LWPOLYLINE
  5
2B9
100
AcDbEntity
  8
0
100
AcDbPolyline
 62
2
  6
CONTINUOUS
 90
4
 70
0
 10
359.5590161133
 20
34.9217935181
 10
359.5590161133
 20
35.1717901611
 10
359.6423547363
 20
35.1717901611
 10
359.5590161133
 20
34.9217935181
  0
LWPOLYLINE
  5
2BA
100
AcDbEntity
  8
0
100
AcDbPolyline
 62
2
  6
CONTINUOUS
 90
12
 70
0
 10
360.8923571777
 20
31.9217889404
 10
361.1423474121
 20
31.6717922974
 10
362.1423596191
 20
31.6717922974
 10
362.3923498535
 20
31.9217889404
 10
362.3923498535
 20
32.671791687
 10
362.1423596191
 20
32.8384561157
 10
361.1423474121
 20
33.0051269531
 10
360.8923571777
 20
33.1717913818
 10
360.8923571777
 20
33.9217941284
 10
361.1423474121
 20
34.1717907715
 10
362.1423596191
 20
34.1717907715
 10
362.3923498535
 20
33.9217941284
  0
LWPOLYLINE
  5
2BB
100
AcDbEntity
  8
0
100
AcDbPolyline
 62
2
  6
CONTINUOUS
 90
6
 70
0
 10
366.1423571777
 20
31.6717922974
 10
367.3923596191
 20
31.6717922974
 10
367.6423498535
 20
31.9217889404
 10
367.6423498535
 20
33.1717913818
 10
367.14234375
 20
33.6717910767
 10
366.6423632812
 20
33.6717910767
  0
LWPOLYLINE
  5
2BC
100
AcDbEntity
  8
0
100
AcDbPolyline
 62
2
  6
CONTINUOUS
 90
5
 70
0
 10
367.14234375
 20
33.6717910767
 10
367.5590112305
 20
33.9217941284
 10
367.5590112305
 20
34.6717904663
 10
367.14234375
 20
35.1717901611
 10
366.1423571777
 20
35.1717901611
  0
LWPOLYLINE
  5
2BD
100
AcDbEntity
  8
0
100
AcDbPolyline
 62
2
  6
CONTINUOUS
 90
9
 70
0
 10
369.3923583984
 20
32.2551242065
 10
369.4756970215
 20
32.0884597778
 10
369.4756970215
 20
32.0051275635
 10
369.3923583984
 20
31.8384567261
 10
369.2256811523
 20
31.8384567261
 10
369.1423425293
 20
32.0051275635
 10
369.1423425293
 20
32.0884597778
 10
369.2256811523
 20
32.2551242065
 10
369.3923583984
 20
32.2551242065
  0
LWPOLYLINE
  5
2BE
100
AcDbEntity
  8
0
100
AcDbPolyline
 62
2
  6
CONTINUOUS
 90
6
 70
0
 10
370.6423608398
 20
31.6717922974
 10
371.8923632812
 20
31.6717922974
 10
372.1423535156
 20
31.9217889404
 10
372.1423535156
 20
33.1717913818
 10
371.6423474121
 20
33.6717910767
 10
371.1423413086
 20
33.6717910767
  0
LWPOLYLINE
  5
2BF
100
AcDbEntity
  8
0
100
AcDbPolyline
 62
2
  6
CONTINUOUS
 90
5
 70
0
 10
371.6423474121
 20
33.6717910767
 10
372.0590148926
 20
33.9217941284
 10
372.0590148926
 20
34.6717904663
 10
371.6423474121
 20
35.1717901611
 10
370.6423608398
 20
35.1717901611
  0
LWPOLYLINE
  5
2C0
100
AcDbEntity
  8
0
100
AcDbPolyline
 62
2
  6
CONTINUOUS
 90
7
 70
0
 10
351.3090307617
 20
24.6717933655
 10
351.3090307617
 20
27.1717950439
 10
352.2018640137
 20
27.1717950439
 10
352.5590075684
 20
26.8146514893
 10
352.5590075684
 20
25.0289337158
 10
352.2018640137
 20
24.6717933655
 10
351.3090307617
 20
24.6717933655
  0
LWPOLYLINE
  5
2C1
100
AcDbEntity
  8
0
100
AcDbPolyline
 62
2
  6
CONTINUOUS
 90
3
 70
0
 10
353.5709143066
 20
24.6717933655
 10
354.285201416
 20
27.1717950439
 10
354.9994885254
 20
24.6717933655
  0
LINE
  5
2C2
100
AcDbEntity
  8
0
100
AcDbLine
 62
2
  6
CONTINUOUS
 10
353.8090100098
 20
25.3860772705
 11
354.7613928223
 21
25.3860772705
  0
LINE
  5
2C3
100
AcDbEntity
  8
0
100
AcDbLine
 62
2
  6
CONTINUOUS
 10
356.4280627441
 20
24.6717933655
 11
356.4280627441
 21
27.1717950439
  0
LINE
  5
2C4
100
AcDbEntity
  8
0
100
AcDbLine
 62
2
  6
CONTINUOUS
 10
355.7137756348
 20
27.1717950439
 11
357.1423498535
 21
27.1717950439
  0
LWPOLYLINE
  5
2C5
100
AcDbEntity
  8
0
100
AcDbPolyline
 62
2
  6
CONTINUOUS
 90
3
 70
0
 10
357.8566369629
 20
24.6717933655
 10
357.8566369629
 20
27.1717950439
 10
358.928067627
 20
27.1717950439
  0
LINE
  5
2C6
100
AcDbEntity
  8
0
100
AcDbLine
 62
2
  6
CONTINUOUS
 10
358.5709240723
 20
26.1003643799
 11
357.8566369629
 21
26.1003643799
  0
LINE
  5
2C7
100
AcDbEntity
  8
0
100
AcDbLine
 62
2
  6
CONTINUOUS
 10
357.8566369629
 20
24.6717933655
 11
358.928067627
 21
24.6717933655
  0
LWPOLYLINE
  5
2C8
100
AcDbEntity
  8
0
100
AcDbPolyline
 62
2
  6
CONTINUOUS
 90
4
 70
0
 10
359.6423547363
 20
24.6717933655
 10
359.6423547363
 20
24.8503619385
 10
359.7614025879
 20
24.8503619385
 10
359.6423547363
 20
24.6717933655
  0
LWPOLYLINE
  5
2C9
100
AcDbEntity
  8
0
100
AcDbPolyline
 62
2
  6
CONTINUOUS
 90
4
 70
0
 10
359.6423547363
 20
25.7432208252
 10
359.6423547363
 20
25.9217926025
 10
359.7614025879
 20
25.9217926025
 10
359.6423547363
 20
25.7432208252
  0
LWPOLYLINE
  5
2CA
100
AcDbEntity
  8
0
100
AcDbPolyline
 62
2
  6
CONTINUOUS
 90
3
 70
0
 10
360.535213623
 20
26.4575079346
 10
361.2495007324
 20
27.1717950439
 10
361.2495007324
 20
24.6717933655
  0
LWPOLYLINE
  5
2CB
100
AcDbEntity
  8
0
100
AcDbPolyline
 62
2
  6
CONTINUOUS
 90
4
 70
0
 10
361.9637878418
 20
26.6360797119
 10
361.9637878418
 20
27.1717950439
 10
363.2137902832
 20
27.1717950439
 10
362.4995031738
 20
24.6717933655
  0
LINE
  5
2CC
100
AcDbEntity
  8
0
100
AcDbLine
 62
2
  6
CONTINUOUS
 10
365.3566259766
 20
26.9336993408
 11
363.9280773926
 21
24.7313172913
  0
LWPOLYLINE
  5
2CD
100
AcDbEntity
  8
0
100
AcDbPolyline
 62
2
  6
CONTINUOUS
 90
13
 70
0
 10
365.8328173828
 20
25.3860772705
 10
365.8328173828
 20
26.4575079346
 10
366.0113891602
 20
26.8146514893
 10
366.3685327148
 20
27.1717950439
 10
366.5471044922
 20
27.1717950439
 10
366.9042480469
 20
26.8146514893
 10
367.0828198242
 20
26.4575079346
 10
367.0828198242
 20
25.3860772705
 10
366.9042480469
 20
25.0289337158
 10
366.5471044922
 20
24.6717933655
 10
366.3685327148
 20
24.6717933655
 10
366.0113891602
 20
25.0289337158
 10
365.8328173828
 20
25.3860772705
  0
LWPOLYLINE
  5
2CE
100
AcDbEntity
  8
0
100
AcDbPolyline
 62
2
  6
CONTINUOUS
 90
8
 70
0
 10
367.7971069336
 20
24.6717933655
 10
368.511394043
 20
24.6717933655
 10
368.8685375977
 20
25.0289337158
 10
368.8685375977
 20
25.7432208252
 10
368.511394043
 20
26.1003643799
 10
367.7971069336
 20
26.1003643799
 10
367.7971069336
 20
27.1717950439
 10
368.8685375977
 20
27.1717950439
  0
LINE
  5
2CF
100
AcDbEntity
  8
0
100
AcDbLine
 62
2
  6
CONTINUOUS
 10
371.0113989258
 20
26.9336993408
 11
369.582824707
 21
24.7313172913
  0
LWPOLYLINE
  5
2D0
100
AcDbEntity
  8
0
100
AcDbPolyline
 62
2
  6
CONTINUOUS
 90
7
 70
0
 10
372.7375927734
 20
24.6717933655
 10
371.487590332
 20
24.6717933655
 10
372.7375927734
 20
26.4575079346
 10
372.7375927734
 20
26.8146514893
 10
372.3804492187
 20
27.1717950439
 10
371.8447338867
 20
27.1717950439
 10
371.487590332
 20
26.6360797119
  0
LWPOLYLINE
  5
2D1
100
AcDbEntity
  8
0
100
AcDbPolyline
 62
2
  6
CONTINUOUS
 90
13
 70
0
 10
373.4518798828
 20
25.3860772705
 10
373.4518798828
 20
26.4575079346
 10
373.6304516602
 20
26.8146514893
 10
373.9875952148
 20
27.1717950439
 10
374.1661669922
 20
27.1717950439
 10
374.5233105469
 20
26.8146514893
 10
374.7018823242
 20
26.4575079346
 10
374.7018823242
 20
25.3860772705
 10
374.5233105469
 20
25.0289337158
 10
374.1661669922
 20
24.6717933655
 10
373.9875952148
 20
24.6717933655
 10
373.6304516602
 20
25.0289337158
 10
373.4518798828
 20
25.3860772705
  0
LWPOLYLINE
  5
2D2
100
AcDbEntity
  8
0
100
AcDbPolyline
 62
2
  6
CONTINUOUS
 90
3
 70
0
 10
375.4161694336
 20
26.4575079346
 10
376.130456543
 20
27.1717950439
 10
376.130456543
 20
24.6717933655
  0
LWPOLYLINE
  5
2D3
100
AcDbEntity
  8
0
100
AcDbPolyline
 62
2
  6
CONTINUOUS
 90
4
 70
0
 10
376.8447436523
 20
26.6360797119
 10
376.8447436523
 20
27.1717950439
 10
378.094720459
 20
27.1717950439
 10
377.3804589844
 20
24.6717933655
  0
LWPOLYLINE
  5
2D4
100
AcDbEntity
  8
0
100
AcDbPolyline
 62
2
  6
CONTINUOUS
 90
3
 70
0
 10
321.3090234375
 20
20.859291687
 10
321.9518664551
 20
23.1092935181
 10
322.5947351074
 20
20.859291687
  0
LINE
  5
2D5
100
AcDbEntity
  8
0
100
AcDbLine
 62
2
  6
CONTINUOUS
 10
321.5233044434
 20
21.5021507263
 11
322.3804541016
 21
21.5021507263
  0
LWPOLYLINE
  5
2D6
100
AcDbEntity
  8
0
100
AcDbPolyline
 62
2
  6
CONTINUOUS
 90
5
 70
0
 10
323.237578125
 20
20.859291687
 10
323.237578125
 20
22.4664344788
 10
324.041151123
 20
22.4664344788
 10
324.2018811035
 20
22.30572052
 10
324.2018811035
 20
20.859291687
  0
LWPOLYLINE
  5
2D7
100
AcDbEntity
  8
0
100
AcDbPolyline
 62
2
  6
CONTINUOUS
 90
3
 70
0
 10
324.8447241211
 20
20.323576355
 10
325.1661584473
 20
20.323576355
 10
325.8090270996
 20
22.4664344788
  0
LINE
  5
2D8
100
AcDbEntity
  8
0
100
AcDbLine
 62
2
  6
CONTINUOUS
 10
324.8447241211
 20
22.4664344788
 11
325.3268884277
 21
20.859291687
  0
LINE
  5
2D9
100
AcDbEntity
  8
0
100
AcDbLine
 62
2
  6
CONTINUOUS
 10
328.3268737793
 20
20.859291687
 11
328.3268737793
 21
22.4664344788
  0
LWPOLYLINE
  5
2DA
100
AcDbEntity
  8
0
100
AcDbPolyline
 62
2
  6
CONTINUOUS
 90
4
 70
0
 10
328.3268737793
 20
22.948576355
 10
328.3268737793
 20
23.1092935181
 10
328.3804504395
 20
23.1092935181
 10
328.3268737793
 20
22.948576355
  0
LWPOLYLINE
  5
2DB
100
AcDbEntity
  8
0
100
AcDbPolyline
 62
2
  6
CONTINUOUS
 90
5
 70
0
 10
329.1840234375
 20
20.859291687
 10
329.1840234375
 20
22.4664344788
 10
329.9875964355
 20
22.4664344788
 10
330.1483007812
 20
22.30572052
 10
330.1483007812
 20
20.859291687
  0
LINE
  5
2DC
100
AcDbEntity
  8
0
100
AcDbLine
 62
2
  6
CONTINUOUS
 10
331.0590270996
 20
20.859291687
 11
331.0590270996
 21
23.1092935181
  0
LINE
  5
2DD
100
AcDbEntity
  8
0
100
AcDbLine
 62
2
  6
CONTINUOUS
 10
330.7911694336
 20
22.4664344788
 11
331.4340124512
 21
22.4664344788
  0
LWPOLYLINE
  5
2DE
100
AcDbEntity
  8
0
100
AcDbPolyline
 62
2
  6
CONTINUOUS
 90
9
 70
0
 10
333.0411584473
 20
20.859291687
 10
332.3983154297
 20
20.859291687
 10
332.0768811035
 20
21.1807196045
 10
332.0768811035
 20
22.1450065613
 10
332.3983154297
 20
22.4664344788
 10
332.7197241211
 20
22.4664344788
 10
333.0411584473
 20
22.1450065613
 10
333.0411584473
 20
21.6628646851
 10
332.0768811035
 20
21.6628646851
  0
LWPOLYLINE
  5
2DF
100
AcDbEntity
  8
0
100
AcDbPolyline
 62
2
  6
CONTINUOUS
 90
9
 70
0
 10
333.6840270996
 20
20.323576355
 10
334.4876000977
 20
20.323576355
 10
334.6483044434
 20
20.5378637695
 10
334.6483044434
 20
22.4664344788
 10
333.8447314453
 20
22.4664344788
 10
333.6840270996
 20
22.30572052
 10
333.6840270996
 20
21.0200056458
 10
333.8447314453
 20
20.859291687
 10
334.6483044434
 20
20.859291687
  0
LWPOLYLINE
  5
2E0
100
AcDbEntity
  8
0
100
AcDbPolyline
 62
2
  6
CONTINUOUS
 90
5
 70
0
 10
335.2911730957
 20
20.859291687
 10
335.2911730957
 20
22.4664344788
 10
335.9340161133
 20
22.4664344788
 10
336.0411694336
 20
22.30572052
 10
336.0411694336
 20
21.9842926025
  0
LWPOLYLINE
  5
2E1
100
AcDbEntity
  8
0
100
AcDbPolyline
 62
2
  6
CONTINUOUS
 90
4
 70
0
 10
337.7018664551
 20
20.859291687
 10
337.7018664551
 20
22.1450065613
 10
337.5411621094
 20
22.4664344788
 10
336.7375891113
 20
22.4664344788
  0
LWPOLYLINE
  5
2E2
100
AcDbEntity
  8
0
100
AcDbPolyline
 62
2
  6
CONTINUOUS
 90
6
 70
0
 10
337.7018664551
 20
20.859291687
 10
337.0590234375
 20
20.859291687
 10
336.7375891113
 20
21.0200056458
 10
336.7375891113
 20
21.5021507263
 10
337.0590234375
 20
21.6628646851
 10
337.7018664551
 20
21.6628646851
  0
LWPOLYLINE
  5
2E3
100
AcDbEntity
  8
0
100
AcDbPolyline
 62
2
  6
CONTINUOUS
 90
4
 70
0
 10
338.8268737793
 20
20.859291687
 10
338.5054394531
 20
20.859291687
 10
338.3447351074
 20
21.0200056458
 10
338.3447351074
 20
23.1092935181
  0
LWPOLYLINE
  5
2E4
100
AcDbEntity
  8
0
100
AcDbPolyline
 62
2
  6
CONTINUOUS
 90
9
 70
0
 10
341.2375927734
 20
21.1807196045
 10
341.2375927734
 20
22.1450065613
 10
341.5590270996
 20
22.4664344788
 10
341.880435791
 20
22.4664344788
 10
342.2018701172
 20
22.1450065613
 10
342.2018701172
 20
21.1807196045
 10
341.880435791
 20
20.859291687
 10
341.5590270996
 20
20.859291687
 10
341.2375927734
 20
21.1807196045
  0
LWPOLYLINE
  5
2E5
100
AcDbEntity
  8
0
100
AcDbPolyline
 62
2
  6
CONTINUOUS
 90
5
 70
0
 10
342.8447387695
 20
20.859291687
 10
342.8447387695
 20
22.4664344788
 10
343.4875817871
 20
22.4664344788
 10
343.5947351074
 20
22.30572052
 10
343.5947351074
 20
21.9842926025
  0
LWPOLYLINE
  5
2E6
100
AcDbEntity
  8
0
100
AcDbPolyline
 62
2
  6
CONTINUOUS
 90
7
 70
0
 10
346.0590307617
 20
20.323576355
 10
346.0590307617
 20
22.4664344788
 10
346.862578125
 20
22.4664344788
 10
347.0233081055
 20
22.30572052
 10
347.0233081055
 20
21.0200056458
 10
346.862578125
 20
20.859291687
 10
346.0590307617
 20
20.859291687
  0
LWPOLYLINE
  5
2E7
100
AcDbEntity
  8
0
100
AcDbPolyline
 62
2
  6
CONTINUOUS
 90
4
 70
0
 10
348.6304541016
 20
20.859291687
 10
348.6304541016
 20
22.1450065613
 10
348.4697241211
 20
22.4664344788
 10
347.666151123
 20
22.4664344788
  0
LWPOLYLINE
  5
2E8
100
AcDbEntity
  8
0
100
AcDbPolyline
 62
2
  6
CONTINUOUS
 90
6
 70
0
 10
348.6304541016
 20
20.859291687
 10
347.9875854492
 20
20.859291687
 10
347.666151123
 20
21.0200056458
 10
347.666151123
 20
21.5021507263
 10
347.9875854492
 20
21.6628646851
 10
348.6304541016
 20
21.6628646851
  0
LWPOLYLINE
  5
2E9
100
AcDbEntity
  8
0
100
AcDbPolyline
 62
2
  6
CONTINUOUS
 90
5
 70
0
 10
349.2732971191
 20
20.859291687
 10
349.2732971191
 20
22.4664344788
 10
349.9161657715
 20
22.4664344788
 10
350.023293457
 20
22.30572052
 10
350.023293457
 20
21.9842926025
  0
LINE
  5
2EA
100
AcDbEntity
  8
0
100
AcDbLine
 62
2
  6
CONTINUOUS
 10
350.9875964355
 20
20.859291687
 11
350.9875964355
 21
23.1092935181
  0
LINE
  5
2EB
100
AcDbEntity
  8
0
100
AcDbLine
 62
2
  6
CONTINUOUS
 10
350.7197387695
 20
22.4664344788
 11
351.3625817871
 21
22.4664344788
  0
LINE
  5
2EC
100
AcDbEntity
  8
0
100
AcDbLine
 62
2
  6
CONTINUOUS
 10
352.3268847656
 20
20.859291687
 11
352.3268847656
 21
22.4664344788
  0
LWPOLYLINE
  5
2ED
100
AcDbEntity
  8
0
100
AcDbPolyline
 62
2
  6
CONTINUOUS
 90
4
 70
0
 10
352.3268847656
 20
22.948576355
 10
352.3268847656
 20
23.1092935181
 10
352.380435791
 20
23.1092935181
 10
352.3268847656
 20
22.948576355
  0
LWPOLYLINE
  5
2EE
100
AcDbEntity
  8
0
100
AcDbPolyline
 62
2
  6
CONTINUOUS
 90
4
 70
0
 10
354.1483117676
 20
20.859291687
 10
354.1483117676
 20
22.1450065613
 10
353.9875817871
 20
22.4664344788
 10
353.1840087891
 20
22.4664344788
  0
LWPOLYLINE
  5
2EF
100
AcDbEntity
  8
0
100
AcDbPolyline
 62
2
  6
CONTINUOUS
 90
6
 70
0
 10
354.1483117676
 20
20.859291687
 10
353.5054431152
 20
20.859291687
 10
353.1840087891
 20
21.0200056458
 10
353.1840087891
 20
21.5021507263
 10
353.5054431152
 20
21.6628646851
 10
354.1483117676
 20
21.6628646851
  0
LWPOLYLINE
  5
2F0
100
AcDbEntity
  8
0
100
AcDbPolyline
 62
2
  6
CONTINUOUS
 90
4
 70
0
 10
355.273293457
 20
20.859291687
 10
354.9518847656
 20
20.859291687
 10
354.7911547852
 20
21.0200056458
 10
354.7911547852
 20
23.1092935181
  0
LWPOLYLINE
  5
2F1
100
AcDbEntity
  8
0
100
AcDbPolyline
 62
2
  6
CONTINUOUS
 90
5
 70
0
 10
357.6840124512
 20
20.859291687
 10
357.6840124512
 20
22.4664344788
 10
358.3268811035
 20
22.4664344788
 10
358.4340087891
 20
22.30572052
 10
358.4340087891
 20
21.9842926025
  0
LWPOLYLINE
  5
2F2
100
AcDbEntity
  8
0
100
AcDbPolyline
 62
2
  6
CONTINUOUS
 90
9
 70
0
 10
360.0947314453
 20
20.859291687
 10
359.4518884277
 20
20.859291687
 10
359.1304541016
 20
21.1807196045
 10
359.1304541016
 20
22.1450065613
 10
359.4518884277
 20
22.4664344788
 10
359.7732971191
 20
22.4664344788
 10
360.0947314453
 20
22.1450065613
 10
360.0947314453
 20
21.6628646851
 10
359.1304541016
 20
21.6628646851
  0
LWPOLYLINE
  5
2F3
100
AcDbEntity
  8
0
100
AcDbPolyline
 62
2
  6
CONTINUOUS
 90
7
 70
0
 10
360.7376000977
 20
20.323576355
 10
360.7376000977
 20
22.4664344788
 10
361.5411730957
 20
22.4664344788
 10
361.7018774414
 20
22.30572052
 10
361.7018774414
 20
21.0200056458
 10
361.5411730957
 20
20.859291687
 10
360.7376000977
 20
20.859291687
  0
LWPOLYLINE
  5
2F4
100
AcDbEntity
  8
0
100
AcDbPolyline
 62
2
  6
CONTINUOUS
 90
5
 70
0
 10
362.344720459
 20
20.859291687
 10
362.344720459
 20
22.4664344788
 10
362.9875891113
 20
22.4664344788
 10
363.0947424316
 20
22.30572052
 10
363.0947424316
 20
21.9842926025
  0
LWPOLYLINE
  5
2F5
100
AcDbEntity
  8
0
100
AcDbPolyline
 62
2
  6
CONTINUOUS
 90
9
 70
0
 10
363.7911621094
 20
21.1807196045
 10
363.7911621094
 20
22.1450065613
 10
364.1125964355
 20
22.4664344788
 10
364.4340307617
 20
22.4664344788
 10
364.7554394531
 20
22.1450065613
 10
364.7554394531
 20
21.1807196045
 10
364.4340307617
 20
20.859291687
 10
364.1125964355
 20
20.859291687
 10
363.7911621094
 20
21.1807196045
  0
LWPOLYLINE
  5
2F6
100
AcDbEntity
  8
0
100
AcDbPolyline
 62
2
  6
CONTINUOUS
 90
7
 70
0
 10
366.3625854492
 20
23.1092935181
 10
366.3625854492
 20
20.859291687
 10
365.7197424316
 20
20.859291687
 10
365.3983081055
 20
21.0200056458
 10
365.3983081055
 20
22.30572052
 10
365.7197424316
 20
22.4664344788
 10
366.3625854492
 20
22.4664344788
  0
LWPOLYLINE
  5
2F7
100
AcDbEntity
  8
0
100
AcDbPolyline
 62
2
  6
CONTINUOUS
 90
5
 70
0
 10
367.0054541016
 20
22.4664344788
 10
367.0054541016
 20
21.0200056458
 10
367.1661584473
 20
20.859291687
 10
367.9697314453
 20
20.859291687
 10
367.9697314453
 20
22.4664344788
  0
LWPOLYLINE
  5
2F8
100
AcDbEntity
  8
0
100
AcDbPolyline
 62
2
  6
CONTINUOUS
 90
6
 70
0
 10
369.4161730957
 20
20.859291687
 10
368.7733044434
 20
20.859291687
 10
368.6126000977
 20
21.0200056458
 10
368.6126000977
 20
22.30572052
 10
368.7733044434
 20
22.4664344788
 10
369.4161730957
 20
22.4664344788
  0
LINE
  5
2F9
100
AcDbEntity
  8
0
100
AcDbLine
 62
2
  6
CONTINUOUS
 10
370.3268737793
 20
20.859291687
 11
370.3268737793
 21
23.1092935181
  0
LINE
  5
2FA
100
AcDbEntity
  8
0
100
AcDbLine
 62
2
  6
CONTINUOUS
 10
370.0590161133
 20
22.4664344788
 11
370.7018847656
 21
22.4664344788
  0
LINE
  5
2FB
100
AcDbEntity
  8
0
100
AcDbLine
 62
2
  6
CONTINUOUS
 10
371.6661621094
 20
20.859291687
 11
371.6661621094
 21
22.4664344788
  0
LWPOLYLINE
  5
2FC
100
AcDbEntity
  8
0
100
AcDbPolyline
 62
2
  6
CONTINUOUS
 90
4
 70
0
 10
371.6661621094
 20
22.948576355
 10
371.6661621094
 20
23.1092935181
 10
371.7197387695
 20
23.1092935181
 10
371.6661621094
 20
22.948576355
  0
LWPOLYLINE
  5
2FD
100
AcDbEntity
  8
0
100
AcDbPolyline
 62
2
  6
CONTINUOUS
 90
9
 70
0
 10
372.5233117676
 20
21.1807196045
 10
372.5233117676
 20
22.1450065613
 10
372.844720459
 20
22.4664344788
 10
373.1661547852
 20
22.4664344788
 10
373.4875891113
 20
22.1450065613
 10
373.4875891113
 20
21.1807196045
 10
373.1661547852
 20
20.859291687
 10
372.844720459
 20
20.859291687
 10
372.5233117676
 20
21.1807196045
  0
LWPOLYLINE
  5
2FE
100
AcDbEntity
  8
0
100
AcDbPolyline
 62
2
  6
CONTINUOUS
 90
5
 70
0
 10
374.1304577637
 20
20.859291687
 10
374.1304577637
 20
22.4664344788
 10
374.9340307617
 20
22.4664344788
 10
375.0947351074
 20
22.30572052
 10
375.0947351074
 20
20.859291687
  0
LWPOLYLINE
  5
2FF
100
AcDbEntity
  8
0
100
AcDbPolyline
 62
2
  6
CONTINUOUS
 90
12
 70
0
 10
375.737578125
 20
21.0200056458
 10
375.8983081055
 20
20.859291687
 10
376.541151123
 20
20.859291687
 10
376.7018811035
 20
21.0200056458
 10
376.7018811035
 20
21.5021507263
 10
376.541151123
 20
21.6092912292
 10
375.8983081055
 20
21.7164349365
 10
375.737578125
 20
21.8235786438
 10
375.737578125
 20
22.30572052
 10
375.8983081055
 20
22.4664344788
 10
376.541151123
 20
22.4664344788
 10
376.7018811035
 20
22.30572052
  0
LWPOLYLINE
  5
300
100
AcDbEntity
  8
0
100
AcDbPolyline
 62
2
  6
CONTINUOUS
 90
4
 70
0
 10
380.0768774414
 20
20.859291687
 10
380.0768774414
 20
22.1450065613
 10
379.9161730957
 20
22.4664344788
 10
379.1126000977
 20
22.4664344788
  0
LWPOLYLINE
  5
301
100
AcDbEntity
  8
0
100
AcDbPolyline
 62
2
  6
CONTINUOUS
 90
6
 70
0
 10
380.0768774414
 20
20.859291687
 10
379.4340087891
 20
20.859291687
 10
379.1126000977
 20
21.0200056458
 10
379.1126000977
 20
21.5021507263
 10
379.4340087891
 20
21.6628646851
 10
380.0768774414
 20
21.6628646851
  0
LWPOLYLINE
  5
302
100
AcDbEntity
  8
0
100
AcDbPolyline
 62
2
  6
CONTINUOUS
 90
5
 70
0
 10
380.719720459
 20
20.859291687
 10
380.719720459
 20
22.4664344788
 10
381.3625891113
 20
22.4664344788
 10
381.4697424316
 20
22.30572052
 10
381.4697424316
 20
21.9842926025
  0
LWPOLYLINE
  5
303
100
AcDbEntity
  8
0
100
AcDbPolyline
 62
2
  6
CONTINUOUS
 90
9
 70
0
 10
383.1304394531
 20
20.859291687
 10
382.4875964355
 20
20.859291687
 10
382.1661621094
 20
21.1807196045
 10
382.1661621094
 20
22.1450065613
 10
382.4875964355
 20
22.4664344788
 10
382.8090307617
 20
22.4664344788
 10
383.1304394531
 20
22.1450065613
 10
383.1304394531
 20
21.6628646851
 10
382.1661621094
 20
21.6628646851
  0
LWPOLYLINE
  5
304
100
AcDbEntity
  8
0
100
AcDbPolyline
 62
2
  6
CONTINUOUS
 90
7
 70
0
 10
385.5411584473
 20
20.323576355
 10
385.5411584473
 20
22.4664344788
 10
386.3447314453
 20
22.4664344788
 10
386.505435791
 20
22.30572052
 10
386.505435791
 20
21.0200056458
 10
386.3447314453
 20
20.859291687
 10
385.5411584473
 20
20.859291687
  0
LWPOLYLINE
  5
305
100
AcDbEntity
  8
0
100
AcDbPolyline
 62
2
  6
CONTINUOUS
 90
5
 70
0
 10
387.1483044434
 20
20.859291687
 10
387.1483044434
 20
22.4664344788
 10
387.7911730957
 20
22.4664344788
 10
387.8983007812
 20
22.30572052
 10
387.8983007812
 20
21.9842926025
  0
LWPOLYLINE
  5
306
100
AcDbEntity
  8
0
100
AcDbPolyline
 62
2
  6
CONTINUOUS
 90
9
 70
0
 10
388.594720459
 20
21.1807196045
 10
388.594720459
 20
22.1450065613
 10
388.9161547852
 20
22.4664344788
 10
389.2375891113
 20
22.4664344788
 10
389.5590234375
 20
22.1450065613
 10
389.5590234375
 20
21.1807196045
 10
389.2375891113
 20
20.859291687
 10
388.9161547852
 20
20.859291687
 10
388.594720459
 20
21.1807196045
  0
LINE
  5
307
100
AcDbEntity
  8
0
100
AcDbLine
 62
2
  6
CONTINUOUS
 10
390.2018664551
 20
20.859291687
 11
390.2018664551
 21
23.1092935181
  0
LWPOLYLINE
  5
308
100
AcDbEntity
  8
0
100
AcDbPolyline
 62
2
  6
CONTINUOUS
 90
4
 70
0
 10
390.2018664551
 20
22.4664344788
 10
391.0054394531
 20
22.4664344788
 10
391.1661694336
 20
22.30572052
 10
391.1661694336
 20
20.859291687
  0
LINE
  5
309
100
AcDbEntity
  8
0
100
AcDbLine
 62
2
  6
CONTINUOUS
 10
392.1304467773
 20
20.859291687
 11
392.1304467773
 21
22.4664344788
  0
LWPOLYLINE
  5
30A
100
AcDbEntity
  8
0
100
AcDbPolyline
 62
2
  6
CONTINUOUS
 90
4
 70
0
 10
392.1304467773
 20
22.948576355
 10
392.1304467773
 20
23.1092935181
 10
392.1840234375
 20
23.1092935181
 10
392.1304467773
 20
22.948576355
  0
LINE
  5
30B
100
AcDbEntity
  8
0
100
AcDbLine
 62
2
  6
CONTINUOUS
 10
392.9875964355
 20
20.859291687
 11
392.9875964355
 21
23.1092935181
  0
LWPOLYLINE
  5
30C
100
AcDbEntity
  8
0
100
AcDbPolyline
 62
2
  6
CONTINUOUS
 90
6
 70
0
 10
392.9875964355
 20
22.4664344788
 10
393.7911694336
 20
22.4664344788
 10
393.9518737793
 20
22.30572052
 10
393.9518737793
 20
21.0200056458
 10
393.7911694336
 20
20.859291687
 10
392.9875964355
 20
20.859291687
  0
LINE
  5
30D
100
AcDbEntity
  8
0
100
AcDbLine
 62
2
  6
CONTINUOUS
 10
394.916151123
 20
20.859291687
 11
394.916151123
 21
22.4664344788
  0
LWPOLYLINE
  5
30E
100
AcDbEntity
  8
0
100
AcDbPolyline
 62
2
  6
CONTINUOUS
 90
4
 70
0
 10
394.916151123
 20
22.948576355
 10
394.916151123
 20
23.1092935181
 10
394.9697277832
 20
23.1092935181
 10
394.916151123
 20
22.948576355
  0
LINE
  5
30F
100
AcDbEntity
  8
0
100
AcDbLine
 62
2
  6
CONTINUOUS
 10
396.0411584473
 20
20.859291687
 11
396.0411584473
 21
23.1092935181
  0
LINE
  5
310
100
AcDbEntity
  8
0
100
AcDbLine
 62
2
  6
CONTINUOUS
 10
395.7733007812
 20
22.4664344788
 11
396.4161694336
 21
22.4664344788
  0
LWPOLYLINE
  5
311
100
AcDbEntity
  8
0
100
AcDbPolyline
 62
2
  6
CONTINUOUS
 90
9
 70
0
 10
398.0233154297
 20
20.859291687
 10
397.3804467773
 20
20.859291687
 10
397.0590124512
 20
21.1807196045
 10
397.0590124512
 20
22.1450065613
 10
397.3804467773
 20
22.4664344788
 10
397.7018811035
 20
22.4664344788
 10
398.0233154297
 20
22.1450065613
 10
398.0233154297
 20
21.6628646851
 10
397.0590124512
 20
21.6628646851
  0
LWPOLYLINE
  5
312
100
AcDbEntity
  8
0
100
AcDbPolyline
 62
2
  6
CONTINUOUS
 90
7
 70
0
 10
399.630435791
 20
23.1092935181
 10
399.630435791
 20
20.859291687
 10
398.9875927734
 20
20.859291687
 10
398.6661584473
 20
21.0200056458
 10
398.6661584473
 20
22.30572052
 10
398.9875927734
 20
22.4664344788
 10
399.630435791
 20
22.4664344788
  0
LWPOLYLINE
  5
313
100
AcDbEntity
  8
0
100
AcDbPolyline
 62
2
  6
CONTINUOUS
 90
5
 70
0
 10
321.3090234375
 20
19.0914349365
 10
321.7375854492
 20
17.4842921448
 10
322.1125964355
 20
18.770007019
 10
322.4875817871
 20
17.4842921448
 10
322.9161694336
 20
19.0914349365
  0
LINE
  5
314
100
AcDbEntity
  8
0
100
AcDbLine
 62
2
  6
CONTINUOUS
 10
323.8804467773
 20
17.4842921448
 11
323.8804467773
 21
19.0914349365
  0
LWPOLYLINE
  5
315
100
AcDbEntity
  8
0
100
AcDbPolyline
 62
2
  6
CONTINUOUS
 90
4
 70
0
 10
323.8804467773
 20
19.5735768127
 10
323.8804467773
 20
19.7342907715
 10
323.9340234375
 20
19.7342907715
 10
323.8804467773
 20
19.5735768127
  0
LINE
  5
316
100
AcDbEntity
  8
0
100
AcDbLine
 62
2
  6
CONTINUOUS
 10
325.0054541016
 20
17.4842921448
 11
325.0054541016
 21
19.7342907715
  0
LINE
  5
317
100
AcDbEntity
  8
0
100
AcDbLine
 62
2
  6
CONTINUOUS
 10
324.7375964355
 20
19.0914349365
 11
325.3804394531
 21
19.0914349365
  0
LINE
  5
318
100
AcDbEntity
  8
0
100
AcDbLine
 62
2
  6
CONTINUOUS
 10
326.0233081055
 20
17.4842921448
 11
326.0233081055
 21
19.7342907715
  0
LWPOLYLINE
  5
319
100
AcDbEntity
  8
0
100
AcDbPolyline
 62
2
  6
CONTINUOUS
 90
4
 70
0
 10
326.0233081055
 20
19.0914349365
 10
326.8268811035
 20
19.0914349365
 10
326.9875854492
 20
18.9307209778
 10
326.9875854492
 20
17.4842921448
  0
LWPOLYLINE
  5
31A
100
AcDbEntity
  8
0
100
AcDbPolyline
 62
2
  6
CONTINUOUS
 90
9
 70
0
 10
327.6304541016
 20
17.8057200623
 10
327.6304541016
 20
18.770007019
 10
327.9518884277
 20
19.0914349365
 10
328.2732971191
 20
19.0914349365
 10
328.5947314453
 20
18.770007019
 10
328.5947314453
 20
17.8057200623
 10
328.2732971191
 20
17.4842921448
 10
327.9518884277
 20
17.4842921448
 10
327.6304541016
 20
17.8057200623
  0
LWPOLYLINE
  5
31B
100
AcDbEntity
  8
0
100
AcDbPolyline
 62
2
  6
CONTINUOUS
 90
5
 70
0
 10
329.2376000977
 20
19.0914349365
 10
329.2376000977
 20
17.6450061035
 10
329.3983044434
 20
17.4842921448
 10
330.2018774414
 20
17.4842921448
 10
330.2018774414
 20
19.0914349365
  0
LINE
  5
31C
100
AcDbEntity
  8
0
100
AcDbLine
 62
2
  6
CONTINUOUS
 10
331.112578125
 20
17.4842921448
 11
331.112578125
 21
19.7342907715
  0
LINE
  5
31D
100
AcDbEntity
  8
0
100
AcDbLine
 62
2
  6
CONTINUOUS
 10
330.844720459
 20
19.0914349365
 11
331.4875891113
 21
19.0914349365
  0
LWPOLYLINE
  5
31E
100
AcDbEntity
  8
0
100
AcDbPolyline
 62
2
  6
CONTINUOUS
 90
7
 70
0
 10
333.8983081055
 20
16.9485768127
 10
333.8983081055
 20
19.0914349365
 10
334.7018811035
 20
19.0914349365
 10
334.8625854492
 20
18.9307209778
 10
334.8625854492
 20
17.6450061035
 10
334.7018811035
 20
17.4842921448
 10
333.8983081055
 20
17.4842921448
  0
LWPOLYLINE
  5
31F
100
AcDbEntity
  8
0
100
AcDbPolyline
 62
2
  6
CONTINUOUS
 90
5
 70
0
 10
335.5054541016
 20
17.4842921448
 10
335.5054541016
 20
19.0914349365
 10
336.1482971191
 20
19.0914349365
 10
336.2554504395
 20
18.9307209778
 10
336.2554504395
 20
18.6092930603
  0
LINE
  5
320
100
AcDbEntity
  8
0
100
AcDbLine
 62
2
  6
CONTINUOUS
 10
337.2733044434
 20
17.4842921448
 11
337.2733044434
 21
19.0914349365
  0
LWPOLYLINE
  5
321
100
AcDbEntity
  8
0
100
AcDbPolyline
 62
2
  6
CONTINUOUS
 90
4
 70
0
 10
337.2733044434
 20
19.5735768127
 10
337.2733044434
 20
19.7342907715
 10
337.3268811035
 20
19.7342907715
 10
337.2733044434
 20
19.5735768127
  0
LWPOLYLINE
  5
322
100
AcDbEntity
  8
0
100
AcDbPolyline
 62
2
  6
CONTINUOUS
 90
9
 70
0
 10
338.1304541016
 20
17.8057200623
 10
338.1304541016
 20
18.770007019
 10
338.4518884277
 20
19.0914349365
 10
338.7732971191
 20
19.0914349365
 10
339.0947314453
 20
18.770007019
 10
339.0947314453
 20
17.8057200623
 10
338.7732971191
 20
17.4842921448
 10
338.4518884277
 20
17.4842921448
 10
338.1304541016
 20
17.8057200623
  0
LWPOLYLINE
  5
323
100
AcDbEntity
  8
0
100
AcDbPolyline
 62
2
  6
CONTINUOUS
 90
5
 70
0
 10
339.7376000977
 20
17.4842921448
 10
339.7376000977
 20
19.0914349365
 10
340.3804431152
 20
19.0914349365
 10
340.4875964355
 20
18.9307209778
 10
340.4875964355
 20
18.6092930603
  0
LWPOLYLINE
  5
324
100
AcDbEntity
  8
0
100
AcDbPolyline
 62
2
  6
CONTINUOUS
 90
4
 70
0
 10
343.9161694336
 20
17.4842921448
 10
343.9161694336
 20
18.770007019
 10
343.7554394531
 20
19.0914349365
 10
342.9518664551
 20
19.0914349365
  0
LWPOLYLINE
  5
325
100
AcDbEntity
  8
0
100
AcDbPolyline
 62
2
  6
CONTINUOUS
 90
6
 70
0
 10
343.9161694336
 20
17.4842921448
 10
343.2733007812
 20
17.4842921448
 10
342.9518664551
 20
17.6450061035
 10
342.9518664551
 20
18.1271479797
 10
343.2733007812
 20
18.2878619385
 10
343.9161694336
 20
18.2878619385
  0
LWPOLYLINE
  5
326
100
AcDbEntity
  8
0
100
AcDbPolyline
 62
2
  6
CONTINUOUS
 90
5
 70
0
 10
344.5590124512
 20
19.0914349365
 10
344.5590124512
 20
17.6450061035
 10
344.7197424316
 20
17.4842921448
 10
345.5233154297
 20
17.4842921448
 10
345.5233154297
 20
19.0914349365
  0
LINE
  5
327
100
AcDbEntity
  8
0
100
AcDbLine
 62
2
  6
CONTINUOUS
 10
346.4340161133
 20
17.4842921448
 11
346.4340161133
 21
19.7342907715
  0
LINE
  5
328
100
AcDbEntity
  8
0
100
AcDbLine
 62
2
  6
CONTINUOUS
 10
346.1661584473
 20
19.0914349365
 11
346.8090270996
 21
19.0914349365
  0
LINE
  5
329
100
AcDbEntity
  8
0
100
AcDbLine
 62
2
  6
CONTINUOUS
 10
347.4518701172
 20
17.4842921448
 11
347.4518701172
 21
19.7342907715
  0
LWPOLYLINE
  5
32A
100
AcDbEntity
  8
0
100
AcDbPolyline
 62
2
  6
CONTINUOUS
 90
4
 70
0
 10
347.4518701172
 20
19.0914349365
 10
348.2554431152
 20
19.0914349365
 10
348.4161730957
 20
18.9307209778
 10
348.4161730957
 20
17.4842921448
  0
LWPOLYLINE
  5
32B
100
AcDbEntity
  8
0
100
AcDbPolyline
 62
2
  6
CONTINUOUS
 90
9
 70
0
 10
349.0590161133
 20
17.8057200623
 10
349.0590161133
 20
18.770007019
 10
349.3804504395
 20
19.0914349365
 10
349.7018847656
 20
19.0914349365
 10
350.023293457
 20
18.770007019
 10
350.023293457
 20
17.8057200623
 10
349.7018847656
 20
17.4842921448
 10
349.3804504395
 20
17.4842921448
 10
349.0590161133
 20
17.8057200623
  0
LWPOLYLINE
  5
32C
100
AcDbEntity
  8
0
100
AcDbPolyline
 62
2
  6
CONTINUOUS
 90
5
 70
0
 10
350.6661621094
 20
17.4842921448
 10
350.6661621094
 20
19.0914349365
 10
351.3090307617
 20
19.0914349365
 10
351.4161584473
 20
18.9307209778
 10
351.4161584473
 20
18.6092930603
  0
LINE
  5
32D
100
AcDbEntity
  8
0
100
AcDbLine
 62
2
  6
CONTINUOUS
 10
352.4340124512
 20
17.4842921448
 11
352.4340124512
 21
19.0914349365
  0
LWPOLYLINE
  5
32E
100
AcDbEntity
  8
0
100
AcDbPolyline
 62
2
  6
CONTINUOUS
 90
4
 70
0
 10
352.4340124512
 20
19.5735768127
 10
352.4340124512
 20
19.7342907715
 10
352.4875891113
 20
19.7342907715
 10
352.4340124512
 20
19.5735768127
  0
LWPOLYLINE
  5
32F
100
AcDbEntity
  8
0
100
AcDbPolyline
 62
2
  6
CONTINUOUS
 90
12
 70
0
 10
353.2911621094
 20
17.6450061035
 10
353.4518664551
 20
17.4842921448
 10
354.0947351074
 20
17.4842921448
 10
354.2554394531
 20
17.6450061035
 10
354.2554394531
 20
18.1271479797
 10
354.0947351074
 20
18.234291687
 10
353.4518664551
 20
18.3414353943
 10
353.2911621094
 20
18.4485791016
 10
353.2911621094
 20
18.9307209778
 10
353.4518664551
 20
19.0914349365
 10
354.0947351074
 20
19.0914349365
 10
354.2554394531
 20
18.9307209778
  0
LWPOLYLINE
  5
330
100
AcDbEntity
  8
0
100
AcDbPolyline
 62
2
  6
CONTINUOUS
 90
4
 70
0
 10
355.8625854492
 20
17.4842921448
 10
355.8625854492
 20
18.770007019
 10
355.7018811035
 20
19.0914349365
 10
354.8983081055
 20
19.0914349365
  0
LWPOLYLINE
  5
331
100
AcDbEntity
  8
0
100
AcDbPolyline
 62
2
  6
CONTINUOUS
 90
6
 70
0
 10
355.8625854492
 20
17.4842921448
 10
355.2197424316
 20
17.4842921448
 10
354.8983081055
 20
17.6450061035
 10
354.8983081055
 20
18.1271479797
 10
355.2197424316
 20
18.2878619385
 10
355.8625854492
 20
18.2878619385
  0
LINE
  5
332
100
AcDbEntity
  8
0
100
AcDbLine
 62
2
  6
CONTINUOUS
 10
356.7733117676
 20
17.4842921448
 11
356.7733117676
 21
19.7342907715
  0
LINE
  5
333
100
AcDbEntity
  8
0
100
AcDbLine
 62
2
  6
CONTINUOUS
 10
356.5054541016
 20
19.0914349365
 11
357.1482971191
 21
19.0914349365
  0
LINE
  5
334
100
AcDbEntity
  8
0
100
AcDbLine
 62
2
  6
CONTINUOUS
 10
358.1126000977
 20
17.4842921448
 11
358.1126000977
 21
19.0914349365
  0
LWPOLYLINE
  5
335
100
AcDbEntity
  8
0
100
AcDbPolyline
 62
2
  6
CONTINUOUS
 90
4
 70
0
 10
358.1126000977
 20
19.5735768127
 10
358.1126000977
 20
19.7342907715
 10
358.166151123
 20
19.7342907715
 10
358.1126000977
 20
19.5735768127
  0
LWPOLYLINE
  5
336
100
AcDbEntity
  8
0
100
AcDbPolyline
 62
2
  6
CONTINUOUS
 90
9
 70
0
 10
358.9697241211
 20
17.8057200623
 10
358.9697241211
 20
18.770007019
 10
359.2911584473
 20
19.0914349365
 10
359.6125927734
 20
19.0914349365
 10
359.9340270996
 20
18.770007019
 10
359.9340270996
 20
17.8057200623
 10
359.6125927734
 20
17.4842921448
 10
359.2911584473
 20
17.4842921448
 10
358.9697241211
 20
17.8057200623
  0
LWPOLYLINE
  5
337
100
AcDbEntity
  8
0
100
AcDbPolyline
 62
2
  6
CONTINUOUS
 90
5
 70
0
 10
360.5768701172
 20
17.4842921448
 10
360.5768701172
 20
19.0914349365
 10
361.3804431152
 20
19.0914349365
 10
361.5411730957
 20
18.9307209778
 10
361.5411730957
 20
17.4842921448
  0
LWPOLYLINE
  5
338
100
AcDbEntity
  8
0
100
AcDbPolyline
 62
2
  6
CONTINUOUS
 90
9
 70
0
 10
363.9518664551
 20
17.8057200623
 10
363.9518664551
 20
18.770007019
 10
364.2733007812
 20
19.0914349365
 10
364.5947351074
 20
19.0914349365
 10
364.9161694336
 20
18.770007019
 10
364.9161694336
 20
17.8057200623
 10
364.5947351074
 20
17.4842921448
 10
364.2733007812
 20
17.4842921448
 10
363.9518664551
 20
17.8057200623
  0
LWPOLYLINE
  5
339
100
AcDbEntity
  8
0
100
AcDbPolyline
 62
2
  6
CONTINUOUS
 90
4
 70
0
 10
365.8268701172
 20
17.4842921448
 10
365.8268701172
 20
19.5735768127
 10
365.9876000977
 20
19.7342907715
 10
366.3090087891
 20
19.7342907715
  0
LINE
  5
33A
100
AcDbEntity
  8
0
100
AcDbLine
 62
2
  6
CONTINUOUS
 10
366.3090087891
 20
19.0914349365
 11
365.5590124512
 21
19.0914349365
  0
LWPOLYLINE
  5
33B
100
AcDbEntity
  8
0
100
AcDbPolyline
 62
2
  6
CONTINUOUS
 90
3
 70
0
 10
368.6126000977
 20
19.7342907715
 10
368.6126000977
 20
17.4842921448
 10
369.4161730957
 20
17.4842921448
  0
LWPOLYLINE
  5
33C
100
AcDbEntity
  8
0
100
AcDbPolyline
 62
2
  6
CONTINUOUS
 90
12
 70
0
 10
373.2733081055
 20
18.2878619385
 10
372.6304394531
 20
17.4842921448
 10
372.1483007812
 20
17.4842921448
 10
371.8268664551
 20
17.8057200623
 10
371.8268664551
 20
18.2878619385
 10
372.9518737793
 20
19.0914349365
 10
372.9518737793
 20
19.412862854
 10
372.6304394531
 20
19.7342907715
 10
372.3090307617
 20
19.7342907715
 10
371.9875964355
 20
19.412862854
 10
371.9875964355
 20
19.0914349365
 10
373.112578125
 20
17.4842921448
  0
LWPOLYLINE
  5
33D
100
AcDbEntity
  8
0
100
AcDbPolyline
 62
2
  6
CONTINUOUS
 90
3
 70
0
 10
375.6840270996
 20
19.7342907715
 10
375.6840270996
 20
17.4842921448
 10
376.4876000977
 20
17.4842921448
  0
LWPOLYLINE
  5
33E
100
AcDbEntity
  8
0
100
AcDbPolyline
 62
2
  6
CONTINUOUS
 90
3
 70
0
 10
378.898293457
 20
19.7342907715
 10
378.898293457
 20
17.4842921448
 10
379.7018664551
 20
17.4842921448
  0
LWPOLYLINE
  5
33F
100
AcDbEntity
  8
0
100
AcDbPolyline
 62
2
  6
CONTINUOUS
 90
5
 70
0
 10
380.3447351074
 20
19.0914349365
 10
380.3447351074
 20
17.6450061035
 10
380.5054394531
 20
17.4842921448
 10
381.3090124512
 20
17.4842921448
 10
381.3090124512
 20
19.0914349365
  0
LWPOLYLINE
  5
340
100
AcDbEntity
  8
0
100
AcDbPolyline
 62
2
  6
CONTINUOUS
 90
6
 70
0
 10
382.7554541016
 20
17.4842921448
 10
382.1125854492
 20
17.4842921448
 10
381.9518811035
 20
17.6450061035
 10
381.9518811035
 20
18.9307209778
 10
382.1125854492
 20
19.0914349365
 10
382.7554541016
 20
19.0914349365
  0
LWPOLYLINE
  5
341
100
AcDbEntity
  8
0
100
AcDbPolyline
 62
2
  6
CONTINUOUS
 90
9
 70
0
 10
384.3626000977
 20
17.4842921448
 10
383.7197314453
 20
17.4842921448
 10
383.3982971191
 20
17.8057200623
 10
383.3982971191
 20
18.770007019
 10
383.7197314453
 20
19.0914349365
 10
384.0411657715
 20
19.0914349365
 10
384.3626000977
 20
18.770007019
 10
384.3626000977
 20
18.2878619385
 10
383.3982971191
 20
18.2878619385
  0
LWPOLYLINE
  5
342
100
AcDbEntity
  8
0
100
AcDbPolyline
 62
2
  6
CONTINUOUS
 90
12
 70
0
 10
388.2197351074
 20
18.2878619385
 10
387.5768664551
 20
17.4842921448
 10
387.0947277832
 20
17.4842921448
 10
386.773293457
 20
17.8057200623
 10
386.773293457
 20
18.2878619385
 10
387.8983007812
 20
19.0914349365
 10
387.8983007812
 20
19.412862854
 10
387.5768664551
 20
19.7342907715
 10
387.2554577637
 20
19.7342907715
 10
386.9340234375
 20
19.412862854
 10
386.9340234375
 20
19.0914349365
 10
388.0590307617
 20
17.4842921448
  0
LWPOLYLINE
  5
343
100
AcDbEntity
  8
0
100
AcDbPolyline
 62
2
  6
CONTINUOUS
 90
3
 70
0
 10
390.6304541016
 20
19.7342907715
 10
390.6304541016
 20
17.4842921448
 10
391.4340270996
 20
17.4842921448
  0
LINE
  5
344
100
AcDbEntity
  8
0
100
AcDbLine
 62
2
  6
CONTINUOUS
 10
392.3983044434
 20
17.4842921448
 11
392.3983044434
 21
19.0914349365
  0
LWPOLYLINE
  5
345
100
AcDbEntity
  8
0
100
AcDbPolyline
 62
2
  6
CONTINUOUS
 90
4
 70
0
 10
392.3983044434
 20
19.5735768127
 10
392.3983044434
 20
19.7342907715
 10
392.4518811035
 20
19.7342907715
 10
392.3983044434
 20
19.5735768127
  0
LWPOLYLINE
  5
346
100
AcDbEntity
  8
0
100
AcDbPolyline
 62
2
  6
CONTINUOUS
 90
9
 70
0
 10
393.2554541016
 20
16.9485768127
 10
394.0590270996
 20
16.9485768127
 10
394.2197314453
 20
17.1628642273
 10
394.2197314453
 20
19.0914349365
 10
393.4161584473
 20
19.0914349365
 10
393.2554541016
 20
18.9307209778
 10
393.2554541016
 20
17.6450061035
 10
393.4161584473
 20
17.4842921448
 10
394.2197314453
 20
17.4842921448
  0
LINE
  5
347
100
AcDbEntity
  8
0
100
AcDbLine
 62
2
  6
CONTINUOUS
 10
394.8626000977
 20
17.4842921448
 11
394.8626000977
 21
19.7342907715
  0
LWPOLYLINE
  5
348
100
AcDbEntity
  8
0
100
AcDbPolyline
 62
2
  6
CONTINUOUS
 90
4
 70
0
 10
394.8626000977
 20
19.0914349365
 10
395.6661730957
 20
19.0914349365
 10
395.8268774414
 20
18.9307209778
 10
395.8268774414
 20
17.4842921448
  0
LINE
  5
349
100
AcDbEntity
  8
0
100
AcDbLine
 62
2
  6
CONTINUOUS
 10
396.737578125
 20
17.4842921448
 11
396.737578125
 21
19.7342907715
  0
LINE
  5
34A
100
AcDbEntity
  8
0
100
AcDbLine
 62
2
  6
CONTINUOUS
 10
396.469720459
 20
19.0914349365
 11
397.1125891113
 21
19.0914349365
  0
LWPOLYLINE
  5
34B
100
AcDbEntity
  8
0
100
AcDbPolyline
 62
2
  6
CONTINUOUS
 90
12
 70
0
 10
399.5233081055
 20
17.6450061035
 10
399.6840124512
 20
17.4842921448
 10
400.3268811035
 20
17.4842921448
 10
400.4875854492
 20
17.6450061035
 10
400.4875854492
 20
18.1271479797
 10
400.3268811035
 20
18.234291687
 10
399.6840124512
 20
18.3414353943
 10
399.5233081055
 20
18.4485791016
 10
399.5233081055
 20
18.9307209778
 10
399.6840124512
 20
19.0914349365
 10
400.3268811035
 20
19.0914349365
 10
400.4875854492
 20
18.9307209778
  0
LWPOLYLINE
  5
34C
100
AcDbEntity
  8
0
100
AcDbPolyline
 62
2
  6
CONTINUOUS
 90
9
 70
0
 10
401.6125927734
 20
17.8592935181
 10
401.6661694336
 20
17.7521498108
 10
401.6661694336
 20
17.698576355
 10
401.6125927734
 20
17.5914358521
 10
401.5054394531
 20
17.5914358521
 10
401.4518884277
 20
17.698576355
 10
401.4518884277
 20
17.7521498108
 10
401.5054394531
 20
17.8592935181
 10
401.6125927734
 20
17.8592935181
  0
LWPOLYLINE
  5
34D
100
AcDbEntity
  8
0
100
AcDbPolyline
 62
2
  6
CONTINUOUS
 90
5
 70
0
 10
402.4161657715
 20
17.4842921448
 10
402.4161657715
 20
19.0914349365
 10
403.0590087891
 20
19.0914349365
 10
403.1661621094
 20
18.9307209778
 10
403.1661621094
 20
18.6092930603
  0
LWPOLYLINE
  5
34E
100
AcDbEntity
  8
0
100
AcDbPolyline
 62
2
  6
CONTINUOUS
 90
9
 70
0
 10
404.344720459
 20
17.8592935181
 10
404.3982971191
 20
17.7521498108
 10
404.3982971191
 20
17.698576355
 10
404.344720459
 20
17.5914358521
 10
404.2375927734
 20
17.5914358521
 10
404.1840161133
 20
17.698576355
 10
404.1840161133
 20
17.7521498108
 10
404.2375927734
 20
17.8592935181
 10
404.344720459
 20
17.8592935181
  0
LWPOLYLINE
  5
34F
100
AcDbEntity
  8
0
100
AcDbPolyline
 62
2
  6
CONTINUOUS
 90
4
 70
0
 10
405.6304577637
 20
17.4842921448
 10
405.3090234375
 20
17.4842921448
 10
405.148293457
 20
17.6450061035
 10
405.148293457
 20
19.7342907715
  0
LWPOLYLINE
  5
350
100
AcDbEntity
  8
0
100
AcDbPolyline
 62
2
  6
CONTINUOUS
 90
9
 70
0
 10
406.7554394531
 20
17.8592935181
 10
406.8090161133
 20
17.7521498108
 10
406.8090161133
 20
17.698576355
 10
406.7554394531
 20
17.5914358521
 10
406.6483117676
 20
17.5914358521
 10
406.5947351074
 20
17.698576355
 10
406.5947351074
 20
17.7521498108
 10
406.6483117676
 20
17.8592935181
 10
406.7554394531
 20
17.8592935181
  0
LWPOLYLINE
  5
351
100
AcDbEntity
  8
0
100
AcDbPolyline
 62
2
  6
CONTINUOUS
 90
10
 70
0
 10
408.041151123
 20
17.8592935181
 10
408.0947277832
 20
17.7521498108
 10
408.0947277832
 20
17.698576355
 10
407.9876000977
 20
17.5914358521
 10
407.9340234375
 20
17.5914358521
 10
407.8804467773
 20
17.6450061035
 10
407.8804467773
 20
17.698576355
 10
407.9340234375
 20
17.8057200623
 10
407.9876000977
 20
17.8592935181
 10
408.041151123
 20
17.8592935181
  0
LWPOLYLINE
  5
352
100
AcDbEntity
  8
0
100
AcDbPolyline
 62
2
  6
CONTINUOUS
 90
3
 70
0
 10
408.0947277832
 20
17.698576355
 10
408.041151123
 20
17.5378623962
 10
407.9340234375
 20
17.323578186
  0
LINE
  5
353
100
AcDbEntity
  8
0
100
AcDbLine
 62
2
  6
CONTINUOUS
 10
321.6304577637
 20
14.1092926025
 11
321.6304577637
 21
15.7164353943
  0
LWPOLYLINE
  5
354
100
AcDbEntity
  8
0
100
AcDbPolyline
 62
2
  6
CONTINUOUS
 90
4
 70
0
 10
321.6304577637
 20
16.1985772705
 10
321.6304577637
 20
16.3592912292
 10
321.6840087891
 20
16.3592912292
 10
321.6304577637
 20
16.1985772705
  0
LWPOLYLINE
  5
355
100
AcDbEntity
  8
0
100
AcDbPolyline
 62
2
  6
CONTINUOUS
 90
5
 70
0
 10
322.4875817871
 20
14.1092926025
 10
322.4875817871
 20
15.7164353943
 10
323.2911547852
 20
15.7164353943
 10
323.4518847656
 20
15.5557214355
 10
323.4518847656
 20
14.1092926025
  0
LWPOLYLINE
  5
356
100
AcDbEntity
  8
0
100
AcDbPolyline
 62
2
  6
CONTINUOUS
 90
4
 70
0
 10
326.8268811035
 20
14.1092926025
 10
326.8268811035
 20
15.3950074768
 10
326.666151123
 20
15.7164353943
 10
325.862578125
 20
15.7164353943
  0
LWPOLYLINE
  5
357
100
AcDbEntity
  8
0
100
AcDbPolyline
 62
2
  6
CONTINUOUS
 90
6
 70
0
 10
326.8268811035
 20
14.1092926025
 10
326.1840124512
 20
14.1092926025
 10
325.862578125
 20
14.2700065613
 10
325.862578125
 20
14.7521484375
 10
326.1840124512
 20
14.9128623962
 10
326.8268811035
 20
14.9128623962
  0
LWPOLYLINE
  5
358
100
AcDbEntity
  8
0
100
AcDbPolyline
 62
2
  6
CONTINUOUS
 90
6
 70
0
 10
328.2732971191
 20
14.1092926025
 10
327.6304541016
 20
14.1092926025
 10
327.4697241211
 20
14.2700065613
 10
327.4697241211
 20
15.5557214355
 10
327.6304541016
 20
15.7164353943
 10
328.2732971191
 20
15.7164353943
  0
LWPOLYLINE
  5
359
100
AcDbEntity
  8
0
100
AcDbPolyline
 62
2
  6
CONTINUOUS
 90
6
 70
0
 10
329.7197387695
 20
14.1092926025
 10
329.0768701172
 20
14.1092926025
 10
328.9161657715
 20
14.2700065613
 10
328.9161657715
 20
15.5557214355
 10
329.0768701172
 20
15.7164353943
 10
329.7197387695
 20
15.7164353943
  0
LWPOLYLINE
  5
35A
100
AcDbEntity
  8
0
100
AcDbPolyline
 62
2
  6
CONTINUOUS
 90
9
 70
0
 10
330.3625817871
 20
14.43072052
 10
330.3625817871
 20
15.3950074768
 10
330.6840161133
 20
15.7164353943
 10
331.0054504395
 20
15.7164353943
 10
331.3268847656
 20
15.3950074768
 10
331.3268847656
 20
14.43072052
 10
331.0054504395
 20
14.1092926025
 10
330.6840161133
 20
14.1092926025
 10
330.3625817871
 20
14.43072052
  0
LWPOLYLINE
  5
35B
100
AcDbEntity
  8
0
100
AcDbPolyline
 62
2
  6
CONTINUOUS
 90
5
 70
0
 10
331.9697277832
 20
14.1092926025
 10
331.9697277832
 20
15.7164353943
 10
332.6125964355
 20
15.7164353943
 10
332.7197241211
 20
15.5557214355
 10
332.7197241211
 20
15.2342935181
  0
LWPOLYLINE
  5
35C
100
AcDbEntity
  8
0
100
AcDbPolyline
 62
2
  6
CONTINUOUS
 90
7
 70
0
 10
334.3804467773
 20
16.3592912292
 10
334.3804467773
 20
14.1092926025
 10
333.737578125
 20
14.1092926025
 10
333.4161694336
 20
14.2700065613
 10
333.4161694336
 20
15.5557214355
 10
333.737578125
 20
15.7164353943
 10
334.3804467773
 20
15.7164353943
  0
LWPOLYLINE
  5
35D
100
AcDbEntity
  8
0
100
AcDbPolyline
 62
2
  6
CONTINUOUS
 90
4
 70
0
 10
335.9875927734
 20
14.1092926025
 10
335.9875927734
 20
15.3950074768
 10
335.8268884277
 20
15.7164353943
 10
335.0233154297
 20
15.7164353943
  0
LWPOLYLINE
  5
35E
100
AcDbEntity
  8
0
100
AcDbPolyline
 62
2
  6
CONTINUOUS
 90
6
 70
0
 10
335.9875927734
 20
14.1092926025
 10
335.3447241211
 20
14.1092926025
 10
335.0233154297
 20
14.2700065613
 10
335.0233154297
 20
14.7521484375
 10
335.3447241211
 20
14.9128623962
 10
335.9875927734
 20
14.9128623962
  0
LWPOLYLINE
  5
35F
100
AcDbEntity
  8
0
100
AcDbPolyline
 62
2
  6
CONTINUOUS
 90
5
 70
0
 10
336.630435791
 20
14.1092926025
 10
336.630435791
 20
15.7164353943
 10
337.4340087891
 20
15.7164353943
 10
337.5947387695
 20
15.5557214355
 10
337.5947387695
 20
14.1092926025
  0
LWPOLYLINE
  5
360
100
AcDbEntity
  8
0
100
AcDbPolyline
 62
2
  6
CONTINUOUS
 90
6
 70
0
 10
339.0411547852
 20
14.1092926025
 10
338.3983117676
 20
14.1092926025
 10
338.2375817871
 20
14.2700065613
 10
338.2375817871
 20
15.5557214355
 10
338.3983117676
 20
15.7164353943
 10
339.0411547852
 20
15.7164353943
  0
LWPOLYLINE
  5
361
100
AcDbEntity
  8
0
100
AcDbPolyline
 62
2
  6
CONTINUOUS
 90
9
 70
0
 10
340.6483007812
 20
14.1092926025
 10
340.0054577637
 20
14.1092926025
 10
339.6840234375
 20
14.43072052
 10
339.6840234375
 20
15.3950074768
 10
340.0054577637
 20
15.7164353943
 10
340.3268664551
 20
15.7164353943
 10
340.6483007812
 20
15.3950074768
 10
340.6483007812
 20
14.9128623962
 10
339.6840234375
 20
14.9128623962
  0
LWPOLYLINE
  5
362
100
AcDbEntity
  8
0
100
AcDbPolyline
 62
2
  6
CONTINUOUS
 90
5
 70
0
 10
343.0590197754
 20
15.7164353943
 10
343.4875817871
 20
14.1092926025
 10
343.8625927734
 20
15.3950074768
 10
344.237578125
 20
14.1092926025
 10
344.6661657715
 20
15.7164353943
  0
LINE
  5
363
100
AcDbEntity
  8
0
100
AcDbLine
 62
2
  6
CONTINUOUS
 10
345.6304431152
 20
14.1092926025
 11
345.6304431152
 21
15.7164353943
  0
LWPOLYLINE
  5
364
100
AcDbEntity
  8
0
100
AcDbPolyline
 62
2
  6
CONTINUOUS
 90
4
 70
0
 10
345.6304431152
 20
16.1985772705
 10
345.6304431152
 20
16.3592912292
 10
345.6840197754
 20
16.3592912292
 10
345.6304431152
 20
16.1985772705
  0
LINE
  5
365
100
AcDbEntity
  8
0
100
AcDbLine
 62
2
  6
CONTINUOUS
 10
346.7554504395
 20
14.1092926025
 11
346.7554504395
 21
16.3592912292
  0
LINE
  5
366
100
AcDbEntity
  8
0
100
AcDbLine
 62
2
  6
CONTINUOUS
 10
346.4875927734
 20
15.7164353943
 11
347.130435791
 21
15.7164353943
  0
LINE
  5
367
100
AcDbEntity
  8
0
100
AcDbLine
 62
2
  6
CONTINUOUS
 10
347.7733044434
 20
14.1092926025
 11
347.7733044434
 21
16.3592912292
  0
LWPOLYLINE
  5
368
100
AcDbEntity
  8
0
100
AcDbPolyline
 62
2
  6
CONTINUOUS
 90
4
 70
0
 10
347.7733044434
 20
15.7164353943
 10
348.5768774414
 20
15.7164353943
 10
348.7375817871
 20
15.5557214355
 10
348.7375817871
 20
14.1092926025
  0
LINE
  5
369
100
AcDbEntity
  8
0
100
AcDbLine
 62
2
  6
CONTINUOUS
 10
351.4161584473
 20
14.1092926025
 11
351.4161584473
 21
16.3592912292
  0
LINE
  5
36A
100
AcDbEntity
  8
0
100
AcDbLine
 62
2
  6
CONTINUOUS
 10
351.1483007812
 20
15.7164353943
 11
351.7911694336
 21
15.7164353943
  0
LINE
  5
36B
100
AcDbEntity
  8
0
100
AcDbLine
 62
2
  6
CONTINUOUS
 10
352.4340124512
 20
14.1092926025
 11
352.4340124512
 21
16.3592912292
  0
LWPOLYLINE
  5
36C
100
AcDbEntity
  8
0
100
AcDbPolyline
 62
2
  6
CONTINUOUS
 90
4
 70
0
 10
352.4340124512
 20
15.7164353943
 10
353.2375854492
 20
15.7164353943
 10
353.3983154297
 20
15.5557214355
 10
353.3983154297
 20
14.1092926025
  0
LWPOLYLINE
  5
36D
100
AcDbEntity
  8
0
100
AcDbPolyline
 62
2
  6
CONTINUOUS
 90
9
 70
0
 10
355.005435791
 20
14.1092926025
 10
354.3625927734
 20
14.1092926025
 10
354.0411584473
 20
14.43072052
 10
354.0411584473
 20
15.3950074768
 10
354.3625927734
 20
15.7164353943
 10
354.6840270996
 20
15.7164353943
 10
355.005435791
 20
15.3950074768
 10
355.005435791
 20
14.9128623962
 10
354.0411584473
 20
14.9128623962
  0
LWPOLYLINE
  5
36E
100
AcDbEntity
  8
0
100
AcDbPolyline
 62
2
  6
CONTINUOUS
 90
4
 70
0
 10
357.898293457
 20
14.1092926025
 10
357.5768847656
 20
14.1092926025
 10
357.4161547852
 20
14.2700065613
 10
357.4161547852
 20
16.3592912292
  0
LWPOLYLINE
  5
36F
100
AcDbEntity
  8
0
100
AcDbPolyline
 62
2
  6
CONTINUOUS
 90
4
 70
0
 10
359.5054394531
 20
14.1092926025
 10
359.5054394531
 20
15.3950074768
 10
359.3447351074
 20
15.7164353943
 10
358.5411621094
 20
15.7164353943
  0
LWPOLYLINE
  5
370
100
AcDbEntity
  8
0
100
AcDbPolyline
 62
2
  6
CONTINUOUS
 90
6
 70
0
 10
359.5054394531
 20
14.1092926025
 10
358.8625964355
 20
14.1092926025
 10
358.5411621094
 20
14.2700065613
 10
358.5411621094
 20
14.7521484375
 10
358.8625964355
 20
14.9128623962
 10
359.5054394531
 20
14.9128623962
  0
LWPOLYLINE
  5
371
100
AcDbEntity
  8
0
100
AcDbPolyline
 62
2
  6
CONTINUOUS
 90
5
 70
0
 10
360.1483081055
 20
15.7164353943
 10
360.5768701172
 20
14.1092926025
 10
360.9518811035
 20
15.3950074768
 10
361.3268664551
 20
14.1092926025
 10
361.7554541016
 20
15.7164353943
  0
LINE
  5
372
100
AcDbEntity
  8
0
100
AcDbLine
 62
2
  6
CONTINUOUS
 10
364.4875817871
 20
14.1092926025
 11
364.4875817871
 21
15.7164353943
  0
LWPOLYLINE
  5
373
100
AcDbEntity
  8
0
100
AcDbPolyline
 62
2
  6
CONTINUOUS
 90
4
 70
0
 10
364.4875817871
 20
16.1985772705
 10
364.4875817871
 20
16.3592912292
 10
364.5411584473
 20
16.3592912292
 10
364.4875817871
 20
16.1985772705
  0
LWPOLYLINE
  5
374
100
AcDbEntity
  8
0
100
AcDbPolyline
 62
2
  6
CONTINUOUS
 90
5
 70
0
 10
365.3447314453
 20
14.1092926025
 10
365.3447314453
 20
15.7164353943
 10
366.1483044434
 20
15.7164353943
 10
366.3090087891
 20
15.5557214355
 10
366.3090087891
 20
14.1092926025
  0
LWPOLYLINE
  5
375
100
AcDbEntity
  8
0
100
AcDbPolyline
 62
2
  6
CONTINUOUS
 90
4
 70
0
 10
368.9875854492
 20
14.1092926025
 10
368.9875854492
 20
16.1985772705
 10
369.1483154297
 20
16.3592912292
 10
369.4697241211
 20
16.3592912292
  0
LINE
  5
376
100
AcDbEntity
  8
0
100
AcDbLine
 62
2
  6
CONTINUOUS
 10
369.4697241211
 20
15.7164353943
 11
368.7197277832
 21
15.7164353943
  0
LWPOLYLINE
  5
377
100
AcDbEntity
  8
0
100
AcDbPolyline
 62
2
  6
CONTINUOUS
 90
9
 70
0
 10
370.0054394531
 20
14.43072052
 10
370.0054394531
 20
15.3950074768
 10
370.3268737793
 20
15.7164353943
 10
370.6483081055
 20
15.7164353943
 10
370.9697424316
 20
15.3950074768
 10
370.9697424316
 20
14.43072052
 10
370.6483081055
 20
14.1092926025
 10
370.3268737793
 20
14.1092926025
 10
370.0054394531
 20
14.43072052
  0
LWPOLYLINE
  5
378
100
AcDbEntity
  8
0
100
AcDbPolyline
 62
2
  6
CONTINUOUS
 90
5
 70
0
 10
371.6125854492
 20
14.1092926025
 10
371.6125854492
 20
15.7164353943
 10
372.2554541016
 20
15.7164353943
 10
372.3625817871
 20
15.5557214355
 10
372.3625817871
 20
15.2342935181
  0
LWPOLYLINE
  5
379
100
AcDbEntity
  8
0
100
AcDbPolyline
 62
2
  6
CONTINUOUS
 90
6
 70
0
 10
373.8626000977
 20
14.1092926025
 10
373.2197314453
 20
14.1092926025
 10
373.0590270996
 20
14.2700065613
 10
373.0590270996
 20
15.5557214355
 10
373.2197314453
 20
15.7164353943
 10
373.8626000977
 20
15.7164353943
  0
LWPOLYLINE
  5
37A
100
AcDbEntity
  8
0
100
AcDbPolyline
 62
2
  6
CONTINUOUS
 90
9
 70
0
 10
375.469720459
 20
14.1092926025
 10
374.8268774414
 20
14.1092926025
 10
374.5054431152
 20
14.43072052
 10
374.5054431152
 20
15.3950074768
 10
374.8268774414
 20
15.7164353943
 10
375.1483117676
 20
15.7164353943
 10
375.469720459
 20
15.3950074768
 10
375.469720459
 20
14.9128623962
 10
374.5054431152
 20
14.9128623962
  0
LWPOLYLINE
  5
37B
100
AcDbEntity
  8
0
100
AcDbPolyline
 62
2
  6
CONTINUOUS
 90
9
 70
0
 10
376.5947277832
 20
14.4842907715
 10
376.6483044434
 20
14.3771502686
 10
376.6483044434
 20
14.3235768127
 10
376.5947277832
 20
14.2164363098
 10
376.4876000977
 20
14.2164363098
 10
376.4340234375
 20
14.3235768127
 10
376.4340234375
 20
14.3771502686
 10
376.4876000977
 20
14.4842907715
 10
376.5947277832
 20
14.4842907715
  0
LWPOLYLINE
  5
37C
100
AcDbEntity
  8
0
100
AcDbPolyline
 62
2
  6
CONTINUOUS
 90
3
 70
0
 10
321.3090234375
 20
10.7342930603
 10
321.9518664551
 20
12.984291687
 10
322.5947351074
 20
10.7342930603
  0
LINE
  5
37D
100
AcDbEntity
  8
0
100
AcDbLine
 62
2
  6
CONTINUOUS
 10
321.5233044434
 20
11.3771488953
 11
322.3804541016
 21
11.3771488953
  0
LWPOLYLINE
  5
37E
100
AcDbEntity
  8
0
100
AcDbPolyline
 62
2
  6
CONTINUOUS
 90
4
 70
0
 10
323.7197424316
 20
10.7342930603
 10
323.3983081055
 20
10.7342930603
 10
323.237578125
 20
10.895007019
 10
323.237578125
 20
12.984291687
  0
LWPOLYLINE
  5
37F
100
AcDbEntity
  8
0
100
AcDbPolyline
 62
2
  6
CONTINUOUS
 90
4
 70
0
 10
324.8447241211
 20
10.7342930603
 10
324.5233154297
 20
10.7342930603
 10
324.3625854492
 20
10.895007019
 10
324.3625854492
 20
12.984291687
  0
LWPOLYLINE
  5
380
100
AcDbEntity
  8
0
100
AcDbPolyline
 62
2
  6
CONTINUOUS
 90
5
 70
0
 10
327.2554431152
 20
10.7342930603
 10
327.2554431152
 20
12.3414358521
 10
327.8983117676
 20
12.3414358521
 10
328.0054394531
 20
12.1807218933
 10
328.0054394531
 20
11.8592907715
  0
LINE
  5
381
100
AcDbEntity
  8
0
100
AcDbLine
 62
2
  6
CONTINUOUS
 10
329.023293457
 20
10.7342930603
 11
329.023293457
 21
12.3414358521
  0
LWPOLYLINE
  5
382
100
AcDbEntity
  8
0
100
AcDbPolyline
 62
2
  6
CONTINUOUS
 90
4
 70
0
 10
329.023293457
 20
12.8235777283
 10
329.023293457
 20
12.984291687
 10
329.0768701172
 20
12.984291687
 10
329.023293457
 20
12.8235777283
  0
LWPOLYLINE
  5
383
100
AcDbEntity
  8
0
100
AcDbPolyline
 62
2
  6
CONTINUOUS
 90
9
 70
0
 10
329.8804431152
 20
10.1985777283
 10
330.6840161133
 20
10.1985777283
 10
330.844720459
 20
10.4128619385
 10
330.844720459
 20
12.3414358521
 10
330.0411730957
 20
12.3414358521
 10
329.8804431152
 20
12.1807218933
 10
329.8804431152
 20
10.895007019
 10
330.0411730957
 20
10.7342930603
 10
330.844720459
 20
10.7342930603
  0
LINE
  5
384
100
AcDbEntity
  8
0
100
AcDbLine
 62
2
  6
CONTINUOUS
 10
331.4875891113
 20
10.7342930603
 11
331.4875891113
 21
12.984291687
  0
LWPOLYLINE
  5
385
100
AcDbEntity
  8
0
100
AcDbPolyline
 62
2
  6
CONTINUOUS
 90
4
 70
0
 10
331.4875891113
 20
12.3414358521
 10
332.2911621094
 20
12.3414358521
 10
332.4518664551
 20
12.1807218933
 10
332.4518664551
 20
10.7342930603
  0
LINE
  5
386
100
AcDbEntity
  8
0
100
AcDbLine
 62
2
  6
CONTINUOUS
 10
333.3625927734
 20
10.7342930603
 11
333.3625927734
 21
12.984291687
  0
LINE
  5
387
100
AcDbEntity
  8
0
100
AcDbLine
 62
2
  6
CONTINUOUS
 10
333.0947351074
 20
12.3414358521
 11
333.737578125
 21
12.3414358521
  0
LWPOLYLINE
  5
388
100
AcDbEntity
  8
0
100
AcDbPolyline
 62
2
  6
CONTINUOUS
 90
12
 70
0
 10
334.3804467773
 20
10.895007019
 10
334.541151123
 20
10.7342930603
 10
335.1840197754
 20
10.7342930603
 10
335.3447241211
 20
10.895007019
 10
335.3447241211
 20
11.3771488953
 10
335.1840197754
 20
11.4842926025
 10
334.541151123
 20
11.5914363098
 10
334.3804467773
 20
11.6985768127
 10
334.3804467773
 20
12.1807218933
 10
334.541151123
 20
12.3414358521
 10
335.1840197754
 20
12.3414358521
 10
335.3447241211
 20
12.1807218933
  0
LWPOLYLINE
  5
389
100
AcDbEntity
  8
0
100
AcDbPolyline
 62
2
  6
CONTINUOUS
 90
5
 70
0
 10
337.7554431152
 20
10.7342930603
 10
337.7554431152
 20
12.3414358521
 10
338.3983117676
 20
12.3414358521
 10
338.5054394531
 20
12.1807218933
 10
338.5054394531
 20
11.8592907715
  0
LWPOLYLINE
  5
38A
100
AcDbEntity
  8
0
100
AcDbPolyline
 62
2
  6
CONTINUOUS
 90
9
 70
0
 10
340.1661621094
 20
10.7342930603
 10
339.523293457
 20
10.7342930603
 10
339.2018847656
 20
11.0557209778
 10
339.2018847656
 20
12.0200047302
 10
339.523293457
 20
12.3414358521
 10
339.8447277832
 20
12.3414358521
 10
340.1661621094
 20
12.0200047302
 10
340.1661621094
 20
11.537862854
 10
339.2018847656
 20
11.537862854
  0
LWPOLYLINE
  5
38B
100
AcDbEntity
  8
0
100
AcDbPolyline
 62
2
  6
CONTINUOUS
 90
12
 70
0
 10
340.8090307617
 20
10.895007019
 10
340.9697351074
 20
10.7342930603
 10
341.612578125
 20
10.7342930603
 10
341.7733081055
 20
10.895007019
 10
341.7733081055
 20
11.3771488953
 10
341.612578125
 20
11.4842926025
 10
340.9697351074
 20
11.5914363098
 10
340.8090307617
 20
11.6985768127
 10
340.8090307617
 20
12.1807218933
 10
340.9697351074
 20
12.3414358521
 10
341.612578125
 20
12.3414358521
 10
341.7733081055
 20
12.1807218933
  0
LWPOLYLINE
  5
38C
100
AcDbEntity
  8
0
100
AcDbPolyline
 62
2
  6
CONTINUOUS
 90
9
 70
0
 10
343.3804541016
 20
10.7342930603
 10
342.7375854492
 20
10.7342930603
 10
342.416151123
 20
11.0557209778
 10
342.416151123
 20
12.0200047302
 10
342.7375854492
 20
12.3414358521
 10
343.0590197754
 20
12.3414358521
 10
343.3804541016
 20
12.0200047302
 10
343.3804541016
 20
11.537862854
 10
342.416151123
 20
11.537862854
  0
LWPOLYLINE
  5
38D
100
AcDbEntity
  8
0
100
AcDbPolyline
 62
2
  6
CONTINUOUS
 90
5
 70
0
 10
344.0232971191
 20
10.7342930603
 10
344.0232971191
 20
12.3414358521
 10
344.6661657715
 20
12.3414358521
 10
344.773293457
 20
12.1807218933
 10
344.773293457
 20
11.8592907715
  0
LWPOLYLINE
  5
38E
100
AcDbEntity
  8
0
100
AcDbPolyline
 62
2
  6
CONTINUOUS
 90
3
 70
0
 10
345.4697387695
 20
12.3414358521
 10
345.9518774414
 20
10.7342930603
 10
346.4340161133
 20
12.3414358521
  0
LWPOLYLINE
  5
38F
100
AcDbEntity
  8
0
100
AcDbPolyline
 62
2
  6
CONTINUOUS
 90
9
 70
0
 10
348.0411621094
 20
10.7342930603
 10
347.398293457
 20
10.7342930603
 10
347.0768847656
 20
11.0557209778
 10
347.0768847656
 20
12.0200047302
 10
347.398293457
 20
12.3414358521
 10
347.7197277832
 20
12.3414358521
 10
348.0411621094
 20
12.0200047302
 10
348.0411621094
 20
11.537862854
 10
347.0768847656
 20
11.537862854
  0
LWPOLYLINE
  5
390
100
AcDbEntity
  8
0
100
AcDbPolyline
 62
2
  6
CONTINUOUS
 90
7
 70
0
 10
349.6483081055
 20
12.984291687
 10
349.6483081055
 20
10.7342930603
 10
349.0054394531
 20
10.7342930603
 10
348.6840307617
 20
10.895007019
 10
348.6840307617
 20
12.1807218933
 10
349.0054394531
 20
12.3414358521
 10
349.6483081055
 20
12.3414358521
  0
LWPOLYLINE
  5
391
100
AcDbEntity
  8
0
100
AcDbPolyline
 62
2
  6
CONTINUOUS
 90
9
 70
0
 10
350.7733154297
 20
11.1092912292
 10
350.8268664551
 20
11.0021507263
 10
350.8268664551
 20
10.9485772705
 10
350.7733154297
 20
10.8414335632
 10
350.6661621094
 20
10.8414335632
 10
350.6125854492
 20
10.9485772705
 10
350.6125854492
 20
11.0021507263
 10
350.6661621094
 20
11.1092912292
 10
350.7733154297
 20
11.1092912292
  0
ACAD_TABLE
  5
392
100
AcDbEntity
  8
0
 62
2
  6
CONTINUOUS
100
AcDbBlockReference
  2
*T1
 10
319.8215188711
 20
50.4217920391
 30
0.0
100
AcDbTable
342
       6CE
343
227
 11
1.0
 21
0.0
 31
0.0
 90
22
 91
5
 92
5
 93
0
 94
0
 95
0
 96
0
141
6.0
141
6.0
141
10.0
141
5.0
141
13.0
142
10.0
142
10.0
142
10.0
142
40.0
142
20.0
171
1
172
0
173
0
174
0
175
3
176
4
 91
1
178
0
145
0.0
170
5
171
1
172
0
173
1
174
0
175
1
176
1
 91
1
178
0
145
0.0
170
1
171
1
172
0
173
1
174
0
175
1
176
1
 91
1
178
0
145
0.0
170
1
171
1
172
0
173
0
174
0
175
1
176
1
 91
33
178
0
145
0.0
301
CELL_VALUE
 90
4
  1
{\Ftxt.shx;\W6.833333;\H3.000000; }
304
ACVALUE_END
170
4
140
3.0
171
1
172
0
173
0
174
0
175
1
176
1
 91
33
178
0
145
0.0
301
CELL_VALUE
 90
4
  1
{\Ftxt.shx;\W2.571429;\H3.500000; }{\Ftxt.shx;\W1.571429;\H3.500000; }
304
ACVALUE_END
170
4
140
3.5
171
1
172
0
173
1
174
0
175
1
176
1
 91
1
178
0
145
0.0
170
1
171
1
172
0
173
1
174
0
175
1
176
1
 91
1
178
0
145
0.0
170
1
171
1
172
0
173
1
174
0
175
1
176
1
 91
1
178
0
145
0.0
170
1
171
1
172
0
173
0
174
0
175
1
176
1
 91
33
178
0
145
0.0
301
CELL_VALUE
 90
4
  1
{\Ftxt.shx;\W3.714286;\H3.500000; }{\Ftxt.shx;\W1.500000;\H3.500000; }
304
ACVALUE_END
170
1
140
3.5
171
1
172
0
173
0
174
0
175
1
176
1
 91
33
178
0
145
0.0
301
CELL_VALUE
 90
4
  1
{\Ftxt.shx;\W1.571429;\H3.500000; }
304
ACVALUE_END
170
4
140
3.5
171
1
172
0
173
1
174
0
175
1
176
1
 91
1
178
0
145
0.0
170
1
171
1
172
0
173
1
174
0
175
1
176
1
 91
1
178
0
145
0.0
170
1
171
1
172
0
173
1
174
0
175
1
176
1
 91
1
178
0
145
0.0
170
1
171
1
172
0
173
0
174
0
175
2
176
1
 91
33
178
0
145
0.0
301
CELL_VALUE
 90
4
  1
{\Ftxt.shx;\W6.238095;\H3.500000; }
304
ACVALUE_END
170
4
140
3.5
171
1
172
0
173
1
174
0
175
1
176
1
 91
1
178
0
145
0.0
170
1
171
1
172
0
173
1
174
0
175
1
176
1
 91
1
178
0
145
0.0
170
1
171
1
172
0
173
1
174
0
175
1
176
1
 91
1
178
0
145
0.0
170
1
171
1
172
0
173
1
174
0
175
1
176
1
 91
1
178
0
145
0.0
170
1
171
1
172
0
173
0
174
0
175
2
176
1
 91
33
178
0
145
0.0
301
CELL_VALUE
 90
4
  1
{\Ftxt.shx;\W3.690476;\H2.500000; }{\Ftxt.shx;\W7.309524;\H2.500000; }
304
ACVALUE_END
170
4
140
2.5
171
1
172
0
173
1
174
0
175
1
176
1
 91
1
178
0
145
0.0
170
1
171
1
172
0
173
0
174
0
175
5
176
1
 91
33
178
0
145
0.0
301
CELL_VALUE
 90
4
  1
{\Ftxt.shx;\W35.880952;\H2.250000; }\P{\Ftxt.shx;\W22.452381;\H2.250000; }{\Ftxt.shx;\W6.642857;\H2.250000; }{\Ftxt.shx;\W10.595238;\H2.250000; }\P{\Ftxt.shx;\W25.714286;\H2.250000; }\P{\Ftxt.shx;\W13.452381;\H2.250000; }
304
ACVALUE_END
170
4
140
2.25
171
1
172
0
173
1
174
0
175
1
176
1
 91
1
178
0
145
0.0
170
1
171
1
172
0
173
1
174
0
175
1
176
1
 91
1
178
0
145
0.0
170
1
171
1
172
0
173
1
174
0
175
1
176
1
 91
1
178
0
145
0.0
170
1
171
1
172
0
173
1
174
0
175
1
176
1
 91
1
178
0
145
0.0
170
1
  0
LINE
  5
393
100
AcDbEntity
  8
0
100
AcDbLine
 62
7
  6
CONTINUOUS
 10
0.0
 20
0.0
 11
0.0
 21
297.0
  0
LINE
  5
394
100
AcDbEntity
  8
0
100
AcDbLine
 62
7
  6
CONTINUOUS
 10
0.0
 20
0.0
 11
420.0
 21
0.0
  0
LINE
  5
395
100
AcDbEntity
  8
0
100
AcDbLine
 62
7
  6
CONTINUOUS
 10
0.0
 20
297.0
 11
420.0
 21
297.0
  0
LINE
  5
396
100
AcDbEntity
  8
0
100
AcDbLine
 62
7
  6
CONTINUOUS
 10
420.0
 20
0.0
 11
420.0
 21
297.0
  0
LINE
  5
397
100
AcDbEntity
  8
7_ALL_FEATURES
100
AcDbLine
 62
7
  6
CONTINUOUS
 10
63.1376331676
 20
21.0479403409
 11
62.8876331676
 21
21.0479403409
  0
LINE
  5
398
100
AcDbEntity
  8
7_ALL_FEATURES
100
AcDbLine
 62
7
  6
CONTINUOUS
 10
151.7376331676
 20
21.0479403409
 11
151.9876331676
 21
21.0479403409
  0
LINE
  5
399
100
AcDbEntity
  8
7_ALL_FEATURES
100
AcDbLine
 62
9
  6
CONTINUOUS
 10
151.9876331676
 20
30.9506227883
 11
151.7376331676
 21
30.9506227883
  0
LINE
  5
39A
100
AcDbEntity
  8
7_ALL_FEATURES
100
AcDbLine
 62
9
  6
CONTINUOUS
 10
62.8876331676
 20
30.9506227883
 11
63.1376331676
 21
30.9506227883
  0
LINE
  5
39B
100
AcDbEntity
  8
02___PRT_ALL_AXES
100
AcDbLine
 62
7
  6
CONTINUOUS
 10
62.3876331676
 20
78.0479647778
 11
62.3876331676
 21
84.047915904
  0
LINE
  5
39C
100
AcDbEntity
  8
02___PRT_ALL_AXES
100
AcDbLine
 62
7
  6
CONTINUOUS
 10
62.5876331676
 20
78.0479403409
 11
62.5876331676
 21
84.0479403409
  0
LINE
  5
39D
100
AcDbEntity
  8
7_ALL_FEATURES
100
AcDbLine
 62
3
  6
CONTINUOUS
 10
62.8876331676
 20
21.0480024687
 11
62.8876331676
 21
78.0479403409
  0
LINE
  5
39E
100
AcDbEntity
  8
02___PRT_ALL_AXES
100
AcDbLine
 62
7
  6
CONTINUOUS
 10
62.8876331676
 20
78.0479647778
 11
62.8876331676
 21
84.047915904
  0
LINE
  5
39F
100
AcDbEntity
  8
7_ALL_FEATURES
100
AcDbLine
 62
3
  6
CONTINUOUS
 10
62.8876331676
 20
84.0479403409
 11
62.8876331676
 21
141.0476605095
  0
LINE
  5
3A0
100
AcDbEntity
  8
7_ALL_FEATURES
100
AcDbLine
 62
7
  6
CONTINUOUS
 10
63.1376331676
 20
21.0480024687
 11
63.1376331676
 21
78.0979403409
  0
LINE
  5
3A1
100
AcDbEntity
  8
7_ALL_FEATURES
100
AcDbLine
 62
7
  6
CONTINUOUS
 10
63.1376331676
 20
83.9979403409
 11
63.1376331676
 21
141.0476605095
  0
LINE
  5
3A2
100
AcDbEntity
  8
02___PRT_ALL_AXES
100
AcDbLine
 62
7
  6
CONTINUOUS
 10
64.5876331676
 20
79.5479403409
 11
64.5876331676
 21
82.5479403409
  0
LINE
  5
3A3
100
AcDbEntity
  8
7_ALL_FEATURES
100
AcDbLine
 62
7
  6
CONTINUOUS
 10
65.3376331676
 20
73.5479403409
 11
65.3376331676
 21
76.1601451859
  0
LINE
  5
3A4
100
AcDbEntity
  8
7_ALL_FEATURES
100
AcDbLine
 62
7
  6
CONTINUOUS
 10
65.3376331676
 20
76.9969956293
 11
65.3376331676
 21
85.0988953874
  0
LINE
  5
3A5
100
AcDbEntity
  8
7_ALL_FEATURES
100
AcDbLine
 62
7
  6
CONTINUOUS
 10
65.3376331676
 20
85.9357187032
 11
65.3376331676
 21
88.5479403409
  0
LINE
  5
3A6
100
AcDbEntity
  8
7_ALL_FEATURES
100
AcDbLine
 62
7
  6
CONTINUOUS
 10
65.6206894854
 20
100.2164880449
 11
65.8742604424
 21
100.7602727171
  0
LINE
  5
3A7
100
AcDbEntity
  8
02___PRT_ALL_AXES
100
AcDbLine
 62
7
  6
CONTINUOUS
 10
65.6206894854
 20
100.2164880449
 11
65.8742604424
 21
100.7602727171
  0
LINE
  5
3A8
100
AcDbEntity
  8
7_ALL_FEATURES
100
AcDbLine
 62
7
  6
CONTINUOUS
 10
88.2690854637
 20
39.2309966587
 11
87.7253007914
 21
39.4845676157
  0
LINE
  5
3A9
100
AcDbEntity
  8
02___PRT_ALL_AXES
100
AcDbLine
 62
7
  6
CONTINUOUS
 10
88.2690854637
 20
39.2309966587
 11
87.7253007914
 21
39.4845676157
  0
LINE
  5
3AA
100
AcDbEntity
  8
7_ALL_FEATURES
100
AcDbLine
 62
7
  6
CONTINUOUS
 10
67.7376331676
 20
66.7388523197
 11
67.7376331676
 21
70.5050949978
  0
LINE
  5
3AB
100
AcDbEntity
  8
7_ALL_FEATURES
100
AcDbLine
 62
7
  6
CONTINUOUS
 10
67.7376331676
 20
71.9560509572
 11
67.7376331676
 21
73.5479403409
  0
LINE
  5
3AC
100
AcDbEntity
  8
7_ALL_FEATURES
100
AcDbLine
 62
9
  6
CONTINUOUS
 10
67.7376331676
 20
73.5479403409
 11
67.7376331676
 21
76.1000403543
  0
LINE
  5
3AD
100
AcDbEntity
  8
7_ALL_FEATURES
100
AcDbLine
 62
9
  6
CONTINUOUS
 10
67.7376331676
 20
77.5472181228
 11
67.7376331676
 21
84.548662559
  0
LINE
  5
3AE
100
AcDbEntity
  8
7_ALL_FEATURES
100
AcDbLine
 62
9
  6
CONTINUOUS
 10
67.7376331676
 20
85.9958403198
 11
67.7376331676
 21
88.5479403409
  0
LINE
  5
3AF
100
AcDbEntity
  8
7_ALL_FEATURES
100
AcDbLine
 62
7
  6
CONTINUOUS
 10
67.7376331676
 20
88.5479403409
 11
67.7376331676
 21
90.1398296393
  0
LINE
  5
3B0
100
AcDbEntity
  8
7_ALL_FEATURES
100
AcDbLine
 62
7
  6
CONTINUOUS
 10
67.7376331676
 20
91.590785684
 11
67.7376331676
 21
95.3570283622
  0
LINE
  5
3B1
100
AcDbEntity
  8
7_ALL_FEATURES
100
AcDbLine
 62
7
  6
CONTINUOUS
 10
151.9876331676
 20
48.0852958644
 11
151.7376331676
 21
48.0852958644
  0
LINE
  5
3B2
100
AcDbEntity
  8
7_ALL_FEATURES
100
AcDbLine
 62
7
  6
CONTINUOUS
 10
62.8876331676
 20
48.0852958644
 11
63.1376331676
 21
48.0852958644
  0
LINE
  5
3B3
100
AcDbEntity
  8
02___PRT_ALL_AXES
100
AcDbLine
 62
7
  6
CONTINUOUS
 10
62.8876331676
 20
78.3479403409
 11
62.5876331676
 21
78.0479403409
  0
LINE
  5
3B4
100
AcDbEntity
  8
02___PRT_ALL_AXES
100
AcDbLine
 62
7
  6
CONTINUOUS
 10
64.5876331676
 20
79.5479403409
 11
64.5477665983
 21
79.5080737716
  0
LINE
  5
3B5
100
AcDbEntity
  8
7_ALL_FEATURES
100
AcDbLine
 62
7
  6
CONTINUOUS
 10
151.9876331676
 20
53.5479403409
 11
151.7376331676
 21
53.5479403409
  0
LINE
  5
3B6
100
AcDbEntity
  8
7_ALL_FEATURES
100
AcDbLine
 62
7
  6
CONTINUOUS
 10
62.8876331676
 20
53.5479403409
 11
63.1376331676
 21
53.5479403409
  0
LINE
  5
3B7
100
AcDbEntity
  8
7_ALL_FEATURES
100
AcDbLine
 62
7
  6
CONTINUOUS
 10
151.9876331676
 20
53.7144913299
 11
151.7376331676
 21
53.7144913299
  0
LINE
  5
3B8
100
AcDbEntity
  8
7_ALL_FEATURES
100
AcDbLine
 62
7
  6
CONTINUOUS
 10
62.8876331676
 20
53.7144913299
 11
63.1376331676
 21
53.7144913299
  0
LINE
  5
3B9
100
AcDbEntity
  8
02___PRT_ALL_AXES
100
AcDbLine
 62
7
  6
CONTINUOUS
 10
62.8876331676
 20
83.7479403409
 11
62.5876331676
 21
84.0479403409
  0
LINE
  5
3BA
100
AcDbEntity
  8
02___PRT_ALL_AXES
100
AcDbLine
 62
7
  6
CONTINUOUS
 10
64.5876331676
 20
82.5479403409
 11
64.5477665983
 21
82.5878069103
  0
LINE
  5
3BB
100
AcDbEntity
  8
7_ALL_FEATURES
100
AcDbLine
 62
9
  6
CONTINUOUS
 10
151.9876331676
 20
68.4577333068
 11
151.7376331676
 21
68.4577333068
  0
LINE
  5
3BC
100
AcDbEntity
  8
7_ALL_FEATURES
100
AcDbLine
 62
9
  6
CONTINUOUS
 10
62.8876331676
 20
68.4577333068
 11
63.1376331676
 21
68.4577333068
  0
LINE
  5
3BD
100
AcDbEntity
  8
7_ALL_FEATURES
100
AcDbLine
 62
9
  6
CONTINUOUS
 10
151.9876331676
 20
70.4255483493
 11
151.7376331676
 21
70.4255483493
  0
LINE
  5
3BE
100
AcDbEntity
  8
7_ALL_FEATURES
100
AcDbLine
 62
9
  6
CONTINUOUS
 10
62.8876331676
 20
70.4255483493
 11
63.1376331676
 21
70.4255483493
  0
LINE
  5
3BF
100
AcDbEntity
  8
7_ALL_FEATURES
100
AcDbLine
 62
9
  6
CONTINUOUS
 10
151.9876331676
 20
70.7873736077
 11
151.7376331676
 21
70.7873736077
  0
LINE
  5
3C0
100
AcDbEntity
  8
7_ALL_FEATURES
100
AcDbLine
 62
9
  6
CONTINUOUS
 10
62.8876331676
 20
70.7873736077
 11
63.1376331676
 21
70.7873736077
  0
LINE
  5
3C1
100
AcDbEntity
  8
7_ALL_FEATURES
100
AcDbLine
 62
9
  6
CONTINUOUS
 10
151.9876331676
 20
72.2518176184
 11
151.7376331676
 21
72.2518176184
  0
LINE
  5
3C2
100
AcDbEntity
  8
7_ALL_FEATURES
100
AcDbLine
 62
9
  6
CONTINUOUS
 10
62.8876331676
 20
72.2518176184
 11
63.1376331676
 21
72.2518176184
  0
LINE
  5
3C3
100
AcDbEntity
  8
7_ALL_FEATURES
100
AcDbLine
 62
7
  6
CONTINUOUS
 10
149.5376331676
 20
73.5479403409
 11
147.1376331676
 21
73.5479403409
  0
LINE
  5
3C4
100
AcDbEntity
  8
7_ALL_FEATURES
100
AcDbLine
 62
7
  6
CONTINUOUS
 10
65.3376331676
 20
73.5479403409
 11
67.7376331676
 21
73.5479403409
  0
LINE
  5
3C5
100
AcDbEntity
  8
02___PRT_ALL_AXES
100
AcDbLine
 62
7
  6
CONTINUOUS
 10
109.555926636
 20
39.3061409915
 11
109.1516190945
 21
47.0207886048
  0
LINE
  5
3C6
100
AcDbEntity
  8
02___PRT_ALL_AXES
100
AcDbLine
 62
7
  6
CONTINUOUS
 10
105.5790166169
 20
121.7443386981
 11
105.9490765498
 21
114.6831729385
  0
LINE
  5
3C7
100
AcDbEntity
  8
02___PRT_ALL_AXES
100
AcDbLine
 62
7
  6
CONTINUOUS
 10
104.2926522128
 20
111.9412722578
 11
103.9628641034
 21
121.6746152314
  0
LINE
  5
3C8
100
AcDbEntity
  8
02___PRT_ALL_AXES
100
AcDbLine
 62
7
  6
CONTINUOUS
 10
106.5255712188
 20
54.8169066134
 11
106.4410806099
 21
64.4985734144
  0
LINE
  5
3C9
100
AcDbEntity
  8
02___PRT_ALL_AXES
100
AcDbLine
 62
7
  6
CONTINUOUS
 10
106.4410806453
 20
97.5973077985
 11
106.5255712241
 21
107.2789746679
  0
LINE
  5
3CA
100
AcDbEntity
  8
02___PRT_ALL_AXES
100
AcDbLine
 62
7
  6
CONTINUOUS
 10
103.9271255437
 20
39.3664796826
 11
104.2926522128
 21
50.154608424
  0
LINE
  5
3CB
100
AcDbEntity
  8
02___PRT_ALL_AXES
100
AcDbLine
 62
7
  6
CONTINUOUS
 10
108.9326147508
 20
114.6831729385
 11
109.3528425141
 21
122.7015995356
  0
LINE
  5
3CC
100
AcDbEntity
  8
02___PRT_ALL_AXES
100
AcDbLine
 62
7
  6
CONTINUOUS
 10
105.7300722046
 20
47.0207885775
 11
105.3257645859
 21
39.3061407777
  0
LINE
  5
3CD
100
AcDbEntity
  8
02___PRT_ALL_AXES
100
AcDbLine
 62
7
  6
CONTINUOUS
 10
95.1518354488
 20
41.1000792121
 11
98.3204931594
 21
51.4642896938
  0
LINE
  5
3CE
100
AcDbEntity
  8
02___PRT_ALL_AXES
100
AcDbLine
 62
7
  6
CONTINUOUS
 10
119.7298558518
 20
120.9958014697
 11
116.5611981412
 21
110.631590988
  0
LINE
  5
3CF
100
AcDbEntity
  8
02___PRT_ALL_AXES
100
AcDbLine
 62
7
  6
CONTINUOUS
 10
115.0486533183
 20
111.1549219454
 11
118.3949276625
 21
121.4174621674
  0
LINE
  5
3D0
100
AcDbEntity
  8
02___PRT_ALL_AXES
100
AcDbLine
 62
7
  6
CONTINUOUS
 10
97.6092271327
 20
56.7118742439
 11
100.8411569712
 21
65.8385621438
  0
LINE
  5
3D1
100
AcDbEntity
  8
02___PRT_ALL_AXES
100
AcDbLine
 62
7
  6
CONTINUOUS
 10
112.1615907928
 20
96.9411984953
 11
115.5523107189
 21
106.0100900157
  0
LINE
  5
3D2
100
AcDbEntity
  8
02___PRT_ALL_AXES
100
AcDbLine
 62
7
  6
CONTINUOUS
 10
89.8831296137
 20
43.0819421894
 11
93.9163696982
 21
53.0944498778
  0
LINE
  5
3D3
100
AcDbEntity
  8
02___PRT_ALL_AXES
100
AcDbLine
 62
7
  6
CONTINUOUS
 10
119.4702522649
 20
109.5727787289
 11
123.7049078411
 21
119.549000866
  0
LINE
  5
3D4
100
AcDbEntity
  8
02___PRT_ALL_AXES
100
AcDbLine
 62
7
  6
CONTINUOUS
 10
95.4114390357
 20
52.5231019529
 11
91.1767834595
 21
42.5468798158
  0
LINE
  5
3D5
100
AcDbEntity
  8
7_ALL_FEATURES
100
AcDbLine
 62
7
  6
CONTINUOUS
 10
125.6759326374
 20
122.5263013554
 11
125.337838028
 21
121.8012551258
  0
LINE
  5
3D6
100
AcDbEntity
  8
7_ALL_FEATURES
100
AcDbLine
 62
7
  6
CONTINUOUS
 10
87.3867181237
 20
40.4148158499
 11
87.7248127331
 21
41.1398620795
  0
LINE
  5
3D7
100
AcDbEntity
  8
7_ALL_FEATURES
100
AcDbLine
 62
9
  6
CONTINUOUS
 10
126.6061808716
 20
122.8648840231
 11
125.972253479
 21
121.5054223426
  0
LINE
  5
3D8
100
AcDbEntity
  8
7_ALL_FEATURES
100
AcDbLine
 62
9
  6
CONTINUOUS
 10
88.359228184
 20
40.8440292963
 11
87.7253007914
 21
39.4845676157
  0
LINE
  5
3D9
100
AcDbEntity
  8
7_ALL_FEATURES
100
AcDbLine
 62
9
  6
CONTINUOUS
 10
88.2690854637
 20
39.2309966587
 11
88.9030128563
 21
40.5904583393
  0
LINE
  5
3DA
100
AcDbEntity
  8
7_ALL_FEATURES
100
AcDbLine
 62
9
  6
CONTINUOUS
 10
126.5160381512
 20
121.2518513855
 11
127.1499655438
 21
122.6113130661
  0
LINE
  5
3DB
100
AcDbEntity
  8
02___PRT_ALL_AXES
100
AcDbLine
 62
7
  6
CONTINUOUS
 10
82.2299802583
 20
47.7123190524
 11
86.8791431818
 21
53.8819668893
  0
LINE
  5
3DC
100
AcDbEntity
  8
02___PRT_ALL_AXES
100
AcDbLine
 62
7
  6
CONTINUOUS
 10
132.6517110423
 20
114.3835616294
 11
128.0025481188
 21
108.2139137925
  0
LINE
  5
3DD
100
AcDbEntity
  8
02___PRT_ALL_AXES
100
AcDbLine
 62
7
  6
CONTINUOUS
 10
124.8870405397
 20
106.7372253198
 11
131.5415050654
 21
115.2363673719
  0
LINE
  5
3DE
100
AcDbEntity
  8
02___PRT_ALL_AXES
100
AcDbLine
 62
7
  6
CONTINUOUS
 10
89.8787207721
 20
61.5421284857
 11
96.0372531882
 21
69.0130263503
  0
LINE
  5
3DF
100
AcDbEntity
  8
02___PRT_ALL_AXES
100
AcDbLine
 62
7
  6
CONTINUOUS
 10
117.3127094104
 20
94.3681274476
 11
123.6006870709
 21
101.7304030116
  0
LINE
  5
3E0
100
AcDbEntity
  8
02___PRT_ALL_AXES
100
AcDbLine
 62
7
  6
CONTINUOUS
 10
77.9568534288
 20
51.3766647811
 11
85.1713385835
 21
59.4058948311
  0
LINE
  5
3E1
100
AcDbEntity
  8
02___PRT_ALL_AXES
100
AcDbLine
 62
7
  6
CONTINUOUS
 10
130.6236047118
 20
106.0145863268
 11
135.892203114
 21
111.6644659272
  0
LINE
  5
3E2
100
AcDbEntity
  8
02___PRT_ALL_AXES
100
AcDbLine
 62
7
  6
CONTINUOUS
 10
84.2580865888
 20
56.0812943551
 11
78.9894886135
 21
50.4314147803
  0
LINE
  5
3E3
100
AcDbEntity
  8
02___PRT_ALL_AXES
100
AcDbLine
 62
7
  6
CONTINUOUS
 10
72.3489275069
 20
58.3453268015
 11
78.8278538554
 21
62.5527904305
  0
LINE
  5
3E4
100
AcDbEntity
  8
02___PRT_ALL_AXES
100
AcDbLine
 62
7
  6
CONTINUOUS
 10
142.5327637937
 20
103.7505538803
 11
136.053838264
 21
99.5430907831
  0
LINE
  5
3E5
100
AcDbEntity
  8
02___PRT_ALL_AXES
100
AcDbLine
 62
7
  6
CONTINUOUS
 10
132.6211591791
 20
99.2210217923
 11
141.7811900197
 21
104.9316407117
  0
LINE
  5
3E6
100
AcDbEntity
  8
02___PRT_ALL_AXES
100
AcDbLine
 62
7
  6
CONTINUOUS
 10
84.2664666294
 20
68.725073983
 11
92.6087909552
 21
73.6390788004
  0
LINE
  5
3E7
100
AcDbEntity
  8
02___PRT_ALL_AXES
100
AcDbLine
 62
7
  6
CONTINUOUS
 10
121.2731353758
 20
90.1884457963
 11
129.6999513107
 21
94.9561090173
  0
LINE
  5
3E8
100
AcDbEntity
  8
02___PRT_ALL_AXES
100
AcDbLine
 62
7
  6
CONTINUOUS
 10
69.5867844208
 20
63.2501831513
 11
79.112338684
 21
68.3276898754
  0
LINE
  5
3E9
100
AcDbEntity
  8
02___PRT_ALL_AXES
100
AcDbLine
 62
7
  6
CONTINUOUS
 10
137.7646099596
 20
96.5799431252
 11
144.6478447794
 21
100.0871261509
  0
LINE
  5
3EA
100
AcDbEntity
  8
02___PRT_ALL_AXES
100
AcDbLine
 62
7
  6
CONTINUOUS
 10
77.117081341
 20
65.5159375566
 11
70.2338456927
 21
62.0087546232
  0
LINE
  5
3EB
100
AcDbEntity
  8
02___PRT_ALL_AXES
100
AcDbLine
 62
7
  6
CONTINUOUS
 10
148.1812133155
 20
90.3792758834
 11
137.6212108807
 21
87.9413070403
  0
LINE
  5
3EC
100
AcDbEntity
  8
02___PRT_ALL_AXES
100
AcDbLine
 62
7
  6
CONTINUOUS
 10
66.7004779851
 20
71.7166047984
 11
77.2604804199
 21
74.1545736416
  0
LINE
  5
3ED
100
AcDbEntity
  8
02___PRT_ALL_AXES
100
AcDbLine
 62
7
  6
CONTINUOUS
 10
77.5635309155
 20
72.5830042462
 11
67.0027710317
 21
70.3496917087
  0
LINE
  5
3EE
100
AcDbEntity
  8
02___PRT_ALL_AXES
100
AcDbLine
 62
7
  6
CONTINUOUS
 10
133.4323078214
 20
84.701542317
 11
128.3481517108
 21
83.7592497641
  0
LINE
  5
3EF
100
AcDbEntity
  8
02___PRT_ALL_AXES
100
AcDbLine
 62
7
  6
CONTINUOUS
 10
91.3165077387
 20
77.1895966428
 11
81.7672568193
 21
75.5916001378
  0
LINE
  5
3F0
100
AcDbEntity
  8
02___PRT_ALL_AXES
100
AcDbLine
 62
7
  6
CONTINUOUS
 10
149.0992227333
 20
84.8255113672
 11
138.4115164918
 21
83.3121458251
  0
LINE
  5
3F1
100
AcDbEntity
  8
02___PRT_ALL_AXES
100
AcDbLine
 62
7
  6
CONTINUOUS
 10
76.7229083745
 20
77.2032933711
 11
65.9659180676
 21
75.8825011043
  0
LINE
  5
3F2
100
AcDbEntity
  8
02___PRT_ALL_AXES
100
AcDbLine
 62
7
  6
CONTINUOUS
 10
138.1587829261
 20
84.8925873107
 11
148.915773233
 21
86.2133795775
  0
LINE
  5
3F3
100
AcDbEntity
  8
02___PRT_ALL_AXES
100
AcDbLine
 62
7
  6
CONTINUOUS
 10
63.0876331676
 20
78.0479403409
 11
62.8876331676
 21
78.0479403409
  0
LINE
  5
3F4
100
AcDbEntity
  8
02___PRT_ALL_AXES
100
AcDbLine
 62
7
  6
CONTINUOUS
 10
62.5876331676
 20
78.0479403409
 11
62.3876331676
 21
78.0479403409
  0
LINE
  5
3F5
100
AcDbEntity
  8
02___PRT_ALL_AXES
100
AcDbLine
 62
7
  6
CONTINUOUS
 10
151.7876331676
 20
78.0479403409
 11
151.9876331676
 21
78.0479403409
  0
LINE
  5
3F6
100
AcDbEntity
  8
02___PRT_ALL_AXES
100
AcDbLine
 62
7
  6
CONTINUOUS
 10
152.2876331676
 20
78.0479403409
 11
152.4876331676
 21
78.0479403409
  0
LINE
  5
3F7
100
AcDbEntity
  8
02___PRT_ALL_AXES
100
AcDbLine
 62
7
  6
CONTINUOUS
 10
65.3376331676
 20
79.5479403409
 11
64.5876331676
 21
79.5479403409
  0
LINE
  5
3F8
100
AcDbEntity
  8
02___PRT_ALL_AXES
100
AcDbLine
 62
7
  6
CONTINUOUS
 10
149.5376331676
 20
79.5479403409
 11
150.2876331676
 21
79.5479403409
  0
LINE
  5
3F9
100
AcDbEntity
  8
02___PRT_ALL_AXES
100
AcDbLine
 62
7
  6
CONTINUOUS
 10
148.915773233
 20
75.8825011043
 11
141.2481210373
 21
76.8239704
  0
LINE
  5
3FA
100
AcDbEntity
  8
02___PRT_ALL_AXES
100
AcDbLine
 62
7
  6
CONTINUOUS
 10
65.9659180676
 20
86.2133795775
 11
73.6335702633
 21
85.2719102818
  0
LINE
  5
3FB
100
AcDbEntity
  8
02___PRT_ALL_AXES
100
AcDbLine
 62
7
  6
CONTINUOUS
 10
76.4701748088
 20
83.3121458251
 11
65.7824702381
 21
84.8255111306
  0
LINE
  5
3FC
100
AcDbEntity
  8
02___PRT_ALL_AXES
100
AcDbLine
 62
7
  6
CONTINUOUS
 10
133.1144362508
 20
75.5915998417
 11
123.5651831296
 21
77.1895965697
  0
LINE
  5
3FD
100
AcDbEntity
  8
02___PRT_ALL_AXES
100
AcDbLine
 62
7
  6
CONTINUOUS
 10
86.5335404693
 20
83.7592496938
 11
81.4493834917
 21
84.7015423147
  0
LINE
  5
3FE
100
AcDbEntity
  8
02___PRT_ALL_AXES
100
AcDbLine
 62
7
  6
CONTINUOUS
 10
147.8789196276
 20
70.3496918443
 11
137.3181603851
 21
72.5830042462
  0
LINE
  5
3FF
100
AcDbEntity
  8
02___PRT_ALL_AXES
100
AcDbLine
 62
7
  6
CONTINUOUS
 10
74.2277145206
 20
88.6414761591
 11
66.7004786252
 21
90.3792756545
  0
LINE
  5
400
100
AcDbEntity
  8
02___PRT_ALL_AXES
100
AcDbLine
 62
7
  6
CONTINUOUS
 10
140.65397678
 20
73.4544045227
 11
148.1812133155
 21
71.7166047984
  0
LINE
  5
401
100
AcDbEntity
  8
7_ALL_FEATURES
100
AcDbLine
 62
7
  6
CONTINUOUS
 10
148.0707576586
 20
60.997025297
 11
147.345711429
 21
61.3351199064
  0
LINE
  5
402
100
AcDbEntity
  8
7_ALL_FEATURES
100
AcDbLine
 62
7
  6
CONTINUOUS
 10
66.6843183827
 20
98.9481452013
 11
65.9592721531
 21
99.2862398107
  0
LINE
  5
403
100
AcDbEntity
  8
7_ALL_FEATURES
100
AcDbLine
 62
9
  6
CONTINUOUS
 10
65.6206894854
 20
100.2164880449
 11
66.980151166
 21
99.5825606523
  0
LINE
  5
404
100
AcDbEntity
  8
7_ALL_FEATURES
100
AcDbLine
 62
9
  6
CONTINUOUS
 10
147.6415442122
 20
61.9695353573
 11
149.0010058928
 21
61.3356079647
  0
LINE
  5
405
100
AcDbEntity
  8
7_ALL_FEATURES
100
AcDbLine
 62
9
  6
CONTINUOUS
 10
149.2545768498
 20
61.8793926369
 11
147.8951151693
 21
62.5133200296
  0
LINE
  5
406
100
AcDbEntity
  8
7_ALL_FEATURES
100
AcDbLine
 62
9
  6
CONTINUOUS
 10
67.233722123
 20
100.1263453245
 11
65.8742604424
 21
100.7602727171
  0
LINE
  5
407
100
AcDbEntity
  8
02___PRT_ALL_AXES
100
AcDbLine
 62
7
  6
CONTINUOUS
 10
144.6478447794
 20
62.0087545309
 11
137.764608364
 21
65.5159383696
  0
LINE
  5
408
100
AcDbEntity
  8
02___PRT_ALL_AXES
100
AcDbLine
 62
7
  6
CONTINUOUS
 10
70.2338465212
 20
100.0871261509
 11
77.1170829366
 21
96.5799423122
  0
LINE
  5
409
100
AcDbEntity
  8
02___PRT_ALL_AXES
100
AcDbLine
 62
7
  6
CONTINUOUS
 10
79.112338684
 20
93.7681908064
 11
69.5867813943
 21
98.8456991437
  0
LINE
  5
40A
100
AcDbEntity
  8
02___PRT_ALL_AXES
100
AcDbLine
 62
7
  6
CONTINUOUS
 10
129.6999506472
 20
67.1397720399
 11
121.273135305
 21
71.9074349549
  0
LINE
  5
40B
100
AcDbEntity
  8
02___PRT_ALL_AXES
100
AcDbLine
 62
7
  6
CONTINUOUS
 10
92.6087913855
 20
88.4568018774
 11
84.2664677916
 21
93.3708060142
  0
LINE
  5
40C
100
AcDbEntity
  8
02___PRT_ALL_AXES
100
AcDbLine
 62
7
  6
CONTINUOUS
 10
141.7811938237
 20
57.1642375986
 11
132.6211591791
 21
62.8748588895
  0
LINE
  5
40D
100
AcDbEntity
  8
02___PRT_ALL_AXES
100
AcDbLine
 62
7
  6
CONTINUOUS
 10
78.8278538554
 20
99.5430902514
 11
72.3489276885
 21
103.7505541864
  0
LINE
  5
40E
100
AcDbEntity
  8
02___PRT_ALL_AXES
100
AcDbLine
 62
7
  6
CONTINUOUS
 10
136.0538374452
 20
62.5527904305
 11
142.5327637937
 21
58.3453268015
  0
LINE
  5
40F
100
AcDbEntity
  8
02___PRT_ALL_AXES
100
AcDbLine
 62
7
  6
CONTINUOUS
 10
135.892203114
 20
50.4314147546
 11
128.5008626155
 21
58.3576579058
  0
LINE
  5
410
100
AcDbEntity
  8
02___PRT_ALL_AXES
100
AcDbLine
 62
7
  6
CONTINUOUS
 10
78.9894881866
 20
111.6644659272
 11
86.3808286851
 21
103.738222776
  0
LINE
  5
411
100
AcDbEntity
  8
02___PRT_ALL_AXES
100
AcDbLine
 62
7
  6
CONTINUOUS
 10
85.1713385835
 20
102.6899858507
 11
77.9568530439
 21
110.7192163291
  0
LINE
  5
412
100
AcDbEntity
  8
02___PRT_ALL_AXES
100
AcDbLine
 62
7
  6
CONTINUOUS
 10
123.6006893037
 20
60.3654750558
 11
117.3127092052
 21
67.7277531892
  0
LINE
  5
413
100
AcDbEntity
  8
02___PRT_ALL_AXES
100
AcDbLine
 62
7
  6
CONTINUOUS
 10
96.0372533469
 20
93.0828538659
 11
89.8787230457
 21
100.553749438
  0
LINE
  5
414
100
AcDbEntity
  8
02___PRT_ALL_AXES
100
AcDbLine
 62
7
  6
CONTINUOUS
 10
131.5415028774
 20
46.8595161045
 11
124.8870405397
 21
55.358655362
  0
LINE
  5
415
100
AcDbEntity
  8
02___PRT_ALL_AXES
100
AcDbLine
 62
7
  6
CONTINUOUS
 10
88.7523140578
 20
105.7281319919
 11
82.2299802583
 21
114.3835616294
  0
LINE
  5
416
100
AcDbEntity
  8
02___PRT_ALL_AXES
100
AcDbLine
 62
7
  6
CONTINUOUS
 10
126.1293772428
 20
56.3677486899
 11
132.6517110423
 21
47.7123190524
  0
LINE
  5
417
100
AcDbEntity
  8
02___PRT_ALL_AXES
100
AcDbLine
 62
7
  6
CONTINUOUS
 10
123.7049078411
 20
42.5468798158
 11
120.68641783
 21
49.6579964539
  0
LINE
  5
418
100
AcDbEntity
  8
02___PRT_ALL_AXES
100
AcDbLine
 62
7
  6
CONTINUOUS
 10
91.3977661363
 20
119.5356341098
 11
94.5351122707
 21
112.1445086745
  0
LINE
  5
419
100
AcDbEntity
  8
02___PRT_ALL_AXES
100
AcDbLine
 62
7
  6
CONTINUOUS
 10
93.9163696982
 20
109.001430804
 11
89.9193040846
 21
118.9241328212
  0
LINE
  5
41A
100
AcDbEntity
  8
02___PRT_ALL_AXES
100
AcDbLine
 62
7
  6
CONTINUOUS
 10
115.5523113726
 20
56.0857889178
 11
112.1615906675
 21
65.154682579
  0
LINE
  5
41B
100
AcDbEntity
  8
02___PRT_ALL_AXES
100
AcDbLine
 62
7
  6
CONTINUOUS
 10
100.8411567478
 20
96.2573180842
 11
97.6092265189
 21
105.3840081711
  0
LINE
  5
41C
100
AcDbEntity
  8
02___PRT_ALL_AXES
100
AcDbLine
 62
7
  6
CONTINUOUS
 10
118.3949289284
 20
40.6784146319
 11
115.0486533183
 21
50.9409587364
  0
LINE
  5
41D
100
AcDbEntity
  8
02___PRT_ALL_AXES
100
AcDbLine
 62
7
  6
CONTINUOUS
 10
97.3387226282
 20
113.1649346027
 11
95.2714044421
 21
119.9268282327
  0
LINE
  5
41E
100
AcDbEntity
  8
02___PRT_ALL_AXES
100
AcDbLine
 62
7
  6
CONTINUOUS
 10
117.4712158559
 20
48.4877594682
 11
119.7298558518
 21
41.1000792121
  0
LINE
  5
41F
100
AcDbEntity
  8
02___PRT_ALL_AXES
100
AcDbLine
 62
7
  6
CONTINUOUS
 10
110.5890390878
 20
50.154608424
 11
110.9545657697
 21
39.3664793047
  0
LINE
  5
420
100
AcDbEntity
  8
02___PRT_ALL_AXES
100
AcDbLine
 62
7
  6
CONTINUOUS
 10
108.3561200818
 20
107.2789740684
 11
108.4406106906
 21
97.5973072674
  0
LINE
  5
421
100
AcDbEntity
  8
02___PRT_ALL_AXES
100
AcDbLine
 62
7
  6
CONTINUOUS
 10
108.4406106553
 20
64.4985728833
 11
108.3561200765
 21
54.8169060139
  0
LINE
  5
422
100
AcDbEntity
  8
02___PRT_ALL_AXES
100
AcDbLine
 62
7
  6
CONTINUOUS
 10
110.9512872581
 20
122.6326399999
 11
110.5890390878
 21
111.9412722578
  0
LINE
  5
423
100
AcDbEntity
  8
02___PRT_ALL_AXES
100
AcDbLine
 62
7
  6
CONTINUOUS
 10
99.8330379823
 20
50.9409587364
 11
96.4867636381
 21
40.6784185144
  0
LINE
  5
424
100
AcDbEntity
  8
02___PRT_ALL_AXES
100
AcDbLine
 62
7
  6
CONTINUOUS
 10
117.2724641679
 20
105.3840064379
 11
114.0405343294
 21
96.257318538
  0
LINE
  5
425
100
AcDbEntity
  8
02___PRT_ALL_AXES
100
AcDbLine
 62
7
  6
CONTINUOUS
 10
102.7201005077
 20
65.1546821865
 11
99.3293805816
 21
56.0857906661
  0
LINE
  5
426
100
AcDbEntity
  8
02___PRT_ALL_AXES
100
AcDbLine
 62
7
  6
CONTINUOUS
 10
124.9985616869
 20
119.0139384924
 11
120.9653216024
 21
109.001430804
  0
LINE
  5
427
100
AcDbEntity
  8
7_ALL_FEATURES
100
AcDbLine
 62
7
  6
CONTINUOUS
 10
127.4885482115
 20
121.6810648319
 11
127.1504536021
 21
120.9560186023
  0
LINE
  5
428
100
AcDbEntity
  8
7_ALL_FEATURES
100
AcDbLine
 62
7
  6
CONTINUOUS
 10
89.5374283072
 20
40.294625556
 11
89.1993336978
 21
39.5695793264
  0
LINE
  5
429
100
AcDbEntity
  8
02___PRT_ALL_AXES
100
AcDbLine
 62
7
  6
CONTINUOUS
 10
89.9946507609
 20
55.358655362
 11
83.3401862352
 21
46.8595133099
  0
LINE
  5
42A
100
AcDbEntity
  8
02___PRT_ALL_AXES
100
AcDbLine
 62
7
  6
CONTINUOUS
 10
125.0029705285
 20
100.5537521961
 11
118.8444381124
 21
93.0828543315
  0
LINE
  5
42B
100
AcDbEntity
  8
02___PRT_ALL_AXES
100
AcDbLine
 62
7
  6
CONTINUOUS
 10
97.5689818902
 20
67.7277532342
 11
91.2810042297
 21
60.3654776702
  0
LINE
  5
42C
100
AcDbEntity
  8
02___PRT_ALL_AXES
100
AcDbLine
 62
7
  6
CONTINUOUS
 10
136.9248378717
 20
110.7192159007
 11
129.7103527171
 21
102.6899858507
  0
LINE
  5
42D
100
AcDbEntity
  8
02___PRT_ALL_AXES
100
AcDbLine
 62
7
  6
CONTINUOUS
 10
82.2605321215
 20
62.8748588895
 11
73.1005012809
 21
57.1642399701
  0
LINE
  5
42E
100
AcDbEntity
  8
02___PRT_ALL_AXES
100
AcDbLine
 62
7
  6
CONTINUOUS
 10
130.6152246712
 20
93.3708066988
 11
122.2729003453
 21
88.4568018814
  0
LINE
  5
42F
100
AcDbEntity
  8
02___PRT_ALL_AXES
100
AcDbLine
 62
7
  6
CONTINUOUS
 10
93.6085559248
 20
71.9074348855
 11
85.1817399899
 21
67.1397716645
  0
LINE
  5
430
100
AcDbEntity
  8
02___PRT_ALL_AXES
100
AcDbLine
 62
7
  6
CONTINUOUS
 10
145.2949068795
 20
98.8456975303
 11
135.7693526166
 21
93.7681908064
  0
LINE
  5
431
100
AcDbEntity
  8
02___PRT_ALL_AXES
100
AcDbLine
 62
7
  6
CONTINUOUS
 10
137.3181603851
 20
89.5128764356
 11
147.8789202689
 21
91.7461889732
  0
LINE
  5
432
100
AcDbEntity
  8
02___PRT_ALL_AXES
100
AcDbLine
 62
7
  6
CONTINUOUS
 10
81.4493834792
 20
77.3943383648
 11
86.5335395898
 21
78.3366309178
  0
LINE
  5
433
100
AcDbEntity
  8
02___PRT_ALL_AXES
100
AcDbLine
 62
7
  6
CONTINUOUS
 10
123.5651835619
 20
84.906284039
 11
133.1144344813
 21
86.504280544
  0
LINE
  5
434
100
AcDbEntity
  8
02___PRT_ALL_AXES
100
AcDbLine
 62
7
  6
CONTINUOUS
 10
65.7824685673
 20
77.2703693147
 11
76.4701748088
 21
78.7837348567
  0
LINE
  5
435
100
AcDbEntity
  8
02___PRT_ALL_AXES
100
AcDbLine
 62
7
  6
CONTINUOUS
 10
65.3376331676
 20
82.5479403409
 11
64.5876331676
 21
82.5479403409
  0
LINE
  5
436
100
AcDbEntity
  8
02___PRT_ALL_AXES
100
AcDbLine
 62
7
  6
CONTINUOUS
 10
149.5376331676
 20
82.5479403409
 11
150.2876331676
 21
82.5479403409
  0
LINE
  5
437
100
AcDbEntity
  8
02___PRT_ALL_AXES
100
AcDbLine
 62
7
  6
CONTINUOUS
 10
63.0876331676
 20
84.0479403409
 11
62.8876331676
 21
84.0479403409
  0
LINE
  5
438
100
AcDbEntity
  8
02___PRT_ALL_AXES
100
AcDbLine
 62
7
  6
CONTINUOUS
 10
62.5876331676
 20
84.0479403409
 11
62.3876331676
 21
84.0479403409
  0
LINE
  5
439
100
AcDbEntity
  8
02___PRT_ALL_AXES
100
AcDbLine
 62
7
  6
CONTINUOUS
 10
151.7876331676
 20
84.0479403409
 11
151.9876331676
 21
84.0479403409
  0
LINE
  5
43A
100
AcDbEntity
  8
02___PRT_ALL_AXES
100
AcDbLine
 62
7
  6
CONTINUOUS
 10
152.2876331676
 20
84.0479403409
 11
152.4876331676
 21
84.0479403409
  0
LINE
  5
43B
100
AcDbEntity
  8
02___PRT_ALL_AXES
100
AcDbLine
 62
7
  6
CONTINUOUS
 10
138.4115164918
 20
78.7837348567
 11
149.0992210625
 21
77.2703695512
  0
LINE
  5
43C
100
AcDbEntity
  8
02___PRT_ALL_AXES
100
AcDbLine
 62
7
  6
CONTINUOUS
 10
81.7672550498
 20
86.5042808401
 11
91.316508171
 21
84.9062841122
  0
LINE
  5
43D
100
AcDbEntity
  8
02___PRT_ALL_AXES
100
AcDbLine
 62
7
  6
CONTINUOUS
 10
128.3481508313
 20
78.336630988
 11
133.4323078089
 21
77.3943383671
  0
LINE
  5
43E
100
AcDbEntity
  8
02___PRT_ALL_AXES
100
AcDbLine
 62
7
  6
CONTINUOUS
 10
67.002771673
 20
91.7461888376
 11
77.5635309155
 21
89.5128764356
  0
LINE
  5
43F
100
AcDbEntity
  8
7_ALL_FEATURES
100
AcDbLine
 62
7
  6
CONTINUOUS
 10
148.9159941821
 20
62.8096408711
 11
148.1909479525
 21
63.1477354805
  0
LINE
  5
440
100
AcDbEntity
  8
7_ALL_FEATURES
100
AcDbLine
 62
7
  6
CONTINUOUS
 10
66.8045086766
 20
101.0988553848
 11
67.5295549062
 21
100.7607607754
  0
LINE
  5
441
100
AcDbEntity
  8
02___PRT_ALL_AXES
100
AcDbLine
 62
7
  6
CONTINUOUS
 10
135.7693526166
 20
68.3276898754
 11
145.2949099062
 21
63.2501815381
  0
LINE
  5
442
100
AcDbEntity
  8
02___PRT_ALL_AXES
100
AcDbLine
 62
7
  6
CONTINUOUS
 10
85.1817406534
 20
94.9561086419
 11
93.6085559956
 21
90.1884457269
  0
LINE
  5
443
100
AcDbEntity
  8
02___PRT_ALL_AXES
100
AcDbLine
 62
7
  6
CONTINUOUS
 10
122.2728999151
 20
73.6390788044
 11
130.615223509
 21
68.7250746676
  0
LINE
  5
444
100
AcDbEntity
  8
02___PRT_ALL_AXES
100
AcDbLine
 62
7
  6
CONTINUOUS
 10
73.1004974774
 20
104.9316430829
 11
82.2605321215
 21
99.2210217923
  0
LINE
  5
445
100
AcDbEntity
  8
02___PRT_ALL_AXES
100
AcDbLine
 62
7
  6
CONTINUOUS
 10
129.7103527171
 20
59.4058948311
 11
136.9248382567
 21
51.3766643527
  0
LINE
  5
446
100
AcDbEntity
  8
02___PRT_ALL_AXES
100
AcDbLine
 62
7
  6
CONTINUOUS
 10
91.2810019969
 20
101.730405626
 11
97.5689820954
 21
94.3681274926
  0
LINE
  5
447
100
AcDbEntity
  8
02___PRT_ALL_AXES
100
AcDbLine
 62
7
  6
CONTINUOUS
 10
118.8444379537
 20
69.0130268159
 11
125.0029682549
 21
61.5421312438
  0
LINE
  5
448
100
AcDbEntity
  8
02___PRT_ALL_AXES
100
AcDbLine
 62
7
  6
CONTINUOUS
 10
83.3401884232
 20
115.2363645774
 11
89.9946507609
 21
106.7372253198
  0
LINE
  5
449
100
AcDbEntity
  8
02___PRT_ALL_AXES
100
AcDbLine
 62
7
  6
CONTINUOUS
 10
120.9653216024
 20
53.0944498778
 11
124.9985616474
 21
43.0819422874
  0
LINE
  5
44A
100
AcDbEntity
  8
02___PRT_ALL_AXES
100
AcDbLine
 62
7
  6
CONTINUOUS
 10
99.329379928
 20
106.010091764
 11
102.7201006331
 21
96.9411981028
  0
LINE
  5
44B
100
AcDbEntity
  8
02___PRT_ALL_AXES
100
AcDbLine
 62
7
  6
CONTINUOUS
 10
114.0405345528
 20
65.8385625976
 11
117.2724647817
 21
56.7118725107
  0
LINE
  5
44C
100
AcDbEntity
  8
02___PRT_ALL_AXES
100
AcDbLine
 62
7
  6
CONTINUOUS
 10
96.8139378436
 20
120.4140674636
 11
99.8330379823
 21
111.1549219454
  0
LINE
  5
44D
100
AcDbEntity
  8
7_ALL_FEATURES
100
AcDbLine
 62
7
  6
CONTINUOUS
 10
149.5376331676
 20
88.5479403409
 11
147.1376331676
 21
88.5479403409
  0
LINE
  5
44E
100
AcDbEntity
  8
7_ALL_FEATURES
100
AcDbLine
 62
7
  6
CONTINUOUS
 10
65.3376331676
 20
88.5479403409
 11
67.7376331676
 21
88.5479403409
  0
LINE
  5
44F
100
AcDbEntity
  8
7_ALL_FEATURES
100
AcDbLine
 62
9
  6
CONTINUOUS
 10
151.9876331676
 20
89.8440630634
 11
151.7376331676
 21
89.8440630634
  0
LINE
  5
450
100
AcDbEntity
  8
7_ALL_FEATURES
100
AcDbLine
 62
9
  6
CONTINUOUS
 10
62.8876331676
 20
89.8440630634
 11
63.1376331676
 21
89.8440630634
  0
LINE
  5
451
100
AcDbEntity
  8
7_ALL_FEATURES
100
AcDbLine
 62
9
  6
CONTINUOUS
 10
151.9876331676
 20
91.3085070741
 11
151.7376331676
 21
91.3085070741
  0
LINE
  5
452
100
AcDbEntity
  8
7_ALL_FEATURES
100
AcDbLine
 62
9
  6
CONTINUOUS
 10
62.8876331676
 20
91.3085070741
 11
63.1376331676
 21
91.3085070741
  0
LINE
  5
453
100
AcDbEntity
  8
7_ALL_FEATURES
100
AcDbLine
 62
9
  6
CONTINUOUS
 10
151.9876331676
 20
91.6703323326
 11
151.7376331676
 21
91.6703323326
  0
LINE
  5
454
100
AcDbEntity
  8
7_ALL_FEATURES
100
AcDbLine
 62
9
  6
CONTINUOUS
 10
62.8876331676
 20
91.6703323326
 11
63.1376331676
 21
91.6703323326
  0
LINE
  5
455
100
AcDbEntity
  8
7_ALL_FEATURES
100
AcDbLine
 62
9
  6
CONTINUOUS
 10
151.9876331676
 20
93.638147375
 11
151.7376331676
 21
93.638147375
  0
LINE
  5
456
100
AcDbEntity
  8
7_ALL_FEATURES
100
AcDbLine
 62
9
  6
CONTINUOUS
 10
62.8876331676
 20
93.638147375
 11
63.1376331676
 21
93.638147375
  0
LINE
  5
457
100
AcDbEntity
  8
02___PRT_ALL_AXES
100
AcDbLine
 62
7
  6
CONTINUOUS
 10
150.2876331676
 20
82.5479403409
 11
150.327499737
 21
82.5878069103
  0
LINE
  5
458
100
AcDbEntity
  8
02___PRT_ALL_AXES
100
AcDbLine
 62
7
  6
CONTINUOUS
 10
151.9876331676
 20
83.7479403409
 11
152.2876331676
 21
84.0479403409
  0
LINE
  5
459
100
AcDbEntity
  8
7_ALL_FEATURES
100
AcDbLine
 62
7
  6
CONTINUOUS
 10
151.9876331676
 20
108.381389352
 11
151.7376331676
 21
108.381389352
  0
LINE
  5
45A
100
AcDbEntity
  8
7_ALL_FEATURES
100
AcDbLine
 62
7
  6
CONTINUOUS
 10
62.8876331676
 20
108.381389352
 11
63.1376331676
 21
108.381389352
  0
LINE
  5
45B
100
AcDbEntity
  8
7_ALL_FEATURES
100
AcDbLine
 62
7
  6
CONTINUOUS
 10
151.9876331676
 20
108.5479403409
 11
151.7376331676
 21
108.5479403409
  0
LINE
  5
45C
100
AcDbEntity
  8
7_ALL_FEATURES
100
AcDbLine
 62
7
  6
CONTINUOUS
 10
62.8876331676
 20
108.5479403409
 11
63.1376331676
 21
108.5479403409
  0
LINE
  5
45D
100
AcDbEntity
  8
02___PRT_ALL_AXES
100
AcDbLine
 62
7
  6
CONTINUOUS
 10
150.2876331676
 20
79.5479403409
 11
150.327499737
 21
79.5080737716
  0
LINE
  5
45E
100
AcDbEntity
  8
02___PRT_ALL_AXES
100
AcDbLine
 62
7
  6
CONTINUOUS
 10
151.9876331676
 20
78.3479403409
 11
152.2876331676
 21
78.0479403409
  0
LINE
  5
45F
100
AcDbEntity
  8
7_ALL_FEATURES
100
AcDbLine
 62
7
  6
CONTINUOUS
 10
151.9876331676
 20
114.0105848174
 11
151.7376331676
 21
114.0105848174
  0
LINE
  5
460
100
AcDbEntity
  8
7_ALL_FEATURES
100
AcDbLine
 62
7
  6
CONTINUOUS
 10
62.8876331676
 20
114.0105848174
 11
63.1376331676
 21
114.0105848174
  0
LINE
  5
461
100
AcDbEntity
  8
7_ALL_FEATURES
100
AcDbLine
 62
7
  6
CONTINUOUS
 10
147.1376331676
 20
95.3570283622
 11
147.1376331676
 21
91.5894269792
  0
LINE
  5
462
100
AcDbEntity
  8
7_ALL_FEATURES
100
AcDbLine
 62
7
  6
CONTINUOUS
 10
147.1376331676
 20
90.1383464043
 11
147.1376331676
 21
88.5479403409
  0
LINE
  5
463
100
AcDbEntity
  8
7_ALL_FEATURES
100
AcDbLine
 62
9
  6
CONTINUOUS
 10
147.1376331676
 20
88.5479403409
 11
147.1376331676
 21
85.995051441
  0
LINE
  5
464
100
AcDbEntity
  8
7_ALL_FEATURES
100
AcDbLine
 62
9
  6
CONTINUOUS
 10
147.1376331676
 20
84.5477527921
 11
147.1376331676
 21
77.5481278897
  0
LINE
  5
465
100
AcDbEntity
  8
7_ALL_FEATURES
100
AcDbLine
 62
9
  6
CONTINUOUS
 10
147.1376331676
 20
76.1008292486
 11
147.1376331676
 21
73.5479403409
  0
LINE
  5
466
100
AcDbEntity
  8
7_ALL_FEATURES
100
AcDbLine
 62
7
  6
CONTINUOUS
 10
147.1376331676
 20
73.5479403409
 11
147.1376331676
 21
71.9575342929
  0
LINE
  5
467
100
AcDbEntity
  8
7_ALL_FEATURES
100
AcDbLine
 62
7
  6
CONTINUOUS
 10
147.1376331676
 20
70.5064537026
 11
147.1376331676
 21
66.7388523197
  0
LINE
  5
468
100
AcDbEntity
  8
7_ALL_FEATURES
100
AcDbLine
 62
7
  6
CONTINUOUS
 10
149.5376331676
 20
88.5479403409
 11
149.5376331676
 21
85.945594136
  0
LINE
  5
469
100
AcDbEntity
  8
7_ALL_FEATURES
100
AcDbLine
 62
7
  6
CONTINUOUS
 10
149.5376331676
 20
85.0921372695
 11
149.5376331676
 21
77.0037331851
  0
LINE
  5
46A
100
AcDbEntity
  8
7_ALL_FEATURES
100
AcDbLine
 62
7
  6
CONTINUOUS
 10
149.5376331676
 20
76.1503032342
 11
149.5376331676
 21
73.5479403409
  0
LWPOLYLINE
  5
46B
100
AcDbEntity
  8
0
100
AcDbPolyline
 62
2
  6
CONTINUOUS
 90
3
 70
0
 43
0.1500000036
 10
134.6730871582
 20
137.0324285889
 10
134.3309399414
 20
138.1953240967
 10
136.9647583008
 20
136.7590081787
  0
LINE
  5
46C
100
AcDbEntity
  8
02___PRT_ALL_AXES
100
AcDbLine
 62
7
  6
CONTINUOUS
 10
150.2876331676
 20
79.5479403409
 11
150.2876331676
 21
82.5479403409
  0
LINE
  5
46D
100
AcDbEntity
  8
7_ALL_FEATURES
100
AcDbLine
 62
7
  6
CONTINUOUS
 10
151.7376331676
 20
21.0482201723
 11
151.7376331676
 21
78.0979403409
  0
LINE
  5
46E
100
AcDbEntity
  8
7_ALL_FEATURES
100
AcDbLine
 62
7
  6
CONTINUOUS
 10
151.7376331676
 20
83.9979403409
 11
151.7376331676
 21
141.0478782131
  0
LINE
  5
46F
100
AcDbEntity
  8
7_ALL_FEATURES
100
AcDbLine
 62
3
  6
CONTINUOUS
 10
151.9876331676
 20
141.0478782131
 11
151.9876331676
 21
84.047915904
  0
LINE
  5
470
100
AcDbEntity
  8
7_ALL_FEATURES
100
AcDbLine
 62
3
  6
CONTINUOUS
 10
151.9876331676
 20
78.0479647778
 11
151.9876331676
 21
21.0482201723
  0
LINE
  5
471
100
AcDbEntity
  8
02___PRT_ALL_AXES
100
AcDbLine
 62
7
  6
CONTINUOUS
 10
151.9876331676
 20
78.0479647778
 11
151.9876331676
 21
84.047915904
  0
LINE
  5
472
100
AcDbEntity
  8
02___PRT_ALL_AXES
100
AcDbLine
 62
7
  6
CONTINUOUS
 10
152.2876331676
 20
78.0479403409
 11
152.2876331676
 21
84.0479403409
  0
LINE
  5
473
100
AcDbEntity
  8
02___PRT_ALL_AXES
100
AcDbLine
 62
7
  6
CONTINUOUS
 10
152.4876331676
 20
78.0479647778
 11
152.4876331676
 21
84.047915904
  0
LINE
  5
474
100
AcDbEntity
  8
7_ALL_FEATURES
100
AcDbLine
 62
7
  6
CONTINUOUS
 10
149.2545768498
 20
61.8793926369
 11
149.0010058928
 21
61.3356079647
  0
LINE
  5
475
100
AcDbEntity
  8
02___PRT_ALL_AXES
100
AcDbLine
 62
7
  6
CONTINUOUS
 10
149.2545768498
 20
61.8793926369
 11
149.0010058928
 21
61.3356079647
  0
LINE
  5
476
100
AcDbEntity
  8
7_ALL_FEATURES
100
AcDbLine
 62
7
  6
CONTINUOUS
 10
126.6061808716
 20
122.8648840231
 11
127.1499655438
 21
122.6113130661
  0
LINE
  5
477
100
AcDbEntity
  8
02___PRT_ALL_AXES
100
AcDbLine
 62
7
  6
CONTINUOUS
 10
126.6061808716
 20
122.8648840231
 11
127.1499655438
 21
122.6113130661
  0
LINE
  5
478
100
AcDbEntity
  8
7_ALL_FEATURES
100
AcDbLine
 62
9
  6
CONTINUOUS
 10
151.9876331676
 20
131.1452578935
 11
151.7376331676
 21
131.1452578935
  0
LINE
  5
479
100
AcDbEntity
  8
7_ALL_FEATURES
100
AcDbLine
 62
9
  6
CONTINUOUS
 10
62.8876331676
 20
131.1452578935
 11
63.1376331676
 21
131.1452578935
  0
LWPOLYLINE
  5
47A
100
AcDbEntity
  8
0
100
AcDbPolyline
 62
2
  6
CONTINUOUS
 90
2
 70
0
 43
0.1500000036
 10
135.4174310303
 20
132.3551348877
 10
132.6636419678
 20
136.7044573975
  0
LWPOLYLINE
  5
47B
100
AcDbEntity
  8
0
100
AcDbPolyline
 62
2
  6
CONTINUOUS
 90
13
 70
0
 43
0.1500000036
 10
133.32237854
 20
133.2128869629
 10
132.7836254883
 20
133.7914508057
 10
132.5840332031
 20
134.469810791
 10
132.7236401367
 20
135.2479541016
 10
133.3022039795
 20
135.7867199707
 10
133.9805511475
 20
135.9862994385
 10
134.7587072754
 20
135.8467053223
 10
135.2974603271
 20
135.2681414795
 10
135.4970397949
 20
134.5897814941
 10
135.3574456787
 20
133.8116381836
 10
134.7788818359
 20
133.2728723145
 10
134.1005218506
 20
133.0732928467
 10
133.32237854
 20
133.2128869629
  0
LINE
  5
47C
100
AcDbEntity
  8
7_ALL_FEATURES
100
AcDbLine
 62
7
  6
CONTINUOUS
 10
63.1376331676
 20
141.0479403409
 11
62.8876331676
 21
141.0479403409
  0
LINE
  5
47D
100
AcDbEntity
  8
7_ALL_FEATURES
100
AcDbLine
 62
7
  6
CONTINUOUS
 10
151.7376331676
 20
141.0479403409
 11
151.9876331676
 21
141.0479403409
  0
LWPOLYLINE
  5
47E
100
AcDbEntity
  8
0
100
AcDbPolyline
 62
2
  6
CONTINUOUS
 90
13
 70
0
 43
0.1500000036
 10
136.6226239014
 20
137.9219036865
 10
135.4938482666
 20
138.5374584961
 10
135.2201715088
 20
138.9307855225
 10
135.0491107178
 20
139.5122332764
 10
135.1517010498
 20
139.7003668213
 10
135.7331488037
 20
139.8714276123
 10
136.2120062256
 20
139.8543676758
 10
137.3407818604
 20
139.2388000488
 10
137.6144458008
 20
138.8454858398
 10
137.7855194092
 20
138.2640380859
 10
137.6829162598
 20
138.075904541
 10
137.1014685059
 20
137.90484375
 10
136.6226239014
 20
137.9219036865
  0
LWPOLYLINE
  5
47F
100
AcDbEntity
  8
0
100
AcDbPolyline
 62
2
  6
CONTINUOUS
 90
13
 70
0
 43
0.1500000036
 10
137.7511560059
 20
139.9913214111
 10
136.6223803711
 20
140.6068890381
 10
136.3487164307
 20
141.0002032471
 10
136.1776428223
 20
141.581651001
 10
136.2802459717
 20
141.7697845459
 10
136.8616937256
 20
141.9408581543
 10
137.3405383301
 20
141.9237982178
 10
138.4693139648
 20
141.3082305908
 10
138.7429779053
 20
140.9149163818
 10
138.9140515137
 20
140.3334686279
 10
138.8114611816
 20
140.145335083
 10
138.2300134277
 20
139.9742614746
 10
137.7511560059
 20
139.9913214111
  0
LINE
  5
480
100
AcDbEntity
  8
02___PRT_ALL_AXES
100
AcDbLine
 62
7
  6
CONTINUOUS
 10
57.4376331676
 20
179.5404354614
 11
57.4376331676
 21
178.0404354614
  0
LINE
  5
481
100
AcDbEntity
  8
02___PRT_ALL_AXES
100
AcDbLine
 62
7
  6
CONTINUOUS
 10
62.5876331676
 20
193.5404354614
 11
62.8876331676
 21
193.2404354614
  0
LINE
  5
482
100
AcDbEntity
  8
02___PRT_ALL_AXES
100
AcDbLine
 62
7
  6
CONTINUOUS
 10
62.3876331676
 20
187.5404354614
 11
62.3876331676
 21
193.5404354614
  0
LINE
  5
483
100
AcDbEntity
  8
02___PRT_ALL_AXES
100
AcDbLine
 62
7
  6
CONTINUOUS
 10
62.5876331676
 20
187.5404354614
 11
62.5876331676
 21
193.5404354614
  0
LINE
  5
484
100
AcDbEntity
  8
7_ALL_FEATURES
100
AcDbLine
 62
3
  6
CONTINUOUS
 10
62.8876331676
 20
179.5404354614
 11
62.8876331676
 21
217.3198684796
  0
LINE
  5
485
100
AcDbEntity
  8
02___PRT_ALL_AXES
100
AcDbLine
 62
7
  6
CONTINUOUS
 10
62.8876331676
 20
217.3198997113
 11
62.8876331676
 21
217.5404354614
  0
LINE
  5
486
100
AcDbEntity
  8
02___PRT_ALL_AXES
100
AcDbLine
 62
7
  6
CONTINUOUS
 10
62.9376331676
 20
231.5404354614
 11
62.9376331676
 21
217.5404354614
  0
LINE
  5
487
100
AcDbEntity
  8
7_ALL_FEATURES
100
AcDbLine
 62
7
  6
CONTINUOUS
 10
63.1376331676
 20
179.5404354614
 11
63.1376331676
 21
217.3198684796
  0
LINE
  5
488
100
AcDbEntity
  8
02___PRT_ALL_AXES
100
AcDbLine
 62
7
  6
CONTINUOUS
 10
65.1806095272
 20
270.4904354614
 11
65.1806095272
 21
231.5404354614
  0
LINE
  5
489
100
AcDbEntity
  8
02___PRT_ALL_AXES
100
AcDbLine
 62
9
  6
CONTINUOUS
 10
65.9659180676
 20
231.5404354614
 11
65.9659180676
 21
270.4904354614
  0
LINE
  5
48A
100
AcDbEntity
  8
02___PRT_ALL_AXES
100
AcDbLine
 62
7
  6
CONTINUOUS
 10
66.1579432941
 20
270.4904354614
 11
66.1579432941
 21
231.5404354614
  0
LWPOLYLINE
  5
48B
100
AcDbEntity
  8
0
100
AcDbPolyline
 62
2
  6
CONTINUOUS
 90
10
 70
0
 43
0.1500000036
 10
107.5090603638
 20
285.4308435059
 10
108.3662036133
 20
286.2879931641
 10
108.5804846191
 20
287.1451428223
 10
108.5804846191
 20
288.0022924805
 10
108.1519226074
 20
288.4308544922
 10
107.5090603638
 20
288.4308544922
 10
107.0804919434
 20
288.0022924805
 10
107.0804919434
 20
287.1451428223
 10
107.5090603638
 20
286.7165551758
 10
108.4376348877
 20
286.7165551758
  0
LINE
  5
48C
100
AcDbEntity
  8
02___PRT_ALL_AXES
100
AcDbLine
 62
7
  6
CONTINUOUS
 10
157.4376331676
 20
178.0404354614
 11
57.4376331676
 21
178.0404354614
  0
LINE
  5
48D
100
AcDbEntity
  8
02___PRT_ALL_AXES
100
AcDbLine
 62
7
  6
CONTINUOUS
 10
157.4376331676
 20
179.5404354614
 11
57.4376331676
 21
179.5404354614
  0
LINE
  5
48E
100
AcDbEntity
  8
7_ALL_FEATURES
100
AcDbLine
 62
9
  6
CONTINUOUS
 10
63.1376331676
 20
179.7099192116
 11
62.8876331676
 21
179.7099192116
  0
LINE
  5
48F
100
AcDbEntity
  8
7_ALL_FEATURES
100
AcDbLine
 62
9
  6
CONTINUOUS
 10
151.7376331676
 20
179.7099192116
 11
151.9876331676
 21
179.7099192116
  0
LINE
  5
490
100
AcDbEntity
  8
7_ALL_FEATURES
100
AcDbLine
 62
7
  6
CONTINUOUS
 10
147.8951151693
 20
181.0404354614
 11
147.6415442122
 21
181.0404354614
  0
LINE
  5
491
100
AcDbEntity
  8
7_ALL_FEATURES
100
AcDbLine
 62
7
  6
CONTINUOUS
 10
88.9030128563
 20
181.0404354614
 11
88.359228184
 21
181.0404354614
  0
LINE
  5
492
100
AcDbEntity
  8
02___PRT_ALL_AXES
100
AcDbLine
 62
9
  6
CONTINUOUS
 10
67.0027710317
 20
231.5404354614
 11
67.0027710317
 21
270.4904354614
  0
LINE
  5
493
100
AcDbEntity
  8
02___PRT_ALL_AXES
100
AcDbLine
 62
7
  6
CONTINUOUS
 10
69.2160750051
 20
270.4904354614
 11
69.2160750051
 21
231.5404354614
  0
LINE
  5
494
100
AcDbEntity
  8
02___PRT_ALL_AXES
100
AcDbLine
 62
9
  6
CONTINUOUS
 10
70.2338456927
 20
231.5404354614
 11
70.2338456927
 21
270.4904354614
  0
LINE
  5
495
100
AcDbEntity
  8
02___PRT_ALL_AXES
100
AcDbLine
 62
7
  6
CONTINUOUS
 10
72.0302267139
 20
270.4904354614
 11
72.0302267139
 21
231.5404354614
  0
LINE
  5
496
100
AcDbEntity
  8
02___PRT_ALL_AXES
100
AcDbLine
 62
9
  6
CONTINUOUS
 10
73.1005012809
 20
231.5404354614
 11
73.1005012809
 21
270.4904354614
  0
LWPOLYLINE
  5
497
100
AcDbEntity
  8
0
100
AcDbPolyline
 62
2
  6
CONTINUOUS
 90
2
 70
0
 43
0.1500000036
 10
103.3304910278
 20
284.680847168
 10
105.830489502
 20
289.1808508301
  0
LINE
  5
498
100
AcDbEntity
  8
02___PRT_ALL_AXES
100
AcDbLine
 62
7
  6
CONTINUOUS
 10
152.4876331676
 20
187.5404354614
 11
152.2876331676
 21
187.5404354614
  0
LINE
  5
499
100
AcDbEntity
  8
02___PRT_ALL_AXES
100
AcDbLine
 62
7
  6
CONTINUOUS
 10
62.5876331676
 20
187.5404354614
 11
62.3876331676
 21
187.5404354614
  0
LINE
  5
49A
100
AcDbEntity
  8
02___PRT_ALL_AXES
100
AcDbLine
 62
7
  6
CONTINUOUS
 10
77.777529931
 20
270.4904354614
 11
77.777529931
 21
231.5404354614
  0
LINE
  5
49B
100
AcDbEntity
  8
02___PRT_ALL_AXES
100
AcDbLine
 62
9
  6
CONTINUOUS
 10
78.9894886135
 20
231.5404354614
 11
78.9894886135
 21
270.4904354614
  0
LINE
  5
49C
100
AcDbEntity
  8
02___PRT_ALL_AXES
100
AcDbLine
 62
7
  6
CONTINUOUS
 10
152.4876331676
 20
193.5404354614
 11
152.2876331676
 21
193.5404354614
  0
LINE
  5
49D
100
AcDbEntity
  8
02___PRT_ALL_AXES
100
AcDbLine
 62
7
  6
CONTINUOUS
 10
62.5876331676
 20
193.5404354614
 11
62.3876331676
 21
193.5404354614
  0
LINE
  5
49E
100
AcDbEntity
  8
02___PRT_ALL_AXES
100
AcDbLine
 62
7
  6
CONTINUOUS
 10
82.0889963741
 20
270.4904354614
 11
82.0889963741
 21
231.5404354614
  0
LINE
  5
49F
100
AcDbEntity
  8
02___PRT_ALL_AXES
100
AcDbLine
 62
9
  6
CONTINUOUS
 10
83.3401862352
 20
231.5404354614
 11
83.3401862352
 21
270.4904354614
  0
LWPOLYLINE
  5
4A0
100
AcDbEntity
  8
0
100
AcDbPolyline
 62
2
  6
CONTINUOUS
 90
13
 70
0
 43
0.1500000036
 10
103.0804879761
 20
286.9308618164
 10
103.3304910278
 20
287.6808581543
 10
103.8304907227
 20
288.1808642578
 10
104.5804934692
 20
288.4308544922
 10
105.3304898071
 20
288.1808642578
 10
105.830489502
 20
287.6808581543
 10
106.0804925537
 20
286.9308618164
 10
105.830489502
 20
286.1808654785
 10
105.3304898071
 20
285.680859375
 10
104.5804934692
 20
285.4308435059
 10
103.8304907227
 20
285.680859375
 10
103.3304910278
 20
286.1808654785
 10
103.0804879761
 20
286.9308618164
  0
LINE
  5
4A1
100
AcDbEntity
  8
7_ALL_FEATURES
100
AcDbLine
 62
7
  6
CONTINUOUS
 10
89.5374283072
 20
180.3404354614
 11
89.5374283072
 21
179.5404354614
  0
LINE
  5
4A2
100
AcDbEntity
  8
7_ALL_FEATURES
100
AcDbLine
 62
9
  6
CONTINUOUS
 10
151.9876331676
 20
203.1673184625
 11
151.7376331676
 21
203.1673184625
  0
LINE
  5
4A3
100
AcDbEntity
  8
7_ALL_FEATURES
100
AcDbLine
 62
9
  6
CONTINUOUS
 10
62.8876331676
 20
203.1673184625
 11
63.1376331676
 21
203.1673184625
  0
LINE
  5
4A4
100
AcDbEntity
  8
02___PRT_ALL_AXES
100
AcDbLine
 62
7
  6
CONTINUOUS
 10
89.8324300621
 20
270.4904354614
 11
89.8324300621
 21
231.5404354614
  0
LINE
  5
4A5
100
AcDbEntity
  8
02___PRT_ALL_AXES
100
AcDbLine
 62
9
  6
CONTINUOUS
 10
91.1767834595
 20
231.5404354614
 11
91.1767834595
 21
270.4904354614
  0
LINE
  5
4A6
100
AcDbEntity
  8
02___PRT_ALL_AXES
100
AcDbLine
 62
7
  6
CONTINUOUS
 10
95.1212572532
 20
270.4904354614
 11
95.1212572532
 21
231.5404354614
  0
LINE
  5
4A7
100
AcDbEntity
  8
02___PRT_ALL_AXES
100
AcDbLine
 62
9
  6
CONTINUOUS
 10
96.4867636381
 20
231.5404354614
 11
96.4867636381
 21
270.4904354614
  0
LINE
  5
4A8
100
AcDbEntity
  8
02___PRT_ALL_AXES
100
AcDbLine
 62
9
  6
CONTINUOUS
 10
99.8330379823
 20
231.5404354614
 11
99.8330379823
 21
270.4904354614
  0
LINE
  5
4A9
100
AcDbEntity
  8
02___PRT_ALL_AXES
100
AcDbLine
 62
7
  6
CONTINUOUS
 10
99.9882212072
 20
270.4904354614
 11
99.9882212072
 21
231.5404354614
  0
LINE
  5
4AA
100
AcDbEntity
  8
02___PRT_ALL_AXES
100
AcDbLine
 62
9
  6
CONTINUOUS
 10
102.7201005077
 20
231.5404354614
 11
102.7201005077
 21
270.4904354614
  0
LINE
  5
4AB
100
AcDbEntity
  8
02___PRT_ALL_AXES
100
AcDbLine
 62
7
  6
CONTINUOUS
 10
62.8876331676
 20
187.8404354614
 11
62.5876331676
 21
187.5404354614
  0
LINE
  5
4AC
100
AcDbEntity
  8
7_ALL_FEATURES
100
AcDbLine
 62
7
  6
CONTINUOUS
 10
63.1376331676
 20
217.3198997113
 11
62.8876331676
 21
217.3198997113
  0
LINE
  5
4AD
100
AcDbEntity
  8
7_ALL_FEATURES
100
AcDbLine
 62
7
  6
CONTINUOUS
 10
151.7376331676
 20
217.3198997113
 11
151.9876331676
 21
217.3198997113
  0
LINE
  5
4AE
100
AcDbEntity
  8
02___PRT_ALL_AXES
100
AcDbLine
 62
7
  6
CONTINUOUS
 10
151.9876331676
 20
217.5404354614
 11
151.9376331676
 21
217.5404354614
  0
LINE
  5
4AF
100
AcDbEntity
  8
02___PRT_ALL_AXES
100
AcDbLine
 62
7
  6
CONTINUOUS
 10
62.9376331676
 20
217.5404354614
 11
62.8876331676
 21
217.5404354614
  0
LINE
  5
4B0
100
AcDbEntity
  8
02___PRT_ALL_AXES
100
AcDbLine
 62
7
  6
CONTINUOUS
 10
103.9267241137
 20
270.4904354614
 11
103.9267241137
 21
231.5404354614
  0
LINE
  5
4B1
100
AcDbEntity
  8
02___PRT_ALL_AXES
100
AcDbLine
 62
9
  6
CONTINUOUS
 10
105.3257645859
 20
231.5404354614
 11
105.3257645859
 21
270.4904354614
  0
LINE
  5
4B2
100
AcDbEntity
  8
02___PRT_ALL_AXES
100
AcDbLine
 62
9
  6
CONTINUOUS
 10
105.7300722046
 20
231.5404354614
 11
105.7300722046
 21
270.4904354614
  0
LINE
  5
4B3
100
AcDbEntity
  8
02___PRT_ALL_AXES
100
AcDbLine
 62
9
  6
CONTINUOUS
 10
106.2715327675
 20
231.5404354614
 11
106.2715327675
 21
270.4904354614
  0
LINE
  5
4B4
100
AcDbEntity
  8
02___PRT_ALL_AXES
100
AcDbLine
 62
7
  6
CONTINUOUS
 10
106.4889392669
 20
270.4904354614
 11
106.4889392669
 21
231.5404354614
  0
LINE
  5
4B5
100
AcDbEntity
  8
02___PRT_ALL_AXES
100
AcDbLine
 62
7
  6
CONTINUOUS
 10
108.3927520337
 20
270.4904354614
 11
108.3927520337
 21
231.5404354614
  0
LINE
  5
4B6
100
AcDbEntity
  8
02___PRT_ALL_AXES
100
AcDbLine
 62
9
  6
CONTINUOUS
 10
108.6101585331
 20
231.5404354614
 11
108.6101585331
 21
270.4904354614
  0
LINE
  5
4B7
100
AcDbEntity
  8
02___PRT_ALL_AXES
100
AcDbLine
 62
9
  6
CONTINUOUS
 10
109.151619096
 20
231.5404354614
 11
109.151619096
 21
270.4904354614
  0
LWPOLYLINE
  5
4B8
100
AcDbEntity
  8
0
100
AcDbPolyline
 62
2
  6
CONTINUOUS
 90
13
 70
0
 43
0.1500000036
 10
109.4376342773
 20
286.2879931641
 10
109.4376342773
 20
287.573704834
 10
109.6519152832
 20
288.0022924805
 10
110.0804901123
 20
288.4308544922
 10
110.2947711182
 20
288.4308544922
 10
110.7233459473
 20
288.0022924805
 10
110.9376269531
 20
287.573704834
 10
110.9376269531
 20
286.2879931641
 10
110.7233459473
 20
285.8594311523
 10
110.2947711182
 20
285.4308435059
 10
110.0804901123
 20
285.4308435059
 10
109.6519152832
 20
285.8594311523
 10
109.4376342773
 20
286.2879931641
  0
LINE
  5
4B9
100
AcDbEntity
  8
02___PRT_ALL_AXES
100
AcDbLine
 62
9
  6
CONTINUOUS
 10
109.555926636
 20
231.5404354614
 11
109.555926636
 21
270.4904354614
  0
LINE
  5
4BA
100
AcDbEntity
  8
02___PRT_ALL_AXES
100
AcDbLine
 62
7
  6
CONTINUOUS
 10
110.9549669937
 20
270.4904354614
 11
110.9549669937
 21
231.5404354614
  0
LINE
  5
4BB
100
AcDbEntity
  8
02___PRT_ALL_AXES
100
AcDbLine
 62
9
  6
CONTINUOUS
 10
112.1615906675
 20
231.5404354614
 11
112.1615906675
 21
270.4904354614
  0
LINE
  5
4BC
100
AcDbEntity
  8
02___PRT_ALL_AXES
100
AcDbLine
 62
7
  6
CONTINUOUS
 10
114.8934700934
 20
270.4904354614
 11
114.8934700934
 21
231.5404354614
  0
LINE
  5
4BD
100
AcDbEntity
  8
02___PRT_ALL_AXES
100
AcDbLine
 62
9
  6
CONTINUOUS
 10
115.0486533183
 20
231.5404354614
 11
115.0486533183
 21
270.4904354614
  0
LINE
  5
4BE
100
AcDbEntity
  8
02___PRT_ALL_AXES
100
AcDbLine
 62
7
  6
CONTINUOUS
 10
151.9376331676
 20
231.5404354614
 11
62.9376331676
 21
231.5404354614
  0
LINE
  5
4BF
100
AcDbEntity
  8
02___PRT_ALL_AXES
100
AcDbLine
 62
7
  6
CONTINUOUS
 10
151.9876331676
 20
187.8404354614
 11
152.2876331676
 21
187.5404354614
  0
LINE
  5
4C0
100
AcDbEntity
  8
02___PRT_ALL_AXES
100
AcDbLine
 62
9
  6
CONTINUOUS
 10
118.3949276625
 20
231.5404354614
 11
118.3949276625
 21
270.4904354614
  0
LINE
  5
4C1
100
AcDbEntity
  8
02___PRT_ALL_AXES
100
AcDbLine
 62
7
  6
CONTINUOUS
 10
119.7604425226
 20
270.4904354614
 11
119.7604425226
 21
231.5404354614
  0
LINE
  5
4C2
100
AcDbEntity
  8
02___PRT_ALL_AXES
100
AcDbLine
 62
9
  6
CONTINUOUS
 10
119.809263413
 20
231.5404354614
 11
119.809263413
 21
270.4904354614
  0
LINE
  5
4C3
100
AcDbEntity
  8
02___PRT_ALL_AXES
100
AcDbLine
 62
9
  6
CONTINUOUS
 10
120.6864179863
 20
231.5404354614
 11
120.6864179863
 21
270.4904354614
  0
LINE
  5
4C4
100
AcDbEntity
  8
02___PRT_ALL_AXES
100
AcDbLine
 62
9
  6
CONTINUOUS
 10
123.7049078411
 20
231.5404354614
 11
123.7049078411
 21
270.4904354614
  0
LINE
  5
4C5
100
AcDbEntity
  8
02___PRT_ALL_AXES
100
AcDbLine
 62
7
  6
CONTINUOUS
 10
125.0492579205
 20
270.4904354614
 11
125.0492579205
 21
231.5404354614
  0
LINE
  5
4C6
100
AcDbEntity
  8
02___PRT_ALL_AXES
100
AcDbLine
 62
9
  6
CONTINUOUS
 10
131.5415050654
 20
231.5404354614
 11
131.5415050654
 21
270.4904354614
  0
LINE
  5
4C7
100
AcDbEntity
  8
02___PRT_ALL_AXES
100
AcDbLine
 62
7
  6
CONTINUOUS
 10
132.7926661852
 20
270.4904354614
 11
132.7926661852
 21
231.5404354614
  0
LINE
  5
4C8
100
AcDbEntity
  8
02___PRT_ALL_AXES
100
AcDbLine
 62
9
  6
CONTINUOUS
 10
135.892203114
 20
231.5404354614
 11
135.892203114
 21
270.4904354614
  0
LINE
  5
4C9
100
AcDbEntity
  8
02___PRT_ALL_AXES
100
AcDbLine
 62
7
  6
CONTINUOUS
 10
137.1041466753
 20
270.4904354614
 11
137.1041466753
 21
231.5404354614
  0
LINE
  5
4CA
100
AcDbEntity
  8
02___PRT_ALL_AXES
100
AcDbLine
 62
7
  6
CONTINUOUS
 10
141.7811900197
 20
231.5404354614
 11
141.7811900197
 21
270.4904354614
  0
LINE
  5
4CB
100
AcDbEntity
  8
02___PRT_ALL_AXES
100
AcDbLine
 62
7
  6
CONTINUOUS
 10
142.8515164692
 20
270.4904354614
 11
142.8515164692
 21
231.5404354614
  0
LINE
  5
4CC
100
AcDbEntity
  8
02___PRT_ALL_AXES
100
AcDbLine
 62
9
  6
CONTINUOUS
 10
144.6478447794
 20
231.5404354614
 11
144.6478447794
 21
270.4904354614
  0
LINE
  5
4CD
100
AcDbEntity
  8
02___PRT_ALL_AXES
100
AcDbLine
 62
7
  6
CONTINUOUS
 10
145.6656697587
 20
270.4904354614
 11
145.6656697587
 21
231.5404354614
  0
LINE
  5
4CE
100
AcDbEntity
  8
7_ALL_FEATURES
100
AcDbLine
 62
7
  6
CONTINUOUS
 10
147.345711429
 20
180.3404354614
 11
147.345711429
 21
179.5404354614
  0
LINE
  5
4CF
100
AcDbEntity
  8
02___PRT_ALL_AXES
100
AcDbLine
 62
9
  6
CONTINUOUS
 10
147.8789202689
 20
231.5404354614
 11
147.8789202689
 21
270.4904354614
  0
LINE
  5
4D0
100
AcDbEntity
  8
02___PRT_ALL_AXES
100
AcDbLine
 62
7
  6
CONTINUOUS
 10
148.7237475774
 20
270.4904354614
 11
148.7237475774
 21
231.5404354614
  0
LINE
  5
4D1
100
AcDbEntity
  8
02___PRT_ALL_AXES
100
AcDbLine
 62
9
  6
CONTINUOUS
 10
148.915773233
 20
231.5404354614
 11
148.915773233
 21
270.4904354614
  0
LINE
  5
4D2
100
AcDbEntity
  8
02___PRT_ALL_AXES
100
AcDbLine
 62
7
  6
CONTINUOUS
 10
149.7010709911
 20
270.4904354614
 11
149.7010709911
 21
231.5404354614
  0
LINE
  5
4D3
100
AcDbEntity
  8
7_ALL_FEATURES
100
AcDbLine
 62
7
  6
CONTINUOUS
 10
151.7376331676
 20
179.5404354614
 11
151.7376331676
 21
217.3194368102
  0
LINE
  5
4D4
100
AcDbEntity
  8
02___PRT_ALL_AXES
100
AcDbLine
 62
7
  6
CONTINUOUS
 10
151.9376331676
 20
231.5404354614
 11
151.9376331676
 21
217.5404354614
  0
LINE
  5
4D5
100
AcDbEntity
  8
02___PRT_ALL_AXES
100
AcDbLine
 62
7
  6
CONTINUOUS
 10
151.9876331676
 20
217.5404354614
 11
151.9876331676
 21
217.3198997113
  0
LINE
  5
4D6
100
AcDbEntity
  8
7_ALL_FEATURES
100
AcDbLine
 62
3
  6
CONTINUOUS
 10
151.9876331676
 20
217.3194368102
 11
151.9876331676
 21
179.5404354614
  0
LINE
  5
4D7
100
AcDbEntity
  8
02___PRT_ALL_AXES
100
AcDbLine
 62
7
  6
CONTINUOUS
 10
152.2876331676
 20
193.5404354614
 11
152.2876331676
 21
187.5404354614
  0
LINE
  5
4D8
100
AcDbEntity
  8
02___PRT_ALL_AXES
100
AcDbLine
 62
7
  6
CONTINUOUS
 10
152.4876331676
 20
193.5404354614
 11
152.4876331676
 21
187.5404354614
  0
LINE
  5
4D9
100
AcDbEntity
  8
02___PRT_ALL_AXES
100
AcDbLine
 62
7
  6
CONTINUOUS
 10
157.4376331676
 20
179.5404354614
 11
157.4376331676
 21
178.0404354614
  0
LINE
  5
4DA
100
AcDbEntity
  8
02___PRT_ALL_AXES
100
AcDbLine
 62
7
  6
CONTINUOUS
 10
149.7007992802
 20
270.4904354614
 11
119.7604425226
 21
270.4904354614
  0
LINE
  5
4DB
100
AcDbEntity
  8
02___PRT_ALL_AXES
100
AcDbLine
 62
7
  6
CONTINUOUS
 10
119.7601017899
 20
270.4904354614
 11
65.1808812514
 21
270.4904354614
  0
LINE
  5
4DC
100
AcDbEntity
  8
02___PRT_ALL_AXES
100
AcDbLine
 62
7
  6
CONTINUOUS
 10
152.2876331676
 20
193.5404354614
 11
151.9876331676
 21
193.2404354614
  0
LINE
  5
4DD
100
AcDbEntity
  8
02___PRT_ALL_AXES
100
AcDbLine
 62
7
  6
CONTINUOUS
 10
229.6807434135
 20
179.5404354614
 11
229.6807434135
 21
178.0404354614
  0
LINE
  5
4DE
100
AcDbEntity
  8
02___PRT_ALL_AXES
100
AcDbLine
 62
7
  6
CONTINUOUS
 10
329.6807434135
 20
178.0404354614
 11
229.6807434135
 21
178.0404354614
  0
LINE
  5
4DF
100
AcDbEntity
  8
02___PRT_ALL_AXES
100
AcDbLine
 62
7
  6
CONTINUOUS
 10
235.1807434135
 20
231.5404354614
 11
235.1807434135
 21
215.0317186796
  0
LINE
  5
4E0
100
AcDbEntity
  8
02___PRT_ALL_AXES
100
AcDbLine
 62
7
  6
CONTINUOUS
 10
235.1807434135
 20
197.1999987054
 11
235.1807434135
 21
179.5404354614
  0
LINE
  5
4E1
100
AcDbEntity
  8
02___PRT_ALL_AXES
100
AcDbLine
 62
7
  6
CONTINUOUS
 10
237.2689494479
 20
270.4904354614
 11
237.2689494479
 21
231.5404354614
  0
LINE
  5
4E2
100
AcDbEntity
  8
02___PRT_ALL_AXES
100
AcDbLine
 62
9
  6
CONTINUOUS
 10
238.0270842188
 20
231.5404354614
 11
238.0270842188
 21
270.4904354614
  0
LINE
  5
4E3
100
AcDbEntity
  8
02___PRT_ALL_AXES
100
AcDbLine
 62
7
  6
CONTINUOUS
 10
238.2178198597
 20
270.4904354614
 11
238.2178198597
 21
231.5404354614
  0
LINE
  5
4E4
100
AcDbEntity
  8
02___PRT_ALL_AXES
100
AcDbLine
 62
9
  6
CONTINUOUS
 10
239.054068523
 20
231.5404354614
 11
239.054068523
 21
270.4904354614
  0
LINE
  5
4E5
100
AcDbEntity
  8
02___PRT_ALL_AXES
100
AcDbLine
 62
7
  6
CONTINUOUS
 10
329.6807434135
 20
179.5404354614
 11
229.6807434135
 21
179.5404354614
  0
LINE
  5
4E6
100
AcDbEntity
  8
7_ALL_FEATURES
100
AcDbLine
 62
7
  6
CONTINUOUS
 10
320.1382254151
 20
181.0404354614
 11
319.8846544581
 21
181.0404354614
  0
LINE
  5
4E7
100
AcDbEntity
  8
7_ALL_FEATURES
100
AcDbLine
 62
7
  6
CONTINUOUS
 10
261.1461231021
 20
181.0404354614
 11
260.6023384299
 21
181.0404354614
  0
LINE
  5
4E8
100
AcDbEntity
  8
7_ALL_FEATURES
100
AcDbLine
 62
3
  6
CONTINUOUS
 10
223.7176288142
 20
203.1673184625
 11
268.7788735204
 21
179.7099192116
  0
LINE
  5
4E9
100
AcDbEntity
  8
02___PRT_ALL_AXES
100
AcDbLine
 62
7
  6
CONTINUOUS
 10
239.7564880684
 20
270.4904354614
 11
239.7564880684
 21
231.5404354614
  0
LINE
  5
4EA
100
AcDbEntity
  8
02___PRT_ALL_AXES
100
AcDbLine
 62
7
  6
CONTINUOUS
 10
240.705592983
 20
270.4904354614
 11
240.705592983
 21
231.5404354614
  0
LINE
  5
4EB
100
AcDbEntity
  8
02___PRT_ALL_AXES
100
AcDbLine
 62
9
  6
CONTINUOUS
 10
241.8045509332
 20
231.5404354614
 11
241.8045509332
 21
270.4904354614
  0
LINE
  5
4EC
100
AcDbEntity
  8
02___PRT_ALL_AXES
100
AcDbLine
 62
7
  6
CONTINUOUS
 10
245.2238516088
 20
270.4904354614
 11
245.2238516088
 21
231.5404354614
  0
LINE
  5
4ED
100
AcDbEntity
  8
02___PRT_ALL_AXES
100
AcDbLine
 62
9
  6
CONTINUOUS
 10
246.345122125
 20
231.5404354614
 11
246.345122125
 21
270.4904354614
  0
LINE
  5
4EE
100
AcDbEntity
  8
02___PRT_ALL_AXES
100
AcDbLine
 62
7
  6
CONTINUOUS
 10
248.8416210006
 20
270.4904354614
 11
248.8416210006
 21
231.5404354614
  0
LINE
  5
4EF
100
AcDbEntity
  8
7_ALL_FEATURES
100
AcDbLine
 62
3
  6
CONTINUOUS
 10
252.3472944024
 20
209.226318632
 11
252.1807434135
 21
211.1300051468
  0
LINE
  5
4F0
100
AcDbEntity
  8
02___PRT_ALL_AXES
100
AcDbLine
 62
9
  6
CONTINUOUS
 10
250.0094674253
 20
231.5404354614
 11
250.0094674253
 21
270.4904354614
  0
LINE
  5
4F1
100
AcDbEntity
  8
7_ALL_FEATURES
100
AcDbLine
 62
7
  6
CONTINUOUS
 10
278.6807434135
 20
189.9630851922
 11
279.6807434135
 21
189.385734923
  0
LINE
  5
4F2
100
AcDbEntity
  8
7_ALL_FEATURES
100
AcDbLine
 62
7
  6
CONTINUOUS
 10
280.6807434135
 20
191.1177857306
 11
279.6807434135
 21
191.6951359997
  0
LINE
  5
4F3
100
AcDbEntity
  8
02___PRT_ALL_AXES
100
AcDbLine
 62
7
  6
CONTINUOUS
 10
255.6910706359
 20
270.4904354614
 11
255.6910706359
 21
231.5404354614
  0
LINE
  5
4F4
100
AcDbEntity
  8
02___PRT_ALL_AXES
100
AcDbLine
 62
9
  6
CONTINUOUS
 10
256.978129568
 20
231.5404354614
 11
256.978129568
 21
270.4904354614
  0
LINE
  5
4F5
100
AcDbEntity
  8
7_ALL_FEATURES
100
AcDbLine
 62
3
  6
CONTINUOUS
 10
288.476866136
 20
199.2404354614
 11
270.884620691
 21
199.2404354614
  0
LINE
  5
4F6
100
AcDbEntity
  8
7_ALL_FEATURES
100
AcDbLine
 62
3
  6
CONTINUOUS
 10
267.0905363794
 20
204.2404354614
 11
252.3472944024
 21
209.226318632
  0
LINE
  5
4F7
100
AcDbEntity
  8
7_ALL_FEATURES
100
AcDbLine
 62
3
  6
CONTINUOUS
 10
246.718098937
 20
211.1300051468
 11
229.5834258609
 21
216.9246246924
  0
LINE
  5
4F8
100
AcDbEntity
  8
02___PRT_ALL_AXES
100
AcDbLine
 62
7
  6
CONTINUOUS
 10
260.5652460534
 20
270.4904354614
 11
260.5652460534
 21
231.5404354614
  0
LINE
  5
4F9
100
AcDbEntity
  8
7_ALL_FEATURES
100
AcDbLine
 62
7
  6
CONTINUOUS
 10
261.7805385531
 20
180.3404354614
 11
261.7805385531
 21
179.5404354614
  0
LINE
  5
4FA
100
AcDbEntity
  8
02___PRT_ALL_AXES
100
AcDbLine
 62
9
  6
CONTINUOUS
 10
261.8829846107
 20
231.5404354614
 11
261.8829846107
 21
270.4904354614
  0
LINE
  5
4FB
100
AcDbEntity
  8
7_ALL_FEATURES
100
AcDbLine
 62
3
  6
CONTINUOUS
 10
269.4201766803
 20
200.4157760405
 11
269.0583514218
 21
202.0478643107
  0
LINE
  5
4FC
100
AcDbEntity
  8
02___PRT_ALL_AXES
100
AcDbLine
 62
9
  6
CONTINUOUS
 10
266.960492948
 20
231.5404354614
 11
266.960492948
 21
270.4904354614
  0
LINE
  5
4FD
100
AcDbEntity
  8
02___PRT_ALL_AXES
100
AcDbLine
 62
7
  6
CONTINUOUS
 10
267.3307434135
 20
270.4904354614
 11
267.3307434135
 21
231.5404354614
  0
LINE
  5
4FE
100
AcDbEntity
  8
02___PRT_ALL_AXES
100
AcDbLine
 62
9
  6
CONTINUOUS
 10
267.3578770556
 20
231.5404354614
 11
267.3578770556
 21
270.4904354614
  0
LINE
  5
4FF
100
AcDbEntity
  8
02___PRT_ALL_AXES
100
AcDbLine
 62
7
  6
CONTINUOUS
 10
268.9673479405
 20
270.4904354614
 11
268.9673479405
 21
231.5404354614
  0
LINE
  5
500
100
AcDbEntity
  8
7_ALL_FEATURES
100
AcDbLine
 62
3
  6
CONTINUOUS
 10
312.64338789
 20
211.1300051468
 11
307.1807434135
 21
211.1300051468
  0
LINE
  5
501
100
AcDbEntity
  8
7_ALL_FEATURES
100
AcDbLine
 62
3
  6
CONTINUOUS
 10
252.1807434135
 20
211.1300051468
 11
246.718098937
 21
211.1300051468
  0
LINE
  5
502
100
AcDbEntity
  8
02___PRT_ALL_AXES
100
AcDbLine
 62
9
  6
CONTINUOUS
 10
270.3494080999
 20
231.5404354614
 11
270.3494080999
 21
270.4904354614
  0
LINE
  5
503
100
AcDbEntity
  8
02___PRT_ALL_AXES
100
AcDbLine
 62
9
  6
CONTINUOUS
 10
272.0872075953
 20
231.5404354614
 11
272.0872075953
 21
270.4904354614
  0
LINE
  5
504
100
AcDbEntity
  8
02___PRT_ALL_AXES
100
AcDbLine
 62
9
  6
CONTINUOUS
 10
272.8074574325
 20
231.5404354614
 11
272.8074574325
 21
270.4904354614
  0
LINE
  5
505
100
AcDbEntity
  8
02___PRT_ALL_AXES
100
AcDbLine
 62
7
  6
CONTINUOUS
 10
273.1109353298
 20
270.4904354614
 11
273.1109353298
 21
231.5404354614
  0
LINE
  5
506
100
AcDbEntity
  8
02___PRT_ALL_AXES
100
AcDbLine
 62
7
  6
CONTINUOUS
 10
274.5100878069
 20
270.4904354614
 11
274.5100878069
 21
231.5404354614
  0
LINE
  5
507
100
AcDbEntity
  8
7_ALL_FEATURES
100
AcDbLine
 62
7
  6
CONTINUOUS
 10
278.6807434135
 20
213.9630851922
 11
279.6807434135
 21
213.385734923
  0
LINE
  5
508
100
AcDbEntity
  8
7_ALL_FEATURES
100
AcDbLine
 62
7
  6
CONTINUOUS
 10
280.6807434135
 20
215.1177857306
 11
279.6807434135
 21
215.6951359997
  0
LINE
  5
509
100
AcDbEntity
  8
02___PRT_ALL_AXES
100
AcDbLine
 62
9
  6
CONTINUOUS
 10
275.9031726238
 20
231.5404354614
 11
275.9031726238
 21
270.4904354614
  0
LINE
  5
50A
100
AcDbEntity
  8
02___PRT_ALL_AXES
100
AcDbLine
 62
9
  6
CONTINUOUS
 10
277.4165379293
 20
231.5404354614
 11
277.4165379293
 21
270.4904354614
  0
LINE
  5
50B
100
AcDbEntity
  8
02___PRT_ALL_AXES
100
AcDbLine
 62
7
  6
CONTINUOUS
 10
277.4476499058
 20
270.4904354614
 11
277.4476499058
 21
231.5404354614
  0
LINE
  5
50C
100
AcDbEntity
  8
02___PRT_ALL_AXES
100
AcDbLine
 62
9
  6
CONTINUOUS
 10
278.4157873031
 20
231.5404354614
 11
278.4157873031
 21
270.4904354614
  0
LINE
  5
50D
100
AcDbEntity
  8
7_ALL_FEATURES
100
AcDbLine
 62
7
  6
CONTINUOUS
 10
278.6807434135
 20
215.1177857306
 11
278.6807434135
 21
213.9630851922
  0
LINE
  5
50E
100
AcDbEntity
  8
7_ALL_FEATURES
100
AcDbLine
 62
7
  6
CONTINUOUS
 10
278.6807434135
 20
191.1177857306
 11
278.6807434135
 21
189.9630851922
  0
LINE
  5
50F
100
AcDbEntity
  8
02___PRT_ALL_AXES
100
AcDbLine
 62
7
  6
CONTINUOUS
 10
278.8597403524
 20
270.4904354614
 11
278.8597403524
 21
231.5404354614
  0
LINE
  5
510
100
AcDbEntity
  8
02___PRT_ALL_AXES
100
AcDbLine
 62
7
  6
CONTINUOUS
 10
280.5017464746
 20
270.4904354614
 11
280.5017464746
 21
231.5404354614
  0
LINE
  5
511
100
AcDbEntity
  8
7_ALL_FEATURES
100
AcDbLine
 62
7
  6
CONTINUOUS
 10
280.6807434135
 20
189.9630851922
 11
280.6807434135
 21
191.1177857306
  0
LINE
  5
512
100
AcDbEntity
  8
7_ALL_FEATURES
100
AcDbLine
 62
7
  6
CONTINUOUS
 10
280.6807434135
 20
213.9630851922
 11
280.6807434135
 21
215.1177857306
  0
LINE
  5
513
100
AcDbEntity
  8
02___PRT_ALL_AXES
100
AcDbLine
 62
9
  6
CONTINUOUS
 10
280.9456995239
 20
231.5404354614
 11
280.9456995239
 21
270.4904354614
  0
LINE
  5
514
100
AcDbEntity
  8
02___PRT_ALL_AXES
100
AcDbLine
 62
7
  6
CONTINUOUS
 10
281.9138369212
 20
270.4904354614
 11
281.9138369212
 21
231.5404354614
  0
LINE
  5
515
100
AcDbEntity
  8
02___PRT_ALL_AXES
100
AcDbLine
 62
9
  6
CONTINUOUS
 10
281.9449488977
 20
231.5404354614
 11
281.9449488977
 21
270.4904354614
  0
LINE
  5
516
100
AcDbEntity
  8
02___PRT_ALL_AXES
100
AcDbLine
 62
9
  6
CONTINUOUS
 10
283.4583142032
 20
231.5404354614
 11
283.4583142032
 21
270.4904354614
  0
LINE
  5
517
100
AcDbEntity
  8
02___PRT_ALL_AXES
100
AcDbLine
 62
7
  6
CONTINUOUS
 10
284.8514003439
 20
270.4904354614
 11
284.8514003439
 21
231.5404354614
  0
LINE
  5
518
100
AcDbEntity
  8
02___PRT_ALL_AXES
100
AcDbLine
 62
9
  6
CONTINUOUS
 10
286.5741104544
 20
231.5404354614
 11
286.5741104544
 21
270.4904354614
  0
LINE
  5
519
100
AcDbEntity
  8
02___PRT_ALL_AXES
100
AcDbLine
 62
9
  6
CONTINUOUS
 10
289.012078956
 20
231.5404354614
 11
289.012078956
 21
270.4904354614
  0
LINE
  5
51A
100
AcDbEntity
  8
02___PRT_ALL_AXES
100
AcDbLine
 62
7
  6
CONTINUOUS
 10
290.3941381004
 20
270.4904354614
 11
290.3941381004
 21
231.5404354614
  0
LINE
  5
51B
100
AcDbEntity
  8
7_ALL_FEATURES
100
AcDbLine
 62
7
  6
CONTINUOUS
 10
279.6807434135
 20
215.6951359997
 11
278.6807434135
 21
215.1177857306
  0
LINE
  5
51C
100
AcDbEntity
  8
7_ALL_FEATURES
100
AcDbLine
 62
7
  6
CONTINUOUS
 10
279.6807434135
 20
213.385734923
 11
280.6807434135
 21
213.9630851922
  0
LINE
  5
51D
100
AcDbEntity
  8
02___PRT_ALL_AXES
100
AcDbLine
 62
7
  6
CONTINUOUS
 10
324.1807434135
 20
231.5404354614
 11
235.1807434135
 21
231.5404354614
  0
LINE
  5
51E
100
AcDbEntity
  8
02___PRT_ALL_AXES
100
AcDbLine
 62
9
  6
CONTINUOUS
 10
292.0036097714
 20
231.5404354614
 11
292.0036097714
 21
270.4904354614
  0
LINE
  5
51F
100
AcDbEntity
  8
02___PRT_ALL_AXES
100
AcDbLine
 62
7
  6
CONTINUOUS
 10
292.0307434135
 20
270.4904354614
 11
292.0307434135
 21
231.5404354614
  0
LINE
  5
520
100
AcDbEntity
  8
02___PRT_ALL_AXES
100
AcDbLine
 62
9
  6
CONTINUOUS
 10
292.400993879
 20
231.5404354614
 11
292.400993879
 21
270.4904354614
  0
LINE
  5
521
100
AcDbEntity
  8
7_ALL_FEATURES
100
AcDbLine
 62
3
  6
CONTINUOUS
 10
290.3031354051
 20
202.0478643107
 11
289.9413101467
 21
200.4157760405
  0
LINE
  5
522
100
AcDbEntity
  8
02___PRT_ALL_AXES
100
AcDbLine
 62
9
  6
CONTINUOUS
 10
297.4785022163
 20
231.5404354614
 11
297.4785022163
 21
270.4904354614
  0
LINE
  5
523
100
AcDbEntity
  8
02___PRT_ALL_AXES
100
AcDbLine
 62
7
  6
CONTINUOUS
 10
298.7962130178
 20
270.4904354614
 11
298.7962130178
 21
231.5404354614
  0
LINE
  5
524
100
AcDbEntity
  8
02___PRT_ALL_AXES
100
AcDbLine
 62
9
  6
CONTINUOUS
 10
302.3833569529
 20
231.5404354614
 11
302.3833569529
 21
270.4904354614
  0
LINE
  5
525
100
AcDbEntity
  8
02___PRT_ALL_AXES
100
AcDbLine
 62
7
  6
CONTINUOUS
 10
303.6703926543
 20
270.4904354614
 11
303.6703926543
 21
231.5404354614
  0
LINE
  5
526
100
AcDbEntity
  8
7_ALL_FEATURES
100
AcDbLine
 62
3
  6
CONTINUOUS
 10
329.7780609661
 20
216.9246246924
 11
312.64338789
 21
211.1300051468
  0
LINE
  5
527
100
AcDbEntity
  8
7_ALL_FEATURES
100
AcDbLine
 62
3
  6
CONTINUOUS
 10
307.0141924245
 20
209.226318632
 11
292.2709504476
 21
204.2404354614
  0
LINE
  5
528
100
AcDbEntity
  8
02___PRT_ALL_AXES
100
AcDbLine
 62
9
  6
CONTINUOUS
 10
309.3520194017
 20
231.5404354614
 11
309.3520194017
 21
270.4904354614
  0
LINE
  5
529
100
AcDbEntity
  8
02___PRT_ALL_AXES
100
AcDbLine
 62
7
  6
CONTINUOUS
 10
310.5198820163
 20
270.4904354614
 11
310.5198820163
 21
231.5404354614
  0
LINE
  5
52A
100
AcDbEntity
  8
7_ALL_FEATURES
100
AcDbLine
 62
3
  6
CONTINUOUS
 10
307.1807434135
 20
211.1300051468
 11
307.0141924245
 21
209.226318632
  0
LINE
  5
52B
100
AcDbEntity
  8
7_ALL_FEATURES
100
AcDbLine
 62
7
  6
CONTINUOUS
 10
279.6807434135
 20
191.6951359997
 11
278.6807434135
 21
191.1177857306
  0
LINE
  5
52C
100
AcDbEntity
  8
7_ALL_FEATURES
100
AcDbLine
 62
7
  6
CONTINUOUS
 10
279.6807434135
 20
189.385734923
 11
280.6807434135
 21
189.9630851922
  0
LINE
  5
52D
100
AcDbEntity
  8
02___PRT_ALL_AXES
100
AcDbLine
 62
9
  6
CONTINUOUS
 10
313.016364702
 20
231.5404354614
 11
313.016364702
 21
270.4904354614
  0
LINE
  5
52E
100
AcDbEntity
  8
02___PRT_ALL_AXES
100
AcDbLine
 62
7
  6
CONTINUOUS
 10
314.1376733564
 20
270.4904354614
 11
314.1376733564
 21
231.5404354614
  0
LINE
  5
52F
100
AcDbEntity
  8
02___PRT_ALL_AXES
100
AcDbLine
 62
9
  6
CONTINUOUS
 10
317.646741467
 20
231.5404354614
 11
317.646741467
 21
270.4904354614
  0
LINE
  5
530
100
AcDbEntity
  8
02___PRT_ALL_AXES
100
AcDbLine
 62
7
  6
CONTINUOUS
 10
318.6082921486
 20
270.4904354614
 11
318.6082921486
 21
231.5404354614
  0
LINE
  5
531
100
AcDbEntity
  8
7_ALL_FEATURES
100
AcDbLine
 62
7
  6
CONTINUOUS
 10
319.5888216749
 20
180.3404354614
 11
319.5888216749
 21
179.5404354614
  0
LINE
  5
532
100
AcDbEntity
  8
02___PRT_ALL_AXES
100
AcDbLine
 62
9
  6
CONTINUOUS
 10
319.6286045423
 20
231.5404354614
 11
319.6286045423
 21
270.4904354614
  0
LINE
  5
533
100
AcDbEntity
  8
02___PRT_ALL_AXES
100
AcDbLine
 62
7
  6
CONTINUOUS
 10
320.5332370122
 20
270.4904354614
 11
320.5332370122
 21
231.5404354614
  0
LINE
  5
534
100
AcDbEntity
  8
02___PRT_ALL_AXES
100
AcDbLine
 62
9
  6
CONTINUOUS
 10
321.3622044497
 20
231.5404354614
 11
321.3622044497
 21
270.4904354614
  0
LINE
  5
535
100
AcDbEntity
  8
02___PRT_ALL_AXES
100
AcDbLine
 62
7
  6
CONTINUOUS
 10
322.0859039511
 20
270.4904354614
 11
322.0859039511
 21
231.5404354614
  0
LINE
  5
536
100
AcDbEntity
  8
02___PRT_ALL_AXES
100
AcDbLine
 62
7
  6
CONTINUOUS
 10
324.1807434135
 20
231.5404354614
 11
324.1807434135
 21
215.0317186796
  0
LINE
  5
537
100
AcDbEntity
  8
02___PRT_ALL_AXES
100
AcDbLine
 62
7
  6
CONTINUOUS
 10
324.1807434135
 20
197.1999987054
 11
324.1807434135
 21
179.5404354614
  0
LINE
  5
538
100
AcDbEntity
  8
7_ALL_FEATURES
100
AcDbLine
 62
3
  6
CONTINUOUS
 10
290.5826133066
 20
179.7099192116
 11
335.6438580128
 21
203.1673184625
  0
LINE
  5
539
100
AcDbEntity
  8
02___PRT_ALL_AXES
100
AcDbLine
 62
7
  6
CONTINUOUS
 10
329.6807434135
 20
179.5404354614
 11
329.6807434135
 21
178.0404354614
  0
LINE
  5
53A
100
AcDbEntity
  8
02___PRT_ALL_AXES
100
AcDbLine
 62
7
  6
CONTINUOUS
 10
322.0853116608
 20
270.4904354614
 11
292.03102592
 21
270.4904354614
  0
LINE
  5
53B
100
AcDbEntity
  8
02___PRT_ALL_AXES
100
AcDbLine
 62
7
  6
CONTINUOUS
 10
292.0307434135
 20
270.4904354614
 11
280.5026277953
 21
270.4904354614
  0
LINE
  5
53C
100
AcDbEntity
  8
02___PRT_ALL_AXES
100
AcDbLine
 62
7
  6
CONTINUOUS
 10
280.5017464746
 20
270.4904354614
 11
278.8597403524
 21
270.4904354614
  0
LINE
  5
53D
100
AcDbEntity
  8
02___PRT_ALL_AXES
100
AcDbLine
 62
7
  6
CONTINUOUS
 10
278.8588590317
 20
270.4904354614
 11
273.1577832184
 21
270.4904354614
  0
LINE
  5
53E
100
AcDbEntity
  8
02___PRT_ALL_AXES
100
AcDbLine
 62
7
  6
CONTINUOUS
 10
273.1108375205
 20
270.4904354614
 11
267.3307434135
 21
270.4904354614
  0
LINE
  5
53F
100
AcDbEntity
  8
02___PRT_ALL_AXES
100
AcDbLine
 62
7
  6
CONTINUOUS
 10
267.3304609069
 20
270.4904354614
 11
237.2696263686
 21
270.4904354614
  0
LWPOLYLINE
  5
540
100
AcDbEntity
  8
0
100
AcDbPolyline
 62
2
  6
CONTINUOUS
 90
10
 70
0
 43
0.1500000036
 10
352.5820019531
 20
222.3368664551
 10
351.7248522949
 20
223.1940161133
 10
350.8677282715
 20
223.4082971191
 10
350.0105786133
 20
223.4082971191
 10
349.5820166016
 20
222.9797094727
 10
349.5820166016
 20
222.3368664551
 10
350.0105786133
 20
221.9083044434
 10
350.8677282715
 20
221.9083044434
 10
351.2962902832
 20
222.3368664551
 10
351.2962902832
 20
223.2654345703
  0
LWPOLYLINE
  5
541
100
AcDbEntity
  8
0
100
AcDbPolyline
 62
2
  6
CONTINUOUS
 90
7
 70
0
 43
0.1500000036
 10
352.5820019531
 20
225.7654394531
 10
352.5820019531
 20
224.2654467773
 10
350.439140625
 20
225.7654394531
 10
350.0105786133
 20
225.7654394531
 10
349.5820166016
 20
225.3368518066
 10
349.5820166016
 20
224.6940087891
 10
350.2248596191
 20
224.2654467773
  0
ARC
  5
542
100
AcDbEntity
  8
02___PRT_ALL_AXES
100
AcDbCircle
 62
7
  6
CONTINUOUS
 10
85.6811893746
 20
54.7846884502
 40
1.5
100
AcDbArc
 50
323.0000421665
 51
10.3827577646
  0
ARC
  5
543
100
AcDbEntity
  8
02___PRT_ALL_AXES
100
AcDbCircle
 62
7
  6
CONTINUOUS
 10
85.3551166652
 20
55.0582963044
 40
1.5
100
AcDbArc
 50
89.6172589352
 51
136.9999733351
  0
ARC
  5
544
100
AcDbEntity
  8
02___PRT_ALL_AXES
100
AcDbCircle
 62
7
  6
CONTINUOUS
 10
82.7889963741
 20
47.291010398
 40
0.7
100
AcDbArc
 50
142.996091166
 51
321.9445063613
  0
ARC
  5
545
100
AcDbEntity
  8
02___PRT_ALL_AXES
100
AcDbCircle
 62
7
  6
CONTINUOUS
 10
78.477529931
 20
50.9088017381
 40
0.7
100
AcDbArc
 50
138.0581621213
 51
317.00133116
  0
ARC
  5
546
100
AcDbEntity
  8
02___PRT_ALL_AXES
100
AcDbCircle
 62
7
  6
CONTINUOUS
 10
72.7302267139
 20
57.7582911001
 40
0.7
100
AcDbArc
 50
123.0050636781
 51
301.9354607037
  0
ARC
  5
547
100
AcDbEntity
  8
02___PRT_ALL_AXES
100
AcDbCircle
 62
7
  6
CONTINUOUS
 10
85.3691449284
 20
57.1582494486
 40
0.6
100
AcDbArc
 50
269.6172422354
 51
3.7953066233
  0
ARC
  5
548
100
AcDbEntity
  8
02___PRT_ALL_AXES
100
AcDbCircle
 62
7
  6
CONTINUOUS
 10
80.594058133
 20
65.5479403409
 40
3.15
100
AcDbArc
 50
301.9405713027
 51
350.4603974512
  0
ARC
  5
549
100
AcDbEntity
  8
02___PRT_ALL_AXES
100
AcDbCircle
 62
7
  6
CONTINUOUS
 10
80.594058133
 20
65.5479403409
 40
3.15
100
AcDbArc
 50
69.5396025488
 51
118.0594286973
  0
ARC
  5
54A
100
AcDbEntity
  8
02___PRT_ALL_AXES
100
AcDbCircle
 62
7
  6
CONTINUOUS
 10
76.9118053069
 20
75.6648468332
 40
3.15
100
AcDbArc
 50
281.9405713027
 51
330.4603974513
  0
ARC
  5
54B
100
AcDbEntity
  8
02___PRT_ALL_AXES
100
AcDbCircle
 62
7
  6
CONTINUOUS
 10
76.9118053069
 20
75.6648468332
 40
3.15
100
AcDbArc
 50
49.5396025488
 51
98.0594286973
  0
ARC
  5
54C
100
AcDbEntity
  8
02___PRT_ALL_AXES
100
AcDbCircle
 62
7
  6
CONTINUOUS
 10
86.6590115412
 20
64.5287052571
 40
3.0
100
AcDbArc
 50
119.5000208763
 51
170.4603974511
  0
ARC
  5
54D
100
AcDbEntity
  8
02___PRT_ALL_AXES
100
AcDbCircle
 62
7
  6
CONTINUOUS
 10
82.7438516197
 20
71.309961511
 40
3.0
100
AcDbArc
 50
249.5395972974
 51
300.4999982451
  0
ARC
  5
54E
100
AcDbEntity
  8
02___PRT_ALL_AXES
100
AcDbCircle
 62
7
  6
CONTINUOUS
 10
82.2623983406
 20
72.6327429121
 40
3.0
100
AcDbArc
 50
99.4999742537
 51
150.4603974511
  0
ARC
  5
54F
100
AcDbEntity
  8
02___PRT_ALL_AXES
100
AcDbCircle
 62
7
  6
CONTINUOUS
 10
80.9026773981
 20
80.3441031793
 40
3.0
100
AcDbArc
 50
229.5396046005
 51
280.499990379
  0
ARC
  5
550
100
AcDbEntity
  8
02___PRT_ALL_AXES
100
AcDbCircle
 62
7
  6
CONTINUOUS
 10
80.5876331676
 20
65.5479403409
 40
2.25
100
AcDbArc
 50
179.0905083163
 51
241.1543457855
  0
ARC
  5
551
100
AcDbEntity
  8
02___PRT_ALL_AXES
100
AcDbCircle
 62
7
  6
CONTINUOUS
 10
86.1690685388
 20
80.3031407329
 40
2.0
100
AcDbArc
 50
280.5
 51
344.9252946568
  0
ARC
  5
552
100
AcDbEntity
  8
02___PRT_ALL_AXES
100
AcDbCircle
 62
7
  6
CONTINUOUS
 10
80.5876331676
 20
65.5479403409
 40
1.75
100
AcDbArc
 50
176.2552396903
 51
243.8729096027
  0
ARC
  5
553
100
AcDbEntity
  8
02___PRT_ALL_AXES
100
AcDbCircle
 62
7
  6
CONTINUOUS
 10
76.9118047083
 20
75.664846695
 40
1.55
100
AcDbArc
 50
283.000061358
 51
96.999957228
  0
ARC
  5
554
100
AcDbEntity
  8
02___PRT_ALL_AXES
100
AcDbCircle
 62
7
  6
CONTINUOUS
 10
80.594058133
 20
65.5479403409
 40
1.55
100
AcDbArc
 50
256.2046933767
 51
163.7953066233
  0
ARC
  5
555
100
AcDbEntity
  8
02___PRT_ALL_AXES
100
AcDbCircle
 62
7
  6
CONTINUOUS
 10
78.0108959771
 20
63.8107967203
 40
1.5
100
AcDbArc
 50
302.9999692894
 51
350.3827724578
  0
ARC
  5
556
100
AcDbEntity
  8
02___PRT_ALL_AXES
100
AcDbCircle
 62
7
  6
CONTINUOUS
 10
77.7980672391
 20
64.179427846
 40
1.5
100
AcDbArc
 50
69.6172556398
 51
117.0000063649
  0
ARC
  5
557
100
AcDbEntity
  8
02___PRT_ALL_AXES
100
AcDbCircle
 62
7
  6
CONTINUOUS
 10
69.9160750051
 20
62.6324707366
 40
0.7
100
AcDbArc
 50
118.0612177171
 51
296.9979181888
  0
ARC
  5
558
100
AcDbEntity
  8
02___PRT_ALL_AXES
100
AcDbCircle
 62
7
  6
CONTINUOUS
 10
66.8579432941
 20
71.034545654
 40
0.7
100
AcDbArc
 50
102.9999639559
 51
281.940556629
  0
ARC
  5
559
100
AcDbEntity
  8
02___PRT_ALL_AXES
100
AcDbCircle
 62
7
  6
CONTINUOUS
 10
65.8806095272
 20
76.5772834105
 40
0.7
100
AcDbArc
 50
98.0595012247
 51
277.0
  0
ARC
  5
55A
100
AcDbEntity
  8
02___PRT_ALL_AXES
100
AcDbCircle
 62
7
  6
CONTINUOUS
 10
80.0813822341
 20
63.4599596363
 40
0.6
100
AcDbArc
 50
76.2046933768
 51
170.3827577646
  0
ARC
  5
55B
100
AcDbEntity
  8
02___PRT_ALL_AXES
100
AcDbCircle
 62
7
  6
CONTINUOUS
 10
78.5294758508
 20
66.1479403409
 40
0.6
100
AcDbArc
 50
249.6172422354
 51
343.7953066233
  0
ARC
  5
55C
100
AcDbEntity
  8
02___PRT_ALL_AXES
100
AcDbCircle
 62
7
  6
CONTINUOUS
 10
96.8382212072
 20
51.9174690965
 40
3.15
100
AcDbArc
 50
341.9405713027
 51
30.4603974511
  0
ARC
  5
55D
100
AcDbEntity
  8
02___PRT_ALL_AXES
100
AcDbCircle
 62
7
  6
CONTINUOUS
 10
96.8382212072
 20
51.9174690965
 40
3.15
100
AcDbArc
 50
109.5396025488
 51
158.0594286973
  0
ARC
  5
55E
100
AcDbEntity
  8
02___PRT_ALL_AXES
100
AcDbCircle
 62
7
  6
CONTINUOUS
 10
87.51442975
 20
57.3005626042
 40
3.15
100
AcDbArc
 50
321.9405713027
 51
10.4603974512
  0
ARC
  5
55F
100
AcDbEntity
  8
02___PRT_ALL_AXES
100
AcDbCircle
 62
7
  6
CONTINUOUS
 10
87.51442975
 20
57.3005626042
 40
3.15
100
AcDbArc
 50
89.5396025487
 51
138.0594286973
  0
ARC
  5
560
100
AcDbEntity
  8
02___PRT_ALL_AXES
100
AcDbCircle
 62
7
  6
CONTINUOUS
 10
103.525685454
 20
54.7907265091
 40
3.0
100
AcDbArc
 50
309.5396029737
 51
0.5000095073
  0
ARC
  5
561
100
AcDbEntity
  8
02___PRT_ALL_AXES
100
AcDbCircle
 62
7
  6
CONTINUOUS
 10
102.1393967466
 20
55.0351666285
 40
3.0
100
AcDbArc
 50
159.4999634257
 51
210.4603974512
  0
ARC
  5
562
100
AcDbEntity
  8
02___PRT_ALL_AXES
100
AcDbCircle
 62
7
  6
CONTINUOUS
 10
94.7813023188
 20
57.7132938598
 40
3.0
100
AcDbArc
 50
289.5396059677
 51
340.5000194862
  0
ARC
  5
563
100
AcDbEntity
  8
02___PRT_ALL_AXES
100
AcDbCircle
 62
7
  6
CONTINUOUS
 10
93.5622206426
 20
58.417131151
 40
3.0
100
AcDbArc
 50
139.4999471139
 51
190.4603974512
  0
ARC
  5
564
100
AcDbEntity
  8
02___PRT_ALL_AXES
100
AcDbCircle
 62
7
  6
CONTINUOUS
 10
96.8382198734
 20
51.9174647338
 40
1.55
100
AcDbArc
 50
343.0000488475
 51
156.9998405764
  0
ARC
  5
565
100
AcDbEntity
  8
02___PRT_ALL_AXES
100
AcDbCircle
 62
7
  6
CONTINUOUS
 10
87.51442975
 20
57.3005626042
 40
1.55
100
AcDbArc
 50
276.2046933767
 51
183.7953066233
  0
ARC
  5
566
100
AcDbEntity
  8
02___PRT_ALL_AXES
100
AcDbCircle
 62
7
  6
CONTINUOUS
 10
107.2280165108
 20
46.94228472
 40
1.5
100
AcDbArc
 50
129.6172418262
 51
177.0000029403
  0
ARC
  5
567
100
AcDbEntity
  8
7_ALL_FEATURES
100
AcDbCircle
 62
7
  6
CONTINUOUS
 10
88.0211335746
 20
40.1189830667
 40
0.7
100
AcDbArc
 50
155.0
 51
245.0
  0
ARC
  5
568
100
AcDbEntity
  8
7_ALL_FEATURES
100
AcDbCircle
 62
7
  6
CONTINUOUS
 10
88.5649182469
 20
39.8654121096
 40
0.7
100
AcDbArc
 50
245.0
 51
335.0
  0
ARC
  5
569
100
AcDbEntity
  8
02___PRT_ALL_AXES
100
AcDbCircle
 62
7
  6
CONTINUOUS
 10
104.6267241137
 20
39.3427798033
 40
0.7
100
AcDbArc
 50
178.0597673759
 51
356.9996839353
  0
ARC
  5
56A
100
AcDbEntity
  8
02___PRT_ALL_AXES
100
AcDbCircle
 62
7
  6
CONTINUOUS
 10
95.8212572532
 20
40.8954467422
 40
0.7
100
AcDbArc
 50
163.0023728607
 51
341.9383392966
  0
ARC
  5
56B
100
AcDbEntity
  8
02___PRT_ALL_AXES
100
AcDbCircle
 62
7
  6
CONTINUOUS
 10
90.5324300621
 20
42.8203916058
 40
0.7
100
AcDbArc
 50
158.0594853861
 51
337.0
  0
ARC
  5
56C
100
AcDbEntity
  8
02___PRT_ALL_AXES
100
AcDbCircle
 62
7
  6
CONTINUOUS
 10
105.8889392669
 20
48.5599596363
 40
0.6
100
AcDbArc
 50
309.6172422354
 51
43.7953066233
  0
ARC
  5
56D
100
AcDbEntity
  8
02___PRT_ALL_AXES
100
AcDbCircle
 62
7
  6
CONTINUOUS
 10
87.7468034509
 20
55.1631570594
 40
0.6
100
AcDbArc
 50
96.2046933767
 51
190.3827577646
  0
ARC
  5
56E
100
AcDbEntity
  8
02___PRT_ALL_AXES
100
AcDbCircle
 62
7
  6
CONTINUOUS
 10
95.4376331676
 20
60.0479403409
 40
5.0
100
AcDbArc
 50
31.0056723372
 51
92.003125442
  0
ARC
  5
56F
100
AcDbEntity
  8
02___PRT_ALL_AXES
100
AcDbCircle
 62
7
  6
CONTINUOUS
 10
95.4376331676
 20
60.0479403409
 40
5.0
100
AcDbArc
 50
194.1524221268
 51
279.5531828141
  0
ARC
  5
570
100
AcDbEntity
  8
7_ALL_FEATURES
100
AcDbCircle
 62
7
  6
CONTINUOUS
 10
107.4376331676
 20
67.0479403409
 40
3.0
100
AcDbArc
 50
289.5912827537
 51
345.2970974379
  0
ARC
  5
571
100
AcDbEntity
  8
7_ALL_FEATURES
100
AcDbCircle
 62
7
  6
CONTINUOUS
 10
107.4376331676
 20
67.0479403409
 40
3.0
100
AcDbArc
 50
194.7019697419
 51
250.5362796834
  0
ARC
  5
572
100
AcDbEntity
  8
02___PRT_ALL_AXES
100
AcDbCircle
 62
7
  6
CONTINUOUS
 10
87.5638477692
 20
63.450364053
 40
3.0
100
AcDbArc
 50
269.5395925233
 51
320.4999775643
  0
ARC
  5
573
100
AcDbEntity
  8
02___PRT_ALL_AXES
100
AcDbCircle
 62
7
  6
CONTINUOUS
 10
104.6411491484
 20
64.4828656505
 40
1.8
100
AcDbArc
 50
0.5
 51
80.4069815233
  0
ARC
  5
574
100
AcDbEntity
  8
02___PRT_ALL_AXES
100
AcDbCircle
 62
7
  6
CONTINUOUS
 10
104.4061105938
 20
64.5243092891
 40
1.8
100
AcDbArc
 50
79.5930191251
 51
159.5000132139
  0
ARC
  5
575
100
AcDbEntity
  8
02___PRT_ALL_AXES
100
AcDbCircle
 62
7
  6
CONTINUOUS
 10
99.1444022873
 20
66.4394144904
 40
1.8
100
AcDbArc
 50
340.5
 51
60.4069815233
  0
ARC
  5
576
100
AcDbEntity
  8
02___PRT_ALL_AXES
100
AcDbCircle
 62
7
  6
CONTINUOUS
 10
98.9377126712
 20
66.5587467974
 40
1.8
100
AcDbArc
 50
59.593012489
 51
139.5000021032
  0
ARC
  5
577
100
AcDbEntity
  8
02___PRT_ALL_AXES
100
AcDbCircle
 62
7
  6
CONTINUOUS
 10
94.6483289381
 20
70.1579671468
 40
1.8
100
AcDbArc
 50
320.5
 51
40.4069815233
  0
ARC
  5
578
100
AcDbEntity
  8
02___PRT_ALL_AXES
100
AcDbCircle
 62
7
  6
CONTINUOUS
 10
94.4949184203
 20
70.3407946822
 40
1.8
100
AcDbArc
 50
39.5930193029
 51
119.5000031959
  0
ARC
  5
579
100
AcDbEntity
  8
02___PRT_ALL_AXES
100
AcDbCircle
 62
7
  6
CONTINUOUS
 10
91.6952219019
 20
75.1900112892
 40
1.8
100
AcDbArc
 50
300.5
 51
20.4069815233
  0
ARC
  5
57A
100
AcDbEntity
  8
02___PRT_ALL_AXES
100
AcDbCircle
 62
7
  6
CONTINUOUS
 10
91.6135938127
 20
75.4142826242
 40
1.8
100
AcDbArc
 50
19.5930138366
 51
99.5000123751
  0
ARC
  5
57B
100
AcDbEntity
  8
02___PRT_ALL_AXES
100
AcDbCircle
 62
7
  6
CONTINUOUS
 10
88.6795961507
 20
79.6269372798
 40
0.6
100
AcDbArc
 50
48.4084801707
 51
164.9252946568
  0
ARC
  5
57C
100
AcDbEntity
  8
02___PRT_ALL_AXES
100
AcDbCircle
 62
7
  6
CONTINUOUS
 10
76.9118053069
 20
86.4310338486
 40
3.15
100
AcDbArc
 50
261.9405713027
 51
310.4603974512
  0
ARC
  5
57D
100
AcDbEntity
  8
02___PRT_ALL_AXES
100
AcDbCircle
 62
7
  6
CONTINUOUS
 10
76.9118053069
 20
86.4310338486
 40
3.15
100
AcDbArc
 50
29.5396025488
 51
78.0594286973
  0
ARC
  5
57E
100
AcDbEntity
  8
02___PRT_ALL_AXES
100
AcDbCircle
 62
7
  6
CONTINUOUS
 10
80.594058133
 20
96.5479403409
 40
3.15
100
AcDbArc
 50
241.9405713027
 51
290.4603974511
  0
ARC
  5
57F
100
AcDbEntity
  8
02___PRT_ALL_AXES
100
AcDbCircle
 62
7
  6
CONTINUOUS
 10
80.594058133
 20
96.5479403409
 40
3.15
100
AcDbArc
 50
9.5396025488
 51
58.0594286973
  0
ARC
  5
580
100
AcDbEntity
  8
02___PRT_ALL_AXES
100
AcDbCircle
 62
7
  6
CONTINUOUS
 10
80.9026774798
 20
81.7517775722
 40
3.0
100
AcDbArc
 50
79.500010671
 51
130.4603974512
  0
ARC
  5
581
100
AcDbEntity
  8
02___PRT_ALL_AXES
100
AcDbCircle
 62
7
  6
CONTINUOUS
 10
82.2623984684
 20
89.4631375442
 40
3.0
100
AcDbArc
 50
209.5395975988
 51
260.4999883628
  0
ARC
  5
582
100
AcDbEntity
  8
02___PRT_ALL_AXES
100
AcDbCircle
 62
7
  6
CONTINUOUS
 10
82.743851362
 20
90.7859190747
 40
3.0
100
AcDbArc
 50
59.4999726865
 51
110.4603974512
  0
ARC
  5
583
100
AcDbEntity
  8
02___PRT_ALL_AXES
100
AcDbCircle
 62
7
  6
CONTINUOUS
 10
86.6590115064
 20
97.567175632
 40
3.0
100
AcDbArc
 50
189.5396065626
 51
240.4999962108
  0
ARC
  5
584
100
AcDbEntity
  8
02___PRT_ALL_AXES
100
AcDbCircle
 62
7
  6
CONTINUOUS
 10
80.5876331676
 20
96.5479403409
 40
2.25
100
AcDbArc
 50
118.8456542145
 51
180.9094916837
  0
ARC
  5
585
100
AcDbEntity
  8
02___PRT_ALL_AXES
100
AcDbCircle
 62
7
  6
CONTINUOUS
 10
86.1690685125
 20
81.7927400465
 40
2.0
100
AcDbArc
 50
15.0747024472
 51
79.4999736101
  0
ARC
  5
586
100
AcDbEntity
  8
02___PRT_ALL_AXES
100
AcDbCircle
 62
7
  6
CONTINUOUS
 10
80.5876331676
 20
96.5479403409
 40
1.75
100
AcDbArc
 50
116.1270903974
 51
183.7447603098
  0
ARC
  5
587
100
AcDbEntity
  8
02___PRT_ALL_AXES
100
AcDbCircle
 62
7
  6
CONTINUOUS
 10
76.9118053069
 20
86.4310338486
 40
1.55
100
AcDbArc
 50
216.2046933767
 51
123.7953066233
  0
ARC
  5
588
100
AcDbEntity
  8
02___PRT_ALL_AXES
100
AcDbCircle
 62
7
  6
CONTINUOUS
 10
80.594058133
 20
96.5479403409
 40
1.55
100
AcDbArc
 50
196.2046933767
 51
103.7953066233
  0
ARC
  5
589
100
AcDbEntity
  8
02___PRT_ALL_AXES
100
AcDbCircle
 62
7
  6
CONTINUOUS
 10
73.8163741892
 20
86.7607295079
 40
1.5
100
AcDbArc
 50
263.0000033776
 51
310.3827577646
  0
ARC
  5
58A
100
AcDbEntity
  8
02___PRT_ALL_AXES
100
AcDbCircle
 62
7
  6
CONTINUOUS
 10
73.8902891286
 20
87.1799207873
 40
1.5
100
AcDbArc
 50
29.6172544372
 51
77.0000466343
  0
ARC
  5
58B
100
AcDbEntity
  8
02___PRT_ALL_AXES
100
AcDbCircle
 62
7
  6
CONTINUOUS
 10
77.7980669101
 20
97.9164527136
 40
1.5
100
AcDbArc
 50
243.0000711138
 51
290.3827577646
  0
ARC
  5
58C
100
AcDbEntity
  8
02___PRT_ALL_AXES
100
AcDbCircle
 62
7
  6
CONTINUOUS
 10
78.0108959771
 20
98.2850839616
 40
1.5
100
AcDbArc
 50
9.6172275422
 51
57.0000307106
  0
ARC
  5
58D
100
AcDbEntity
  8
7_ALL_FEATURES
100
AcDbCircle
 62
7
  6
CONTINUOUS
 10
66.5086758934
 20
100.4644399339
 40
0.7
100
AcDbArc
 50
65.0
 51
155.0
  0
ARC
  5
58E
100
AcDbEntity
  8
7_ALL_FEATURES
100
AcDbCircle
 62
7
  6
CONTINUOUS
 10
66.2551049363
 20
99.9206552617
 40
0.7
100
AcDbArc
 50
155.0
 51
245.0
  0
ARC
  5
58F
100
AcDbEntity
  8
02___PRT_ALL_AXES
100
AcDbCircle
 62
7
  6
CONTINUOUS
 10
65.8806203095
 20
85.5185959475
 40
0.7
100
AcDbArc
 50
83.0008891717
 51
261.9397478729
  0
ARC
  5
590
100
AcDbEntity
  8
02___PRT_ALL_AXES
100
AcDbCircle
 62
7
  6
CONTINUOUS
 10
66.8579395378
 20
91.0613358139
 40
0.7
100
AcDbArc
 50
78.0590756046
 51
257.0004053552
  0
ARC
  5
591
100
AcDbEntity
  8
02___PRT_ALL_AXES
100
AcDbCircle
 62
7
  6
CONTINUOUS
 10
69.9160215419
 20
99.463437701
 40
0.7
100
AcDbArc
 50
62.997094367
 51
241.9434318761
  0
ARC
  5
592
100
AcDbEntity
  8
02___PRT_ALL_AXES
100
AcDbCircle
 62
7
  6
CONTINUOUS
 10
75.1769446573
 20
85.161089548
 40
0.6
100
AcDbArc
 50
36.2046933767
 51
130.3827577646
  0
ARC
  5
593
100
AcDbEntity
  8
02___PRT_ALL_AXES
100
AcDbCircle
 62
7
  6
CONTINUOUS
 10
75.7159160881
 20
88.2177484246
 40
0.6
100
AcDbArc
 50
209.6172422354
 51
303.7953066233
  0
ARC
  5
594
100
AcDbEntity
  8
02___PRT_ALL_AXES
100
AcDbCircle
 62
7
  6
CONTINUOUS
 10
78.5294758508
 20
95.9479403409
 40
0.6
100
AcDbArc
 50
16.2046933767
 51
110.3827577646
  0
ARC
  5
595
100
AcDbEntity
  8
02___PRT_ALL_AXES
100
AcDbCircle
 62
7
  6
CONTINUOUS
 10
80.0813822341
 20
98.6359210455
 40
0.6
100
AcDbArc
 50
189.6172422354
 51
283.7953066233
  0
ARC
  5
596
100
AcDbEntity
  8
02___PRT_ALL_AXES
100
AcDbCircle
 62
7
  6
CONTINUOUS
 10
72.7301911278
 20
104.3376131185
 40
0.7
100
AcDbArc
 50
58.0614152039
 51
236.9984272381
  0
ARC
  5
597
100
AcDbEntity
  8
02___PRT_ALL_AXES
100
AcDbCircle
 62
7
  6
CONTINUOUS
 10
78.4775446253
 20
111.1870627538
 40
0.7
100
AcDbArc
 50
43.0004836409
 51
221.9400011572
  0
ARC
  5
598
100
AcDbEntity
  8
02___PRT_ALL_AXES
100
AcDbCircle
 62
7
  6
CONTINUOUS
 10
82.7890251154
 20
114.8048321456
 40
0.7
100
AcDbArc
 50
38.0591112968
 51
217.0
  0
ARC
  5
599
100
AcDbEntity
  8
02___PRT_ALL_AXES
100
AcDbCircle
 62
7
  6
CONTINUOUS
 10
91.6135938616
 20
86.6815981949
 40
1.8
100
AcDbArc
 50
260.5
 51
340.4069815233
  0
ARC
  5
59A
100
AcDbEntity
  8
02___PRT_ALL_AXES
100
AcDbCircle
 62
7
  6
CONTINUOUS
 10
91.695221978
 20
86.9058695972
 40
1.8
100
AcDbArc
 50
339.5930115272
 51
59.4999869194
  0
ARC
  5
59B
100
AcDbEntity
  8
02___PRT_ALL_AXES
100
AcDbCircle
 62
7
  6
CONTINUOUS
 10
89.9408456503
 20
81.0479403409
 40
1.3
100
AcDbArc
 50
228.4084801705
 51
131.5915198294
  0
ARC
  5
59C
100
AcDbEntity
  8
02___PRT_ALL_AXES
100
AcDbCircle
 62
7
  6
CONTINUOUS
 10
88.6795961507
 20
82.468943402
 40
0.6
100
AcDbArc
 50
195.0747053432
 51
311.5915198294
  0
ARC
  5
59D
100
AcDbEntity
  8
02___PRT_ALL_AXES
100
AcDbCircle
 62
7
  6
CONTINUOUS
 10
87.5638472443
 20
98.6455166246
 40
3.0
100
AcDbArc
 50
39.4999478547
 51
90.4603974514
  0
ARC
  5
59E
100
AcDbEntity
  8
02___PRT_ALL_AXES
100
AcDbCircle
 62
7
  6
CONTINUOUS
 10
94.4949184038
 20
91.7550859796
 40
1.8
100
AcDbArc
 50
240.5
 51
320.4069815233
  0
ARC
  5
59F
100
AcDbEntity
  8
02___PRT_ALL_AXES
100
AcDbCircle
 62
7
  6
CONTINUOUS
 10
94.6483288237
 20
91.9379134007
 40
1.8
100
AcDbArc
 50
319.593024094
 51
39.4999863348
  0
ARC
  5
5A0
100
AcDbEntity
  8
02___PRT_ALL_AXES
100
AcDbCircle
 62
7
  6
CONTINUOUS
 10
107.4376331676
 20
81.0479403409
 40
50.0
100
AcDbArc
 50
207.3711932837
 51
332.6288067163
  0
ARC
  5
5A1
100
AcDbEntity
  8
02___PRT_ALL_AXES
100
AcDbCircle
 62
7
  6
CONTINUOUS
 10
107.4376331676
 20
81.0479403409
 40
50.0
100
AcDbArc
 50
153.2276477176
 51
206.7723522824
  0
ARC
  5
5A2
100
AcDbEntity
  8
02___PRT_ALL_AXES
100
AcDbCircle
 62
7
  6
CONTINUOUS
 10
107.4376331676
 20
81.0479403409
 40
50.0
100
AcDbArc
 50
27.3711932837
 51
152.6288067163
  0
ARC
  5
5A3
100
AcDbEntity
  8
02___PRT_ALL_AXES
100
AcDbCircle
 62
7
  6
CONTINUOUS
 10
107.4376331676
 20
81.0479403409
 40
50.0
100
AcDbArc
 50
333.2276477176
 51
26.7723522824
  0
CIRCLE
  5
5A4
100
AcDbEntity
  8
02___PRT_ALL_AXES
100
AcDbCircle
 62
7
  6
CONTINUOUS
 10
107.4376331676
 20
81.0479403409
 40
44.5
  0
CIRCLE
  5
5A5
100
AcDbEntity
  8
02___PRT_ALL_AXES
100
AcDbCircle
 62
7
  6
CONTINUOUS
 10
107.4376331676
 20
81.0479403409
 40
43.0
  0
ARC
  5
5A6
100
AcDbEntity
  8
7_ALL_FEATURES
100
AcDbCircle
 62
7
  6
CONTINUOUS
 10
107.4376331676
 20
81.0479403409
 40
42.7447177821
100
AcDbArc
 50
170.0911130204
 51
177.9888296201
  0
ARC
  5
5A7
100
AcDbEntity
  8
7_ALL_FEATURES
100
AcDbCircle
 62
7
  6
CONTINUOUS
 10
107.4376331676
 20
81.0479403409
 40
42.7447177821
100
AcDbArc
 50
10.1074312553
 51
169.8925687447
  0
ARC
  5
5A8
100
AcDbEntity
  8
7_ALL_FEATURES
100
AcDbCircle
 62
7
  6
CONTINUOUS
 10
107.4376331676
 20
81.0479403409
 40
42.7447177821
100
AcDbArc
 50
2.0111703799
 51
9.9088869796
  0
ARC
  5
5A9
100
AcDbEntity
  8
7_ALL_FEATURES
100
AcDbCircle
 62
7
  6
CONTINUOUS
 10
107.4376331676
 20
81.0479403409
 40
42.7447177821
100
AcDbArc
 50
350.0911130204
 51
357.9888296201
  0
ARC
  5
5AA
100
AcDbEntity
  8
7_ALL_FEATURES
100
AcDbCircle
 62
7
  6
CONTINUOUS
 10
107.4376331676
 20
81.0479403409
 40
42.7447177821
100
AcDbArc
 50
190.1074312553
 51
349.8925687447
  0
ARC
  5
5AB
100
AcDbEntity
  8
7_ALL_FEATURES
100
AcDbCircle
 62
7
  6
CONTINUOUS
 10
107.4376331676
 20
81.0479403409
 40
42.7447177821
100
AcDbArc
 50
182.0111703799
 51
189.9088869796
  0
ARC
  5
5AC
100
AcDbEntity
  8
7_ALL_FEATURES
100
AcDbCircle
 62
9
  6
CONTINUOUS
 10
107.4376331676
 20
81.0479403409
 40
42.7202349998
100
AcDbArc
 50
182.0123092847
 51
189.7235829503
  0
ARC
  5
5AD
100
AcDbEntity
  8
7_ALL_FEATURES
100
AcDbCircle
 62
9
  6
CONTINUOUS
 10
107.4376331676
 20
81.0479403409
 40
42.7202349998
100
AcDbArc
 50
190.1133045286
 51
349.8866954714
  0
ARC
  5
5AE
100
AcDbEntity
  8
7_ALL_FEATURES
100
AcDbCircle
 62
9
  6
CONTINUOUS
 10
107.4376331676
 20
81.0479403409
 40
42.7202349998
100
AcDbArc
 50
350.2764170497
 51
357.9876907153
  0
ARC
  5
5AF
100
AcDbEntity
  8
7_ALL_FEATURES
100
AcDbCircle
 62
9
  6
CONTINUOUS
 10
107.4376331676
 20
81.0479403409
 40
42.7202349998
100
AcDbArc
 50
2.0123092847
 51
9.7235829503
  0
ARC
  5
5B0
100
AcDbEntity
  8
7_ALL_FEATURES
100
AcDbCircle
 62
9
  6
CONTINUOUS
 10
107.4376331676
 20
81.0479403409
 40
42.7202349998
100
AcDbArc
 50
10.1133045286
 51
169.8866954714
  0
ARC
  5
5B1
100
AcDbEntity
  8
7_ALL_FEATURES
100
AcDbCircle
 62
9
  6
CONTINUOUS
 10
107.4376331676
 20
81.0479403409
 40
42.7202349998
100
AcDbArc
 50
170.2764170497
 51
177.9876907153
  0
ARC
  5
5B2
100
AcDbEntity
  8
7_ALL_FEATURES
100
AcDbCircle
 62
9
  6
CONTINUOUS
 10
107.4376331676
 20
81.0479403409
 40
42.4202806912
100
AcDbArc
 50
2.0265846449
 51
5.7150989596
  0
ARC
  5
5B3
100
AcDbEntity
  8
7_ALL_FEATURES
100
AcDbCircle
 62
9
  6
CONTINUOUS
 10
107.4376331676
 20
81.0479403409
 40
42.4202806912
100
AcDbArc
 50
10.1855802326
 51
13.4483164278
  0
ARC
  5
5B4
100
AcDbEntity
  8
7_ALL_FEATURES
100
AcDbCircle
 62
9
  6
CONTINUOUS
 10
107.4376331676
 20
81.0479403409
 40
42.4202806912
100
AcDbArc
 50
14.2727339143
 51
25.7275387731
  0
ARC
  5
5B5
100
AcDbEntity
  8
7_ALL_FEATURES
100
AcDbCircle
 62
9
  6
CONTINUOUS
 10
107.4376331676
 20
81.0479403409
 40
42.4202806912
100
AcDbArc
 50
26.5580513233
 51
33.4383021905
  0
ARC
  5
5B6
100
AcDbEntity
  8
7_ALL_FEATURES
100
AcDbCircle
 62
9
  6
CONTINUOUS
 10
107.4376331676
 20
81.0479403409
 40
42.4202806912
100
AcDbArc
 50
34.2673543322
 51
45.7257457413
  0
ARC
  5
5B7
100
AcDbEntity
  8
7_ALL_FEATURES
100
AcDbCircle
 62
9
  6
CONTINUOUS
 10
107.4376331676
 20
81.0479403409
 40
42.4202806912
100
AcDbArc
 50
46.5448932539
 51
53.4496417882
  0
ARC
  5
5B8
100
AcDbEntity
  8
7_ALL_FEATURES
100
AcDbCircle
 62
9
  6
CONTINUOUS
 10
107.4376331676
 20
81.0479403409
 40
42.4202806912
100
AcDbArc
 50
54.2770453202
 51
65.7173254365
  0
ARC
  5
5B9
100
AcDbEntity
  8
7_ALL_FEATURES
100
AcDbCircle
 62
9
  6
CONTINUOUS
 10
107.4376331676
 20
81.0479403409
 40
42.4202806912
100
AcDbArc
 50
66.5412837827
 51
73.4512843754
  0
ARC
  5
5BA
100
AcDbEntity
  8
7_ALL_FEATURES
100
AcDbCircle
 62
9
  6
CONTINUOUS
 10
107.4376331676
 20
81.0479403409
 40
42.4202806912
100
AcDbArc
 50
74.2623467101
 51
85.8415870624
  0
ARC
  5
5BB
100
AcDbEntity
  8
7_ALL_FEATURES
100
AcDbCircle
 62
9
  6
CONTINUOUS
 10
107.4376331676
 20
81.0479403409
 40
42.4202806912
100
AcDbArc
 50
86.705913229
 51
113.3042326771
  0
ARC
  5
5BC
100
AcDbEntity
  8
7_ALL_FEATURES
100
AcDbCircle
 62
9
  6
CONTINUOUS
 10
107.4376331676
 20
81.0479403409
 40
42.4202806912
100
AcDbArc
 50
114.1549805468
 51
125.7275513933
  0
ARC
  5
5BD
100
AcDbEntity
  8
7_ALL_FEATURES
100
AcDbCircle
 62
9
  6
CONTINUOUS
 10
107.4376331676
 20
81.0479403409
 40
42.4202806912
100
AcDbArc
 50
126.5333763698
 51
133.4609246427
  0
ARC
  5
5BE
100
AcDbEntity
  8
7_ALL_FEATURES
100
AcDbCircle
 62
9
  6
CONTINUOUS
 10
107.4376331676
 20
81.0479403409
 40
42.4202806912
100
AcDbArc
 50
134.2536664385
 51
145.7435743842
  0
ARC
  5
5BF
100
AcDbEntity
  8
7_ALL_FEATURES
100
AcDbCircle
 62
9
  6
CONTINUOUS
 10
107.4376331676
 20
81.0479403409
 40
42.4202806912
100
AcDbArc
 50
146.5425333932
 51
153.4535146988
  0
ARC
  5
5C0
100
AcDbEntity
  8
7_ALL_FEATURES
100
AcDbCircle
 62
9
  6
CONTINUOUS
 10
107.4376331676
 20
81.0479403409
 40
42.4202806912
100
AcDbArc
 50
154.2517041808
 51
165.7447247045
  0
ARC
  5
5C1
100
AcDbEntity
  8
7_ALL_FEATURES
100
AcDbCircle
 62
9
  6
CONTINUOUS
 10
107.4376331676
 20
81.0479403409
 40
42.4202806912
100
AcDbArc
 50
166.5322621131
 51
169.8144197623
  0
ARC
  5
5C2
100
AcDbEntity
  8
7_ALL_FEATURES
100
AcDbCircle
 62
9
  6
CONTINUOUS
 10
107.4376331676
 20
81.0479403409
 40
42.4202806912
100
AcDbArc
 50
174.2644189264
 51
177.9734153154
  0
ARC
  5
5C3
100
AcDbEntity
  8
7_ALL_FEATURES
100
AcDbCircle
 62
9
  6
CONTINUOUS
 10
107.4376331676
 20
81.0479403409
 40
42.4202806912
100
AcDbArc
 50
182.0265846449
 51
185.7355495126
  0
ARC
  5
5C4
100
AcDbEntity
  8
7_ALL_FEATURES
100
AcDbCircle
 62
9
  6
CONTINUOUS
 10
107.4376331676
 20
81.0479403409
 40
42.4202806912
100
AcDbArc
 50
190.1855802326
 51
193.4677483846
  0
ARC
  5
5C5
100
AcDbEntity
  8
7_ALL_FEATURES
100
AcDbCircle
 62
9
  6
CONTINUOUS
 10
107.4376331676
 20
81.0479403409
 40
42.4202806912
100
AcDbArc
 50
194.2552639941
 51
205.748465286
  0
ARC
  5
5C6
100
AcDbEntity
  8
7_ALL_FEATURES
100
AcDbCircle
 62
9
  6
CONTINUOUS
 10
107.4376331676
 20
81.0479403409
 40
42.4202806912
100
AcDbArc
 50
206.5463261267
 51
213.4575783755
  0
ARC
  5
5C7
100
AcDbEntity
  8
7_ALL_FEATURES
100
AcDbCircle
 62
9
  6
CONTINUOUS
 10
107.4376331676
 20
81.0479403409
 40
42.4202806912
100
AcDbArc
 50
214.2563047131
 51
225.7462686002
  0
ARC
  5
5C8
100
AcDbEntity
  8
7_ALL_FEATURES
100
AcDbCircle
 62
9
  6
CONTINUOUS
 10
107.4376331676
 20
81.0479403409
 40
42.4202806912
100
AcDbArc
 50
226.5391350101
 51
233.4665008885
  0
ARC
  5
5C9
100
AcDbEntity
  8
7_ALL_FEATURES
100
AcDbCircle
 62
9
  6
CONTINUOUS
 10
107.4376331676
 20
81.0479403409
 40
42.4202806912
100
AcDbArc
 50
234.2725866969
 51
245.7333164716
  0
ARC
  5
5CA
100
AcDbEntity
  8
7_ALL_FEATURES
100
AcDbCircle
 62
9
  6
CONTINUOUS
 10
107.4376331676
 20
81.0479403409
 40
42.4202806912
100
AcDbArc
 50
246.5423037801
 51
253.4649141669
  0
ARC
  5
5CB
100
AcDbEntity
  8
7_ALL_FEATURES
100
AcDbCircle
 62
9
  6
CONTINUOUS
 10
107.4376331676
 20
81.0479403409
 40
42.4202806912
100
AcDbArc
 50
254.265446168
 51
265.7428961565
  0
ARC
  5
5CC
100
AcDbEntity
  8
7_ALL_FEATURES
100
AcDbCircle
 62
9
  6
CONTINUOUS
 10
107.4376331676
 20
81.0479403409
 40
42.4202806912
100
AcDbArc
 50
266.5560198051
 51
273.4516016534
  0
ARC
  5
5CD
100
AcDbEntity
  8
7_ALL_FEATURES
100
AcDbCircle
 62
9
  6
CONTINUOUS
 10
107.4376331676
 20
81.0479403409
 40
42.4202806912
100
AcDbArc
 50
274.2669052576
 51
285.7375665172
  0
ARC
  5
5CE
100
AcDbEntity
  8
7_ALL_FEATURES
100
AcDbCircle
 62
9
  6
CONTINUOUS
 10
107.4376331676
 20
81.0479403409
 40
42.4202806912
100
AcDbArc
 50
286.5487941502
 51
293.4587379253
  0
ARC
  5
5CF
100
AcDbEntity
  8
7_ALL_FEATURES
100
AcDbCircle
 62
9
  6
CONTINUOUS
 10
107.4376331676
 20
81.0479403409
 40
42.4202806912
100
AcDbArc
 50
294.2826501806
 51
305.7230921537
  0
ARC
  5
5D0
100
AcDbEntity
  8
7_ALL_FEATURES
100
AcDbCircle
 62
9
  6
CONTINUOUS
 10
107.4376331676
 20
81.0479403409
 40
42.4202806912
100
AcDbArc
 50
306.5502359361
 51
313.4551226512
  0
ARC
  5
5D1
100
AcDbEntity
  8
7_ALL_FEATURES
100
AcDbCircle
 62
9
  6
CONTINUOUS
 10
107.4376331676
 20
81.0479403409
 40
42.4202806912
100
AcDbArc
 50
314.2742368071
 51
325.7324721318
  0
ARC
  5
5D2
100
AcDbEntity
  8
7_ALL_FEATURES
100
AcDbCircle
 62
9
  6
CONTINUOUS
 10
107.4376331676
 20
81.0479403409
 40
42.4202806912
100
AcDbArc
 50
326.561859673
 51
333.4418557837
  0
ARC
  5
5D3
100
AcDbEntity
  8
7_ALL_FEATURES
100
AcDbCircle
 62
9
  6
CONTINUOUS
 10
107.4376331676
 20
81.0479403409
 40
42.4202806912
100
AcDbArc
 50
334.2725608633
 51
345.7272675004
  0
ARC
  5
5D4
100
AcDbEntity
  8
7_ALL_FEATURES
100
AcDbCircle
 62
9
  6
CONTINUOUS
 10
107.4376331676
 20
81.0479403409
 40
42.4202806912
100
AcDbArc
 50
346.5516823599
 51
349.8144197623
  0
ARC
  5
5D5
100
AcDbEntity
  8
7_ALL_FEATURES
100
AcDbCircle
 62
9
  6
CONTINUOUS
 10
107.4376331676
 20
81.0479403409
 40
42.4202806912
100
AcDbArc
 50
354.2848696749
 51
357.9734153154
  0
ARC
  5
5D6
100
AcDbEntity
  8
7_ALL_FEATURES
100
AcDbCircle
 62
7
  6
CONTINUOUS
 10
107.4376331676
 20
81.0479403409
 40
42.2
100
AcDbArc
 50
154.7009987726
 51
160.1792943547
  0
ARC
  5
5D7
100
AcDbEntity
  8
7_ALL_FEATURES
100
AcDbCircle
 62
7
  6
CONTINUOUS
 10
107.4376331676
 20
81.0479403409
 40
42.2
100
AcDbArc
 50
146.9790160382
 51
153.0716183463
  0
ARC
  5
5D8
100
AcDbEntity
  8
7_ALL_FEATURES
100
AcDbCircle
 62
7
  6
CONTINUOUS
 10
107.4376331676
 20
81.0479403409
 40
42.2
100
AcDbArc
 50
134.7025025278
 51
145.3409193532
  0
ARC
  5
5D9
100
AcDbEntity
  8
7_ALL_FEATURES
100
AcDbCircle
 62
7
  6
CONTINUOUS
 10
107.4376331676
 20
81.0479403409
 40
42.2
100
AcDbArc
 50
126.969955541
 51
132.9993298488
  0
ARC
  5
5DA
100
AcDbEntity
  8
7_ALL_FEATURES
100
AcDbCircle
 62
7
  6
CONTINUOUS
 10
107.4376331676
 20
81.0479403409
 40
42.2
100
AcDbArc
 50
114.6003611053
 51
125.2827510999
  0
ARC
  5
5DB
100
AcDbEntity
  8
7_ALL_FEATURES
100
AcDbCircle
 62
7
  6
CONTINUOUS
 10
107.4376331676
 20
81.0479403409
 40
42.2
100
AcDbArc
 50
87.1845046443
 51
112.8800469769
  0
ARC
  5
5DC
100
AcDbEntity
  8
7_ALL_FEATURES
100
AcDbCircle
 62
7
  6
CONTINUOUS
 10
107.4376331676
 20
81.0479403409
 40
42.2
100
AcDbArc
 50
74.6288260791
 51
85.3388279584
  0
ARC
  5
5DD
100
AcDbEntity
  8
7_ALL_FEATURES
100
AcDbCircle
 62
7
  6
CONTINUOUS
 10
107.4376331676
 20
81.0479403409
 40
42.2
100
AcDbArc
 50
66.9079388215
 51
73.0391716518
  0
ARC
  5
5DE
100
AcDbEntity
  8
7_ALL_FEATURES
100
AcDbCircle
 62
7
  6
CONTINUOUS
 10
107.4376331676
 20
81.0479403409
 40
42.2
100
AcDbArc
 50
54.7115422448
 51
65.3110987775
  0
ARC
  5
5DF
100
AcDbEntity
  8
7_ALL_FEATURES
100
AcDbCircle
 62
7
  6
CONTINUOUS
 10
107.4376331676
 20
81.0479403409
 40
42.2
100
AcDbArc
 50
46.9990039428
 51
53.0191817987
  0
ARC
  5
5E0
100
AcDbEntity
  8
7_ALL_FEATURES
100
AcDbCircle
 62
7
  6
CONTINUOUS
 10
107.4376331676
 20
81.0479403409
 40
42.2
100
AcDbArc
 50
34.66030587
 51
45.2896524732
  0
ARC
  5
5E1
100
AcDbEntity
  8
7_ALL_FEATURES
100
AcDbCircle
 62
7
  6
CONTINUOUS
 10
107.4376331676
 20
81.0479403409
 40
42.2
100
AcDbArc
 50
26.9304663055
 51
33.0102259904
  0
ARC
  5
5E2
100
AcDbEntity
  8
7_ALL_FEATURES
100
AcDbCircle
 62
7
  6
CONTINUOUS
 10
107.4376331676
 20
81.0479403409
 40
42.2
100
AcDbArc
 50
19.8207056453
 51
25.2930713549
  0
ARC
  5
5E3
100
AcDbEntity
  8
7_ALL_FEATURES
100
AcDbCircle
 62
7
  6
CONTINUOUS
 10
107.4376331676
 20
81.0479403409
 40
42.2
100
AcDbArc
 50
334.7069587644
 51
340.1792943547
  0
ARC
  5
5E4
100
AcDbEntity
  8
7_ALL_FEATURES
100
AcDbCircle
 62
7
  6
CONTINUOUS
 10
107.4376331676
 20
81.0479403409
 40
42.2
100
AcDbArc
 50
326.9898125645
 51
333.0695269963
  0
ARC
  5
5E5
100
AcDbEntity
  8
7_ALL_FEATURES
100
AcDbCircle
 62
7
  6
CONTINUOUS
 10
107.4376331676
 20
81.0479403409
 40
42.2
100
AcDbArc
 50
314.710354686
 51
325.339670105
  0
ARC
  5
5E6
100
AcDbEntity
  8
7_ALL_FEATURES
100
AcDbCircle
 62
7
  6
CONTINUOUS
 10
107.4376331676
 20
81.0479403409
 40
42.2
100
AcDbArc
 50
306.9808085593
 51
313.0010101669
  0
ARC
  5
5E7
100
AcDbEntity
  8
7_ALL_FEATURES
100
AcDbCircle
 62
7
  6
CONTINUOUS
 10
107.4376331676
 20
81.0479403409
 40
42.2
100
AcDbArc
 50
294.6888352071
 51
305.2884877799
  0
ARC
  5
5E8
100
AcDbEntity
  8
7_ALL_FEATURES
100
AcDbCircle
 62
7
  6
CONTINUOUS
 10
107.4376331676
 20
81.0479403409
 40
42.2
100
AcDbArc
 50
286.9608007779
 51
293.0919953712
  0
ARC
  5
5E9
100
AcDbEntity
  8
7_ALL_FEATURES
100
AcDbCircle
 62
7
  6
CONTINUOUS
 10
107.4376331676
 20
81.0479403409
 40
42.2
100
AcDbArc
 50
274.7173020164
 51
285.3710528467
  0
ARC
  5
5EA
100
AcDbEntity
  8
7_ALL_FEATURES
100
AcDbCircle
 62
7
  6
CONTINUOUS
 10
107.4376331676
 20
81.0479403409
 40
42.2
100
AcDbArc
 50
266.9985546896
 51
273.0097381498
  0
ARC
  5
5EB
100
AcDbEntity
  8
7_ALL_FEATURES
100
AcDbCircle
 62
7
  6
CONTINUOUS
 10
107.4376331676
 20
81.0479403409
 40
42.2
100
AcDbArc
 50
254.6356056407
 51
265.2915852389
  0
ARC
  5
5EC
100
AcDbEntity
  8
7_ALL_FEATURES
100
AcDbCircle
 62
7
  6
CONTINUOUS
 10
107.4376331676
 20
81.0479403409
 40
42.2
100
AcDbArc
 50
246.9135456593
 51
253.0499148412
  0
ARC
  5
5ED
100
AcDbEntity
  8
7_ALL_FEATURES
100
AcDbCircle
 62
7
  6
CONTINUOUS
 10
107.4376331676
 20
81.0479403409
 40
42.2
100
AcDbArc
 50
234.7172792791
 51
245.3226754042
  0
ARC
  5
5EE
100
AcDbEntity
  8
7_ALL_FEATURES
100
AcDbCircle
 62
7
  6
CONTINUOUS
 10
107.4376331676
 20
81.0479403409
 40
42.2
100
AcDbArc
 50
227.000697662
 51
233.0300343449
  0
ARC
  5
5EF
100
AcDbEntity
  8
7_ALL_FEATURES
100
AcDbCircle
 62
7
  6
CONTINUOUS
 10
107.4376331676
 20
81.0479403409
 40
42.2
100
AcDbArc
 50
214.6590727314
 51
225.2974961421
  0
ARC
  5
5F0
100
AcDbEntity
  8
7_ALL_FEATURES
100
AcDbCircle
 62
7
  6
CONTINUOUS
 10
107.4376331676
 20
81.0479403409
 40
42.2
100
AcDbArc
 50
206.9283520422
 51
213.0210060503
  0
ARC
  5
5F1
100
AcDbEntity
  8
7_ALL_FEATURES
100
AcDbCircle
 62
7
  6
CONTINUOUS
 10
107.4376331676
 20
81.0479403409
 40
42.2
100
AcDbArc
 50
199.8207056453
 51
205.2990446844
  0
ARC
  5
5F2
100
AcDbEntity
  8
7_ALL_FEATURES
100
AcDbCircle
 62
9
  6
CONTINUOUS
 10
107.4376331676
 20
81.0479403409
 40
42.1668448856
100
AcDbArc
 50
357.1104068589
 51
357.961237987
  0
ARC
  5
5F3
100
AcDbEntity
  8
7_ALL_FEATURES
100
AcDbCircle
 62
9
  6
CONTINUOUS
 10
107.4376331676
 20
81.0479403409
 40
42.1668448856
100
AcDbArc
 50
346.9432129989
 51
349.7525095791
  0
ARC
  5
5F4
100
AcDbEntity
  8
7_ALL_FEATURES
100
AcDbCircle
 62
9
  6
CONTINUOUS
 10
107.4376331676
 20
81.0479403409
 40
42.1668448856
100
AcDbArc
 50
340.3370988488
 51
345.3297225186
  0
ARC
  5
5F5
100
AcDbEntity
  8
7_ALL_FEATURES
100
AcDbCircle
 62
9
  6
CONTINUOUS
 10
107.4376331676
 20
81.0479403409
 40
42.1668448856
100
AcDbArc
 50
194.6651013321
 51
199.662901151
  0
ARC
  5
5F6
100
AcDbEntity
  8
7_ALL_FEATURES
100
AcDbCircle
 62
9
  6
CONTINUOUS
 10
107.4376331676
 20
81.0479403409
 40
42.1668448856
100
AcDbArc
 50
190.247490422
 51
193.0655178247
  0
ARC
  5
5F7
100
AcDbEntity
  8
7_ALL_FEATURES
100
AcDbCircle
 62
9
  6
CONTINUOUS
 10
107.4376331676
 20
81.0479403409
 40
42.1668448856
100
AcDbArc
 50
182.0387620223
 51
182.8895931536
  0
ARC
  5
5F8
100
AcDbEntity
  8
7_ALL_FEATURES
100
AcDbCircle
 62
9
  6
CONTINUOUS
 10
107.4376331676
 20
81.0479403409
 40
42.1668448856
100
AcDbArc
 50
177.1104068589
 51
177.961237987
  0
ARC
  5
5F9
100
AcDbEntity
  8
7_ALL_FEATURES
100
AcDbCircle
 62
9
  6
CONTINUOUS
 10
107.4376331676
 20
81.0479403409
 40
42.1668448856
100
AcDbArc
 50
166.9344857142
 51
169.7525095791
  0
ARC
  5
5FA
100
AcDbEntity
  8
7_ALL_FEATURES
100
AcDbCircle
 62
9
  6
CONTINUOUS
 10
107.4376331676
 20
81.0479403409
 40
42.1668448856
100
AcDbArc
 50
160.3370988488
 51
165.3348953381
  0
ARC
  5
5FB
100
AcDbEntity
  8
7_ALL_FEATURES
100
AcDbCircle
 62
9
  6
CONTINUOUS
 10
107.4376331676
 20
81.0479403409
 40
42.1668448856
100
AcDbArc
 50
14.6702780516
 51
19.662901151
  0
ARC
  5
5FC
100
AcDbEntity
  8
7_ALL_FEATURES
100
AcDbCircle
 62
9
  6
CONTINUOUS
 10
107.4376331676
 20
81.0479403409
 40
42.1668448856
100
AcDbArc
 50
10.247490422
 51
13.0567866086
  0
ARC
  5
5FD
100
AcDbEntity
  8
7_ALL_FEATURES
100
AcDbCircle
 62
9
  6
CONTINUOUS
 10
107.4376331676
 20
81.0479403409
 40
42.1668448856
100
AcDbArc
 50
2.0387620223
 51
2.8895931536
  0
ARC
  5
5FE
100
AcDbEntity
  8
7_ALL_FEATURES
100
AcDbCircle
 62
9
  6
CONTINUOUS
 10
107.4376331676
 20
81.0479403409
 40
41.8911344421
100
AcDbArc
 50
347.1006991485
 51
349.6842984669
  0
ARC
  5
5FF
100
AcDbEntity
  8
7_ALL_FEATURES
100
AcDbCircle
 62
9
  6
CONTINUOUS
 10
107.4376331676
 20
81.0479403409
 40
41.8911344421
100
AcDbArc
 50
341.3947641968
 51
345.1822769352
  0
ARC
  5
600
100
AcDbEntity
  8
7_ALL_FEATURES
100
AcDbCircle
 62
9
  6
CONTINUOUS
 10
107.4376331676
 20
81.0479403409
 40
41.8911344421
100
AcDbArc
 50
194.8199975743
 51
198.6052358041
  0
ARC
  5
601
100
AcDbEntity
  8
7_ALL_FEATURES
100
AcDbCircle
 62
9
  6
CONTINUOUS
 10
107.4376331676
 20
81.0479403409
 40
41.8911344421
100
AcDbArc
 50
190.3157015332
 51
192.901231756
  0
ARC
  5
602
100
AcDbEntity
  8
7_ALL_FEATURES
100
AcDbCircle
 62
9
  6
CONTINUOUS
 10
107.4376331676
 20
81.0479403409
 40
41.8911344421
100
AcDbArc
 50
167.0987683571
 51
169.6842984669
  0
ARC
  5
603
100
AcDbEntity
  8
7_ALL_FEATURES
100
AcDbCircle
 62
9
  6
CONTINUOUS
 10
107.4376331676
 20
81.0479403409
 40
41.8911344421
100
AcDbArc
 50
161.3947641968
 51
165.1800023779
  0
ARC
  5
604
100
AcDbEntity
  8
7_ALL_FEATURES
100
AcDbCircle
 62
9
  6
CONTINUOUS
 10
107.4376331676
 20
81.0479403409
 40
41.8911344421
100
AcDbArc
 50
14.817723017
 51
18.6052358041
  0
ARC
  5
605
100
AcDbEntity
  8
7_ALL_FEATURES
100
AcDbCircle
 62
9
  6
CONTINUOUS
 10
107.4376331676
 20
81.0479403409
 40
41.8911344421
100
AcDbArc
 50
10.3157015332
 51
12.8993008514
  0
ARC
  5
606
100
AcDbEntity
  8
7_ALL_FEATURES
100
AcDbCircle
 62
9
  6
CONTINUOUS
 10
107.4376331676
 20
81.0479403409
 40
29.1221722942
100
AcDbArc
 50
238.5754637705
 51
241.6430629983
  0
ARC
  5
607
100
AcDbEntity
  8
7_ALL_FEATURES
100
AcDbCircle
 62
9
  6
CONTINUOUS
 10
107.4376331676
 20
81.0479403409
 40
28.2270434325
100
AcDbArc
 50
233.8957962831
 51
246.6560102138
  0
ARC
  5
608
100
AcDbEntity
  8
7_ALL_FEATURES
100
AcDbCircle
 62
7
  6
CONTINUOUS
 10
107.4376331676
 20
81.0479403409
 40
28.029034592
100
AcDbArc
 50
233.2920917124
 51
246.9812583689
  0
ARC
  5
609
100
AcDbEntity
  8
7_ALL_FEATURES
100
AcDbCircle
 62
7
  6
CONTINUOUS
 10
107.4376331676
 20
81.0479403409
 40
25.9856732941
100
AcDbArc
 50
232.0290691062
 51
247.9829944048
  0
ARC
  5
60A
100
AcDbEntity
  8
7_ALL_FEATURES
100
AcDbCircle
 62
3
  6
CONTINUOUS
 10
107.4376331676
 20
81.0479403409
 40
25.75
100
AcDbArc
 50
232.0553684326
 51
247.9594999329
  0
ARC
  5
60B
100
AcDbEntity
  8
7_ALL_FEATURES
100
AcDbCircle
 62
7
  6
CONTINUOUS
 10
107.4376331676
 20
95.0479403409
 40
3.0
100
AcDbArc
 50
109.4637197226
 51
165.2980303905
  0
ARC
  5
60C
100
AcDbEntity
  8
7_ALL_FEATURES
100
AcDbCircle
 62
7
  6
CONTINUOUS
 10
107.4376331676
 20
95.0479403409
 40
3.0
100
AcDbArc
 50
14.7029026895
 51
70.4087166524
  0
ARC
  5
60D
100
AcDbEntity
  8
02___PRT_ALL_AXES
100
AcDbCircle
 62
7
  6
CONTINUOUS
 10
104.4061105737
 20
97.5715713891
 40
1.8
100
AcDbArc
 50
200.5
 51
280.4069815233
  0
ARC
  5
60E
100
AcDbEntity
  8
02___PRT_ALL_AXES
100
AcDbCircle
 62
7
  6
CONTINUOUS
 10
104.6411491792
 20
97.6130150365
 40
1.8
100
AcDbArc
 50
279.5930174825
 51
359.5000167422
  0
ARC
  5
60F
100
AcDbEntity
  8
02___PRT_ALL_AXES
100
AcDbCircle
 62
7
  6
CONTINUOUS
 10
98.9377128335
 20
95.5371339796
 40
1.8
100
AcDbArc
 50
220.5
 51
300.4069815233
  0
ARC
  5
610
100
AcDbEntity
  8
02___PRT_ALL_AXES
100
AcDbCircle
 62
7
  6
CONTINUOUS
 10
99.1444019675
 20
95.6564660098
 40
1.8
100
AcDbArc
 50
299.5930301833
 51
19.4999908095
  0
ARC
  5
611
100
AcDbEntity
  8
02___PRT_ALL_AXES
100
AcDbCircle
 62
7
  6
CONTINUOUS
 10
96.8382212072
 20
110.1784115853
 40
3.15
100
AcDbArc
 50
201.9405713027
 51
250.4603974513
  0
ARC
  5
612
100
AcDbEntity
  8
02___PRT_ALL_AXES
100
AcDbCircle
 62
7
  6
CONTINUOUS
 10
96.8382212072
 20
110.1784115853
 40
3.15
100
AcDbArc
 50
329.5396025488
 51
18.0594286973
  0
ARC
  5
613
100
AcDbEntity
  8
02___PRT_ALL_AXES
100
AcDbCircle
 62
7
  6
CONTINUOUS
 10
87.51442975
 20
104.7953180776
 40
3.15
100
AcDbArc
 50
221.9405713027
 51
270.460397451
  0
ARC
  5
614
100
AcDbEntity
  8
02___PRT_ALL_AXES
100
AcDbCircle
 62
7
  6
CONTINUOUS
 10
87.51442975
 20
104.7953180776
 40
3.15
100
AcDbArc
 50
349.5396025489
 51
38.0594286973
  0
ARC
  5
615
100
AcDbEntity
  8
02___PRT_ALL_AXES
100
AcDbCircle
 62
7
  6
CONTINUOUS
 10
102.1393965599
 20
107.060713736
 40
3.0
100
AcDbArc
 50
149.5395955169
 51
200.4999964972
  0
ARC
  5
616
100
AcDbEntity
  8
02___PRT_ALL_AXES
100
AcDbCircle
 62
7
  6
CONTINUOUS
 10
103.5256854711
 20
107.3051541586
 40
3.0
100
AcDbArc
 50
359.5000022098
 51
50.4603974513
  0
ARC
  5
617
100
AcDbEntity
  8
02___PRT_ALL_AXES
100
AcDbCircle
 62
7
  6
CONTINUOUS
 10
93.5622205459
 20
103.6787490072
 40
3.0
100
AcDbArc
 50
169.5395923807
 51
220.4999808184
  0
ARC
  5
618
100
AcDbEntity
  8
02___PRT_ALL_AXES
100
AcDbCircle
 62
7
  6
CONTINUOUS
 10
94.7813024875
 20
104.3825867621
 40
3.0
100
AcDbArc
 50
19.5000177824
 51
70.4603974511
  0
ARC
  5
619
100
AcDbEntity
  8
02___PRT_ALL_AXES
100
AcDbCircle
 62
7
  6
CONTINUOUS
 10
87.5144283992
 20
104.7953195261
 40
1.55
100
AcDbArc
 50
222.9999436362
 51
36.9999620398
  0
ARC
  5
61A
100
AcDbEntity
  8
02___PRT_ALL_AXES
100
AcDbCircle
 62
7
  6
CONTINUOUS
 10
96.8382212072
 20
110.1784115853
 40
1.55
100
AcDbArc
 50
156.2046933767
 51
63.7953066233
  0
ARC
  5
61B
100
AcDbEntity
  8
02___PRT_ALL_AXES
100
AcDbCircle
 62
7
  6
CONTINUOUS
 10
95.4556188124
 20
112.5352369477
 40
1.0
100
AcDbArc
 50
202.9998116113
 51
248.5681080083
  0
ARC
  5
61C
100
AcDbEntity
  8
02___PRT_ALL_AXES
100
AcDbCircle
 62
7
  6
CONTINUOUS
 10
96.3824176354
 20
112.8725636727
 40
1.0
100
AcDbArc
 50
331.4319293963
 51
16.9999535813
  0
ARC
  5
61D
100
AcDbEntity
  8
02___PRT_ALL_AXES
100
AcDbCircle
 62
7
  6
CONTINUOUS
 10
106.9477060429
 20
114.7355096892
 40
1.0
100
AcDbArc
 50
183.0000455829
 51
228.5681147217
  0
ARC
  5
61E
100
AcDbEntity
  8
02___PRT_ALL_AXES
100
AcDbCircle
 62
7
  6
CONTINUOUS
 10
96.0449184878
 20
120.1633331726
 40
0.8088625134
100
AcDbArc
 50
18.0582569434
 51
197.0012168513
  0
ARC
  5
61F
100
AcDbEntity
  8
02___PRT_ALL_AXES
100
AcDbCircle
 62
7
  6
CONTINUOUS
 10
104.7712628691
 20
121.7020013813
 40
0.8088625134
100
AcDbArc
 50
3.0003350648
 51
181.9402688621
  0
ARC
  5
620
100
AcDbEntity
  8
02___PRT_ALL_AXES
100
AcDbCircle
 62
7
  6
CONTINUOUS
 10
90.6613446119
 20
119.2230907714
 40
0.8
100
AcDbArc
 50
22.99676613
 51
201.9438293908
  0
ARC
  5
621
100
AcDbEntity
  8
02___PRT_ALL_AXES
100
AcDbCircle
 62
7
  6
CONTINUOUS
 10
94.8709868567
 20
111.0458728296
 40
0.6
100
AcDbArc
 50
336.2046933767
 51
68.5681080084
  0
ARC
  5
622
100
AcDbEntity
  8
02___PRT_ALL_AXES
100
AcDbCircle
 62
7
  6
CONTINUOUS
 10
97.78761681
 20
112.1074393169
 40
0.6
100
AcDbArc
 50
151.4318919917
 51
243.7953066233
  0
ARC
  5
623
100
AcDbEntity
  8
02___PRT_ALL_AXES
100
AcDbCircle
 62
7
  6
CONTINUOUS
 10
105.8889392669
 20
113.5359210455
 40
0.6
100
AcDbArc
 50
316.2046933767
 51
48.5681080083
  0
ARC
  5
624
100
AcDbEntity
  8
02___PRT_ALL_AXES
100
AcDbCircle
 62
7
  6
CONTINUOUS
 10
127.3672615506
 20
57.3005626042
 40
3.15
100
AcDbArc
 50
41.9405713027
 51
90.4603974512
  0
ARC
  5
625
100
AcDbEntity
  8
02___PRT_ALL_AXES
100
AcDbCircle
 62
7
  6
CONTINUOUS
 10
127.3672615506
 20
57.3005626042
 40
3.15
100
AcDbArc
 50
169.5396025488
 51
218.0594286973
  0
ARC
  5
626
100
AcDbEntity
  8
02___PRT_ALL_AXES
100
AcDbCircle
 62
7
  6
CONTINUOUS
 10
118.0434700934
 20
51.9174690965
 40
3.15
100
AcDbArc
 50
21.9405713027
 51
70.4603974513
  0
ARC
  5
627
100
AcDbEntity
  8
02___PRT_ALL_AXES
100
AcDbCircle
 62
7
  6
CONTINUOUS
 10
118.0434700934
 20
51.9174690965
 40
3.15
100
AcDbArc
 50
149.5396025488
 51
198.0594286973
  0
ARC
  5
628
100
AcDbEntity
  8
02___PRT_ALL_AXES
100
AcDbCircle
 62
7
  6
CONTINUOUS
 10
107.4408456503
 20
50.0479403409
 40
3.15
100
AcDbArc
 50
1.9405713027
 51
50.4603974512
  0
ARC
  5
629
100
AcDbEntity
  8
02___PRT_ALL_AXES
100
AcDbCircle
 62
7
  6
CONTINUOUS
 10
107.4408456503
 20
50.0479403409
 40
3.15
100
AcDbArc
 50
129.5396025488
 51
178.0594286973
  0
ARC
  5
62A
100
AcDbEntity
  8
02___PRT_ALL_AXES
100
AcDbCircle
 62
7
  6
CONTINUOUS
 10
121.3194707547
 20
58.4171316746
 40
3.0
100
AcDbArc
 50
349.5395923807
 51
40.4999808184
  0
ARC
  5
62B
100
AcDbEntity
  8
02___PRT_ALL_AXES
100
AcDbCircle
 62
7
  6
CONTINUOUS
 10
120.1003888131
 20
57.7132939197
 40
3.0
100
AcDbArc
 50
199.5000177824
 51
250.4603974511
  0
ARC
  5
62C
100
AcDbEntity
  8
02___PRT_ALL_AXES
100
AcDbCircle
 62
7
  6
CONTINUOUS
 10
112.7422947406
 20
55.0351669458
 40
3.0
100
AcDbArc
 50
329.539595517
 51
20.4999964972
  0
ARC
  5
62D
100
AcDbEntity
  8
02___PRT_ALL_AXES
100
AcDbCircle
 62
7
  6
CONTINUOUS
 10
111.3560058295
 20
54.7907265233
 40
3.0
100
AcDbArc
 50
179.5000022098
 51
230.4603974511
  0
ARC
  5
62E
100
AcDbEntity
  8
02___PRT_ALL_AXES
100
AcDbCircle
 62
7
  6
CONTINUOUS
 10
127.3672629014
 20
57.3005611557
 40
1.55
100
AcDbArc
 50
42.9999436362
 51
216.9999620397
  0
ARC
  5
62F
100
AcDbEntity
  8
02___PRT_ALL_AXES
100
AcDbCircle
 62
7
  6
CONTINUOUS
 10
118.0434700934
 20
51.9174690965
 40
1.55
100
AcDbArc
 50
336.2046933767
 51
243.7953066233
  0
ARC
  5
630
100
AcDbEntity
  8
02___PRT_ALL_AXES
100
AcDbCircle
 62
7
  6
CONTINUOUS
 10
107.4408456503
 20
50.0479403409
 40
1.55
100
AcDbArc
 50
316.2046933767
 51
223.7953066233
  0
ARC
  5
631
100
AcDbEntity
  8
02___PRT_ALL_AXES
100
AcDbCircle
 62
7
  6
CONTINUOUS
 10
119.3056608358
 20
49.0718992832
 40
1.5
100
AcDbArc
 50
23.0000210709
 51
70.3827577646
  0
ARC
  5
632
100
AcDbEntity
  8
02___PRT_ALL_AXES
100
AcDbCircle
 62
7
  6
CONTINUOUS
 10
118.9056732514
 20
48.9263161699
 40
1.5
100
AcDbArc
 50
149.6172682074
 51
196.9999658311
  0
ARC
  5
633
100
AcDbEntity
  8
02___PRT_ALL_AXES
100
AcDbCircle
 62
7
  6
CONTINUOUS
 10
107.6536747815
 20
46.9422847268
 40
1.5
100
AcDbArc
 50
2.999997829
 51
50.3827577646
  0
CIRCLE
  5
634
100
AcDbEntity
  8
02___PRT_ALL_AXES
100
AcDbCircle
 62
7
  6
CONTINUOUS
 10
121.2972521108
 20
58.0479403409
 40
0.9
  0
ARC
  5
635
100
AcDbEntity
  8
02___PRT_ALL_AXES
100
AcDbCircle
 62
7
  6
CONTINUOUS
 10
124.3492579205
 20
42.8203994223
 40
0.7
100
AcDbArc
 50
203.0006950463
 51
21.9398283322
  0
ARC
  5
636
100
AcDbEntity
  8
02___PRT_ALL_AXES
100
AcDbCircle
 62
7
  6
CONTINUOUS
 10
119.0604425226
 20
40.8954190188
 40
0.7
100
AcDbArc
 50
198.0596225028
 51
17.0
  0
ARC
  5
637
100
AcDbEntity
  8
02___PRT_ALL_AXES
100
AcDbCircle
 62
7
  6
CONTINUOUS
 10
110.2549669937
 20
39.3427822015
 40
0.7
100
AcDbArc
 50
183.0004951069
 51
1.9400049584
  0
ARC
  5
638
100
AcDbEntity
  8
02___PRT_ALL_AXES
100
AcDbCircle
 62
7
  6
CONTINUOUS
 10
120.0107044438
 20
51.0500078522
 40
0.6
100
AcDbArc
 50
156.2046933767
 51
250.3827577646
  0
ARC
  5
639
100
AcDbEntity
  8
02___PRT_ALL_AXES
100
AcDbCircle
 62
7
  6
CONTINUOUS
 10
117.0940744906
 20
49.9884413649
 40
0.6
100
AcDbArc
 50
329.6172422354
 51
63.7953066233
  0
ARC
  5
63A
100
AcDbEntity
  8
02___PRT_ALL_AXES
100
AcDbCircle
 62
7
  6
CONTINUOUS
 10
108.9927520337
 20
48.5599596363
 40
0.6
100
AcDbArc
 50
136.2046933767
 51
230.3827577647
  0
ARC
  5
63B
100
AcDbEntity
  8
02___PRT_ALL_AXES
100
AcDbCircle
 62
7
  6
CONTINUOUS
 10
127.3178440563
 20
63.4503640572
 40
3.0
100
AcDbArc
 50
219.4999478547
 51
270.4603974512
  0
ARC
  5
63C
100
AcDbEntity
  8
02___PRT_ALL_AXES
100
AcDbCircle
 62
7
  6
CONTINUOUS
 10
123.268097439
 20
75.4142824869
 40
1.8
100
AcDbArc
 50
80.5
 51
160.4069815233
  0
ARC
  5
63D
100
AcDbEntity
  8
02___PRT_ALL_AXES
100
AcDbCircle
 62
7
  6
CONTINUOUS
 10
123.1864693225
 20
75.1900110846
 40
1.8
100
AcDbArc
 50
159.5930115272
 51
239.4999869194
  0
ARC
  5
63E
100
AcDbEntity
  8
02___PRT_ALL_AXES
100
AcDbCircle
 62
7
  6
CONTINUOUS
 10
120.3867728968
 20
70.3407947022
 40
1.8
100
AcDbArc
 50
60.5
 51
140.4069815232
  0
ARC
  5
63F
100
AcDbEntity
  8
02___PRT_ALL_AXES
100
AcDbCircle
 62
7
  6
CONTINUOUS
 10
120.2333624769
 20
70.1579672812
 40
1.8
100
AcDbArc
 50
139.593024094
 51
219.4999863348
  0
ARC
  5
640
100
AcDbEntity
  8
02___PRT_ALL_AXES
100
AcDbCircle
 62
7
  6
CONTINUOUS
 10
115.9439784671
 20
66.5587467022
 40
1.8
100
AcDbArc
 50
40.5
 51
120.4069815233
  0
ARC
  5
641
100
AcDbEntity
  8
02___PRT_ALL_AXES
100
AcDbCircle
 62
7
  6
CONTINUOUS
 10
115.7372893331
 20
66.4394146721
 40
1.8
100
AcDbArc
 50
119.5930301833
 51
199.4999908095
  0
ARC
  5
642
100
AcDbEntity
  8
02___PRT_ALL_AXES
100
AcDbCircle
 62
7
  6
CONTINUOUS
 10
110.4755807269
 20
64.5243092928
 40
1.8
100
AcDbArc
 50
20.5
 51
100.4069815233
  0
ARC
  5
643
100
AcDbEntity
  8
02___PRT_ALL_AXES
100
AcDbCircle
 62
7
  6
CONTINUOUS
 10
110.2405421214
 20
64.4828656453
 40
1.8
100
AcDbArc
 50
99.5930174825
 51
179.5000167422
  0
ARC
  5
644
100
AcDbEntity
  8
02___PRT_ALL_AXES
100
AcDbCircle
 62
7
  6
CONTINUOUS
 10
126.2020951499
 20
79.6269372798
 40
0.6
100
AcDbArc
 50
15.0747053432
 51
131.5915198294
  0
ARC
  5
645
100
AcDbEntity
  8
02___PRT_ALL_AXES
100
AcDbCircle
 62
7
  6
CONTINUOUS
 10
142.1515164692
 20
57.758257404
 40
0.7
100
AcDbArc
 50
238.0598433977
 51
57.0
  0
ARC
  5
646
100
AcDbEntity
  8
02___PRT_ALL_AXES
100
AcDbCircle
 62
7
  6
CONTINUOUS
 10
136.4041466753
 20
50.908817928
 40
0.7
100
AcDbArc
 50
223.0004836396
 51
41.9400011585
  0
ARC
  5
647
100
AcDbEntity
  8
02___PRT_ALL_AXES
100
AcDbCircle
 62
7
  6
CONTINUOUS
 10
132.0926661852
 20
47.2910485362
 40
0.7
100
AcDbArc
 50
218.0591112969
 51
37.0
  0
ARC
  5
648
100
AcDbEntity
  8
02___PRT_ALL_AXES
100
AcDbCircle
 62
7
  6
CONTINUOUS
 10
137.9698859937
 20
75.6648468332
 40
3.15
100
AcDbArc
 50
81.9405713027
 51
130.4603974511
  0
ARC
  5
649
100
AcDbEntity
  8
02___PRT_ALL_AXES
100
AcDbCircle
 62
7
  6
CONTINUOUS
 10
137.9698859937
 20
75.6648468332
 40
3.15
100
AcDbArc
 50
209.5396025488
 51
258.0594286973
  0
ARC
  5
64A
100
AcDbEntity
  8
02___PRT_ALL_AXES
100
AcDbCircle
 62
7
  6
CONTINUOUS
 10
134.2876331676
 20
65.5479403409
 40
3.15
100
AcDbArc
 50
61.9405713027
 51
110.4603974512
  0
ARC
  5
64B
100
AcDbEntity
  8
02___PRT_ALL_AXES
100
AcDbCircle
 62
7
  6
CONTINUOUS
 10
134.2876331676
 20
65.5479403409
 40
3.15
100
AcDbArc
 50
189.5396025488
 51
238.0594286973
  0
ARC
  5
64C
100
AcDbEntity
  8
02___PRT_ALL_AXES
100
AcDbCircle
 62
7
  6
CONTINUOUS
 10
133.9790138208
 20
80.3441031096
 40
3.0
100
AcDbArc
 50
259.5000106711
 51
310.4603974513
  0
ARC
  5
64D
100
AcDbEntity
  8
02___PRT_ALL_AXES
100
AcDbCircle
 62
7
  6
CONTINUOUS
 10
132.6192928322
 20
72.6327431376
 40
3.0
100
AcDbArc
 50
29.5395975988
 51
80.4999883628
  0
ARC
  5
64E
100
AcDbEntity
  8
02___PRT_ALL_AXES
100
AcDbCircle
 62
7
  6
CONTINUOUS
 10
132.1378399386
 20
71.3099616071
 40
3.0
100
AcDbArc
 50
239.4999726865
 51
290.4603974511
  0
ARC
  5
64F
100
AcDbEntity
  8
02___PRT_ALL_AXES
100
AcDbCircle
 62
7
  6
CONTINUOUS
 10
128.2226797942
 20
64.5287050498
 40
3.0
100
AcDbArc
 50
9.5396065626
 51
60.4999962108
  0
ARC
  5
650
100
AcDbEntity
  8
02___PRT_ALL_AXES
100
AcDbCircle
 62
7
  6
CONTINUOUS
 10
134.2876331676
 20
65.5479403409
 40
2.25
100
AcDbArc
 50
298.9840925939
 51
0.8856045607
  0
ARC
  5
651
100
AcDbEntity
  8
02___PRT_ALL_AXES
100
AcDbCircle
 62
7
  6
CONTINUOUS
 10
128.7126227881
 20
80.3031406353
 40
2.0
100
AcDbArc
 50
195.0747024472
 51
259.4999736101
  0
ARC
  5
652
100
AcDbEntity
  8
02___PRT_ALL_AXES
100
AcDbCircle
 62
7
  6
CONTINUOUS
 10
134.2876331676
 20
65.5479403409
 40
1.75
100
AcDbArc
 50
296.2691814429
 51
3.8563963017
  0
ARC
  5
653
100
AcDbEntity
  8
02___PRT_ALL_AXES
100
AcDbCircle
 62
7
  6
CONTINUOUS
 10
137.9698859937
 20
75.6648468332
 40
1.55
100
AcDbArc
 50
36.2046933767
 51
303.7953066233
  0
ARC
  5
654
100
AcDbEntity
  8
02___PRT_ALL_AXES
100
AcDbCircle
 62
7
  6
CONTINUOUS
 10
134.2876331676
 20
65.5479403409
 40
1.55
100
AcDbArc
 50
16.2046933767
 51
283.7953066233
  0
ARC
  5
655
100
AcDbEntity
  8
02___PRT_ALL_AXES
100
AcDbCircle
 62
7
  6
CONTINUOUS
 10
141.0653171114
 20
75.3351511739
 40
1.5
100
AcDbArc
 50
83.0000033775
 51
130.3827577646
  0
ARC
  5
656
100
AcDbEntity
  8
02___PRT_ALL_AXES
100
AcDbCircle
 62
7
  6
CONTINUOUS
 10
140.991402172
 20
74.9159598946
 40
1.5
100
AcDbArc
 50
209.6172544372
 51
257.0000466343
  0
ARC
  5
657
100
AcDbEntity
  8
02___PRT_ALL_AXES
100
AcDbCircle
 62
7
  6
CONTINUOUS
 10
137.0836243905
 20
64.1794279682
 40
1.5
100
AcDbArc
 50
63.0000711138
 51
110.3827577646
  0
ARC
  5
658
100
AcDbEntity
  8
02___PRT_ALL_AXES
100
AcDbCircle
 62
7
  6
CONTINUOUS
 10
136.8707953235
 20
63.8107967203
 40
1.5
100
AcDbArc
 50
189.6172275423
 51
237.0000307106
  0
ARC
  5
659
100
AcDbEntity
  8
7_ALL_FEATURES
100
AcDbCircle
 62
7
  6
CONTINUOUS
 10
148.3665904419
 20
61.6314407479
 40
0.7
100
AcDbArc
 50
245.0
 51
335.0
  0
ARC
  5
65A
100
AcDbEntity
  8
7_ALL_FEATURES
100
AcDbCircle
 62
7
  6
CONTINUOUS
 10
148.6201613989
 20
62.1752254202
 40
0.7
100
AcDbArc
 50
335.0
 51
65.0
  0
ARC
  5
65B
100
AcDbEntity
  8
02___PRT_ALL_AXES
100
AcDbCircle
 62
7
  6
CONTINUOUS
 10
149.0010709911
 20
76.5772847343
 40
0.7
100
AcDbArc
 50
263.0008891704
 51
81.9397478741
  0
ARC
  5
65C
100
AcDbEntity
  8
02___PRT_ALL_AXES
100
AcDbCircle
 62
7
  6
CONTINUOUS
 10
148.0237475774
 20
71.034545753
 40
0.7
100
AcDbArc
 50
258.0594257598
 51
77.0
  0
ARC
  5
65D
100
AcDbEntity
  8
02___PRT_ALL_AXES
100
AcDbCircle
 62
7
  6
CONTINUOUS
 10
144.9656697587
 20
62.6324429808
 40
0.7
100
AcDbArc
 50
242.9970943657
 51
61.9434318774
  0
ARC
  5
65E
100
AcDbEntity
  8
02___PRT_ALL_AXES
100
AcDbCircle
 62
7
  6
CONTINUOUS
 10
139.7047466433
 20
76.9347911338
 40
0.6
100
AcDbArc
 50
216.2046933767
 51
310.3827577646
  0
ARC
  5
65F
100
AcDbEntity
  8
02___PRT_ALL_AXES
100
AcDbCircle
 62
7
  6
CONTINUOUS
 10
139.1657752125
 20
73.8781322572
 40
0.6
100
AcDbArc
 50
29.6172422354
 51
123.7953066233
  0
ARC
  5
660
100
AcDbEntity
  8
02___PRT_ALL_AXES
100
AcDbCircle
 62
7
  6
CONTINUOUS
 10
136.3522154498
 20
66.1479403409
 40
0.6
100
AcDbArc
 50
196.2046933767
 51
290.3827577646
  0
ARC
  5
661
100
AcDbEntity
  8
02___PRT_ALL_AXES
100
AcDbCircle
 62
7
  6
CONTINUOUS
 10
134.8003090664
 20
63.4599596363
 40
0.6
100
AcDbArc
 50
9.6172422353
 51
103.7953066233
  0
ARC
  5
662
100
AcDbEntity
  8
02___PRT_ALL_AXES
100
AcDbCircle
 62
7
  6
CONTINUOUS
 10
107.4408456503
 20
81.0479403409
 40
15.0
100
AcDbArc
 50
99.5930184767
 51
100.4069815233
  0
ARC
  5
663
100
AcDbEntity
  8
02___PRT_ALL_AXES
100
AcDbCircle
 62
7
  6
CONTINUOUS
 10
107.4408456503
 20
81.0479403409
 40
15.0
100
AcDbArc
 50
79.5930184767
 51
80.4069815233
  0
ARC
  5
664
100
AcDbEntity
  8
02___PRT_ALL_AXES
100
AcDbCircle
 62
7
  6
CONTINUOUS
 10
107.4408456503
 20
81.0479403409
 40
15.0
100
AcDbArc
 50
59.5930184767
 51
60.4069815233
  0
ARC
  5
665
100
AcDbEntity
  8
02___PRT_ALL_AXES
100
AcDbCircle
 62
7
  6
CONTINUOUS
 10
107.4408456503
 20
81.0479403409
 40
15.0
100
AcDbArc
 50
39.5930184767
 51
40.4069815233
  0
ARC
  5
666
100
AcDbEntity
  8
02___PRT_ALL_AXES
100
AcDbCircle
 62
7
  6
CONTINUOUS
 10
107.4408456503
 20
81.0479403409
 40
15.0
100
AcDbArc
 50
19.5930184767
 51
20.4069815233
  0
ARC
  5
667
100
AcDbEntity
  8
02___PRT_ALL_AXES
100
AcDbCircle
 62
7
  6
CONTINUOUS
 10
107.4408456503
 20
81.0479403409
 40
15.0
100
AcDbArc
 50
339.5930184767
 51
340.4069815233
  0
ARC
  5
668
100
AcDbEntity
  8
02___PRT_ALL_AXES
100
AcDbCircle
 62
7
  6
CONTINUOUS
 10
107.4408456503
 20
81.0479403409
 40
15.0
100
AcDbArc
 50
319.5930184767
 51
320.4069815233
  0
ARC
  5
669
100
AcDbEntity
  8
02___PRT_ALL_AXES
100
AcDbCircle
 62
7
  6
CONTINUOUS
 10
107.4408456503
 20
81.0479403409
 40
15.0
100
AcDbArc
 50
299.5930184767
 51
300.4069815233
  0
ARC
  5
66A
100
AcDbEntity
  8
02___PRT_ALL_AXES
100
AcDbCircle
 62
7
  6
CONTINUOUS
 10
107.4408456503
 20
81.0479403409
 40
15.0
100
AcDbArc
 50
279.5930184767
 51
280.4069815233
  0
ARC
  5
66B
100
AcDbEntity
  8
02___PRT_ALL_AXES
100
AcDbCircle
 62
7
  6
CONTINUOUS
 10
107.4408456503
 20
81.0479403409
 40
15.0
100
AcDbArc
 50
259.5930184767
 51
260.4069815233
  0
ARC
  5
66C
100
AcDbEntity
  8
02___PRT_ALL_AXES
100
AcDbCircle
 62
7
  6
CONTINUOUS
 10
107.4408456503
 20
81.0479403409
 40
15.0
100
AcDbArc
 50
239.5930184767
 51
240.4069815233
  0
ARC
  5
66D
100
AcDbEntity
  8
02___PRT_ALL_AXES
100
AcDbCircle
 62
7
  6
CONTINUOUS
 10
107.4408456503
 20
81.0479403409
 40
15.0
100
AcDbArc
 50
219.5930184767
 51
220.4069815233
  0
ARC
  5
66E
100
AcDbEntity
  8
02___PRT_ALL_AXES
100
AcDbCircle
 62
7
  6
CONTINUOUS
 10
107.4408456503
 20
81.0479403409
 40
15.0
100
AcDbArc
 50
199.5930184767
 51
200.4069815233
  0
ARC
  5
66F
100
AcDbEntity
  8
02___PRT_ALL_AXES
100
AcDbCircle
 62
7
  6
CONTINUOUS
 10
107.4408456503
 20
81.0479403409
 40
15.0
100
AcDbArc
 50
159.5930184767
 51
160.4069815233
  0
ARC
  5
670
100
AcDbEntity
  8
02___PRT_ALL_AXES
100
AcDbCircle
 62
7
  6
CONTINUOUS
 10
107.4408456503
 20
81.0479403409
 40
15.0
100
AcDbArc
 50
139.5930184767
 51
140.4069815233
  0
ARC
  5
671
100
AcDbEntity
  8
02___PRT_ALL_AXES
100
AcDbCircle
 62
7
  6
CONTINUOUS
 10
107.4408456503
 20
81.0479403409
 40
15.0
100
AcDbArc
 50
119.5930184767
 51
120.4069815233
  0
ARC
  5
672
100
AcDbEntity
  8
02___PRT_ALL_AXES
100
AcDbCircle
 62
7
  6
CONTINUOUS
 10
127.3178435314
 20
98.6455166288
 40
3.0
100
AcDbArc
 50
89.5395925231
 51
140.4999775643
  0
ARC
  5
673
100
AcDbEntity
  8
02___PRT_ALL_AXES
100
AcDbCircle
 62
7
  6
CONTINUOUS
 10
110.2405421522
 20
97.6130150313
 40
1.8
100
AcDbArc
 50
180.5
 51
260.4069815233
  0
ARC
  5
674
100
AcDbEntity
  8
02___PRT_ALL_AXES
100
AcDbCircle
 62
7
  6
CONTINUOUS
 10
110.4755807068
 20
97.5715713927
 40
1.8
100
AcDbArc
 50
259.5930191251
 51
339.5000132139
  0
ARC
  5
675
100
AcDbEntity
  8
02___PRT_ALL_AXES
100
AcDbCircle
 62
7
  6
CONTINUOUS
 10
115.7372890133
 20
95.6564661914
 40
1.8
100
AcDbArc
 50
160.5
 51
240.4069815233
  0
ARC
  5
676
100
AcDbEntity
  8
02___PRT_ALL_AXES
100
AcDbCircle
 62
7
  6
CONTINUOUS
 10
115.9439786294
 20
95.5371338844
 40
1.8
100
AcDbArc
 50
239.593012489
 51
319.5000021032
  0
ARC
  5
677
100
AcDbEntity
  8
02___PRT_ALL_AXES
100
AcDbCircle
 62
7
  6
CONTINUOUS
 10
120.2333623625
 20
91.937913535
 40
1.8
100
AcDbArc
 50
140.5
 51
220.4069815233
  0
ARC
  5
678
100
AcDbEntity
  8
02___PRT_ALL_AXES
100
AcDbCircle
 62
7
  6
CONTINUOUS
 10
120.3867728803
 20
91.7550859996
 40
1.8
100
AcDbArc
 50
219.5930193029
 51
299.5000031959
  0
ARC
  5
679
100
AcDbEntity
  8
02___PRT_ALL_AXES
100
AcDbCircle
 62
7
  6
CONTINUOUS
 10
123.1864693987
 20
86.9058693926
 40
1.8
100
AcDbArc
 50
120.5
 51
200.4069815233
  0
ARC
  5
67A
100
AcDbEntity
  8
02___PRT_ALL_AXES
100
AcDbCircle
 62
7
  6
CONTINUOUS
 10
123.2680974879
 20
86.6815980576
 40
1.8
100
AcDbArc
 50
199.5930138366
 51
279.5000123751
  0
ARC
  5
67B
100
AcDbEntity
  8
02___PRT_ALL_AXES
100
AcDbCircle
 62
7
  6
CONTINUOUS
 10
124.9408456503
 20
81.0479403409
 40
1.3
100
AcDbArc
 50
48.4084801706
 51
311.5915198294
  0
ARC
  5
67C
100
AcDbEntity
  8
02___PRT_ALL_AXES
100
AcDbCircle
 62
7
  6
CONTINUOUS
 10
126.2020951499
 20
82.468943402
 40
0.6
100
AcDbArc
 50
228.4084801706
 51
344.9252946568
  0
ARC
  5
67D
100
AcDbEntity
  8
02___PRT_ALL_AXES
100
AcDbCircle
 62
7
  6
CONTINUOUS
 10
107.4408456503
 20
112.0479403409
 40
3.15
100
AcDbArc
 50
181.9405713027
 51
230.460397451
  0
ARC
  5
67E
100
AcDbEntity
  8
02___PRT_ALL_AXES
100
AcDbCircle
 62
7
  6
CONTINUOUS
 10
107.4408456503
 20
112.0479403409
 40
3.15
100
AcDbArc
 50
309.5396025489
 51
358.0594286973
  0
ARC
  5
67F
100
AcDbEntity
  8
02___PRT_ALL_AXES
100
AcDbCircle
 62
7
  6
CONTINUOUS
 10
118.0434700934
 20
110.1784115853
 40
3.15
100
AcDbArc
 50
161.9405713027
 51
210.4603974513
  0
ARC
  5
680
100
AcDbEntity
  8
02___PRT_ALL_AXES
100
AcDbCircle
 62
7
  6
CONTINUOUS
 10
118.0434700934
 20
110.1784115853
 40
3.15
100
AcDbArc
 50
289.5396025487
 51
338.0594286973
  0
ARC
  5
681
100
AcDbEntity
  8
02___PRT_ALL_AXES
100
AcDbCircle
 62
7
  6
CONTINUOUS
 10
127.3672615506
 20
104.7953180776
 40
3.15
100
AcDbArc
 50
141.9405713027
 51
190.4603974512
  0
ARC
  5
682
100
AcDbEntity
  8
02___PRT_ALL_AXES
100
AcDbCircle
 62
7
  6
CONTINUOUS
 10
127.3672615506
 20
104.7953180776
 40
3.15
100
AcDbArc
 50
269.5396025488
 51
318.0594286973
  0
ARC
  5
683
100
AcDbEntity
  8
02___PRT_ALL_AXES
100
AcDbCircle
 62
7
  6
CONTINUOUS
 10
111.3560058466
 20
107.3051541727
 40
3.0
100
AcDbArc
 50
129.5396029736
 51
180.5000095073
  0
ARC
  5
684
100
AcDbEntity
  8
02___PRT_ALL_AXES
100
AcDbCircle
 62
7
  6
CONTINUOUS
 10
112.742294554
 20
107.0607140534
 40
3.0
100
AcDbArc
 50
339.4999634257
 51
30.4603974511
  0
ARC
  5
685
100
AcDbEntity
  8
02___PRT_ALL_AXES
100
AcDbCircle
 62
7
  6
CONTINUOUS
 10
120.1003889818
 20
104.382586822
 40
3.0
100
AcDbArc
 50
109.5396059678
 51
160.5000194862
  0
ARC
  5
686
100
AcDbEntity
  8
02___PRT_ALL_AXES
100
AcDbCircle
 62
7
  6
CONTINUOUS
 10
121.319470658
 20
103.6787495308
 40
3.0
100
AcDbArc
 50
319.4999471139
 51
10.4603974512
  0
ARC
  5
687
100
AcDbEntity
  8
02___PRT_ALL_AXES
100
AcDbCircle
 62
7
  6
CONTINUOUS
 10
118.0434714272
 20
110.178415948
 40
1.55
100
AcDbArc
 50
163.0000488475
 51
336.9998405763
  0
ARC
  5
688
100
AcDbEntity
  8
02___PRT_ALL_AXES
100
AcDbCircle
 62
7
  6
CONTINUOUS
 10
107.4408456503
 20
112.0479403409
 40
1.55
100
AcDbArc
 50
136.2046933767
 51
43.7953066233
  0
ARC
  5
689
100
AcDbEntity
  8
02___PRT_ALL_AXES
100
AcDbCircle
 62
7
  6
CONTINUOUS
 10
127.3672615506
 20
104.7953180776
 40
1.55
100
AcDbArc
 50
96.2046933767
 51
3.7953066233
  0
ARC
  5
68A
100
AcDbEntity
  8
02___PRT_ALL_AXES
100
AcDbCircle
 62
7
  6
CONTINUOUS
 10
107.9339852577
 20
114.7355096892
 40
1.0
100
AcDbArc
 50
311.4318852783
 51
356.9999544171
  0
ARC
  5
68B
100
AcDbEntity
  8
02___PRT_ALL_AXES
100
AcDbCircle
 62
7
  6
CONTINUOUS
 10
110.1517463272
 20
122.6597343065
 40
0.8
100
AcDbArc
 50
358.0591417682
 51
177.0002535843
  0
ARC
  5
68C
100
AcDbEntity
  8
7_ALL_FEATURES
100
AcDbCircle
 62
7
  6
CONTINUOUS
 10
126.8541327606
 20
121.9768976151
 40
0.7
100
AcDbArc
 50
335.0
 51
65.0
  0
ARC
  5
68D
100
AcDbEntity
  8
7_ALL_FEATURES
100
AcDbCircle
 62
7
  6
CONTINUOUS
 10
126.3103480884
 20
122.2304685722
 40
0.7
100
AcDbArc
 50
65.0
 51
155.0
  0
ARC
  5
68E
100
AcDbEntity
  8
02___PRT_ALL_AXES
100
AcDbCircle
 62
7
  6
CONTINUOUS
 10
119.0604340474
 20
121.2004339396
 40
0.7
100
AcDbArc
 50
343.0023728595
 51
161.9383392978
  0
ARC
  5
68F
100
AcDbEntity
  8
02___PRT_ALL_AXES
100
AcDbCircle
 62
7
  6
CONTINUOUS
 10
124.3492612385
 20
119.275489076
 40
0.7
100
AcDbArc
 50
338.0594853862
 51
157.0
  0
ARC
  5
690
100
AcDbEntity
  8
02___PRT_ALL_AXES
100
AcDbCircle
 62
7
  6
CONTINUOUS
 10
108.9927520337
 20
113.5359210455
 40
0.6
100
AcDbArc
 50
131.4318919916
 51
223.7953066233
  0
ARC
  5
691
100
AcDbEntity
  8
02___PRT_ALL_AXES
100
AcDbCircle
 62
7
  6
CONTINUOUS
 10
127.1348878497
 20
106.9327236224
 40
0.6
100
AcDbArc
 50
276.2046933767
 51
10.3827577647
  0
ARC
  5
692
100
AcDbEntity
  8
02___PRT_ALL_AXES
100
AcDbCircle
 62
7
  6
CONTINUOUS
 10
134.2876331676
 20
96.5479403409
 40
3.15
100
AcDbArc
 50
121.9405713027
 51
170.4603974514
  0
ARC
  5
693
100
AcDbEntity
  8
02___PRT_ALL_AXES
100
AcDbCircle
 62
7
  6
CONTINUOUS
 10
134.2876331676
 20
96.5479403409
 40
3.15
100
AcDbArc
 50
249.5396025488
 51
298.0594286973
  0
ARC
  5
694
100
AcDbEntity
  8
02___PRT_ALL_AXES
100
AcDbCircle
 62
7
  6
CONTINUOUS
 10
137.9698859937
 20
86.4310338486
 40
3.15
100
AcDbArc
 50
101.9405713027
 51
150.4603974511
  0
ARC
  5
695
100
AcDbEntity
  8
02___PRT_ALL_AXES
100
AcDbCircle
 62
7
  6
CONTINUOUS
 10
137.9698859937
 20
86.4310338486
 40
3.15
100
AcDbArc
 50
229.539602549
 51
278.0594286973
  0
ARC
  5
696
100
AcDbEntity
  8
02___PRT_ALL_AXES
100
AcDbCircle
 62
7
  6
CONTINUOUS
 10
128.2226797594
 20
97.5671754248
 40
3.0
100
AcDbArc
 50
299.5000208763
 51
350.460397451
  0
ARC
  5
697
100
AcDbEntity
  8
02___PRT_ALL_AXES
100
AcDbCircle
 62
7
  6
CONTINUOUS
 10
132.1378396809
 20
90.7859191708
 40
3.0
100
AcDbArc
 50
69.5395972974
 51
120.4999982451
  0
ARC
  5
698
100
AcDbEntity
  8
02___PRT_ALL_AXES
100
AcDbCircle
 62
7
  6
CONTINUOUS
 10
132.61929296
 20
89.4631377697
 40
3.0
100
AcDbArc
 50
279.4999742538
 51
330.4603974513
  0
ARC
  5
699
100
AcDbEntity
  8
02___PRT_ALL_AXES
100
AcDbCircle
 62
7
  6
CONTINUOUS
 10
133.9790139025
 20
81.7517775025
 40
3.0
100
AcDbArc
 50
49.5396046003
 51
100.499990379
  0
ARC
  5
69A
100
AcDbEntity
  8
02___PRT_ALL_AXES
100
AcDbCircle
 62
7
  6
CONTINUOUS
 10
134.2876331676
 20
96.5479403409
 40
2.25
100
AcDbArc
 50
359.1143954393
 51
61.0159074061
  0
ARC
  5
69B
100
AcDbEntity
  8
02___PRT_ALL_AXES
100
AcDbCircle
 62
7
  6
CONTINUOUS
 10
128.7126227618
 20
81.7927399489
 40
2.0
100
AcDbArc
 50
100.5
 51
164.9252946568
  0
ARC
  5
69C
100
AcDbEntity
  8
02___PRT_ALL_AXES
100
AcDbCircle
 62
7
  6
CONTINUOUS
 10
134.2876331676
 20
96.5479403409
 40
1.75
100
AcDbArc
 50
356.1436036983
 51
63.7308185571
  0
ARC
  5
69D
100
AcDbEntity
  8
02___PRT_ALL_AXES
100
AcDbCircle
 62
7
  6
CONTINUOUS
 10
137.9698865923
 20
86.4310339868
 40
1.55
100
AcDbArc
 50
103.0000613581
 51
276.9999572279
  0
ARC
  5
69E
100
AcDbEntity
  8
02___PRT_ALL_AXES
100
AcDbCircle
 62
7
  6
CONTINUOUS
 10
134.2876331676
 20
96.5479403409
 40
1.55
100
AcDbArc
 50
76.2046933767
 51
343.7953066233
  0
ARC
  5
69F
100
AcDbEntity
  8
02___PRT_ALL_AXES
100
AcDbCircle
 62
7
  6
CONTINUOUS
 10
136.8707952592
 20
98.2850835823
 40
1.5
100
AcDbArc
 50
122.999922049
 51
170.3827577646
  0
ARC
  5
6A0
100
AcDbEntity
  8
02___PRT_ALL_AXES
100
AcDbCircle
 62
7
  6
CONTINUOUS
 10
137.0836240615
 20
97.9164528359
 40
1.5
100
AcDbArc
 50
249.6172556398
 51
297.0000063649
  0
ARC
  5
6A1
100
AcDbEntity
  8
02___PRT_ALL_AXES
100
AcDbCircle
 62
7
  6
CONTINUOUS
 10
144.9656381292
 20
99.463421584
 40
0.7
100
AcDbArc
 50
298.0591925175
 51
117.0
  0
ARC
  5
6A2
100
AcDbEntity
  8
02___PRT_ALL_AXES
100
AcDbCircle
 62
7
  6
CONTINUOUS
 10
148.0237480065
 20
91.0613350279
 40
0.7
100
AcDbArc
 50
282.9999639547
 51
101.9405566303
  0
ARC
  5
6A3
100
AcDbEntity
  8
02___PRT_ALL_AXES
100
AcDbCircle
 62
7
  6
CONTINUOUS
 10
149.0010817734
 20
85.5185972714
 40
0.7
100
AcDbArc
 50
278.0595012248
 51
97.0
  0
ARC
  5
6A4
100
AcDbEntity
  8
02___PRT_ALL_AXES
100
AcDbCircle
 62
7
  6
CONTINUOUS
 10
134.8003090664
 20
98.6359210455
 40
0.6
100
AcDbArc
 50
256.2046933767
 51
350.3827577647
  0
ARC
  5
6A5
100
AcDbEntity
  8
02___PRT_ALL_AXES
100
AcDbCircle
 62
7
  6
CONTINUOUS
 10
136.3522154498
 20
95.9479403409
 40
0.6
100
AcDbArc
 50
69.6172422354
 51
163.7953066233
  0
ARC
  5
6A6
100
AcDbEntity
  8
02___PRT_ALL_AXES
100
AcDbCircle
 62
7
  6
CONTINUOUS
 10
129.2005019259
 20
107.3111922316
 40
1.5
100
AcDbArc
 50
143.0000421664
 51
190.3827577646
  0
ARC
  5
6A7
100
AcDbEntity
  8
02___PRT_ALL_AXES
100
AcDbCircle
 62
7
  6
CONTINUOUS
 10
129.5265746354
 20
107.0375843774
 40
1.5
100
AcDbArc
 50
269.6172589352
 51
316.9999733351
  0
ARC
  5
6A8
100
AcDbEntity
  8
02___PRT_ALL_AXES
100
AcDbCircle
 62
7
  6
CONTINUOUS
 10
132.0926949265
 20
114.8048702838
 40
0.7
100
AcDbArc
 50
322.9960911647
 51
141.9445063625
  0
ARC
  5
6A9
100
AcDbEntity
  8
02___PRT_ALL_AXES
100
AcDbCircle
 62
7
  6
CONTINUOUS
 10
136.4041507051
 20
111.1870670752
 40
0.7
100
AcDbArc
 50
318.0594681375
 51
137.0
  0
ARC
  5
6AA
100
AcDbEntity
  8
02___PRT_ALL_AXES
100
AcDbCircle
 62
7
  6
CONTINUOUS
 10
142.1514645867
 20
104.3375895817
 40
0.7
100
AcDbArc
 50
303.0050636769
 51
121.9354607049
  0
ARC
  5
6AB
100
AcDbEntity
  8
02___PRT_ALL_AXES
100
AcDbCircle
 62
7
  6
CONTINUOUS
 10
129.5125463722
 20
104.9376312332
 40
0.6
100
AcDbArc
 50
89.6172422354
 51
183.7953066233
  0
ARC
  5
6AC
100
AcDbEntity
  8
7_ALL_FEATURES
100
AcDbCircle
 62
3
  6
CONTINUOUS
 10
332.1807434135
 20
209.8198997113
 40
7.5
100
AcDbArc
 50
297.5
 51
108.6845559976
  0
ARC
  5
6AD
100
AcDbEntity
  8
7_ALL_FEATURES
100
AcDbCircle
 62
3
  6
CONTINUOUS
 10
227.1807434135
 20
209.8198997113
 40
7.5
100
AcDbArc
 50
71.3154440024
 51
242.5
  0
CIRCLE
  5
6AE
100
AcDbEntity
  8
02___PRT_ALL_AXES
100
AcDbCircle
 62
7
  6
CONTINUOUS
 10
279.6807434135
 20
214.5404354614
 40
3.0
  0
CIRCLE
  5
6AF
100
AcDbEntity
  8
02___PRT_ALL_AXES
100
AcDbCircle
 62
7
  6
CONTINUOUS
 10
279.6807434135
 20
190.5404354614
 40
3.0
  0
ARC
  5
6B0
100
AcDbEntity
  8
7_ALL_FEATURES
100
AcDbCircle
 62
3
  6
CONTINUOUS
 10
293.2320234265
 20
201.3985454689
 40
3.0
100
AcDbArc
 50
108.6845559976
 51
167.5
  0
ARC
  5
6B1
100
AcDbEntity
  8
7_ALL_FEATURES
100
AcDbCircle
 62
3
  6
CONTINUOUS
 10
266.1294634005
 20
201.3985454689
 40
3.0
100
AcDbArc
 50
12.5
 51
71.3154440024
  0
ARC
  5
6B2
100
AcDbEntity
  8
02___PRT_ALL_AXES
100
AcDbCircle
 62
7
  6
CONTINUOUS
 10
279.6807434135
 20
213.0404354614
 40
2.0
100
AcDbArc
 50
207.3887230122
 51
332.6003770815
  0
ARC
  5
6B3
100
AcDbEntity
  8
7_ALL_FEATURES
100
AcDbCircle
 62
3
  6
CONTINUOUS
 10
289.8899903867
 20
181.0404354614
 40
1.5
100
AcDbArc
 50
270.0
 51
297.5
  0
ARC
  5
6B4
100
AcDbEntity
  8
7_ALL_FEATURES
100
AcDbCircle
 62
3
  6
CONTINUOUS
 10
269.4714964402
 20
181.0404354614
 40
1.5
100
AcDbArc
 50
242.5
 51
270.0
  0
ARC
  5
6B5
100
AcDbEntity
  8
7_ALL_FEATURES
100
AcDbCircle
 62
3
  6
CONTINUOUS
 10
270.884620691
 20
200.7404354614
 40
1.5
100
AcDbArc
 50
192.5
 51
270.0
  0
ARC
  5
6B6
100
AcDbEntity
  8
7_ALL_FEATURES
100
AcDbCircle
 62
3
  6
CONTINUOUS
 10
288.476866136
 20
200.7404354614
 40
1.5
100
AcDbArc
 50
270.0
 51
347.5
  0
SPLINE
  5
6B7
100
AcDbEntity
  8
7_ALL_FEATURES
100
AcDbSpline
 62
7
  6
CONTINUOUS
 70
0
 71
3
 72
21
 73
17
 74
0
 42
0.0000001
 43
0.0000001
 44
0.0000000001
 40
0.0
 40
0.0
 40
0.0
 40
0.0
 40
0.1264943356
 40
0.25270886
 40
0.3157115349
 40
0.378573016
 40
0.4412824059
 40
0.5038358578
 40
0.5662367489
 40
0.6284941969
 40
0.6906215742
 40
0.7526366888
 40
0.8145600668
 40
0.8764117282
 40
0.9382194598
 40
1.0
 40
1.0
 40
1.0
 40
1.0
 10
149.3201613989
 20
179.5404354614
 30
0.0
 10
149.3201613989
 20
179.6372670216
 30
0.0
 10
149.3023434133
 20
179.8311586127
 30
0.0
 10
149.2359623772
 20
180.0650546448
 30
0.0
 10
149.1577146369
 20
180.2417122427
 30
0.0
 10
149.0869428769
 20
180.367785455
 30
0.0
 10
149.004647409
 20
180.4862325366
 30
0.0
 10
148.9115079565
 20
180.5959043884
 30
0.0
 10
148.8083212696
 20
180.6956905407
 30
0.0
 10
148.6959988644
 20
180.7845528378
 30
0.0
 10
148.5755678684
 20
180.8615342603
 30
0.0
 10
148.4481689058
 20
180.9257811922
 30
0.0
 10
148.3150502707
 20
180.9765576042
 30
0.0
 10
148.1775447708
 20
181.0132722681
 30
0.0
 10
148.0370896029
 20
181.0354787693
 30
0.0
 10
147.9424082442
 20
181.0404354614
 30
0.0
 10
147.8951151693
 20
181.0404354614
 30
0.0
  0
SPLINE
  5
6B8
100
AcDbEntity
  8
7_ALL_FEATURES
100
AcDbSpline
 62
7
  6
CONTINUOUS
 70
0
 71
3
 72
20
 73
16
 74
0
 42
0.0000001
 43
0.0000001
 44
0.0000000001
 40
0.0
 40
0.0
 40
0.0
 40
0.0
 40
0.167866569
 40
0.330452635
 40
0.4828268292
 40
0.5538406427
 40
0.6207800863
 40
0.6832934619
 40
0.7411370257
 40
0.7942066234
 40
0.8425803167
 40
0.8865665584
 40
0.9267689382
 40
0.9641532287
 40
1.0
 40
1.0
 40
1.0
 40
1.0
 10
147.345711429
 20
180.3404354614
 30
0.0
 10
147.345711429
 20
180.3859971915
 30
0.0
 10
147.349386746
 20
180.4757366374
 30
0.0
 10
147.3658009797
 20
180.6059029971
 30
0.0
 10
147.3884991429
 20
180.7083820317
 30
0.0
 10
147.4119541034
 20
180.7836523077
 30
0.0
 10
147.4313257555
 20
180.8345391913
 30
0.0
 10
147.4527016579
 20
180.8807137894
 30
0.0
 10
147.4758881068
 20
180.9217464095
 30
0.0
 10
147.5006797432
 20
180.9572589491
 30
0.0
 10
147.5268714647
 20
180.9869257633
 30
0.0
 10
147.5542646832
 20
181.0104618737
 30
0.0
 10
147.5826776402
 20
181.0276030831
 30
0.0
 10
147.61186891
 20
181.0380646671
 30
0.0
 10
147.6318148127
 20
181.0404354614
 30
0.0
 10
147.6415442122
 20
181.0404354614
 30
0.0
  0
SPLINE
  5
6B9
100
AcDbEntity
  8
7_ALL_FEATURES
100
AcDbSpline
 62
9
  6
CONTINUOUS
 70
0
 71
3
 72
21
 73
17
 74
0
 42
0.0000001
 43
0.0000001
 44
0.0000000001
 40
0.0
 40
0.0
 40
0.0
 40
0.0
 40
0.0594219867
 40
0.1189742332
 40
0.1787615084
 40
0.2388998512
 40
0.2994781047
 40
0.3605705806
 40
0.422229221
 40
0.484483213
 40
0.6106328221
 40
0.7389514852
 40
0.8038351314
 40
0.8690371185
 40
0.934466348
 40
1.0
 40
1.0
 40
1.0
 40
1.0
 10
147.6415442122
 20
181.0404354614
 30
0.0
 10
147.6860242232
 20
181.0404354614
 30
0.0
 10
147.7751566285
 20
181.0355988978
 30
0.0
 10
147.9074511794
 20
181.0139244609
 30
0.0
 10
148.037184099
 20
180.9780289937
 30
0.0
 10
148.1630764415
 20
180.9282781735
 30
0.0
 10
148.2839207806
 20
180.8651502182
 30
0.0
 10
148.3985482751
 20
180.7892681531
 30
0.0
 10
148.5058650456
 20
180.70135828
 30
0.0
 10
148.6383483573
 20
180.568756474
 30
0.0
 10
148.7804642121
 20
180.3770383145
 30
0.0
 10
148.8849714273
 20
180.1604394166
 30
0.0
 10
148.9446475974
 20
179.9762207597
 30
0.0
 10
148.9770716619
 20
179.8332914371
 30
0.0
 10
148.996641618
 20
179.6875784117
 30
0.0
 10
149.0010058928
 20
179.5894903268
 30
0.0
 10
149.0010058928
 20
179.5404354614
 30
0.0
  0
SPLINE
  5
6BA
100
AcDbEntity
  8
7_ALL_FEATURES
100
AcDbSpline
 62
9
  6
CONTINUOUS
 70
0
 71
3
 72
18
 73
14
 74
0
 42
0.0000001
 43
0.0000001
 44
0.0000000001
 40
0.0
 40
0.0
 40
0.0
 40
0.0
 40
0.1308966603
 40
0.1961278957
 40
0.2610414596
 40
0.3894213599
 40
0.5156307277
 40
0.5779142277
 40
0.6396021087
 40
0.700723177
 40
0.7613308012
 40
0.881141414
 40
1.0
 40
1.0
 40
1.0
 40
1.0
 10
148.0707576586
 20
179.5404354614
 30
0.0
 10
148.0707576586
 20
179.59266779
 30
0.0
 10
148.0637751438
 20
179.6711662838
 30
0.0
 10
148.0407008902
 20
179.7728476747
 30
0.0
 10
148.0088712369
 20
179.8711077943
 30
0.0
 10
147.953136055
 20
179.9866222182
 30
0.0
 10
147.8773399848
 20
180.0888729594
 30
0.0
 10
147.8066822604
 20
180.1595943964
 30
0.0
 10
147.7494483103
 20
180.2064792804
 30
0.0
 10
147.6883069632
 20
180.2469503537
 30
0.0
 10
147.6027531465
 20
180.2916524809
 30
0.0
 10
147.4886777256
 20
180.3300322816
 30
0.0
 10
147.3931401465
 20
180.3404354614
 30
0.0
 10
147.345711429
 20
180.3404354614
 30
0.0
  0
SPLINE
  5
6BB
100
AcDbEntity
  8
7_ALL_FEATURES
100
AcDbSpline
 62
9
  6
CONTINUOUS
 70
0
 71
3
 72
21
 73
17
 74
0
 42
0.0000001
 43
0.0000001
 44
0.0000000001
 40
0.0
 40
0.0
 40
0.0
 40
0.0
 40
0.0655336519
 40
0.1309628811
 40
0.1961648682
 40
0.2610485145
 40
0.3893671777
 40
0.5155167872
 40
0.5777707791
 40
0.6394294192
 40
0.7005218953
 40
0.7611001486
 40
0.8212384912
 40
0.8810257664
 40
0.9405780133
 40
1.0
 40
1.0
 40
1.0
 40
1.0
 10
149.2545768498
 20
179.5404354614
 30
0.0
 10
149.2545768498
 20
179.5894903267
 30
0.0
 10
149.2502125751
 20
179.6875784113
 30
0.0
 10
149.2306426191
 20
179.8332914365
 30
0.0
 10
149.1982185546
 20
179.976220759
 30
0.0
 10
149.1385423846
 20
180.160439416
 30
0.0
 10
149.0340351692
 20
180.3770383144
 30
0.0
 10
148.8919193142
 20
180.5687564741
 30
0.0
 10
148.7594360026
 20
180.7013582801
 30
0.0
 10
148.6521192322
 20
180.789268153
 30
0.0
 10
148.5374917379
 20
180.865150218
 30
0.0
 10
148.416647399
 20
180.9282781733
 30
0.0
 10
148.2907550567
 20
180.9780289935
 30
0.0
 10
148.161022137
 20
181.0139244608
 30
0.0
 10
148.0287275859
 20
181.0355988978
 30
0.0
 10
147.9395951803
 20
181.0404354614
 30
0.0
 10
147.8951151693
 20
181.0404354614
 30
0.0
  0
SPLINE
  5
6BC
100
AcDbEntity
  8
7_ALL_FEATURES
100
AcDbSpline
 62
7
  6
CONTINUOUS
 70
0
 71
3
 72
22
 73
18
 74
0
 42
0.0000001
 43
0.0000001
 44
0.0000000001
 40
0.0
 40
0.0
 40
0.0
 40
0.0
 40
0.1331374046
 40
0.1986805737
 40
0.2631086198
 40
0.3262622586
 40
0.3881574181
 40
0.5090160872
 40
0.5688789041
 40
0.6289079978
 40
0.6894160641
 40
0.750550707
 40
0.8123036307
 40
0.8745619239
 40
0.9058582535
 40
0.937216531
 40
1.0
 40
1.0
 40
1.0
 40
1.0
 10
87.3211335746
 20
179.5404354614
 30
0.0
 10
87.3211335746
 20
179.6305021607
 30
0.0
 10
87.3280792979
 20
179.7650637986
 30
0.0
 10
87.3517245014
 20
179.941544647
 30
0.0
 10
87.3764729537
 20
180.0699061373
 30
0.0
 10
87.4084543137
 20
180.1941357644
 30
0.0
 10
87.4606489386
 20
180.3521641282
 30
0.0
 10
87.529401716
 20
180.5022098258
 30
0.0
 10
87.6174672994
 20
180.6394933338
 30
0.0
 10
87.6939131512
 20
180.7349497399
 30
0.0
 10
87.7815631535
 20
180.8215291608
 30
0.0
 10
87.8804342774
 20
180.8970720321
 30
0.0
 10
87.9896821553
 20
180.9591381426
 30
0.0
 10
88.0878653839
 20
180.9976575256
 30
0.0
 10
88.1695278209
 20
181.0196572183
 30
0.0
 10
88.2529330337
 20
181.0355943051
 30
0.0
 10
88.3167555232
 20
181.0404354614
 30
0.0
 10
88.359228184
 20
181.0404354614
 30
0.0
  0
SPLINE
  5
6BD
100
AcDbEntity
  8
7_ALL_FEATURES
100
AcDbSpline
 62
7
  6
CONTINUOUS
 70
0
 71
3
 72
17
 73
13
 74
0
 42
0.0000001
 43
0.0000001
 44
0.0000000001
 40
0.0
 40
0.0
 40
0.0
 40
0.0
 40
0.05945134
 40
0.1190448181
 40
0.1788651912
 40
0.2390377005
 40
0.3606168432
 40
0.4844475703
 40
0.6106702536
 40
0.7390636985
 40
0.869089422
 40
1.0
 40
1.0
 40
1.0
 40
1.0
 10
88.9030128563
 20
181.0404354614
 30
0.0
 10
88.9237684251
 20
181.0404354614
 30
0.0
 10
88.9653642237
 20
181.0381765467
 30
0.0
 10
89.027100994
 20
181.0280651058
 30
0.0
 10
89.0876486029
 20
181.0113102151
 30
0.0
 10
89.1662087848
 20
180.9802716661
 30
0.0
 10
89.2587355269
 20
180.9255033351
 30
0.0
 10
89.3553507572
 20
180.8376549183
 30
0.0
 10
89.4345010652
 20
180.7308501505
 30
0.0
 10
89.4932040429
 20
180.6092142412
 30
0.0
 10
89.5293144473
 20
180.4774464245
 30
0.0
 10
89.5374283072
 20
180.3861387796
 30
0.0
 10
89.5374283072
 20
180.3404354614
 30
0.0
  0
SPLINE
  5
6BE
100
AcDbEntity
  8
7_ALL_FEATURES
100
AcDbSpline
 62
9
  6
CONTINUOUS
 70
0
 71
3
 72
21
 73
17
 74
0
 42
0.0000001
 43
0.0000001
 44
0.0000000001
 40
0.0
 40
0.0
 40
0.0
 40
0.0
 40
0.1678557835
 40
0.3304371139
 40
0.4082075135
 40
0.4828522258
 40
0.5538624279
 40
0.6207987736
 40
0.6833088498
 40
0.7411495573
 40
0.794217132
 40
0.8425878274
 40
0.8865718889
 40
0.9267734136
 40
0.9641520251
 40
1.0
 40
1.0
 40
1.0
 40
1.0
 10
88.2690854637
 20
179.5404354614
 30
0.0
 10
88.2690854637
 20
179.6380662998
 30
0.0
 10
88.2769650358
 20
179.8303480412
 30
0.0
 10
88.3066897293
 20
180.066243923
 30
0.0
 10
88.3424446488
 20
180.2460007621
 30
0.0
 10
88.3742204841
 20
180.3720713875
 30
0.0
 10
88.4110363821
 20
180.4901865456
 30
0.0
 10
88.4525436621
 20
180.5992294273
 30
0.0
 10
88.4983505186
 20
180.6981748632
 30
0.0
 10
88.5480356942
 20
180.7861020468
 30
0.0
 10
88.6011598465
 20
180.8622009101
 30
0.0
 10
88.6572848348
 20
180.9257728794
 30
0.0
 10
88.7159864479
 20
180.9762058559
 30
0.0
 10
88.7768696604
 20
181.0129359388
 30
0.0
 10
88.8394210736
 20
181.0353585836
 30
0.0
 10
88.8821624109
 20
181.0404354614
 30
0.0
 10
88.9030128563
 20
181.0404354614
 30
0.0
  0
SPLINE
  5
6BF
100
AcDbEntity
  8
7_ALL_FEATURES
100
AcDbSpline
 62
9
  6
CONTINUOUS
 70
0
 71
3
 72
20
 73
16
 74
0
 42
0.0000001
 43
0.0000001
 44
0.0000000001
 40
0.0
 40
0.0
 40
0.0
 40
0.0
 40
0.0358467467
 40
0.0732310123
 40
0.1134334021
 40
0.1574196494
 40
0.205793348
 40
0.2588629507
 40
0.3167065186
 40
0.379219906
 40
0.4461593577
 40
0.5171731706
 40
0.6695473743
 40
0.8321334824
 40
1.0
 40
1.0
 40
1.0
 40
1.0
 10
89.5374283072
 20
180.3404354614
 30
0.0
 10
89.526309001
 20
180.3404354614
 30
0.0
 10
89.5035136967
 20
180.3377259993
 30
0.0
 10
89.4701522616
 20
180.3257698931
 30
0.0
 10
89.4376803051
 20
180.3061799574
 30
0.0
 10
89.4063737598
 20
180.2792815451
 30
0.0
 10
89.3764403608
 20
180.2453766108
 30
0.0
 10
89.3481070558
 20
180.2047908503
 30
0.0
 10
89.3216082517
 20
180.1578964226
 30
0.0
 10
89.2971786467
 20
180.1051254462
 30
0.0
 10
89.2750396116
 20
180.0469690029
 30
0.0
 10
89.2482339417
 20
179.9609458249
 30
0.0
 10
89.2222931793
 20
179.8438269129
 30
0.0
 10
89.203534061
 20
179.6950653579
 30
0.0
 10
89.1993336978
 20
179.5925059942
 30
0.0
 10
89.1993336978
 20
179.5404354614
 30
0.0
  0
SPLINE
  5
6C0
100
AcDbEntity
  8
7_ALL_FEATURES
100
AcDbSpline
 62
9
  6
CONTINUOUS
 70
0
 71
3
 72
21
 73
17
 74
0
 42
0.0000001
 43
0.0000001
 44
0.0000000001
 40
0.0
 40
0.0
 40
0.0
 40
0.0
 40
0.0358479748
 40
0.0732265862
 40
0.1134281109
 40
0.1574121725
 40
0.2057828679
 40
0.2588504425
 40
0.3166911503
 40
0.3792012267
 40
0.4461375722
 40
0.517147774
 40
0.5917924864
 40
0.6695628858
 40
0.8321442161
 40
1.0
 40
1.0
 40
1.0
 40
1.0
 10
88.359228184
 20
181.0404354614
 30
0.0
 10
88.3383777387
 20
181.0404354614
 30
0.0
 10
88.2956364015
 20
181.0353585836
 30
0.0
 10
88.2330849885
 20
181.0129359389
 30
0.0
 10
88.172201776
 20
180.9762058561
 30
0.0
 10
88.1135001628
 20
180.9257728796
 30
0.0
 10
88.0573751744
 20
180.8622009103
 30
0.0
 10
88.004251022
 20
180.7861020469
 30
0.0
 10
87.9545658464
 20
180.6981748631
 30
0.0
 10
87.9087589898
 20
180.599229427
 30
0.0
 10
87.8672517098
 20
180.4901865455
 30
0.0
 10
87.8304358119
 20
180.3720713876
 30
0.0
 10
87.7986599767
 20
180.2460007624
 30
0.0
 10
87.7629050572
 20
180.0662439235
 30
0.0
 10
87.7331803636
 20
179.8303480417
 30
0.0
 10
87.7253007914
 20
179.6380663001
 30
0.0
 10
87.7253007914
 20
179.5404354614
 30
0.0
  0
SPLINE
  5
6C1
100
AcDbEntity
  8
7_ALL_FEATURES
100
AcDbSpline
 62
7
  6
CONTINUOUS
 70
0
 71
3
 72
21
 73
17
 74
0
 42
0.0000001
 43
0.0000001
 44
0.0000000001
 40
0.0
 40
0.0
 40
0.0
 40
0.0
 40
0.1264943356
 40
0.25270886
 40
0.3157115349
 40
0.378573016
 40
0.4412824059
 40
0.5038358578
 40
0.5662367489
 40
0.6284941969
 40
0.6906215742
 40
0.7526366888
 40
0.8145600668
 40
0.8764117282
 40
0.9382194598
 40
1.0
 40
1.0
 40
1.0
 40
1.0
 10
321.5632716448
 20
179.5404354614
 30
0.0
 10
321.5632716448
 20
179.6372670216
 30
0.0
 10
321.5454536592
 20
179.8311586127
 30
0.0
 10
321.479072623
 20
180.0650546448
 30
0.0
 10
321.4008248828
 20
180.2417122427
 30
0.0
 10
321.3300531228
 20
180.367785455
 30
0.0
 10
321.2477576549
 20
180.4862325366
 30
0.0
 10
321.1546182024
 20
180.5959043884
 30
0.0
 10
321.0514315155
 20
180.6956905407
 30
0.0
 10
320.9391091103
 20
180.7845528378
 30
0.0
 10
320.8186781143
 20
180.8615342603
 30
0.0
 10
320.6912791517
 20
180.9257811922
 30
0.0
 10
320.5581605165
 20
180.9765576042
 30
0.0
 10
320.4206550167
 20
181.0132722681
 30
0.0
 10
320.2801998488
 20
181.0354787693
 30
0.0
 10
320.1855184901
 20
181.0404354614
 30
0.0
 10
320.1382254151
 20
181.0404354614
 30
0.0
  0
SPLINE
  5
6C2
100
AcDbEntity
  8
7_ALL_FEATURES
100
AcDbSpline
 62
7
  6
CONTINUOUS
 70
0
 71
3
 72
20
 73
16
 74
0
 42
0.0000001
 43
0.0000001
 44
0.0000000001
 40
0.0
 40
0.0
 40
0.0
 40
0.0
 40
0.167866569
 40
0.330452635
 40
0.4828268292
 40
0.5538406427
 40
0.6207800863
 40
0.6832934619
 40
0.7411370257
 40
0.7942066234
 40
0.8425803167
 40
0.8865665584
 40
0.9267689382
 40
0.9641532287
 40
1.0
 40
1.0
 40
1.0
 40
1.0
 10
319.5888216749
 20
180.3404354614
 30
0.0
 10
319.5888216749
 20
180.3859971915
 30
0.0
 10
319.5924969918
 20
180.4757366374
 30
0.0
 10
319.6089112256
 20
180.6059029971
 30
0.0
 10
319.6316093888
 20
180.7083820317
 30
0.0
 10
319.6550643493
 20
180.7836523077
 30
0.0
 10
319.6744360014
 20
180.8345391913
 30
0.0
 10
319.6958119038
 20
180.8807137894
 30
0.0
 10
319.7189983527
 20
180.9217464095
 30
0.0
 10
319.7437899891
 20
180.9572589491
 30
0.0
 10
319.7699817106
 20
180.9869257633
 30
0.0
 10
319.7973749291
 20
181.0104618737
 30
0.0
 10
319.8257878861
 20
181.0276030831
 30
0.0
 10
319.8549791559
 20
181.0380646671
 30
0.0
 10
319.8749250586
 20
181.0404354614
 30
0.0
 10
319.8846544581
 20
181.0404354614
 30
0.0
  0
SPLINE
  5
6C3
100
AcDbEntity
  8
7_ALL_FEATURES
100
AcDbSpline
 62
9
  6
CONTINUOUS
 70
0
 71
3
 72
21
 73
17
 74
0
 42
0.0000001
 43
0.0000001
 44
0.0000000001
 40
0.0
 40
0.0
 40
0.0
 40
0.0
 40
0.0594219867
 40
0.1189742332
 40
0.1787615084
 40
0.2388998512
 40
0.2994781047
 40
0.3605705806
 40
0.422229221
 40
0.484483213
 40
0.6106328221
 40
0.7389514852
 40
0.8038351314
 40
0.8690371185
 40
0.934466348
 40
1.0
 40
1.0
 40
1.0
 40
1.0
 10
319.8846544581
 20
181.0404354614
 30
0.0
 10
319.9291344691
 20
181.0404354614
 30
0.0
 10
320.0182668744
 20
181.0355988978
 30
0.0
 10
320.1505614252
 20
181.0139244609
 30
0.0
 10
320.2802943449
 20
180.9780289937
 30
0.0
 10
320.4061866874
 20
180.9282781735
 30
0.0
 10
320.5270310265
 20
180.8651502182
 30
0.0
 10
320.641658521
 20
180.7892681531
 30
0.0
 10
320.7489752915
 20
180.70135828
 30
0.0
 10
320.8814586032
 20
180.568756474
 30
0.0
 10
321.0235744579
 20
180.3770383145
 30
0.0
 10
321.1280816732
 20
180.1604394166
 30
0.0
 10
321.1877578433
 20
179.9762207597
 30
0.0
 10
321.2201819078
 20
179.8332914371
 30
0.0
 10
321.2397518639
 20
179.6875784117
 30
0.0
 10
321.2441161387
 20
179.5894903268
 30
0.0
 10
321.2441161387
 20
179.5404354614
 30
0.0
  0
SPLINE
  5
6C4
100
AcDbEntity
  8
7_ALL_FEATURES
100
AcDbSpline
 62
9
  6
CONTINUOUS
 70
0
 71
3
 72
18
 73
14
 74
0
 42
0.0000001
 43
0.0000001
 44
0.0000000001
 40
0.0
 40
0.0
 40
0.0
 40
0.0
 40
0.1308966603
 40
0.1961278957
 40
0.2610414596
 40
0.3894213599
 40
0.5156307277
 40
0.5779142277
 40
0.6396021087
 40
0.700723177
 40
0.7613308012
 40
0.881141414
 40
1.0
 40
1.0
 40
1.0
 40
1.0
 10
320.3138679045
 20
179.5404354614
 30
0.0
 10
320.3138679045
 20
179.59266779
 30
0.0
 10
320.3068853897
 20
179.6711662838
 30
0.0
 10
320.2838111361
 20
179.7728476747
 30
0.0
 10
320.2519814827
 20
179.8711077943
 30
0.0
 10
320.1962463008
 20
179.9866222182
 30
0.0
 10
320.1204502306
 20
180.0888729594
 30
0.0
 10
320.0497925063
 20
180.1595943964
 30
0.0
 10
319.9925585562
 20
180.2064792804
 30
0.0
 10
319.931417209
 20
180.2469503537
 30
0.0
 10
319.8458633924
 20
180.2916524809
 30
0.0
 10
319.7317879715
 20
180.3300322816
 30
0.0
 10
319.6362503924
 20
180.3404354614
 30
0.0
 10
319.5888216749
 20
180.3404354614
 30
0.0
  0
SPLINE
  5
6C5
100
AcDbEntity
  8
7_ALL_FEATURES
100
AcDbSpline
 62
9
  6
CONTINUOUS
 70
0
 71
3
 72
21
 73
17
 74
0
 42
0.0000001
 43
0.0000001
 44
0.0000000001
 40
0.0
 40
0.0
 40
0.0
 40
0.0
 40
0.0655336519
 40
0.1309628811
 40
0.1961648682
 40
0.2610485145
 40
0.3893671777
 40
0.5155167872
 40
0.5777707791
 40
0.6394294192
 40
0.7005218953
 40
0.7611001486
 40
0.8212384912
 40
0.8810257664
 40
0.9405780133
 40
1.0
 40
1.0
 40
1.0
 40
1.0
 10
321.4976870957
 20
179.5404354614
 30
0.0
 10
321.4976870957
 20
179.5894903267
 30
0.0
 10
321.493322821
 20
179.6875784113
 30
0.0
 10
321.473752865
 20
179.8332914365
 30
0.0
 10
321.4413288005
 20
179.976220759
 30
0.0
 10
321.3816526305
 20
180.160439416
 30
0.0
 10
321.2771454151
 20
180.3770383144
 30
0.0
 10
321.1350295601
 20
180.5687564741
 30
0.0
 10
321.0025462484
 20
180.7013582801
 30
0.0
 10
320.8952294781
 20
180.789268153
 30
0.0
 10
320.7806019838
 20
180.865150218
 30
0.0
 10
320.6597576449
 20
180.9282781733
 30
0.0
 10
320.5338653026
 20
180.9780289935
 30
0.0
 10
320.4041323828
 20
181.0139244608
 30
0.0
 10
320.2718378317
 20
181.0355988978
 30
0.0
 10
320.1827054262
 20
181.0404354614
 30
0.0
 10
320.1382254151
 20
181.0404354614
 30
0.0
  0
SPLINE
  5
6C6
100
AcDbEntity
  8
7_ALL_FEATURES
100
AcDbSpline
 62
7
  6
CONTINUOUS
 70
0
 71
3
 72
22
 73
18
 74
0
 42
0.0000001
 43
0.0000001
 44
0.0000000001
 40
0.0
 40
0.0
 40
0.0
 40
0.0
 40
0.1331374046
 40
0.1986805737
 40
0.2631086198
 40
0.3262622586
 40
0.3881574181
 40
0.5090160872
 40
0.5688789041
 40
0.6289079978
 40
0.6894160641
 40
0.750550707
 40
0.8123036307
 40
0.8745619239
 40
0.9058582535
 40
0.937216531
 40
1.0
 40
1.0
 40
1.0
 40
1.0
 10
259.5642438205
 20
179.5404354614
 30
0.0
 10
259.5642438205
 20
179.6305021607
 30
0.0
 10
259.5711895438
 20
179.7650637986
 30
0.0
 10
259.5948347473
 20
179.941544647
 30
0.0
 10
259.6195831996
 20
180.0699061373
 30
0.0
 10
259.6515645596
 20
180.1941357644
 30
0.0
 10
259.7037591845
 20
180.3521641282
 30
0.0
 10
259.7725119619
 20
180.5022098258
 30
0.0
 10
259.8605775453
 20
180.6394933338
 30
0.0
 10
259.937023397
 20
180.7349497399
 30
0.0
 10
260.0246733993
 20
180.8215291608
 30
0.0
 10
260.1235445233
 20
180.8970720321
 30
0.0
 10
260.2327924012
 20
180.9591381426
 30
0.0
 10
260.3309756298
 20
180.9976575256
 30
0.0
 10
260.4126380668
 20
181.0196572183
 30
0.0
 10
260.4960432796
 20
181.0355943051
 30
0.0
 10
260.5598657691
 20
181.0404354614
 30
0.0
 10
260.6023384299
 20
181.0404354614
 30
0.0
  0
SPLINE
  5
6C7
100
AcDbEntity
  8
7_ALL_FEATURES
100
AcDbSpline
 62
7
  6
CONTINUOUS
 70
0
 71
3
 72
17
 73
13
 74
0
 42
0.0000001
 43
0.0000001
 44
0.0000000001
 40
0.0
 40
0.0
 40
0.0
 40
0.0
 40
0.05945134
 40
0.1190448181
 40
0.1788651912
 40
0.2390377005
 40
0.3606168432
 40
0.4844475703
 40
0.6106702536
 40
0.7390636985
 40
0.869089422
 40
1.0
 40
1.0
 40
1.0
 40
1.0
 10
261.1461231021
 20
181.0404354614
 30
0.0
 10
261.166878671
 20
181.0404354614
 30
0.0
 10
261.2084744696
 20
181.0381765467
 30
0.0
 10
261.2702112399
 20
181.0280651058
 30
0.0
 10
261.3307588488
 20
181.0113102151
 30
0.0
 10
261.4093190307
 20
180.9802716661
 30
0.0
 10
261.5018457728
 20
180.9255033351
 30
0.0
 10
261.5984610031
 20
180.8376549183
 30
0.0
 10
261.6776113111
 20
180.7308501505
 30
0.0
 10
261.7363142888
 20
180.6092142412
 30
0.0
 10
261.7724246932
 20
180.4774464245
 30
0.0
 10
261.7805385531
 20
180.3861387796
 30
0.0
 10
261.7805385531
 20
180.3404354614
 30
0.0
  0
SPLINE
  5
6C8
100
AcDbEntity
  8
7_ALL_FEATURES
100
AcDbSpline
 62
9
  6
CONTINUOUS
 70
0
 71
3
 72
21
 73
17
 74
0
 42
0.0000001
 43
0.0000001
 44
0.0000000001
 40
0.0
 40
0.0
 40
0.0
 40
0.0
 40
0.1678557835
 40
0.3304371139
 40
0.4082075135
 40
0.4828522258
 40
0.5538624279
 40
0.6207987736
 40
0.6833088498
 40
0.7411495573
 40
0.794217132
 40
0.8425878274
 40
0.8865718889
 40
0.9267734136
 40
0.9641520251
 40
1.0
 40
1.0
 40
1.0
 40
1.0
 10
260.5121957095
 20
179.5404354614
 30
0.0
 10
260.5121957095
 20
179.6380662998
 30
0.0
 10
260.5200752816
 20
179.8303480412
 30
0.0
 10
260.5497999752
 20
180.066243923
 30
0.0
 10
260.5855548947
 20
180.2460007621
 30
0.0
 10
260.61733073
 20
180.3720713875
 30
0.0
 10
260.654146628
 20
180.4901865456
 30
0.0
 10
260.695653908
 20
180.5992294273
 30
0.0
 10
260.7414607645
 20
180.6981748632
 30
0.0
 10
260.7911459401
 20
180.7861020468
 30
0.0
 10
260.8442700923
 20
180.8622009101
 30
0.0
 10
260.9003950807
 20
180.9257728794
 30
0.0
 10
260.9590966938
 20
180.9762058559
 30
0.0
 10
261.0199799063
 20
181.0129359388
 30
0.0
 10
261.0825313195
 20
181.0353585836
 30
0.0
 10
261.1252726568
 20
181.0404354614
 30
0.0
 10
261.1461231021
 20
181.0404354614
 30
0.0
  0
SPLINE
  5
6C9
100
AcDbEntity
  8
7_ALL_FEATURES
100
AcDbSpline
 62
9
  6
CONTINUOUS
 70
0
 71
3
 72
20
 73
16
 74
0
 42
0.0000001
 43
0.0000001
 44
0.0000000001
 40
0.0
 40
0.0
 40
0.0
 40
0.0
 40
0.0358467467
 40
0.0732310123
 40
0.1134334021
 40
0.1574196494
 40
0.205793348
 40
0.2588629507
 40
0.3167065186
 40
0.379219906
 40
0.4461593577
 40
0.5171731706
 40
0.6695473743
 40
0.8321334824
 40
1.0
 40
1.0
 40
1.0
 40
1.0
 10
261.7805385531
 20
180.3404354614
 30
0.0
 10
261.7694192469
 20
180.3404354614
 30
0.0
 10
261.7466239426
 20
180.3377259993
 30
0.0
 10
261.7132625074
 20
180.3257698931
 30
0.0
 10
261.6807905509
 20
180.3061799574
 30
0.0
 10
261.6494840056
 20
180.2792815451
 30
0.0
 10
261.6195506067
 20
180.2453766108
 30
0.0
 10
261.5912173017
 20
180.2047908503
 30
0.0
 10
261.5647184975
 20
180.1578964226
 30
0.0
 10
261.5402888926
 20
180.1051254462
 30
0.0
 10
261.5181498575
 20
180.0469690029
 30
0.0
 10
261.4913441876
 20
179.9609458249
 30
0.0
 10
261.4654034252
 20
179.8438269129
 30
0.0
 10
261.4466443068
 20
179.6950653579
 30
0.0
 10
261.4424439437
 20
179.5925059942
 30
0.0
 10
261.4424439437
 20
179.5404354614
 30
0.0
  0
SPLINE
  5
6CA
100
AcDbEntity
  8
7_ALL_FEATURES
100
AcDbSpline
 62
9
  6
CONTINUOUS
 70
0
 71
3
 72
21
 73
17
 74
0
 42
0.0000001
 43
0.0000001
 44
0.0000000001
 40
0.0
 40
0.0
 40
0.0
 40
0.0
 40
0.0358479748
 40
0.0732265862
 40
0.1134281109
 40
0.1574121725
 40
0.2057828679
 40
0.2588504425
 40
0.3166911503
 40
0.3792012267
 40
0.4461375722
 40
0.517147774
 40
0.5917924864
 40
0.6695628858
 40
0.8321442161
 40
1.0
 40
1.0
 40
1.0
 40
1.0
 10
260.6023384299
 20
181.0404354614
 30
0.0
 10
260.5814879846
 20
181.0404354614
 30
0.0
 10
260.5387466474
 20
181.0353585836
 30
0.0
 10
260.4761952344
 20
181.0129359389
 30
0.0
 10
260.4153120218
 20
180.9762058561
 30
0.0
 10
260.3566104087
 20
180.9257728796
 30
0.0
 10
260.3004854203
 20
180.8622009103
 30
0.0
 10
260.2473612679
 20
180.7861020469
 30
0.0
 10
260.1976760922
 20
180.6981748631
 30
0.0
 10
260.1518692357
 20
180.599229427
 30
0.0
 10
260.1103619557
 20
180.4901865455
 30
0.0
 10
260.0735460578
 20
180.3720713876
 30
0.0
 10
260.0417702225
 20
180.2460007624
 30
0.0
 10
260.0060153031
 20
180.0662439235
 30
0.0
 10
259.9762906095
 20
179.8303480417
 30
0.0
 10
259.9684110373
 20
179.6380663001
 30
0.0
 10
259.9684110373
 20
179.5404354614
 30
0.0
  0
ENDSEC
  0
SECTION
  2
OBJECTS
  0
DICTIONARY
  5
C
100
AcDbDictionary
280
0
281
1
  3
ACAD_GROUP
350
D
  3
ACAD_MLINESTYLE
350
17
  3
ACAD_LAYOUT
350
1A
  3
ACAD_PLOTSETTINGS
350
19
  3
ACAD_PLOTSTYLENAME
350
E
  3
ACAD_TABLESTYLE
350
       6CB
  0
DICTIONARY
  5
D
102
{ACAD_REACTORS
330
C
102
}
100
AcDbDictionary
280
0
281
1
  0
ACDBDICTIONARYWDFLT
  5
E
102
{ACAD_REACTORS
330
C
102
}
100
AcDbDictionary
281
1
  3
Normal
350
F
100
AcDbDictionaryWithDefault
340
F
  0
DICTIONARY
  5
17
102
{ACAD_REACTORS
330
C
102
}
100
AcDbDictionary
280
0
281
1
  3
Standard
350
18
  0
DICTIONARY
  5
6CB
330
C
100
AcDbDictionary
281
1
  3
Standard
350
       6CE
  3
Standard1
350
       6CF
  0
DICTIONARY
  5
19
102
{ACAD_REACTORS
330
C
102
}
100
AcDbDictionary
281
1
  0
DICTIONARY
  5
1A
102
{ACAD_REACTORS
330
C
102
}
100
AcDbDictionary
281
1
  3
Model
350
6CC
  3
Layout1
350
6CD
  0
ACDBPLACEHOLDER
  5
F
102
{ACAD_REACTORS
330
E
102
}
  0
MLINESTYLE
  5
18
102
{ACAD_REACTORS
330
17
102
}
100
AcDbMlineStyle
  2
STANDARD
 70
0
  3

 62
256
 51
90.0
 52
90.0
 71
2
 49
0.5
 62
256
  6
BYLAYER
 49
-0.5
 62
256
  6
BYLAYER
  0
LAYOUT
  5
6CC
102
{ACAD_REACTORS
330
1A
102
}
100
AcDbPlotSettings
  1

  2
none_device
  4
ISO_A3_(420.00_x_297.00_MM)
  6

 40
0.0
 41
0.0
 42
0.0
 43
0.0
 44
420.0
 45
297.0
 46
0.0
 47
0.0
 48
0.0
 49
0.0
140
0.0
141
0.0
142
1.0
143
1.0
 70
1024
 72
1
 73
0
 74
0
  7

 75
0
147
1.0
148
0.0
149
0.0
100
AcDbLayout
  1
Model
 70
0
 71
0
 10
0.0
 20
0.0
 11
420.0
 21
297.0
 12
0.0
 22
0.0
 32
0.0
 14
0.0
 24
0.0
 34
0.0
 15
0.0
 25
0.0
 35
0.0
146
0.0
 13
0.0
 23
0.0
 33
0.0
 16
1.0
 26
0.0
 36
0.0
 17
0.0
 27
1.0
 37
0.0
 76
0
330
220
345
0
346
0
  0
LAYOUT
  5
6CD
102
{ACAD_REACTORS
330
1A
102
}
100
AcDbPlotSettings
  1

  2
none_device
  4
ISO_A3_(420.00_x_297.00_MM)
  6

 40
0.0
 41
0.0
 42
0.0
 43
0.0
 44
420.0
 45
297.0
 46
0.0
 47
0.0
 48
0.0
 49
0.0
140
0.0
141
0.0
142
1.0
143
1.0
 70
0
 72
1
 73
0
 74
0
  7

 75
0
147
1.0
148
0.0
149
0.0
100
AcDbLayout
  1
Layout1
 70
0
 71
1
 10
0.0
 20
0.0
 11
420.0
 21
297.0
 12
0.0
 22
0.0
 32
0.0
 14
0.0
 24
0.0
 34
0.0
 15
0.0
 25
0.0
 35
0.0
146
0.0
 13
0.0
 23
0.0
 33
0.0
 16
1.0
 26
0.0
 36
0.0
 17
0.0
 27
1.0
 37
0.0
 76
0
330
221
345
0
346
0
  0
TABLESTYLE
  5
6CE
102
{ACAD_REACTORS
330
6CB
330
392
102
}
330
6CB
100
AcDbTableStyle
  3
Standard
 70
0
 71
0
 40
0.06
 41
0.06
280
1
281
1
  7
Standard
140
0.18
170
1
 62
0
 63
7
283
0
  7
Standard
140
0.18
170
1
 62
0
 63
7
283
0
  7
Standard
140
0.18
170
1
 62
0
 63
7
283
0
  0
TABLESTYLE
  5
6CF
102
{ACAD_REACTORS
330
6CB
102
}
330
6CB
100
AcDbTableStyle
  3
Standard1
 70
1
 71
0
 40
0.06
 41
0.06
280
1
281
1
  7
Standard
140
0.18
170
1
 62
0
 63
7
283
0
  7
Standard
140
0.18
170
1
 62
0
 63
7
283
0
  7
Standard
140
0.18
170
1
 62
0
 63
7
283
0
  0
ENDSEC
  0
EOF
