  0
SECTION
  2
HEADER
  9
$ACADVER
  1
AC1015
  9
$ACADMAINTVER
 70
     6
  9
$DWGCODEPAGE
  3
ANSI_1252
  9
$INSBASE
 10
0.0
 20
0.0
 30
0.0
  9
$EXTMIN
 10
0.0
 20
0.0
 30
0.0
  9
$EXTMAX
 10
420.0
 20
297.0
 30
0.0
  9
$LIMMIN
 10
0.0
 20
0.0
  9
$LIMMAX
 10
420.0
 20
297.0
  9
$ORTHOMODE
 70
     0
  9
$REGENMODE
 70
     1
  9
$FILLMODE
 70
     1
  9
$QTEXTMODE
 70
     0
  9
$MIRRTEXT
 70
     1
  9
$LTSCALE
 40
23.1
  9
$ATTMODE
 70
     1
  9
$TEXTSIZE
 40
0.2
  9
$TRACEWID
 40
0.05
  9
$TEXTSTYLE
  7
STANDARD
  9
$CLAYER
  8
0
  9
$CELTYPE
  6
BYLAYER
  9
$CECOLOR
 62
   256
  9
$CELTSCALE
 40
1.0
  9
$DISPSILH
 70
     0
  9
$DIMSCALE
 40
1.0
  9
$DIMASZ
 40
2.5
  9
$DIMEXO
 40
2.625
  9
$DIMDLI
 40
15.96
  9
$DIMRND
 40
0.0
  9
$DIMDLE
 40
0.0
  9
$DIMEXE
 40
7.56
  9
$DIMTP
 40
0.01
  9
$DIMTM
 40
0.01
  9
$DIMTXT
 40
3.0
  9
$DIMCEN
 40
3.78
  9
$DIMTSZ
 40
0.0
  9
$DIMTOL
 70
     1
  9
$DIMLIM
 70
     0
  9
$DIMTIH
 70
     1
  9
$DIMTOH
 70
     1
  9
$DIMSE1
 70
     0
  9
$DIMSE2
 70
     0
  9
$DIMTAD
 70
     0
  9
$DIMZIN
 70
     0
  9
$DIMBLK
  1
CLOSED
  9
$DIMASO
 70
     1
  9
$DIMSHO
 70
     1
  9
$DIMPOST
  1

  9
$DIMAPOST
  1

  9
$DIMALT
 70
     0
  9
$DIMALTD
 70
     2
  9
$DIMALTF
 40
25.4
  9
$DIMLFAC
 40
1.0
  9
$DIMTOFL
 70
     0
  9
$DIMTVP
 40
0.0
  9
$DIMTIX
 70
     0
  9
$DIMSOXD
 70
     0
  9
$DIMSAH
 70
     0
  9
$DIMBLK1
  1

  9
$DIMBLK2
  1

  9
$DIMSTYLE
  2
STANDARD
  9
$DIMCLRD
 70
     0
  9
$DIMCLRE
 70
     0
  9
$DIMCLRT
 70
     0
  9
$DIMTFAC
 40
1.0
  9
$DIMGAP
 40
0.09
  9
$DIMJUST
 70
     0
  9
$DIMSD1
 70
     0
  9
$DIMSD2
 70
     0
  9
$DIMTOLJ
 70
     1
  9
$DIMTZIN
 70
     0
  9
$DIMALTZ
 70
     0
  9
$DIMALTTZ
 70
     0
  9
$DIMUPT
 70
     0
  9
$DIMDEC
 70
     4
  9
$DIMTDEC
 70
     4
  9
$DIMALTU
 70
     2
  9
$DIMALTTD
 70
     2
  9
$DIMTXSTY
  7
STANDARD
  9
$DIMAUNIT
 70
     0
  9
$DIMADEC
 70
     0
  9
$DIMALTRND
 40
0.0
  9
$DIMAZIN
 70
     0
  9
$DIMDSEP
 70
    46
  9
$DIMATFIT
 70
     3
  9
$DIMFRAC
 70
     0
  9
$DIMLDRBLK
  1

  9
$DIMLUNIT
 70
     2
  9
$DIMLWD
 70
    -2
  9
$DIMLWE
 70
    -2
  9
$DIMTMOVE
 70
     0
  9
$LUNITS
 70
     2
  9
$LUPREC
 70
     4
  9
$SKETCHINC
 40
0.1
  9
$FILLETRAD
 40
0.5
  9
$AUNITS
 70
     0
  9
$AUPREC
 70
     0
  9
$MENU
  1
.
  9
$ELEVATION
 40
0.0
  9
$PELEVATION
 40
0.0
  9
$THICKNESS
 40
0.0
  9
$LIMCHECK
 70
     0
  9
$CHAMFERA
 40
0.0
  9
$CHAMFERB
 40
0.0
  9
$CHAMFERC
 40
0.0
  9
$CHAMFERD
 40
0.0
  9
$SKPOLY
 70
     0
  9
$TDCREATE
 40
2447893.083333333
  9
$TDUCREATE
 40
0.0
  9
$TDUPDATE
 40
2456783.661510625
  9
$TDUUPDATE
 40
2456783.578177291
  9
$TDINDWG
 40
0.0004983912
  9
$TDUSRTIMER
 40
2456783.577679086
  9
$USRTIMER
 70
     1
  9
$ANGBASE
 50
0.0
  9
$ANGDIR
 70
     0
  9
$PDMODE
 70
     3
  9
$PDSIZE
 40
0.3125
  9
$PLINEWID
 40
0.0
  9
$SPLFRAME
 70
     0
  9
$SPLINETYPE
 70
     6
  9
$SPLINESEGS
 70
     8
  9
$HANDSEED
  5
59B
  9
$SURFTAB1
 70
     6
  9
$SURFTAB2
 70
     6
  9
$SURFTYPE
 70
     6
  9
$SURFU
 70
     6
  9
$SURFV
 70
     6
  9
$UCSBASE
  2

  9
$UCSNAME
  2

  9
$UCSORG
 10
0.0
 20
0.0
 30
0.0
  9
$UCSXDIR
 10
1.0
 20
0.0
 30
0.0
  9
$UCSYDIR
 10
0.0
 20
1.0
 30
0.0
  9
$UCSORTHOREF
  2

  9
$UCSORTHOVIEW
 70
     0
  9
$UCSORGTOP
 10
0.0
 20
0.0
 30
0.0
  9
$UCSORGBOTTOM
 10
0.0
 20
0.0
 30
0.0
  9
$UCSORGLEFT
 10
0.0
 20
0.0
 30
0.0
  9
$UCSORGRIGHT
 10
0.0
 20
0.0
 30
0.0
  9
$UCSORGFRONT
 10
0.0
 20
0.0
 30
0.0
  9
$UCSORGBACK
 10
0.0
 20
0.0
 30
0.0
  9
$PUCSBASE
  2

  9
$PUCSNAME
  2

  9
$PUCSORG
 10
0.0
 20
0.0
 30
0.0
  9
$PUCSXDIR
 10
1.0
 20
0.0
 30
0.0
  9
$PUCSYDIR
 10
0.0
 20
1.0
 30
0.0
  9
$PUCSORTHOREF
  2

  9
$PUCSORTHOVIEW
 70
     0
  9
$PUCSORGTOP
 10
0.0
 20
0.0
 30
0.0
  9
$PUCSORGBOTTOM
 10
0.0
 20
0.0
 30
0.0
  9
$PUCSORGLEFT
 10
0.0
 20
0.0
 30
0.0
  9
$PUCSORGRIGHT
 10
0.0
 20
0.0
 30
0.0
  9
$PUCSORGFRONT
 10
0.0
 20
0.0
 30
0.0
  9
$PUCSORGBACK
 10
0.0
 20
0.0
 30
0.0
  9
$USERI1
 70
     0
  9
$USERI2
 70
     0
  9
$USERI3
 70
     0
  9
$USERI4
 70
     0
  9
$USERI5
 70
     0
  9
$USERR1
 40
0.0
  9
$USERR2
 40
0.0
  9
$USERR3
 40
0.0
  9
$USERR4
 40
0.0
  9
$USERR5
 40
0.0
  9
$WORLDVIEW
 70
     1
  9
$SHADEDGE
 70
     3
  9
$SHADEDIF
 70
    70
  9
$TILEMODE
 70
     1
  9
$MAXACTVP
 70
    64
  9
$PINSBASE
 10
0.0
 20
0.0
 30
0.0
  9
$PLIMCHECK
 70
     0
  9
$PEXTMIN
 10
1.000000000000000E+20
 20
1.000000000000000E+20
 30
1.000000000000000E+20
  9
$PEXTMAX
 10
-1.000000000000000E+20
 20
-1.000000000000000E+20
 30
-1.000000000000000E+20
  9
$PLIMMIN
 10
0.0
 20
0.0
  9
$PLIMMAX
 10
420.0
 20
297.0
  9
$UNITMODE
 70
     0
  9
$VISRETAIN
 70
     1
  9
$PLINEGEN
 70
     0
  9
$PSLTSCALE
 70
     1
  9
$TREEDEPTH
 70
  3020
  9
$CMLSTYLE
  2

  9
$CMLJUST
 70
     0
  9
$CMLSCALE
 40
1.0
  9
$PROXYGRAPHICS
 70
     1
  9
$MEASUREMENT
 70
     1
  9
$CELWEIGHT
370
    -1
  9
$ENDCAPS
280
     0
  9
$JOINSTYLE
280
     0
  9
$LWDISPLAY
290
     0
  9
$INSUNITS
 70
     4
  9
$HYPERLINKBASE
  1

  9
$STYLESHEET
  1

  9
$XEDIT
290
     1
  9
$CEPSNTYPE
380
     0
  9
$PSTYLEMODE
290
     1
  9
$FINGERPRINTGUID
  2
{70984D6A-4EAB-431F-82E3-F987944320AD}
  9
$VERSIONGUID
  2
{FAEB1C32-E019-11D5-929B-00C0DF256EC4}
  9
$EXTNAMES
290
     1
  9
$PSVPSCALE
 40
0.0
  9
$OLESTARTUP
290
     0
  0
ENDSEC
  0
SECTION
  2
CLASSES
  0
CLASS
  1
ACDBDICTIONARYWDFLT
  2
AcDbDictionaryWithDefault
  3
ObjectDBX Classes
 90
        0
280
     0
281
     0
  0
CLASS
  1
ACDBPLACEHOLDER
  2
AcDbPlaceHolder
  3
ObjectDBX Classes
 90
        0
280
     0
281
     0
  0
CLASS
  1
LAYOUT
  2
AcDbLayout
  3
ObjectDBX Classes
 90
        0
280
     0
281
     0
  0
CLASS
  1
TABLESTYLE
  2
AcDbTableStyle
  3
ObjectDBX Classes
 90
     4095
280
     0
281
     0
  0
CLASS
  1
ACAD_TABLE
  2
AcDbTable
  3
ObjectDBX Classes
 90
     1025
280
     0
281
     1
  0
CLASS
  1
SCALE
  2
AcDbScale
  3
ObjectDBX Classes
 90
     1153
280
     0
281
     0
  0
CLASS
  1
TABLEGEOMETRY
  2
AcDbTableGeometry
  3
ObjectDBX Classes
 90
     1152
280
     0
281
     0
  0
CLASS
  1
VISUALSTYLE
  2
AcDbVisualStyle
  3
ObjectDBX Classes
 90
     4095
280
     0
281
     0
  0
CLASS
  1
MATERIAL
  2
AcDbMaterial
  3
ObjectDBX Classes
 90
     1153
280
     0
281
     0
  0
CLASS
  1
SUN
  2
AcDbSun
  3
SCENEOE
 90
     1153
280
     0
281
     0
  0
CLASS
  1
RASTERVARIABLES
  2
AcDbRasterVariables
  3
ISM
 90
        0
280
     0
281
     0
  0
ENDSEC
  0
SECTION
  2
TABLES
  0
TABLE
  2
VPORT
  5
8
330
0
100
AcDbSymbolTable
 70
     1
  0
VPORT
  5
1F4
330
8
100
AcDbSymbolTableRecord
100
AcDbViewportTableRecord
  2
*ACTIVE
 70
     0
 10
0.0
 20
0.0
 11
1.0
 21
1.0
 12
208.7208533653846
 22
153.5967548076923
 13
0.0
 23
0.0
 14
1.0
 24
1.0
 15
0.0
 25
0.0
 16
0.0
 26
0.0
 36
1.0
 17
0.0
 27
0.0
 37
0.0
 40
371.25
 41
1.732905982905983
 42
50.0
 43
0.0
 44
0.0
 50
0.0
 51
0.0
 71
    16
 72
   100
 73
     1
 74
     1
 75
     0
 76
     0
 77
     0
 78
     0
281
     0
 65
     1
110
0.0
120
0.0
130
0.0
111
1.0
121
0.0
131
0.0
112
0.0
122
1.0
132
0.0
 79
     0
146
0.0
  0
ENDTAB
  0
TABLE
  2
LTYPE
  5
5
330
0
100
AcDbSymbolTable
 70
     6
  0
LTYPE
  5
14
330
5
100
AcDbSymbolTableRecord
100
AcDbLinetypeTableRecord
  2
BYBLOCK
 70
     0
  3

 72
    65
 73
     0
 40
0.0
  0
LTYPE
  5
15
330
5
100
AcDbSymbolTableRecord
100
AcDbLinetypeTableRecord
  2
BYLAYER
 70
     0
  3

 72
    65
 73
     0
 40
0.0
  0
LTYPE
  5
16
330
5
100
AcDbSymbolTableRecord
100
AcDbLinetypeTableRecord
  2
CONTINUOUS
 70
     0
  3
Solid line
 72
    65
 73
     0
 40
0.0
  0
LTYPE
  5
1F5
330
5
100
AcDbSymbolTableRecord
100
AcDbLinetypeTableRecord
  2
CENTER
 70
     0
  3
____ _ ____ _ ____ _ ____ _ ____ _ ____ _ ____
 72
    65
 73
     4
 40
0.6
 49
0.375
 74
     0
 49
-0.075
 74
     0
 49
0.075
 74
     0
 49
-0.075
 74
     0
  0
LTYPE
  5
1F6
330
5
100
AcDbSymbolTableRecord
100
AcDbLinetypeTableRecord
  2
HIDDEN
 70
     0
  3
- - - - - - - - - - - - - - - - - - - -
 72
    65
 73
     2
 40
0.2
 49
0.1
 74
     0
 49
-0.1
 74
     0
  0
LTYPE
  5
1F7
330
5
100
AcDbSymbolTableRecord
100
AcDbLinetypeTableRecord
  2
PHANTOM
 70
     0
  3
_____ _ _ _____ _ _ _____ _ _ _____
 72
    65
 73
     6
 40
0.8
 49
0.45
 74
     0
 49
-0.05
 74
     0
 49
0.1
 74
     0
 49
-0.05
 74
     0
 49
0.1
 74
     0
 49
-0.05
 74
     0
  0
LTYPE
  5
1F8
330
5
100
AcDbSymbolTableRecord
100
AcDbLinetypeTableRecord
  2
DOT
 70
     0
  3
. . . . . . . . . . . . . . . . . . . .
 72
    65
 73
     2
 40
0.2
 49
0.1
 74
     0
 49
-0.1
 74
     0
  0
LTYPE
  5
1F9
330
5
100
AcDbSymbolTableRecord
100
AcDbLinetypeTableRecord
  2
DASHED
 70
     0
  3
- - - - - - - - - - - - - - - - - - - -
 72
    65
 73
     2
 40
0.2
 49
0.1
 74
     0
 49
-0.1
 74
     0
  0
ENDTAB
  0
TABLE
  2
LAYER
  5
2
330
0
100
AcDbSymbolTable
 70
    39
  0
LAYER
  5
10
330
2
100
AcDbSymbolTableRecord
100
AcDbLayerTableRecord
  2
0
 70
     0
 62
     7
  6
CONTINUOUS
370
    -3
390
F
  0
LAYER
  5
1FA
330
2
100
AcDbSymbolTableRecord
100
AcDbLayerTableRecord
  2
DEFAULT_1
 70
     0
 62
     7
  6
CENTER
370
    -3
390
F
  0
LAYER
  5
1FB
330
2
100
AcDbSymbolTableRecord
100
AcDbLayerTableRecord
  2
DEFAULT_2
 70
     0
 62
     8
  6
HIDDEN
370
    -3
390
F
  0
LAYER
  5
1FC
330
2
100
AcDbSymbolTableRecord
100
AcDbLayerTableRecord
  2
DEFAULT_3
 70
     0
 62
     7
  6
PHANTOM
370
    -3
390
F
  0
LAYER
  5
1FD
330
2
100
AcDbSymbolTableRecord
100
AcDbLayerTableRecord
  2
01_ALL_DTM_PLN
 70
     0
 62
     7
  6
CONTINUOUS
370
    -3
390
F
  0
LAYER
  5
1FE
330
2
100
AcDbSymbolTableRecord
100
AcDbLayerTableRecord
  2
01__ASM_ALL_DTM_PLN
 70
     0
 62
     7
  6
CONTINUOUS
370
    -3
390
F
  0
LAYER
  5
1FF
330
2
100
AcDbSymbolTableRecord
100
AcDbLayerTableRecord
  2
01__ASM_DEF_DTM_PLN
 70
     0
 62
     7
  6
CONTINUOUS
370
    -3
390
F
  0
LAYER
  5
200
330
2
100
AcDbSymbolTableRecord
100
AcDbLayerTableRecord
  2
01___PRT_ALL_DTM_PLN
 70
     0
 62
     7
  6
CONTINUOUS
370
    -3
390
F
  0
LAYER
  5
201
330
2
100
AcDbSymbolTableRecord
100
AcDbLayerTableRecord
  2
01___PRT_DEF_DTM_PLN
 70
     0
 62
     7
  6
CONTINUOUS
370
    -3
390
F
  0
LAYER
  5
202
330
2
100
AcDbSymbolTableRecord
100
AcDbLayerTableRecord
  2
02_ALL_AXES
 70
     0
 62
     7
  6
CONTINUOUS
370
    -3
390
F
  0
LAYER
  5
203
330
2
100
AcDbSymbolTableRecord
100
AcDbLayerTableRecord
  2
02__ASM_ALL_AXES
 70
     0
 62
     7
  6
CONTINUOUS
370
    -3
390
F
  0
LAYER
  5
204
330
2
100
AcDbSymbolTableRecord
100
AcDbLayerTableRecord
  2
02___PRT_ALL_AXES
 70
     0
 62
     7
  6
CONTINUOUS
370
    -3
390
F
  0
LAYER
  5
205
330
2
100
AcDbSymbolTableRecord
100
AcDbLayerTableRecord
  2
03_ALL_CURVES
 70
     0
 62
     7
  6
CONTINUOUS
370
    -3
390
F
  0
LAYER
  5
206
330
2
100
AcDbSymbolTableRecord
100
AcDbLayerTableRecord
  2
03__ASM_ALL_CURVES
 70
     0
 62
     7
  6
CONTINUOUS
370
    -3
390
F
  0
LAYER
  5
207
330
2
100
AcDbSymbolTableRecord
100
AcDbLayerTableRecord
  2
03___PRT_ALL_CURVES
 70
     0
 62
     7
  6
CONTINUOUS
370
    -3
390
F
  0
LAYER
  5
208
330
2
100
AcDbSymbolTableRecord
100
AcDbLayerTableRecord
  2
04_ALL_DTM_PNT
 70
     0
 62
     7
  6
CONTINUOUS
370
    -3
390
F
  0
LAYER
  5
209
330
2
100
AcDbSymbolTableRecord
100
AcDbLayerTableRecord
  2
04__ASM_ALL_DTM_PNT
 70
     0
 62
     7
  6
CONTINUOUS
370
    -3
390
F
  0
LAYER
  5
20A
330
2
100
AcDbSymbolTableRecord
100
AcDbLayerTableRecord
  2
04___PRT_ALL_DTM_PNT
 70
     0
 62
     7
  6
CONTINUOUS
370
    -3
390
F
  0
LAYER
  5
20B
330
2
100
AcDbSymbolTableRecord
100
AcDbLayerTableRecord
  2
05_ALL_DTM_CSYS
 70
     0
 62
     7
  6
CONTINUOUS
370
    -3
390
F
  0
LAYER
  5
20C
330
2
100
AcDbSymbolTableRecord
100
AcDbLayerTableRecord
  2
05__ASM_ALL_DTM_CSYS
 70
     0
 62
     7
  6
CONTINUOUS
370
    -3
390
F
  0
LAYER
  5
20D
330
2
100
AcDbSymbolTableRecord
100
AcDbLayerTableRecord
  2
05__ASM_DEF_DTM_CSYS
 70
     0
 62
     7
  6
CONTINUOUS
370
    -3
390
F
  0
LAYER
  5
20E
330
2
100
AcDbSymbolTableRecord
100
AcDbLayerTableRecord
  2
05___PRT_ALL_DTM_CSYS
 70
     0
 62
     7
  6
CONTINUOUS
370
    -3
390
F
  0
LAYER
  5
20F
330
2
100
AcDbSymbolTableRecord
100
AcDbLayerTableRecord
  2
05___PRT_DEF_DTM_CSYS
 70
     0
 62
     7
  6
CONTINUOUS
370
    -3
390
F
  0
LAYER
  5
210
330
2
100
AcDbSymbolTableRecord
100
AcDbLayerTableRecord
  2
06_ALL_SURFS
 70
     0
 62
     7
  6
CONTINUOUS
370
    -3
390
F
  0
LAYER
  5
211
330
2
100
AcDbSymbolTableRecord
100
AcDbLayerTableRecord
  2
06__ASM_ALL_SURFS
 70
     0
 62
     7
  6
CONTINUOUS
370
    -3
390
F
  0
LAYER
  5
212
330
2
100
AcDbSymbolTableRecord
100
AcDbLayerTableRecord
  2
06___PRT_ALL_SURFS
 70
     0
 62
     7
  6
CONTINUOUS
370
    -3
390
F
  0
LAYER
  5
213
330
2
100
AcDbSymbolTableRecord
100
AcDbLayerTableRecord
  2
07__ASM_ALL_SKELETONS
 70
     0
 62
     7
  6
CONTINUOUS
370
    -3
390
F
  0
LAYER
  5
214
330
2
100
AcDbSymbolTableRecord
100
AcDbLayerTableRecord
  2
1_ALL_PLANES
 70
     0
 62
     7
  6
CONTINUOUS
370
    -3
390
F
  0
LAYER
  5
215
330
2
100
AcDbSymbolTableRecord
100
AcDbLayerTableRecord
  2
3_ALL_AXES
 70
     0
 62
     7
  6
CONTINUOUS
370
    -3
390
F
  0
LAYER
  5
216
330
2
100
AcDbSymbolTableRecord
100
AcDbLayerTableRecord
  2
4_ALL_POINTS
 70
     0
 62
     7
  6
CONTINUOUS
370
    -3
390
F
  0
LAYER
  5
217
330
2
100
AcDbSymbolTableRecord
100
AcDbLayerTableRecord
  2
5_ALL_CURVES
 70
     0
 62
     7
  6
CONTINUOUS
370
    -3
390
F
  0
LAYER
  5
218
330
2
100
AcDbSymbolTableRecord
100
AcDbLayerTableRecord
  2
6_ALL_SURFS
 70
     0
 62
     7
  6
CONTINUOUS
370
    -3
390
F
  0
LAYER
  5
219
330
2
100
AcDbSymbolTableRecord
100
AcDbLayerTableRecord
  2
7_ALL_FEATURES
 70
     0
 62
     7
  6
CONTINUOUS
370
    -3
390
F
  0
LAYER
  5
21A
330
2
100
AcDbSymbolTableRecord
100
AcDbLayerTableRecord
  2
8_ALL_NOTES_BALLOONS_SYMBOLS_GT
 70
     0
 62
     7
  6
CONTINUOUS
370
    -3
390
F
  0
LAYER
  5
21B
330
2
100
AcDbSymbolTableRecord
100
AcDbLayerTableRecord
  2
INTFCLR_2
 70
     0
 62
     7
  6
CONTINUOUS
370
    -3
390
F
  0
LAYER
  5
21C
330
2
100
AcDbSymbolTableRecord
100
AcDbLayerTableRecord
  2
INTF_GREEN
 70
     0
 62
     7
  6
CONTINUOUS
370
    -3
390
F
  0
LAYER
  5
21D
330
2
100
AcDbSymbolTableRecord
100
AcDbLayerTableRecord
  2
INTF_YELLOW
 70
     0
 62
     7
  6
CONTINUOUS
370
    -3
390
F
  0
LAYER
  5
21E
330
2
100
AcDbSymbolTableRecord
100
AcDbLayerTableRecord
  2
NONE
 70
     0
 62
     7
  6
CONTINUOUS
370
    -3
390
F
  0
LAYER
  5
576
330
2
100
AcDbSymbolTableRecord
100
AcDbLayerTableRecord
  2
Defpoints
 70
     0
 62
     7
  6
CONTINUOUS
290
     0
370
    -3
390
F
  0
ENDTAB
  0
TABLE
  2
STYLE
  5
3
330
0
100
AcDbSymbolTable
 70
     6
  0
STYLE
  5
11
330
3
100
AcDbSymbolTableRecord
100
AcDbTextStyleTableRecord
  2
STANDARD
 70
     0
 40
0.0
 41
0.85
 50
0.0
 71
     0
 42
0.2
  3
txt
  4

  0
STYLE
  5
21F
330
3
100
AcDbSymbolTableRecord
100
AcDbTextStyleTableRecord
  2
TEXTSTYLE_1
 70
     0
 40
0.0
 41
0.8
 50
0.0
 71
     0
 42
0.2
  3
gdt
  4

  0
STYLE
  5
220
330
3
100
AcDbSymbolTableRecord
100
AcDbTextStyleTableRecord
  2
TEXTSTYLE_2
 70
     0
 40
0.0
 41
0.9
 50
0.0
 71
     0
 42
0.2
  3
txt
  4

  0
STYLE
  5
221
330
3
100
AcDbSymbolTableRecord
100
AcDbTextStyleTableRecord
  2
TEXTSTYLE_3
 70
     0
 40
0.0
 41
0.9
 50
0.0
 71
     0
 42
0.2
  3
txt
  4

  0
STYLE
  5
222
330
3
100
AcDbSymbolTableRecord
100
AcDbTextStyleTableRecord
  2
TEXTSTYLE_4
 70
     0
 40
0.0
 41
0.85
 50
0.0
 71
     0
 42
0.2
  3
gdt
  4

  0
STYLE
  5
223
330
3
100
AcDbSymbolTableRecord
100
AcDbTextStyleTableRecord
  2
TEXTSTYLE_5
 70
     0
 40
0.0
 41
0.85
 50
0.0
 71
     0
 42
0.2
  3
txt
  4

  0
ENDTAB
  0
TABLE
  2
VIEW
  5
6
330
0
100
AcDbSymbolTable
 70
     0
  0
ENDTAB
  0
TABLE
  2
UCS
  5
7
330
0
100
AcDbSymbolTable
 70
     0
  0
ENDTAB
  0
TABLE
  2
APPID
  5
9
330
0
100
AcDbSymbolTable
 70
     1
  0
APPID
  5
224
330
9
100
AcDbSymbolTableRecord
100
AcDbRegAppTableRecord
  2
ACAD
 70
     0
  0
ENDTAB
  0
TABLE
  2
DIMSTYLE
  5
A
330
0
100
AcDbSymbolTable
 70
     4
100
AcDbDimStyleTable
  0
DIMSTYLE
105
22D
330
A
100
AcDbSymbolTableRecord
100
AcDbDimStyleTableRecord
  2
STANDARD
 70
     0
 41
2.5
 47
0.01
 48
0.01
 71
     1
 73
     0
 74
     0
 77
     1
 78
     8
140
3.0
178
     0
271
     2
272
     2
284
     8
340
11
341
227
342
227
343
227
344
227
  0
DIMSTYLE
105
22E
330
A
100
AcDbSymbolTableRecord
100
AcDbDimStyleTableRecord
  2
DIMSTYLE_1
 70
     0
 41
2.5
 47
0.3
 48
0.3
 73
     0
 74
     0
 77
     1
 78
     8
140
3.0
178
     0
271
     2
272
     2
284
     8
340
11
341
227
342
227
343
227
344
227
  0
DIMSTYLE
105
22F
330
A
100
AcDbSymbolTableRecord
100
AcDbDimStyleTableRecord
  2
DIMSTYLE_2
 70
     0
 41
2.5
 47
0.3
 48
0.3
 73
     0
 74
     0
 77
     1
 78
     8
140
3.0
178
     0
271
     0
272
     0
284
     8
340
11
341
227
342
227
343
227
344
227
  0
DIMSTYLE
105
230
330
A
100
AcDbSymbolTableRecord
100
AcDbDimStyleTableRecord
  2
DIMSTYLE_3
 70
     0
 41
2.5
 47
0.3
 48
0.3
 73
     0
 74
     0
 77
     1
 78
     8
140
3.0
178
     0
271
     2
272
     2
284
     8
340
11
341
227
342
227
343
227
344
227
  0
ENDTAB
  0
TABLE
  2
BLOCK_RECORD
  5
1
330
0
100
AcDbSymbolTable
 70
     6
  0
BLOCK_RECORD
  5
225
330
1
100
AcDbSymbolTableRecord
100
AcDbBlockTableRecord
  2
*Model_Space
340
52D
  0
BLOCK_RECORD
  5
226
330
1
100
AcDbSymbolTableRecord
100
AcDbBlockTableRecord
  2
*Paper_Space
340
52E
  0
BLOCK_RECORD
  5
227
330
1
100
AcDbSymbolTableRecord
100
AcDbBlockTableRecord
  2
_CLOSED
340
0
102
{BLKREFS
331
276
331
0
331
0
331
0
331
0
331
286
331
285
331
27D
331
27C
102
}
  0
BLOCK_RECORD
  5
228
330
1
100
AcDbSymbolTableRecord
100
AcDbBlockTableRecord
  2
*D1
340
0
  0
BLOCK_RECORD
  5
229
330
1
100
AcDbSymbolTableRecord
100
AcDbBlockTableRecord
  2
*D2
340
0
  0
BLOCK_RECORD
  5
22A
330
1
100
AcDbSymbolTableRecord
100
AcDbBlockTableRecord
  2
*D3
340
0
  0
BLOCK_RECORD
  5
22B
330
1
100
AcDbSymbolTableRecord
100
AcDbBlockTableRecord
  2
LOGO2_BL0
340
0
102
{BLKREFS
331
2AE
102
}
  0
BLOCK_RECORD
  5
22C
330
1
100
AcDbSymbolTableRecord
100
AcDbBlockTableRecord
  2
*T5
340
0
102
{BLKREFS
331
2AF
331
2AF
102
}
  0
ENDTAB
  0
ENDSEC
  0
SECTION
  2
BLOCKS
  0
BLOCK
  5
20
330
225
100
AcDbEntity
  8
0
100
AcDbBlockBegin
  2
*Model_Space
 70
     0
 10
0.0
 20
0.0
 30
0.0
  3
*Model_Space
  1
*Model_Space
  0
ENDBLK
  5
21
330
225
100
AcDbEntity
  8
0
100
AcDbBlockEnd
  0
BLOCK
  5
1C
330
226
100
AcDbEntity
 67
     1
  8
0
100
AcDbBlockBegin
  2
*Paper_Space
 70
     0
 10
0.0
 20
0.0
 30
0.0
  3
*Paper_Space
  1
*Paper_Space
  0
ENDBLK
  5
1D
330
226
100
AcDbEntity
 67
     1
  8
0
100
AcDbBlockEnd
  0
BLOCK
  5
26D
330
227
100
AcDbEntity
  8
0
100
AcDbBlockBegin
  2
_CLOSED
 70
     0
 10
0.0
 20
0.0
 30
0.0
  3
_CLOSED
  1
_CLOSED
  0
LINE
  5
26E
330
227
100
AcDbEntity
  8
0
  6
ByBlock
 62
     0
100
AcDbLine
 10
0.0
 20
0.0
 30
0.0
 11
-1.0
 21
0.2
 31
0.0
  0
LINE
  5
26F
330
227
100
AcDbEntity
  8
0
  6
ByBlock
 62
     0
100
AcDbLine
 10
-1.0
 20
0.2
 30
0.0
 11
-1.0
 21
-0.2
 31
0.0
  0
LINE
  5
270
330
227
100
AcDbEntity
  8
0
  6
ByBlock
 62
     0
100
AcDbLine
 10
-1.0
 20
-0.2
 30
0.0
 11
0.0
 21
0.0
 31
0.0
  0
LINE
  5
271
330
227
100
AcDbEntity
  8
0
  6
ByBlock
 62
     0
100
AcDbLine
 10
-1.0
 20
0.0
 30
0.0
 11
0.0
 21
0.0
 31
0.0
  0
ENDBLK
  5
272
330
227
100
AcDbEntity
  8
0
  6
ByBlock
 62
     0
100
AcDbBlockEnd
  0
BLOCK
  5
273
330
228
100
AcDbEntity
  8
0
100
AcDbBlockBegin
  2
*D1
 70
     1
 10
0.0
 20
0.0
 30
0.0
  3
*D1
  1
*D1
  0
LINE
  5
274
330
228
100
AcDbEntity
  8
0
  6
Continuous
 62
     0
370
    -2
100
AcDbLine
 10
101.7804550213324
 20
241.4114226566743
 30
0.0
 11
111.6320268053268
 21
251.3316035306499
 31
0.0
  0
MTEXT
  5
275
330
228
100
AcDbEntity
  8
0
 62
     0
100
AcDbMText
 10
101.8833359788079
 20
248.6107530810757
 30
0.0
 40
3.0
 41
0.0
 71
     1
 72
     1
  1
\A1;%%c62
 11
0.7046488385932749
 21
0.7095562093796015
 31
0.0
 73
     1
 44
1.0
  0
INSERT
  5
276
330
228
100
AcDbEntity
  8
0
 62
     0
370
    -2
100
AcDbBlockReference
  2
_CLOSED
 10
100.0188329248492
 20
239.6375321332253
 30
0.0
 41
2.5
 42
2.5
 43
2.5
 50
225.1988187684786
  0
LINE
  5
579
330
228
100
AcDbEntity
  8
0
  6
Continuous
 62
     0
100
AcDbLine
 10
78.08471892845039
 20
217.6412896424503
 30
0.0
 11
78.26471892845039
 21
217.6412896424503
 31
0.0
  0
LINE
  5
57A
330
228
100
AcDbEntity
  8
0
  6
Continuous
 62
     0
100
AcDbLine
 10
78.17471892845039
 20
217.5512896424503
 30
0.0
 11
78.17471892845039
 21
217.7312896424503
 31
0.0
  0
POINT
  5
57D
330
228
100
AcDbEntity
  8
Defpoints
 62
     0
100
AcDbPoint
 10
100.0188329248492
 20
239.6375321332253
 30
0.0
  0
POINT
  5
57E
330
228
100
AcDbEntity
  8
Defpoints
 62
     0
100
AcDbPoint
 10
56.33060493205162
 20
195.6450471516754
 30
0.0
  0
ENDBLK
  5
277
330
228
100
AcDbEntity
  8
0
  6
ByBlock
 62
     0
100
AcDbBlockEnd
  0
BLOCK
  5
278
330
229
100
AcDbEntity
  8
0
100
AcDbBlockBegin
  2
*D2
 70
     1
 10
0.0
 20
0.0
 30
0.0
  3
*D2
  1
*D2
  0
LINE
  5
279
330
229
100
AcDbEntity
  8
0
  6
Continuous
 62
     0
370
    -2
100
AcDbLine
 10
117.8507477179
 20
119.28343942
 30
0.0
 11
130.5257308755
 21
119.28343942
 31
0.0
  0
LINE
  5
27A
330
229
100
AcDbEntity
  8
0
  6
Continuous
 62
     0
370
    -2
100
AcDbLine
 10
118.3441408559
 20
35.78343942
 30
0.0
 11
130.5257308755
 21
35.78343942000001
 31
0.0
  0
LINE
  5
27B
330
229
100
AcDbEntity
  8
0
  6
Continuous
 62
     0
370
    -2
100
AcDbLine
 10
130.3457308755
 20
116.78343942
 30
0.0
 11
130.3457308755
 21
38.28343942000001
 31
0.0
  0
INSERT
  5
27C
330
229
100
AcDbEntity
  8
0
 62
     0
370
    -2
100
AcDbBlockReference
  2
_CLOSED
 10
130.3457308755
 20
119.28343942
 30
0.0
 41
2.5
 42
2.5
 43
2.5
 50
89.99999999999999
  0
INSERT
  5
27D
330
229
100
AcDbEntity
  8
0
 62
     0
370
    -2
100
AcDbBlockReference
  2
_CLOSED
 10
130.3457308755
 20
35.78343942000001
 30
0.0
 41
2.5
 42
2.5
 43
2.5
 50
270.0
  0
MTEXT
  5
27E
330
229
100
AcDbEntity
  8
0
 62
     0
100
AcDbMText
 10
125.3457308755
 20
77.53343942000001
 30
0.0
 40
3.0
 41
0.0
 71
     2
 72
     1
  1
\A1;84
 11
3.403797536575330E-16
 21
1.0
 31
0.0
 73
     1
 44
1.0
  0
POINT
  5
27F
330
229
100
AcDbEntity
  8
Defpoints
 62
     0
100
AcDbPoint
 10
117.7882477179
 20
119.28343942
 30
0.0
  0
POINT
  5
57B
330
229
100
AcDbEntity
  8
Defpoints
 62
     0
100
AcDbPoint
 10
118.2816408559
 20
35.78343942
 30
0.0
  0
POINT
  5
57C
330
229
100
AcDbEntity
  8
Defpoints
 62
     0
100
AcDbPoint
 10
130.3457308755
 20
35.78343942
 30
0.0
  0
ENDBLK
  5
280
330
229
100
AcDbEntity
  8
0
  6
ByBlock
 62
     0
100
AcDbBlockEnd
  0
BLOCK
  5
281
330
22A
100
AcDbEntity
  8
0
100
AcDbBlockBegin
  2
*D3
 70
     1
 10
0.0
 20
0.0
 30
0.0
  3
*D3
  1
*D3
  0
LINE
  5
282
330
22A
100
AcDbEntity
  8
0
  6
Continuous
 62
     0
370
    -2
100
AcDbLine
 10
161.6286568972
 20
245.1412896424
 30
0.0
 11
150.3491348423
 21
245.1412896424
 31
0.0
  0
LINE
  5
283
330
22A
100
AcDbEntity
  8
0
  6
Continuous
 62
     0
370
    -2
100
AcDbLine
 10
162.3632768245
 20
190.1412896424
 30
0.0
 11
150.3491348423
 21
190.1412896424
 31
0.0
  0
LINE
  5
284
330
22A
100
AcDbEntity
  8
0
  6
Continuous
 62
     0
370
    -2
100
AcDbLine
 10
150.5291348423
 20
242.6412896424
 30
0.0
 11
150.5291348423
 21
192.6412896424
 31
0.0
  0
INSERT
  5
285
330
22A
100
AcDbEntity
  8
0
 62
     0
370
    -2
100
AcDbBlockReference
  2
_CLOSED
 10
150.5291348423
 20
245.1412896424
 30
0.0
 41
2.5
 42
2.5
 43
2.5
 50
90.0
  0
INSERT
  5
286
330
22A
100
AcDbEntity
  8
0
 62
     0
370
    -2
100
AcDbBlockReference
  2
_CLOSED
 10
150.5291348423
 20
190.1412896424
 30
0.0
 41
2.5
 42
2.5
 43
2.5
 50
270.0
  0
MTEXT
  5
287
330
22A
100
AcDbEntity
  8
0
 62
     0
100
AcDbMText
 10
145.5291348423
 20
217.6412896424
 30
0.0
 40
3.0
 41
0.0
 71
     2
 72
     1
  1
\A1;%%c55
 11
0.0
 21
1.0
 31
0.0
 73
     1
 44
1.0
  0
POINT
  5
288
330
22A
100
AcDbEntity
  8
Defpoints
 62
     0
100
AcDbPoint
 10
161.6911568972
 20
245.1412896424
 30
0.0
  0
POINT
  5
577
330
22A
100
AcDbEntity
  8
Defpoints
 62
     0
100
AcDbPoint
 10
162.4257768245
 20
190.1412896424
 30
0.0
  0
POINT
  5
578
330
22A
100
AcDbEntity
  8
Defpoints
 62
     0
100
AcDbPoint
 10
150.5291348423
 20
190.1412896424
 30
0.0
  0
ENDBLK
  5
289
330
22A
100
AcDbEntity
  8
0
  6
ByBlock
 62
     0
100
AcDbBlockEnd
  0
BLOCK
  5
231
330
22B
100
AcDbEntity
  8
0
100
AcDbBlockBegin
  2
LOGO2_BL0
 70
     0
 10
333.1473869546
 20
37.5239270671
 30
0.0
  3
LOGO2_BL0
  1
LOGO2_BL0
  0
LINE
  5
232
330
22B
100
AcDbEntity
  8
0
  6
Continuous
 62
     7
100
AcDbLine
 10
324.8903121828
 20
40.7194184059
 30
0.0
 11
323.5859712535
 21
40.7194184059
 31
0.0
  0
LINE
  5
233
330
22B
100
AcDbEntity
  8
0
  6
Continuous
 62
     7
100
AcDbLine
 10
323.5859712535
 20
40.7194184059
 30
0.0
 11
323.5859712535
 21
30.260352346
 31
0.0
  0
LINE
  5
234
330
22B
100
AcDbEntity
  8
0
  6
Continuous
 62
     7
100
AcDbLine
 10
323.5859712535
 20
30.260352346
 30
0.0
 11
328.0670261417
 21
30.260352346
 31
0.0
  0
LINE
  5
235
330
22B
100
AcDbEntity
  8
0
  6
Continuous
 62
     7
100
AcDbLine
 10
328.0670261417
 20
30.260352346
 30
0.0
 11
328.0670261417
 21
31.4532066711
 31
0.0
  0
LINE
  5
236
330
22B
100
AcDbEntity
  8
0
  6
Continuous
 62
     7
100
AcDbLine
 10
328.0670261417
 20
31.4532066711
 30
0.0
 11
324.8903121828
 21
31.4532066711
 31
0.0
  0
LINE
  5
237
330
22B
100
AcDbEntity
  8
0
  6
Continuous
 62
     7
100
AcDbLine
 10
324.8903121828
 20
31.4532066711
 30
0.0
 11
324.8903121828
 21
40.7194184059
 31
0.0
  0
LINE
  5
238
330
22B
100
AcDbEntity
  8
0
  6
Continuous
 62
     7
100
AcDbLine
 10
339.8266383991
 20
40.7194184059
 30
0.0
 11
338.522820881
 21
40.7194184059
 31
0.0
  0
LINE
  5
239
330
22B
100
AcDbEntity
  8
0
  6
Continuous
 62
     7
100
AcDbLine
 10
338.522820881
 20
40.7194184059
 30
0.0
 11
338.522820881
 21
30.260352346
 31
0.0
  0
LINE
  5
23A
330
22B
100
AcDbEntity
  8
0
  6
Continuous
 62
     7
100
AcDbLine
 10
338.522820881
 20
30.260352346
 30
0.0
 11
343.0040066221
 21
30.260352346
 31
0.0
  0
LINE
  5
23B
330
22B
100
AcDbEntity
  8
0
  6
Continuous
 62
     7
100
AcDbLine
 10
343.0040066221
 20
30.260352346
 30
0.0
 11
343.0040066221
 21
31.4532066711
 31
0.0
  0
LINE
  5
23C
330
22B
100
AcDbEntity
  8
0
  6
Continuous
 62
     7
100
AcDbLine
 10
343.0040066221
 20
31.4532066711
 30
0.0
 11
339.8266383991
 21
31.4532066711
 31
0.0
  0
LINE
  5
23D
330
22B
100
AcDbEntity
  8
0
  6
Continuous
 62
     7
100
AcDbLine
 10
339.8266383991
 20
31.4532066711
 30
0.0
 11
339.8266383991
 21
40.7194184059
 31
0.0
  0
LWPOLYLINE
  5
23E
330
22B
100
AcDbEntity
  8
0
  6
Continuous
 62
     7
100
AcDbPolyline
 90
        2
 70
     0
 43
0.2
 10
321.9403661644
 20
26.9168010391
 10
321.9403661644
 20
25.0597377898
  0
LWPOLYLINE
  5
23F
330
22B
100
AcDbEntity
  8
0
  6
Continuous
 62
     7
100
AcDbPolyline
 90
        2
 70
     0
 43
0.2
 10
321.9403661644
 20
25.0597377898
 10
322.7360821748
 20
25.0597377898
  0
LWPOLYLINE
  5
240
330
22B
100
AcDbEntity
  8
0
  6
Continuous
 62
     7
100
AcDbPolyline
 90
        2
 70
     0
 43
0.2
 10
322.7360821748
 20
25.0597377898
 10
322.7360821748
 20
25.2717193614
  0
LWPOLYLINE
  5
241
330
22B
100
AcDbEntity
  8
0
  6
Continuous
 62
     7
100
AcDbPolyline
 90
        2
 70
     0
 43
0.2
 10
322.7360821748
 20
25.2717193614
 10
322.1719756593
 20
25.2717193614
  0
LWPOLYLINE
  5
242
330
22B
100
AcDbEntity
  8
0
  6
Continuous
 62
     7
100
AcDbPolyline
 90
        2
 70
     0
 43
0.2
 10
322.1719756593
 20
25.2717193614
 10
322.1719756593
 20
26.9168010391
  0
LWPOLYLINE
  5
243
330
22B
100
AcDbEntity
  8
0
  6
Continuous
 62
     7
100
AcDbPolyline
 90
        2
 70
     0
 43
0.2
 10
322.1719756593
 20
26.9168010391
 10
321.9403661644
 20
26.9168010391
  0
SPLINE
  5
244
330
22B
100
AcDbEntity
  8
0
  6
Continuous
 62
     7
100
AcDbSpline
 70
     3
 71
     3
 72
    35
 73
    31
 74
     0
 42
0.000000001
 43
0.0000001
 40
0.0
 40
0.0
 40
0.0
 40
0.0
 40
1.0
 40
1.0
 40
1.0
 40
2.0
 40
2.0
 40
2.0
 40
3.0
 40
3.0
 40
3.0
 40
4.0
 40
4.0
 40
4.0
 40
5.0
 40
5.0
 40
5.0
 40
6.0
 40
6.0
 40
6.0
 40
7.0
 40
7.0
 40
7.0
 40
8.0
 40
8.0
 40
8.0
 40
9.0
 40
9.0
 40
9.0
 40
10.0
 40
10.0
 40
10.0
 40
10.0
 10
324.1343754303
 20
26.2122894457
 30
0.0
 10
324.1343754303
 20
26.2122894457
 30
0.0
 10
324.1343754303
 20
25.5501741665
 30
0.0
 10
324.1343754303
 20
25.5501741665
 30
0.0
 10
324.1343754303
 20
25.2350805712
 30
0.0
 10
324.2822391191
 20
25.0204819432
 30
0.0
 10
324.6223256034
 20
25.0204819432
 30
0.0
 10
324.9618886764
 20
25.0204819432
 30
0.0
 10
325.1100140709
 20
25.2350805712
 30
0.0
 10
325.1100140709
 20
25.5501741665
 30
0.0
 10
325.1100140709
 20
25.5501741665
 30
0.0
 10
325.1100140709
 20
26.2122894457
 30
0.0
 10
325.1100140709
 20
26.2122894457
 30
0.0
 10
325.1100140709
 20
26.2122894457
 30
0.0
 10
324.887956832
 20
26.2122894457
 30
0.0
 10
324.887956832
 20
26.2122894457
 30
0.0
 10
324.887956832
 20
26.2122894457
 30
0.0
 10
324.887956832
 20
25.5752979083
 30
0.0
 10
324.887956832
 20
25.5752979083
 30
0.0
 10
324.887956832
 20
25.3894869011
 30
0.0
 10
324.8412423746
 20
25.2267059906
 30
0.0
 10
324.6223256034
 20
25.2267059906
 30
0.0
 10
324.402885421
 20
25.2267059906
 30
0.0
 10
324.3561709636
 20
25.3894869011
 30
0.0
 10
324.3561709636
 20
25.5752979083
 30
0.0
 10
324.3561709636
 20
25.5752979083
 30
0.0
 10
324.3561709636
 20
26.2122894457
 30
0.0
 10
324.3561709636
 20
26.2122894457
 30
0.0
 10
324.3561709636
 20
26.2122894457
 30
0.0
 10
324.1343754303
 20
26.2122894457
 30
0.0
 10
324.1343754303
 20
26.2122894457
 30
0.0
  0
SPLINE
  5
245
330
22B
100
AcDbEntity
  8
0
  6
Continuous
 62
     7
100
AcDbSpline
 70
     3
 71
     3
 72
    35
 73
    31
 74
     0
 42
0.000000001
 43
0.0000001
 40
0.0
 40
0.0
 40
0.0
 40
0.0
 40
1.0
 40
1.0
 40
1.0
 40
2.0
 40
2.0
 40
2.0
 40
3.0
 40
3.0
 40
3.0
 40
4.0
 40
4.0
 40
4.0
 40
5.0
 40
5.0
 40
5.0
 40
6.0
 40
6.0
 40
6.0
 40
7.0
 40
7.0
 40
7.0
 40
8.0
 40
8.0
 40
8.0
 40
9.0
 40
9.0
 40
9.0
 40
10.0
 40
10.0
 40
10.0
 40
10.0
 10
327.5331466281
 20
26.1709399539
 30
0.0
 10
327.4446901205
 20
26.2222342601
 30
0.0
 10
327.3312407238
 20
26.2473580019
 30
0.0
 10
327.2276052888
 20
26.2473580019
 30
0.0
 10
326.8727324356
 20
26.2473580019
 30
0.0
 10
326.5972872454
 20
25.9835587129
 30
0.0
 10
326.5972872454
 20
25.6260688032
 30
0.0
 10
326.5972872454
 20
25.2811407645
 30
0.0
 10
326.8757420505
 20
25.0210053545
 30
0.0
 10
327.2153051235
 20
25.0210053545
 30
0.0
 10
327.3312407238
 20
25.0210053545
 30
0.0
 10
327.4319973967
 20
25.0429886286
 30
0.0
 10
327.5331466281
 20
25.0968999912
 30
0.0
 10
327.5331466281
 20
25.0968999912
 30
0.0
 10
327.5331466281
 20
25.3795420867
 30
0.0
 10
327.5331466281
 20
25.3795420867
 30
0.0
 10
327.4492699692
 20
25.2863748774
 30
0.0
 10
327.345765387
 20
25.2272294019
 30
0.0
 10
327.2176604743
 20
25.2272294019
 30
0.0
 10
326.9839573343
 20
25.2272294019
 30
0.0
 10
326.8186902202
 20
25.3994317156
 30
0.0
 10
326.8186902202
 20
25.6360136177
 30
0.0
 10
326.8186902202
 20
25.8479951893
 30
0.0
 10
326.9864435379
 20
26.040087132
 30
0.0
 10
327.2032666639
 20
26.040087132
 30
0.0
 10
327.3360822782
 20
26.040087132
 30
0.0
 10
327.4446901205
 20
25.9861757693
 30
0.0
 10
327.5331466281
 20
25.8851573907
 30
0.0
 10
327.5331466281
 20
25.8851573907
 30
0.0
 10
327.5331466281
 20
26.1709399539
 30
0.0
 10
327.5331466281
 20
26.1709399539
 30
0.0
  0
SPLINE
  5
246
330
22B
100
AcDbEntity
  8
0
  6
Continuous
 62
     7
100
AcDbSpline
 70
     3
 71
     3
 72
    32
 73
    28
 74
     0
 42
0.000000001
 43
0.0000001
 40
0.0
 40
0.0
 40
0.0
 40
0.0
 40
1.0
 40
1.0
 40
1.0
 40
2.0
 40
2.0
 40
2.0
 40
3.0
 40
3.0
 40
3.0
 40
4.0
 40
4.0
 40
4.0
 40
5.0
 40
5.0
 40
5.0
 40
6.0
 40
6.0
 40
6.0
 40
7.0
 40
7.0
 40
7.0
 40
8.0
 40
8.0
 40
8.0
 40
9.0
 40
9.0
 40
9.0
 40
9.0
 10
330.0650178804
 20
25.5993748276
 30
0.0
 10
330.0650178804
 20
25.5993748276
 30
0.0
 10
330.0650178804
 20
25.6333965613
 30
0.0
 10
330.0650178804
 20
25.6333965613
 30
0.0
 10
330.0650178804
 20
25.9757075435
 30
0.0
 10
329.8921613025
 20
26.2473580019
 30
0.0
 10
329.5255116954
 20
26.2473580019
 30
0.0
 10
329.153889681
 20
26.2473580019
 30
0.0
 10
328.9641530891
 20
25.9809416564
 30
0.0
 10
328.9641530891
 20
25.6260688032
 30
0.0
 10
328.9641530891
 20
25.2863748774
 30
0.0
 10
329.1782283059
 20
25.0204819432
 30
0.0
 10
329.5303532498
 20
25.0204819432
 30
0.0
 10
329.754373281
 20
25.0204819432
 30
0.0
 10
329.9565408909
 20
25.1361558378
 30
0.0
 10
330.0650178804
 20
25.3355755385
 30
0.0
 10
330.0650178804
 20
25.3355755385
 30
0.0
 10
329.8773749337
 20
25.4423514412
 30
0.0
 10
329.8773749337
 20
25.4423514412
 30
0.0
 10
329.7938908332
 20
25.3036474499
 30
0.0
 10
329.7026864163
 20
25.2178079987
 30
0.0
 10
329.5331011591
 20
25.2178079987
 30
0.0
 10
329.3211195875
 20
25.2178079987
 30
0.0
 10
329.1881731204
 20
25.4025721833
 30
0.0
 10
329.1858177696
 20
25.5993748276
 30
0.0
 10
329.1858177696
 20
25.5993748276
 30
0.0
 10
330.0650178804
 20
25.5993748276
 30
0.0
 10
330.0650178804
 20
25.5993748276
 30
0.0
  0
SPLINE
  5
247
330
22B
100
AcDbEntity
  8
0
  6
Continuous
 62
     7
100
AcDbSpline
 70
     3
 71
     3
 72
    14
 73
    10
 74
     0
 42
0.000000001
 43
0.0000001
 40
0.0
 40
0.0
 40
0.0
 40
0.0
 40
1.0
 40
1.0
 40
1.0
 40
2.0
 40
2.0
 40
2.0
 40
3.0
 40
3.0
 40
3.0
 40
3.0
 10
329.1978562292
 20
25.7668664397
 30
0.0
 10
329.2254661746
 20
25.9317409954
 30
0.0
 10
329.3533093817
 20
26.054742648
 30
0.0
 10
329.5255116954
 20
26.054742648
 30
0.0
 10
329.7026864163
 20
26.054742648
 30
0.0
 10
329.816135813
 20
25.9390687534
 30
0.0
 10
329.8433531999
 20
25.7668664397
 30
0.0
 10
329.8433531999
 20
25.7668664397
 30
0.0
 10
329.1978562292
 20
25.7668664397
 30
0.0
 10
329.1978562292
 20
25.7668664397
 30
0.0
  0
SPLINE
  5
248
330
22B
100
AcDbEntity
  8
0
  6
Continuous
 62
     7
100
AcDbSpline
 70
     3
 71
     3
 72
    20
 73
    16
 74
     0
 42
0.000000001
 43
0.0000001
 40
0.0
 40
0.0
 40
0.0
 40
0.0
 40
1.0
 40
1.0
 40
1.0
 40
2.0
 40
2.0
 40
2.0
 40
3.0
 40
3.0
 40
3.0
 40
4.0
 40
4.0
 40
4.0
 40
5.0
 40
5.0
 40
5.0
 40
5.0
 10
332.0890493306
 20
25.9762309548
 30
0.0
 10
332.0890493306
 20
25.9762309548
 30
0.0
 10
332.5001888972
 20
25.4737561185
 30
0.0
 10
332.5001888972
 20
25.4737561185
 30
0.0
 10
332.3841224441
 20
25.3580822239
 30
0.0
 10
332.2463344226
 20
25.2277528132
 30
0.0
 10
332.0743938145
 20
25.2277528132
 30
0.0
 10
331.8969573879
 20
25.2277528132
 30
0.0
 10
331.7294657758
 20
25.3921039576
 30
0.0
 10
331.7294657758
 20
25.5690169729
 30
0.0
 10
331.7294657758
 20
25.7469768107
 30
0.0
 10
331.9392228494
 20
25.8731189311
 30
0.0
 10
332.0668043508
 20
25.9610520275
 30
0.0
 10
332.0668043508
 20
25.9610520275
 30
0.0
 10
332.0890493306
 20
25.9762309548
 30
0.0
 10
332.0890493306
 20
25.9762309548
 30
0.0
  0
SPLINE
  5
249
330
22B
100
AcDbEntity
  8
0
  6
Continuous
 62
     7
100
AcDbSpline
 70
     3
 71
     3
 72
    23
 73
    19
 74
     0
 42
0.000000001
 43
0.0000001
 40
0.0
 40
0.0
 40
0.0
 40
0.0
 40
1.0
 40
1.0
 40
1.0
 40
2.0
 40
2.0
 40
2.0
 40
3.0
 40
3.0
 40
3.0
 40
4.0
 40
4.0
 40
4.0
 40
5.0
 40
5.0
 40
5.0
 40
6.0
 40
6.0
 40
6.0
 40
6.0
 10
332.1383808444
 20
26.2672476309
 30
0.0
 10
332.1383808444
 20
26.2672476309
 30
0.0
 10
332.0767491653
 20
26.3457593241
 30
0.0
 10
332.0767491653
 20
26.3457593241
 30
0.0
 10
332.0228378026
 20
26.4143262028
 30
0.0
 10
331.9660476779
 20
26.4834164928
 30
0.0
 10
331.9660476779
 20
26.5771071133
 30
0.0
 10
331.9660476779
 20
26.6959214757
 30
0.0
 10
332.0619627964
 20
26.7733863463
 30
0.0
 10
332.1729259894
 20
26.7733863463
 30
0.0
 10
332.2961893477
 20
26.7733863463
 30
0.0
 10
332.3894874098
 20
26.7022024111
 30
0.0
 10
332.3894874098
 20
26.5718730004
 30
0.0
 10
332.3894874098
 20
26.4368328882
 30
0.0
 10
332.2613824971
 20
26.3604148401
 30
0.0
 10
332.1678227294
 20
26.2866138485
 30
0.0
 10
332.1678227294
 20
26.2866138485
 30
0.0
 10
332.1383808444
 20
26.2672476309
 30
0.0
 10
332.1383808444
 20
26.2672476309
 30
0.0
  0
SPLINE
  5
24A
330
22B
100
AcDbEntity
  8
0
  6
Continuous
 62
     7
100
AcDbSpline
 70
     3
 71
     3
 72
    50
 73
    46
 74
     0
 42
0.000000001
 43
0.0000001
 40
0.0
 40
0.0
 40
0.0
 40
0.0
 40
1.0
 40
1.0
 40
1.0
 40
2.0
 40
2.0
 40
2.0
 40
3.0
 40
3.0
 40
3.0
 40
4.0
 40
4.0
 40
4.0
 40
5.0
 40
5.0
 40
5.0
 40
6.0
 40
6.0
 40
6.0
 40
7.0
 40
7.0
 40
7.0
 40
8.0
 40
8.0
 40
8.0
 40
9.0
 40
9.0
 40
9.0
 40
10.0
 40
10.0
 40
10.0
 40
11.0
 40
11.0
 40
11.0
 40
12.0
 40
12.0
 40
12.0
 40
13.0
 40
13.0
 40
13.0
 40
14.0
 40
14.0
 40
14.0
 40
15.0
 40
15.0
 40
15.0
 40
15.0
 10
332.8405370871
 20
25.0602612011
 30
0.0
 10
332.8405370871
 20
25.0602612011
 30
0.0
 10
333.1259270918
 20
25.0602612011
 30
0.0
 10
333.1259270918
 20
25.0602612011
 30
0.0
 10
333.1259270918
 20
25.0602612011
 30
0.0
 10
332.793560924
 20
25.471139062
 30
0.0
 10
332.793560924
 20
25.471139062
 30
0.0
 10
332.793560924
 20
25.471139062
 30
0.0
 10
333.0200671588
 20
25.7370319963
 30
0.0
 10
333.0200671588
 20
25.7370319963
 30
0.0
 10
333.0200671588
 20
25.7370319963
 30
0.0
 10
332.8718109116
 20
25.8898680923
 30
0.0
 10
332.8718109116
 20
25.8898680923
 30
0.0
 10
332.8718109116
 20
25.8898680923
 30
0.0
 10
332.6559037553
 20
25.6386306742
 30
0.0
 10
332.6559037553
 20
25.6386306742
 30
0.0
 10
332.6559037553
 20
25.6386306742
 30
0.0
 10
332.2688411079
 20
26.1065603655
 30
0.0
 10
332.2688411079
 20
26.1065603655
 30
0.0
 10
332.4242942604
 20
26.2206640263
 30
0.0
 10
332.6065722414
 20
26.3604148401
 30
0.0
 10
332.6065722414
 20
26.5697793553
 30
0.0
 10
332.6065722414
 20
26.8136890154
 30
0.0
 10
332.4045354843
 20
26.9571037083
 30
0.0
 10
332.1780292495
 20
26.9571037083
 30
0.0
 10
331.9338578837
 20
26.9571037083
 30
0.0
 10
331.7494862575
 20
26.8063612574
 30
0.0
 10
331.7494862575
 20
26.5498897263
 30
0.0
 10
331.7494862575
 20
26.3923429287
 30
0.0
 10
331.8481492853
 20
26.25468576
 30
0.0
 10
331.953485807
 20
26.1437225669
 30
0.0
 10
331.953485807
 20
26.1437225669
 30
0.0
 10
331.8379427652
 20
26.0599767609
 30
0.0
 10
331.8379427652
 20
26.0599767609
 30
0.0
 10
331.660244633
 20
25.9317409954
 30
0.0
 10
331.5129043554
 20
25.8040286411
 30
0.0
 10
331.5129043554
 20
25.5669233277
 30
0.0
 10
331.5129043554
 20
25.2465956195
 30
0.0
 10
331.7714695316
 20
25.0204819432
 30
0.0
 10
332.0818524253
 20
25.0204819432
 30
0.0
 10
332.3007691965
 20
25.0204819432
 30
0.0
 10
332.4979643992
 20
25.145577241
 30
0.0
 10
332.6382386243
 20
25.3114986192
 30
0.0
 10
332.6382386243
 20
25.3114986192
 30
0.0
 10
332.8405370871
 20
25.0602612011
 30
0.0
 10
332.8405370871
 20
25.0602612011
 30
0.0
  0
LWPOLYLINE
  5
24B
330
22B
100
AcDbEntity
  8
0
  6
Continuous
 62
     7
100
AcDbPolyline
 90
        2
 70
     0
 43
0.2
 10
334.7759811768
 20
26.9168010391
 10
334.5446333876
 20
26.9168010391
  0
LWPOLYLINE
  5
24C
330
22B
100
AcDbEntity
  8
0
  6
Continuous
 62
     7
100
AcDbPolyline
 90
        2
 70
     0
 43
0.2
 10
334.5446333876
 20
26.9168010391
 10
334.5446333876
 20
25.0597377898
  0
LWPOLYLINE
  5
24D
330
22B
100
AcDbEntity
  8
0
  6
Continuous
 62
     7
100
AcDbPolyline
 90
        2
 70
     0
 43
0.2
 10
334.5446333876
 20
25.0597377898
 10
335.3399568395
 20
25.0597377898
  0
LWPOLYLINE
  5
24E
330
22B
100
AcDbEntity
  8
0
  6
Continuous
 62
     7
100
AcDbPolyline
 90
        2
 70
     0
 43
0.2
 10
335.3399568395
 20
25.0597377898
 10
335.3399568395
 20
25.2717193614
  0
LWPOLYLINE
  5
24F
330
22B
100
AcDbEntity
  8
0
  6
Continuous
 62
     7
100
AcDbPolyline
 90
        2
 70
     0
 43
0.2
 10
335.3399568395
 20
25.2717193614
 10
334.7759811768
 20
25.2717193614
  0
LWPOLYLINE
  5
250
330
22B
100
AcDbEntity
  8
0
  6
Continuous
 62
     7
100
AcDbPolyline
 90
        2
 70
     0
 43
0.2
 10
334.7759811768
 20
25.2717193614
 10
334.7759811768
 20
26.9168010391
  0
LWPOLYLINE
  5
251
330
22B
100
AcDbEntity
  8
0
  6
Continuous
 62
     7
100
AcDbPolyline
 90
        2
 70
     0
 43
0.2
 10
337.019060251
 20
26.2122894457
 10
336.7979189819
 20
26.2122894457
  0
LWPOLYLINE
  5
252
330
22B
100
AcDbEntity
  8
0
  6
Continuous
 62
     7
100
AcDbPolyline
 90
        2
 70
     0
 43
0.2
 10
336.7979189819
 20
26.2122894457
 10
336.7979189819
 20
25.0602612011
  0
LWPOLYLINE
  5
253
330
22B
100
AcDbEntity
  8
0
  6
Continuous
 62
     7
100
AcDbPolyline
 90
        2
 70
     0
 43
0.2
 10
336.7979189819
 20
25.0602612011
 10
337.019060251
 20
25.0602612011
  0
LWPOLYLINE
  5
254
330
22B
100
AcDbEntity
  8
0
  6
Continuous
 62
     7
100
AcDbPolyline
 90
        2
 70
     0
 43
0.2
 10
337.019060251
 20
25.0602612011
 10
337.019060251
 20
26.2122894457
  0
SPLINE
  5
255
330
22B
100
AcDbEntity
  8
0
  6
Continuous
 62
     7
100
AcDbSpline
 70
     3
 71
     3
 72
    17
 73
    13
 74
     0
 42
0.000000001
 43
0.0000001
 40
0.0
 40
0.0
 40
0.0
 40
0.0
 40
1.0
 40
1.0
 40
1.0
 40
2.0
 40
2.0
 40
2.0
 40
3.0
 40
3.0
 40
3.0
 40
4.0
 40
4.0
 40
4.0
 40
4.0
 10
336.9086204693
 20
26.894817765
 30
0.0
 10
336.8246129576
 20
26.894817765
 30
0.0
 10
336.7560460788
 20
26.825727475
 30
0.0
 10
336.7560460788
 20
26.7398880238
 30
0.0
 10
336.7560460788
 20
26.6556188065
 30
0.0
 10
336.8246129576
 20
26.5896689842
 30
0.0
 10
336.9086204693
 20
26.5896689842
 30
0.0
 10
336.9923662753
 20
26.5896689842
 30
0.0
 10
337.0611948597
 20
26.6556188065
 30
0.0
 10
337.0611948597
 20
26.7398880238
 30
0.0
 10
337.0611948597
 20
26.825727475
 30
0.0
 10
336.9923662753
 20
26.894817765
 30
0.0
 10
336.9086204693
 20
26.894817765
 30
0.0
  0
SPLINE
  5
256
330
22B
100
AcDbEntity
  8
0
  6
Continuous
 62
     7
100
AcDbSpline
 70
     3
 71
     3
 72
    17
 73
    13
 74
     0
 42
0.000000001
 43
0.0000001
 40
0.0
 40
0.0
 40
0.0
 40
0.0
 40
1.0
 40
1.0
 40
1.0
 40
2.0
 40
2.0
 40
2.0
 40
3.0
 40
3.0
 40
3.0
 40
4.0
 40
4.0
 40
4.0
 40
4.0
 10
339.1493441926
 20
25.2178079987
 30
0.0
 10
338.915379347
 20
25.2178079987
 30
0.0
 10
338.7850499363
 20
25.4198447558
 30
0.0
 10
338.7850499363
 20
25.6360136177
 30
0.0
 10
338.7850499363
 20
25.8506122457
 30
0.0
 10
338.9208751655
 20
26.0495085351
 30
0.0
 10
339.1493441926
 20
26.0495085351
 30
0.0
 10
339.3888048568
 20
26.0495085351
 30
0.0
 10
339.5243683804
 20
25.8605570602
 30
0.0
 10
339.5243683804
 20
25.6360136177
 30
0.0
 10
339.5243683804
 20
25.4098999414
 30
0.0
 10
339.3911602076
 20
25.2178079987
 30
0.0
 10
339.1493441926
 20
25.2178079987
 30
0.0
  0
SPLINE
  5
257
330
22B
100
AcDbEntity
  8
0
  6
Continuous
 62
     7
100
AcDbSpline
 70
     3
 71
     3
 72
    50
 73
    46
 74
     0
 42
0.000000001
 43
0.0000001
 40
0.0
 40
0.0
 40
0.0
 40
0.0
 40
1.0
 40
1.0
 40
1.0
 40
2.0
 40
2.0
 40
2.0
 40
3.0
 40
3.0
 40
3.0
 40
4.0
 40
4.0
 40
4.0
 40
5.0
 40
5.0
 40
5.0
 40
6.0
 40
6.0
 40
6.0
 40
7.0
 40
7.0
 40
7.0
 40
8.0
 40
8.0
 40
8.0
 40
9.0
 40
9.0
 40
9.0
 40
10.0
 40
10.0
 40
10.0
 40
11.0
 40
11.0
 40
11.0
 40
12.0
 40
12.0
 40
12.0
 40
13.0
 40
13.0
 40
13.0
 40
14.0
 40
14.0
 40
14.0
 40
15.0
 40
15.0
 40
15.0
 40
15.0
 10
339.7334711899
 20
26.2128128569
 30
0.0
 10
339.7334711899
 20
26.2128128569
 30
0.0
 10
339.5118065095
 20
26.2128128569
 30
0.0
 10
339.5118065095
 20
26.2128128569
 30
0.0
 10
339.5118065095
 20
26.2128128569
 30
0.0
 10
339.5118065095
 20
26.0154868014
 30
0.0
 10
339.5118065095
 20
26.0154868014
 30
0.0
 10
339.5118065095
 20
26.0154868014
 30
0.0
 10
339.5070958079
 20
26.0154868014
 30
0.0
 10
339.5070958079
 20
26.0154868014
 30
0.0
 10
339.4157605382
 20
26.158378083
 30
0.0
 10
339.2778416638
 20
26.2468345907
 30
0.0
 10
339.1051159388
 20
26.2468345907
 30
0.0
 10
338.772749771
 20
26.2468345907
 30
0.0
 10
338.5636469615
 20
25.9589583823
 30
0.0
 10
338.5636469615
 20
25.6433413757
 30
0.0
 10
338.5636469615
 20
25.3135922644
 30
0.0
 10
338.7607113114
 20
25.0204819432
 30
0.0
 10
339.1155841646
 20
25.0204819432
 30
0.0
 10
339.2778416638
 20
25.0204819432
 30
0.0
 10
339.4178541833
 20
25.1089384508
 30
0.0
 10
339.5070958079
 20
25.2397912728
 30
0.0
 10
339.5070958079
 20
25.2397912728
 30
0.0
 10
339.5118065095
 20
25.2397912728
 30
0.0
 10
339.5118065095
 20
25.2397912728
 30
0.0
 10
339.5118065095
 20
25.2397912728
 30
0.0
 10
339.5118065095
 20
25.0204819432
 30
0.0
 10
339.5118065095
 20
25.0204819432
 30
0.0
 10
339.5118065095
 20
24.7839000411
 30
0.0
 10
339.4552780904
 20
24.5970422113
 30
0.0
 10
339.1820573981
 20
24.5970422113
 30
0.0
 10
338.9797589354
 20
24.5970422113
 30
0.0
 10
338.8371293594
 20
24.7153331624
 30
0.0
 10
338.8371293594
 20
24.9215572098
 30
0.0
 10
338.8371293594
 20
24.9215572098
 30
0.0
 10
338.615464679
 20
24.9215572098
 30
0.0
 10
338.615464679
 20
24.9215572098
 30
0.0
 10
338.6204370862
 20
24.5970422113
 30
0.0
 10
338.8515231698
 20
24.4002395671
 30
0.0
 10
339.171850878
 20
24.4002395671
 30
0.0
 10
339.6198909404
 20
24.4002395671
 30
0.0
 10
339.7334711899
 20
24.6854987189
 30
0.0
 10
339.7334711899
 20
25.0822444751
 30
0.0
 10
339.7334711899
 20
25.0822444751
 30
0.0
 10
339.7334711899
 20
26.2128128569
 30
0.0
 10
339.7334711899
 20
26.2128128569
 30
0.0
  0
SPLINE
  5
258
330
22B
100
AcDbEntity
  8
0
  6
Continuous
 62
     7
100
AcDbSpline
 70
     3
 71
     3
 72
    44
 73
    40
 74
     0
 42
0.000000001
 43
0.0000001
 40
0.0
 40
0.0
 40
0.0
 40
0.0
 40
1.0
 40
1.0
 40
1.0
 40
2.0
 40
2.0
 40
2.0
 40
3.0
 40
3.0
 40
3.0
 40
4.0
 40
4.0
 40
4.0
 40
5.0
 40
5.0
 40
5.0
 40
6.0
 40
6.0
 40
6.0
 40
7.0
 40
7.0
 40
7.0
 40
8.0
 40
8.0
 40
8.0
 40
9.0
 40
9.0
 40
9.0
 40
10.0
 40
10.0
 40
10.0
 40
11.0
 40
11.0
 40
11.0
 40
12.0
 40
12.0
 40
12.0
 40
13.0
 40
13.0
 40
13.0
 40
13.0
 10
341.3023965253
 20
27.1978729007
 30
0.0
 10
341.3023965253
 20
27.1978729007
 30
0.0
 10
341.3023965253
 20
25.0597377898
 30
0.0
 10
341.3023965253
 20
25.0597377898
 30
0.0
 10
341.3023965253
 20
25.0597377898
 30
0.0
 10
341.5237995001
 20
25.0597377898
 30
0.0
 10
341.5237995001
 20
25.0597377898
 30
0.0
 10
341.5237995001
 20
25.0597377898
 30
0.0
 10
341.5237995001
 20
25.5894300131
 30
0.0
 10
341.5237995001
 20
25.5894300131
 30
0.0
 10
341.5237995001
 20
25.7993179395
 30
0.0
 10
341.5237995001
 20
26.0500319464
 30
0.0
 10
341.8090586519
 20
26.0500319464
 30
0.0
 10
342.0359574452
 20
26.0500319464
 30
0.0
 10
342.0629131266
 20
25.9170854793
 30
0.0
 10
342.0629131266
 20
25.7208062464
 30
0.0
 10
342.0629131266
 20
25.7208062464
 30
0.0
 10
342.0629131266
 20
25.0597377898
 30
0.0
 10
342.0629131266
 20
25.0597377898
 30
0.0
 10
342.0629131266
 20
25.0597377898
 30
0.0
 10
342.2848395126
 20
25.0597377898
 30
0.0
 10
342.2848395126
 20
25.0597377898
 30
0.0
 10
342.2848395126
 20
25.0597377898
 30
0.0
 10
342.2848395126
 20
25.7469768107
 30
0.0
 10
342.2848395126
 20
25.7469768107
 30
0.0
 10
342.2848395126
 20
26.027525261
 30
0.0
 10
342.2008320009
 20
26.2473580019
 30
0.0
 10
341.8757935911
 20
26.2473580019
 30
0.0
 10
341.7360427773
 20
26.2473580019
 30
0.0
 10
341.5978621973
 20
26.1808847684
 30
0.0
 10
341.5285102016
 20
26.0578831157
 30
0.0
 10
341.5285102016
 20
26.0578831157
 30
0.0
 10
341.5237995001
 20
26.0578831157
 30
0.0
 10
341.5237995001
 20
26.0578831157
 30
0.0
 10
341.5237995001
 20
26.0578831157
 30
0.0
 10
341.5237995001
 20
27.1978729007
 30
0.0
 10
341.5237995001
 20
27.1978729007
 30
0.0
 10
341.5237995001
 20
27.1978729007
 30
0.0
 10
341.3023965253
 20
27.1978729007
 30
0.0
 10
341.3023965253
 20
27.1978729007
 30
0.0
  0
LWPOLYLINE
  5
259
330
22B
100
AcDbEntity
  8
0
  6
Continuous
 62
     7
100
AcDbPolyline
 90
        2
 70
     0
 43
0.2
 10
344.1246301895
 20
26.005541987
 10
344.341060757
 20
26.005541987
  0
LWPOLYLINE
  5
25A
330
22B
100
AcDbEntity
  8
0
  6
Continuous
 62
     7
100
AcDbPolyline
 90
        2
 70
     0
 43
0.2
 10
344.341060757
 20
26.005541987
 10
344.341060757
 20
26.2122894457
  0
LWPOLYLINE
  5
25B
330
22B
100
AcDbEntity
  8
0
  6
Continuous
 62
     7
100
AcDbPolyline
 90
        2
 70
     0
 43
0.2
 10
344.341060757
 20
26.2122894457
 10
344.1246301895
 20
26.2122894457
  0
LWPOLYLINE
  5
25C
330
22B
100
AcDbEntity
  8
0
  6
Continuous
 62
     7
100
AcDbPolyline
 90
        2
 70
     0
 43
0.2
 10
344.1246301895
 20
26.2122894457
 10
344.1246301895
 20
26.65300175
  0
LWPOLYLINE
  5
25D
330
22B
100
AcDbEntity
  8
0
  6
Continuous
 62
     7
100
AcDbPolyline
 90
        2
 70
     0
 43
0.2
 10
344.1246301895
 20
26.65300175
 10
343.9029655091
 20
26.65300175
  0
LWPOLYLINE
  5
25E
330
22B
100
AcDbEntity
  8
0
  6
Continuous
 62
     7
100
AcDbPolyline
 90
        2
 70
     0
 43
0.2
 10
343.9029655091
 20
26.65300175
 10
343.9029655091
 20
26.2122894457
  0
LWPOLYLINE
  5
25F
330
22B
100
AcDbEntity
  8
0
  6
Continuous
 62
     7
100
AcDbPolyline
 90
        2
 70
     0
 43
0.2
 10
343.9029655091
 20
26.2122894457
 10
343.7823192072
 20
26.2122894457
  0
LWPOLYLINE
  5
260
330
22B
100
AcDbEntity
  8
0
  6
Continuous
 62
     7
100
AcDbPolyline
 90
        2
 70
     0
 43
0.2
 10
343.7823192072
 20
26.2122894457
 10
343.7823192072
 20
26.005541987
  0
LWPOLYLINE
  5
261
330
22B
100
AcDbEntity
  8
0
  6
Continuous
 62
     7
100
AcDbPolyline
 90
        2
 70
     0
 43
0.2
 10
343.7823192072
 20
26.005541987
 10
343.9029655091
 20
26.005541987
  0
LWPOLYLINE
  5
262
330
22B
100
AcDbEntity
  8
0
  6
Continuous
 62
     7
100
AcDbPolyline
 90
        2
 70
     0
 43
0.2
 10
343.9029655091
 20
26.005541987
 10
343.9029655091
 20
25.0597377898
  0
LWPOLYLINE
  5
263
330
22B
100
AcDbEntity
  8
0
  6
Continuous
 62
     7
100
AcDbPolyline
 90
        2
 70
     0
 43
0.2
 10
343.9029655091
 20
25.0597377898
 10
344.1246301895
 20
25.0597377898
  0
LWPOLYLINE
  5
264
330
22B
100
AcDbEntity
  8
0
  6
Continuous
 62
     7
100
AcDbPolyline
 90
        2
 70
     0
 43
0.2
 10
344.1246301895
 20
25.0597377898
 10
344.1246301895
 20
26.005541987
  0
SPLINE
  5
265
330
22B
100
AcDbEntity
  8
0
  6
Continuous
 62
     7
100
AcDbSpline
 70
     3
 71
     3
 72
    20
 73
    16
 74
     0
 42
0.000000001
 43
0.0000001
 40
0.0
 40
0.0
 40
0.0
 40
0.0
 40
1.0
 40
1.0
 40
1.0
 40
2.0
 40
2.0
 40
2.0
 40
3.0
 40
3.0
 40
3.0
 40
4.0
 40
4.0
 40
4.0
 40
5.0
 40
5.0
 40
5.0
 40
5.0
 10
331.9066404967
 20
35.4206642332
 30
0.0
 10
331.9066404967
 20
35.4206642332
 30
0.0
 10
334.2229971512
 20
32.5911028109
 30
0.0
 10
334.2229971512
 20
32.5911028109
 30
0.0
 10
333.5713500978
 20
31.9389323462
 30
0.0
 10
332.7944768938
 20
31.2030160755
 30
0.0
 10
331.8232872491
 20
31.2030160755
 30
0.0
 10
330.8247493647
 20
31.2030160755
 30
0.0
 10
329.8814313711
 20
32.1325945228
 30
0.0
 10
329.8814313711
 20
33.1317866713
 30
0.0
 10
329.8814313711
 20
34.1309788198
 30
0.0
 10
331.0602844442
 20
34.8375840585
 30
0.0
 10
331.7818069046
 20
35.3374418384
 30
0.0
 10
331.7818069046
 20
35.3374418384
 30
0.0
 10
331.9066404967
 20
35.4206642332
 30
0.0
 10
331.9066404967
 20
35.4206642332
 30
0.0
  0
SPLINE
  5
266
330
22B
100
AcDbEntity
  8
0
  6
Continuous
 62
     7
100
AcDbSpline
 70
     3
 71
     3
 72
    23
 73
    19
 74
     0
 42
0.000000001
 43
0.0000001
 40
0.0
 40
0.0
 40
0.0
 40
0.0
 40
1.0
 40
1.0
 40
1.0
 40
2.0
 40
2.0
 40
2.0
 40
3.0
 40
3.0
 40
3.0
 40
4.0
 40
4.0
 40
4.0
 40
5.0
 40
5.0
 40
5.0
 40
6.0
 40
6.0
 40
6.0
 40
6.0
 10
332.1840484793
 20
37.0584181529
 30
0.0
 10
332.1840484793
 20
37.0584181529
 30
0.0
 10
331.8375502067
 20
37.5017475137
 30
0.0
 10
331.8375502067
 20
37.5017475137
 30
0.0
 10
331.5317471618
 20
37.8898569837
 30
0.0
 10
331.2128588347
 20
38.2783590121
 30
0.0
 10
331.2128588347
 20
38.8053033262
 30
0.0
 10
331.2128588347
 20
39.4714750428
 30
0.0
 10
331.7541969591
 20
39.9151969621
 30
0.0
 10
332.3781032143
 20
39.9151969621
 30
0.0
 10
333.0718848763
 20
39.9151969621
 30
0.0
 10
333.5990908961
 20
39.5129553874
 30
0.0
 10
333.5990908961
 20
38.7779550864
 30
0.0
 10
333.5990908961
 20
38.0146905758
 30
0.0
 10
332.8778301414
 20
37.58457735
 30
0.0
 10
332.3507549745
 20
37.1688579346
 30
0.0
 10
332.3507549745
 20
37.1688579346
 30
0.0
 10
332.1840484793
 20
37.0584181529
 30
0.0
 10
332.1840484793
 20
37.0584181529
 30
0.0
  0
SPLINE
  5
267
330
22B
100
AcDbEntity
  8
0
  6
Continuous
 62
     7
100
AcDbSpline
 70
     3
 71
     3
 72
    50
 73
    46
 74
     0
 42
0.000000001
 43
0.0000001
 40
0.0
 40
0.0
 40
0.0
 40
0.0
 40
1.0
 40
1.0
 40
1.0
 40
2.0
 40
2.0
 40
2.0
 40
3.0
 40
3.0
 40
3.0
 40
4.0
 40
4.0
 40
4.0
 40
5.0
 40
5.0
 40
5.0
 40
6.0
 40
6.0
 40
6.0
 40
7.0
 40
7.0
 40
7.0
 40
8.0
 40
8.0
 40
8.0
 40
9.0
 40
9.0
 40
9.0
 40
10.0
 40
10.0
 40
10.0
 40
11.0
 40
11.0
 40
11.0
 40
12.0
 40
12.0
 40
12.0
 40
13.0
 40
13.0
 40
13.0
 40
14.0
 40
14.0
 40
14.0
 40
15.0
 40
15.0
 40
15.0
 40
15.0
 10
336.1376356422
 20
30.2598289348
 30
0.0
 10
336.1376356422
 20
30.2598289348
 30
0.0
 10
337.7468636468
 20
30.2598289348
 30
0.0
 10
337.7468636468
 20
30.2598289348
 30
0.0
 10
337.7468636468
 20
30.2598289348
 30
0.0
 10
335.8738363531
 20
32.5769707062
 30
0.0
 10
335.8738363531
 20
32.5769707062
 30
0.0
 10
335.8738363531
 20
32.5769707062
 30
0.0
 10
337.1501747786
 20
34.0744504008
 30
0.0
 10
337.1501747786
 20
34.0744504008
 30
0.0
 10
337.1501747786
 20
34.0744504008
 30
0.0
 10
336.3179508309
 20
34.9354619693
 30
0.0
 10
336.3179508309
 20
34.9354619693
 30
0.0
 10
336.3179508309
 20
34.9354619693
 30
0.0
 10
335.0973557076
 20
33.5201578469
 30
0.0
 10
335.0973557076
 20
33.5201578469
 30
0.0
 10
335.0973557076
 20
33.5201578469
 30
0.0
 10
332.9194413388
 20
36.1555336813
 30
0.0
 10
332.9194413388
 20
36.1555336813
 30
0.0
 10
333.7930147782
 20
36.7935720412
 30
0.0
 10
334.8196860194
 20
37.58457735
 30
0.0
 10
334.8196860194
 20
38.7634304231
 30
0.0
 10
334.8196860194
 20
40.1371233482
 30
0.0
 10
333.6817898795
 20
40.9416064976
 30
0.0
 10
332.4064982766
 20
40.9416064976
 30
0.0
 10
331.0330670573
 20
40.9416064976
 30
0.0
 10
329.9921328585
 20
40.0953812979
 30
0.0
 10
329.9921328585
 20
38.6527289358
 30
0.0
 10
329.9921328585
 20
37.7651542444
 30
0.0
 10
330.547472235
 20
36.9882810403
 30
0.0
 10
331.1436376918
 20
36.3638513739
 30
0.0
 10
331.1436376918
 20
36.3638513739
 30
0.0
 10
330.4917289328
 20
35.8922578035
 30
0.0
 10
330.4917289328
 20
35.8922578035
 30
0.0
 10
329.4931910484
 20
35.1709970488
 30
0.0
 10
328.6603128365
 20
34.4497362942
 30
0.0
 10
328.6603128365
 20
33.1181779778
 30
0.0
 10
328.6603128365
 20
31.3145026798
 30
0.0
 10
330.1173590091
 20
30.0379025487
 30
0.0
 10
331.8648984465
 20
30.0379025487
 30
0.0
 10
333.0997565274
 20
30.0379025487
 30
0.0
 10
334.2091267521
 20
30.7460780212
 30
0.0
 10
335.000001208
 20
31.6746096459
 30
0.0
 10
335.000001208
 20
31.6746096459
 30
0.0
 10
336.1376356422
 20
30.2598289348
 30
0.0
 10
336.1376356422
 20
30.2598289348
 30
0.0
  0
LINE
  5
268
330
22B
100
AcDbEntity
  8
0
  6
Continuous
 62
     7
100
AcDbLine
 10
321.9404970172
 20
28.2337038394
 30
0.0
 11
344.3544077449
 21
28.2337038394
 31
0.0
  0
LINE
  5
269
330
22B
100
AcDbEntity
  8
0
  6
Continuous
 62
     7
100
AcDbLine
 10
344.3544077449
 20
28.2337038394
 30
0.0
 11
344.3544077449
 21
50.6476145671
 31
0.0
  0
LINE
  5
26A
330
22B
100
AcDbEntity
  8
0
  6
Continuous
 62
     7
100
AcDbLine
 10
344.3544077449
 20
50.6476145671
 30
0.0
 11
321.9404970172
 21
50.6476145671
 31
0.0
  0
LINE
  5
26B
330
22B
100
AcDbEntity
  8
0
  6
Continuous
 62
     7
100
AcDbLine
 10
321.9404970172
 20
50.6476145671
 30
0.0
 11
321.9404970172
 21
28.2337038394
 31
0.0
  0
ENDBLK
  5
26C
330
22B
100
AcDbEntity
  8
0
  6
ByBlock
 62
     0
100
AcDbBlockEnd
  0
BLOCK
  5
28A
330
22C
100
AcDbEntity
  8
0
100
AcDbBlockBegin
  2
*T5
 70
     1
 10
0.0
 20
0.0
 30
0.0
  3
*T5
  1
*T5
  0
MTEXT
  5
28B
330
22C
100
AcDbEntity
  8
0
  6
Continuous
 62
     0
100
AcDbMText
 10
30.06
 20
-3.0
 30
0.0
 40
3.0
 41
39.88
 71
     4
 72
     5
  1
685_C_080
 73
     1
 44
1.0
  0
MTEXT
  5
28C
330
22C
100
AcDbEntity
  8
0
  6
Continuous
 62
     0
100
AcDbMText
 10
70.06
 20
-0.06
 30
0.0
 40
3.5
 41
19.88
 71
     1
 72
     5
  1
Rev:00
 73
     1
 44
1.0
  0
MTEXT
  5
28D
330
22C
100
AcDbEntity
  8
0
  6
Continuous
 62
     0
100
AcDbMText
 10
30.06
 20
-6.06
 30
0.0
 40
3.5
 41
39.88
 71
     1
 72
     5
  1
Scale:1:1
 73
     1
 44
1.0
  0
MTEXT
  5
28E
330
22C
100
AcDbEntity
  8
0
  6
Continuous
 62
     0
100
AcDbMText
 10
70.06
 20
-9.0
 30
0.0
 40
3.5
 41
19.88
 71
     4
 72
     5
  1
A3
 73
     1
 44
1.0
  0
MTEXT
  5
28F
330
22C
100
AcDbEntity
  8
0
  6
Continuous
 62
     0
100
AcDbMText
 10
30.06
 20
-17.0
 30
0.0
 40
3.5
 41
59.88
 71
     4
 72
     5
  1
TURIS 1.1 
 73
     1
 44
1.0
  0
MTEXT
  5
290
330
22C
100
AcDbEntity
  8
0
  6
Continuous
 62
     0
100
AcDbMText
 10
30.06
 20
-24.5
 30
0.0
 40
2.5
 41
59.88
 71
     4
 72
     5
  1
DATE:05/05/2014
 73
     1
 44
1.0
  0
MTEXT
  5
291
330
22C
100
AcDbEntity
  8
0
  6
Continuous
 62
     0
100
AcDbMText
 10
0.06
 20
-27.06
 30
0.0
 40
1.85
 41
89.88
 71
     1
 72
     5
  1
Any integral or partial reproductions are prohibited \Pwithout prior authorisation of L & L Luce & Light s.r.l., \Pin accordance with the law in force. \PAll rights reserved.
 73
     1
 44
1.0
  0
LINE
  5
292
330
22C
100
AcDbEntity
  8
0
  6
Continuous
 62
     0
370
    -2
100
AcDbLine
 10
0.0
 20
0.0
 30
0.0
 11
10.0
 21
0.0
 31
0.0
  0
LINE
  5
293
330
22C
100
AcDbEntity
  8
0
  6
Continuous
 62
     0
370
    -2
100
AcDbLine
 10
10.0
 20
0.0
 30
0.0
 11
20.0
 21
0.0
 31
0.0
  0
LINE
  5
294
330
22C
100
AcDbEntity
  8
0
  6
Continuous
 62
     0
370
    -2
100
AcDbLine
 10
20.0
 20
0.0
 30
0.0
 11
30.0
 21
0.0
 31
0.0
  0
LINE
  5
295
330
22C
100
AcDbEntity
  8
0
  6
Continuous
 62
     0
370
    -2
100
AcDbLine
 10
0.0
 20
0.0
 30
0.0
 11
0.0
 21
-6.0
 31
0.0
  0
LINE
  5
296
330
22C
100
AcDbEntity
  8
0
  6
Continuous
 62
     0
370
    -2
100
AcDbLine
 10
0.0
 20
-6.0
 30
0.0
 11
0.0
 21
-12.0
 31
0.0
  0
LINE
  5
297
330
22C
100
AcDbEntity
  8
0
  6
Continuous
 62
     0
370
    -2
100
AcDbLine
 10
0.0
 20
-12.0
 30
0.0
 11
0.0
 21
-22.0
 31
0.0
  0
LINE
  5
298
330
22C
100
AcDbEntity
  8
0
  6
Continuous
 62
     0
370
    -2
100
AcDbLine
 10
0.0
 20
-22.0
 30
0.0
 11
0.0
 21
-27.0
 31
0.0
  0
LINE
  5
299
330
22C
100
AcDbEntity
  8
0
  6
Continuous
 62
     0
370
    -2
100
AcDbLine
 10
30.0
 20
0.0
 30
0.0
 11
70.0
 21
0.0
 31
0.0
  0
LINE
  5
29A
330
22C
100
AcDbEntity
  8
0
  6
Continuous
 62
     0
370
    -2
100
AcDbLine
 10
30.0
 20
0.0
 30
0.0
 11
30.0
 21
-6.0
 31
0.0
  0
LINE
  5
29B
330
22C
100
AcDbEntity
  8
0
  6
Continuous
 62
     0
370
    -2
100
AcDbLine
 10
70.0
 20
0.0
 30
0.0
 11
90.0
 21
0.0
 31
0.0
  0
LINE
  5
57F
330
22C
100
AcDbEntity
  8
0
  6
Continuous
 62
     0
370
    -2
100
AcDbLine
 10
70.0
 20
0.0
 30
0.0
 11
70.0
 21
-6.0
 31
0.0
  0
LINE
  5
580
330
22C
100
AcDbEntity
  8
0
  6
Continuous
 62
     0
370
    -2
100
AcDbLine
 10
90.0
 20
0.0
 30
0.0
 11
90.0
 21
-6.0
 31
0.0
  0
LINE
  5
581
330
22C
100
AcDbEntity
  8
0
  6
Continuous
 62
     0
370
    -2
100
AcDbLine
 10
30.0
 20
-6.0
 30
0.0
 11
70.0
 21
-6.0
 31
0.0
  0
LINE
  5
582
330
22C
100
AcDbEntity
  8
0
  6
Continuous
 62
     0
370
    -2
100
AcDbLine
 10
30.0
 20
-6.0
 30
0.0
 11
30.0
 21
-12.0
 31
0.0
  0
LINE
  5
583
330
22C
100
AcDbEntity
  8
0
  6
Continuous
 62
     0
370
    -2
100
AcDbLine
 10
70.0
 20
-6.0
 30
0.0
 11
90.0
 21
-6.0
 31
0.0
  0
LINE
  5
584
330
22C
100
AcDbEntity
  8
0
  6
Continuous
 62
     0
370
    -2
100
AcDbLine
 10
70.0
 20
-6.0
 30
0.0
 11
70.0
 21
-12.0
 31
0.0
  0
LINE
  5
585
330
22C
100
AcDbEntity
  8
0
  6
Continuous
 62
     0
370
    -2
100
AcDbLine
 10
90.0
 20
-6.0
 30
0.0
 11
90.0
 21
-12.0
 31
0.0
  0
LINE
  5
586
330
22C
100
AcDbEntity
  8
0
  6
Continuous
 62
     0
370
    -2
100
AcDbLine
 10
30.0
 20
-12.0
 30
0.0
 11
70.0
 21
-12.0
 31
0.0
  0
LINE
  5
587
330
22C
100
AcDbEntity
  8
0
  6
Continuous
 62
     0
370
    -2
100
AcDbLine
 10
70.0
 20
-12.0
 30
0.0
 11
90.0
 21
-12.0
 31
0.0
  0
LINE
  5
588
330
22C
100
AcDbEntity
  8
0
  6
Continuous
 62
     0
370
    -2
100
AcDbLine
 10
30.0
 20
-12.0
 30
0.0
 11
30.0
 21
-22.0
 31
0.0
  0
LINE
  5
589
330
22C
100
AcDbEntity
  8
0
  6
Continuous
 62
     0
370
    -2
100
AcDbLine
 10
90.0
 20
-12.0
 30
0.0
 11
90.0
 21
-22.0
 31
0.0
  0
LINE
  5
58A
330
22C
100
AcDbEntity
  8
0
  6
Continuous
 62
     0
370
    -2
100
AcDbLine
 10
30.0
 20
-22.0
 30
0.0
 11
70.0
 21
-22.0
 31
0.0
  0
LINE
  5
58B
330
22C
100
AcDbEntity
  8
0
  6
Continuous
 62
     0
370
    -2
100
AcDbLine
 10
70.0
 20
-22.0
 30
0.0
 11
90.0
 21
-22.0
 31
0.0
  0
LINE
  5
58C
330
22C
100
AcDbEntity
  8
0
  6
Continuous
 62
     0
370
    -2
100
AcDbLine
 10
30.0
 20
-22.0
 30
0.0
 11
30.0
 21
-27.0
 31
0.0
  0
LINE
  5
58D
330
22C
100
AcDbEntity
  8
0
  6
Continuous
 62
     0
370
    -2
100
AcDbLine
 10
90.0
 20
-22.0
 30
0.0
 11
90.0
 21
-27.0
 31
0.0
  0
LINE
  5
58E
330
22C
100
AcDbEntity
  8
0
  6
Continuous
 62
     0
370
    -2
100
AcDbLine
 10
0.0
 20
-27.0
 30
0.0
 11
10.0
 21
-27.0
 31
0.0
  0
LINE
  5
58F
330
22C
100
AcDbEntity
  8
0
  6
Continuous
 62
     0
370
    -2
100
AcDbLine
 10
10.0
 20
-27.0
 30
0.0
 11
20.0
 21
-27.0
 31
0.0
  0
LINE
  5
590
330
22C
100
AcDbEntity
  8
0
  6
Continuous
 62
     0
370
    -2
100
AcDbLine
 10
20.0
 20
-27.0
 30
0.0
 11
30.0
 21
-27.0
 31
0.0
  0
LINE
  5
591
330
22C
100
AcDbEntity
  8
0
  6
Continuous
 62
     0
370
    -2
100
AcDbLine
 10
30.0
 20
-27.0
 30
0.0
 11
70.0
 21
-27.0
 31
0.0
  0
LINE
  5
592
330
22C
100
AcDbEntity
  8
0
  6
Continuous
 62
     0
370
    -2
100
AcDbLine
 10
70.0
 20
-27.0
 30
0.0
 11
90.0
 21
-27.0
 31
0.0
  0
LINE
  5
593
330
22C
100
AcDbEntity
  8
0
  6
Continuous
 62
     0
370
    -2
100
AcDbLine
 10
0.0
 20
-27.0
 30
0.0
 11
0.0
 21
-40.0
 31
0.0
  0
LINE
  5
594
330
22C
100
AcDbEntity
  8
0
  6
Continuous
 62
     0
370
    -2
100
AcDbLine
 10
90.0
 20
-27.0
 30
0.0
 11
90.0
 21
-40.0
 31
0.0
  0
LINE
  5
595
330
22C
100
AcDbEntity
  8
0
  6
Continuous
 62
     0
370
    -2
100
AcDbLine
 10
0.0
 20
-40.0
 30
0.0
 11
10.0
 21
-40.0
 31
0.0
  0
LINE
  5
596
330
22C
100
AcDbEntity
  8
0
  6
Continuous
 62
     0
370
    -2
100
AcDbLine
 10
10.0
 20
-40.0
 30
0.0
 11
20.0
 21
-40.0
 31
0.0
  0
LINE
  5
597
330
22C
100
AcDbEntity
  8
0
  6
Continuous
 62
     0
370
    -2
100
AcDbLine
 10
20.0
 20
-40.0
 30
0.0
 11
30.0
 21
-40.0
 31
0.0
  0
LINE
  5
598
330
22C
100
AcDbEntity
  8
0
  6
Continuous
 62
     0
370
    -2
100
AcDbLine
 10
30.0
 20
-40.0
 30
0.0
 11
70.0
 21
-40.0
 31
0.0
  0
LINE
  5
599
330
22C
100
AcDbEntity
  8
0
  6
Continuous
 62
     0
370
    -2
100
AcDbLine
 10
70.0
 20
-40.0
 30
0.0
 11
90.0
 21
-40.0
 31
0.0
  0
ENDBLK
  5
29C
330
22C
100
AcDbEntity
  8
0
100
AcDbBlockEnd
  0
ENDSEC
  0
SECTION
  2
ENTITIES
  0
MTEXT
  5
29D
330
225
100
AcDbEntity
  8
0
  6
Continuous
 62
     2
100
AcDbMText
 10
1.6467220993
 20
53.595027386
 30
0.0
 40
4.0
 41
2.2857142857
 71
     1
 72
     1
  1
1
  7
TEXTSTYLE_2
 73
     1
 44
0.9
  0
MTEXT
  5
29E
330
225
100
AcDbEntity
  8
0
  6
Continuous
 62
     2
100
AcDbMText
 10
1.6467220993
 20
153.595027386
 30
0.0
 40
4.0
 41
3.1428571429
 71
     1
 72
     1
  1
2
  7
TEXTSTYLE_2
 73
     1
 44
0.9
  0
MTEXT
  5
29F
330
225
100
AcDbEntity
  8
0
  6
Continuous
 62
     2
100
AcDbMText
 10
1.6467220993
 20
253.595027386
 30
0.0
 40
4.0
 41
2.8571428571
 71
     1
 72
     1
  1
3
  7
TEXTSTYLE_2
 73
     1
 44
0.9
  0
MTEXT
  5
2A0
330
225
100
AcDbEntity
  8
0
  6
Continuous
 62
     2
100
AcDbMText
 10
414.6467220993
 20
60.6268709614
 30
0.0
 40
4.0
 41
2.2857142857
 71
     1
 72
     1
  1
1
  7
TEXTSTYLE_2
 73
     1
 44
0.9
  0
MTEXT
  5
2A1
330
225
100
AcDbEntity
  8
0
  6
Continuous
 62
     2
100
AcDbMText
 10
414.6467220993
 20
160.6268709614
 30
0.0
 40
4.0
 41
3.1428571429
 71
     1
 72
     1
  1
2
  7
TEXTSTYLE_2
 73
     1
 44
0.9
  0
MTEXT
  5
2A2
330
225
100
AcDbEntity
  8
0
  6
Continuous
 62
     2
100
AcDbMText
 10
414.6467220993
 20
260.6268709614
 30
0.0
 40
4.0
 41
2.8571428571
 71
     1
 72
     1
  1
3
  7
TEXTSTYLE_2
 73
     1
 44
0.9
  0
MTEXT
  5
2A3
330
225
100
AcDbEntity
  8
0
  6
Continuous
 62
     2
100
AcDbMText
 10
362.154890719
 20
5.35876025
 30
0.0
 40
4.0
 41
3.6
 71
     1
 72
     1
  1
A
  7
TEXTSTYLE_3
 73
     1
 44
0.9
  0
MTEXT
  5
2A4
330
225
100
AcDbEntity
  8
0
  6
Continuous
 62
     2
100
AcDbMText
 10
262.154890719
 20
5.35876025
 30
0.0
 40
4.0
 41
3.6
 71
     1
 72
     1
  1
B
  7
TEXTSTYLE_3
 73
     1
 44
0.9
  0
MTEXT
  5
2A5
330
225
100
AcDbEntity
  8
0
  6
Continuous
 62
     2
100
AcDbMText
 10
162.154890719
 20
5.35876025
 30
0.0
 40
4.0
 41
3.6
 71
     1
 72
     1
  1
C
  7
TEXTSTYLE_3
 73
     1
 44
0.9
  0
MTEXT
  5
2A6
330
225
100
AcDbEntity
  8
0
  6
Continuous
 62
     2
100
AcDbMText
 10
55.7978688212
 20
5.5353441916
 30
0.0
 40
4.0
 41
3.6
 71
     1
 72
     1
  1
D
  7
TEXTSTYLE_3
 73
     1
 44
0.9
  0
MTEXT
  5
2A7
330
225
100
AcDbEntity
  8
0
  6
Continuous
 62
     2
100
AcDbMText
 10
362.154890719
 20
295.35876025
 30
0.0
 40
4.0
 41
3.6
 71
     1
 72
     1
  1
A
  7
TEXTSTYLE_3
 73
     1
 44
0.9
  0
MTEXT
  5
2A8
330
225
100
AcDbEntity
  8
0
  6
Continuous
 62
     2
100
AcDbMText
 10
262.154890719
 20
295.35876025
 30
0.0
 40
4.0
 41
3.6
 71
     1
 72
     1
  1
B
  7
TEXTSTYLE_3
 73
     1
 44
0.9
  0
MTEXT
  5
2A9
330
225
100
AcDbEntity
  8
0
  6
Continuous
 62
     2
100
AcDbMText
 10
162.154890719
 20
295.35876025
 30
0.0
 40
4.0
 41
3.6
 71
     1
 72
     1
  1
C
  7
TEXTSTYLE_3
 73
     1
 44
0.9
  0
MTEXT
  5
2AA
330
225
100
AcDbEntity
  8
0
  6
Continuous
 62
     2
100
AcDbMText
 10
53.9878834197
 20
295.579490177
 30
0.0
 40
4.0
 41
3.6
 71
     1
 72
     1
  1
D
  7
TEXTSTYLE_3
 73
     1
 44
0.9
  0
DIMENSION
  5
2AB
330
225
100
AcDbEntity
  8
0
  6
Continuous
 62
     2
100
AcDbDimension
  2
*D1
 10
56.33060493205162
 20
195.6450471516754
 30
0.0
 11
107.8269230769231
 21
247.5
 31
0.0
 70
   163
  1
<>
 71
     1
 42
62.00000000002058
  3
DIMSTYLE_1
100
AcDbDiametricDimension
 15
100.0188329248492
 25
239.6375321332253
 35
0.0
 40
0.0
1001
ACAD
1000
DSTYLE
1002
{
1070
   147
1040
2.0
1002
}
  0
DIMENSION
  5
2AC
330
225
100
AcDbEntity
  8
0
  6
Continuous
 62
     2
100
AcDbDimension
  2
*D2
 10
130.3457308755
 20
35.78343942000001
 30
0.0
 11
130.3457308755
 21
77.53343942000001
 31
0.0
 70
   160
 71
     2
 42
83.5
  3
DIMSTYLE_2
100
AcDbAlignedDimension
 13
117.7882477179
 23
119.28343942
 33
0.0
 14
118.2816408559
 24
35.78343942
 34
0.0
 50
270.0
100
AcDbRotatedDimension
1001
ACAD
1000
DSTYLE
1002
{
1070
   147
1040
2.0
1002
}
  0
DIMENSION
  5
2AD
330
225
100
AcDbEntity
  8
0
  6
Continuous
 62
     2
100
AcDbDimension
  2
*D3
 10
150.5291348423
 20
190.1412896424
 30
0.0
 11
150.5291348423
 21
217.6412896424
 31
0.0
 70
   160
  1
%%c<>
 71
     2
 42
55.0
  3
DIMSTYLE_3
100
AcDbAlignedDimension
 13
161.6911568972
 23
245.1412896424
 33
0.0
 14
162.4257768245
 24
190.1412896424
 34
0.0
 50
270.0
100
AcDbRotatedDimension
1001
ACAD
1000
DSTYLE
1002
{
1070
   147
1040
2.0
1002
}
  0
INSERT
  5
2AE
330
225
100
AcDbEntity
  8
0
  6
Continuous
 62
     2
100
AcDbBlockReference
  2
LOGO2_BL0
 10
333.1473869546
 20
37.5239270671
 30
0.0
  0
INSERT
  5
2AF
330
225
100
AcDbEntity
  8
0
  6
Continuous
 62
     2
100
AcDbBlockReference
  2
*T5
 10
319.3213399098
 20
51.0239270671
 30
0.0
  0
LINE
  5
2B0
330
225
100
AcDbEntity
  8
0
  6
Continuous
 62
     7
100
AcDbLine
 10
0.0
 20
0.0
 30
0.0
 11
0.0
 21
297.0
 31
0.0
  0
LWPOLYLINE
  5
2B1
330
225
100
AcDbEntity
  8
0
  6
Continuous
 62
     7
100
AcDbPolyline
 90
        2
 70
     0
 43
0.1000000003
 10
7.0536312849
 20
0.0
 10
7.0536312849
 20
297.0
  0
LWPOLYLINE
  5
2B2
330
225
100
AcDbEntity
  8
0
  6
Continuous
 62
     7
100
AcDbPolyline
 90
        2
 70
     0
 43
0.4999999952
 10
10.0536312849
 20
10.0318435754
 10
10.0536312849
 20
287.0
  0
LINE
  5
2B3
330
225
100
AcDbEntity
  8
0
  6
Continuous
 62
     7
100
AcDbLine
 10
0.0
 20
0.0
 30
0.0
 11
420.0
 21
0.0
 31
0.0
  0
LWPOLYLINE
  5
2B4
330
225
100
AcDbEntity
  8
0
  6
Continuous
 62
     7
100
AcDbPolyline
 90
        2
 70
     0
 43
0.1000000003
 10
0.0
 20
7.0318435754
 10
420.0
 20
7.0318435754
  0
LWPOLYLINE
  5
2B5
330
225
100
AcDbEntity
  8
0
  6
Continuous
 62
     7
100
AcDbPolyline
 90
        2
 70
     0
 43
0.4999999952
 10
10.0536312849
 20
10.0318435754
 10
410.0
 20
10.0318435754
  0
LINE
  5
2B6
330
225
100
AcDbEntity
  8
0
  6
Continuous
 62
     7
100
AcDbLine
 10
113.0
 20
297.0
 30
0.0
 11
113.0
 21
290.0
 31
0.0
  0
LINE
  5
2B7
330
225
100
AcDbEntity
  8
0
  6
Continuous
 62
     7
100
AcDbLine
 10
113.0
 20
7.0
 30
0.0
 11
113.0
 21
0.0
 31
0.0
  0
LWPOLYLINE
  5
2B8
330
225
100
AcDbEntity
  8
0
  6
Continuous
 62
     7
100
AcDbPolyline
 90
        2
 70
     0
 43
0.1000000003
 10
123.0
 20
10.0
 10
123.0
 20
0.0
  0
LWPOLYLINE
  5
2B9
330
225
100
AcDbEntity
  8
0
  6
Continuous
 62
     7
100
AcDbPolyline
 90
        2
 70
     0
 43
0.1000000003
 10
123.0
 20
287.0
 10
123.0
 20
297.0
  0
LINE
  5
2BA
330
225
100
AcDbEntity
  8
0
  6
Continuous
 62
     7
100
AcDbLine
 10
0.0
 20
99.9681564246
 30
0.0
 11
7.0
 21
99.9681564246
 31
0.0
  0
LINE
  5
2BB
330
225
100
AcDbEntity
  8
0
  6
Continuous
 62
     7
100
AcDbLine
 10
413.0
 20
107.0
 30
0.0
 11
420.0
 21
107.0
 31
0.0
  0
LWPOLYLINE
  5
2BC
330
225
100
AcDbEntity
  8
0
  6
Continuous
 62
     7
100
AcDbPolyline
 90
        2
 70
     0
 43
0.1000000003
 10
210.0
 20
10.0
 10
210.0
 20
0.0
  0
LWPOLYLINE
  5
2BD
330
225
100
AcDbEntity
  8
0
  6
Continuous
 62
     7
100
AcDbPolyline
 90
        2
 70
     0
 43
0.1000000003
 10
210.0
 20
287.0
 10
210.0
 20
297.0
  0
LWPOLYLINE
  5
2BE
330
225
100
AcDbEntity
  8
0
  6
Continuous
 62
     7
100
AcDbPolyline
 90
        2
 70
     0
 43
0.1000000003
 10
10.0
 20
148.5
 10
0.0
 20
148.5
  0
LWPOLYLINE
  5
2BF
330
225
100
AcDbEntity
  8
0
  6
Continuous
 62
     7
100
AcDbPolyline
 90
        2
 70
     0
 43
0.1000000003
 10
410.0
 20
148.5
 10
420.0
 20
148.5
  0
LINE
  5
2C0
330
225
100
AcDbEntity
  8
0
  6
Continuous
 62
     7
100
AcDbLine
 10
0.0
 20
199.9681564246
 30
0.0
 11
7.0
 21
199.9681564246
 31
0.0
  0
LWPOLYLINE
  5
2C1
330
225
100
AcDbEntity
  8
0
  6
Continuous
 62
     7
100
AcDbPolyline
 90
        2
 70
     0
 43
0.1000000003
 10
10.0
 20
202.9681564246
 10
0.0
 20
202.9681564246
  0
LWPOLYLINE
  5
2C2
330
225
100
AcDbEntity
  8
0
  6
Continuous
 62
     7
100
AcDbPolyline
 90
        2
 70
     0
 43
0.1000000003
 10
410.0
 20
210.0
 10
420.0
 20
210.0
  0
LINE
  5
2C3
330
225
100
AcDbEntity
  8
0
  6
Continuous
 62
     7
100
AcDbLine
 10
313.0
 20
297.0
 30
0.0
 11
313.0
 21
290.0
 31
0.0
  0
LINE
  5
2C4
330
225
100
AcDbEntity
  8
0
  6
Continuous
 62
     7
100
AcDbLine
 10
313.0
 20
7.0
 30
0.0
 11
313.0
 21
0.0
 31
0.0
  0
LWPOLYLINE
  5
2C5
330
225
100
AcDbEntity
  8
0
  6
Continuous
 62
     7
100
AcDbPolyline
 90
        2
 70
     0
 43
0.4999999952
 10
10.0536312849
 20
287.0
 10
410.0
 20
287.0
  0
LWPOLYLINE
  5
2C6
330
225
100
AcDbEntity
  8
0
  6
Continuous
 62
     7
100
AcDbPolyline
 90
        2
 70
     0
 43
0.1000000003
 10
0.0
 20
290.0
 10
420.0
 20
290.0
  0
LINE
  5
2C7
330
225
100
AcDbEntity
  8
0
  6
Continuous
 62
     7
100
AcDbLine
 10
0.0
 20
297.0
 30
0.0
 11
420.0
 21
297.0
 31
0.0
  0
LWPOLYLINE
  5
2C8
330
225
100
AcDbEntity
  8
0
  6
Continuous
 62
     7
100
AcDbPolyline
 90
        2
 70
     0
 43
0.4999999952
 10
410.0
 20
10.0318435754
 10
410.0
 20
287.0
  0
LWPOLYLINE
  5
2C9
330
225
100
AcDbEntity
  8
0
  6
Continuous
 62
     7
100
AcDbPolyline
 90
        2
 70
     0
 43
0.1000000003
 10
413.0
 20
0.0
 10
413.0
 20
297.0
  0
LINE
  5
2CA
330
225
100
AcDbEntity
  8
0
  6
Continuous
 62
     7
100
AcDbLine
 10
420.0
 20
0.0
 30
0.0
 11
420.0
 21
297.0
 31
0.0
  0
LINE
  5
2CB
330
225
100
AcDbEntity
  8
7_ALL_FEATURES
  6
Continuous
 62
     7
100
AcDbLine
 10
116.384536181
 20
181.2921511998
 30
0.0
 11
116.6260176376
 21
181.356855961
 31
0.0
  0
LINE
  5
2CC
330
225
100
AcDbEntity
  8
7_ALL_FEATURES
  6
Continuous
 62
     9
100
AcDbLine
 10
116.3271428573
 20
182.4722718263
 30
0.0
 11
116.0856614007
 21
182.407567065
 31
0.0
  0
LINE
  5
2CD
330
225
100
AcDbEntity
  8
7_ALL_FEATURES
  6
Continuous
 62
     7
100
AcDbLine
 10
47.7945666876
 20
223.8037946291
 30
0.0
 11
39.7234612872
 21
253.9255700563
 31
0.0
  0
LINE
  5
2CE
330
225
100
AcDbEntity
  8
7_ALL_FEATURES
  6
Continuous
 62
     7
100
AcDbLine
 10
47.911011092
 20
224.3351440218
 30
0.0
 11
39.9649427438
 21
253.9902748176
 31
0.0
  0
LINE
  5
2CF
330
225
100
AcDbEntity
  8
7_ALL_FEATURES
  6
Continuous
 62
     7
100
AcDbLine
 10
108.4384267649
 20
210.9474352631
 30
0.0
 11
116.3844951131
 21
181.2923044673
 31
0.0
  0
LINE
  5
2D0
330
225
100
AcDbEntity
  8
7_ALL_FEATURES
  6
Continuous
 62
     7
100
AcDbLine
 10
108.5548711694
 20
211.4787846558
 30
0.0
 11
116.6259765697
 21
181.3570092286
 31
0.0
  0
LINE
  5
2D1
330
225
100
AcDbEntity
  8
7_ALL_FEATURES
  6
Continuous
 62
     9
100
AcDbLine
 10
40.0222949996
 20
252.8103074586
 30
0.0
 11
40.2637764562
 21
252.8750122199
 31
0.0
  0
LINE
  5
2D2
330
225
100
AcDbEntity
  8
7_ALL_FEATURES
  6
Continuous
 62
     7
100
AcDbLine
 10
39.9649016759
 20
253.9904280851
 30
0.0
 11
39.7234202193
 21
253.9257233239
 31
0.0
  0
LINE
  5
2D3
330
225
100
AcDbEntity
  8
7_ALL_FEATURES
  6
Continuous
 62
     7
100
AcDbLine
 10
102.8247189285
 20
35.68343942
 30
0.0
 11
53.5247189285
 21
35.68343942
 31
0.0
  0
LINE
  5
2D4
330
225
100
AcDbEntity
  8
02___PRT_ALL_AXES
  6
Continuous
 62
     7
100
AcDbLine
 10
47.1747198608
 20
35.78343942
 30
0.0
 11
109.1747179961
 21
35.78343942
 31
0.0
  0
LINE
  5
2D5
330
225
100
AcDbEntity
  8
7_ALL_FEATURES
  6
Continuous
 62
     7
100
AcDbLine
 10
49.557348708
 20
37.8519004848
 30
0.0
 11
40.0222949996
 21
55.0309630355
 31
0.0
  0
LINE
  5
2D6
330
225
100
AcDbEntity
  8
7_ALL_FEATURES
  6
Continuous
 62
     7
100
AcDbLine
 10
49.7988301646
 20
37.8519004848
 30
0.0
 11
40.2637764562
 21
55.0309630355
 31
0.0
  0
LINE
  5
2D7
330
225
100
AcDbEntity
  8
02___PRT_ALL_AXES
  6
Continuous
 62
     7
100
AcDbLine
 10
47.1747198608
 20
37.28343942
 30
0.0
 11
109.1747179961
 21
37.28343942
 31
0.0
  0
LINE
  5
2D8
330
225
100
AcDbEntity
  8
7_ALL_FEATURES
  6
Continuous
 62
     7
100
AcDbLine
 10
50.6747189285
 20
37.38343942
 30
0.0
 11
50.1042569828
 21
37.38343942
 31
0.0
  0
LINE
  5
2D9
330
225
100
AcDbEntity
  8
7_ALL_FEATURES
  6
Continuous
 62
     7
100
AcDbLine
 10
96.351167064
 20
37.38343942
 30
0.0
 11
96.5426781748
 21
37.38343942
 31
0.0
  0
LINE
  5
2DA
330
225
100
AcDbEntity
  8
7_ALL_FEATURES
  6
Continuous
 62
     7
100
AcDbLine
 10
96.5426781748
 20
37.38343942
 30
0.0
 11
106.2451808741
 21
37.38343942
 31
0.0
  0
LINE
  5
2DB
330
225
100
AcDbEntity
  8
7_ALL_FEATURES
  6
Continuous
 62
     9
100
AcDbLine
 10
49.7988301646
 20
37.8519004848
 30
0.0
 11
49.557348708
 21
37.8519004848
 31
0.0
  0
LINE
  5
2DC
330
225
100
AcDbEntity
  8
7_ALL_FEATURES
  6
Continuous
 62
     9
100
AcDbLine
 10
95.7083794543
 20
38.38343942
 30
0.0
 11
95.8998905651
 21
38.38343942
 31
0.0
  0
LINE
  5
2DD
330
225
100
AcDbEntity
  8
02___PRT_ALL_AXES
  6
Continuous
 62
     7
100
AcDbLine
 10
47.1747189285
 20
37.28343942
 30
0.0
 11
47.1747189285
 21
35.78343942
 31
0.0
  0
LINE
  5
2DE
330
225
100
AcDbEntity
  8
02___PRT_ALL_AXES
  6
Continuous
 62
     7
100
AcDbLine
 10
105.2689383559
 20
45.38343942
 30
0.0
 11
105.4621235211
 21
45.38343942
 31
0.0
  0
LINE
  5
2DF
330
225
100
AcDbEntity
  8
7_ALL_FEATURES
  6
Continuous
 62
     7
100
AcDbLine
 10
105.3126942758
 20
47.38343942
 30
0.0
 11
105.6115527665
 21
47.38343942
 31
0.0
  0
LINE
  5
2E0
330
225
100
AcDbEntity
  8
7_ALL_FEATURES
  6
Continuous
 62
     9
100
AcDbLine
 10
95.7083794543
 20
47.4142093169
 30
0.0
 11
95.8998905651
 21
47.4142093169
 31
0.0
  0
LINE
  5
2E1
330
225
100
AcDbEntity
  8
02___PRT_ALL_AXES
  6
Continuous
 62
     7
100
AcDbLine
 10
50.6747189285
 20
82.28343942
 30
0.0
 11
50.6747189285
 21
37.28343942
 31
0.0
  0
LINE
  5
2E2
330
225
100
AcDbEntity
  8
7_ALL_FEATURES
  6
Continuous
 62
     7
100
AcDbLine
 10
105.7609820118
 20
48.38343942
 30
0.0
 11
105.1632650304
 21
48.38343942
 31
0.0
  0
LINE
  5
2E3
330
225
100
AcDbEntity
  8
7_ALL_FEATURES
  6
Continuous
 62
     7
100
AcDbLine
 10
96.351167064
 20
48.4142093169
 30
0.0
 11
96.5426781748
 21
48.4142093169
 31
0.0
  0
LINE
  5
2E4
330
225
100
AcDbEntity
  8
7_ALL_FEATURES
  6
Continuous
 62
     7
100
AcDbLine
 10
103.4352136535
 20
48.4142093169
 30
0.0
 11
103.6850653825
 21
48.4142093169
 31
0.0
  0
LINE
  5
2E5
330
225
100
AcDbEntity
  8
7_ALL_FEATURES
  6
Continuous
 62
     7
100
AcDbLine
 10
105.6115527665
 20
49.38343942
 30
0.0
 11
105.3126942758
 21
49.38343942
 31
0.0
  0
LINE
  5
2E6
330
225
100
AcDbEntity
  8
02___PRT_ALL_AXES
  6
Continuous
 62
     7
100
AcDbLine
 10
105.2689383559
 20
51.38343942
 30
0.0
 11
105.4621235211
 21
51.38343942
 31
0.0
  0
LINE
  5
2E7
330
225
100
AcDbEntity
  8
7_ALL_FEATURES
  6
Continuous
 62
     7
100
AcDbLine
 10
53.5247189285
 20
35.78343942
 30
0.0
 11
53.5247189285
 21
35.68343942
 31
0.0
  0
LINE
  5
2E8
330
225
100
AcDbEntity
  8
02___PRT_ALL_AXES
  6
Continuous
 62
     7
100
AcDbLine
 10
55.7783277999
 20
111.78343942
 30
0.0
 11
55.7783277999
 21
82.28343942
 31
0.0
  0
LINE
  5
2E9
330
225
100
AcDbEntity
  8
7_ALL_FEATURES
  6
Continuous
 62
     9
100
AcDbLine
 10
40.0222949996
 20
55.0309630355
 30
0.0
 11
40.2637764562
 21
55.0309630355
 31
0.0
  0
LINE
  5
2EA
330
225
100
AcDbEntity
  8
02___PRT_ALL_AXES
  6
Continuous
 62
     9
100
AcDbLine
 10
56.3888003052
 20
82.28343942
 30
0.0
 11
56.3888003052
 21
111.78343942
 31
0.0
  0
LINE
  5
2EB
330
225
100
AcDbEntity
  8
02___PRT_ALL_AXES
  6
Continuous
 62
     7
100
AcDbLine
 10
57.6346139876
 20
111.78343942
 30
0.0
 11
57.6346139876
 21
82.28343942
 31
0.0
  0
LINE
  5
2EC
330
225
100
AcDbEntity
  8
02___PRT_ALL_AXES
  6
Continuous
 62
     9
100
AcDbLine
 10
58.507000369
 20
82.28343942
 30
0.0
 11
58.507000369
 21
111.78343942
 31
0.0
  0
LINE
  5
2ED
330
225
100
AcDbEntity
  8
7_ALL_FEATURES
  6
Continuous
 62
     9
100
AcDbLine
 10
105.7989580501
 20
58.3736691417
 30
0.0
 11
106.0404395066
 21
58.3736691417
 31
0.0
  0
LINE
  5
2EE
330
225
100
AcDbEntity
  8
7_ALL_FEATURES
  6
Continuous
 62
     9
100
AcDbLine
 10
40.2068040203
 20
58.8391947797
 30
0.0
 11
40.4482854768
 21
58.8391947797
 31
0.0
  0
LINE
  5
2EF
330
225
100
AcDbEntity
  8
02___PRT_ALL_AXES
  6
Continuous
 62
     7
100
AcDbLine
 10
59.7623678586
 20
111.78343942
 30
0.0
 11
59.7623678586
 21
82.28343942
 31
0.0
  0
LINE
  5
2F0
330
225
100
AcDbEntity
  8
02___PRT_ALL_AXES
  6
Continuous
 62
     9
100
AcDbLine
 10
60.6714014829
 20
82.28343942
 30
0.0
 11
60.6714014829
 21
111.78343942
 31
0.0
  0
LINE
  5
2F1
330
225
100
AcDbEntity
  8
02___PRT_ALL_AXES
  6
Continuous
 62
     7
100
AcDbLine
 10
62.5880641902
 20
119.28343942
 30
0.0
 11
62.5880641902
 21
116.43343942
 31
0.0
  0
LINE
  5
2F2
330
225
100
AcDbEntity
  8
02___PRT_ALL_AXES
  6
Continuous
 62
     7
100
AcDbLine
 10
62.5880641902
 20
116.1088991024
 30
0.0
 11
62.5880641902
 21
116.03343942
 31
0.0
  0
LINE
  5
2F3
330
225
100
AcDbEntity
  8
02___PRT_ALL_AXES
  6
Continuous
 62
     7
100
AcDbLine
 10
62.5880641902
 20
115.03343942
 30
0.0
 11
62.5880641902
 21
114.9579797375
 31
0.0
  0
LINE
  5
2F4
330
225
100
AcDbEntity
  8
02___PRT_ALL_AXES
  6
Continuous
 62
     7
100
AcDbLine
 10
62.5880641902
 20
114.63343942
 30
0.0
 11
62.5880641902
 21
111.78343942
 31
0.0
  0
LINE
  5
2F5
330
225
100
AcDbEntity
  8
02___PRT_ALL_AXES
  6
Continuous
 62
     7
100
AcDbLine
 10
63.4251416783
 20
115.03343942
 30
0.0
 11
63.4251416783
 21
115.43343942
 31
0.0
  0
LINE
  5
2F6
330
225
100
AcDbEntity
  8
02___PRT_ALL_AXES
  6
Continuous
 62
     7
100
AcDbLine
 10
63.4251416783
 20
115.63343942
 30
0.0
 11
63.4251416783
 21
116.03343942
 31
0.0
  0
LINE
  5
2F7
330
225
100
AcDbEntity
  8
02___PRT_ALL_AXES
  6
Continuous
 62
     7
100
AcDbLine
 10
105.2689383559
 20
60.38343942
 30
0.0
 11
105.4621235211
 21
60.38343942
 31
0.0
  0
LINE
  5
2F8
330
225
100
AcDbEntity
  8
7_ALL_FEATURES
  6
Continuous
 62
     7
100
AcDbLine
 10
105.3126942758
 20
62.38343942
 30
0.0
 11
105.6115527665
 21
62.38343942
 31
0.0
  0
LINE
  5
2F9
330
225
100
AcDbEntity
  8
02___PRT_ALL_AXES
  6
Continuous
 62
     9
100
AcDbLine
 10
63.7041675076
 20
119.28343942
 30
0.0
 11
63.7041675076
 21
115.63343942
 31
0.0
  0
LINE
  5
2FA
330
225
100
AcDbEntity
  8
02___PRT_ALL_AXES
  6
Continuous
 62
     9
100
AcDbLine
 10
63.7041675076
 20
115.43343942
 30
0.0
 11
63.7041675076
 21
111.78343942
 31
0.0
  0
LINE
  5
2FB
330
225
100
AcDbEntity
  8
02___PRT_ALL_AXES
  6
Continuous
 62
     9
100
AcDbLine
 10
64.3853949729
 20
82.28343942
 30
0.0
 11
64.3853949729
 21
111.78343942
 31
0.0
  0
LINE
  5
2FC
330
225
100
AcDbEntity
  8
02___PRT_ALL_AXES
  6
Continuous
 62
     7
100
AcDbLine
 10
64.833819936
 20
111.78343942
 30
0.0
 11
64.833819936
 21
82.28343942
 31
0.0
  0
LINE
  5
2FD
330
225
100
AcDbEntity
  8
02___PRT_ALL_AXES
  6
Continuous
 62
     9
100
AcDbLine
 10
65.9370222768
 20
82.28343942
 30
0.0
 11
65.9370222768
 21
111.78343942
 31
0.0
  0
LINE
  5
2FE
330
225
100
AcDbEntity
  8
7_ALL_FEATURES
  6
Continuous
 62
     7
100
AcDbLine
 10
66.2444237132
 20
115.43343942
 30
0.0
 11
66.2444237132
 21
115.63343942
 31
0.0
  0
LINE
  5
2FF
330
225
100
AcDbEntity
  8
7_ALL_FEATURES
  6
Continuous
 62
     7
100
AcDbLine
 10
105.7609820118
 20
63.38343942
 30
0.0
 11
105.1632650304
 21
63.38343942
 31
0.0
  0
LINE
  5
300
330
225
100
AcDbEntity
  8
7_ALL_FEATURES
  6
Continuous
 62
     7
100
AcDbLine
 10
105.6115527665
 20
64.38343942
 30
0.0
 11
105.3126942758
 21
64.38343942
 31
0.0
  0
LINE
  5
301
330
225
100
AcDbEntity
  8
02___PRT_ALL_AXES
  6
Continuous
 62
     7
100
AcDbLine
 10
105.2689383559
 20
66.38343942
 30
0.0
 11
105.4621235211
 21
66.38343942
 31
0.0
  0
LINE
  5
302
330
225
100
AcDbEntity
  8
02___PRT_ALL_AXES
  6
Continuous
 62
     9
100
AcDbLine
 10
68.3344474928
 20
82.28343942
 30
0.0
 11
68.3344474928
 21
111.78343942
 31
0.0
  0
LINE
  5
303
330
225
100
AcDbEntity
  8
02___PRT_ALL_AXES
  6
Continuous
 62
     7
100
AcDbLine
 10
68.5192212667
 20
111.78343942
 30
0.0
 11
68.5192212667
 21
82.28343942
 31
0.0
  0
LINE
  5
304
330
225
100
AcDbEntity
  8
7_ALL_FEATURES
  6
Continuous
 62
     7
100
AcDbLine
 10
69.1444237132
 20
115.43343942
 30
0.0
 11
69.1444237132
 21
115.63343942
 31
0.0
  0
LINE
  5
305
330
225
100
AcDbEntity
  8
02___PRT_ALL_AXES
  6
Continuous
 62
     9
100
AcDbLine
 10
69.644000654
 20
82.28343942
 30
0.0
 11
69.644000654
 21
111.78343942
 31
0.0
  0
LINE
  5
306
330
225
100
AcDbEntity
  8
7_ALL_FEATURES
  6
Continuous
 62
     7
100
AcDbLine
 10
71.6944237132
 20
119.28343942
 30
0.0
 11
71.6944237132
 21
115.63343942
 31
0.0
  0
LINE
  5
307
330
225
100
AcDbEntity
  8
7_ALL_FEATURES
  6
Continuous
 62
     7
100
AcDbLine
 10
71.6944237132
 20
115.43343942
 30
0.0
 11
71.6944237132
 21
111.78343942
 31
0.0
  0
LINE
  5
308
330
225
100
AcDbEntity
  8
02___PRT_ALL_AXES
  6
Continuous
 62
     9
100
AcDbLine
 10
71.7446173333
 20
82.28343942
 30
0.0
 11
71.7446173333
 21
111.78343942
 31
0.0
  0
LINE
  5
309
330
225
100
AcDbEntity
  8
02___PRT_ALL_AXES
  6
Continuous
 62
     7
100
AcDbLine
 10
72.0771842067
 20
111.78343942
 30
0.0
 11
72.0771842067
 21
82.28343942
 31
0.0
  0
LINE
  5
30A
330
225
100
AcDbEntity
  8
7_ALL_FEATURES
  6
Continuous
 62
     9
100
AcDbLine
 10
72.3188316144
 20
111.78343942
 30
0.0
 11
72.3188316144
 21
82.28343942
 31
0.0
  0
LINE
  5
30B
330
225
100
AcDbEntity
  8
02___PRT_ALL_AXES
  6
Continuous
 62
     7
100
AcDbLine
 10
75.4469472475
 20
111.78343942
 30
0.0
 11
75.4469472475
 21
82.28343942
 31
0.0
  0
LINE
  5
30C
330
225
100
AcDbEntity
  8
02___PRT_ALL_AXES
  6
Continuous
 62
     9
100
AcDbLine
 10
76.6461249684
 20
82.28343942
 30
0.0
 11
76.6461249684
 21
111.78343942
 31
0.0
  0
LINE
  5
30D
330
225
100
AcDbEntity
  8
02___PRT_ALL_AXES
  6
Continuous
 62
     9
100
AcDbLine
 10
76.7304061846
 20
82.28343942
 30
0.0
 11
76.7304061846
 21
111.78343942
 31
0.0
  0
LINE
  5
30E
330
225
100
AcDbEntity
  8
02___PRT_ALL_AXES
  6
Continuous
 62
     9
100
AcDbLine
 10
76.863010286
 20
82.28343942
 30
0.0
 11
76.863010286
 21
111.78343942
 31
0.0
  0
LINE
  5
30F
330
225
100
AcDbEntity
  8
02___PRT_ALL_AXES
  6
Continuous
 62
     9
100
AcDbLine
 10
77.310138131
 20
82.28343942
 30
0.0
 11
77.310138131
 21
111.78343942
 31
0.0
  0
LINE
  5
310
330
225
100
AcDbEntity
  8
02___PRT_ALL_AXES
  6
Continuous
 62
     7
100
AcDbLine
 10
77.3771254033
 20
111.78343942
 30
0.0
 11
77.3771254033
 21
82.28343942
 31
0.0
  0
LINE
  5
311
330
225
100
AcDbEntity
  8
02___PRT_ALL_AXES
  6
Continuous
 62
     7
100
AcDbLine
 10
104.6651456453
 20
45.9183923639
 30
0.0
 11
105.0608872935
 21
45.493140288
 31
0.0
  0
LINE
  5
312
330
225
100
AcDbEntity
  8
02___PRT_ALL_AXES
  6
Continuous
 62
     7
100
AcDbLine
 10
78.9723124536
 20
111.78343942
 30
0.0
 11
78.9723124536
 21
82.28343942
 31
0.0
  0
LINE
  5
313
330
225
100
AcDbEntity
  8
02___PRT_ALL_AXES
  6
Continuous
 62
     9
100
AcDbLine
 10
79.0392997517
 20
82.28343942
 30
0.0
 11
79.0392997517
 21
111.78343942
 31
0.0
  0
LINE
  5
314
330
225
100
AcDbEntity
  8
02___PRT_ALL_AXES
  6
Continuous
 62
     9
100
AcDbLine
 10
79.4864275194
 20
82.28343942
 30
0.0
 11
79.4864275194
 21
111.78343942
 31
0.0
  0
LINE
  5
315
330
225
100
AcDbEntity
  8
02___PRT_ALL_AXES
  6
Continuous
 62
     9
100
AcDbLine
 10
79.6190316723
 20
82.28343942
 30
0.0
 11
79.6190316723
 21
111.78343942
 31
0.0
  0
LINE
  5
316
330
225
100
AcDbEntity
  8
02___PRT_ALL_AXES
  6
Continuous
 62
     9
100
AcDbLine
 10
79.7033128885
 20
82.28343942
 30
0.0
 11
79.7033128885
 21
111.78343942
 31
0.0
  0
LINE
  5
317
330
225
100
AcDbEntity
  8
02___PRT_ALL_AXES
  6
Continuous
 62
     7
100
AcDbLine
 10
80.9024907038
 20
111.78343942
 30
0.0
 11
80.9024907038
 21
82.28343942
 31
0.0
  0
LINE
  5
318
330
225
100
AcDbEntity
  8
7_ALL_FEATURES
  6
Continuous
 62
     9
100
AcDbLine
 10
84.0306061743
 20
111.78343942
 30
0.0
 11
84.0306061743
 21
82.28343942
 31
0.0
  0
LINE
  5
319
330
225
100
AcDbEntity
  8
02___PRT_ALL_AXES
  6
Continuous
 62
     7
100
AcDbLine
 10
84.2722536502
 20
111.78343942
 30
0.0
 11
84.2722536502
 21
82.28343942
 31
0.0
  0
LINE
  5
31A
330
225
100
AcDbEntity
  8
02___PRT_ALL_AXES
  6
Continuous
 62
     9
100
AcDbLine
 10
84.6048205236
 20
82.28343942
 30
0.0
 11
84.6048205236
 21
111.78343942
 31
0.0
  0
LINE
  5
31B
330
225
100
AcDbEntity
  8
02___PRT_ALL_AXES
  6
Continuous
 62
     7
100
AcDbLine
 10
50.6747189285
 20
82.28343942
 30
0.0
 11
105.6747189285
 21
82.28343942
 31
0.0
  0
LINE
  5
31C
330
225
100
AcDbEntity
  8
02___PRT_ALL_AXES
  6
Continuous
 62
     9
100
AcDbLine
 10
86.7054372029
 20
82.28343942
 30
0.0
 11
86.7054372029
 21
111.78343942
 31
0.0
  0
LINE
  5
31D
330
225
100
AcDbEntity
  8
02___PRT_ALL_AXES
  6
Continuous
 62
     7
100
AcDbLine
 10
87.8302092626
 20
111.78343942
 30
0.0
 11
87.8302092626
 21
82.28343942
 31
0.0
  0
LINE
  5
31E
330
225
100
AcDbEntity
  8
02___PRT_ALL_AXES
  6
Continuous
 62
     9
100
AcDbLine
 10
88.0149903641
 20
82.28343942
 30
0.0
 11
88.0149903641
 21
111.78343942
 31
0.0
  0
LINE
  5
31F
330
225
100
AcDbEntity
  8
02___PRT_ALL_AXES
  6
Continuous
 62
     7
100
AcDbLine
 10
104.1581884826
 20
61.4631532877
 30
0.0
 11
105.0608872935
 21
60.493140288
 31
0.0
  0
LINE
  5
320
330
225
100
AcDbEntity
  8
02___PRT_ALL_AXES
  6
Continuous
 62
     9
100
AcDbLine
 10
90.4124155801
 20
82.28343942
 30
0.0
 11
90.4124155801
 21
111.78343942
 31
0.0
  0
LINE
  5
321
330
225
100
AcDbEntity
  8
02___PRT_ALL_AXES
  6
Continuous
 62
     7
100
AcDbLine
 10
91.5156244426
 20
111.78343942
 30
0.0
 11
91.5156244426
 21
82.28343942
 31
0.0
  0
LINE
  5
322
330
225
100
AcDbEntity
  8
02___PRT_ALL_AXES
  6
Continuous
 62
     9
100
AcDbLine
 10
91.964042884
 20
82.28343942
 30
0.0
 11
91.964042884
 21
111.78343942
 31
0.0
  0
LINE
  5
323
330
225
100
AcDbEntity
  8
02___PRT_ALL_AXES
  6
Continuous
 62
     9
100
AcDbLine
 10
95.678036374
 20
82.28343942
 30
0.0
 11
95.678036374
 21
111.78343942
 31
0.0
  0
LINE
  5
324
330
225
100
AcDbEntity
  8
7_ALL_FEATURES
  6
Continuous
 62
     7
100
AcDbLine
 10
95.7083794543
 20
47.4142093169
 30
0.0
 11
95.7083794543
 21
38.38343942
 31
0.0
  0
LINE
  5
325
330
225
100
AcDbEntity
  8
7_ALL_FEATURES
  6
Continuous
 62
     7
100
AcDbLine
 10
95.8998905651
 20
47.4142093169
 30
0.0
 11
95.8998905651
 21
38.38343942
 31
0.0
  0
LINE
  5
326
330
225
100
AcDbEntity
  8
02___PRT_ALL_AXES
  6
Continuous
 62
     7
100
AcDbLine
 10
96.5870599555
 20
111.78343942
 30
0.0
 11
96.5870599555
 21
82.28343942
 31
0.0
  0
LINE
  5
327
330
225
100
AcDbEntity
  8
02___PRT_ALL_AXES
  6
Continuous
 62
     9
100
AcDbLine
 10
97.8424373366
 20
82.28343942
 30
0.0
 11
97.8424373366
 21
111.78343942
 31
0.0
  0
LINE
  5
328
330
225
100
AcDbEntity
  8
02___PRT_ALL_AXES
  6
Continuous
 62
     7
100
AcDbLine
 10
98.7148460172
 20
111.78343942
 30
0.0
 11
98.7148460172
 21
82.28343942
 31
0.0
  0
LINE
  5
329
330
225
100
AcDbEntity
  8
02___PRT_ALL_AXES
  6
Continuous
 62
     9
100
AcDbLine
 10
99.9606375517
 20
82.28343942
 30
0.0
 11
99.9606375517
 21
111.78343942
 31
0.0
  0
LINE
  5
32A
330
225
100
AcDbEntity
  8
02___PRT_ALL_AXES
  6
Continuous
 62
     7
100
AcDbLine
 10
100.571108255
 20
111.78343942
 30
0.0
 11
100.571108255
 21
82.28343942
 31
0.0
  0
LINE
  5
32B
330
225
100
AcDbEntity
  8
7_ALL_FEATURES
  6
Continuous
 62
     7
100
AcDbLine
 10
105.1632650304
 20
48.38343942
 30
0.0
 11
105.3126942758
 21
47.38343942
 31
0.0
  0
LINE
  5
32C
330
225
100
AcDbEntity
  8
7_ALL_FEATURES
  6
Continuous
 62
     7
100
AcDbLine
 10
105.7609820118
 20
48.38343942
 30
0.0
 11
105.6115527665
 21
49.38343942
 31
0.0
  0
LINE
  5
32D
330
225
100
AcDbEntity
  8
7_ALL_FEATURES
  6
Continuous
 62
     7
100
AcDbLine
 10
102.8247189285
 20
35.78343942
 30
0.0
 11
102.8247189285
 21
35.68343942
 31
0.0
  0
LINE
  5
32E
330
225
100
AcDbEntity
  8
7_ALL_FEATURES
  6
Continuous
 62
     9
100
AcDbLine
 10
103.4352136535
 20
37.38343942
 30
0.0
 11
103.4352136535
 21
48.4142093169
 31
0.0
  0
LINE
  5
32F
330
225
100
AcDbEntity
  8
7_ALL_FEATURES
  6
Continuous
 62
     9
100
AcDbLine
 10
103.6850653825
 20
37.38343942
 30
0.0
 11
103.6850653825
 21
48.4142093169
 31
0.0
  0
LINE
  5
330
330
225
100
AcDbEntity
  8
7_ALL_FEATURES
  6
Continuous
 62
     7
100
AcDbLine
 10
105.1632650304
 20
63.38343942
 30
0.0
 11
105.3126942758
 21
62.38343942
 31
0.0
  0
LINE
  5
331
330
225
100
AcDbEntity
  8
7_ALL_FEATURES
  6
Continuous
 62
     7
100
AcDbLine
 10
105.7609820118
 20
63.38343942
 30
0.0
 11
105.6115527665
 21
64.38343942
 31
0.0
  0
LINE
  5
332
330
225
100
AcDbEntity
  8
02___PRT_ALL_AXES
  6
Continuous
 62
     7
100
AcDbLine
 10
105.6747189285
 20
82.28343942
 30
0.0
 11
105.6747189285
 21
66.2615617377
 31
0.0
  0
LINE
  5
333
330
225
100
AcDbEntity
  8
02___PRT_ALL_AXES
  6
Continuous
 62
     7
100
AcDbLine
 10
105.6747189285
 20
60.5053171022
 30
0.0
 11
105.6747189285
 21
58.2941770797
 31
0.0
  0
LINE
  5
334
330
225
100
AcDbEntity
  8
02___PRT_ALL_AXES
  6
Continuous
 62
     7
100
AcDbLine
 10
105.6747189285
 20
37.38343942
 30
0.0
 11
105.6747189285
 21
37.28343942
 31
0.0
  0
LINE
  5
335
330
225
100
AcDbEntity
  8
7_ALL_FEATURES
  6
Continuous
 62
     7
100
AcDbLine
 10
105.3126942758
 20
64.38343942
 30
0.0
 11
105.1632650304
 21
63.38343942
 31
0.0
  0
LINE
  5
336
330
225
100
AcDbEntity
  8
7_ALL_FEATURES
  6
Continuous
 62
     7
100
AcDbLine
 10
105.6115527665
 20
62.38343942
 30
0.0
 11
105.7609820118
 21
63.38343942
 31
0.0
  0
LINE
  5
337
330
225
100
AcDbEntity
  8
02___PRT_ALL_AXES
  6
Continuous
 62
     7
100
AcDbLine
 10
109.1747189285
 20
37.28343942
 30
0.0
 11
109.1747189285
 21
35.78343942
 31
0.0
  0
LINE
  5
338
330
225
100
AcDbEntity
  8
7_ALL_FEATURES
  6
Continuous
 62
     7
100
AcDbLine
 10
105.3126942758
 20
49.38343942
 30
0.0
 11
105.1632650304
 21
48.38343942
 31
0.0
  0
LINE
  5
339
330
225
100
AcDbEntity
  8
7_ALL_FEATURES
  6
Continuous
 62
     7
100
AcDbLine
 10
105.6115527665
 20
47.38343942
 30
0.0
 11
105.7609820118
 21
48.38343942
 31
0.0
  0
LINE
  5
33A
330
225
100
AcDbEntity
  8
02___PRT_ALL_AXES
  6
Continuous
 62
     7
100
AcDbLine
 10
100.5710745955
 20
111.78343942
 30
0.0
 11
96.5870599555
 21
111.78343942
 31
0.0
  0
LINE
  5
33B
330
225
100
AcDbEntity
  8
02___PRT_ALL_AXES
  6
Continuous
 62
     7
100
AcDbLine
 10
96.5867537476
 20
111.78343942
 30
0.0
 11
84.2726537013
 21
111.78343942
 31
0.0
  0
LINE
  5
33C
330
225
100
AcDbEntity
  8
7_ALL_FEATURES
  6
Continuous
 62
     7
100
AcDbLine
 10
84.2726537013
 20
111.78343942
 30
0.0
 11
80.9023571884
 21
111.78343942
 31
0.0
  0
LINE
  5
33D
330
225
100
AcDbEntity
  8
02___PRT_ALL_AXES
  6
Continuous
 62
     7
100
AcDbLine
 10
80.9023571884
 20
111.78343942
 30
0.0
 11
75.4470806968
 21
111.78343942
 31
0.0
  0
LINE
  5
33E
330
225
100
AcDbEntity
  8
7_ALL_FEATURES
  6
Continuous
 62
     7
100
AcDbLine
 10
75.4470806968
 20
111.78343942
 30
0.0
 11
72.0767841556
 21
111.78343942
 31
0.0
  0
LINE
  5
33F
330
225
100
AcDbEntity
  8
02___PRT_ALL_AXES
  6
Continuous
 62
     7
100
AcDbLine
 10
72.0767841556
 20
111.78343942
 30
0.0
 11
55.7783614584
 21
111.78343942
 31
0.0
  0
LINE
  5
340
330
225
100
AcDbEntity
  8
02___PRT_ALL_AXES
  6
Continuous
 62
     7
100
AcDbLine
 10
62.5880641902
 20
115.03343942
 30
0.0
 11
63.4251416783
 21
115.03343942
 31
0.0
  0
LINE
  5
341
330
225
100
AcDbEntity
  8
02___PRT_ALL_AXES
  6
Continuous
 62
     7
100
AcDbLine
 10
63.4251416783
 20
115.43343942
 30
0.0
 11
71.6943411207
 21
115.43343942
 31
0.0
  0
LINE
  5
342
330
225
100
AcDbEntity
  8
02___PRT_ALL_AXES
  6
Continuous
 62
     7
100
AcDbLine
 10
71.6943411207
 20
115.63343942
 30
0.0
 11
63.4251416783
 21
115.63343942
 31
0.0
  0
LINE
  5
343
330
225
100
AcDbEntity
  8
02___PRT_ALL_AXES
  6
Continuous
 62
     7
100
AcDbLine
 10
62.5880641902
 20
116.03343942
 30
0.0
 11
63.4251416783
 21
116.03343942
 31
0.0
  0
LINE
  5
344
330
225
100
AcDbEntity
  8
7_ALL_FEATURES
  6
Continuous
 62
     7
100
AcDbLine
 10
62.5880641902
 20
119.28343942
 30
0.0
 11
71.6943408115
 21
119.28343942
 31
0.0
  0
LINE
  5
345
330
225
100
AcDbEntity
  8
7_ALL_FEATURES
  6
Continuous
 62
     7
100
AcDbLine
 10
106.7920891489
 20
37.8519004848
 30
0.0
 11
116.3271428573
 21
55.0309630355
 31
0.0
  0
LINE
  5
346
330
225
100
AcDbEntity
  8
7_ALL_FEATURES
  6
Continuous
 62
     7
100
AcDbLine
 10
162.2138374029
 20
204.2094256299
 30
0.0
 11
162.2138374029
 21
224.4494705317
 31
0.0
  0
LINE
  5
347
330
225
100
AcDbEntity
  8
7_ALL_FEATURES
  6
Continuous
 62
     7
100
AcDbLine
 10
164.7138374029
 20
207.4218795718
 30
0.0
 11
164.7138374029
 21
213.8736935284
 31
0.0
  0
LINE
  5
348
330
225
100
AcDbEntity
  8
02___PRT_ALL_AXES
  6
Continuous
 62
     7
100
AcDbLine
 10
165.0638374029
 20
204.2094256299
 30
0.0
 11
165.0638374029
 21
204.7674772886
 31
0.0
  0
LINE
  5
349
330
225
100
AcDbEntity
  8
02___PRT_ALL_AXES
  6
Continuous
 62
     7
100
AcDbLine
 10
165.4638374029
 20
216.7382459055
 30
0.0
 11
165.4638374029
 21
214.847138957
 31
0.0
  0
LINE
  5
34A
330
225
100
AcDbEntity
  8
02___PRT_ALL_AXES
  6
Continuous
 62
     7
100
AcDbLine
 10
165.4638374029
 20
204.6608079309
 30
0.0
 11
165.4638374029
 21
206.1005325785
 31
0.0
  0
LINE
  5
34B
330
225
100
AcDbEntity
  8
02___PRT_ALL_AXES
  6
Continuous
 62
     7
100
AcDbLine
 10
165.8638374029
 20
224.4494705258
 30
0.0
 11
165.8638374029
 21
216.1801942468
 31
0.0
  0
LINE
  5
34C
330
225
100
AcDbEntity
  8
02___PRT_ALL_AXES
  6
Continuous
 62
     7
100
AcDbLine
 10
166.0638374029
 20
216.1801942468
 30
0.0
 11
166.0638374029
 21
224.4494705258
 31
0.0
  0
LINE
  5
34D
330
225
100
AcDbEntity
  8
02___PRT_ALL_AXES
  6
Continuous
 62
     7
100
AcDbLine
 10
166.4638374029
 20
204.6608079309
 30
0.0
 11
166.4638374029
 21
206.1005325785
 31
0.0
  0
LINE
  5
34E
330
225
100
AcDbEntity
  8
02___PRT_ALL_AXES
  6
Continuous
 62
     7
100
AcDbLine
 10
166.4638374029
 20
214.847138957
 30
0.0
 11
166.4638374029
 21
216.7382459055
 31
0.0
  0
LINE
  5
34F
330
225
100
AcDbEntity
  8
02___PRT_ALL_AXES
  6
Continuous
 62
     7
100
AcDbLine
 10
166.8638374029
 20
204.2094256299
 30
0.0
 11
166.8638374029
 21
204.7674772886
 31
0.0
  0
LINE
  5
350
330
225
100
AcDbEntity
  8
7_ALL_FEATURES
  6
Continuous
 62
     7
100
AcDbLine
 10
167.2138374029
 20
207.4218795718
 30
0.0
 11
167.2138374029
 21
213.8736935284
 31
0.0
  0
LINE
  5
351
330
225
100
AcDbEntity
  8
02___PRT_ALL_AXES
  6
Continuous
 62
     7
100
AcDbLine
 10
169.7138374029
 20
195.2449321724
 30
0.0
 11
169.7138374029
 21
240.0376453095
 31
0.0
  0
LINE
  5
352
330
225
100
AcDbEntity
  8
7_ALL_FEATURES
  6
Continuous
 62
     7
100
AcDbLine
 10
174.7138374029
 20
221.5006511388
 30
0.0
 11
174.7138374029
 21
220.3690614178
 31
0.0
  0
LINE
  5
353
330
225
100
AcDbEntity
  8
02___PRT_ALL_AXES
  6
Continuous
 62
     7
100
AcDbLine
 10
244.2138374029
 20
186.6412896424
 30
0.0
 11
245.7138374029
 21
186.6412896424
 31
0.0
  0
LINE
  5
354
330
225
100
AcDbEntity
  8
02___PRT_ALL_AXES
  6
Continuous
 62
     7
100
AcDbLine
 10
199.2138374029
 20
190.1412896424
 30
0.0
 11
244.2138374029
 21
190.1412896424
 31
0.0
  0
LINE
  5
355
330
225
100
AcDbEntity
  8
7_ALL_FEATURES
  6
Continuous
 62
     7
100
AcDbLine
 10
245.7138374029
 20
192.9912896424
 30
0.0
 11
245.8138374029
 21
192.9912896424
 31
0.0
  0
LINE
  5
356
330
225
100
AcDbEntity
  8
02___PRT_ALL_AXES
  6
Continuous
 62
     7
100
AcDbLine
 10
169.7138374029
 20
195.2448985139
 30
0.0
 11
199.2138374029
 21
195.2448985139
 31
0.0
  0
LINE
  5
357
330
225
100
AcDbEntity
  8
02___PRT_ALL_AXES
  6
Continuous
 62
     9
100
AcDbLine
 10
199.2138374029
 20
195.8553710192
 30
0.0
 11
169.7138374029
 21
195.8553710192
 31
0.0
  0
LINE
  5
358
330
225
100
AcDbEntity
  8
7_ALL_FEATURES
  6
Continuous
 62
     7
100
AcDbLine
 10
234.083067506
 20
196.1692229417
 30
0.0
 11
243.1138374029
 21
196.1692229417
 31
0.0
  0
LINE
  5
359
330
225
100
AcDbEntity
  8
02___PRT_ALL_AXES
  6
Continuous
 62
     7
100
AcDbLine
 10
169.7138374029
 20
197.1011769344
 30
0.0
 11
199.2138374029
 21
197.1011769344
 31
0.0
  0
LINE
  5
35A
330
225
100
AcDbEntity
  8
02___PRT_ALL_AXES
  6
Continuous
 62
     9
100
AcDbLine
 10
199.2138374029
 20
197.9735712343
 30
0.0
 11
169.7138374029
 21
197.9735712343
 31
0.0
  0
LINE
  5
35B
330
225
100
AcDbEntity
  8
02___PRT_ALL_AXES
  6
Continuous
 62
     7
100
AcDbLine
 10
169.7138374029
 20
199.2289385726
 30
0.0
 11
199.2138374029
 21
199.2289385726
 31
0.0
  0
LINE
  5
35C
330
225
100
AcDbEntity
  8
02___PRT_ALL_AXES
  6
Continuous
 62
     9
100
AcDbLine
 10
199.2138374029
 20
200.1379721969
 30
0.0
 11
169.7138374029
 21
200.1379721969
 31
0.0
  0
LINE
  5
35D
330
225
100
AcDbEntity
  8
02___PRT_ALL_AXES
  6
Continuous
 62
     9
100
AcDbLine
 10
199.2138374029
 20
203.8519656869
 30
0.0
 11
169.7138374029
 21
203.8519656869
 31
0.0
  0
LINE
  5
35E
330
225
100
AcDbEntity
  8
02___PRT_ALL_AXES
  6
Continuous
 62
     7
100
AcDbLine
 10
162.2138374029
 20
204.2094256299
 30
0.0
 11
165.0638374029
 21
204.2094256299
 31
0.0
  0
LINE
  5
35F
330
225
100
AcDbEntity
  8
02___PRT_ALL_AXES
  6
Continuous
 62
     7
100
AcDbLine
 10
166.8638374029
 20
204.2094256299
 30
0.0
 11
169.7138374029
 21
204.2094256299
 31
0.0
  0
LINE
  5
360
330
225
100
AcDbEntity
  8
02___PRT_ALL_AXES
  6
Continuous
 62
     7
100
AcDbLine
 10
169.7138374029
 20
204.30039065
 30
0.0
 11
199.2138374029
 21
204.30039065
 31
0.0
  0
LINE
  5
361
330
225
100
AcDbEntity
  8
02___PRT_ALL_AXES
  6
Continuous
 62
     7
100
AcDbLine
 10
162.2138374029
 20
204.7674772886
 30
0.0
 11
165.0638374029
 21
204.7674772886
 31
0.0
  0
LINE
  5
362
330
225
100
AcDbEntity
  8
02___PRT_ALL_AXES
  6
Continuous
 62
     7
100
AcDbLine
 10
165.3883777205
 20
204.7674772886
 30
0.0
 11
165.4638374029
 21
204.7674772886
 31
0.0
  0
LINE
  5
363
330
225
100
AcDbEntity
  8
02___PRT_ALL_AXES
  6
Continuous
 62
     7
100
AcDbLine
 10
166.4638374029
 20
204.7674772886
 30
0.0
 11
166.5392970854
 21
204.7674772886
 31
0.0
  0
LINE
  5
364
330
225
100
AcDbEntity
  8
02___PRT_ALL_AXES
  6
Continuous
 62
     7
100
AcDbLine
 10
166.8638374029
 20
204.7674772886
 30
0.0
 11
169.7138374029
 21
204.7674772886
 31
0.0
  0
LINE
  5
365
330
225
100
AcDbEntity
  8
7_ALL_FEATURES
  6
Continuous
 62
     9
100
AcDbLine
 10
244.1138374029
 20
205.1494713037
 30
0.0
 11
233.083067506
 21
205.1494713037
 31
0.0
  0
LINE
  5
366
330
225
100
AcDbEntity
  8
02___PRT_ALL_AXES
  6
Continuous
 62
     9
100
AcDbLine
 10
199.2138374029
 20
205.4035929908
 30
0.0
 11
169.7138374029
 21
205.4035929908
 31
0.0
  0
LINE
  5
367
330
225
100
AcDbEntity
  8
7_ALL_FEATURES
  6
Continuous
 62
     9
100
AcDbLine
 10
244.1138374029
 20
205.6294320094
 30
0.0
 11
233.083067506
 21
205.6294320094
 31
0.0
  0
LINE
  5
368
330
225
100
AcDbEntity
  8
02___PRT_ALL_AXES
  6
Continuous
 62
     9
100
AcDbLine
 10
199.2138374029
 20
207.8010182068
 30
0.0
 11
169.7138374029
 21
207.8010182068
 31
0.0
  0
LINE
  5
369
330
225
100
AcDbEntity
  8
02___PRT_ALL_AXES
  6
Continuous
 62
     7
100
AcDbLine
 10
169.7138374029
 20
207.9857919807
 30
0.0
 11
199.2138374029
 21
207.9857919807
 31
0.0
  0
LINE
  5
36A
330
225
100
AcDbEntity
  8
02___PRT_ALL_AXES
  6
Continuous
 62
     9
100
AcDbLine
 10
199.2138374029
 20
209.110571368
 30
0.0
 11
169.7138374029
 21
209.110571368
 31
0.0
  0
LINE
  5
36B
330
225
100
AcDbEntity
  8
02___PRT_ALL_AXES
  6
Continuous
 62
     7
100
AcDbLine
 10
199.2138374029
 20
190.1412896424
 30
0.0
 11
199.2138374029
 21
245.1412896424
 31
0.0
  0
LINE
  5
36C
330
225
100
AcDbEntity
  8
02___PRT_ALL_AXES
  6
Continuous
 62
     9
100
AcDbLine
 10
199.2138374029
 20
211.2111880473
 30
0.0
 11
169.7138374029
 21
211.2111880473
 31
0.0
  0
LINE
  5
36D
330
225
100
AcDbEntity
  8
02___PRT_ALL_AXES
  6
Continuous
 62
     7
100
AcDbLine
 10
169.7138374029
 20
211.5437549207
 30
0.0
 11
199.2138374029
 21
211.5437549207
 31
0.0
  0
LINE
  5
36E
330
225
100
AcDbEntity
  8
7_ALL_FEATURES
  6
Continuous
 62
     9
100
AcDbLine
 10
169.7138374029
 20
211.7854023284
 30
0.0
 11
199.2138374029
 21
211.7854023284
 31
0.0
  0
LINE
  5
36F
330
225
100
AcDbEntity
  8
02___PRT_ALL_AXES
  6
Continuous
 62
     7
100
AcDbLine
 10
169.7138374029
 20
214.9135179615
 30
0.0
 11
199.2138374029
 21
214.9135179615
 31
0.0
  0
LINE
  5
370
330
225
100
AcDbEntity
  8
02___PRT_ALL_AXES
  6
Continuous
 62
     9
100
AcDbLine
 10
199.2138374029
 20
216.1126956824
 30
0.0
 11
169.7138374029
 21
216.1126956824
 31
0.0
  0
LINE
  5
371
330
225
100
AcDbEntity
  8
02___PRT_ALL_AXES
  6
Continuous
 62
     7
100
AcDbLine
 10
166.4638374029
 20
216.1801942468
 30
0.0
 11
166.0638374029
 21
216.1801942468
 31
0.0
  0
LINE
  5
372
330
225
100
AcDbEntity
  8
02___PRT_ALL_AXES
  6
Continuous
 62
     7
100
AcDbLine
 10
165.8638374029
 20
216.1801942468
 30
0.0
 11
165.4638374029
 21
216.1801942468
 31
0.0
  0
LINE
  5
373
330
225
100
AcDbEntity
  8
02___PRT_ALL_AXES
  6
Continuous
 62
     9
100
AcDbLine
 10
199.2138374029
 20
216.1969768986
 30
0.0
 11
169.7138374029
 21
216.1969768986
 31
0.0
  0
LINE
  5
374
330
225
100
AcDbEntity
  8
02___PRT_ALL_AXES
  6
Continuous
 62
     9
100
AcDbLine
 10
199.2138374029
 20
216.329581
 30
0.0
 11
169.7138374029
 21
216.329581
 31
0.0
  0
LINE
  5
375
330
225
100
AcDbEntity
  8
02___PRT_ALL_AXES
  6
Continuous
 62
     7
100
AcDbLine
 10
166.4638374029
 20
216.7382459055
 30
0.0
 11
166.0638374029
 21
216.7382459055
 31
0.0
  0
LINE
  5
376
330
225
100
AcDbEntity
  8
02___PRT_ALL_AXES
  6
Continuous
 62
     7
100
AcDbLine
 10
165.8638374029
 20
216.7382459055
 30
0.0
 11
165.4638374029
 21
216.7382459055
 31
0.0
  0
LINE
  5
377
330
225
100
AcDbEntity
  8
02___PRT_ALL_AXES
  6
Continuous
 62
     9
100
AcDbLine
 10
199.2138374029
 20
216.7767088449
 30
0.0
 11
169.7138374029
 21
216.7767088449
 31
0.0
  0
LINE
  5
378
330
225
100
AcDbEntity
  8
02___PRT_ALL_AXES
  6
Continuous
 62
     7
100
AcDbLine
 10
169.7138374029
 20
216.8436961173
 30
0.0
 11
199.2138374029
 21
216.8436961173
 31
0.0
  0
LINE
  5
379
330
225
100
AcDbEntity
  8
7_ALL_FEATURES
  6
Continuous
 62
     7
100
AcDbLine
 10
217.1138374029
 20
209.7719740825
 30
0.0
 11
218.1138374029
 21
209.2142965466
 31
0.0
  0
LINE
  5
37A
330
225
100
AcDbEntity
  8
7_ALL_FEATURES
  6
Continuous
 62
     7
100
AcDbLine
 10
217.1138374029
 20
210.1602026501
 30
0.0
 11
218.1138374029
 21
209.6025251143
 31
0.0
  0
LINE
  5
37B
330
225
100
AcDbEntity
  8
02___PRT_ALL_AXES
  6
Continuous
 62
     7
100
AcDbLine
 10
169.7138374029
 20
218.4388831676
 30
0.0
 11
199.2138374029
 21
218.4388831676
 31
0.0
  0
LINE
  5
37C
330
225
100
AcDbEntity
  8
02___PRT_ALL_AXES
  6
Continuous
 62
     9
100
AcDbLine
 10
199.2138374029
 20
218.5058704657
 30
0.0
 11
169.7138374029
 21
218.5058704657
 31
0.0
  0
LINE
  5
37D
330
225
100
AcDbEntity
  8
02___PRT_ALL_AXES
  6
Continuous
 62
     9
100
AcDbLine
 10
199.2138374029
 20
218.9529982334
 30
0.0
 11
169.7138374029
 21
218.9529982334
 31
0.0
  0
LINE
  5
37E
330
225
100
AcDbEntity
  8
7_ALL_FEATURES
  6
Continuous
 62
     7
100
AcDbLine
 10
166.0638374029
 20
218.9994762818
 30
0.0
 11
165.8638374029
 21
218.9994762818
 31
0.0
  0
LINE
  5
37F
330
225
100
AcDbEntity
  8
02___PRT_ALL_AXES
  6
Continuous
 62
     9
100
AcDbLine
 10
199.2138374029
 20
219.0856023863
 30
0.0
 11
169.7138374029
 21
219.0856023863
 31
0.0
  0
LINE
  5
380
330
225
100
AcDbEntity
  8
02___PRT_ALL_AXES
  6
Continuous
 62
     9
100
AcDbLine
 10
199.2138374029
 20
219.1698836025
 30
0.0
 11
169.7138374029
 21
219.1698836025
 31
0.0
  0
LINE
  5
381
330
225
100
AcDbEntity
  8
02___PRT_ALL_AXES
  6
Continuous
 62
     7
100
AcDbLine
 10
169.7138374029
 20
220.3690614178
 30
0.0
 11
199.2138374029
 21
220.3690614178
 31
0.0
  0
LINE
  5
382
330
225
100
AcDbEntity
  8
02___PRT_ALL_AXES
  6
Continuous
 62
     9
100
AcDbLine
 10
162.2138374029
 20
220.7285021111
 30
0.0
 11
165.8638374029
 21
220.7285021111
 31
0.0
  0
LINE
  5
383
330
225
100
AcDbEntity
  8
02___PRT_ALL_AXES
  6
Continuous
 62
     9
100
AcDbLine
 10
166.0638374029
 20
220.7285021111
 30
0.0
 11
169.7138374029
 21
220.7285021111
 31
0.0
  0
LINE
  5
384
330
225
100
AcDbEntity
  8
7_ALL_FEATURES
  6
Continuous
 62
     7
100
AcDbLine
 10
174.7138374029
 20
221.5006511388
 30
0.0
 11
199.2138374029
 21
221.5006511388
 31
0.0
  0
LINE
  5
385
330
225
100
AcDbEntity
  8
7_ALL_FEATURES
  6
Continuous
 62
     9
100
AcDbLine
 10
169.7138374029
 20
221.6178084264
 30
0.0
 11
199.2138374029
 21
221.6178084264
 31
0.0
  0
LINE
  5
386
330
225
100
AcDbEntity
  8
7_ALL_FEATURES
  6
Continuous
 62
     9
100
AcDbLine
 10
169.7138374029
 20
221.8187826756
 30
0.0
 11
199.2138374029
 21
221.8187826756
 31
0.0
  0
LINE
  5
387
330
225
100
AcDbEntity
  8
7_ALL_FEATURES
  6
Continuous
 62
     7
100
AcDbLine
 10
219.1138374029
 20
210.8873291541
 30
0.0
 11
218.1138374029
 21
211.4450066899
 31
0.0
  0
LINE
  5
388
330
225
100
AcDbEntity
  8
7_ALL_FEATURES
  6
Continuous
 62
     7
100
AcDbLine
 10
166.0638374029
 20
221.8994762818
 30
0.0
 11
165.8638374029
 21
221.8994762818
 31
0.0
  0
LINE
  5
389
330
225
100
AcDbEntity
  8
7_ALL_FEATURES
  6
Continuous
 62
     9
100
AcDbLine
 10
199.2138374029
 20
222.5111793507
 30
0.0
 11
169.7138374029
 21
222.5111793507
 31
0.0
  0
LINE
  5
38A
330
225
100
AcDbEntity
  8
7_ALL_FEATURES
  6
Continuous
 62
     9
100
AcDbLine
 10
199.2138374029
 20
223.6689633113
 30
0.0
 11
169.7138374029
 21
223.6689633113
 31
0.0
  0
LINE
  5
38B
330
225
100
AcDbEntity
  8
02___PRT_ALL_AXES
  6
Continuous
 62
     7
100
AcDbLine
 10
169.7138374029
 20
223.7388245792
 30
0.0
 11
199.2138374029
 21
223.7388245792
 31
0.0
  0
LINE
  5
38C
330
225
100
AcDbEntity
  8
02___PRT_ALL_AXES
  6
Continuous
 62
     9
100
AcDbLine
 10
199.2138374029
 20
224.0713912234
 30
0.0
 11
169.7138374029
 21
224.0713912234
 31
0.0
  0
LINE
  5
38D
330
225
100
AcDbEntity
  8
7_ALL_FEATURES
  6
Continuous
 62
     7
100
AcDbLine
 10
162.2138374029
 20
224.4494762818
 30
0.0
 11
165.8638374029
 21
224.4494762818
 31
0.0
  0
LINE
  5
38E
330
225
100
AcDbEntity
  8
7_ALL_FEATURES
  6
Continuous
 62
     7
100
AcDbLine
 10
166.0638374029
 20
224.4494762818
 30
0.0
 11
169.7138374029
 21
224.4494762818
 31
0.0
  0
LINE
  5
38F
330
225
100
AcDbEntity
  8
7_ALL_FEATURES
  6
Continuous
 62
     7
100
AcDbLine
 10
232.1138374029
 20
209.7719740825
 30
0.0
 11
233.1138374029
 21
209.2142965466
 31
0.0
  0
LINE
  5
390
330
225
100
AcDbEntity
  8
7_ALL_FEATURES
  6
Continuous
 62
     7
100
AcDbLine
 10
232.1138374029
 20
210.1602026501
 30
0.0
 11
233.1138374029
 21
209.6025251143
 31
0.0
  0
LINE
  5
391
330
225
100
AcDbEntity
  8
02___PRT_ALL_AXES
  6
Continuous
 62
     9
100
AcDbLine
 10
199.2138374029
 20
226.1720079169
 30
0.0
 11
169.7138374029
 21
226.1720079169
 31
0.0
  0
LINE
  5
392
330
225
100
AcDbEntity
  8
02___PRT_ALL_AXES
  6
Continuous
 62
     7
100
AcDbLine
 10
169.7138374029
 20
227.2967756711
 30
0.0
 11
199.2138374029
 21
227.2967756711
 31
0.0
  0
LINE
  5
393
330
225
100
AcDbEntity
  8
02___PRT_ALL_AXES
  6
Continuous
 62
     9
100
AcDbLine
 10
199.2138374029
 20
227.4815610781
 30
0.0
 11
169.7138374029
 21
227.4815610781
 31
0.0
  0
LINE
  5
394
330
225
100
AcDbEntity
  8
7_ALL_FEATURES
  6
Continuous
 62
     7
100
AcDbLine
 10
234.1138374029
 20
210.8873291541
 30
0.0
 11
233.1138374029
 21
211.4450066899
 31
0.0
  0
LINE
  5
395
330
225
100
AcDbEntity
  8
7_ALL_FEATURES
  6
Continuous
 62
     7
100
AcDbLine
 10
217.1138374029
 20
210.8873291541
 30
0.0
 11
217.1138374029
 21
209.7719740825
 31
0.0
  0
LINE
  5
396
330
225
100
AcDbEntity
  8
7_ALL_FEATURES
  6
Continuous
 62
     7
100
AcDbLine
 10
218.1138374029
 20
209.2142965466
 30
0.0
 11
218.1138374029
 21
209.6025251143
 31
0.0
  0
LINE
  5
397
330
225
100
AcDbEntity
  8
7_ALL_FEATURES
  6
Continuous
 62
     7
100
AcDbLine
 10
219.1138374029
 20
209.7719740825
 30
0.0
 11
219.1138374029
 21
210.8873291541
 31
0.0
  0
LINE
  5
398
330
225
100
AcDbEntity
  8
7_ALL_FEATURES
  6
Continuous
 62
     7
100
AcDbLine
 10
218.1138374029
 20
211.4450066899
 30
0.0
 11
217.1138374029
 21
210.8873291541
 31
0.0
  0
LINE
  5
399
330
225
100
AcDbEntity
  8
7_ALL_FEATURES
  6
Continuous
 62
     7
100
AcDbLine
 10
218.1138374029
 20
209.6025251143
 30
0.0
 11
219.1138374029
 21
210.1602026501
 31
0.0
  0
LINE
  5
39A
330
225
100
AcDbEntity
  8
7_ALL_FEATURES
  6
Continuous
 62
     7
100
AcDbLine
 10
218.1138374029
 20
209.2142965466
 30
0.0
 11
219.1138374029
 21
209.7719740825
 31
0.0
  0
LINE
  5
39B
330
225
100
AcDbEntity
  8
02___PRT_ALL_AXES
  6
Continuous
 62
     9
100
AcDbLine
 10
199.2138374029
 20
229.8789862941
 30
0.0
 11
169.7138374029
 21
229.8789862941
 31
0.0
  0
LINE
  5
39C
330
225
100
AcDbEntity
  8
02___PRT_ALL_AXES
  6
Continuous
 62
     7
100
AcDbLine
 10
169.7138374029
 20
230.9821951565
 30
0.0
 11
199.2138374029
 21
230.9821951565
 31
0.0
  0
LINE
  5
39D
330
225
100
AcDbEntity
  8
02___PRT_ALL_AXES
  6
Continuous
 62
     9
100
AcDbLine
 10
199.2138374029
 20
231.430613598
 30
0.0
 11
169.7138374029
 21
231.430613598
 31
0.0
  0
LINE
  5
39E
330
225
100
AcDbEntity
  8
7_ALL_FEATURES
  6
Continuous
 62
     9
100
AcDbLine
 10
222.6580820432
 20
252.1217104192
 30
0.0
 11
222.6580820432
 21
252.1864151805
 31
0.0
  0
LINE
  5
39F
330
225
100
AcDbEntity
  8
02___PRT_ALL_AXES
  6
Continuous
 62
     9
100
AcDbLine
 10
199.2138374029
 20
235.144607088
 30
0.0
 11
169.7138374029
 21
235.144607088
 31
0.0
  0
LINE
  5
3A0
330
225
100
AcDbEntity
  8
02___PRT_ALL_AXES
  6
Continuous
 62
     7
100
AcDbLine
 10
169.7138374029
 20
236.0536306695
 30
0.0
 11
199.2138374029
 21
236.0536306695
 31
0.0
  0
LINE
  5
3A1
330
225
100
AcDbEntity
  8
7_ALL_FEATURES
  6
Continuous
 62
     9
100
AcDbLine
 10
226.4663137874
 20
252.8103074586
 30
0.0
 11
226.4663137874
 21
252.8750122199
 31
0.0
  0
LINE
  5
3A2
330
225
100
AcDbEntity
  8
7_ALL_FEATURES
  6
Continuous
 62
     7
100
AcDbLine
 10
233.1138374029
 20
211.4450066899
 30
0.0
 11
232.1138374029
 21
210.8873291541
 31
0.0
  0
LINE
  5
3A3
330
225
100
AcDbEntity
  8
7_ALL_FEATURES
  6
Continuous
 62
     7
100
AcDbLine
 10
233.1138374029
 20
209.6025251143
 30
0.0
 11
234.1138374029
 21
210.1602026501
 31
0.0
  0
LINE
  5
3A4
330
225
100
AcDbEntity
  8
7_ALL_FEATURES
  6
Continuous
 62
     7
100
AcDbLine
 10
233.1138374029
 20
209.2142965466
 30
0.0
 11
234.1138374029
 21
209.7719740825
 31
0.0
  0
LINE
  5
3A5
330
225
100
AcDbEntity
  8
02___PRT_ALL_AXES
  6
Continuous
 62
     9
100
AcDbLine
 10
199.2138374029
 20
237.3090080506
 30
0.0
 11
169.7138374029
 21
237.3090080506
 31
0.0
  0
LINE
  5
3A6
330
225
100
AcDbEntity
  8
02___PRT_ALL_AXES
  6
Continuous
 62
     7
100
AcDbLine
 10
169.7138374029
 20
238.1814167312
 30
0.0
 11
199.2138374029
 21
238.1814167312
 31
0.0
  0
LINE
  5
3A7
330
225
100
AcDbEntity
  8
02___PRT_ALL_AXES
  6
Continuous
 62
     9
100
AcDbLine
 10
199.2138374029
 20
239.4272082656
 30
0.0
 11
169.7138374029
 21
239.4272082656
 31
0.0
  0
LINE
  5
3A8
330
225
100
AcDbEntity
  8
02___PRT_ALL_AXES
  6
Continuous
 62
     7
100
AcDbLine
 10
169.7138374029
 20
240.037678969
 30
0.0
 11
199.2138374029
 21
240.037678969
 31
0.0
  0
LINE
  5
3A9
330
225
100
AcDbEntity
  8
7_ALL_FEATURES
  6
Continuous
 62
     7
100
AcDbLine
 10
245.7138374029
 20
242.2912896424
 30
0.0
 11
245.8138374029
 21
242.2912896424
 31
0.0
  0
LINE
  5
3AA
330
225
100
AcDbEntity
  8
7_ALL_FEATURES
  6
Continuous
 62
     7
100
AcDbLine
 10
232.1138374029
 20
210.8873291541
 30
0.0
 11
232.1138374029
 21
209.7719740825
 31
0.0
  0
LINE
  5
3AB
330
225
100
AcDbEntity
  8
7_ALL_FEATURES
  6
Continuous
 62
     7
100
AcDbLine
 10
233.083067506
 20
205.1494713037
 30
0.0
 11
233.083067506
 21
205.6294320094
 31
0.0
  0
LINE
  5
3AC
330
225
100
AcDbEntity
  8
7_ALL_FEATURES
  6
Continuous
 62
     7
100
AcDbLine
 10
233.1138374029
 20
209.2142965466
 30
0.0
 11
233.1138374029
 21
209.6025251143
 31
0.0
  0
LINE
  5
3AD
330
225
100
AcDbEntity
  8
02___PRT_ALL_AXES
  6
Continuous
 62
     7
100
AcDbLine
 10
199.2138374029
 20
245.1412896424
 30
0.0
 11
222.2887672126
 21
245.1412896424
 31
0.0
  0
LINE
  5
3AE
330
225
100
AcDbEntity
  8
02___PRT_ALL_AXES
  6
Continuous
 62
     7
100
AcDbLine
 10
230.1998241313
 20
245.1412896424
 30
0.0
 11
244.2138374029
 21
245.1412896424
 31
0.0
  0
LINE
  5
3AF
330
225
100
AcDbEntity
  8
7_ALL_FEATURES
  6
Continuous
 62
     7
100
AcDbLine
 10
234.1138374029
 20
209.7719740825
 30
0.0
 11
234.1138374029
 21
210.8873291541
 31
0.0
  0
LINE
  5
3B0
330
225
100
AcDbEntity
  8
02___PRT_ALL_AXES
  6
Continuous
 62
     7
100
AcDbLine
 10
244.2138374029
 20
248.6412896424
 30
0.0
 11
245.7138374029
 21
248.6412896424
 31
0.0
  0
LINE
  5
3B1
330
225
100
AcDbEntity
  8
7_ALL_FEATURES
  6
Continuous
 62
     7
100
AcDbLine
 10
230.1998241313
 20
190.1412896424
 30
0.0
 11
226.4663137874
 21
182.407567065
 31
0.0
  0
LINE
  5
3B2
330
225
100
AcDbEntity
  8
7_ALL_FEATURES
  6
Continuous
 62
     7
100
AcDbLine
 10
243.6453763381
 20
217.225002566
 30
0.0
 11
226.4663137874
 21
252.8103074586
 31
0.0
  0
LINE
  5
3B3
330
225
100
AcDbEntity
  8
7_ALL_FEATURES
  6
Continuous
 62
     7
100
AcDbLine
 10
243.6453763381
 20
217.2897073273
 30
0.0
 11
226.4663137874
 21
252.8750122199
 31
0.0
  0
LINE
  5
3B4
330
225
100
AcDbEntity
  8
7_ALL_FEATURES
  6
Continuous
 62
     9
100
AcDbLine
 10
243.6453763381
 20
217.2897073273
 30
0.0
 11
243.6453763381
 21
217.225002566
 31
0.0
  0
LINE
  5
3B5
330
225
100
AcDbEntity
  8
7_ALL_FEATURES
  6
Continuous
 62
     7
100
AcDbLine
 10
244.1138374029
 20
196.9352673848
 30
0.0
 11
244.1138374029
 21
215.1839130976
 31
0.0
  0
LINE
  5
3B6
330
225
100
AcDbEntity
  8
02___PRT_ALL_AXES
  6
Continuous
 62
     7
100
AcDbLine
 10
244.2138374029
 20
186.6412905748
 30
0.0
 11
244.2138374029
 21
248.6412887101
 31
0.0
  0
LINE
  5
3B7
330
225
100
AcDbEntity
  8
02___PRT_ALL_AXES
  6
Continuous
 62
     7
100
AcDbLine
 10
245.7138374029
 20
186.6412905748
 30
0.0
 11
245.7138374029
 21
248.6412887101
 31
0.0
  0
LINE
  5
3B8
330
225
100
AcDbEntity
  8
7_ALL_FEATURES
  6
Continuous
 62
     7
100
AcDbLine
 10
245.8138374029
 20
242.2912896424
 30
0.0
 11
245.8138374029
 21
192.9912896424
 31
0.0
  0
LINE
  5
3B9
330
225
100
AcDbEntity
  8
7_ALL_FEATURES
  6
Continuous
 62
     7
100
AcDbLine
 10
344.1679378966
 20
179.3655581687
 30
0.0
 11
349.0428997982
 21
181.6400641997
 31
0.0
  0
LINE
  5
3BA
330
225
100
AcDbEntity
  8
02___PRT_ALL_AXES
  6
Continuous
 62
     7
100
AcDbLine
 10
348.5711616393
 20
178.7777203007
 30
0.0
 11
348.6777498077
 21
178.8086138603
 31
0.0
  0
LINE
  5
3BB
330
225
100
AcDbEntity
  8
7_ALL_FEATURES
  6
Continuous
 62
     7
100
AcDbLine
 10
310.7387782055
 20
102.419962499
 30
0.0
 11
293.5302172097
 21
115.1502616192
 31
0.0
  0
LINE
  5
3BC
330
225
100
AcDbEntity
  8
7_ALL_FEATURES
  6
Continuous
 62
     7
100
AcDbLine
 10
310.7570437756
 20
102.561597597
 30
0.0
 11
293.6104080336
 21
115.2460865532
 31
0.0
  0
LINE
  5
3BD
330
225
100
AcDbEntity
  8
02___PRT_ALL_AXES
  6
Continuous
 62
     7
100
AcDbLine
 10
343.5695776762
 20
176.775194901
 30
0.0
 11
348.4445395778
 21
179.0497009319
 31
0.0
  0
LINE
  5
3BE
330
225
100
AcDbEntity
  8
02___PRT_ALL_AXES
  6
Continuous
 62
     7
100
AcDbLine
 10
348.4990313753
 20
178.7252293825
 30
0.0
 11
348.6777498077
 21
178.8086138603
 31
0.0
  0
LINE
  5
3BF
330
225
100
AcDbEntity
  8
02___PRT_ALL_AXES
  6
Continuous
 62
     7
100
AcDbLine
 10
348.4093909065
 20
178.6201512644
 30
0.0
 11
348.6690700936
 21
178.7413095195
 31
0.0
  0
LINE
  5
3C0
330
225
100
AcDbEntity
  8
02___PRT_ALL_AXES
  6
Continuous
 62
     7
100
AcDbLine
 10
348.5113841848
 20
177.8294805236
 30
0.0
 11
348.5540455692
 21
177.8493850025
 31
0.0
  0
LINE
  5
3C1
330
225
100
AcDbEntity
  8
02___PRT_ALL_AXES
  6
Continuous
 62
     7
100
AcDbLine
 10
349.7174031239
 20
178.2714360208
 30
0.0
 11
348.6860288341
 21
177.7902287643
 31
0.0
  0
LINE
  5
3C2
330
225
100
AcDbEntity
  8
02___PRT_ALL_AXES
  6
Continuous
 62
     7
100
AcDbLine
 10
343.6330738578
 20
175.2181091647
 30
0.0
 11
348.5080357594
 21
177.4926151957
 31
0.0
  0
LINE
  5
3C3
330
225
100
AcDbEntity
  8
02___PRT_ALL_AXES
  6
Continuous
 62
     7
100
AcDbLine
 10
345.1072811599
 20
173.5168942932
 30
0.0
 11
348.1802158646
 21
174.9506303222
 31
0.0
  0
LINE
  5
3C4
330
225
100
AcDbEntity
  8
02___PRT_ALL_AXES
  6
Continuous
 62
     7
100
AcDbLine
 10
357.0347142885
 20
174.9917429284
 30
0.0
 11
354.7629053095
 21
173.9317873168
 31
0.0
  0
LINE
  5
3C5
330
225
100
AcDbEntity
  8
02___PRT_ALL_AXES
  6
Continuous
 62
     7
100
AcDbLine
 10
310.8656691023
 20
103.4039013792
 30
0.0
 11
310.6931323156
 21
102.0660146037
 31
0.0
  0
LINE
  5
3C6
330
225
100
AcDbEntity
  8
02___PRT_ALL_AXES
  6
Continuous
 62
     7
100
AcDbLine
 10
358.0830473187
 20
174.5218694297
 30
0.0
 11
357.0516730289
 21
174.0406621732
 31
0.0
  0
LINE
  5
3C7
330
225
100
AcDbEntity
  8
02___PRT_ALL_AXES
  6
Continuous
 62
     7
100
AcDbLine
 10
358.0370375089
 20
174.1650996229
 30
0.0
 11
357.418212935
 21
173.876375269
 31
0.0
  0
LINE
  5
3C8
330
225
100
AcDbEntity
  8
02___PRT_ALL_AXES
  6
Continuous
 62
     7
100
AcDbLine
 10
358.014032604
 20
173.9867147195
 30
0.0
 11
357.6014828881
 21
173.7942318169
 31
0.0
  0
LINE
  5
3C9
330
225
100
AcDbEntity
  8
02___PRT_ALL_AXES
  6
Continuous
 62
     7
100
AcDbLine
 10
319.5130261056
 20
143.0928442598
 30
0.0
 11
315.1368956625
 21
109.1594022435
 31
0.0
  0
LINE
  5
3CA
330
225
100
AcDbEntity
  8
7_ALL_FEATURES
  6
Continuous
 62
     9
100
AcDbLine
 10
293.5302172097
 20
115.1502616192
 30
0.0
 11
293.6104080336
 21
115.2460865532
 31
0.0
  0
LINE
  5
3CB
330
225
100
AcDbEntity
  8
02___PRT_ALL_AXES
  6
Continuous
 62
     7
100
AcDbLine
 10
359.9809315668
 20
173.5032560197
 30
0.0
 11
357.9186243624
 21
172.3015899816
 31
0.0
  0
LINE
  5
3CC
330
225
100
AcDbEntity
  8
7_ALL_FEATURES
  6
Continuous
 62
     7
100
AcDbLine
 10
357.0155209998
 20
170.3273682883
 30
0.0
 11
356.7653005354
 21
170.1879786676
 31
0.0
  0
LINE
  5
3CD
330
225
100
AcDbEntity
  8
02___PRT_ALL_AXES
  6
Continuous
 62
     7
100
AcDbLine
 10
363.5159233217
 20
172.107626986
 30
0.0
 11
362.556798935
 21
171.6399598575
 31
0.0
  0
LINE
  5
3CE
330
225
100
AcDbEntity
  8
7_ALL_FEATURES
  6
Continuous
 62
     7
100
AcDbLine
 10
358.5632487568
 20
109.0684709895
 30
0.0
 11
393.6945056486
 21
115.2906351152
 31
0.0
  0
LINE
  5
3CF
330
225
100
AcDbEntity
  8
7_ALL_FEATURES
  6
Continuous
 62
     7
100
AcDbLine
 10
358.4217817394
 20
109.1250376791
 30
0.0
 11
393.7746964725
 21
115.3864600492
 31
0.0
  0
LINE
  5
3D0
330
225
100
AcDbEntity
  8
7_ALL_FEATURES
  6
Continuous
 62
     7
100
AcDbLine
 10
317.1635145601
 20
102.5917175394
 30
0.0
 11
316.9794753209
 21
101.1646383123
 31
0.0
  0
LINE
  5
3D1
330
225
100
AcDbEntity
  8
02___PRT_ALL_AXES
  6
Continuous
 62
     7
100
AcDbLine
 10
327.8406631826
 20
167.9325916146
 30
0.0
 11
325.444006762
 21
149.3484102839
 31
0.0
  0
LINE
  5
3D2
330
225
100
AcDbEntity
  8
02___PRT_ALL_AXES
  6
Continuous
 62
     7
100
AcDbLine
 10
328.1236624622
 20
169.7723922434
 30
0.0
 11
325.4924892506
 21
149.369718061
 31
0.0
  0
LINE
  5
3D3
330
225
100
AcDbEntity
  8
02___PRT_ALL_AXES
  6
Continuous
 62
     9
100
AcDbLine
 10
326.1507246194
 20
149.6507596999
 30
0.0
 11
328.7690254817
 21
169.9536189609
 31
0.0
  0
LINE
  5
3D4
330
225
100
AcDbEntity
  8
02___PRT_ALL_AXES
  6
Continuous
 62
     7
100
AcDbLine
 10
330.4242254872
 20
172.5214545847
 30
0.0
 11
327.541160283
 21
150.1655565578
 31
0.0
  0
LINE
  5
3D5
330
225
100
AcDbEntity
  8
02___PRT_ALL_AXES
  6
Continuous
 62
     9
100
AcDbLine
 10
328.46407787
 20
150.4568578841
 30
0.0
 11
331.3248305968
 21
172.6397402367
 31
0.0
  0
LINE
  5
3D6
330
225
100
AcDbEntity
  8
02___PRT_ALL_AXES
  6
Continuous
 62
     7
100
AcDbLine
 10
332.7782290776
 20
173.8327942902
 30
0.0
 11
329.8108617977
 21
150.8232001194
 31
0.0
  0
LINE
  5
3D7
330
225
100
AcDbEntity
  8
02___PRT_ALL_AXES
  6
Continuous
 62
     9
100
AcDbLine
 10
330.7613148389
 20
151.0433413906
 30
0.0
 11
333.7137885581
 21
173.9374477388
 31
0.0
  0
LINE
  5
3D8
330
225
100
AcDbEntity
  8
02___PRT_ALL_AXES
  6
Continuous
 62
     7
100
AcDbLine
 10
334.1227073669
 20
151.6169252174
 30
0.0
 11
336.8351907298
 21
172.6500955295
 31
0.0
  0
LINE
  5
3D9
330
225
100
AcDbEntity
  8
02___PRT_ALL_AXES
  6
Continuous
 62
     7
100
AcDbLine
 10
338.1419852985
 20
175.3532603171
 30
0.0
 11
335.0955308059
 21
151.730407153
 31
0.0
  0
LINE
  5
3DA
330
225
100
AcDbEntity
  8
02___PRT_ALL_AXES
  6
Continuous
 62
     9
100
AcDbLine
 10
336.2250071016
 20
151.8362800943
 30
0.0
 11
339.2575309691
 21
175.3511122413
 31
0.0
  0
LINE
  5
3DB
330
225
100
AcDbEntity
  8
7_ALL_FEATURES
  6
Continuous
 62
     7
100
AcDbLine
 10
346.5575825209
 20
121.2846255604
 30
0.0
 11
335.9673981591
 21
121.8790344774
 31
0.0
  0
LINE
  5
3DC
330
225
100
AcDbEntity
  8
7_ALL_FEATURES
  6
Continuous
 62
     7
100
AcDbLine
 10
351.291571851
 20
119.4140708426
 30
0.0
 11
352.3771624842
 21
119.1370582833
 31
0.0
  0
LINE
  5
3DD
330
225
100
AcDbEntity
  8
7_ALL_FEATURES
  6
Continuous
 62
     7
100
AcDbLine
 10
352.1260665901
 20
120.3459577136
 30
0.0
 11
351.0404759569
 21
120.622970273
 31
0.0
  0
LINE
  5
3DE
330
225
100
AcDbEntity
  8
7_ALL_FEATURES
  6
Continuous
 62
     7
100
AcDbLine
 10
352.6072115331
 20
120.9209073173
 30
0.0
 11
351.5216208999
 21
121.1979198766
 31
0.0
  0
LINE
  5
3DF
330
225
100
AcDbEntity
  8
02___PRT_ALL_AXES
  6
Continuous
 62
     9
100
AcDbLine
 10
338.6205532985
 20
151.9765861672
 30
0.0
 11
341.3881824285
 21
173.4373684331
 31
0.0
  0
LINE
  5
3E0
330
225
100
AcDbEntity
  8
7_ALL_FEATURES
  6
Continuous
 62
     7
100
AcDbLine
 10
334.8647487884
 20
121.0425436522
 30
0.0
 11
333.8857182062
 21
113.4509332266
 31
0.0
  0
LINE
  5
3E1
330
225
100
AcDbEntity
  8
02___PRT_ALL_AXES
  6
Continuous
 62
     7
100
AcDbLine
 10
341.9362217259
 20
175.7847734349
 30
0.0
 11
338.8667379458
 21
151.9833462999
 31
0.0
  0
LINE
  5
3E2
330
225
100
AcDbEntity
  8
02___PRT_ALL_AXES
  6
Continuous
 62
     9
100
AcDbLine
 10
340.006824648
 20
152.0058105812
 30
0.0
 11
343.0707635787
 21
175.76424178
 31
0.0
  0
LINE
  5
3E3
330
225
100
AcDbEntity
  8
02___PRT_ALL_AXES
  6
Continuous
 62
     7
100
AcDbLine
 10
344.1679378966
 20
179.3655581687
 30
0.0
 11
343.8508001022
 21
176.9064045631
 31
0.0
  0
LINE
  5
3E4
330
225
100
AcDbEntity
  8
02___PRT_ALL_AXES
  6
Continuous
 62
     7
100
AcDbLine
 10
343.6330738578
 20
175.2181091647
 30
0.0
 11
343.6282064324
 21
175.1803661173
 31
0.0
  0
LINE
  5
3E5
330
225
100
AcDbEntity
  8
02___PRT_ALL_AXES
  6
Continuous
 62
     9
100
AcDbLine
 10
342.0816861642
 20
151.9880645754
 30
0.0
 11
344.9007271264
 21
173.847505074
 31
0.0
  0
LINE
  5
3E6
330
225
100
AcDbEntity
  8
02___PRT_ALL_AXES
  6
Continuous
 62
     7
100
AcDbLine
 10
345.1465553179
 20
173.2597299596
 30
0.0
 11
342.4022769988
 21
151.9800148254
 31
0.0
  0
LINE
  5
3E7
330
225
100
AcDbEntity
  8
7_ALL_FEATURES
  6
Continuous
 62
     9
100
AcDbLine
 10
345.1573636114
 20
171.7400258153
 30
0.0
 11
342.6081770588
 21
151.9730935456
 31
0.0
  0
LINE
  5
3E8
330
225
100
AcDbEntity
  8
02___PRT_ALL_AXES
  6
Continuous
 62
     7
100
AcDbLine
 10
345.6346249983
 20
173.5768699695
 30
0.0
 11
345.4045759493
 21
171.7930209355
 31
0.0
  0
LINE
  5
3E9
330
225
100
AcDbEntity
  8
02___PRT_ALL_AXES
  6
Continuous
 62
     7
100
AcDbLine
 10
347.4198410336
 20
173.3466446291
 30
0.0
 11
347.1897919846
 21
171.5627955951
 31
0.0
  0
LINE
  5
3EA
330
225
100
AcDbEntity
  8
02___PRT_ALL_AXES
  6
Continuous
 62
     7
100
AcDbLine
 10
349.0428997982
 20
181.6400641997
 30
0.0
 11
348.7150799034
 21
179.0980793262
 31
0.0
  0
LINE
  5
3EB
330
225
100
AcDbEntity
  8
02___PRT_ALL_AXES
  6
Continuous
 62
     7
100
AcDbLine
 10
348.6777498077
 20
178.8086138603
 30
0.0
 11
348.6690700936
 21
178.7413095195
 31
0.0
  0
LINE
  5
3EC
330
225
100
AcDbEntity
  8
02___PRT_ALL_AXES
  6
Continuous
 62
     7
100
AcDbLine
 10
348.5080357594
 20
177.4926151957
 30
0.0
 11
348.1802158646
 21
174.9506303222
 31
0.0
  0
LINE
  5
3ED
330
225
100
AcDbEntity
  8
02___PRT_ALL_AXES
  6
Continuous
 62
     7
100
AcDbLine
 10
348.5540455692
 20
177.8493850025
 30
0.0
 11
348.5453658551
 21
177.7820806616
 31
0.0
  0
LINE
  5
3EE
330
225
100
AcDbEntity
  8
02___PRT_ALL_AXES
  6
Continuous
 62
     7
100
AcDbLine
 10
348.9259751077
 20
175.6692287526
 30
0.0
 11
345.8440082474
 21
151.7710051707
 31
0.0
  0
LINE
  5
3EF
330
225
100
AcDbEntity
  8
02___PRT_ALL_AXES
  6
Continuous
 62
     7
100
AcDbLine
 10
353.1470834707
 20
175.1215203167
 30
0.0
 11
352.6264060185
 21
173.2516031355
 31
0.0
  0
LINE
  5
3F0
330
225
100
AcDbEntity
  8
02___PRT_ALL_AXES
  6
Continuous
 62
     7
100
AcDbLine
 10
350.0529890725
 20
173.5956827637
 30
0.0
 11
350.1170008427
 21
175.5266596262
 31
0.0
  0
LINE
  5
3F1
330
225
100
AcDbEntity
  8
02___PRT_ALL_AXES
  6
Continuous
 62
     9
100
AcDbLine
 10
347.0382247491
 20
151.6531779251
 30
0.0
 11
350.1170008427
 21
175.5266596262
 31
0.0
  0
LINE
  5
3F2
330
225
100
AcDbEntity
  8
02___PRT_ALL_AXES
  6
Continuous
 62
     9
100
AcDbLine
 10
347.2206759778
 20
151.6333273396
 30
0.0
 11
350.0529890725
 21
173.5956827637
 31
0.0
  0
LINE
  5
3F3
330
225
100
AcDbEntity
  8
02___PRT_ALL_AXES
  6
Continuous
 62
     9
100
AcDbLine
 10
349.7947649061
 20
151.2944591127
 30
0.0
 11
352.6264058483
 21
173.2516025242
 31
0.0
  0
LINE
  5
3F4
330
225
100
AcDbEntity
  8
02___PRT_ALL_AXES
  6
Continuous
 62
     9
100
AcDbLine
 10
350.0686842049
 20
151.2509606176
 30
0.0
 11
353.1470834707
 21
175.1215203167
 31
0.0
  0
LINE
  5
3F5
330
225
100
AcDbEntity
  8
7_ALL_FEATURES
  6
Continuous
 62
     9
100
AcDbLine
 10
345.4351590773
 20
112.5811165271
 30
0.0
 11
346.5575825209
 21
121.2846255604
 31
0.0
  0
LINE
  5
3F6
330
225
100
AcDbEntity
  8
7_ALL_FEATURES
  6
Continuous
 62
     9
100
AcDbLine
 10
345.9687184075
 20
112.4941396914
 30
0.0
 11
347.0918040049
 21
121.2027832054
 31
0.0
  0
LINE
  5
3F7
330
225
100
AcDbEntity
  8
02___PRT_ALL_AXES
  6
Continuous
 62
     7
100
AcDbLine
 10
354.3339343871
 20
174.9518063757
 30
0.0
 11
351.2518732787
 21
151.0528519746
 31
0.0
  0
LINE
  5
3F8
330
225
100
AcDbEntity
  8
7_ALL_FEATURES
  6
Continuous
 62
     7
100
AcDbLine
 10
353.0169397181
 20
132.7929385975
 30
0.0
 11
354.1025303513
 21
132.5159260382
 31
0.0
  0
LINE
  5
3F9
330
225
100
AcDbEntity
  8
7_ALL_FEATURES
  6
Continuous
 62
     7
100
AcDbLine
 10
353.8514344572
 20
133.7248254685
 30
0.0
 11
352.765843824
 21
134.0018380279
 31
0.0
  0
LINE
  5
3FA
330
225
100
AcDbEntity
  8
7_ALL_FEATURES
  6
Continuous
 62
     7
100
AcDbLine
 10
354.3325794002
 20
134.2997750722
 30
0.0
 11
353.2469887671
 21
134.5767876315
 31
0.0
  0
LINE
  5
3FB
330
225
100
AcDbEntity
  8
7_ALL_FEATURES
  6
Continuous
 62
     7
100
AcDbLine
 10
350.8638010589
 20
120.4445016393
 30
0.0
 11
351.291571851
 21
119.4140708426
 31
0.0
  0
LINE
  5
3FC
330
225
100
AcDbEntity
  8
7_ALL_FEATURES
  6
Continuous
 62
     7
100
AcDbLine
 10
352.5471180145
 20
119.3317127891
 30
0.0
 11
352.1260665901
 21
120.3459577136
 31
0.0
  0
LINE
  5
3FD
330
225
100
AcDbEntity
  8
7_ALL_FEATURES
  6
Continuous
 62
     7
100
AcDbLine
 10
353.0349823252
 20
119.8904765206
 30
0.0
 11
352.6072115331
 21
120.9209073173
 31
0.0
  0
LINE
  5
3FE
330
225
100
AcDbEntity
  8
7_ALL_FEATURES
  6
Continuous
 62
     9
100
AcDbLine
 10
356.7653005354
 20
170.1879786676
 30
0.0
 11
354.2198781027
 21
150.4502341801
 31
0.0
  0
LINE
  5
3FF
330
225
100
AcDbEntity
  8
02___PRT_ALL_AXES
  6
Continuous
 62
     7
100
AcDbLine
 10
357.182895005
 20
171.6252217625
 30
0.0
 11
354.4454914225
 21
150.3988147919
 31
0.0
  0
LINE
  5
400
330
225
100
AcDbEntity
  8
02___PRT_ALL_AXES
  6
Continuous
 62
     7
100
AcDbLine
 10
357.9680227942
 20
173.6299449127
 30
0.0
 11
358.014032604
 21
173.9867147195
 31
0.0
  0
LINE
  5
401
330
225
100
AcDbEntity
  8
02___PRT_ALL_AXES
  6
Continuous
 62
     7
100
AcDbLine
 10
358.0370375089
 20
174.1650996229
 30
0.0
 11
358.0830473187
 21
174.5218694297
 31
0.0
  0
LINE
  5
402
330
225
100
AcDbEntity
  8
02___PRT_ALL_AXES
  6
Continuous
 62
     7
100
AcDbLine
 10
355.0744842636
 20
150.2475254643
 30
0.0
 11
357.9186243624
 21
172.3015899816
 31
0.0
  0
LINE
  5
403
330
225
100
AcDbEntity
  8
7_ALL_FEATURES
  6
Continuous
 62
     7
100
AcDbLine
 10
353.2469887671
 20
134.5767876315
 30
0.0
 11
352.765843824
 21
134.0018380279
 31
0.0
  0
LINE
  5
404
330
225
100
AcDbEntity
  8
7_ALL_FEATURES
  6
Continuous
 62
     7
100
AcDbLine
 10
354.3325794002
 20
134.2997750722
 30
0.0
 11
353.8514344572
 21
133.7248254685
 31
0.0
  0
LINE
  5
405
330
225
100
AcDbEntity
  8
02___PRT_ALL_AXES
  6
Continuous
 62
     9
100
AcDbLine
 10
354.6245903302
 20
130.7475250342
 30
0.0
 11
354.6492753258
 21
130.7770226495
 31
0.0
  0
LINE
  5
406
330
225
100
AcDbEntity
  8
7_ALL_FEATURES
  6
Continuous
 62
     7
100
AcDbLine
 10
353.2469887671
 20
134.5767876315
 30
0.0
 11
352.589168926
 21
133.8233693942
 31
0.0
  0
LINE
  5
407
330
225
100
AcDbEntity
  8
7_ALL_FEATURES
  6
Continuous
 62
     7
100
AcDbLine
 10
352.765843824
 20
134.0018380279
 30
0.0
 11
352.5958882937
 21
133.807183522
 31
0.0
  0
LINE
  5
408
330
225
100
AcDbEntity
  8
7_ALL_FEATURES
  6
Continuous
 62
     7
100
AcDbLine
 10
354.1025303513
 20
132.5159260382
 30
0.0
 11
354.7603501923
 21
133.2693442755
 31
0.0
  0
LINE
  5
409
330
225
100
AcDbEntity
  8
7_ALL_FEATURES
  6
Continuous
 62
     7
100
AcDbLine
 10
352.589168926
 20
133.8233693942
 30
0.0
 11
353.0169397181
 21
132.7929385975
 31
0.0
  0
LINE
  5
40A
330
225
100
AcDbEntity
  8
7_ALL_FEATURES
  6
Continuous
 62
     7
100
AcDbLine
 10
354.2724858816
 20
132.710580544
 30
0.0
 11
353.8514344572
 21
133.7248254685
 31
0.0
  0
LINE
  5
40B
330
225
100
AcDbEntity
  8
02___PRT_ALL_AXES
  6
Continuous
 62
     9
100
AcDbLine
 10
356.9193120729
 20
149.7628061225
 30
0.0
 11
359.9809321389
 21
173.503256353
 31
0.0
  0
LINE
  5
40C
330
225
100
AcDbEntity
  8
02___PRT_ALL_AXES
  6
Continuous
 62
     7
100
AcDbLine
 10
354.6275555905
 20
130.7705182911
 30
0.0
 11
354.6245903302
 21
130.7475250342
 31
0.0
  0
LINE
  5
40D
330
225
100
AcDbEntity
  8
02___PRT_ALL_AXES
  6
Continuous
 62
     7
100
AcDbLine
 10
361.0767775777
 20
173.2312128439
 30
0.0
 11
358.0091479004
 21
149.4441628148
 31
0.0
  0
LINE
  5
40E
330
225
100
AcDbEntity
  8
02___PRT_ALL_AXES
  6
Continuous
 62
     9
100
AcDbLine
 10
361.5948694316
 20
176.01414408
 30
0.0
 11
361.1750299172
 21
172.758619593
 31
0.0
  0
LINE
  5
40F
330
225
100
AcDbEntity
  8
02___PRT_ALL_AXES
  6
Continuous
 62
     9
100
AcDbLine
 10
361.1520250123
 20
172.5802346896
 30
0.0
 11
360.9301921083
 21
170.860095383
 31
0.0
  0
LINE
  5
410
330
225
100
AcDbEntity
  8
02___PRT_ALL_AXES
  6
Continuous
 62
     7
100
AcDbLine
 10
361.1255316276
 20
171.2988361251
 30
0.0
 11
358.2958968473
 21
149.3572489189
 31
0.0
  0
LINE
  5
411
330
225
100
AcDbEntity
  8
02___PRT_ALL_AXES
  6
Continuous
 62
     9
100
AcDbLine
 10
358.5427389083
 20
149.2804987511
 30
0.0
 11
361.4024390312
 21
171.4552189907
 31
0.0
  0
LINE
  5
412
330
225
100
AcDbEntity
  8
02___PRT_ALL_AXES
  6
Continuous
 62
     9
100
AcDbLine
 10
359.2969122266
 20
149.0366200767
 30
0.0
 11
362.1997573523
 21
171.5458958022
 31
0.0
  0
LINE
  5
413
330
225
100
AcDbEntity
  8
02___PRT_ALL_AXES
  6
Continuous
 62
     9
100
AcDbLine
 10
359.6273261427
 20
148.9242125439
 30
0.0
 11
362.5567982501
 21
171.6399595236
 31
0.0
  0
LINE
  5
414
330
225
100
AcDbEntity
  8
7_ALL_FEATURES
  6
Continuous
 62
     7
100
AcDbLine
 10
363.1245352258
 20
174.3652791969
 30
0.0
 11
362.787584295
 21
171.7524903365
 31
0.0
  0
LINE
  5
415
330
225
100
AcDbEntity
  8
02___PRT_ALL_AXES
  6
Continuous
 62
     9
100
AcDbLine
 10
360.4873037818
 20
148.6230698217
 30
0.0
 11
363.5159233217
 21
172.107626986
 31
0.0
  0
LINE
  5
416
330
225
100
AcDbEntity
  8
7_ALL_FEATURES
  6
Continuous
 62
     7
100
AcDbLine
 10
351.5216208999
 20
121.1979198766
 30
0.0
 11
351.0404759569
 21
120.622970273
 31
0.0
  0
LINE
  5
417
330
225
100
AcDbEntity
  8
7_ALL_FEATURES
  6
Continuous
 62
     7
100
AcDbLine
 10
352.6072115331
 20
120.9209073173
 30
0.0
 11
352.1260665901
 21
120.3459577136
 31
0.0
  0
LINE
  5
418
330
225
100
AcDbEntity
  8
7_ALL_FEATURES
  6
Continuous
 62
     7
100
AcDbLine
 10
351.5216208999
 20
121.1979198766
 30
0.0
 11
350.8638010589
 21
120.4445016393
 31
0.0
  0
LINE
  5
419
330
225
100
AcDbEntity
  8
7_ALL_FEATURES
  6
Continuous
 62
     7
100
AcDbLine
 10
351.0404759569
 20
120.622970273
 30
0.0
 11
350.8705204265
 21
120.4283157671
 31
0.0
  0
LINE
  5
41A
330
225
100
AcDbEntity
  8
7_ALL_FEATURES
  6
Continuous
 62
     7
100
AcDbLine
 10
354.7603501923
 20
133.2693442755
 30
0.0
 11
354.3325794002
 21
134.2997750722
 31
0.0
  0
LINE
  5
41B
330
225
100
AcDbEntity
  8
02___PRT_ALL_AXES
  6
Continuous
 62
     7
100
AcDbLine
 10
364.5880045601
 20
171.8229230249
 30
0.0
 11
361.5449414781
 21
148.2263675777
 31
0.0
  0
LINE
  5
41C
330
225
100
AcDbEntity
  8
02___PRT_ALL_AXES
  6
Continuous
 62
     9
100
AcDbLine
 10
361.9059147384
 20
148.0858705022
 30
0.0
 11
364.5805752421
 21
168.8257543561
 31
0.0
  0
LINE
  5
41D
330
225
100
AcDbEntity
  8
7_ALL_FEATURES
  6
Continuous
 62
     7
100
AcDbLine
 10
352.3771624842
 20
119.1370582833
 30
0.0
 11
353.0349823252
 21
119.8904765206
 31
0.0
  0
LINE
  5
41E
330
225
100
AcDbEntity
  8
02___PRT_ALL_AXES
  6
Continuous
 62
     9
100
AcDbLine
 10
365.4654374132
 20
146.4651802848
 30
0.0
 11
368.4100538433
 21
169.2983595497
 31
0.0
  0
LINE
  5
41F
330
225
100
AcDbEntity
  8
02___PRT_ALL_AXES
  6
Continuous
 62
     7
100
AcDbLine
 10
369.2771972333
 20
168.9583173407
 30
0.0
 11
366.3173023563
 21
146.0066657644
 31
0.0
  0
LINE
  5
420
330
225
100
AcDbEntity
  8
02___PRT_ALL_AXES
  6
Continuous
 62
     9
100
AcDbLine
 10
367.4626837757
 20
145.3365497789
 30
0.0
 11
370.3115160334
 21
167.4269982904
 31
0.0
  0
LINE
  5
421
330
225
100
AcDbEntity
  8
02___PRT_ALL_AXES
  6
Continuous
 62
     7
100
AcDbLine
 10
371.1410243405
 20
167.0830344928
 30
0.0
 11
368.2695553485
 21
144.8170559508
 31
0.0
  0
LINE
  5
422
330
225
100
AcDbEntity
  8
02___PRT_ALL_AXES
  6
Continuous
 62
     9
100
AcDbLine
 10
369.3580897032
 20
144.045969427
 30
0.0
 11
371.9545494825
 21
164.1794683053
 31
0.0
  0
LINE
  5
423
330
225
100
AcDbEntity
  8
02___PRT_ALL_AXES
  6
Continuous
 62
     7
100
AcDbLine
 10
372.5201037174
 20
163.8419802285
 30
0.0
 11
369.9114594047
 21
143.6139998977
 31
0.0
  0
LINE
  5
424
330
225
100
AcDbEntity
  8
7_ALL_FEATURES
  6
Continuous
 62
     7
100
AcDbLine
 10
366.0585981931
 20
96.2861012716
 30
0.0
 11
365.874558954
 21
94.8590220444
 31
0.0
  0
LINE
  5
425
330
225
100
AcDbEntity
  8
02___PRT_ALL_AXES
  6
Continuous
 62
     7
100
AcDbLine
 10
341.3881824285
 20
173.4373684331
 30
0.0
 11
339.2575309691
 21
175.3511122413
 31
0.0
  0
LINE
  5
426
330
225
100
AcDbEntity
  8
7_ALL_FEATURES
  6
Continuous
 62
     7
100
AcDbLine
 10
345.157363215
 20
171.7400262141
 30
0.0
 11
344.9743217849
 21
171.9241946774
 31
0.0
  0
LINE
  5
427
330
225
100
AcDbEntity
  8
02___PRT_ALL_AXES
  6
Continuous
 62
     7
100
AcDbLine
 10
374.0612938504
 20
136.0581810807
 30
0.0
 11
372.6000702102
 21
124.727543589
 31
0.0
  0
LINE
  5
428
330
225
100
AcDbEntity
  8
02___PRT_ALL_AXES
  6
Continuous
 62
     7
100
AcDbLine
 10
370.8615443081
 20
111.2466456453
 30
0.0
 11
369.6853900791
 21
102.1264967255
 31
0.0
  0
LINE
  5
429
330
225
100
AcDbEntity
  8
02___PRT_ALL_AXES
  6
Continuous
 62
     7
100
AcDbLine
 10
372.3564436509
 20
95.4739174318
 30
0.0
 11
372.1839068642
 21
94.1360306564
 31
0.0
  0
LINE
  5
42A
330
225
100
AcDbEntity
  8
02___PRT_ALL_AXES
  6
Continuous
 62
     7
100
AcDbLine
 10
368.4100508455
 20
169.2983591797
 30
0.0
 11
364.5805752421
 21
168.8257543561
 31
0.0
  0
LINE
  5
42B
330
225
100
AcDbEntity
  8
02___PRT_ALL_AXES
  6
Continuous
 62
     7
100
AcDbLine
 10
370.3115160334
 20
167.4269982904
 30
0.0
 11
369.0659618239
 21
167.3203532512
 31
0.0
  0
LINE
  5
42C
330
225
100
AcDbEntity
  8
02___PRT_ALL_AXES
  6
Continuous
 62
     7
100
AcDbLine
 10
332.565405345
 20
172.1825140063
 30
0.0
 11
331.3248305968
 21
172.6397402367
 31
0.0
  0
LINE
  5
42D
330
225
100
AcDbEntity
  8
02___PRT_ALL_AXES
  6
Continuous
 62
     7
100
AcDbLine
 10
344.9007271264
 20
173.847505074
 30
0.0
 11
343.0707635787
 21
175.76424178
 31
0.0
  0
LINE
  5
42E
330
225
100
AcDbEntity
  8
02___PRT_ALL_AXES
  6
Continuous
 62
     7
100
AcDbLine
 10
362.1997573523
 20
171.5458958022
 30
0.0
 11
361.4024390312
 21
171.4552189907
 31
0.0
  0
LINE
  5
42F
330
225
100
AcDbEntity
  8
02___PRT_ALL_AXES
  6
Continuous
 62
     7
100
AcDbLine
 10
371.9545479789
 20
164.1794684947
 30
0.0
 11
370.7855609044
 21
164.3266957468
 31
0.0
  0
LINE
  5
430
330
225
100
AcDbEntity
  8
02___PRT_ALL_AXES
  6
Continuous
 62
     7
100
AcDbLine
 10
330.0693458478
 20
169.769642722
 30
0.0
 11
328.7690254817
 21
169.9536189609
 31
0.0
  0
LINE
  5
431
330
225
100
AcDbEntity
  8
02___PRT_ALL_AXES
  6
Continuous
 62
     7
100
AcDbLine
 10
336.8351907298
 20
172.6500955295
 30
0.0
 11
333.7137885581
 21
173.9374477388
 31
0.0
  0
LINE
  5
432
330
225
100
AcDbEntity
  8
02___PRT_ALL_AXES
  6
Continuous
 62
     7
100
AcDbLine
 10
347.3698394626
 20
170.8543358383
 30
0.0
 11
346.4322489954
 21
171.2745733968
 31
0.0
  0
LINE
  5
433
330
225
100
AcDbEntity
  8
02___PRT_ALL_AXES
  6
Continuous
 62
     7
100
AcDbLine
 10
345.4126541961
 20
171.7315661289
 30
0.0
 11
344.9747895108
 21
171.9278215227
 31
0.0
  0
LINE
  5
434
330
225
100
AcDbEntity
  8
02___PRT_ALL_AXES
  6
Continuous
 62
     7
100
AcDbLine
 10
348.1802158646
 20
174.9506303222
 30
0.0
 11
348.7976160323
 21
174.673905304
 31
0.0
  0
LINE
  5
435
330
225
100
AcDbEntity
  8
02___PRT_ALL_AXES
  6
Continuous
 62
     7
100
AcDbLine
 10
350.0698293629
 20
174.1036863837
 30
0.0
 11
352.4332828903
 21
173.0443625373
 31
0.0
  0
LINE
  5
436
330
225
100
AcDbEntity
  8
02___PRT_ALL_AXES
  6
Continuous
 62
     7
100
AcDbLine
 10
353.9975294616
 20
172.3432513559
 30
0.0
 11
357.0963737839
 21
170.9543178953
 31
0.0
  0
LINE
  5
437
330
225
100
AcDbEntity
  8
7_ALL_FEATURES
  6
Continuous
 62
     7
100
AcDbLine
 10
350.696668776
 20
176.1013325834
 30
0.0
 11
353.1177512032
 21
175.0161788795
 31
0.0
  0
LINE
  5
438
330
225
100
AcDbEntity
  8
7_ALL_FEATURES
  6
Continuous
 62
     7
100
AcDbLine
 10
350.0550054783
 20
176.8070119646
 30
0.0
 11
353.4521174401
 21
175.2843919222
 31
0.0
  0
LINE
  5
439
330
225
100
AcDbEntity
  8
02___PRT_ALL_AXES
  6
Continuous
 62
     7
100
AcDbLine
 10
348.5540455692
 20
177.8493850025
 30
0.0
 11
349.6023785994
 21
177.3795115038
 31
0.0
  0
LINE
  5
43A
330
225
100
AcDbEntity
  8
02___PRT_ALL_AXES
  6
Continuous
 62
     7
100
AcDbLine
 10
356.919689764
 20
174.0998184114
 30
0.0
 11
357.9680227942
 21
173.6299449127
 31
0.0
  0
LINE
  5
43B
330
225
100
AcDbEntity
  8
02___PRT_ALL_AXES
  6
Continuous
 62
     7
100
AcDbLine
 10
361.1520250123
 20
172.5802346896
 30
0.0
 11
361.0015252315
 21
172.647690218
 31
0.0
  0
LINE
  5
43C
330
225
100
AcDbEntity
  8
02___PRT_ALL_AXES
  6
Continuous
 62
     7
100
AcDbLine
 10
359.5947359997
 20
173.2782274225
 30
0.0
 11
358.014032604
 21
173.9867147195
 31
0.0
  0
LINE
  5
43D
330
225
100
AcDbEntity
  8
02___PRT_ALL_AXES
  6
Continuous
 62
     7
100
AcDbLine
 10
361.1750299172
 20
172.758619593
 30
0.0
 11
361.0245301364
 21
172.8260751214
 31
0.0
  0
LINE
  5
43E
330
225
100
AcDbEntity
  8
02___PRT_ALL_AXES
  6
Continuous
 62
     7
100
AcDbLine
 10
359.7777776733
 20
173.3848822227
 30
0.0
 11
358.0370375089
 21
174.1650996229
 31
0.0
  0
LINE
  5
43F
330
225
100
AcDbEntity
  8
02___PRT_ALL_AXES
  6
Continuous
 62
     7
100
AcDbLine
 10
358.0830473187
 20
174.5218694297
 30
0.0
 11
357.0347142885
 21
174.9917429284
 31
0.0
  0
LINE
  5
440
330
225
100
AcDbEntity
  8
02___PRT_ALL_AXES
  6
Continuous
 62
     7
100
AcDbLine
 10
348.6690700936
 20
178.7413095195
 30
0.0
 11
349.7174031239
 21
178.2714360208
 31
0.0
  0
LINE
  5
441
330
225
100
AcDbEntity
  8
7_ALL_FEATURES
  6
Continuous
 62
     7
100
AcDbLine
 10
349.0428997982
 20
181.6400641997
 30
0.0
 11
361.5948694316
 21
176.01414408
 31
0.0
  0
LINE
  5
442
330
225
100
AcDbEntity
  8
7_ALL_FEATURES
  6
Continuous
 62
     9
100
AcDbLine
 10
393.7746964725
 20
115.3864600492
 30
0.0
 11
393.6945056486
 21
115.2906351152
 31
0.0
  0
CIRCLE
  5
443
330
225
100
AcDbEntity
  8
02___PRT_ALL_AXES
  6
Continuous
 62
     7
100
AcDbCircle
 10
78.1747189285
 20
217.6412896424
 30
0.0
 40
31.0
  0
CIRCLE
  5
444
330
225
100
AcDbEntity
  8
02___PRT_ALL_AXES
  6
Continuous
 62
     7
100
AcDbCircle
 10
78.1747189285
 20
217.6412896424
 30
0.0
 40
25.0
  0
CIRCLE
  5
445
330
225
100
AcDbEntity
  8
7_ALL_FEATURES
  6
Continuous
 62
     7
100
AcDbCircle
 10
78.1747189285
 20
217.6412896424
 30
0.0
 40
24.65
  0
ARC
  5
446
330
225
100
AcDbEntity
  8
7_ALL_FEATURES
  6
Continuous
 62
     7
100
AcDbCircle
 10
142.2399675286
 20
48.4141463268
 30
0.0
 40
38.5549021462
100
AcDbArc
 50
179.4489196723
 51
179.9999063914
  0
ARC
  5
447
330
225
100
AcDbEntity
  8
7_ALL_FEATURES
  6
Continuous
 62
     7
100
AcDbCircle
 10
112.2376763046
 20
39.9235831593
 30
0.0
 40
19.5413092068
100
AcDbArc
 50
108.5478442332
 51
109.2379858648
  0
ARC
  5
448
330
225
100
AcDbEntity
  8
7_ALL_FEATURES
  6
Continuous
 62
     7
100
AcDbCircle
 10
44.728567315
 20
41.1932636967
 30
0.0
 40
18.2160705719
100
AcDbArc
 50
103.6194819266
 51
104.3727587416
  0
ARC
  5
449
330
225
100
AcDbEntity
  8
7_ALL_FEATURES
  6
Continuous
 62
     7
100
AcDbCircle
 10
111.8608829965
 20
42.6384379723
 30
0.0
 40
16.7487352217
100
AcDbArc
 50
90.00002717899999
 51
90.82384190439998
  0
ARC
  5
44A
330
225
100
AcDbEntity
  8
7_ALL_FEATURES
  6
Continuous
 62
     7
100
AcDbCircle
 10
44.7300507799
 20
42.6392523167
 30
0.0
 40
16.7479208773
100
AcDbArc
 50
90.0000222985
 51
90.8257040087
  0
ARC
  5
44B
330
225
100
AcDbEntity
  8
02___PRT_ALL_AXES
  6
Continuous
 62
     7
100
AcDbCircle
 10
79.7656796993
 20
115.53343942
 30
0.0
 40
9.2215185406
100
AcDbArc
 50
179.3763897549
 51
180.6236102451
  0
ARC
  5
44C
330
225
100
AcDbEntity
  8
7_ALL_FEATURES
  6
Continuous
 62
     7
100
AcDbCircle
 10
50.4023373695
 20
37.8677725771
 30
0.0
 40
0.4958219283
100
AcDbArc
 50
239.8237682006
 51
240.4999789958
  0
ARC
  5
44D
330
225
100
AcDbEntity
  8
02___PRT_ALL_AXES
  6
Continuous
 62
     7
100
AcDbCircle
 10
104.6783576769
 20
45.9437648141
 30
0.0
 40
0.3249155281
100
AcDbArc
 50
303.7712757348999
 51
307.2843439988
  0
ARC
  5
44E
330
225
100
AcDbEntity
  8
7_ALL_FEATURES
  6
Continuous
 62
     7
100
AcDbCircle
 10
455.4492587252
 20
199.0793103019
 30
0.0
 40
233.3392228138
100
AcDbArc
 50
182.1953081728
 51
183.9276913693
  0
ARC
  5
44F
330
225
100
AcDbEntity
  8
7_ALL_FEATURES
  6
Continuous
 62
     7
100
AcDbCircle
 10
455.4429755916
 20
236.1439980278
 30
0.0
 40
233.3328719715
100
AcDbArc
 50
180.0004982141
 51
185.3421950298
  0
ARC
  5
450
330
225
100
AcDbEntity
  8
7_ALL_FEATURES
  6
Continuous
 62
     7
100
AcDbCircle
 10
455.4090208651
 20
236.1409283399
 30
0.0
 40
233.2989175249
100
AcDbArc
 50
176.0722109779
 51
179.9838536399
  0
ARC
  5
451
330
225
100
AcDbEntity
  8
02___PRT_ALL_AXES
  6
Continuous
 62
     7
100
AcDbCircle
 10
171.942906155
 20
210.1874775588
 30
0.0
 40
7.9806501138
100
AcDbArc
 50
144.2768061859
 51
155.2132123933
  0
ARC
  5
452
330
225
100
AcDbEntity
  8
02___PRT_ALL_AXES
  6
Continuous
 62
     7
100
AcDbCircle
 10
159.9896730353
 20
210.1903382838
 30
0.0
 40
7.97499823
100
AcDbArc
 50
24.7829004677
 51
35.7270809531
  0
ARC
  5
453
330
225
100
AcDbEntity
  8
02___PRT_ALL_AXES
  6
Continuous
 62
     7
100
AcDbCircle
 10
159.9964912752
 20
210.7537785732
 30
0.0
 40
7.9673618387
100
AcDbArc
 50
324.2650400879999
 51
359.9934057192
  0
ARC
  5
454
330
225
100
AcDbEntity
  8
02___PRT_ALL_AXES
  6
Continuous
 62
     7
100
AcDbCircle
 10
171.931183511
 20
210.7537785668
 30
0.0
 40
7.9673618387
100
AcDbArc
 50
180.0065942349
 51
215.7349599573
  0
ARC
  5
455
330
225
100
AcDbEntity
  8
02___PRT_ALL_AXES
  6
Continuous
 62
     7
100
AcDbCircle
 10
171.931183511
 20
210.7519446273
 30
0.0
 40
7.9673618387
100
AcDbArc
 50
144.2650400427
 51
179.9934057651
  0
ARC
  5
456
330
225
100
AcDbEntity
  8
02___PRT_ALL_AXES
  6
Continuous
 62
     7
100
AcDbCircle
 10
159.9964912752
 20
210.751944621
 30
0.0
 40
7.9673618387
100
AcDbArc
 50
0.0065942808
 51
35.73495991200001
  0
ARC
  5
457
330
225
100
AcDbEntity
  8
7_ALL_FEATURES
  6
Continuous
 62
     7
100
AcDbCircle
 10
171.9283551538
 20
210.4996134003
 30
0.0
 40
7.9645265452
100
AcDbArc
 50
154.9354843194
 51
178.1787313237
  0
ARC
  5
458
330
225
100
AcDbEntity
  8
7_ALL_FEATURES
  6
Continuous
 62
     7
100
AcDbCircle
 10
159.9993196521
 20
210.4996134003
 30
0.0
 40
7.9645265452
100
AcDbArc
 50
1.8212686763
 51
25.0645156806
  0
ARC
  5
459
330
225
100
AcDbEntity
  8
7_ALL_FEATURES
  6
Continuous
 62
     7
100
AcDbCircle
 10
239.3781647939
 20
215.2296841715
 30
0.0
 40
4.7384374814
100
AcDbArc
 50
25.041359548
 51
25.7692186938
  0
ARC
  5
45A
330
225
100
AcDbEntity
  8
7_ALL_FEATURES
  6
Continuous
 62
     7
100
AcDbCircle
 10
239.4207378727
 20
215.1809970322
 30
0.0
 40
4.6931363485
100
AcDbArc
 50
0.8217986276000001
 51
25.8190757437
  0
ARC
  5
45B
330
225
100
AcDbEntity
  8
7_ALL_FEATURES
  6
Continuous
 62
     7
100
AcDbCircle
 10
239.4233770427
 20
215.2462596165
 30
0.0
 40
4.6904609531
100
AcDbArc
 50
0.0288068366
 51
25.0916832928
  0
ARC
  5
45C
330
225
100
AcDbEntity
  8
7_ALL_FEATURES
  6
Continuous
 62
     7
100
AcDbCircle
 10
239.462443262
 20
215.1839030945
 30
0.0
 40
4.651394141
100
AcDbArc
 50
0.0001232178
 51
0.7933736604
  0
ARC
  5
45D
330
225
100
AcDbEntity
  8
02___PRT_ALL_AXES
  6
Continuous
 62
     7
100
AcDbCircle
 10
217.9150069516
 20
210.3296516113
 30
0.0
 40
2.8011668165
100
AcDbArc
 50
178.9419991232
 51
179.9999998572
  0
ARC
  5
45E
330
225
100
AcDbEntity
  8
02___PRT_ALL_AXES
  6
Continuous
 62
     7
100
AcDbCircle
 10
218.3126678543
 20
210.3296516113
 30
0.0
 40
2.8011668165
100
AcDbArc
 50
0.0000001428
 51
1.0580008768
  0
ARC
  5
45F
330
225
100
AcDbEntity
  8
02___PRT_ALL_AXES
  6
Continuous
 62
     7
100
AcDbCircle
 10
232.9150069516
 20
210.3296516113
 30
0.0
 40
2.8011668165
100
AcDbArc
 50
178.9419991232
 51
179.9999998572
  0
ARC
  5
460
330
225
100
AcDbEntity
  8
02___PRT_ALL_AXES
  6
Continuous
 62
     7
100
AcDbCircle
 10
233.3126678543
 20
210.3296516113
 30
0.0
 40
2.8011668165
100
AcDbArc
 50
0.0000001428
 51
1.0580008768
  0
ARC
  5
461
330
225
100
AcDbEntity
  8
7_ALL_FEATURES
  6
Continuous
 62
     7
100
AcDbCircle
 10
224.7658221603
 20
251.9893396658
 30
0.0
 40
1.8882954987
100
AcDbArc
 50
25.7704425009
 51
27.3937994136
  0
ARC
  5
462
330
225
100
AcDbEntity
  8
7_ALL_FEATURES
  6
Continuous
 62
     7
100
AcDbCircle
 10
224.5065643696
 20
251.9947526178
 30
0.0
 40
1.8528370663
100
AcDbArc
 50
174.1234608127
 51
176.0709710954
  0
ARC
  5
463
330
225
100
AcDbEntity
  8
02___PRT_ALL_AXES
  6
Continuous
 62
     7
100
AcDbCircle
 10
165.9638374029
 20
205.0691257163
 30
0.0
 40
0.9500686953
100
AcDbArc
 50
240.0951081407
 51
299.9048918592999
  0
ARC
  5
464
330
225
100
AcDbEntity
  8
02___PRT_ALL_AXES
  6
Continuous
 62
     7
100
AcDbCircle
 10
165.9617925316
 20
205.0658911577
 30
0.0
 40
0.9462421732
100
AcDbArc
 50
198.3829906778
 51
240.1047949504
  0
ARC
  5
465
330
225
100
AcDbEntity
  8
02___PRT_ALL_AXES
  6
Continuous
 62
     7
100
AcDbCircle
 10
165.9658822743
 20
205.0658911577
 30
0.0
 40
0.9462421732
100
AcDbArc
 50
299.8952050496
 51
341.6170093222
  0
ARC
  5
466
330
225
100
AcDbEntity
  8
02___PRT_ALL_AXES
  6
Continuous
 62
     7
100
AcDbCircle
 10
165.9638374029
 20
205.067190678
 30
0.0
 40
0.6489065014
100
AcDbArc
 50
211.3526870277
 51
328.6473129723001
  0
ARC
  5
467
330
225
100
AcDbEntity
  8
02___PRT_ALL_AXES
  6
Continuous
 62
     7
100
AcDbCircle
 10
165.9687503606
 20
205.0637939626
 30
0.0
 40
0.6429052314
100
AcDbArc
 50
328.6780143982
 51
332.5546358986999
  0
ARC
  5
468
330
225
100
AcDbEntity
  8
02___PRT_ALL_AXES
  6
Continuous
 62
     7
100
AcDbCircle
 10
165.9589244453
 20
205.0637939626
 30
0.0
 40
0.6429052314
100
AcDbArc
 50
207.4453641012
 51
211.3219856017
  0
ARC
  5
469
330
225
100
AcDbEntity
  8
7_ALL_FEATURES
  6
Continuous
 62
     7
100
AcDbCircle
 10
313.21903948
 20
-130.9795433118
 30
0.0
 40
262.5237234887
100
AcDbArc
 50
72.1836771504
 51
80.4457300515
  0
ARC
  5
46A
330
225
100
AcDbEntity
  8
7_ALL_FEATURES
  6
Continuous
 62
     7
100
AcDbCircle
 10
245.7959146184
 20
-137.9093375443
 30
0.0
 40
261.0070546723
100
AcDbArc
 50
74.46402986510002
 51
79.196668051
  0
ARC
  5
46B
330
225
100
AcDbEntity
  8
02___PRT_ALL_AXES
  6
Continuous
 62
     7
100
AcDbCircle
 10
341.7679980997
 20
125.7356509545
 30
0.0
 40
38.0692542413
100
AcDbArc
 50
245.8484460693
 51
248.4084964339
  0
ARC
  5
46C
330
225
100
AcDbEntity
  8
7_ALL_FEATURES
  6
Continuous
 62
     7
100
AcDbCircle
 10
354.5812529353
 20
120.4037383971
 30
0.0
 40
7.5068481418
100
AcDbArc
 50
140.0765462579
 51
141.0294319515
  0
ARC
  5
46D
330
225
100
AcDbEntity
  8
02___PRT_ALL_AXES
  6
Continuous
 62
     7
100
AcDbCircle
 10
360.9736233912
 20
97.1110272155
 30
0.0
 40
5.5202484035
100
AcDbArc
 50
329.8310674656
 51
335.3290357792
  0
ARC
  5
46E
330
225
100
AcDbEntity
  8
7_ALL_FEATURES
  6
Continuous
 62
     7
100
AcDbCircle
 10
348.954181951
 20
172.15176055
 30
0.0
 40
5.3222503654
100
AcDbArc
 50
82.949857613
 51
84.5783502644
  0
ARC
  5
46F
330
225
100
AcDbEntity
  8
02___PRT_ALL_AXES
  6
Continuous
 62
     7
100
AcDbCircle
 10
361.3728597589
 20
96.9330439037
 30
0.0
 40
5.0831653586
100
AcDbArc
 50
335.2737263752
 51
344.5833213584999
  0
ARC
  5
470
330
225
100
AcDbEntity
  8
7_ALL_FEATURES
  6
Continuous
 62
     7
100
AcDbCircle
 10
361.3446130595
 20
96.8926415996
 30
0.0
 40
4.7528251185
100
AcDbArc
 50
352.6657623095999
 51
359.9955330585
  0
ARC
  5
471
330
225
100
AcDbEntity
  8
7_ALL_FEATURES
  6
Continuous
 62
     7
100
AcDbCircle
 10
321.867998574
 20
101.9842265699
 30
0.0
 40
4.7435235799
100
AcDbArc
 50
165.9565742319
 51
172.6397235555
  0
ARC
  5
472
330
225
100
AcDbEntity
  8
02___PRT_ALL_AXES
  6
Continuous
 62
     7
100
AcDbCircle
 10
353.1017877028
 20
134.0259184739
 30
0.0
 40
2.252819611
100
AcDbArc
 50
140.0748531465
 51
142.615412147
  0
ARC
  5
473
330
225
100
AcDbEntity
  8
02___PRT_ALL_AXES
  6
Continuous
 62
     7
100
AcDbCircle
 10
351.3764198357
 20
120.647050719
 30
0.0
 40
2.2528196111
100
AcDbArc
 50
140.0748531465
 51
142.615412147
  0
ARC
  5
474
330
225
100
AcDbEntity
  8
02___PRT_ALL_AXES
  6
Continuous
 62
     7
100
AcDbCircle
 10
354.2494597982
 20
133.0653648933
 30
0.0
 40
2.2505761943
100
AcDbArc
 50
317.5325120219999
 51
320.0745380561
  0
ARC
  5
475
330
225
100
AcDbEntity
  8
02___PRT_ALL_AXES
  6
Continuous
 62
     7
100
AcDbCircle
 10
352.5240919311
 20
119.6864971384
 30
0.0
 40
2.2505761943
100
AcDbArc
 50
317.5325120219999
 51
320.0745380561
  0
ARC
  5
476
330
225
100
AcDbEntity
  8
7_ALL_FEATURES
  6
Continuous
 62
     7
100
AcDbCircle
 10
393.3918152733
 20
117.0002808411
 30
0.0
 40
1.7362344229
100
AcDbArc
 50
280.0400938318
 51
283.5761629391
  0
ARC
  5
477
330
225
100
AcDbEntity
  8
02___PRT_ALL_AXES
  6
Continuous
 62
     7
100
AcDbCircle
 10
353.0582818366
 20
132.0683003753
 30
0.0
 40
1.635334184
100
AcDbArc
 50
302.2479103137
 51
303.322995356
  0
ARC
  5
478
330
225
100
AcDbEntity
  8
7_ALL_FEATURES
  6
Continuous
 62
     7
100
AcDbCircle
 10
393.5685451435
 20
116.8877730593
 30
0.0
 40
1.5043484398
100
AcDbArc
 50
313.3999129468999
 51
320.0696380554999
  0
ARC
  5
479
330
225
100
AcDbEntity
  8
7_ALL_FEATURES
  6
Continuous
 62
     7
100
AcDbCircle
 10
294.2282220626
 20
116.9821826554
 30
0.0
 40
1.4977344454
100
AcDbArc
 50
140.0863248484
 51
144.8068944272
  0
ARC
  5
47A
330
225
100
AcDbEntity
  8
02___PRT_ALL_AXES
  6
Continuous
 62
     7
100
AcDbCircle
 10
349.1634357074
 20
178.3309587586
 30
0.0
 40
0.826633718
100
AcDbArc
 50
217.6107197943
 51
218.2125093493
  0
ARC
  5
47B
330
225
100
AcDbEntity
  8
02___PRT_ALL_AXES
  6
Continuous
 62
     7
100
AcDbCircle
 10
349.1463269181
 20
178.3172422342
 30
0.0
 40
0.8047062247
100
AcDbArc
 50
218.198680795
 51
221.6853698363
  0
SPLINE
  5
47C
330
225
100
AcDbEntity
  8
02___PRT_ALL_AXES
  6
Continuous
 62
     7
100
AcDbSpline
 70
     0
 71
     3
 72
    18
 73
    14
 74
     0
 42
0.000000001
 43
0.0000001
 40
0.0
 40
0.0
 40
0.0
 40
0.0
 40
0.1620556802
 40
0.3201680578
 40
0.4705429833
 40
0.6096157472
 40
0.7342244111
 40
0.7902758891
 40
0.8417955628
 40
0.8885864132
 40
0.9305332919
 40
0.9676252397
 40
1.0
 40
1.0
 40
1.0
 40
1.0
 10
50.1108572005
 20
63.38343942
 30
0.0
 10
50.1108572005
 20
63.5443747529
 30
0.0
 10
50.1174399952
 20
63.8623715063
 30
0.0
 10
50.1469205001
 20
64.3288706613
 30
0.0
 10
50.1951402471
 20
64.7708941778
 30
0.0
 10
50.2607977871
 20
65.1770063137
 30
0.0
 10
50.3307150172
 20
65.4870479468
 30
0.0
 10
50.3953037675
 20
65.7084629856
 30
0.0
 10
50.4451754579
 20
65.8534914046
 30
0.0
 10
50.497864975
 20
65.9825225191
 30
0.0
 10
50.5530480593
 20
66.0947831209
 30
0.0
 10
50.6103740183
 20
66.1895948686
 30
0.0
 10
50.6526265056
 20
66.2444349694
 30
0.0
 10
50.6742248392
 20
66.2682508271
 30
0.0
  0
SPLINE
  5
47D
330
225
100
AcDbEntity
  8
02___PRT_ALL_AXES
  6
Continuous
 62
     7
100
AcDbSpline
 70
     0
 71
     3
 72
    18
 73
    14
 74
     0
 42
0.000000001
 43
0.0000001
 40
0.0
 40
0.0
 40
0.0
 40
0.0
 40
0.1620556802
 40
0.3201680578
 40
0.4705429833
 40
0.6096157472
 40
0.7342244111
 40
0.7902758891
 40
0.8417955628
 40
0.8885864132
 40
0.9305332919
 40
0.9676252397
 40
1.0
 40
1.0
 40
1.0
 40
1.0
 10
50.1108572005
 20
63.38343942
 30
0.0
 10
50.1108572005
 20
63.222504087
 30
0.0
 10
50.1174399952
 20
62.9045073336
 30
0.0
 10
50.1469205001
 20
62.4380081786
 30
0.0
 10
50.1951402471
 20
61.9959846621
 30
0.0
 10
50.2607977871
 20
61.5898725262
 30
0.0
 10
50.3307150172
 20
61.2798308931
 30
0.0
 10
50.3953037675
 20
61.0584158543
 30
0.0
 10
50.4451754579
 20
60.9133874354
 30
0.0
 10
50.497864975
 20
60.7843563208
 30
0.0
 10
50.5530480593
 20
60.672095719
 30
0.0
 10
50.6103740183
 20
60.5772839713
 30
0.0
 10
50.6526265056
 20
60.5224438705
 30
0.0
 10
50.6742248392
 20
60.4986280129
 30
0.0
  0
SPLINE
  5
47E
330
225
100
AcDbEntity
  8
02___PRT_ALL_AXES
  6
Continuous
 62
     7
100
AcDbSpline
 70
     0
 71
     3
 72
    14
 73
    10
 74
     0
 42
0.000000001
 43
0.0000001
 40
0.0
 40
0.0
 40
0.0
 40
0.0
 40
0.2915595057
 40
0.4318480076
 40
0.5656512679
 40
0.6910098592
 40
0.8061534954
 40
0.909552637
 40
1.0
 40
1.0
 40
1.0
 40
1.0
 10
50.3040423657
 20
63.38343942
 30
0.0
 10
50.3040423657
 20
63.6356956944
 30
0.0
 10
50.3160280678
 20
64.0095125463
 30
0.0
 10
50.3572966038
 20
64.4972457729
 30
0.0
 10
50.3993798728
 20
64.8403739343
 30
0.0
 10
50.4522551785
 20
65.1599815763
 30
0.0
 10
50.5150336549
 20
65.4509767907
 30
0.0
 10
50.5866430408
 20
65.7087093948
 30
0.0
 10
50.6434186915
 20
65.8667976705
 30
0.0
 10
50.6737761354
 20
65.9389241618
 30
0.0
  0
SPLINE
  5
47F
330
225
100
AcDbEntity
  8
02___PRT_ALL_AXES
  6
Continuous
 62
     7
100
AcDbSpline
 70
     0
 71
     3
 72
    14
 73
    10
 74
     0
 42
0.000000001
 43
0.0000001
 40
0.0
 40
0.0
 40
0.0
 40
0.0
 40
0.2915595057
 40
0.4318480076
 40
0.5656512679
 40
0.6910098592
 40
0.8061534954
 40
0.909552637
 40
1.0
 40
1.0
 40
1.0
 40
1.0
 10
50.3040423657
 20
63.38343942
 30
0.0
 10
50.3040423657
 20
63.1311831455
 30
0.0
 10
50.3160280678
 20
62.7573662936
 30
0.0
 10
50.3572966038
 20
62.269633067
 30
0.0
 10
50.3993798728
 20
61.9265049056
 30
0.0
 10
50.4522551785
 20
61.6068972636
 30
0.0
 10
50.5150336549
 20
61.3159020492
 30
0.0
 10
50.5866430408
 20
61.0581694451
 30
0.0
 10
50.6434186915
 20
60.9000811694
 30
0.0
 10
50.6737761354
 20
60.8279546781
 30
0.0
  0
SPLINE
  5
480
330
225
100
AcDbEntity
  8
02___PRT_ALL_AXES
  6
Continuous
 62
     7
100
AcDbSpline
 70
     0
 71
     3
 72
    21
 73
    17
 74
     0
 42
0.000000001
 43
0.0000001
 40
0.0
 40
0.0
 40
0.0
 40
0.0
 40
0.1813697139
 40
0.3562407234
 40
0.5184426099
 40
0.5930343318
 40
0.6624445104
 40
0.7261398537
 40
0.7836822136
 40
0.8347540896
 40
0.8792040638
 40
0.9171246231
 40
0.9489898011
 40
0.9759018863
 40
0.9881447081
 40
1.0
 40
1.0
 40
1.0
 40
1.0
 10
106.2385806564
 20
48.38343942
 30
0.0
 10
106.2385806564
 20
48.5785976824
 30
0.0
 10
106.2289851613
 20
48.9620017119
 30
0.0
 10
106.1861083806
 20
49.5184490455
 30
0.0
 10
106.1267225373
 20
49.9577581134
 30
0.0
 10
106.0650212122
 20
50.2814848083
 30
0.0
 10
106.0143314692
 20
50.4992206114
 30
0.0
 10
105.9584512671
 20
50.6966976793
 30
0.0
 10
105.8979284961
 20
50.8720776428
 30
0.0
 10
105.8333408855
 20
51.0237718773
 30
0.0
 10
105.7652855928
 20
51.1504902039
 30
0.0
 10
105.6941905619
 20
51.2512793459
 30
0.0
 10
105.6203777263
 20
51.3255026292
 30
0.0
 10
105.553856738
 20
51.3655886417
 30
0.0
 10
105.5008736671
 20
51.3809335578
 30
0.0
 10
105.4748801061
 20
51.3834366879
 30
0.0
 10
105.4621235211
 20
51.3834366879
 30
0.0
  0
SPLINE
  5
481
330
225
100
AcDbEntity
  8
02___PRT_ALL_AXES
  6
Continuous
 62
     7
100
AcDbSpline
 70
     0
 71
     3
 72
    21
 73
    17
 74
     0
 42
0.000000001
 43
0.0000001
 40
0.0
 40
0.0
 40
0.0
 40
0.0
 40
0.1813697139
 40
0.3562407234
 40
0.5184426099
 40
0.5930343318
 40
0.6624445104
 40
0.7261398537
 40
0.7836822136
 40
0.8347540896
 40
0.8792040638
 40
0.9171246231
 40
0.9489898011
 40
0.9759018863
 40
0.9881447081
 40
1.0
 40
1.0
 40
1.0
 40
1.0
 10
106.2385806564
 20
48.38343942
 30
0.0
 10
106.2385806564
 20
48.1882811575
 30
0.0
 10
106.2289851613
 20
47.804877128
 30
0.0
 10
106.1861083806
 20
47.2484297944
 30
0.0
 10
106.1267225373
 20
46.8091207266
 30
0.0
 10
106.0650212122
 20
46.4853940316
 30
0.0
 10
106.0143314692
 20
46.2676582285
 30
0.0
 10
105.9584512671
 20
46.0701811606
 30
0.0
 10
105.8979284961
 20
45.8948011971
 30
0.0
 10
105.8333408855
 20
45.7431069627
 30
0.0
 10
105.7652855928
 20
45.616388636
 30
0.0
 10
105.6941905619
 20
45.515599494
 30
0.0
 10
105.6203777263
 20
45.4413762107
 30
0.0
 10
105.553856738
 20
45.4012901982
 30
0.0
 10
105.5008736671
 20
45.3859452821
 30
0.0
 10
105.4748801061
 20
45.383442152
 30
0.0
 10
105.4621235211
 20
45.383442152
 30
0.0
  0
SPLINE
  5
482
330
225
100
AcDbEntity
  8
02___PRT_ALL_AXES
  6
Continuous
 62
     7
100
AcDbSpline
 70
     0
 71
     3
 72
    11
 73
     7
 74
     0
 42
0.000000001
 43
0.0000001
 40
0.0
 40
0.0
 40
0.0
 40
0.0
 40
0.2196205816
 40
0.4526318793
 40
0.7101112135
 40
1.0
 40
1.0
 40
1.0
 40
1.0
 10
105.2689383559
 20
51.3834366879
 30
0.0
 10
105.25124988
 20
51.3834366879
 30
0.0
 10
105.2146388168
 20
51.3784917146
 30
0.0
 10
105.161203979
 20
51.3567767089
 30
0.0
 10
105.1088514252
 20
51.3213514182
 30
0.0
 10
105.0767932265
 20
51.2908278574
 30
0.0
 10
105.0608874827
 20
51.2737359242
 30
0.0
  0
SPLINE
  5
483
330
225
100
AcDbEntity
  8
02___PRT_ALL_AXES
  6
Continuous
 62
     7
100
AcDbSpline
 70
     0
 71
     3
 72
    11
 73
     7
 74
     0
 42
0.000000001
 43
0.0000001
 40
0.0
 40
0.0
 40
0.0
 40
0.0
 40
0.2196205816
 40
0.4526318793
 40
0.7101112135
 40
1.0
 40
1.0
 40
1.0
 40
1.0
 10
105.2689383559
 20
45.383442152
 30
0.0
 10
105.25124988
 20
45.383442152
 30
0.0
 10
105.2146388168
 20
45.3883871254
 30
0.0
 10
105.161203979
 20
45.410102131
 30
0.0
 10
105.1088514252
 20
45.4455274217
 30
0.0
 10
105.0767932265
 20
45.4760509825
 30
0.0
 10
105.0608874827
 20
45.4931429157
 30
0.0
  0
SPLINE
  5
484
330
225
100
AcDbEntity
  8
02___PRT_ALL_AXES
  6
Continuous
 62
     7
100
AcDbSpline
 70
     0
 71
     3
 72
    21
 73
    17
 74
     0
 42
0.000000001
 43
0.0000001
 40
0.0
 40
0.0
 40
0.0
 40
0.0
 40
0.0118552919
 40
0.0240981137
 40
0.0510101989
 40
0.0828753769
 40
0.1207959362
 40
0.1652459104
 40
0.2163177864
 40
0.2738601463
 40
0.3375554896
 40
0.4069656682
 40
0.4815573901
 40
0.6437592766
 40
0.8186302861
 40
1.0
 40
1.0
 40
1.0
 40
1.0
 10
105.4621235211
 20
51.3834366879
 30
0.0
 10
105.4493669362
 20
51.3834366879
 30
0.0
 10
105.4233733752
 20
51.3809335578
 30
0.0
 10
105.3703903043
 20
51.3655886417
 30
0.0
 10
105.303869316
 20
51.3255026292
 30
0.0
 10
105.2300564804
 20
51.2512793459
 30
0.0
 10
105.1589614494
 20
51.1504902039
 30
0.0
 10
105.0909061568
 20
51.0237718773
 30
0.0
 10
105.0263185461
 20
50.8720776428
 30
0.0
 10
104.9657957751
 20
50.6966976793
 30
0.0
 10
104.909915573
 20
50.4992206114
 30
0.0
 10
104.85922583
 20
50.2814848083
 30
0.0
 10
104.7975245049
 20
49.9577581134
 30
0.0
 10
104.7381386617
 20
49.5184490455
 30
0.0
 10
104.6952618809
 20
48.9620017119
 30
0.0
 10
104.6856663858
 20
48.5785976824
 30
0.0
 10
104.6856663858
 20
48.38343942
 30
0.0
  0
SPLINE
  5
485
330
225
100
AcDbEntity
  8
02___PRT_ALL_AXES
  6
Continuous
 62
     7
100
AcDbSpline
 70
     0
 71
     3
 72
     9
 73
     5
 74
     0
 42
0.000000001
 43
0.0000001
 40
0.0
 40
0.0
 40
0.0
 40
0.0
 40
0.4573753451
 40
1.0
 40
1.0
 40
1.0
 40
1.0
 10
105.0608874827
 20
51.2737359242
 30
0.0
 10
105.0326380101
 20
51.2433797143
 30
0.0
 10
104.977927759
 20
51.17045448
 30
0.0
 10
104.9337011297
 20
51.0911063635
 30
0.0
 10
104.9117175746
 20
51.0470950752
 30
0.0
  0
SPLINE
  5
486
330
225
100
AcDbEntity
  8
02___PRT_ALL_AXES
  6
Continuous
 62
     7
100
AcDbSpline
 70
     0
 71
     3
 72
    14
 73
    10
 74
     0
 42
0.000000001
 43
0.0000001
 40
0.0
 40
0.0
 40
0.0
 40
0.0
 40
0.0851791695
 40
0.1850757866
 40
0.2984924859
 40
0.4237667351
 40
0.5588973903
 40
0.7016312683
 40
1.0
 40
1.0
 40
1.0
 40
1.0
 10
104.9117175746
 20
51.0470950752
 30
0.0
 10
104.8772780246
 20
50.9781467657
 30
0.0
 10
104.8130264709
 20
50.8230513467
 30
0.0
 10
104.732509249
 20
50.5650262877
 30
0.0
 10
104.6615055818
 20
50.266797289
 30
0.0
 10
104.601423079
 20
49.9338007377
 30
0.0
 10
104.5534257972
 20
49.5720835535
 30
0.0
 10
104.5061455692
 20
49.0527519617
 30
0.0
 10
104.4924812206
 20
48.653406851
 30
0.0
 10
104.4924812206
 20
48.38343942
 30
0.0
  0
SPLINE
  5
487
330
225
100
AcDbEntity
  8
02___PRT_ALL_AXES
  6
Continuous
 62
     7
100
AcDbSpline
 70
     0
 71
     3
 72
    21
 73
    17
 74
     0
 42
0.000000001
 43
0.0000001
 40
0.0
 40
0.0
 40
0.0
 40
0.0
 40
0.0118552919
 40
0.0240981137
 40
0.0510101989
 40
0.0828753769
 40
0.1207959362
 40
0.1652459104
 40
0.2163177864
 40
0.2738601463
 40
0.3375554896
 40
0.4069656682
 40
0.4815573901
 40
0.6437592766
 40
0.8186302861
 40
1.0
 40
1.0
 40
1.0
 40
1.0
 10
105.4621235211
 20
45.383442152
 30
0.0
 10
105.4493669362
 20
45.383442152
 30
0.0
 10
105.4233733752
 20
45.3859452821
 30
0.0
 10
105.3703903043
 20
45.4012901982
 30
0.0
 10
105.303869316
 20
45.4413762107
 30
0.0
 10
105.2300564804
 20
45.515599494
 30
0.0
 10
105.1589614494
 20
45.616388636
 30
0.0
 10
105.0909061568
 20
45.7431069627
 30
0.0
 10
105.0263185461
 20
45.8948011971
 30
0.0
 10
104.9657957751
 20
46.0701811606
 30
0.0
 10
104.909915573
 20
46.2676582285
 30
0.0
 10
104.85922583
 20
46.4853940316
 30
0.0
 10
104.7975245049
 20
46.8091207266
 30
0.0
 10
104.7381386617
 20
47.2484297944
 30
0.0
 10
104.6952618809
 20
47.804877128
 30
0.0
 10
104.6856663858
 20
48.1882811575
 30
0.0
 10
104.6856663858
 20
48.38343942
 30
0.0
  0
SPLINE
  5
488
330
225
100
AcDbEntity
  8
02___PRT_ALL_AXES
  6
Continuous
 62
     7
100
AcDbSpline
 70
     0
 71
     3
 72
     9
 73
     5
 74
     0
 42
0.000000001
 43
0.0000001
 40
0.0
 40
0.0
 40
0.0
 40
0.0
 40
0.4573753451
 40
1.0
 40
1.0
 40
1.0
 40
1.0
 10
105.0608874827
 20
45.4931429157
 30
0.0
 10
105.0326380101
 20
45.5234991256
 30
0.0
 10
104.977927759
 20
45.5964243599
 30
0.0
 10
104.9337011297
 20
45.6757724764
 30
0.0
 10
104.9117175746
 20
45.7197837648
 30
0.0
  0
SPLINE
  5
489
330
225
100
AcDbEntity
  8
02___PRT_ALL_AXES
  6
Continuous
 62
     7
100
AcDbSpline
 70
     0
 71
     3
 72
    14
 73
    10
 74
     0
 42
0.000000001
 43
0.0000001
 40
0.0
 40
0.0
 40
0.0
 40
0.0
 40
0.0851791695
 40
0.1850757866
 40
0.2984924859
 40
0.4237667351
 40
0.5588973903
 40
0.7016312683
 40
1.0
 40
1.0
 40
1.0
 40
1.0
 10
104.9117175746
 20
45.7197837648
 30
0.0
 10
104.8772780246
 20
45.7887320743
 30
0.0
 10
104.8130264709
 20
45.9438274933
 30
0.0
 10
104.732509249
 20
46.2018525522
 30
0.0
 10
104.6615055818
 20
46.5000815509
 30
0.0
 10
104.601423079
 20
46.8330781022
 30
0.0
 10
104.5534257972
 20
47.1947952864
 30
0.0
 10
104.5061455692
 20
47.7141268782
 30
0.0
 10
104.4924812206
 20
48.1134719889
 30
0.0
 10
104.4924812206
 20
48.38343942
 30
0.0
  0
SPLINE
  5
48A
330
225
100
AcDbEntity
  8
02___PRT_ALL_AXES
  6
Continuous
 62
     7
100
AcDbSpline
 70
     0
 71
     3
 72
    21
 73
    17
 74
     0
 42
0.000000001
 43
0.0000001
 40
0.0
 40
0.0
 40
0.0
 40
0.0
 40
0.1813697139
 40
0.3562407234
 40
0.5184426099
 40
0.5930343318
 40
0.6624445104
 40
0.7261398537
 40
0.7836822136
 40
0.8347540896
 40
0.8792040638
 40
0.9171246231
 40
0.9489898011
 40
0.9759018863
 40
0.9881447081
 40
1.0
 40
1.0
 40
1.0
 40
1.0
 10
106.2385806564
 20
63.38343942
 30
0.0
 10
106.2385806564
 20
63.5785976824
 30
0.0
 10
106.2289851613
 20
63.9620017119
 30
0.0
 10
106.1861083806
 20
64.5184490455
 30
0.0
 10
106.1267225373
 20
64.9577581134
 30
0.0
 10
106.0650212122
 20
65.2814848083
 30
0.0
 10
106.0143314692
 20
65.4992206114
 30
0.0
 10
105.9584512671
 20
65.6966976793
 30
0.0
 10
105.8979284961
 20
65.8720776428
 30
0.0
 10
105.8333408855
 20
66.0237718773
 30
0.0
 10
105.7652855928
 20
66.1504902039
 30
0.0
 10
105.6941905619
 20
66.2512793459
 30
0.0
 10
105.6203777263
 20
66.3255026292
 30
0.0
 10
105.553856738
 20
66.3655886417
 30
0.0
 10
105.5008736671
 20
66.3809335578
 30
0.0
 10
105.4748801061
 20
66.3834366879
 30
0.0
 10
105.4621235211
 20
66.3834366879
 30
0.0
  0
SPLINE
  5
48B
330
225
100
AcDbEntity
  8
02___PRT_ALL_AXES
  6
Continuous
 62
     7
100
AcDbSpline
 70
     0
 71
     3
 72
    21
 73
    17
 74
     0
 42
0.000000001
 43
0.0000001
 40
0.0
 40
0.0
 40
0.0
 40
0.0
 40
0.1813697139
 40
0.3562407234
 40
0.5184426099
 40
0.5930343318
 40
0.6624445104
 40
0.7261398537
 40
0.7836822136
 40
0.8347540896
 40
0.8792040638
 40
0.9171246231
 40
0.9489898011
 40
0.9759018863
 40
0.9881447081
 40
1.0
 40
1.0
 40
1.0
 40
1.0
 10
106.2385806564
 20
63.38343942
 30
0.0
 10
106.2385806564
 20
63.1882811575
 30
0.0
 10
106.2289851613
 20
62.804877128
 30
0.0
 10
106.1861083806
 20
62.2484297944
 30
0.0
 10
106.1267225373
 20
61.8091207266
 30
0.0
 10
106.0650212122
 20
61.4853940316
 30
0.0
 10
106.0143314692
 20
61.2676582285
 30
0.0
 10
105.9584512671
 20
61.0701811606
 30
0.0
 10
105.8979284961
 20
60.8948011971
 30
0.0
 10
105.8333408855
 20
60.7431069627
 30
0.0
 10
105.7652855928
 20
60.616388636
 30
0.0
 10
105.6941905619
 20
60.515599494
 30
0.0
 10
105.6203777263
 20
60.4413762107
 30
0.0
 10
105.553856738
 20
60.4012901982
 30
0.0
 10
105.5008736671
 20
60.3859452821
 30
0.0
 10
105.4748801061
 20
60.383442152
 30
0.0
 10
105.4621235211
 20
60.383442152
 30
0.0
  0
SPLINE
  5
48C
330
225
100
AcDbEntity
  8
02___PRT_ALL_AXES
  6
Continuous
 62
     7
100
AcDbSpline
 70
     0
 71
     3
 72
    11
 73
     7
 74
     0
 42
0.000000001
 43
0.0000001
 40
0.0
 40
0.0
 40
0.0
 40
0.0
 40
0.2196205816
 40
0.4526318793
 40
0.7101112135
 40
1.0
 40
1.0
 40
1.0
 40
1.0
 10
105.2689383559
 20
66.3834366879
 30
0.0
 10
105.25124988
 20
66.3834366879
 30
0.0
 10
105.2146388168
 20
66.3784917146
 30
0.0
 10
105.161203979
 20
66.3567767089
 30
0.0
 10
105.1088514252
 20
66.3213514182
 30
0.0
 10
105.0767932265
 20
66.2908278574
 30
0.0
 10
105.0608874827
 20
66.2737359242
 30
0.0
  0
SPLINE
  5
48D
330
225
100
AcDbEntity
  8
02___PRT_ALL_AXES
  6
Continuous
 62
     7
100
AcDbSpline
 70
     0
 71
     3
 72
    11
 73
     7
 74
     0
 42
0.000000001
 43
0.0000001
 40
0.0
 40
0.0
 40
0.0
 40
0.0
 40
0.2196205816
 40
0.4526318793
 40
0.7101112135
 40
1.0
 40
1.0
 40
1.0
 40
1.0
 10
105.2689383559
 20
60.383442152
 30
0.0
 10
105.25124988
 20
60.383442152
 30
0.0
 10
105.2146388168
 20
60.3883871254
 30
0.0
 10
105.161203979
 20
60.410102131
 30
0.0
 10
105.1088514252
 20
60.4455274217
 30
0.0
 10
105.0767932265
 20
60.4760509825
 30
0.0
 10
105.0608874827
 20
60.4931429157
 30
0.0
  0
SPLINE
  5
48E
330
225
100
AcDbEntity
  8
02___PRT_ALL_AXES
  6
Continuous
 62
     7
100
AcDbSpline
 70
     0
 71
     3
 72
    21
 73
    17
 74
     0
 42
0.000000001
 43
0.0000001
 40
0.0
 40
0.0
 40
0.0
 40
0.0
 40
0.0118552919
 40
0.0240981137
 40
0.0510101989
 40
0.0828753769
 40
0.1207959362
 40
0.1652459104
 40
0.2163177864
 40
0.2738601463
 40
0.3375554896
 40
0.4069656682
 40
0.4815573901
 40
0.6437592766
 40
0.8186302861
 40
1.0
 40
1.0
 40
1.0
 40
1.0
 10
105.4621235211
 20
66.3834366879
 30
0.0
 10
105.4493669362
 20
66.3834366879
 30
0.0
 10
105.4233733752
 20
66.3809335578
 30
0.0
 10
105.3703903043
 20
66.3655886417
 30
0.0
 10
105.303869316
 20
66.3255026292
 30
0.0
 10
105.2300564804
 20
66.2512793459
 30
0.0
 10
105.1589614494
 20
66.1504902039
 30
0.0
 10
105.0909061568
 20
66.0237718773
 30
0.0
 10
105.0263185461
 20
65.8720776428
 30
0.0
 10
104.9657957751
 20
65.6966976793
 30
0.0
 10
104.909915573
 20
65.4992206114
 30
0.0
 10
104.85922583
 20
65.2814848083
 30
0.0
 10
104.7975245049
 20
64.9577581134
 30
0.0
 10
104.7381386617
 20
64.5184490455
 30
0.0
 10
104.6952618809
 20
63.9620017119
 30
0.0
 10
104.6856663858
 20
63.5785976824
 30
0.0
 10
104.6856663858
 20
63.38343942
 30
0.0
  0
SPLINE
  5
48F
330
225
100
AcDbEntity
  8
02___PRT_ALL_AXES
  6
Continuous
 62
     7
100
AcDbSpline
 70
     0
 71
     3
 72
    18
 73
    14
 74
     0
 42
0.000000001
 43
0.0000001
 40
0.0
 40
0.0
 40
0.0
 40
0.0
 40
0.0320923677
 40
0.0689202354
 40
0.1106367991
 40
0.1572405358
 40
0.2086202628
 40
0.2645809
 40
0.3891518705
 40
0.5283626583
 40
0.6790183437
 40
0.8375116508
 40
1.0
 40
1.0
 40
1.0
 40
1.0
 10
105.0608874827
 20
66.2737359242
 30
0.0
 10
105.0391215925
 20
66.2503468175
 30
0.0
 10
104.9965205309
 20
66.1962335077
 30
0.0
 10
104.9387498903
 20
66.1022675143
 30
0.0
 10
104.8831190778
 20
65.9906317198
 30
0.0
 10
104.8299870335
 20
65.8620031951
 30
0.0
 10
104.779679379
 20
65.717158638
 30
0.0
 10
104.714477992
 20
65.4955999384
 30
0.0
 10
104.6438952738
 20
65.1848788677
 30
0.0
 10
104.5776076013
 20
64.7774415947
 30
0.0
 10
104.5289099755
 20
64.3335504185
 30
0.0
 10
104.4991310232
 20
63.8648078954
 30
0.0
 10
104.4924812206
 20
63.5452070825
 30
0.0
 10
104.4924812206
 20
63.38343942
 30
0.0
  0
SPLINE
  5
490
330
225
100
AcDbEntity
  8
02___PRT_ALL_AXES
  6
Continuous
 62
     7
100
AcDbSpline
 70
     0
 71
     3
 72
    21
 73
    17
 74
     0
 42
0.000000001
 43
0.0000001
 40
0.0
 40
0.0
 40
0.0
 40
0.0
 40
0.0118552919
 40
0.0240981137
 40
0.0510101989
 40
0.0828753769
 40
0.1207959362
 40
0.1652459104
 40
0.2163177864
 40
0.2738601463
 40
0.3375554896
 40
0.4069656682
 40
0.4815573901
 40
0.6437592766
 40
0.8186302861
 40
1.0
 40
1.0
 40
1.0
 40
1.0
 10
105.4621235211
 20
60.383442152
 30
0.0
 10
105.4493669362
 20
60.383442152
 30
0.0
 10
105.4233733752
 20
60.3859452821
 30
0.0
 10
105.3703903043
 20
60.4012901982
 30
0.0
 10
105.303869316
 20
60.4413762107
 30
0.0
 10
105.2300564804
 20
60.515599494
 30
0.0
 10
105.1589614494
 20
60.616388636
 30
0.0
 10
105.0909061568
 20
60.7431069627
 30
0.0
 10
105.0263185461
 20
60.8948011971
 30
0.0
 10
104.9657957751
 20
61.0701811606
 30
0.0
 10
104.909915573
 20
61.2676582285
 30
0.0
 10
104.85922583
 20
61.4853940316
 30
0.0
 10
104.7975245049
 20
61.8091207266
 30
0.0
 10
104.7381386617
 20
62.2484297944
 30
0.0
 10
104.6952618809
 20
62.804877128
 30
0.0
 10
104.6856663858
 20
63.1882811575
 30
0.0
 10
104.6856663858
 20
63.38343942
 30
0.0
  0
SPLINE
  5
491
330
225
100
AcDbEntity
  8
02___PRT_ALL_AXES
  6
Continuous
 62
     7
100
AcDbSpline
 70
     0
 71
     3
 72
    18
 73
    14
 74
     0
 42
0.000000001
 43
0.0000001
 40
0.0
 40
0.0
 40
0.0
 40
0.0
 40
0.0320923677
 40
0.0689202354
 40
0.1106367991
 40
0.1572405358
 40
0.2086202628
 40
0.2645809
 40
0.3891518705
 40
0.5283626583
 40
0.6790183437
 40
0.8375116508
 40
1.0
 40
1.0
 40
1.0
 40
1.0
 10
105.0608874827
 20
60.4931429157
 30
0.0
 10
105.0391215925
 20
60.5165320224
 30
0.0
 10
104.9965205309
 20
60.5706453322
 30
0.0
 10
104.9387498903
 20
60.6646113256
 30
0.0
 10
104.8831190778
 20
60.7762471201
 30
0.0
 10
104.8299870335
 20
60.9048756448
 30
0.0
 10
104.779679379
 20
61.049720202
 30
0.0
 10
104.714477992
 20
61.2712789015
 30
0.0
 10
104.6438952738
 20
61.5819999722
 30
0.0
 10
104.5776076013
 20
61.9894372453
 30
0.0
 10
104.5289099755
 20
62.4333284214
 30
0.0
 10
104.4991310232
 20
62.9020709445
 30
0.0
 10
104.4924812206
 20
63.2216717574
 30
0.0
 10
104.4924812206
 20
63.38343942
 30
0.0
  0
SPLINE
  5
492
330
225
100
AcDbEntity
  8
02___PRT_ALL_AXES
  6
Continuous
 62
     7
100
AcDbSpline
 70
     0
 71
     3
 72
    19
 73
    15
 74
     0
 42
0.000000001
 43
0.0000001
 40
0.0
 40
0.0
 40
0.0
 40
0.0
 40
0.0144192293
 40
0.0325070688
 40
0.056281254
 40
0.0866144196
 40
0.123895496
 40
0.1683082354
 40
0.2199172416
 40
0.2787216089
 40
0.4177673116
 40
0.5849353773
 40
0.7794282111
 40
1.0
 40
1.0
 40
1.0
 40
1.0
 10
63.0066029342
 20
113.5334479166
 30
0.0
 10
63.0141124108
 20
113.5334479166
 30
0.0
 10
63.0310751724
 20
113.5388754357
 30
0.0
 10
63.0529093836
 20
113.5591145536
 30
0.0
 10
63.0741737599
 20
113.5903104354
 30
0.0
 10
63.0952693318
 20
113.6330918603
 30
0.0
 10
63.1163190949
 20
113.6875551388
 30
0.0
 10
63.1372639876
 20
113.7537790275
 30
0.0
 10
63.1580730524
 20
113.8317010535
 30
0.0
 10
63.1872214342
 20
113.95832666
 30
0.0
 10
63.2220533933
 20
114.1452823478
 30
0.0
 10
63.2608712462
 20
114.4031725931
 30
0.0
 10
63.29830449
 20
114.7041045681
 30
0.0
 10
63.3208095398
 20
114.9191056066
 30
0.0
 10
63.3319253937
 20
115.03343942
 30
0.0
  0
SPLINE
  5
493
330
225
100
AcDbEntity
  8
02___PRT_ALL_AXES
  6
Continuous
 62
     7
100
AcDbSpline
 70
     0
 71
     3
 72
    19
 73
    15
 74
     0
 42
0.000000001
 43
0.0000001
 40
0.0
 40
0.0
 40
0.0
 40
0.0
 40
0.032245554
 40
0.0757531644
 40
0.1294855258
 40
0.1921925732
 40
0.3382941507
 40
0.5
 40
0.6617058493
 40
0.8078074268
 40
0.8705144742
 40
0.9242468356
 40
0.967754446
 40
1.0
 40
1.0
 40
1.0
 40
1.0
 10
62.5880641902
 20
116.43343942
 30
0.0
 10
62.5840680006
 20
116.4144659174
 30
0.0
 10
62.5771590453
 20
116.369391095
 30
0.0
 10
62.5687451685
 20
116.2919841016
 30
0.0
 10
62.5611956026
 20
116.1960870653
 30
0.0
 10
62.5520639353
 20
116.0384756725
 30
0.0
 10
62.5446777357
 20
115.8157687028
 30
0.0
 10
62.5416953111
 20
115.53343942
 30
0.0
 10
62.5446777357
 20
115.2511101371
 30
0.0
 10
62.5520639353
 20
115.0284031674
 30
0.0
 10
62.5611956026
 20
114.8707917746
 30
0.0
 10
62.5687451685
 20
114.7748947383
 30
0.0
 10
62.5771590453
 20
114.6974877449
 30
0.0
 10
62.5840680006
 20
114.6524129226
 30
0.0
 10
62.5880641902
 20
114.63343942
 30
0.0
  0
SPLINE
  5
494
330
225
100
AcDbEntity
  8
02___PRT_ALL_AXES
  6
Continuous
 62
     7
100
AcDbSpline
 70
     0
 71
     3
 72
    19
 73
    15
 74
     0
 42
0.000000001
 43
0.0000001
 40
0.0
 40
0.0
 40
0.0
 40
0.0
 40
0.2205717889
 40
0.4150646227
 40
0.5822326884
 40
0.7212783911
 40
0.7800827584
 40
0.8316917646
 40
0.876104504
 40
0.9133855804
 40
0.943718746
 40
0.9674929312
 40
0.9855807707
 40
1.0
 40
1.0
 40
1.0
 40
1.0
 10
63.3319253937
 20
116.03343942
 30
0.0
 10
63.3208095398
 20
116.1477732333
 30
0.0
 10
63.29830449
 20
116.3627742718
 30
0.0
 10
63.2608712462
 20
116.6637062468
 30
0.0
 10
63.2220533933
 20
116.9215964921
 30
0.0
 10
63.1872214342
 20
117.10855218
 30
0.0
 10
63.1580730524
 20
117.2351777864
 30
0.0
 10
63.1372639876
 20
117.3130998124
 30
0.0
 10
63.1163190949
 20
117.3793237011
 30
0.0
 10
63.0952693318
 20
117.4337869796
 30
0.0
 10
63.0741737599
 20
117.4765684046
 30
0.0
 10
63.0529093836
 20
117.5077642864
 30
0.0
 10
63.0310751724
 20
117.5280034042
 30
0.0
 10
63.0141124108
 20
117.5334309233
 30
0.0
 10
63.0066029342
 20
117.5334309233
 30
0.0
  0
SPLINE
  5
495
330
225
100
AcDbEntity
  8
02___PRT_ALL_AXES
  6
Continuous
 62
     7
100
AcDbSpline
 70
     0
 71
     3
 72
    19
 73
    15
 74
     0
 42
0.000000001
 43
0.0000001
 40
0.0
 40
0.0
 40
0.0
 40
0.0
 40
0.0144192293
 40
0.0325070688
 40
0.056281254
 40
0.0866144196
 40
0.123895496
 40
0.1683082354
 40
0.2199172416
 40
0.2787216089
 40
0.4177673116
 40
0.5849353773
 40
0.7794282111
 40
1.0
 40
1.0
 40
1.0
 40
1.0
 10
63.0066029342
 20
117.5334309233
 30
0.0
 10
62.9990934577
 20
117.5334309233
 30
0.0
 10
62.9821306961
 20
117.5280034042
 30
0.0
 10
62.9602964849
 20
117.5077642864
 30
0.0
 10
62.9390321085
 20
117.4765684046
 30
0.0
 10
62.9179365367
 20
117.4337869796
 30
0.0
 10
62.8968867736
 20
117.3793237011
 30
0.0
 10
62.8759418808
 20
117.3130998124
 30
0.0
 10
62.855132816
 20
117.2351777864
 30
0.0
 10
62.8259844342
 20
117.10855218
 30
0.0
 10
62.7911524751
 20
116.9215964921
 30
0.0
 10
62.7523346222
 20
116.6637062468
 30
0.0
 10
62.7149013785
 20
116.3627742718
 30
0.0
 10
62.6923963287
 20
116.1477732333
 30
0.0
 10
62.6812804748
 20
116.03343942
 30
0.0
  0
SPLINE
  5
496
330
225
100
AcDbEntity
  8
02___PRT_ALL_AXES
  6
Continuous
 62
     7
100
AcDbSpline
 70
     0
 71
     3
 72
    15
 73
    11
 74
     0
 42
0.000000001
 43
0.0000001
 40
0.0
 40
0.0
 40
0.0
 40
0.0
 40
0.088737355
 40
0.20772531
 40
0.3482634312
 40
0.5
 40
0.6517365688
 40
0.79227469
 40
0.911262645
 40
1.0
 40
1.0
 40
1.0
 40
1.0
 10
62.5880641902
 20
114.9579797375
 30
0.0
 10
62.5835143035
 20
114.9917651804
 30
0.0
 10
62.5764830696
 20
115.0713147828
 30
0.0
 10
62.5692597763
 20
115.2049128735
 30
0.0
 10
62.5646926842
 20
115.3628614252
 30
0.0
 10
62.5631078171
 20
115.53343942
 30
0.0
 10
62.5646926842
 20
115.7040174147
 30
0.0
 10
62.5692597763
 20
115.8619659664
 30
0.0
 10
62.5764830696
 20
115.9955640572
 30
0.0
 10
62.5835143035
 20
116.0751136596
 30
0.0
 10
62.5880641902
 20
116.1088991024
 30
0.0
  0
SPLINE
  5
497
330
225
100
AcDbEntity
  8
02___PRT_ALL_AXES
  6
Continuous
 62
     7
100
AcDbSpline
 70
     0
 71
     3
 72
    19
 73
    15
 74
     0
 42
0.000000001
 43
0.0000001
 40
0.0
 40
0.0
 40
0.0
 40
0.0
 40
0.2205717889
 40
0.4150646227
 40
0.5822326884
 40
0.7212783911
 40
0.7800827584
 40
0.8316917646
 40
0.876104504
 40
0.9133855804
 40
0.943718746
 40
0.9674929312
 40
0.9855807707
 40
1.0
 40
1.0
 40
1.0
 40
1.0
 10
62.6812804748
 20
115.03343942
 30
0.0
 10
62.6923963287
 20
114.9191056066
 30
0.0
 10
62.7149013785
 20
114.7041045681
 30
0.0
 10
62.7523346222
 20
114.4031725931
 30
0.0
 10
62.7911524751
 20
114.1452823478
 30
0.0
 10
62.8259844342
 20
113.95832666
 30
0.0
 10
62.855132816
 20
113.8317010535
 30
0.0
 10
62.8759418808
 20
113.7537790275
 30
0.0
 10
62.8968867736
 20
113.6875551388
 30
0.0
 10
62.9179365367
 20
113.6330918603
 30
0.0
 10
62.9390321085
 20
113.5903104354
 30
0.0
 10
62.9602964849
 20
113.5591145536
 30
0.0
 10
62.9821306961
 20
113.5388754357
 30
0.0
 10
62.9990934577
 20
113.5334479166
 30
0.0
 10
63.0066029342
 20
113.5334479166
 30
0.0
  0
SPLINE
  5
498
330
225
100
AcDbEntity
  8
7_ALL_FEATURES
  6
Continuous
 62
     7
100
AcDbSpline
 70
     0
 71
     3
 72
    13
 73
     9
 74
     0
 42
0.000000001
 43
0.0000001
 40
0.0
 40
0.0
 40
0.0
 40
0.0
 40
0.0974407841
 40
0.199924521
 40
0.3109493283
 40
0.4323181229
 40
0.7035691751
 40
1.0
 40
1.0
 40
1.0
 40
1.0
 10
96.351167064
 20
37.38343942
 30
0.0
 10
96.3088916499
 20
37.38343942
 30
0.0
 10
96.2216494514
 20
37.3971889657
 30
0.0
 10
96.0987643864
 20
37.4566733259
 30
0.0
 10
95.9870227473
 20
37.5515906856
 30
0.0
 10
95.8530298633
 20
37.725820812
 30
0.0
 10
95.7384365184
 20
38.0075678941
 30
0.0
 10
95.7083794543
 20
38.254830686
 30
0.0
 10
95.7083794543
 20
38.38343942
 30
0.0
  0
SPLINE
  5
499
330
225
100
AcDbEntity
  8
7_ALL_FEATURES
  6
Continuous
 62
     7
100
AcDbSpline
 70
     0
 71
     3
 72
    13
 73
     9
 74
     0
 42
0.000000001
 43
0.0000001
 40
0.0
 40
0.0
 40
0.0
 40
0.0
 40
0.2964308249
 40
0.5676818771
 40
0.6890506717
 40
0.800075479
 40
0.9025592159
 40
1.0
 40
1.0
 40
1.0
 40
1.0
 10
95.7083794543
 20
47.4142093169
 30
0.0
 10
95.7083794543
 20
47.5428180508
 30
0.0
 10
95.7384365184
 20
47.7900808427
 30
0.0
 10
95.8530298633
 20
48.0718279249
 30
0.0
 10
95.9870227473
 20
48.2460580512
 30
0.0
 10
96.0987643864
 20
48.340975411
 30
0.0
 10
96.2216494514
 20
48.4004597712
 30
0.0
 10
96.3088916499
 20
48.4142093169
 30
0.0
 10
96.351167064
 20
48.4142093169
 30
0.0
  0
SPLINE
  5
49A
330
225
100
AcDbEntity
  8
7_ALL_FEATURES
  6
Continuous
 62
     7
100
AcDbSpline
 70
     0
 71
     3
 72
     9
 73
     5
 74
     0
 42
0.000000001
 43
0.0000001
 40
0.0
 40
0.0
 40
0.0
 40
0.0
 40
0.4936824973
 40
1.0
 40
1.0
 40
1.0
 40
1.0
 10
111.619393595
 20
59.387173194
 30
0.0
 10
110.6823000584
 20
59.3871732079
 30
0.0
 10
108.7808715891
 20
59.2261533273
 30
0.0
 10
106.9328160672
 20
58.7555894778
 30
0.0
 10
106.0216555439
 20
58.4498847714
 30
0.0
  0
SPLINE
  5
49B
330
225
100
AcDbEntity
  8
7_ALL_FEATURES
  6
Continuous
 62
     7
100
AcDbSpline
 70
     0
 71
     3
 72
    18
 73
    14
 74
     0
 42
0.000000001
 43
0.0000001
 40
0.0
 40
0.0
 40
0.0
 40
0.0
 40
0.1750123939
 40
0.3444447187
 40
0.502982638
 40
0.6457557812
 40
0.7099238906
 40
0.7686922347
 40
0.8217282077
 40
0.8688098463
 40
0.9098697421
 40
0.9450604404
 40
1.0
 40
1.0
 40
1.0
 40
1.0
 10
103.4435839259
 20
48.4142093169
 30
0.0
 10
103.4435839259
 20
49.0278546107
 30
0.0
 10
103.4721420548
 20
50.2357823254
 30
0.0
 10
103.5997539622
 20
51.9955172215
 30
0.0
 10
103.8073194356
 20
53.633814091
 30
0.0
 10
104.0480811098
 20
54.8937646194
 30
0.0
 10
104.2804244162
 20
55.7962934469
 30
0.0
 10
104.4630939055
 20
56.385920513
 30
0.0
 10
104.6588861465
 20
56.9079834877
 30
0.0
 10
104.8658334233
 20
57.3579579107
 30
0.0
 10
105.0834257154
 20
57.733592581
 30
0.0
 10
105.3599058072
 20
58.0991379349
 30
0.0
 10
105.6170800235
 20
58.3101995914
 30
0.0
 10
105.7989580501
 20
58.3736691417
 30
0.0
  0
SPLINE
  5
49C
330
225
100
AcDbEntity
  8
02___PRT_ALL_AXES
  6
Continuous
 62
     7
100
AcDbSpline
 70
     0
 71
     3
 72
     9
 73
     5
 74
     0
 42
0.000000001
 43
0.0000001
 40
0.0
 40
0.0
 40
0.0
 40
0.0
 40
0.2588876522
 40
1.0
 40
1.0
 40
1.0
 40
1.0
 10
104.8960589544
 20
51.0644911785
 30
0.0
 10
104.8930219442
 20
51.0671694031
 30
0.0
 10
104.8811364179
 20
51.0773365563
 30
0.0
 10
104.8686109955
 20
51.0867666237
 30
0.0
 10
104.8589713781
 20
51.0932043651
 30
0.0
  0
SPLINE
  5
49D
330
225
100
AcDbEntity
  8
7_ALL_FEATURES
  6
Continuous
 62
     7
100
AcDbSpline
 70
     0
 71
     3
 72
     9
 73
     5
 74
     0
 42
0.000000001
 43
0.0000001
 40
0.0
 40
0.0
 40
0.0
 40
0.0
 40
0.4931873658
 40
1.0
 40
1.0
 40
1.0
 40
1.0
 10
44.7300442619
 20
59.387173194
 30
0.0
 10
45.7047700687
 20
59.3871732085
 30
0.0
 10
47.6848065213
 20
59.2126277249
 30
0.0
 10
49.6047558036
 20
58.7036962391
 30
0.0
 10
50.5504798069
 20
58.3736691417
 30
0.0
  0
SPLINE
  5
49E
330
225
100
AcDbEntity
  8
7_ALL_FEATURES
  6
Continuous
 62
     7
100
AcDbSpline
 70
     0
 71
     3
 72
     9
 73
     5
 74
     0
 42
0.000000001
 43
0.0000001
 40
0.0
 40
0.0
 40
0.0
 40
0.0
 40
0.256445197
 40
1.0
 40
1.0
 40
1.0
 40
1.0
 10
50.6755840145
 20
58.318106281
 30
0.0
 10
50.665280495
 20
58.3236669141
 30
0.0
 10
50.6247103128
 20
58.3446105246
 30
0.0
 10
50.5825319384
 20
58.3624839842
 30
0.0
 10
50.5504798069
 20
58.3736691417
 30
0.0
  0
SPLINE
  5
49F
330
225
100
AcDbEntity
  8
7_ALL_FEATURES
  6
Continuous
 62
     7
100
AcDbSpline
 70
     0
 71
     3
 72
     9
 73
     5
 74
     0
 42
0.000000001
 43
0.0000001
 40
0.0
 40
0.0
 40
0.0
 40
0.0
 40
0.5037258554
 40
1.0
 40
1.0
 40
1.0
 40
1.0
 10
40.4482854768
 20
58.8391947797
 30
0.0
 10
41.1126198976
 20
59.0094232672
 30
0.0
 10
42.4517839597
 20
59.2732544674
 30
0.0
 10
43.813118568
 20
59.3756975531
 30
0.0
 10
44.4887005992
 20
59.3854340846
 30
0.0
  0
SPLINE
  5
4A0
330
225
100
AcDbEntity
  8
7_ALL_FEATURES
  6
Continuous
 62
     7
100
AcDbSpline
 70
     0
 71
     3
 72
    18
 73
    14
 74
     0
 42
0.000000001
 43
0.0000001
 40
0.0
 40
0.0
 40
0.0
 40
0.0
 40
0.0420402234
 40
0.0925159298
 40
0.2154976256
 40
0.3603352913
 40
0.5155209427
 40
0.6684265274
 40
0.8066635395
 40
0.8668500406
 40
0.9195805252
 40
0.9640654382
 40
1.0
 40
1.0
 40
1.0
 40
1.0
 10
40.2637764562
 20
55.0309630355
 30
0.0
 10
40.2379608326
 20
55.0774743848
 30
0.0
 10
40.1901070522
 20
55.1847736512
 30
0.0
 10
40.1054959009
 20
55.4442687957
 30
0.0
 10
40.026647024
 20
55.8405031609
 30
0.0
 10
39.9719284847
 20
56.3733989816
 30
0.0
 10
39.9583305712
 20
56.9469712926
 30
0.0
 10
39.9870477319
 20
57.5114656092
 30
0.0
 10
40.0459563804
 20
57.9529238583
 30
0.0
 10
40.1152992444
 20
58.2632500433
 30
0.0
 10
40.1725779137
 20
58.4542739846
 30
0.0
 10
40.2361609594
 20
58.6105434256
 30
0.0
 10
40.287324523
 20
58.699306979
 30
0.0
 10
40.314740868
 20
58.735581382
 30
0.0
  0
SPLINE
  5
4A1
330
225
100
AcDbEntity
  8
7_ALL_FEATURES
  6
Continuous
 62
     7
100
AcDbSpline
 70
     0
 71
     3
 72
     9
 73
     5
 74
     0
 42
0.000000001
 43
0.0000001
 40
0.0
 40
0.0
 40
0.0
 40
0.0
 40
0.2965939303
 40
1.0
 40
1.0
 40
1.0
 40
1.0
 10
40.314740868
 20
58.735581382
 30
0.0
 10
40.3249094838
 20
58.7490354171
 30
0.0
 10
40.361024882
 20
58.7924353619
 30
0.0
 10
40.4095411038
 20
58.8292669544
 30
0.0
 10
40.4482854768
 20
58.8391947797
 30
0.0
  0
SPLINE
  5
4A2
330
225
100
AcDbEntity
  8
7_ALL_FEATURES
  6
Continuous
 62
     7
100
AcDbSpline
 70
     0
 71
     3
 72
     9
 73
     5
 74
     0
 42
0.000000001
 43
0.0000001
 40
0.0
 40
0.0
 40
0.0
 40
0.0
 40
0.5629503827
 40
1.0
 40
1.0
 40
1.0
 40
1.0
 10
49.7988301646
 20
37.8519004848
 30
0.0
 10
49.8487793395
 20
37.761908333
 30
0.0
 10
49.9479463532
 20
37.6074535024
 30
0.0
 10
50.0840285121
 20
37.4793072481
 30
0.0
 10
50.1531068381
 20
37.4391427521
 30
0.0
  0
SPLINE
  5
4A3
330
225
100
AcDbEntity
  8
7_ALL_FEATURES
  6
Continuous
 62
     7
100
AcDbSpline
 70
     0
 71
     3
 72
     9
 73
     5
 74
     0
 42
0.000000001
 43
0.0000001
 40
0.0
 40
0.0
 40
0.0
 40
0.0
 40
0.5169233787
 40
1.0
 40
1.0
 40
1.0
 40
1.0
 10
50.1581828122
 20
37.4362312271
 30
0.0
 10
50.1876527415
 20
37.4195586469
 30
0.0
 10
50.2483172254
 20
37.3930396522
 30
0.0
 10
50.3140961629
 20
37.38343942
 30
0.0
 10
50.3457384393
 20
37.38343942
 30
0.0
  0
SPLINE
  5
4A4
330
225
100
AcDbEntity
  8
02___PRT_ALL_AXES
  6
Continuous
 62
     7
100
AcDbSpline
 70
     0
 71
     3
 72
    13
 73
     9
 74
     0
 42
0.000000001
 43
0.0000001
 40
0.0
 40
0.0
 40
0.0
 40
0.0
 40
0.3268579447
 40
0.619669034
 40
0.7439942035
 40
0.8496679392
 40
0.9349855154
 40
1.0
 40
1.0
 40
1.0
 40
1.0
 10
104.2674082339
 20
48.38343942
 30
0.0
 10
104.2674082339
 20
48.0803747992
 30
0.0
 10
104.2915676871
 20
47.5056217807
 30
0.0
 10
104.382968405
 20
46.8202187951
 30
0.0
 10
104.4955831672
 20
46.3483510443
 30
0.0
 10
104.5883149749
 20
46.0703802341
 30
0.0
 10
104.6906918838
 20
45.8557707662
 30
0.0
 10
104.7755682131
 20
45.7422589386
 30
0.0
 10
104.820780805
 20
45.7023876615
 30
0.0
  0
SPLINE
  5
4A5
330
225
100
AcDbEntity
  8
02___PRT_ALL_AXES
  6
Continuous
 62
     7
100
AcDbSpline
 70
     0
 71
     3
 72
     9
 73
     5
 74
     0
 42
0.000000001
 43
0.0000001
 40
0.0
 40
0.0
 40
0.0
 40
0.0
 40
0.2676792835
 40
1.0
 40
1.0
 40
1.0
 40
1.0
 10
104.820780805
 20
45.7023876615
 30
0.0
 10
104.8268805945
 20
45.6970084874
 30
0.0
 10
104.8502546664
 20
45.6776142485
 30
0.0
 10
104.8762683962
 20
45.6612007507
 30
0.0
 10
104.8965473074
 20
45.6520451835
 30
0.0
  0
SPLINE
  5
4A6
330
225
100
AcDbEntity
  8
7_ALL_FEATURES
  6
Continuous
 62
     7
100
AcDbSpline
 70
     0
 71
     3
 72
    11
 73
     7
 74
     0
 42
0.000000001
 43
0.0000001
 40
0.0
 40
0.0
 40
0.0
 40
0.0
 40
0.191756107
 40
0.4116850297
 40
0.6781763106
 40
1.0
 40
1.0
 40
1.0
 40
1.0
 10
106.2451808741
 20
37.38343942
 30
0.0
 10
106.2931719757
 20
37.38343942
 30
0.0
 10
106.3969029305
 20
37.4071701831
 30
0.0
 10
106.5392928309
 20
37.5041002654
 30
0.0
 10
106.6745128225
 20
37.6562672062
 30
0.0
 10
106.7530016435
 20
37.7814775254
 30
0.0
 10
106.7920891489
 20
37.8519004848
 30
0.0
  0
SPLINE
  5
4A7
330
225
100
AcDbEntity
  8
7_ALL_FEATURES
  6
Continuous
 62
     7
100
AcDbSpline
 70
     0
 71
     3
 72
     9
 73
     5
 74
     0
 42
0.000000001
 43
0.0000001
 40
0.0
 40
0.0
 40
0.0
 40
0.0
 40
0.5037432255
 40
1.0
 40
1.0
 40
1.0
 40
1.0
 10
116.1426338367
 20
58.8391947797
 30
0.0
 10
115.4390928475
 20
59.0194695249
 30
0.0
 10
114.0195644716
 20
59.2942106089
 30
0.0
 10
112.5763520262
 20
59.3871731834
 30
0.0
 10
111.8608750515
 20
59.387173194
 30
0.0
  0
SPLINE
  5
4A8
330
225
100
AcDbEntity
  8
7_ALL_FEATURES
  6
Continuous
 62
     7
100
AcDbSpline
 70
     0
 71
     3
 72
    21
 73
    17
 74
     0
 42
0.000000001
 43
0.0000001
 40
0.0
 40
0.0
 40
0.0
 40
0.0
 40
0.0451979667
 40
0.1002766099
 40
0.1641969728
 40
0.2356013441
 40
0.3938142431
 40
0.5593335505
 40
0.6396371042
 40
0.7155840758
 40
0.7853146332
 40
0.8471879594
 40
0.8999093044
 40
0.9426507141
 40
0.9754459455
 40
1.0
 40
1.0
 40
1.0
 40
1.0
 10
116.3271428573
 20
55.0309630355
 30
0.0
 10
116.3561487758
 20
55.0832222576
 30
0.0
 10
116.4091903
 20
55.2053729924
 30
0.0
 10
116.4734037967
 20
55.4130151522
 30
0.0
 10
116.5283051964
 20
55.6589882785
 30
0.0
 10
116.589032789
 20
56.0425617274
 30
0.0
 10
116.6298078875
 20
56.5643235985
 30
0.0
 10
116.6273025567
 20
57.0992462403
 30
0.0
 10
116.5976062664
 20
57.5238440446
 30
0.0
 10
116.5626536171
 20
57.8207564695
 30
0.0
 10
116.5158656332
 20
58.0913631812
 30
0.0
 10
116.4584824527
 20
58.3284941716
 30
0.0
 10
116.3924613562
 20
58.5261388945
 30
0.0
 10
116.3189466659
 20
58.6797632317
 30
0.0
 10
116.2403286769
 20
58.7873541054
 30
0.0
 10
116.1740876628
 20
58.831135078
 30
0.0
 10
116.1426338367
 20
58.8391947797
 30
0.0
  0
SPLINE
  5
4A9
330
225
100
AcDbEntity
  8
02___PRT_ALL_AXES
  6
Continuous
 62
     7
100
AcDbSpline
 70
     0
 71
     3
 72
     9
 73
     5
 74
     0
 42
0.000000001
 43
0.0000001
 40
0.0
 40
0.0
 40
0.0
 40
0.0
 40
0.4642191799
 40
1.0
 40
1.0
 40
1.0
 40
1.0
 10
104.979160608
 20
51.13343942
 30
0.0
 10
104.9519776985
 20
51.13343942
 30
0.0
 10
104.8930649747
 20
51.1195217093
 30
0.0
 10
104.8443114107
 20
51.0852419309
 30
0.0
 10
104.820780805
 20
51.0644911785
 30
0.0
  0
SPLINE
  5
4AA
330
225
100
AcDbEntity
  8
02___PRT_ALL_AXES
  6
Continuous
 62
     7
100
AcDbSpline
 70
     0
 71
     3
 72
     9
 73
     5
 74
     0
 42
0.000000001
 43
0.0000001
 40
0.0
 40
0.0
 40
0.0
 40
0.0
 40
0.4466005618
 40
1.0
 40
1.0
 40
1.0
 40
1.0
 10
104.820780805
 20
51.0644911785
 30
0.0
 10
104.7879483852
 20
51.0355375075
 30
0.0
 10
104.7246422104
 20
50.9593216387
 30
0.0
 10
104.6760737392
 20
50.873886356
 30
0.0
 10
104.6518295615
 20
50.8253621542
 30
0.0
  0
SPLINE
  5
4AB
330
225
100
AcDbEntity
  8
02___PRT_ALL_AXES
  6
Continuous
 62
     7
100
AcDbSpline
 70
     0
 71
     3
 72
    12
 73
     8
 74
     0
 42
0.000000001
 43
0.0000001
 40
0.0
 40
0.0
 40
0.0
 40
0.0
 40
0.0851810389
 40
0.1850823254
 40
0.4237175194
 40
0.7015475219
 40
1.0
 40
1.0
 40
1.0
 40
1.0
 10
104.6518295615
 20
50.8253621542
 30
0.0
 10
104.6202541055
 20
50.7621645562
 30
0.0
 10
104.5613169324
 20
50.6200103849
 30
0.0
 10
104.4566646165
 20
50.2842419615
 30
0.0
 10
104.3566824664
 20
49.7815980192
 30
0.0
 10
104.2837988589
 20
49.1091527432
 30
0.0
 10
104.2674082339
 20
48.6309670501
 30
0.0
 10
104.2674082339
 20
48.38343942
 30
0.0
  0
SPLINE
  5
4AC
330
225
100
AcDbEntity
  8
7_ALL_FEATURES
  6
Continuous
 62
     7
100
AcDbSpline
 70
     0
 71
     3
 72
    10
 73
     6
 74
     0
 42
0.000000001
 43
0.0000001
 40
0.0
 40
0.0
 40
0.0
 40
0.0
 40
0.2750222658
 40
0.5392859605
 40
1.0
 40
1.0
 40
1.0
 40
1.0
 10
95.8998905651
 20
38.38343942
 30
0.0
 10
95.8998905651
 20
38.2968580416
 30
0.0
 10
95.9141213323
 20
38.1264088853
 30
0.0
 10
95.9931837012
 20
37.8218369977
 30
0.0
 10
96.113390157
 20
37.6143442438
 30
0.0
 10
96.22128437
 20
37.5174140162
 30
0.0
  0
SPLINE
  5
4AD
330
225
100
AcDbEntity
  8
7_ALL_FEATURES
  6
Continuous
 62
     7
100
AcDbSpline
 70
     0
 71
     3
 72
     9
 73
     5
 74
     0
 42
0.000000001
 43
0.0000001
 40
0.0
 40
0.0
 40
0.0
 40
0.0
 40
0.2608561291
 40
1.0
 40
1.0
 40
1.0
 40
1.0
 10
96.22128437
 20
37.5174140162
 30
0.0
 10
96.2332447114
 20
37.5066690597
 30
0.0
 10
96.28057858
 20
37.4671991286
 30
0.0
 10
96.3342572922
 20
37.4350310223
 30
0.0
 10
96.3763124995
 20
37.4175135937
 30
0.0
  0
SPLINE
  5
4AE
330
225
100
AcDbEntity
  8
7_ALL_FEATURES
  6
Continuous
 62
     7
100
AcDbSpline
 70
     0
 71
     3
 72
     9
 73
     5
 74
     0
 42
0.000000001
 43
0.0000001
 40
0.0
 40
0.0
 40
0.0
 40
0.0
 40
0.2558795506
 40
1.0
 40
1.0
 40
1.0
 40
1.0
 10
96.3763124995
 20
37.4175135937
 30
0.0
 10
96.3897320676
 20
37.4119238857
 30
0.0
 10
96.4431414278
 20
37.3924973546
 30
0.0
 10
96.5004027607
 20
37.38343942
 30
0.0
 10
96.5426781748
 20
37.38343942
 30
0.0
  0
SPLINE
  5
4AF
330
225
100
AcDbEntity
  8
7_ALL_FEATURES
  6
Continuous
 62
     7
100
AcDbSpline
 70
     0
 71
     3
 72
     9
 73
     5
 74
     0
 42
0.000000001
 43
0.0000001
 40
0.0
 40
0.0
 40
0.0
 40
0.0
 40
0.2465292803
 40
1.0
 40
1.0
 40
1.0
 40
1.0
 10
96.5426781748
 20
48.4142093169
 30
0.0
 10
96.5286710294
 20
48.4142093169
 30
0.0
 10
96.4718714318
 20
48.4113090308
 30
0.0
 10
96.4158314896
 20
48.3965961509
 30
0.0
 10
96.3763124995
 20
48.3801351432
 30
0.0
  0
SPLINE
  5
4B0
330
225
100
AcDbEntity
  8
7_ALL_FEATURES
  6
Continuous
 62
     7
100
AcDbSpline
 70
     0
 71
     3
 72
     9
 73
     5
 74
     0
 42
0.000000001
 43
0.0000001
 40
0.0
 40
0.0
 40
0.0
 40
0.0
 40
0.2407738826
 40
1.0
 40
1.0
 40
1.0
 40
1.0
 10
96.3763124995
 20
48.3801351432
 30
0.0
 10
96.3626111217
 20
48.3744280519
 30
0.0
 10
96.3068319522
 20
48.3480391485
 30
0.0
 10
96.2561002791
 20
48.3115127096
 30
0.0
 10
96.22128437
 20
48.2802347207
 30
0.0
  0
SPLINE
  5
4B1
330
225
100
AcDbEntity
  8
7_ALL_FEATURES
  6
Continuous
 62
     7
100
AcDbSpline
 70
     0
 71
     3
 72
    10
 73
     6
 74
     0
 42
0.000000001
 43
0.0000001
 40
0.0
 40
0.0
 40
0.0
 40
0.0
 40
0.4607140395
 40
0.7249777342
 40
1.0
 40
1.0
 40
1.0
 40
1.0
 10
96.22128437
 20
48.2802347207
 30
0.0
 10
96.113390157
 20
48.183304493
 30
0.0
 10
95.9931837012
 20
47.9758117392
 30
0.0
 10
95.9141213323
 20
47.6712398516
 30
0.0
 10
95.8998905651
 20
47.5007906953
 30
0.0
 10
95.8998905651
 20
47.4142093169
 30
0.0
  0
SPLINE
  5
4B2
330
225
100
AcDbEntity
  8
7_ALL_FEATURES
  6
Continuous
 62
     7
100
AcDbSpline
 70
     0
 71
     3
 72
     9
 73
     5
 74
     0
 42
0.000000001
 43
0.0000001
 40
0.0
 40
0.0
 40
0.0
 40
0.0
 40
0.2415699119
 40
1.0
 40
1.0
 40
1.0
 40
1.0
 10
106.0404395066
 20
58.3736691417
 30
0.0
 10
106.0258794768
 20
58.3685881621
 30
0.0
 10
105.9662311383
 20
58.3457783548
 30
0.0
 10
105.9092864246
 20
58.3161288591
 30
0.0
 10
105.8680015767
 20
58.2908372356
 30
0.0
  0
SPLINE
  5
4B3
330
225
100
AcDbEntity
  8
7_ALL_FEATURES
  6
Continuous
 62
     7
100
AcDbSpline
 70
     0
 71
     3
 72
    18
 73
    14
 74
     0
 42
0.000000001
 43
0.0000001
 40
0.0
 40
0.0
 40
0.0
 40
0.0
 40
0.0278344809
 40
0.0602989418
 40
0.0979736014
 40
0.1411096641
 40
0.1897347763
 40
0.2437304167
 40
0.3668377643
 40
0.5078153275
 40
0.6631394745
 40
0.8286862203
 40
1.0
 40
1.0
 40
1.0
 40
1.0
 10
105.8680015767
 20
58.2908372356
 30
0.0
 10
105.7891892897
 20
58.2425558252
 30
0.0
 10
105.6321456597
 20
58.11538
 30
0.0
 10
105.4196638869
 20
57.8676029254
 30
0.0
 10
105.2139650604
 20
57.55167829
 30
0.0
 10
105.0162159868
 20
57.1694879865
 30
0.0
 10
104.8275074651
 20
56.7233799974
 30
0.0
 10
104.5788903201
 20
56.0158769779
 30
0.0
 10
104.3077548893
 20
54.9934749837
 30
0.0
 10
104.049422055
 20
53.6241315767
 30
0.0
 10
103.8540495047
 20
52.1022451419
 30
0.0
 10
103.7276241996
 20
50.4722437402
 30
0.0
 10
103.6923190604
 20
49.3537959131
 30
0.0
 10
103.6868487087
 20
48.7849680644
 30
0.0
  0
SPLINE
  5
4B4
330
225
100
AcDbEntity
  8
7_ALL_FEATURES
  6
Continuous
 62
     7
100
AcDbSpline
 70
     0
 71
     3
 72
     9
 73
     5
 74
     0
 42
0.000000001
 43
0.0000001
 40
0.0
 40
0.0
 40
0.0
 40
0.0
 40
0.4932114066
 40
1.0
 40
1.0
 40
1.0
 40
1.0
 10
111.6200653555
 20
59.3854418354
 30
0.0
 10
110.6848410126
 20
59.3719938319
 30
0.0
 10
108.7877717497
 20
59.1842040446
 30
0.0
 10
106.9478438916
 20
58.6903239314
 30
0.0
 10
106.0404395066
 20
58.3736691417
 30
0.0
  0
SPLINE
  5
4B5
330
225
100
AcDbEntity
  8
7_ALL_FEATURES
  6
Continuous
 62
     7
100
AcDbSpline
 70
     0
 71
     3
 72
    11
 73
     7
 74
     0
 42
0.000000001
 43
0.0000001
 40
0.0
 40
0.0
 40
0.0
 40
0.0
 40
0.2020463724
 40
0.4265054732
 40
0.6893958756
 40
1.0
 40
1.0
 40
1.0
 40
1.0
 10
50.1042569828
 20
37.38343942
 30
0.0
 10
50.063434818
 20
37.38343942
 30
0.0
 10
49.9767179386
 20
37.4000590787
 30
0.0
 10
49.8542802634
 20
37.4701300124
 30
0.0
 10
49.7366279435
 20
37.5819057712
 30
0.0
 10
49.6671143391
 20
37.6751749785
 30
0.0
 10
49.6325028645
 20
37.7275229089
 30
0.0
  0
SPLINE
  5
4B6
330
225
100
AcDbEntity
  8
7_ALL_FEATURES
  6
Continuous
 62
     7
100
AcDbSpline
 70
     0
 71
     3
 72
     9
 73
     5
 74
     0
 42
0.000000001
 43
0.0000001
 40
0.0
 40
0.0
 40
0.0
 40
0.0
 40
0.240674739
 40
1.0
 40
1.0
 40
1.0
 40
1.0
 10
49.6325028645
 20
37.7275229089
 30
0.0
 10
49.6260720614
 20
37.7372491409
 30
0.0
 10
49.5997905442
 20
37.7779507611
 30
0.0
 10
49.5752013736
 20
37.8197357935
 30
0.0
 10
49.557348708
 20
37.8519004848
 30
0.0
  0
SPLINE
  5
4B7
330
225
100
AcDbEntity
  8
7_ALL_FEATURES
  6
Continuous
 62
     7
100
AcDbSpline
 70
     0
 71
     3
 72
     9
 73
     5
 74
     0
 42
0.000000001
 43
0.0000001
 40
0.0
 40
0.0
 40
0.0
 40
0.0
 40
0.5033555705
 40
1.0
 40
1.0
 40
1.0
 40
1.0
 10
40.4391820098
 20
58.8971164068
 30
0.0
 10
41.1055063889
 20
59.0585500488
 30
0.0
 10
42.4488017117
 20
59.3041936875
 30
0.0
 10
43.8121025962
 20
59.387173184
 30
0.0
 10
44.4885628054
 20
59.387173194
 30
0.0
  0
SPLINE
  5
4B8
330
225
100
AcDbEntity
  8
7_ALL_FEATURES
  6
Continuous
 62
     7
100
AcDbSpline
 70
     0
 71
     3
 72
    21
 73
    17
 74
     0
 42
0.000000001
 43
0.0000001
 40
0.0
 40
0.0
 40
0.0
 40
0.0
 40
0.0451979667
 40
0.1002766099
 40
0.1641969728
 40
0.2356013441
 40
0.3938142431
 40
0.5593335505
 40
0.6396371042
 40
0.7155840758
 40
0.7853146332
 40
0.8471879594
 40
0.8999093044
 40
0.9426507141
 40
0.9754459455
 40
1.0
 40
1.0
 40
1.0
 40
1.0
 10
40.0222949996
 20
55.0309630355
 30
0.0
 10
39.9932890811
 20
55.0832222576
 30
0.0
 10
39.9402475569
 20
55.2053729924
 30
0.0
 10
39.8760340602
 20
55.4130151522
 30
0.0
 10
39.8211326606
 20
55.6589882785
 30
0.0
 10
39.7604050679
 20
56.0425617274
 30
0.0
 10
39.7196299694
 20
56.5643235985
 30
0.0
 10
39.7221353002
 20
57.0992462403
 30
0.0
 10
39.7518315905
 20
57.5238440446
 30
0.0
 10
39.7867842398
 20
57.8207564695
 30
0.0
 10
39.8335722238
 20
58.0913631812
 30
0.0
 10
39.8909554042
 20
58.3284941716
 30
0.0
 10
39.9569765008
 20
58.5261388945
 30
0.0
 10
40.030491191
 20
58.6797632317
 30
0.0
 10
40.1091091801
 20
58.7873541054
 30
0.0
 10
40.1753501941
 20
58.831135078
 30
0.0
 10
40.2068040203
 20
58.8391947797
 30
0.0
  0
SPLINE
  5
4B9
330
225
100
AcDbEntity
  8
02___PRT_ALL_AXES
  6
Continuous
 62
     7
100
AcDbSpline
 70
     0
 71
     3
 72
    15
 73
    11
 74
     0
 42
0.000000001
 43
0.0000001
 40
0.0
 40
0.0
 40
0.0
 40
0.0
 40
0.1271191196
 40
0.2539136064
 40
0.3801207195
 40
0.5055520483
 40
0.6301380875
 40
0.7539382352
 40
0.8771334232
 40
1.0
 40
1.0
 40
1.0
 40
1.0
 10
218.1138374029
 20
213.2791929062
 30
0.0
 10
217.9178615947
 20
213.2791929062
 30
0.0
 10
217.5253936253
 20
213.2419446791
 30
0.0
 10
216.9597167098
 20
213.0763606685
 30
0.0
 10
216.4379148405
 20
212.8073364915
 30
0.0
 10
215.980277275
 20
212.4450374971
 30
0.0
 10
215.604390824
 20
212.0032501973
 30
0.0
 10
215.3248752693
 20
211.4987711129
 30
0.0
 10
215.1526363975
 20
210.9513031534
 30
0.0
 10
215.113840135
 20
210.5708352154
 30
0.0
 10
215.113840135
 20
210.3814154273
 30
0.0
  0
SPLINE
  5
4BA
330
225
100
AcDbEntity
  8
02___PRT_ALL_AXES
  6
Continuous
 62
     7
100
AcDbSpline
 70
     0
 71
     3
 72
    15
 73
    11
 74
     0
 42
0.000000001
 43
0.0000001
 40
0.0
 40
0.0
 40
0.0
 40
0.0
 40
0.1271191196
 40
0.2539136064
 40
0.3801207195
 40
0.5055520483
 40
0.6301380875
 40
0.7539382352
 40
0.8771334232
 40
1.0
 40
1.0
 40
1.0
 40
1.0
 10
218.1138374029
 20
213.2791929062
 30
0.0
 10
218.3098132112
 20
213.2791929062
 30
0.0
 10
218.7022811806
 20
213.2419446791
 30
0.0
 10
219.2679580961
 20
213.0763606685
 30
0.0
 10
219.7897599654
 20
212.8073364915
 30
0.0
 10
220.2473975309
 20
212.4450374971
 30
0.0
 10
220.6232839819
 20
212.0032501973
 30
0.0
 10
220.9027995366
 20
211.4987711129
 30
0.0
 10
221.0750384084
 20
210.9513031534
 30
0.0
 10
221.1138346709
 20
210.5708352154
 30
0.0
 10
221.1138346709
 20
210.3814154273
 30
0.0
  0
SPLINE
  5
4BB
330
225
100
AcDbEntity
  8
02___PRT_ALL_AXES
  6
Continuous
 62
     7
100
AcDbSpline
 70
     0
 71
     3
 72
    15
 73
    11
 74
     0
 42
0.000000001
 43
0.0000001
 40
0.0
 40
0.0
 40
0.0
 40
0.0
 40
0.1228665768
 40
0.2460617648
 40
0.3698619125
 40
0.4944479517
 40
0.6198792805
 40
0.7460863936
 40
0.8728808804
 40
1.0
 40
1.0
 40
1.0
 40
1.0
 10
215.113840135
 20
210.3296516183
 30
0.0
 10
215.113840135
 20
210.1402318302
 30
0.0
 10
215.1526363975
 20
209.7597638923
 30
0.0
 10
215.3248752693
 20
209.2122959327
 30
0.0
 10
215.604390824
 20
208.7078168483
 30
0.0
 10
215.980277275
 20
208.2660295485
 30
0.0
 10
216.4379148405
 20
207.9037305541
 30
0.0
 10
216.9597167098
 20
207.6347063771
 30
0.0
 10
217.5253936253
 20
207.4691223665
 30
0.0
 10
217.9178615947
 20
207.4318741394
 30
0.0
 10
218.1138374029
 20
207.4318741394
 30
0.0
  0
SPLINE
  5
4BC
330
225
100
AcDbEntity
  8
02___PRT_ALL_AXES
  6
Continuous
 62
     7
100
AcDbSpline
 70
     0
 71
     3
 72
    15
 73
    11
 74
     0
 42
0.000000001
 43
0.0000001
 40
0.0
 40
0.0
 40
0.0
 40
0.0
 40
0.1228665768
 40
0.2460617648
 40
0.3698619125
 40
0.4944479517
 40
0.6198792805
 40
0.7460863936
 40
0.8728808804
 40
1.0
 40
1.0
 40
1.0
 40
1.0
 10
221.1138346709
 20
210.3296516183
 30
0.0
 10
221.1138346709
 20
210.1402318302
 30
0.0
 10
221.0750384084
 20
209.7597638923
 30
0.0
 10
220.9027995366
 20
209.2122959327
 30
0.0
 10
220.6232839819
 20
208.7078168483
 30
0.0
 10
220.2473975309
 20
208.2660295485
 30
0.0
 10
219.7897599654
 20
207.9037305541
 30
0.0
 10
219.2679580961
 20
207.6347063771
 30
0.0
 10
218.7022811806
 20
207.4691223665
 30
0.0
 10
218.3098132112
 20
207.4318741394
 30
0.0
 10
218.1138374029
 20
207.4318741394
 30
0.0
  0
SPLINE
  5
4BD
330
225
100
AcDbEntity
  8
02___PRT_ALL_AXES
  6
Continuous
 62
     7
100
AcDbSpline
 70
     0
 71
     3
 72
    15
 73
    11
 74
     0
 42
0.000000001
 43
0.0000001
 40
0.0
 40
0.0
 40
0.0
 40
0.0
 40
0.1270945174
 40
0.2538712681
 40
0.3800728599
 40
0.5055119421
 40
0.6301157989
 40
0.7539359915
 40
0.8771425846
 40
1.0
 40
1.0
 40
1.0
 40
1.0
 10
218.1138374029
 20
213.2274290972
 30
0.0
 10
217.9200800496
 20
213.2274290972
 30
0.0
 10
217.5320670647
 20
213.1910231024
 30
0.0
 10
216.9723023187
 20
213.0291368765
 30
0.0
 10
216.4549600439
 20
212.7659734898
 30
0.0
 10
215.9997037619
 20
212.4112487573
 30
0.0
 10
215.6236243515
 20
211.9781651675
 30
0.0
 10
215.3410169046
 20
211.4828067931
 30
0.0
 10
215.1626522096
 20
210.9440853443
 30
0.0
 10
215.1177761334
 20
210.5686397943
 30
0.0
 10
215.1143176901
 20
210.3813738944
 30
0.0
  0
SPLINE
  5
4BE
330
225
100
AcDbEntity
  8
02___PRT_ALL_AXES
  6
Continuous
 62
     7
100
AcDbSpline
 70
     0
 71
     3
 72
    15
 73
    11
 74
     0
 42
0.000000001
 43
0.0000001
 40
0.0
 40
0.0
 40
0.0
 40
0.0
 40
0.1270945174
 40
0.2538712681
 40
0.3800728599
 40
0.5055119421
 40
0.6301157989
 40
0.7539359915
 40
0.8771425846
 40
1.0
 40
1.0
 40
1.0
 40
1.0
 10
218.1138374029
 20
213.2274290972
 30
0.0
 10
218.3075947563
 20
213.2274290972
 30
0.0
 10
218.6956077412
 20
213.1910231024
 30
0.0
 10
219.2553724872
 20
213.0291368765
 30
0.0
 10
219.7727147619
 20
212.7659734898
 30
0.0
 10
220.227971044
 20
212.4112487573
 30
0.0
 10
220.6040504544
 20
211.9781651675
 30
0.0
 10
220.8866579013
 20
211.4828067931
 30
0.0
 10
221.0650225963
 20
210.9440853443
 30
0.0
 10
221.1098986725
 20
210.5686397943
 30
0.0
 10
221.1133571158
 20
210.3813738944
 30
0.0
  0
SPLINE
  5
4BF
330
225
100
AcDbEntity
  8
02___PRT_ALL_AXES
  6
Continuous
 62
     7
100
AcDbSpline
 70
     0
 71
     3
 72
    15
 73
    11
 74
     0
 42
0.000000001
 43
0.0000001
 40
0.0
 40
0.0
 40
0.0
 40
0.0
 40
0.1271191196
 40
0.2539136064
 40
0.3801207195
 40
0.5055520483
 40
0.6301380875
 40
0.7539382352
 40
0.8771334232
 40
1.0
 40
1.0
 40
1.0
 40
1.0
 10
233.1138374029
 20
213.2791929062
 30
0.0
 10
232.9178615947
 20
213.2791929062
 30
0.0
 10
232.5253936253
 20
213.2419446791
 30
0.0
 10
231.9597167098
 20
213.0763606685
 30
0.0
 10
231.4379148405
 20
212.8073364915
 30
0.0
 10
230.980277275
 20
212.4450374971
 30
0.0
 10
230.604390824
 20
212.0032501973
 30
0.0
 10
230.3248752693
 20
211.4987711129
 30
0.0
 10
230.1526363975
 20
210.9513031534
 30
0.0
 10
230.113840135
 20
210.5708352154
 30
0.0
 10
230.113840135
 20
210.3814154273
 30
0.0
  0
SPLINE
  5
4C0
330
225
100
AcDbEntity
  8
02___PRT_ALL_AXES
  6
Continuous
 62
     7
100
AcDbSpline
 70
     0
 71
     3
 72
    15
 73
    11
 74
     0
 42
0.000000001
 43
0.0000001
 40
0.0
 40
0.0
 40
0.0
 40
0.0
 40
0.1271191196
 40
0.2539136064
 40
0.3801207195
 40
0.5055520483
 40
0.6301380875
 40
0.7539382352
 40
0.8771334232
 40
1.0
 40
1.0
 40
1.0
 40
1.0
 10
233.1138374029
 20
213.2791929062
 30
0.0
 10
233.3098132112
 20
213.2791929062
 30
0.0
 10
233.7022811806
 20
213.2419446791
 30
0.0
 10
234.2679580961
 20
213.0763606685
 30
0.0
 10
234.7897599654
 20
212.8073364915
 30
0.0
 10
235.2473975309
 20
212.4450374971
 30
0.0
 10
235.6232839819
 20
212.0032501973
 30
0.0
 10
235.9027995366
 20
211.4987711129
 30
0.0
 10
236.0750384084
 20
210.9513031534
 30
0.0
 10
236.1138346709
 20
210.5708352154
 30
0.0
 10
236.1138346709
 20
210.3814154273
 30
0.0
  0
SPLINE
  5
4C1
330
225
100
AcDbEntity
  8
02___PRT_ALL_AXES
  6
Continuous
 62
     7
100
AcDbSpline
 70
     0
 71
     3
 72
    15
 73
    11
 74
     0
 42
0.000000001
 43
0.0000001
 40
0.0
 40
0.0
 40
0.0
 40
0.0
 40
0.1228665768
 40
0.2460617648
 40
0.3698619125
 40
0.4944479517
 40
0.6198792805
 40
0.7460863936
 40
0.8728808804
 40
1.0
 40
1.0
 40
1.0
 40
1.0
 10
230.113840135
 20
210.3296516183
 30
0.0
 10
230.113840135
 20
210.1402318302
 30
0.0
 10
230.1526363975
 20
209.7597638923
 30
0.0
 10
230.3248752693
 20
209.2122959327
 30
0.0
 10
230.604390824
 20
208.7078168483
 30
0.0
 10
230.980277275
 20
208.2660295485
 30
0.0
 10
231.4379148405
 20
207.9037305541
 30
0.0
 10
231.9597167098
 20
207.6347063771
 30
0.0
 10
232.5253936253
 20
207.4691223665
 30
0.0
 10
232.9178615947
 20
207.4318741394
 30
0.0
 10
233.1138374029
 20
207.4318741394
 30
0.0
  0
SPLINE
  5
4C2
330
225
100
AcDbEntity
  8
02___PRT_ALL_AXES
  6
Continuous
 62
     7
100
AcDbSpline
 70
     0
 71
     3
 72
    15
 73
    11
 74
     0
 42
0.000000001
 43
0.0000001
 40
0.0
 40
0.0
 40
0.0
 40
0.0
 40
0.1228665768
 40
0.2460617648
 40
0.3698619125
 40
0.4944479517
 40
0.6198792805
 40
0.7460863936
 40
0.8728808804
 40
1.0
 40
1.0
 40
1.0
 40
1.0
 10
236.1138346709
 20
210.3296516183
 30
0.0
 10
236.1138346709
 20
210.1402318302
 30
0.0
 10
236.0750384084
 20
209.7597638923
 30
0.0
 10
235.9027995366
 20
209.2122959327
 30
0.0
 10
235.6232839819
 20
208.7078168483
 30
0.0
 10
235.2473975309
 20
208.2660295485
 30
0.0
 10
234.7897599654
 20
207.9037305541
 30
0.0
 10
234.2679580961
 20
207.6347063771
 30
0.0
 10
233.7022811806
 20
207.4691223665
 30
0.0
 10
233.3098132112
 20
207.4318741394
 30
0.0
 10
233.1138374029
 20
207.4318741394
 30
0.0
  0
SPLINE
  5
4C3
330
225
100
AcDbEntity
  8
02___PRT_ALL_AXES
  6
Continuous
 62
     7
100
AcDbSpline
 70
     0
 71
     3
 72
    15
 73
    11
 74
     0
 42
0.000000001
 43
0.0000001
 40
0.0
 40
0.0
 40
0.0
 40
0.0
 40
0.1270945174
 40
0.2538712681
 40
0.3800728599
 40
0.5055119421
 40
0.6301157989
 40
0.7539359915
 40
0.8771425846
 40
1.0
 40
1.0
 40
1.0
 40
1.0
 10
233.1138374029
 20
213.2274290972
 30
0.0
 10
232.9200800496
 20
213.2274290972
 30
0.0
 10
232.5320670647
 20
213.1910231024
 30
0.0
 10
231.9723023187
 20
213.0291368765
 30
0.0
 10
231.4549600439
 20
212.7659734898
 30
0.0
 10
230.9997037619
 20
212.4112487573
 30
0.0
 10
230.6236243515
 20
211.9781651675
 30
0.0
 10
230.3410169046
 20
211.4828067931
 30
0.0
 10
230.1626522096
 20
210.9440853443
 30
0.0
 10
230.1177761334
 20
210.5686397943
 30
0.0
 10
230.1143176901
 20
210.3813738944
 30
0.0
  0
SPLINE
  5
4C4
330
225
100
AcDbEntity
  8
02___PRT_ALL_AXES
  6
Continuous
 62
     7
100
AcDbSpline
 70
     0
 71
     3
 72
    15
 73
    11
 74
     0
 42
0.000000001
 43
0.0000001
 40
0.0
 40
0.0
 40
0.0
 40
0.0
 40
0.1270945174
 40
0.2538712681
 40
0.3800728599
 40
0.5055119421
 40
0.6301157989
 40
0.7539359915
 40
0.8771425846
 40
1.0
 40
1.0
 40
1.0
 40
1.0
 10
233.1138374029
 20
213.2274290972
 30
0.0
 10
233.3075947563
 20
213.2274290972
 30
0.0
 10
233.6956077412
 20
213.1910231024
 30
0.0
 10
234.2553724872
 20
213.0291368765
 30
0.0
 10
234.7727147619
 20
212.7659734898
 30
0.0
 10
235.227971044
 20
212.4112487573
 30
0.0
 10
235.6040504544
 20
211.9781651675
 30
0.0
 10
235.8866579013
 20
211.4828067931
 30
0.0
 10
236.0650225963
 20
210.9440853443
 30
0.0
 10
236.1098986725
 20
210.5686397943
 30
0.0
 10
236.1133571158
 20
210.3813738944
 30
0.0
  0
SPLINE
  5
4C5
330
225
100
AcDbEntity
  8
02___PRT_ALL_AXES
  6
Continuous
 62
     7
100
AcDbSpline
 70
     0
 71
     3
 72
    15
 73
    11
 74
     0
 42
0.000000001
 43
0.0000001
 40
0.0
 40
0.0
 40
0.0
 40
0.0
 40
0.1248834349
 40
0.2498379887
 40
0.3748928066
 40
0.5
 40
0.6251071934
 40
0.7501620113
 40
0.8751165651
 40
1.0
 40
1.0
 40
1.0
 40
1.0
 10
165.0638374029
 20
204.2094256299
 30
0.0
 10
165.0947951993
 20
204.1161807522
 30
0.0
 10
165.1867599193
 20
203.9381597944
 30
0.0
 10
165.3997093477
 20
203.7274510583
 30
0.0
 10
165.6674174138
 20
203.5920619237
 30
0.0
 10
165.9638374029
 20
203.5454902665
 30
0.0
 10
166.2602573921
 20
203.5920619237
 30
0.0
 10
166.5279654582
 20
203.7274510583
 30
0.0
 10
166.7409148866
 20
203.9381597944
 30
0.0
 10
166.8328796066
 20
204.1161807522
 30
0.0
 10
166.8638374029
 20
204.2094256299
 30
0.0
  0
SPLINE
  5
4C6
330
225
100
AcDbEntity
  8
7_ALL_FEATURES
  6
Continuous
 62
     7
100
AcDbSpline
 70
     0
 71
     3
 72
    17
 73
    13
 74
     0
 42
0.000000001
 43
0.0000001
 40
0.0
 40
0.0
 40
0.0
 40
0.0
 40
0.1237598509
 40
0.1863652315
 40
0.249311183
 40
0.3755855701
 40
0.5022504398
 40
0.6284171707
 40
0.7533981705
 40
0.8155650544
 40
0.8774074885
 40
1.0
 40
1.0
 40
1.0
 40
1.0
 10
226.4663137874
 20
182.407567065
 30
0.0
 10
226.3733218833
 20
182.2149404155
 30
0.0
 10
226.181773477
 20
181.9462791743
 30
0.0
 10
225.8522073122
 20
181.6665752194
 30
0.0
 10
225.477774929
 20
181.4412783788
 30
0.0
 10
224.9463797259
 20
181.2772741015
 30
0.0
 10
224.2803349866
 20
181.2903865599
 30
0.0
 10
223.6536994354
 20
181.5102394902
 30
0.0
 10
223.2181688404
 20
181.849479353
 30
0.0
 10
222.9531009767
 20
182.1908065891
 30
0.0
 10
222.7502905051
 20
182.5673094098
 30
0.0
 10
222.6725954167
 20
182.884780921
 30
0.0
 10
222.6580820432
 20
183.0961641044
 30
0.0
  0
SPLINE
  5
4C7
330
225
100
AcDbEntity
  8
7_ALL_FEATURES
  6
Continuous
 62
     7
100
AcDbSpline
 70
     0
 71
     3
 72
    17
 73
    13
 74
     0
 42
0.000000001
 43
0.0000001
 40
0.0
 40
0.0
 40
0.0
 40
0.0
 40
0.1237598509
 40
0.1863652315
 40
0.249311183
 40
0.3755855701
 40
0.5022504398
 40
0.6284171707
 40
0.7533981705
 40
0.8155650544
 40
0.8774074885
 40
1.0
 40
1.0
 40
1.0
 40
1.0
 10
226.4663137874
 20
252.8750122199
 30
0.0
 10
226.3733218833
 20
253.0676388693
 30
0.0
 10
226.181773477
 20
253.3363001106
 30
0.0
 10
225.8522073122
 20
253.6160040655
 30
0.0
 10
225.477774929
 20
253.8413009061
 30
0.0
 10
224.9463797259
 20
254.0053051834
 30
0.0
 10
224.2803349866
 20
253.992192725
 30
0.0
 10
223.6536994354
 20
253.7723397947
 30
0.0
 10
223.2181688404
 20
253.4330999319
 30
0.0
 10
222.9531009767
 20
253.0917726958
 30
0.0
 10
222.7502905051
 20
252.7152698751
 30
0.0
 10
222.6725954167
 20
252.3977983639
 30
0.0
 10
222.6580820432
 20
252.1864151805
 30
0.0
  0
SPLINE
  5
4C8
330
225
100
AcDbEntity
  8
02___PRT_ALL_AXES
  6
Continuous
 62
     7
100
AcDbSpline
 70
     0
 71
     3
 72
    15
 73
    11
 74
     0
 42
0.000000001
 43
0.0000001
 40
0.0
 40
0.0
 40
0.0
 40
0.0
 40
0.1267541011
 40
0.2531839679
 40
0.3791727981
 40
0.5046146012
 40
0.6294273784
 40
0.7535704993
 40
0.8770633056
 40
1.0
 40
1.0
 40
1.0
 40
1.0
 10
220.2654904366
 20
212.3980883021
 30
0.0
 10
220.3687403843
 20
212.3689319567
 30
0.0
 10
220.5707127729
 20
212.2941543379
 30
0.0
 10
220.8513441236
 20
212.1357821852
 30
0.0
 10
221.1024905154
 20
211.9355318864
 30
0.0
 10
221.3175774599
 20
211.6988290608
 30
0.0
 10
221.4910709589
 20
211.4319905026
 30
0.0
 10
221.6184363761
 20
211.1420606964
 30
0.0
 10
221.6963019794
 20
210.8368151751
 30
0.0
 10
221.7138372131
 20
210.6278219048
 30
0.0
 10
221.7138371829
 20
210.5237653779
 30
0.0
  0
SPLINE
  5
4C9
330
225
100
AcDbEntity
  8
02___PRT_ALL_AXES
  6
Continuous
 62
     7
100
AcDbSpline
 70
     0
 71
     3
 72
    11
 73
     7
 74
     0
 42
0.000000001
 43
0.0000001
 40
0.0
 40
0.0
 40
0.0
 40
0.0
 40
0.2520628271
 40
0.5022254667
 40
0.7512293512
 40
1.0
 40
1.0
 40
1.0
 40
1.0
 10
220.9567520033
 20
209.4107204606
 30
0.0
 10
221.0604915227
 20
209.4889208335
 30
0.0
 10
221.2523361932
 20
209.6657289006
 30
0.0
 10
221.4797479022
 20
209.9823325811
 30
0.0
 10
221.6368544267
 20
210.337280534
 30
0.0
 10
221.6903328501
 20
210.5904338759
 30
0.0
 10
221.703701537
 20
210.7179504611
 30
0.0
  0
SPLINE
  5
4CA
330
225
100
AcDbEntity
  8
02___PRT_ALL_AXES
  6
Continuous
 62
     7
100
AcDbSpline
 70
     0
 71
     3
 72
    15
 73
    11
 74
     0
 42
0.000000001
 43
0.0000001
 40
0.0
 40
0.0
 40
0.0
 40
0.0
 40
0.1242477164
 40
0.248340257
 40
0.3724705547
 40
0.4968424383
 40
0.6216491026
 40
0.7470507821
 40
0.8731546804
 40
1.0
 40
1.0
 40
1.0
 40
1.0
 10
221.7138371829
 20
210.5237653779
 30
0.0
 10
221.7138371582
 20
210.4383527654
 30
0.0
 10
221.70207482
 20
210.26739801
 30
0.0
 10
221.649303603
 20
210.0160489383
 30
0.0
 10
221.5623674498
 20
209.7742415675
 30
0.0
 10
221.4428284493
 20
209.5462464559
 30
0.0
 10
221.2928313675
 20
209.3359683696
 30
0.0
 10
221.1150370137
 20
209.1469740061
 30
0.0
 10
220.9126458823
 20
208.982460356
 30
0.0
 10
220.7639936227
 20
208.8911233234
 30
0.0
 10
220.6869075466
 20
208.8503645074
 30
0.0
  0
SPLINE
  5
4CB
330
225
100
AcDbEntity
  8
7_ALL_FEATURES
  6
Continuous
 62
     7
100
AcDbSpline
 70
     0
 71
     3
 72
    15
 73
    11
 74
     0
 42
0.000000001
 43
0.0000001
 40
0.0
 40
0.0
 40
0.0
 40
0.0
 40
0.1228430997
 40
0.2461007235
 40
0.3700043891
 40
0.4946759048
 40
0.6201394274
 40
0.746312366
 40
0.8730101131
 40
1.0
 40
1.0
 40
1.0
 40
1.0
 10
223.1236076812
 20
214.4198079116
 30
0.0
 10
223.179077826
 20
213.8265798879
 30
0.0
 10
223.4049887728
 20
212.6457280707
 30
0.0
 10
224.0745133571
 20
210.9695841794
 30
0.0
 10
225.0518780516
 20
209.4411062904
 30
0.0
 10
226.3032993733
 20
208.1132979683
 30
0.0
 10
227.7856338422
 20
207.031006154
 30
0.0
 10
229.4483048357
 20
206.2308884602
 30
0.0
 10
231.2338558977
 20
205.7397467171
 30
0.0
 10
232.4671389214
 20
205.6294320094
 30
0.0
 10
233.083067506
 20
205.6294320094
 30
0.0
  0
SPLINE
  5
4CC
330
225
100
AcDbEntity
  8
7_ALL_FEATURES
  6
Continuous
 62
     7
100
AcDbSpline
 70
     0
 71
     3
 72
    12
 73
     8
 74
     0
 42
0.000000001
 43
0.0000001
 40
0.0
 40
0.0
 40
0.0
 40
0.0
 40
0.2791992355
 40
0.5420243554
 40
0.7798458242
 40
0.8913639817
 40
1.0
 40
1.0
 40
1.0
 40
1.0
 10
243.1138374029
 20
196.1692229417
 30
0.0
 10
243.242880183
 20
196.1692229417
 30
0.0
 10
243.4951850578
 20
196.2064529026
 30
0.0
 10
243.8242505638
 20
196.3682850887
 30
0.0
 10
244.0210809174
 20
196.5845807325
 30
0.0
 10
244.1004835421
 20
196.7828506186
 30
0.0
 10
244.1138374029
 20
196.8850570259
 30
0.0
 10
244.1138374029
 20
196.9352673848
 30
0.0
  0
SPLINE
  5
4CD
330
225
100
AcDbEntity
  8
7_ALL_FEATURES
  6
Continuous
 62
     7
100
AcDbSpline
 70
     0
 71
     3
 72
    12
 73
     8
 74
     0
 42
0.000000001
 43
0.0000001
 40
0.0
 40
0.0
 40
0.0
 40
0.0
 40
0.1086360183
 40
0.2201541758
 40
0.4579756446
 40
0.7208007645
 40
1.0
 40
1.0
 40
1.0
 40
1.0
 10
233.083067506
 20
196.9352673848
 30
0.0
 10
233.083067506
 20
196.8850570259
 30
0.0
 10
233.0964213669
 20
196.7828506186
 30
0.0
 10
233.1758239915
 20
196.5845807325
 30
0.0
 10
233.3726543451
 20
196.3682850887
 30
0.0
 10
233.7017198512
 20
196.2064529026
 30
0.0
 10
233.954024726
 20
196.1692229417
 30
0.0
 10
234.083067506
 20
196.1692229417
 30
0.0
  0
LINE
  5
4CE
330
225
100
AcDbEntity
  8
7_ALL_FEATURES
  6
Continuous
 62
     7
100
AcDbLine
 10
222.1101126039
 20
236.2066736412
 30
0.0
 11
222.1101036289
 21
236.1419690874
 31
0.0
  0
SPLINE
  5
4CF
330
225
100
AcDbEntity
  8
7_ALL_FEATURES
  6
Continuous
 62
     7
100
AcDbSpline
 70
     0
 71
     3
 72
    16
 73
    12
 74
     0
 42
0.000000001
 43
0.0000001
 40
0.0
 40
0.0
 40
0.0
 40
0.0
 40
0.123880819
 40
0.2490770007
 40
0.3753702119
 40
0.5020325864
 40
0.628214266
 40
0.7532506677
 40
0.8154500732
 40
0.8773206698
 40
1.0
 40
1.0
 40
1.0
 40
1.0
 10
226.442373989
 20
252.8581514155
 30
0.0
 10
226.3460931272
 20
253.04395396
 30
0.0
 10
226.0886283013
 20
253.3878680519
 30
0.0
 10
225.5584768647
 20
253.7542238562
 30
0.0
 10
224.9363449559
 20
253.9403011673
 30
0.0
 10
224.28561504
 20
253.9268460321
 30
0.0
 10
223.6722696604
 20
253.7157713179
 30
0.0
 10
223.2423299831
 20
253.3902408679
 30
0.0
 10
222.9766778965
 20
253.0617032237
 30
0.0
 10
222.7697095683
 20
252.6983446739
 30
0.0
 10
222.6846780771
 20
252.3906042982
 30
0.0
 10
222.6634642881
 20
252.1844557647
 30
0.0
  0
SPLINE
  5
4D0
330
225
100
AcDbEntity
  8
0
  6
Continuous
 62
     2
100
AcDbSpline
 70
     0
 71
     3
 72
    91
 73
    87
 74
     0
 42
0.000000001
 43
0.0000001
 40
0.0
 40
0.0
 40
0.0
 40
0.0
 40
0.0625
 40
0.09375
 40
0.109375
 40
0.125
 40
0.140625
 40
0.1484375
 40
0.15625
 40
0.16015625
 40
0.1640625
 40
0.166015625
 40
0.16796875
 40
0.171875
 40
0.1796875
 40
0.1875
 40
0.203125
 40
0.21875
 40
0.25
 40
0.28125
 40
0.296875
 40
0.3125
 40
0.3203125
 40
0.328125
 40
0.33203125
 40
0.333984375
 40
0.3359375
 40
0.33984375
 40
0.34375
 40
0.3515625
 40
0.359375
 40
0.375
 40
0.390625
 40
0.40625
 40
0.421875
 40
0.4375
 40
0.453125
 40
0.46875
 40
0.4765625
 40
0.484375
 40
0.4921875
 40
0.49609375
 40
0.498046875
 40
0.5
 40
0.501953125
 40
0.50390625
 40
0.5078125
 40
0.515625
 40
0.5234375
 40
0.53125
 40
0.546875
 40
0.5625
 40
0.578125
 40
0.59375
 40
0.609375
 40
0.625
 40
0.640625
 40
0.6484375
 40
0.65625
 40
0.66015625
 40
0.6640625
 40
0.666015625
 40
0.66796875
 40
0.671875
 40
0.6796875
 40
0.6875
 40
0.703125
 40
0.71875
 40
0.75
 40
0.78125
 40
0.796875
 40
0.8125
 40
0.8203125
 40
0.828125
 40
0.83203125
 40
0.833984375
 40
0.8359375
 40
0.83984375
 40
0.84375
 40
0.8515625
 40
0.859375
 40
0.875
 40
0.890625
 40
0.90625
 40
0.9375
 40
1.0
 40
1.0
 40
1.0
 40
1.0
 10
351.3339922498
 20
132.1321460213
 30
0.0
 10
351.3492765953
 20
132.096732678
 30
0.0
 10
351.3722032008
 20
132.0436126998
 30
0.0
 10
351.3989506014
 20
131.9816392633
 30
0.0
 10
351.4142352674
 20
131.9462260546
 30
0.0
 10
351.4256975431
 20
131.9196656341
 30
0.0
 10
351.4352533366
 20
131.8975335874
 30
0.0
 10
351.4428892304
 20
131.8798242779
 30
0.0
 10
351.4476815679
 20
131.8687643212
 30
0.0
 10
351.4514698539
 20
131.8598972058
 30
0.0
 10
351.4539415406
 20
131.8543989528
 30
0.0
 10
351.4556806669
 20
131.8499002721
 30
0.0
 10
351.4582894791
 20
131.8457669492
 30
0.0
 10
351.4632589065
 20
131.8387033583
 30
0.0
 10
351.4701472981
 20
131.8285239604
 30
0.0
 10
351.4812865263
 20
131.8122864132
 30
0.0
 10
351.4951702113
 20
131.7919725232
 30
0.0
 10
351.5174067459
 20
131.7594798391
 30
0.0
 10
351.5451940259
 20
131.7188602584
 30
0.0
 10
351.5729865602
 20
131.6782436552
 30
0.0
 10
351.5952146879
 20
131.6457462071
 30
0.0
 10
351.60911939
 20
131.625444227
 30
0.0
 10
351.6202155332
 20
131.6091822643
 30
0.0
 10
351.6272136076
 20
131.5990650218
 30
0.0
 10
351.631986033
 20
131.5918897932
 30
0.0
 10
351.6349106264
 20
131.5879354181
 30
0.0
 10
351.6385792058
 20
131.5845301254
 30
0.0
 10
351.6429101906
 20
131.5800855047
 30
0.0
 10
351.6499821266
 20
131.5730791774
 30
0.0
 10
351.6587733022
 20
131.5642852936
 30
0.0
 10
351.6728664267
 20
131.550235186
 30
0.0
 10
351.6904734834
 20
131.5326656515
 30
0.0
 10
351.7116059613
 20
131.5115851705
 30
0.0
 10
351.7327373579
 20
131.490503888
 30
0.0
 10
351.7538690695
 20
131.4694228509
 30
0.0
 10
351.7750006026
 20
131.448341634
 30
0.0
 10
351.7961325348
 20
131.4272608907
 30
0.0
 10
351.8137412967
 20
131.4096921759
 30
0.0
 10
351.8278309426
 20
131.3956403961
 30
0.0
 10
351.8383909767
 20
131.3850928423
 30
0.0
 10
351.8472139077
 20
131.3763309474
 30
0.0
 10
351.8533450141
 20
131.3701431956
 30
0.0
 10
351.8569186818
 20
131.3666923182
 30
0.0
 10
351.859401239
 20
131.3638647678
 30
0.0
 10
351.8626394816
 20
131.3619522964
 30
0.0
 10
351.8666935469
 20
131.3590831448
 30
0.0
 10
351.8739109734
 20
131.3542108459
 30
0.0
 10
351.884157375
 20
131.3471726682
 30
0.0
 10
351.89648054
 20
131.338760135
 30
0.0
 10
351.9129018264
 20
131.3275317986
 30
0.0
 10
351.9334317293
 20
131.3135003687
 30
0.0
 10
351.9580661974
 20
131.2966609363
 30
0.0
 10
351.9827010551
 20
131.2798219853
 30
0.0
 10
352.00733577
 20
131.262982825
 30
0.0
 10
352.0319706663
 20
131.2461440205
 30
0.0
 10
352.0566049795
 20
131.229304002
 30
0.0
 10
352.0771353666
 20
131.2152744036
 30
0.0
 10
352.0935556653
 20
131.2040423311
 30
0.0
 10
352.103827483
 20
131.1970413949
 30
0.0
 10
352.1120240255
 20
131.1913968826
 30
0.0
 10
352.1171945782
 20
131.1879689162
 30
0.0
 10
352.1212217355
 20
131.1849978348
 30
0.0
 10
352.125647861
 20
131.1828617035
 30
0.0
 10
352.1335789183
 20
131.1795113436
 30
0.0
 10
352.1448123002
 20
131.1745227439
 30
0.0
 10
352.1628397522
 20
131.1666540814
 30
0.0
 10
352.1853555592
 20
131.1567795104
 30
0.0
 10
352.22139122
 20
131.141001957
 30
0.0
 10
352.266432056
 20
131.1212717852
 30
0.0
 10
352.3114748901
 20
131.1015473337
 30
0.0
 10
352.347507354
 20
131.0857606278
 30
0.0
 10
352.3700311532
 20
131.075908938
 30
0.0
 10
352.3880422212
 20
131.0679933691
 30
0.0
 10
352.3993173125
 20
131.0631241806
 30
0.0
 10
352.4071734551
 20
131.0595593452
 30
0.0
 10
352.4117196639
 20
131.057767004
 30
0.0
 10
352.416480541
 20
131.0568965123
 30
0.0
 10
352.4223581354
 20
131.0554927582
 30
0.0
 10
352.4318033627
 20
131.0534231457
 30
0.0
 10
352.4435958323
 20
131.0507757324
 30
0.0
 10
352.4624716444
 20
131.0465736275
 30
0.0
 10
352.4860637126
 20
131.0413094148
 30
0.0
 10
352.5143753486
 20
131.0349973165
 30
0.0
 10
352.552123794
 20
131.0265794559
 30
0.0
 10
352.6181837622
 20
131.0118490106
 30
0.0
 10
352.6748065273
 20
130.9992226366
 30
0.0
 10
352.7125550517
 20
130.9908051157
 30
0.0
  0
SPLINE
  5
4D1
330
225
100
AcDbEntity
  8
02___PRT_ALL_AXES
  6
Continuous
 62
     7
100
AcDbSpline
 70
     0
 71
     3
 72
    25
 73
    21
 74
     0
 42
0.000000001
 43
0.0000001
 40
0.0
 40
0.0
 40
0.0
 40
0.0
 40
0.0601292924
 40
0.1216883199
 40
0.1846806231
 40
0.2489523759
 40
0.31422814
 40
0.3801381675
 40
0.4462557529
 40
0.5121358838
 40
0.5773545501
 40
0.6415472965
 40
0.7044454658
 40
0.7353850226
 40
0.7659600726
 40
0.8259948884
 40
0.8847705405
 40
0.913811651
 40
0.9426684188
 40
1.0
 40
1.0
 40
1.0
 40
1.0
 10
356.4952067585
 20
132.8266570941
 30
0.0
 10
356.5143492943
 20
132.97509237
 30
0.0
 10
356.5262577302
 20
133.2795379657
 30
0.0
 10
356.4665822301
 20
133.7373064501
 30
0.0
 10
356.3315797624
 20
134.1895371878
 30
0.0
 10
356.1250344109
 20
134.6239887549
 30
0.0
 10
355.8526263393
 20
135.0291669456
 30
0.0
 10
355.521702338
 20
135.3942973951
 30
0.0
 10
355.1411282209
 20
135.7096772907
 30
0.0
 10
354.7210604796
 20
135.9668934274
 30
0.0
 10
354.2726550573
 20
136.1590397032
 30
0.0
 10
353.8079240908
 20
136.2808947569
 30
0.0
 10
353.4148570702
 20
136.3212316575
 30
0.0
 10
353.1049359909
 20
136.3152572357
 30
0.0
 10
352.8036658066
 20
136.2844944242
 30
0.0
 10
352.4395366689
 20
136.2001006813
 30
0.0
 10
352.099343478
 20
136.0541973516
 30
0.0
 10
351.8504990621
 20
135.9037349377
 30
0.0
 10
351.6196720436
 20
135.7330062675
 30
0.0
 10
351.4657215797
 20
135.5811815555
 30
0.0
 10
351.374137405
 20
135.4717471804
 30
0.0
  0
SPLINE
  5
4D2
330
225
100
AcDbEntity
  8
02___PRT_ALL_AXES
  6
Continuous
 62
     7
100
AcDbSpline
 70
     0
 71
     3
 72
    11
 73
     7
 74
     0
 42
0.000000001
 43
0.0000001
 40
0.0
 40
0.0
 40
0.0
 40
0.0
 40
0.254168031
 40
0.504867855
 40
0.7530765372
 40
1.0
 40
1.0
 40
1.0
 40
1.0
 10
356.4952067585
 20
132.8266570941
 30
0.0
 10
356.4807963699
 20
132.7149158897
 30
0.0
 10
356.4371886596
 20
132.4945647704
 30
0.0
 10
356.3270351816
 20
132.1782952635
 30
0.0
 10
356.1743681702
 20
131.8837961097
 30
0.0
 10
356.0456291155
 20
131.7049054513
 30
0.0
 10
355.9753817133
 20
131.6209664893
 30
0.0
  0
SPLINE
  5
4D3
330
225
100
AcDbEntity
  8
02___PRT_ALL_AXES
  6
Continuous
 62
     7
100
AcDbSpline
 70
     0
 71
     3
 72
    11
 73
     7
 74
     0
 42
0.000000001
 43
0.0000001
 40
0.0
 40
0.0
 40
0.0
 40
0.0
 40
0.2469233894
 40
0.4951321676
 40
0.7458320795
 40
1.0
 40
1.0
 40
1.0
 40
1.0
 10
351.30992508
 20
135.3950159352
 30
0.0
 10
351.2396860631
 20
135.3110799507
 30
0.0
 10
351.1109625318
 20
135.1321972065
 30
0.0
 10
350.9583137187
 20
134.8377148031
 30
0.0
 10
350.8481726866
 20
134.5214658246
 30
0.0
 10
350.8045690783
 20
134.3011299925
 30
0.0
 10
350.7901597008
 20
134.1893966284
 30
0.0
  0
SPLINE
  5
4D4
330
225
100
AcDbEntity
  8
02___PRT_ALL_AXES
  6
Continuous
 62
     7
100
AcDbSpline
 70
     0
 71
     3
 72
    25
 73
    21
 74
     0
 42
0.000000001
 43
0.0000001
 40
0.0
 40
0.0
 40
0.0
 40
0.0
 40
0.057331592
 40
0.0861883305
 40
0.1152293929
 40
0.1740049058
 40
0.2340395574
 40
0.2646145269
 40
0.2955540083
 40
0.358452051
 40
0.4226447182
 40
0.4878633596
 40
0.5537435188
 40
0.6198611777
 40
0.685771312
 40
0.7510472009
 40
0.8153190816
 40
0.8783115031
 40
0.93987063
 40
1.0
 40
1.0
 40
1.0
 40
1.0
 10
355.9112887202
 20
131.5443778403
 30
0.0
 10
355.819707911
 20
131.4349383048
 30
0.0
 10
355.6657616204
 20
131.2831055316
 30
0.0
 10
355.4349382786
 20
131.1123661583
 30
0.0
 10
355.186096621
 20
130.9618932251
 30
0.0
 10
354.8459047687
 20
130.8159771288
 30
0.0
 10
354.4817744402
 20
130.7315718641
 30
0.0
 10
354.1805021185
 20
130.7008007231
 30
0.0
 10
353.8705780325
 20
130.6948185285
 30
0.0
 10
353.4775058602
 20
130.7351470622
 30
0.0
 10
353.0127672541
 20
130.8569944677
 30
0.0
 10
352.5643531526
 20
131.049135524
 30
0.0
 10
352.1442762452
 20
131.3063488598
 30
0.0
 10
351.7636930135
 20
131.6217282554
 30
0.0
 10
351.4327604596
 20
131.9868602909
 30
0.0
 10
351.1603448606
 20
132.392041853
 30
0.0
 10
350.9537934055
 20
132.8264982013
 30
0.0
 10
350.8187865735
 20
133.2787346986
 30
0.0
 10
350.7591086722
 20
133.7365094407
 30
0.0
 10
350.7710169027
 20
134.0409593192
 30
0.0
 10
350.7901597008
 20
134.1893966284
 30
0.0
  0
SPLINE
  5
4D5
330
225
100
AcDbEntity
  8
02___PRT_ALL_AXES
  6
Continuous
 62
     7
100
AcDbSpline
 70
     0
 71
     3
 72
    11
 73
     7
 74
     0
 42
0.000000001
 43
0.0000001
 40
0.0
 40
0.0
 40
0.0
 40
0.0
 40
0.2468720835
 40
0.4951866444
 40
0.7459695603
 40
1.0
 40
1.0
 40
1.0
 40
1.0
 10
351.3117468661
 20
135.3937452184
 30
0.0
 10
351.2502826112
 20
135.3133086395
 30
0.0
 10
351.137766447
 20
135.1434095911
 30
0.0
 10
351.0040760585
 20
134.8673145274
 30
0.0
 10
350.9069190687
 20
134.5732742239
 30
0.0
 10
350.8676356594
 20
134.3693682609
 30
0.0
 10
350.8543123599
 20
134.2660565756
 30
0.0
  0
LINE
  5
4D6
330
225
100
AcDbEntity
  8
02___PRT_ALL_AXES
  6
Continuous
 62
     7
100
AcDbLine
 10
355.9096211306
 20
131.5458394552
 30
0.0
 11
355.9053096854
 21
131.5411424199
 31
0.0
  0
SPLINE
  5
4D7
330
225
100
AcDbEntity
  8
02___PRT_ALL_AXES
  6
Continuous
 62
     7
100
AcDbSpline
 70
     0
 71
     3
 72
    18
 73
    14
 74
     0
 42
0.000000001
 43
0.0000001
 40
0.0
 40
0.0
 40
0.0
 40
0.0
 40
0.0573264088
 40
0.1149931899
 40
0.1732278818
 40
0.2322215082
 40
0.2921178331
 40
0.3530068111
 40
0.4776423523
 40
0.6059693196
 40
0.7368856632
 40
0.868814591
 40
1.0
 40
1.0
 40
1.0
 40
1.0
 10
355.9053096854
 20
131.5411424199
 30
0.0
 10
355.837019488
 20
131.4669561031
 30
0.0
 10
355.6898253198
 20
131.3271895801
 30
0.0
 10
355.4422294253
 20
131.1481594197
 30
0.0
 10
355.1707286971
 20
131.0016601565
 30
0.0
 10
354.8791140566
 20
130.8896978111
 30
0.0
 10
354.5713136121
 20
130.8137353834
 30
0.0
 10
354.1419494065
 20
130.7613247167
 30
0.0
 10
353.5855599181
 20
130.7917809809
 30
0.0
 10
352.9306350076
 20
130.9751847778
 30
0.0
 10
352.3160448256
 20
131.2951730275
 30
0.0
 10
351.7742106567
 20
131.7343710719
 30
0.0
 10
351.4777184723
 20
132.0946442807
 30
0.0
 10
351.3503236553
 20
132.2870329733
 30
0.0
  0
SPLINE
  5
4D8
330
225
100
AcDbEntity
  8
02___PRT_ALL_AXES
  6
Continuous
 62
     7
100
AcDbSpline
 70
     0
 71
     3
 72
    12
 73
     8
 74
     0
 42
0.000000001
 43
0.0000001
 40
0.0
 40
0.0
 40
0.0
 40
0.0
 40
0.2586725103
 40
0.5120144782
 40
0.6364875393
 40
0.759334505
 40
1.0
 40
1.0
 40
1.0
 40
1.0
 10
351.3503236553
 20
132.2870329733
 30
0.0
 10
351.2512296081
 20
132.4366825009
 30
0.0
 10
351.0787041661
 20
132.7493828053
 30
0.0
 10
350.9327178852
 20
133.1686400699
 30
0.0
 10
350.8631066035
 20
133.5094519366
 30
0.0
 10
350.8256654144
 20
133.8462839728
 30
0.0
 10
350.8329538663
 20
134.1004382946
 30
0.0
 10
350.8543123599
 20
134.2660565756
 30
0.0
  0
SPLINE
  5
4D9
330
225
100
AcDbEntity
  8
02___PRT_ALL_AXES
  6
Continuous
 62
     7
100
AcDbSpline
 70
     0
 71
     3
 72
    25
 73
    21
 74
     0
 42
0.000000001
 43
0.0000001
 40
0.0
 40
0.0
 40
0.0
 40
0.0
 40
0.0601292924
 40
0.1216883199
 40
0.1846806231
 40
0.2489523759
 40
0.31422814
 40
0.3801381675
 40
0.4462557529
 40
0.5121358838
 40
0.5773545501
 40
0.6415472965
 40
0.7044454658
 40
0.7353850226
 40
0.7659600726
 40
0.8259948884
 40
0.8847705405
 40
0.913811651
 40
0.9426684188
 40
1.0
 40
1.0
 40
1.0
 40
1.0
 10
354.7698388914
 20
119.4477893392
 30
0.0
 10
354.7889814272
 20
119.5962246151
 30
0.0
 10
354.800889863
 20
119.9006702108
 30
0.0
 10
354.741214363
 20
120.3584386952
 30
0.0
 10
354.6062118953
 20
120.8106694329
 30
0.0
 10
354.3996665438
 20
121.245121
 30
0.0
 10
354.1272584722
 20
121.6502991907
 30
0.0
 10
353.7963344709
 20
122.0154296402
 30
0.0
 10
353.4157603538
 20
122.3308095358
 30
0.0
 10
352.9956926125
 20
122.5880256725
 30
0.0
 10
352.5472871902
 20
122.7801719483
 30
0.0
 10
352.0825562237
 20
122.902027002
 30
0.0
 10
351.6894892031
 20
122.9423639026
 30
0.0
 10
351.3795681238
 20
122.9363894808
 30
0.0
 10
351.0782979395
 20
122.9056266693
 30
0.0
 10
350.7141688018
 20
122.8212329264
 30
0.0
 10
350.3739756109
 20
122.6753295967
 30
0.0
 10
350.1251311949
 20
122.5248671828
 30
0.0
 10
349.8943041765
 20
122.3541385126
 30
0.0
 10
349.7403537125
 20
122.2023138006
 30
0.0
 10
349.6487695379
 20
122.0928794255
 30
0.0
  0
SPLINE
  5
4DA
330
225
100
AcDbEntity
  8
02___PRT_ALL_AXES
  6
Continuous
 62
     7
100
AcDbSpline
 70
     0
 71
     3
 72
    11
 73
     7
 74
     0
 42
0.000000001
 43
0.0000001
 40
0.0
 40
0.0
 40
0.0
 40
0.0
 40
0.254168031
 40
0.504867855
 40
0.7530765372
 40
1.0
 40
1.0
 40
1.0
 40
1.0
 10
354.7698388914
 20
119.4477893392
 30
0.0
 10
354.7554285028
 20
119.3360481348
 30
0.0
 10
354.7118207925
 20
119.1156970155
 30
0.0
 10
354.6016673145
 20
118.7994275086
 30
0.0
 10
354.4490003031
 20
118.5049283548
 30
0.0
 10
354.3202612484
 20
118.3260376964
 30
0.0
 10
354.2500138462
 20
118.2420987344
 30
0.0
  0
SPLINE
  5
4DB
330
225
100
AcDbEntity
  8
02___PRT_ALL_AXES
  6
Continuous
 62
     7
100
AcDbSpline
 70
     0
 71
     3
 72
    11
 73
     7
 74
     0
 42
0.000000001
 43
0.0000001
 40
0.0
 40
0.0
 40
0.0
 40
0.0
 40
0.2469233894
 40
0.4951321676
 40
0.7458320795
 40
1.0
 40
1.0
 40
1.0
 40
1.0
 10
349.5845572129
 20
122.0161481802
 30
0.0
 10
349.514318196
 20
121.9322121958
 30
0.0
 10
349.3855946646
 20
121.7533294516
 30
0.0
 10
349.2329458516
 20
121.4588470482
 30
0.0
 10
349.1228048194
 20
121.1425980697
 30
0.0
 10
349.0792012112
 20
120.9222622376
 30
0.0
 10
349.0647918337
 20
120.8105288735
 30
0.0
  0
SPLINE
  5
4DC
330
225
100
AcDbEntity
  8
02___PRT_ALL_AXES
  6
Continuous
 62
     7
100
AcDbSpline
 70
     0
 71
     3
 72
    25
 73
    21
 74
     0
 42
0.000000001
 43
0.0000001
 40
0.0
 40
0.0
 40
0.0
 40
0.0
 40
0.057331592
 40
0.0861883305
 40
0.1152293929
 40
0.1740049058
 40
0.2340395574
 40
0.2646145269
 40
0.2955540083
 40
0.358452051
 40
0.4226447182
 40
0.4878633596
 40
0.5537435188
 40
0.6198611777
 40
0.685771312
 40
0.7510472009
 40
0.8153190816
 40
0.8783115031
 40
0.93987063
 40
1.0
 40
1.0
 40
1.0
 40
1.0
 10
354.1859208531
 20
118.1655100853
 30
0.0
 10
354.0943400439
 20
118.0560705499
 30
0.0
 10
353.9403937533
 20
117.9042377767
 30
0.0
 10
353.7095704115
 20
117.7334984034
 30
0.0
 10
353.4607287539
 20
117.5830254702
 30
0.0
 10
353.1205369016
 20
117.4371093739
 30
0.0
 10
352.7564065731
 20
117.3527041092
 30
0.0
 10
352.4551342514
 20
117.3219329682
 30
0.0
 10
352.1452101654
 20
117.3159507736
 30
0.0
 10
351.7521379931
 20
117.3562793073
 30
0.0
 10
351.287399387
 20
117.4781267128
 30
0.0
 10
350.8389852855
 20
117.6702677691
 30
0.0
 10
350.4189083781
 20
117.9274811049
 30
0.0
 10
350.0383251464
 20
118.2428605005
 30
0.0
 10
349.7073925925
 20
118.607992536
 30
0.0
 10
349.4349769935
 20
119.0131740981
 30
0.0
 10
349.2284255384
 20
119.4476304464
 30
0.0
 10
349.0934187064
 20
119.8998669437
 30
0.0
 10
349.0337408051
 20
120.3576416858
 30
0.0
 10
349.0456490356
 20
120.6620915643
 30
0.0
 10
349.0647918337
 20
120.8105288735
 30
0.0
  0
SPLINE
  5
4DD
330
225
100
AcDbEntity
  8
02___PRT_ALL_AXES
  6
Continuous
 62
     7
100
AcDbSpline
 70
     0
 71
     3
 72
    11
 73
     7
 74
     0
 42
0.000000001
 43
0.0000001
 40
0.0
 40
0.0
 40
0.0
 40
0.0
 40
0.2468720835
 40
0.4951866444
 40
0.7459695603
 40
1.0
 40
1.0
 40
1.0
 40
1.0
 10
349.586378999
 20
122.0148774635
 30
0.0
 10
349.5249147441
 20
121.9344408846
 30
0.0
 10
349.4123985799
 20
121.7645418362
 30
0.0
 10
349.2787081913
 20
121.4884467725
 30
0.0
 10
349.1815512015
 20
121.194406469
 30
0.0
 10
349.1422677922
 20
120.990500506
 30
0.0
 10
349.1289444927
 20
120.8871888207
 30
0.0
  0
LINE
  5
4DE
330
225
100
AcDbEntity
  8
02___PRT_ALL_AXES
  6
Continuous
 62
     7
100
AcDbLine
 10
354.1842532634
 20
118.1669717003
 30
0.0
 11
354.1799418183
 21
118.162274665
 31
0.0
  0
SPLINE
  5
4DF
330
225
100
AcDbEntity
  8
02___PRT_ALL_AXES
  6
Continuous
 62
     7
100
AcDbSpline
 70
     0
 71
     3
 72
    18
 73
    14
 74
     0
 42
0.000000001
 43
0.0000001
 40
0.0
 40
0.0
 40
0.0
 40
0.0
 40
0.0573264088
 40
0.1149931899
 40
0.1732278818
 40
0.2322215082
 40
0.2921178331
 40
0.3530068111
 40
0.4776423523
 40
0.6059693196
 40
0.7368856632
 40
0.868814591
 40
1.0
 40
1.0
 40
1.0
 40
1.0
 10
354.1799418183
 20
118.162274665
 30
0.0
 10
354.1116516208
 20
118.0880883482
 30
0.0
 10
353.9644574527
 20
117.9483218252
 30
0.0
 10
353.7168615582
 20
117.7692916648
 30
0.0
 10
353.44536083
 20
117.6227924016
 30
0.0
 10
353.1537461894
 20
117.5108300562
 30
0.0
 10
352.845945745
 20
117.4348676285
 30
0.0
 10
352.4165815394
 20
117.3824569618
 30
0.0
 10
351.8601920509
 20
117.412913226
 30
0.0
 10
351.2052671404
 20
117.5963170229
 30
0.0
 10
350.5906769585
 20
117.9163052726
 30
0.0
 10
350.0488427896
 20
118.355503317
 30
0.0
 10
349.7523506052
 20
118.7157765258
 30
0.0
 10
349.6249557882
 20
118.9081652184
 30
0.0
  0
SPLINE
  5
4E0
330
225
100
AcDbEntity
  8
02___PRT_ALL_AXES
  6
Continuous
 62
     7
100
AcDbSpline
 70
     0
 71
     3
 72
    12
 73
     8
 74
     0
 42
0.000000001
 43
0.0000001
 40
0.0
 40
0.0
 40
0.0
 40
0.0
 40
0.2586725103
 40
0.5120144782
 40
0.6364875393
 40
0.759334505
 40
1.0
 40
1.0
 40
1.0
 40
1.0
 10
349.6249557882
 20
118.9081652184
 30
0.0
 10
349.525861741
 20
119.057814746
 30
0.0
 10
349.353336299
 20
119.3705150504
 30
0.0
 10
349.2073500181
 20
119.7897723149
 30
0.0
 10
349.1377387364
 20
120.1305841817
 30
0.0
 10
349.1002975473
 20
120.4674162179
 30
0.0
 10
349.1075859992
 20
120.7215705397
 30
0.0
 10
349.1289444927
 20
120.8871888207
 30
0.0
  0
SPLINE
  5
4E1
330
225
100
AcDbEntity
  8
7_ALL_FEATURES
  6
Continuous
 62
     7
100
AcDbSpline
 70
     0
 71
     3
 72
    15
 73
    11
 74
     0
 42
0.000000001
 43
0.0000001
 40
0.0
 40
0.0
 40
0.0
 40
0.0
 40
0.1683996277
 40
0.324646468
 40
0.4675908326
 40
0.5968304801
 40
0.7126531842
 40
0.8164134765
 40
0.9108094318
 40
1.0
 40
1.0
 40
1.0
 40
1.0
 10
361.5948694316
 20
176.01414408
 30
0.0
 10
361.7171315441
 20
175.9593449609
 30
0.0
 10
361.9493212632
 20
175.8455387981
 30
0.0
 10
362.2694105108
 20
175.6550514766
 30
0.0
 10
362.5448626271
 20
175.4532136595
 30
0.0
 10
362.7718461585
 20
175.2427563797
 30
0.0
 10
362.9472043689
 20
175.0261569445
 30
0.0
 10
363.0681185567
 20
174.8056424386
 30
0.0
 10
363.1316578535
 20
174.5837670752
 30
0.0
 10
363.133599661
 20
174.4355394985
 30
0.0
 10
363.1245179866
 20
174.3651617088
 30
0.0
  0
SPLINE
  5
4E2
330
225
100
AcDbEntity
  8
02___PRT_ALL_AXES
  6
Continuous
 62
     7
100
AcDbSpline
 70
     0
 71
     3
 72
    14
 73
    10
 74
     0
 42
0.000000001
 43
0.0000001
 40
0.0
 40
0.0
 40
0.0
 40
0.0
 40
0.1034576633
 40
0.2123272741
 40
0.3299408612
 40
0.4568575275
 40
0.5912235666
 40
0.7295866033
 40
1.0
 40
1.0
 40
1.0
 40
1.0
 10
343.5694287615
 20
176.7751251261
 30
0.0
 10
343.513201887
 20
176.7488719509
 30
0.0
 10
343.4069164073
 20
176.6731126574
 30
0.0
 10
343.2921233213
 20
176.5079563428
 30
0.0
 10
343.2259929184
 20
176.3038054037
 30
0.0
 10
343.2112607015
 20
176.0750390879
 30
0.0
 10
343.2479865765
 20
175.836273768
 30
0.0
 10
343.3601392482
 20
175.5291793098
 30
0.0
 10
343.5105170059
 20
175.3243481401
 30
0.0
 10
343.6330738578
 20
175.2181091647
 30
0.0
  0
SPLINE
  5
4E3
330
225
100
AcDbEntity
  8
02___PRT_ALL_AXES
  6
Continuous
 62
     7
100
AcDbSpline
 70
     0
 71
     3
 72
    19
 73
    15
 74
     0
 42
0.000000001
 43
0.0000001
 40
0.0
 40
0.0
 40
0.0
 40
0.0
 40
0.0346738522
 40
0.0727042753
 40
0.1164095234
 40
0.1668791042
 40
0.2242697466
 40
0.2881115377
 40
0.431121923
 40
0.5858418742
 40
0.7399570879
 40
0.881243999
 40
0.943929749
 40
1.0
 40
1.0
 40
1.0
 40
1.0
 10
345.4045742823
 20
171.7929597529
 30
0.0
 10
345.4018831989
 20
171.7720737213
 30
0.0
 10
345.4046587717
 20
171.7268913539
 30
0.0
 10
345.4324406125
 20
171.660821496
 30
0.0
 10
345.4815386203
 20
171.5964883845
 30
0.0
 10
345.550376431
 20
171.5347804188
 30
0.0
 10
345.6373484582
 20
171.4767431553
 30
0.0
 10
345.7803026576
 20
171.4032314584
 30
0.0
 10
345.9889756552
 20
171.3313288552
 30
0.0
 10
346.2592970615
 20
171.2796302205
 30
0.0
 10
346.5330530974
 20
171.2646935782
 30
0.0
 10
346.7508263684
 20
171.284427612
 30
0.0
 10
346.90453107
 20
171.321790789
 30
0.0
 10
346.9723724022
 20
171.3470520065
 30
0.0
 10
347.0032322588
 20
171.3614502586
 30
0.0
  0
SPLINE
  5
4E4
330
225
100
AcDbEntity
  8
02___PRT_ALL_AXES
  6
Continuous
 62
     7
100
AcDbSpline
 70
     0
 71
     3
 72
    11
 73
     7
 74
     0
 42
0.000000001
 43
0.0000001
 40
0.0
 40
0.0
 40
0.0
 40
0.0
 40
0.2994682146
 40
0.5605583052
 40
0.7895722099
 40
1.0
 40
1.0
 40
1.0
 40
1.0
 10
347.0032322588
 20
171.3614502586
 30
0.0
 10
347.029069987
 20
171.3735053412
 30
0.0
 10
347.0760501747
 20
171.3993885958
 30
0.0
 10
347.134443396
 20
171.4476300467
 30
0.0
 10
347.1743013583
 20
171.5021916326
 30
0.0
 10
347.1872334726
 20
171.5429867204
 30
0.0
 10
347.1897936517
 20
171.5628567777
 30
0.0
  0
SPLINE
  5
4E5
330
225
100
AcDbEntity
  8
02___PRT_ALL_AXES
  6
Continuous
 62
     7
100
AcDbSpline
 70
     0
 71
     3
 72
     9
 73
     5
 74
     0
 42
0.000000001
 43
0.0000001
 40
0.0
 40
0.0
 40
0.0
 40
0.0
 40
0.5071043179
 40
1.0
 40
1.0
 40
1.0
 40
1.0
 10
348.7150799034
 20
179.0980793262
 30
0.0
 10
348.6683486245
 20
179.1012730324
 30
0.0
 10
348.5750399164
 20
179.0969305192
 30
0.0
 10
348.4857533457
 20
179.0689344543
 30
0.0
 10
348.4444971233
 20
179.0496806229
 30
0.0
  0
SPLINE
  5
4E6
330
225
100
AcDbEntity
  8
02___PRT_ALL_AXES
  6
Continuous
 62
     7
100
AcDbSpline
 70
     0
 71
     3
 72
    13
 73
     9
 74
     0
 42
0.000000001
 43
0.0000001
 40
0.0
 40
0.0
 40
0.0
 40
0.0
 40
0.2782412959
 40
0.5466650004
 40
0.6710451309
 40
0.7870256525
 40
0.8956610459
 40
1.0
 40
1.0
 40
1.0
 40
1.0
 10
348.5085967501
 20
177.8264696668
 30
0.0
 10
348.4477583464
 20
177.9054383916
 30
0.0
 10
348.3552024674
 20
178.0828712144
 30
0.0
 10
348.320168279
 20
178.3266459494
 30
0.0
 10
348.3501502732
 20
178.5078086352
 30
0.0
 10
348.3990885425
 20
178.6243330402
 30
0.0
 10
348.4729704989
 20
178.7181494419
 30
0.0
 10
348.5372880361
 20
178.7619095215
 30
0.0
 10
348.5711608216
 20
178.7777220529
 30
0.0
  0
SPLINE
  5
4E7
330
225
100
AcDbEntity
  8
02___PRT_ALL_AXES
  6
Continuous
 62
     7
100
AcDbSpline
 70
     0
 71
     3
 72
    10
 73
     6
 74
     0
 42
0.000000001
 43
0.0000001
 40
0.0
 40
0.0
 40
0.0
 40
0.0
 40
0.2620223493
 40
0.5173998576
 40
1.0
 40
1.0
 40
1.0
 40
1.0
 10
349.6023785994
 20
177.3795115038
 30
0.0
 10
349.829171904
 20
177.0591542556
 30
0.0
 10
350.3135774827
 20
176.4510395164
 30
0.0
 10
351.3800228455
 20
175.3968018184
 30
0.0
 10
352.3108249994
 20
174.7674037341
 30
0.0
 10
352.9645832446
 20
174.4588002119
 30
0.0
  0
SPLINE
  5
4E8
330
225
100
AcDbEntity
  8
02___PRT_ALL_AXES
  6
Continuous
 62
     7
100
AcDbSpline
 70
     0
 71
     3
 72
    11
 73
     7
 74
     0
 42
0.000000001
 43
0.0000001
 40
0.0
 40
0.0
 40
0.0
 40
0.0
 40
0.2598240846
 40
0.5119889157
 40
0.7580831186
 40
1.0
 40
1.0
 40
1.0
 40
1.0
 10
354.2151613971
 20
174.0162431101
 30
0.0
 10
354.4459580879
 20
173.9614832101
 30
0.0
 10
354.9079467596
 20
173.8812353972
 30
0.0
 10
355.6015642978
 20
173.8535721361
 30
0.0
 10
356.2761314103
 20
173.9212039416
 30
0.0
 10
356.710118164
 20
174.0301259405
 30
0.0
 10
356.919689764
 20
174.0998184114
 30
0.0
  0
SPLINE
  5
4E9
330
225
100
AcDbEntity
  8
02___PRT_ALL_AXES
  6
Continuous
 62
     7
100
AcDbSpline
 70
     0
 71
     3
 72
    11
 73
     7
 74
     0
 42
0.000000001
 43
0.0000001
 40
0.0
 40
0.0
 40
0.0
 40
0.0
 40
0.2914840128
 40
0.5564823894
 40
0.7926935586
 40
1.0
 40
1.0
 40
1.0
 40
1.0
 10
361.1520250123
 20
172.5802346896
 30
0.0
 10
361.299919525
 20
172.5139468687
 30
0.0
 10
361.5772549345
 20
172.375607033
 30
0.0
 10
361.9504130965
 20
172.1392868571
 30
0.0
 10
362.2552027606
 20
171.8879138225
 30
0.0
 10
362.4190677802
 20
171.7013129905
 30
0.0
 10
362.4849254666
 20
171.606713451
 30
0.0
  0
SPLINE
  5
4EA
330
225
100
AcDbEntity
  8
02___PRT_ALL_AXES
  6
Continuous
 62
     7
100
AcDbSpline
 70
     0
 71
     3
 72
    11
 73
     7
 74
     0
 42
0.000000001
 43
0.0000001
 40
0.0
 40
0.0
 40
0.0
 40
0.0
 40
0.2013169395
 40
0.4350942851
 40
0.7021396266
 40
1.0
 40
1.0
 40
1.0
 40
1.0
 10
362.5856588937
 20
171.6600831843
 30
0.0
 10
362.5271761195
 20
171.766892015
 30
0.0
 10
362.3673771922
 20
171.9796316367
 30
0.0
 10
362.0495719945
 20
172.26393549
 30
0.0
 10
361.6451616157
 20
172.5307356142
 30
0.0
 10
361.3394394337
 20
172.6849295799
 30
0.0
 10
361.1750299172
 20
172.758619593
 30
0.0
  0
SPLINE
  5
4EB
330
225
100
AcDbEntity
  8
02___PRT_ALL_AXES
  6
Continuous
 62
     7
100
AcDbSpline
 70
     0
 71
     3
 72
    19
 73
    15
 74
     0
 42
0.000000001
 43
0.0000001
 40
0.0
 40
0.0
 40
0.0
 40
0.0
 40
0.0346738522
 40
0.0727042753
 40
0.1164095234
 40
0.1668791042
 40
0.2242697466
 40
0.2881115377
 40
0.431121923
 40
0.5858418742
 40
0.7399570879
 40
0.881243999
 40
0.943929749
 40
1.0
 40
1.0
 40
1.0
 40
1.0
 10
347.1897936517
 20
171.5628567777
 30
0.0
 10
347.192484735
 20
171.5837428093
 30
0.0
 10
347.1897091622
 20
171.6289251766
 30
0.0
 10
347.1619273214
 20
171.6949950346
 30
0.0
 10
347.1128293136
 20
171.7593281461
 30
0.0
 10
347.043991503
 20
171.8210361117
 30
0.0
 10
346.9570194758
 20
171.8790733753
 30
0.0
 10
346.8140652763
 20
171.9525850722
 30
0.0
 10
346.6053922787
 20
172.0244876754
 30
0.0
 10
346.3350708724
 20
172.0761863101
 30
0.0
 10
346.0613148366
 20
172.0911229524
 30
0.0
 10
345.8435415655
 20
172.0713889185
 30
0.0
 10
345.689836864
 20
172.0340257416
 30
0.0
 10
345.6219955318
 20
172.0087645241
 30
0.0
 10
345.5911356751
 20
171.994366272
 30
0.0
  0
SPLINE
  5
4EC
330
225
100
AcDbEntity
  8
02___PRT_ALL_AXES
  6
Continuous
 62
     7
100
AcDbSpline
 70
     0
 71
     3
 72
    14
 73
    10
 74
     0
 42
0.000000001
 43
0.0000001
 40
0.0
 40
0.0
 40
0.0
 40
0.0
 40
0.1034532488
 40
0.2123203881
 40
0.3299325257
 40
0.4568468609
 40
0.5912144061
 40
0.7295797276
 40
1.0
 40
1.0
 40
1.0
 40
1.0
 10
348.4444971233
 20
179.0496806229
 30
0.0
 10
348.3882643133
 20
179.0234373806
 30
0.0
 10
348.2819665317
 20
178.9476895651
 30
0.0
 10
348.167132463
 20
178.7825534142
 30
0.0
 10
348.1009730554
 20
178.5783997716
 30
0.0
 10
348.0862176679
 20
178.3496222681
 30
0.0
 10
348.1229277841
 20
178.1108378568
 30
0.0
 10
348.2350787795
 20
177.8037138705
 30
0.0
 10
348.385468237
 20
177.5988634208
 30
0.0
 10
348.5080357594
 20
177.4926151957
 30
0.0
  0
SPLINE
  5
4ED
330
225
100
AcDbEntity
  8
02___PRT_ALL_AXES
  6
Continuous
 62
     7
100
AcDbSpline
 70
     0
 71
     3
 72
    11
 73
     7
 74
     0
 42
0.000000001
 43
0.0000001
 40
0.0
 40
0.0
 40
0.0
 40
0.0
 40
0.2994682146
 40
0.5605583052
 40
0.7895722099
 40
1.0
 40
1.0
 40
1.0
 40
1.0
 10
345.5911356751
 20
171.994366272
 30
0.0
 10
345.5652979469
 20
171.9823111894
 30
0.0
 10
345.5183177592
 20
171.9564279348
 30
0.0
 10
345.4599245379
 20
171.9081864839
 30
0.0
 10
345.4200665756
 20
171.853624898
 30
0.0
 10
345.4071344613
 20
171.8128298102
 30
0.0
 10
345.4045742823
 20
171.7929597529
 30
0.0
  0
SPLINE
  5
4EE
330
225
100
AcDbEntity
  8
02___PRT_ALL_AXES
  6
Continuous
 62
     7
100
AcDbSpline
 70
     0
 71
     3
 72
    19
 73
    15
 74
     0
 42
0.000000001
 43
0.0000001
 40
0.0
 40
0.0
 40
0.0
 40
0.0
 40
0.0560655707
 40
0.1187613053
 40
0.2600518965
 40
0.4141730768
 40
0.5688951787
 40
0.7119033832
 40
0.775744015
 40
0.8331338825
 40
0.8835963796
 40
0.927298174
 40
0.9653270325
 40
1.0
 40
1.0
 40
1.0
 40
1.0
 10
345.821184724
 20
173.778215306
 30
0.0
 10
345.8520429952
 20
173.7926128183
 30
0.0
 10
345.9198914097
 20
173.817870503
 30
0.0
 10
346.0736037406
 20
173.855246421
 30
0.0
 10
346.2913984635
 20
173.8749652236
 30
0.0
 10
346.5651697036
 20
173.8600338049
 30
0.0
 10
346.83550265
 20
173.8083226962
 30
0.0
 10
347.0441763317
 20
173.7364028265
 30
0.0
 10
347.1871298134
 20
173.6628850934
 30
0.0
 10
347.2741003765
 20
173.6048480834
 30
0.0
 10
347.3429190594
 20
173.5431235256
 30
0.0
 10
347.3920049551
 20
173.4787902812
 30
0.0
 10
347.4197839356
 20
173.4127154389
 30
0.0
 10
347.4225236984
 20
173.367531735
 30
0.0
 10
347.4198296054
 20
173.3466459516
 30
0.0
  0
SPLINE
  5
4EF
330
225
100
AcDbEntity
  8
02___PRT_ALL_AXES
  6
Continuous
 62
     7
100
AcDbSpline
 70
     0
 71
     3
 72
    14
 73
    10
 74
     0
 42
0.000000001
 43
0.0000001
 40
0.0
 40
0.0
 40
0.0
 40
0.0
 40
0.2797894032
 40
0.4132162389
 40
0.5410488955
 40
0.6630315078
 40
0.7794726281
 40
0.8912900703
 40
1.0
 40
1.0
 40
1.0
 40
1.0
 10
357.0347142885
 20
174.9917429284
 30
0.0
 10
356.5735162029
 20
175.643209028
 30
0.0
 10
355.7766373882
 20
176.5336775753
 30
0.0
 10
354.5380143163
 20
177.460834016
 30
0.0
 10
353.5753257632
 20
177.9879084522
 30
0.0
 10
352.5879125272
 20
178.343327329
 30
0.0
 10
351.598497769
 20
178.5175408098
 30
0.0
 10
350.6314727208
 20
178.5048534575
 30
0.0
 10
350.0116889394
 20
178.3692999758
 30
0.0
 10
349.7174031239
 20
178.2714360208
 30
0.0
  0
SPLINE
  5
4F0
330
225
100
AcDbEntity
  8
7_ALL_FEATURES
  6
Continuous
 62
     7
100
AcDbSpline
 70
     0
 71
     3
 72
    11
 73
     7
 74
     0
 42
0.000000001
 43
0.0000001
 40
0.0
 40
0.0
 40
0.0
 40
0.0
 40
0.2676073782
 40
0.5239626856
 40
0.7680208014
 40
1.0
 40
1.0
 40
1.0
 40
1.0
 10
353.6891658331
 20
175.3016768851
 30
0.0
 10
353.3914586046
 20
175.594557214
 30
0.0
 10
352.7692902441
 20
176.1299908258
 30
0.0
 10
351.7523388275
 20
176.7729898551
 30
0.0
 10
350.6961589681
 20
177.2231774907
 30
0.0
 10
349.966710634
 20
177.3893531853
 30
0.0
 10
349.6074239073
 20
177.4337700065
 30
0.0
  0
SPLINE
  5
4F1
330
225
100
AcDbEntity
  8
02___PRT_ALL_AXES
  6
Continuous
 62
     7
100
AcDbSpline
 70
     0
 71
     3
 72
    11
 73
     7
 74
     0
 42
0.000000001
 43
0.0000001
 40
0.0
 40
0.0
 40
0.0
 40
0.0
 40
0.2104117186
 40
0.4394400622
 40
0.7005891481
 40
1.0
 40
1.0
 40
1.0
 40
1.0
 10
345.6346364264
 20
173.576868647
 30
0.0
 10
345.6371987046
 20
173.596732545
 30
0.0
 10
345.6501374043
 20
173.6375157337
 30
0.0
 10
345.6899984435
 20
173.6920639069
 30
0.0
 10
345.7483910689
 20
173.7402821286
 30
0.0
 10
345.7953575031
 20
173.7661651258
 30
0.0
 10
345.821184724
 20
173.778215306
 30
0.0
  0
SPLINE
  5
4F2
330
225
100
AcDbEntity
  8
7_ALL_FEATURES
  6
Continuous
 62
     7
100
AcDbSpline
 70
     0
 71
     3
 72
    11
 73
     7
 74
     0
 42
0.000000001
 43
0.0000001
 40
0.0
 40
0.0
 40
0.0
 40
0.0
 40
0.2402219861
 40
0.4850978849
 40
0.7379858782
 40
1.0
 40
1.0
 40
1.0
 40
1.0
 10
293.0794417237
 20
117.9431780777
 30
0.0
 10
293.1720081138
 20
118.0538333469
 30
0.0
 10
293.392797746
 20
118.2511281092
 30
0.0
 10
293.7980364349
 20
118.4437906823
 30
0.0
 10
294.2522292052
 20
118.5243829389
 30
0.0
 10
294.5640998345
 20
118.5011974814
 30
0.0
 10
294.7186691728
 20
118.4717200155
 30
0.0
  0
SPLINE
  5
4F3
330
225
100
AcDbEntity
  8
7_ALL_FEATURES
  6
Continuous
 62
     7
100
AcDbSpline
 70
     0
 71
     3
 72
    13
 73
     9
 74
     0
 42
0.000000001
 43
0.0000001
 40
0.0
 40
0.0
 40
0.0
 40
0.0
 40
0.2646232947
 40
0.5214601254
 40
0.6455769998
 40
0.766274641
 40
0.8840785537
 40
1.0
 40
1.0
 40
1.0
 40
1.0
 10
293.6104080336
 20
115.2460865532
 30
0.0
 10
293.4020059911
 20
115.4002551869
 30
0.0
 10
293.0396024117
 20
115.7760209486
 30
0.0
 10
292.7749036708
 20
116.3665202933
 30
0.0
 10
292.7082617128
 20
116.8562677637
 30
0.0
 10
292.7317644987
 20
117.2133448012
 30
0.0
 10
292.8278096582
 20
117.5497064122
 30
0.0
 10
292.9388082691
 20
117.7525740496
 30
0.0
 10
293.004252124
 20
117.8453779161
 30
0.0
  0
SPLINE
  5
4F4
330
225
100
AcDbEntity
  8
7_ALL_FEATURES
  6
Continuous
 62
     7
100
AcDbSpline
 70
     0
 71
     3
 72
    11
 73
     7
 74
     0
 42
0.000000001
 43
0.0000001
 40
0.0
 40
0.0
 40
0.0
 40
0.0
 40
0.2539996157
 40
0.5046656593
 40
0.7529418037
 40
1.0
 40
1.0
 40
1.0
 40
1.0
 10
347.0265505999
 20
121.2170162745
 30
0.0
 10
347.0781686331
 20
121.5792386692
 30
0.0
 10
347.2282484089
 20
122.2931700961
 30
0.0
 10
347.5949960542
 20
123.3174489971
 30
0.0
 10
348.0962244468
 20
124.2718691164
 30
0.0
 10
348.5156488087
 20
124.8526080015
 30
0.0
 10
348.7440414043
 20
125.1255354493
 30
0.0
  0
SPLINE
  5
4F5
330
225
100
AcDbEntity
  8
7_ALL_FEATURES
  6
Continuous
 62
     7
100
AcDbSpline
 70
     0
 71
     3
 72
     9
 73
     5
 74
     0
 42
0.000000001
 43
0.0000001
 40
0.0
 40
0.0
 40
0.0
 40
0.0
 40
0.5062827519
 40
1.0
 40
1.0
 40
1.0
 40
1.0
 10
393.799374988
 20
115.3125589889
 30
0.0
 10
393.9633595203
 20
115.3521720191
 30
0.0
 10
394.2780867603
 20
115.4789362768
 30
0.0
 10
394.5363345002
 20
115.7002172171
 30
0.0
 10
394.6419265072
 20
115.8263729411
 30
0.0
  0
SPLINE
  5
4F6
330
225
100
AcDbEntity
  8
7_ALL_FEATURES
  6
Continuous
 62
     7
100
AcDbSpline
 70
     0
 71
     3
 72
    24
 73
    20
 74
     0
 42
0.000000001
 43
0.0000001
 40
0.0
 40
0.0
 40
0.0
 40
0.0
 40
0.0712613617
 40
0.1457194482
 40
0.2223773386
 40
0.3001876338
 40
0.378063429
 40
0.4549192458
 40
0.5296966484
 40
0.6013968824
 40
0.6691140781
 40
0.732074198
 40
0.7896831434
 40
0.8415914863
 40
0.8877868656
 40
0.9287257087
 40
0.9654944262
 40
0.9829008822
 40
1.0
 40
1.0
 40
1.0
 40
1.0
 10
327.7915729812
 20
90.4159709488
 30
0.0
 10
328.7078100742
 20
90.0484845255
 30
0.0
 10
330.6097996185
 20
89.3664945706
 30
0.0
 10
333.5729860915
 20
88.5172675981
 30
0.0
 10
336.6708029924
 20
87.8296435765
 30
0.0
 10
339.8499264149
 20
87.3154898937
 30
0.0
 10
343.0559846136
 20
86.9836749436
 30
0.0
 10
346.2339651844
 20
86.8398409028
 30
0.0
 10
349.3294530389
 20
86.8863848828
 30
0.0
 10
352.2895601762
 20
87.122375465
 30
0.0
 10
355.0639624681
 20
87.5436422882
 30
0.0
 10
357.6058993171
 20
88.142920862
 30
0.0
 10
359.8731639203
 20
88.9103081915
 30
0.0
 10
361.8289749939
 20
89.8337801132
 30
0.0
 10
363.4423240361
 20
90.9013237365
 30
0.0
 10
364.6865001249
 20
92.1005249594
 30
0.0
 10
365.4051129775
 20
93.2248091241
 30
0.0
 10
365.7470630551
 20
94.15436234
 30
0.0
 10
365.8443204192
 20
94.6245742042
 30
0.0
 10
365.8746053595
 20
94.8595049335
 30
0.0
  0
SPLINE
  5
4F7
330
225
100
AcDbEntity
  8
7_ALL_FEATURES
  6
Continuous
 62
     7
100
AcDbSpline
 70
     0
 71
     3
 72
    16
 73
    12
 74
     0
 42
0.000000001
 43
0.0000001
 40
0.0
 40
0.0
 40
0.0
 40
0.0
 40
0.0431571
 40
0.0870682677
 40
0.1796888783
 40
0.2825689472
 40
0.3984308194
 40
0.5284644775
 40
0.6726986235
 40
0.8303525095
 40
1.0
 40
1.0
 40
1.0
 40
1.0
 10
316.9794289154
 20
101.1641554232
 30
0.0
 10
316.9496077361
 20
100.9328222479
 30
0.0
 10
316.9243459542
 20
100.4608628561
 30
0.0
 10
317.0146395236
 20
99.4909677432
 30
0.0
 10
317.4093006131
 20
98.2418750785
 30
0.0
 10
318.2789772726
 20
96.7881104434
 30
0.0
 10
319.5285722231
 20
95.3659012116
 30
0.0
 10
321.1365517204
 20
93.9933116763
 30
0.0
 10
323.0775105628
 20
92.6888459396
 30
0.0
 10
325.3206566084
 20
91.4727698471
 30
0.0
 10
326.9405902707
 20
90.7572849983
 30
0.0
 10
327.7915729812
 20
90.4159709488
 30
0.0
  0
SPLINE
  5
4F8
330
225
100
AcDbEntity
  8
7_ALL_FEATURES
  6
Continuous
 62
     7
100
AcDbSpline
 70
     0
 71
     3
 72
    16
 73
    12
 74
     0
 42
0.000000001
 43
0.0000001
 40
0.0
 40
0.0
 40
0.0
 40
0.0
 40
0.0431571
 40
0.0870682677
 40
0.1796888783
 40
0.2825689472
 40
0.3984308194
 40
0.5284644775
 40
0.6726986235
 40
0.8303525095
 40
1.0
 40
1.0
 40
1.0
 40
1.0
 10
365.8746053595
 20
94.8595049335
 30
0.0
 10
365.9044265388
 20
95.0908381088
 30
0.0
 10
365.9296883207
 20
95.5627975005
 30
0.0
 10
365.8393947513
 20
96.5326926134
 30
0.0
 10
365.4447336618
 20
97.7817852781
 30
0.0
 10
364.5750570024
 20
99.2355499133
 30
0.0
 10
363.3254620518
 20
100.6577591451
 30
0.0
 10
361.7174825546
 20
102.0303486804
 30
0.0
 10
359.7765237121
 20
103.3348144171
 30
0.0
 10
357.5333776665
 20
104.5508905096
 30
0.0
 10
355.9134440043
 20
105.2663753584
 30
0.0
 10
355.0624612937
 20
105.6076894079
 30
0.0
  0
SPLINE
  5
4F9
330
225
100
AcDbEntity
  8
7_ALL_FEATURES
  6
Continuous
 62
     7
100
AcDbSpline
 70
     0
 71
     3
 72
    24
 73
    20
 74
     0
 42
0.000000001
 43
0.0000001
 40
0.0
 40
0.0
 40
0.0
 40
0.0
 40
0.0712613617
 40
0.1457194482
 40
0.2223773386
 40
0.3001876338
 40
0.378063429
 40
0.4549192458
 40
0.5296966484
 40
0.6013968824
 40
0.6691140781
 40
0.732074198
 40
0.7896831434
 40
0.8415914863
 40
0.8877868656
 40
0.9287257087
 40
0.9654944262
 40
0.9829008822
 40
1.0
 40
1.0
 40
1.0
 40
1.0
 10
355.0624612937
 20
105.6076894079
 30
0.0
 10
354.1462242008
 20
105.9751758311
 30
0.0
 10
352.2442346564
 20
106.6571657861
 30
0.0
 10
349.2810481834
 20
107.5063927586
 30
0.0
 10
346.1832312825
 20
108.1940167801
 30
0.0
 10
343.00410786
 20
108.708170463
 30
0.0
 10
339.7980496613
 20
109.0399854131
 30
0.0
 10
336.6200690905
 20
109.1838194538
 30
0.0
 10
333.524581236
 20
109.1372754739
 30
0.0
 10
330.5644740987
 20
108.9012848916
 30
0.0
 10
327.7900718068
 20
108.4800180685
 30
0.0
 10
325.2481349579
 20
107.8807394947
 30
0.0
 10
322.9808703546
 20
107.1133521651
 30
0.0
 10
321.025059281
 20
106.1898802435
 30
0.0
 10
319.4117102388
 20
105.1223366202
 30
0.0
 10
318.16753415
 20
103.9231353973
 30
0.0
 10
317.4489212974
 20
102.7988512326
 30
0.0
 10
317.1069712198
 20
101.8692980167
 30
0.0
 10
317.0097138557
 20
101.3990861524
 30
0.0
 10
316.9794289154
 20
101.1641554232
 30
0.0
  0
SPLINE
  5
4FA
330
225
100
AcDbEntity
  8
02___PRT_ALL_AXES
  6
Continuous
 62
     7
100
AcDbSpline
 70
     0
 71
     3
 72
    11
 73
     7
 74
     0
 42
0.000000001
 43
0.0000001
 40
0.0
 40
0.0
 40
0.0
 40
0.0
 40
0.2367339221
 40
0.4821852798
 40
0.737231614
 40
1.0
 40
1.0
 40
1.0
 40
1.0
 10
353.9700242042
 20
130.6980448433
 30
0.0
 10
353.8263748474
 20
130.6044182894
 30
0.0
 10
353.5018349532
 20
130.4591899614
 30
0.0
 10
352.9655680868
 20
130.3901777125
 30
0.0
 10
352.4121668096
 20
130.4680090124
 30
0.0
 10
352.0612124186
 20
130.6121827743
 30
0.0
 10
351.89487825
 20
130.7046829031
 30
0.0
  0
SPLINE
  5
4FB
330
225
100
AcDbEntity
  8
02___PRT_ALL_AXES
  6
Continuous
 62
     7
100
AcDbSpline
 70
     0
 71
     3
 72
     9
 73
     5
 74
     0
 42
0.000000001
 43
0.0000001
 40
0.0
 40
0.0
 40
0.0
 40
0.0
 40
0.2584343684
 40
1.0
 40
1.0
 40
1.0
 40
1.0
 10
364.5805752421
 20
168.8257543561
 30
0.0
 10
364.5451869793
 20
168.8213870062
 30
0.0
 10
364.4084800338
 20
168.8027465069
 30
0.0
 10
364.2726868
 20
168.777075221
 30
0.0
 10
364.1731540341
 20
168.7533757374
 30
0.0
  0
SPLINE
  5
4FC
330
225
100
AcDbEntity
  8
02___PRT_ALL_AXES
  6
Continuous
 62
     7
100
AcDbSpline
 70
     0
 71
     3
 72
     9
 73
     5
 74
     0
 42
0.000000001
 43
0.0000001
 40
0.0
 40
0.0
 40
0.0
 40
0.0
 40
0.4620975905
 40
1.0
 40
1.0
 40
1.0
 40
1.0
 10
362.556798935
 20
171.6399598575
 30
0.0
 10
362.505503653
 20
171.6149484282
 30
0.0
 10
362.3877998095
 20
171.5745879858
 30
0.0
 10
362.2657618148
 20
171.5534022874
 30
0.0
 10
362.1997573523
 20
171.5458958022
 30
0.0
  0
SPLINE
  5
4FD
330
225
100
AcDbEntity
  8
02___PRT_ALL_AXES
  6
Continuous
 62
     7
100
AcDbSpline
 70
     0
 71
     3
 72
    11
 73
     7
 74
     0
 42
0.000000001
 43
0.0000001
 40
0.0
 40
0.0
 40
0.0
 40
0.0
 40
0.3278384511
 40
0.6039142898
 40
0.8225184728
 40
1.0
 40
1.0
 40
1.0
 40
1.0
 10
361.4024390312
 20
171.4552189907
 30
0.0
 10
361.3659420803
 20
171.4510683007
 30
0.0
 10
361.2990202927
 20
171.4389600616
 30
0.0
 10
361.2121951609
 20
171.4063741588
 30
0.0
 10
361.1497476701
 20
171.3615523694
 30
0.0
 10
361.1285342196
 20
171.3195358793
 30
0.0
 10
361.1257816447
 20
171.2998416288
 30
0.0
  0
SPLINE
  5
4FE
330
225
100
AcDbEntity
  8
02___PRT_ALL_AXES
  6
Continuous
 62
     7
100
AcDbSpline
 70
     0
 71
     3
 72
    11
 73
     7
 74
     0
 42
0.000000001
 43
0.0000001
 40
0.0
 40
0.0
 40
0.0
 40
0.0
 40
0.3082571928
 40
0.5727856828
 40
0.7982459339
 40
1.0
 40
1.0
 40
1.0
 40
1.0
 10
357.9186243624
 20
172.3015899816
 30
0.0
 10
357.8175788485
 20
172.2650809543
 30
0.0
 10
357.6338332522
 20
172.1845331797
 30
0.0
 10
357.4024518893
 20
172.0261235889
 30
0.0
 10
357.2433579535
 20
171.8399953448
 30
0.0
 10
357.1920189269
 20
171.6953969748
 30
0.0
 10
357.1829777699
 20
171.6256619967
 30
0.0
  0
SPLINE
  5
4FF
330
225
100
AcDbEntity
  8
7_ALL_FEATURES
  6
Continuous
 62
     7
100
AcDbSpline
 70
     0
 71
     3
 72
    12
 73
     8
 74
     0
 42
0.000000001
 43
0.0000001
 40
0.0
 40
0.0
 40
0.0
 40
0.0
 40
0.0949846419
 40
0.2024667048
 40
0.4486854752
 40
0.7219882144
 40
1.0
 40
1.0
 40
1.0
 40
1.0
 10
356.7653005354
 20
170.1879786676
 30
0.0
 10
356.6787115475
 20
170.13974278
 30
0.0
 10
356.4844974328
 20
170.0540191066
 30
0.0
 10
356.0340821509
 20
169.9229303994
 30
0.0
 10
355.3803367951
 20
169.8438344352
 30
0.0
 10
354.546273705
 20
169.8702210757
 30
0.0
 10
353.9768268232
 20
169.967413653
 30
0.0
 10
353.6952810141
 20
170.0373809713
 30
0.0
  0
SPLINE
  5
500
330
225
100
AcDbEntity
  8
02___PRT_ALL_AXES
  6
Continuous
 62
     7
100
AcDbSpline
 70
     0
 71
     3
 72
    21
 73
    17
 74
     0
 42
0.000000001
 43
0.0000001
 40
0.0
 40
0.0
 40
0.0
 40
0.0
 40
0.037923955
 40
0.0820435956
 40
0.134470675
 40
0.1956362899
 40
0.2647599572
 40
0.3403518596
 40
0.5026172444
 40
0.6643495626
 40
0.739306737
 40
0.8075997157
 40
0.8678060303
 40
0.9192494847
 40
0.9625285398
 40
1.0
 40
1.0
 40
1.0
 40
1.0
 10
352.6264060185
 20
173.2516031355
 30
0.0
 10
352.6162876374
 20
173.2152648877
 30
0.0
 10
352.5759119961
 20
173.141474412
 30
0.0
 10
352.4744824793
 20
173.0517542338
 30
0.0
 10
352.3350019225
 20
172.977738286
 30
0.0
 10
352.1617641235
 20
172.9207536172
 30
0.0
 10
351.9601869037
 20
172.8821593046
 30
0.0
 10
351.6554628511
 20
172.8567446874
 30
0.0
 10
351.2566164912
 20
172.8783426438
 30
0.0
 10
350.8666617527
 20
172.9620417264
 30
0.0
 10
350.5813450509
 20
173.0664131303
 30
0.0
 10
350.3994782918
 20
173.1562430719
 30
0.0
 10
350.2503021986
 20
173.2563318162
 30
0.0
 10
350.1385635542
 20
173.3640240286
 30
0.0
 10
350.0680430767
 20
173.4771374981
 30
0.0
 10
350.0517542766
 20
173.558432611
 30
0.0
 10
350.0529890725
 20
173.5956827637
 30
0.0
  0
SPLINE
  5
501
330
225
100
AcDbEntity
  8
02___PRT_ALL_AXES
  6
Continuous
 62
     7
100
AcDbSpline
 70
     0
 71
     3
 72
    21
 73
    17
 74
     0
 42
0.000000001
 43
0.0000001
 40
0.0
 40
0.0
 40
0.0
 40
0.0
 40
0.0377998549
 40
0.0817059619
 40
0.1340870739
 40
0.1954170898
 40
0.3410425841
 40
0.5048431993
 40
0.5876639306
 40
0.66773788
 40
0.7427207692
 40
0.810671858
 40
0.870111733
 40
0.9205794534
 40
0.9629138264
 40
1.0
 40
1.0
 40
1.0
 40
1.0
 10
350.1170008427
 20
175.5266596262
 30
0.0
 10
350.1175824988
 20
175.5442058388
 30
0.0
 10
350.1096061478
 20
175.582598867
 30
0.0
 10
350.0757477664
 20
175.6358859487
 30
0.0
 10
350.0220644126
 20
175.6864367615
 30
0.0
 10
349.9209195395
 20
175.7526234138
 30
0.0
 10
349.759293177
 20
175.8164389334
 30
0.0
 10
349.5800193953
 20
175.8529301133
 30
0.0
 10
349.428578959
 20
175.8646591072
 30
0.0
 10
349.3179470507
 20
175.8636762049
 30
0.0
 10
349.2147706929
 20
175.8527643028
 30
0.0
 10
349.1227269899
 20
175.8325716948
 30
0.0
 10
349.0450098255
 20
175.8035845684
 30
0.0
 10
348.9840043403
 20
175.7666908923
 30
0.0
 10
348.9419352935
 20
175.7220543217
 30
0.0
 10
348.9282076751
 20
175.6863904685
 30
0.0
 10
348.9259855867
 20
175.6693100166
 30
0.0
  0
SPLINE
  5
502
330
225
100
AcDbEntity
  8
7_ALL_FEATURES
  6
Continuous
 62
     7
100
AcDbSpline
 70
     0
 71
     3
 72
     9
 73
     5
 74
     0
 42
0.000000001
 43
0.0000001
 40
0.0
 40
0.0
 40
0.0
 40
0.0
 40
0.2452070841
 40
1.0
 40
1.0
 40
1.0
 40
1.0
 10
348.3003553186
 20
170.790738418
 30
0.0
 10
348.2240242362
 20
170.7891844797
 30
0.0
 10
347.912623613
 20
170.7894203251
 30
0.0
 10
347.6013173664
 20
170.8146462886
 30
0.0
 10
347.3685050071
 20
170.8467098049
 30
0.0
  0
SPLINE
  5
503
330
225
100
AcDbEntity
  8
7_ALL_FEATURES
  6
Continuous
 62
     7
100
AcDbSpline
 70
     0
 71
     3
 72
    11
 73
     7
 74
     0
 42
0.000000001
 43
0.0000001
 40
0.0
 40
0.0
 40
0.0
 40
0.0
 40
0.2873122463
 40
0.5580632377
 40
0.7987536958
 40
1.0
 40
1.0
 40
1.0
 40
1.0
 10
347.3685050071
 20
170.8467098049
 30
0.0
 10
347.1390460327
 20
170.8783114843
 30
0.0
 10
346.6963434482
 20
170.9644664701
 30
0.0
 10
346.0814097624
 20
171.1615897545
 30
0.0
 10
345.5621932317
 20
171.4117358529
 30
0.0
 10
345.2717318586
 20
171.6249533734
 30
0.0
 10
345.157363215
 20
171.7400262141
 30
0.0
  0
SPLINE
  5
504
330
225
100
AcDbEntity
  8
02___PRT_ALL_AXES
  6
Continuous
 62
     7
100
AcDbSpline
 70
     0
 71
     3
 72
    17
 73
    13
 74
     0
 42
0.000000001
 43
0.0000001
 40
0.0
 40
0.0
 40
0.0
 40
0.0
 40
0.1107941633
 40
0.2478327733
 40
0.4012771503
 40
0.5581958736
 40
0.7049076403
 40
0.8296735215
 40
0.8815915803
 40
0.9263562875
 40
0.9649877674
 40
1.0
 40
1.0
 40
1.0
 40
1.0
 10
343.0707635787
 20
175.76424178
 30
0.0
 10
343.0387350627
 20
175.7977906616
 30
0.0
 10
342.951853967
 20
175.8577841167
 30
0.0
 10
342.7961075395
 20
175.9222187735
 30
0.0
 10
342.6131581174
 20
175.9657567846
 30
0.0
 10
342.4219922652
 20
175.9837122054
 30
0.0
 10
342.2423222185
 20
175.9742004345
 30
0.0
 10
342.1091389001
 20
175.9429900086
 30
0.0
 10
342.0253380804
 20
175.9024415155
 30
0.0
 10
341.9794792986
 20
175.8684120088
 30
0.0
 10
341.9481289952
 20
175.8290872615
 30
0.0
 10
341.9380283923
 20
175.799072202
 30
0.0
 10
341.9361818498
 20
175.7845315181
 30
0.0
  0
SPLINE
  5
505
330
225
100
AcDbEntity
  8
02___PRT_ALL_AXES
  6
Continuous
 62
     7
100
AcDbSpline
 70
     0
 71
     3
 72
    17
 73
    13
 74
     0
 42
0.000000001
 43
0.0000001
 40
0.0
 40
0.0
 40
0.0
 40
0.0
 40
0.1158179193
 40
0.2557483391
 40
0.4096902835
 40
0.5652524576
 40
0.7096033053
 40
0.8319575695
 40
0.882913913
 40
0.9269861769
 40
0.9652186457
 40
1.0
 40
1.0
 40
1.0
 40
1.0
 10
339.2575309691
 20
175.3511122413
 30
0.0
 10
339.2222144977
 20
175.382833371
 30
0.0
 10
339.1319960021
 20
175.4389580835
 30
0.0
 10
338.9745352541
 20
175.4988325607
 30
0.0
 10
338.7938301668
 20
175.5378976312
 30
0.0
 10
338.6077378824
 20
175.5522670263
 30
0.0
 10
338.4345089318
 20
175.5404867805
 30
0.0
 10
338.3068971177
 20
175.5085298134
 30
0.0
 10
338.2269622191
 20
175.4683166924
 30
0.0
 10
338.1832851549
 20
175.4348049864
 30
0.0
 10
338.1533899858
 20
175.3963978709
 30
0.0
 10
338.143773542
 20
175.3672408984
 30
0.0
 10
338.1419635175
 20
175.353100264
 30
0.0
  0
SPLINE
  5
506
330
225
100
AcDbEntity
  8
02___PRT_ALL_AXES
  6
Continuous
 62
     7
100
AcDbSpline
 70
     0
 71
     3
 72
    15
 73
    11
 74
     0
 42
0.000000001
 43
0.0000001
 40
0.0
 40
0.0
 40
0.0
 40
0.0
 40
0.144827307
 40
0.2992706898
 40
0.4541868455
 40
0.6011605761
 40
0.732388691
 40
0.8423074451
 40
0.9294158196
 40
1.0
 40
1.0
 40
1.0
 40
1.0
 10
333.7137885581
 20
173.9374477388
 30
0.0
 10
333.6683133022
 20
173.956203039
 30
0.0
 10
333.5712939341
 20
173.9877218176
 30
0.0
 10
333.4196365954
 20
174.0176023024
 30
0.0
 10
333.2647881747
 20
174.0301063577
 30
0.0
 10
333.1174141585
 20
174.0244887872
 30
0.0
 10
332.987059577
 20
174.0012913587
 30
0.0
 10
332.8820095546
 20
173.9617570124
 30
0.0
 10
332.8067633019
 20
173.9075005644
 30
0.0
 10
332.7813505724
 20
173.8566091976
 30
0.0
 10
332.7782835768
 20
173.8328320436
 30
0.0
  0
SPLINE
  5
507
330
225
100
AcDbEntity
  8
02___PRT_ALL_AXES
  6
Continuous
 62
     7
100
AcDbSpline
 70
     0
 71
     3
 72
    15
 73
    11
 74
     0
 42
0.000000001
 43
0.0000001
 40
0.0
 40
0.0
 40
0.0
 40
0.0
 40
0.148445553
 40
0.3044117451
 40
0.4591307252
 40
0.604795772
 40
0.7343435483
 40
0.8428361316
 40
0.9292676035
 40
1.0
 40
1.0
 40
1.0
 40
1.0
 10
331.3248305968
 20
172.6397402367
 30
0.0
 10
331.2792635313
 20
172.6565344341
 30
0.0
 10
331.1833528673
 20
172.6844516079
 30
0.0
 10
331.0350485729
 20
172.7099515838
 30
0.0
 10
330.885695919
 20
172.7189059895
 30
0.0
 10
330.7449242114
 20
172.710834483
 30
0.0
 10
330.6212424437
 20
172.6864409321
 30
0.0
 10
330.5219238563
 20
172.6469073446
 30
0.0
 10
330.4511212942
 20
172.5935595469
 30
0.0
 10
330.427261893
 20
172.5446226409
 30
0.0
 10
330.4242870574
 20
172.5216748296
 30
0.0
  0
SPLINE
  5
508
330
225
100
AcDbEntity
  8
02___PRT_ALL_AXES
  6
Continuous
 62
     7
100
AcDbSpline
 70
     0
 71
     3
 72
    14
 73
    10
 74
     0
 42
0.000000001
 43
0.0000001
 40
0.0
 40
0.0
 40
0.0
 40
0.0
 40
0.327386164
 40
0.4794008222
 40
0.6173526517
 40
0.7381573285
 40
0.8404486935
 40
0.9256572553
 40
1.0
 40
1.0
 40
1.0
 40
1.0
 10
328.7690254817
 20
169.9536189609
 30
0.0
 10
328.6913598242
 20
169.9646084079
 30
0.0
 10
328.5758553035
 20
169.9713213774
 30
0.0
 10
328.4283033087
 20
169.9584674182
 30
0.0
 10
328.3315635781
 20
169.938987265
 30
0.0
 10
328.249650954
 20
169.9100913254
 30
0.0
 10
328.1852189513
 20
169.8727634564
 30
0.0
 10
328.1405442012
 20
169.8271882345
 30
0.0
 10
328.1259887669
 20
169.7902567564
 30
0.0
 10
328.123694408
 20
169.7725931737
 30
0.0
  0
SPLINE
  5
509
330
225
100
AcDbEntity
  8
02___PRT_ALL_AXES
  6
Continuous
 62
     7
100
AcDbSpline
 70
     0
 71
     3
 72
     9
 73
     5
 74
     0
 42
0.000000001
 43
0.0000001
 40
0.0
 40
0.0
 40
0.0
 40
0.0
 40
0.5316376085
 40
1.0
 40
1.0
 40
1.0
 40
1.0
 10
327.8962623041
 20
168.0242308976
 30
0.0
 10
327.8814309112
 20
168.0117904926
 30
0.0
 10
327.8561080858
 20
167.9846314733
 30
0.0
 10
327.8428196373
 20
167.9493768331
 30
0.0
 10
327.8406483388
 20
167.9324615604
 30
0.0
  0
SPLINE
  5
50A
330
225
100
AcDbEntity
  8
02___PRT_ALL_AXES
  6
Continuous
 62
     7
100
AcDbSpline
 70
     0
 71
     3
 72
    14
 73
    10
 74
     0
 42
0.000000001
 43
0.0000001
 40
0.0
 40
0.0
 40
0.0
 40
0.0
 40
0.0746396051
 40
0.1599220503
 40
0.2620538966
 40
0.3825324798
 40
0.5201516738
 40
0.671975807
 40
1.0
 40
1.0
 40
1.0
 40
1.0
 10
372.5201185611
 20
163.8421102828
 30
0.0
 10
372.5223552053
 20
163.8595346244
 30
0.0
 10
372.5178829081
 20
163.8983281484
 30
0.0
 10
372.4872090867
 20
163.9530507975
 30
0.0
 10
372.4357711782
 20
164.0049258244
 30
0.0
 10
372.3656866054
 20
164.0532550302
 30
0.0
 10
372.2791270801
 20
164.0964523415
 30
0.0
 10
372.1424828948
 20
164.1465056583
 30
0.0
 10
372.0311472028
 20
164.1698212562
 30
0.0
 10
371.9545479789
 20
164.1794684947
 30
0.0
  0
SPLINE
  5
50B
330
225
100
AcDbEntity
  8
02___PRT_ALL_AXES
  6
Continuous
 62
     7
100
AcDbSpline
 70
     0
 71
     3
 72
    14
 73
    10
 74
     0
 42
0.000000001
 43
0.0000001
 40
0.0
 40
0.0
 40
0.0
 40
0.0
 40
0.0708328128
 40
0.1571231777
 40
0.2652534233
 40
0.3943717767
 40
0.5397170516
 40
0.6944441525
 40
1.0
 40
1.0
 40
1.0
 40
1.0
 10
371.1410308888
 20
167.0832825182
 30
0.0
 10
371.1439414048
 20
167.1059830469
 30
0.0
 10
371.1335937337
 20
167.1586847534
 30
0.0
 10
371.0798609592
 20
167.2276294127
 30
0.0
 10
370.9955005208
 20
167.2906214738
 30
0.0
 10
370.8841083378
 20
167.3454028284
 30
0.0
 10
370.7521006015
 20
167.3891318843
 30
0.0
 10
370.5602142507
 20
167.4285185064
 30
0.0
 10
370.4098823078
 20
167.4354214946
 30
0.0
 10
370.3115160334
 20
167.4269982904
 30
0.0
  0
SPLINE
  5
50C
330
225
100
AcDbEntity
  8
02___PRT_ALL_AXES
  6
Continuous
 62
     7
100
AcDbSpline
 70
     0
 71
     3
 72
    15
 73
    11
 74
     0
 42
0.000000001
 43
0.0000001
 40
0.0
 40
0.0
 40
0.0
 40
0.0
 40
0.0706187104
 40
0.1575079423
 40
0.2669800307
 40
0.3976844592
 40
0.5442552636
 40
0.6991171186
 40
0.8540424418
 40
1.0
 40
1.0
 40
1.0
 40
1.0
 10
369.2771657727
 20
168.9584345269
 30
0.0
 10
369.2801933765
 20
168.9819590285
 30
0.0
 10
369.2688316923
 20
169.0369299507
 30
0.0
 10
369.2110677346
 20
169.1078936808
 30
0.0
 10
369.1211864992
 20
169.1723445067
 30
0.0
 10
369.0030556222
 20
169.2277041898
 30
0.0
 10
368.8640655383
 20
169.2707603261
 30
0.0
 10
368.7129853291
 20
169.2985990395
 30
0.0
 10
368.5599870243
 20
169.3092346835
 30
0.0
 10
368.4587041817
 20
169.3043631959
 30
0.0
 10
368.4100508455
 20
169.2983591797
 30
0.0
  0
SPLINE
  5
50D
330
225
100
AcDbEntity
  8
02___PRT_ALL_AXES
  6
Continuous
 62
     7
100
AcDbSpline
 70
     0
 71
     3
 72
    17
 73
    13
 74
     0
 42
0.000000001
 43
0.0000001
 40
0.0
 40
0.0
 40
0.0
 40
0.0
 40
0.0347202719
 40
0.0728448387
 40
0.1167189942
 40
0.1674010875
 40
0.2890469731
 40
0.4326932893
 40
0.5878361259
 40
0.7419006372
 40
0.8826709006
 40
1.0
 40
1.0
 40
1.0
 40
1.0
 10
364.5879905479
 20
171.8228235965
 30
0.0
 10
364.5898052506
 20
171.8368404006
 30
0.0
 10
364.5879627142
 20
171.8671952554
 30
0.0
 10
364.5691290491
 20
171.9115411059
 30
0.0
 10
364.5359735431
 20
171.9547137719
 30
0.0
 10
364.4699417383
 20
172.0134704189
 30
0.0
 10
364.3563093959
 20
172.0765306135
 30
0.0
 10
364.1938233569
 20
172.132005712
 30
0.0
 10
364.0120065327
 20
172.1659418914
 30
0.0
 10
363.8284170549
 20
172.1751033063
 30
0.0
 10
363.6609169146
 20
172.1585934037
 30
0.0
 10
363.5588536051
 20
172.1285598647
 30
0.0
 10
363.5159233217
 20
172.107626986
 30
0.0
  0
SPLINE
  5
50E
330
225
100
AcDbEntity
  8
02___PRT_ALL_AXES
  6
Continuous
 62
     7
100
AcDbSpline
 70
     0
 71
     3
 72
     9
 73
     5
 74
     0
 42
0.000000001
 43
0.0000001
 40
0.0
 40
0.0
 40
0.0
 40
0.0
 40
0.4425925771
 40
1.0
 40
1.0
 40
1.0
 40
1.0
 10
361.1013632723
 20
170.992069015
 30
0.0
 10
361.0672203988
 20
170.943249887
 30
0.0
 10
360.9610483771
 20
170.8539867434
 30
0.0
 10
360.8363158823
 20
170.8008850858
 30
0.0
 10
360.7650812318
 20
170.777329867
 30
0.0
  0
SPLINE
  5
50F
330
225
100
AcDbEntity
  8
02___PRT_ALL_AXES
  6
Continuous
 62
     7
100
AcDbSpline
 70
     0
 71
     3
 72
    17
 73
    13
 74
     0
 42
0.000000001
 43
0.0000001
 40
0.0
 40
0.0
 40
0.0
 40
0.0
 40
0.03493666
 40
0.0734378628
 40
0.1179834238
 40
0.1695968239
 40
0.2936097906
 40
0.4395913645
 40
0.5960992215
 40
0.7497127523
 40
0.8876592158
 40
1.0
 40
1.0
 40
1.0
 40
1.0
 10
361.0767531226
 20
173.2309691045
 30
0.0
 10
361.0786373125
 20
173.2453810639
 30
0.0
 10
361.0765671615
 20
173.2766833849
 30
0.0
 10
361.0565930635
 20
173.3222955021
 30
0.0
 10
361.021480489
 20
173.3665247108
 30
0.0
 10
360.9518435752
 20
173.4266214652
 30
0.0
 10
360.832644931
 20
173.4903984538
 30
0.0
 10
360.6633415968
 20
173.5453760955
 30
0.0
 10
360.4756208779
 20
173.5771986162
 30
0.0
 10
360.2885632837
 20
173.5826729059
 30
0.0
 10
360.121329031
 20
173.5613521977
 30
0.0
 10
360.0213133301
 20
173.5267856817
 30
0.0
 10
359.9809315668
 20
173.5032560197
 30
0.0
  0
SPLINE
  5
510
330
225
100
AcDbEntity
  8
02___PRT_ALL_AXES
  6
Continuous
 62
     7
100
AcDbSpline
 70
     0
 71
     3
 72
    18
 73
    14
 74
     0
 42
0.000000001
 43
0.0000001
 40
0.0
 40
0.0
 40
0.0
 40
0.0
 40
0.0370638379
 40
0.0792952662
 40
0.1295716581
 40
0.1887469848
 40
0.3308146112
 40
0.4930720378
 40
0.6569010944
 40
0.8032968779
 40
0.8652773629
 40
0.9184124903
 40
1.0
 40
1.0
 40
1.0
 40
1.0
 10
354.3339688396
 20
174.952121337
 30
0.0
 10
354.3360879594
 20
174.9691051209
 30
0.0
 10
354.3319075592
 20
175.006786669
 30
0.0
 10
354.3028928705
 20
175.0602533561
 30
0.0
 10
354.253875626
 20
175.1110999383
 30
0.0
 10
354.158682799
 20
175.1784611959
 30
0.0
 10
354.0025902498
 20
175.2446495492
 30
0.0
 10
353.7908937531
 20
175.2924310203
 30
0.0
 10
353.5721855187
 20
175.3056598322
 30
0.0
 10
353.4000422641
 20
175.2863980812
 30
0.0
 10
353.2844140895
 20
175.249006265
 30
0.0
 10
353.2040566171
 20
175.2077864972
 30
0.0
 10
353.1571876029
 20
175.1578159275
 30
0.0
 10
353.1470834707
 20
175.1215203167
 30
0.0
  0
SPLINE
  5
511
330
225
100
AcDbEntity
  8
02___PRT_ALL_AXES
  6
Continuous
 62
     7
100
AcDbSpline
 70
     0
 71
     3
 72
    11
 73
     7
 74
     0
 42
0.000000001
 43
0.0000001
 40
0.0
 40
0.0
 40
0.0
 40
0.0
 40
0.2200888936
 40
0.4538866074
 40
0.7119267789
 40
1.0
 40
1.0
 40
1.0
 40
1.0
 10
345.1465606665
 20
173.259382725
 30
0.0
 10
345.1527692448
 20
173.3072468275
 30
0.0
 10
345.1511310509
 20
173.4083351786
 30
0.0
 10
345.1061139524
 20
173.5594588103
 30
0.0
 10
345.0213098928
 20
173.7092866587
 30
0.0
 10
344.9443515762
 20
173.8018120516
 30
0.0
 10
344.9007271264
 20
173.847505074
 30
0.0
  0
SPLINE
  5
512
330
225
100
AcDbEntity
  8
02___PRT_ALL_AXES
  6
Continuous
 62
     7
100
AcDbSpline
 70
     0
 71
     3
 72
     9
 73
     5
 74
     0
 42
0.000000001
 43
0.0000001
 40
0.0
 40
0.0
 40
0.0
 40
0.0
 40
0.270305486
 40
1.0
 40
1.0
 40
1.0
 40
1.0
 10
341.6115914733
 20
173.2844459894
 30
0.0
 10
341.590092719
 20
173.2960349595
 30
0.0
 10
341.5116364384
 20
173.340788405
 30
0.0
 10
341.4372326702
 20
173.3933115257
 30
0.0
 10
341.3881824285
 20
173.4373684331
 30
0.0
  0
SPLINE
  5
513
330
225
100
AcDbEntity
  8
02___PRT_ALL_AXES
  6
Continuous
 62
     7
100
AcDbSpline
 70
     0
 71
     3
 72
     9
 73
     5
 74
     0
 42
0.000000001
 43
0.0000001
 40
0.0
 40
0.0
 40
0.0
 40
0.0
 40
0.4737418194
 40
1.0
 40
1.0
 40
1.0
 40
1.0
 10
337.7636845142
 20
172.2489800281
 30
0.0
 10
337.6272375779
 20
172.3326080862
 30
0.0
 10
337.3241147484
 20
172.4846956383
 30
0.0
 10
337.0053781215
 20
172.5987080052
 30
0.0
 10
336.8351907298
 20
172.6500955295
 30
0.0
  0
SPLINE
  5
514
330
225
100
AcDbEntity
  8
02___PRT_ALL_AXES
  6
Continuous
 62
     7
100
AcDbSpline
 70
     0
 71
     3
 72
    13
 73
     9
 74
     0
 42
0.000000001
 43
0.0000001
 40
0.0
 40
0.0
 40
0.0
 40
0.0
 40
0.2649176513
 40
0.5172769457
 40
0.6399573137
 40
0.7609345462
 40
0.8807583886
 40
1.0
 40
1.0
 40
1.0
 40
1.0
 10
320.933060651
 20
146.1727602937
 30
0.0
 10
320.7382890124
 20
145.9400157164
 30
0.0
 10
320.3838420561
 20
145.4629125932
 30
0.0
 10
320.0273945367
 20
144.8193580568
 30
0.0
 10
319.8079605083
 20
144.294704524
 30
0.0
 10
319.6762645809
 20
143.8992386551
 30
0.0
 10
319.5761518121
 20
143.4987090447
 30
0.0
 10
319.5304994496
 20
143.2283346089
 30
0.0
 10
319.5130273727
 20
143.0928533586
 30
0.0
  0
SPLINE
  5
515
330
225
100
AcDbEntity
  8
02___PRT_ALL_AXES
  6
Continuous
 62
     7
100
AcDbSpline
 70
     0
 71
     3
 72
    13
 73
     9
 74
     0
 42
0.000000001
 43
0.0000001
 40
0.0
 40
0.0
 40
0.0
 40
0.0
 40
0.2649175992
 40
0.5172769442
 40
0.6399573132
 40
0.7609345312
 40
0.8807583738
 40
1.0
 40
1.0
 40
1.0
 40
1.0
 10
312.4664353171
 20
106.8758067265
 30
0.0
 10
312.2468736597
 20
106.6134390353
 30
0.0
 10
311.8473136946
 20
106.0756112618
 30
0.0
 10
311.4454989601
 20
105.3501463245
 30
0.0
 10
311.1981367141
 20
104.7587157578
 30
0.0
 10
311.0496797564
 20
104.3129156694
 30
0.0
 10
310.9368257855
 20
103.8614073722
 30
0.0
 10
310.8853640752
 20
103.5566201253
 30
0.0
 10
310.8656684072
 20
103.4038951033
 30
0.0
  0
SPLINE
  5
516
330
225
100
AcDbEntity
  8
02___PRT_ALL_AXES
  6
Continuous
 62
     7
100
AcDbSpline
 70
     0
 71
     3
 72
    13
 73
     9
 74
     0
 42
0.000000001
 43
0.0000001
 40
0.0
 40
0.0
 40
0.0
 40
0.0
 40
0.264917699
 40
0.5172769482
 40
0.6399573096
 40
0.7609345445
 40
0.8807583877
 40
1.0
 40
1.0
 40
1.0
 40
1.0
 10
317.934792929
 20
104.0985204696
 30
0.0
 10
317.7577277451
 20
103.886934421
 30
0.0
 10
317.4355031902
 20
103.4532042396
 30
0.0
 10
317.1114600058
 20
102.8681545457
 30
0.0
 10
316.9119745294
 20
102.3911967613
 30
0.0
 10
316.7922509343
 20
102.0316822884
 30
0.0
 10
316.7012393081
 20
101.6675644034
 30
0.0
 10
316.6597371676
 20
101.4217694213
 30
0.0
 10
316.6438534646
 20
101.2986046284
 30
0.0
  0
SPLINE
  5
517
330
225
100
AcDbEntity
  8
02___PRT_ALL_AXES
  6
Continuous
 62
     7
100
AcDbSpline
 70
     0
 71
     3
 72
    23
 73
    19
 74
     0
 42
0.000000001
 43
0.0000001
 40
0.0
 40
0.0
 40
0.0
 40
0.0
 40
0.0565258409
 40
0.1134750405
 40
0.1714291267
 40
0.2308267739
 40
0.2919079682
 40
0.3546961993
 40
0.4190141968
 40
0.4845236798
 40
0.5507788672
 40
0.6172847225
 40
0.6835529228
 40
0.7491507838
 40
0.8137404086
 40
0.8771065735
 40
0.9391721759
 40
1.0
 40
1.0
 40
1.0
 40
1.0
 10
354.7660668166
 20
130.5269026469
 30
0.0
 10
354.7078951632
 20
130.4573892843
 30
0.0
 10
354.5775915318
 20
130.3285534096
 30
0.0
 10
354.3481350045
 20
130.1744394902
 30
0.0
 10
354.0902873823
 20
130.0627201677
 30
0.0
 10
353.8106848959
 20
129.9958490274
 30
0.0
 10
353.5163036656
 20
129.9749820955
 30
0.0
 10
353.2144586588
 20
130.0002276681
 30
0.0
 10
352.912652912
 20
130.0706643228
 30
0.0
 10
352.6184493278
 20
130.1843931933
 30
0.0
 10
352.3392972398
 20
130.3385779696
 30
0.0
 10
352.082346317
 20
130.5295063856
 30
0.0
 10
351.8542630106
 20
130.7526639858
 30
0.0
 10
351.6610628082
 20
131.0028183377
 30
0.0
 10
351.5079569902
 20
131.2740817903
 30
0.0
 10
351.3992109555
 20
131.5600387329
 30
0.0
 10
351.3379896828
 20
131.8536367619
 30
0.0
 10
351.3300915677
 20
132.0516635669
 30
0.0
 10
351.3346826342
 20
132.14909636
 30
0.0
  0
SPLINE
  5
518
330
225
100
AcDbEntity
  8
02___PRT_ALL_AXES
  6
Continuous
 62
     7
100
AcDbSpline
 70
     0
 71
     3
 72
     9
 73
     5
 74
     0
 42
0.000000001
 43
0.0000001
 40
0.0
 40
0.0
 40
0.0
 40
0.0
 40
0.4947454576
 40
1.0
 40
1.0
 40
1.0
 40
1.0
 10
354.486671467
 20
130.2690618655
 30
0.0
 10
354.5217256328
 20
130.3435987231
 30
0.0
 10
354.5803352075
 20
130.5002838238
 30
0.0
 10
354.6138313982
 20
130.6640979981
 30
0.0
 10
354.6245903302
 20
130.7475250342
 30
0.0
  0
SPLINE
  5
519
330
225
100
AcDbEntity
  8
02___PRT_ALL_AXES
  6
Continuous
 62
     7
100
AcDbSpline
 70
     0
 71
     3
 72
    51
 73
    47
 74
     0
 42
0.000000001
 43
0.0000001
 40
0.0
 40
0.0
 40
0.0
 40
0.0
 40
0.0209799053
 40
0.0321335076
 40
0.0437588246
 40
0.0558732385
 40
0.0684884035
 40
0.0816108501
 40
0.0952425331
 40
0.1093813268
 40
0.1240214637
 40
0.154762356
 40
0.1873648682
 40
0.2216854274
 40
0.2575496999
 40
0.2947583653
 40
0.3330919905
 40
0.3723152806
 40
0.4121809444
 40
0.452433292
 40
0.4928116763
 40
0.5330538503
 40
0.5728992971
 40
0.6120925874
 40
0.6503868263
 40
0.6875472642
 40
0.7233551616
 40
0.757612077
 40
0.7901447551
 40
0.8208109473
 40
0.8354124303
 40
0.8495120012
 40
0.863104159
 40
0.8761870788
 40
0.8887630543
 40
0.9008389946
 40
0.9124269766
 40
0.9235448401
 40
0.9342168036
 40
0.944474052
 40
0.9543552269
 40
0.963906722
 40
0.9731826546
 40
0.9822443831
 40
0.9911594604
 40
1.0
 40
1.0
 40
1.0
 40
1.0
 10
320.933060651
 20
146.1727602937
 30
0.0
 10
321.2070300997
 20
146.5001431921
 30
0.0
 10
321.6680669093
 20
146.9680098728
 30
0.0
 10
322.3524265957
 20
147.5380536974
 30
0.0
 10
322.9252672789
 20
147.958343825
 30
0.0
 10
323.5458189724
 20
148.3616321223
 30
0.0
 10
324.2129297268
 20
148.7472271713
 30
0.0
 10
324.9252470343
 20
149.1143596072
 30
0.0
 10
325.6813592451
 20
149.4623178734
 30
0.0
 10
326.479765461
 20
149.7904262176
 30
0.0
 10
327.6171091975
 20
150.2073304655
 30
0.0
 10
329.1359006597
 20
150.6715174498
 30
0.0
 10
331.0703810684
 20
151.1313022081
 30
0.0
 10
333.1303535895
 20
151.4989625444
 30
0.0
 10
335.2993972152
 20
151.7715518934
 30
0.0
 10
337.5602854793
 20
151.9468765179
 30
0.0
 10
339.8949835425
 20
152.0235091866
 30
0.0
 10
342.28484761
 20
152.0008146664
 30
0.0
 10
344.7107702466
 20
151.8789555943
 30
0.0
 10
347.1533437733
 20
151.6588943073
 30
0.0
 10
349.5930204497
 20
151.3423860852
 30
0.0
 10
352.0102741576
 20
150.9319637293
 30
0.0
 10
354.385761616
 20
150.4309184983
 30
0.0
 10
356.7004822039
 20
149.8432708495
 30
0.0
 10
358.93593461
 20
149.1737370072
 30
0.0
 10
361.0742746973
 20
148.4276868786
 30
0.0
 10
363.0984534151
 20
147.611097987
 30
0.0
 10
364.9924044468
 20
146.7304833683
 30
0.0
 10
366.7410356046
 20
145.7928768215
 30
0.0
 10
368.0870251619
 20
144.9569846239
 30
0.0
 10
369.0768351409
 20
144.2640710434
 30
0.0
 10
369.7623559574
 20
143.7434426485
 30
0.0
 10
370.4018272147
 20
143.2144250254
 30
0.0
 10
370.9939771895
 20
142.6780510693
 30
0.0
 10
371.53762329
 20
142.135376205
 30
0.0
 10
372.0316777582
 20
141.5874591042
 30
0.0
 10
372.4751460204
 20
141.0353633392
 30
0.0
 10
372.8671256062
 20
140.4801545063
 30
0.0
 10
373.20680402
 20
139.9229003913
 30
0.0
 10
373.4934559711
 20
139.3646725148
 30
0.0
 10
373.7264412875
 20
138.8065516597
 30
0.0
 10
373.9052053035
 20
138.2496331819
 30
0.0
 10
374.0292858349
 20
137.6950460711
 30
0.0
 10
374.0983220147
 20
137.1439277986
 30
0.0
 10
374.11208957
 20
136.5975474611
 30
0.0
 10
374.0843006039
 20
136.2365798165
 30
0.0
 10
374.0612925833
 20
136.0581719819
 30
0.0
  0
SPLINE
  5
51A
330
225
100
AcDbEntity
  8
02___PRT_ALL_AXES
  6
Continuous
 62
     7
100
AcDbSpline
 70
     0
 71
     3
 72
    51
 73
    47
 74
     0
 42
0.000000001
 43
0.0000001
 40
0.0
 40
0.0
 40
0.0
 40
0.0
 40
0.0209799021
 40
0.0321334996
 40
0.0437588146
 40
0.0558732263
 40
0.0684883876
 40
0.0816108291
 40
0.0952425075
 40
0.109381298
 40
0.124021431
 40
0.154762311
 40
0.1873648134
 40
0.2216853605
 40
0.2575496211
 40
0.2947582747
 40
0.3330918881
 40
0.3723151669
 40
0.4121808208
 40
0.4524331592
 40
0.4928115361
 40
0.5330537045
 40
0.5728991474
 40
0.6120924362
 40
0.6503866764
 40
0.6875471172
 40
0.7233550213
 40
0.7576119452
 40
0.7901446343
 40
0.8208108409
 40
0.8354123308
 40
0.8495119096
 40
0.8631040765
 40
0.8761870051
 40
0.8887629896
 40
0.9008389392
 40
0.9124269299
 40
0.9235448016
 40
0.9342167741
 40
0.9444740311
 40
0.9543552129
 40
0.963906713
 40
0.9731826503
 40
0.9822443824
 40
0.9911594612
 40
1.0
 40
1.0
 40
1.0
 40
1.0
 10
312.4664353171
 20
106.8758067265
 30
0.0
 10
312.7752734835
 20
107.2448563944
 30
0.0
 10
313.2949874225
 20
107.7722695069
 30
0.0
 10
314.0664469973
 20
108.4148641463
 30
0.0
 10
314.7121942895
 20
108.8886455986
 30
0.0
 10
315.4117250251
 20
109.343261204
 30
0.0
 10
316.1637403102
 20
109.777931875
 30
0.0
 10
316.9667156018
 20
110.1917902387
 30
0.0
 10
317.8190597253
 20
110.5840340549
 30
0.0
 10
318.7190808178
 20
110.9539014414
 30
0.0
 10
320.0011766273
 20
111.4238660612
 30
0.0
 10
321.7132676631
 20
111.9471316652
 30
0.0
 10
323.8939533628
 20
112.4654342635
 30
0.0
 10
326.2161027719
 20
112.8798880563
 30
0.0
 10
328.6612050422
 20
113.1871708197
 30
0.0
 10
331.2098412583
 20
113.3848098239
 30
0.0
 10
333.8416812589
 20
113.4711962354
 30
0.0
 10
336.5357084455
 20
113.4456139307
 30
0.0
 10
339.2703835363
 20
113.3082460412
 30
0.0
 10
342.0238288615
 20
113.0601779055
 30
0.0
 10
344.7740087265
 20
112.703387395
 30
0.0
 10
347.4989120192
 20
112.2407305634
 30
0.0
 10
350.1767334917
 20
111.6759167753
 30
0.0
 10
352.7860543611
 20
111.0134785999
 30
0.0
 10
355.3060186287
 20
110.2587324833
 30
0.0
 10
357.7165110174
 20
109.4177314286
 30
0.0
 10
359.9983127577
 20
108.4972142189
 30
0.0
 10
362.1333126165
 20
107.504522395
 30
0.0
 10
364.1044976002
 20
106.4475850582
 30
0.0
 10
365.6217959061
 20
105.5053075893
 30
0.0
 10
366.7375825094
 20
104.7242055684
 30
0.0
 10
367.510352168
 20
104.1373158375
 30
0.0
 10
368.2312115693
 20
103.5409692023
 30
0.0
 10
368.8987269937
 20
102.9363298766
 30
0.0
 10
369.5115653933
 20
102.3245877022
 30
0.0
 10
370.0685005987
 20
101.7069361099
 30
0.0
 10
370.5684113693
 20
101.0845739633
 30
0.0
 10
371.0102803811
 20
100.4587024786
 30
0.0
 10
371.3931919283
 20
99.8305254477
 30
0.0
 10
371.7163283354
 20
99.2012507118
 30
0.0
 10
371.9789677343
 20
98.572096542
 30
0.0
 10
372.1804847696
 20
97.9442976957
 30
0.0
 10
372.3203588923
 20
97.319126975
 30
0.0
 10
372.3981833854
 20
96.6978665374
 30
0.0
 10
372.4137047691
 20
96.0819469868
 30
0.0
 10
372.3823803689
 20
95.6750379658
 30
0.0
 10
372.356444346
 20
95.4739237077
 30
0.0
  0
SPLINE
  5
51B
330
225
100
AcDbEntity
  8
02___PRT_ALL_AXES
  6
Continuous
 62
     7
100
AcDbSpline
 70
     0
 71
     3
 72
    48
 73
    44
 74
     0
 42
0.000000001
 43
0.0000001
 40
0.0
 40
0.0
 40
0.0
 40
0.0
 40
0.02098036
 40
0.0321342053
 40
0.0437597744
 40
0.0558744511
 40
0.0684898889
 40
0.08161262
 40
0.0952445993
 40
0.1240187911
 40
0.1547603483
 40
0.1873635692
 40
0.2216848728
 40
0.2575499221
 40
0.2947593961
 40
0.3330938521
 40
0.372317993
 40
0.4121845221
 40
0.4524377428
 40
0.4928170032
 40
0.5330600504
 40
0.5729063618
 40
0.6121005027
 40
0.6503955727
 40
0.687556817
 40
0.7233654926
 40
0.7576231507
 40
0.7901565357
 40
0.8208233948
 40
0.8495196622
 40
0.8631121157
 40
0.8761953213
 40
0.8887715707
 40
0.9008477724
 40
0.9235431784
 40
0.9342153748
 40
0.9444728469
 40
0.9543542364
 40
0.9639059382
 40
0.9731820721
 40
0.9822439975
 40
0.9911592686
 40
1.0
 40
1.0
 40
1.0
 40
1.0
 10
317.934792929
 20
104.0985204696
 30
0.0
 10
318.1838560552
 20
104.3961412756
 30
0.0
 10
318.6029804176
 20
104.8214746154
 30
0.0
 10
319.2251256058
 20
105.3396962916
 30
0.0
 10
319.7458898403
 20
105.7217780973
 30
0.0
 10
320.3100279061
 20
106.0884042078
 30
0.0
 10
320.9164913716
 20
106.4389436714
 30
0.0
 10
321.5640556549
 20
106.7727065608
 30
0.0
 10
322.4974116153
 20
107.2022060489
 30
0.0
 10
323.7611483176
 20
107.689856122
 30
0.0
 10
325.3918660747
 20
108.1882926963
 30
0.0
 10
327.1505542547
 20
108.6062877913
 30
0.0
 10
329.0232363404
 20
108.9405218458
 30
0.0
 10
330.9950999023
 20
109.1883312816
 30
0.0
 10
333.0504512044
 20
109.3477168393
 30
0.0
 10
335.1729044085
 20
109.4173831514
 30
0.0
 10
337.3455079358
 20
109.3967517703
 30
0.0
 10
339.5508921417
 20
109.2859706838
 30
0.0
 10
341.771413502
 20
109.0859151372
 30
0.0
 10
343.9893013514
 20
108.7981803295
 30
0.0
 10
346.1868046873
 20
108.4250691314
 30
0.0
 10
348.3463387598
 20
107.9695735014
 30
0.0
 10
350.4506300667
 20
107.4353484378
 30
0.0
 10
352.4828599466
 20
106.8266811641
 30
0.0
 10
354.4268039264
 20
106.1484543727
 30
0.0
 10
356.2669718755
 20
105.4060987682
 30
0.0
 10
357.9887265618
 20
104.6055477045
 30
0.0
 10
359.5784566622
 20
103.7531512933
 30
0.0
 10
361.0235303006
 20
102.8556788469
 30
0.0
 10
362.1169651662
 20
102.0621769165
 30
0.0
 10
362.906399243
 20
101.4091286002
 30
0.0
 10
363.4447098849
 20
100.9215179304
 30
0.0
 10
363.9389655265
 20
100.4281480725
 30
0.0
 10
364.5256123743
 20
99.77752107
 30
0.0
 10
365.0360459247
 20
99.106363543
 30
0.0
 10
365.4563739212
 20
98.4168420782
 30
0.0
 10
365.7169713188
 20
97.9093471754
 30
0.0
 10
365.9287750296
 20
97.4019683918
 30
0.0
 10
366.0912879446
 20
96.8956778722
 30
0.0
 10
366.2040883352
 20
96.3915080332
 30
0.0
 10
366.2668486407
 20
95.8904913716
 30
0.0
 10
366.2793647256
 20
95.3937819881
 30
0.0
 10
366.25410209
 20
95.0656295719
 30
0.0
 10
366.2331857152
 20
94.9034406316
 30
0.0
  0
SPLINE
  5
51C
330
225
100
AcDbEntity
  8
02___PRT_ALL_AXES
  6
Continuous
 62
     7
100
AcDbSpline
 70
     0
 71
     3
 72
    13
 73
     9
 74
     0
 42
0.000000001
 43
0.0000001
 40
0.0
 40
0.0
 40
0.0
 40
0.0
 40
0.1192416262
 40
0.2390654688
 40
0.3600426868
 40
0.4827230558
 40
0.7350824008
 40
1.0
 40
1.0
 40
1.0
 40
1.0
 10
372.1839075593
 20
94.1360369322
 30
0.0
 10
372.1642118913
 20
93.9833119102
 30
0.0
 10
372.112750181
 20
93.6785246633
 30
0.0
 10
371.9998962101
 20
93.2270163662
 30
0.0
 10
371.8514392524
 20
92.7812162777
 30
0.0
 10
371.6040770065
 20
92.189785711
 30
0.0
 10
371.2022622719
 20
91.4643207738
 30
0.0
 10
370.8027023068
 20
90.9264930003
 30
0.0
 10
370.5831406495
 20
90.664125309
 30
0.0
  0
SPLINE
  5
51D
330
225
100
AcDbEntity
  8
02___PRT_ALL_AXES
  6
Continuous
 62
     7
100
AcDbSpline
 70
     0
 71
     3
 72
     9
 73
     5
 74
     0
 42
0.000000001
 43
0.0000001
 40
0.0
 40
0.0
 40
0.0
 40
0.0
 40
0.4935396747
 40
1.0
 40
1.0
 40
1.0
 40
1.0
 10
316.7773970113
 20
101.9578359028
 30
0.0
 10
316.7800559103
 20
101.7516896992
 30
0.0
 10
316.8119474746
 20
101.3339729244
 30
0.0
 10
316.8939104382
 20
100.9232920348
 30
0.0
 10
316.9467827373
 20
100.7184447401
 30
0.0
  0
SPLINE
  5
51E
330
225
100
AcDbEntity
  8
02___PRT_ALL_AXES
  6
Continuous
 62
     7
100
AcDbSpline
 70
     0
 71
     3
 72
    51
 73
    47
 74
     0
 42
0.000000001
 43
0.0000001
 40
0.0
 40
0.0
 40
0.0
 40
0.0
 40
0.0088405388
 40
0.0177556176
 40
0.0268173497
 40
0.036093287
 40
0.0456447871
 40
0.0555259689
 40
0.0657832259
 40
0.0764551984
 40
0.0875730701
 40
0.0991610608
 40
0.1112370104
 40
0.1238129949
 40
0.1368959235
 40
0.1504880904
 40
0.1645876692
 40
0.1791891591
 40
0.2098553657
 40
0.2423880548
 40
0.2766449787
 40
0.3124528828
 40
0.3496133236
 40
0.3879075638
 40
0.4271008526
 40
0.4669462955
 40
0.5071884639
 40
0.5475668408
 40
0.5878191792
 40
0.6276848331
 40
0.6669081119
 40
0.7052417253
 40
0.7424503789
 40
0.7783146395
 40
0.8126351866
 40
0.845237689
 40
0.875978569
 40
0.890618702
 40
0.9047574925
 40
0.9183891709
 40
0.9315116124
 40
0.9441267737
 40
0.9562411854
 40
0.9678665004
 40
0.9790200979
 40
1.0
 40
1.0
 40
1.0
 40
1.0
 10
310.6931316205
 20
102.0660083279
 30
0.0
 10
310.6671955976
 20
101.8648940698
 30
0.0
 10
310.6358711974
 20
101.4579850487
 30
0.0
 10
310.6513925811
 20
100.8420654982
 30
0.0
 10
310.7292170742
 20
100.2208050606
 30
0.0
 10
310.8690911969
 20
99.5956343399
 30
0.0
 10
311.0706082322
 20
98.9678354935
 30
0.0
 10
311.3332476311
 20
98.3386813237
 30
0.0
 10
311.6563840382
 20
97.7094065879
 30
0.0
 10
312.0392955854
 20
97.081229557
 30
0.0
 10
312.4811645972
 20
96.4553580723
 30
0.0
 10
312.9810753678
 20
95.8329959257
 30
0.0
 10
313.5380105732
 20
95.2153443334
 30
0.0
 10
314.1508489728
 20
94.603602159
 30
0.0
 10
314.8183643972
 20
93.9989628333
 30
0.0
 10
315.5392237986
 20
93.4026161981
 30
0.0
 10
316.3119934571
 20
92.8157264672
 30
0.0
 10
317.4277800604
 20
92.0346244463
 30
0.0
 10
318.9450783663
 20
91.0923469774
 30
0.0
 10
320.9162633501
 20
90.0354096406
 30
0.0
 10
323.0512632088
 20
89.0427178167
 30
0.0
 10
325.3330649491
 20
88.122200607
 30
0.0
 10
327.7435573378
 20
87.2811995522
 30
0.0
 10
330.2635216054
 20
86.5264534356
 30
0.0
 10
332.8728424748
 20
85.8640152603
 30
0.0
 10
335.5506639473
 20
85.2992014722
 30
0.0
 10
338.27556724
 20
84.8365446405
 30
0.0
 10
341.025747105
 20
84.4797541301
 30
0.0
 10
343.7791924303
 20
84.2316859943
 30
0.0
 10
346.513867521
 20
84.0943181049
 30
0.0
 10
349.2078947076
 20
84.0687358002
 30
0.0
 10
351.8397347082
 20
84.1551222117
 30
0.0
 10
354.3883709243
 20
84.3527612158
 30
0.0
 10
356.8334731947
 20
84.6600439793
 30
0.0
 10
359.1556226037
 20
85.0744977721
 30
0.0
 10
361.3363083034
 20
85.5928003704
 30
0.0
 10
363.0483993392
 20
86.1160659744
 30
0.0
 10
364.3304951487
 20
86.5860305942
 30
0.0
 10
365.2305162412
 20
86.9558979807
 30
0.0
 10
366.0828603647
 20
87.3481417969
 30
0.0
 10
366.8858356563
 20
87.7620001606
 30
0.0
 10
367.6378509414
 20
88.1966708316
 30
0.0
 10
368.337381677
 20
88.6512864369
 30
0.0
 10
368.9831289692
 20
89.1250678892
 30
0.0
 10
369.754588544
 20
89.7676625287
 30
0.0
 10
370.274302483
 20
90.2950756412
 30
0.0
 10
370.5831406495
 20
90.664125309
 30
0.0
  0
SPLINE
  5
51F
330
225
100
AcDbEntity
  8
02___PRT_ALL_AXES
  6
Continuous
 62
     7
100
AcDbSpline
 70
     0
 71
     3
 72
    51
 73
    47
 74
     0
 42
0.000000001
 43
0.0000001
 40
0.0
 40
0.0
 40
0.0
 40
0.0
 40
0.0209799021
 40
0.0321334996
 40
0.0437588146
 40
0.0558732263
 40
0.0684883876
 40
0.0816108291
 40
0.0952425075
 40
0.109381298
 40
0.124021431
 40
0.154762311
 40
0.1873648134
 40
0.2216853605
 40
0.2575496211
 40
0.2947582747
 40
0.3330918881
 40
0.3723151669
 40
0.4121808208
 40
0.4524331592
 40
0.4928115361
 40
0.5330537045
 40
0.5728991474
 40
0.6120924362
 40
0.6503866764
 40
0.6875471172
 40
0.7233550213
 40
0.7576119452
 40
0.7901446343
 40
0.8208108409
 40
0.8354123308
 40
0.8495119096
 40
0.8631040765
 40
0.8761870051
 40
0.8887629896
 40
0.9008389392
 40
0.9124269299
 40
0.9235448016
 40
0.9342167741
 40
0.9444740311
 40
0.9543552129
 40
0.963906713
 40
0.9731826503
 40
0.9822443824
 40
0.9911594612
 40
1.0
 40
1.0
 40
1.0
 40
1.0
 10
312.2938985303
 20
105.5379199511
 30
0.0
 10
312.6027366968
 20
105.9069696189
 30
0.0
 10
313.1224506358
 20
106.4343827314
 30
0.0
 10
313.8939102106
 20
107.0769773709
 30
0.0
 10
314.5396575028
 20
107.5507588231
 30
0.0
 10
315.2391882384
 20
108.0053744285
 30
0.0
 10
315.9912035235
 20
108.4400450995
 30
0.0
 10
316.7941788151
 20
108.8539034632
 30
0.0
 10
317.6465229386
 20
109.2461472794
 30
0.0
 10
318.5465440311
 20
109.6160146659
 30
0.0
 10
319.8286398406
 20
110.0859792857
 30
0.0
 10
321.5407308764
 20
110.6092448897
 30
0.0
 10
323.7214165761
 20
111.127547488
 30
0.0
 10
326.0435659851
 20
111.5420012808
 30
0.0
 10
328.4886682555
 20
111.8492840442
 30
0.0
 10
331.0373044716
 20
112.0469230484
 30
0.0
 10
333.6691444722
 20
112.1333094599
 30
0.0
 10
336.3631716588
 20
112.1077271552
 30
0.0
 10
339.0978467496
 20
111.9703592657
 30
0.0
 10
341.8512920748
 20
111.72229113
 30
0.0
 10
344.6014719398
 20
111.3655006196
 30
0.0
 10
347.3263752325
 20
110.9028437879
 30
0.0
 10
350.004196705
 20
110.3380299998
 30
0.0
 10
352.6135175744
 20
109.6755918244
 30
0.0
 10
355.133481842
 20
108.9208457079
 30
0.0
 10
357.5439742307
 20
108.0798446531
 30
0.0
 10
359.825775971
 20
107.1593274434
 30
0.0
 10
361.9607758297
 20
106.1666356195
 30
0.0
 10
363.9319608135
 20
105.1096982827
 30
0.0
 10
365.4492591194
 20
104.1674208138
 30
0.0
 10
366.5650457227
 20
103.3863187929
 30
0.0
 10
367.3378153813
 20
102.799429062
 30
0.0
 10
368.0586747826
 20
102.2030824268
 30
0.0
 10
368.726190207
 20
101.5984431011
 30
0.0
 10
369.3390286066
 20
100.9867009267
 30
0.0
 10
369.895963812
 20
100.3690493344
 30
0.0
 10
370.3958745826
 20
99.7466871878
 30
0.0
 10
370.8377435944
 20
99.1208157031
 30
0.0
 10
371.2206551416
 20
98.4926386722
 30
0.0
 10
371.5437915487
 20
97.8633639363
 30
0.0
 10
371.8064309476
 20
97.2342097666
 30
0.0
 10
372.0079479829
 20
96.6064109202
 30
0.0
 10
372.1478221056
 20
95.9812401995
 30
0.0
 10
372.2256465987
 20
95.3599797619
 30
0.0
 10
372.2411679824
 20
94.7440602113
 30
0.0
 10
372.2098435822
 20
94.3371511903
 30
0.0
 10
372.1839075593
 20
94.1360369322
 30
0.0
  0
SPLINE
  5
520
330
225
100
AcDbEntity
  8
02___PRT_ALL_AXES
  6
Continuous
 62
     7
100
AcDbSpline
 70
     0
 71
     3
 72
    13
 73
     9
 74
     0
 42
0.000000001
 43
0.0000001
 40
0.0
 40
0.0
 40
0.0
 40
0.0
 40
0.1192416123
 40
0.2390654555
 40
0.3600426904
 40
0.4827230518
 40
0.735082301
 40
1.0
 40
1.0
 40
1.0
 40
1.0
 10
366.2331857152
 20
94.9034406316
 30
0.0
 10
366.2173020122
 20
94.7802758388
 30
0.0
 10
366.1757998717
 20
94.5344808567
 30
0.0
 10
366.0847882455
 20
94.1703629717
 30
0.0
 10
365.9650646504
 20
93.8108484988
 30
0.0
 10
365.765579174
 20
93.3338907144
 30
0.0
 10
365.4415359896
 20
92.7488410205
 30
0.0
 10
365.1193114347
 20
92.3151108391
 30
0.0
 10
364.9422462508
 20
92.1035247905
 30
0.0
  0
SPLINE
  5
521
330
225
100
AcDbEntity
  8
02___PRT_ALL_AXES
  6
Continuous
 62
     7
100
AcDbSpline
 70
     0
 71
     3
 72
     9
 73
     5
 74
     0
 42
0.000000001
 43
0.0000001
 40
0.0
 40
0.0
 40
0.0
 40
0.0
 40
0.5022701232
 40
1.0
 40
1.0
 40
1.0
 40
1.0
 10
354.985586288
 20
130.8818536454
 30
0.0
 10
354.9574373182
 20
130.8177083852
 30
0.0
 10
354.8925065542
 20
130.6936975616
 30
0.0
 10
354.8106163708
 20
130.5801380139
 30
0.0
 10
354.7660668166
 20
130.5269026469
 30
0.0
  0
SPLINE
  5
522
330
225
100
AcDbEntity
  8
02___PRT_ALL_AXES
  6
Continuous
 62
     7
100
AcDbSpline
 70
     0
 71
     3
 72
    24
 73
    20
 74
     0
 42
0.000000001
 43
0.0000001
 40
0.0
 40
0.0
 40
0.0
 40
0.0
 40
0.0443359023
 40
0.0893455719
 40
0.1356639331
 40
0.1838561762
 40
0.2088169056
 40
0.2344168697
 40
0.2876927512
 40
0.3439913382
 40
0.4035178676
 40
0.4664026973
 40
0.5327112654
 40
0.6024532145
 40
0.6755903077
 40
0.7520432356
 40
0.8316972169
 40
0.9144068291
 40
1.0
 40
1.0
 40
1.0
 40
1.0
 10
316.6438534646
 20
101.2986046284
 30
0.0
 10
316.6156593094
 20
101.0799826065
 30
0.0
 10
316.5894515709
 20
100.6348713161
 30
0.0
 10
316.6421963521
 20
99.960497128
 30
0.0
 10
316.7862841744
 20
99.2800613038
 30
0.0
 10
316.9794751814
 20
98.7168485384
 30
0.0
 10
317.1765565591
 20
98.2669481115
 30
0.0
 10
317.4085167906
 20
97.8054862862
 30
0.0
 10
317.7558355739
 20
97.2288042507
 30
0.0
 10
318.2531569716
 20
96.5497117412
 30
0.0
 10
318.8346014085
 20
95.8767068289
 30
0.0
 10
319.4979979842
 20
95.2121391933
 30
0.0
 10
320.240954492
 20
94.5582875139
 30
0.0
 10
321.0607957114
 20
93.9174459877
 30
0.0
 10
321.9545762031
 20
93.2918803527
 30
0.0
 10
322.9190798189
 20
92.6838246625
 30
0.0
 10
323.9508352327
 20
92.0954594885
 30
0.0
 10
325.0460992134
 20
91.5289156791
 30
0.0
 10
325.8036292545
 20
91.1729364679
 30
0.0
 10
326.1918999036
 20
90.9987356701
 30
0.0
  0
SPLINE
  5
523
330
225
100
AcDbEntity
  8
02___PRT_ALL_AXES
  6
Continuous
 62
     7
100
AcDbSpline
 70
     0
 71
     3
 72
    29
 73
    25
 74
     0
 42
0.000000001
 43
0.0000001
 40
0.0
 40
0.0
 40
0.0
 40
0.0
 40
0.0669702465
 40
0.1366045795
 40
0.2082113241
 40
0.2810558826
 40
0.3543776619
 40
0.4274062243
 40
0.4993771697
 40
0.5695481803
 40
0.6372157081
 40
0.6699098133
 40
0.7017413347
 40
0.7326416772
 40
0.7625485443
 40
0.7914068053
 40
0.8191695234
 40
0.8457991006
 40
0.8712686677
 40
0.8955636662
 40
0.9186837732
 40
0.9406450947
 40
0.9614827431
 40
1.0
 40
1.0
 40
1.0
 40
1.0
 10
327.7590199492
 20
90.3376757346
 30
0.0
 10
328.5657502372
 20
90.0178407594
 30
0.0
 10
330.2324820994
 20
89.4179046972
 30
0.0
 10
332.8202614405
 20
88.6499424797
 30
0.0
 10
335.5193595314
 20
88.0033885248
 30
0.0
 10
338.2948179508
 20
87.4866841328
 30
0.0
 10
341.1108297954
 20
87.1065165035
 30
0.0
 10
343.930988683
 20
86.8678058413
 30
0.0
 10
346.7188838988
 20
86.773610676
 30
0.0
 10
349.4384417305
 20
86.8251145646
 30
0.0
 10
351.6434431237
 20
86.9906527171
 30
0.0
 10
353.3441117638
 20
87.1978045521
 30
0.0
 10
354.5663772823
 20
87.3867718109
 30
0.0
 10
355.7460341681
 20
87.6104790253
 30
0.0
 10
356.8792768539
 20
87.868207903
 30
0.0
 10
357.9624422205
 20
88.1591238281
 30
0.0
 10
358.9920373548
 20
88.4822893753
 30
0.0
 10
359.9647488046
 20
88.8366709724
 30
0.0
 10
360.8774478583
 20
89.2211365613
 30
0.0
 10
361.7272233391
 20
89.6344883985
 30
0.0
 10
362.5113033013
 20
90.075391851
 30
0.0
 10
363.2273559559
 20
90.5426545006
 30
0.0
 10
364.0657310845
 20
91.1816193667
 30
0.0
 10
364.6219264254
 20
91.7207549842
 30
0.0
 10
364.9422462508
 20
92.1035247905
 30
0.0
  0
SPLINE
  5
524
330
225
100
AcDbEntity
  8
02___PRT_ALL_AXES
  6
Continuous
 62
     7
100
AcDbSpline
 70
     0
 71
     3
 72
    13
 73
     9
 74
     0
 42
0.000000001
 43
0.0000001
 40
0.0
 40
0.0
 40
0.0
 40
0.0
 40
0.2649175992
 40
0.5172769442
 40
0.6399573132
 40
0.7609345312
 40
0.8807583738
 40
1.0
 40
1.0
 40
1.0
 40
1.0
 10
312.2938985303
 20
105.5379199511
 30
0.0
 10
312.074336873
 20
105.2755522598
 30
0.0
 10
311.6747769079
 20
104.7377244863
 30
0.0
 10
311.2729621733
 20
104.0122595491
 30
0.0
 10
311.0255999274
 20
103.4208289823
 30
0.0
 10
310.8771429697
 20
102.9750288939
 30
0.0
 10
310.7642889988
 20
102.5235205967
 30
0.0
 10
310.7128272885
 20
102.2187333499
 30
0.0
 10
310.6931316205
 20
102.0660083279
 30
0.0
  0
SPLINE
  5
525
330
225
100
AcDbEntity
  8
7_ALL_FEATURES
  6
Continuous
 62
     7
100
AcDbSpline
 70
     0
 71
     3
 72
    14
 73
    10
 74
     0
 42
0.000000001
 43
0.0000001
 40
0.0
 40
0.0
 40
0.0
 40
0.0
 40
0.265082825
 40
0.3954914975
 40
0.5228095561
 40
0.646519379
 40
0.7667237739
 40
0.884137193
 40
1.0
 40
1.0
 40
1.0
 40
1.0
 10
293.5302172097
 20
115.1502616192
 30
0.0
 10
293.3125473728
 20
115.3112862473
 30
0.0
 10
293.0268025916
 20
115.6127523065
 30
0.0
 10
292.7767823461
 20
116.0870936849
 30
0.0
 10
292.662202746
 20
116.4622087852
 30
0.0
 10
292.6257930571
 20
116.8423147381
 30
0.0
 10
292.6694424432
 20
117.2118221577
 30
0.0
 10
292.7918155431
 20
117.5547366867
 30
0.0
 10
292.9233186889
 20
117.7565826251
 30
0.0
 10
292.9992508999
 20
117.8473531438
 30
0.0
  0
SPLINE
  5
526
330
225
100
AcDbEntity
  8
7_ALL_FEATURES
  6
Continuous
 62
     7
100
AcDbSpline
 70
     0
 71
     3
 72
    13
 73
     9
 74
     0
 42
0.000000001
 43
0.0000001
 40
0.0
 40
0.0
 40
0.0
 40
0.0
 40
0.2613808159
 40
0.5138159411
 40
0.6372640228
 40
0.7591229669
 40
0.8798543299
 40
1.0
 40
1.0
 40
1.0
 40
1.0
 10
356.7931814906
 20
127.9026684031
 30
0.0
 10
356.0379936584
 20
128.0292629771
 30
0.0
 10
354.5189842844
 20
128.1115265452
 30
0.0
 10
352.6652070075
 20
127.7519958592
 30
0.0
 10
351.3128986699
 20
127.1964238926
 30
0.0
 10
350.3818778672
 20
126.6573901109
 30
0.0
 10
349.5418734212
 20
126.0012203593
 30
0.0
 10
349.050114572
 20
125.4912880991
 30
0.0
 10
348.8242322281
 20
125.2213603833
 30
0.0
  0
SPLINE
  5
527
330
225
100
AcDbEntity
  8
7_ALL_FEATURES
  6
Continuous
 62
     7
100
AcDbSpline
 70
     0
 71
     3
 72
    11
 73
     7
 74
     0
 42
0.000000001
 43
0.0000001
 40
0.0
 40
0.0
 40
0.0
 40
0.0
 40
0.2581925341
 40
0.514891731
 40
0.762987468
 40
1.0
 40
1.0
 40
1.0
 40
1.0
 10
335.9673981591
 20
121.8790344774
 30
0.0
 10
335.8377557787
 20
121.8863110823
 30
0.0
 10
335.5745411411
 20
121.8542646548
 30
0.0
 10
335.2250985501
 20
121.6781494301
 30
0.0
 10
334.9660158055
 20
121.3979840613
 30
0.0
 10
334.8799941689
 20
121.1607595602
 30
0.0
 10
334.8647487884
 20
121.0425436522
 30
0.0
  0
SPLINE
  5
528
330
225
100
AcDbEntity
  8
7_ALL_FEATURES
  6
Continuous
 62
     7
100
AcDbSpline
 70
     0
 71
     3
 72
     9
 73
     5
 74
     0
 42
0.000000001
 43
0.0000001
 40
0.0
 40
0.0
 40
0.0
 40
0.0
 40
0.2507152661
 40
1.0
 40
1.0
 40
1.0
 40
1.0
 10
346.5575825209
 20
121.2846255604
 30
0.0
 10
346.6027170652
 20
121.2820922357
 30
0.0
 10
346.7824565299
 20
121.267562728
 30
0.0
 10
346.9608977569
 20
121.2361868419
 30
0.0
 10
347.0918040049
 20
121.2027832054
 30
0.0
  0
SPLINE
  5
529
330
225
100
AcDbEntity
  8
7_ALL_FEATURES
  6
Continuous
 62
     7
100
AcDbSpline
 70
     0
 71
     3
 72
    15
 73
    11
 74
     0
 42
0.000000001
 43
0.0000001
 40
0.0
 40
0.0
 40
0.0
 40
0.0
 40
0.1146200402
 40
0.2314859168
 40
0.3521968454
 40
0.4773005033
 40
0.6062610075
 40
0.7376625438
 40
0.8695949941
 40
1.0
 40
1.0
 40
1.0
 40
1.0
 10
394.722117331
 20
115.922197875
 30
0.0
 10
394.8152418874
 20
116.0334581508
 30
0.0
 10
394.9712317255
 20
116.2872317383
 30
0.0
 10
395.0890289984
 20
116.7229607057
 30
0.0
 10
395.0864707855
 20
117.1873087364
 30
0.0
 10
394.9650875684
 20
117.6506953683
 30
0.0
 10
394.7336896187
 20
118.0850244994
 30
0.0
 10
394.4069516295
 20
118.4642740936
 30
0.0
 10
394.0052129539
 20
118.7654820356
 30
0.0
 10
393.6997012859
 20
118.9037288495
 30
0.0
 10
393.5425154242
 20
118.9541371048
 30
0.0
  0
SPLINE
  5
52A
330
225
100
AcDbEntity
  8
7_ALL_FEATURES
  6
Continuous
 62
     7
100
AcDbSpline
 70
     0
 71
     3
 72
     9
 73
     5
 74
     0
 42
0.000000001
 43
0.0000001
 40
0.0
 40
0.0
 40
0.0
 40
0.0
 40
0.5069203056
 40
1.0
 40
1.0
 40
1.0
 40
1.0
 10
393.7746964725
 20
115.3864600492
 30
0.0
 10
393.9298713679
 20
115.4139433718
 30
0.0
 10
394.230491099
 20
115.509837992
 30
0.0
 10
394.4907794173
 20
115.6894372987
 30
0.0
 10
394.6021625077
 20
115.7947500161
 30
0.0
  0
SPLINE
  5
52B
330
225
100
AcDbEntity
  8
7_ALL_FEATURES
  6
Continuous
 62
     7
100
AcDbSpline
 70
     0
 71
     3
 72
    11
 73
     7
 74
     0
 42
0.000000001
 43
0.0000001
 40
0.0
 40
0.0
 40
0.0
 40
0.0
 40
0.2468993657
 40
0.4951410895
 40
0.7458880604
 40
1.0
 40
1.0
 40
1.0
 40
1.0
 10
348.7449102338
 20
125.1249535898
 30
0.0
 10
348.5219425169
 20
124.8493217686
 30
0.0
 10
348.1135617049
 20
124.2639086422
 30
0.0
 10
347.6289052583
 20
123.3050286688
 30
0.0
 10
347.2783553977
 20
122.2785514713
 30
0.0
 10
347.1384733564
 20
121.564667238
 30
0.0
 10
347.0918040049
 20
121.2027832054
 30
0.0
  0
ENDSEC
  0
SECTION
  2
OBJECTS
  0
DICTIONARY
  5
C
330
0
100
AcDbDictionary
281
     1
  3
ACAD_GROUP
350
D
  3
ACAD_IMAGE_VARS
350
575
  3
ACAD_LAYOUT
350
1A
  3
ACAD_MLINESTYLE
350
17
  3
ACAD_PLOTSETTINGS
350
19
  3
ACAD_PLOTSTYLENAME
350
E
  3
ACAD_SCALELIST
350
531
  3
APPDATA
350
573
  3
DWGPROPS
350
59A
  0
DICTIONARY
  5
D
102
{ACAD_REACTORS
330
C
102
}
330
C
100
AcDbDictionary
281
     1
  0
RASTERVARIABLES
  5
575
102
{ACAD_REACTORS
330
C
102
}
330
C
100
AcDbRasterVariables
 90
        0
 70
     1
 71
     1
 72
     1
  0
DICTIONARY
  5
1A
102
{ACAD_REACTORS
330
C
102
}
330
C
100
AcDbDictionary
281
     1
  3
Layout1
350
52E
  3
Model
350
52D
  0
DICTIONARY
  5
17
102
{ACAD_REACTORS
330
C
102
}
330
C
100
AcDbDictionary
281
     1
  3
Standard
350
18
  0
DICTIONARY
  5
19
102
{ACAD_REACTORS
330
C
102
}
330
C
100
AcDbDictionary
281
     1
  0
ACDBDICTIONARYWDFLT
  5
E
102
{ACAD_REACTORS
330
C
102
}
330
C
100
AcDbDictionary
281
     1
  3
Normal
350
F
100
AcDbDictionaryWithDefault
340
F
  0
DICTIONARY
  5
531
102
{ACAD_REACTORS
330
C
102
}
330
C
100
AcDbDictionary
281
     1
  3
A0
350
532
  3
A1
350
533
  3
A2
350
534
  3
A3
350
535
  3
A4
350
536
  3
A5
350
537
  3
A6
350
538
  3
A7
350
539
  3
A8
350
53A
  3
A9
350
53B
  3
B0
350
53C
  3
B1
350
53D
  3
B2
350
53E
  3
B3
350
53F
  3
B4
350
540
  3
B5
350
541
  3
B6
350
542
  3
B7
350
543
  3
B8
350
544
  3
B9
350
545
  3
C0
350
546
  3
C1
350
547
  3
C2
350
548
  3
C3
350
549
  3
C4
350
54A
  3
C5
350
54B
  3
C6
350
54C
  3
C7
350
54D
  3
C8
350
54E
  3
C9
350
54F
  3
D0
350
550
  3
D1
350
551
  3
D2
350
552
  0
DICTIONARY
  5
573
102
{ACAD_REACTORS
330
C
102
}
330
C
100
AcDbDictionary
281
     1
  0
XRECORD
  5
59A
102
{ACAD_REACTORS
330
C
102
}
330
C
100
AcDbXrecord
280
     1
  1
DWGPROPS COOKIE
  2

  3

  4

  6

  7

  8
andrea.faggionato
  9

300
=
301
=
302
=
303
=
304
=
305
=
306
=
307
=
308
=
309
=
 40
0.0
 41
0.0
 42
2456783.578177291
  1

 90
        0
  0
LAYOUT
  5
52E
102
{ACAD_REACTORS
330
1A
102
}
330
1A
100
AcDbPlotSettings
  1

  2
none_device
  4
ISO_A3_(420.00_x_297.00_MM)
  6

 40
0.0
 41
0.0
 42
0.0
 43
0.0
 44
420.0
 45
297.0
 46
0.0
 47
0.0
 48
0.0
 49
0.0
140
0.0
141
0.0
142
1.0
143
1.0
 70
     0
 72
     1
 73
     0
 74
     0
  7

 75
     0
147
1.0
148
0.0
149
0.0
100
AcDbLayout
  1
Layout1
 70
     0
 71
     1
 10
0.0
 20
0.0
 11
420.0
 21
297.0
 12
0.0
 22
0.0
 32
0.0
 14
0.0
 24
0.0
 34
0.0
 15
0.0
 25
0.0
 35
0.0
146
0.0
 13
0.0
 23
0.0
 33
0.0
 16
1.0
 26
0.0
 36
0.0
 17
0.0
 27
1.0
 37
0.0
 76
     0
330
226
  0
LAYOUT
  5
52D
102
{ACAD_REACTORS
330
1A
102
}
330
1A
100
AcDbPlotSettings
  1

  2
none_device
  4
ISO_A3_(420.00_x_297.00_MM)
  6

 40
0.0
 41
0.0
 42
0.0
 43
0.0
 44
420.0
 45
297.0
 46
0.0
 47
0.0
 48
0.0
 49
0.0
140
0.0
141
0.0
142
1.0
143
1.0
 70
  1024
 72
     1
 73
     0
 74
     0
  7

 75
     0
147
1.0
148
0.0
149
0.0
100
AcDbLayout
  1
Model
 70
     0
 71
     0
 10
0.0
 20
0.0
 11
420.0
 21
297.0
 12
0.0
 22
0.0
 32
0.0
 14
0.0
 24
0.0
 34
0.0
 15
0.0
 25
0.0
 35
0.0
146
0.0
 13
0.0
 23
0.0
 33
0.0
 16
1.0
 26
0.0
 36
0.0
 17
0.0
 27
1.0
 37
0.0
 76
     0
330
225
331
1F4
  0
MLINESTYLE
  5
18
102
{ACAD_REACTORS
330
17
102
}
330
17
100
AcDbMlineStyle
  2
STANDARD
 70
     0
  3

 62
   256
 51
90.0
 52
90.0
 71
     2
 49
0.5
 62
   256
  6
BYLAYER
 49
-0.5
 62
   256
  6
BYLAYER
  0
ACDBPLACEHOLDER
  5
F
102
{ACAD_REACTORS
330
E
102
}
330
E
  0
SCALE
  5
532
102
{ACAD_REACTORS
330
531
102
}
330
531
100
AcDbScale
 70
     0
300
1:1
140
1.0
141
1.0
290
     1
  0
SCALE
  5
533
102
{ACAD_REACTORS
330
531
102
}
330
531
100
AcDbScale
 70
     0
300
1:2
140
1.0
141
2.0
290
     0
  0
SCALE
  5
534
102
{ACAD_REACTORS
330
531
102
}
330
531
100
AcDbScale
 70
     0
300
1:4
140
1.0
141
4.0
290
     0
  0
SCALE
  5
535
102
{ACAD_REACTORS
330
531
102
}
330
531
100
AcDbScale
 70
     0
300
1:5
140
1.0
141
5.0
290
     0
  0
SCALE
  5
536
102
{ACAD_REACTORS
330
531
102
}
330
531
100
AcDbScale
 70
     0
300
1:8
140
1.0
141
8.0
290
     0
  0
SCALE
  5
537
102
{ACAD_REACTORS
330
531
102
}
330
531
100
AcDbScale
 70
     0
300
1:10
140
1.0
141
10.0
290
     0
  0
SCALE
  5
538
102
{ACAD_REACTORS
330
531
102
}
330
531
100
AcDbScale
 70
     0
300
1:16
140
1.0
141
16.0
290
     0
  0
SCALE
  5
539
102
{ACAD_REACTORS
330
531
102
}
330
531
100
AcDbScale
 70
     0
300
1:20
140
1.0
141
20.0
290
     0
  0
SCALE
  5
53A
102
{ACAD_REACTORS
330
531
102
}
330
531
100
AcDbScale
 70
     0
300
1:30
140
1.0
141
30.0
290
     0
  0
SCALE
  5
53B
102
{ACAD_REACTORS
330
531
102
}
330
531
100
AcDbScale
 70
     0
300
1:40
140
1.0
141
40.0
290
     0
  0
SCALE
  5
53C
102
{ACAD_REACTORS
330
531
102
}
330
531
100
AcDbScale
 70
     0
300
1:50
140
1.0
141
50.0
290
     0
  0
SCALE
  5
53D
102
{ACAD_REACTORS
330
531
102
}
330
531
100
AcDbScale
 70
     0
300
1:100
140
1.0
141
100.0
290
     0
  0
SCALE
  5
53E
102
{ACAD_REACTORS
330
531
102
}
330
531
100
AcDbScale
 70
     0
300
2:1
140
2.0
141
1.0
290
     0
  0
SCALE
  5
53F
102
{ACAD_REACTORS
330
531
102
}
330
531
100
AcDbScale
 70
     0
300
4:1
140
4.0
141
1.0
290
     0
  0
SCALE
  5
540
102
{ACAD_REACTORS
330
531
102
}
330
531
100
AcDbScale
 70
     0
300
8:1
140
8.0
141
1.0
290
     0
  0
SCALE
  5
541
102
{ACAD_REACTORS
330
531
102
}
330
531
100
AcDbScale
 70
     0
300
10:1
140
10.0
141
1.0
290
     0
  0
SCALE
  5
542
102
{ACAD_REACTORS
330
531
102
}
330
531
100
AcDbScale
 70
     0
300
100:1
140
100.0
141
1.0
290
     0
  0
SCALE
  5
543
102
{ACAD_REACTORS
330
531
102
}
330
531
100
AcDbScale
 70
     0
300
1/128" = 1'-0"
140
0.0078125
141
12.0
290
     0
  0
SCALE
  5
544
102
{ACAD_REACTORS
330
531
102
}
330
531
100
AcDbScale
 70
     0
300
1/64" = 1'-0"
140
0.015625
141
12.0
290
     0
  0
SCALE
  5
545
102
{ACAD_REACTORS
330
531
102
}
330
531
100
AcDbScale
 70
     0
300
1/32" = 1'-0"
140
0.03125
141
12.0
290
     0
  0
SCALE
  5
546
102
{ACAD_REACTORS
330
531
102
}
330
531
100
AcDbScale
 70
     0
300
1/16" = 1'-0"
140
0.0625
141
12.0
290
     0
  0
SCALE
  5
547
102
{ACAD_REACTORS
330
531
102
}
330
531
100
AcDbScale
 70
     0
300
3/32" = 1'-0"
140
0.09375
141
12.0
290
     0
  0
SCALE
  5
548
102
{ACAD_REACTORS
330
531
102
}
330
531
100
AcDbScale
 70
     0
300
1/8" = 1'-0"
140
0.125
141
12.0
290
     0
  0
SCALE
  5
549
102
{ACAD_REACTORS
330
531
102
}
330
531
100
AcDbScale
 70
     0
300
3/16" = 1'-0"
140
0.1875
141
12.0
290
     0
  0
SCALE
  5
54A
102
{ACAD_REACTORS
330
531
102
}
330
531
100
AcDbScale
 70
     0
300
1/4" = 1'-0"
140
0.25
141
12.0
290
     0
  0
SCALE
  5
54B
102
{ACAD_REACTORS
330
531
102
}
330
531
100
AcDbScale
 70
     0
300
3/8" = 1'-0"
140
0.375
141
12.0
290
     0
  0
SCALE
  5
54C
102
{ACAD_REACTORS
330
531
102
}
330
531
100
AcDbScale
 70
     0
300
1/2" = 1'-0"
140
0.5
141
12.0
290
     0
  0
SCALE
  5
54D
102
{ACAD_REACTORS
330
531
102
}
330
531
100
AcDbScale
 70
     0
300
3/4" = 1'-0"
140
0.75
141
12.0
290
     0
  0
SCALE
  5
54E
102
{ACAD_REACTORS
330
531
102
}
330
531
100
AcDbScale
 70
     0
300
1" = 1'-0"
140
1.0
141
12.0
290
     0
  0
SCALE
  5
54F
102
{ACAD_REACTORS
330
531
102
}
330
531
100
AcDbScale
 70
     0
300
1-1/2" = 1'-0"
140
1.5
141
12.0
290
     0
  0
SCALE
  5
550
102
{ACAD_REACTORS
330
531
102
}
330
531
100
AcDbScale
 70
     0
300
3" = 1'-0"
140
3.0
141
12.0
290
     0
  0
SCALE
  5
551
102
{ACAD_REACTORS
330
531
102
}
330
531
100
AcDbScale
 70
     0
300
6" = 1'-0"
140
6.0
141
12.0
290
     0
  0
SCALE
  5
552
102
{ACAD_REACTORS
330
531
102
}
330
531
100
AcDbScale
 70
     0
300
1'-0" = 1'-0"
140
12.0
141
12.0
290
     0
  0
ENDSEC
  0
EOF
