999
DXF file: 680_c_005.dxf
999
Pro/ENGINEER 2011490 by Parametric Technology Corporation
  0
SECTION
  2
HEADER
  9
$ACADVER
  1
AC1021
  9
$DWGCODEPAGE
  3
ANSI_1252
  9
$EXTMAX
 10
420.0
 20
297.0
 30
0.0
  9
$EXTMIN
 10
0.0
 20
0.0
 30
0.0
  9
$LIMMIN
 10
0.0
 20
0.0
  9
$LIMMAX
 10
420.0
 20
297.0
  9
$VIEWCTR
 10
210.0
 20
148.5
  9
$VIEWSIZE
 40
297.0
  9
$CLAYER
  8
0
  9
$LTSCALE
 40
23.1
  9
$CELTYPE
  6
BYLAYER
  9
$DIMSCALE
 40
1.0
  9
$DIMASZ
 40
2.5
  9
$DIMEXO
 40
2.625
  9
$DIMDLI
 40
15.96
  9
$DIMEXE
 40
7.56
  9
$DIMCEN
 40
3.78
  9
$DIMLFAC
 40
1.0
  9
$DIMBLK
  1
_CLOSED
  9
$DIMTXT
 40
3.0
  9
$DIMTOL
 70
1
  9
$DIMLIM
 70
0
  9
$DIMTFAC
 40
1.0
  9
$DIMTP
 40
0.01
  9
$DIMTM
 40
0.01
  9
$PDMODE
 70
3
  9
$PDSIZE
 40
0.3125
  9
$HANDSEED
  5
5F0
  9
$TILEMODE
 70
1
  9
$MEASUREMENT
 70
1
  9
$INSUNITS
 70
4
  0
ENDSEC
  0
SECTION
  2
CLASSES
  0
CLASS
  1
ACDBDICTIONARYWDFLT
  2
AcDbDictionaryWithDefault
  3
AutoCAD 2000
 90
0
 91
1
280
0
281
0
  0
CLASS
  1
ACDBPLACEHOLDER
  2
AcDbPlaceHolder
  3
AutoCAD 2000
 90
0
 91
1
280
0
281
0
  0
CLASS
  1
LAYOUT
  2
AcDbLayout
  3
AutoCAD 2000
 90
0
 91
0
280
0
281
0
  0
CLASS
  1
TABLESTYLE
  2
AcDbTableStyle
  3
ObjectDBX Classes
 90
2047
 91
1
280
0
281
0
  0
CLASS
  1
ACAD_TABLE
  2
AcDbTable
  3
ObjectDBX Classes
 90
1025
 91
1
280
0
281
1
  0
ENDSEC
  0
SECTION
  2
TABLES
  0
TABLE
  2
VPORT
  5
8
100
AcDbSymbolTable
 70
2
  0
VPORT
  5
1F4
100
AcDbSymbolTableRecord
100
AcDbViewportTableRecord
  2
*ACTIVE
 70
0
 10
0.0
 20
0.0
 11
1.0
 21
1.0
 12
210.0
 22
148.5
 13
0.0
 23
0.0
 14
1.0
 24
1.0
 15
0.0
 25
0.0
 16
0.0
 26
0.0
 36
1.0
 17
0.0
 27
0.0
 37
0.0
 40
297.0
 41
1.4141414141
 42
50.0
 43
0.0
 44
0.0
 50
0.0
 51
0.0
 71
0
 72
100
 73
1
 74
1
 75
0
 76
0
 77
0
 78
0
  0
ENDTAB
  0
TABLE
  2
LTYPE
  5
5
100
AcDbSymbolTable
 70
6
  0
LTYPE
  5
14
100
AcDbSymbolTableRecord
100
AcDbLinetypeTableRecord
  2
BYBLOCK
 70
0
  3

 72
65
 73
0
 40
0.0
  0
LTYPE
  5
15
100
AcDbSymbolTableRecord
100
AcDbLinetypeTableRecord
  2
BYLAYER
 70
0
  3

 72
65
 73
0
 40
0.0
  0
LTYPE
  5
16
100
AcDbSymbolTableRecord
100
AcDbLinetypeTableRecord
  2
CONTINUOUS
 70
64
  3
Solid line
 72
65
 73
0
 40
0.0
  0
LTYPE
  5
1F5
100
AcDbSymbolTableRecord
100
AcDbLinetypeTableRecord
  2
CENTER
 70
64
  3
____ _ ____ _ ____ _ ____ _ ____ _ ____ _ ____
 72
65
 73
4
 40
0.6
 49
0.375
 74
0
 49
-0.075
 74
0
 49
0.075
 74
0
 49
-0.075
 74
0
  0
LTYPE
  5
1F6
100
AcDbSymbolTableRecord
100
AcDbLinetypeTableRecord
  2
HIDDEN
 70
64
  3
- - - - - - - - - - - - - - - - - - - -
 72
65
 73
2
 40
0.2
 49
0.1
 74
0
 49
-0.1
 74
0
  0
LTYPE
  5
1F7
100
AcDbSymbolTableRecord
100
AcDbLinetypeTableRecord
  2
PHANTOM
 70
64
  3
_____ _ _ _____ _ _ _____ _ _ _____
 72
65
 73
6
 40
0.8
 49
0.45
 74
0
 49
-0.05
 74
0
 49
0.1
 74
0
 49
-0.05
 74
0
 49
0.1
 74
0
 49
-0.05
 74
0
  0
LTYPE
  5
1F8
100
AcDbSymbolTableRecord
100
AcDbLinetypeTableRecord
  2
DOT
 70
64
  3
. . . . . . . . . . . . . . . . . . . .
 72
65
 73
2
 40
0.2
 49
0.1
 74
0
 49
-0.1
 74
0
  0
LTYPE
  5
1F9
100
AcDbSymbolTableRecord
100
AcDbLinetypeTableRecord
  2
DASHED
 70
64
  3
- - - - - - - - - - - - - - - - - - - -
 72
65
 73
2
 40
0.2
 49
0.1
 74
0
 49
-0.1
 74
0
  0
ENDTAB
  0
TABLE
  2
LAYER
  5
2
100
AcDbSymbolTable
 70
36
  0
LAYER
  5
10
100
AcDbSymbolTableRecord
100
AcDbLayerTableRecord
  2
0
 70
0
 62
7
  6
CONTINUOUS
370
-3
390
F
  0
LAYER
  5
1FA
100
AcDbSymbolTableRecord
100
AcDbLayerTableRecord
  2
DEFAULT_1
 70
0
 62
7
  6
CENTER
370
-3
390
F
  0
LAYER
  5
1FB
100
AcDbSymbolTableRecord
100
AcDbLayerTableRecord
  2
DEFAULT_2
 70
0
 62
8
  6
HIDDEN
370
-3
390
F
  0
LAYER
  5
1FC
100
AcDbSymbolTableRecord
100
AcDbLayerTableRecord
  2
DEFAULT_3
 70
0
 62
7
  6
PHANTOM
370
-3
390
F
  0
LAYER
  5
1FD
100
AcDbSymbolTableRecord
100
AcDbLayerTableRecord
  2
01_ALL_DTM_PLN
 70
0
 62
7
  6
CONTINUOUS
370
-3
390
F
  0
LAYER
  5
1FE
100
AcDbSymbolTableRecord
100
AcDbLayerTableRecord
  2
01__ASM_ALL_DTM_PLN
 70
0
 62
7
  6
CONTINUOUS
370
-3
390
F
  0
LAYER
  5
1FF
100
AcDbSymbolTableRecord
100
AcDbLayerTableRecord
  2
01__ASM_DEF_DTM_PLN
 70
0
 62
7
  6
CONTINUOUS
370
-3
390
F
  0
LAYER
  5
200
100
AcDbSymbolTableRecord
100
AcDbLayerTableRecord
  2
01___PRT_ALL_DTM_PLN
 70
0
 62
7
  6
CONTINUOUS
370
-3
390
F
  0
LAYER
  5
201
100
AcDbSymbolTableRecord
100
AcDbLayerTableRecord
  2
01___PRT_DEF_DTM_PLN
 70
0
 62
7
  6
CONTINUOUS
370
-3
390
F
  0
LAYER
  5
202
100
AcDbSymbolTableRecord
100
AcDbLayerTableRecord
  2
02_ALL_AXES
 70
0
 62
7
  6
CONTINUOUS
370
-3
390
F
  0
LAYER
  5
203
100
AcDbSymbolTableRecord
100
AcDbLayerTableRecord
  2
02__ASM_ALL_AXES
 70
0
 62
7
  6
CONTINUOUS
370
-3
390
F
  0
LAYER
  5
204
100
AcDbSymbolTableRecord
100
AcDbLayerTableRecord
  2
02___PRT_ALL_AXES
 70
0
 62
7
  6
CONTINUOUS
370
-3
390
F
  0
LAYER
  5
205
100
AcDbSymbolTableRecord
100
AcDbLayerTableRecord
  2
03_ALL_CURVES
 70
0
 62
7
  6
CONTINUOUS
370
-3
390
F
  0
LAYER
  5
206
100
AcDbSymbolTableRecord
100
AcDbLayerTableRecord
  2
03__ASM_ALL_CURVES
 70
0
 62
7
  6
CONTINUOUS
370
-3
390
F
  0
LAYER
  5
207
100
AcDbSymbolTableRecord
100
AcDbLayerTableRecord
  2
03___PRT_ALL_CURVES
 70
0
 62
7
  6
CONTINUOUS
370
-3
390
F
  0
LAYER
  5
208
100
AcDbSymbolTableRecord
100
AcDbLayerTableRecord
  2
04_ALL_DTM_PNT
 70
0
 62
7
  6
CONTINUOUS
370
-3
390
F
  0
LAYER
  5
209
100
AcDbSymbolTableRecord
100
AcDbLayerTableRecord
  2
04__ASM_ALL_DTM_PNT
 70
0
 62
7
  6
CONTINUOUS
370
-3
390
F
  0
LAYER
  5
20A
100
AcDbSymbolTableRecord
100
AcDbLayerTableRecord
  2
04___PRT_ALL_DTM_PNT
 70
0
 62
7
  6
CONTINUOUS
370
-3
390
F
  0
LAYER
  5
20B
100
AcDbSymbolTableRecord
100
AcDbLayerTableRecord
  2
05_ALL_DTM_CSYS
 70
0
 62
7
  6
CONTINUOUS
370
-3
390
F
  0
LAYER
  5
20C
100
AcDbSymbolTableRecord
100
AcDbLayerTableRecord
  2
05__ASM_ALL_DTM_CSYS
 70
0
 62
7
  6
CONTINUOUS
370
-3
390
F
  0
LAYER
  5
20D
100
AcDbSymbolTableRecord
100
AcDbLayerTableRecord
  2
05__ASM_DEF_DTM_CSYS
 70
0
 62
7
  6
CONTINUOUS
370
-3
390
F
  0
LAYER
  5
20E
100
AcDbSymbolTableRecord
100
AcDbLayerTableRecord
  2
05___PRT_ALL_DTM_CSYS
 70
0
 62
7
  6
CONTINUOUS
370
-3
390
F
  0
LAYER
  5
20F
100
AcDbSymbolTableRecord
100
AcDbLayerTableRecord
  2
05___PRT_DEF_DTM_CSYS
 70
0
 62
7
  6
CONTINUOUS
370
-3
390
F
  0
LAYER
  5
210
100
AcDbSymbolTableRecord
100
AcDbLayerTableRecord
  2
06_ALL_SURFS
 70
0
 62
7
  6
CONTINUOUS
370
-3
390
F
  0
LAYER
  5
211
100
AcDbSymbolTableRecord
100
AcDbLayerTableRecord
  2
06__ASM_ALL_SURFS
 70
0
 62
7
  6
CONTINUOUS
370
-3
390
F
  0
LAYER
  5
212
100
AcDbSymbolTableRecord
100
AcDbLayerTableRecord
  2
06___PRT_ALL_SURFS
 70
0
 62
7
  6
CONTINUOUS
370
-3
390
F
  0
LAYER
  5
213
100
AcDbSymbolTableRecord
100
AcDbLayerTableRecord
  2
07__ASM_ALL_SKELETONS
 70
0
 62
7
  6
CONTINUOUS
370
-3
390
F
  0
LAYER
  5
214
100
AcDbSymbolTableRecord
100
AcDbLayerTableRecord
  2
1_ALL_PLANES
 70
0
 62
7
  6
CONTINUOUS
370
-3
390
F
  0
LAYER
  5
215
100
AcDbSymbolTableRecord
100
AcDbLayerTableRecord
  2
3_ALL_AXES
 70
0
 62
7
  6
CONTINUOUS
370
-3
390
F
  0
LAYER
  5
216
100
AcDbSymbolTableRecord
100
AcDbLayerTableRecord
  2
5_ALL_CURVES
 70
0
 62
7
  6
CONTINUOUS
370
-3
390
F
  0
LAYER
  5
217
100
AcDbSymbolTableRecord
100
AcDbLayerTableRecord
  2
6_ALL_SURFS
 70
0
 62
7
  6
CONTINUOUS
370
-3
390
F
  0
LAYER
  5
218
100
AcDbSymbolTableRecord
100
AcDbLayerTableRecord
  2
7_ALL_FEATURES
 70
0
 62
7
  6
CONTINUOUS
370
-3
390
F
  0
LAYER
  5
219
100
AcDbSymbolTableRecord
100
AcDbLayerTableRecord
  2
8_ALL_NOTES_BALLOONS_SYMBOLS_GT
 70
0
 62
7
  6
CONTINUOUS
370
-3
390
F
  0
LAYER
  5
21A
100
AcDbSymbolTableRecord
100
AcDbLayerTableRecord
  2
NONE
 70
0
 62
7
  6
CONTINUOUS
370
-3
390
F
  0
LAYER
  5
21B
100
AcDbSymbolTableRecord
100
AcDbLayerTableRecord
  2
XXX_SOLIDO
 70
0
 62
7
  6
CONTINUOUS
370
-3
390
F
  0
ENDTAB
  0
TABLE
  2
STYLE
  5
3
100
AcDbSymbolTable
 70
1
  0
STYLE
  5
11
100
AcDbSymbolTableRecord
100
AcDbTextStyleTableRecord
  2
STANDARD
 70
0
 40
0.0
 41
0.85
 50
0.0
 71
0
 42
0.2
  3
txt
  4

  0
STYLE
  5
21C
100
AcDbSymbolTableRecord
100
AcDbTextStyleTableRecord
  2
TEXTSTYLE_1
 70
0
 40
0.0
 41
0.8
 50
0.0
 71
0
 42
0.2
  3
gdt
  4

  0
STYLE
  5
21D
100
AcDbSymbolTableRecord
100
AcDbTextStyleTableRecord
  2
TEXTSTYLE_2
 70
0
 40
0.0
 41
0.9
 50
0.0
 71
0
 42
0.2
  3
txt
  4

  0
STYLE
  5
21E
100
AcDbSymbolTableRecord
100
AcDbTextStyleTableRecord
  2
TEXTSTYLE_3
 70
0
 40
0.0
 41
0.9
 50
0.0
 71
0
 42
0.2
  3
txt
  4

  0
STYLE
  5
21F
100
AcDbSymbolTableRecord
100
AcDbTextStyleTableRecord
  2
TEXTSTYLE_4
 70
0
 40
0.0
 41
0.85
 50
0.0
 71
0
 42
0.2
  3
txt
  4

  0
ENDTAB
  0
TABLE
  2
VIEW
  5
6
100
AcDbSymbolTable
 70
0
  0
ENDTAB
  0
TABLE
  2
UCS
  5
7
100
AcDbSymbolTable
 70
0
  0
ENDTAB
  0
TABLE
  2
APPID
  5
9
100
AcDbSymbolTable
 70
1
  0
APPID
  5
220
100
AcDbSymbolTableRecord
100
AcDbRegAppTableRecord
  2
ACAD
 70
0
  0
ENDTAB
  0
TABLE
  2
BLOCK_RECORD
  5
1
100
AcDbSymbolTable
 70
0
  0
BLOCK_RECORD
  5
221
100
AcDbSymbolTableRecord
100
AcDbBlockTableRecord
  2
*Model_Space
  0
BLOCK_RECORD
  5
222
100
AcDbSymbolTableRecord
100
AcDbBlockTableRecord
  2
*Paper_Space
  0
BLOCK_RECORD
  5
223
100
AcDbSymbolTableRecord
100
AcDbBlockTableRecord
  2
_CLOSED
  0
BLOCK_RECORD
  5
224
100
AcDbSymbolTableRecord
100
AcDbBlockTableRecord
  2
*D0
  0
BLOCK_RECORD
  5
225
100
AcDbSymbolTableRecord
100
AcDbBlockTableRecord
  2
*D1
  0
BLOCK_RECORD
  5
226
100
AcDbSymbolTableRecord
100
AcDbBlockTableRecord
  2
*D2
  0
BLOCK_RECORD
  5
227
100
AcDbSymbolTableRecord
100
AcDbBlockTableRecord
  2
*D3
  0
BLOCK_RECORD
  5
228
100
AcDbSymbolTableRecord
100
AcDbBlockTableRecord
  2
LOGO2_BL0
  0
BLOCK_RECORD
  5
229
100
AcDbSymbolTableRecord
100
AcDbBlockTableRecord
  2
*T1
  0
ENDTAB
  0
TABLE
  2
DIMSTYLE
  5
A
100
AcDbSymbolTable
 70
1
100
AcDbDimStyleTable
 71
0
  0
DIMSTYLE
105
22A
100
AcDbSymbolTableRecord
100
AcDbDimStyleTableRecord
  2
STANDARD
 70
0
  3

  4

 40
1.0
 41
2.5
 42
0.0625
 43
0.38
 44
0.18
 45
0.0
 46
0.0
 47
0.01
 48
0.01
140
3.0
141
0.09
142
0.0
143
25.4
144
1.0
145
0.0
146
1.0
147
0.09
 71
1.0
 72
0.0
 73
0
 74
0
 75
0
 76
0
 77
1
 78
8
170
0
171
2
172
0
173
0
174
0
175
0
176
0
177
0
178
0
270
2
271
2
272
2
273
2
274
2
275
0
280
0
281
0
282
0
283
1
284
8
285
0
286
0
287
3
288
0
340
11
341
223
342
223
343
223
344
223
  0
DIMSTYLE
105
22B
100
AcDbSymbolTableRecord
100
AcDbDimStyleTableRecord
  2
DIMSTYLE_1
 70
0
  3

  4

 40
1.0
 41
2.5
 42
0.0625
 43
0.38
 44
0.18
 45
0.0
 46
0.0
 47
0.3
 48
0.3
140
3.0
141
0.09
142
0.0
143
25.4
144
1.0
145
0.0
146
1.0
147
0.09
 71
0.0
 72
0.0
 73
0
 74
0
 75
0
 76
0
 77
1
 78
8
170
0
171
2
172
0
173
0
174
0
175
0
176
0
177
0
178
0
270
2
271
2
272
2
273
2
274
2
275
0
280
0
281
0
282
0
283
1
284
8
285
0
286
0
287
3
288
0
340
11
341
223
342
223
343
223
344
223
  0
DIMSTYLE
105
22C
100
AcDbSymbolTableRecord
100
AcDbDimStyleTableRecord
  2
DIMSTYLE_2
 70
0
  3

  4

 40
1.0
 41
2.5
 42
0.0625
 43
0.38
 44
0.18
 45
0.0
 46
0.0
 47
0.3
 48
0.3
140
3.0
141
0.09
142
0.0
143
25.4
144
1.0
145
0.0
146
1.0
147
0.09
 71
0.0
 72
0.0
 73
0
 74
0
 75
0
 76
0
 77
1
 78
8
170
0
171
2
172
0
173
0
174
0
175
0
176
0
177
0
178
0
270
2
271
0
272
0
273
2
274
2
275
0
280
0
281
0
282
0
283
1
284
8
285
0
286
0
287
3
288
0
340
11
341
223
342
223
343
223
344
223
  0
ENDTAB
  0
ENDSEC
  0
SECTION
  2
BLOCKS
  0
BLOCK
  5
20
100
AcDbEntity
  8
0
100
AcDbBlockBegin
  2
*Model_Space
 70
0
 10
0.0
 20
0.0
 30
0.0
  3
*Model_Space
  1

  0
ENDBLK
  5
21
100
AcDbEntity
  8
0
100
AcDbBlockEnd
  0
BLOCK
  5
1C
100
AcDbEntity
  8
0
100
AcDbBlockBegin
  2
*Paper_Space
 70
0
 10
0.0
 20
0.0
 30
0.0
  3
*Paper_Space
  1

  0
ENDBLK
  5
1D
100
AcDbEntity
  8
0
100
AcDbBlockEnd
  0
BLOCK
  5
22D
100
AcDbEntity
  8
0
100
AcDbBlockBegin
 62
2
  6
CONTINUOUS
  2
LOGO2_BL0
 70
64
 10
333.1473869546
 20
37.5239270671
  3
LOGO2_BL0
  1

  0
LINE
  5
22E
100
AcDbEntity
  8
0
100
AcDbLine
 62
7
  6
CONTINUOUS
 10
324.8903121828
 20
40.7194184059
 11
323.5859712535
 21
40.7194184059
  0
LINE
  5
22F
100
AcDbEntity
  8
0
100
AcDbLine
 62
7
  6
CONTINUOUS
 10
323.5859712535
 20
40.7194184059
 11
323.5859712535
 21
30.260352346
  0
LINE
  5
230
100
AcDbEntity
  8
0
100
AcDbLine
 62
7
  6
CONTINUOUS
 10
323.5859712535
 20
30.260352346
 11
328.0670261417
 21
30.260352346
  0
LINE
  5
231
100
AcDbEntity
  8
0
100
AcDbLine
 62
7
  6
CONTINUOUS
 10
328.0670261417
 20
30.260352346
 11
328.0670261417
 21
31.4532066711
  0
LINE
  5
232
100
AcDbEntity
  8
0
100
AcDbLine
 62
7
  6
CONTINUOUS
 10
328.0670261417
 20
31.4532066711
 11
324.8903121828
 21
31.4532066711
  0
LINE
  5
233
100
AcDbEntity
  8
0
100
AcDbLine
 62
7
  6
CONTINUOUS
 10
324.8903121828
 20
31.4532066711
 11
324.8903121828
 21
40.7194184059
  0
LINE
  5
234
100
AcDbEntity
  8
0
100
AcDbLine
 62
7
  6
CONTINUOUS
 10
339.8266383991
 20
40.7194184059
 11
338.522820881
 21
40.7194184059
  0
LINE
  5
235
100
AcDbEntity
  8
0
100
AcDbLine
 62
7
  6
CONTINUOUS
 10
338.522820881
 20
40.7194184059
 11
338.522820881
 21
30.260352346
  0
LINE
  5
236
100
AcDbEntity
  8
0
100
AcDbLine
 62
7
  6
CONTINUOUS
 10
338.522820881
 20
30.260352346
 11
343.0040066221
 21
30.260352346
  0
LINE
  5
237
100
AcDbEntity
  8
0
100
AcDbLine
 62
7
  6
CONTINUOUS
 10
343.0040066221
 20
30.260352346
 11
343.0040066221
 21
31.4532066711
  0
LINE
  5
238
100
AcDbEntity
  8
0
100
AcDbLine
 62
7
  6
CONTINUOUS
 10
343.0040066221
 20
31.4532066711
 11
339.8266383991
 21
31.4532066711
  0
LINE
  5
239
100
AcDbEntity
  8
0
100
AcDbLine
 62
7
  6
CONTINUOUS
 10
339.8266383991
 20
31.4532066711
 11
339.8266383991
 21
40.7194184059
  0
LWPOLYLINE
  5
23A
100
AcDbEntity
  8
0
100
AcDbPolyline
 62
7
  6
CONTINUOUS
 90
2
 70
0
 43
0.2
 10
321.9403661644
 20
26.9168010391
 10
321.9403661644
 20
25.0597377898
  0
LWPOLYLINE
  5
23B
100
AcDbEntity
  8
0
100
AcDbPolyline
 62
7
  6
CONTINUOUS
 90
2
 70
0
 43
0.2
 10
321.9403661644
 20
25.0597377898
 10
322.7360821748
 20
25.0597377898
  0
LWPOLYLINE
  5
23C
100
AcDbEntity
  8
0
100
AcDbPolyline
 62
7
  6
CONTINUOUS
 90
2
 70
0
 43
0.2
 10
322.7360821748
 20
25.0597377898
 10
322.7360821748
 20
25.2717193614
  0
LWPOLYLINE
  5
23D
100
AcDbEntity
  8
0
100
AcDbPolyline
 62
7
  6
CONTINUOUS
 90
2
 70
0
 43
0.2
 10
322.7360821748
 20
25.2717193614
 10
322.1719756593
 20
25.2717193614
  0
LWPOLYLINE
  5
23E
100
AcDbEntity
  8
0
100
AcDbPolyline
 62
7
  6
CONTINUOUS
 90
2
 70
0
 43
0.2
 10
322.1719756593
 20
25.2717193614
 10
322.1719756593
 20
26.9168010391
  0
LWPOLYLINE
  5
23F
100
AcDbEntity
  8
0
100
AcDbPolyline
 62
7
  6
CONTINUOUS
 90
2
 70
0
 43
0.2
 10
322.1719756593
 20
26.9168010391
 10
321.9403661644
 20
26.9168010391
  0
SPLINE
  5
240
100
AcDbEntity
  8
0
100
AcDbSpline
 62
7
  6
CONTINUOUS
 70
2
 71
3
 72
35
 73
31
 74
0
 42
0.0000001
 43
0.0000001
 44
0.0000000001
 40
0.0
 40
0.0
 40
0.0
 40
0.0
 40
1.0
 40
1.0
 40
1.0
 40
2.0
 40
2.0
 40
2.0
 40
3.0
 40
3.0
 40
3.0
 40
4.0
 40
4.0
 40
4.0
 40
5.0
 40
5.0
 40
5.0
 40
6.0
 40
6.0
 40
6.0
 40
7.0
 40
7.0
 40
7.0
 40
8.0
 40
8.0
 40
8.0
 40
9.0
 40
9.0
 40
9.0
 40
10.0
 40
10.0
 40
10.0
 40
10.0
 10
324.1343754303
 20
26.2122894457
 30
0.0
 10
324.1343754303
 20
26.2122894457
 30
0.0
 10
324.1343754303
 20
25.5501741665
 30
0.0
 10
324.1343754303
 20
25.5501741665
 30
0.0
 10
324.1343754303
 20
25.2350805712
 30
0.0
 10
324.2822391191
 20
25.0204819432
 30
0.0
 10
324.6223256034
 20
25.0204819432
 30
0.0
 10
324.9618886764
 20
25.0204819432
 30
0.0
 10
325.1100140709
 20
25.2350805712
 30
0.0
 10
325.1100140709
 20
25.5501741665
 30
0.0
 10
325.1100140709
 20
25.5501741665
 30
0.0
 10
325.1100140709
 20
26.2122894457
 30
0.0
 10
325.1100140709
 20
26.2122894457
 30
0.0
 10
325.1100140709
 20
26.2122894457
 30
0.0
 10
324.887956832
 20
26.2122894457
 30
0.0
 10
324.887956832
 20
26.2122894457
 30
0.0
 10
324.887956832
 20
26.2122894457
 30
0.0
 10
324.887956832
 20
25.5752979083
 30
0.0
 10
324.887956832
 20
25.5752979083
 30
0.0
 10
324.887956832
 20
25.3894869011
 30
0.0
 10
324.8412423746
 20
25.2267059906
 30
0.0
 10
324.6223256034
 20
25.2267059906
 30
0.0
 10
324.402885421
 20
25.2267059906
 30
0.0
 10
324.3561709636
 20
25.3894869011
 30
0.0
 10
324.3561709636
 20
25.5752979083
 30
0.0
 10
324.3561709636
 20
25.5752979083
 30
0.0
 10
324.3561709636
 20
26.2122894457
 30
0.0
 10
324.3561709636
 20
26.2122894457
 30
0.0
 10
324.3561709636
 20
26.2122894457
 30
0.0
 10
324.1343754303
 20
26.2122894457
 30
0.0
 10
324.1343754303
 20
26.2122894457
 30
0.0
  0
SPLINE
  5
241
100
AcDbEntity
  8
0
100
AcDbSpline
 62
7
  6
CONTINUOUS
 70
2
 71
3
 72
35
 73
31
 74
0
 42
0.0000001
 43
0.0000001
 44
0.0000000001
 40
0.0
 40
0.0
 40
0.0
 40
0.0
 40
1.0
 40
1.0
 40
1.0
 40
2.0
 40
2.0
 40
2.0
 40
3.0
 40
3.0
 40
3.0
 40
4.0
 40
4.0
 40
4.0
 40
5.0
 40
5.0
 40
5.0
 40
6.0
 40
6.0
 40
6.0
 40
7.0
 40
7.0
 40
7.0
 40
8.0
 40
8.0
 40
8.0
 40
9.0
 40
9.0
 40
9.0
 40
10.0
 40
10.0
 40
10.0
 40
10.0
 10
327.5331466281
 20
26.1709399539
 30
0.0
 10
327.4446901205
 20
26.2222342601
 30
0.0
 10
327.3312407238
 20
26.2473580019
 30
0.0
 10
327.2276052888
 20
26.2473580019
 30
0.0
 10
326.8727324356
 20
26.2473580019
 30
0.0
 10
326.5972872454
 20
25.9835587129
 30
0.0
 10
326.5972872454
 20
25.6260688032
 30
0.0
 10
326.5972872454
 20
25.2811407645
 30
0.0
 10
326.8757420505
 20
25.0210053545
 30
0.0
 10
327.2153051235
 20
25.0210053545
 30
0.0
 10
327.3312407238
 20
25.0210053545
 30
0.0
 10
327.4319973967
 20
25.0429886286
 30
0.0
 10
327.5331466281
 20
25.0968999912
 30
0.0
 10
327.5331466281
 20
25.0968999912
 30
0.0
 10
327.5331466281
 20
25.3795420867
 30
0.0
 10
327.5331466281
 20
25.3795420867
 30
0.0
 10
327.4492699692
 20
25.2863748774
 30
0.0
 10
327.345765387
 20
25.2272294019
 30
0.0
 10
327.2176604743
 20
25.2272294019
 30
0.0
 10
326.9839573343
 20
25.2272294019
 30
0.0
 10
326.8186902202
 20
25.3994317156
 30
0.0
 10
326.8186902202
 20
25.6360136177
 30
0.0
 10
326.8186902202
 20
25.8479951893
 30
0.0
 10
326.9864435379
 20
26.040087132
 30
0.0
 10
327.2032666639
 20
26.040087132
 30
0.0
 10
327.3360822782
 20
26.040087132
 30
0.0
 10
327.4446901205
 20
25.9861757693
 30
0.0
 10
327.5331466281
 20
25.8851573907
 30
0.0
 10
327.5331466281
 20
25.8851573907
 30
0.0
 10
327.5331466281
 20
26.1709399539
 30
0.0
 10
327.5331466281
 20
26.1709399539
 30
0.0
  0
SPLINE
  5
242
100
AcDbEntity
  8
0
100
AcDbSpline
 62
7
  6
CONTINUOUS
 70
2
 71
3
 72
32
 73
28
 74
0
 42
0.0000001
 43
0.0000001
 44
0.0000000001
 40
0.0
 40
0.0
 40
0.0
 40
0.0
 40
1.0
 40
1.0
 40
1.0
 40
2.0
 40
2.0
 40
2.0
 40
3.0
 40
3.0
 40
3.0
 40
4.0
 40
4.0
 40
4.0
 40
5.0
 40
5.0
 40
5.0
 40
6.0
 40
6.0
 40
6.0
 40
7.0
 40
7.0
 40
7.0
 40
8.0
 40
8.0
 40
8.0
 40
9.0
 40
9.0
 40
9.0
 40
9.0
 10
330.0650178804
 20
25.5993748276
 30
0.0
 10
330.0650178804
 20
25.5993748276
 30
0.0
 10
330.0650178804
 20
25.6333965613
 30
0.0
 10
330.0650178804
 20
25.6333965613
 30
0.0
 10
330.0650178804
 20
25.9757075435
 30
0.0
 10
329.8921613025
 20
26.2473580019
 30
0.0
 10
329.5255116954
 20
26.2473580019
 30
0.0
 10
329.153889681
 20
26.2473580019
 30
0.0
 10
328.9641530891
 20
25.9809416564
 30
0.0
 10
328.9641530891
 20
25.6260688032
 30
0.0
 10
328.9641530891
 20
25.2863748774
 30
0.0
 10
329.1782283059
 20
25.0204819432
 30
0.0
 10
329.5303532498
 20
25.0204819432
 30
0.0
 10
329.754373281
 20
25.0204819432
 30
0.0
 10
329.9565408909
 20
25.1361558378
 30
0.0
 10
330.0650178804
 20
25.3355755385
 30
0.0
 10
330.0650178804
 20
25.3355755385
 30
0.0
 10
329.8773749337
 20
25.4423514412
 30
0.0
 10
329.8773749337
 20
25.4423514412
 30
0.0
 10
329.7938908332
 20
25.3036474499
 30
0.0
 10
329.7026864163
 20
25.2178079987
 30
0.0
 10
329.5331011591
 20
25.2178079987
 30
0.0
 10
329.3211195875
 20
25.2178079987
 30
0.0
 10
329.1881731204
 20
25.4025721833
 30
0.0
 10
329.1858177696
 20
25.5993748276
 30
0.0
 10
329.1858177696
 20
25.5993748276
 30
0.0
 10
330.0650178804
 20
25.5993748276
 30
0.0
 10
330.0650178804
 20
25.5993748276
 30
0.0
  0
SPLINE
  5
243
100
AcDbEntity
  8
0
100
AcDbSpline
 62
7
  6
CONTINUOUS
 70
2
 71
3
 72
14
 73
10
 74
0
 42
0.0000001
 43
0.0000001
 44
0.0000000001
 40
0.0
 40
0.0
 40
0.0
 40
0.0
 40
1.0
 40
1.0
 40
1.0
 40
2.0
 40
2.0
 40
2.0
 40
3.0
 40
3.0
 40
3.0
 40
3.0
 10
329.1978562292
 20
25.7668664397
 30
0.0
 10
329.2254661746
 20
25.9317409954
 30
0.0
 10
329.3533093817
 20
26.054742648
 30
0.0
 10
329.5255116954
 20
26.054742648
 30
0.0
 10
329.7026864163
 20
26.054742648
 30
0.0
 10
329.816135813
 20
25.9390687534
 30
0.0
 10
329.8433531999
 20
25.7668664397
 30
0.0
 10
329.8433531999
 20
25.7668664397
 30
0.0
 10
329.1978562292
 20
25.7668664397
 30
0.0
 10
329.1978562292
 20
25.7668664397
 30
0.0
  0
SPLINE
  5
244
100
AcDbEntity
  8
0
100
AcDbSpline
 62
7
  6
CONTINUOUS
 70
2
 71
3
 72
20
 73
16
 74
0
 42
0.0000001
 43
0.0000001
 44
0.0000000001
 40
0.0
 40
0.0
 40
0.0
 40
0.0
 40
1.0
 40
1.0
 40
1.0
 40
2.0
 40
2.0
 40
2.0
 40
3.0
 40
3.0
 40
3.0
 40
4.0
 40
4.0
 40
4.0
 40
5.0
 40
5.0
 40
5.0
 40
5.0
 10
332.0890493306
 20
25.9762309548
 30
0.0
 10
332.0890493306
 20
25.9762309548
 30
0.0
 10
332.5001888972
 20
25.4737561185
 30
0.0
 10
332.5001888972
 20
25.4737561185
 30
0.0
 10
332.3841224441
 20
25.3580822239
 30
0.0
 10
332.2463344226
 20
25.2277528132
 30
0.0
 10
332.0743938145
 20
25.2277528132
 30
0.0
 10
331.8969573879
 20
25.2277528132
 30
0.0
 10
331.7294657758
 20
25.3921039576
 30
0.0
 10
331.7294657758
 20
25.5690169729
 30
0.0
 10
331.7294657758
 20
25.7469768107
 30
0.0
 10
331.9392228494
 20
25.8731189311
 30
0.0
 10
332.0668043508
 20
25.9610520275
 30
0.0
 10
332.0668043508
 20
25.9610520275
 30
0.0
 10
332.0890493306
 20
25.9762309548
 30
0.0
 10
332.0890493306
 20
25.9762309548
 30
0.0
  0
SPLINE
  5
245
100
AcDbEntity
  8
0
100
AcDbSpline
 62
7
  6
CONTINUOUS
 70
2
 71
3
 72
23
 73
19
 74
0
 42
0.0000001
 43
0.0000001
 44
0.0000000001
 40
0.0
 40
0.0
 40
0.0
 40
0.0
 40
1.0
 40
1.0
 40
1.0
 40
2.0
 40
2.0
 40
2.0
 40
3.0
 40
3.0
 40
3.0
 40
4.0
 40
4.0
 40
4.0
 40
5.0
 40
5.0
 40
5.0
 40
6.0
 40
6.0
 40
6.0
 40
6.0
 10
332.1383808444
 20
26.2672476309
 30
0.0
 10
332.1383808444
 20
26.2672476309
 30
0.0
 10
332.0767491653
 20
26.3457593241
 30
0.0
 10
332.0767491653
 20
26.3457593241
 30
0.0
 10
332.0228378026
 20
26.4143262028
 30
0.0
 10
331.9660476779
 20
26.4834164928
 30
0.0
 10
331.9660476779
 20
26.5771071133
 30
0.0
 10
331.9660476779
 20
26.6959214757
 30
0.0
 10
332.0619627964
 20
26.7733863463
 30
0.0
 10
332.1729259894
 20
26.7733863463
 30
0.0
 10
332.2961893477
 20
26.7733863463
 30
0.0
 10
332.3894874098
 20
26.7022024111
 30
0.0
 10
332.3894874098
 20
26.5718730004
 30
0.0
 10
332.3894874098
 20
26.4368328882
 30
0.0
 10
332.2613824971
 20
26.3604148401
 30
0.0
 10
332.1678227294
 20
26.2866138485
 30
0.0
 10
332.1678227294
 20
26.2866138485
 30
0.0
 10
332.1383808444
 20
26.2672476309
 30
0.0
 10
332.1383808444
 20
26.2672476309
 30
0.0
  0
SPLINE
  5
246
100
AcDbEntity
  8
0
100
AcDbSpline
 62
7
  6
CONTINUOUS
 70
2
 71
3
 72
50
 73
46
 74
0
 42
0.0000001
 43
0.0000001
 44
0.0000000001
 40
0.0
 40
0.0
 40
0.0
 40
0.0
 40
1.0
 40
1.0
 40
1.0
 40
2.0
 40
2.0
 40
2.0
 40
3.0
 40
3.0
 40
3.0
 40
4.0
 40
4.0
 40
4.0
 40
5.0
 40
5.0
 40
5.0
 40
6.0
 40
6.0
 40
6.0
 40
7.0
 40
7.0
 40
7.0
 40
8.0
 40
8.0
 40
8.0
 40
9.0
 40
9.0
 40
9.0
 40
10.0
 40
10.0
 40
10.0
 40
11.0
 40
11.0
 40
11.0
 40
12.0
 40
12.0
 40
12.0
 40
13.0
 40
13.0
 40
13.0
 40
14.0
 40
14.0
 40
14.0
 40
15.0
 40
15.0
 40
15.0
 40
15.0
 10
332.8405370871
 20
25.0602612011
 30
0.0
 10
332.8405370871
 20
25.0602612011
 30
0.0
 10
333.1259270918
 20
25.0602612011
 30
0.0
 10
333.1259270918
 20
25.0602612011
 30
0.0
 10
333.1259270918
 20
25.0602612011
 30
0.0
 10
332.793560924
 20
25.471139062
 30
0.0
 10
332.793560924
 20
25.471139062
 30
0.0
 10
332.793560924
 20
25.471139062
 30
0.0
 10
333.0200671588
 20
25.7370319963
 30
0.0
 10
333.0200671588
 20
25.7370319963
 30
0.0
 10
333.0200671588
 20
25.7370319963
 30
0.0
 10
332.8718109116
 20
25.8898680923
 30
0.0
 10
332.8718109116
 20
25.8898680923
 30
0.0
 10
332.8718109116
 20
25.8898680923
 30
0.0
 10
332.6559037553
 20
25.6386306742
 30
0.0
 10
332.6559037553
 20
25.6386306742
 30
0.0
 10
332.6559037553
 20
25.6386306742
 30
0.0
 10
332.2688411079
 20
26.1065603655
 30
0.0
 10
332.2688411079
 20
26.1065603655
 30
0.0
 10
332.4242942604
 20
26.2206640263
 30
0.0
 10
332.6065722414
 20
26.3604148401
 30
0.0
 10
332.6065722414
 20
26.5697793553
 30
0.0
 10
332.6065722414
 20
26.8136890154
 30
0.0
 10
332.4045354843
 20
26.9571037083
 30
0.0
 10
332.1780292495
 20
26.9571037083
 30
0.0
 10
331.9338578837
 20
26.9571037083
 30
0.0
 10
331.7494862575
 20
26.8063612574
 30
0.0
 10
331.7494862575
 20
26.5498897263
 30
0.0
 10
331.7494862575
 20
26.3923429287
 30
0.0
 10
331.8481492853
 20
26.25468576
 30
0.0
 10
331.953485807
 20
26.1437225669
 30
0.0
 10
331.953485807
 20
26.1437225669
 30
0.0
 10
331.8379427652
 20
26.0599767609
 30
0.0
 10
331.8379427652
 20
26.0599767609
 30
0.0
 10
331.660244633
 20
25.9317409954
 30
0.0
 10
331.5129043554
 20
25.8040286411
 30
0.0
 10
331.5129043554
 20
25.5669233277
 30
0.0
 10
331.5129043554
 20
25.2465956195
 30
0.0
 10
331.7714695316
 20
25.0204819432
 30
0.0
 10
332.0818524253
 20
25.0204819432
 30
0.0
 10
332.3007691965
 20
25.0204819432
 30
0.0
 10
332.4979643992
 20
25.145577241
 30
0.0
 10
332.6382386243
 20
25.3114986192
 30
0.0
 10
332.6382386243
 20
25.3114986192
 30
0.0
 10
332.8405370871
 20
25.0602612011
 30
0.0
 10
332.8405370871
 20
25.0602612011
 30
0.0
  0
LWPOLYLINE
  5
247
100
AcDbEntity
  8
0
100
AcDbPolyline
 62
7
  6
CONTINUOUS
 90
2
 70
0
 43
0.2
 10
334.7759811768
 20
26.9168010391
 10
334.5446333876
 20
26.9168010391
  0
LWPOLYLINE
  5
248
100
AcDbEntity
  8
0
100
AcDbPolyline
 62
7
  6
CONTINUOUS
 90
2
 70
0
 43
0.2
 10
334.5446333876
 20
26.9168010391
 10
334.5446333876
 20
25.0597377898
  0
LWPOLYLINE
  5
249
100
AcDbEntity
  8
0
100
AcDbPolyline
 62
7
  6
CONTINUOUS
 90
2
 70
0
 43
0.2
 10
334.5446333876
 20
25.0597377898
 10
335.3399568395
 20
25.0597377898
  0
LWPOLYLINE
  5
24A
100
AcDbEntity
  8
0
100
AcDbPolyline
 62
7
  6
CONTINUOUS
 90
2
 70
0
 43
0.2
 10
335.3399568395
 20
25.0597377898
 10
335.3399568395
 20
25.2717193614
  0
LWPOLYLINE
  5
24B
100
AcDbEntity
  8
0
100
AcDbPolyline
 62
7
  6
CONTINUOUS
 90
2
 70
0
 43
0.2
 10
335.3399568395
 20
25.2717193614
 10
334.7759811768
 20
25.2717193614
  0
LWPOLYLINE
  5
24C
100
AcDbEntity
  8
0
100
AcDbPolyline
 62
7
  6
CONTINUOUS
 90
2
 70
0
 43
0.2
 10
334.7759811768
 20
25.2717193614
 10
334.7759811768
 20
26.9168010391
  0
LWPOLYLINE
  5
24D
100
AcDbEntity
  8
0
100
AcDbPolyline
 62
7
  6
CONTINUOUS
 90
2
 70
0
 43
0.2
 10
337.019060251
 20
26.2122894457
 10
336.7979189819
 20
26.2122894457
  0
LWPOLYLINE
  5
24E
100
AcDbEntity
  8
0
100
AcDbPolyline
 62
7
  6
CONTINUOUS
 90
2
 70
0
 43
0.2
 10
336.7979189819
 20
26.2122894457
 10
336.7979189819
 20
25.0602612011
  0
LWPOLYLINE
  5
24F
100
AcDbEntity
  8
0
100
AcDbPolyline
 62
7
  6
CONTINUOUS
 90
2
 70
0
 43
0.2
 10
336.7979189819
 20
25.0602612011
 10
337.019060251
 20
25.0602612011
  0
LWPOLYLINE
  5
250
100
AcDbEntity
  8
0
100
AcDbPolyline
 62
7
  6
CONTINUOUS
 90
2
 70
0
 43
0.2
 10
337.019060251
 20
25.0602612011
 10
337.019060251
 20
26.2122894457
  0
SPLINE
  5
251
100
AcDbEntity
  8
0
100
AcDbSpline
 62
7
  6
CONTINUOUS
 70
2
 71
3
 72
17
 73
13
 74
0
 42
0.0000001
 43
0.0000001
 44
0.0000000001
 40
0.0
 40
0.0
 40
0.0
 40
0.0
 40
1.0
 40
1.0
 40
1.0
 40
2.0
 40
2.0
 40
2.0
 40
3.0
 40
3.0
 40
3.0
 40
4.0
 40
4.0
 40
4.0
 40
4.0
 10
336.9086204693
 20
26.894817765
 30
0.0
 10
336.8246129576
 20
26.894817765
 30
0.0
 10
336.7560460788
 20
26.825727475
 30
0.0
 10
336.7560460788
 20
26.7398880238
 30
0.0
 10
336.7560460788
 20
26.6556188065
 30
0.0
 10
336.8246129576
 20
26.5896689842
 30
0.0
 10
336.9086204693
 20
26.5896689842
 30
0.0
 10
336.9923662753
 20
26.5896689842
 30
0.0
 10
337.0611948597
 20
26.6556188065
 30
0.0
 10
337.0611948597
 20
26.7398880238
 30
0.0
 10
337.0611948597
 20
26.825727475
 30
0.0
 10
336.9923662753
 20
26.894817765
 30
0.0
 10
336.9086204693
 20
26.894817765
 30
0.0
  0
SPLINE
  5
252
100
AcDbEntity
  8
0
100
AcDbSpline
 62
7
  6
CONTINUOUS
 70
2
 71
3
 72
17
 73
13
 74
0
 42
0.0000001
 43
0.0000001
 44
0.0000000001
 40
0.0
 40
0.0
 40
0.0
 40
0.0
 40
1.0
 40
1.0
 40
1.0
 40
2.0
 40
2.0
 40
2.0
 40
3.0
 40
3.0
 40
3.0
 40
4.0
 40
4.0
 40
4.0
 40
4.0
 10
339.1493441926
 20
25.2178079987
 30
0.0
 10
338.915379347
 20
25.2178079987
 30
0.0
 10
338.7850499363
 20
25.4198447558
 30
0.0
 10
338.7850499363
 20
25.6360136177
 30
0.0
 10
338.7850499363
 20
25.8506122457
 30
0.0
 10
338.9208751655
 20
26.0495085351
 30
0.0
 10
339.1493441926
 20
26.0495085351
 30
0.0
 10
339.3888048568
 20
26.0495085351
 30
0.0
 10
339.5243683804
 20
25.8605570602
 30
0.0
 10
339.5243683804
 20
25.6360136177
 30
0.0
 10
339.5243683804
 20
25.4098999414
 30
0.0
 10
339.3911602076
 20
25.2178079987
 30
0.0
 10
339.1493441926
 20
25.2178079987
 30
0.0
  0
SPLINE
  5
253
100
AcDbEntity
  8
0
100
AcDbSpline
 62
7
  6
CONTINUOUS
 70
2
 71
3
 72
50
 73
46
 74
0
 42
0.0000001
 43
0.0000001
 44
0.0000000001
 40
0.0
 40
0.0
 40
0.0
 40
0.0
 40
1.0
 40
1.0
 40
1.0
 40
2.0
 40
2.0
 40
2.0
 40
3.0
 40
3.0
 40
3.0
 40
4.0
 40
4.0
 40
4.0
 40
5.0
 40
5.0
 40
5.0
 40
6.0
 40
6.0
 40
6.0
 40
7.0
 40
7.0
 40
7.0
 40
8.0
 40
8.0
 40
8.0
 40
9.0
 40
9.0
 40
9.0
 40
10.0
 40
10.0
 40
10.0
 40
11.0
 40
11.0
 40
11.0
 40
12.0
 40
12.0
 40
12.0
 40
13.0
 40
13.0
 40
13.0
 40
14.0
 40
14.0
 40
14.0
 40
15.0
 40
15.0
 40
15.0
 40
15.0
 10
339.7334711899
 20
26.2128128569
 30
0.0
 10
339.7334711899
 20
26.2128128569
 30
0.0
 10
339.5118065095
 20
26.2128128569
 30
0.0
 10
339.5118065095
 20
26.2128128569
 30
0.0
 10
339.5118065095
 20
26.2128128569
 30
0.0
 10
339.5118065095
 20
26.0154868014
 30
0.0
 10
339.5118065095
 20
26.0154868014
 30
0.0
 10
339.5118065095
 20
26.0154868014
 30
0.0
 10
339.5070958079
 20
26.0154868014
 30
0.0
 10
339.5070958079
 20
26.0154868014
 30
0.0
 10
339.4157605382
 20
26.158378083
 30
0.0
 10
339.2778416638
 20
26.2468345907
 30
0.0
 10
339.1051159388
 20
26.2468345907
 30
0.0
 10
338.772749771
 20
26.2468345907
 30
0.0
 10
338.5636469615
 20
25.9589583823
 30
0.0
 10
338.5636469615
 20
25.6433413757
 30
0.0
 10
338.5636469615
 20
25.3135922644
 30
0.0
 10
338.7607113114
 20
25.0204819432
 30
0.0
 10
339.1155841646
 20
25.0204819432
 30
0.0
 10
339.2778416638
 20
25.0204819432
 30
0.0
 10
339.4178541833
 20
25.1089384508
 30
0.0
 10
339.5070958079
 20
25.2397912728
 30
0.0
 10
339.5070958079
 20
25.2397912728
 30
0.0
 10
339.5118065095
 20
25.2397912728
 30
0.0
 10
339.5118065095
 20
25.2397912728
 30
0.0
 10
339.5118065095
 20
25.2397912728
 30
0.0
 10
339.5118065095
 20
25.0204819432
 30
0.0
 10
339.5118065095
 20
25.0204819432
 30
0.0
 10
339.5118065095
 20
24.7839000411
 30
0.0
 10
339.4552780904
 20
24.5970422113
 30
0.0
 10
339.1820573981
 20
24.5970422113
 30
0.0
 10
338.9797589354
 20
24.5970422113
 30
0.0
 10
338.8371293594
 20
24.7153331624
 30
0.0
 10
338.8371293594
 20
24.9215572098
 30
0.0
 10
338.8371293594
 20
24.9215572098
 30
0.0
 10
338.615464679
 20
24.9215572098
 30
0.0
 10
338.615464679
 20
24.9215572098
 30
0.0
 10
338.6204370862
 20
24.5970422113
 30
0.0
 10
338.8515231698
 20
24.4002395671
 30
0.0
 10
339.171850878
 20
24.4002395671
 30
0.0
 10
339.6198909404
 20
24.4002395671
 30
0.0
 10
339.7334711899
 20
24.6854987189
 30
0.0
 10
339.7334711899
 20
25.0822444751
 30
0.0
 10
339.7334711899
 20
25.0822444751
 30
0.0
 10
339.7334711899
 20
26.2128128569
 30
0.0
 10
339.7334711899
 20
26.2128128569
 30
0.0
  0
SPLINE
  5
254
100
AcDbEntity
  8
0
100
AcDbSpline
 62
7
  6
CONTINUOUS
 70
2
 71
3
 72
44
 73
40
 74
0
 42
0.0000001
 43
0.0000001
 44
0.0000000001
 40
0.0
 40
0.0
 40
0.0
 40
0.0
 40
1.0
 40
1.0
 40
1.0
 40
2.0
 40
2.0
 40
2.0
 40
3.0
 40
3.0
 40
3.0
 40
4.0
 40
4.0
 40
4.0
 40
5.0
 40
5.0
 40
5.0
 40
6.0
 40
6.0
 40
6.0
 40
7.0
 40
7.0
 40
7.0
 40
8.0
 40
8.0
 40
8.0
 40
9.0
 40
9.0
 40
9.0
 40
10.0
 40
10.0
 40
10.0
 40
11.0
 40
11.0
 40
11.0
 40
12.0
 40
12.0
 40
12.0
 40
13.0
 40
13.0
 40
13.0
 40
13.0
 10
341.3023965253
 20
27.1978729007
 30
0.0
 10
341.3023965253
 20
27.1978729007
 30
0.0
 10
341.3023965253
 20
25.0597377898
 30
0.0
 10
341.3023965253
 20
25.0597377898
 30
0.0
 10
341.3023965253
 20
25.0597377898
 30
0.0
 10
341.5237995001
 20
25.0597377898
 30
0.0
 10
341.5237995001
 20
25.0597377898
 30
0.0
 10
341.5237995001
 20
25.0597377898
 30
0.0
 10
341.5237995001
 20
25.5894300131
 30
0.0
 10
341.5237995001
 20
25.5894300131
 30
0.0
 10
341.5237995001
 20
25.7993179395
 30
0.0
 10
341.5237995001
 20
26.0500319464
 30
0.0
 10
341.8090586519
 20
26.0500319464
 30
0.0
 10
342.0359574452
 20
26.0500319464
 30
0.0
 10
342.0629131266
 20
25.9170854793
 30
0.0
 10
342.0629131266
 20
25.7208062464
 30
0.0
 10
342.0629131266
 20
25.7208062464
 30
0.0
 10
342.0629131266
 20
25.0597377898
 30
0.0
 10
342.0629131266
 20
25.0597377898
 30
0.0
 10
342.0629131266
 20
25.0597377898
 30
0.0
 10
342.2848395126
 20
25.0597377898
 30
0.0
 10
342.2848395126
 20
25.0597377898
 30
0.0
 10
342.2848395126
 20
25.0597377898
 30
0.0
 10
342.2848395126
 20
25.7469768107
 30
0.0
 10
342.2848395126
 20
25.7469768107
 30
0.0
 10
342.2848395126
 20
26.027525261
 30
0.0
 10
342.2008320009
 20
26.2473580019
 30
0.0
 10
341.8757935911
 20
26.2473580019
 30
0.0
 10
341.7360427773
 20
26.2473580019
 30
0.0
 10
341.5978621973
 20
26.1808847684
 30
0.0
 10
341.5285102016
 20
26.0578831157
 30
0.0
 10
341.5285102016
 20
26.0578831157
 30
0.0
 10
341.5237995001
 20
26.0578831157
 30
0.0
 10
341.5237995001
 20
26.0578831157
 30
0.0
 10
341.5237995001
 20
26.0578831157
 30
0.0
 10
341.5237995001
 20
27.1978729007
 30
0.0
 10
341.5237995001
 20
27.1978729007
 30
0.0
 10
341.5237995001
 20
27.1978729007
 30
0.0
 10
341.3023965253
 20
27.1978729007
 30
0.0
 10
341.3023965253
 20
27.1978729007
 30
0.0
  0
LWPOLYLINE
  5
255
100
AcDbEntity
  8
0
100
AcDbPolyline
 62
7
  6
CONTINUOUS
 90
2
 70
0
 43
0.2
 10
344.1246301895
 20
26.005541987
 10
344.341060757
 20
26.005541987
  0
LWPOLYLINE
  5
256
100
AcDbEntity
  8
0
100
AcDbPolyline
 62
7
  6
CONTINUOUS
 90
2
 70
0
 43
0.2
 10
344.341060757
 20
26.005541987
 10
344.341060757
 20
26.2122894457
  0
LWPOLYLINE
  5
257
100
AcDbEntity
  8
0
100
AcDbPolyline
 62
7
  6
CONTINUOUS
 90
2
 70
0
 43
0.2
 10
344.341060757
 20
26.2122894457
 10
344.1246301895
 20
26.2122894457
  0
LWPOLYLINE
  5
258
100
AcDbEntity
  8
0
100
AcDbPolyline
 62
7
  6
CONTINUOUS
 90
2
 70
0
 43
0.2
 10
344.1246301895
 20
26.2122894457
 10
344.1246301895
 20
26.65300175
  0
LWPOLYLINE
  5
259
100
AcDbEntity
  8
0
100
AcDbPolyline
 62
7
  6
CONTINUOUS
 90
2
 70
0
 43
0.2
 10
344.1246301895
 20
26.65300175
 10
343.9029655091
 20
26.65300175
  0
LWPOLYLINE
  5
25A
100
AcDbEntity
  8
0
100
AcDbPolyline
 62
7
  6
CONTINUOUS
 90
2
 70
0
 43
0.2
 10
343.9029655091
 20
26.65300175
 10
343.9029655091
 20
26.2122894457
  0
LWPOLYLINE
  5
25B
100
AcDbEntity
  8
0
100
AcDbPolyline
 62
7
  6
CONTINUOUS
 90
2
 70
0
 43
0.2
 10
343.9029655091
 20
26.2122894457
 10
343.7823192072
 20
26.2122894457
  0
LWPOLYLINE
  5
25C
100
AcDbEntity
  8
0
100
AcDbPolyline
 62
7
  6
CONTINUOUS
 90
2
 70
0
 43
0.2
 10
343.7823192072
 20
26.2122894457
 10
343.7823192072
 20
26.005541987
  0
LWPOLYLINE
  5
25D
100
AcDbEntity
  8
0
100
AcDbPolyline
 62
7
  6
CONTINUOUS
 90
2
 70
0
 43
0.2
 10
343.7823192072
 20
26.005541987
 10
343.9029655091
 20
26.005541987
  0
LWPOLYLINE
  5
25E
100
AcDbEntity
  8
0
100
AcDbPolyline
 62
7
  6
CONTINUOUS
 90
2
 70
0
 43
0.2
 10
343.9029655091
 20
26.005541987
 10
343.9029655091
 20
25.0597377898
  0
LWPOLYLINE
  5
25F
100
AcDbEntity
  8
0
100
AcDbPolyline
 62
7
  6
CONTINUOUS
 90
2
 70
0
 43
0.2
 10
343.9029655091
 20
25.0597377898
 10
344.1246301895
 20
25.0597377898
  0
LWPOLYLINE
  5
260
100
AcDbEntity
  8
0
100
AcDbPolyline
 62
7
  6
CONTINUOUS
 90
2
 70
0
 43
0.2
 10
344.1246301895
 20
25.0597377898
 10
344.1246301895
 20
26.005541987
  0
SPLINE
  5
261
100
AcDbEntity
  8
0
100
AcDbSpline
 62
7
  6
CONTINUOUS
 70
2
 71
3
 72
20
 73
16
 74
0
 42
0.0000001
 43
0.0000001
 44
0.0000000001
 40
0.0
 40
0.0
 40
0.0
 40
0.0
 40
1.0
 40
1.0
 40
1.0
 40
2.0
 40
2.0
 40
2.0
 40
3.0
 40
3.0
 40
3.0
 40
4.0
 40
4.0
 40
4.0
 40
5.0
 40
5.0
 40
5.0
 40
5.0
 10
331.9066404967
 20
35.4206642332
 30
0.0
 10
331.9066404967
 20
35.4206642332
 30
0.0
 10
334.2229971512
 20
32.5911028109
 30
0.0
 10
334.2229971512
 20
32.5911028109
 30
0.0
 10
333.5713500978
 20
31.9389323462
 30
0.0
 10
332.7944768938
 20
31.2030160755
 30
0.0
 10
331.8232872491
 20
31.2030160755
 30
0.0
 10
330.8247493647
 20
31.2030160755
 30
0.0
 10
329.8814313711
 20
32.1325945228
 30
0.0
 10
329.8814313711
 20
33.1317866713
 30
0.0
 10
329.8814313711
 20
34.1309788198
 30
0.0
 10
331.0602844442
 20
34.8375840585
 30
0.0
 10
331.7818069046
 20
35.3374418384
 30
0.0
 10
331.7818069046
 20
35.3374418384
 30
0.0
 10
331.9066404967
 20
35.4206642332
 30
0.0
 10
331.9066404967
 20
35.4206642332
 30
0.0
  0
SPLINE
  5
262
100
AcDbEntity
  8
0
100
AcDbSpline
 62
7
  6
CONTINUOUS
 70
2
 71
3
 72
23
 73
19
 74
0
 42
0.0000001
 43
0.0000001
 44
0.0000000001
 40
0.0
 40
0.0
 40
0.0
 40
0.0
 40
1.0
 40
1.0
 40
1.0
 40
2.0
 40
2.0
 40
2.0
 40
3.0
 40
3.0
 40
3.0
 40
4.0
 40
4.0
 40
4.0
 40
5.0
 40
5.0
 40
5.0
 40
6.0
 40
6.0
 40
6.0
 40
6.0
 10
332.1840484793
 20
37.0584181529
 30
0.0
 10
332.1840484793
 20
37.0584181529
 30
0.0
 10
331.8375502067
 20
37.5017475137
 30
0.0
 10
331.8375502067
 20
37.5017475137
 30
0.0
 10
331.5317471618
 20
37.8898569837
 30
0.0
 10
331.2128588347
 20
38.2783590121
 30
0.0
 10
331.2128588347
 20
38.8053033262
 30
0.0
 10
331.2128588347
 20
39.4714750428
 30
0.0
 10
331.7541969591
 20
39.9151969621
 30
0.0
 10
332.3781032143
 20
39.9151969621
 30
0.0
 10
333.0718848763
 20
39.9151969621
 30
0.0
 10
333.5990908961
 20
39.5129553874
 30
0.0
 10
333.5990908961
 20
38.7779550864
 30
0.0
 10
333.5990908961
 20
38.0146905758
 30
0.0
 10
332.8778301414
 20
37.58457735
 30
0.0
 10
332.3507549745
 20
37.1688579346
 30
0.0
 10
332.3507549745
 20
37.1688579346
 30
0.0
 10
332.1840484793
 20
37.0584181529
 30
0.0
 10
332.1840484793
 20
37.0584181529
 30
0.0
  0
SPLINE
  5
263
100
AcDbEntity
  8
0
100
AcDbSpline
 62
7
  6
CONTINUOUS
 70
2
 71
3
 72
50
 73
46
 74
0
 42
0.0000001
 43
0.0000001
 44
0.0000000001
 40
0.0
 40
0.0
 40
0.0
 40
0.0
 40
1.0
 40
1.0
 40
1.0
 40
2.0
 40
2.0
 40
2.0
 40
3.0
 40
3.0
 40
3.0
 40
4.0
 40
4.0
 40
4.0
 40
5.0
 40
5.0
 40
5.0
 40
6.0
 40
6.0
 40
6.0
 40
7.0
 40
7.0
 40
7.0
 40
8.0
 40
8.0
 40
8.0
 40
9.0
 40
9.0
 40
9.0
 40
10.0
 40
10.0
 40
10.0
 40
11.0
 40
11.0
 40
11.0
 40
12.0
 40
12.0
 40
12.0
 40
13.0
 40
13.0
 40
13.0
 40
14.0
 40
14.0
 40
14.0
 40
15.0
 40
15.0
 40
15.0
 40
15.0
 10
336.1376356422
 20
30.2598289348
 30
0.0
 10
336.1376356422
 20
30.2598289348
 30
0.0
 10
337.7468636468
 20
30.2598289348
 30
0.0
 10
337.7468636468
 20
30.2598289348
 30
0.0
 10
337.7468636468
 20
30.2598289348
 30
0.0
 10
335.8738363531
 20
32.5769707062
 30
0.0
 10
335.8738363531
 20
32.5769707062
 30
0.0
 10
335.8738363531
 20
32.5769707062
 30
0.0
 10
337.1501747786
 20
34.0744504008
 30
0.0
 10
337.1501747786
 20
34.0744504008
 30
0.0
 10
337.1501747786
 20
34.0744504008
 30
0.0
 10
336.3179508309
 20
34.9354619693
 30
0.0
 10
336.3179508309
 20
34.9354619693
 30
0.0
 10
336.3179508309
 20
34.9354619693
 30
0.0
 10
335.0973557076
 20
33.5201578469
 30
0.0
 10
335.0973557076
 20
33.5201578469
 30
0.0
 10
335.0973557076
 20
33.5201578469
 30
0.0
 10
332.9194413388
 20
36.1555336813
 30
0.0
 10
332.9194413388
 20
36.1555336813
 30
0.0
 10
333.7930147782
 20
36.7935720412
 30
0.0
 10
334.8196860194
 20
37.58457735
 30
0.0
 10
334.8196860194
 20
38.7634304231
 30
0.0
 10
334.8196860194
 20
40.1371233482
 30
0.0
 10
333.6817898795
 20
40.9416064976
 30
0.0
 10
332.4064982766
 20
40.9416064976
 30
0.0
 10
331.0330670573
 20
40.9416064976
 30
0.0
 10
329.9921328585
 20
40.0953812979
 30
0.0
 10
329.9921328585
 20
38.6527289358
 30
0.0
 10
329.9921328585
 20
37.7651542444
 30
0.0
 10
330.547472235
 20
36.9882810403
 30
0.0
 10
331.1436376918
 20
36.3638513739
 30
0.0
 10
331.1436376918
 20
36.3638513739
 30
0.0
 10
330.4917289328
 20
35.8922578035
 30
0.0
 10
330.4917289328
 20
35.8922578035
 30
0.0
 10
329.4931910484
 20
35.1709970488
 30
0.0
 10
328.6603128365
 20
34.4497362942
 30
0.0
 10
328.6603128365
 20
33.1181779778
 30
0.0
 10
328.6603128365
 20
31.3145026798
 30
0.0
 10
330.1173590091
 20
30.0379025487
 30
0.0
 10
331.8648984465
 20
30.0379025487
 30
0.0
 10
333.0997565274
 20
30.0379025487
 30
0.0
 10
334.2091267521
 20
30.7460780212
 30
0.0
 10
335.000001208
 20
31.6746096459
 30
0.0
 10
335.000001208
 20
31.6746096459
 30
0.0
 10
336.1376356422
 20
30.2598289348
 30
0.0
 10
336.1376356422
 20
30.2598289348
 30
0.0
  0
LINE
  5
264
100
AcDbEntity
  8
0
100
AcDbLine
 62
7
  6
CONTINUOUS
 10
321.9404970172
 20
28.2337038394
 11
344.3544077449
 21
28.2337038394
  0
LINE
  5
265
100
AcDbEntity
  8
0
100
AcDbLine
 62
7
  6
CONTINUOUS
 10
344.3544077449
 20
28.2337038394
 11
344.3544077449
 21
50.6476145671
  0
LINE
  5
266
100
AcDbEntity
  8
0
100
AcDbLine
 62
7
  6
CONTINUOUS
 10
344.3544077449
 20
50.6476145671
 11
321.9404970172
 21
50.6476145671
  0
LINE
  5
267
100
AcDbEntity
  8
0
100
AcDbLine
 62
7
  6
CONTINUOUS
 10
321.9404970172
 20
50.6476145671
 11
321.9404970172
 21
28.2337038394
  0
ENDBLK
  5
268
100
AcDbEntity
  8
0
  6
BYBLOCK
 62
0
100
AcDbBlockEnd
  0
BLOCK
  5
269
100
AcDbEntity
  8
0
100
AcDbBlockBegin
  2
_CLOSED
 70
64
 10
0.0
 20
0.0
  3
_CLOSED
  1

  0
LINE
  5
26A
100
AcDbEntity
  8
0
  6
BYBLOCK
 62
0
100
AcDbLine
 10
0.0
 20
0.0
 11
-1.0
 21
0.2
  0
LINE
  5
26B
100
AcDbEntity
  8
0
  6
BYBLOCK
 62
0
100
AcDbLine
 10
-1.0
 20
0.2
 11
-1.0
 21
-0.2
  0
LINE
  5
26C
100
AcDbEntity
  8
0
  6
BYBLOCK
 62
0
100
AcDbLine
 10
-1.0
 20
-0.2
 11
0.0
 21
0.0
  0
LINE
  5
26D
100
AcDbEntity
  8
0
  6
BYBLOCK
 62
0
100
AcDbLine
 10
-1.0
 20
0.0
 11
0.0
 21
0.0
  0
ENDBLK
  5
26E
100
AcDbEntity
  8
0
  6
BYBLOCK
 62
0
100
AcDbBlockEnd
  0
BLOCK
  5
26F
100
AcDbEntity
  8
0
100
AcDbBlockBegin
 62
2
  6
CONTINUOUS
  2
*D0
 70
65
 10
0.0
 20
0.0
  3
*D0
  1

  0
LINE
  5
270
100
AcDbEntity
  8
0
100
AcDbLine
 62
2
  6
CONTINUOUS
 10
111.2848476724
 20
250.4071377841
 11
125.230484036
 21
250.4071377841
  0
LINE
  5
271
100
AcDbEntity
  8
0
100
AcDbLine
 62
2
  6
CONTINUOUS
 10
110.9706658542
 20
189.4071377841
 11
125.230484036
 21
189.4071377841
  0
LINE
  5
272
100
AcDbEntity
  8
0
100
AcDbLine
 62
2
  6
CONTINUOUS
 10
124.480484036
 20
250.4071377841
 11
124.480484036
 21
219.9071377841
  0
LINE
  5
273
100
AcDbEntity
  8
0
100
AcDbLine
 62
2
  6
CONTINUOUS
 10
124.480484036
 20
189.4071377841
 11
124.480484036
 21
219.9071377841
  0
INSERT
  5
274
100
AcDbEntity
  8
0
100
AcDbBlockReference
 62
2
  6
CONTINUOUS
  2
_CLOSED
 10
124.480484036
 20
250.4071377841
 41
2.5
 42
2.5
 43
2.5
 50
90.0
  0
INSERT
  5
275
100
AcDbEntity
  8
0
100
AcDbBlockReference
 62
2
  6
CONTINUOUS
  2
_CLOSED
 10
124.480484036
 20
189.4071377841
 41
2.5
 42
2.5
 43
2.5
 50
270.0
  0
ENDBLK
  5
276
100
AcDbEntity
  8
0
  6
BYBLOCK
 62
0
100
AcDbBlockEnd
  0
BLOCK
  5
277
100
AcDbEntity
  8
0
100
AcDbBlockBegin
 62
2
  6
CONTINUOUS
  2
*D1
 70
65
 10
0.0
 20
0.0
  3
*D1
  1

  0
LINE
  5
278
100
AcDbEntity
  8
0
100
AcDbLine
 62
2
  6
CONTINUOUS
 10
42.7981178977
 20
187.4350988016
 11
42.7981178977
 21
174.0526739356
  0
LINE
  5
279
100
AcDbEntity
  8
0
100
AcDbLine
 62
2
  6
CONTINUOUS
 10
103.7981178977
 20
187.515529347
 11
103.7981178977
 21
174.0526739356
  0
LINE
  5
27A
100
AcDbEntity
  8
0
100
AcDbLine
 62
2
  6
CONTINUOUS
 10
42.7981178977
 20
174.8026739356
 11
73.2981178977
 21
174.8026739356
  0
LINE
  5
27B
100
AcDbEntity
  8
0
100
AcDbLine
 62
2
  6
CONTINUOUS
 10
103.7981178977
 20
174.8026739356
 11
73.2981178977
 21
174.8026739356
  0
INSERT
  5
27C
100
AcDbEntity
  8
0
100
AcDbBlockReference
 62
2
  6
CONTINUOUS
  2
_CLOSED
 10
42.7981178977
 20
174.8026739356
 41
2.5
 42
2.5
 43
2.5
 50
180.0
  0
INSERT
  5
27D
100
AcDbEntity
  8
0
100
AcDbBlockReference
 62
2
  6
CONTINUOUS
  2
_CLOSED
 10
103.7981178977
 20
174.8026739356
 41
2.5
 42
2.5
 43
2.5
  0
ENDBLK
  5
27E
100
AcDbEntity
  8
0
  6
BYBLOCK
 62
0
100
AcDbBlockEnd
  0
BLOCK
  5
27F
100
AcDbEntity
  8
0
100
AcDbBlockBegin
 62
2
  6
CONTINUOUS
  2
*D2
 70
65
 10
0.0
 20
0.0
  3
*D2
  1

  0
LINE
  5
280
100
AcDbEntity
  8
0
100
AcDbLine
 62
2
  6
CONTINUOUS
 10
46.7981178977
 20
120.7873125153
 11
46.7981178977
 21
132.0217448608
  0
LINE
  5
281
100
AcDbEntity
  8
0
100
AcDbLine
 62
2
  6
CONTINUOUS
 10
99.7981178977
 20
121.1014943335
 11
99.7981178977
 21
132.0217448608
  0
LINE
  5
282
100
AcDbEntity
  8
0
100
AcDbLine
 62
2
  6
CONTINUOUS
 10
46.7981178977
 20
131.2717448608
 11
73.2981178977
 21
131.2717448608
  0
LINE
  5
283
100
AcDbEntity
  8
0
100
AcDbLine
 62
2
  6
CONTINUOUS
 10
99.7981178977
 20
131.2717448608
 11
73.2981178977
 21
131.2717448608
  0
INSERT
  5
284
100
AcDbEntity
  8
0
100
AcDbBlockReference
 62
2
  6
CONTINUOUS
  2
_CLOSED
 10
46.7981178977
 20
131.2717448608
 41
2.5
 42
2.5
 43
2.5
 50
180.0
  0
INSERT
  5
285
100
AcDbEntity
  8
0
100
AcDbBlockReference
 62
2
  6
CONTINUOUS
  2
_CLOSED
 10
99.7981178977
 20
131.2717448608
 41
2.5
 42
2.5
 43
2.5
  0
ENDBLK
  5
286
100
AcDbEntity
  8
0
  6
BYBLOCK
 62
0
100
AcDbBlockEnd
  0
BLOCK
  5
287
100
AcDbEntity
  8
0
100
AcDbBlockBegin
 62
2
  6
CONTINUOUS
  2
*D3
 70
65
 10
0.0
 20
0.0
  3
*D3
  1

  0
LINE
  5
288
100
AcDbEntity
  8
0
100
AcDbLine
 62
2
  6
CONTINUOUS
 10
110.4515451191
 20
117.5539239356
 11
122.3942723918
 21
117.5539239356
  0
LINE
  5
289
100
AcDbEntity
  8
0
100
AcDbLine
 62
2
  6
CONTINUOUS
 10
111.4333633009
 20
39.3039239356
 11
122.3942723918
 21
39.3039239356
  0
LINE
  5
28A
100
AcDbEntity
  8
0
100
AcDbLine
 62
2
  6
CONTINUOUS
 10
121.6442723918
 20
117.5539239356
 11
121.6442723918
 21
78.4289239356
  0
LINE
  5
28B
100
AcDbEntity
  8
0
100
AcDbLine
 62
2
  6
CONTINUOUS
 10
121.6442723918
 20
39.3039239356
 11
121.6442723918
 21
78.4289239356
  0
INSERT
  5
28C
100
AcDbEntity
  8
0
100
AcDbBlockReference
 62
2
  6
CONTINUOUS
  2
_CLOSED
 10
121.6442723918
 20
117.5539239356
 41
2.5
 42
2.5
 43
2.5
 50
90.0
  0
INSERT
  5
28D
100
AcDbEntity
  8
0
100
AcDbBlockReference
 62
2
  6
CONTINUOUS
  2
_CLOSED
 10
121.6442723918
 20
39.3039239356
 41
2.5
 42
2.5
 43
2.5
 50
270.0
  0
ENDBLK
  5
28E
100
AcDbEntity
  8
0
  6
BYBLOCK
 62
0
100
AcDbBlockEnd
  0
BLOCK
  5
28F
100
AcDbEntity
  8
0
100
AcDbBlockBegin
  2
*T1
 70
1
 10
0.0
 20
0.0
  3
*T1
  1

  0
LINE
  5
290
100
AcDbEntity
  8
0
100
AcDbLine
 62
2
  6
CONTINUOUS
 10
0.0
 20
0.0
 11
90.0
 21
0.0
  0
LINE
  5
291
100
AcDbEntity
  8
0
100
AcDbLine
 62
2
  6
CONTINUOUS
 10
0.0
 20
0.0
 11
0.0
 21
-40.0
  0
LINE
  5
292
100
AcDbEntity
  8
0
100
AcDbLine
 62
2
  6
CONTINUOUS
 10
30.0
 20
-6.0
 11
90.0
 21
-6.0
  0
LINE
  5
293
100
AcDbEntity
  8
0
100
AcDbLine
 62
2
  6
CONTINUOUS
 10
30.0
 20
-12.0
 11
90.0
 21
-12.0
  0
LINE
  5
294
100
AcDbEntity
  8
0
100
AcDbLine
 62
2
  6
CONTINUOUS
 10
30.0
 20
-22.0
 11
90.0
 21
-22.0
  0
LINE
  5
295
100
AcDbEntity
  8
0
100
AcDbLine
 62
2
  6
CONTINUOUS
 10
0.0
 20
-27.0
 11
90.0
 21
-27.0
  0
LINE
  5
296
100
AcDbEntity
  8
0
100
AcDbLine
 62
2
  6
CONTINUOUS
 10
0.0
 20
-40.0
 11
90.0
 21
-40.0
  0
LINE
  5
297
100
AcDbEntity
  8
0
100
AcDbLine
 62
2
  6
CONTINUOUS
 10
30.0
 20
0.0
 11
30.0
 21
-27.0
  0
LINE
  5
298
100
AcDbEntity
  8
0
100
AcDbLine
 62
2
  6
CONTINUOUS
 10
70.0
 20
0.0
 11
70.0
 21
-12.0
  0
LINE
  5
299
100
AcDbEntity
  8
0
100
AcDbLine
 62
2
  6
CONTINUOUS
 10
90.0
 20
0.0
 11
90.0
 21
-40.0
  0
ENDBLK
  5
29A
100
AcDbEntity
  8
0
100
AcDbBlockEnd
  0
ENDSEC
  0
SECTION
  2
ENTITIES
  0
DIMENSION
  5
29B
100
AcDbEntity
  8
0
100
AcDbDimension
 62
2
  6
CONTINUOUS
  2
*D0
 10
124.480484036
 20
189.4071377841
 11
123.730484036
 21
217.8714234984
 70
160
 71
2
 42
61.0
  3
DIMSTYLE_1
100
AcDbAlignedDimension
 13
111.2848476724
 23
250.4071377841
 14
110.9706658542
 24
189.4071377841
 50
270.0
100
AcDbRotatedDimension
  0
DIMENSION
  5
29C
100
AcDbEntity
  8
0
100
AcDbDimension
 62
2
  6
CONTINUOUS
  2
*D1
 10
103.7981178977
 20
174.8026739356
 11
71.262403612
 21
175.5526739356
 70
160
 71
2
 42
61.0
  3
DIMSTYLE_1
100
AcDbAlignedDimension
 13
42.7981178977
 23
187.4350988016
 14
103.7981178977
 24
187.515529347
100
AcDbRotatedDimension
  0
DIMENSION
  5
29D
100
AcDbEntity
  8
0
100
AcDbDimension
 62
2
  6
CONTINUOUS
  2
*D2
 10
99.7981178977
 20
131.2717448608
 11
71.1552607549
 21
132.0217448608
 70
160
 71
2
 42
53.0
  3
DIMSTYLE_1
100
AcDbAlignedDimension
 13
46.7981178977
 23
120.7873125153
 14
99.7981178977
 24
121.1014943335
100
AcDbRotatedDimension
  0
DIMENSION
  5
29E
100
AcDbEntity
  8
0
100
AcDbDimension
 62
2
  6
CONTINUOUS
  2
*D3
 10
121.6442723918
 20
39.3039239356
 11
120.8942723918
 21
76.0717810785
 70
160
 71
2
 42
78.25
  3
DIMSTYLE_2
100
AcDbAlignedDimension
 13
110.4515451191
 23
117.5539239356
 14
111.4333633009
 24
39.3039239356
 50
270.0
100
AcDbRotatedDimension
  0
INSERT
  5
29F
100
AcDbEntity
  8
0
100
AcDbBlockReference
 62
2
  6
CONTINUOUS
  2
LOGO2_BL0
 10
333.1473869546
 20
37.5239270671
  0
LWPOLYLINE
  5
2A0
100
AcDbEntity
  8
0
100
AcDbPolyline
 62
2
  6
CONTINUOUS
 90
10
 70
0
 10
352.4517004395
 20
49.5239263916
 10
351.8088317871
 20
48.8810705566
 10
351.3802697754
 20
48.0239273071
 10
351.3802697754
 20
46.9524966431
 10
351.8088317871
 20
46.5239282227
 10
352.4517004395
 20
46.5239282227
 10
352.8802624512
 20
46.9524966431
 10
352.8802624512
 20
47.8096398926
 10
352.4517004395
 20
48.2382147217
 10
351.5231323242
 20
48.2382147217
  0
LWPOLYLINE
  5
2A1
100
AcDbEntity
  8
0
100
AcDbPolyline
 62
2
  6
CONTINUOUS
 90
4
 70
0
 10
353.7374121094
 20
46.9524966431
 10
353.7374121094
 20
47.8096398926
 10
354.1659741211
 20
48.2382147217
 10
354.8088427734
 20
48.2382147217
  0
LWPOLYLINE
  5
2A2
100
AcDbEntity
  8
0
100
AcDbPolyline
 62
2
  6
CONTINUOUS
 90
13
 70
0
 10
354.1659741211
 20
48.2382147217
 10
353.8802746582
 20
48.4524957275
 10
353.8802746582
 20
49.0953579712
 10
354.1659741211
 20
49.5239263916
 10
354.8088427734
 20
49.5239263916
 10
355.0945422363
 20
49.0953579712
 10
355.0945422363
 20
48.4524957275
 10
354.8088427734
 20
48.2382147217
 10
355.2374047852
 20
47.8096398926
 10
355.2374047852
 20
46.9524966431
 10
354.8088427734
 20
46.5239282227
 10
354.1659741211
 20
46.5239282227
 10
353.7374121094
 20
46.9524966431
  0
LWPOLYLINE
  5
2A3
100
AcDbEntity
  8
0
100
AcDbPolyline
 62
2
  6
CONTINUOUS
 90
13
 70
0
 10
356.0945544434
 20
47.3810714722
 10
356.0945544434
 20
48.6667831421
 10
356.3088354492
 20
49.0953579712
 10
356.7374230957
 20
49.5239263916
 10
356.9517041016
 20
49.5239263916
 10
357.3802661133
 20
49.0953579712
 10
357.5945471191
 20
48.6667831421
 10
357.5945471191
 20
47.3810714722
 10
357.3802661133
 20
46.9524966431
 10
356.9517041016
 20
46.5239282227
 10
356.7374230957
 20
46.5239282227
 10
356.3088354492
 20
46.9524966431
 10
356.0945544434
 20
47.3810714722
  0
LINE
  5
2A4
100
AcDbEntity
  8
0
100
AcDbLine
 62
2
  6
CONTINUOUS
 10
358.4516967773
 20
46.5239282227
 11
360.165970459
 21
46.5239282227
  0
LWPOLYLINE
  5
2A5
100
AcDbEntity
  8
0
100
AcDbPolyline
 62
2
  6
CONTINUOUS
 90
6
 70
0
 10
362.0945507813
 20
46.5239282227
 10
361.237401123
 20
46.5239282227
 10
360.8088391113
 20
46.9524966431
 10
360.8088391113
 20
49.0953579712
 10
361.237401123
 20
49.5239263916
 10
362.0945507813
 20
49.5239263916
  0
LINE
  5
2A6
100
AcDbEntity
  8
0
100
AcDbLine
 62
2
  6
CONTINUOUS
 10
363.3088439941
 20
46.5239282227
 11
365.0231176758
 21
46.5239282227
  0
LWPOLYLINE
  5
2A7
100
AcDbEntity
  8
0
100
AcDbPolyline
 62
2
  6
CONTINUOUS
 90
13
 70
0
 10
365.6659863281
 20
47.3810714722
 10
365.6659863281
 20
48.6667831421
 10
365.880267334
 20
49.0953579712
 10
366.3088293457
 20
49.5239263916
 10
366.5231359863
 20
49.5239263916
 10
366.951697998
 20
49.0953579712
 10
367.1659790039
 20
48.6667831421
 10
367.1659790039
 20
47.3810714722
 10
366.951697998
 20
46.9524966431
 10
366.5231359863
 20
46.5239282227
 10
366.3088293457
 20
46.5239282227
 10
365.880267334
 20
46.9524966431
 10
365.6659863281
 20
47.3810714722
  0
LWPOLYLINE
  5
2A8
100
AcDbEntity
  8
0
100
AcDbPolyline
 62
2
  6
CONTINUOUS
 90
13
 70
0
 10
368.0231286621
 20
47.3810714722
 10
368.0231286621
 20
48.6667831421
 10
368.237409668
 20
49.0953579712
 10
368.6659716797
 20
49.5239263916
 10
368.8802783203
 20
49.5239263916
 10
369.308840332
 20
49.0953579712
 10
369.5231213379
 20
48.6667831421
 10
369.5231213379
 20
47.3810714722
 10
369.308840332
 20
46.9524966431
 10
368.8802783203
 20
46.5239282227
 10
368.6659716797
 20
46.5239282227
 10
368.237409668
 20
46.9524966431
 10
368.0231286621
 20
47.3810714722
  0
LWPOLYLINE
  5
2A9
100
AcDbEntity
  8
0
100
AcDbPolyline
 62
2
  6
CONTINUOUS
 90
8
 70
0
 10
370.3802709961
 20
46.5239282227
 10
371.2374206543
 20
46.5239282227
 10
371.665982666
 20
46.9524966431
 10
371.665982666
 20
47.8096398926
 10
371.2374206543
 20
48.2382147217
 10
370.3802709961
 20
48.2382147217
 10
370.3802709961
 20
49.5239263916
 10
371.665982666
 20
49.5239263916
  0
LWPOLYLINE
  5
2AA
100
AcDbEntity
  8
0
100
AcDbPolyline
 62
2
  6
CONTINUOUS
 90
9
 70
0
 10
391.5525878906
 20
45.7739254761
 10
391.5525878906
 20
49.2739297485
 10
392.4822839355
 20
49.2739297485
 10
392.8541418457
 20
48.9822573853
 10
393.0400964355
 20
48.6905914307
 10
393.0400964355
 20
48.1072595215
 10
392.8541418457
 20
47.8155935669
 10
392.4822839355
 20
47.5239276123
 10
391.5525878906
 20
47.5239276123
  0
LINE
  5
2AB
100
AcDbEntity
  8
0
100
AcDbLine
 62
2
  6
CONTINUOUS
 10
392.4822839355
 20
47.5239276123
 11
393.0400964355
 21
45.7739254761
  0
LWPOLYLINE
  5
2AC
100
AcDbEntity
  8
0
100
AcDbPolyline
 62
2
  6
CONTINUOUS
 90
11
 70
0
 10
395.8291589355
 20
46.3572573853
 10
395.6432043457
 20
46.0655914307
 10
395.2713464355
 20
45.7739254761
 10
394.8994628906
 20
46.0655914307
 10
394.5275793457
 20
46.6489297485
 10
394.5275793457
 20
47.2322616577
 10
394.8994628906
 20
47.8155935669
 10
395.2713464355
 20
48.1072595215
 10
395.6432043457
 20
47.8155935669
 10
395.8291589355
 20
47.2322616577
 10
394.5275793457
 20
47.2322616577
  0
LWPOLYLINE
  5
2AD
100
AcDbEntity
  8
0
100
AcDbPolyline
 62
2
  6
CONTINUOUS
 90
3
 70
0
 10
397.6885253906
 20
48.1072595215
 10
398.2463378906
 20
45.7739254761
 10
398.8041503906
 20
48.1072595215
  0
LWPOLYLINE
  5
2AE
100
AcDbEntity
  8
0
100
AcDbPolyline
 62
2
  6
CONTINUOUS
 90
4
 70
0
 10
401.2213293457
 20
45.7739254761
 10
401.0354003906
 20
45.7739254761
 10
401.0354003906
 20
46.0655914307
 10
401.2213293457
 20
45.7739254761
  0
LWPOLYLINE
  5
2AF
100
AcDbEntity
  8
0
100
AcDbPolyline
 62
2
  6
CONTINUOUS
 90
4
 70
0
 10
401.2213293457
 20
48.1072595215
 10
401.2213293457
 20
47.8155935669
 10
401.0354003906
 20
48.1072595215
 10
401.2213293457
 20
48.1072595215
  0
LWPOLYLINE
  5
2B0
100
AcDbEntity
  8
0
100
AcDbPolyline
 62
2
  6
CONTINUOUS
 90
15
 70
0
 10
404.1963464355
 20
45.7739254761
 10
403.8244628906
 20
46.0655914307
 10
403.6385339355
 20
46.3572573853
 10
403.4525793457
 20
46.9405957031
 10
403.4525793457
 20
48.1072595215
 10
403.6385339355
 20
48.6905914307
 10
403.8244628906
 20
48.9822573853
 10
404.1963464355
 20
49.2739297485
 10
404.5682043457
 20
48.9822573853
 10
404.7541589355
 20
48.6905914307
 10
404.9400878906
 20
48.1072595215
 10
404.9400878906
 20
46.9405957031
 10
404.7541589355
 20
46.3572573853
 10
404.5682043457
 20
46.0655914307
 10
404.1963464355
 20
45.7739254761
  0
LINE
  5
2B1
100
AcDbEntity
  8
0
100
AcDbLine
 62
2
  6
CONTINUOUS
 10
407.1713378906
 20
49.2739297485
 11
407.1713378906
 21
45.7739254761
  0
LWPOLYLINE
  5
2B2
100
AcDbEntity
  8
0
100
AcDbPolyline
 62
2
  6
CONTINUOUS
 90
10
 70
0
 10
350.8088452148
 20
40.0239257812
 10
351.0588354492
 20
39.7739291382
 10
352.0588476563
 20
39.7739291382
 10
352.558828125
 20
40.273928833
 10
352.558828125
 20
40.7739285278
 10
350.8088452148
 20
42.2739276123
 10
350.8088452148
 20
42.7739273071
 10
351.3088513184
 20
43.273927002
 10
352.3088378906
 20
43.273927002
 10
352.558828125
 20
43.0239239502
  0
LWPOLYLINE
  5
2B3
100
AcDbEntity
  8
0
100
AcDbPolyline
 62
2
  6
CONTINUOUS
 90
6
 70
0
 10
354.8088427734
 20
39.7739291382
 10
353.8088305664
 20
39.7739291382
 10
353.558840332
 20
40.0239257812
 10
353.558840332
 20
42.0239245605
 10
353.8088305664
 20
42.2739276123
 10
354.8088427734
 20
42.2739276123
  0
LWPOLYLINE
  5
2B4
100
AcDbEntity
  8
0
100
AcDbPolyline
 62
2
  6
CONTINUOUS
 90
4
 70
0
 10
357.3088476563
 20
39.7739291382
 10
357.3088476563
 20
41.7739279175
 10
357.0588317871
 20
42.2739276123
 10
355.8088293457
 20
42.2739276123
  0
LWPOLYLINE
  5
2B5
100
AcDbEntity
  8
0
100
AcDbPolyline
 62
2
  6
CONTINUOUS
 90
6
 70
0
 10
357.3088476563
 20
39.7739291382
 10
356.3088354492
 20
39.7739291382
 10
355.8088293457
 20
40.0239257812
 10
355.8088293457
 20
40.7739285278
 10
356.3088354492
 20
41.0239251709
 10
357.3088476563
 20
41.0239251709
  0
LWPOLYLINE
  5
2B6
100
AcDbEntity
  8
0
100
AcDbPolyline
 62
2
  6
CONTINUOUS
 90
4
 70
0
 10
359.0588305664
 20
39.7739291382
 10
358.5588500977
 20
39.7739291382
 10
358.3088342285
 20
40.0239257812
 10
358.3088342285
 20
43.273927002
  0
LWPOLYLINE
  5
2B7
100
AcDbEntity
  8
0
100
AcDbPolyline
 62
2
  6
CONTINUOUS
 90
9
 70
0
 10
361.5588354492
 20
39.7739291382
 10
360.558848877
 20
39.7739291382
 10
360.0588427734
 20
40.273928833
 10
360.0588427734
 20
41.7739279175
 10
360.558848877
 20
42.2739276123
 10
361.0588293457
 20
42.2739276123
 10
361.5588354492
 20
41.7739279175
 10
361.5588354492
 20
41.0239251709
 10
360.0588427734
 20
41.0239251709
  0
LWPOLYLINE
  5
2B8
100
AcDbEntity
  8
0
100
AcDbPolyline
 62
2
  6
CONTINUOUS
 90
4
 70
0
 10
362.5588476563
 20
39.7739291382
 10
362.5588476563
 20
40.0239257812
 10
362.7254992676
 20
40.0239257812
 10
362.5588476563
 20
39.7739291382
  0
LWPOLYLINE
  5
2B9
100
AcDbEntity
  8
0
100
AcDbPolyline
 62
2
  6
CONTINUOUS
 90
4
 70
0
 10
362.5588476563
 20
41.2739282227
 10
362.5588476563
 20
41.5239248657
 10
362.7254992676
 20
41.5239248657
 10
362.5588476563
 20
41.2739282227
  0
LWPOLYLINE
  5
2BA
100
AcDbEntity
  8
0
100
AcDbPolyline
 62
2
  6
CONTINUOUS
 90
3
 70
0
 10
363.8088500977
 20
42.2739276123
 10
364.8088366699
 20
43.273927002
 10
364.8088366699
 20
39.7739291382
  0
LWPOLYLINE
  5
2BB
100
AcDbEntity
  8
0
100
AcDbPolyline
 62
2
  6
CONTINUOUS
 90
4
 70
0
 10
365.808848877
 20
39.7739291382
 10
365.808848877
 20
40.0239257812
 10
365.9755004883
 20
40.0239257812
 10
365.808848877
 20
39.7739291382
  0
LWPOLYLINE
  5
2BC
100
AcDbEntity
  8
0
100
AcDbPolyline
 62
2
  6
CONTINUOUS
 90
4
 70
0
 10
365.808848877
 20
41.2739282227
 10
365.808848877
 20
41.5239248657
 10
365.9755004883
 20
41.5239248657
 10
365.808848877
 20
41.2739282227
  0
LWPOLYLINE
  5
2BD
100
AcDbEntity
  8
0
100
AcDbPolyline
 62
2
  6
CONTINUOUS
 90
3
 70
0
 10
367.0588513184
 20
42.2739276123
 10
368.0588378906
 20
43.273927002
 10
368.0588378906
 20
39.7739291382
  0
LWPOLYLINE
  5
2BE
100
AcDbEntity
  8
0
100
AcDbPolyline
 62
2
  6
CONTINUOUS
 90
3
 70
0
 10
390.8088464355
 20
40.273928833
 10
391.8088330078
 20
43.7739266968
 10
392.8088452148
 20
40.273928833
  0
LINE
  5
2BF
100
AcDbEntity
  8
0
100
AcDbLine
 62
2
  6
CONTINUOUS
 10
391.142175293
 20
41.2739282227
 11
392.4755163574
 21
41.2739282227
  0
LWPOLYLINE
  5
2C0
100
AcDbEntity
  8
0
100
AcDbPolyline
 62
2
  6
CONTINUOUS
 90
6
 70
0
 10
393.8088317871
 20
40.273928833
 10
395.0588342285
 20
40.273928833
 10
395.3088500977
 20
40.5239254761
 10
395.3088500977
 20
41.7739279175
 10
394.8088439941
 20
42.2739276123
 10
394.3088378906
 20
42.2739276123
  0
LWPOLYLINE
  5
2C1
100
AcDbEntity
  8
0
100
AcDbPolyline
 62
2
  6
CONTINUOUS
 90
5
 70
0
 10
394.8088439941
 20
42.2739276123
 10
395.2255114746
 20
42.5239242554
 10
395.2255114746
 20
43.273927002
 10
394.8088439941
 20
43.7739266968
 10
393.8088317871
 20
43.7739266968
  0
LINE
  5
2C2
100
AcDbEntity
  8
0
100
AcDbLine
 62
2
  6
CONTINUOUS
 10
351.8088317871
 20
32.2739273071
 11
351.8088317871
 21
35.7739251709
  0
LINE
  5
2C3
100
AcDbEntity
  8
0
100
AcDbLine
 62
2
  6
CONTINUOUS
 10
350.8088452148
 20
35.7739251709
 11
352.8088439941
 21
35.7739251709
  0
LWPOLYLINE
  5
2C4
100
AcDbEntity
  8
0
100
AcDbPolyline
 62
2
  6
CONTINUOUS
 90
6
 70
0
 10
353.8088305664
 20
35.7739251709
 10
353.8088305664
 20
32.773927002
 10
354.3088366699
 20
32.2739273071
 10
355.0588330078
 20
32.2739273071
 10
355.5588391113
 20
32.773927002
 10
355.5588391113
 20
35.7739251709
  0
LWPOLYLINE
  5
2C5
100
AcDbEntity
  8
0
100
AcDbPolyline
 62
2
  6
CONTINUOUS
 90
7
 70
0
 10
356.5588513184
 20
32.2739273071
 10
356.5588513184
 20
35.7739251709
 10
357.808828125
 20
35.7739251709
 10
358.3088342285
 20
35.2739254761
 10
358.3088342285
 20
34.2739260864
 10
357.808828125
 20
33.7739263916
 10
356.5588513184
 20
33.7739263916
  0
LINE
  5
2C6
100
AcDbEntity
  8
0
100
AcDbLine
 62
2
  6
CONTINUOUS
 10
357.3088476563
 20
33.7739263916
 11
358.3088342285
 21
32.2739273071
  0
LINE
  5
2C7
100
AcDbEntity
  8
0
100
AcDbLine
 62
2
  6
CONTINUOUS
 10
359.9755041504
 20
32.2739273071
 11
359.9755041504
 21
35.7739251709
  0
LWPOLYLINE
  5
2C8
100
AcDbEntity
  8
0
100
AcDbPolyline
 62
2
  6
CONTINUOUS
 90
10
 70
0
 10
361.5588354492
 20
32.5239239502
 10
361.8088513184
 20
32.2739273071
 10
362.8088378906
 20
32.2739273071
 10
363.3088439941
 20
32.773927002
 10
363.3088439941
 20
33.2739266968
 10
361.5588354492
 20
34.7739257812
 10
361.5588354492
 20
35.2739254761
 10
362.0588415527
 20
35.7739251709
 10
363.058828125
 20
35.7739251709
 10
363.3088439941
 20
35.5239285278
  0
LWPOLYLINE
  5
2C9
100
AcDbEntity
  8
0
100
AcDbPolyline
 62
2
  6
CONTINUOUS
 90
3
 70
0
 10
367.0588513184
 20
34.7739257812
 10
368.0588378906
 20
35.7739251709
 10
368.0588378906
 20
32.2739273071
  0
LWPOLYLINE
  5
2CA
100
AcDbEntity
  8
0
100
AcDbPolyline
 62
2
  6
CONTINUOUS
 90
9
 70
0
 10
369.8088464355
 20
32.8572592163
 10
369.8921850586
 20
32.6905947876
 10
369.8921850586
 20
32.6072625732
 10
369.8088464355
 20
32.4405917358
 10
369.6421691895
 20
32.4405917358
 10
369.5588305664
 20
32.6072625732
 10
369.5588305664
 20
32.6905947876
 10
369.6421691895
 20
32.8572592163
 10
369.8088464355
 20
32.8572592163
  0
LWPOLYLINE
  5
2CB
100
AcDbEntity
  8
0
100
AcDbPolyline
 62
2
  6
CONTINUOUS
 90
13
 70
0
 10
371.058848877
 20
33.2739266968
 10
371.058848877
 20
34.7739257812
 10
371.3088391113
 20
35.2739254761
 10
371.8088452148
 20
35.7739251709
 10
372.0588354492
 20
35.7739251709
 10
372.5588415527
 20
35.2739254761
 10
372.8088317871
 20
34.7739257812
 10
372.8088317871
 20
33.2739266968
 10
372.5588415527
 20
32.773927002
 10
372.0588354492
 20
32.2739273071
 10
371.8088452148
 20
32.2739273071
 10
371.3088391113
 20
32.773927002
 10
371.058848877
 20
33.2739266968
  0
LWPOLYLINE
  5
2CC
100
AcDbEntity
  8
0
100
AcDbPolyline
 62
2
  6
CONTINUOUS
 90
7
 70
0
 10
351.2850366211
 20
25.2739251709
 10
351.2850366211
 20
27.7739300537
 10
352.1778955078
 20
27.7739300537
 10
352.5350390625
 20
27.416786499
 10
352.5350390625
 20
25.6310687256
 10
352.1778955078
 20
25.2739251709
 10
351.2850366211
 20
25.2739251709
  0
LWPOLYLINE
  5
2CD
100
AcDbEntity
  8
0
100
AcDbPolyline
 62
2
  6
CONTINUOUS
 90
3
 70
0
 10
353.5469458008
 20
25.2739251709
 10
354.2612329102
 20
27.7739300537
 10
354.9754943848
 20
25.2739251709
  0
LINE
  5
2CE
100
AcDbEntity
  8
0
100
AcDbLine
 62
2
  6
CONTINUOUS
 10
353.7850415039
 20
25.9882122803
 11
354.7373986816
 21
25.9882122803
  0
LINE
  5
2CF
100
AcDbEntity
  8
0
100
AcDbLine
 62
2
  6
CONTINUOUS
 10
356.4040686035
 20
25.2739251709
 11
356.4040686035
 21
27.7739300537
  0
LINE
  5
2D0
100
AcDbEntity
  8
0
100
AcDbLine
 62
2
  6
CONTINUOUS
 10
355.6897814941
 20
27.7739300537
 11
357.1183557129
 21
27.7739300537
  0
LWPOLYLINE
  5
2D1
100
AcDbEntity
  8
0
100
AcDbPolyline
 62
2
  6
CONTINUOUS
 90
3
 70
0
 10
357.8326428223
 20
25.2739251709
 10
357.8326428223
 20
27.7739300537
 10
358.9040734863
 20
27.7739300537
  0
LINE
  5
2D2
100
AcDbEntity
  8
0
100
AcDbLine
 62
2
  6
CONTINUOUS
 10
358.5469299316
 20
26.7024993896
 11
357.8326428223
 21
26.7024993896
  0
LINE
  5
2D3
100
AcDbEntity
  8
0
100
AcDbLine
 62
2
  6
CONTINUOUS
 10
357.8326428223
 20
25.2739251709
 11
358.9040734863
 21
25.2739251709
  0
LWPOLYLINE
  5
2D4
100
AcDbEntity
  8
0
100
AcDbPolyline
 62
2
  6
CONTINUOUS
 90
4
 70
0
 10
359.6183605957
 20
25.2739251709
 10
359.6183605957
 20
25.4524969482
 10
359.7374084473
 20
25.4524969482
 10
359.6183605957
 20
25.2739251709
  0
LWPOLYLINE
  5
2D5
100
AcDbEntity
  8
0
100
AcDbPolyline
 62
2
  6
CONTINUOUS
 90
4
 70
0
 10
359.6183605957
 20
26.345355835
 10
359.6183605957
 20
26.5239276123
 10
359.7374084473
 20
26.5239276123
 10
359.6183605957
 20
26.345355835
  0
LWPOLYLINE
  5
2D6
100
AcDbEntity
  8
0
100
AcDbPolyline
 62
2
  6
CONTINUOUS
 90
13
 70
0
 10
360.5112194824
 20
25.9882122803
 10
360.5112194824
 20
27.0596429443
 10
360.6897912598
 20
27.416786499
 10
361.0469348145
 20
27.7739300537
 10
361.2255065918
 20
27.7739300537
 10
361.5826501465
 20
27.416786499
 10
361.7612219238
 20
27.0596429443
 10
361.7612219238
 20
25.9882122803
 10
361.5826501465
 20
25.6310687256
 10
361.2255065918
 20
25.2739251709
 10
361.0469348145
 20
25.2739251709
 10
360.6897912598
 20
25.6310687256
 10
360.5112194824
 20
25.9882122803
  0
LWPOLYLINE
  5
2D7
100
AcDbEntity
  8
0
100
AcDbPolyline
 62
2
  6
CONTINUOUS
 90
7
 70
0
 10
363.7255114746
 20
25.2739251709
 10
362.4755090332
 20
25.2739251709
 10
363.7255114746
 20
27.0596429443
 10
363.7255114746
 20
27.416786499
 10
363.3683679199
 20
27.7739300537
 10
362.8326525879
 20
27.7739300537
 10
362.4755090332
 20
27.2382147217
  0
LINE
  5
2D8
100
AcDbEntity
  8
0
100
AcDbLine
 62
2
  6
CONTINUOUS
 10
365.8683728027
 20
27.5358343506
 11
364.439798584
 21
25.3334490967
  0
LWPOLYLINE
  5
2D9
100
AcDbEntity
  8
0
100
AcDbPolyline
 62
2
  6
CONTINUOUS
 90
13
 70
0
 10
366.344564209
 20
25.9882122803
 10
366.344564209
 20
27.0596429443
 10
366.5231359863
 20
27.416786499
 10
366.880279541
 20
27.7739300537
 10
367.0588513184
 20
27.7739300537
 10
367.415994873
 20
27.416786499
 10
367.5945666504
 20
27.0596429443
 10
367.5945666504
 20
25.9882122803
 10
367.415994873
 20
25.6310687256
 10
367.0588513184
 20
25.2739251709
 10
366.880279541
 20
25.2739251709
 10
366.5231359863
 20
25.6310687256
 10
366.344564209
 20
25.9882122803
  0
LINE
  5
2DA
100
AcDbEntity
  8
0
100
AcDbLine
 62
2
  6
CONTINUOUS
 10
369.1421630859
 20
25.2739251709
 11
369.1421630859
 21
26.5239276123
  0
LWPOLYLINE
  5
2DB
100
AcDbEntity
  8
0
100
AcDbPolyline
 62
2
  6
CONTINUOUS
 90
3
 70
0
 10
369.5588305664
 20
25.8096405029
 10
368.308828125
 20
25.8096405029
 10
368.844543457
 20
27.7739300537
  0
LINE
  5
2DC
100
AcDbEntity
  8
0
100
AcDbLine
 62
2
  6
CONTINUOUS
 10
371.7016918945
 20
27.5358343506
 11
370.2731176758
 21
25.3334490967
  0
LWPOLYLINE
  5
2DD
100
AcDbEntity
  8
0
100
AcDbPolyline
 62
2
  6
CONTINUOUS
 90
7
 70
0
 10
373.4278857422
 20
25.2739251709
 10
372.1778833008
 20
25.2739251709
 10
373.4278857422
 20
27.0596429443
 10
373.4278857422
 20
27.416786499
 10
373.0707421875
 20
27.7739300537
 10
372.5350268555
 20
27.7739300537
 10
372.1778833008
 20
27.2382147217
  0
LWPOLYLINE
  5
2DE
100
AcDbEntity
  8
0
100
AcDbPolyline
 62
2
  6
CONTINUOUS
 90
13
 70
0
 10
374.1421728516
 20
25.9882122803
 10
374.1421728516
 20
27.0596429443
 10
374.3207446289
 20
27.416786499
 10
374.6778881836
 20
27.7739300537
 10
374.8564599609
 20
27.7739300537
 10
375.2136035156
 20
27.416786499
 10
375.392175293
 20
27.0596429443
 10
375.392175293
 20
25.9882122803
 10
375.2136035156
 20
25.6310687256
 10
374.8564599609
 20
25.2739251709
 10
374.6778881836
 20
25.2739251709
 10
374.3207446289
 20
25.6310687256
 10
374.1421728516
 20
25.9882122803
  0
LWPOLYLINE
  5
2DF
100
AcDbEntity
  8
0
100
AcDbPolyline
 62
2
  6
CONTINUOUS
 90
3
 70
0
 10
376.1064624023
 20
27.0596429443
 10
376.8207495117
 20
27.7739300537
 10
376.8207495117
 20
25.2739251709
  0
LINE
  5
2E0
100
AcDbEntity
  8
0
100
AcDbLine
 62
2
  6
CONTINUOUS
 10
378.368371582
 20
25.2739251709
 11
378.368371582
 21
26.5239276123
  0
LWPOLYLINE
  5
2E1
100
AcDbEntity
  8
0
100
AcDbPolyline
 62
2
  6
CONTINUOUS
 90
3
 70
0
 10
378.7850390625
 20
25.8096405029
 10
377.5350366211
 20
25.8096405029
 10
378.0707519531
 20
27.7739300537
  0
LWPOLYLINE
  5
2E2
100
AcDbEntity
  8
0
100
AcDbPolyline
 62
2
  6
CONTINUOUS
 90
3
 70
0
 10
321.1036889648
 20
20.4239268494
 10
321.5950817871
 20
22.273927002
 10
322.0865002441
 20
20.4239268494
  0
LINE
  5
2E3
100
AcDbEntity
  8
0
100
AcDbLine
 62
2
  6
CONTINUOUS
 10
321.3002563477
 20
21.0405935669
 11
321.8899328613
 21
21.0405935669
  0
LINE
  5
2E4
100
AcDbEntity
  8
0
100
AcDbLine
 62
2
  6
CONTINUOUS
 10
322.8727441406
 20
20.4239268494
 11
322.8727441406
 21
21.6572602844
  0
LWPOLYLINE
  5
2E5
100
AcDbEntity
  8
0
100
AcDbPolyline
 62
2
  6
CONTINUOUS
 90
5
 70
0
 10
322.8727441406
 20
21.3489285278
 10
323.0693115234
 20
21.6572602844
 10
323.2658789063
 20
21.6572602844
 10
323.4624462891
 20
21.3489285278
 10
323.4624462891
 20
20.4239268494
  0
LWPOLYLINE
  5
2E6
100
AcDbEntity
  8
0
100
AcDbPolyline
 62
2
  6
CONTINUOUS
 90
5
 70
0
 10
324.346973877
 20
21.6572602844
 10
324.7400830078
 20
20.5780943298
 10
324.6417993164
 20
20.1155950928
 10
324.4452575684
 20
19.8072601318
 10
324.2486901855
 20
19.8072601318
  0
LINE
  5
2E7
100
AcDbEntity
  8
0
100
AcDbLine
 62
2
  6
CONTINUOUS
 10
324.7400830078
 20
20.5780943298
 11
325.1332177734
 21
21.6572602844
  0
LINE
  5
2E8
100
AcDbEntity
  8
0
100
AcDbLine
 62
2
  6
CONTINUOUS
 10
327.8850842285
 20
22.273927002
 11
327.8850842285
 21
22.1197595215
  0
LINE
  5
2E9
100
AcDbEntity
  8
0
100
AcDbLine
 62
2
  6
CONTINUOUS
 10
327.8850842285
 20
21.6572602844
 11
327.8850842285
 21
20.4239268494
  0
LINE
  5
2EA
100
AcDbEntity
  8
0
100
AcDbLine
 62
2
  6
CONTINUOUS
 10
329.162746582
 20
20.4239268494
 11
329.162746582
 21
21.6572602844
  0
LWPOLYLINE
  5
2EB
100
AcDbEntity
  8
0
100
AcDbPolyline
 62
2
  6
CONTINUOUS
 90
5
 70
0
 10
329.162746582
 20
21.3489285278
 10
329.3593139648
 20
21.6572602844
 10
329.5558813477
 20
21.6572602844
 10
329.7524230957
 20
21.3489285278
 10
329.7524230957
 20
20.4239268494
  0
LINE
  5
2EC
100
AcDbEntity
  8
0
100
AcDbLine
 62
2
  6
CONTINUOUS
 10
331.0300854492
 20
20.4239268494
 11
331.0300854492
 21
22.273927002
  0
LINE
  5
2ED
100
AcDbEntity
  8
0
100
AcDbLine
 62
2
  6
CONTINUOUS
 10
330.735234375
 20
21.503092804
 11
331.3249365234
 21
21.503092804
  0
LWPOLYLINE
  5
2EE
100
AcDbEntity
  8
0
100
AcDbPolyline
 62
2
  6
CONTINUOUS
 90
11
 70
0
 10
332.8974243164
 20
20.7322618103
 10
332.799140625
 20
20.5780943298
 10
332.602598877
 20
20.4239268494
 10
332.4060314941
 20
20.5780943298
 10
332.2094641113
 20
20.8864260864
 10
332.2094641113
 20
21.1947610474
 10
332.4060314941
 20
21.503092804
 10
332.602598877
 20
21.6572602844
 10
332.799140625
 20
21.503092804
 10
332.8974243164
 20
21.1947610474
 10
332.2094641113
 20
21.1947610474
  0
LWPOLYLINE
  5
2EF
100
AcDbEntity
  8
0
100
AcDbPolyline
 62
2
  6
CONTINUOUS
 90
10
 70
0
 10
334.5682214355
 20
20.8864260864
 10
334.3716540527
 20
20.5780943298
 10
334.1750866699
 20
20.4239268494
 10
333.9785192871
 20
20.5780943298
 10
333.7819775391
 20
20.8864260864
 10
333.7819775391
 20
21.1947610474
 10
333.9785192871
 20
21.503092804
 10
334.1750866699
 20
21.6572602844
 10
334.3716540527
 20
21.503092804
 10
334.5682214355
 20
21.1947610474
  0
LWPOLYLINE
  5
2F0
100
AcDbEntity
  8
0
100
AcDbPolyline
 62
2
  6
CONTINUOUS
 90
6
 70
0
 10
334.5682214355
 20
21.6572602844
 10
334.5682214355
 20
20.2697593689
 10
334.4699377441
 20
19.9614276123
 10
334.3716540527
 20
19.8072601318
 10
333.9785192871
 20
19.8072601318
 10
333.8802355957
 20
19.9614276123
  0
LINE
  5
2F1
100
AcDbEntity
  8
0
100
AcDbLine
 62
2
  6
CONTINUOUS
 10
335.4527490234
 20
20.4239268494
 11
335.4527490234
 21
21.6572602844
  0
LWPOLYLINE
  5
2F2
100
AcDbEntity
  8
0
100
AcDbPolyline
 62
2
  6
CONTINUOUS
 90
4
 70
0
 10
335.4527490234
 20
21.3489285278
 10
335.6493164062
 20
21.6572602844
 10
335.8458837891
 20
21.6572602844
 10
335.9441418457
 20
21.503092804
  0
LWPOLYLINE
  5
2F3
100
AcDbEntity
  8
0
100
AcDbPolyline
 62
2
  6
CONTINUOUS
 90
10
 70
0
 10
337.7132226562
 20
20.8864260864
 10
337.5166552734
 20
20.5780943298
 10
337.3200878906
 20
20.4239268494
 10
337.1235205078
 20
20.5780943298
 10
336.926953125
 20
20.8864260864
 10
336.926953125
 20
21.1947610474
 10
337.1235205078
 20
21.503092804
 10
337.3200878906
 20
21.6572602844
 10
337.5166552734
 20
21.503092804
 10
337.7132226562
 20
21.1947610474
  0
LINE
  5
2F4
100
AcDbEntity
  8
0
100
AcDbLine
 62
2
  6
CONTINUOUS
 10
337.7132226562
 20
21.6572602844
 11
337.7132226562
 21
20.4239268494
  0
LINE
  5
2F5
100
AcDbEntity
  8
0
100
AcDbLine
 62
2
  6
CONTINUOUS
 10
338.8926013184
 20
20.4239268494
 11
338.8926013184
 21
22.273927002
  0
LWPOLYLINE
  5
2F6
100
AcDbEntity
  8
0
100
AcDbPolyline
 62
2
  6
CONTINUOUS
 90
11
 70
0
 10
342.4307116699
 20
20.8864260864
 10
342.2341442871
 20
20.5780943298
 10
342.0376025391
 20
20.4239268494
 10
341.8410351562
 20
20.5780943298
 10
341.6444677734
 20
20.8864260864
 10
341.6444677734
 20
21.1947610474
 10
341.8410351562
 20
21.503092804
 10
342.0376025391
 20
21.6572602844
 10
342.2341442871
 20
21.503092804
 10
342.4307116699
 20
21.1947610474
 10
342.4307116699
 20
20.8864260864
  0
LINE
  5
2F7
100
AcDbEntity
  8
0
100
AcDbLine
 62
2
  6
CONTINUOUS
 10
343.3152392578
 20
20.4239268494
 11
343.3152392578
 21
21.6572602844
  0
LWPOLYLINE
  5
2F8
100
AcDbEntity
  8
0
100
AcDbPolyline
 62
2
  6
CONTINUOUS
 90
4
 70
0
 10
343.3152392578
 20
21.3489285278
 10
343.5118066406
 20
21.6572602844
 10
343.7083740234
 20
21.6572602844
 10
343.8066577148
 20
21.503092804
  0
LWPOLYLINE
  5
2F9
100
AcDbEntity
  8
0
100
AcDbPolyline
 62
2
  6
CONTINUOUS
 90
10
 70
0
 10
346.3619567871
 20
21.1947610474
 10
346.5585241699
 20
21.503092804
 10
346.7550915527
 20
21.6572602844
 10
346.9516589355
 20
21.503092804
 10
347.1482263184
 20
21.1947610474
 10
347.1482263184
 20
20.8864260864
 10
346.9516589355
 20
20.5780943298
 10
346.7550915527
 20
20.4239268494
 10
346.5585241699
 20
20.4239268494
 10
346.3619567871
 20
20.8864260864
  0
LINE
  5
2FA
100
AcDbEntity
  8
0
100
AcDbLine
 62
2
  6
CONTINUOUS
 10
346.3619567871
 20
21.6572602844
 11
346.3619567871
 21
19.8072601318
  0
LWPOLYLINE
  5
2FB
100
AcDbEntity
  8
0
100
AcDbPolyline
 62
2
  6
CONTINUOUS
 90
10
 70
0
 10
348.7207141113
 20
20.8864260864
 10
348.5241467285
 20
20.5780943298
 10
348.3275793457
 20
20.4239268494
 10
348.1310375977
 20
20.5780943298
 10
347.9344702148
 20
20.8864260864
 10
347.9344702148
 20
21.1947610474
 10
348.1310375977
 20
21.503092804
 10
348.3275793457
 20
21.6572602844
 10
348.5241467285
 20
21.503092804
 10
348.7207141113
 20
21.1947610474
  0
LINE
  5
2FC
100
AcDbEntity
  8
0
100
AcDbLine
 62
2
  6
CONTINUOUS
 10
348.7207141113
 20
21.6572602844
 11
348.7207141113
 21
20.4239268494
  0
LINE
  5
2FD
100
AcDbEntity
  8
0
100
AcDbLine
 62
2
  6
CONTINUOUS
 10
349.6052416992
 20
20.4239268494
 11
349.6052416992
 21
21.6572602844
  0
LWPOLYLINE
  5
2FE
100
AcDbEntity
  8
0
100
AcDbPolyline
 62
2
  6
CONTINUOUS
 90
4
 70
0
 10
349.6052416992
 20
21.3489285278
 10
349.801809082
 20
21.6572602844
 10
349.9983764648
 20
21.6572602844
 10
350.0966601562
 20
21.503092804
  0
LINE
  5
2FF
100
AcDbEntity
  8
0
100
AcDbLine
 62
2
  6
CONTINUOUS
 10
351.4725805664
 20
20.4239268494
 11
351.4725805664
 21
22.273927002
  0
LINE
  5
300
100
AcDbEntity
  8
0
100
AcDbLine
 62
2
  6
CONTINUOUS
 10
351.177755127
 20
21.503092804
 11
351.7674316406
 21
21.503092804
  0
LINE
  5
301
100
AcDbEntity
  8
0
100
AcDbLine
 62
2
  6
CONTINUOUS
 10
353.0450939941
 20
22.273927002
 11
353.0450939941
 21
22.1197595215
  0
LINE
  5
302
100
AcDbEntity
  8
0
100
AcDbLine
 62
2
  6
CONTINUOUS
 10
353.0450939941
 20
21.6572602844
 11
353.0450939941
 21
20.4239268494
  0
LWPOLYLINE
  5
303
100
AcDbEntity
  8
0
100
AcDbPolyline
 62
2
  6
CONTINUOUS
 90
10
 70
0
 10
355.0107165527
 20
20.8864260864
 10
354.8141491699
 20
20.5780943298
 10
354.6175817871
 20
20.4239268494
 10
354.4210400391
 20
20.5780943298
 10
354.2244726562
 20
20.8864260864
 10
354.2244726562
 20
21.1947610474
 10
354.4210400391
 20
21.503092804
 10
354.6175817871
 20
21.6572602844
 10
354.8141491699
 20
21.503092804
 10
355.0107165527
 20
21.1947610474
  0
LINE
  5
304
100
AcDbEntity
  8
0
100
AcDbLine
 62
2
  6
CONTINUOUS
 10
355.0107165527
 20
21.6572602844
 11
355.0107165527
 21
20.4239268494
  0
LINE
  5
305
100
AcDbEntity
  8
0
100
AcDbLine
 62
2
  6
CONTINUOUS
 10
356.1900952148
 20
20.4239268494
 11
356.1900952148
 21
22.273927002
  0
LINE
  5
306
100
AcDbEntity
  8
0
100
AcDbLine
 62
2
  6
CONTINUOUS
 10
359.0402453613
 20
20.4239268494
 11
359.0402453613
 21
21.6572602844
  0
LWPOLYLINE
  5
307
100
AcDbEntity
  8
0
100
AcDbPolyline
 62
2
  6
CONTINUOUS
 90
4
 70
0
 10
359.0402453613
 20
21.3489285278
 10
359.2368127441
 20
21.6572602844
 10
359.433380127
 20
21.6572602844
 10
359.5316638184
 20
21.503092804
  0
LWPOLYLINE
  5
308
100
AcDbEntity
  8
0
100
AcDbPolyline
 62
2
  6
CONTINUOUS
 90
11
 70
0
 10
361.2024353027
 20
20.7322618103
 10
361.1041516113
 20
20.5780943298
 10
360.9075842285
 20
20.4239268494
 10
360.7110168457
 20
20.5780943298
 10
360.5144750977
 20
20.8864260864
 10
360.5144750977
 20
21.1947610474
 10
360.7110168457
 20
21.503092804
 10
360.9075842285
 20
21.6572602844
 10
361.1041516113
 20
21.503092804
 10
361.2024353027
 20
21.1947610474
 10
360.5144750977
 20
21.1947610474
  0
LWPOLYLINE
  5
309
100
AcDbEntity
  8
0
100
AcDbPolyline
 62
2
  6
CONTINUOUS
 90
10
 70
0
 10
362.0869628906
 20
21.1947610474
 10
362.2835302734
 20
21.503092804
 10
362.4800976562
 20
21.6572602844
 10
362.6766650391
 20
21.503092804
 10
362.8732067871
 20
21.1947610474
 10
362.8732067871
 20
20.8864260864
 10
362.6766650391
 20
20.5780943298
 10
362.4800976562
 20
20.4239268494
 10
362.2835302734
 20
20.4239268494
 10
362.0869628906
 20
20.8864260864
  0
LINE
  5
30A
100
AcDbEntity
  8
0
100
AcDbLine
 62
2
  6
CONTINUOUS
 10
362.0869628906
 20
21.6572602844
 11
362.0869628906
 21
19.8072601318
  0
LINE
  5
30B
100
AcDbEntity
  8
0
100
AcDbLine
 62
2
  6
CONTINUOUS
 10
363.757734375
 20
20.4239268494
 11
363.757734375
 21
21.6572602844
  0
LWPOLYLINE
  5
30C
100
AcDbEntity
  8
0
100
AcDbPolyline
 62
2
  6
CONTINUOUS
 90
4
 70
0
 10
363.757734375
 20
21.3489285278
 10
363.9543017578
 20
21.6572602844
 10
364.1508691406
 20
21.6572602844
 10
364.249152832
 20
21.503092804
  0
LWPOLYLINE
  5
30D
100
AcDbEntity
  8
0
100
AcDbPolyline
 62
2
  6
CONTINUOUS
 90
11
 70
0
 10
366.0182080078
 20
20.8864260864
 10
365.821640625
 20
20.5780943298
 10
365.625098877
 20
20.4239268494
 10
365.4285314941
 20
20.5780943298
 10
365.2319641113
 20
20.8864260864
 10
365.2319641113
 20
21.1947610474
 10
365.4285314941
 20
21.503092804
 10
365.625098877
 20
21.6572602844
 10
365.821640625
 20
21.503092804
 10
366.0182080078
 20
21.1947610474
 10
366.0182080078
 20
20.8864260864
  0
LWPOLYLINE
  5
30E
100
AcDbEntity
  8
0
100
AcDbPolyline
 62
2
  6
CONTINUOUS
 90
10
 70
0
 10
367.5907214355
 20
20.8864260864
 10
367.3941540527
 20
20.5780943298
 10
367.1975866699
 20
20.4239268494
 10
367.0010192871
 20
20.5780943298
 10
366.8044775391
 20
20.8864260864
 10
366.8044775391
 20
21.1947610474
 10
367.0010192871
 20
21.503092804
 10
367.1975866699
 20
21.6572602844
 10
367.3941540527
 20
21.503092804
 10
367.5907214355
 20
21.1947610474
  0
LINE
  5
30F
100
AcDbEntity
  8
0
100
AcDbLine
 62
2
  6
CONTINUOUS
 10
367.5907214355
 20
22.273927002
 11
367.5907214355
 21
20.4239268494
  0
LWPOLYLINE
  5
310
100
AcDbEntity
  8
0
100
AcDbPolyline
 62
2
  6
CONTINUOUS
 90
5
 70
0
 10
368.4752490234
 20
21.6572602844
 10
368.4752490234
 20
20.7322618103
 10
368.6718164063
 20
20.4239268494
 10
368.8683837891
 20
20.4239268494
 10
369.0649255371
 20
20.7322618103
  0
LINE
  5
311
100
AcDbEntity
  8
0
100
AcDbLine
 62
2
  6
CONTINUOUS
 10
369.0649255371
 20
21.6572602844
 11
369.0649255371
 21
20.4239268494
  0
LWPOLYLINE
  5
312
100
AcDbEntity
  8
0
100
AcDbPolyline
 62
2
  6
CONTINUOUS
 90
8
 70
0
 10
370.5391552734
 20
20.5780943298
 10
370.3425878906
 20
20.4239268494
 10
370.1460205078
 20
20.5780943298
 10
369.949453125
 20
20.8864260864
 10
369.949453125
 20
21.1947610474
 10
370.1460205078
 20
21.503092804
 10
370.3425878906
 20
21.6572602844
 10
370.5391552734
 20
21.503092804
  0
LINE
  5
313
100
AcDbEntity
  8
0
100
AcDbLine
 62
2
  6
CONTINUOUS
 10
371.9151013184
 20
20.4239268494
 11
371.9151013184
 21
22.273927002
  0
LINE
  5
314
100
AcDbEntity
  8
0
100
AcDbLine
 62
2
  6
CONTINUOUS
 10
371.6202502441
 20
21.503092804
 11
372.2099267578
 21
21.503092804
  0
LINE
  5
315
100
AcDbEntity
  8
0
100
AcDbLine
 62
2
  6
CONTINUOUS
 10
373.4875891113
 20
22.273927002
 11
373.4875891113
 21
22.1197595215
  0
LINE
  5
316
100
AcDbEntity
  8
0
100
AcDbLine
 62
2
  6
CONTINUOUS
 10
373.4875891113
 20
21.6572602844
 11
373.4875891113
 21
20.4239268494
  0
LWPOLYLINE
  5
317
100
AcDbEntity
  8
0
100
AcDbPolyline
 62
2
  6
CONTINUOUS
 90
11
 70
0
 10
375.4532116699
 20
20.8864260864
 10
375.2566442871
 20
20.5780943298
 10
375.0601025391
 20
20.4239268494
 10
374.8635351563
 20
20.5780943298
 10
374.6669677734
 20
20.8864260864
 10
374.6669677734
 20
21.1947610474
 10
374.8635351563
 20
21.503092804
 10
375.0601025391
 20
21.6572602844
 10
375.2566442871
 20
21.503092804
 10
375.4532116699
 20
21.1947610474
 10
375.4532116699
 20
20.8864260864
  0
LINE
  5
318
100
AcDbEntity
  8
0
100
AcDbLine
 62
2
  6
CONTINUOUS
 10
376.3377392578
 20
20.4239268494
 11
376.3377392578
 21
21.6572602844
  0
LWPOLYLINE
  5
319
100
AcDbEntity
  8
0
100
AcDbPolyline
 62
2
  6
CONTINUOUS
 90
5
 70
0
 10
376.3377392578
 20
21.3489285278
 10
376.5343066406
 20
21.6572602844
 10
376.7308740234
 20
21.6572602844
 10
376.9274414063
 20
21.3489285278
 10
376.9274414063
 20
20.4239268494
  0
LWPOLYLINE
  5
31A
100
AcDbEntity
  8
0
100
AcDbPolyline
 62
2
  6
CONTINUOUS
 90
14
 70
0
 10
378.4016455078
 20
21.503092804
 10
378.3033618164
 20
21.6572602844
 10
378.1068200684
 20
21.6572602844
 10
378.008536377
 20
21.503092804
 10
378.008536377
 20
21.3489285278
 10
378.205078125
 20
21.1947610474
 10
378.4016455078
 20
21.0405935669
 10
378.4999291992
 20
20.8864260864
 10
378.4999291992
 20
20.7322618103
 10
378.4016455078
 20
20.5780943298
 10
378.3033618164
 20
20.4239268494
 10
378.1068200684
 20
20.4239268494
 10
378.008536377
 20
20.5780943298
 10
377.9102526855
 20
20.7322618103
  0
LWPOLYLINE
  5
31B
100
AcDbEntity
  8
0
100
AcDbPolyline
 62
2
  6
CONTINUOUS
 90
10
 70
0
 10
381.7432141113
 20
20.8864260864
 10
381.5466467285
 20
20.5780943298
 10
381.3500793457
 20
20.4239268494
 10
381.1535375977
 20
20.5780943298
 10
380.9569702148
 20
20.8864260864
 10
380.9569702148
 20
21.1947610474
 10
381.1535375977
 20
21.503092804
 10
381.3500793457
 20
21.6572602844
 10
381.5466467285
 20
21.503092804
 10
381.7432141113
 20
21.1947610474
  0
LINE
  5
31C
100
AcDbEntity
  8
0
100
AcDbLine
 62
2
  6
CONTINUOUS
 10
381.7432141113
 20
21.6572602844
 11
381.7432141113
 21
20.4239268494
  0
LINE
  5
31D
100
AcDbEntity
  8
0
100
AcDbLine
 62
2
  6
CONTINUOUS
 10
382.6277416992
 20
20.4239268494
 11
382.6277416992
 21
21.6572602844
  0
LWPOLYLINE
  5
31E
100
AcDbEntity
  8
0
100
AcDbPolyline
 62
2
  6
CONTINUOUS
 90
4
 70
0
 10
382.6277416992
 20
21.3489285278
 10
382.824309082
 20
21.6572602844
 10
383.0208764648
 20
21.6572602844
 10
383.1191601562
 20
21.503092804
  0
LWPOLYLINE
  5
31F
100
AcDbEntity
  8
0
100
AcDbPolyline
 62
2
  6
CONTINUOUS
 90
11
 70
0
 10
384.7899316406
 20
20.7322618103
 10
384.6916479492
 20
20.5780943298
 10
384.4950805664
 20
20.4239268494
 10
384.2985388184
 20
20.5780943298
 10
384.1019714355
 20
20.8864260864
 10
384.1019714355
 20
21.1947610474
 10
384.2985388184
 20
21.503092804
 10
384.4950805664
 20
21.6572602844
 10
384.6916479492
 20
21.503092804
 10
384.7899316406
 20
21.1947610474
 10
384.1019714355
 20
21.1947610474
  0
LWPOLYLINE
  5
320
100
AcDbEntity
  8
0
100
AcDbPolyline
 62
2
  6
CONTINUOUS
 90
10
 70
0
 10
387.2469726562
 20
21.1947610474
 10
387.4435400391
 20
21.503092804
 10
387.6400817871
 20
21.6572602844
 10
387.8366491699
 20
21.503092804
 10
388.0332165527
 20
21.1947610474
 10
388.0332165527
 20
20.8864260864
 10
387.8366491699
 20
20.5780943298
 10
387.6400817871
 20
20.4239268494
 10
387.4435400391
 20
20.4239268494
 10
387.2469726562
 20
20.8864260864
  0
LINE
  5
321
100
AcDbEntity
  8
0
100
AcDbLine
 62
2
  6
CONTINUOUS
 10
387.2469726562
 20
21.6572602844
 11
387.2469726562
 21
19.8072601318
  0
LINE
  5
322
100
AcDbEntity
  8
0
100
AcDbLine
 62
2
  6
CONTINUOUS
 10
388.9177441406
 20
20.4239268494
 11
388.9177441406
 21
21.6572602844
  0
LWPOLYLINE
  5
323
100
AcDbEntity
  8
0
100
AcDbPolyline
 62
2
  6
CONTINUOUS
 90
4
 70
0
 10
388.9177441406
 20
21.3489285278
 10
389.1143115234
 20
21.6572602844
 10
389.3108789062
 20
21.6572602844
 10
389.4091625977
 20
21.503092804
  0
LWPOLYLINE
  5
324
100
AcDbEntity
  8
0
100
AcDbPolyline
 62
2
  6
CONTINUOUS
 90
11
 70
0
 10
391.1782177734
 20
20.8864260864
 10
390.9816503906
 20
20.5780943298
 10
390.7850830078
 20
20.4239268494
 10
390.588515625
 20
20.5780943298
 10
390.391973877
 20
20.8864260864
 10
390.391973877
 20
21.1947610474
 10
390.588515625
 20
21.503092804
 10
390.7850830078
 20
21.6572602844
 10
390.9816503906
 20
21.503092804
 10
391.1782177734
 20
21.1947610474
 10
391.1782177734
 20
20.8864260864
  0
LINE
  5
325
100
AcDbEntity
  8
0
100
AcDbLine
 62
2
  6
CONTINUOUS
 10
392.0627453613
 20
20.4239268494
 11
392.0627453613
 21
22.273927002
  0
LWPOLYLINE
  5
326
100
AcDbEntity
  8
0
100
AcDbPolyline
 62
2
  6
CONTINUOUS
 90
7
 70
0
 10
392.0627453613
 20
21.3489285278
 10
392.0627453613
 20
21.503092804
 10
392.2593127441
 20
21.6572602844
 10
392.3575964355
 20
21.6572602844
 10
392.455880127
 20
21.6572602844
 10
392.652421875
 20
21.3489285278
 10
392.652421875
 20
20.4239268494
  0
LINE
  5
327
100
AcDbEntity
  8
0
100
AcDbLine
 62
2
  6
CONTINUOUS
 10
393.9300842285
 20
22.273927002
 11
393.9300842285
 21
22.1197595215
  0
LINE
  5
328
100
AcDbEntity
  8
0
100
AcDbLine
 62
2
  6
CONTINUOUS
 10
393.9300842285
 20
21.6572602844
 11
393.9300842285
 21
20.4239268494
  0
LWPOLYLINE
  5
329
100
AcDbEntity
  8
0
100
AcDbPolyline
 62
2
  6
CONTINUOUS
 90
10
 70
0
 10
395.1094628906
 20
21.1947610474
 10
395.3060302734
 20
21.503092804
 10
395.5025976562
 20
21.6572602844
 10
395.6991650391
 20
21.503092804
 10
395.8957067871
 20
21.1947610474
 10
395.8957067871
 20
20.8864260864
 10
395.6991650391
 20
20.5780943298
 10
395.5025976562
 20
20.4239268494
 10
395.3060302734
 20
20.5780943298
 10
395.1094628906
 20
20.8864260864
  0
LINE
  5
32A
100
AcDbEntity
  8
0
100
AcDbLine
 62
2
  6
CONTINUOUS
 10
395.1094628906
 20
22.273927002
 11
395.1094628906
 21
20.4239268494
  0
LINE
  5
32B
100
AcDbEntity
  8
0
100
AcDbLine
 62
2
  6
CONTINUOUS
 10
397.0750854492
 20
22.273927002
 11
397.0750854492
 21
22.1197595215
  0
LINE
  5
32C
100
AcDbEntity
  8
0
100
AcDbLine
 62
2
  6
CONTINUOUS
 10
397.0750854492
 20
21.6572602844
 11
397.0750854492
 21
20.4239268494
  0
LINE
  5
32D
100
AcDbEntity
  8
0
100
AcDbLine
 62
2
  6
CONTINUOUS
 10
398.647598877
 20
20.4239268494
 11
398.647598877
 21
22.273927002
  0
LINE
  5
32E
100
AcDbEntity
  8
0
100
AcDbLine
 62
2
  6
CONTINUOUS
 10
398.3527478027
 20
21.503092804
 11
398.9424243164
 21
21.503092804
  0
LWPOLYLINE
  5
32F
100
AcDbEntity
  8
0
100
AcDbPolyline
 62
2
  6
CONTINUOUS
 90
11
 70
0
 10
400.5149377441
 20
20.7322618103
 10
400.4166540527
 20
20.5780943298
 10
400.2200866699
 20
20.4239268494
 10
400.0235192871
 20
20.5780943298
 10
399.8269775391
 20
20.8864260864
 10
399.8269775391
 20
21.1947610474
 10
400.0235192871
 20
21.503092804
 10
400.2200866699
 20
21.6572602844
 10
400.4166540527
 20
21.503092804
 10
400.5149377441
 20
21.1947610474
 10
399.8269775391
 20
21.1947610474
  0
LWPOLYLINE
  5
330
100
AcDbEntity
  8
0
100
AcDbPolyline
 62
2
  6
CONTINUOUS
 90
10
 70
0
 10
402.1857092285
 20
20.8864260864
 10
401.9891418457
 20
20.5780943298
 10
401.7926000977
 20
20.4239268494
 10
401.5960327148
 20
20.5780943298
 10
401.399465332
 20
20.8864260864
 10
401.399465332
 20
21.1947610474
 10
401.5960327148
 20
21.503092804
 10
401.7926000977
 20
21.6572602844
 10
401.9891418457
 20
21.503092804
 10
402.1857092285
 20
21.1947610474
  0
LINE
  5
331
100
AcDbEntity
  8
0
100
AcDbLine
 62
2
  6
CONTINUOUS
 10
402.1857092285
 20
22.273927002
 11
402.1857092285
 21
20.4239268494
  0
LWPOLYLINE
  5
332
100
AcDbEntity
  8
0
100
AcDbPolyline
 62
2
  6
CONTINUOUS
 90
5
 70
0
 10
321.1036889648
 20
18.8822616577
 10
321.3002563477
 20
17.6489282227
 10
321.5950817871
 20
18.8822616577
 10
321.7916491699
 20
17.6489282227
 10
322.0865002441
 20
18.8822616577
  0
LINE
  5
333
100
AcDbEntity
  8
0
100
AcDbLine
 62
2
  6
CONTINUOUS
 10
323.1675952148
 20
19.4989283752
 11
323.1675952148
 21
19.3447608948
  0
LINE
  5
334
100
AcDbEntity
  8
0
100
AcDbLine
 62
2
  6
CONTINUOUS
 10
323.1675952148
 20
18.8822616577
 11
323.1675952148
 21
17.6489282227
  0
LINE
  5
335
100
AcDbEntity
  8
0
100
AcDbLine
 62
2
  6
CONTINUOUS
 10
324.7400830078
 20
17.6489282227
 11
324.7400830078
 21
19.4989283752
  0
LINE
  5
336
100
AcDbEntity
  8
0
100
AcDbLine
 62
2
  6
CONTINUOUS
 10
324.4452575684
 20
18.7280941772
 11
325.034934082
 21
18.7280941772
  0
LINE
  5
337
100
AcDbEntity
  8
0
100
AcDbLine
 62
2
  6
CONTINUOUS
 10
326.0177453613
 20
17.6489282227
 11
326.0177453613
 21
19.4989283752
  0
LWPOLYLINE
  5
338
100
AcDbEntity
  8
0
100
AcDbPolyline
 62
2
  6
CONTINUOUS
 90
7
 70
0
 10
326.0177453613
 20
18.5739266968
 10
326.0177453613
 20
18.7280941772
 10
326.2143127441
 20
18.8822616577
 10
326.3125964355
 20
18.8822616577
 10
326.410880127
 20
18.8822616577
 10
326.607421875
 20
18.5739266968
 10
326.607421875
 20
17.6489282227
  0
LWPOLYLINE
  5
339
100
AcDbEntity
  8
0
100
AcDbPolyline
 62
2
  6
CONTINUOUS
 90
11
 70
0
 10
328.2782189941
 20
18.1114274597
 10
328.0816516113
 20
17.8030924988
 10
327.8850842285
 20
17.6489282227
 10
327.6885168457
 20
17.8030924988
 10
327.4919750977
 20
18.1114274597
 10
327.4919750977
 20
18.4197592163
 10
327.6885168457
 20
18.7280941772
 10
327.8850842285
 20
18.8822616577
 10
328.0816516113
 20
18.7280941772
 10
328.2782189941
 20
18.4197592163
 10
328.2782189941
 20
18.1114274597
  0
LWPOLYLINE
  5
33A
100
AcDbEntity
  8
0
100
AcDbPolyline
 62
2
  6
CONTINUOUS
 90
5
 70
0
 10
329.162746582
 20
18.8822616577
 10
329.162746582
 20
17.9572599792
 10
329.3593139648
 20
17.6489282227
 10
329.5558813477
 20
17.6489282227
 10
329.7524230957
 20
17.9572599792
  0
LINE
  5
33B
100
AcDbEntity
  8
0
100
AcDbLine
 62
2
  6
CONTINUOUS
 10
329.7524230957
 20
18.8822616577
 11
329.7524230957
 21
17.6489282227
  0
LINE
  5
33C
100
AcDbEntity
  8
0
100
AcDbLine
 62
2
  6
CONTINUOUS
 10
331.0300854492
 20
17.6489282227
 11
331.0300854492
 21
19.4989283752
  0
LINE
  5
33D
100
AcDbEntity
  8
0
100
AcDbLine
 62
2
  6
CONTINUOUS
 10
330.735234375
 20
18.7280941772
 11
331.3249365234
 21
18.7280941772
  0
LWPOLYLINE
  5
33E
100
AcDbEntity
  8
0
100
AcDbPolyline
 62
2
  6
CONTINUOUS
 90
10
 70
0
 10
333.7819775391
 20
18.4197592163
 10
333.9785192871
 20
18.7280941772
 10
334.1750866699
 20
18.8822616577
 10
334.3716540527
 20
18.7280941772
 10
334.5682214355
 20
18.4197592163
 10
334.5682214355
 20
18.1114274597
 10
334.3716540527
 20
17.8030924988
 10
334.1750866699
 20
17.6489282227
 10
333.9785192871
 20
17.6489282227
 10
333.7819775391
 20
18.1114274597
  0
LINE
  5
33F
100
AcDbEntity
  8
0
100
AcDbLine
 62
2
  6
CONTINUOUS
 10
333.7819775391
 20
18.8822616577
 11
333.7819775391
 21
17.0322615051
  0
LINE
  5
340
100
AcDbEntity
  8
0
100
AcDbLine
 62
2
  6
CONTINUOUS
 10
335.4527490234
 20
17.6489282227
 11
335.4527490234
 21
18.8822616577
  0
LWPOLYLINE
  5
341
100
AcDbEntity
  8
0
100
AcDbPolyline
 62
2
  6
CONTINUOUS
 90
4
 70
0
 10
335.4527490234
 20
18.5739266968
 10
335.6493164062
 20
18.8822616577
 10
335.8458837891
 20
18.8822616577
 10
335.9441418457
 20
18.7280941772
  0
LINE
  5
342
100
AcDbEntity
  8
0
100
AcDbLine
 62
2
  6
CONTINUOUS
 10
337.3200878906
 20
19.4989283752
 11
337.3200878906
 21
19.3447608948
  0
LINE
  5
343
100
AcDbEntity
  8
0
100
AcDbLine
 62
2
  6
CONTINUOUS
 10
337.3200878906
 20
18.8822616577
 11
337.3200878906
 21
17.6489282227
  0
LWPOLYLINE
  5
344
100
AcDbEntity
  8
0
100
AcDbPolyline
 62
2
  6
CONTINUOUS
 90
11
 70
0
 10
339.2857104492
 20
18.1114274597
 10
339.0891430664
 20
17.8030924988
 10
338.8926013184
 20
17.6489282227
 10
338.6960339355
 20
17.8030924988
 10
338.4994665527
 20
18.1114274597
 10
338.4994665527
 20
18.4197592163
 10
338.6960339355
 20
18.7280941772
 10
338.8926013184
 20
18.8822616577
 10
339.0891430664
 20
18.7280941772
 10
339.2857104492
 20
18.4197592163
 10
339.2857104492
 20
18.1114274597
  0
LINE
  5
345
100
AcDbEntity
  8
0
100
AcDbLine
 62
2
  6
CONTINUOUS
 10
340.1702380371
 20
17.6489282227
 11
340.1702380371
 21
18.8822616577
  0
LWPOLYLINE
  5
346
100
AcDbEntity
  8
0
100
AcDbPolyline
 62
2
  6
CONTINUOUS
 90
4
 70
0
 10
340.1702380371
 20
18.5739266968
 10
340.3668054199
 20
18.8822616577
 10
340.5633728027
 20
18.8822616577
 10
340.6616564941
 20
18.7280941772
  0
LWPOLYLINE
  5
347
100
AcDbEntity
  8
0
100
AcDbPolyline
 62
2
  6
CONTINUOUS
 90
10
 70
0
 10
344.0032250977
 20
18.1114274597
 10
343.8066577148
 20
17.8030924988
 10
343.610090332
 20
17.6489282227
 10
343.4135229492
 20
17.8030924988
 10
343.2169555664
 20
18.1114274597
 10
343.2169555664
 20
18.4197592163
 10
343.4135229492
 20
18.7280941772
 10
343.610090332
 20
18.8822616577
 10
343.8066577148
 20
18.7280941772
 10
344.0032250977
 20
18.4197592163
  0
LINE
  5
348
100
AcDbEntity
  8
0
100
AcDbLine
 62
2
  6
CONTINUOUS
 10
344.0032250977
 20
18.8822616577
 11
344.0032250977
 21
17.6489282227
  0
LWPOLYLINE
  5
349
100
AcDbEntity
  8
0
100
AcDbPolyline
 62
2
  6
CONTINUOUS
 90
5
 70
0
 10
344.8877526855
 20
18.8822616577
 10
344.8877526855
 20
17.9572599792
 10
345.0843200684
 20
17.6489282227
 10
345.2808618164
 20
17.6489282227
 10
345.4774291992
 20
17.9572599792
  0
LINE
  5
34A
100
AcDbEntity
  8
0
100
AcDbLine
 62
2
  6
CONTINUOUS
 10
345.4774291992
 20
18.8822616577
 11
345.4774291992
 21
17.6489282227
  0
LINE
  5
34B
100
AcDbEntity
  8
0
100
AcDbLine
 62
2
  6
CONTINUOUS
 10
346.7550915527
 20
17.6489282227
 11
346.7550915527
 21
19.4989283752
  0
LINE
  5
34C
100
AcDbEntity
  8
0
100
AcDbLine
 62
2
  6
CONTINUOUS
 10
346.4602404785
 20
18.7280941772
 11
347.049942627
 21
18.7280941772
  0
LINE
  5
34D
100
AcDbEntity
  8
0
100
AcDbLine
 62
2
  6
CONTINUOUS
 10
348.0327539062
 20
17.6489282227
 11
348.0327539062
 21
19.4989283752
  0
LWPOLYLINE
  5
34E
100
AcDbEntity
  8
0
100
AcDbPolyline
 62
2
  6
CONTINUOUS
 90
7
 70
0
 10
348.0327539062
 20
18.5739266968
 10
348.0327539062
 20
18.7280941772
 10
348.2293212891
 20
18.8822616577
 10
348.3275793457
 20
18.8822616577
 10
348.4258630371
 20
18.8822616577
 10
348.6224304199
 20
18.5739266968
 10
348.6224304199
 20
17.6489282227
  0
LWPOLYLINE
  5
34F
100
AcDbEntity
  8
0
100
AcDbPolyline
 62
2
  6
CONTINUOUS
 90
11
 70
0
 10
350.2932275391
 20
18.1114274597
 10
350.0966601562
 20
17.8030924988
 10
349.9000927734
 20
17.6489282227
 10
349.7035253906
 20
17.8030924988
 10
349.5069580078
 20
18.1114274597
 10
349.5069580078
 20
18.4197592163
 10
349.7035253906
 20
18.7280941772
 10
349.9000927734
 20
18.8822616577
 10
350.0966601562
 20
18.7280941772
 10
350.2932275391
 20
18.4197592163
 10
350.2932275391
 20
18.1114274597
  0
LINE
  5
350
100
AcDbEntity
  8
0
100
AcDbLine
 62
2
  6
CONTINUOUS
 10
351.177755127
 20
17.6489282227
 11
351.177755127
 21
18.8822616577
  0
LWPOLYLINE
  5
351
100
AcDbEntity
  8
0
100
AcDbPolyline
 62
2
  6
CONTINUOUS
 90
4
 70
0
 10
351.177755127
 20
18.5739266968
 10
351.374296875
 20
18.8822616577
 10
351.5708642578
 20
18.8822616577
 10
351.6691479492
 20
18.7280941772
  0
LINE
  5
352
100
AcDbEntity
  8
0
100
AcDbLine
 62
2
  6
CONTINUOUS
 10
353.0450939941
 20
19.4989283752
 11
353.0450939941
 21
19.3447608948
  0
LINE
  5
353
100
AcDbEntity
  8
0
100
AcDbLine
 62
2
  6
CONTINUOUS
 10
353.0450939941
 20
18.8822616577
 11
353.0450939941
 21
17.6489282227
  0
LWPOLYLINE
  5
354
100
AcDbEntity
  8
0
100
AcDbPolyline
 62
2
  6
CONTINUOUS
 90
14
 70
0
 10
354.8141491699
 20
18.7280941772
 10
354.7158654785
 20
18.8822616577
 10
354.5192980957
 20
18.8822616577
 10
354.4210400391
 20
18.7280941772
 10
354.4210400391
 20
18.5739266968
 10
354.6175817871
 20
18.4197592163
 10
354.8141491699
 20
18.2655949402
 10
354.9124328613
 20
18.1114274597
 10
354.9124328613
 20
17.9572599792
 10
354.8141491699
 20
17.8030924988
 10
354.7158654785
 20
17.6489282227
 10
354.5192980957
 20
17.6489282227
 10
354.4210400391
 20
17.8030924988
 10
354.3227563477
 20
17.9572599792
  0
LWPOLYLINE
  5
355
100
AcDbEntity
  8
0
100
AcDbPolyline
 62
2
  6
CONTINUOUS
 90
10
 70
0
 10
356.5832043457
 20
18.1114274597
 10
356.3866625977
 20
17.8030924988
 10
356.1900952148
 20
17.6489282227
 10
355.993527832
 20
17.8030924988
 10
355.7969604492
 20
18.1114274597
 10
355.7969604492
 20
18.4197592163
 10
355.993527832
 20
18.7280941772
 10
356.1900952148
 20
18.8822616577
 10
356.3866625977
 20
18.7280941772
 10
356.5832043457
 20
18.4197592163
  0
LINE
  5
356
100
AcDbEntity
  8
0
100
AcDbLine
 62
2
  6
CONTINUOUS
 10
356.5832043457
 20
18.8822616577
 11
356.5832043457
 21
17.6489282227
  0
LINE
  5
357
100
AcDbEntity
  8
0
100
AcDbLine
 62
2
  6
CONTINUOUS
 10
357.7625830078
 20
17.6489282227
 11
357.7625830078
 21
19.4989283752
  0
LINE
  5
358
100
AcDbEntity
  8
0
100
AcDbLine
 62
2
  6
CONTINUOUS
 10
357.4677575684
 20
18.7280941772
 11
358.057434082
 21
18.7280941772
  0
LINE
  5
359
100
AcDbEntity
  8
0
100
AcDbLine
 62
2
  6
CONTINUOUS
 10
359.3350964355
 20
19.4989283752
 11
359.3350964355
 21
19.3447608948
  0
LINE
  5
35A
100
AcDbEntity
  8
0
100
AcDbLine
 62
2
  6
CONTINUOUS
 10
359.3350964355
 20
18.8822616577
 11
359.3350964355
 21
17.6489282227
  0
LWPOLYLINE
  5
35B
100
AcDbEntity
  8
0
100
AcDbPolyline
 62
2
  6
CONTINUOUS
 90
11
 70
0
 10
361.3007189941
 20
18.1114274597
 10
361.1041516113
 20
17.8030924988
 10
360.9075842285
 20
17.6489282227
 10
360.7110168457
 20
17.8030924988
 10
360.5144750977
 20
18.1114274597
 10
360.5144750977
 20
18.4197592163
 10
360.7110168457
 20
18.7280941772
 10
360.9075842285
 20
18.8822616577
 10
361.1041516113
 20
18.7280941772
 10
361.3007189941
 20
18.4197592163
 10
361.3007189941
 20
18.1114274597
  0
LINE
  5
35C
100
AcDbEntity
  8
0
100
AcDbLine
 62
2
  6
CONTINUOUS
 10
362.185246582
 20
17.6489282227
 11
362.185246582
 21
18.8822616577
  0
LWPOLYLINE
  5
35D
100
AcDbEntity
  8
0
100
AcDbPolyline
 62
2
  6
CONTINUOUS
 90
5
 70
0
 10
362.185246582
 20
18.5739266968
 10
362.3818139648
 20
18.8822616577
 10
362.5783813477
 20
18.8822616577
 10
362.7749230957
 20
18.5739266968
 10
362.7749230957
 20
17.6489282227
  0
LWPOLYLINE
  5
35E
100
AcDbEntity
  8
0
100
AcDbPolyline
 62
2
  6
CONTINUOUS
 90
11
 70
0
 10
366.0182080078
 20
18.1114274597
 10
365.821640625
 20
17.8030924988
 10
365.625098877
 20
17.6489282227
 10
365.4285314941
 20
17.8030924988
 10
365.2319641113
 20
18.1114274597
 10
365.2319641113
 20
18.4197592163
 10
365.4285314941
 20
18.7280941772
 10
365.625098877
 20
18.8822616577
 10
365.821640625
 20
18.7280941772
 10
366.0182080078
 20
18.4197592163
 10
366.0182080078
 20
18.1114274597
  0
LWPOLYLINE
  5
35F
100
AcDbEntity
  8
0
100
AcDbPolyline
 62
2
  6
CONTINUOUS
 90
5
 70
0
 10
367.1975866699
 20
17.6489282227
 10
367.1975866699
 20
19.1905934143
 10
367.3941540527
 20
19.4989283752
 10
367.4924377441
 20
19.4989283752
 10
367.5907214355
 20
19.3447608948
  0
LINE
  5
360
100
AcDbEntity
  8
0
100
AcDbLine
 62
2
  6
CONTINUOUS
 10
367.0010192871
 20
18.7280941772
 11
367.3941540527
 21
18.7280941772
  0
LWPOLYLINE
  5
361
100
AcDbEntity
  8
0
100
AcDbPolyline
 62
2
  6
CONTINUOUS
 90
3
 70
0
 10
369.949453125
 20
19.4989283752
 10
369.949453125
 20
17.6489282227
 10
370.7357226563
 20
17.6489282227
  0
LWPOLYLINE
  5
362
100
AcDbEntity
  8
0
100
AcDbPolyline
 62
2
  6
CONTINUOUS
 90
19
 70
0
 10
373.9790075684
 20
18.1114274597
 10
373.880723877
 20
17.9572599792
 10
373.7824401855
 20
17.8030924988
 10
373.5858728027
 20
17.6489282227
 10
373.3893054199
 20
17.6489282227
 10
373.1927380371
 20
17.8030924988
 10
373.0944543457
 20
17.9572599792
 10
373.0944543457
 20
18.2655949402
 10
373.4875891113
 20
18.7280941772
 10
373.6841564941
 20
19.0364259338
 10
373.6841564941
 20
19.3447608948
 10
373.5858728027
 20
19.4989283752
 10
373.3893054199
 20
19.4989283752
 10
373.2910217285
 20
19.3447608948
 10
373.2910217285
 20
19.0364259338
 10
373.4875891113
 20
18.7280941772
 10
373.880723877
 20
17.9572599792
 10
373.9790075684
 20
17.8030924988
 10
374.077265625
 20
17.8030924988
  0
LWPOLYLINE
  5
363
100
AcDbEntity
  8
0
100
AcDbPolyline
 62
2
  6
CONTINUOUS
 90
3
 70
0
 10
376.2394555664
 20
19.4989283752
 10
376.2394555664
 20
17.6489282227
 10
377.0257250977
 20
17.6489282227
  0
LWPOLYLINE
  5
364
100
AcDbEntity
  8
0
100
AcDbPolyline
 62
2
  6
CONTINUOUS
 90
3
 70
0
 10
379.3844567871
 20
19.4989283752
 10
379.3844567871
 20
17.6489282227
 10
380.1707263184
 20
17.6489282227
  0
LWPOLYLINE
  5
365
100
AcDbEntity
  8
0
100
AcDbPolyline
 62
2
  6
CONTINUOUS
 90
5
 70
0
 10
381.0552539062
 20
18.8822616577
 10
381.0552539062
 20
17.9572599792
 10
381.2518212891
 20
17.6489282227
 10
381.4483630371
 20
17.6489282227
 10
381.6449304199
 20
17.9572599792
  0
LINE
  5
366
100
AcDbEntity
  8
0
100
AcDbLine
 62
2
  6
CONTINUOUS
 10
381.6449304199
 20
18.8822616577
 11
381.6449304199
 21
17.6489282227
  0
LWPOLYLINE
  5
367
100
AcDbEntity
  8
0
100
AcDbPolyline
 62
2
  6
CONTINUOUS
 90
8
 70
0
 10
383.1191601562
 20
17.8030924988
 10
382.9225927734
 20
17.6489282227
 10
382.7260253906
 20
17.8030924988
 10
382.5294580078
 20
18.1114274597
 10
382.5294580078
 20
18.4197592163
 10
382.7260253906
 20
18.7280941772
 10
382.9225927734
 20
18.8822616577
 10
383.1191601562
 20
18.7280941772
  0
LWPOLYLINE
  5
368
100
AcDbEntity
  8
0
100
AcDbPolyline
 62
2
  6
CONTINUOUS
 90
11
 70
0
 10
384.7899316406
 20
17.9572599792
 10
384.6916479492
 20
17.8030924988
 10
384.4950805664
 20
17.6489282227
 10
384.2985388184
 20
17.8030924988
 10
384.1019714355
 20
18.1114274597
 10
384.1019714355
 20
18.4197592163
 10
384.2985388184
 20
18.7280941772
 10
384.4950805664
 20
18.8822616577
 10
384.6916479492
 20
18.7280941772
 10
384.7899316406
 20
18.4197592163
 10
384.1019714355
 20
18.4197592163
  0
LWPOLYLINE
  5
369
100
AcDbEntity
  8
0
100
AcDbPolyline
 62
2
  6
CONTINUOUS
 90
19
 70
0
 10
388.1315002441
 20
18.1114274597
 10
388.0332165527
 20
17.9572599792
 10
387.9349328613
 20
17.8030924988
 10
387.7383654785
 20
17.6489282227
 10
387.5417980957
 20
17.6489282227
 10
387.3452563477
 20
17.8030924988
 10
387.2469726562
 20
17.9572599792
 10
387.2469726562
 20
18.2655949402
 10
387.6400817871
 20
18.7280941772
 10
387.8366491699
 20
19.0364259338
 10
387.8366491699
 20
19.3447608948
 10
387.7383654785
 20
19.4989283752
 10
387.5417980957
 20
19.4989283752
 10
387.4435400391
 20
19.3447608948
 10
387.4435400391
 20
19.0364259338
 10
387.6400817871
 20
18.7280941772
 10
388.0332165527
 20
17.9572599792
 10
388.1315002441
 20
17.8030924988
 10
388.2297839355
 20
17.8030924988
  0
LWPOLYLINE
  5
36A
100
AcDbEntity
  8
0
100
AcDbPolyline
 62
2
  6
CONTINUOUS
 90
3
 70
0
 10
390.391973877
 20
19.4989283752
 10
390.391973877
 20
17.6489282227
 10
391.1782177734
 20
17.6489282227
  0
LINE
  5
36B
100
AcDbEntity
  8
0
100
AcDbLine
 62
2
  6
CONTINUOUS
 10
392.3575964355
 20
19.4989283752
 11
392.3575964355
 21
19.3447608948
  0
LINE
  5
36C
100
AcDbEntity
  8
0
100
AcDbLine
 62
2
  6
CONTINUOUS
 10
392.3575964355
 20
18.8822616577
 11
392.3575964355
 21
17.6489282227
  0
LWPOLYLINE
  5
36D
100
AcDbEntity
  8
0
100
AcDbPolyline
 62
2
  6
CONTINUOUS
 90
10
 70
0
 10
394.3232189941
 20
18.1114274597
 10
394.1266516113
 20
17.8030924988
 10
393.9300842285
 20
17.6489282227
 10
393.7335168457
 20
17.8030924988
 10
393.5369750977
 20
18.1114274597
 10
393.5369750977
 20
18.4197592163
 10
393.7335168457
 20
18.7280941772
 10
393.9300842285
 20
18.8822616577
 10
394.1266516113
 20
18.7280941772
 10
394.3232189941
 20
18.4197592163
  0
LWPOLYLINE
  5
36E
100
AcDbEntity
  8
0
100
AcDbPolyline
 62
2
  6
CONTINUOUS
 90
6
 70
0
 10
394.3232189941
 20
18.8822616577
 10
394.3232189941
 20
17.4947607422
 10
394.2249353027
 20
17.1864257812
 10
394.1266516113
 20
17.0322615051
 10
393.7335168457
 20
17.0322615051
 10
393.6352587891
 20
17.1864257812
  0
LINE
  5
36F
100
AcDbEntity
  8
0
100
AcDbLine
 62
2
  6
CONTINUOUS
 10
395.207746582
 20
17.6489282227
 11
395.207746582
 21
19.4989283752
  0
LWPOLYLINE
  5
370
100
AcDbEntity
  8
0
100
AcDbPolyline
 62
2
  6
CONTINUOUS
 90
7
 70
0
 10
395.207746582
 20
18.5739266968
 10
395.207746582
 20
18.7280941772
 10
395.4043139648
 20
18.8822616577
 10
395.5025976562
 20
18.8822616577
 10
395.6008813477
 20
18.8822616577
 10
395.7974230957
 20
18.5739266968
 10
395.7974230957
 20
17.6489282227
  0
LINE
  5
371
100
AcDbEntity
  8
0
100
AcDbLine
 62
2
  6
CONTINUOUS
 10
397.0750854492
 20
17.6489282227
 11
397.0750854492
 21
19.4989283752
  0
LINE
  5
372
100
AcDbEntity
  8
0
100
AcDbLine
 62
2
  6
CONTINUOUS
 10
396.780234375
 20
18.7280941772
 11
397.3699365234
 21
18.7280941772
  0
LWPOLYLINE
  5
373
100
AcDbEntity
  8
0
100
AcDbPolyline
 62
2
  6
CONTINUOUS
 90
14
 70
0
 10
400.4166540527
 20
18.7280941772
 10
400.3183703613
 20
18.8822616577
 10
400.1218029785
 20
18.8822616577
 10
400.0235192871
 20
18.7280941772
 10
400.0235192871
 20
18.5739266968
 10
400.2200866699
 20
18.4197592163
 10
400.4166540527
 20
18.2655949402
 10
400.5149377441
 20
18.1114274597
 10
400.5149377441
 20
17.9572599792
 10
400.4166540527
 20
17.8030924988
 10
400.3183703613
 20
17.6489282227
 10
400.1218029785
 20
17.6489282227
 10
400.0235192871
 20
17.8030924988
 10
399.9252355957
 20
17.9572599792
  0
LWPOLYLINE
  5
374
100
AcDbEntity
  8
0
100
AcDbPolyline
 62
2
  6
CONTINUOUS
 90
4
 70
0
 10
401.7926000977
 20
17.6489282227
 10
401.6943164062
 20
17.6489282227
 10
401.6943164062
 20
17.8030924988
 10
401.7926000977
 20
17.6489282227
  0
LINE
  5
375
100
AcDbEntity
  8
0
100
AcDbLine
 62
2
  6
CONTINUOUS
 10
403.0702368164
 20
17.6489282227
 11
403.0702368164
 21
18.8822616577
  0
LWPOLYLINE
  5
376
100
AcDbEntity
  8
0
100
AcDbPolyline
 62
2
  6
CONTINUOUS
 90
4
 70
0
 10
403.0702368164
 20
18.5739266968
 10
403.2668041992
 20
18.8822616577
 10
403.463371582
 20
18.8822616577
 10
403.5616552734
 20
18.7280941772
  0
LWPOLYLINE
  5
377
100
AcDbEntity
  8
0
100
AcDbPolyline
 62
2
  6
CONTINUOUS
 90
4
 70
0
 10
404.9376013184
 20
17.6489282227
 10
404.839317627
 20
17.6489282227
 10
404.839317627
 20
17.8030924988
 10
404.9376013184
 20
17.6489282227
  0
LINE
  5
378
100
AcDbEntity
  8
0
100
AcDbLine
 62
2
  6
CONTINUOUS
 10
406.5100891113
 20
17.6489282227
 11
406.5100891113
 21
19.4989283752
  0
LWPOLYLINE
  5
379
100
AcDbEntity
  8
0
100
AcDbPolyline
 62
2
  6
CONTINUOUS
 90
4
 70
0
 10
408.0826025391
 20
17.6489282227
 10
407.9843188477
 20
17.6489282227
 10
407.9843188477
 20
17.8030924988
 10
408.0826025391
 20
17.6489282227
  0
LWPOLYLINE
  5
37A
100
AcDbEntity
  8
0
100
AcDbPolyline
 62
2
  6
CONTINUOUS
 90
5
 70
0
 10
409.655090332
 20
17.6489282227
 10
409.5568066406
 20
17.8030924988
 10
409.655090332
 20
17.8030924988
 10
409.655090332
 20
17.6489282227
 10
409.4585229492
 20
17.3405932617
  0
LINE
  5
37B
100
AcDbEntity
  8
0
100
AcDbLine
 62
2
  6
CONTINUOUS
 10
321.5950817871
 20
16.7239265442
 11
321.5950817871
 21
16.5697590637
  0
LINE
  5
37C
100
AcDbEntity
  8
0
100
AcDbLine
 62
2
  6
CONTINUOUS
 10
321.5950817871
 20
16.1072598267
 11
321.5950817871
 21
14.8739263916
  0
LINE
  5
37D
100
AcDbEntity
  8
0
100
AcDbLine
 62
2
  6
CONTINUOUS
 10
322.8727441406
 20
14.8739263916
 11
322.8727441406
 21
16.1072598267
  0
LWPOLYLINE
  5
37E
100
AcDbEntity
  8
0
100
AcDbPolyline
 62
2
  6
CONTINUOUS
 90
5
 70
0
 10
322.8727441406
 20
15.7989280701
 10
323.0693115234
 20
16.1072598267
 10
323.2658789063
 20
16.1072598267
 10
323.4624462891
 20
15.7989280701
 10
323.4624462891
 20
14.8739263916
  0
LWPOLYLINE
  5
37F
100
AcDbEntity
  8
0
100
AcDbPolyline
 62
2
  6
CONTINUOUS
 90
10
 70
0
 10
326.7057055664
 20
15.3364256287
 10
326.5091638184
 20
15.0280938721
 10
326.3125964355
 20
14.8739263916
 10
326.1160290527
 20
15.0280938721
 10
325.9194616699
 20
15.3364256287
 10
325.9194616699
 20
15.6447605896
 10
326.1160290527
 20
15.9530923462
 10
326.3125964355
 20
16.1072598267
 10
326.5091638184
 20
15.9530923462
 10
326.7057055664
 20
15.6447605896
  0
LINE
  5
380
100
AcDbEntity
  8
0
100
AcDbLine
 62
2
  6
CONTINUOUS
 10
326.7057055664
 20
16.1072598267
 11
326.7057055664
 21
14.8739263916
  0
LWPOLYLINE
  5
381
100
AcDbEntity
  8
0
100
AcDbPolyline
 62
2
  6
CONTINUOUS
 90
8
 70
0
 10
328.0816516113
 20
15.0280938721
 10
327.8850842285
 20
14.8739263916
 10
327.6885168457
 20
15.0280938721
 10
327.4919750977
 20
15.3364256287
 10
327.4919750977
 20
15.6447605896
 10
327.6885168457
 20
15.9530923462
 10
327.8850842285
 20
16.1072598267
 10
328.0816516113
 20
15.9530923462
  0
LWPOLYLINE
  5
382
100
AcDbEntity
  8
0
100
AcDbPolyline
 62
2
  6
CONTINUOUS
 90
8
 70
0
 10
329.6541650391
 20
15.0280938721
 10
329.4575976563
 20
14.8739263916
 10
329.2610302734
 20
15.0280938721
 10
329.0644628906
 20
15.3364256287
 10
329.0644628906
 20
15.6447605896
 10
329.2610302734
 20
15.9530923462
 10
329.4575976563
 20
16.1072598267
 10
329.6541650391
 20
15.9530923462
  0
LWPOLYLINE
  5
383
100
AcDbEntity
  8
0
100
AcDbPolyline
 62
2
  6
CONTINUOUS
 90
11
 70
0
 10
331.4232202148
 20
15.3364256287
 10
331.226652832
 20
15.0280938721
 10
331.0300854492
 20
14.8739263916
 10
330.8335180664
 20
15.0280938721
 10
330.6369763184
 20
15.3364256287
 10
330.6369763184
 20
15.6447605896
 10
330.8335180664
 20
15.9530923462
 10
331.0300854492
 20
16.1072598267
 10
331.226652832
 20
15.9530923462
 10
331.4232202148
 20
15.6447605896
 10
331.4232202148
 20
15.3364256287
  0
LINE
  5
384
100
AcDbEntity
  8
0
100
AcDbLine
 62
2
  6
CONTINUOUS
 10
332.3077478027
 20
14.8739263916
 11
332.3077478027
 21
16.1072598267
  0
LWPOLYLINE
  5
385
100
AcDbEntity
  8
0
100
AcDbPolyline
 62
2
  6
CONTINUOUS
 90
4
 70
0
 10
332.3077478027
 20
15.7989280701
 10
332.5043151855
 20
16.1072598267
 10
332.7008825684
 20
16.1072598267
 10
332.799140625
 20
15.9530923462
  0
LWPOLYLINE
  5
386
100
AcDbEntity
  8
0
100
AcDbPolyline
 62
2
  6
CONTINUOUS
 90
10
 70
0
 10
334.5682214355
 20
15.3364256287
 10
334.3716540527
 20
15.0280938721
 10
334.1750866699
 20
14.8739263916
 10
333.9785192871
 20
15.0280938721
 10
333.7819775391
 20
15.3364256287
 10
333.7819775391
 20
15.6447605896
 10
333.9785192871
 20
15.9530923462
 10
334.1750866699
 20
16.1072598267
 10
334.3716540527
 20
15.9530923462
 10
334.5682214355
 20
15.6447605896
  0
LINE
  5
387
100
AcDbEntity
  8
0
100
AcDbLine
 62
2
  6
CONTINUOUS
 10
334.5682214355
 20
16.7239265442
 11
334.5682214355
 21
14.8739263916
  0
LWPOLYLINE
  5
388
100
AcDbEntity
  8
0
100
AcDbPolyline
 62
2
  6
CONTINUOUS
 90
10
 70
0
 10
336.1407092285
 20
15.3364256287
 10
335.9441418457
 20
15.0280938721
 10
335.7476000977
 20
14.8739263916
 10
335.5510327148
 20
15.0280938721
 10
335.354465332
 20
15.3364256287
 10
335.354465332
 20
15.6447605896
 10
335.5510327148
 20
15.9530923462
 10
335.7476000977
 20
16.1072598267
 10
335.9441418457
 20
15.9530923462
 10
336.1407092285
 20
15.6447605896
  0
LINE
  5
389
100
AcDbEntity
  8
0
100
AcDbLine
 62
2
  6
CONTINUOUS
 10
336.1407092285
 20
16.1072598267
 11
336.1407092285
 21
14.8739263916
  0
LINE
  5
38A
100
AcDbEntity
  8
0
100
AcDbLine
 62
2
  6
CONTINUOUS
 10
337.0252368164
 20
14.8739263916
 11
337.0252368164
 21
16.1072598267
  0
LWPOLYLINE
  5
38B
100
AcDbEntity
  8
0
100
AcDbPolyline
 62
2
  6
CONTINUOUS
 90
5
 70
0
 10
337.0252368164
 20
15.7989280701
 10
337.2218041992
 20
16.1072598267
 10
337.418371582
 20
16.1072598267
 10
337.6149389648
 20
15.7989280701
 10
337.6149389648
 20
14.8739263916
  0
LWPOLYLINE
  5
38C
100
AcDbEntity
  8
0
100
AcDbPolyline
 62
2
  6
CONTINUOUS
 90
8
 70
0
 10
339.0891430664
 20
15.0280938721
 10
338.8926013184
 20
14.8739263916
 10
338.6960339355
 20
15.0280938721
 10
338.4994665527
 20
15.3364256287
 10
338.4994665527
 20
15.6447605896
 10
338.6960339355
 20
15.9530923462
 10
338.8926013184
 20
16.1072598267
 10
339.0891430664
 20
15.9530923462
  0
LWPOLYLINE
  5
38D
100
AcDbEntity
  8
0
100
AcDbPolyline
 62
2
  6
CONTINUOUS
 90
11
 70
0
 10
340.7599401855
 20
15.1822613525
 10
340.6616564941
 20
15.0280938721
 10
340.4650891113
 20
14.8739263916
 10
340.2685217285
 20
15.0280938721
 10
340.0719543457
 20
15.3364256287
 10
340.0719543457
 20
15.6447605896
 10
340.2685217285
 20
15.9530923462
 10
340.4650891113
 20
16.1072598267
 10
340.6616564941
 20
15.9530923462
 10
340.7599401855
 20
15.6447605896
 10
340.0719543457
 20
15.6447605896
  0
LWPOLYLINE
  5
38E
100
AcDbEntity
  8
0
100
AcDbPolyline
 62
2
  6
CONTINUOUS
 90
5
 70
0
 10
343.118671875
 20
16.1072598267
 10
343.3152392578
 20
14.8739263916
 10
343.610090332
 20
16.1072598267
 10
343.8066577148
 20
14.8739263916
 10
344.1015087891
 20
16.1072598267
  0
LINE
  5
38F
100
AcDbEntity
  8
0
100
AcDbLine
 62
2
  6
CONTINUOUS
 10
345.182578125
 20
16.7239265442
 11
345.182578125
 21
16.5697590637
  0
LINE
  5
390
100
AcDbEntity
  8
0
100
AcDbLine
 62
2
  6
CONTINUOUS
 10
345.182578125
 20
16.1072598267
 11
345.182578125
 21
14.8739263916
  0
LINE
  5
391
100
AcDbEntity
  8
0
100
AcDbLine
 62
2
  6
CONTINUOUS
 10
346.7550915527
 20
14.8739263916
 11
346.7550915527
 21
16.7239265442
  0
LINE
  5
392
100
AcDbEntity
  8
0
100
AcDbLine
 62
2
  6
CONTINUOUS
 10
346.4602404785
 20
15.9530923462
 11
347.049942627
 21
15.9530923462
  0
LINE
  5
393
100
AcDbEntity
  8
0
100
AcDbLine
 62
2
  6
CONTINUOUS
 10
348.0327539062
 20
14.8739263916
 11
348.0327539062
 21
16.7239265442
  0
LWPOLYLINE
  5
394
100
AcDbEntity
  8
0
100
AcDbPolyline
 62
2
  6
CONTINUOUS
 90
7
 70
0
 10
348.0327539062
 20
15.7989280701
 10
348.0327539062
 20
15.9530923462
 10
348.2293212891
 20
16.1072598267
 10
348.3275793457
 20
16.1072598267
 10
348.4258630371
 20
16.1072598267
 10
348.6224304199
 20
15.7989280701
 10
348.6224304199
 20
14.8739263916
  0
LINE
  5
395
100
AcDbEntity
  8
0
100
AcDbLine
 62
2
  6
CONTINUOUS
 10
351.4725805664
 20
14.8739263916
 11
351.4725805664
 21
16.7239265442
  0
LINE
  5
396
100
AcDbEntity
  8
0
100
AcDbLine
 62
2
  6
CONTINUOUS
 10
351.177755127
 20
15.9530923462
 11
351.7674316406
 21
15.9530923462
  0
LINE
  5
397
100
AcDbEntity
  8
0
100
AcDbLine
 62
2
  6
CONTINUOUS
 10
352.7502429199
 20
14.8739263916
 11
352.7502429199
 21
16.7239265442
  0
LWPOLYLINE
  5
398
100
AcDbEntity
  8
0
100
AcDbPolyline
 62
2
  6
CONTINUOUS
 90
7
 70
0
 10
352.7502429199
 20
15.7989280701
 10
352.7502429199
 20
15.9530923462
 10
352.9468103027
 20
16.1072598267
 10
353.0450939941
 20
16.1072598267
 10
353.1433776855
 20
16.1072598267
 10
353.3399450684
 20
15.7989280701
 10
353.3399450684
 20
14.8739263916
  0
LWPOLYLINE
  5
399
100
AcDbEntity
  8
0
100
AcDbPolyline
 62
2
  6
CONTINUOUS
 90
11
 70
0
 10
354.9124328613
 20
15.1822613525
 10
354.8141491699
 20
15.0280938721
 10
354.6175817871
 20
14.8739263916
 10
354.4210400391
 20
15.0280938721
 10
354.2244726562
 20
15.3364256287
 10
354.2244726562
 20
15.6447605896
 10
354.4210400391
 20
15.9530923462
 10
354.6175817871
 20
16.1072598267
 10
354.8141491699
 20
15.9530923462
 10
354.9124328613
 20
15.6447605896
 10
354.2244726562
 20
15.6447605896
  0
LINE
  5
39A
100
AcDbEntity
  8
0
100
AcDbLine
 62
2
  6
CONTINUOUS
 10
357.7625830078
 20
14.8739263916
 11
357.7625830078
 21
16.7239265442
  0
LWPOLYLINE
  5
39B
100
AcDbEntity
  8
0
100
AcDbPolyline
 62
2
  6
CONTINUOUS
 90
10
 70
0
 10
359.7282055664
 20
15.3364256287
 10
359.5316638184
 20
15.0280938721
 10
359.3350964355
 20
14.8739263916
 10
359.1385290527
 20
15.0280938721
 10
358.9419616699
 20
15.3364256287
 10
358.9419616699
 20
15.6447605896
 10
359.1385290527
 20
15.9530923462
 10
359.3350964355
 20
16.1072598267
 10
359.5316638184
 20
15.9530923462
 10
359.7282055664
 20
15.6447605896
  0
LINE
  5
39C
100
AcDbEntity
  8
0
100
AcDbLine
 62
2
  6
CONTINUOUS
 10
359.7282055664
 20
16.1072598267
 11
359.7282055664
 21
14.8739263916
  0
LWPOLYLINE
  5
39D
100
AcDbEntity
  8
0
100
AcDbPolyline
 62
2
  6
CONTINUOUS
 90
5
 70
0
 10
360.4161914062
 20
16.1072598267
 10
360.6127587891
 20
14.8739263916
 10
360.9075842285
 20
16.1072598267
 10
361.1041516113
 20
14.8739263916
 10
361.3990026855
 20
16.1072598267
  0
LINE
  5
39E
100
AcDbEntity
  8
0
100
AcDbLine
 62
2
  6
CONTINUOUS
 10
364.0525854492
 20
16.7239265442
 11
364.0525854492
 21
16.5697590637
  0
LINE
  5
39F
100
AcDbEntity
  8
0
100
AcDbLine
 62
2
  6
CONTINUOUS
 10
364.0525854492
 20
16.1072598267
 11
364.0525854492
 21
14.8739263916
  0
LINE
  5
3A0
100
AcDbEntity
  8
0
100
AcDbLine
 62
2
  6
CONTINUOUS
 10
365.3302478027
 20
14.8739263916
 11
365.3302478027
 21
16.1072598267
  0
LWPOLYLINE
  5
3A1
100
AcDbEntity
  8
0
100
AcDbPolyline
 62
2
  6
CONTINUOUS
 90
5
 70
0
 10
365.3302478027
 20
15.7989280701
 10
365.5268151855
 20
16.1072598267
 10
365.7233825684
 20
16.1072598267
 10
365.9199243164
 20
15.7989280701
 10
365.9199243164
 20
14.8739263916
  0
LWPOLYLINE
  5
3A2
100
AcDbEntity
  8
0
100
AcDbPolyline
 62
2
  6
CONTINUOUS
 90
5
 70
0
 10
368.7701000977
 20
14.8739263916
 10
368.7701000977
 20
16.4155947876
 10
368.9666418457
 20
16.7239265442
 10
369.0649255371
 20
16.7239265442
 10
369.1632092285
 20
16.5697590637
  0
LINE
  5
3A3
100
AcDbEntity
  8
0
100
AcDbLine
 62
2
  6
CONTINUOUS
 10
368.5735327148
 20
15.9530923462
 11
368.9666418457
 21
15.9530923462
  0
LWPOLYLINE
  5
3A4
100
AcDbEntity
  8
0
100
AcDbPolyline
 62
2
  6
CONTINUOUS
 90
11
 70
0
 10
370.7357226563
 20
15.3364256287
 10
370.5391552734
 20
15.0280938721
 10
370.3425878906
 20
14.8739263916
 10
370.1460205078
 20
15.0280938721
 10
369.949453125
 20
15.3364256287
 10
369.949453125
 20
15.6447605896
 10
370.1460205078
 20
15.9530923462
 10
370.3425878906
 20
16.1072598267
 10
370.5391552734
 20
15.9530923462
 10
370.7357226563
 20
15.6447605896
 10
370.7357226563
 20
15.3364256287
  0
LINE
  5
3A5
100
AcDbEntity
  8
0
100
AcDbLine
 62
2
  6
CONTINUOUS
 10
371.6202502441
 20
14.8739263916
 11
371.6202502441
 21
16.1072598267
  0
LWPOLYLINE
  5
3A6
100
AcDbEntity
  8
0
100
AcDbPolyline
 62
2
  6
CONTINUOUS
 90
4
 70
0
 10
371.6202502441
 20
15.7989280701
 10
371.816817627
 20
16.1072598267
 10
372.013359375
 20
16.1072598267
 10
372.1116430664
 20
15.9530923462
  0
LWPOLYLINE
  5
3A7
100
AcDbEntity
  8
0
100
AcDbPolyline
 62
2
  6
CONTINUOUS
 90
8
 70
0
 10
373.6841564941
 20
15.0280938721
 10
373.4875891113
 20
14.8739263916
 10
373.2910217285
 20
15.0280938721
 10
373.0944543457
 20
15.3364256287
 10
373.0944543457
 20
15.6447605896
 10
373.2910217285
 20
15.9530923462
 10
373.4875891113
 20
16.1072598267
 10
373.6841564941
 20
15.9530923462
  0
LWPOLYLINE
  5
3A8
100
AcDbEntity
  8
0
100
AcDbPolyline
 62
2
  6
CONTINUOUS
 90
11
 70
0
 10
375.3549279785
 20
15.1822613525
 10
375.2566442871
 20
15.0280938721
 10
375.0601025391
 20
14.8739263916
 10
374.8635351563
 20
15.0280938721
 10
374.6669677734
 20
15.3364256287
 10
374.6669677734
 20
15.6447605896
 10
374.8635351563
 20
15.9530923462
 10
375.0601025391
 20
16.1072598267
 10
375.2566442871
 20
15.9530923462
 10
375.3549279785
 20
15.6447605896
 10
374.6669677734
 20
15.6447605896
  0
LWPOLYLINE
  5
3A9
100
AcDbEntity
  8
0
100
AcDbPolyline
 62
2
  6
CONTINUOUS
 90
4
 70
0
 10
376.632590332
 20
14.8739263916
 10
376.5343066406
 20
14.8739263916
 10
376.5343066406
 20
15.0280938721
 10
376.632590332
 20
14.8739263916
  0
LWPOLYLINE
  5
3AA
100
AcDbEntity
  8
0
100
AcDbPolyline
 62
2
  6
CONTINUOUS
 90
3
 70
0
 10
321.1036889648
 20
12.0989277649
 10
321.5950817871
 20
13.9489279175
 10
322.0865002441
 20
12.0989277649
  0
LINE
  5
3AB
100
AcDbEntity
  8
0
100
AcDbLine
 62
2
  6
CONTINUOUS
 10
321.3002563477
 20
12.7155944824
 11
321.8899328613
 21
12.7155944824
  0
LINE
  5
3AC
100
AcDbEntity
  8
0
100
AcDbLine
 62
2
  6
CONTINUOUS
 10
323.1675952148
 20
12.0989277649
 11
323.1675952148
 21
13.9489279175
  0
LINE
  5
3AD
100
AcDbEntity
  8
0
100
AcDbLine
 62
2
  6
CONTINUOUS
 10
324.7400830078
 20
12.0989277649
 11
324.7400830078
 21
13.9489279175
  0
LINE
  5
3AE
100
AcDbEntity
  8
0
100
AcDbLine
 62
2
  6
CONTINUOUS
 10
327.5902587891
 20
12.0989277649
 11
327.5902587891
 21
13.3322612
  0
LWPOLYLINE
  5
3AF
100
AcDbEntity
  8
0
100
AcDbPolyline
 62
2
  6
CONTINUOUS
 90
4
 70
0
 10
327.5902587891
 20
13.023926239
 10
327.7868005371
 20
13.3322612
 10
327.9833679199
 20
13.3322612
 10
328.0816516113
 20
13.1780937195
  0
LINE
  5
3B0
100
AcDbEntity
  8
0
100
AcDbLine
 62
2
  6
CONTINUOUS
 10
329.4575976563
 20
13.9489279175
 11
329.4575976563
 21
13.794760437
  0
LINE
  5
3B1
100
AcDbEntity
  8
0
100
AcDbLine
 62
2
  6
CONTINUOUS
 10
329.4575976563
 20
13.3322612
 11
329.4575976563
 21
12.0989277649
  0
LWPOLYLINE
  5
3B2
100
AcDbEntity
  8
0
100
AcDbPolyline
 62
2
  6
CONTINUOUS
 90
10
 70
0
 10
331.4232202148
 20
12.561427002
 10
331.226652832
 20
12.2530952454
 10
331.0300854492
 20
12.0989277649
 10
330.8335180664
 20
12.2530952454
 10
330.6369763184
 20
12.561427002
 10
330.6369763184
 20
12.8697619629
 10
330.8335180664
 20
13.1780937195
 10
331.0300854492
 20
13.3322612
 10
331.226652832
 20
13.1780937195
 10
331.4232202148
 20
12.8697619629
  0
LWPOLYLINE
  5
3B3
100
AcDbEntity
  8
0
100
AcDbPolyline
 62
2
  6
CONTINUOUS
 90
6
 70
0
 10
331.4232202148
 20
13.3322612
 10
331.4232202148
 20
11.9447602844
 10
331.3249365234
 20
11.6364285278
 10
331.226652832
 20
11.4822610474
 10
330.8335180664
 20
11.4822610474
 10
330.735234375
 20
11.6364285278
  0
LINE
  5
3B4
100
AcDbEntity
  8
0
100
AcDbLine
 62
2
  6
CONTINUOUS
 10
332.3077478027
 20
12.0989277649
 11
332.3077478027
 21
13.9489279175
  0
LWPOLYLINE
  5
3B5
100
AcDbEntity
  8
0
100
AcDbPolyline
 62
2
  6
CONTINUOUS
 90
7
 70
0
 10
332.3077478027
 20
13.023926239
 10
332.3077478027
 20
13.1780937195
 10
332.5043151855
 20
13.3322612
 10
332.602598877
 20
13.3322612
 10
332.7008825684
 20
13.3322612
 10
332.8974243164
 20
13.023926239
 10
332.8974243164
 20
12.0989277649
  0
LINE
  5
3B6
100
AcDbEntity
  8
0
100
AcDbLine
 62
2
  6
CONTINUOUS
 10
334.1750866699
 20
12.0989277649
 11
334.1750866699
 21
13.9489279175
  0
LINE
  5
3B7
100
AcDbEntity
  8
0
100
AcDbLine
 62
2
  6
CONTINUOUS
 10
333.8802355957
 20
13.1780937195
 11
334.4699377441
 21
13.1780937195
  0
LWPOLYLINE
  5
3B8
100
AcDbEntity
  8
0
100
AcDbPolyline
 62
2
  6
CONTINUOUS
 90
14
 70
0
 10
335.9441418457
 20
13.1780937195
 10
335.8458837891
 20
13.3322612
 10
335.6493164062
 20
13.3322612
 10
335.5510327148
 20
13.1780937195
 10
335.5510327148
 20
13.023926239
 10
335.7476000977
 20
12.8697619629
 10
335.9441418457
 20
12.7155944824
 10
336.0424255371
 20
12.561427002
 10
336.0424255371
 20
12.4072595215
 10
335.9441418457
 20
12.2530952454
 10
335.8458837891
 20
12.0989277649
 10
335.6493164062
 20
12.0989277649
 10
335.5510327148
 20
12.2530952454
 10
335.4527490234
 20
12.4072595215
  0
LINE
  5
3B9
100
AcDbEntity
  8
0
100
AcDbLine
 62
2
  6
CONTINUOUS
 10
338.5977502441
 20
12.0989277649
 11
338.5977502441
 21
13.3322612
  0
LWPOLYLINE
  5
3BA
100
AcDbEntity
  8
0
100
AcDbPolyline
 62
2
  6
CONTINUOUS
 90
4
 70
0
 10
338.5977502441
 20
13.023926239
 10
338.794317627
 20
13.3322612
 10
338.990859375
 20
13.3322612
 10
339.0891430664
 20
13.1780937195
  0
LWPOLYLINE
  5
3BB
100
AcDbEntity
  8
0
100
AcDbPolyline
 62
2
  6
CONTINUOUS
 90
11
 70
0
 10
340.7599401855
 20
12.4072595215
 10
340.6616564941
 20
12.2530952454
 10
340.4650891113
 20
12.0989277649
 10
340.2685217285
 20
12.2530952454
 10
340.0719543457
 20
12.561427002
 10
340.0719543457
 20
12.8697619629
 10
340.2685217285
 20
13.1780937195
 10
340.4650891113
 20
13.3322612
 10
340.6616564941
 20
13.1780937195
 10
340.7599401855
 20
12.8697619629
 10
340.0719543457
 20
12.8697619629
  0
LWPOLYLINE
  5
3BC
100
AcDbEntity
  8
0
100
AcDbPolyline
 62
2
  6
CONTINUOUS
 90
14
 70
0
 10
342.2341442871
 20
13.1780937195
 10
342.1358605957
 20
13.3322612
 10
341.9393188477
 20
13.3322612
 10
341.8410351562
 20
13.1780937195
 10
341.8410351562
 20
13.023926239
 10
342.0376025391
 20
12.8697619629
 10
342.2341442871
 20
12.7155944824
 10
342.3324279785
 20
12.561427002
 10
342.3324279785
 20
12.4072595215
 10
342.2341442871
 20
12.2530952454
 10
342.1358605957
 20
12.0989277649
 10
341.9393188477
 20
12.0989277649
 10
341.8410351562
 20
12.2530952454
 10
341.7427514648
 20
12.4072595215
  0
LWPOLYLINE
  5
3BD
100
AcDbEntity
  8
0
100
AcDbPolyline
 62
2
  6
CONTINUOUS
 90
11
 70
0
 10
343.9049414062
 20
12.4072595215
 10
343.8066577148
 20
12.2530952454
 10
343.610090332
 20
12.0989277649
 10
343.4135229492
 20
12.2530952454
 10
343.2169555664
 20
12.561427002
 10
343.2169555664
 20
12.8697619629
 10
343.4135229492
 20
13.1780937195
 10
343.610090332
 20
13.3322612
 10
343.8066577148
 20
13.1780937195
 10
343.9049414062
 20
12.8697619629
 10
343.2169555664
 20
12.8697619629
  0
LINE
  5
3BE
100
AcDbEntity
  8
0
100
AcDbLine
 62
2
  6
CONTINUOUS
 10
344.8877526855
 20
12.0989277649
 11
344.8877526855
 21
13.3322612
  0
LWPOLYLINE
  5
3BF
100
AcDbEntity
  8
0
100
AcDbPolyline
 62
2
  6
CONTINUOUS
 90
4
 70
0
 10
344.8877526855
 20
13.023926239
 10
345.0843200684
 20
13.3322612
 10
345.2808618164
 20
13.3322612
 10
345.3791455078
 20
13.1780937195
  0
LWPOLYLINE
  5
3C0
100
AcDbEntity
  8
0
100
AcDbPolyline
 62
2
  6
CONTINUOUS
 90
3
 70
0
 10
346.4602404785
 20
13.3322612
 10
346.7550915527
 20
12.0989277649
 10
347.049942627
 20
13.3322612
  0
LWPOLYLINE
  5
3C1
100
AcDbEntity
  8
0
100
AcDbPolyline
 62
2
  6
CONTINUOUS
 90
11
 70
0
 10
348.6224304199
 20
12.4072595215
 10
348.5241467285
 20
12.2530952454
 10
348.3275793457
 20
12.0989277649
 10
348.1310375977
 20
12.2530952454
 10
347.9344702148
 20
12.561427002
 10
347.9344702148
 20
12.8697619629
 10
348.1310375977
 20
13.1780937195
 10
348.3275793457
 20
13.3322612
 10
348.5241467285
 20
13.1780937195
 10
348.6224304199
 20
12.8697619629
 10
347.9344702148
 20
12.8697619629
  0
LWPOLYLINE
  5
3C2
100
AcDbEntity
  8
0
100
AcDbPolyline
 62
2
  6
CONTINUOUS
 90
10
 70
0
 10
350.2932275391
 20
12.561427002
 10
350.0966601562
 20
12.2530952454
 10
349.9000927734
 20
12.0989277649
 10
349.7035253906
 20
12.2530952454
 10
349.5069580078
 20
12.561427002
 10
349.5069580078
 20
12.8697619629
 10
349.7035253906
 20
13.1780937195
 10
349.9000927734
 20
13.3322612
 10
350.0966601562
 20
13.1780937195
 10
350.2932275391
 20
12.8697619629
  0
LINE
  5
3C3
100
AcDbEntity
  8
0
100
AcDbLine
 62
2
  6
CONTINUOUS
 10
350.2932275391
 20
13.9489279175
 11
350.2932275391
 21
12.0989277649
  0
LWPOLYLINE
  5
3C4
100
AcDbEntity
  8
0
100
AcDbPolyline
 62
2
  6
CONTINUOUS
 90
4
 70
0
 10
351.4725805664
 20
12.0989277649
 10
351.374296875
 20
12.0989277649
 10
351.374296875
 20
12.2530952454
 10
351.4725805664
 20
12.0989277649
  0
ACAD_TABLE
  5
3C5
100
AcDbEntity
  8
0
 62
2
  6
CONTINUOUS
100
AcDbBlockReference
  2
*T1
 10
319.3213399098
 20
51.0239270671
 30
0.0
100
AcDbTable
342
       5EE
343
229
 11
1.0
 21
0.0
 31
0.0
 90
22
 91
5
 92
5
 93
0
 94
0
 95
0
 96
0
141
6.0
141
6.0
141
10.0
141
5.0
141
13.0
142
10.0
142
10.0
142
10.0
142
40.0
142
20.0
171
1
172
0
173
0
174
0
175
3
176
4
 91
1
178
0
145
0.0
170
5
171
1
172
0
173
1
174
0
175
1
176
1
 91
1
178
0
145
0.0
170
1
171
1
172
0
173
1
174
0
175
1
176
1
 91
1
178
0
145
0.0
170
1
171
1
172
0
173
0
174
0
175
1
176
1
 91
33
178
0
145
0.0
301
CELL_VALUE
 90
4
  1
{\Ftxt.shx;\W7.238095;\H3.000000; }
304
ACVALUE_END
170
4
140
3.0
171
1
172
0
173
0
174
0
175
1
176
1
 91
33
178
0
145
0.0
301
CELL_VALUE
 90
4
  1
{\Ftxt.shx;\W5.100000;\H3.500000; }
304
ACVALUE_END
170
1
140
3.5
171
1
172
0
173
1
174
0
175
1
176
1
 91
1
178
0
145
0.0
170
1
171
1
172
0
173
1
174
0
175
1
176
1
 91
1
178
0
145
0.0
170
1
171
1
172
0
173
1
174
0
175
1
176
1
 91
1
178
0
145
0.0
170
1
171
1
172
0
173
0
174
0
175
1
176
1
 91
33
178
0
145
0.0
301
CELL_VALUE
 90
4
  1
{\Ftxt.shx;\W3.714286;\H3.500000; }{\Ftxt.shx;\W1.500000;\H3.500000; }
304
ACVALUE_END
170
1
140
3.5
171
1
172
0
173
0
174
0
175
1
176
1
 91
33
178
0
145
0.0
301
CELL_VALUE
 90
4
  1
{\Ftxt.shx;\W1.571429;\H3.500000; }
304
ACVALUE_END
170
4
140
3.5
171
1
172
0
173
1
174
0
175
1
176
1
 91
1
178
0
145
0.0
170
1
171
1
172
0
173
1
174
0
175
1
176
1
 91
1
178
0
145
0.0
170
1
171
1
172
0
173
1
174
0
175
1
176
1
 91
1
178
0
145
0.0
170
1
171
1
172
0
173
0
174
0
175
2
176
1
 91
33
178
0
145
0.0
301
CELL_VALUE
 90
4
  1
{\Ftxt.shx;\W6.571429;\H3.500000; }{\Ftxt.shx;\W0.785714;\H3.500000; }
304
ACVALUE_END
170
4
140
3.5
171
1
172
0
173
1
174
0
175
1
176
1
 91
1
178
0
145
0.0
170
1
171
1
172
0
173
1
174
0
175
1
176
1
 91
1
178
0
145
0.0
170
1
171
1
172
0
173
1
174
0
175
1
176
1
 91
1
178
0
145
0.0
170
1
171
1
172
0
173
1
174
0
175
1
176
1
 91
1
178
0
145
0.0
170
1
171
1
172
0
173
0
174
0
175
2
176
1
 91
33
178
0
145
0.0
301
CELL_VALUE
 90
4
  1
{\Ftxt.shx;\W11.476190;\H2.500000; }
304
ACVALUE_END
170
4
140
2.5
171
1
172
0
173
1
174
0
175
1
176
1
 91
1
178
0
145
0.0
170
1
171
1
172
0
173
0
174
0
175
5
176
1
 91
33
178
0
145
0.0
301
CELL_VALUE
 90
4
  1
{\Ftxt.shx;\W45.050000;\H1.850000; }\P{\Ftxt.shx;\W28.050000;\H1.850000; }{\Ftxt.shx;\W7.650000;\H1.850000; }{\Ftxt.shx;\W13.600000;\H1.850000; }\P{\Ftxt.shx;\W31.450000;\H1.850000; }\P{\Ftxt.shx;\W17.000000;\H1.850000; }
304
ACVALUE_END
170
1
140
1.85
171
1
172
0
173
1
174
0
175
1
176
1
 91
1
178
0
145
0.0
170
1
171
1
172
0
173
1
174
0
175
1
176
1
 91
1
178
0
145
0.0
170
1
171
1
172
0
173
1
174
0
175
1
176
1
 91
1
178
0
145
0.0
170
1
171
1
172
0
173
1
174
0
175
1
176
1
 91
1
178
0
145
0.0
170
1
  0
LINE
  5
3C6
100
AcDbEntity
  8
0
100
AcDbLine
 62
7
  6
CONTINUOUS
 10
0.0
 20
0.0
 11
0.0
 21
297.0
  0
LWPOLYLINE
  5
3C7
100
AcDbEntity
  8
0
100
AcDbPolyline
 62
7
  6
CONTINUOUS
 90
2
 70
0
 43
0.1000000003
 10
7.0536312849
 20
0.0
 10
7.0536312849
 20
297.0
  0
LWPOLYLINE
  5
3C8
100
AcDbEntity
  8
0
100
AcDbPolyline
 62
7
  6
CONTINUOUS
 90
2
 70
0
 43
0.4999999952
 10
10.0536312849
 20
10.0318435754
 10
10.0536312849
 20
287.0
  0
LWPOLYLINE
  5
3C9
100
AcDbEntity
  8
0
100
AcDbPolyline
 62
2
  6
CONTINUOUS
 90
5
 70
0
 10
2.7895792007
 20
251.8807543945
 10
3.2657698059
 20
252.1664538574
 10
3.2657698059
 20
253.0236035156
 10
2.7895792007
 20
253.5950280762
 10
1.6467220688
 20
253.5950280762
  0
LINE
  5
3CA
100
AcDbEntity
  8
0
100
AcDbLine
 62
7
  6
CONTINUOUS
 10
0.0
 20
0.0
 11
420.0
 21
0.0
  0
LINE
  5
3CB
100
AcDbEntity
  8
0
100
AcDbLine
 62
2
  6
CONTINUOUS
 10
363.2799023437
 20
2.6920935059
 11
364.6298803711
 21
2.6920935059
  0
LINE
  5
3CC
100
AcDbEntity
  8
0
100
AcDbLine
 62
2
  6
CONTINUOUS
 10
262.8298937988
 20
3.6920928955
 11
264.4048937988
 21
3.6920928955
  0
LWPOLYLINE
  5
3CD
100
AcDbEntity
  8
0
100
AcDbPolyline
 62
2
  6
CONTINUOUS
 90
12
 70
0
 10
56.6978659058
 20
5.535344696
 10
57.5978704834
 20
5.535344696
 10
58.0478695679
 20
5.2020094299
 10
58.2728659058
 20
4.8686773682
 10
58.4978686523
 20
4.5353453064
 10
58.7228713989
 20
3.5353427124
 10
58.4978686523
 20
2.5353433228
 10
58.2728659058
 20
2.202011261
 10
58.0478695679
 20
1.8686759949
 10
57.5978704834
 20
1.5353439331
 10
56.6978659058
 20
1.5353439331
 10
56.6978659058
 20
5.535344696
  0
LWPOLYLINE
  5
3CE
100
AcDbEntity
  8
0
100
AcDbPolyline
 62
7
  6
CONTINUOUS
 90
2
 70
0
 43
0.1000000003
 10
0.0
 20
7.0318435754
 10
420.0
 20
7.0318435754
  0
LWPOLYLINE
  5
3CF
100
AcDbEntity
  8
0
100
AcDbPolyline
 62
7
  6
CONTINUOUS
 90
2
 70
0
 43
0.4999999952
 10
10.0536312849
 20
10.0318435754
 10
410.0
 20
10.0318435754
  0
LWPOLYLINE
  5
3D0
100
AcDbEntity
  8
0
100
AcDbPolyline
 62
2
  6
CONTINUOUS
 90
15
 70
0
 10
164.8548962402
 20
292.0254382324
 10
164.629887085
 20
291.6920837402
 10
164.1798944092
 20
291.3587548828
 10
163.729888916
 20
291.3587548828
 10
163.2798962402
 20
291.6920837402
 10
163.054887085
 20
292.0254382324
 10
162.8298907471
 20
292.3587670898
 10
162.6048944092
 20
293.3587536621
 10
162.8298907471
 20
294.3587658691
 10
163.054887085
 20
294.6920947266
 10
163.2798962402
 20
295.025423584
 10
163.729888916
 20
295.3587524414
 10
164.1798944092
 20
295.3587524414
 10
164.629887085
 20
295.025423584
 10
164.8548962402
 20
294.6920947266
  0
LINE
  5
3D1
100
AcDbEntity
  8
0
100
AcDbLine
 62
7
  6
CONTINUOUS
 10
113.0
 20
297.0
 11
113.0
 21
290.0
  0
LINE
  5
3D2
100
AcDbEntity
  8
0
100
AcDbLine
 62
7
  6
CONTINUOUS
 10
113.0
 20
7.0
 11
113.0
 21
0.0
  0
LWPOLYLINE
  5
3D3
100
AcDbEntity
  8
0
100
AcDbPolyline
 62
7
  6
CONTINUOUS
 90
2
 70
0
 43
0.1000000003
 10
123.0
 20
10.0
 10
123.0
 20
0.0
  0
LWPOLYLINE
  5
3D4
100
AcDbEntity
  8
0
100
AcDbPolyline
 62
7
  6
CONTINUOUS
 90
2
 70
0
 43
0.1000000003
 10
123.0
 20
287.0
 10
123.0
 20
297.0
  0
LWPOLYLINE
  5
3D5
100
AcDbEntity
  8
0
100
AcDbPolyline
 62
2
  6
CONTINUOUS
 90
3
 70
0
 10
1.6467220688
 20
52.4521728516
 10
2.7895792007
 20
53.5950283813
 10
2.7895792007
 20
49.5950244141
  0
LINE
  5
3D6
100
AcDbEntity
  8
0
100
AcDbLine
 62
7
  6
CONTINUOUS
 10
-0.0
 20
99.9681564246
 11
7.0
 21
99.9681564246
  0
LWPOLYLINE
  5
3D7
100
AcDbEntity
  8
0
100
AcDbPolyline
 62
2
  6
CONTINUOUS
 90
9
 70
0
 10
56.2378820801
 20
295.2461645508
 10
56.6878811646
 20
294.5794812012
 10
56.9128839111
 20
293.5794946289
 10
56.6878811646
 20
292.5794824219
 10
56.4628848267
 20
292.2461535645
 10
56.2378820801
 20
291.912824707
 10
55.7878829956
 20
291.5794958496
 10
54.8878848267
 20
291.5794958496
 10
54.8878848267
 20
295.5794934082
  0
LINE
  5
3D8
100
AcDbEntity
  8
0
100
AcDbLine
 62
7
  6
CONTINUOUS
 10
413.0
 20
107.0
 11
420.0
 21
107.0
  0
LWPOLYLINE
  5
3D9
100
AcDbEntity
  8
0
100
AcDbPolyline
 62
7
  6
CONTINUOUS
 90
2
 70
0
 43
0.1000000003
 10
210.0
 20
10.0
 10
210.0
 20
0.0
  0
LWPOLYLINE
  5
3DA
100
AcDbEntity
  8
0
100
AcDbPolyline
 62
7
  6
CONTINUOUS
 90
2
 70
0
 43
0.1000000003
 10
210.0
 20
287.0
 10
210.0
 20
297.0
  0
LWPOLYLINE
  5
3DB
100
AcDbEntity
  8
0
100
AcDbPolyline
 62
7
  6
CONTINUOUS
 90
2
 70
0
 43
0.1000000003
 10
10.0
 20
148.5
 10
0.0
 20
148.5
  0
LWPOLYLINE
  5
3DC
100
AcDbEntity
  8
0
100
AcDbPolyline
 62
7
  6
CONTINUOUS
 90
2
 70
0
 43
0.1000000003
 10
410.0
 20
148.5
 10
420.0
 20
148.5
  0
LWPOLYLINE
  5
3DD
100
AcDbEntity
  8
0
100
AcDbPolyline
 62
2
  6
CONTINUOUS
 90
7
 70
0
 10
3.6467220497
 20
149.5950274658
 10
1.6467220688
 20
149.5950274658
 10
3.6467220497
 20
152.4521759033
 10
3.6467220497
 20
153.0236004639
 10
3.0752934837
 20
153.5950250244
 10
2.2181506348
 20
153.5950250244
 10
1.6467220688
 20
152.7378881836
  0
LWPOLYLINE
  5
3DE
100
AcDbEntity
  8
0
100
AcDbPolyline
 62
2
  6
CONTINUOUS
 90
5
 70
0
 10
415.7895666504
 20
258.9125756836
 10
416.2657580566
 20
259.1983007812
 10
416.2657580566
 20
260.0554504395
 10
415.7895666504
 20
260.626875
 10
414.6467175293
 20
260.626875
  0
LWPOLYLINE
  5
3DF
100
AcDbEntity
  8
0
100
AcDbPolyline
 62
2
  6
CONTINUOUS
 90
7
 70
0
 10
416.6467163086
 20
156.6268743896
 10
414.6467175293
 20
156.6268743896
 10
416.6467163086
 20
159.4840100098
 10
416.6467163086
 20
160.0554473877
 10
416.075291748
 20
160.6268719482
 10
415.2181420898
 20
160.6268719482
 10
414.6467175293
 20
159.76972229
  0
LWPOLYLINE
  5
3E0
100
AcDbEntity
  8
0
100
AcDbPolyline
 62
2
  6
CONTINUOUS
 90
15
 70
0
 10
164.8548962402
 20
2.025426178
 10
164.629887085
 20
1.6920941162
 10
164.1798944092
 20
1.3587588501
 10
163.729888916
 20
1.3587588501
 10
163.2798962402
 20
1.6920941162
 10
163.054887085
 20
2.025426178
 10
162.8298907471
 20
2.3587614441
 10
162.6048944092
 20
3.3587608337
 10
162.8298907471
 20
4.3587602234
 10
163.054887085
 20
4.6920922852
 10
163.2798962402
 20
5.0254275513
 10
163.729888916
 20
5.358759613
 10
164.1798944092
 20
5.358759613
 10
164.629887085
 20
5.0254275513
 10
164.8548962402
 20
4.6920922852
  0
LWPOLYLINE
  5
3E1
100
AcDbEntity
  8
0
100
AcDbPolyline
 62
2
  6
CONTINUOUS
 90
6
 70
0
 10
262.8298937988
 20
295.3587524414
 10
262.8298937988
 20
291.3587548828
 10
264.4048937988
 20
291.3587548828
 10
264.6298901367
 20
291.6920837402
 10
264.8548864746
 20
292.0254382324
 10
264.8548864746
 20
293.0254248047
  0
LWPOLYLINE
  5
3E2
100
AcDbEntity
  8
0
100
AcDbPolyline
 62
2
  6
CONTINUOUS
 90
12
 70
0
 10
262.8298937988
 20
5.358759613
 10
262.8298937988
 20
1.3587588501
 10
264.4048937988
 20
1.3587588501
 10
264.6298901367
 20
1.6920941162
 10
264.8548864746
 20
2.025426178
 10
264.8548864746
 20
3.0254255676
 10
264.6298901367
 20
3.3587608337
 10
264.4048937988
 20
3.6920928955
 10
264.6298901367
 20
4.0254281616
 10
264.6298901367
 20
5.0254275513
 10
264.4048937988
 20
5.358759613
 10
262.8298937988
 20
5.358759613
  0
LINE
  5
3E3
100
AcDbEntity
  8
0
100
AcDbLine
 62
7
  6
CONTINUOUS
 10
-0.0
 20
199.9681564246
 11
7.0
 21
199.9681564246
  0
LWPOLYLINE
  5
3E4
100
AcDbEntity
  8
0
100
AcDbPolyline
 62
7
  6
CONTINUOUS
 90
2
 70
0
 43
0.1000000003
 10
10.0
 20
202.9681564246
 10
0.0
 20
202.9681564246
  0
LWPOLYLINE
  5
3E5
100
AcDbEntity
  8
0
100
AcDbPolyline
 62
7
  6
CONTINUOUS
 90
2
 70
0
 43
0.1000000003
 10
410.0
 20
210.0
 10
420.0
 20
210.0
  0
LINE
  5
3E6
100
AcDbEntity
  8
0
100
AcDbLine
 62
7
  6
CONTINUOUS
 10
313.0
 20
297.0
 11
313.0
 21
290.0
  0
LINE
  5
3E7
100
AcDbEntity
  8
0
100
AcDbLine
 62
7
  6
CONTINUOUS
 10
313.0
 20
7.0
 11
313.0
 21
0.0
  0
LWPOLYLINE
  5
3E8
100
AcDbEntity
  8
0
100
AcDbPolyline
 62
2
  6
CONTINUOUS
 90
6
 70
0
 10
1.6467220688
 20
249.5950305176
 10
3.0752934837
 20
249.5950305176
 10
3.3610077667
 20
249.8807299805
 10
3.3610077667
 20
251.3093041992
 10
2.7895792007
 20
251.8807543945
 10
2.2181506348
 20
251.8807543945
  0
LWPOLYLINE
  5
3E9
100
AcDbEntity
  8
0
100
AcDbPolyline
 62
2
  6
CONTINUOUS
 90
3
 70
0
 10
362.8298840332
 20
291.3587548828
 10
363.9548913574
 20
295.3587524414
 10
365.0798986816
 20
291.3587548828
  0
LWPOLYLINE
  5
3EA
100
AcDbEntity
  8
0
100
AcDbPolyline
 62
2
  6
CONTINUOUS
 90
6
 70
0
 10
414.6467175293
 20
256.6268774414
 10
416.075291748
 20
256.6268774414
 10
416.3610168457
 20
256.9125769043
 10
416.3610168457
 20
258.341151123
 10
415.7895666504
 20
258.9125756836
 10
415.2181420898
 20
258.9125756836
  0
LWPOLYLINE
  5
3EB
100
AcDbEntity
  8
0
100
AcDbPolyline
 62
2
  6
CONTINUOUS
 90
6
 70
0
 10
264.8548864746
 20
293.0254248047
 10
264.4048937988
 20
293.6920825195
 10
264.6298901367
 20
294.0254370117
 10
264.6298901367
 20
295.025423584
 10
264.4048937988
 20
295.3587524414
 10
262.8298937988
 20
295.3587524414
  0
LWPOLYLINE
  5
3EC
100
AcDbEntity
  8
0
100
AcDbPolyline
 62
7
  6
CONTINUOUS
 90
2
 70
0
 43
0.4999999952
 10
10.0536312849
 20
287.0
 10
410.0
 20
287.0
  0
LWPOLYLINE
  5
3ED
100
AcDbEntity
  8
0
100
AcDbPolyline
 62
7
  6
CONTINUOUS
 90
2
 70
0
 43
0.1000000003
 10
0.0
 20
290.0
 10
420.0
 20
290.0
  0
LINE
  5
3EE
100
AcDbEntity
  8
0
100
AcDbLine
 62
2
  6
CONTINUOUS
 10
363.2799023437
 20
292.6920959473
 11
364.6298803711
 21
292.6920959473
  0
LINE
  5
3EF
100
AcDbEntity
  8
0
100
AcDbLine
 62
2
  6
CONTINUOUS
 10
262.8298937988
 20
293.6920825195
 11
264.4048937988
 21
293.6920825195
  0
LWPOLYLINE
  5
3F0
100
AcDbEntity
  8
0
100
AcDbPolyline
 62
2
  6
CONTINUOUS
 90
3
 70
0
 10
54.8878848267
 20
295.5794934082
 10
55.7878829956
 20
295.5794934082
 10
56.2378820801
 20
295.2461645508
  0
LINE
  5
3F1
100
AcDbEntity
  8
0
100
AcDbLine
 62
7
  6
CONTINUOUS
 10
0.0
 20
297.0
 11
420.0
 21
297.0
  0
LWPOLYLINE
  5
3F2
100
AcDbEntity
  8
0
100
AcDbPolyline
 62
2
  6
CONTINUOUS
 90
3
 70
0
 10
362.8298840332
 20
1.3587588501
 10
363.9548913574
 20
5.358759613
 10
365.0798986816
 20
1.3587588501
  0
LWPOLYLINE
  5
3F3
100
AcDbEntity
  8
0
100
AcDbPolyline
 62
7
  6
CONTINUOUS
 90
2
 70
0
 43
0.4999999952
 10
410.0
 20
10.0318435754
 10
410.0
 20
287.0
  0
LWPOLYLINE
  5
3F4
100
AcDbEntity
  8
0
100
AcDbPolyline
 62
7
  6
CONTINUOUS
 90
2
 70
0
 43
0.1000000003
 10
413.0
 20
0.0
 10
413.0
 20
297.0
  0
LINE
  5
3F5
100
AcDbEntity
  8
0
100
AcDbLine
 62
7
  6
CONTINUOUS
 10
420.0
 20
0.0
 11
420.0
 21
297.0
  0
LWPOLYLINE
  5
3F6
100
AcDbEntity
  8
0
100
AcDbPolyline
 62
2
  6
CONTINUOUS
 90
3
 70
0
 10
414.6467175293
 20
59.4840133667
 10
415.7895666504
 20
60.6268688965
 10
415.7895666504
 20
56.6268713379
  0
LINE
  5
3F7
100
AcDbEntity
  8
7_ALL_FEATURES
100
AcDbLine
 62
7
  6
CONTINUOUS
 10
38.2391318169
 20
242.7011088453
 11
38.2391318169
 21
197.1131667228
  0
LINE
  5
3F8
100
AcDbEntity
  8
7_ALL_FEATURES
100
AcDbLine
 62
9
  6
CONTINUOUS
 10
38.4180212288
 20
242.7011088453
 11
38.4180212288
 21
197.1131667228
  0
LINE
  5
3F9
100
AcDbEntity
  8
7_ALL_FEATURES
100
AcDbLine
 62
7
  6
CONTINUOUS
 10
40.5449612374
 20
198.6419185415
 11
40.5449612374
 21
241.1723570266
  0
LINE
  5
3FA
100
AcDbEntity
  8
7_ALL_FEATURES
100
AcDbLine
 62
3
  6
CONTINUOUS
 10
40.786442694
 20
198.6419185415
 11
40.786442694
 21
241.1723570266
  0
LINE
  5
3FB
100
AcDbEntity
  8
7_ALL_FEATURES
100
AcDbLine
 62
7
  6
CONTINUOUS
 10
42.7981178977
 20
189.4071377841
 11
42.7981178977
 21
250.4071377841
  0
LINE
  5
3FC
100
AcDbEntity
  8
7_ALL_FEATURES
100
AcDbLine
 62
7
  6
CONTINUOUS
 10
107.491414712
 20
197.1131667228
 11
103.7981178977
 21
196.2688092855
  0
LINE
  5
3FD
100
AcDbEntity
  8
7_ALL_FEATURES
100
AcDbLine
 62
3
  6
CONTINUOUS
 10
107.2604448288
 20
197.1131667228
 11
103.7981178977
 21
196.321613365
  0
LINE
  5
3FE
100
AcDbEntity
  8
7_ALL_FEATURES
100
AcDbLine
 62
7
  6
CONTINUOUS
 10
103.7981178977
 20
189.4071377841
 11
42.7981178977
 21
189.4071377841
  0
LINE
  5
3FF
100
AcDbEntity
  8
7_ALL_FEATURES
100
AcDbLine
 62
7
  6
CONTINUOUS
 10
42.7981178977
 20
196.2688092855
 11
39.1048210835
 21
197.1131667228
  0
LINE
  5
400
100
AcDbEntity
  8
7_ALL_FEATURES
100
AcDbLine
 62
3
  6
CONTINUOUS
 10
42.7981178977
 20
196.321613365
 11
39.3357909666
 21
197.1131667228
  0
LINE
  5
401
100
AcDbEntity
  8
7_ALL_FEATURES
100
AcDbLine
 62
7
  6
CONTINUOUS
 10
48.7981178977
 20
244.4071377841
 11
48.7981178977
 21
195.4071377841
  0
LINE
  5
402
100
AcDbEntity
  8
7_ALL_FEATURES
100
AcDbLine
 62
7
  6
CONTINUOUS
 10
48.7981178977
 20
195.4071377841
 11
97.7981178977
 21
195.4071377841
  0
LINE
  5
403
100
AcDbEntity
  8
7_ALL_FEATURES
100
AcDbLine
 62
7
  6
CONTINUOUS
 10
49.1481178977
 20
243.7571377841
 11
49.1481178977
 21
196.0571377841
  0
LINE
  5
404
100
AcDbEntity
  8
7_ALL_FEATURES
100
AcDbLine
 62
7
  6
CONTINUOUS
 10
49.4481178977
 20
195.7571377841
 11
97.1481178977
 21
195.7571377841
  0
LINE
  5
405
100
AcDbEntity
  8
7_ALL_FEATURES
100
AcDbLine
 62
3
  6
CONTINUOUS
 10
107.6215264172
 20
197.1131667228
 11
107.2604448288
 21
197.1131667228
  0
LINE
  5
406
100
AcDbEntity
  8
7_ALL_FEATURES
100
AcDbLine
 62
3
  6
CONTINUOUS
 10
39.3357909666
 20
197.1131667228
 11
38.9747093783
 21
197.1131667228
  0
LINE
  5
407
100
AcDbEntity
  8
7_ALL_FEATURES
100
AcDbLine
 62
7
  6
CONTINUOUS
 10
38.2392129162
 20
197.1131667228
 11
38.9747093783
 21
197.1131667228
  0
LINE
  5
408
100
AcDbEntity
  8
7_ALL_FEATURES
100
AcDbLine
 62
7
  6
CONTINUOUS
 10
107.6215264172
 20
197.1131667228
 11
108.3570228793
 21
197.1131667228
  0
LINE
  5
409
100
AcDbEntity
  8
7_ALL_FEATURES
100
AcDbLine
 62
9
  6
CONTINUOUS
 10
40.550181215
 20
197.6457238435
 11
40.3086997584
 21
197.6457238435
  0
LINE
  5
40A
100
AcDbEntity
  8
7_ALL_FEATURES
100
AcDbLine
 62
9
  6
CONTINUOUS
 10
106.0460545805
 20
197.6457238435
 11
106.287536037
 21
197.6457238435
  0
LINE
  5
40B
100
AcDbEntity
  8
7_ALL_FEATURES
100
AcDbLine
 62
9
  6
CONTINUOUS
 10
40.786442694
 20
198.6419185415
 11
40.5449612374
 21
198.6419185415
  0
LINE
  5
40C
100
AcDbEntity
  8
7_ALL_FEATURES
100
AcDbLine
 62
9
  6
CONTINUOUS
 10
105.8097931015
 20
198.6419185415
 11
106.051274558
 21
198.6419185415
  0
LINE
  5
40D
100
AcDbEntity
  8
7_ALL_FEATURES
100
AcDbLine
 62
3
  6
CONTINUOUS
 10
106.0460545805
 20
242.1685517247
 11
107.6215264172
 21
242.7011088453
  0
LINE
  5
40E
100
AcDbEntity
  8
7_ALL_FEATURES
100
AcDbLine
 62
7
  6
CONTINUOUS
 10
106.287536037
 20
242.1685517247
 11
107.8630078738
 21
242.7011088453
  0
LINE
  5
40F
100
AcDbEntity
  8
7_ALL_FEATURES
100
AcDbLine
 62
3
  6
CONTINUOUS
 10
107.6215264172
 20
197.1131667228
 11
106.0460545805
 21
197.6457238435
  0
LINE
  5
410
100
AcDbEntity
  8
7_ALL_FEATURES
100
AcDbLine
 62
7
  6
CONTINUOUS
 10
107.8630078738
 20
197.1131667228
 11
106.287536037
 21
197.6457238435
  0
LINE
  5
411
100
AcDbEntity
  8
7_ALL_FEATURES
100
AcDbLine
 62
7
  6
CONTINUOUS
 10
40.3086997584
 20
197.6457238435
 11
38.7332279217
 21
197.1131667228
  0
LINE
  5
412
100
AcDbEntity
  8
7_ALL_FEATURES
100
AcDbLine
 62
3
  6
CONTINUOUS
 10
40.550181215
 20
197.6457238435
 11
38.9747093783
 21
197.1131667228
  0
LINE
  5
413
100
AcDbEntity
  8
7_ALL_FEATURES
100
AcDbLine
 62
7
  6
CONTINUOUS
 10
38.7332279217
 20
242.7011088453
 11
40.3086997584
 21
242.1685517247
  0
LINE
  5
414
100
AcDbEntity
  8
7_ALL_FEATURES
100
AcDbLine
 62
3
  6
CONTINUOUS
 10
38.9747093783
 20
242.7011088453
 11
40.550181215
 21
242.1685517247
  0
LINE
  5
415
100
AcDbEntity
  8
7_ALL_FEATURES
100
AcDbLine
 62
9
  6
CONTINUOUS
 10
40.786442694
 20
241.1723570266
 11
40.5449612374
 21
241.1723570266
  0
LINE
  5
416
100
AcDbEntity
  8
7_ALL_FEATURES
100
AcDbLine
 62
9
  6
CONTINUOUS
 10
105.8097931015
 20
241.1723570266
 11
106.051274558
 21
241.1723570266
  0
LINE
  5
417
100
AcDbEntity
  8
7_ALL_FEATURES
100
AcDbLine
 62
7
  6
CONTINUOUS
 10
97.4481178977
 20
196.0571377841
 11
97.4481178977
 21
243.7571377841
  0
LINE
  5
418
100
AcDbEntity
  8
7_ALL_FEATURES
100
AcDbLine
 62
7
  6
CONTINUOUS
 10
97.7981178977
 20
195.4071377841
 11
97.7981178977
 21
244.4071377841
  0
LINE
  5
419
100
AcDbEntity
  8
7_ALL_FEATURES
100
AcDbLine
 62
9
  6
CONTINUOUS
 10
40.550181215
 20
242.1685517247
 11
40.3086997584
 21
242.1685517247
  0
LINE
  5
41A
100
AcDbEntity
  8
7_ALL_FEATURES
100
AcDbLine
 62
9
  6
CONTINUOUS
 10
106.0460545805
 20
242.1685517247
 11
106.287536037
 21
242.1685517247
  0
LINE
  5
41B
100
AcDbEntity
  8
7_ALL_FEATURES
100
AcDbLine
 62
7
  6
CONTINUOUS
 10
38.2392129162
 20
242.7011088453
 11
38.9747093783
 21
242.7011088453
  0
LINE
  5
41C
100
AcDbEntity
  8
7_ALL_FEATURES
100
AcDbLine
 62
3
  6
CONTINUOUS
 10
38.9747093783
 20
242.7011088453
 11
39.3357909666
 21
242.7011088453
  0
LINE
  5
41D
100
AcDbEntity
  8
7_ALL_FEATURES
100
AcDbLine
 62
3
  6
CONTINUOUS
 10
107.2604448288
 20
242.7011088453
 11
107.6215264172
 21
242.7011088453
  0
LINE
  5
41E
100
AcDbEntity
  8
7_ALL_FEATURES
100
AcDbLine
 62
7
  6
CONTINUOUS
 10
107.6215264172
 20
242.7011088453
 11
108.3570228793
 21
242.7011088453
  0
LINE
  5
41F
100
AcDbEntity
  8
7_ALL_FEATURES
100
AcDbLine
 62
7
  6
CONTINUOUS
 10
97.1481178977
 20
244.0571377841
 11
49.4481178977
 21
244.0571377841
  0
LINE
  5
420
100
AcDbEntity
  8
7_ALL_FEATURES
100
AcDbLine
 62
7
  6
CONTINUOUS
 10
97.7981178977
 20
244.4071377841
 11
48.7981178977
 21
244.4071377841
  0
LINE
  5
421
100
AcDbEntity
  8
7_ALL_FEATURES
100
AcDbLine
 62
7
  6
CONTINUOUS
 10
103.7981178977
 20
250.4071377841
 11
103.7981178977
 21
189.4071377841
  0
LWPOLYLINE
  5
422
100
AcDbEntity
  8
0
100
AcDbPolyline
 62
2
  6
CONTINUOUS
 90
10
 70
0
 43
0.1500000036
 10
72.3338296509
 20
178.5526739502
 10
71.6909738159
 20
177.9098181152
 10
71.2624053955
 20
177.052668457
 10
71.2624053955
 20
175.9812506104
 10
71.6909738159
 20
175.5526757813
 10
72.3338296509
 20
175.5526757813
 10
72.76240448
 20
175.9812506104
 10
72.76240448
 20
176.8383874512
 10
72.3338296509
 20
177.2669622803
 10
71.4052615356
 20
177.2669622803
  0
LWPOLYLINE
  5
423
100
AcDbEntity
  8
0
100
AcDbPolyline
 62
2
  6
CONTINUOUS
 90
3
 70
0
 43
0.1500000036
 10
73.6195477295
 20
177.6955371094
 10
74.476690979
 20
178.5526739502
 10
74.476690979
 20
175.5526757813
  0
LINE
  5
424
100
AcDbEntity
  8
7_ALL_FEATURES
100
AcDbLine
 62
3
  6
CONTINUOUS
 10
39.3357909666
 20
242.7011088453
 11
42.7981178977
 21
243.4926622032
  0
LINE
  5
425
100
AcDbEntity
  8
7_ALL_FEATURES
100
AcDbLine
 62
7
  6
CONTINUOUS
 10
39.1048210835
 20
242.7011088453
 11
42.7981178977
 21
243.5454662827
  0
LINE
  5
426
100
AcDbEntity
  8
7_ALL_FEATURES
100
AcDbLine
 62
7
  6
CONTINUOUS
 10
42.7981178977
 20
250.4071377841
 11
103.7981178977
 21
250.4071377841
  0
LINE
  5
427
100
AcDbEntity
  8
7_ALL_FEATURES
100
AcDbLine
 62
3
  6
CONTINUOUS
 10
103.7981178977
 20
243.4926622032
 11
107.2604448288
 21
242.7011088453
  0
LINE
  5
428
100
AcDbEntity
  8
7_ALL_FEATURES
100
AcDbLine
 62
7
  6
CONTINUOUS
 10
103.7981178977
 20
243.5454662827
 11
107.491414712
 21
242.7011088453
  0
LINE
  5
429
100
AcDbEntity
  8
7_ALL_FEATURES
100
AcDbLine
 62
3
  6
CONTINUOUS
 10
105.8097931015
 20
241.1723570266
 11
105.8097931015
 21
198.6419185415
  0
LINE
  5
42A
100
AcDbEntity
  8
7_ALL_FEATURES
100
AcDbLine
 62
7
  6
CONTINUOUS
 10
106.051274558
 20
241.1723570266
 11
106.051274558
 21
198.6419185415
  0
LWPOLYLINE
  5
42B
100
AcDbEntity
  8
0
100
AcDbPolyline
 62
2
  6
CONTINUOUS
 90
10
 70
0
 43
0.1500000036
 10
120.730479126
 20
218.9428491211
 10
121.3733349609
 20
218.3000061035
 10
122.2304846191
 20
217.871418457
 10
123.3019152832
 20
217.871418457
 10
123.7304901123
 20
218.3000061035
 10
123.7304901123
 20
218.9428491211
 10
123.3019152832
 20
219.3714111328
 10
122.444765625
 20
219.3714111328
 10
122.0162036133
 20
218.9428491211
 10
122.0162036133
 20
218.0142810059
  0
LWPOLYLINE
  5
42C
100
AcDbEntity
  8
0
100
AcDbPolyline
 62
2
  6
CONTINUOUS
 90
3
 70
0
 43
0.1500000036
 10
121.5876287842
 20
220.228560791
 10
120.730479126
 20
221.0857104492
 10
123.7304901123
 20
221.0857104492
  0
LINE
  5
42D
100
AcDbEntity
  8
7_ALL_FEATURES
100
AcDbLine
 62
9
  6
CONTINUOUS
 10
108.1782145666
 20
197.1131667228
 11
108.1782145666
 21
242.7011088453
  0
LINE
  5
42E
100
AcDbEntity
  8
7_ALL_FEATURES
100
AcDbLine
 62
7
  6
CONTINUOUS
 10
108.3571039786
 20
197.1131667228
 11
108.3571039786
 21
242.7011088453
  0
LWPOLYLINE
  5
42F
100
AcDbEntity
  8
0
100
AcDbPolyline
 62
2
  6
CONTINUOUS
 90
5
 70
0
 43
0.1500000036
 10
74.1552630615
 20
133.7360284424
 10
74.5124066162
 20
133.9503222656
 10
74.5124066162
 20
134.5931781006
 10
74.1552630615
 20
135.0217401123
 10
73.298119812
 20
135.0217401123
  0
LINE
  5
430
100
AcDbEntity
  8
7_ALL_FEATURES
100
AcDbLine
 62
7
  6
CONTINUOUS
 10
97.4481178977
 20
39.2039239356
 11
49.1481178977
 21
39.2039239356
  0
LINE
  5
431
100
AcDbEntity
  8
7_ALL_FEATURES
100
AcDbLine
 62
7
  6
CONTINUOUS
 10
42.7981178977
 20
39.3039239356
 11
103.7981178977
 21
39.3039239356
  0
LINE
  5
432
100
AcDbEntity
  8
7_ALL_FEATURES
100
AcDbLine
 62
7
  6
CONTINUOUS
 10
40.5449612374
 20
44.0836996289
 11
38.4180212288
 21
52.0215478055
  0
LINE
  5
433
100
AcDbEntity
  8
7_ALL_FEATURES
100
AcDbLine
 62
3
  6
CONTINUOUS
 10
38.6595026854
 20
52.0862525668
 11
40.786442694
 21
44.1484043902
  0
LINE
  5
434
100
AcDbEntity
  8
7_ALL_FEATURES
100
AcDbLine
 62
7
  6
CONTINUOUS
 10
42.7981178977
 20
40.8039239356
 11
103.7981178977
 21
40.8039239356
  0
LINE
  5
435
100
AcDbEntity
  8
02___PRT_ALL_AXES
100
AcDbLine
 62
7
  6
CONTINUOUS
 10
73.7981178977
 20
42.3039239356
 11
72.7981178977
 21
42.3039239356
  0
LINE
  5
436
100
AcDbEntity
  8
7_ALL_FEATURES
100
AcDbLine
 62
9
  6
CONTINUOUS
 10
38.6387642712
 20
55.3894358122
 11
38.8697341543
 21
55.2937649541
  0
LINE
  5
437
100
AcDbEntity
  8
7_ALL_FEATURES
100
AcDbLine
 62
7
  6
CONTINUOUS
 10
39.3357909666
 20
56.4189256312
 11
39.1048210835
 21
56.5145964893
  0
LINE
  5
438
100
AcDbEntity
  8
7_ALL_FEATURES
100
AcDbLine
 62
7
  6
CONTINUOUS
 10
42.7981178977
 20
39.3039239356
 11
42.7981178977
 21
40.8039239356
  0
LINE
  5
439
100
AcDbEntity
  8
02___PRT_ALL_AXES
100
AcDbLine
 62
7
  6
CONTINUOUS
 10
44.9981178977
 20
76.5539763715
 11
44.9981178977
 21
82.5538714998
  0
LINE
  5
43A
100
AcDbEntity
  8
02___PRT_ALL_AXES
100
AcDbLine
 62
7
  6
CONTINUOUS
 10
45.308425907
 20
76.5539239356
 11
45.308425907
 21
82.5539239356
  0
LINE
  5
43B
100
AcDbEntity
  8
7_ALL_FEATURES
100
AcDbLine
 62
7
  6
CONTINUOUS
 10
46.5481178977
 20
74.5539239356
 11
46.5481178977
 21
84.5539239356
  0
LINE
  5
43C
100
AcDbEntity
  8
7_ALL_FEATURES
100
AcDbLine
 62
7
  6
CONTINUOUS
 10
46.7981178977
 20
85.8039239356
 11
46.7981178977
 21
40.8039239356
  0
LINE
  5
43D
100
AcDbEntity
  8
7_ALL_FEATURES
100
AcDbLine
 62
7
  6
CONTINUOUS
 10
48.2981178977
 20
85.8039239356
 11
48.2981178977
 21
117.5539196982
  0
LINE
  5
43E
100
AcDbEntity
  8
7_ALL_FEATURES
100
AcDbLine
 62
9
  6
CONTINUOUS
 10
48.4981178977
 20
85.8039239356
 11
48.4981178977
 21
40.8039239356
  0
LINE
  5
43F
100
AcDbEntity
  8
7_ALL_FEATURES
100
AcDbLine
 62
7
  6
CONTINUOUS
 10
49.1481178977
 20
39.2039239356
 11
49.1481178977
 21
39.3039239356
  0
LINE
  5
440
100
AcDbEntity
  8
7_ALL_FEATURES
100
AcDbLine
 62
7
  6
CONTINUOUS
 10
40.786442694
 20
44.1484043902
 11
40.5449612374
 21
44.0836996289
  0
LINE
  5
441
100
AcDbEntity
  8
7_ALL_FEATURES
100
AcDbLine
 62
7
  6
CONTINUOUS
 10
105.8097931015
 20
44.1484043902
 11
106.051274558
 21
44.0836996289
  0
LINE
  5
442
100
AcDbEntity
  8
7_ALL_FEATURES
100
AcDbLine
 62
9
  6
CONTINUOUS
 10
49.4481178977
 20
39.2039239356
 11
49.4481178977
 21
39.3039239356
  0
LINE
  5
443
100
AcDbEntity
  8
7_ALL_FEATURES
100
AcDbLine
 62
7
  6
CONTINUOUS
 10
38.6387642712
 20
55.3894358122
 11
46.5214757341
 21
74.4199847343
  0
LINE
  5
444
100
AcDbEntity
  8
7_ALL_FEATURES
100
AcDbLine
 62
3
  6
CONTINUOUS
 10
38.8697341543
 20
55.2937649541
 11
46.7524456172
 21
74.3243138762
  0
LINE
  5
445
100
AcDbEntity
  8
7_ALL_FEATURES
100
AcDbLine
 62
9
  6
CONTINUOUS
 10
40.550181215
 20
45.0301442336
 11
40.3086997584
 21
44.9654394724
  0
LINE
  5
446
100
AcDbEntity
  8
7_ALL_FEATURES
100
AcDbLine
 62
9
  6
CONTINUOUS
 10
106.0460545805
 20
45.0301442336
 11
106.287536037
 21
44.9654394724
  0
LINE
  5
447
100
AcDbEntity
  8
7_ALL_FEATURES
100
AcDbLine
 62
7
  6
CONTINUOUS
 10
38.7332279217
 20
50.8451804129
 11
38.9747093783
 21
50.9098851742
  0
LINE
  5
448
100
AcDbEntity
  8
7_ALL_FEATURES
100
AcDbLine
 62
7
  6
CONTINUOUS
 10
107.8630078738
 20
50.8451804129
 11
107.6215264172
 21
50.9098851742
  0
LINE
  5
449
100
AcDbEntity
  8
02___PRT_ALL_AXES
100
AcDbLine
 62
7
  6
CONTINUOUS
 10
46.5481178977
 20
77.5941490278
 11
45.308425907
 21
76.5539239356
  0
LINE
  5
44A
100
AcDbEntity
  8
7_ALL_FEATURES
100
AcDbLine
 62
9
  6
CONTINUOUS
 10
38.4180212288
 20
52.0215478055
 11
38.6595026854
 21
52.0862525668
  0
LINE
  5
44B
100
AcDbEntity
  8
7_ALL_FEATURES
100
AcDbLine
 62
9
  6
CONTINUOUS
 10
108.1782145666
 20
52.0215478055
 11
107.93673311
 21
52.0862525668
  0
LINE
  5
44C
100
AcDbEntity
  8
7_ALL_FEATURES
100
AcDbLine
 62
7
  6
CONTINUOUS
 10
46.7524456172
 20
74.3243138762
 11
46.5214757341
 21
74.4199847343
  0
LINE
  5
44D
100
AcDbEntity
  8
02___PRT_ALL_AXES
100
AcDbLine
 62
7
  6
CONTINUOUS
 10
46.5481178977
 20
81.5136988434
 11
45.308425907
 21
82.5539239356
  0
LINE
  5
44E
100
AcDbEntity
  8
7_ALL_FEATURES
100
AcDbLine
 62
7
  6
CONTINUOUS
 10
46.7981178977
 20
74.5539239356
 11
46.5481178977
 21
74.5539239356
  0
LINE
  5
44F
100
AcDbEntity
  8
7_ALL_FEATURES
100
AcDbLine
 62
7
  6
CONTINUOUS
 10
99.7981178977
 20
74.5539239356
 11
100.0481178977
 21
74.5539239356
  0
LINE
  5
450
100
AcDbEntity
  8
02___PRT_ALL_AXES
100
AcDbLine
 62
7
  6
CONTINUOUS
 10
72.7981178977
 20
40.8039239356
 11
72.7981178977
 21
42.3039239356
  0
LWPOLYLINE
  5
451
100
AcDbEntity
  8
0
100
AcDbPolyline
 62
2
  6
CONTINUOUS
 90
4
 70
0
 43
0.1500000036
 10
118.537130127
 20
76.0717831421
 10
117.894274292
 20
76.0717831421
 10
117.894274292
 20
77.5717822266
 10
120.8942724609
 20
76.7146389771
  0
LINE
  5
452
100
AcDbEntity
  8
02___PRT_ALL_AXES
100
AcDbLine
 62
7
  6
CONTINUOUS
 10
45.308425907
 20
76.5539239356
 11
44.9981178977
 21
76.5539239356
  0
LINE
  5
453
100
AcDbEntity
  8
02___PRT_ALL_AXES
100
AcDbLine
 62
7
  6
CONTINUOUS
 10
101.2878098885
 20
76.5539239356
 11
101.5981178977
 21
76.5539239356
  0
LWPOLYLINE
  5
454
100
AcDbEntity
  8
0
100
AcDbPolyline
 62
2
  6
CONTINUOUS
 90
4
 70
0
 43
0.1500000036
 10
120.4656976318
 20
78.4289254761
 10
119.608560791
 20
78.4289254761
 10
119.1799859619
 20
78.8574938965
 10
119.1799859619
 20
79.5003497314
  0
LINE
  5
455
100
AcDbEntity
  8
02___PRT_ALL_AXES
100
AcDbLine
 62
7
  6
CONTINUOUS
 10
73.7981178977
 20
40.8039239356
 11
73.7981178977
 21
42.3039239356
  0
LINE
  5
456
100
AcDbEntity
  8
03___PRT_ALL_CURVES
100
AcDbLine
 62
4
  6
CONTINUOUS
 10
101.7981178977
 20
79.5539239356
 11
101.5981178977
 21
79.5539239356
  0
LINE
  5
457
100
AcDbEntity
  8
03___PRT_ALL_CURVES
100
AcDbLine
 62
4
  6
CONTINUOUS
 10
44.7981178977
 20
79.5539239356
 11
44.9981178977
 21
79.5539239356
  0
LINE
  5
458
100
AcDbEntity
  8
02___PRT_ALL_AXES
100
AcDbLine
 62
7
  6
CONTINUOUS
 10
45.308425907
 20
82.5539239356
 11
44.9981178977
 21
82.5539239356
  0
LINE
  5
459
100
AcDbEntity
  8
02___PRT_ALL_AXES
100
AcDbLine
 62
7
  6
CONTINUOUS
 10
101.2878098885
 20
82.5539239356
 11
101.5981178977
 21
82.5539239356
  0
LINE
  5
45A
100
AcDbEntity
  8
7_ALL_FEATURES
100
AcDbLine
 62
9
  6
CONTINUOUS
 10
100.0481178977
 20
83.5539239356
 11
99.7981178977
 21
83.5539239356
  0
LINE
  5
45B
100
AcDbEntity
  8
7_ALL_FEATURES
100
AcDbLine
 62
9
  6
CONTINUOUS
 10
46.5481178977
 20
83.5539239356
 11
46.7981178977
 21
83.5539239356
  0
LINE
  5
45C
100
AcDbEntity
  8
7_ALL_FEATURES
100
AcDbLine
 62
7
  6
CONTINUOUS
 10
100.0481178977
 20
84.5539239356
 11
99.7981178977
 21
84.5539239356
  0
LINE
  5
45D
100
AcDbEntity
  8
7_ALL_FEATURES
100
AcDbLine
 62
7
  6
CONTINUOUS
 10
46.5481178977
 20
84.5539239356
 11
46.7981178977
 21
84.5539239356
  0
LINE
  5
45E
100
AcDbEntity
  8
7_ALL_FEATURES
100
AcDbLine
 62
7
  6
CONTINUOUS
 10
46.7981178977
 20
85.8039239356
 11
99.7981178977
 21
85.8039239356
  0
LINE
  5
45F
100
AcDbEntity
  8
7_ALL_FEATURES
100
AcDbLine
 62
7
  6
CONTINUOUS
 10
99.8437901782
 20
74.3243138762
 11
100.0747600613
 21
74.4199847343
  0
LINE
  5
460
100
AcDbEntity
  8
02___PRT_ALL_AXES
100
AcDbLine
 62
7
  6
CONTINUOUS
 10
100.0481178977
 20
81.5136988434
 11
101.2878098885
 21
82.5539239356
  0
LINE
  5
461
100
AcDbEntity
  8
02___PRT_ALL_AXES
100
AcDbLine
 62
7
  6
CONTINUOUS
 10
100.0481178977
 20
77.5941490278
 11
101.2878098885
 21
76.5539239356
  0
LINE
  5
462
100
AcDbEntity
  8
7_ALL_FEATURES
100
AcDbLine
 62
9
  6
CONTINUOUS
 10
97.1481178977
 20
39.2039239356
 11
97.1481178977
 21
39.3039239356
  0
LINE
  5
463
100
AcDbEntity
  8
7_ALL_FEATURES
100
AcDbLine
 62
7
  6
CONTINUOUS
 10
97.4481178977
 20
39.2039239356
 11
97.4481178977
 21
39.3039239356
  0
LINE
  5
464
100
AcDbEntity
  8
7_ALL_FEATURES
100
AcDbLine
 62
9
  6
CONTINUOUS
 10
98.0981178977
 20
85.8039239356
 11
98.0981178977
 21
40.8039239356
  0
LINE
  5
465
100
AcDbEntity
  8
7_ALL_FEATURES
100
AcDbLine
 62
7
  6
CONTINUOUS
 10
98.2981178977
 20
117.5539196982
 11
98.2981178977
 21
85.8039239356
  0
LINE
  5
466
100
AcDbEntity
  8
7_ALL_FEATURES
100
AcDbLine
 62
3
  6
CONTINUOUS
 10
99.8437901782
 20
74.3243138762
 11
107.7265016411
 21
55.2937649541
  0
LINE
  5
467
100
AcDbEntity
  8
7_ALL_FEATURES
100
AcDbLine
 62
7
  6
CONTINUOUS
 10
100.0747600613
 20
74.4199847343
 11
107.9574715243
 21
55.3894358122
  0
LINE
  5
468
100
AcDbEntity
  8
7_ALL_FEATURES
100
AcDbLine
 62
7
  6
CONTINUOUS
 10
99.7981178977
 20
85.8039239356
 11
99.7981178977
 21
40.8039239356
  0
LINE
  5
469
100
AcDbEntity
  8
7_ALL_FEATURES
100
AcDbLine
 62
7
  6
CONTINUOUS
 10
100.0481178977
 20
74.5539239356
 11
100.0481178977
 21
84.5539239356
  0
LINE
  5
46A
100
AcDbEntity
  8
02___PRT_ALL_AXES
100
AcDbLine
 62
7
  6
CONTINUOUS
 10
101.2878098885
 20
76.5539239356
 11
101.2878098885
 21
82.5539239356
  0
LINE
  5
46B
100
AcDbEntity
  8
02___PRT_ALL_AXES
100
AcDbLine
 62
7
  6
CONTINUOUS
 10
101.5981178977
 20
76.5539763715
 11
101.5981178977
 21
82.5538714998
  0
LINE
  5
46C
100
AcDbEntity
  8
7_ALL_FEATURES
100
AcDbLine
 62
7
  6
CONTINUOUS
 10
103.7981178977
 20
39.3039239356
 11
103.7981178977
 21
40.8039239356
  0
LINE
  5
46D
100
AcDbEntity
  8
7_ALL_FEATURES
100
AcDbLine
 62
7
  6
CONTINUOUS
 10
107.2604448288
 20
56.4189256312
 11
107.491414712
 21
56.5145964893
  0
LINE
  5
46E
100
AcDbEntity
  8
7_ALL_FEATURES
100
AcDbLine
 62
9
  6
CONTINUOUS
 10
107.9574715243
 20
55.3894358122
 11
107.7265016411
 21
55.2937649541
  0
LWPOLYLINE
  5
46F
100
AcDbEntity
  8
0
100
AcDbPolyline
 62
2
  6
CONTINUOUS
 90
13
 70
0
 43
0.1500000036
 10
119.1799859619
 20
78.8574938965
 10
118.9657049561
 20
78.5717816162
 10
118.3228491211
 20
78.5717816162
 10
117.894274292
 20
78.8574938965
 10
117.894274292
 20
79.5003497314
 10
118.3228491211
 20
79.7860620117
 10
118.9657049561
 20
79.7860620117
 10
119.1799859619
 20
79.5003497314
 10
119.608560791
 20
79.9289245605
 10
120.4656976318
 20
79.9289245605
 10
120.8942724609
 20
79.5003497314
 10
120.8942724609
 20
78.8574938965
 10
120.4656976318
 20
78.4289254761
  0
LINE
  5
470
100
AcDbEntity
  8
7_ALL_FEATURES
100
AcDbLine
 62
9
  6
CONTINUOUS
 10
98.2981178977
 20
116.5427411238
 11
48.2981178977
 21
116.5427411238
  0
LINE
  5
471
100
AcDbEntity
  8
7_ALL_FEATURES
100
AcDbLine
 62
3
  6
CONTINUOUS
 10
105.8097931015
 20
44.1484043902
 11
107.93673311
 21
52.0862525668
  0
LINE
  5
472
100
AcDbEntity
  8
7_ALL_FEATURES
100
AcDbLine
 62
7
  6
CONTINUOUS
 10
106.051274558
 20
44.0836996289
 11
108.1782145666
 21
52.0215478055
  0
LINE
  5
473
100
AcDbEntity
  8
7_ALL_FEATURES
100
AcDbLine
 62
7
  6
CONTINUOUS
 10
98.2981178977
 20
117.5539239356
 11
48.2981178977
 21
117.5539239356
  0
LWPOLYLINE
  5
474
100
AcDbEntity
  8
0
100
AcDbPolyline
 62
2
  6
CONTINUOUS
 90
8
 70
0
 43
0.1500000036
 10
71.1552584839
 20
132.0217419434
 10
72.0124017334
 20
132.0217419434
 10
72.4409765625
 20
132.4503167725
 10
72.4409765625
 20
133.3074536133
 10
72.0124017334
 20
133.7360284424
 10
71.1552584839
 20
133.7360284424
 10
71.1552584839
 20
135.0217401123
 10
72.4409765625
 20
135.0217401123
  0
LWPOLYLINE
  5
475
100
AcDbEntity
  8
0
100
AcDbPolyline
 62
2
  6
CONTINUOUS
 90
6
 70
0
 43
0.1500000036
 10
73.298119812
 20
132.0217419434
 10
74.3695440674
 20
132.0217419434
 10
74.5838314819
 20
132.2360357666
 10
74.5838314819
 20
133.3074536133
 10
74.1552630615
 20
133.7360284424
 10
73.7266882324
 20
133.7360284424
  0
LINE
  5
476
100
AcDbEntity
  8
7_ALL_FEATURES
100
AcDbLine
 62
7
  6
CONTINUOUS
 10
242.8283735795
 20
189.4071377841
 11
241.3283735795
 21
189.4071377841
  0
LINE
  5
477
100
AcDbEntity
  8
7_ALL_FEATURES
100
AcDbLine
 62
7
  6
CONTINUOUS
 10
196.3283735795
 20
193.4071377841
 11
241.3283735795
 21
193.4071377841
  0
LINE
  5
478
100
AcDbEntity
  8
7_ALL_FEATURES
100
AcDbLine
 62
3
  6
CONTINUOUS
 10
207.807983639
 20
195.4175793304
 11
225.6185513321
 21
197.1041874966
  0
LINE
  5
479
100
AcDbEntity
  8
7_ALL_FEATURES
100
AcDbLine
 62
7
  6
CONTINUOUS
 10
207.7123127809
 20
195.4175793304
 11
225.6177010259
 21
197.1131667228
  0
LINE
  5
47A
100
AcDbEntity
  8
7_ALL_FEATURES
100
AcDbLine
 62
7
  6
CONTINUOUS
 10
237.1668580428
 20
197.6457238435
 11
231.2871171023
 21
197.1131667228
  0
LINE
  5
47B
100
AcDbEntity
  8
7_ALL_FEATURES
100
AcDbLine
 62
7
  6
CONTINUOUS
 10
196.3283735795
 20
194.9071377841
 11
165.5895563914
 21
194.9071377841
  0
LINE
  5
47C
100
AcDbEntity
  8
7_ALL_FEATURES
100
AcDbLine
 62
9
  6
CONTINUOUS
 10
196.3283735795
 20
195.1071377841
 11
241.3283735795
 21
195.1071377841
  0
LINE
  5
47D
100
AcDbEntity
  8
7_ALL_FEATURES
100
AcDbLine
 62
7
  6
CONTINUOUS
 10
207.5783735795
 20
195.4071377841
 11
198.5783735795
 21
195.4071377841
  0
LINE
  5
47E
100
AcDbEntity
  8
7_ALL_FEATURES
100
AcDbLine
 62
7
  6
CONTINUOUS
 10
207.807983639
 20
195.4175793304
 11
207.7123127809
 21
195.4175793304
  0
LINE
  5
47F
100
AcDbEntity
  8
7_ALL_FEATURES
100
AcDbLine
 62
7
  6
CONTINUOUS
 10
242.9283735795
 20
195.7571377841
 11
242.8283735795
 21
195.7571377841
  0
LINE
  5
480
100
AcDbEntity
  8
7_ALL_FEATURES
100
AcDbLine
 62
9
  6
CONTINUOUS
 10
242.9283735795
 20
196.0571377841
 11
242.8283735795
 21
196.0571377841
  0
LINE
  5
481
100
AcDbEntity
  8
7_ALL_FEATURES
100
AcDbLine
 62
7
  6
CONTINUOUS
 10
225.6177010259
 20
197.1131667228
 11
231.2871171023
 21
197.1131667228
  0
LINE
  5
482
100
AcDbEntity
  8
7_ALL_FEATURES
100
AcDbLine
 62
7
  6
CONTINUOUS
 10
165.566943485
 20
196.929250532
 11
195.5137364067
 21
197.5991130052
  0
LINE
  5
483
100
AcDbEntity
  8
7_ALL_FEATURES
100
AcDbLine
 62
7
  6
CONTINUOUS
 10
202.9533735795
 20
198.8071377841
 11
202.2033735795
 21
198.8071377841
  0
LINE
  5
484
100
AcDbEntity
  8
7_ALL_FEATURES
100
AcDbLine
 62
7
  6
CONTINUOUS
 10
200.5783735795
 20
200.4321377841
 11
202.2033735795
 21
200.4321377841
  0
LINE
  5
485
100
AcDbEntity
  8
7_ALL_FEATURES
100
AcDbLine
 62
7
  6
CONTINUOUS
 10
202.9533735795
 20
200.4321377841
 11
204.5783735795
 21
200.4321377841
  0
LINE
  5
486
100
AcDbEntity
  8
7_ALL_FEATURES
100
AcDbLine
 62
7
  6
CONTINUOUS
 10
204.5783735795
 20
201.1821377841
 11
202.9533735795
 21
201.1821377841
  0
LINE
  5
487
100
AcDbEntity
  8
7_ALL_FEATURES
100
AcDbLine
 62
7
  6
CONTINUOUS
 10
202.2033735795
 20
201.1821377841
 11
200.5783735795
 21
201.1821377841
  0
LINE
  5
488
100
AcDbEntity
  8
02___PRT_ALL_AXES
100
AcDbLine
 62
7
  6
CONTINUOUS
 10
241.3283735795
 20
201.4071377841
 11
239.8283735795
 21
201.4071377841
  0
LINE
  5
489
100
AcDbEntity
  8
02___PRT_ALL_AXES
100
AcDbLine
 62
7
  6
CONTINUOUS
 10
241.3283735795
 20
202.4071377841
 11
239.8283735795
 21
202.4071377841
  0
LINE
  5
48A
100
AcDbEntity
  8
7_ALL_FEATURES
100
AcDbLine
 62
7
  6
CONTINUOUS
 10
202.2033735795
 20
202.8071377841
 11
202.9533735795
 21
202.8071377841
  0
LINE
  5
48B
100
AcDbEntity
  8
7_ALL_FEATURES
100
AcDbLine
 62
7
  6
CONTINUOUS
 10
195.5137364067
 20
202.215162563
 11
165.5781235003
 21
202.8847749569
  0
LINE
  5
48C
100
AcDbEntity
  8
7_ALL_FEATURES
100
AcDbLine
 62
7
  6
CONTINUOUS
 10
165.5781235003
 20
204.9295006113
 11
196.3283735795
 21
205.6173351525
  0
LINE
  5
48D
100
AcDbEntity
  8
7_ALL_FEATURES
100
AcDbLine
 62
7
  6
CONTINUOUS
 10
196.3283735795
 20
210.1969404157
 11
165.5781235003
 21
210.8847749569
  0
LINE
  5
48E
100
AcDbEntity
  8
7_ALL_FEATURES
100
AcDbLine
 62
7
  6
CONTINUOUS
 10
196.3283735795
 20
193.4071377841
 11
196.3283735795
 21
246.4071377841
  0
LINE
  5
48F
100
AcDbEntity
  8
7_ALL_FEATURES
100
AcDbLine
 62
7
  6
CONTINUOUS
 10
197.5783735795
 20
196.4071377841
 11
197.5783735795
 21
243.4071377841
  0
LINE
  5
490
100
AcDbEntity
  8
7_ALL_FEATURES
100
AcDbLine
 62
7
  6
CONTINUOUS
 10
200.5783735795
 20
200.4321377841
 11
200.5783735795
 21
201.1821377841
  0
LINE
  5
491
100
AcDbEntity
  8
7_ALL_FEATURES
100
AcDbLine
 62
7
  6
CONTINUOUS
 10
200.5783735795
 20
238.6321377841
 11
200.5783735795
 21
239.3821377841
  0
LINE
  5
492
100
AcDbEntity
  8
7_ALL_FEATURES
100
AcDbLine
 62
7
  6
CONTINUOUS
 10
165.5781235003
 20
212.9295006113
 11
196.3283735795
 21
213.6173351525
  0
LINE
  5
493
100
AcDbEntity
  8
7_ALL_FEATURES
100
AcDbLine
 62
7
  6
CONTINUOUS
 10
202.2033735795
 20
241.0071377841
 11
202.2033735795
 21
239.3821377841
  0
LINE
  5
494
100
AcDbEntity
  8
7_ALL_FEATURES
100
AcDbLine
 62
7
  6
CONTINUOUS
 10
202.2033735795
 20
238.6321377841
 11
202.2033735795
 21
237.0071377841
  0
LINE
  5
495
100
AcDbEntity
  8
7_ALL_FEATURES
100
AcDbLine
 62
7
  6
CONTINUOUS
 10
202.2033735795
 20
202.8071377841
 11
202.2033735795
 21
201.1821377841
  0
LINE
  5
496
100
AcDbEntity
  8
7_ALL_FEATURES
100
AcDbLine
 62
7
  6
CONTINUOUS
 10
202.2033735795
 20
200.4321377841
 11
202.2033735795
 21
198.8071377841
  0
LINE
  5
497
100
AcDbEntity
  8
7_ALL_FEATURES
100
AcDbLine
 62
7
  6
CONTINUOUS
 10
202.9533735795
 20
198.8071377841
 11
202.9533735795
 21
200.4321377841
  0
LINE
  5
498
100
AcDbEntity
  8
7_ALL_FEATURES
100
AcDbLine
 62
7
  6
CONTINUOUS
 10
202.9533735795
 20
201.1821377841
 11
202.9533735795
 21
202.8071377841
  0
LINE
  5
499
100
AcDbEntity
  8
7_ALL_FEATURES
100
AcDbLine
 62
7
  6
CONTINUOUS
 10
202.9533735795
 20
237.0071377841
 11
202.9533735795
 21
238.6321377841
  0
LINE
  5
49A
100
AcDbEntity
  8
7_ALL_FEATURES
100
AcDbLine
 62
7
  6
CONTINUOUS
 10
202.9533735795
 20
239.3821377841
 11
202.9533735795
 21
241.0071377841
  0
LINE
  5
49B
100
AcDbEntity
  8
02___PRT_ALL_AXES
100
AcDbLine
 62
7
  6
CONTINUOUS
 10
241.3283735795
 20
219.4071377841
 11
239.8283735795
 21
219.4071377841
  0
LINE
  5
49C
100
AcDbEntity
  8
7_ALL_FEATURES
100
AcDbLine
 62
7
  6
CONTINUOUS
 10
196.3283735795
 20
218.1969404157
 11
165.5781235003
 21
218.8847749569
  0
LINE
  5
49D
100
AcDbEntity
  8
7_ALL_FEATURES
100
AcDbLine
 62
7
  6
CONTINUOUS
 10
204.5783735795
 20
239.3821377841
 11
204.5783735795
 21
238.6321377841
  0
LINE
  5
49E
100
AcDbEntity
  8
7_ALL_FEATURES
100
AcDbLine
 62
7
  6
CONTINUOUS
 10
204.5783735795
 20
201.1821377841
 11
204.5783735795
 21
200.4321377841
  0
LINE
  5
49F
100
AcDbEntity
  8
7_ALL_FEATURES
100
AcDbLine
 62
7
  6
CONTINUOUS
 10
165.5781235003
 20
220.9295006113
 11
196.3283735795
 21
221.6173351525
  0
LINE
  5
4A0
100
AcDbEntity
  8
02___PRT_ALL_AXES
100
AcDbLine
 62
7
  6
CONTINUOUS
 10
241.3283735795
 20
220.4071377841
 11
239.8283735795
 21
220.4071377841
  0
LINE
  5
4A1
100
AcDbEntity
  8
7_ALL_FEATURES
100
AcDbLine
 62
9
  6
CONTINUOUS
 10
207.5783735795
 20
244.4071377841
 11
207.5783735795
 21
195.4071377841
  0
LINE
  5
4A2
100
AcDbEntity
  8
7_ALL_FEATURES
100
AcDbLine
 62
9
  6
CONTINUOUS
 10
207.7123127809
 20
244.3966962378
 11
207.7123127809
 21
195.4175793304
  0
LINE
  5
4A3
100
AcDbEntity
  8
7_ALL_FEATURES
100
AcDbLine
 62
7
  6
CONTINUOUS
 10
196.3283735795
 20
226.1969404157
 11
165.5781235003
 21
226.8847749569
  0
LINE
  5
4A4
100
AcDbEntity
  8
7_ALL_FEATURES
100
AcDbLine
 62
7
  6
CONTINUOUS
 10
165.5781235003
 20
228.9295006113
 11
196.3283735795
 21
229.6173351525
  0
LINE
  5
4A5
100
AcDbEntity
  8
7_ALL_FEATURES
100
AcDbLine
 62
7
  6
CONTINUOUS
 10
196.3283735795
 20
234.1969404157
 11
165.5781235003
 21
234.8847749569
  0
LINE
  5
4A6
100
AcDbEntity
  8
7_ALL_FEATURES
100
AcDbLine
 62
7
  6
CONTINUOUS
 10
165.5781235003
 20
236.9295006113
 11
195.5137364067
 21
237.5991130052
  0
LINE
  5
4A7
100
AcDbEntity
  8
7_ALL_FEATURES
100
AcDbLine
 62
7
  6
CONTINUOUS
 10
202.9533735795
 20
237.0071377841
 11
202.2033735795
 21
237.0071377841
  0
LINE
  5
4A8
100
AcDbEntity
  8
02___PRT_ALL_AXES
100
AcDbLine
 62
7
  6
CONTINUOUS
 10
241.3283735795
 20
237.4071377841
 11
239.8283735795
 21
237.4071377841
  0
LINE
  5
4A9
100
AcDbEntity
  8
02___PRT_ALL_AXES
100
AcDbLine
 62
7
  6
CONTINUOUS
 10
241.3283735795
 20
238.4071377841
 11
239.8283735795
 21
238.4071377841
  0
LINE
  5
4AA
100
AcDbEntity
  8
7_ALL_FEATURES
100
AcDbLine
 62
7
  6
CONTINUOUS
 10
200.5783735795
 20
238.6321377841
 11
202.2033735795
 21
238.6321377841
  0
LINE
  5
4AB
100
AcDbEntity
  8
7_ALL_FEATURES
100
AcDbLine
 62
7
  6
CONTINUOUS
 10
202.9533735795
 20
238.6321377841
 11
204.5783735795
 21
238.6321377841
  0
LINE
  5
4AC
100
AcDbEntity
  8
7_ALL_FEATURES
100
AcDbLine
 62
7
  6
CONTINUOUS
 10
204.5783735795
 20
239.3821377841
 11
202.9533735795
 21
239.3821377841
  0
LINE
  5
4AD
100
AcDbEntity
  8
7_ALL_FEATURES
100
AcDbLine
 62
7
  6
CONTINUOUS
 10
202.2033735795
 20
239.3821377841
 11
200.5783735795
 21
239.3821377841
  0
LINE
  5
4AE
100
AcDbEntity
  8
7_ALL_FEATURES
100
AcDbLine
 62
9
  6
CONTINUOUS
 10
226.742861703
 20
242.7011088453
 11
226.742861703
 21
197.1131667228
  0
LINE
  5
4AF
100
AcDbEntity
  8
7_ALL_FEATURES
100
AcDbLine
 62
7
  6
CONTINUOUS
 10
202.2033735795
 20
241.0071377841
 11
202.9533735795
 21
241.0071377841
  0
LINE
  5
4B0
100
AcDbEntity
  8
7_ALL_FEATURES
100
AcDbLine
 62
7
  6
CONTINUOUS
 10
225.6177010259
 20
242.7011088453
 11
231.2871171023
 21
242.7011088453
  0
LINE
  5
4B1
100
AcDbEntity
  8
7_ALL_FEATURES
100
AcDbLine
 62
7
  6
CONTINUOUS
 10
195.5137364067
 20
242.215162563
 11
165.566943485
 21
242.8850250362
  0
LINE
  5
4B2
100
AcDbEntity
  8
7_ALL_FEATURES
100
AcDbLine
 62
9
  6
CONTINUOUS
 10
230.1107497097
 20
242.7011088453
 11
230.1107497097
 21
197.1131667228
  0
LINE
  5
4B3
100
AcDbEntity
  8
7_ALL_FEATURES
100
AcDbLine
 62
9
  6
CONTINUOUS
 10
242.9283735795
 20
243.7571377841
 11
242.8283735795
 21
243.7571377841
  0
LINE
  5
4B4
100
AcDbEntity
  8
7_ALL_FEATURES
100
AcDbLine
 62
7
  6
CONTINUOUS
 10
242.9283735795
 20
244.0571377841
 11
242.8283735795
 21
244.0571377841
  0
LINE
  5
4B5
100
AcDbEntity
  8
7_ALL_FEATURES
100
AcDbLine
 62
7
  6
CONTINUOUS
 10
207.807983639
 20
244.3966962378
 11
207.7123127809
 21
244.3966962378
  0
LINE
  5
4B6
100
AcDbEntity
  8
7_ALL_FEATURES
100
AcDbLine
 62
7
  6
CONTINUOUS
 10
198.5783735795
 20
244.4071377841
 11
207.5783735795
 21
244.4071377841
  0
LINE
  5
4B7
100
AcDbEntity
  8
7_ALL_FEATURES
100
AcDbLine
 62
9
  6
CONTINUOUS
 10
196.3283735795
 20
244.7071377841
 11
241.3283735795
 21
244.7071377841
  0
LINE
  5
4B8
100
AcDbEntity
  8
7_ALL_FEATURES
100
AcDbLine
 62
7
  6
CONTINUOUS
 10
165.5895563914
 20
244.9071377841
 11
196.3283735795
 21
244.9071377841
  0
LINE
  5
4B9
100
AcDbEntity
  8
7_ALL_FEATURES
100
AcDbLine
 62
7
  6
CONTINUOUS
 10
196.3283735795
 20
246.4071377841
 11
241.3283735795
 21
246.4071377841
  0
LINE
  5
4BA
100
AcDbEntity
  8
7_ALL_FEATURES
100
AcDbLine
 62
7
  6
CONTINUOUS
 10
231.2871171023
 20
242.7011088453
 11
237.1668580428
 21
242.1685517247
  0
LINE
  5
4BB
100
AcDbEntity
  8
7_ALL_FEATURES
100
AcDbLine
 62
7
  6
CONTINUOUS
 10
225.6177010259
 20
242.7011088453
 11
207.7123127809
 21
244.3966962378
  0
LINE
  5
4BC
100
AcDbEntity
  8
7_ALL_FEATURES
100
AcDbLine
 62
3
  6
CONTINUOUS
 10
225.6185513321
 20
242.7100880716
 11
207.807983639
 21
244.3966962378
  0
LINE
  5
4BD
100
AcDbEntity
  8
7_ALL_FEATURES
100
AcDbLine
 62
7
  6
CONTINUOUS
 10
242.8283735795
 20
250.4071377841
 11
241.3283735795
 21
250.4071377841
  0
LINE
  5
4BE
100
AcDbEntity
  8
7_ALL_FEATURES
100
AcDbLine
 62
7
  6
CONTINUOUS
 10
238.0485978863
 20
198.6419185415
 11
238.0485978863
 21
241.1723570266
  0
LINE
  5
4BF
100
AcDbEntity
  8
02___PRT_ALL_AXES
100
AcDbLine
 62
7
  6
CONTINUOUS
 10
239.8283735795
 20
238.4071377841
 11
239.8283735795
 21
237.4071377841
  0
LINE
  5
4C0
100
AcDbEntity
  8
02___PRT_ALL_AXES
100
AcDbLine
 62
7
  6
CONTINUOUS
 10
239.8283735795
 20
220.4071377841
 11
239.8283735795
 21
219.4071377841
  0
LINE
  5
4C1
100
AcDbEntity
  8
02___PRT_ALL_AXES
100
AcDbLine
 62
7
  6
CONTINUOUS
 10
239.8283735795
 20
202.4071377841
 11
239.8283735795
 21
201.4071377841
  0
LINE
  5
4C2
100
AcDbEntity
  8
7_ALL_FEATURES
100
AcDbLine
 62
7
  6
CONTINUOUS
 10
241.3283735795
 20
189.4071377841
 11
241.3283735795
 21
250.4071377841
  0
LINE
  5
4C3
100
AcDbEntity
  8
7_ALL_FEATURES
100
AcDbLine
 62
7
  6
CONTINUOUS
 10
242.8283735795
 20
189.4071377841
 11
242.8283735795
 21
250.4071377841
  0
LINE
  5
4C4
100
AcDbEntity
  8
7_ALL_FEATURES
100
AcDbLine
 62
7
  6
CONTINUOUS
 10
242.9283735795
 20
244.0571377841
 11
242.9283735795
 21
195.7571377841
  0
LINE
  5
4C5
100
AcDbEntity
  8
7_ALL_FEATURES
100
AcDbLine
 62
7
  6
CONTINUOUS
 10
326.8767271121
 20
77.8451201605
 11
294.6205600132
 21
95.5758915834
  0
LINE
  5
4C6
100
AcDbEntity
  8
7_ALL_FEATURES
100
AcDbLine
 62
7
  6
CONTINUOUS
 10
378.6470494593
 20
89.5673949277
 11
326.8767271121
 21
77.8451201605
  0
LINE
  5
4C7
100
AcDbEntity
  8
7_ALL_FEATURES
100
AcDbLine
 62
7
  6
CONTINUOUS
 10
328.7961522185
 20
80.7421410972
 11
370.3821488581
 21
90.1583945988
  0
LINE
  5
4C8
100
AcDbEntity
  8
7_ALL_FEATURES
100
AcDbLine
 62
7
  6
CONTINUOUS
 10
329.163728582
 20
80.8750517487
 11
369.6464232699
 21
90.0414862799
  0
LINE
  5
4C9
100
AcDbEntity
  8
7_ALL_FEATURES
100
AcDbLine
 62
7
  6
CONTINUOUS
 10
302.8854606145
 20
94.9848919123
 11
328.7961522185
 21
80.7421410972
  0
LINE
  5
4CA
100
AcDbEntity
  8
7_ALL_FEATURES
100
AcDbLine
 62
7
  6
CONTINUOUS
 10
303.5272184599
 20
94.7694836482
 11
328.7504835519
 21
80.9046017323
  0
LINE
  5
4CB
100
AcDbEntity
  8
7_ALL_FEATURES
100
AcDbLine
 62
7
  6
CONTINUOUS
 10
294.6205600132
 20
95.5758915834
 11
294.6055336694
 21
96.981883105
  0
LINE
  5
4CC
100
AcDbEntity
  8
7_ALL_FEATURES
100
AcDbLine
 62
7
  6
CONTINUOUS
 10
300.2395039273
 20
103.1893781813
 11
298.8955321625
 21
109.0562213047
  0
LINE
  5
4CD
100
AcDbEntity
  8
7_ALL_FEATURES
100
AcDbLine
 62
7
  6
CONTINUOUS
 10
298.8955321625
 20
109.0562213047
 11
298.7170697999
 21
110.2504836449
  0
LINE
  5
4CE
100
AcDbEntity
  8
7_ALL_FEATURES
100
AcDbLine
 62
7
  6
CONTINUOUS
 10
300.3064960053
 20
138.5820115831
 11
300.4711298968
 21
123.1774754746
  0
LINE
  5
4CF
100
AcDbEntity
  8
7_ALL_FEATURES
100
AcDbLine
 62
7
  6
CONTINUOUS
 10
300.6914149572
 20
102.5657463928
 11
300.7362558601
 21
98.3700531372
  0
LINE
  5
4D0
100
AcDbEntity
  8
7_ALL_FEATURES
100
AcDbLine
 62
9
  6
CONTINUOUS
 10
301.107456565
 20
139.0943153179
 11
301.2273840368
 21
127.8728890792
  0
LINE
  5
4D1
100
AcDbEntity
  8
7_ALL_FEATURES
100
AcDbLine
 62
9
  6
CONTINUOUS
 10
301.4984391257
 20
102.5106877277
 11
301.5407447949
 21
98.5522123341
  0
LINE
  5
4D2
100
AcDbEntity
  8
7_ALL_FEATURES
100
AcDbLine
 62
7
  6
CONTINUOUS
 10
301.34256488
 20
128.6796965336
 11
301.2524068173
 21
137.1156456631
  0
LINE
  5
4D3
100
AcDbEntity
  8
7_ALL_FEATURES
100
AcDbLine
 62
7
  6
CONTINUOUS
 10
301.7243389586
 20
139.2339950531
 11
301.4229742168
 21
167.4322232876
  0
LINE
  5
4D4
100
AcDbEntity
  8
7_ALL_FEATURES
100
AcDbLine
 62
7
  6
CONTINUOUS
 10
301.3386802004
 20
128.5639021829
 11
299.035233041
 21
114.2623115447
  0
LINE
  5
4D5
100
AcDbEntity
  8
7_ALL_FEATURES
100
AcDbLine
 62
9
  6
CONTINUOUS
 10
372.4063880901
 20
98.4660621397
 11
374.1673994153
 21
98.8648052359
  0
LINE
  5
4D6
100
AcDbEntity
  8
7_ALL_FEATURES
100
AcDbLine
 62
7
  6
CONTINUOUS
 10
303.1389022608
 20
167.8420052406
 11
304.0074042654
 21
139.9007737018
  0
LINE
  5
4D7
100
AcDbEntity
  8
7_ALL_FEATURES
100
AcDbLine
 62
7
  6
CONTINUOUS
 10
303.481843734
 20
94.8239281536
 11
303.478687891
 21
95.1192154556
  0
LINE
  5
4D8
100
AcDbEntity
  8
7_ALL_FEATURES
100
AcDbLine
 62
9
  6
CONTINUOUS
 10
303.6231897152
 20
94.9143346951
 11
303.6206565266
 21
95.1513611962
  0
LINE
  5
4D9
100
AcDbEntity
  8
7_ALL_FEATURES
100
AcDbLine
 62
7
  6
CONTINUOUS
 10
303.3621686858
 20
134.1187457456
 11
303.3546555139
 21
134.8217415064
  0
LINE
  5
4DA
100
AcDbEntity
  8
7_ALL_FEATURES
100
AcDbLine
 62
7
  6
CONTINUOUS
 10
303.9892030634
 20
134.4729394456
 11
303.9914656101
 21
134.261236484
  0
LINE
  5
4DB
100
AcDbEntity
  8
7_ALL_FEATURES
100
AcDbLine
 62
7
  6
CONTINUOUS
 10
304.7175044143
 20
136.6571727012
 11
304.7337829535
 21
135.1340152195
  0
LINE
  5
4DC
100
AcDbEntity
  8
7_ALL_FEATURES
100
AcDbLine
 62
7
  6
CONTINUOUS
 10
304.7412961253
 20
134.4310194587
 11
304.7575746645
 21
132.907861977
  0
LINE
  5
4DD
100
AcDbEntity
  8
7_ALL_FEATURES
100
AcDbLine
 62
7
  6
CONTINUOUS
 10
305.3520519638
 20
136.3083706404
 11
305.3683305029
 21
134.7852131587
  0
LINE
  5
4DE
100
AcDbEntity
  8
7_ALL_FEATURES
100
AcDbLine
 62
7
  6
CONTINUOUS
 10
305.3758436748
 20
134.0822173979
 11
305.3868549356
 21
133.0519109286
  0
LINE
  5
4DF
100
AcDbEntity
  8
7_ALL_FEATURES
100
AcDbLine
 62
7
  6
CONTINUOUS
 10
305.3940950212
 20
133.0519883061
 11
305.3778164821
 21
134.5751457878
  0
LINE
  5
4E0
100
AcDbEntity
  8
7_ALL_FEATURES
100
AcDbLine
 62
7
  6
CONTINUOUS
 10
305.3703033102
 20
135.2781415486
 11
305.3540247711
 21
136.8012990303
  0
LINE
  5
4E1
100
AcDbEntity
  8
7_ALL_FEATURES
100
AcDbLine
 62
7
  6
CONTINUOUS
 10
299.035233041
 20
114.2623115447
 11
298.8000584016
 21
113.3431352769
  0
LINE
  5
4E2
100
AcDbEntity
  8
7_ALL_FEATURES
100
AcDbLine
 62
9
  6
CONTINUOUS
 10
372.3733367619
 20
101.5586232934
 11
374.0240997399
 21
101.9324030252
  0
LINE
  5
4E3
100
AcDbEntity
  8
7_ALL_FEATURES
100
AcDbLine
 62
9
  6
CONTINUOUS
 10
374.1452758289
 20
101.9549423261
 11
374.0240997399
 21
101.9324030252
  0
LINE
  5
4E4
100
AcDbEntity
  8
7_ALL_FEATURES
100
AcDbLine
 62
7
  6
CONTINUOUS
 10
373.7663823656
 20
103.1225152539
 11
373.8875584546
 21
103.1450545548
  0
LINE
  5
4E5
100
AcDbEntity
  8
7_ALL_FEATURES
100
AcDbLine
 62
7
  6
CONTINUOUS
 10
306.7494307498
 20
135.5904152617
 11
306.7569439217
 21
134.8874195009
  0
LINE
  5
4E6
100
AcDbEntity
  8
7_ALL_FEATURES
100
AcDbLine
 62
7
  6
CONTINUOUS
 10
307.9250169469
 20
140.7878327388
 11
308.1934309659
 21
168.9759897338
  0
LINE
  5
4E7
100
AcDbEntity
  8
7_ALL_FEATURES
100
AcDbLine
 62
9
  6
CONTINUOUS
 10
301.3457784077
 20
102.4761209952
 11
301.2187337029
 21
102.4856624561
  0
LINE
  5
4E8
100
AcDbEntity
  8
7_ALL_FEATURES
100
AcDbLine
 62
7
  6
CONTINUOUS
 10
309.9287769698
 20
169.3689214706
 11
310.8015793076
 21
141.2893406773
  0
LINE
  5
4E9
100
AcDbEntity
  8
7_ALL_FEATURES
100
AcDbLine
 62
7
  6
CONTINUOUS
 10
314.7131376429
 20
142.1750288379
 11
314.9829814377
 21
170.5133372443
  0
LINE
  5
4EA
100
AcDbEntity
  8
7_ALL_FEATURES
100
AcDbLine
 62
7
  6
CONTINUOUS
 10
344.1058844031
 20
104.0807692262
 11
303.6231897152
 21
94.9143346951
  0
LINE
  5
4EB
100
AcDbEntity
  8
7_ALL_FEATURES
100
AcDbLine
 62
7
  6
CONTINUOUS
 10
344.4714572541
 20
104.4011454139
 11
302.8854606145
 21
94.9848919123
  0
LINE
  5
4EC
100
AcDbEntity
  8
7_ALL_FEATURES
100
AcDbLine
 62
7
  6
CONTINUOUS
 10
294.6205600132
 20
95.5758915834
 11
346.3908823605
 21
107.2981663507
  0
LINE
  5
4ED
100
AcDbEntity
  8
7_ALL_FEATURES
100
AcDbLine
 62
7
  6
CONTINUOUS
 10
316.7183274416
 20
170.9062689811
 11
317.5911297793
 21
142.8266881877
  0
LINE
  5
4EE
100
AcDbEntity
  8
7_ALL_FEATURES
100
AcDbLine
 62
7
  6
CONTINUOUS
 10
294.6055336694
 20
96.981883105
 11
346.3758560167
 21
108.7041578722
  0
LINE
  5
4EF
100
AcDbEntity
  8
7_ALL_FEATURES
100
AcDbLine
 62
3
  6
CONTINUOUS
 10
301.3457784077
 20
102.4761209952
 11
337.4410982428
 21
110.6491289607
  0
LINE
  5
4F0
100
AcDbEntity
  8
7_ALL_FEATURES
100
AcDbLine
 62
7
  6
CONTINUOUS
 10
301.2187337029
 20
102.4856624561
 11
337.3140535381
 21
110.6586704216
  0
LINE
  5
4F1
100
AcDbEntity
  8
7_ALL_FEATURES
100
AcDbLine
 62
9
  6
CONTINUOUS
 10
337.4410982428
 20
110.6491289607
 11
337.3140535381
 21
110.6586704216
  0
LINE
  5
4F2
100
AcDbEntity
  8
7_ALL_FEATURES
100
AcDbLine
 62
7
  6
CONTINUOUS
 10
369.7423945252
 20
90.1863373267
 11
344.5191294332
 21
104.0512192426
  0
LINE
  5
4F3
100
AcDbEntity
  8
7_ALL_FEATURES
100
AcDbLine
 62
7
  6
CONTINUOUS
 10
321.5026881147
 20
143.7123763484
 11
321.7725319095
 21
172.0506847548
  0
LINE
  5
4F4
100
AcDbEntity
  8
7_ALL_FEATURES
100
AcDbLine
 62
9
  6
CONTINUOUS
 10
338.1527970128
 20
111.7357190457
 11
338.0257523081
 21
111.7452605066
  0
LINE
  5
4F5
100
AcDbEntity
  8
7_ALL_FEATURES
100
AcDbLine
 62
7
  6
CONTINUOUS
 10
370.3821488581
 20
90.1583945988
 11
344.4714572541
 21
104.4011454139
  0
LINE
  5
4F6
100
AcDbEntity
  8
7_ALL_FEATURES
100
AcDbLine
 62
7
  6
CONTINUOUS
 10
346.3908823605
 20
107.2981663507
 11
378.6470494593
 21
89.5673949277
  0
LINE
  5
4F7
100
AcDbEntity
  8
7_ALL_FEATURES
100
AcDbLine
 62
7
  6
CONTINUOUS
 10
323.5078779134
 20
172.4436164915
 11
324.3806802511
 21
144.3640356982
  0
LINE
  5
4F8
100
AcDbEntity
  8
7_ALL_FEATURES
100
AcDbLine
 62
7
  6
CONTINUOUS
 10
328.7961522185
 20
80.7421410972
 11
328.7945865087
 21
80.8886421151
  0
LINE
  5
4F9
100
AcDbEntity
  8
7_ALL_FEATURES
100
AcDbLine
 62
7
  6
CONTINUOUS
 10
328.2922385865
 20
145.2497238588
 11
328.5620823813
 21
173.5880322652
  0
LINE
  5
4FA
100
AcDbEntity
  8
7_ALL_FEATURES
100
AcDbLine
 62
9
  6
CONTINUOUS
 10
337.407274043
 20
119.0110473111
 11
298.7170697999
 21
110.2504836449
  0
LINE
  5
4FB
100
AcDbEntity
  8
7_ALL_FEATURES
100
AcDbLine
 62
7
  6
CONTINUOUS
 10
337.5857364057
 20
117.8167849709
 11
337.7127811104
 21
117.80724351
  0
LINE
  5
4FC
100
AcDbEntity
  8
7_ALL_FEATURES
100
AcDbLine
 62
9
  6
CONTINUOUS
 10
337.407274043
 20
119.0110473111
 11
337.5343187478
 21
119.0015058502
  0
LINE
  5
4FD
100
AcDbEntity
  8
7_ALL_FEATURES
100
AcDbLine
 62
7
  6
CONTINUOUS
 10
346.3758560167
 20
108.7041578722
 11
378.6320231156
 21
90.9733864493
  0
LINE
  5
4FE
100
AcDbEntity
  8
02___PRT_ALL_AXES
100
AcDbLine
 62
7
  6
CONTINUOUS
 10
303.7747644532
 20
132.1353878184
 11
303.6106767974
 21
132.225584546
  0
LINE
  5
4FF
100
AcDbEntity
  8
03___PRT_ALL_CURVES
100
AcDbLine
 62
4
  6
CONTINUOUS
 10
303.4648276271
 20
134.5764194125
 11
304.0245757572
 21
134.2687335639
  0
LINE
  5
500
100
AcDbEntity
  8
7_ALL_FEATURES
100
AcDbLine
 62
7
  6
CONTINUOUS
 10
303.3546555139
 20
134.8217415064
 11
303.9892030634
 21
134.4729394456
  0
LINE
  5
501
100
AcDbEntity
  8
7_ALL_FEATURES
100
AcDbLine
 62
7
  6
CONTINUOUS
 10
304.7412961253
 20
134.4310194587
 11
305.3758436748
 21
134.0822173979
  0
LINE
  5
502
100
AcDbEntity
  8
7_ALL_FEATURES
100
AcDbLine
 62
7
  6
CONTINUOUS
 10
304.7337829535
 20
135.1340152195
 11
305.3683305029
 21
134.7852131587
  0
LINE
  5
503
100
AcDbEntity
  8
7_ALL_FEATURES
100
AcDbLine
 62
7
  6
CONTINUOUS
 10
305.3703033102
 20
135.2781415486
 11
306.0048508597
 21
134.9293394878
  0
LINE
  5
504
100
AcDbEntity
  8
7_ALL_FEATURES
100
AcDbLine
 62
7
  6
CONTINUOUS
 10
330.2974283852
 20
173.980964002
 11
331.1702307229
 21
145.9013832087
  0
LINE
  5
505
100
AcDbEntity
  8
7_ALL_FEATURES
100
AcDbLine
 62
9
  6
CONTINUOUS
 10
337.4902626448
 20
122.1036989431
 11
298.8000584016
 21
113.3431352769
  0
LINE
  5
506
100
AcDbEntity
  8
7_ALL_FEATURES
100
AcDbLine
 62
7
  6
CONTINUOUS
 10
304.7175044143
 20
136.6571727012
 11
305.3520519638
 21
136.3083706404
  0
LINE
  5
507
100
AcDbEntity
  8
02___PRT_ALL_AXES
100
AcDbLine
 62
7
  6
CONTINUOUS
 10
306.6650102938
 20
137.3933797337
 11
306.5009226381
 21
137.4835764613
  0
LINE
  5
508
100
AcDbEntity
  8
7_ALL_FEATURES
100
AcDbLine
 62
9
  6
CONTINUOUS
 10
304.0074042654
 20
139.9007737018
 11
304.200452621
 21
139.7946576758
  0
LINE
  5
509
100
AcDbEntity
  8
7_ALL_FEATURES
100
AcDbLine
 62
7
  6
CONTINUOUS
 10
337.5857364057
 20
117.8167849709
 11
338.0257523081
 21
111.7452605066
  0
LINE
  5
50A
100
AcDbEntity
  8
7_ALL_FEATURES
100
AcDbLine
 62
3
  6
CONTINUOUS
 10
337.7127811104
 20
117.80724351
 11
338.1527970128
 21
111.7357190457
  0
LINE
  5
50B
100
AcDbEntity
  8
7_ALL_FEATURES
100
AcDbLine
 62
7
  6
CONTINUOUS
 10
335.7822721885
 20
141.4595801081
 11
335.7747590166
 21
142.1625758689
  0
LINE
  5
50C
100
AcDbEntity
  8
7_ALL_FEATURES
100
AcDbLine
 62
7
  6
CONTINUOUS
 10
336.4093065661
 20
141.8137738081
 11
336.4115691128
 21
141.6020708465
  0
LINE
  5
50D
100
AcDbEntity
  8
7_ALL_FEATURES
100
AcDbLine
 62
7
  6
CONTINUOUS
 10
335.0817890583
 20
146.7870713693
 11
335.351632853
 21
175.1253797757
  0
LINE
  5
50E
100
AcDbEntity
  8
7_ALL_FEATURES
100
AcDbLine
 62
9
  6
CONTINUOUS
 10
337.4902626448
 20
122.1036989431
 11
337.6133555114
 21
121.9468883568
  0
LINE
  5
50F
100
AcDbEntity
  8
7_ALL_FEATURES
100
AcDbLine
 62
7
  6
CONTINUOUS
 10
337.8485301507
 20
122.8660646246
 11
337.7254372841
 21
123.0228752109
  0
LINE
  5
510
100
AcDbEntity
  8
7_ALL_FEATURES
100
AcDbLine
 62
7
  6
CONTINUOUS
 10
337.407274043
 20
119.0110473111
 11
337.5857364057
 21
117.8167849709
  0
LINE
  5
511
100
AcDbEntity
  8
7_ALL_FEATURES
100
AcDbLine
 62
3
  6
CONTINUOUS
 10
337.5343187478
 20
119.0015058502
 11
337.7127811104
 21
117.80724351
  0
LINE
  5
512
100
AcDbEntity
  8
7_ALL_FEATURES
100
AcDbLine
 62
7
  6
CONTINUOUS
 10
337.0869788569
 20
175.5183115125
 11
337.9551566242
 21
147.5875112541
  0
LINE
  5
513
100
AcDbEntity
  8
7_ALL_FEATURES
100
AcDbLine
 62
7
  6
CONTINUOUS
 10
337.1376079171
 20
143.9980070637
 11
337.1538864562
 21
142.474849582
  0
LINE
  5
514
100
AcDbEntity
  8
7_ALL_FEATURES
100
AcDbLine
 62
7
  6
CONTINUOUS
 10
337.1613996281
 20
141.7718538212
 11
337.1776781672
 21
140.2486963394
  0
LINE
  5
515
100
AcDbEntity
  8
7_ALL_FEATURES
100
AcDbLine
 62
7
  6
CONTINUOUS
 10
337.7721554666
 20
143.6492050029
 11
337.7884340057
 21
142.1260475212
  0
LINE
  5
516
100
AcDbEntity
  8
7_ALL_FEATURES
100
AcDbLine
 62
7
  6
CONTINUOUS
 10
337.7959471776
 20
141.4230517604
 11
337.8069584383
 21
140.3927452911
  0
LINE
  5
517
100
AcDbEntity
  8
7_ALL_FEATURES
100
AcDbLine
 62
7
  6
CONTINUOUS
 10
337.8141985239
 20
140.3928226685
 11
337.7979199848
 21
141.9159801503
  0
LINE
  5
518
100
AcDbEntity
  8
7_ALL_FEATURES
100
AcDbLine
 62
7
  6
CONTINUOUS
 10
337.7904068129
 20
142.6189759111
 11
337.7741282738
 21
144.1421333928
  0
LINE
  5
519
100
AcDbEntity
  8
7_ALL_FEATURES
100
AcDbLine
 62
7
  6
CONTINUOUS
 10
339.1695342525
 20
142.9312496241
 11
339.1770474244
 21
142.2282538633
  0
LINE
  5
51A
100
AcDbEntity
  8
7_ALL_FEATURES
100
AcDbLine
 62
7
  6
CONTINUOUS
 10
337.4902626448
 20
122.1036989431
 11
337.7254372841
 21
123.0228752109
  0
LINE
  5
51B
100
AcDbEntity
  8
7_ALL_FEATURES
100
AcDbLine
 62
3
  6
CONTINUOUS
 10
337.6133555114
 20
121.9468883568
 11
337.8485301507
 21
122.8660646246
  0
LINE
  5
51C
100
AcDbEntity
  8
7_ALL_FEATURES
100
AcDbLine
 62
7
  6
CONTINUOUS
 10
337.7254372841
 20
123.0228752109
 11
342.9069534886
 21
137.9761426132
  0
LINE
  5
51D
100
AcDbEntity
  8
7_ALL_FEATURES
100
AcDbLine
 62
3
  6
CONTINUOUS
 10
337.8485301507
 20
122.8660646246
 11
343.0300463552
 21
137.819332027
  0
LINE
  5
51E
100
AcDbEntity
  8
7_ALL_FEATURES
100
AcDbLine
 62
7
  6
CONTINUOUS
 10
342.8384034569
 20
146.5318991647
 11
342.9285615197
 21
138.0959500352
  0
LINE
  5
51F
100
AcDbEntity
  8
7_ALL_FEATURES
100
AcDbLine
 62
3
  6
CONTINUOUS
 10
342.970600863
 20
146.4592320687
 11
343.0607589258
 21
138.0232829392
  0
LINE
  5
520
100
AcDbEntity
  8
7_ALL_FEATURES
100
AcDbLine
 62
9
  6
CONTINUOUS
 10
343.20266949
 20
148.6258698828
 11
343.6359577199
 21
108.0837668989
  0
LINE
  5
521
100
AcDbEntity
  8
7_ALL_FEATURES
100
AcDbLine
 62
9
  6
CONTINUOUS
 10
344.1058844031
 20
104.0807692262
 11
344.1033512145
 21
104.3177957274
  0
LINE
  5
522
100
AcDbEntity
  8
7_ALL_FEATURES
100
AcDbLine
 62
9
  6
CONTINUOUS
 10
344.5191294332
 20
104.0512192426
 11
344.5156492593
 21
104.3768536764
  0
LINE
  5
523
100
AcDbEntity
  8
7_ALL_FEATURES
100
AcDbLine
 62
7
  6
CONTINUOUS
 10
343.8576646654
 20
177.040645228
 11
344.1603360043
 21
148.7201607464
  0
LINE
  5
524
100
AcDbEntity
  8
7_ALL_FEATURES
100
AcDbLine
 62
9
  6
CONTINUOUS
 10
345.5443913271
 20
148.458419976
 11
345.9702411712
 21
108.6123151243
  0
LINE
  5
525
100
AcDbEntity
  8
7_ALL_FEATURES
100
AcDbLine
 62
7
  6
CONTINUOUS
 10
341.8727693058
 20
148.4745702911
 11
342.1412835691
 21
176.6732546813
  0
LINE
  5
526
100
AcDbEntity
  8
7_ALL_FEATURES
100
AcDbLine
 62
9
  6
CONTINUOUS
 10
342.9069534886
 20
137.9761426132
 11
301.3386802004
 21
128.5639021829
  0
LINE
  5
527
100
AcDbEntity
  8
7_ALL_FEATURES
100
AcDbLine
 62
9
  6
CONTINUOUS
 10
342.9285615197
 20
138.0959500352
 11
301.34256488
 21
128.6796965336
  0
LINE
  5
528
100
AcDbEntity
  8
7_ALL_FEATURES
100
AcDbLine
 62
7
  6
CONTINUOUS
 10
374.1408467932
 20
97.7229435471
 11
374.0125057204
 21
97.8537841357
  0
LINE
  5
529
100
AcDbEntity
  8
7_ALL_FEATURES
100
AcDbLine
 62
9
  6
CONTINUOUS
 10
374.295740488
 20
98.7339646473
 11
374.1673994153
 21
98.8648052359
  0
LINE
  5
52A
100
AcDbEntity
  8
7_ALL_FEATURES
100
AcDbLine
 62
7
  6
CONTINUOUS
 10
346.3908823605
 20
107.2981663507
 11
346.3758560167
 21
108.7041578722
  0
LINE
  5
52B
100
AcDbEntity
  8
7_ALL_FEATURES
100
AcDbLine
 62
7
  6
CONTINUOUS
 10
337.8141985239
 20
140.3928226685
 11
337.1776781672
 21
140.2486963394
  0
LINE
  5
52C
100
AcDbEntity
  8
7_ALL_FEATURES
100
AcDbLine
 62
7
  6
CONTINUOUS
 10
305.3940950212
 20
133.0519883061
 11
304.7575746645
 21
132.907861977
  0
LINE
  5
52D
100
AcDbEntity
  8
7_ALL_FEATURES
100
AcDbLine
 62
7
  6
CONTINUOUS
 10
303.3621686858
 20
134.1187457456
 11
304.7412961253
 21
134.4310194587
  0
LINE
  5
52E
100
AcDbEntity
  8
7_ALL_FEATURES
100
AcDbLine
 62
7
  6
CONTINUOUS
 10
305.3778164821
 20
134.5751457878
 11
306.7569439217
 21
134.8874195009
  0
LINE
  5
52F
100
AcDbEntity
  8
7_ALL_FEATURES
100
AcDbLine
 62
7
  6
CONTINUOUS
 10
335.7822721885
 20
141.4595801081
 11
337.1613996281
 21
141.7718538212
  0
LINE
  5
530
100
AcDbEntity
  8
7_ALL_FEATURES
100
AcDbLine
 62
7
  6
CONTINUOUS
 10
337.7979199848
 20
141.9159801503
 11
339.1770474244
 21
142.2282538633
  0
LINE
  5
531
100
AcDbEntity
  8
02___PRT_ALL_AXES
100
AcDbLine
 62
7
  6
CONTINUOUS
 10
336.1948679559
 20
139.4762221809
 11
336.0307803002
 21
139.5664189085
  0
LINE
  5
532
100
AcDbEntity
  8
03___PRT_ALL_CURVES
100
AcDbLine
 62
4
  6
CONTINUOUS
 10
335.8849311299
 20
141.917253775
 11
336.4446792599
 21
141.6095679263
  0
LINE
  5
533
100
AcDbEntity
  8
7_ALL_FEATURES
100
AcDbLine
 62
7
  6
CONTINUOUS
 10
343.0607589258
 20
138.0232829392
 11
342.9285615197
 21
138.0959500352
  0
LINE
  5
534
100
AcDbEntity
  8
7_ALL_FEATURES
100
AcDbLine
 62
7
  6
CONTINUOUS
 10
335.7747590166
 20
142.1625758689
 11
336.4093065661
 21
141.8137738081
  0
LINE
  5
535
100
AcDbEntity
  8
7_ALL_FEATURES
100
AcDbLine
 62
7
  6
CONTINUOUS
 10
337.1613996281
 20
141.7718538212
 11
337.7959471776
 21
141.4230517604
  0
LINE
  5
536
100
AcDbEntity
  8
7_ALL_FEATURES
100
AcDbLine
 62
7
  6
CONTINUOUS
 10
337.1538864562
 20
142.474849582
 11
337.7884340057
 21
142.1260475212
  0
LINE
  5
537
100
AcDbEntity
  8
7_ALL_FEATURES
100
AcDbLine
 62
7
  6
CONTINUOUS
 10
337.7904068129
 20
142.6189759111
 11
338.4249543624
 21
142.2701738503
  0
LINE
  5
538
100
AcDbEntity
  8
7_ALL_FEATURES
100
AcDbLine
 62
7
  6
CONTINUOUS
 10
343.0300463552
 20
137.819332027
 11
342.9069534886
 21
137.9761426132
  0
LINE
  5
539
100
AcDbEntity
  8
7_ALL_FEATURES
100
AcDbLine
 62
7
  6
CONTINUOUS
 10
339.1747848777
 20
142.439956825
 11
338.4249543624
 21
142.2701738503
  0
LINE
  5
53A
100
AcDbEntity
  8
7_ALL_FEATURES
100
AcDbLine
 62
7
  6
CONTINUOUS
 10
337.7884340057
 20
142.1260475212
 11
336.4093065661
 21
141.8137738081
  0
LINE
  5
53B
100
AcDbEntity
  8
7_ALL_FEATURES
100
AcDbLine
 62
7
  6
CONTINUOUS
 10
306.754681375
 20
135.0991224625
 11
306.0048508597
 21
134.9293394878
  0
LINE
  5
53C
100
AcDbEntity
  8
7_ALL_FEATURES
100
AcDbLine
 62
7
  6
CONTINUOUS
 10
305.3683305029
 20
134.7852131587
 11
303.9892030634
 21
134.4729394456
  0
LINE
  5
53D
100
AcDbEntity
  8
7_ALL_FEATURES
100
AcDbLine
 62
7
  6
CONTINUOUS
 10
339.1695342525
 20
142.9312496241
 11
337.7904068129
 21
142.6189759111
  0
LINE
  5
53E
100
AcDbEntity
  8
7_ALL_FEATURES
100
AcDbLine
 62
7
  6
CONTINUOUS
 10
337.1538864562
 20
142.474849582
 11
335.7747590166
 21
142.1625758689
  0
LINE
  5
53F
100
AcDbEntity
  8
7_ALL_FEATURES
100
AcDbLine
 62
7
  6
CONTINUOUS
 10
306.7494307498
 20
135.5904152617
 11
305.3703033102
 21
135.2781415486
  0
LINE
  5
540
100
AcDbEntity
  8
7_ALL_FEATURES
100
AcDbLine
 62
7
  6
CONTINUOUS
 10
304.7337829535
 20
135.1340152195
 11
303.3546555139
 21
134.8217415064
  0
LINE
  5
541
100
AcDbEntity
  8
7_ALL_FEATURES
100
AcDbLine
 62
7
  6
CONTINUOUS
 10
337.779378899
 20
143.6508405936
 11
337.7721554666
 21
143.6492050029
  0
LINE
  5
542
100
AcDbEntity
  8
7_ALL_FEATURES
100
AcDbLine
 62
7
  6
CONTINUOUS
 10
305.3592753963
 20
136.3100062312
 11
305.3520519638
 21
136.3083706404
  0
LINE
  5
543
100
AcDbEntity
  8
7_ALL_FEATURES
100
AcDbLine
 62
7
  6
CONTINUOUS
 10
304.7175044143
 20
136.6571727012
 11
305.3540247711
 21
136.8012990303
  0
LINE
  5
544
100
AcDbEntity
  8
7_ALL_FEATURES
100
AcDbLine
 62
7
  6
CONTINUOUS
 10
337.1376079171
 20
143.9980070637
 11
337.7741282738
 21
144.1421333928
  0
LINE
  5
545
100
AcDbEntity
  8
7_ALL_FEATURES
100
AcDbLine
 62
7
  6
CONTINUOUS
 10
302.0910830637
 20
138.245141783
 11
341.9796920854
 21
147.277058407
  0
LINE
  5
546
100
AcDbEntity
  8
7_ALL_FEATURES
100
AcDbLine
 62
7
  6
CONTINUOUS
 10
337.1376079171
 20
143.9980070637
 11
337.7721554666
 21
143.6492050029
  0
LINE
  5
547
100
AcDbEntity
  8
02___PRT_ALL_AXES
100
AcDbLine
 62
7
  6
CONTINUOUS
 10
339.0851137965
 20
144.7342140961
 11
338.9210261408
 21
144.8244108237
  0
LINE
  5
548
100
AcDbEntity
  8
7_ALL_FEATURES
100
AcDbLine
 62
9
  6
CONTINUOUS
 10
337.9551566242
 20
147.5875112541
 11
338.1482049799
 21
147.4813952281
  0
LINE
  5
549
100
AcDbEntity
  8
7_ALL_FEATURES
100
AcDbLine
 62
7
  6
CONTINUOUS
 10
301.107456565
 20
139.0943153179
 11
343.20266949
 21
148.6258698828
  0
LINE
  5
54A
100
AcDbEntity
  8
7_ALL_FEATURES
100
AcDbLine
 62
9
  6
CONTINUOUS
 10
303.1389022608
 20
167.8420052406
 11
308.1563702917
 21
165.0839720712
  0
LINE
  5
54B
100
AcDbEntity
  8
7_ALL_FEATURES
100
AcDbLine
 62
7
  6
CONTINUOUS
 10
302.7682532951
 20
168.5126725515
 11
308.1607933221
 21
165.5484674643
  0
LINE
  5
54C
100
AcDbEntity
  8
7_ALL_FEATURES
100
AcDbLine
 62
9
  6
CONTINUOUS
 10
342.8384034569
 20
146.5318991647
 11
342.970600863
 21
146.4592320687
  0
LINE
  5
54D
100
AcDbEntity
  8
7_ALL_FEATURES
100
AcDbLine
 62
7
  6
CONTINUOUS
 10
342.471417288
 20
147.2160627118
 11
342.6036146942
 21
147.1433956158
  0
LINE
  5
54E
100
AcDbEntity
  8
7_ALL_FEATURES
100
AcDbLine
 62
7
  6
CONTINUOUS
 10
345.5443913271
 20
148.458419976
 11
371.7723567058
 21
134.0412681305
  0
LINE
  5
54F
100
AcDbEntity
  8
7_ALL_FEATURES
100
AcDbLine
 62
9
  6
CONTINUOUS
 10
309.9287769698
 20
169.3689214706
 11
314.94582364
 21
166.6111199174
  0
LINE
  5
550
100
AcDbEntity
  8
7_ALL_FEATURES
100
AcDbLine
 62
7
  6
CONTINUOUS
 10
309.5539362306
 20
170.0471735469
 11
314.9502966917
 21
167.0808684196
  0
LINE
  5
551
100
AcDbEntity
  8
7_ALL_FEATURES
100
AcDbLine
 62
9
  6
CONTINUOUS
 10
316.7183274416
 20
170.9062689811
 11
321.7353741118
 21
168.1484674278
  0
LINE
  5
552
100
AcDbEntity
  8
7_ALL_FEATURES
100
AcDbLine
 62
7
  6
CONTINUOUS
 10
316.3434867024
 20
171.5845210574
 11
321.7398471635
 21
168.6182159301
  0
LINE
  5
553
100
AcDbEntity
  8
7_ALL_FEATURES
100
AcDbLine
 62
9
  6
CONTINUOUS
 10
369.7423945252
 20
90.1863373267
 11
369.7389143514
 21
90.5119717605
  0
LINE
  5
554
100
AcDbEntity
  8
7_ALL_FEATURES
100
AcDbLine
 62
7
  6
CONTINUOUS
 10
369.787769251
 20
90.1318928213
 11
369.7839719084
 21
90.4872042411
  0
LINE
  5
555
100
AcDbEntity
  8
7_ALL_FEATURES
100
AcDbLine
 62
7
  6
CONTINUOUS
 10
370.297145894
 20
162.5072260289
 11
370.5944521275
 21
134.688746077
  0
LINE
  5
556
100
AcDbEntity
  8
7_ALL_FEATURES
100
AcDbLine
 62
9
  6
CONTINUOUS
 10
371.7723567058
 20
134.0412681305
 11
372.1948222469
 21
94.5118272336
  0
LINE
  5
557
100
AcDbEntity
  8
7_ALL_FEATURES
100
AcDbLine
 62
9
  6
CONTINUOUS
 10
323.5078779134
 20
172.4436164915
 11
328.5249245835
 21
169.6858149383
  0
LINE
  5
558
100
AcDbEntity
  8
7_ALL_FEATURES
100
AcDbLine
 62
7
  6
CONTINUOUS
 10
323.1330371742
 20
173.1218685678
 11
328.5293976352
 21
170.1555634406
  0
LINE
  5
559
100
AcDbEntity
  8
7_ALL_FEATURES
100
AcDbLine
 62
3
  6
CONTINUOUS
 10
373.7663823656
 20
103.1225152539
 11
374.0240997399
 21
101.9324030252
  0
LINE
  5
55A
100
AcDbEntity
  8
7_ALL_FEATURES
100
AcDbLine
 62
7
  6
CONTINUOUS
 10
373.8875584546
 20
103.1450545548
 11
374.1452758289
 21
101.9549423261
  0
LINE
  5
55B
100
AcDbEntity
  8
7_ALL_FEATURES
100
AcDbLine
 62
3
  6
CONTINUOUS
 10
372.2384546214
 20
114.1793345303
 11
373.7663823656
 21
103.1225152539
  0
LINE
  5
55C
100
AcDbEntity
  8
7_ALL_FEATURES
100
AcDbLine
 62
7
  6
CONTINUOUS
 10
372.228036374
 20
115.1541536766
 11
373.8875584546
 21
103.1450545548
  0
LINE
  5
55D
100
AcDbEntity
  8
7_ALL_FEATURES
100
AcDbLine
 62
7
  6
CONTINUOUS
 10
372.0294801521
 20
133.7327492665
 11
372.4501484035
 21
94.3714779569
  0
LINE
  5
55E
100
AcDbEntity
  8
7_ALL_FEATURES
100
AcDbLine
 62
9
  6
CONTINUOUS
 10
330.2974283852
 20
173.980964002
 11
335.3144750553
 21
171.2231624488
  0
LINE
  5
55F
100
AcDbEntity
  8
7_ALL_FEATURES
100
AcDbLine
 62
7
  6
CONTINUOUS
 10
329.9225876459
 20
174.6592160783
 11
335.318948107
 21
171.692910951
  0
LINE
  5
560
100
AcDbEntity
  8
7_ALL_FEATURES
100
AcDbLine
 62
7
  6
CONTINUOUS
 10
378.6470494593
 20
89.5673949277
 11
378.6320231156
 21
90.9733864493
  0
LINE
  5
561
100
AcDbEntity
  8
7_ALL_FEATURES
100
AcDbLine
 62
3
  6
CONTINUOUS
 10
374.0125057204
 20
97.8537841357
 11
374.1673994153
 21
98.8648052359
  0
LINE
  5
562
100
AcDbEntity
  8
7_ALL_FEATURES
100
AcDbLine
 62
7
  6
CONTINUOUS
 10
374.1408467932
 20
97.7229435471
 11
374.295740488
 21
98.7339646473
  0
LINE
  5
563
100
AcDbEntity
  8
7_ALL_FEATURES
100
AcDbLine
 62
3
  6
CONTINUOUS
 10
373.0994251238
 20
94.0145794735
 11
374.0125057204
 21
97.8537841357
  0
LINE
  5
564
100
AcDbEntity
  8
7_ALL_FEATURES
100
AcDbLine
 62
7
  6
CONTINUOUS
 10
373.2404478793
 20
93.9370612043
 11
374.1408467932
 21
97.7229435471
  0
LINE
  5
565
100
AcDbEntity
  8
7_ALL_FEATURES
100
AcDbLine
 62
9
  6
CONTINUOUS
 10
337.0869788569
 20
175.5183115125
 11
342.1040255271
 21
172.7605099592
  0
LINE
  5
566
100
AcDbEntity
  8
7_ALL_FEATURES
100
AcDbLine
 62
7
  6
CONTINUOUS
 10
336.7121381177
 20
176.1965635887
 11
342.1084985788
 21
173.2302584615
  0
LINE
  5
567
100
AcDbEntity
  8
7_ALL_FEATURES
100
AcDbLine
 62
9
  6
CONTINUOUS
 10
370.297145894
 20
162.5072260289
 11
343.8576646654
 21
177.040645228
  0
LINE
  5
568
100
AcDbEntity
  8
7_ALL_FEATURES
100
AcDbLine
 62
7
  6
CONTINUOUS
 10
369.9260557878
 20
163.1990404482
 11
343.4865745593
 21
177.7324596473
  0
ARC
  5
569
100
AcDbEntity
  8
7_ALL_FEATURES
100
AcDbCircle
 62
7
  6
CONTINUOUS
 10
49.4481178977
 20
243.7571377841
 40
0.3
100
AcDbArc
 50
90.0
 51
180.0
  0
ARC
  5
56A
100
AcDbEntity
  8
7_ALL_FEATURES
100
AcDbCircle
 62
7
  6
CONTINUOUS
 10
49.4481178977
 20
196.0571377841
 40
0.3
100
AcDbArc
 50
180.0
 51
270.0
  0
ARC
  5
56B
100
AcDbEntity
  8
7_ALL_FEATURES
100
AcDbCircle
 62
7
  6
CONTINUOUS
 10
97.1481178977
 20
196.0571377841
 40
0.3
100
AcDbArc
 50
270.0
 51
360.0
  0
ARC
  5
56C
100
AcDbEntity
  8
7_ALL_FEATURES
100
AcDbCircle
 62
7
  6
CONTINUOUS
 10
97.1481178977
 20
243.7571377841
 40
0.3
100
AcDbArc
 50
0.0
 51
90.0
  0
ARC
  5
56D
100
AcDbEntity
  8
7_ALL_FEATURES
100
AcDbCircle
 62
7
  6
CONTINUOUS
 10
43.4891318169
 20
53.3803477923
 40
5.25
100
AcDbArc
 50
157.5
 51
195.0
  0
ARC
  5
56E
100
AcDbEntity
  8
7_ALL_FEATURES
100
AcDbCircle
 62
7
  6
CONTINUOUS
 10
103.1071039786
 20
53.3803477923
 40
5.25
100
AcDbArc
 50
345.0
 51
22.5
  0
ARC
  5
56F
100
AcDbEntity
  8
7_ALL_FEATURES
100
AcDbCircle
 62
3
  6
CONTINUOUS
 10
43.4891318169
 20
53.3803477923
 40
5.0
100
AcDbArc
 50
157.5
 51
195.0
  0
ARC
  5
570
100
AcDbEntity
  8
7_ALL_FEATURES
100
AcDbCircle
 62
3
  6
CONTINUOUS
 10
103.1071039786
 20
53.3803477923
 40
5.0
100
AcDbArc
 50
345.0
 51
22.5
  0
ARC
  5
571
100
AcDbEntity
  8
02___PRT_ALL_AXES
100
AcDbCircle
 62
7
  6
CONTINUOUS
 10
46.7981178977
 20
40.8039239356
 40
1.5
100
AcDbArc
 50
90.0
 51
180.0
  0
ARC
  5
572
100
AcDbEntity
  8
02___PRT_ALL_AXES
100
AcDbCircle
 62
7
  6
CONTINUOUS
 10
99.7981178977
 20
40.8039239356
 40
1.5
100
AcDbArc
 50
0.0
 51
90.0
  0
ARC
  5
573
100
AcDbEntity
  8
7_ALL_FEATURES
100
AcDbCircle
 62
3
  6
CONTINUOUS
 10
46.1981178977
 20
74.5539239356
 40
0.6
100
AcDbArc
 50
337.5
 51
360.0
  0
ARC
  5
574
100
AcDbEntity
  8
7_ALL_FEATURES
100
AcDbCircle
 62
3
  6
CONTINUOUS
 10
100.3981178977
 20
74.5539239356
 40
0.6
100
AcDbArc
 50
180.0
 51
202.5
  0
ARC
  5
575
100
AcDbEntity
  8
7_ALL_FEATURES
100
AcDbCircle
 62
7
  6
CONTINUOUS
 10
46.1981178977
 20
74.5539239356
 40
0.35
100
AcDbArc
 50
337.5
 51
360.0
  0
ARC
  5
576
100
AcDbEntity
  8
7_ALL_FEATURES
100
AcDbCircle
 62
7
  6
CONTINUOUS
 10
100.3981178977
 20
74.5539239356
 40
0.35
100
AcDbArc
 50
180.0
 51
202.5
  0
CIRCLE
  5
577
100
AcDbEntity
  8
02___PRT_ALL_AXES
100
AcDbCircle
 62
7
  6
CONTINUOUS
 10
202.5783735795
 20
200.8071377841
 40
3.0
  0
CIRCLE
  5
578
100
AcDbEntity
  8
02___PRT_ALL_AXES
100
AcDbCircle
 62
7
  6
CONTINUOUS
 10
202.5783735795
 20
239.0071377841
 40
3.0
  0
ARC
  5
579
100
AcDbEntity
  8
02___PRT_ALL_AXES
100
AcDbCircle
 62
7
  6
CONTINUOUS
 10
241.3283735795
 20
193.4071377841
 40
1.5
100
AcDbArc
 50
180.0
 51
270.0
  0
ARC
  5
57A
100
AcDbEntity
  8
02___PRT_ALL_AXES
100
AcDbCircle
 62
7
  6
CONTINUOUS
 10
241.3283735795
 20
246.4071377841
 40
1.5
100
AcDbArc
 50
90.0
 51
180.0
  0
ARC
  5
57B
100
AcDbEntity
  8
7_ALL_FEATURES
100
AcDbCircle
 62
7
  6
CONTINUOUS
 10
165.6009921424
 20
203.9071377841
 40
1.0226185629
100
AcDbArc
 50
91.2814024342
 51
268.7185975658
  0
ARC
  5
57C
100
AcDbEntity
  8
7_ALL_FEATURES
100
AcDbCircle
 62
7
  6
CONTINUOUS
 10
165.6009921424
 20
211.9071377841
 40
1.0226185629
100
AcDbArc
 50
91.2814024342
 51
268.7185975658
  0
ARC
  5
57D
100
AcDbEntity
  8
7_ALL_FEATURES
100
AcDbCircle
 62
7
  6
CONTINUOUS
 10
165.6009921424
 20
219.9071377841
 40
1.0226185629
100
AcDbArc
 50
91.2814024342
 51
268.7185975658
  0
ARC
  5
57E
100
AcDbEntity
  8
7_ALL_FEATURES
100
AcDbCircle
 62
7
  6
CONTINUOUS
 10
165.6009921424
 20
227.9071377841
 40
1.0226185629
100
AcDbArc
 50
91.2814024342
 51
268.7185975658
  0
ARC
  5
57F
100
AcDbEntity
  8
7_ALL_FEATURES
100
AcDbCircle
 62
7
  6
CONTINUOUS
 10
165.6009921424
 20
235.9071377841
 40
1.0226185629
100
AcDbArc
 50
91.2814024342
 51
268.7185975658
  0
ARC
  5
580
100
AcDbEntity
  8
7_ALL_FEATURES
100
AcDbCircle
 62
7
  6
CONTINUOUS
 10
165.5895563914
 20
195.918320596
 40
1.0111828119
100
AcDbArc
 50
91.2814024342
 51
270.0
  0
ARC
  5
581
100
AcDbEntity
  8
7_ALL_FEATURES
100
AcDbCircle
 62
7
  6
CONTINUOUS
 10
165.5895563914
 20
243.8959549722
 40
1.0111828119
100
AcDbArc
 50
90.0
 51
268.7185975658
  0
ARC
  5
582
100
AcDbEntity
  8
7_ALL_FEATURES
100
AcDbCircle
 62
7
  6
CONTINUOUS
 10
198.5783735795
 20
243.4071377841
 40
1.0
100
AcDbArc
 50
90.0
 51
180.0
  0
ARC
  5
583
100
AcDbEntity
  8
7_ALL_FEATURES
100
AcDbCircle
 62
7
  6
CONTINUOUS
 10
198.5783735795
 20
196.4071377841
 40
1.0
100
AcDbArc
 50
180.0
 51
270.0
  0
ARC
  5
584
100
AcDbEntity
  8
7_ALL_FEATURES
100
AcDbCircle
 62
7
  6
CONTINUOUS
 10
195.4913735795
 20
198.5988629259
 40
1.0
100
AcDbArc
 50
271.2814024342
 51
327.4084342219
  0
ARC
  5
585
100
AcDbEntity
  8
7_ALL_FEATURES
100
AcDbCircle
 62
7
  6
CONTINUOUS
 10
195.4913735795
 20
201.2154126422
 40
1.0
100
AcDbArc
 50
32.5915657781
 51
88.7185975658
  0
ARC
  5
586
100
AcDbEntity
  8
7_ALL_FEATURES
100
AcDbCircle
 62
7
  6
CONTINUOUS
 10
195.4913735795
 20
238.5988629259
 40
1.0
100
AcDbArc
 50
271.2814024342
 51
327.4084342219
  0
ARC
  5
587
100
AcDbEntity
  8
7_ALL_FEATURES
100
AcDbCircle
 62
7
  6
CONTINUOUS
 10
195.4913735795
 20
241.2154126422
 40
1.0
100
AcDbArc
 50
32.5915657781
 51
88.7185975658
  0
ARC
  5
588
100
AcDbEntity
  8
02___PRT_ALL_AXES
100
AcDbCircle
 62
7
  6
CONTINUOUS
 10
305.578840739
 20
135.8065868496
 40
1.9137707862
100
AcDbArc
 50
55.6066771791
 51
61.2012799457
  0
ARC
  5
589
100
AcDbEntity
  8
02___PRT_ALL_AXES
100
AcDbCircle
 62
7
  6
CONTINUOUS
 10
337.9989442417
 20
143.147421212
 40
1.9137707862
100
AcDbArc
 50
55.6066771791
 51
61.2012799457
  0
ARC
  5
58A
100
AcDbEntity
  8
02___PRT_ALL_AXES
100
AcDbCircle
 62
7
  6
CONTINUOUS
 10
304.5308428886
 20
133.8996808904
 40
1.9103124768
100
AcDbArc
 50
241.2098300295
 51
246.7685878238
  0
ARC
  5
58B
100
AcDbEntity
  8
02___PRT_ALL_AXES
100
AcDbCircle
 62
7
  6
CONTINUOUS
 10
336.9509463913
 20
141.2405152528
 40
1.9103124768
100
AcDbArc
 50
241.2098300295
 51
246.7685878238
  0
ARC
  5
58C
100
AcDbEntity
  8
7_ALL_FEATURES
100
AcDbCircle
 62
7
  6
CONTINUOUS
 10
301.0520298022
 20
103.2220311752
 40
0.7550027026
100
AcDbArc
 50
275.3845597123
 51
282.755971022
  0
ARC
  5
58D
100
AcDbEntity
  8
7_ALL_FEATURES
100
AcDbCircle
 62
3
  6
CONTINUOUS
 10
301.1791092608
 20
103.2124588934
 40
0.7549649692
100
AcDbArc
 50
273.1284957323
 51
282.7539150394
  0
ARC
  5
58E
100
AcDbEntity
  8
7_ALL_FEATURES
100
AcDbCircle
 62
7
  6
CONTINUOUS
 10
301.0526480088
 20
103.215434129
 40
0.7483767547
100
AcDbArc
 50
265.7225547754
 51
275.3848344346
  0
ARC
  5
58F
100
AcDbEntity
  8
7_ALL_FEATURES
100
AcDbCircle
 62
3
  6
CONTINUOUS
 10
301.179672314
 20
103.2039135453
 40
0.746401634
100
AcDbArc
 50
265.7127849986
 51
273.121138179
  0
ARC
  5
590
100
AcDbEntity
  8
7_ALL_FEATURES
100
AcDbCircle
 62
7
  6
CONTINUOUS
 10
306.8420374063
 20
133.150943229
 40
0.718752969
100
AcDbArc
 50
256.2135549397
 51
263.5206642126
  0
ARC
  5
591
100
AcDbEntity
  8
7_ALL_FEATURES
100
AcDbCircle
 62
7
  6
CONTINUOUS
 10
339.2620016531
 20
140.4910413773
 40
0.7180047806
100
AcDbArc
 50
256.2103471584
 51
263.295040336
  0
ARC
  5
592
100
AcDbEntity
  8
7_ALL_FEATURES
100
AcDbCircle
 62
7
  6
CONTINUOUS
 10
342.1607245171
 20
146.6519342556
 40
0.6440128776
100
AcDbArc
 50
48.2362239488
 51
61.1708365336
  0
SPLINE
  5
593
100
AcDbEntity
  8
7_ALL_FEATURES
100
AcDbSpline
 62
7
  6
CONTINUOUS
 70
0
 71
3
 72
13
 73
9
 74
0
 42
0.0000001
 43
0.0000001
 44
0.0000000001
 40
0.0
 40
0.0
 40
0.0
 40
0.0
 40
0.0547619866
 40
0.1307266248
 40
0.2306885248
 40
0.353632825
 40
0.6550581196
 40
1.0
 40
1.0
 40
1.0
 40
1.0
 10
40.3086997584
 20
197.6457238435
 30
0.0
 10
40.3268929331
 20
197.6518736866
 30
0.0
 10
40.364161526
 20
197.6822772668
 30
0.0
 10
40.4067935563
 20
197.7513551733
 30
0.0
 10
40.446224232
 20
197.8489419886
 30
0.0
 10
40.4950780811
 20
198.0264281019
 30
0.0
 10
40.5345356135
 20
198.2942071606
 30
0.0
 10
40.5449612374
 20
198.5209508601
 30
0.0
 10
40.5449612374
 20
198.6419185415
 30
0.0
  0
SPLINE
  5
594
100
AcDbEntity
  8
7_ALL_FEATURES
100
AcDbSpline
 62
7
  6
CONTINUOUS
 70
0
 71
3
 72
13
 73
9
 74
0
 42
0.0000001
 43
0.0000001
 44
0.0000000001
 40
0.0
 40
0.0
 40
0.0
 40
0.0
 40
0.3449418804
 40
0.646367175
 40
0.7693114752
 40
0.8692733752
 40
0.9452380134
 40
1.0
 40
1.0
 40
1.0
 40
1.0
 10
40.5449612374
 20
241.1723570266
 30
0.0
 10
40.5449612374
 20
241.2933247081
 30
0.0
 10
40.5345356135
 20
241.5200684076
 30
0.0
 10
40.4950780811
 20
241.7878474663
 30
0.0
 10
40.446224232
 20
241.9653335795
 30
0.0
 10
40.4067935563
 20
242.0629203949
 30
0.0
 10
40.364161526
 20
242.1319983014
 30
0.0
 10
40.3268929331
 20
242.1624018816
 30
0.0
 10
40.3086997584
 20
242.1685517247
 30
0.0
  0
SPLINE
  5
595
100
AcDbEntity
  8
7_ALL_FEATURES
100
AcDbSpline
 62
7
  6
CONTINUOUS
 70
0
 71
3
 72
13
 73
9
 74
0
 42
0.0000001
 43
0.0000001
 44
0.0000000001
 40
0.0
 40
0.0
 40
0.0
 40
0.0
 40
0.0547619866
 40
0.1307266248
 40
0.2306885248
 40
0.353632825
 40
0.6550581196
 40
1.0
 40
1.0
 40
1.0
 40
1.0
 10
106.287536037
 20
242.1685517247
 30
0.0
 10
106.2693428624
 20
242.1624018816
 30
0.0
 10
106.2320742694
 20
242.1319983014
 30
0.0
 10
106.1894422391
 20
242.0629203949
 30
0.0
 10
106.1500115634
 20
241.9653335795
 30
0.0
 10
106.1011577144
 20
241.7878474663
 30
0.0
 10
106.0617001819
 20
241.5200684076
 30
0.0
 10
106.051274558
 20
241.2933247081
 30
0.0
 10
106.051274558
 20
241.1723570266
 30
0.0
  0
SPLINE
  5
596
100
AcDbEntity
  8
7_ALL_FEATURES
100
AcDbSpline
 62
7
  6
CONTINUOUS
 70
0
 71
3
 72
13
 73
9
 74
0
 42
0.0000001
 43
0.0000001
 44
0.0000000001
 40
0.0
 40
0.0
 40
0.0
 40
0.0
 40
0.3449418804
 40
0.646367175
 40
0.7693114752
 40
0.8692733752
 40
0.9452380134
 40
1.0
 40
1.0
 40
1.0
 40
1.0
 10
106.051274558
 20
198.6419185415
 30
0.0
 10
106.051274558
 20
198.5209508601
 30
0.0
 10
106.0617001819
 20
198.2942071606
 30
0.0
 10
106.1011577144
 20
198.0264281019
 30
0.0
 10
106.1500115634
 20
197.8489419886
 30
0.0
 10
106.1894422391
 20
197.7513551733
 30
0.0
 10
106.2320742694
 20
197.6822772668
 30
0.0
 10
106.2693428624
 20
197.6518736866
 30
0.0
 10
106.287536037
 20
197.6457238435
 30
0.0
  0
SPLINE
  5
597
100
AcDbEntity
  8
7_ALL_FEATURES
100
AcDbSpline
 62
3
  6
CONTINUOUS
 70
0
 71
3
 72
13
 73
9
 74
0
 42
0.0000001
 43
0.0000001
 44
0.0000000001
 40
0.0
 40
0.0
 40
0.0
 40
0.0
 40
0.3449418804
 40
0.646367175
 40
0.7693114752
 40
0.8692733752
 40
0.9452380134
 40
1.0
 40
1.0
 40
1.0
 40
1.0
 10
40.786442694
 20
198.6419185415
 30
0.0
 10
40.786442694
 20
198.5209508601
 30
0.0
 10
40.7760170701
 20
198.2942071605
 30
0.0
 10
40.7365595377
 20
198.0264281019
 30
0.0
 10
40.6877056886
 20
197.8489419886
 30
0.0
 10
40.6482750129
 20
197.7513551733
 30
0.0
 10
40.6056429826
 20
197.6822772668
 30
0.0
 10
40.5683743897
 20
197.6518736866
 30
0.0
 10
40.550181215
 20
197.6457238435
 30
0.0
  0
SPLINE
  5
598
100
AcDbEntity
  8
7_ALL_FEATURES
100
AcDbSpline
 62
3
  6
CONTINUOUS
 70
0
 71
3
 72
13
 73
9
 74
0
 42
0.0000001
 43
0.0000001
 44
0.0000000001
 40
0.0
 40
0.0
 40
0.0
 40
0.0
 40
0.0547619866
 40
0.1307266248
 40
0.2306885248
 40
0.353632825
 40
0.6550581196
 40
1.0
 40
1.0
 40
1.0
 40
1.0
 10
40.550181215
 20
242.1685517247
 30
0.0
 10
40.5683743897
 20
242.1624018816
 30
0.0
 10
40.6056429826
 20
242.1319983014
 30
0.0
 10
40.6482750129
 20
242.0629203949
 30
0.0
 10
40.6877056886
 20
241.9653335795
 30
0.0
 10
40.7365595377
 20
241.7878474663
 30
0.0
 10
40.7760170701
 20
241.5200684076
 30
0.0
 10
40.786442694
 20
241.2933247081
 30
0.0
 10
40.786442694
 20
241.1723570266
 30
0.0
  0
SPLINE
  5
599
100
AcDbEntity
  8
7_ALL_FEATURES
100
AcDbSpline
 62
3
  6
CONTINUOUS
 70
0
 71
3
 72
13
 73
9
 74
0
 42
0.0000001
 43
0.0000001
 44
0.0000000001
 40
0.0
 40
0.0
 40
0.0
 40
0.0
 40
0.3449418804
 40
0.646367175
 40
0.7693114752
 40
0.8692733752
 40
0.9452380134
 40
1.0
 40
1.0
 40
1.0
 40
1.0
 10
105.8097931015
 20
241.1723570266
 30
0.0
 10
105.8097931015
 20
241.2933247081
 30
0.0
 10
105.8202187254
 20
241.5200684076
 30
0.0
 10
105.8596762578
 20
241.7878474663
 30
0.0
 10
105.9085301069
 20
241.9653335795
 30
0.0
 10
105.9479607825
 20
242.0629203949
 30
0.0
 10
105.9905928129
 20
242.1319983014
 30
0.0
 10
106.0278614058
 20
242.1624018816
 30
0.0
 10
106.0460545805
 20
242.1685517247
 30
0.0
  0
SPLINE
  5
59A
100
AcDbEntity
  8
7_ALL_FEATURES
100
AcDbSpline
 62
3
  6
CONTINUOUS
 70
0
 71
3
 72
13
 73
9
 74
0
 42
0.0000001
 43
0.0000001
 44
0.0000000001
 40
0.0
 40
0.0
 40
0.0
 40
0.0
 40
0.0547619866
 40
0.1307266248
 40
0.2306885248
 40
0.353632825
 40
0.6550581196
 40
1.0
 40
1.0
 40
1.0
 40
1.0
 10
106.0460545805
 20
197.6457238435
 30
0.0
 10
106.0278614058
 20
197.6518736866
 30
0.0
 10
105.9905928129
 20
197.6822772668
 30
0.0
 10
105.9479607825
 20
197.7513551733
 30
0.0
 10
105.9085301069
 20
197.8489419886
 30
0.0
 10
105.8596762578
 20
198.0264281019
 30
0.0
 10
105.8202187254
 20
198.2942071605
 30
0.0
 10
105.8097931015
 20
198.5209508601
 30
0.0
 10
105.8097931015
 20
198.6419185415
 30
0.0
  0
SPLINE
  5
59B
100
AcDbEntity
  8
7_ALL_FEATURES
100
AcDbSpline
 62
7
  6
CONTINUOUS
 70
0
 71
3
 72
11
 73
7
 74
0
 42
0.0000001
 43
0.0000001
 44
0.0000000001
 40
0.0
 40
0.0
 40
0.0
 40
0.0
 40
0.2537880006
 40
0.5054239502
 40
0.753941686
 40
1.0
 40
1.0
 40
1.0
 40
1.0
 10
238.0485978863
 20
241.1723570266
 30
0.0
 10
238.0485978863
 20
241.2951500716
 30
0.0
 10
238.0043106219
 20
241.5419796675
 30
0.0
 10
237.8127759995
 20
241.8616761621
 30
0.0
 10
237.5219261255
 20
242.0892335922
 30
0.0
 10
237.2854257877
 20
242.1578124596
 30
0.0
 10
237.1668580428
 20
242.1685517247
 30
0.0
  0
SPLINE
  5
59C
100
AcDbEntity
  8
7_ALL_FEATURES
100
AcDbSpline
 62
7
  6
CONTINUOUS
 70
0
 71
3
 72
11
 73
7
 74
0
 42
0.0000001
 43
0.0000001
 44
0.0000000001
 40
0.0
 40
0.0
 40
0.0
 40
0.0
 40
0.246058314
 40
0.4945760498
 40
0.7462119994
 40
1.0
 40
1.0
 40
1.0
 40
1.0
 10
237.1668580428
 20
197.6457238435
 30
0.0
 10
237.2854257877
 20
197.6564631086
 30
0.0
 10
237.5219261255
 20
197.725041976
 30
0.0
 10
237.8127759995
 20
197.9525994061
 30
0.0
 10
238.0043106219
 20
198.2722959007
 30
0.0
 10
238.0485978863
 20
198.5191254966
 30
0.0
 10
238.0485978863
 20
198.6419185415
 30
0.0
  0
SPLINE
  5
59D
100
AcDbEntity
  8
7_ALL_FEATURES
100
AcDbSpline
 62
7
  6
CONTINUOUS
 70
0
 71
3
 72
9
 73
5
 74
0
 42
0.0000001
 43
0.0000001
 44
0.0000000001
 40
0.0
 40
0.0
 40
0.0
 40
0.0
 40
0.2415022938
 40
1.0
 40
1.0
 40
1.0
 40
1.0
 10
207.7123127809
 20
195.4175793304
 30
0.0
 10
207.701534224
 20
195.4166930275
 30
0.0
 10
207.6568967204
 20
195.4130985713
 30
0.0
 10
207.6122429644
 20
195.4097108102
 30
0.0
 10
207.5783735795
 20
195.4071377841
 30
0.0
  0
SPLINE
  5
59E
100
AcDbEntity
  8
7_ALL_FEATURES
100
AcDbSpline
 62
7
  6
CONTINUOUS
 70
0
 71
3
 72
9
 73
5
 74
0
 42
0.0000001
 43
0.0000001
 44
0.0000000001
 40
0.0
 40
0.0
 40
0.0
 40
0.0
 40
0.2415022938
 40
1.0
 40
1.0
 40
1.0
 40
1.0
 10
207.7123127809
 20
244.3966962378
 30
0.0
 10
207.701534224
 20
244.3975825407
 30
0.0
 10
207.6568967204
 20
244.4011769969
 30
0.0
 10
207.6122429644
 20
244.404564758
 30
0.0
 10
207.5783735795
 20
244.4071377841
 30
0.0
  0
SPLINE
  5
59F
100
AcDbEntity
  8
02___PRT_ALL_AXES
100
AcDbSpline
 62
7
  6
CONTINUOUS
 70
0
 71
3
 72
11
 73
7
 74
0
 42
0.0000001
 43
0.0000001
 44
0.0000000001
 40
0.0
 40
0.0
 40
0.0
 40
0.0
 40
0.262789073
 40
0.5169105276
 40
0.7623495617
 40
1.0
 40
1.0
 40
1.0
 40
1.0
 10
307.7659688004
 20
135.3408890925
 30
0.0
 10
307.7644632637
 20
135.4817598092
 30
0.0
 10
307.7425772983
 20
135.7591085774
 30
0.0
 10
307.6505136852
 20
136.1588880811
 30
0.0
 10
307.5016414814
 20
136.5268103631
 30
0.0
 10
307.3644840832
 20
136.7483398513
 30
0.0
 10
307.2878317278
 20
136.8501029614
 30
0.0
  0
SPLINE
  5
5A0
100
AcDbEntity
  8
02___PRT_ALL_AXES
100
AcDbSpline
 62
7
  6
CONTINUOUS
 70
0
 71
3
 72
9
 73
5
 74
0
 42
0.0000001
 43
0.0000001
 44
0.0000000001
 40
0.0
 40
0.0
 40
0.0
 40
0.0
 40
0.5040538673
 40
1.0
 40
1.0
 40
1.0
 40
1.0
 10
307.2878317278
 20
136.8501029614
 30
0.0
 10
307.2038126607
 20
136.9616460645
 30
0.0
 10
307.0143294107
 20
137.1668379283
 30
0.0
 10
306.7854140039
 20
137.3271852619
 30
0.0
 10
306.6650089705
 20
137.3933773265
 30
0.0
  0
SPLINE
  5
5A1
100
AcDbEntity
  8
02___PRT_ALL_AXES
100
AcDbSpline
 62
7
  6
CONTINUOUS
 70
0
 71
3
 72
18
 73
14
 74
0
 42
0.0000001
 43
0.0000001
 44
0.0000000001
 40
0.0
 40
0.0
 40
0.0
 40
0.0
 40
0.1299007266
 40
0.2640960031
 40
0.3992087922
 40
0.5316511691
 40
0.6584332227
 40
0.7192617207
 40
0.7782283514
 40
0.8354539309
 40
0.8912056117
 40
0.9458853
 40
1.0
 40
1.0
 40
1.0
 40
1.0
 10
307.7659688004
 20
135.3408890925
 30
0.0
 10
307.7687653924
 20
135.0792163452
 30
0.0
 10
307.7069295751
 20
134.5448670884
 30
0.0
 10
307.4364373283
 20
133.7810955296
 30
0.0
 10
307.0058821805
 20
133.088148972
 30
0.0
 10
306.4457522274
 20
132.5157872265
 30
0.0
 10
305.8940311868
 20
132.1681909109
 30
0.0
 10
305.4285379567
 20
131.9909852948
 30
0.0
 10
305.079640042
 20
131.9113352035
 30
0.0
 10
304.7329193477
 20
131.8849410261
 30
0.0
 10
304.3948038944
 20
131.9125081381
 30
0.0
 10
304.0718836273
 20
131.9936774911
 30
0.0
 10
303.870296895
 20
132.0828724712
 30
0.0
 10
303.7747657764
 20
132.1353902256
 30
0.0
  0
SPLINE
  5
5A2
100
AcDbEntity
  8
02___PRT_ALL_AXES
100
AcDbSpline
 62
7
  6
CONTINUOUS
 70
0
 71
3
 72
18
 73
14
 74
0
 42
0.0000001
 43
0.0000001
 44
0.0000000001
 40
0.0
 40
0.0
 40
0.0
 40
0.0
 40
0.0541145986
 40
0.1087944352
 40
0.1645464378
 40
0.2217724293
 40
0.280739484
 40
0.341568354
 40
0.4683508513
 40
0.6007931404
 40
0.7359054031
 40
0.8700999465
 40
1.0
 40
1.0
 40
1.0
 40
1.0
 10
306.5007693823
 20
137.4836575692
 30
0.0
 10
306.4052363924
 20
137.5361650477
 30
0.0
 10
306.2036475325
 20
137.6253396926
 30
0.0
 10
305.8807293325
 20
137.706480809
 30
0.0
 10
305.5426199067
 20
137.7340228758
 30
0.0
 10
305.1959085804
 20
137.7076073589
 30
0.0
 10
304.8470227175
 20
137.6279399558
 30
0.0
 10
304.3815488599
 20
137.4507167332
 30
0.0
 10
303.8298554788
 20
137.1031099548
 30
0.0
 10
303.2697568082
 20
136.5307507197
 30
0.0
 10
302.8392279304
 20
135.8378189372
 30
0.0
 10
302.56875324
 20
135.0740702009
 30
0.0
 10
302.506921793
 20
134.5397391237
 30
0.0
 10
302.5097182908
 20
134.2780751872
 30
0.0
  0
SPLINE
  5
5A3
100
AcDbEntity
  8
02___PRT_ALL_AXES
100
AcDbSpline
 62
7
  6
CONTINUOUS
 70
0
 71
3
 72
13
 73
9
 74
0
 42
0.0000001
 43
0.0000001
 44
0.0000000001
 40
0.0
 40
0.0
 40
0.0
 40
0.0
 40
0.1172172734
 40
0.2353746733
 40
0.3553369845
 40
0.4778348345
 40
0.7318850244
 40
1.0
 40
1.0
 40
1.0
 40
1.0
 10
303.6108300532
 20
132.225503438
 30
0.0
 10
303.5273246104
 20
132.2714002559
 30
0.0
 10
303.3663110512
 20
132.3763295916
 30
0.0
 10
303.1497004189
 20
132.5689273654
 30
0.0
 10
302.9605062114
 20
132.7942039192
 30
0.0
 10
302.7460048392
 20
133.1374585358
 30
0.0
 10
302.5613945238
 20
133.6343998038
 30
0.0
 10
302.5120475106
 20
134.060133729
 30
0.0
 10
302.5097182908
 20
134.2780751872
 30
0.0
  0
SPLINE
  5
5A4
100
AcDbEntity
  8
7_ALL_FEATURES
100
AcDbSpline
 62
7
  6
CONTINUOUS
 70
0
 71
3
 72
16
 73
12
 74
0
 42
0.0000001
 43
0.0000001
 44
0.0000000001
 40
0.0
 40
0.0
 40
0.0
 40
0.0
 40
0.0517562333
 40
0.1054886772
 40
0.2193849894
 40
0.3420971198
 40
0.4718342905
 40
0.6056573085
 40
0.740204764
 40
0.8723817109
 40
1.0
 40
1.0
 40
1.0
 40
1.0
 10
306.1800458625
 20
132.3609019238
 30
0.0
 10
306.2394941923
 20
132.3588923952
 30
0.0
 10
306.361216745
 20
132.3651224513
 30
0.0
 10
306.6087143249
 20
132.4174258132
 30
0.0
 10
306.9161530991
 20
132.5585681323
 30
0.0
 10
307.2459104926
 20
132.8263043511
 30
0.0
 10
307.5220886595
 20
133.1783300081
 30
0.0
 10
307.7245985527
 20
133.5922700983
 30
0.0
 10
307.8380563471
 20
134.0419955598
 30
0.0
 10
307.8525939137
 20
134.4985168261
 30
0.0
 10
307.7920780214
 20
134.7945662822
 30
0.0
 10
307.7441331725
 20
134.9331774062
 30
0.0
  0
SPLINE
  5
5A5
100
AcDbEntity
  8
02___PRT_ALL_AXES
100
AcDbSpline
 62
7
  6
CONTINUOUS
 70
0
 71
3
 72
15
 73
11
 74
0
 42
0.0000001
 43
0.0000001
 44
0.0000000001
 40
0.0
 40
0.0
 40
0.0
 40
0.0
 40
0.1258574843
 40
0.2555455547
 40
0.3870307667
 40
0.5179963342
 40
0.6462075027
 40
0.7698375103
 40
0.8877930036
 40
1.0
 40
1.0
 40
1.0
 40
1.0
 10
307.6018811447
 20
135.4310858201
 30
0.0
 10
307.6041410206
 20
135.2196327618
 30
0.0
 10
307.5647245312
 20
134.7888892452
 30
0.0
 10
307.3860690856
 20
134.16016268
 30
0.0
 10
307.0956586835
 20
133.564904474
 30
0.0
 10
306.7072015387
 20
133.0315533568
 30
0.0
 10
306.2389434618
 20
132.5853009264
 30
0.0
 10
305.7124102724
 20
132.2476276473
 30
0.0
 10
305.1523724543
 20
132.0353656637
 30
0.0
 10
304.7644498341
 20
131.9842969079
 30
0.0
 10
304.5759202729
 20
131.9841135771
 30
0.0
  0
SPLINE
  5
5A6
100
AcDbEntity
  8
02___PRT_ALL_AXES
100
AcDbSpline
 62
7
  6
CONTINUOUS
 70
0
 71
3
 72
9
 73
5
 74
0
 42
0.0000001
 43
0.0000001
 44
0.0000000001
 40
0.0
 40
0.0
 40
0.0
 40
0.0
 40
0.5054510879
 40
1.0
 40
1.0
 40
1.0
 40
1.0
 10
304.5759202729
 20
131.9841135771
 30
0.0
 10
304.4379762127
 20
131.9839794369
 30
0.0
 10
304.1642604384
 20
132.0098053293
 30
0.0
 10
303.9013527754
 20
132.0910181667
 30
0.0
 10
303.777328227
 20
132.1442580314
 30
0.0
  0
SPLINE
  5
5A7
100
AcDbEntity
  8
02___PRT_ALL_AXES
100
AcDbSpline
 62
7
  6
CONTINUOUS
 70
0
 71
3
 72
10
 73
6
 74
0
 42
0.0000001
 43
0.0000001
 44
0.0000000001
 40
0.0
 40
0.0
 40
0.0
 40
0.0
 40
0.5146338598
 40
0.7609251986
 40
1.0
 40
1.0
 40
1.0
 40
1.0
 10
307.6018811447
 20
135.4310858201
 30
0.0
 10
307.5992432294
 20
135.6779114294
 30
0.0
 10
307.5512480767
 20
136.0453598436
 30
0.0
 10
307.3907313978
 20
136.4986003499
 30
0.0
 10
307.2811480163
 20
136.7052672333
 30
0.0
 10
307.2195737635
 20
136.8020032651
 30
0.0
  0
SPLINE
  5
5A8
100
AcDbEntity
  8
02___PRT_ALL_AXES
100
AcDbSpline
 62
7
  6
CONTINUOUS
 70
0
 71
3
 72
9
 73
5
 74
0
 42
0.0000001
 43
0.0000001
 44
0.0000000001
 40
0.0
 40
0.0
 40
0.0
 40
0.0
 40
0.5053992286
 40
1.0
 40
1.0
 40
1.0
 40
1.0
 10
307.2195737635
 20
136.8020032651
 30
0.0
 10
307.1460372783
 20
136.9175325237
 30
0.0
 10
306.9784314669
 20
137.1329541789
 30
0.0
 10
306.7704671464
 20
137.3100880836
 30
0.0
 10
306.6598740541
 20
137.3857909509
 30
0.0
  0
SPLINE
  5
5A9
100
AcDbEntity
  8
7_ALL_FEATURES
100
AcDbSpline
 62
7
  6
CONTINUOUS
 70
0
 71
3
 72
9
 73
5
 74
0
 42
0.0000001
 43
0.0000001
 44
0.0000000001
 40
0.0
 40
0.0
 40
0.0
 40
0.0
 40
0.4895818841
 40
1.0
 40
1.0
 40
1.0
 40
1.0
 10
307.7789536676
 20
134.8087301204
 30
0.0
 10
307.8558069643
 20
134.715491106
 30
0.0
 10
307.9827828069
 20
134.4988757617
 30
0.0
 10
308.0431679889
 20
134.2561630789
 30
0.0
 10
308.0581371185
 20
134.1310829535
 30
0.0
  0
SPLINE
  5
5AA
100
AcDbEntity
  8
02___PRT_ALL_AXES
100
AcDbSpline
 62
7
  6
CONTINUOUS
 70
0
 71
3
 72
11
 73
7
 74
0
 42
0.0000001
 43
0.0000001
 44
0.0000000001
 40
0.0
 40
0.0
 40
0.0
 40
0.0
 40
0.262789073
 40
0.5169105276
 40
0.7623495617
 40
1.0
 40
1.0
 40
1.0
 40
1.0
 10
340.1860723031
 20
142.6817234549
 30
0.0
 10
340.1845667664
 20
142.8225941717
 30
0.0
 10
340.1626808011
 20
143.0999429399
 30
0.0
 10
340.070617188
 20
143.4997224435
 30
0.0
 10
339.9217449841
 20
143.8676447256
 30
0.0
 10
339.784587586
 20
144.0891742138
 30
0.0
 10
339.7079352306
 20
144.1909373239
 30
0.0
  0
SPLINE
  5
5AB
100
AcDbEntity
  8
02___PRT_ALL_AXES
100
AcDbSpline
 62
7
  6
CONTINUOUS
 70
0
 71
3
 72
9
 73
5
 74
0
 42
0.0000001
 43
0.0000001
 44
0.0000000001
 40
0.0
 40
0.0
 40
0.0
 40
0.0
 40
0.5040538673
 40
1.0
 40
1.0
 40
1.0
 40
1.0
 10
339.7079352306
 20
144.1909373239
 30
0.0
 10
339.6239161634
 20
144.302480427
 30
0.0
 10
339.4344329134
 20
144.5076722908
 30
0.0
 10
339.2055175066
 20
144.6680196244
 30
0.0
 10
339.0851124733
 20
144.734211689
 30
0.0
  0
SPLINE
  5
5AC
100
AcDbEntity
  8
02___PRT_ALL_AXES
100
AcDbSpline
 62
7
  6
CONTINUOUS
 70
0
 71
3
 72
18
 73
14
 74
0
 42
0.0000001
 43
0.0000001
 44
0.0000000001
 40
0.0
 40
0.0
 40
0.0
 40
0.0
 40
0.1299007266
 40
0.2640960031
 40
0.3992087922
 40
0.5316511691
 40
0.6584332227
 40
0.7192617207
 40
0.7782283514
 40
0.8354539309
 40
0.8912056117
 40
0.9458853
 40
1.0
 40
1.0
 40
1.0
 40
1.0
 10
340.1860723031
 20
142.6817234549
 30
0.0
 10
340.1888688951
 20
142.4200507076
 30
0.0
 10
340.1270330778
 20
141.8857014509
 30
0.0
 10
339.8565408311
 20
141.1219298921
 30
0.0
 10
339.4259856832
 20
140.4289833345
 30
0.0
 10
338.8658557301
 20
139.8566215889
 30
0.0
 10
338.3141346895
 20
139.5090252734
 30
0.0
 10
337.8486414594
 20
139.3318196573
 30
0.0
 10
337.4997435447
 20
139.252169566
 30
0.0
 10
337.1530228505
 20
139.2257753885
 30
0.0
 10
336.8149073972
 20
139.2533425006
 30
0.0
 10
336.4919871301
 20
139.3345118535
 30
0.0
 10
336.2904003977
 20
139.4237068337
 30
0.0
 10
336.1948692792
 20
139.4762245881
 30
0.0
  0
SPLINE
  5
5AD
100
AcDbEntity
  8
02___PRT_ALL_AXES
100
AcDbSpline
 62
7
  6
CONTINUOUS
 70
0
 71
3
 72
18
 73
14
 74
0
 42
0.0000001
 43
0.0000001
 44
0.0000000001
 40
0.0
 40
0.0
 40
0.0
 40
0.0
 40
0.0541145986
 40
0.1087944352
 40
0.1645464378
 40
0.2217724293
 40
0.280739484
 40
0.341568354
 40
0.4683508513
 40
0.6007931404
 40
0.7359054031
 40
0.8700999465
 40
1.0
 40
1.0
 40
1.0
 40
1.0
 10
338.920872885
 20
144.8244919317
 30
0.0
 10
338.8253398951
 20
144.8769994102
 30
0.0
 10
338.6237510352
 20
144.9661740551
 30
0.0
 10
338.3008328352
 20
145.0473151714
 30
0.0
 10
337.9627234094
 20
145.0748572383
 30
0.0
 10
337.6160120831
 20
145.0484417214
 30
0.0
 10
337.2671262203
 20
144.9687743182
 30
0.0
 10
336.8016523626
 20
144.7915510956
 30
0.0
 10
336.2499589815
 20
144.4439443173
 30
0.0
 10
335.6898603109
 20
143.8715850822
 30
0.0
 10
335.2593314331
 20
143.1786532997
 30
0.0
 10
334.9888567427
 20
142.4149045633
 30
0.0
 10
334.9270252957
 20
141.8805734862
 30
0.0
 10
334.9298217936
 20
141.6189095497
 30
0.0
  0
SPLINE
  5
5AE
100
AcDbEntity
  8
02___PRT_ALL_AXES
100
AcDbSpline
 62
7
  6
CONTINUOUS
 70
0
 71
3
 72
13
 73
9
 74
0
 42
0.0000001
 43
0.0000001
 44
0.0000000001
 40
0.0
 40
0.0
 40
0.0
 40
0.0
 40
0.1172172734
 40
0.2353746733
 40
0.3553369845
 40
0.4778348345
 40
0.7318850244
 40
1.0
 40
1.0
 40
1.0
 40
1.0
 10
336.0309335559
 20
139.5663378005
 30
0.0
 10
335.9474281132
 20
139.6122346184
 30
0.0
 10
335.7864145539
 20
139.717163954
 30
0.0
 10
335.5698039216
 20
139.9097617278
 30
0.0
 10
335.3806097141
 20
140.1350382817
 30
0.0
 10
335.1661083419
 20
140.4782928983
 30
0.0
 10
334.9814980265
 20
140.9752341663
 30
0.0
 10
334.9321510134
 20
141.4009680914
 30
0.0
 10
334.9298217936
 20
141.6189095497
 30
0.0
  0
SPLINE
  5
5AF
100
AcDbEntity
  8
7_ALL_FEATURES
100
AcDbSpline
 62
7
  6
CONTINUOUS
 70
0
 71
3
 72
16
 73
12
 74
0
 42
0.0000001
 43
0.0000001
 44
0.0000000001
 40
0.0
 40
0.0
 40
0.0
 40
0.0
 40
0.0517562333
 40
0.1054886772
 40
0.2193849894
 40
0.3420971198
 40
0.4718342905
 40
0.6056573085
 40
0.740204764
 40
0.8723817109
 40
1.0
 40
1.0
 40
1.0
 40
1.0
 10
338.6001493652
 20
139.7017362862
 30
0.0
 10
338.6595976951
 20
139.6997267576
 30
0.0
 10
338.7813202477
 20
139.7059568138
 30
0.0
 10
339.0288178276
 20
139.7582601757
 30
0.0
 10
339.3362566019
 20
139.8994024948
 30
0.0
 10
339.6660139953
 20
140.1671387136
 30
0.0
 10
339.9421921622
 20
140.5191643705
 30
0.0
 10
340.1447020554
 20
140.9331044608
 30
0.0
 10
340.2581598498
 20
141.3828299222
 30
0.0
 10
340.2726974164
 20
141.8393511886
 30
0.0
 10
340.2121815241
 20
142.1354006446
 30
0.0
 10
340.1642366753
 20
142.2740117686
 30
0.0
  0
SPLINE
  5
5B0
100
AcDbEntity
  8
02___PRT_ALL_AXES
100
AcDbSpline
 62
7
  6
CONTINUOUS
 70
0
 71
3
 72
15
 73
11
 74
0
 42
0.0000001
 43
0.0000001
 44
0.0000000001
 40
0.0
 40
0.0
 40
0.0
 40
0.0
 40
0.1258574843
 40
0.2555455547
 40
0.3870307667
 40
0.5179963342
 40
0.6462075027
 40
0.7698375103
 40
0.8877930036
 40
1.0
 40
1.0
 40
1.0
 40
1.0
 10
340.0219846474
 20
142.7719201825
 30
0.0
 10
340.0242445233
 20
142.5604671243
 30
0.0
 10
339.9848280339
 20
142.1297236076
 30
0.0
 10
339.8061725884
 20
141.5009970425
 30
0.0
 10
339.5157621862
 20
140.9057388365
 30
0.0
 10
339.1273050414
 20
140.3723877192
 30
0.0
 10
338.6590469645
 20
139.9261352889
 30
0.0
 10
338.1325137752
 20
139.5884620098
 30
0.0
 10
337.5724759571
 20
139.3762000262
 30
0.0
 10
337.1845533369
 20
139.3251312704
 30
0.0
 10
336.9960237756
 20
139.3249479396
 30
0.0
  0
SPLINE
  5
5B1
100
AcDbEntity
  8
02___PRT_ALL_AXES
100
AcDbSpline
 62
7
  6
CONTINUOUS
 70
0
 71
3
 72
9
 73
5
 74
0
 42
0.0000001
 43
0.0000001
 44
0.0000000001
 40
0.0
 40
0.0
 40
0.0
 40
0.0
 40
0.5054510879
 40
1.0
 40
1.0
 40
1.0
 40
1.0
 10
336.9960237756
 20
139.3249479396
 30
0.0
 10
336.8580797154
 20
139.3248137994
 30
0.0
 10
336.5843639412
 20
139.3506396918
 30
0.0
 10
336.3214562782
 20
139.4318525291
 30
0.0
 10
336.1974317297
 20
139.4850923939
 30
0.0
  0
SPLINE
  5
5B2
100
AcDbEntity
  8
02___PRT_ALL_AXES
100
AcDbSpline
 62
7
  6
CONTINUOUS
 70
0
 71
3
 72
10
 73
6
 74
0
 42
0.0000001
 43
0.0000001
 44
0.0000000001
 40
0.0
 40
0.0
 40
0.0
 40
0.0
 40
0.5146338598
 40
0.7609251986
 40
1.0
 40
1.0
 40
1.0
 40
1.0
 10
340.0219846474
 20
142.7719201825
 30
0.0
 10
340.0193467322
 20
143.0187457919
 30
0.0
 10
339.9713515794
 20
143.3861942061
 30
0.0
 10
339.8108349005
 20
143.8394347123
 30
0.0
 10
339.701251519
 20
144.0461015958
 30
0.0
 10
339.6396772662
 20
144.1428376276
 30
0.0
  0
SPLINE
  5
5B3
100
AcDbEntity
  8
02___PRT_ALL_AXES
100
AcDbSpline
 62
7
  6
CONTINUOUS
 70
0
 71
3
 72
9
 73
5
 74
0
 42
0.0000001
 43
0.0000001
 44
0.0000000001
 40
0.0
 40
0.0
 40
0.0
 40
0.0
 40
0.5053992286
 40
1.0
 40
1.0
 40
1.0
 40
1.0
 10
339.6396772662
 20
144.1428376276
 30
0.0
 10
339.566140781
 20
144.2583668861
 30
0.0
 10
339.3985349697
 20
144.4737885413
 30
0.0
 10
339.1905706491
 20
144.650922446
 30
0.0
 10
339.0799775569
 20
144.7266253134
 30
0.0
  0
SPLINE
  5
5B4
100
AcDbEntity
  8
7_ALL_FEATURES
100
AcDbSpline
 62
7
  6
CONTINUOUS
 70
0
 71
3
 72
9
 73
5
 74
0
 42
0.0000001
 43
0.0000001
 44
0.0000000001
 40
0.0
 40
0.0
 40
0.0
 40
0.0
 40
0.4895818841
 40
1.0
 40
1.0
 40
1.0
 40
1.0
 10
340.1990571703
 20
142.1495644829
 30
0.0
 10
340.2759104671
 20
142.0563254685
 30
0.0
 10
340.4028863096
 20
141.8397101241
 30
0.0
 10
340.4632714916
 20
141.5969974414
 30
0.0
 10
340.4782406212
 20
141.471917316
 30
0.0
  0
SPLINE
  5
5B5
100
AcDbEntity
  8
7_ALL_FEATURES
100
AcDbSpline
 62
7
  6
CONTINUOUS
 70
0
 71
3
 72
10
 73
6
 74
0
 42
0.0000001
 43
0.0000001
 44
0.0000000001
 40
0.0
 40
0.0
 40
0.0
 40
0.0
 40
0.2315987492
 40
0.4786077246
 40
1.0
 40
1.0
 40
1.0
 40
1.0
 10
374.295740488
 20
98.7339646473
 30
0.0
 10
374.3336096318
 20
98.9811438721
 30
0.0
 10
374.3818503464
 20
99.4968641074
 30
0.0
 10
374.377473564
 20
100.577599126
 30
0.0
 10
374.264422757
 20
101.4047341122
 30
0.0
 10
374.1452758289
 20
101.9549423261
 30
0.0
  0
SPLINE
  5
5B6
100
AcDbEntity
  8
7_ALL_FEATURES
100
AcDbSpline
 62
7
  6
CONTINUOUS
 70
0
 71
3
 72
9
 73
5
 74
0
 42
0.0000001
 43
0.0000001
 44
0.0000000001
 40
0.0
 40
0.0
 40
0.0
 40
0.0
 40
0.2013588782
 40
1.0
 40
1.0
 40
1.0
 40
1.0
 10
303.4818507014
 20
94.8238813615
 30
0.0
 10
303.4819054333
 20
94.8189851463
 30
0.0
 10
303.4875838159
 20
94.7945777506
 30
0.0
 10
303.5101993366
 20
94.7788388262
 30
0.0
 10
303.5272184599
 20
94.7694836482
 30
0.0
  0
SPLINE
  5
5B7
100
AcDbEntity
  8
7_ALL_FEATURES
100
AcDbSpline
 62
7
  6
CONTINUOUS
 70
0
 71
3
 72
10
 73
6
 74
0
 42
0.0000001
 43
0.0000001
 44
0.0000000001
 40
0.0
 40
0.0
 40
0.0
 40
0.0
 40
0.3509115324
 40
0.6371745255
 40
1.0
 40
1.0
 40
1.0
 40
1.0
 10
369.6464232699
 20
90.0414862799
 30
0.0
 10
369.6663811388
 20
90.0460053095
 30
0.0
 10
369.7026663103
 20
90.0566063091
 30
0.0
 10
369.7543073885
 20
90.0789944045
 30
0.0
 10
369.78799878
 20
90.1107830916
 30
0.0
 10
369.7877622837
 20
90.1319396134
 30
0.0
  0
SPLINE
  5
5B8
100
AcDbEntity
  8
7_ALL_FEATURES
100
AcDbSpline
 62
7
  6
CONTINUOUS
 70
0
 71
3
 72
11
 73
7
 74
0
 42
0.0000001
 43
0.0000001
 44
0.0000000001
 40
0.0
 40
0.0
 40
0.0
 40
0.0
 40
0.2025129236
 40
0.4588795317
 40
0.7370465905
 40
1.0
 40
1.0
 40
1.0
 40
1.0
 10
328.7504835519
 20
80.9046017323
 30
0.0
 10
328.7753629599
 20
80.8909258638
 30
0.0
 10
328.8375503024
 20
80.8711577501
 30
0.0
 10
328.9400746449
 20
80.857072916
 30
0.0
 10
329.0522231329
 20
80.8569946275
 30
0.0
 10
329.1277751512
 20
80.8669108685
 30
0.0
 10
329.163728582
 20
80.8750517487
 30
0.0
  0
SPLINE
  5
5B9
100
AcDbEntity
  8
7_ALL_FEATURES
100
AcDbSpline
 62
7
  6
CONTINUOUS
 70
0
 71
3
 72
9
 73
5
 74
0
 42
0.0000001
 43
0.0000001
 44
0.0000000001
 40
0.0
 40
0.0
 40
0.0
 40
0.0
 40
0.2013588782
 40
1.0
 40
1.0
 40
1.0
 40
1.0
 10
369.7877622837
 20
90.1319396134
 30
0.0
 10
369.7877075518
 20
90.1368358286
 30
0.0
 10
369.7820291692
 20
90.1612432243
 30
0.0
 10
369.7594136485
 20
90.1769821487
 30
0.0
 10
369.7423945252
 20
90.1863373267
 30
0.0
  0
SPLINE
  5
5BA
100
AcDbEntity
  8
7_ALL_FEATURES
100
AcDbSpline
 62
7
  6
CONTINUOUS
 70
0
 71
3
 72
10
 73
6
 74
0
 42
0.0000001
 43
0.0000001
 44
0.0000000001
 40
0.0
 40
0.0
 40
0.0
 40
0.0
 40
0.3509115324
 40
0.6371745255
 40
1.0
 40
1.0
 40
1.0
 40
1.0
 10
303.6231897152
 20
94.9143346951
 30
0.0
 10
303.6032318463
 20
94.9098156654
 30
0.0
 10
303.5669466748
 20
94.8992146658
 30
0.0
 10
303.5153055966
 20
94.8768265704
 30
0.0
 10
303.4816142051
 20
94.8450378833
 30
0.0
 10
303.4818507014
 20
94.8238813615
 30
0.0
  0
SPLINE
  5
5BB
100
AcDbEntity
  8
7_ALL_FEATURES
100
AcDbSpline
 62
7
  6
CONTINUOUS
 70
0
 71
3
 72
11
 73
7
 74
0
 42
0.0000001
 43
0.0000001
 44
0.0000000001
 40
0.0
 40
0.0
 40
0.0
 40
0.0
 40
0.2025129236
 40
0.4588795317
 40
0.7370465905
 40
1.0
 40
1.0
 40
1.0
 40
1.0
 10
344.5191294332
 20
104.0512192426
 30
0.0
 10
344.4942500252
 20
104.0648951111
 30
0.0
 10
344.4320626827
 20
104.0846632248
 30
0.0
 10
344.3295383402
 20
104.0987480589
 30
0.0
 10
344.2173898521
 20
104.0988263474
 30
0.0
 10
344.1418378338
 20
104.0889101064
 30
0.0
 10
344.1058844031
 20
104.0807692262
 30
0.0
  0
SPLINE
  5
5BC
100
AcDbEntity
  8
7_ALL_FEATURES
100
AcDbSpline
 62
7
  6
CONTINUOUS
 70
0
 71
3
 72
9
 73
5
 74
0
 42
0.0000001
 43
0.0000001
 44
0.0000000001
 40
0.0
 40
0.0
 40
0.0
 40
0.0
 40
0.4881823864
 40
1.0
 40
1.0
 40
1.0
 40
1.0
 10
342.4712673016
 20
147.2161290496
 30
0.0
 10
342.3994300275
 20
147.2556052779
 30
0.0
 10
342.2348224827
 20
147.3076533674
 30
0.0
 10
342.0635081482
 20
147.2960367497
 30
0.0
 10
341.9796920854
 20
147.277058407
 30
0.0
  0
SPLINE
  5
5BD
100
AcDbEntity
  8
7_ALL_FEATURES
100
AcDbSpline
 62
7
  6
CONTINUOUS
 70
0
 71
3
 72
12
 73
8
 74
0
 42
0.0000001
 43
0.0000001
 44
0.0000000001
 40
0.0
 40
0.0
 40
0.0
 40
0.0
 40
0.112599541
 40
0.228077066
 40
0.4699430325
 40
0.7285414143
 40
1.0
 40
1.0
 40
1.0
 40
1.0
 10
337.3518746791
 20
139.2318879268
 30
0.0
 10
337.4590267027
 20
139.2011683355
 30
0.0
 10
337.6825170711
 20
139.1594728043
 30
0.0
 10
338.1498150983
 20
139.1580256305
 30
0.0
 10
338.7509286674
 20
139.3154795662
 30
0.0
 10
339.4092037318
 20
139.7209490042
 30
0.0
 10
339.7747706769
 20
140.1064670062
 30
0.0
 10
339.93496885
 20
140.3222295571
 30
0.0
  0
SPLINE
  5
5BE
100
AcDbEntity
  8
7_ALL_FEATURES
100
AcDbSpline
 62
7
  6
CONTINUOUS
 70
0
 71
3
 72
9
 73
5
 74
0
 42
0.0000001
 43
0.0000001
 44
0.0000000001
 40
0.0
 40
0.0
 40
0.0
 40
0.0
 40
0.5077002801
 40
1.0
 40
1.0
 40
1.0
 40
1.0
 10
339.93496885
 20
140.3222295571
 30
0.0
 10
340.1442643739
 20
140.6041187651
 30
0.0
 10
340.4714935119
 20
141.2273111951
 30
0.0
 10
340.5906386507
 20
141.9233103489
 30
0.0
 10
340.5870004228
 20
142.2637336557
 30
0.0
  0
SPLINE
  5
5BF
100
AcDbEntity
  8
7_ALL_FEATURES
100
AcDbSpline
 62
7
  6
CONTINUOUS
 70
0
 71
3
 72
15
 73
11
 74
0
 42
0.0000001
 43
0.0000001
 44
0.0000000001
 40
0.0
 40
0.0
 40
0.0
 40
0.0
 40
0.1093743545
 40
0.2242148198
 40
0.3457483233
 40
0.4734934315
 40
0.6056010454
 40
0.7393542923
 40
0.8717489522
 40
1.0
 40
1.0
 40
1.0
 40
1.0
 10
304.9317711764
 20
131.8910535643
 30
0.0
 10
305.1087821808
 20
131.840305986
 30
0.0
 10
305.4901807123
 20
131.7936790903
 30
0.0
 10
306.070895783
 20
131.8915213497
 30
0.0
 10
306.6356487218
 20
132.1450710774
 30
0.0
 10
307.1507457672
 20
132.5368540071
 30
0.0
 10
307.5864223814
 20
133.0422188259
 30
0.0
 10
307.9170666092
 20
133.6306679056
 30
0.0
 10
308.1228377879
 20
134.2664805656
 30
0.0
 10
308.1692044306
 20
134.7069891403
 30
0.0
 10
308.1668969201
 20
134.9228992933
 30
0.0
  0
SPLINE
  5
5C0
100
AcDbEntity
  8
7_ALL_FEATURES
100
AcDbSpline
 62
7
  6
CONTINUOUS
 70
0
 71
3
 72
11
 73
7
 74
0
 42
0.0000001
 43
0.0000001
 44
0.0000000001
 40
0.0
 40
0.0
 40
0.0
 40
0.0
 40
0.266089256
 40
0.5208276702
 40
0.7645329975
 40
1.0
 40
1.0
 40
1.0
 40
1.0
 10
308.1668969201
 20
134.9228992933
 30
0.0
 10
308.1651481314
 20
135.0865307195
 30
0.0
 10
308.1333934317
 20
135.4074345282
 30
0.0
 10
307.9963921811
 20
135.860572128
 30
0.0
 10
307.775069505
 20
136.2580645963
 30
0.0
 10
307.5738092866
 20
136.4778977153
 30
0.0
 10
307.4635099061
 20
136.5717250329
 30
0.0
  0
SPLINE
  5
5C1
100
AcDbEntity
  8
7_ALL_FEATURES
100
AcDbSpline
 62
7
  6
CONTINUOUS
 70
0
 71
3
 72
11
 73
7
 74
0
 42
0.0000001
 43
0.0000001
 44
0.0000000001
 40
0.0
 40
0.0
 40
0.0
 40
0.0
 40
0.266089256
 40
0.5208276702
 40
0.7645329975
 40
1.0
 40
1.0
 40
1.0
 40
1.0
 10
340.5870004228
 20
142.2637336557
 30
0.0
 10
340.5852516341
 20
142.4273650819
 30
0.0
 10
340.5534969345
 20
142.7482688906
 30
0.0
 10
340.4164956838
 20
143.2014064904
 30
0.0
 10
340.1951730077
 20
143.5988989587
 30
0.0
 10
339.9939127893
 20
143.8187320778
 30
0.0
 10
339.8836134088
 20
143.9125593954
 30
0.0
  0
SPLINE
  5
5C2
100
AcDbEntity
  8
7_ALL_FEATURES
100
AcDbSpline
 62
7
  6
CONTINUOUS
 70
0
 71
3
 72
11
 73
7
 74
0
 42
0.0000001
 43
0.0000001
 44
0.0000000001
 40
0.0
 40
0.0
 40
0.0
 40
0.0
 40
0.2359727302
 40
0.4892035239
 40
0.7485348633
 40
1.0
 40
1.0
 40
1.0
 40
1.0
 10
302.0910830637
 20
138.245141783
 30
0.0
 10
301.9756826211
 20
138.2190118376
 30
0.0
 10
301.7469618712
 20
138.112530942
 30
0.0
 10
301.4759838876
 20
137.8440447053
 30
0.0
 10
301.2953228005
 20
137.4997011276
 30
0.0
 10
301.2510593248
 20
137.2417284338
 30
0.0
 10
301.2524068173
 20
137.1156456631
 30
0.0
  0
SPLINE
  5
5C3
100
AcDbEntity
  8
7_ALL_FEATURES
100
AcDbSpline
 62
7
  6
CONTINUOUS
 70
0
 71
3
 72
9
 73
5
 74
0
 42
0.0000001
 43
0.0000001
 44
0.0000000001
 40
0.0
 40
0.0
 40
0.0
 40
0.0
 40
0.2300056468
 40
1.0
 40
1.0
 40
1.0
 40
1.0
 10
301.3386802004
 20
128.5639021829
 30
0.0
 10
301.3402034545
 20
128.5726671147
 30
0.0
 10
301.3452975342
 20
128.6110380345
 30
0.0
 10
301.3449614173
 20
128.6500107639
 30
0.0
 10
301.34256488
 20
128.6796965336
 30
0.0
  0
SPLINE
  5
5C4
100
AcDbEntity
  8
7_ALL_FEATURES
100
AcDbSpline
 62
7
  6
CONTINUOUS
 70
0
 71
3
 72
11
 73
7
 74
0
 42
0.0000001
 43
0.0000001
 44
0.0000000001
 40
0.0
 40
0.0
 40
0.0
 40
0.0
 40
0.2654571025
 40
0.5200205537
 40
0.7635103373
 40
1.0
 40
1.0
 40
1.0
 40
1.0
 10
300.2395039273
 20
103.1893781813
 30
0.0
 10
300.2615242481
 20
103.093252823
 30
0.0
 10
300.3301588248
 20
102.9095279429
 30
0.0
 10
300.5039075246
 20
102.6799506771
 30
0.0
 10
300.7324007192
 20
102.5219538109
 30
0.0
 10
300.9092226596
 20
102.475729584
 30
0.0
 10
300.9968294499
 20
102.4691419238
 30
0.0
  0
SPLINE
  5
5C5
100
AcDbEntity
  8
7_ALL_FEATURES
100
AcDbSpline
 62
7
  6
CONTINUOUS
 70
0
 71
3
 72
10
 73
6
 74
0
 42
0.0000001
 43
0.0000001
 44
0.0000000001
 40
0.0
 40
0.0
 40
0.0
 40
0.0
 40
0.529688853
 40
0.7744095463
 40
1.0
 40
1.0
 40
1.0
 40
1.0
 10
298.7170697999
 20
110.2504836449
 30
0.0
 10
298.6359017709
 20
110.793656551
 30
0.0
 10
298.5783299058
 20
111.60012551
 30
0.0
 10
298.6536487234
 20
112.6354810311
 30
0.0
 10
298.7420813036
 20
113.1165327285
 30
0.0
 10
298.8000584016
 20
113.3431352769
 30
0.0
  0
SPLINE
  5
5C6
100
AcDbEntity
  8
7_ALL_FEATURES
100
AcDbSpline
 62
7
  6
CONTINUOUS
 70
0
 71
3
 72
9
 73
5
 74
0
 42
0.0000001
 43
0.0000001
 44
0.0000000001
 40
0.0
 40
0.0
 40
0.0
 40
0.0
 40
0.5209353262
 40
1.0
 40
1.0
 40
1.0
 40
1.0
 10
342.8384034569
 20
146.5318991647
 30
0.0
 10
342.8371709332
 20
146.6472244875
 30
0.0
 10
342.7978738776
 20
146.8711087995
 30
0.0
 10
342.6687851558
 20
147.0616550188
 30
0.0
 10
342.5896763957
 20
147.1323016904
 30
0.0
  0
SPLINE
  5
5C7
100
AcDbEntity
  8
7_ALL_FEATURES
100
AcDbSpline
 62
7
  6
CONTINUOUS
 70
0
 71
3
 72
9
 73
5
 74
0
 42
0.0000001
 43
0.0000001
 44
0.0000000001
 40
0.0
 40
0.0
 40
0.0
 40
0.0
 40
0.2344927422
 40
1.0
 40
1.0
 40
1.0
 40
1.0
 10
342.9069534886
 20
137.9761426132
 30
0.0
 10
342.9099797159
 20
137.9851814346
 30
0.0
 10
342.9212882484
 20
138.024260114
 30
0.0
 10
342.9267842942
 20
138.0648834992
 30
0.0
 10
342.9285615197
 20
138.0959500352
 30
0.0
  0
SPLINE
  5
5C8
100
AcDbEntity
  8
7_ALL_FEATURES
100
AcDbSpline
 62
7
  6
CONTINUOUS
 70
0
 71
3
 72
9
 73
5
 74
0
 42
0.0000001
 43
0.0000001
 44
0.0000000001
 40
0.0
 40
0.0
 40
0.0
 40
0.0
 40
0.2466828812
 40
1.0
 40
1.0
 40
1.0
 40
1.0
 10
337.3140535381
 20
110.6586704216
 30
0.0
 10
337.3350562309
 20
110.6634260292
 30
0.0
 10
337.4193485959
 20
110.6863294424
 30
0.0
 10
337.4996826776
 20
110.7233941054
 30
0.0
 10
337.5557846217
 20
110.7577034453
 30
0.0
  0
SPLINE
  5
5C9
100
AcDbEntity
  8
7_ALL_FEATURES
100
AcDbSpline
 62
7
  6
CONTINUOUS
 70
0
 71
3
 72
11
 73
7
 74
0
 42
0.0000001
 43
0.0000001
 44
0.0000000001
 40
0.0
 40
0.0
 40
0.0
 40
0.0
 40
0.2378869826
 40
0.4860964968
 40
0.741820943
 40
1.0
 40
1.0
 40
1.0
 40
1.0
 10
337.5557846217
 20
110.7577034453
 30
0.0
 10
337.6332377819
 20
110.805070196
 30
0.0
 10
337.7765266345
 20
110.9281011364
 30
0.0
 10
337.932119129
 20
111.1686818324
 30
0.0
 10
338.0218450335
 20
111.4486606496
 30
0.0
 10
338.0328745313
 20
111.6469850755
 30
0.0
 10
338.0257523081
 20
111.7452605066
 30
0.0
  0
SPLINE
  5
5CA
100
AcDbEntity
  8
7_ALL_FEATURES
100
AcDbSpline
 62
7
  6
CONTINUOUS
 70
0
 71
3
 72
10
 73
6
 74
0
 42
0.0000001
 43
0.0000001
 44
0.0000000001
 40
0.0
 40
0.0
 40
0.0
 40
0.0
 40
0.529688853
 40
0.7744095463
 40
1.0
 40
1.0
 40
1.0
 40
1.0
 10
337.407274043
 20
119.0110473111
 30
0.0
 10
337.3261060141
 20
119.5542202171
 30
0.0
 10
337.2685341489
 20
120.3606891762
 30
0.0
 10
337.3438529665
 20
121.3960446972
 30
0.0
 10
337.4322855467
 20
121.8770963946
 30
0.0
 10
337.4902626448
 20
122.1036989431
 30
0.0
  0
SPLINE
  5
5CB
100
AcDbEntity
  8
7_ALL_FEATURES
100
AcDbSpline
 62
7
  6
CONTINUOUS
 70
0
 71
3
 72
9
 73
5
 74
0
 42
0.0000001
 43
0.0000001
 44
0.0000000001
 40
0.0
 40
0.0
 40
0.0
 40
0.0
 40
0.5124355934
 40
1.0
 40
1.0
 40
1.0
 40
1.0
 10
339.5600141744
 20
139.9015003256
 30
0.0
 10
339.4686907038
 20
139.8550483542
 30
0.0
 10
339.2806210376
 20
139.7822109744
 30
0.0
 10
339.0803773488
 20
139.7541260398
 30
0.0
 10
338.9828960912
 20
139.7531918329
 30
0.0
  0
SPLINE
  5
5CC
100
AcDbEntity
  8
7_ALL_FEATURES
100
AcDbSpline
 62
7
  6
CONTINUOUS
 70
0
 71
3
 72
13
 73
9
 74
0
 42
0.0000001
 43
0.0000001
 44
0.0000000001
 40
0.0
 40
0.0
 40
0.0
 40
0.0
 40
0.1088832285
 40
0.2220096231
 40
0.3420388449
 40
0.4693755626
 40
0.7364450105
 40
1.0
 40
1.0
 40
1.0
 40
1.0
 10
302.7682235849
 20
168.512688661
 30
0.0
 10
302.7037205946
 20
168.5481495185
 30
0.0
 10
302.5583815152
 20
168.5976818796
 30
0.0
 10
302.323479276
 20
168.5963951291
 30
0.0
 10
302.0877048957
 20
168.522966626
 30
0.0
 10
301.7908582605
 20
168.3357214559
 30
0.0
 10
301.5088596056
 20
167.9727065661
 30
0.0
 10
301.42107016
 20
167.6103829116
 30
0.0
 10
301.4229742168
 20
167.4322232876
 30
0.0
  0
SPLINE
  5
5CD
100
AcDbEntity
  8
7_ALL_FEATURES
100
AcDbSpline
 62
7
  6
CONTINUOUS
 70
0
 71
3
 72
9
 73
5
 74
0
 42
0.0000001
 43
0.0000001
 44
0.0000000001
 40
0.0
 40
0.0
 40
0.0
 40
0.0
 40
0.2469399963
 40
1.0
 40
1.0
 40
1.0
 40
1.0
 10
341.8727693058
 20
148.4745702911
 30
0.0
 10
341.8726475437
 20
148.4617831453
 30
0.0
 10
341.8711900013
 20
148.4100131438
 30
0.0
 10
341.8659580126
 20
148.3583597641
 30
0.0
 10
341.8600611988
 20
148.3198111536
 30
0.0
  0
SPLINE
  5
5CE
100
AcDbEntity
  8
7_ALL_FEATURES
100
AcDbSpline
 62
7
  6
CONTINUOUS
 70
0
 71
3
 72
13
 73
9
 74
0
 42
0.0000001
 43
0.0000001
 44
0.0000000001
 40
0.0
 40
0.0
 40
0.0
 40
0.0
 40
0.1088838397
 40
0.2219302494
 40
0.341779456
 40
0.4688852836
 40
0.7357541967
 40
1.0
 40
1.0
 40
1.0
 40
1.0
 10
343.4867589114
 20
177.7323579412
 30
0.0
 10
343.4229172124
 20
177.7674695475
 30
0.0
 10
343.2792911822
 20
177.8167981683
 30
0.0
 10
343.0470051528
 20
177.816758551
 30
0.0
 10
342.8134498174
 20
177.7459390764
 30
0.0
 10
342.5183257385
 20
177.5635101118
 30
0.0
 10
342.2353059879
 20
177.2072571922
 30
0.0
 10
342.1429672236
 20
176.8500677939
 30
0.0
 10
342.1412835691
 20
176.6732546813
 30
0.0
  0
SPLINE
  5
5CF
100
AcDbEntity
  8
7_ALL_FEATURES
100
AcDbSpline
 62
7
  6
CONTINUOUS
 70
0
 71
3
 72
9
 73
5
 74
0
 42
0.0000001
 43
0.0000001
 44
0.0000000001
 40
0.0
 40
0.0
 40
0.0
 40
0.0
 40
0.2469399963
 40
1.0
 40
1.0
 40
1.0
 40
1.0
 10
307.9250169469
 20
140.7878327388
 30
0.0
 10
307.9248951848
 20
140.775045593
 30
0.0
 10
307.9234376424
 20
140.7232755915
 30
0.0
 10
307.9182056538
 20
140.6716222117
 30
0.0
 10
307.9123088399
 20
140.6330736013
 30
0.0
  0
SPLINE
  5
5D0
100
AcDbEntity
  8
7_ALL_FEATURES
100
AcDbSpline
 62
7
  6
CONTINUOUS
 70
0
 71
3
 72
10
 73
6
 74
0
 42
0.0000001
 43
0.0000001
 44
0.0000000001
 40
0.0
 40
0.0
 40
0.0
 40
0.0
 40
0.2359195073
 40
0.4789409642
 40
1.0
 40
1.0
 40
1.0
 40
1.0
 10
369.92624014
 20
163.1989387421
 30
0.0
 10
369.98257888
 20
163.1679536071
 30
0.0
 10
370.0879363023
 20
163.086960194
 30
0.0
 10
370.2489123548
 20
162.8634109799
 30
0.0
 10
370.2956282808
 20
162.6492267204
 30
0.0
 10
370.297145894
 20
162.5072260289
 30
0.0
  0
SPLINE
  5
5D1
100
AcDbEntity
  8
7_ALL_FEATURES
100
AcDbSpline
 62
7
  6
CONTINUOUS
 70
0
 71
3
 72
13
 73
9
 74
0
 42
0.0000001
 43
0.0000001
 44
0.0000000001
 40
0.0
 40
0.0
 40
0.0
 40
0.0
 40
0.1088841765
 40
0.2219321724
 40
0.3417831085
 40
0.468889997
 40
0.7357587071
 40
1.0
 40
1.0
 40
1.0
 40
1.0
 10
309.553980551
 20
170.0471493843
 30
0.0
 10
309.4894177069
 20
170.0826480551
 30
0.0
 10
309.3441582027
 20
170.1324803932
 30
0.0
 10
309.1092660357
 20
170.1324020003
 30
0.0
 10
308.8730944925
 20
170.0607543431
 30
0.0
 10
308.5746731517
 20
169.8762487328
 30
0.0
 10
308.2884996974
 20
169.5159820921
 30
0.0
 10
308.1951334981
 20
169.1547853252
 30
0.0
 10
308.1934309659
 20
168.9759897338
 30
0.0
  0
SPLINE
  5
5D2
100
AcDbEntity
  8
7_ALL_FEATURES
100
AcDbSpline
 62
7
  6
CONTINUOUS
 70
0
 71
3
 72
13
 73
9
 74
0
 42
0.0000001
 43
0.0000001
 44
0.0000000001
 40
0.0
 40
0.0
 40
0.0
 40
0.0
 40
0.1088841765
 40
0.2219321724
 40
0.3417831085
 40
0.468889997
 40
0.7357587071
 40
1.0
 40
1.0
 40
1.0
 40
1.0
 10
316.3435310228
 20
171.5844968948
 30
0.0
 10
316.2789681787
 20
171.6199955655
 30
0.0
 10
316.1337086745
 20
171.6698279037
 30
0.0
 10
315.8988165075
 20
171.6697495108
 30
0.0
 10
315.6626449642
 20
171.5981018536
 30
0.0
 10
315.3642236235
 20
171.4135962433
 30
0.0
 10
315.0780501692
 20
171.0533296025
 30
0.0
 10
314.9846839699
 20
170.6921328356
 30
0.0
 10
314.9829814377
 20
170.5133372443
 30
0.0
  0
SPLINE
  5
5D3
100
AcDbEntity
  8
7_ALL_FEATURES
100
AcDbSpline
 62
7
  6
CONTINUOUS
 70
0
 71
3
 72
13
 73
9
 74
0
 42
0.0000001
 43
0.0000001
 44
0.0000000001
 40
0.0
 40
0.0
 40
0.0
 40
0.0
 40
0.1088841765
 40
0.2219321724
 40
0.3417831085
 40
0.468889997
 40
0.7357587071
 40
1.0
 40
1.0
 40
1.0
 40
1.0
 10
323.1330814946
 20
173.1218444052
 30
0.0
 10
323.0685186505
 20
173.157343076
 30
0.0
 10
322.9232591463
 20
173.2071754142
 30
0.0
 10
322.6883669793
 20
173.2070970213
 30
0.0
 10
322.452195436
 20
173.135449364
 30
0.0
 10
322.1537740953
 20
172.9509437538
 30
0.0
 10
321.867600641
 20
172.590677113
 30
0.0
 10
321.7742344416
 20
172.2294803461
 30
0.0
 10
321.7725319095
 20
172.0506847548
 30
0.0
  0
SPLINE
  5
5D4
100
AcDbEntity
  8
7_ALL_FEATURES
100
AcDbSpline
 62
7
  6
CONTINUOUS
 70
0
 71
3
 72
13
 73
9
 74
0
 42
0.0000001
 43
0.0000001
 44
0.0000000001
 40
0.0
 40
0.0
 40
0.0
 40
0.0
 40
0.1088841765
 40
0.2219321724
 40
0.3417831085
 40
0.468889997
 40
0.7357587071
 40
1.0
 40
1.0
 40
1.0
 40
1.0
 10
329.9226319663
 20
174.6591919157
 30
0.0
 10
329.8580691222
 20
174.6946905864
 30
0.0
 10
329.7128096181
 20
174.7445229246
 30
0.0
 10
329.4779174511
 20
174.7444445317
 30
0.0
 10
329.2417459078
 20
174.6727968745
 30
0.0
 10
328.9433245671
 20
174.4882912642
 30
0.0
 10
328.6571511127
 20
174.1280246235
 30
0.0
 10
328.5637849134
 20
173.7668278566
 30
0.0
 10
328.5620823813
 20
173.5880322652
 30
0.0
  0
SPLINE
  5
5D5
100
AcDbEntity
  8
7_ALL_FEATURES
100
AcDbSpline
 62
7
  6
CONTINUOUS
 70
0
 71
3
 72
13
 73
9
 74
0
 42
0.0000001
 43
0.0000001
 44
0.0000000001
 40
0.0
 40
0.0
 40
0.0
 40
0.0
 40
0.1088841765
 40
0.2219321724
 40
0.3417831085
 40
0.468889997
 40
0.7357587071
 40
1.0
 40
1.0
 40
1.0
 40
1.0
 10
336.7121824381
 20
176.1965394262
 30
0.0
 10
336.647619594
 20
176.2320380969
 30
0.0
 10
336.5023600898
 20
176.2818704351
 30
0.0
 10
336.2674679228
 20
176.2817920422
 30
0.0
 10
336.0312963796
 20
176.210144385
 30
0.0
 10
335.7328750388
 20
176.0256387747
 30
0.0
 10
335.4467015845
 20
175.6653721339
 30
0.0
 10
335.3533353852
 20
175.304175367
 30
0.0
 10
335.351632853
 20
175.1253797757
 30
0.0
  0
SPLINE
  5
5D6
100
AcDbEntity
  8
7_ALL_FEATURES
100
AcDbSpline
 62
7
  6
CONTINUOUS
 70
0
 71
3
 72
9
 73
5
 74
0
 42
0.0000001
 43
0.0000001
 44
0.0000000001
 40
0.0
 40
0.0
 40
0.0
 40
0.0
 40
0.2460632855
 40
1.0
 40
1.0
 40
1.0
 40
1.0
 10
307.7575177438
 20
135.0990650046
 30
0.0
 10
307.7790266048
 20
135.0784331738
 30
0.0
 10
307.8627829803
 20
134.9908147375
 30
0.0
 10
307.9309967771
 20
134.8886667155
 30
0.0
 10
307.9725849221
 20
134.8073655546
 30
0.0
  0
SPLINE
  5
5D7
100
AcDbEntity
  8
7_ALL_FEATURES
100
AcDbSpline
 62
7
  6
CONTINUOUS
 70
0
 71
3
 72
9
 73
5
 74
0
 42
0.0000001
 43
0.0000001
 44
0.0000000001
 40
0.0
 40
0.0
 40
0.0
 40
0.0
 40
0.242805176
 40
1.0
 40
1.0
 40
1.0
 40
1.0
 10
307.9725849221
 20
134.8073655546
 30
0.0
 10
307.9910721309
 20
134.7712246896
 30
0.0
 10
308.0595464766
 20
134.6184986157
 30
0.0
 10
308.0970082883
 20
134.4525252013
 30
0.0
 10
308.1091845078
 20
134.3265160447
 30
0.0
  0
SPLINE
  5
5D8
100
AcDbEntity
  8
7_ALL_FEATURES
100
AcDbSpline
 62
7
  6
CONTINUOUS
 70
0
 71
3
 72
9
 73
5
 74
0
 42
0.0000001
 43
0.0000001
 44
0.0000000001
 40
0.0
 40
0.0
 40
0.0
 40
0.0
 40
0.5124199895
 40
1.0
 40
1.0
 40
1.0
 40
1.0
 10
307.1394358644
 20
132.5604386493
 30
0.0
 10
307.0488069049
 20
132.51437195
 30
0.0
 10
306.8622439301
 20
132.4420235096
 30
0.0
 10
306.6636551366
 20
132.4136894126
 30
0.0
 10
306.5669271514
 20
132.4123986101
 30
0.0
  0
SPLINE
  5
5D9
100
AcDbEntity
  8
7_ALL_FEATURES
100
AcDbSpline
 62
7
  6
CONTINUOUS
 70
0
 71
3
 72
10
 73
6
 74
0
 42
0.0000001
 43
0.0000001
 44
0.0000000001
 40
0.0
 40
0.0
 40
0.0
 40
0.0
 40
0.5203978505
 40
0.7636004714
 40
1.0
 40
1.0
 40
1.0
 40
1.0
 10
330.2974283852
 20
173.980964002
 30
0.0
 10
330.2930848227
 20
174.1207040193
 30
0.0
 10
330.2433869741
 20
174.3305053232
 30
0.0
 10
330.0825183655
 20
174.5491234671
 30
0.0
 10
329.978284338
 20
174.6285925013
 30
0.0
 10
329.9226319663
 20
174.6591919157
 30
0.0
  0
SPLINE
  5
5DA
100
AcDbEntity
  8
7_ALL_FEATURES
100
AcDbSpline
 62
7
  6
CONTINUOUS
 70
0
 71
3
 72
9
 73
5
 74
0
 42
0.0000001
 43
0.0000001
 44
0.0000000001
 40
0.0
 40
0.0
 40
0.0
 40
0.0
 40
0.2472303537
 40
1.0
 40
1.0
 40
1.0
 40
1.0
 10
337.9711033235
 20
147.4392403805
 30
0.0
 10
337.9688382758
 20
147.4513263286
 30
0.0
 10
337.9606505372
 20
147.5003902941
 30
0.0
 10
337.9563198195
 20
147.5500892241
 30
0.0
 10
337.9551566242
 20
147.5875112541
 30
0.0
  0
SPLINE
  5
5DB
100
AcDbEntity
  8
7_ALL_FEATURES
100
AcDbSpline
 62
7
  6
CONTINUOUS
 70
0
 71
3
 72
10
 73
6
 74
0
 42
0.0000001
 43
0.0000001
 44
0.0000000001
 40
0.0
 40
0.0
 40
0.0
 40
0.0
 40
0.5203978505
 40
0.7636004714
 40
1.0
 40
1.0
 40
1.0
 40
1.0
 10
316.7183274416
 20
170.9062689811
 30
0.0
 10
316.7139838791
 20
171.0460089984
 30
0.0
 10
316.6642860306
 20
171.2558103023
 30
0.0
 10
316.503417422
 20
171.4744284462
 30
0.0
 10
316.3991833945
 20
171.5538974804
 30
0.0
 10
316.3435310228
 20
171.5844968948
 30
0.0
  0
SPLINE
  5
5DC
100
AcDbEntity
  8
7_ALL_FEATURES
100
AcDbSpline
 62
7
  6
CONTINUOUS
 70
0
 71
3
 72
10
 73
6
 74
0
 42
0.0000001
 43
0.0000001
 44
0.0000000001
 40
0.0
 40
0.0
 40
0.0
 40
0.0
 40
0.5203978505
 40
0.7636004714
 40
1.0
 40
1.0
 40
1.0
 40
1.0
 10
337.0869788569
 20
175.5183115125
 30
0.0
 10
337.0826352944
 20
175.6580515298
 30
0.0
 10
337.0329374459
 20
175.8678528336
 30
0.0
 10
336.8720688373
 20
176.0864709775
 30
0.0
 10
336.7678348098
 20
176.1659400118
 30
0.0
 10
336.7121824381
 20
176.1965394262
 30
0.0
  0
SPLINE
  5
5DD
100
AcDbEntity
  8
7_ALL_FEATURES
100
AcDbSpline
 62
7
  6
CONTINUOUS
 70
0
 71
3
 72
9
 73
5
 74
0
 42
0.0000001
 43
0.0000001
 44
0.0000000001
 40
0.0
 40
0.0
 40
0.0
 40
0.0
 40
0.4889660017
 40
1.0
 40
1.0
 40
1.0
 40
1.0
 10
340.1733523202
 20
142.5048428413
 30
0.0
 10
340.2338848315
 20
142.4897609347
 30
0.0
 10
340.3626286791
 20
142.476734073
 30
0.0
 10
340.4899815592
 20
142.4974055037
 30
0.0
 10
340.5527327498
 20
142.5151012466
 30
0.0
  0
SPLINE
  5
5DE
100
AcDbEntity
  8
7_ALL_FEATURES
100
AcDbSpline
 62
7
  6
CONTINUOUS
 70
0
 71
3
 72
10
 73
6
 74
0
 42
0.0000001
 43
0.0000001
 44
0.0000000001
 40
0.0
 40
0.0
 40
0.0
 40
0.0
 40
0.5203995093
 40
0.763599995
 40
1.0
 40
1.0
 40
1.0
 40
1.0
 10
303.1389022608
 20
167.8420052406
 30
0.0
 10
303.1346068156
 20
167.9801972409
 30
0.0
 10
303.0854531707
 20
168.1876732377
 30
0.0
 10
302.9263536481
 20
168.4038620852
 30
0.0
 10
302.8232611507
 20
168.4824314704
 30
0.0
 10
302.7682235849
 20
168.512688661
 30
0.0
  0
SPLINE
  5
5DF
100
AcDbEntity
  8
7_ALL_FEATURES
100
AcDbSpline
 62
7
  6
CONTINUOUS
 70
0
 71
3
 72
10
 73
6
 74
0
 42
0.0000001
 43
0.0000001
 44
0.0000000001
 40
0.0
 40
0.0
 40
0.0
 40
0.0
 40
0.5210590358
 40
0.7640804927
 40
1.0
 40
1.0
 40
1.0
 40
1.0
 10
343.8576646654
 20
177.040645228
 30
0.0
 10
343.8561470523
 20
177.1826459195
 30
0.0
 10
343.8094311263
 20
177.3968301791
 30
0.0
 10
343.6484550738
 20
177.6203793932
 30
0.0
 10
343.5430976515
 20
177.7013728062
 30
0.0
 10
343.4867589114
 20
177.7323579412
 30
0.0
  0
SPLINE
  5
5E0
100
AcDbEntity
  8
7_ALL_FEATURES
100
AcDbSpline
 62
7
  6
CONTINUOUS
 70
0
 71
3
 72
10
 73
6
 74
0
 42
0.0000001
 43
0.0000001
 44
0.0000000001
 40
0.0
 40
0.0
 40
0.0
 40
0.0
 40
0.5203978505
 40
0.7636004714
 40
1.0
 40
1.0
 40
1.0
 40
1.0
 10
309.9287769698
 20
169.3689214706
 30
0.0
 10
309.9244334073
 20
169.5086614879
 30
0.0
 10
309.8747355588
 20
169.7184627918
 30
0.0
 10
309.7138669502
 20
169.9370809357
 30
0.0
 10
309.6096329227
 20
170.0165499699
 30
0.0
 10
309.553980551
 20
170.0471493843
 30
0.0
  0
SPLINE
  5
5E1
100
AcDbEntity
  8
7_ALL_FEATURES
100
AcDbSpline
 62
7
  6
CONTINUOUS
 70
0
 71
3
 72
10
 73
6
 74
0
 42
0.0000001
 43
0.0000001
 44
0.0000000001
 40
0.0
 40
0.0
 40
0.0
 40
0.0
 40
0.5203978505
 40
0.7636004714
 40
1.0
 40
1.0
 40
1.0
 40
1.0
 10
323.5078779134
 20
172.4436164915
 30
0.0
 10
323.5035343509
 20
172.5833565089
 30
0.0
 10
323.4538365023
 20
172.7931578127
 30
0.0
 10
323.2929678937
 20
173.0117759566
 30
0.0
 10
323.1887338663
 20
173.0912449908
 30
0.0
 10
323.1330814946
 20
173.1218444052
 30
0.0
  0
SPLINE
  5
5E2
100
AcDbEntity
  8
7_ALL_FEATURES
100
AcDbSpline
 62
7
  6
CONTINUOUS
 70
0
 71
3
 72
9
 73
5
 74
0
 42
0.0000001
 43
0.0000001
 44
0.0000000001
 40
0.0
 40
0.0
 40
0.0
 40
0.0
 40
0.2472303537
 40
1.0
 40
1.0
 40
1.0
 40
1.0
 10
304.0233509646
 20
139.7525028282
 30
0.0
 10
304.0210859169
 20
139.7645887763
 30
0.0
 10
304.0128981784
 20
139.8136527418
 30
0.0
 10
304.0085674606
 20
139.8633516718
 30
0.0
 10
304.0074042654
 20
139.9007737018
 30
0.0
  0
SPLINE
  5
5E3
100
AcDbEntity
  8
7_ALL_FEATURES
100
AcDbSpline
 62
7
  6
CONTINUOUS
 70
0
 71
3
 72
12
 73
8
 74
0
 42
0.0000001
 43
0.0000001
 44
0.0000000001
 40
0.0
 40
0.0
 40
0.0
 40
0.0
 40
0.2628619253
 40
0.5408896632
 40
0.7971291911
 40
0.9068306157
 40
1.0
 40
1.0
 40
1.0
 40
1.0
 10
343.20266949
 20
148.6258698828
 30
0.0
 10
343.4064216072
 20
148.6720051625
 30
0.0
 10
343.8347049417
 20
148.7282527377
 30
0.0
 10
344.4694892775
 20
148.7275348593
 30
0.0
 10
344.9792915004
 20
148.6585341026
 30
0.0
 10
345.3305058058
 20
148.5577216249
 30
0.0
 10
345.4795019747
 20
148.4940887605
 30
0.0
 10
345.5443913271
 20
148.458419976
 30
0.0
  0
SPLINE
  5
5E4
100
AcDbEntity
  8
7_ALL_FEATURES
100
AcDbSpline
 62
7
  6
CONTINUOUS
 70
0
 71
3
 72
11
 73
7
 74
0
 42
0.0000001
 43
0.0000001
 44
0.0000000001
 40
0.0
 40
0.0
 40
0.0
 40
0.0
 40
0.312940876
 40
0.5778033518
 40
0.8012839347
 40
1.0
 40
1.0
 40
1.0
 40
1.0
 10
371.7723567058
 20
134.0412681305
 30
0.0
 10
371.8106418199
 20
134.0202233298
 30
0.0
 10
371.8791676371
 20
133.9770291984
 30
0.0
 10
371.9625097074
 20
133.9012335563
 30
0.0
 10
372.0158530012
 20
133.8198346199
 30
0.0
 10
372.0291703857
 20
133.7606274548
 30
0.0
 10
372.0294715759
 20
133.7328874604
 30
0.0
  0
SPLINE
  5
5E5
100
AcDbEntity
  8
7_ALL_FEATURES
100
AcDbSpline
 62
7
  6
CONTINUOUS
 70
0
 71
3
 72
13
 73
9
 74
0
 42
0.0000001
 43
0.0000001
 44
0.0000000001
 40
0.0
 40
0.0
 40
0.0
 40
0.0
 40
0.0759118429
 40
0.1599005769
 40
0.2576899584
 40
0.3721747907
 40
0.6537473114
 40
1.0
 40
1.0
 40
1.0
 40
1.0
 10
300.3065045814
 20
138.5818733892
 30
0.0
 10
300.3062282766
 20
138.607321408
 30
0.0
 10
300.3160750637
 20
138.6613938426
 30
0.0
 10
300.3592746027
 20
138.7375413268
 30
0.0
 10
300.4284477275
 20
138.8098196386
 30
0.0
 10
300.5627991493
 20
138.9076132151
 30
0.0
 10
300.7912647292
 20
139.0113670221
 30
0.0
 10
300.9942410131
 20
139.0686800939
 30
0.0
 10
301.107456565
 20
139.0943153179
 30
0.0
  0
SPLINE
  5
5E6
100
AcDbEntity
  8
7_ALL_FEATURES
100
AcDbSpline
 62
3
  6
CONTINUOUS
 70
0
 71
3
 72
10
 73
6
 74
0
 42
0.0000001
 43
0.0000001
 44
0.0000000001
 40
0.0
 40
0.0
 40
0.0
 40
0.0
 40
0.2315987492
 40
0.4786077246
 40
1.0
 40
1.0
 40
1.0
 40
1.0
 10
374.1673994153
 20
98.8648052359
 30
0.0
 10
374.2034652665
 20
99.1002140214
 30
0.0
 10
374.2494088042
 20
99.5913761503
 30
0.0
 10
374.24524044
 20
100.6206475966
 30
0.0
 10
374.1375730047
 20
101.4083952025
 30
0.0
 10
374.0240997399
 20
101.9324030252
 30
0.0
  0
SPLINE
  5
5E7
100
AcDbEntity
  8
7_ALL_FEATURES
100
AcDbSpline
 62
3
  6
CONTINUOUS
 70
0
 71
3
 72
11
 73
7
 74
0
 42
0.0000001
 43
0.0000001
 44
0.0000000001
 40
0.0
 40
0.0
 40
0.0
 40
0.0
 40
0.2350272191
 40
0.4771755691
 40
0.7315822925
 40
1.0
 40
1.0
 40
1.0
 40
1.0
 10
342.6034647078
 20
147.1434619536
 30
0.0
 10
342.659215741
 20
147.1128254833
 30
0.0
 10
342.7635468766
 20
147.0328933617
 30
0.0
 10
342.8805390943
 20
146.8700122361
 30
0.0
 10
342.9533291018
 20
146.6738530386
 30
0.0
 10
342.9698244494
 20
146.5318798768
 30
0.0
 10
342.970600863
 20
146.4592320687
 30
0.0
  0
SPLINE
  5
5E8
100
AcDbEntity
  8
7_ALL_FEATURES
100
AcDbSpline
 62
3
  6
CONTINUOUS
 70
0
 71
3
 72
10
 73
6
 74
0
 42
0.0000001
 43
0.0000001
 44
0.0000000001
 40
0.0
 40
0.0
 40
0.0
 40
0.0
 40
0.529688853
 40
0.7744095463
 40
1.0
 40
1.0
 40
1.0
 40
1.0
 10
337.5343187478
 20
119.0015058502
 30
0.0
 10
337.4570158631
 20
119.5188133798
 30
0.0
 10
337.4021855153
 20
120.286879055
 30
0.0
 10
337.4739177226
 20
121.2729319322
 30
0.0
 10
337.5581392275
 20
121.7310764059
 30
0.0
 10
337.6133555114
 20
121.9468883568
 30
0.0
  0
SPLINE
  5
5E9
100
AcDbEntity
  8
7_ALL_FEATURES
100
AcDbSpline
 62
3
  6
CONTINUOUS
 70
0
 71
3
 72
9
 73
5
 74
0
 42
0.0000001
 43
0.0000001
 44
0.0000000001
 40
0.0
 40
0.0
 40
0.0
 40
0.0
 40
0.2335711365
 40
1.0
 40
1.0
 40
1.0
 40
1.0
 10
343.0300463552
 20
137.819332027
 30
0.0
 10
343.0347004823
 20
137.8347290406
 30
0.0
 10
343.0518985844
 20
137.9014698432
 30
0.0
 10
343.0592198393
 20
137.9705246805
 30
0.0
 10
343.0607589258
 20
138.0232829392
 30
0.0
  0
SPLINE
  5
5EA
100
AcDbEntity
  8
7_ALL_FEATURES
100
AcDbSpline
 62
3
  6
CONTINUOUS
 70
0
 71
3
 72
11
 73
7
 74
0
 42
0.0000001
 43
0.0000001
 44
0.0000000001
 40
0.0
 40
0.0
 40
0.0
 40
0.0
 40
0.262762571
 40
0.5206008776
 40
0.7667239144
 40
1.0
 40
1.0
 40
1.0
 40
1.0
 10
338.1527970128
 20
111.7357190457
 30
0.0
 10
338.1616826758
 20
111.6131109312
 30
0.0
 10
338.140197513
 20
111.3656314637
 30
0.0
 10
337.9960786025
 20
111.0303639163
 30
0.0
 10
337.7572805685
 20
110.7715217672
 30
0.0
 10
337.5475386045
 20
110.6732300887
 30
0.0
 10
337.4410982428
 20
110.6491289607
 30
0.0
  0
ENDSEC
  0
SECTION
  2
OBJECTS
  0
DICTIONARY
  5
C
100
AcDbDictionary
280
0
281
1
  3
ACAD_GROUP
350
D
  3
ACAD_MLINESTYLE
350
17
  3
ACAD_LAYOUT
350
1A
  3
ACAD_PLOTSETTINGS
350
19
  3
ACAD_PLOTSTYLENAME
350
E
  3
ACAD_TABLESTYLE
350
       5EB
  0
DICTIONARY
  5
D
102
{ACAD_REACTORS
330
C
102
}
100
AcDbDictionary
280
0
281
1
  0
ACDBDICTIONARYWDFLT
  5
E
102
{ACAD_REACTORS
330
C
102
}
100
AcDbDictionary
281
1
  3
Normal
350
F
100
AcDbDictionaryWithDefault
340
F
  0
DICTIONARY
  5
17
102
{ACAD_REACTORS
330
C
102
}
100
AcDbDictionary
280
0
281
1
  3
Standard
350
18
  0
DICTIONARY
  5
5EB
330
C
100
AcDbDictionary
281
1
  3
Standard
350
       5EE
  3
Standard1
350
       5EF
  0
DICTIONARY
  5
19
102
{ACAD_REACTORS
330
C
102
}
100
AcDbDictionary
281
1
  0
DICTIONARY
  5
1A
102
{ACAD_REACTORS
330
C
102
}
100
AcDbDictionary
281
1
  3
Model
350
5EC
  3
Layout1
350
5ED
  0
ACDBPLACEHOLDER
  5
F
102
{ACAD_REACTORS
330
E
102
}
  0
MLINESTYLE
  5
18
102
{ACAD_REACTORS
330
17
102
}
100
AcDbMlineStyle
  2
STANDARD
 70
0
  3

 62
256
 51
90.0
 52
90.0
 71
2
 49
0.5
 62
256
  6
BYLAYER
 49
-0.5
 62
256
  6
BYLAYER
  0
LAYOUT
  5
5EC
102
{ACAD_REACTORS
330
1A
102
}
100
AcDbPlotSettings
  1

  2
none_device
  4
ISO_A3_(420.00_x_297.00_MM)
  6

 40
0.0
 41
0.0
 42
0.0
 43
0.0
 44
420.0
 45
297.0
 46
0.0
 47
0.0
 48
0.0
 49
0.0
140
0.0
141
0.0
142
1.0
143
1.0
 70
1024
 72
1
 73
0
 74
0
  7

 75
0
147
1.0
148
0.0
149
0.0
100
AcDbLayout
  1
Model
 70
0
 71
0
 10
0.0
 20
0.0
 11
420.0
 21
297.0
 12
0.0
 22
0.0
 32
0.0
 14
0.0
 24
0.0
 34
0.0
 15
0.0
 25
0.0
 35
0.0
146
0.0
 13
0.0
 23
0.0
 33
0.0
 16
1.0
 26
0.0
 36
0.0
 17
0.0
 27
1.0
 37
0.0
 76
0
330
221
345
0
346
0
  0
LAYOUT
  5
5ED
102
{ACAD_REACTORS
330
1A
102
}
100
AcDbPlotSettings
  1

  2
none_device
  4
ISO_A3_(420.00_x_297.00_MM)
  6

 40
0.0
 41
0.0
 42
0.0
 43
0.0
 44
420.0
 45
297.0
 46
0.0
 47
0.0
 48
0.0
 49
0.0
140
0.0
141
0.0
142
1.0
143
1.0
 70
0
 72
1
 73
0
 74
0
  7

 75
0
147
1.0
148
0.0
149
0.0
100
AcDbLayout
  1
Layout1
 70
0
 71
1
 10
0.0
 20
0.0
 11
420.0
 21
297.0
 12
0.0
 22
0.0
 32
0.0
 14
0.0
 24
0.0
 34
0.0
 15
0.0
 25
0.0
 35
0.0
146
0.0
 13
0.0
 23
0.0
 33
0.0
 16
1.0
 26
0.0
 36
0.0
 17
0.0
 27
1.0
 37
0.0
 76
0
330
222
345
0
346
0
  0
TABLESTYLE
  5
5EE
102
{ACAD_REACTORS
330
5EB
330
3C5
102
}
330
5EB
100
AcDbTableStyle
  3
Standard
 70
0
 71
0
 40
0.06
 41
0.06
280
1
281
1
  7
Standard
140
0.18
170
1
 62
0
 63
7
283
0
  7
Standard
140
0.18
170
1
 62
0
 63
7
283
0
  7
Standard
140
0.18
170
1
 62
0
 63
7
283
0
  0
TABLESTYLE
  5
5EF
102
{ACAD_REACTORS
330
5EB
102
}
330
5EB
100
AcDbTableStyle
  3
Standard1
 70
1
 71
0
 40
0.06
 41
0.06
280
1
281
1
  7
Standard
140
0.18
170
1
 62
0
 63
7
283
0
  7
Standard
140
0.18
170
1
 62
0
 63
7
283
0
  7
Standard
140
0.18
170
1
 62
0
 63
7
283
0
  0
ENDSEC
  0
EOF
