  0
SECTION
  2
HEADER
  9
$ACADVER
  1
AC1015
  9
$ACADMAINTVER
 70
     6
  9
$DWGCODEPAGE
  3
ANSI_1252
  9
$INSBASE
 10
0.0
 20
0.0
 30
0.0
  9
$EXTMIN
 10
0.0
 20
0.0
 30
0.0
  9
$EXTMAX
 10
420.0
 20
297.0
 30
0.0
  9
$LIMMIN
 10
0.0
 20
0.0
  9
$LIMMAX
 10
420.0
 20
297.0
  9
$ORTHOMODE
 70
     0
  9
$REGENMODE
 70
     1
  9
$FILLMODE
 70
     1
  9
$QTEXTMODE
 70
     0
  9
$MIRRTEXT
 70
     1
  9
$LTSCALE
 40
23.1
  9
$ATTMODE
 70
     1
  9
$TEXTSIZE
 40
0.2
  9
$TRACEWID
 40
0.05
  9
$TEXTSTYLE
  7
STANDARD
  9
$CLAYER
  8
0
  9
$CELTYPE
  6
BYLAYER
  9
$CECOLOR
 62
   256
  9
$CELTSCALE
 40
1.0
  9
$DISPSILH
 70
     0
  9
$DIMSCALE
 40
1.0
  9
$DIMASZ
 40
2.5
  9
$DIMEXO
 40
2.625
  9
$DIMDLI
 40
15.96
  9
$DIMRND
 40
0.0
  9
$DIMDLE
 40
0.0
  9
$DIMEXE
 40
7.56
  9
$DIMTP
 40
0.01
  9
$DIMTM
 40
0.01
  9
$DIMTXT
 40
3.0
  9
$DIMCEN
 40
3.78
  9
$DIMTSZ
 40
0.0
  9
$DIMTOL
 70
     1
  9
$DIMLIM
 70
     0
  9
$DIMTIH
 70
     1
  9
$DIMTOH
 70
     1
  9
$DIMSE1
 70
     0
  9
$DIMSE2
 70
     0
  9
$DIMTAD
 70
     0
  9
$DIMZIN
 70
     0
  9
$DIMBLK
  1
CLOSED
  9
$DIMASO
 70
     1
  9
$DIMSHO
 70
     1
  9
$DIMPOST
  1

  9
$DIMAPOST
  1

  9
$DIMALT
 70
     0
  9
$DIMALTD
 70
     2
  9
$DIMALTF
 40
25.4
  9
$DIMLFAC
 40
1.0
  9
$DIMTOFL
 70
     0
  9
$DIMTVP
 40
0.0
  9
$DIMTIX
 70
     0
  9
$DIMSOXD
 70
     0
  9
$DIMSAH
 70
     0
  9
$DIMBLK1
  1

  9
$DIMBLK2
  1

  9
$DIMSTYLE
  2
STANDARD
  9
$DIMCLRD
 70
     0
  9
$DIMCLRE
 70
     0
  9
$DIMCLRT
 70
     0
  9
$DIMTFAC
 40
1.0
  9
$DIMGAP
 40
0.09
  9
$DIMJUST
 70
     0
  9
$DIMSD1
 70
     0
  9
$DIMSD2
 70
     0
  9
$DIMTOLJ
 70
     1
  9
$DIMTZIN
 70
     0
  9
$DIMALTZ
 70
     0
  9
$DIMALTTZ
 70
     0
  9
$DIMUPT
 70
     0
  9
$DIMDEC
 70
     4
  9
$DIMTDEC
 70
     4
  9
$DIMALTU
 70
     2
  9
$DIMALTTD
 70
     2
  9
$DIMTXSTY
  7
STANDARD
  9
$DIMAUNIT
 70
     0
  9
$DIMADEC
 70
     0
  9
$DIMALTRND
 40
0.0
  9
$DIMAZIN
 70
     0
  9
$DIMDSEP
 70
    46
  9
$DIMATFIT
 70
     3
  9
$DIMFRAC
 70
     0
  9
$DIMLDRBLK
  1

  9
$DIMLUNIT
 70
     2
  9
$DIMLWD
 70
    -2
  9
$DIMLWE
 70
    -2
  9
$DIMTMOVE
 70
     0
  9
$LUNITS
 70
     2
  9
$LUPREC
 70
     4
  9
$SKETCHINC
 40
0.1
  9
$FILLETRAD
 40
0.5
  9
$AUNITS
 70
     0
  9
$AUPREC
 70
     0
  9
$MENU
  1
.
  9
$ELEVATION
 40
0.0
  9
$PELEVATION
 40
0.0
  9
$THICKNESS
 40
0.0
  9
$LIMCHECK
 70
     0
  9
$CHAMFERA
 40
0.0
  9
$CHAMFERB
 40
0.0
  9
$CHAMFERC
 40
0.0
  9
$CHAMFERD
 40
0.0
  9
$SKPOLY
 70
     0
  9
$TDCREATE
 40
2447893.041666667
  9
$TDUCREATE
 40
0.0
  9
$TDUPDATE
 40
2456744.624635521
  9
$TDUUPDATE
 40
2456744.582968854
  9
$TDINDWG
 40
0.0006036806
  9
$TDUSRTIMER
 40
2456744.582365359
  9
$USRTIMER
 70
     1
  9
$ANGBASE
 50
0.0
  9
$ANGDIR
 70
     0
  9
$PDMODE
 70
     3
  9
$PDSIZE
 40
0.3125
  9
$PLINEWID
 40
0.0
  9
$SPLFRAME
 70
     0
  9
$SPLINETYPE
 70
     6
  9
$SPLINESEGS
 70
     8
  9
$HANDSEED
  5
4C3
  9
$SURFTAB1
 70
     6
  9
$SURFTAB2
 70
     6
  9
$SURFTYPE
 70
     6
  9
$SURFU
 70
     6
  9
$SURFV
 70
     6
  9
$UCSBASE
  2

  9
$UCSNAME
  2

  9
$UCSORG
 10
0.0
 20
0.0
 30
0.0
  9
$UCSXDIR
 10
1.0
 20
0.0
 30
0.0
  9
$UCSYDIR
 10
0.0
 20
1.0
 30
0.0
  9
$UCSORTHOREF
  2

  9
$UCSORTHOVIEW
 70
     0
  9
$UCSORGTOP
 10
0.0
 20
0.0
 30
0.0
  9
$UCSORGBOTTOM
 10
0.0
 20
0.0
 30
0.0
  9
$UCSORGLEFT
 10
0.0
 20
0.0
 30
0.0
  9
$UCSORGRIGHT
 10
0.0
 20
0.0
 30
0.0
  9
$UCSORGFRONT
 10
0.0
 20
0.0
 30
0.0
  9
$UCSORGBACK
 10
0.0
 20
0.0
 30
0.0
  9
$PUCSBASE
  2

  9
$PUCSNAME
  2

  9
$PUCSORG
 10
0.0
 20
0.0
 30
0.0
  9
$PUCSXDIR
 10
1.0
 20
0.0
 30
0.0
  9
$PUCSYDIR
 10
0.0
 20
1.0
 30
0.0
  9
$PUCSORTHOREF
  2

  9
$PUCSORTHOVIEW
 70
     0
  9
$PUCSORGTOP
 10
0.0
 20
0.0
 30
0.0
  9
$PUCSORGBOTTOM
 10
0.0
 20
0.0
 30
0.0
  9
$PUCSORGLEFT
 10
0.0
 20
0.0
 30
0.0
  9
$PUCSORGRIGHT
 10
0.0
 20
0.0
 30
0.0
  9
$PUCSORGFRONT
 10
0.0
 20
0.0
 30
0.0
  9
$PUCSORGBACK
 10
0.0
 20
0.0
 30
0.0
  9
$USERI1
 70
     0
  9
$USERI2
 70
     0
  9
$USERI3
 70
     0
  9
$USERI4
 70
     0
  9
$USERI5
 70
     0
  9
$USERR1
 40
0.0
  9
$USERR2
 40
0.0
  9
$USERR3
 40
0.0
  9
$USERR4
 40
0.0
  9
$USERR5
 40
0.0
  9
$WORLDVIEW
 70
     1
  9
$SHADEDGE
 70
     3
  9
$SHADEDIF
 70
    70
  9
$TILEMODE
 70
     1
  9
$MAXACTVP
 70
    64
  9
$PINSBASE
 10
0.0
 20
0.0
 30
0.0
  9
$PLIMCHECK
 70
     0
  9
$PEXTMIN
 10
1.000000000000000E+20
 20
1.000000000000000E+20
 30
1.000000000000000E+20
  9
$PEXTMAX
 10
-1.000000000000000E+20
 20
-1.000000000000000E+20
 30
-1.000000000000000E+20
  9
$PLIMMIN
 10
0.0
 20
0.0
  9
$PLIMMAX
 10
420.0
 20
297.0
  9
$UNITMODE
 70
     0
  9
$VISRETAIN
 70
     1
  9
$PLINEGEN
 70
     0
  9
$PSLTSCALE
 70
     1
  9
$TREEDEPTH
 70
  3020
  9
$CMLSTYLE
  2

  9
$CMLJUST
 70
     0
  9
$CMLSCALE
 40
1.0
  9
$PROXYGRAPHICS
 70
     1
  9
$MEASUREMENT
 70
     1
  9
$CELWEIGHT
370
    -1
  9
$ENDCAPS
280
     0
  9
$JOINSTYLE
280
     0
  9
$LWDISPLAY
290
     0
  9
$INSUNITS
 70
     4
  9
$HYPERLINKBASE
  1

  9
$STYLESHEET
  1

  9
$XEDIT
290
     1
  9
$CEPSNTYPE
380
     0
  9
$PSTYLEMODE
290
     1
  9
$FINGERPRINTGUID
  2
{A5067D90-D424-4EEB-A68A-9E6CD14BE6BF}
  9
$VERSIONGUID
  2
{FAEB1C32-E019-11D5-929B-00C0DF256EC4}
  9
$EXTNAMES
290
     1
  9
$PSVPSCALE
 40
0.0
  9
$OLESTARTUP
290
     0
  0
ENDSEC
  0
SECTION
  2
CLASSES
  0
CLASS
  1
ACDBDICTIONARYWDFLT
  2
AcDbDictionaryWithDefault
  3
ObjectDBX Classes
 90
        0
280
     0
281
     0
  0
CLASS
  1
ACDBPLACEHOLDER
  2
AcDbPlaceHolder
  3
ObjectDBX Classes
 90
        0
280
     0
281
     0
  0
CLASS
  1
LAYOUT
  2
AcDbLayout
  3
ObjectDBX Classes
 90
        0
280
     0
281
     0
  0
CLASS
  1
TABLESTYLE
  2
AcDbTableStyle
  3
ObjectDBX Classes
 90
     4095
280
     0
281
     0
  0
CLASS
  1
ACAD_TABLE
  2
AcDbTable
  3
ObjectDBX Classes
 90
     1025
280
     0
281
     1
  0
CLASS
  1
SCALE
  2
AcDbScale
  3
ObjectDBX Classes
 90
     1153
280
     0
281
     0
  0
CLASS
  1
TABLEGEOMETRY
  2
AcDbTableGeometry
  3
ObjectDBX Classes
 90
     1152
280
     0
281
     0
  0
CLASS
  1
VISUALSTYLE
  2
AcDbVisualStyle
  3
ObjectDBX Classes
 90
     4095
280
     0
281
     0
  0
CLASS
  1
MATERIAL
  2
AcDbMaterial
  3
ObjectDBX Classes
 90
     1153
280
     0
281
     0
  0
CLASS
  1
SUN
  2
AcDbSun
  3
SCENEOE
 90
     1153
280
     0
281
     0
  0
CLASS
  1
RASTERVARIABLES
  2
AcDbRasterVariables
  3
ISM
 90
        0
280
     0
281
     0
  0
ENDSEC
  0
SECTION
  2
TABLES
  0
TABLE
  2
VPORT
  5
8
330
0
100
AcDbSymbolTable
 70
     1
  0
VPORT
  5
1F4
330
8
100
AcDbSymbolTableRecord
100
AcDbViewportTableRecord
  2
*ACTIVE
 70
     0
 10
0.0
 20
0.0
 11
1.0
 21
1.0
 12
272.5869591346153
 22
174.6977163461539
 13
0.0
 23
0.0
 14
1.0
 24
1.0
 15
0.0
 25
0.0
 16
0.0
 26
0.0
 36
1.0
 17
0.0
 27
0.0
 37
0.0
 40
580.078125
 41
1.732905982905983
 42
50.0
 43
0.0
 44
0.0
 50
0.0
 51
0.0
 71
    16
 72
   100
 73
     1
 74
     1
 75
     0
 76
     0
 77
     0
 78
     0
281
     0
 65
     1
110
0.0
120
0.0
130
0.0
111
1.0
121
0.0
131
0.0
112
0.0
122
1.0
132
0.0
 79
     0
146
0.0
  0
ENDTAB
  0
TABLE
  2
LTYPE
  5
5
330
0
100
AcDbSymbolTable
 70
     6
  0
LTYPE
  5
14
330
5
100
AcDbSymbolTableRecord
100
AcDbLinetypeTableRecord
  2
BYBLOCK
 70
     0
  3

 72
    65
 73
     0
 40
0.0
  0
LTYPE
  5
15
330
5
100
AcDbSymbolTableRecord
100
AcDbLinetypeTableRecord
  2
BYLAYER
 70
     0
  3

 72
    65
 73
     0
 40
0.0
  0
LTYPE
  5
16
330
5
100
AcDbSymbolTableRecord
100
AcDbLinetypeTableRecord
  2
CONTINUOUS
 70
     0
  3
Solid line
 72
    65
 73
     0
 40
0.0
  0
LTYPE
  5
1F5
330
5
100
AcDbSymbolTableRecord
100
AcDbLinetypeTableRecord
  2
CENTER
 70
     0
  3
____ _ ____ _ ____ _ ____ _ ____ _ ____ _ ____
 72
    65
 73
     4
 40
0.6
 49
0.375
 74
     0
 49
-0.075
 74
     0
 49
0.075
 74
     0
 49
-0.075
 74
     0
  0
LTYPE
  5
1F6
330
5
100
AcDbSymbolTableRecord
100
AcDbLinetypeTableRecord
  2
HIDDEN
 70
     0
  3
- - - - - - - - - - - - - - - - - - - -
 72
    65
 73
     2
 40
0.2
 49
0.1
 74
     0
 49
-0.1
 74
     0
  0
LTYPE
  5
1F7
330
5
100
AcDbSymbolTableRecord
100
AcDbLinetypeTableRecord
  2
PHANTOM
 70
     0
  3
_____ _ _ _____ _ _ _____ _ _ _____
 72
    65
 73
     6
 40
0.8
 49
0.45
 74
     0
 49
-0.05
 74
     0
 49
0.1
 74
     0
 49
-0.05
 74
     0
 49
0.1
 74
     0
 49
-0.05
 74
     0
  0
LTYPE
  5
1F8
330
5
100
AcDbSymbolTableRecord
100
AcDbLinetypeTableRecord
  2
DOT
 70
     0
  3
. . . . . . . . . . . . . . . . . . . .
 72
    65
 73
     2
 40
0.2
 49
0.1
 74
     0
 49
-0.1
 74
     0
  0
LTYPE
  5
1F9
330
5
100
AcDbSymbolTableRecord
100
AcDbLinetypeTableRecord
  2
DASHED
 70
     0
  3
- - - - - - - - - - - - - - - - - - - -
 72
    65
 73
     2
 40
0.2
 49
0.1
 74
     0
 49
-0.1
 74
     0
  0
ENDTAB
  0
TABLE
  2
LAYER
  5
2
330
0
100
AcDbSymbolTable
 70
    36
  0
LAYER
  5
10
330
2
100
AcDbSymbolTableRecord
100
AcDbLayerTableRecord
  2
0
 70
     0
 62
     7
  6
CONTINUOUS
370
    -3
390
F
  0
LAYER
  5
1FA
330
2
100
AcDbSymbolTableRecord
100
AcDbLayerTableRecord
  2
DEFAULT_1
 70
     0
 62
     7
  6
CENTER
370
    -3
390
F
  0
LAYER
  5
1FB
330
2
100
AcDbSymbolTableRecord
100
AcDbLayerTableRecord
  2
DEFAULT_2
 70
     0
 62
     8
  6
HIDDEN
370
    -3
390
F
  0
LAYER
  5
1FC
330
2
100
AcDbSymbolTableRecord
100
AcDbLayerTableRecord
  2
DEFAULT_3
 70
     0
 62
     7
  6
PHANTOM
370
    -3
390
F
  0
LAYER
  5
1FD
330
2
100
AcDbSymbolTableRecord
100
AcDbLayerTableRecord
  2
01_ALL_DTM_PLN
 70
     0
 62
     7
  6
CONTINUOUS
370
    -3
390
F
  0
LAYER
  5
1FE
330
2
100
AcDbSymbolTableRecord
100
AcDbLayerTableRecord
  2
01__ASM_ALL_DTM_PLN
 70
     0
 62
     7
  6
CONTINUOUS
370
    -3
390
F
  0
LAYER
  5
1FF
330
2
100
AcDbSymbolTableRecord
100
AcDbLayerTableRecord
  2
01__ASM_DEF_DTM_PLN
 70
     0
 62
     7
  6
CONTINUOUS
370
    -3
390
F
  0
LAYER
  5
200
330
2
100
AcDbSymbolTableRecord
100
AcDbLayerTableRecord
  2
01___PRT_ALL_DTM_PLN
 70
     0
 62
     7
  6
CONTINUOUS
370
    -3
390
F
  0
LAYER
  5
201
330
2
100
AcDbSymbolTableRecord
100
AcDbLayerTableRecord
  2
01___PRT_DEF_DTM_PLN
 70
     0
 62
     7
  6
CONTINUOUS
370
    -3
390
F
  0
LAYER
  5
202
330
2
100
AcDbSymbolTableRecord
100
AcDbLayerTableRecord
  2
02_ALL_AXES
 70
     0
 62
     7
  6
CONTINUOUS
370
    -3
390
F
  0
LAYER
  5
203
330
2
100
AcDbSymbolTableRecord
100
AcDbLayerTableRecord
  2
02__ASM_ALL_AXES
 70
     0
 62
     7
  6
CONTINUOUS
370
    -3
390
F
  0
LAYER
  5
204
330
2
100
AcDbSymbolTableRecord
100
AcDbLayerTableRecord
  2
02___PRT_ALL_AXES
 70
     0
 62
     7
  6
CONTINUOUS
370
    -3
390
F
  0
LAYER
  5
205
330
2
100
AcDbSymbolTableRecord
100
AcDbLayerTableRecord
  2
03_ALL_CURVES
 70
     0
 62
     7
  6
CONTINUOUS
370
    -3
390
F
  0
LAYER
  5
206
330
2
100
AcDbSymbolTableRecord
100
AcDbLayerTableRecord
  2
03__ASM_ALL_CURVES
 70
     0
 62
     7
  6
CONTINUOUS
370
    -3
390
F
  0
LAYER
  5
207
330
2
100
AcDbSymbolTableRecord
100
AcDbLayerTableRecord
  2
03___PRT_ALL_CURVES
 70
     0
 62
     7
  6
CONTINUOUS
370
    -3
390
F
  0
LAYER
  5
208
330
2
100
AcDbSymbolTableRecord
100
AcDbLayerTableRecord
  2
04_ALL_DTM_PNT
 70
     0
 62
     7
  6
CONTINUOUS
370
    -3
390
F
  0
LAYER
  5
209
330
2
100
AcDbSymbolTableRecord
100
AcDbLayerTableRecord
  2
04__ASM_ALL_DTM_PNT
 70
     0
 62
     7
  6
CONTINUOUS
370
    -3
390
F
  0
LAYER
  5
20A
330
2
100
AcDbSymbolTableRecord
100
AcDbLayerTableRecord
  2
04___PRT_ALL_DTM_PNT
 70
     0
 62
     7
  6
CONTINUOUS
370
    -3
390
F
  0
LAYER
  5
20B
330
2
100
AcDbSymbolTableRecord
100
AcDbLayerTableRecord
  2
05_ALL_DTM_CSYS
 70
     0
 62
     7
  6
CONTINUOUS
370
    -3
390
F
  0
LAYER
  5
20C
330
2
100
AcDbSymbolTableRecord
100
AcDbLayerTableRecord
  2
05__ASM_ALL_DTM_CSYS
 70
     0
 62
     7
  6
CONTINUOUS
370
    -3
390
F
  0
LAYER
  5
20D
330
2
100
AcDbSymbolTableRecord
100
AcDbLayerTableRecord
  2
05__ASM_DEF_DTM_CSYS
 70
     0
 62
     7
  6
CONTINUOUS
370
    -3
390
F
  0
LAYER
  5
20E
330
2
100
AcDbSymbolTableRecord
100
AcDbLayerTableRecord
  2
05___PRT_ALL_DTM_CSYS
 70
     0
 62
     7
  6
CONTINUOUS
370
    -3
390
F
  0
LAYER
  5
20F
330
2
100
AcDbSymbolTableRecord
100
AcDbLayerTableRecord
  2
05___PRT_DEF_DTM_CSYS
 70
     0
 62
     7
  6
CONTINUOUS
370
    -3
390
F
  0
LAYER
  5
210
330
2
100
AcDbSymbolTableRecord
100
AcDbLayerTableRecord
  2
06_ALL_SURFS
 70
     0
 62
     7
  6
CONTINUOUS
370
    -3
390
F
  0
LAYER
  5
211
330
2
100
AcDbSymbolTableRecord
100
AcDbLayerTableRecord
  2
06__ASM_ALL_SURFS
 70
     0
 62
     7
  6
CONTINUOUS
370
    -3
390
F
  0
LAYER
  5
212
330
2
100
AcDbSymbolTableRecord
100
AcDbLayerTableRecord
  2
06___PRT_ALL_SURFS
 70
     0
 62
     7
  6
CONTINUOUS
370
    -3
390
F
  0
LAYER
  5
213
330
2
100
AcDbSymbolTableRecord
100
AcDbLayerTableRecord
  2
07__ASM_ALL_SKELETONS
 70
     0
 62
     7
  6
CONTINUOUS
370
    -3
390
F
  0
LAYER
  5
214
330
2
100
AcDbSymbolTableRecord
100
AcDbLayerTableRecord
  2
1_ALL_PLANES
 70
     0
 62
     7
  6
CONTINUOUS
370
    -3
390
F
  0
LAYER
  5
215
330
2
100
AcDbSymbolTableRecord
100
AcDbLayerTableRecord
  2
2_ALL_CSYS
 70
     0
 62
     7
  6
CONTINUOUS
370
    -3
390
F
  0
LAYER
  5
216
330
2
100
AcDbSymbolTableRecord
100
AcDbLayerTableRecord
  2
3_ALL_AXES
 70
     0
 62
     7
  6
CONTINUOUS
370
    -3
390
F
  0
LAYER
  5
217
330
2
100
AcDbSymbolTableRecord
100
AcDbLayerTableRecord
  2
4_ALL_POINTS
 70
     0
 62
     7
  6
CONTINUOUS
370
    -3
390
F
  0
LAYER
  5
218
330
2
100
AcDbSymbolTableRecord
100
AcDbLayerTableRecord
  2
5_ALL_CURVES
 70
     0
 62
     7
  6
CONTINUOUS
370
    -3
390
F
  0
LAYER
  5
219
330
2
100
AcDbSymbolTableRecord
100
AcDbLayerTableRecord
  2
6_ALL_SURFS
 70
     0
 62
     7
  6
CONTINUOUS
370
    -3
390
F
  0
LAYER
  5
21A
330
2
100
AcDbSymbolTableRecord
100
AcDbLayerTableRecord
  2
7_ALL_FEATURES
 70
     0
 62
     7
  6
CONTINUOUS
370
    -3
390
F
  0
LAYER
  5
21B
330
2
100
AcDbSymbolTableRecord
100
AcDbLayerTableRecord
  2
8_ALL_NOTES_BALLOONS_SYMBOLS_GT
 70
     0
 62
     7
  6
CONTINUOUS
370
    -3
390
F
  0
LAYER
  5
49C
330
2
100
AcDbSymbolTableRecord
100
AcDbLayerTableRecord
  2
Defpoints
 70
     0
 62
     7
  6
CONTINUOUS
290
     0
370
    -3
390
F
  0
ENDTAB
  0
TABLE
  2
STYLE
  5
3
330
0
100
AcDbSymbolTable
 70
     6
  0
STYLE
  5
11
330
3
100
AcDbSymbolTableRecord
100
AcDbTextStyleTableRecord
  2
STANDARD
 70
     0
 40
0.0
 41
0.85
 50
0.0
 71
     0
 42
0.2
  3
txt
  4

  0
STYLE
  5
21C
330
3
100
AcDbSymbolTableRecord
100
AcDbTextStyleTableRecord
  2
TEXTSTYLE_1
 70
     0
 40
0.0
 41
0.8
 50
0.0
 71
     0
 42
0.2
  3
gdt
  4

  0
STYLE
  5
21D
330
3
100
AcDbSymbolTableRecord
100
AcDbTextStyleTableRecord
  2
TEXTSTYLE_2
 70
     0
 40
0.0
 41
0.9
 50
0.0
 71
     0
 42
0.2
  3
txt
  4

  0
STYLE
  5
21E
330
3
100
AcDbSymbolTableRecord
100
AcDbTextStyleTableRecord
  2
TEXTSTYLE_3
 70
     0
 40
0.0
 41
0.9
 50
0.0
 71
     0
 42
0.2
  3
txt
  4

  0
STYLE
  5
21F
330
3
100
AcDbSymbolTableRecord
100
AcDbTextStyleTableRecord
  2
TEXTSTYLE_4
 70
     0
 40
0.0
 41
0.85
 50
0.0
 71
     0
 42
0.2
  3
gdt
  4

  0
STYLE
  5
220
330
3
100
AcDbSymbolTableRecord
100
AcDbTextStyleTableRecord
  2
TEXTSTYLE_5
 70
     0
 40
0.0
 41
0.85
 50
0.0
 71
     0
 42
0.2
  3
txt
  4

  0
ENDTAB
  0
TABLE
  2
VIEW
  5
6
330
0
100
AcDbSymbolTable
 70
     0
  0
ENDTAB
  0
TABLE
  2
UCS
  5
7
330
0
100
AcDbSymbolTable
 70
     0
  0
ENDTAB
  0
TABLE
  2
APPID
  5
9
330
0
100
AcDbSymbolTable
 70
     1
  0
APPID
  5
221
330
9
100
AcDbSymbolTableRecord
100
AcDbRegAppTableRecord
  2
ACAD
 70
     0
  0
ENDTAB
  0
TABLE
  2
DIMSTYLE
  5
A
330
0
100
AcDbSymbolTable
 70
     4
100
AcDbDimStyleTable
  0
DIMSTYLE
105
22C
330
A
100
AcDbSymbolTableRecord
100
AcDbDimStyleTableRecord
  2
STANDARD
 70
     0
 41
2.5
 47
0.01
 48
0.01
 71
     1
 73
     0
 74
     0
 77
     1
 78
     8
140
3.0
178
     0
271
     2
272
     2
284
     8
340
11
341
224
342
224
343
224
344
224
  0
DIMSTYLE
105
22D
330
A
100
AcDbSymbolTableRecord
100
AcDbDimStyleTableRecord
  2
DIMSTYLE_1
 70
     0
 41
2.5
 47
0.3
 48
0.3
 73
     0
 74
     0
 77
     1
 78
     8
140
3.0
178
     0
271
     0
272
     0
284
     8
340
11
341
224
342
224
343
224
344
224
  0
DIMSTYLE
105
22E
330
A
100
AcDbSymbolTableRecord
100
AcDbDimStyleTableRecord
  2
DIMSTYLE_2
 70
     0
 41
2.5
 47
0.3
 48
0.3
 73
     0
 74
     0
 77
     1
 78
     8
140
3.0
178
     0
271
     2
272
     2
284
     8
340
11
341
224
342
224
343
224
344
224
  0
DIMSTYLE
105
22F
330
A
100
AcDbSymbolTableRecord
100
AcDbDimStyleTableRecord
  2
DIMSTYLE_3
 70
     0
 41
2.5
 47
0.1
 48
0.1
 73
     0
 74
     0
 77
     1
 78
     8
140
3.0
178
     0
271
     2
272
     2
284
     8
340
11
341
224
342
224
343
224
344
224
  0
ENDTAB
  0
TABLE
  2
BLOCK_RECORD
  5
1
330
0
100
AcDbSymbolTable
 70
     8
  0
BLOCK_RECORD
  5
222
330
1
100
AcDbSymbolTableRecord
100
AcDbBlockTableRecord
  2
*Model_Space
340
453
  0
BLOCK_RECORD
  5
223
330
1
100
AcDbSymbolTableRecord
100
AcDbBlockTableRecord
  2
*Paper_Space
340
454
  0
BLOCK_RECORD
  5
224
330
1
100
AcDbSymbolTableRecord
100
AcDbBlockTableRecord
  2
_CLOSED
340
0
102
{BLKREFS
331
0
331
0
331
0
331
0
331
0
331
0
331
0
331
0
331
0
331
0
331
280
331
27F
331
289
331
288
331
292
331
291
331
29D
331
29C
331
277
331
276
102
}
  0
BLOCK_RECORD
  5
225
330
1
100
AcDbSymbolTableRecord
100
AcDbBlockTableRecord
  2
*D1
340
0
  0
BLOCK_RECORD
  5
226
330
1
100
AcDbSymbolTableRecord
100
AcDbBlockTableRecord
  2
*D2
340
0
  0
BLOCK_RECORD
  5
227
330
1
100
AcDbSymbolTableRecord
100
AcDbBlockTableRecord
  2
*D3
340
0
  0
BLOCK_RECORD
  5
228
330
1
100
AcDbSymbolTableRecord
100
AcDbBlockTableRecord
  2
*D4
340
0
  0
BLOCK_RECORD
  5
229
330
1
100
AcDbSymbolTableRecord
100
AcDbBlockTableRecord
  2
*D5
340
0
  0
BLOCK_RECORD
  5
22A
330
1
100
AcDbSymbolTableRecord
100
AcDbBlockTableRecord
  2
LOGO2_BL0
340
0
102
{BLKREFS
331
2C7
102
}
  0
BLOCK_RECORD
  5
22B
330
1
100
AcDbSymbolTableRecord
100
AcDbBlockTableRecord
  2
*T7
340
0
102
{BLKREFS
331
2C8
331
2C8
102
}
  0
ENDTAB
  0
ENDSEC
  0
SECTION
  2
BLOCKS
  0
BLOCK
  5
20
330
222
100
AcDbEntity
  8
0
100
AcDbBlockBegin
  2
*Model_Space
 70
     0
 10
0.0
 20
0.0
 30
0.0
  3
*Model_Space
  1
*Model_Space
  0
ENDBLK
  5
21
330
222
100
AcDbEntity
  8
0
100
AcDbBlockEnd
  0
BLOCK
  5
1C
330
223
100
AcDbEntity
 67
     1
  8
0
100
AcDbBlockBegin
  2
*Paper_Space
 70
     0
 10
0.0
 20
0.0
 30
0.0
  3
*Paper_Space
  1
*Paper_Space
  0
ENDBLK
  5
1D
330
223
100
AcDbEntity
 67
     1
  8
0
100
AcDbBlockEnd
  0
BLOCK
  5
26C
330
224
100
AcDbEntity
  8
0
100
AcDbBlockBegin
  2
_CLOSED
 70
     0
 10
0.0
 20
0.0
 30
0.0
  3
_CLOSED
  1
_CLOSED
  0
LINE
  5
26D
330
224
100
AcDbEntity
  8
0
  6
ByBlock
 62
     0
100
AcDbLine
 10
0.0
 20
0.0
 30
0.0
 11
-1.0
 21
0.2
 31
0.0
  0
LINE
  5
26E
330
224
100
AcDbEntity
  8
0
  6
ByBlock
 62
     0
100
AcDbLine
 10
-1.0
 20
0.2
 30
0.0
 11
-1.0
 21
-0.2
 31
0.0
  0
LINE
  5
26F
330
224
100
AcDbEntity
  8
0
  6
ByBlock
 62
     0
100
AcDbLine
 10
-1.0
 20
-0.2
 30
0.0
 11
0.0
 21
0.0
 31
0.0
  0
LINE
  5
270
330
224
100
AcDbEntity
  8
0
  6
ByBlock
 62
     0
100
AcDbLine
 10
-1.0
 20
0.0
 30
0.0
 11
0.0
 21
0.0
 31
0.0
  0
ENDBLK
  5
271
330
224
100
AcDbEntity
  8
0
  6
ByBlock
 62
     0
100
AcDbBlockEnd
  0
BLOCK
  5
272
330
225
100
AcDbEntity
  8
0
100
AcDbBlockBegin
  2
*D1
 70
     1
 10
0.0
 20
0.0
 30
0.0
  3
*D1
  1
*D1
  0
LINE
  5
273
330
225
100
AcDbEntity
  8
0
  6
Continuous
 62
     0
370
    -2
100
AcDbLine
 10
101.7498918508
 20
50.9196022727
 30
0.0
 11
108.3891599545
 21
50.9196022727
 31
0.0
  0
LINE
  5
274
330
225
100
AcDbEntity
  8
0
  6
Continuous
 62
     0
370
    -2
100
AcDbLine
 10
102.1997609417
 20
102.7196022727
 30
0.0
 11
108.3891599545
 21
102.7196022727
 31
0.0
  0
LINE
  5
275
330
225
100
AcDbEntity
  8
0
  6
Continuous
 62
     0
370
    -2
100
AcDbLine
 10
108.2091599545
 20
53.4196022727
 30
0.0
 11
108.2091599545
 21
100.2196022727
 31
0.0
  0
INSERT
  5
276
330
225
100
AcDbEntity
  8
0
 62
     0
370
    -2
100
AcDbBlockReference
  2
_CLOSED
 10
108.2091599545
 20
50.9196022727
 30
0.0
 41
2.5
 42
2.5
 43
2.5
 50
270.0
  0
INSERT
  5
277
330
225
100
AcDbEntity
  8
0
 62
     0
370
    -2
100
AcDbBlockReference
  2
_CLOSED
 10
108.2091599545
 20
102.7196022727
 30
0.0
 41
2.5
 42
2.5
 43
2.5
 50
90.0
  0
MTEXT
  5
278
330
225
100
AcDbEntity
  8
0
 62
     0
100
AcDbMText
 10
103.2091599545
 20
76.8196022727
 30
0.0
 40
3.0
 41
0.0
 71
     2
 72
     1
  1
\A1;52
 11
0.0
 21
1.0
 31
0.0
 73
     1
 44
1.0
  0
POINT
  5
279
330
225
100
AcDbEntity
  8
Defpoints
 62
     0
100
AcDbPoint
 10
101.6873918508
 20
50.9196022727
 30
0.0
  0
POINT
  5
4A5
330
225
100
AcDbEntity
  8
Defpoints
 62
     0
100
AcDbPoint
 10
102.1372609417
 20
102.7196022727
 30
0.0
  0
POINT
  5
4A6
330
225
100
AcDbEntity
  8
Defpoints
 62
     0
100
AcDbPoint
 10
108.2091599545
 20
102.7196022727
 30
0.0
  0
ENDBLK
  5
27A
330
225
100
AcDbEntity
  8
0
  6
ByBlock
 62
     0
100
AcDbBlockEnd
  0
BLOCK
  5
27B
330
226
100
AcDbEntity
  8
0
100
AcDbBlockBegin
  2
*D2
 70
     1
 10
0.0
 20
0.0
 30
0.0
  3
*D2
  1
*D2
  0
LINE
  5
27C
330
226
100
AcDbEntity
  8
0
  6
Continuous
 62
     0
370
    -2
100
AcDbLine
 10
100.9765965098
 20
249.6790605025
 30
0.0
 11
108.341152067
 21
249.6790605025
 31
0.0
  0
LINE
  5
27D
330
226
100
AcDbEntity
  8
0
  6
Continuous
 62
     0
370
    -2
100
AcDbLine
 10
101.4478692371
 20
194.6790605025
 30
0.0
 11
108.341152067
 21
194.6790605025
 31
0.0
  0
LINE
  5
27E
330
226
100
AcDbEntity
  8
0
  6
Continuous
 62
     0
370
    -2
100
AcDbLine
 10
108.161152067
 20
247.1790605025
 30
0.0
 11
108.161152067
 21
197.1790605025
 31
0.0
  0
INSERT
  5
27F
330
226
100
AcDbEntity
  8
0
 62
     0
370
    -2
100
AcDbBlockReference
  2
_CLOSED
 10
108.161152067
 20
249.6790605025
 30
0.0
 41
2.5
 42
2.5
 43
2.5
 50
89.99999999999999
  0
INSERT
  5
280
330
226
100
AcDbEntity
  8
0
 62
     0
370
    -2
100
AcDbBlockReference
  2
_CLOSED
 10
108.161152067
 20
194.6790605025
 30
0.0
 41
2.5
 42
2.5
 43
2.5
 50
270.0
  0
MTEXT
  5
281
330
226
100
AcDbEntity
  8
0
 62
     0
100
AcDbMText
 10
103.161152067
 20
222.1790605025
 30
0.0
 40
3.0
 41
0.0
 71
     2
 72
     1
  1
\A1;55
 11
2.583791766400364E-16
 21
1.0
 31
0.0
 73
     1
 44
1.0
  0
POINT
  5
282
330
226
100
AcDbEntity
  8
Defpoints
 62
     0
100
AcDbPoint
 10
100.9140965098
 20
249.6790605025
 30
0.0
  0
POINT
  5
49D
330
226
100
AcDbEntity
  8
Defpoints
 62
     0
100
AcDbPoint
 10
101.3853692371
 20
194.6790605025
 30
0.0
  0
POINT
  5
49E
330
226
100
AcDbEntity
  8
Defpoints
 62
     0
100
AcDbPoint
 10
108.161152067
 20
194.6790605025
 30
0.0
  0
ENDBLK
  5
283
330
226
100
AcDbEntity
  8
0
  6
ByBlock
 62
     0
100
AcDbBlockEnd
  0
BLOCK
  5
284
330
227
100
AcDbEntity
  8
0
100
AcDbBlockBegin
  2
*D3
 70
     1
 10
0.0
 20
0.0
 30
0.0
  3
*D3
  1
*D3
  0
LINE
  5
285
330
227
100
AcDbEntity
  8
0
  6
Continuous
 62
     0
370
    -2
100
AcDbLine
 10
44.4509943182
 20
174.6349326296
 30
0.0
 11
44.4509943182
 21
169.2644168497
 31
0.0
  0
LINE
  5
286
330
227
100
AcDbEntity
  8
0
  6
Continuous
 62
     0
370
    -2
100
AcDbLine
 10
99.4509943182
 20
174.9491144478
 30
0.0
 11
99.4509943182
 21
169.2644168497
 31
0.0
  0
LINE
  5
287
330
227
100
AcDbEntity
  8
0
  6
Continuous
 62
     0
370
    -2
100
AcDbLine
 10
46.9509943182
 20
169.4444168497
 30
0.0
 11
96.9509943182
 21
169.4444168497
 31
0.0
  0
INSERT
  5
288
330
227
100
AcDbEntity
  8
0
 62
     0
370
    -2
100
AcDbBlockReference
  2
_CLOSED
 10
44.4509943182
 20
169.4444168497
 30
0.0
 41
2.5
 42
2.5
 43
2.5
 50
180.0
  0
INSERT
  5
289
330
227
100
AcDbEntity
  8
0
 62
     0
370
    -2
100
AcDbBlockReference
  2
_CLOSED
 10
99.4509943182
 20
169.4444168497
 30
0.0
 41
2.5
 42
2.5
 43
2.5
  0
MTEXT
  5
28A
330
227
100
AcDbEntity
  8
0
 62
     0
100
AcDbMText
 10
71.9509943182
 20
174.4444168497
 30
0.0
 40
3.0
 41
0.0
 71
     2
 72
     1
  1
\A1;55
 73
     1
 44
1.0
  0
POINT
  5
28B
330
227
100
AcDbEntity
  8
Defpoints
 62
     0
100
AcDbPoint
 10
44.4509943182
 20
174.6974326296
 30
0.0
  0
POINT
  5
49F
330
227
100
AcDbEntity
  8
Defpoints
 62
     0
100
AcDbPoint
 10
99.4509943182
 20
175.0116144478
 30
0.0
  0
POINT
  5
4A0
330
227
100
AcDbEntity
  8
Defpoints
 62
     0
100
AcDbPoint
 10
99.4509943182
 20
169.4444168497
 30
0.0
  0
ENDBLK
  5
28C
330
227
100
AcDbEntity
  8
0
  6
ByBlock
 62
     0
100
AcDbBlockEnd
  0
BLOCK
  5
28D
330
228
100
AcDbEntity
  8
0
100
AcDbBlockBegin
  2
*D4
 70
     1
 10
0.0
 20
0.0
 30
0.0
  3
*D4
  1
*D4
  0
LINE
  5
28E
330
228
100
AcDbEntity
  8
0
  6
Continuous
 62
     0
370
    -2
100
AcDbLine
 10
179.8230374189
 20
242.1790605025
 30
0.0
 11
171.2656283734
 21
242.1790605025
 31
0.0
  0
LINE
  5
28F
330
228
100
AcDbEntity
  8
0
  6
Continuous
 62
     0
370
    -2
100
AcDbLine
 10
180.7027465098
 20
202.1790605025
 30
0.0
 11
171.2656283734
 21
202.1790605025
 31
0.0
  0
LINE
  5
290
330
228
100
AcDbEntity
  8
0
  6
Continuous
 62
     0
370
    -2
100
AcDbLine
 10
171.4456283734
 20
239.6790605025
 30
0.0
 11
171.4456283734
 21
204.6790605025
 31
0.0
  0
INSERT
  5
291
330
228
100
AcDbEntity
  8
0
 62
     0
370
    -2
100
AcDbBlockReference
  2
_CLOSED
 10
171.4456283734
 20
242.1790605025
 30
0.0
 41
2.5
 42
2.5
 43
2.5
 50
90.0
  0
INSERT
  5
292
330
228
100
AcDbEntity
  8
0
 62
     0
370
    -2
100
AcDbBlockReference
  2
_CLOSED
 10
171.4456283734
 20
202.1790605025
 30
0.0
 41
2.5
 42
2.5
 43
2.5
 50
270.0
  0
MTEXT
  5
293
330
228
100
AcDbEntity
  8
0
 62
     0
100
AcDbMText
 10
166.4456283734
 20
222.1790605025
 30
0.0
 40
3.0
 41
0.0
 71
     2
 72
     1
  1
\A1;%%c40
 11
0.0
 21
1.0
 31
0.0
 73
     1
 44
1.0
  0
POINT
  5
294
330
228
100
AcDbEntity
  8
Defpoints
 62
     0
100
AcDbPoint
 10
179.8855374189
 20
242.1790605025
 30
0.0
  0
POINT
  5
4A1
330
228
100
AcDbEntity
  8
Defpoints
 62
     0
100
AcDbPoint
 10
180.7652465098
 20
202.1790605025
 30
0.0
  0
POINT
  5
4A2
330
228
100
AcDbEntity
  8
Defpoints
 62
     0
100
AcDbPoint
 10
171.4456283734
 20
202.1790605025
 30
0.0
  0
ENDBLK
  5
295
330
228
100
AcDbEntity
  8
0
  6
ByBlock
 62
     0
100
AcDbBlockEnd
  0
BLOCK
  5
296
330
229
100
AcDbEntity
  8
0
100
AcDbBlockBegin
  2
*D5
 70
     1
 10
0.0
 20
0.0
 30
0.0
  3
*D5
  1
*D5
  0
LINE
  5
297
330
229
100
AcDbEntity
  8
0
  6
Continuous
 62
     0
370
    -2
100
AcDbLine
 10
232.9194679954
 20
251.8868489024
 30
0.0
 11
232.9194679954
 21
276.0830055972
 31
0.0
  0
LINE
  5
298
330
229
100
AcDbEntity
  8
0
  6
Continuous
 62
     0
370
    -2
100
AcDbLine
 10
234.5194679954
 20
251.9511933387
 30
0.0
 11
234.5194679954
 21
276.0830055972
 31
0.0
  0
LINE
  5
299
330
229
100
AcDbEntity
  8
0
  6
Continuous
 62
     0
370
    -2
100
AcDbLine
 10
234.5194679954
 20
275.9030055972
 30
0.0
 11
247.7694679954
 21
275.9030055972
 31
0.0
  0
LINE
  5
29A
330
229
100
AcDbEntity
  8
0
  6
Continuous
 62
     0
370
    -2
100
AcDbLine
 10
230.4194679954
 20
275.9030055972
 30
0.0
 11
227.9194679954
 21
275.9030055972
 31
0.0
  0
LINE
  5
29B
330
229
100
AcDbEntity
  8
0
  6
Continuous
 62
     0
370
    -2
100
AcDbLine
 10
237.0194679954
 20
275.9030055972
 30
0.0
 11
239.5194679954
 21
275.9030055972
 31
0.0
  0
INSERT
  5
29C
330
229
100
AcDbEntity
  8
0
 62
     0
370
    -2
100
AcDbBlockReference
  2
_CLOSED
 10
232.9194679954
 20
275.9030055972
 30
0.0
 41
2.5
 42
2.5
 43
2.5
  0
INSERT
  5
29D
330
229
100
AcDbEntity
  8
0
 62
     0
370
    -2
100
AcDbBlockReference
  2
_CLOSED
 10
234.5194679954
 20
275.9030055972
 30
0.0
 41
2.5
 42
2.5
 43
2.5
 50
180.0
  0
MTEXT
  5
29E
330
229
100
AcDbEntity
  8
0
 62
     0
100
AcDbMText
 10
241.5194679954
 20
280.9030055972
 30
0.0
 40
3.0
 41
0.0
 71
     1
 72
     1
  1
\A1;1.6
 73
     1
 44
1.0
  0
POINT
  5
29F
330
229
100
AcDbEntity
  8
Defpoints
 62
     0
100
AcDbPoint
 10
232.9194679954
 20
251.8243489024
 30
0.0
  0
POINT
  5
4A3
330
229
100
AcDbEntity
  8
Defpoints
 62
     0
100
AcDbPoint
 10
234.5194679954
 20
251.8886933387
 30
0.0
  0
POINT
  5
4A4
330
229
100
AcDbEntity
  8
Defpoints
 62
     0
100
AcDbPoint
 10
234.5194679954
 20
273.6530055972
 30
0.0
  0
ENDBLK
  5
2A0
330
229
100
AcDbEntity
  8
0
  6
ByBlock
 62
     0
100
AcDbBlockEnd
  0
BLOCK
  5
230
330
22A
100
AcDbEntity
  8
0
100
AcDbBlockBegin
  2
LOGO2_BL0
 70
     0
 10
333.1473869546
 20
37.5239270671
 30
0.0
  3
LOGO2_BL0
  1
LOGO2_BL0
  0
LINE
  5
231
330
22A
100
AcDbEntity
  8
0
  6
Continuous
 62
     7
100
AcDbLine
 10
324.8903121828
 20
40.7194184059
 30
0.0
 11
323.5859712535
 21
40.7194184059
 31
0.0
  0
LINE
  5
232
330
22A
100
AcDbEntity
  8
0
  6
Continuous
 62
     7
100
AcDbLine
 10
323.5859712535
 20
40.7194184059
 30
0.0
 11
323.5859712535
 21
30.260352346
 31
0.0
  0
LINE
  5
233
330
22A
100
AcDbEntity
  8
0
  6
Continuous
 62
     7
100
AcDbLine
 10
323.5859712535
 20
30.260352346
 30
0.0
 11
328.0670261417
 21
30.260352346
 31
0.0
  0
LINE
  5
234
330
22A
100
AcDbEntity
  8
0
  6
Continuous
 62
     7
100
AcDbLine
 10
328.0670261417
 20
30.260352346
 30
0.0
 11
328.0670261417
 21
31.4532066711
 31
0.0
  0
LINE
  5
235
330
22A
100
AcDbEntity
  8
0
  6
Continuous
 62
     7
100
AcDbLine
 10
328.0670261417
 20
31.4532066711
 30
0.0
 11
324.8903121828
 21
31.4532066711
 31
0.0
  0
LINE
  5
236
330
22A
100
AcDbEntity
  8
0
  6
Continuous
 62
     7
100
AcDbLine
 10
324.8903121828
 20
31.4532066711
 30
0.0
 11
324.8903121828
 21
40.7194184059
 31
0.0
  0
LINE
  5
237
330
22A
100
AcDbEntity
  8
0
  6
Continuous
 62
     7
100
AcDbLine
 10
339.8266383991
 20
40.7194184059
 30
0.0
 11
338.522820881
 21
40.7194184059
 31
0.0
  0
LINE
  5
238
330
22A
100
AcDbEntity
  8
0
  6
Continuous
 62
     7
100
AcDbLine
 10
338.522820881
 20
40.7194184059
 30
0.0
 11
338.522820881
 21
30.260352346
 31
0.0
  0
LINE
  5
239
330
22A
100
AcDbEntity
  8
0
  6
Continuous
 62
     7
100
AcDbLine
 10
338.522820881
 20
30.260352346
 30
0.0
 11
343.0040066221
 21
30.260352346
 31
0.0
  0
LINE
  5
23A
330
22A
100
AcDbEntity
  8
0
  6
Continuous
 62
     7
100
AcDbLine
 10
343.0040066221
 20
30.260352346
 30
0.0
 11
343.0040066221
 21
31.4532066711
 31
0.0
  0
LINE
  5
23B
330
22A
100
AcDbEntity
  8
0
  6
Continuous
 62
     7
100
AcDbLine
 10
343.0040066221
 20
31.4532066711
 30
0.0
 11
339.8266383991
 21
31.4532066711
 31
0.0
  0
LINE
  5
23C
330
22A
100
AcDbEntity
  8
0
  6
Continuous
 62
     7
100
AcDbLine
 10
339.8266383991
 20
31.4532066711
 30
0.0
 11
339.8266383991
 21
40.7194184059
 31
0.0
  0
LWPOLYLINE
  5
23D
330
22A
100
AcDbEntity
  8
0
  6
Continuous
 62
     7
100
AcDbPolyline
 90
        2
 70
     0
 43
0.2
 10
321.9403661644
 20
26.9168010391
 10
321.9403661644
 20
25.0597377898
  0
LWPOLYLINE
  5
23E
330
22A
100
AcDbEntity
  8
0
  6
Continuous
 62
     7
100
AcDbPolyline
 90
        2
 70
     0
 43
0.2
 10
321.9403661644
 20
25.0597377898
 10
322.7360821748
 20
25.0597377898
  0
LWPOLYLINE
  5
23F
330
22A
100
AcDbEntity
  8
0
  6
Continuous
 62
     7
100
AcDbPolyline
 90
        2
 70
     0
 43
0.2
 10
322.7360821748
 20
25.0597377898
 10
322.7360821748
 20
25.2717193614
  0
LWPOLYLINE
  5
240
330
22A
100
AcDbEntity
  8
0
  6
Continuous
 62
     7
100
AcDbPolyline
 90
        2
 70
     0
 43
0.2
 10
322.7360821748
 20
25.2717193614
 10
322.1719756593
 20
25.2717193614
  0
LWPOLYLINE
  5
241
330
22A
100
AcDbEntity
  8
0
  6
Continuous
 62
     7
100
AcDbPolyline
 90
        2
 70
     0
 43
0.2
 10
322.1719756593
 20
25.2717193614
 10
322.1719756593
 20
26.9168010391
  0
LWPOLYLINE
  5
242
330
22A
100
AcDbEntity
  8
0
  6
Continuous
 62
     7
100
AcDbPolyline
 90
        2
 70
     0
 43
0.2
 10
322.1719756593
 20
26.9168010391
 10
321.9403661644
 20
26.9168010391
  0
SPLINE
  5
243
330
22A
100
AcDbEntity
  8
0
  6
Continuous
 62
     7
100
AcDbSpline
 70
     3
 71
     3
 72
    35
 73
    31
 74
     0
 42
0.000000001
 43
0.0000001
 40
0.0
 40
0.0
 40
0.0
 40
0.0
 40
1.0
 40
1.0
 40
1.0
 40
2.0
 40
2.0
 40
2.0
 40
3.0
 40
3.0
 40
3.0
 40
4.0
 40
4.0
 40
4.0
 40
5.0
 40
5.0
 40
5.0
 40
6.0
 40
6.0
 40
6.0
 40
7.0
 40
7.0
 40
7.0
 40
8.0
 40
8.0
 40
8.0
 40
9.0
 40
9.0
 40
9.0
 40
10.0
 40
10.0
 40
10.0
 40
10.0
 10
324.1343754303
 20
26.2122894457
 30
0.0
 10
324.1343754303
 20
26.2122894457
 30
0.0
 10
324.1343754303
 20
25.5501741665
 30
0.0
 10
324.1343754303
 20
25.5501741665
 30
0.0
 10
324.1343754303
 20
25.2350805712
 30
0.0
 10
324.2822391191
 20
25.0204819432
 30
0.0
 10
324.6223256034
 20
25.0204819432
 30
0.0
 10
324.9618886764
 20
25.0204819432
 30
0.0
 10
325.1100140709
 20
25.2350805712
 30
0.0
 10
325.1100140709
 20
25.5501741665
 30
0.0
 10
325.1100140709
 20
25.5501741665
 30
0.0
 10
325.1100140709
 20
26.2122894457
 30
0.0
 10
325.1100140709
 20
26.2122894457
 30
0.0
 10
325.1100140709
 20
26.2122894457
 30
0.0
 10
324.887956832
 20
26.2122894457
 30
0.0
 10
324.887956832
 20
26.2122894457
 30
0.0
 10
324.887956832
 20
26.2122894457
 30
0.0
 10
324.887956832
 20
25.5752979083
 30
0.0
 10
324.887956832
 20
25.5752979083
 30
0.0
 10
324.887956832
 20
25.3894869011
 30
0.0
 10
324.8412423746
 20
25.2267059906
 30
0.0
 10
324.6223256034
 20
25.2267059906
 30
0.0
 10
324.402885421
 20
25.2267059906
 30
0.0
 10
324.3561709636
 20
25.3894869011
 30
0.0
 10
324.3561709636
 20
25.5752979083
 30
0.0
 10
324.3561709636
 20
25.5752979083
 30
0.0
 10
324.3561709636
 20
26.2122894457
 30
0.0
 10
324.3561709636
 20
26.2122894457
 30
0.0
 10
324.3561709636
 20
26.2122894457
 30
0.0
 10
324.1343754303
 20
26.2122894457
 30
0.0
 10
324.1343754303
 20
26.2122894457
 30
0.0
  0
SPLINE
  5
244
330
22A
100
AcDbEntity
  8
0
  6
Continuous
 62
     7
100
AcDbSpline
 70
     3
 71
     3
 72
    35
 73
    31
 74
     0
 42
0.000000001
 43
0.0000001
 40
0.0
 40
0.0
 40
0.0
 40
0.0
 40
1.0
 40
1.0
 40
1.0
 40
2.0
 40
2.0
 40
2.0
 40
3.0
 40
3.0
 40
3.0
 40
4.0
 40
4.0
 40
4.0
 40
5.0
 40
5.0
 40
5.0
 40
6.0
 40
6.0
 40
6.0
 40
7.0
 40
7.0
 40
7.0
 40
8.0
 40
8.0
 40
8.0
 40
9.0
 40
9.0
 40
9.0
 40
10.0
 40
10.0
 40
10.0
 40
10.0
 10
327.5331466281
 20
26.1709399539
 30
0.0
 10
327.4446901205
 20
26.2222342601
 30
0.0
 10
327.3312407238
 20
26.2473580019
 30
0.0
 10
327.2276052888
 20
26.2473580019
 30
0.0
 10
326.8727324356
 20
26.2473580019
 30
0.0
 10
326.5972872454
 20
25.9835587129
 30
0.0
 10
326.5972872454
 20
25.6260688032
 30
0.0
 10
326.5972872454
 20
25.2811407645
 30
0.0
 10
326.8757420505
 20
25.0210053545
 30
0.0
 10
327.2153051235
 20
25.0210053545
 30
0.0
 10
327.3312407238
 20
25.0210053545
 30
0.0
 10
327.4319973967
 20
25.0429886286
 30
0.0
 10
327.5331466281
 20
25.0968999912
 30
0.0
 10
327.5331466281
 20
25.0968999912
 30
0.0
 10
327.5331466281
 20
25.3795420867
 30
0.0
 10
327.5331466281
 20
25.3795420867
 30
0.0
 10
327.4492699692
 20
25.2863748774
 30
0.0
 10
327.345765387
 20
25.2272294019
 30
0.0
 10
327.2176604743
 20
25.2272294019
 30
0.0
 10
326.9839573343
 20
25.2272294019
 30
0.0
 10
326.8186902202
 20
25.3994317156
 30
0.0
 10
326.8186902202
 20
25.6360136177
 30
0.0
 10
326.8186902202
 20
25.8479951893
 30
0.0
 10
326.9864435379
 20
26.040087132
 30
0.0
 10
327.2032666639
 20
26.040087132
 30
0.0
 10
327.3360822782
 20
26.040087132
 30
0.0
 10
327.4446901205
 20
25.9861757693
 30
0.0
 10
327.5331466281
 20
25.8851573907
 30
0.0
 10
327.5331466281
 20
25.8851573907
 30
0.0
 10
327.5331466281
 20
26.1709399539
 30
0.0
 10
327.5331466281
 20
26.1709399539
 30
0.0
  0
SPLINE
  5
245
330
22A
100
AcDbEntity
  8
0
  6
Continuous
 62
     7
100
AcDbSpline
 70
     3
 71
     3
 72
    32
 73
    28
 74
     0
 42
0.000000001
 43
0.0000001
 40
0.0
 40
0.0
 40
0.0
 40
0.0
 40
1.0
 40
1.0
 40
1.0
 40
2.0
 40
2.0
 40
2.0
 40
3.0
 40
3.0
 40
3.0
 40
4.0
 40
4.0
 40
4.0
 40
5.0
 40
5.0
 40
5.0
 40
6.0
 40
6.0
 40
6.0
 40
7.0
 40
7.0
 40
7.0
 40
8.0
 40
8.0
 40
8.0
 40
9.0
 40
9.0
 40
9.0
 40
9.0
 10
330.0650178804
 20
25.5993748276
 30
0.0
 10
330.0650178804
 20
25.5993748276
 30
0.0
 10
330.0650178804
 20
25.6333965613
 30
0.0
 10
330.0650178804
 20
25.6333965613
 30
0.0
 10
330.0650178804
 20
25.9757075435
 30
0.0
 10
329.8921613025
 20
26.2473580019
 30
0.0
 10
329.5255116954
 20
26.2473580019
 30
0.0
 10
329.153889681
 20
26.2473580019
 30
0.0
 10
328.9641530891
 20
25.9809416564
 30
0.0
 10
328.9641530891
 20
25.6260688032
 30
0.0
 10
328.9641530891
 20
25.2863748774
 30
0.0
 10
329.1782283059
 20
25.0204819432
 30
0.0
 10
329.5303532498
 20
25.0204819432
 30
0.0
 10
329.754373281
 20
25.0204819432
 30
0.0
 10
329.9565408909
 20
25.1361558378
 30
0.0
 10
330.0650178804
 20
25.3355755385
 30
0.0
 10
330.0650178804
 20
25.3355755385
 30
0.0
 10
329.8773749337
 20
25.4423514412
 30
0.0
 10
329.8773749337
 20
25.4423514412
 30
0.0
 10
329.7938908332
 20
25.3036474499
 30
0.0
 10
329.7026864163
 20
25.2178079987
 30
0.0
 10
329.5331011591
 20
25.2178079987
 30
0.0
 10
329.3211195875
 20
25.2178079987
 30
0.0
 10
329.1881731204
 20
25.4025721833
 30
0.0
 10
329.1858177696
 20
25.5993748276
 30
0.0
 10
329.1858177696
 20
25.5993748276
 30
0.0
 10
330.0650178804
 20
25.5993748276
 30
0.0
 10
330.0650178804
 20
25.5993748276
 30
0.0
  0
SPLINE
  5
246
330
22A
100
AcDbEntity
  8
0
  6
Continuous
 62
     7
100
AcDbSpline
 70
     3
 71
     3
 72
    14
 73
    10
 74
     0
 42
0.000000001
 43
0.0000001
 40
0.0
 40
0.0
 40
0.0
 40
0.0
 40
1.0
 40
1.0
 40
1.0
 40
2.0
 40
2.0
 40
2.0
 40
3.0
 40
3.0
 40
3.0
 40
3.0
 10
329.1978562292
 20
25.7668664397
 30
0.0
 10
329.2254661746
 20
25.9317409954
 30
0.0
 10
329.3533093817
 20
26.054742648
 30
0.0
 10
329.5255116954
 20
26.054742648
 30
0.0
 10
329.7026864163
 20
26.054742648
 30
0.0
 10
329.816135813
 20
25.9390687534
 30
0.0
 10
329.8433531999
 20
25.7668664397
 30
0.0
 10
329.8433531999
 20
25.7668664397
 30
0.0
 10
329.1978562292
 20
25.7668664397
 30
0.0
 10
329.1978562292
 20
25.7668664397
 30
0.0
  0
SPLINE
  5
247
330
22A
100
AcDbEntity
  8
0
  6
Continuous
 62
     7
100
AcDbSpline
 70
     3
 71
     3
 72
    20
 73
    16
 74
     0
 42
0.000000001
 43
0.0000001
 40
0.0
 40
0.0
 40
0.0
 40
0.0
 40
1.0
 40
1.0
 40
1.0
 40
2.0
 40
2.0
 40
2.0
 40
3.0
 40
3.0
 40
3.0
 40
4.0
 40
4.0
 40
4.0
 40
5.0
 40
5.0
 40
5.0
 40
5.0
 10
332.0890493306
 20
25.9762309548
 30
0.0
 10
332.0890493306
 20
25.9762309548
 30
0.0
 10
332.5001888972
 20
25.4737561185
 30
0.0
 10
332.5001888972
 20
25.4737561185
 30
0.0
 10
332.3841224441
 20
25.3580822239
 30
0.0
 10
332.2463344226
 20
25.2277528132
 30
0.0
 10
332.0743938145
 20
25.2277528132
 30
0.0
 10
331.8969573879
 20
25.2277528132
 30
0.0
 10
331.7294657758
 20
25.3921039576
 30
0.0
 10
331.7294657758
 20
25.5690169729
 30
0.0
 10
331.7294657758
 20
25.7469768107
 30
0.0
 10
331.9392228494
 20
25.8731189311
 30
0.0
 10
332.0668043508
 20
25.9610520275
 30
0.0
 10
332.0668043508
 20
25.9610520275
 30
0.0
 10
332.0890493306
 20
25.9762309548
 30
0.0
 10
332.0890493306
 20
25.9762309548
 30
0.0
  0
SPLINE
  5
248
330
22A
100
AcDbEntity
  8
0
  6
Continuous
 62
     7
100
AcDbSpline
 70
     3
 71
     3
 72
    23
 73
    19
 74
     0
 42
0.000000001
 43
0.0000001
 40
0.0
 40
0.0
 40
0.0
 40
0.0
 40
1.0
 40
1.0
 40
1.0
 40
2.0
 40
2.0
 40
2.0
 40
3.0
 40
3.0
 40
3.0
 40
4.0
 40
4.0
 40
4.0
 40
5.0
 40
5.0
 40
5.0
 40
6.0
 40
6.0
 40
6.0
 40
6.0
 10
332.1383808444
 20
26.2672476309
 30
0.0
 10
332.1383808444
 20
26.2672476309
 30
0.0
 10
332.0767491653
 20
26.3457593241
 30
0.0
 10
332.0767491653
 20
26.3457593241
 30
0.0
 10
332.0228378026
 20
26.4143262028
 30
0.0
 10
331.9660476779
 20
26.4834164928
 30
0.0
 10
331.9660476779
 20
26.5771071133
 30
0.0
 10
331.9660476779
 20
26.6959214757
 30
0.0
 10
332.0619627964
 20
26.7733863463
 30
0.0
 10
332.1729259894
 20
26.7733863463
 30
0.0
 10
332.2961893477
 20
26.7733863463
 30
0.0
 10
332.3894874098
 20
26.7022024111
 30
0.0
 10
332.3894874098
 20
26.5718730004
 30
0.0
 10
332.3894874098
 20
26.4368328882
 30
0.0
 10
332.2613824971
 20
26.3604148401
 30
0.0
 10
332.1678227294
 20
26.2866138485
 30
0.0
 10
332.1678227294
 20
26.2866138485
 30
0.0
 10
332.1383808444
 20
26.2672476309
 30
0.0
 10
332.1383808444
 20
26.2672476309
 30
0.0
  0
SPLINE
  5
249
330
22A
100
AcDbEntity
  8
0
  6
Continuous
 62
     7
100
AcDbSpline
 70
     3
 71
     3
 72
    50
 73
    46
 74
     0
 42
0.000000001
 43
0.0000001
 40
0.0
 40
0.0
 40
0.0
 40
0.0
 40
1.0
 40
1.0
 40
1.0
 40
2.0
 40
2.0
 40
2.0
 40
3.0
 40
3.0
 40
3.0
 40
4.0
 40
4.0
 40
4.0
 40
5.0
 40
5.0
 40
5.0
 40
6.0
 40
6.0
 40
6.0
 40
7.0
 40
7.0
 40
7.0
 40
8.0
 40
8.0
 40
8.0
 40
9.0
 40
9.0
 40
9.0
 40
10.0
 40
10.0
 40
10.0
 40
11.0
 40
11.0
 40
11.0
 40
12.0
 40
12.0
 40
12.0
 40
13.0
 40
13.0
 40
13.0
 40
14.0
 40
14.0
 40
14.0
 40
15.0
 40
15.0
 40
15.0
 40
15.0
 10
332.8405370871
 20
25.0602612011
 30
0.0
 10
332.8405370871
 20
25.0602612011
 30
0.0
 10
333.1259270918
 20
25.0602612011
 30
0.0
 10
333.1259270918
 20
25.0602612011
 30
0.0
 10
333.1259270918
 20
25.0602612011
 30
0.0
 10
332.793560924
 20
25.471139062
 30
0.0
 10
332.793560924
 20
25.471139062
 30
0.0
 10
332.793560924
 20
25.471139062
 30
0.0
 10
333.0200671588
 20
25.7370319963
 30
0.0
 10
333.0200671588
 20
25.7370319963
 30
0.0
 10
333.0200671588
 20
25.7370319963
 30
0.0
 10
332.8718109116
 20
25.8898680923
 30
0.0
 10
332.8718109116
 20
25.8898680923
 30
0.0
 10
332.8718109116
 20
25.8898680923
 30
0.0
 10
332.6559037553
 20
25.6386306742
 30
0.0
 10
332.6559037553
 20
25.6386306742
 30
0.0
 10
332.6559037553
 20
25.6386306742
 30
0.0
 10
332.2688411079
 20
26.1065603655
 30
0.0
 10
332.2688411079
 20
26.1065603655
 30
0.0
 10
332.4242942604
 20
26.2206640263
 30
0.0
 10
332.6065722414
 20
26.3604148401
 30
0.0
 10
332.6065722414
 20
26.5697793553
 30
0.0
 10
332.6065722414
 20
26.8136890154
 30
0.0
 10
332.4045354843
 20
26.9571037083
 30
0.0
 10
332.1780292495
 20
26.9571037083
 30
0.0
 10
331.9338578837
 20
26.9571037083
 30
0.0
 10
331.7494862575
 20
26.8063612574
 30
0.0
 10
331.7494862575
 20
26.5498897263
 30
0.0
 10
331.7494862575
 20
26.3923429287
 30
0.0
 10
331.8481492853
 20
26.25468576
 30
0.0
 10
331.953485807
 20
26.1437225669
 30
0.0
 10
331.953485807
 20
26.1437225669
 30
0.0
 10
331.8379427652
 20
26.0599767609
 30
0.0
 10
331.8379427652
 20
26.0599767609
 30
0.0
 10
331.660244633
 20
25.9317409954
 30
0.0
 10
331.5129043554
 20
25.8040286411
 30
0.0
 10
331.5129043554
 20
25.5669233277
 30
0.0
 10
331.5129043554
 20
25.2465956195
 30
0.0
 10
331.7714695316
 20
25.0204819432
 30
0.0
 10
332.0818524253
 20
25.0204819432
 30
0.0
 10
332.3007691965
 20
25.0204819432
 30
0.0
 10
332.4979643992
 20
25.145577241
 30
0.0
 10
332.6382386243
 20
25.3114986192
 30
0.0
 10
332.6382386243
 20
25.3114986192
 30
0.0
 10
332.8405370871
 20
25.0602612011
 30
0.0
 10
332.8405370871
 20
25.0602612011
 30
0.0
  0
LWPOLYLINE
  5
24A
330
22A
100
AcDbEntity
  8
0
  6
Continuous
 62
     7
100
AcDbPolyline
 90
        2
 70
     0
 43
0.2
 10
334.7759811768
 20
26.9168010391
 10
334.5446333876
 20
26.9168010391
  0
LWPOLYLINE
  5
24B
330
22A
100
AcDbEntity
  8
0
  6
Continuous
 62
     7
100
AcDbPolyline
 90
        2
 70
     0
 43
0.2
 10
334.5446333876
 20
26.9168010391
 10
334.5446333876
 20
25.0597377898
  0
LWPOLYLINE
  5
24C
330
22A
100
AcDbEntity
  8
0
  6
Continuous
 62
     7
100
AcDbPolyline
 90
        2
 70
     0
 43
0.2
 10
334.5446333876
 20
25.0597377898
 10
335.3399568395
 20
25.0597377898
  0
LWPOLYLINE
  5
24D
330
22A
100
AcDbEntity
  8
0
  6
Continuous
 62
     7
100
AcDbPolyline
 90
        2
 70
     0
 43
0.2
 10
335.3399568395
 20
25.0597377898
 10
335.3399568395
 20
25.2717193614
  0
LWPOLYLINE
  5
24E
330
22A
100
AcDbEntity
  8
0
  6
Continuous
 62
     7
100
AcDbPolyline
 90
        2
 70
     0
 43
0.2
 10
335.3399568395
 20
25.2717193614
 10
334.7759811768
 20
25.2717193614
  0
LWPOLYLINE
  5
24F
330
22A
100
AcDbEntity
  8
0
  6
Continuous
 62
     7
100
AcDbPolyline
 90
        2
 70
     0
 43
0.2
 10
334.7759811768
 20
25.2717193614
 10
334.7759811768
 20
26.9168010391
  0
LWPOLYLINE
  5
250
330
22A
100
AcDbEntity
  8
0
  6
Continuous
 62
     7
100
AcDbPolyline
 90
        2
 70
     0
 43
0.2
 10
337.019060251
 20
26.2122894457
 10
336.7979189819
 20
26.2122894457
  0
LWPOLYLINE
  5
251
330
22A
100
AcDbEntity
  8
0
  6
Continuous
 62
     7
100
AcDbPolyline
 90
        2
 70
     0
 43
0.2
 10
336.7979189819
 20
26.2122894457
 10
336.7979189819
 20
25.0602612011
  0
LWPOLYLINE
  5
252
330
22A
100
AcDbEntity
  8
0
  6
Continuous
 62
     7
100
AcDbPolyline
 90
        2
 70
     0
 43
0.2
 10
336.7979189819
 20
25.0602612011
 10
337.019060251
 20
25.0602612011
  0
LWPOLYLINE
  5
253
330
22A
100
AcDbEntity
  8
0
  6
Continuous
 62
     7
100
AcDbPolyline
 90
        2
 70
     0
 43
0.2
 10
337.019060251
 20
25.0602612011
 10
337.019060251
 20
26.2122894457
  0
SPLINE
  5
254
330
22A
100
AcDbEntity
  8
0
  6
Continuous
 62
     7
100
AcDbSpline
 70
     3
 71
     3
 72
    17
 73
    13
 74
     0
 42
0.000000001
 43
0.0000001
 40
0.0
 40
0.0
 40
0.0
 40
0.0
 40
1.0
 40
1.0
 40
1.0
 40
2.0
 40
2.0
 40
2.0
 40
3.0
 40
3.0
 40
3.0
 40
4.0
 40
4.0
 40
4.0
 40
4.0
 10
336.9086204693
 20
26.894817765
 30
0.0
 10
336.8246129576
 20
26.894817765
 30
0.0
 10
336.7560460788
 20
26.825727475
 30
0.0
 10
336.7560460788
 20
26.7398880238
 30
0.0
 10
336.7560460788
 20
26.6556188065
 30
0.0
 10
336.8246129576
 20
26.5896689842
 30
0.0
 10
336.9086204693
 20
26.5896689842
 30
0.0
 10
336.9923662753
 20
26.5896689842
 30
0.0
 10
337.0611948597
 20
26.6556188065
 30
0.0
 10
337.0611948597
 20
26.7398880238
 30
0.0
 10
337.0611948597
 20
26.825727475
 30
0.0
 10
336.9923662753
 20
26.894817765
 30
0.0
 10
336.9086204693
 20
26.894817765
 30
0.0
  0
SPLINE
  5
255
330
22A
100
AcDbEntity
  8
0
  6
Continuous
 62
     7
100
AcDbSpline
 70
     3
 71
     3
 72
    17
 73
    13
 74
     0
 42
0.000000001
 43
0.0000001
 40
0.0
 40
0.0
 40
0.0
 40
0.0
 40
1.0
 40
1.0
 40
1.0
 40
2.0
 40
2.0
 40
2.0
 40
3.0
 40
3.0
 40
3.0
 40
4.0
 40
4.0
 40
4.0
 40
4.0
 10
339.1493441926
 20
25.2178079987
 30
0.0
 10
338.915379347
 20
25.2178079987
 30
0.0
 10
338.7850499363
 20
25.4198447558
 30
0.0
 10
338.7850499363
 20
25.6360136177
 30
0.0
 10
338.7850499363
 20
25.8506122457
 30
0.0
 10
338.9208751655
 20
26.0495085351
 30
0.0
 10
339.1493441926
 20
26.0495085351
 30
0.0
 10
339.3888048568
 20
26.0495085351
 30
0.0
 10
339.5243683804
 20
25.8605570602
 30
0.0
 10
339.5243683804
 20
25.6360136177
 30
0.0
 10
339.5243683804
 20
25.4098999414
 30
0.0
 10
339.3911602076
 20
25.2178079987
 30
0.0
 10
339.1493441926
 20
25.2178079987
 30
0.0
  0
SPLINE
  5
256
330
22A
100
AcDbEntity
  8
0
  6
Continuous
 62
     7
100
AcDbSpline
 70
     3
 71
     3
 72
    50
 73
    46
 74
     0
 42
0.000000001
 43
0.0000001
 40
0.0
 40
0.0
 40
0.0
 40
0.0
 40
1.0
 40
1.0
 40
1.0
 40
2.0
 40
2.0
 40
2.0
 40
3.0
 40
3.0
 40
3.0
 40
4.0
 40
4.0
 40
4.0
 40
5.0
 40
5.0
 40
5.0
 40
6.0
 40
6.0
 40
6.0
 40
7.0
 40
7.0
 40
7.0
 40
8.0
 40
8.0
 40
8.0
 40
9.0
 40
9.0
 40
9.0
 40
10.0
 40
10.0
 40
10.0
 40
11.0
 40
11.0
 40
11.0
 40
12.0
 40
12.0
 40
12.0
 40
13.0
 40
13.0
 40
13.0
 40
14.0
 40
14.0
 40
14.0
 40
15.0
 40
15.0
 40
15.0
 40
15.0
 10
339.7334711899
 20
26.2128128569
 30
0.0
 10
339.7334711899
 20
26.2128128569
 30
0.0
 10
339.5118065095
 20
26.2128128569
 30
0.0
 10
339.5118065095
 20
26.2128128569
 30
0.0
 10
339.5118065095
 20
26.2128128569
 30
0.0
 10
339.5118065095
 20
26.0154868014
 30
0.0
 10
339.5118065095
 20
26.0154868014
 30
0.0
 10
339.5118065095
 20
26.0154868014
 30
0.0
 10
339.5070958079
 20
26.0154868014
 30
0.0
 10
339.5070958079
 20
26.0154868014
 30
0.0
 10
339.4157605382
 20
26.158378083
 30
0.0
 10
339.2778416638
 20
26.2468345907
 30
0.0
 10
339.1051159388
 20
26.2468345907
 30
0.0
 10
338.772749771
 20
26.2468345907
 30
0.0
 10
338.5636469615
 20
25.9589583823
 30
0.0
 10
338.5636469615
 20
25.6433413757
 30
0.0
 10
338.5636469615
 20
25.3135922644
 30
0.0
 10
338.7607113114
 20
25.0204819432
 30
0.0
 10
339.1155841646
 20
25.0204819432
 30
0.0
 10
339.2778416638
 20
25.0204819432
 30
0.0
 10
339.4178541833
 20
25.1089384508
 30
0.0
 10
339.5070958079
 20
25.2397912728
 30
0.0
 10
339.5070958079
 20
25.2397912728
 30
0.0
 10
339.5118065095
 20
25.2397912728
 30
0.0
 10
339.5118065095
 20
25.2397912728
 30
0.0
 10
339.5118065095
 20
25.2397912728
 30
0.0
 10
339.5118065095
 20
25.0204819432
 30
0.0
 10
339.5118065095
 20
25.0204819432
 30
0.0
 10
339.5118065095
 20
24.7839000411
 30
0.0
 10
339.4552780904
 20
24.5970422113
 30
0.0
 10
339.1820573981
 20
24.5970422113
 30
0.0
 10
338.9797589354
 20
24.5970422113
 30
0.0
 10
338.8371293594
 20
24.7153331624
 30
0.0
 10
338.8371293594
 20
24.9215572098
 30
0.0
 10
338.8371293594
 20
24.9215572098
 30
0.0
 10
338.615464679
 20
24.9215572098
 30
0.0
 10
338.615464679
 20
24.9215572098
 30
0.0
 10
338.6204370862
 20
24.5970422113
 30
0.0
 10
338.8515231698
 20
24.4002395671
 30
0.0
 10
339.171850878
 20
24.4002395671
 30
0.0
 10
339.6198909404
 20
24.4002395671
 30
0.0
 10
339.7334711899
 20
24.6854987189
 30
0.0
 10
339.7334711899
 20
25.0822444751
 30
0.0
 10
339.7334711899
 20
25.0822444751
 30
0.0
 10
339.7334711899
 20
26.2128128569
 30
0.0
 10
339.7334711899
 20
26.2128128569
 30
0.0
  0
SPLINE
  5
257
330
22A
100
AcDbEntity
  8
0
  6
Continuous
 62
     7
100
AcDbSpline
 70
     3
 71
     3
 72
    44
 73
    40
 74
     0
 42
0.000000001
 43
0.0000001
 40
0.0
 40
0.0
 40
0.0
 40
0.0
 40
1.0
 40
1.0
 40
1.0
 40
2.0
 40
2.0
 40
2.0
 40
3.0
 40
3.0
 40
3.0
 40
4.0
 40
4.0
 40
4.0
 40
5.0
 40
5.0
 40
5.0
 40
6.0
 40
6.0
 40
6.0
 40
7.0
 40
7.0
 40
7.0
 40
8.0
 40
8.0
 40
8.0
 40
9.0
 40
9.0
 40
9.0
 40
10.0
 40
10.0
 40
10.0
 40
11.0
 40
11.0
 40
11.0
 40
12.0
 40
12.0
 40
12.0
 40
13.0
 40
13.0
 40
13.0
 40
13.0
 10
341.3023965253
 20
27.1978729007
 30
0.0
 10
341.3023965253
 20
27.1978729007
 30
0.0
 10
341.3023965253
 20
25.0597377898
 30
0.0
 10
341.3023965253
 20
25.0597377898
 30
0.0
 10
341.3023965253
 20
25.0597377898
 30
0.0
 10
341.5237995001
 20
25.0597377898
 30
0.0
 10
341.5237995001
 20
25.0597377898
 30
0.0
 10
341.5237995001
 20
25.0597377898
 30
0.0
 10
341.5237995001
 20
25.5894300131
 30
0.0
 10
341.5237995001
 20
25.5894300131
 30
0.0
 10
341.5237995001
 20
25.7993179395
 30
0.0
 10
341.5237995001
 20
26.0500319464
 30
0.0
 10
341.8090586519
 20
26.0500319464
 30
0.0
 10
342.0359574452
 20
26.0500319464
 30
0.0
 10
342.0629131266
 20
25.9170854793
 30
0.0
 10
342.0629131266
 20
25.7208062464
 30
0.0
 10
342.0629131266
 20
25.7208062464
 30
0.0
 10
342.0629131266
 20
25.0597377898
 30
0.0
 10
342.0629131266
 20
25.0597377898
 30
0.0
 10
342.0629131266
 20
25.0597377898
 30
0.0
 10
342.2848395126
 20
25.0597377898
 30
0.0
 10
342.2848395126
 20
25.0597377898
 30
0.0
 10
342.2848395126
 20
25.0597377898
 30
0.0
 10
342.2848395126
 20
25.7469768107
 30
0.0
 10
342.2848395126
 20
25.7469768107
 30
0.0
 10
342.2848395126
 20
26.027525261
 30
0.0
 10
342.2008320009
 20
26.2473580019
 30
0.0
 10
341.8757935911
 20
26.2473580019
 30
0.0
 10
341.7360427773
 20
26.2473580019
 30
0.0
 10
341.5978621973
 20
26.1808847684
 30
0.0
 10
341.5285102016
 20
26.0578831157
 30
0.0
 10
341.5285102016
 20
26.0578831157
 30
0.0
 10
341.5237995001
 20
26.0578831157
 30
0.0
 10
341.5237995001
 20
26.0578831157
 30
0.0
 10
341.5237995001
 20
26.0578831157
 30
0.0
 10
341.5237995001
 20
27.1978729007
 30
0.0
 10
341.5237995001
 20
27.1978729007
 30
0.0
 10
341.5237995001
 20
27.1978729007
 30
0.0
 10
341.3023965253
 20
27.1978729007
 30
0.0
 10
341.3023965253
 20
27.1978729007
 30
0.0
  0
LWPOLYLINE
  5
258
330
22A
100
AcDbEntity
  8
0
  6
Continuous
 62
     7
100
AcDbPolyline
 90
        2
 70
     0
 43
0.2
 10
344.1246301895
 20
26.005541987
 10
344.341060757
 20
26.005541987
  0
LWPOLYLINE
  5
259
330
22A
100
AcDbEntity
  8
0
  6
Continuous
 62
     7
100
AcDbPolyline
 90
        2
 70
     0
 43
0.2
 10
344.341060757
 20
26.005541987
 10
344.341060757
 20
26.2122894457
  0
LWPOLYLINE
  5
25A
330
22A
100
AcDbEntity
  8
0
  6
Continuous
 62
     7
100
AcDbPolyline
 90
        2
 70
     0
 43
0.2
 10
344.341060757
 20
26.2122894457
 10
344.1246301895
 20
26.2122894457
  0
LWPOLYLINE
  5
25B
330
22A
100
AcDbEntity
  8
0
  6
Continuous
 62
     7
100
AcDbPolyline
 90
        2
 70
     0
 43
0.2
 10
344.1246301895
 20
26.2122894457
 10
344.1246301895
 20
26.65300175
  0
LWPOLYLINE
  5
25C
330
22A
100
AcDbEntity
  8
0
  6
Continuous
 62
     7
100
AcDbPolyline
 90
        2
 70
     0
 43
0.2
 10
344.1246301895
 20
26.65300175
 10
343.9029655091
 20
26.65300175
  0
LWPOLYLINE
  5
25D
330
22A
100
AcDbEntity
  8
0
  6
Continuous
 62
     7
100
AcDbPolyline
 90
        2
 70
     0
 43
0.2
 10
343.9029655091
 20
26.65300175
 10
343.9029655091
 20
26.2122894457
  0
LWPOLYLINE
  5
25E
330
22A
100
AcDbEntity
  8
0
  6
Continuous
 62
     7
100
AcDbPolyline
 90
        2
 70
     0
 43
0.2
 10
343.9029655091
 20
26.2122894457
 10
343.7823192072
 20
26.2122894457
  0
LWPOLYLINE
  5
25F
330
22A
100
AcDbEntity
  8
0
  6
Continuous
 62
     7
100
AcDbPolyline
 90
        2
 70
     0
 43
0.2
 10
343.7823192072
 20
26.2122894457
 10
343.7823192072
 20
26.005541987
  0
LWPOLYLINE
  5
260
330
22A
100
AcDbEntity
  8
0
  6
Continuous
 62
     7
100
AcDbPolyline
 90
        2
 70
     0
 43
0.2
 10
343.7823192072
 20
26.005541987
 10
343.9029655091
 20
26.005541987
  0
LWPOLYLINE
  5
261
330
22A
100
AcDbEntity
  8
0
  6
Continuous
 62
     7
100
AcDbPolyline
 90
        2
 70
     0
 43
0.2
 10
343.9029655091
 20
26.005541987
 10
343.9029655091
 20
25.0597377898
  0
LWPOLYLINE
  5
262
330
22A
100
AcDbEntity
  8
0
  6
Continuous
 62
     7
100
AcDbPolyline
 90
        2
 70
     0
 43
0.2
 10
343.9029655091
 20
25.0597377898
 10
344.1246301895
 20
25.0597377898
  0
LWPOLYLINE
  5
263
330
22A
100
AcDbEntity
  8
0
  6
Continuous
 62
     7
100
AcDbPolyline
 90
        2
 70
     0
 43
0.2
 10
344.1246301895
 20
25.0597377898
 10
344.1246301895
 20
26.005541987
  0
SPLINE
  5
264
330
22A
100
AcDbEntity
  8
0
  6
Continuous
 62
     7
100
AcDbSpline
 70
     3
 71
     3
 72
    20
 73
    16
 74
     0
 42
0.000000001
 43
0.0000001
 40
0.0
 40
0.0
 40
0.0
 40
0.0
 40
1.0
 40
1.0
 40
1.0
 40
2.0
 40
2.0
 40
2.0
 40
3.0
 40
3.0
 40
3.0
 40
4.0
 40
4.0
 40
4.0
 40
5.0
 40
5.0
 40
5.0
 40
5.0
 10
331.9066404967
 20
35.4206642332
 30
0.0
 10
331.9066404967
 20
35.4206642332
 30
0.0
 10
334.2229971512
 20
32.5911028109
 30
0.0
 10
334.2229971512
 20
32.5911028109
 30
0.0
 10
333.5713500978
 20
31.9389323462
 30
0.0
 10
332.7944768938
 20
31.2030160755
 30
0.0
 10
331.8232872491
 20
31.2030160755
 30
0.0
 10
330.8247493647
 20
31.2030160755
 30
0.0
 10
329.8814313711
 20
32.1325945228
 30
0.0
 10
329.8814313711
 20
33.1317866713
 30
0.0
 10
329.8814313711
 20
34.1309788198
 30
0.0
 10
331.0602844442
 20
34.8375840585
 30
0.0
 10
331.7818069046
 20
35.3374418384
 30
0.0
 10
331.7818069046
 20
35.3374418384
 30
0.0
 10
331.9066404967
 20
35.4206642332
 30
0.0
 10
331.9066404967
 20
35.4206642332
 30
0.0
  0
SPLINE
  5
265
330
22A
100
AcDbEntity
  8
0
  6
Continuous
 62
     7
100
AcDbSpline
 70
     3
 71
     3
 72
    23
 73
    19
 74
     0
 42
0.000000001
 43
0.0000001
 40
0.0
 40
0.0
 40
0.0
 40
0.0
 40
1.0
 40
1.0
 40
1.0
 40
2.0
 40
2.0
 40
2.0
 40
3.0
 40
3.0
 40
3.0
 40
4.0
 40
4.0
 40
4.0
 40
5.0
 40
5.0
 40
5.0
 40
6.0
 40
6.0
 40
6.0
 40
6.0
 10
332.1840484793
 20
37.0584181529
 30
0.0
 10
332.1840484793
 20
37.0584181529
 30
0.0
 10
331.8375502067
 20
37.5017475137
 30
0.0
 10
331.8375502067
 20
37.5017475137
 30
0.0
 10
331.5317471618
 20
37.8898569837
 30
0.0
 10
331.2128588347
 20
38.2783590121
 30
0.0
 10
331.2128588347
 20
38.8053033262
 30
0.0
 10
331.2128588347
 20
39.4714750428
 30
0.0
 10
331.7541969591
 20
39.9151969621
 30
0.0
 10
332.3781032143
 20
39.9151969621
 30
0.0
 10
333.0718848763
 20
39.9151969621
 30
0.0
 10
333.5990908961
 20
39.5129553874
 30
0.0
 10
333.5990908961
 20
38.7779550864
 30
0.0
 10
333.5990908961
 20
38.0146905758
 30
0.0
 10
332.8778301414
 20
37.58457735
 30
0.0
 10
332.3507549745
 20
37.1688579346
 30
0.0
 10
332.3507549745
 20
37.1688579346
 30
0.0
 10
332.1840484793
 20
37.0584181529
 30
0.0
 10
332.1840484793
 20
37.0584181529
 30
0.0
  0
SPLINE
  5
266
330
22A
100
AcDbEntity
  8
0
  6
Continuous
 62
     7
100
AcDbSpline
 70
     3
 71
     3
 72
    50
 73
    46
 74
     0
 42
0.000000001
 43
0.0000001
 40
0.0
 40
0.0
 40
0.0
 40
0.0
 40
1.0
 40
1.0
 40
1.0
 40
2.0
 40
2.0
 40
2.0
 40
3.0
 40
3.0
 40
3.0
 40
4.0
 40
4.0
 40
4.0
 40
5.0
 40
5.0
 40
5.0
 40
6.0
 40
6.0
 40
6.0
 40
7.0
 40
7.0
 40
7.0
 40
8.0
 40
8.0
 40
8.0
 40
9.0
 40
9.0
 40
9.0
 40
10.0
 40
10.0
 40
10.0
 40
11.0
 40
11.0
 40
11.0
 40
12.0
 40
12.0
 40
12.0
 40
13.0
 40
13.0
 40
13.0
 40
14.0
 40
14.0
 40
14.0
 40
15.0
 40
15.0
 40
15.0
 40
15.0
 10
336.1376356422
 20
30.2598289348
 30
0.0
 10
336.1376356422
 20
30.2598289348
 30
0.0
 10
337.7468636468
 20
30.2598289348
 30
0.0
 10
337.7468636468
 20
30.2598289348
 30
0.0
 10
337.7468636468
 20
30.2598289348
 30
0.0
 10
335.8738363531
 20
32.5769707062
 30
0.0
 10
335.8738363531
 20
32.5769707062
 30
0.0
 10
335.8738363531
 20
32.5769707062
 30
0.0
 10
337.1501747786
 20
34.0744504008
 30
0.0
 10
337.1501747786
 20
34.0744504008
 30
0.0
 10
337.1501747786
 20
34.0744504008
 30
0.0
 10
336.3179508309
 20
34.9354619693
 30
0.0
 10
336.3179508309
 20
34.9354619693
 30
0.0
 10
336.3179508309
 20
34.9354619693
 30
0.0
 10
335.0973557076
 20
33.5201578469
 30
0.0
 10
335.0973557076
 20
33.5201578469
 30
0.0
 10
335.0973557076
 20
33.5201578469
 30
0.0
 10
332.9194413388
 20
36.1555336813
 30
0.0
 10
332.9194413388
 20
36.1555336813
 30
0.0
 10
333.7930147782
 20
36.7935720412
 30
0.0
 10
334.8196860194
 20
37.58457735
 30
0.0
 10
334.8196860194
 20
38.7634304231
 30
0.0
 10
334.8196860194
 20
40.1371233482
 30
0.0
 10
333.6817898795
 20
40.9416064976
 30
0.0
 10
332.4064982766
 20
40.9416064976
 30
0.0
 10
331.0330670573
 20
40.9416064976
 30
0.0
 10
329.9921328585
 20
40.0953812979
 30
0.0
 10
329.9921328585
 20
38.6527289358
 30
0.0
 10
329.9921328585
 20
37.7651542444
 30
0.0
 10
330.547472235
 20
36.9882810403
 30
0.0
 10
331.1436376918
 20
36.3638513739
 30
0.0
 10
331.1436376918
 20
36.3638513739
 30
0.0
 10
330.4917289328
 20
35.8922578035
 30
0.0
 10
330.4917289328
 20
35.8922578035
 30
0.0
 10
329.4931910484
 20
35.1709970488
 30
0.0
 10
328.6603128365
 20
34.4497362942
 30
0.0
 10
328.6603128365
 20
33.1181779778
 30
0.0
 10
328.6603128365
 20
31.3145026798
 30
0.0
 10
330.1173590091
 20
30.0379025487
 30
0.0
 10
331.8648984465
 20
30.0379025487
 30
0.0
 10
333.0997565274
 20
30.0379025487
 30
0.0
 10
334.2091267521
 20
30.7460780212
 30
0.0
 10
335.000001208
 20
31.6746096459
 30
0.0
 10
335.000001208
 20
31.6746096459
 30
0.0
 10
336.1376356422
 20
30.2598289348
 30
0.0
 10
336.1376356422
 20
30.2598289348
 30
0.0
  0
LINE
  5
267
330
22A
100
AcDbEntity
  8
0
  6
Continuous
 62
     7
100
AcDbLine
 10
321.9404970172
 20
28.2337038394
 30
0.0
 11
344.3544077449
 21
28.2337038394
 31
0.0
  0
LINE
  5
268
330
22A
100
AcDbEntity
  8
0
  6
Continuous
 62
     7
100
AcDbLine
 10
344.3544077449
 20
28.2337038394
 30
0.0
 11
344.3544077449
 21
50.6476145671
 31
0.0
  0
LINE
  5
269
330
22A
100
AcDbEntity
  8
0
  6
Continuous
 62
     7
100
AcDbLine
 10
344.3544077449
 20
50.6476145671
 30
0.0
 11
321.9404970172
 21
50.6476145671
 31
0.0
  0
LINE
  5
26A
330
22A
100
AcDbEntity
  8
0
  6
Continuous
 62
     7
100
AcDbLine
 10
321.9404970172
 20
50.6476145671
 30
0.0
 11
321.9404970172
 21
28.2337038394
 31
0.0
  0
ENDBLK
  5
26B
330
22A
100
AcDbEntity
  8
0
  6
ByBlock
 62
     0
100
AcDbBlockEnd
  0
BLOCK
  5
2A1
330
22B
100
AcDbEntity
  8
0
100
AcDbBlockBegin
  2
*T7
 70
     1
 10
0.0
 20
0.0
 30
0.0
  3
*T7
  1
*T7
  0
MTEXT
  5
2A2
330
22B
100
AcDbEntity
  8
0
  6
Continuous
 62
     0
100
AcDbMText
 10
30.28622003006668
 20
-3.0
 30
0.0
 40
3.0
 41
40.18162670675557
 71
     4
 72
     5
  1
3S5_C_063
 73
     1
 44
1.0
  0
MTEXT
  5
2A3
330
22B
100
AcDbEntity
  8
0
  6
Continuous
 62
     0
100
AcDbMText
 10
70.58784673682226
 20
-0.06
 30
0.0
 40
3.5
 41
20.03081335337778
 71
     1
 72
     5
  1
Rev:00
 73
     1
 44
1.0
  0
MTEXT
  5
2A4
330
22B
100
AcDbEntity
  8
0
  6
Continuous
 62
     0
100
AcDbMText
 10
30.28622003006668
 20
-6.06
 30
0.0
 40
3.5
 41
40.18162670675557
 71
     1
 72
     5
  1
Scale:1:1
 73
     1
 44
1.0
  0
MTEXT
  5
2A5
330
22B
100
AcDbEntity
  8
0
  6
Continuous
 62
     0
100
AcDbMText
 10
70.58784673682226
 20
-9.0
 30
0.0
 40
3.5
 41
20.03081335337778
 71
     4
 72
     5
  1
A3
 73
     1
 44
1.0
  0
MTEXT
  5
2A6
330
22B
100
AcDbEntity
  8
0
  6
Continuous
 62
     0
100
AcDbMText
 10
30.28622003006668
 20
-17.0
 30
0.0
 40
3.5
 41
60.33244006013336
 71
     4
 72
     5
  1
STEP 6.3 
 73
     1
 44
1.0
  0
MTEXT
  5
2A7
330
22B
100
AcDbEntity
  8
0
  6
Continuous
 62
     0
100
AcDbMText
 10
30.28622003006668
 20
-24.5
 30
0.0
 40
2.5
 41
60.33244006013336
 71
     4
 72
     5
  1
DATE:27/03/2014
 73
     1
 44
1.0
  0
MTEXT
  5
2A8
330
22B
100
AcDbEntity
  8
0
  6
Continuous
 62
     0
100
AcDbMText
 10
0.06
 20
-27.06
 30
0.0
 40
1.85
 41
90.55866009020004
 71
     1
 72
     5
  1
Any integral or partial reproductions are prohibited \Pwithout prior authorisation of L & L Luce & Light s.r.l., \Pin accordance with the law in force. \PAll rights reserved.
 73
     1
 44
1.0
  0
LINE
  5
2A9
330
22B
100
AcDbEntity
  8
0
  6
Continuous
 62
     0
370
    -2
100
AcDbLine
 10
0.0
 20
0.0
 30
0.0
 11
10.07540667668889
 21
0.0
 31
0.0
  0
LINE
  5
2AA
330
22B
100
AcDbEntity
  8
0
  6
Continuous
 62
     0
370
    -2
100
AcDbLine
 10
10.07540667668889
 20
0.0
 30
0.0
 11
20.15081335337779
 21
0.0
 31
0.0
  0
LINE
  5
2AB
330
22B
100
AcDbEntity
  8
0
  6
Continuous
 62
     0
370
    -2
100
AcDbLine
 10
20.15081335337779
 20
0.0
 30
0.0
 11
30.22622003006668
 21
0.0
 31
0.0
  0
LINE
  5
2AC
330
22B
100
AcDbEntity
  8
0
  6
Continuous
 62
     0
370
    -2
100
AcDbLine
 10
0.0
 20
0.0
 30
0.0
 11
0.0
 21
-6.0
 31
0.0
  0
LINE
  5
2AD
330
22B
100
AcDbEntity
  8
0
  6
Continuous
 62
     0
370
    -2
100
AcDbLine
 10
0.0
 20
-6.0
 30
0.0
 11
0.0
 21
-12.0
 31
0.0
  0
LINE
  5
2AE
330
22B
100
AcDbEntity
  8
0
  6
Continuous
 62
     0
370
    -2
100
AcDbLine
 10
0.0
 20
-12.0
 30
0.0
 11
0.0
 21
-22.0
 31
0.0
  0
LINE
  5
2AF
330
22B
100
AcDbEntity
  8
0
  6
Continuous
 62
     0
370
    -2
100
AcDbLine
 10
0.0
 20
-22.0
 30
0.0
 11
0.0
 21
-27.0
 31
0.0
  0
LINE
  5
2B0
330
22B
100
AcDbEntity
  8
0
  6
Continuous
 62
     0
370
    -2
100
AcDbLine
 10
30.22622003006668
 20
0.0
 30
0.0
 11
70.52784673682226
 21
0.0
 31
0.0
  0
LINE
  5
2B1
330
22B
100
AcDbEntity
  8
0
  6
Continuous
 62
     0
370
    -2
100
AcDbLine
 10
30.22622003006668
 20
0.0
 30
0.0
 11
30.22622003006668
 21
-6.0
 31
0.0
  0
LINE
  5
2B2
330
22B
100
AcDbEntity
  8
0
  6
Continuous
 62
     0
370
    -2
100
AcDbLine
 10
70.52784673682226
 20
0.0
 30
0.0
 11
90.67866009020004
 21
0.0
 31
0.0
  0
LINE
  5
4A7
330
22B
100
AcDbEntity
  8
0
  6
Continuous
 62
     0
370
    -2
100
AcDbLine
 10
70.52784673682226
 20
0.0
 30
0.0
 11
70.52784673682226
 21
-6.0
 31
0.0
  0
LINE
  5
4A8
330
22B
100
AcDbEntity
  8
0
  6
Continuous
 62
     0
370
    -2
100
AcDbLine
 10
90.67866009020004
 20
0.0
 30
0.0
 11
90.67866009020004
 21
-6.0
 31
0.0
  0
LINE
  5
4A9
330
22B
100
AcDbEntity
  8
0
  6
Continuous
 62
     0
370
    -2
100
AcDbLine
 10
30.22622003006668
 20
-6.0
 30
0.0
 11
70.52784673682226
 21
-6.0
 31
0.0
  0
LINE
  5
4AA
330
22B
100
AcDbEntity
  8
0
  6
Continuous
 62
     0
370
    -2
100
AcDbLine
 10
30.22622003006668
 20
-6.0
 30
0.0
 11
30.22622003006668
 21
-12.0
 31
0.0
  0
LINE
  5
4AB
330
22B
100
AcDbEntity
  8
0
  6
Continuous
 62
     0
370
    -2
100
AcDbLine
 10
70.52784673682226
 20
-6.0
 30
0.0
 11
90.67866009020004
 21
-6.0
 31
0.0
  0
LINE
  5
4AC
330
22B
100
AcDbEntity
  8
0
  6
Continuous
 62
     0
370
    -2
100
AcDbLine
 10
70.52784673682226
 20
-6.0
 30
0.0
 11
70.52784673682226
 21
-12.0
 31
0.0
  0
LINE
  5
4AD
330
22B
100
AcDbEntity
  8
0
  6
Continuous
 62
     0
370
    -2
100
AcDbLine
 10
90.67866009020004
 20
-6.0
 30
0.0
 11
90.67866009020004
 21
-12.0
 31
0.0
  0
LINE
  5
4AE
330
22B
100
AcDbEntity
  8
0
  6
Continuous
 62
     0
370
    -2
100
AcDbLine
 10
30.22622003006668
 20
-12.0
 30
0.0
 11
70.52784673682226
 21
-12.0
 31
0.0
  0
LINE
  5
4AF
330
22B
100
AcDbEntity
  8
0
  6
Continuous
 62
     0
370
    -2
100
AcDbLine
 10
70.52784673682226
 20
-12.0
 30
0.0
 11
90.67866009020003
 21
-12.0
 31
0.0
  0
LINE
  5
4B0
330
22B
100
AcDbEntity
  8
0
  6
Continuous
 62
     0
370
    -2
100
AcDbLine
 10
30.22622003006668
 20
-12.0
 30
0.0
 11
30.22622003006668
 21
-22.0
 31
0.0
  0
LINE
  5
4B1
330
22B
100
AcDbEntity
  8
0
  6
Continuous
 62
     0
370
    -2
100
AcDbLine
 10
90.67866009020004
 20
-12.0
 30
0.0
 11
90.67866009020004
 21
-22.0
 31
0.0
  0
LINE
  5
4B2
330
22B
100
AcDbEntity
  8
0
  6
Continuous
 62
     0
370
    -2
100
AcDbLine
 10
30.22622003006668
 20
-22.0
 30
0.0
 11
70.52784673682226
 21
-22.0
 31
0.0
  0
LINE
  5
4B3
330
22B
100
AcDbEntity
  8
0
  6
Continuous
 62
     0
370
    -2
100
AcDbLine
 10
70.52784673682226
 20
-22.0
 30
0.0
 11
90.67866009020003
 21
-22.0
 31
0.0
  0
LINE
  5
4B4
330
22B
100
AcDbEntity
  8
0
  6
Continuous
 62
     0
370
    -2
100
AcDbLine
 10
30.22622003006668
 20
-22.0
 30
0.0
 11
30.22622003006668
 21
-27.0
 31
0.0
  0
LINE
  5
4B5
330
22B
100
AcDbEntity
  8
0
  6
Continuous
 62
     0
370
    -2
100
AcDbLine
 10
90.67866009020004
 20
-22.0
 30
0.0
 11
90.67866009020004
 21
-27.0
 31
0.0
  0
LINE
  5
4B6
330
22B
100
AcDbEntity
  8
0
  6
Continuous
 62
     0
370
    -2
100
AcDbLine
 10
0.0
 20
-27.0
 30
0.0
 11
10.07540667668889
 21
-27.0
 31
0.0
  0
LINE
  5
4B7
330
22B
100
AcDbEntity
  8
0
  6
Continuous
 62
     0
370
    -2
100
AcDbLine
 10
10.07540667668889
 20
-27.0
 30
0.0
 11
20.15081335337779
 21
-27.0
 31
0.0
  0
LINE
  5
4B8
330
22B
100
AcDbEntity
  8
0
  6
Continuous
 62
     0
370
    -2
100
AcDbLine
 10
20.15081335337779
 20
-27.0
 30
0.0
 11
30.22622003006668
 21
-27.0
 31
0.0
  0
LINE
  5
4B9
330
22B
100
AcDbEntity
  8
0
  6
Continuous
 62
     0
370
    -2
100
AcDbLine
 10
30.22622003006668
 20
-27.0
 30
0.0
 11
70.52784673682226
 21
-27.0
 31
0.0
  0
LINE
  5
4BA
330
22B
100
AcDbEntity
  8
0
  6
Continuous
 62
     0
370
    -2
100
AcDbLine
 10
70.52784673682226
 20
-27.0
 30
0.0
 11
90.67866009020004
 21
-27.0
 31
0.0
  0
LINE
  5
4BB
330
22B
100
AcDbEntity
  8
0
  6
Continuous
 62
     0
370
    -2
100
AcDbLine
 10
0.0
 20
-27.0
 30
0.0
 11
0.0
 21
-40.0
 31
0.0
  0
LINE
  5
4BC
330
22B
100
AcDbEntity
  8
0
  6
Continuous
 62
     0
370
    -2
100
AcDbLine
 10
90.67866009020004
 20
-27.0
 30
0.0
 11
90.67866009020004
 21
-40.0
 31
0.0
  0
LINE
  5
4BD
330
22B
100
AcDbEntity
  8
0
  6
Continuous
 62
     0
370
    -2
100
AcDbLine
 10
0.0
 20
-40.0
 30
0.0
 11
10.07540667668889
 21
-40.0
 31
0.0
  0
LINE
  5
4BE
330
22B
100
AcDbEntity
  8
0
  6
Continuous
 62
     0
370
    -2
100
AcDbLine
 10
10.07540667668889
 20
-40.0
 30
0.0
 11
20.15081335337779
 21
-40.0
 31
0.0
  0
LINE
  5
4BF
330
22B
100
AcDbEntity
  8
0
  6
Continuous
 62
     0
370
    -2
100
AcDbLine
 10
20.15081335337779
 20
-40.0
 30
0.0
 11
30.22622003006668
 21
-40.0
 31
0.0
  0
LINE
  5
4C0
330
22B
100
AcDbEntity
  8
0
  6
Continuous
 62
     0
370
    -2
100
AcDbLine
 10
30.22622003006668
 20
-40.0
 30
0.0
 11
70.52784673682226
 21
-40.0
 31
0.0
  0
LINE
  5
4C1
330
22B
100
AcDbEntity
  8
0
  6
Continuous
 62
     0
370
    -2
100
AcDbLine
 10
70.52784673682226
 20
-40.0
 30
0.0
 11
90.67866009020004
 21
-40.0
 31
0.0
  0
ENDBLK
  5
2B3
330
22B
100
AcDbEntity
  8
0
100
AcDbBlockEnd
  0
ENDSEC
  0
SECTION
  2
ENTITIES
  0
MTEXT
  5
2B4
330
222
100
AcDbEntity
  8
0
  6
Continuous
 62
     2
100
AcDbMText
 10
1.6467220993
 20
53.595027386
 30
0.0
 40
4.0
 41
2.2857142857
 71
     1
 72
     1
  1
1
  7
TEXTSTYLE_2
 73
     1
 44
0.9
  0
MTEXT
  5
2B5
330
222
100
AcDbEntity
  8
0
  6
Continuous
 62
     2
100
AcDbMText
 10
1.6467220993
 20
153.595027386
 30
0.0
 40
4.0
 41
3.1428571429
 71
     1
 72
     1
  1
2
  7
TEXTSTYLE_2
 73
     1
 44
0.9
  0
MTEXT
  5
2B6
330
222
100
AcDbEntity
  8
0
  6
Continuous
 62
     2
100
AcDbMText
 10
1.6467220993
 20
253.595027386
 30
0.0
 40
4.0
 41
2.8571428571
 71
     1
 72
     1
  1
3
  7
TEXTSTYLE_2
 73
     1
 44
0.9
  0
MTEXT
  5
2B7
330
222
100
AcDbEntity
  8
0
  6
Continuous
 62
     2
100
AcDbMText
 10
414.6467220993
 20
60.6268709614
 30
0.0
 40
4.0
 41
2.2857142857
 71
     1
 72
     1
  1
1
  7
TEXTSTYLE_2
 73
     1
 44
0.9
  0
MTEXT
  5
2B8
330
222
100
AcDbEntity
  8
0
  6
Continuous
 62
     2
100
AcDbMText
 10
414.6467220993
 20
160.6268709614
 30
0.0
 40
4.0
 41
3.1428571429
 71
     1
 72
     1
  1
2
  7
TEXTSTYLE_2
 73
     1
 44
0.9
  0
MTEXT
  5
2B9
330
222
100
AcDbEntity
  8
0
  6
Continuous
 62
     2
100
AcDbMText
 10
414.6467220993
 20
260.6268709614
 30
0.0
 40
4.0
 41
2.8571428571
 71
     1
 72
     1
  1
3
  7
TEXTSTYLE_2
 73
     1
 44
0.9
  0
MTEXT
  5
2BA
330
222
100
AcDbEntity
  8
0
  6
Continuous
 62
     2
100
AcDbMText
 10
362.154890719
 20
5.35876025
 30
0.0
 40
4.0
 41
3.6
 71
     1
 72
     1
  1
A
  7
TEXTSTYLE_3
 73
     1
 44
0.9
  0
MTEXT
  5
2BB
330
222
100
AcDbEntity
  8
0
  6
Continuous
 62
     2
100
AcDbMText
 10
262.154890719
 20
5.35876025
 30
0.0
 40
4.0
 41
3.6
 71
     1
 72
     1
  1
B
  7
TEXTSTYLE_3
 73
     1
 44
0.9
  0
MTEXT
  5
2BC
330
222
100
AcDbEntity
  8
0
  6
Continuous
 62
     2
100
AcDbMText
 10
162.154890719
 20
5.35876025
 30
0.0
 40
4.0
 41
3.6
 71
     1
 72
     1
  1
C
  7
TEXTSTYLE_3
 73
     1
 44
0.9
  0
MTEXT
  5
2BD
330
222
100
AcDbEntity
  8
0
  6
Continuous
 62
     2
100
AcDbMText
 10
55.7978688212
 20
5.5353441916
 30
0.0
 40
4.0
 41
3.6
 71
     1
 72
     1
  1
D
  7
TEXTSTYLE_3
 73
     1
 44
0.9
  0
MTEXT
  5
2BE
330
222
100
AcDbEntity
  8
0
  6
Continuous
 62
     2
100
AcDbMText
 10
362.154890719
 20
295.35876025
 30
0.0
 40
4.0
 41
3.6
 71
     1
 72
     1
  1
A
  7
TEXTSTYLE_3
 73
     1
 44
0.9
  0
MTEXT
  5
2BF
330
222
100
AcDbEntity
  8
0
  6
Continuous
 62
     2
100
AcDbMText
 10
262.154890719
 20
295.35876025
 30
0.0
 40
4.0
 41
3.6
 71
     1
 72
     1
  1
B
  7
TEXTSTYLE_3
 73
     1
 44
0.9
  0
MTEXT
  5
2C0
330
222
100
AcDbEntity
  8
0
  6
Continuous
 62
     2
100
AcDbMText
 10
162.154890719
 20
295.35876025
 30
0.0
 40
4.0
 41
3.6
 71
     1
 72
     1
  1
C
  7
TEXTSTYLE_3
 73
     1
 44
0.9
  0
MTEXT
  5
2C1
330
222
100
AcDbEntity
  8
0
  6
Continuous
 62
     2
100
AcDbMText
 10
53.9878834197
 20
295.579490177
 30
0.0
 40
4.0
 41
3.6
 71
     1
 72
     1
  1
D
  7
TEXTSTYLE_3
 73
     1
 44
0.9
  0
DIMENSION
  5
2C2
330
222
100
AcDbEntity
  8
0
  6
Continuous
 62
     2
100
AcDbDimension
  2
*D1
 10
108.2091599545
 20
102.7196022727
 30
0.0
 11
108.2091599545
 21
76.8196022727
 31
0.0
 70
   160
 71
     2
 42
51.8
  3
DIMSTYLE_1
100
AcDbAlignedDimension
 13
101.6873918508
 23
50.9196022727
 33
0.0
 14
102.1372609417
 24
102.7196022727
 34
0.0
 50
90.0
100
AcDbRotatedDimension
1001
ACAD
1000
DSTYLE
1002
{
1070
   147
1040
2.0
1002
}
  0
DIMENSION
  5
2C3
330
222
100
AcDbEntity
  8
0
  6
Continuous
 62
     2
100
AcDbDimension
  2
*D2
 10
108.161152067
 20
194.6790605025
 30
0.0
 11
108.161152067
 21
222.1790605025
 31
0.0
 70
   160
 71
     2
 42
55.0
  3
DIMSTYLE_2
100
AcDbAlignedDimension
 13
100.9140965098
 23
249.6790605025
 33
0.0
 14
101.3853692371
 24
194.6790605025
 34
0.0
 50
270.0
100
AcDbRotatedDimension
1001
ACAD
1000
DSTYLE
1002
{
1070
   147
1040
2.0
1002
}
  0
DIMENSION
  5
2C4
330
222
100
AcDbEntity
  8
0
  6
Continuous
 62
     2
100
AcDbDimension
  2
*D3
 10
99.4509943182
 20
169.4444168497
 30
0.0
 11
71.9509943182
 21
169.4444168497
 31
0.0
 70
   160
 71
     2
 42
55.0
  3
DIMSTYLE_2
100
AcDbAlignedDimension
 13
44.4509943182
 23
174.6974326296
 33
0.0
 14
99.4509943182
 24
175.0116144478
 34
0.0
100
AcDbRotatedDimension
1001
ACAD
1000
DSTYLE
1002
{
1070
   147
1040
2.0
1002
}
  0
DIMENSION
  5
2C5
330
222
100
AcDbEntity
  8
0
  6
Continuous
 62
     2
100
AcDbDimension
  2
*D4
 10
171.4456283734
 20
202.1790605025
 30
0.0
 11
171.4456283734
 21
222.1790605025
 31
0.0
 70
   160
  1
%%c<>
 71
     2
 42
40.0
  3
DIMSTYLE_2
100
AcDbAlignedDimension
 13
179.8855374189
 23
242.1790605025
 33
0.0
 14
180.7652465098
 24
202.1790605025
 34
0.0
 50
270.0
100
AcDbRotatedDimension
1001
ACAD
1000
DSTYLE
1002
{
1070
   147
1040
2.0
1002
}
  0
DIMENSION
  5
2C6
330
222
100
AcDbEntity
  8
0
  6
Continuous
 62
     2
100
AcDbDimension
  2
*D5
 10
234.5194679954
 20
275.9030055972
 30
0.0
 11
243.6444679954
 21
275.9030055972
 31
0.0
 70
   160
 71
     1
 42
1.599999999999994
  3
DIMSTYLE_3
100
AcDbAlignedDimension
 13
232.9194679954
 23
251.8243489024
 33
0.0
 14
234.5194679954
 24
251.8886933387
 34
0.0
100
AcDbRotatedDimension
1001
ACAD
1000
DSTYLE
1002
{
1070
   147
1040
2.0
1002
}
  0
INSERT
  5
2C7
330
222
100
AcDbEntity
  8
0
  6
Continuous
 62
     2
100
AcDbBlockReference
  2
LOGO2_BL0
 10
333.1473869546
 20
37.5239270671
 30
0.0
  0
INSERT
  5
2C8
330
222
100
AcDbEntity
  8
0
  6
Continuous
 62
     2
100
AcDbBlockReference
  2
*T7
 10
319.3213399098
 20
51.0239270671
 30
0.0
  0
LINE
  5
2C9
330
222
100
AcDbEntity
  8
0
  6
Continuous
 62
     7
100
AcDbLine
 10
0.0
 20
0.0
 30
0.0
 11
0.0
 21
297.0
 31
0.0
  0
LWPOLYLINE
  5
2CA
330
222
100
AcDbEntity
  8
0
  6
Continuous
 62
     7
100
AcDbPolyline
 90
        2
 70
     0
 43
0.1000000003
 10
7.0536312849
 20
0.0
 10
7.0536312849
 20
297.0
  0
LWPOLYLINE
  5
2CB
330
222
100
AcDbEntity
  8
0
  6
Continuous
 62
     7
100
AcDbPolyline
 90
        2
 70
     0
 43
0.4999999952
 10
10.0536312849
 20
10.0318435754
 10
10.0536312849
 20
287.0
  0
LINE
  5
2CC
330
222
100
AcDbEntity
  8
0
  6
Continuous
 62
     7
100
AcDbLine
 10
0.0
 20
0.0
 30
0.0
 11
420.0
 21
0.0
 31
0.0
  0
LWPOLYLINE
  5
2CD
330
222
100
AcDbEntity
  8
0
  6
Continuous
 62
     7
100
AcDbPolyline
 90
        2
 70
     0
 43
0.1000000003
 10
0.0
 20
7.0318435754
 10
420.0
 20
7.0318435754
  0
LWPOLYLINE
  5
2CE
330
222
100
AcDbEntity
  8
0
  6
Continuous
 62
     7
100
AcDbPolyline
 90
        2
 70
     0
 43
0.4999999952
 10
10.0536312849
 20
10.0318435754
 10
410.0
 20
10.0318435754
  0
LINE
  5
2CF
330
222
100
AcDbEntity
  8
0
  6
Continuous
 62
     7
100
AcDbLine
 10
113.0
 20
297.0
 30
0.0
 11
113.0
 21
290.0
 31
0.0
  0
LINE
  5
2D0
330
222
100
AcDbEntity
  8
0
  6
Continuous
 62
     7
100
AcDbLine
 10
113.0
 20
7.0
 30
0.0
 11
113.0
 21
0.0
 31
0.0
  0
LWPOLYLINE
  5
2D1
330
222
100
AcDbEntity
  8
0
  6
Continuous
 62
     7
100
AcDbPolyline
 90
        2
 70
     0
 43
0.1000000003
 10
123.0
 20
10.0
 10
123.0
 20
0.0
  0
LWPOLYLINE
  5
2D2
330
222
100
AcDbEntity
  8
0
  6
Continuous
 62
     7
100
AcDbPolyline
 90
        2
 70
     0
 43
0.1000000003
 10
123.0
 20
287.0
 10
123.0
 20
297.0
  0
LINE
  5
2D3
330
222
100
AcDbEntity
  8
0
  6
Continuous
 62
     7
100
AcDbLine
 10
0.0
 20
99.9681564246
 30
0.0
 11
7.0
 21
99.9681564246
 31
0.0
  0
LINE
  5
2D4
330
222
100
AcDbEntity
  8
0
  6
Continuous
 62
     7
100
AcDbLine
 10
413.0
 20
107.0
 30
0.0
 11
420.0
 21
107.0
 31
0.0
  0
LWPOLYLINE
  5
2D5
330
222
100
AcDbEntity
  8
0
  6
Continuous
 62
     7
100
AcDbPolyline
 90
        2
 70
     0
 43
0.1000000003
 10
210.0
 20
10.0
 10
210.0
 20
0.0
  0
LWPOLYLINE
  5
2D6
330
222
100
AcDbEntity
  8
0
  6
Continuous
 62
     7
100
AcDbPolyline
 90
        2
 70
     0
 43
0.1000000003
 10
210.0
 20
287.0
 10
210.0
 20
297.0
  0
LWPOLYLINE
  5
2D7
330
222
100
AcDbEntity
  8
0
  6
Continuous
 62
     7
100
AcDbPolyline
 90
        2
 70
     0
 43
0.1000000003
 10
10.0
 20
148.5
 10
0.0
 20
148.5
  0
LWPOLYLINE
  5
2D8
330
222
100
AcDbEntity
  8
0
  6
Continuous
 62
     7
100
AcDbPolyline
 90
        2
 70
     0
 43
0.1000000003
 10
410.0
 20
148.5
 10
420.0
 20
148.5
  0
LINE
  5
2D9
330
222
100
AcDbEntity
  8
0
  6
Continuous
 62
     7
100
AcDbLine
 10
0.0
 20
199.9681564246
 30
0.0
 11
7.0
 21
199.9681564246
 31
0.0
  0
LWPOLYLINE
  5
2DA
330
222
100
AcDbEntity
  8
0
  6
Continuous
 62
     7
100
AcDbPolyline
 90
        2
 70
     0
 43
0.1000000003
 10
10.0
 20
202.9681564246
 10
0.0
 20
202.9681564246
  0
LWPOLYLINE
  5
2DB
330
222
100
AcDbEntity
  8
0
  6
Continuous
 62
     7
100
AcDbPolyline
 90
        2
 70
     0
 43
0.1000000003
 10
410.0
 20
210.0
 10
420.0
 20
210.0
  0
LINE
  5
2DC
330
222
100
AcDbEntity
  8
0
  6
Continuous
 62
     7
100
AcDbLine
 10
313.0
 20
297.0
 30
0.0
 11
313.0
 21
290.0
 31
0.0
  0
LINE
  5
2DD
330
222
100
AcDbEntity
  8
0
  6
Continuous
 62
     7
100
AcDbLine
 10
313.0
 20
7.0
 30
0.0
 11
313.0
 21
0.0
 31
0.0
  0
LWPOLYLINE
  5
2DE
330
222
100
AcDbEntity
  8
0
  6
Continuous
 62
     7
100
AcDbPolyline
 90
        2
 70
     0
 43
0.4999999952
 10
10.0536312849
 20
287.0
 10
410.0
 20
287.0
  0
LWPOLYLINE
  5
2DF
330
222
100
AcDbEntity
  8
0
  6
Continuous
 62
     7
100
AcDbPolyline
 90
        2
 70
     0
 43
0.1000000003
 10
0.0
 20
290.0
 10
420.0
 20
290.0
  0
LINE
  5
2E0
330
222
100
AcDbEntity
  8
0
  6
Continuous
 62
     7
100
AcDbLine
 10
0.0
 20
297.0
 30
0.0
 11
420.0
 21
297.0
 31
0.0
  0
LWPOLYLINE
  5
2E1
330
222
100
AcDbEntity
  8
0
  6
Continuous
 62
     7
100
AcDbPolyline
 90
        2
 70
     0
 43
0.4999999952
 10
410.0
 20
10.0318435754
 10
410.0
 20
287.0
  0
LWPOLYLINE
  5
2E2
330
222
100
AcDbEntity
  8
0
  6
Continuous
 62
     7
100
AcDbPolyline
 90
        2
 70
     0
 43
0.1000000003
 10
413.0
 20
0.0
 10
413.0
 20
297.0
  0
LINE
  5
2E3
330
222
100
AcDbEntity
  8
0
  6
Continuous
 62
     7
100
AcDbLine
 10
420.0
 20
0.0
 30
0.0
 11
420.0
 21
297.0
 31
0.0
  0
LINE
  5
2E4
330
222
100
AcDbEntity
  8
7_ALL_FEATURES
  6
Continuous
 62
     7
100
AcDbLine
 10
44.4509943182
 20
51.7196022727
 30
0.0
 11
44.4509943182
 21
50.9196022727
 31
0.0
  0
LINE
  5
2E5
330
222
100
AcDbEntity
  8
0
  6
Continuous
 62
     7
100
AcDbLine
 10
44.4509943182
 20
51.7196022727
 30
0.0
 11
44.4509943182
 21
52.5196022727
 31
0.0
  0
LINE
  5
2E6
330
222
100
AcDbEntity
  8
7_ALL_FEATURES
  6
Continuous
 62
     7
100
AcDbLine
 10
99.4509943182
 20
50.9196022727
 30
0.0
 11
44.4509943182
 21
50.9196022727
 31
0.0
  0
LINE
  5
2E7
330
222
100
AcDbEntity
  8
7_ALL_FEATURES
  6
Continuous
 62
     7
100
AcDbLine
 10
99.4509943182
 20
51.7196022727
 30
0.0
 11
44.4509943182
 21
51.7196022727
 31
0.0
  0
LINE
  5
2E8
330
222
100
AcDbEntity
  8
0
  6
Continuous
 62
     7
100
AcDbLine
 10
99.4509943182
 20
51.7196022727
 30
0.0
 11
44.4509943182
 21
51.7196022727
 31
0.0
  0
LINE
  5
2E9
330
222
100
AcDbEntity
  8
0
  6
Continuous
 62
     7
100
AcDbLine
 10
99.4509943182
 20
52.5196022727
 30
0.0
 11
44.4509943182
 21
52.5196022727
 31
0.0
  0
LINE
  5
2EA
330
222
100
AcDbEntity
  8
7_ALL_FEATURES
  6
Continuous
 62
     9
100
AcDbLine
 10
52.6009943182
 20
53.8969525419
 30
0.0
 11
52.3009943182
 21
53.8969525419
 31
0.0
  0
LINE
  5
2EB
330
222
100
AcDbEntity
  8
02___PRT_ALL_AXES
  6
Continuous
 62
     7
100
AcDbLine
 10
50.6509943182
 20
56.5646022727
 30
0.0
 11
50.6509943182
 21
59.8746022727
 31
0.0
  0
LINE
  5
2EC
330
222
100
AcDbEntity
  8
02___PRT_ALL_AXES
  6
Continuous
 62
     7
100
AcDbLine
 10
51.9209943182
 20
55.4696022727
 30
0.0
 11
51.9209943182
 21
60.9696022727
 31
0.0
  0
LINE
  5
2ED
330
222
100
AcDbEntity
  8
02___PRT_ALL_AXES
  6
Continuous
 62
     7
100
AcDbLine
 10
52.3009943182
 20
55.4696022727
 30
0.0
 11
51.9209943182
 21
55.4696022727
 31
0.0
  0
LINE
  5
2EE
330
222
100
AcDbEntity
  8
02___PRT_ALL_AXES
  6
Continuous
 62
     7
100
AcDbLine
 10
91.6009943182
 20
55.4696022727
 30
0.0
 11
91.9809943182
 21
55.4696022727
 31
0.0
  0
LINE
  5
2EF
330
222
100
AcDbEntity
  8
7_ALL_FEATURES
  6
Continuous
 62
     9
100
AcDbLine
 10
91.3009943182
 20
55.9804018257
 30
0.0
 11
91.6009943182
 21
55.9804018257
 31
0.0
  0
LINE
  5
2F0
330
222
100
AcDbEntity
  8
7_ALL_FEATURES
  6
Continuous
 62
     7
100
AcDbLine
 10
52.3009943182
 20
52.5196022727
 30
0.0
 11
52.3009943182
 21
80.3196022727
 31
0.0
  0
LINE
  5
2F1
330
222
100
AcDbEntity
  8
7_ALL_FEATURES
  6
Continuous
 62
     7
100
AcDbLine
 10
52.6009943182
 20
86.7196022727
 30
0.0
 11
52.6009943182
 21
84.5196022727
 31
0.0
  0
LINE
  5
2F2
330
222
100
AcDbEntity
  8
7_ALL_FEATURES
  6
Continuous
 62
     7
100
AcDbLine
 10
52.6009943182
 20
82.5196022727
 30
0.0
 11
52.6009943182
 21
80.7196022727
 31
0.0
  0
LINE
  5
2F3
330
222
100
AcDbEntity
  8
7_ALL_FEATURES
  6
Continuous
 62
     7
100
AcDbLine
 10
52.6009943182
 20
80.3196022727
 30
0.0
 11
52.6009943182
 21
52.5196022727
 31
0.0
  0
LINE
  5
2F4
330
222
100
AcDbEntity
  8
7_ALL_FEATURES
  6
Continuous
 62
     7
100
AcDbLine
 10
55.9509943182
 20
84.5196022727
 30
0.0
 11
55.9509943182
 21
82.5196022727
 31
0.0
  0
LINE
  5
2F5
330
222
100
AcDbEntity
  8
02___PRT_ALL_AXES
  6
Continuous
 62
     7
100
AcDbLine
 10
55.9509943182
 20
80.7196022727
 30
0.0
 11
55.9509943182
 21
78.7196022727
 31
0.0
  0
LINE
  5
2F6
330
222
100
AcDbEntity
  8
02___PRT_ALL_AXES
  6
Continuous
 62
     7
100
AcDbLine
 10
55.9509943182
 20
76.9196022727
 30
0.0
 11
55.9509943182
 21
74.9196022727
 31
0.0
  0
LINE
  5
2F7
330
222
100
AcDbEntity
  8
02___PRT_ALL_AXES
  6
Continuous
 62
     7
100
AcDbLine
 10
55.9509943182
 20
73.1196022727
 30
0.0
 11
55.9509943182
 21
71.1196022727
 31
0.0
  0
LINE
  5
2F8
330
222
100
AcDbEntity
  8
02___PRT_ALL_AXES
  6
Continuous
 62
     7
100
AcDbLine
 10
52.3009943182
 20
60.9696022727
 30
0.0
 11
51.9209943182
 21
60.9696022727
 31
0.0
  0
LINE
  5
2F9
330
222
100
AcDbEntity
  8
02___PRT_ALL_AXES
  6
Continuous
 62
     7
100
AcDbLine
 10
91.6009943182
 20
60.9696022727
 30
0.0
 11
91.9809943182
 21
60.9696022727
 31
0.0
  0
LINE
  5
2FA
330
222
100
AcDbEntity
  8
02___PRT_ALL_AXES
  6
Continuous
 62
     7
100
AcDbLine
 10
65.0227910879
 20
86.7196022727
 30
0.0
 11
65.0227910879
 21
90.2196022727
 31
0.0
  0
LINE
  5
2FB
330
222
100
AcDbEntity
  8
02___PRT_ALL_AXES
  6
Continuous
 62
     7
100
AcDbLine
 10
65.0227910879
 20
93.2196022727
 30
0.0
 11
65.0227910879
 21
99.9247643743
 31
0.0
  0
LINE
  5
2FC
330
222
100
AcDbEntity
  8
02___PRT_ALL_AXES
  6
Continuous
 62
     7
100
AcDbLine
 10
65.9509943182
 20
93.2196022727
 30
0.0
 11
65.9509943182
 21
90.2196022727
 31
0.0
  0
LINE
  5
2FD
330
222
100
AcDbEntity
  8
7_ALL_FEATURES
  6
Continuous
 62
     7
100
AcDbLine
 10
52.6009943182
 20
71.1196022727
 30
0.0
 11
91.3009943182
 21
71.1196022727
 31
0.0
  0
LINE
  5
2FE
330
222
100
AcDbEntity
  8
7_ALL_FEATURES
  6
Continuous
 62
     9
100
AcDbLine
 10
52.6009943182
 20
71.2174606176
 30
0.0
 11
52.3009943182
 21
71.2174606176
 31
0.0
  0
LINE
  5
2FF
330
222
100
AcDbEntity
  8
02___PRT_ALL_AXES
  6
Continuous
 62
     7
100
AcDbLine
 10
67.6208672993
 20
99.2196022727
 30
0.0
 11
67.6208672993
 21
98.7196022727
 31
0.0
  0
LINE
  5
300
330
222
100
AcDbEntity
  8
02___PRT_ALL_AXES
  6
Continuous
 62
     7
100
AcDbLine
 10
69.3529181068
 20
99.2196022727
 30
0.0
 11
69.3529181068
 21
98.7196022727
 31
0.0
  0
LINE
  5
301
330
222
100
AcDbEntity
  8
7_ALL_FEATURES
  6
Continuous
 62
     7
100
AcDbLine
 10
91.3009943182
 20
73.1196022727
 30
0.0
 11
52.6009943182
 21
73.1196022727
 31
0.0
  0
LINE
  5
302
330
222
100
AcDbEntity
  8
7_ALL_FEATURES
  6
Continuous
 62
     9
100
AcDbLine
 10
52.6009943182
 20
73.6208724619
 30
0.0
 11
52.3009943182
 21
73.6208724619
 31
0.0
  0
LINE
  5
303
330
222
100
AcDbEntity
  8
02___PRT_ALL_AXES
  6
Continuous
 62
     9
100
AcDbLine
 10
91.6009943182
 20
73.9912356426
 30
0.0
 11
91.3009943182
 21
73.9912356426
 31
0.0
  0
LINE
  5
304
330
222
100
AcDbEntity
  8
02___PRT_ALL_AXES
  6
Continuous
 62
     7
100
AcDbLine
 10
71.9509943182
 20
86.7196022727
 30
0.0
 11
71.9509943182
 21
90.2196022727
 31
0.0
  0
LINE
  5
305
330
222
100
AcDbEntity
  8
02___PRT_ALL_AXES
  6
Continuous
 62
     7
100
AcDbLine
 10
71.9509943182
 20
93.2196022727
 30
0.0
 11
71.9509943182
 21
97.7196022727
 31
0.0
  0
LINE
  5
306
330
222
100
AcDbEntity
  8
7_ALL_FEATURES
  6
Continuous
 62
     7
100
AcDbLine
 10
52.6009943182
 20
74.9196022727
 30
0.0
 11
91.3009943182
 21
74.9196022727
 31
0.0
  0
LINE
  5
307
330
222
100
AcDbEntity
  8
7_ALL_FEATURES
  6
Continuous
 62
     7
100
AcDbLine
 10
91.3009943182
 20
76.9196022727
 30
0.0
 11
52.6009943182
 21
76.9196022727
 31
0.0
  0
LINE
  5
308
330
222
100
AcDbEntity
  8
02___PRT_ALL_AXES
  6
Continuous
 62
     7
100
AcDbLine
 10
74.5490705295
 20
99.2196022727
 30
0.0
 11
74.5490705295
 21
98.7196022727
 31
0.0
  0
LINE
  5
309
330
222
100
AcDbEntity
  8
7_ALL_FEATURES
  6
Continuous
 62
     7
100
AcDbLine
 10
52.6009943182
 20
78.7196022727
 30
0.0
 11
91.3009943182
 21
78.7196022727
 31
0.0
  0
LINE
  5
30A
330
222
100
AcDbEntity
  8
02___PRT_ALL_AXES
  6
Continuous
 62
     7
100
AcDbLine
 10
76.2811213371
 20
99.2196022727
 30
0.0
 11
76.2811213371
 21
98.7196022727
 31
0.0
  0
LINE
  5
30B
330
222
100
AcDbEntity
  8
02___PRT_ALL_AXES
  6
Continuous
 62
     7
100
AcDbLine
 10
91.6009943182
 20
80.3196022727
 30
0.0
 11
91.3009943182
 21
80.3196022727
 31
0.0
  0
LINE
  5
30C
330
222
100
AcDbEntity
  8
7_ALL_FEATURES
  6
Continuous
 62
     7
100
AcDbLine
 10
52.6009943182
 20
80.3196022727
 30
0.0
 11
52.3009943182
 21
80.3196022727
 31
0.0
  0
LINE
  5
30D
330
222
100
AcDbEntity
  8
7_ALL_FEATURES
  6
Continuous
 62
     7
100
AcDbLine
 10
91.3009943182
 20
80.7196022727
 30
0.0
 11
52.6009943182
 21
80.7196022727
 31
0.0
  0
LINE
  5
30E
330
222
100
AcDbEntity
  8
02___PRT_ALL_AXES
  6
Continuous
 62
     7
100
AcDbLine
 10
77.9509943182
 20
93.2196022727
 30
0.0
 11
77.9509943182
 21
90.2196022727
 31
0.0
  0
LINE
  5
30F
330
222
100
AcDbEntity
  8
02___PRT_ALL_AXES
  6
Continuous
 62
     7
100
AcDbLine
 10
78.8791975485
 20
86.7196022727
 30
0.0
 11
78.8791975485
 21
90.2196022727
 31
0.0
  0
LINE
  5
310
330
222
100
AcDbEntity
  8
02___PRT_ALL_AXES
  6
Continuous
 62
     7
100
AcDbLine
 10
78.8791975485
 20
93.2196022727
 30
0.0
 11
78.8791975485
 21
99.9247643743
 31
0.0
  0
LINE
  5
311
330
222
100
AcDbEntity
  8
7_ALL_FEATURES
  6
Continuous
 62
     7
100
AcDbLine
 10
52.6009943182
 20
82.5196022727
 30
0.0
 11
91.3009943182
 21
82.5196022727
 31
0.0
  0
LINE
  5
312
330
222
100
AcDbEntity
  8
7_ALL_FEATURES
  6
Continuous
 62
     7
100
AcDbLine
 10
91.3009943182
 20
84.5196022727
 30
0.0
 11
52.6009943182
 21
84.5196022727
 31
0.0
  0
LINE
  5
313
330
222
100
AcDbEntity
  8
7_ALL_FEATURES
  6
Continuous
 62
     7
100
AcDbLine
 10
91.3009943182
 20
86.7196022727
 30
0.0
 11
52.6009943182
 21
86.7196022727
 31
0.0
  0
LINE
  5
314
330
222
100
AcDbEntity
  8
02___PRT_ALL_AXES
  6
Continuous
 62
     7
100
AcDbLine
 10
65.0227910879
 20
90.2196022727
 30
0.0
 11
78.8791975485
 21
90.2196022727
 31
0.0
  0
LINE
  5
315
330
222
100
AcDbEntity
  8
7_ALL_FEATURES
  6
Continuous
 62
     7
100
AcDbLine
 10
87.9509943182
 20
84.5196022727
 30
0.0
 11
87.9509943182
 21
82.5196022727
 31
0.0
  0
LINE
  5
316
330
222
100
AcDbEntity
  8
02___PRT_ALL_AXES
  6
Continuous
 62
     7
100
AcDbLine
 10
87.9509943182
 20
80.7196022727
 30
0.0
 11
87.9509943182
 21
78.7196022727
 31
0.0
  0
LINE
  5
317
330
222
100
AcDbEntity
  8
02___PRT_ALL_AXES
  6
Continuous
 62
     7
100
AcDbLine
 10
87.9509943182
 20
76.9196022727
 30
0.0
 11
87.9509943182
 21
74.9196022727
 31
0.0
  0
LINE
  5
318
330
222
100
AcDbEntity
  8
02___PRT_ALL_AXES
  6
Continuous
 62
     7
100
AcDbLine
 10
87.9509943182
 20
73.1196022727
 30
0.0
 11
87.9509943182
 21
71.1196022727
 31
0.0
  0
LINE
  5
319
330
222
100
AcDbEntity
  8
02___PRT_ALL_AXES
  6
Continuous
 62
     7
100
AcDbLine
 10
65.0227910879
 20
93.2196022727
 30
0.0
 11
78.8791975485
 21
93.2196022727
 31
0.0
  0
LINE
  5
31A
330
222
100
AcDbEntity
  8
7_ALL_FEATURES
  6
Continuous
 62
     7
100
AcDbLine
 10
91.3009943182
 20
86.7196022727
 30
0.0
 11
91.3009943182
 21
84.5196022727
 31
0.0
  0
LINE
  5
31B
330
222
100
AcDbEntity
  8
7_ALL_FEATURES
  6
Continuous
 62
     7
100
AcDbLine
 10
91.3009943182
 20
82.5196022727
 30
0.0
 11
91.3009943182
 21
80.7196022727
 31
0.0
  0
LINE
  5
31C
330
222
100
AcDbEntity
  8
7_ALL_FEATURES
  6
Continuous
 62
     7
100
AcDbLine
 10
91.3009943182
 20
52.5196022727
 30
0.0
 11
91.3009943182
 21
73.9912356426
 31
0.0
  0
LINE
  5
31D
330
222
100
AcDbEntity
  8
02___PRT_ALL_AXES
  6
Continuous
 62
     7
100
AcDbLine
 10
91.3009943182
 20
73.9912356426
 30
0.0
 11
91.3009943182
 21
80.3196022727
 31
0.0
  0
LINE
  5
31E
330
222
100
AcDbEntity
  8
7_ALL_FEATURES
  6
Continuous
 62
     7
100
AcDbLine
 10
91.6009943182
 20
52.5196022727
 30
0.0
 11
91.6009943182
 21
73.9912356426
 31
0.0
  0
LINE
  5
31F
330
222
100
AcDbEntity
  8
02___PRT_ALL_AXES
  6
Continuous
 62
     7
100
AcDbLine
 10
91.6009943182
 20
73.9912356426
 30
0.0
 11
91.6009943182
 21
80.3196022727
 31
0.0
  0
LINE
  5
320
330
222
100
AcDbEntity
  8
02___PRT_ALL_AXES
  6
Continuous
 62
     7
100
AcDbLine
 10
91.9809943182
 20
55.4696022727
 30
0.0
 11
91.9809943182
 21
60.9696022727
 31
0.0
  0
LINE
  5
321
330
222
100
AcDbEntity
  8
02___PRT_ALL_AXES
  6
Continuous
 62
     7
100
AcDbLine
 10
93.2509943182
 20
56.5646022727
 30
0.0
 11
93.2509943182
 21
59.8746022727
 31
0.0
  0
LINE
  5
322
330
222
100
AcDbEntity
  8
02___PRT_ALL_AXES
  6
Continuous
 62
     7
100
AcDbLine
 10
74.5490705295
 20
98.7196022727
 30
0.0
 11
69.3529181068
 21
98.7196022727
 31
0.0
  0
LINE
  5
323
330
222
100
AcDbEntity
  8
02___PRT_ALL_AXES
  6
Continuous
 62
     7
100
AcDbLine
 10
67.6208672993
 20
98.7196022727
 30
0.0
 11
65.0227910879
 21
98.7196022727
 31
0.0
  0
LINE
  5
324
330
222
100
AcDbEntity
  8
02___PRT_ALL_AXES
  6
Continuous
 62
     7
100
AcDbLine
 10
76.2811213371
 20
98.7196022727
 30
0.0
 11
78.8791975485
 21
98.7196022727
 31
0.0
  0
LINE
  5
325
330
222
100
AcDbEntity
  8
02___PRT_ALL_AXES
  6
Continuous
 62
     9
100
AcDbLine
 10
67.6208672993
 20
99.2196022727
 30
0.0
 11
65.0227910879
 21
99.2196022727
 31
0.0
  0
LINE
  5
326
330
222
100
AcDbEntity
  8
02___PRT_ALL_AXES
  6
Continuous
 62
     9
100
AcDbLine
 10
69.3529181068
 20
99.2196022727
 30
0.0
 11
74.5490705295
 21
99.2196022727
 31
0.0
  0
LINE
  5
327
330
222
100
AcDbEntity
  8
02___PRT_ALL_AXES
  6
Continuous
 62
     9
100
AcDbLine
 10
76.2811213371
 20
99.2196022727
 30
0.0
 11
78.8791975485
 21
99.2196022727
 31
0.0
  0
LINE
  5
328
330
222
100
AcDbEntity
  8
7_ALL_FEATURES
  6
Continuous
 62
     7
100
AcDbLine
 10
99.4509943182
 20
51.7196022727
 30
0.0
 11
99.4509943182
 21
50.9196022727
 31
0.0
  0
LINE
  5
329
330
222
100
AcDbEntity
  8
0
  6
Continuous
 62
     7
100
AcDbLine
 10
99.4509943182
 20
51.7196022727
 30
0.0
 11
99.4509943182
 21
52.5196022727
 31
0.0
  0
LINE
  5
32A
330
222
100
AcDbEntity
  8
02___PRT_ALL_AXES
  6
Continuous
 62
     7
100
AcDbLine
 10
75.4509943182
 20
102.7196022727
 30
0.0
 11
68.4509943182
 21
102.7196022727
 31
0.0
  0
LINE
  5
32B
330
222
100
AcDbEntity
  8
7_ALL_FEATURES
  6
Continuous
 62
     7
100
AcDbLine
 10
75.4509943182
 20
102.7196022727
 30
0.0
 11
68.4509943182
 21
102.7196022727
 31
0.0
  0
LINE
  5
32C
330
222
100
AcDbEntity
  8
02___PRT_ALL_AXES
  6
Continuous
 62
     7
100
AcDbLine
 10
52.3009943182
 20
177.1790605025
 30
0.0
 11
52.6009943182
 21
177.1790605025
 31
0.0
  0
LINE
  5
32D
330
222
100
AcDbEntity
  8
02___PRT_ALL_AXES
  6
Continuous
 62
     9
100
AcDbLine
 10
52.3009943182
 20
178.8747412304
 30
0.0
 11
52.6009943182
 21
178.8747412304
 31
0.0
  0
LINE
  5
32E
330
222
100
AcDbEntity
  8
7_ALL_FEATURES
  6
Continuous
 62
     7
100
AcDbLine
 10
44.4509943182
 20
249.6790605025
 30
0.0
 11
44.4509943182
 21
194.6790605025
 31
0.0
  0
LINE
  5
32F
330
222
100
AcDbEntity
  8
7_ALL_FEATURES
  6
Continuous
 62
     7
100
AcDbLine
 10
44.4509943182
 20
194.6790605025
 30
0.0
 11
99.4509943182
 21
194.6790605025
 31
0.0
  0
LINE
  5
330
330
222
100
AcDbEntity
  8
7_ALL_FEATURES
  6
Continuous
 62
     7
100
AcDbLine
 10
52.3009943182
 20
194.6790605025
 30
0.0
 11
52.3009943182
 21
178.8747412304
 31
0.0
  0
LINE
  5
331
330
222
100
AcDbEntity
  8
02___PRT_ALL_AXES
  6
Continuous
 62
     7
100
AcDbLine
 10
52.3009943182
 20
178.8747412304
 30
0.0
 11
52.3009943182
 21
177.1792944056
 31
0.0
  0
LINE
  5
332
330
222
100
AcDbEntity
  8
7_ALL_FEATURES
  6
Continuous
 62
     7
100
AcDbLine
 10
52.6009943182
 20
194.6790605025
 30
0.0
 11
52.6009943182
 21
178.8747412304
 31
0.0
  0
LINE
  5
333
330
222
100
AcDbEntity
  8
02___PRT_ALL_AXES
  6
Continuous
 62
     7
100
AcDbLine
 10
52.6009943182
 20
178.8747412304
 30
0.0
 11
52.6009943182
 21
177.1792944056
 31
0.0
  0
LINE
  5
334
330
222
100
AcDbEntity
  8
7_ALL_FEATURES
  6
Continuous
 62
     7
100
AcDbLine
 10
67.9509943182
 20
207.1790605025
 30
0.0
 11
75.9509943182
 21
207.1790605025
 31
0.0
  0
LINE
  5
335
330
222
100
AcDbEntity
  8
7_ALL_FEATURES
  6
Continuous
 62
     7
100
AcDbLine
 10
67.9509943182
 20
237.1790605025
 30
0.0
 11
67.9509943182
 21
207.1790605025
 31
0.0
  0
LINE
  5
336
330
222
100
AcDbEntity
  8
7_ALL_FEATURES
  6
Continuous
 62
     7
100
AcDbLine
 10
75.9509943182
 20
207.1790605025
 30
0.0
 11
75.9509943182
 21
237.1790605025
 31
0.0
  0
LINE
  5
337
330
222
100
AcDbEntity
  8
7_ALL_FEATURES
  6
Continuous
 62
     7
100
AcDbLine
 10
75.9509943182
 20
237.1790605025
 30
0.0
 11
67.9509943182
 21
237.1790605025
 31
0.0
  0
LINE
  5
338
330
222
100
AcDbEntity
  8
7_ALL_FEATURES
  6
Continuous
 62
     7
100
AcDbLine
 10
91.3009943182
 20
249.6790605025
 30
0.0
 11
91.3009943182
 21
265.4833797745
 31
0.0
  0
LINE
  5
339
330
222
100
AcDbEntity
  8
02___PRT_ALL_AXES
  6
Continuous
 62
     7
100
AcDbLine
 10
91.3009943182
 20
265.4833797745
 30
0.0
 11
91.3009943182
 21
267.1788265994
 31
0.0
  0
LINE
  5
33A
330
222
100
AcDbEntity
  8
7_ALL_FEATURES
  6
Continuous
 62
     7
100
AcDbLine
 10
91.6009943182
 20
249.6790605025
 30
0.0
 11
91.6009943182
 21
265.4833797745
 31
0.0
  0
LINE
  5
33B
330
222
100
AcDbEntity
  8
02___PRT_ALL_AXES
  6
Continuous
 62
     7
100
AcDbLine
 10
91.6009943182
 20
265.4833797745
 30
0.0
 11
91.6009943182
 21
267.1788265994
 31
0.0
  0
LINE
  5
33C
330
222
100
AcDbEntity
  8
7_ALL_FEATURES
  6
Continuous
 62
     7
100
AcDbLine
 10
99.4509943182
 20
194.6790605025
 30
0.0
 11
99.4509943182
 21
249.6790605025
 31
0.0
  0
LINE
  5
33D
330
222
100
AcDbEntity
  8
7_ALL_FEATURES
  6
Continuous
 62
     7
100
AcDbLine
 10
99.4509943182
 20
249.6790605025
 30
0.0
 11
44.4509943182
 21
249.6790605025
 31
0.0
  0
LINE
  5
33E
330
222
100
AcDbEntity
  8
02___PRT_ALL_AXES
  6
Continuous
 62
     9
100
AcDbLine
 10
91.6009943182
 20
265.4833797745
 30
0.0
 11
91.3009943182
 21
265.4833797745
 31
0.0
  0
LINE
  5
33F
330
222
100
AcDbEntity
  8
02___PRT_ALL_AXES
  6
Continuous
 62
     7
100
AcDbLine
 10
91.6009943182
 20
267.1790605025
 30
0.0
 11
91.3009943182
 21
267.1790605025
 31
0.0
  0
LINE
  5
340
330
222
100
AcDbEntity
  8
0
  6
Continuous
 62
     7
100
AcDbLine
 10
233.7194679954
 20
194.6790605025
 30
0.0
 11
232.9194679954
 21
194.6790605025
 31
0.0
  0
LINE
  5
341
330
222
100
AcDbEntity
  8
7_ALL_FEATURES
  6
Continuous
 62
     7
100
AcDbLine
 10
233.7194679954
 20
194.6790605025
 30
0.0
 11
234.5194679954
 21
194.6790605025
 31
0.0
  0
LINE
  5
342
330
222
100
AcDbEntity
  8
02___PRT_ALL_AXES
  6
Continuous
 62
     7
100
AcDbLine
 10
182.7194679954
 20
220.6790605025
 30
0.0
 11
182.7194679954
 21
213.6790605025
 31
0.0
  0
LINE
  5
343
330
222
100
AcDbEntity
  8
7_ALL_FEATURES
  6
Continuous
 62
     7
100
AcDbLine
 10
182.7194679954
 20
220.6790605025
 30
0.0
 11
182.7194679954
 21
213.6790605025
 31
0.0
  0
LINE
  5
344
330
222
100
AcDbEntity
  8
02___PRT_ALL_AXES
  6
Continuous
 62
     7
100
AcDbLine
 10
186.7194679954
 20
210.1790605025
 30
0.0
 11
187.7194679954
 21
209.1790605025
 31
0.0
  0
LINE
  5
345
330
222
100
AcDbEntity
  8
02___PRT_ALL_AXES
  6
Continuous
 62
     9
100
AcDbLine
 10
186.2194679954
 20
224.1790605025
 30
0.0
 11
186.2194679954
 21
223.6790605025
 31
0.0
  0
LINE
  5
346
330
222
100
AcDbEntity
  8
02___PRT_ALL_AXES
  6
Continuous
 62
     9
100
AcDbLine
 10
186.2194679954
 20
222.6790605025
 30
0.0
 11
186.2194679954
 21
218.1790605025
 31
0.0
  0
LINE
  5
347
330
222
100
AcDbEntity
  8
02___PRT_ALL_AXES
  6
Continuous
 62
     9
100
AcDbLine
 10
186.2194679954
 20
216.1790605025
 30
0.0
 11
186.2194679954
 21
211.6790605025
 31
0.0
  0
LINE
  5
348
330
222
100
AcDbEntity
  8
02___PRT_ALL_AXES
  6
Continuous
 62
     9
100
AcDbLine
 10
186.2194679954
 20
210.6790605025
 30
0.0
 11
186.2194679954
 21
210.1790605025
 31
0.0
  0
LINE
  5
349
330
222
100
AcDbEntity
  8
02___PRT_ALL_AXES
  6
Continuous
 62
     7
100
AcDbLine
 10
186.7194679954
 20
224.1790605025
 30
0.0
 11
186.7194679954
 21
223.6790605025
 31
0.0
  0
LINE
  5
34A
330
222
100
AcDbEntity
  8
02___PRT_ALL_AXES
  6
Continuous
 62
     7
100
AcDbLine
 10
186.7194679954
 20
222.6790605025
 30
0.0
 11
186.7194679954
 21
218.1790605025
 31
0.0
  0
LINE
  5
34B
330
222
100
AcDbEntity
  8
02___PRT_ALL_AXES
  6
Continuous
 62
     7
100
AcDbLine
 10
186.7194679954
 20
216.1790605025
 30
0.0
 11
186.7194679954
 21
211.6790605025
 31
0.0
  0
LINE
  5
34C
330
222
100
AcDbEntity
  8
02___PRT_ALL_AXES
  6
Continuous
 62
     7
100
AcDbLine
 10
186.7194679954
 20
210.6790605025
 30
0.0
 11
186.7194679954
 21
210.1790605025
 31
0.0
  0
LINE
  5
34D
330
222
100
AcDbEntity
  8
02___PRT_ALL_AXES
  6
Continuous
 62
     7
100
AcDbLine
 10
186.7194679954
 20
224.1790605025
 30
0.0
 11
187.7194679954
 21
225.1790605025
 31
0.0
  0
LINE
  5
34E
330
222
100
AcDbEntity
  8
02___PRT_ALL_AXES
  6
Continuous
 62
     7
100
AcDbLine
 10
198.7194679954
 20
202.1790605025
 30
0.0
 11
200.9194679954
 21
202.1790605025
 31
0.0
  0
LINE
  5
34F
330
222
100
AcDbEntity
  8
02___PRT_ALL_AXES
  6
Continuous
 62
     7
100
AcDbLine
 10
202.9194679954
 20
202.1790605025
 30
0.0
 11
204.7194679954
 21
202.1790605025
 31
0.0
  0
LINE
  5
350
330
222
100
AcDbEntity
  8
02___PRT_ALL_AXES
  6
Continuous
 62
     7
100
AcDbLine
 10
224.9025896305
 20
202.1790605025
 30
0.0
 11
232.9194679954
 21
202.1790605025
 31
0.0
  0
LINE
  5
351
330
222
100
AcDbEntity
  8
02___PRT_ALL_AXES
  6
Continuous
 62
     7
100
AcDbLine
 10
192.2194679954
 20
209.1790605025
 30
0.0
 11
192.2194679954
 21
225.1790605025
 31
0.0
  0
LINE
  5
352
330
222
100
AcDbEntity
  8
02___PRT_ALL_AXES
  6
Continuous
 62
     7
100
AcDbLine
 10
195.2194679954
 20
209.1790605025
 30
0.0
 11
195.2194679954
 21
225.1790605025
 31
0.0
  0
LINE
  5
353
330
222
100
AcDbEntity
  8
02___PRT_ALL_AXES
  6
Continuous
 62
     7
100
AcDbLine
 10
206.7194679954
 20
206.1790605025
 30
0.0
 11
204.7194679954
 21
206.1790605025
 31
0.0
  0
LINE
  5
354
330
222
100
AcDbEntity
  8
7_ALL_FEATURES
  6
Continuous
 62
     7
100
AcDbLine
 10
202.9194679954
 20
206.1790605025
 30
0.0
 11
200.9194679954
 21
206.1790605025
 31
0.0
  0
LINE
  5
355
330
222
100
AcDbEntity
  8
02___PRT_ALL_AXES
  6
Continuous
 62
     7
100
AcDbLine
 10
198.7194679954
 20
209.1790605025
 30
0.0
 11
195.2194679954
 21
209.1790605025
 31
0.0
  0
LINE
  5
356
330
222
100
AcDbEntity
  8
02___PRT_ALL_AXES
  6
Continuous
 62
     7
100
AcDbLine
 10
192.2194679954
 20
209.1790605025
 30
0.0
 11
187.7194679954
 21
209.1790605025
 31
0.0
  0
LINE
  5
357
330
222
100
AcDbEntity
  8
02___PRT_ALL_AXES
  6
Continuous
 62
     7
100
AcDbLine
 10
186.2194679954
 20
210.1790605025
 30
0.0
 11
186.7194679954
 21
210.1790605025
 31
0.0
  0
LINE
  5
358
330
222
100
AcDbEntity
  8
02___PRT_ALL_AXES
  6
Continuous
 62
     7
100
AcDbLine
 10
186.2194679954
 20
210.6790605025
 30
0.0
 11
186.7194679954
 21
210.6790605025
 31
0.0
  0
LINE
  5
359
330
222
100
AcDbEntity
  8
02___PRT_ALL_AXES
  6
Continuous
 62
     7
100
AcDbLine
 10
195.2194679954
 20
211.1790605025
 30
0.0
 11
192.2194679954
 21
211.1790605025
 31
0.0
  0
LINE
  5
35A
330
222
100
AcDbEntity
  8
02___PRT_ALL_AXES
  6
Continuous
 62
     7
100
AcDbLine
 10
186.2194679954
 20
211.6790605025
 30
0.0
 11
186.7194679954
 21
211.6790605025
 31
0.0
  0
LINE
  5
35B
330
222
100
AcDbEntity
  8
7_ALL_FEATURES
  6
Continuous
 62
     7
100
AcDbLine
 10
198.7194679954
 20
202.1792323386
 30
0.0
 11
198.7194679954
 21
242.1788886664
 31
0.0
  0
LINE
  5
35C
330
222
100
AcDbEntity
  8
7_ALL_FEATURES
  6
Continuous
 62
     7
100
AcDbLine
 10
200.9194679954
 20
202.1792323386
 30
0.0
 11
200.9194679954
 21
242.1788886664
 31
0.0
  0
LINE
  5
35D
330
222
100
AcDbEntity
  8
02___PRT_ALL_AXES
  6
Continuous
 62
     7
100
AcDbLine
 10
198.7194679954
 20
213.1790605025
 30
0.0
 11
195.2194679954
 21
213.1790605025
 31
0.0
  0
LINE
  5
35E
330
222
100
AcDbEntity
  8
02___PRT_ALL_AXES
  6
Continuous
 62
     7
100
AcDbLine
 10
192.2194679954
 20
213.1790605025
 30
0.0
 11
187.7194679954
 21
213.1790605025
 31
0.0
  0
LINE
  5
35F
330
222
100
AcDbEntity
  8
7_ALL_FEATURES
  6
Continuous
 62
     7
100
AcDbLine
 10
202.9194679954
 20
202.1792323386
 30
0.0
 11
202.9194679954
 21
242.1788886664
 31
0.0
  0
LINE
  5
360
330
222
100
AcDbEntity
  8
7_ALL_FEATURES
  6
Continuous
 62
     7
100
AcDbLine
 10
204.7194679954
 20
202.1792323386
 30
0.0
 11
204.7194679954
 21
242.1788886664
 31
0.0
  0
LINE
  5
361
330
222
100
AcDbEntity
  8
7_ALL_FEATURES
  6
Continuous
 62
     7
100
AcDbLine
 10
205.1194679954
 20
263.7876990466
 30
0.0
 11
205.1194679954
 21
253.8418919284
 31
0.0
  0
LINE
  5
362
330
222
100
AcDbEntity
  8
7_ALL_FEATURES
  6
Continuous
 62
     7
100
AcDbLine
 10
205.1194679954
 20
180.5704219584
 30
0.0
 11
205.1194679954
 21
190.5162290766
 31
0.0
  0
LINE
  5
363
330
222
100
AcDbEntity
  8
02___PRT_ALL_AXES
  6
Continuous
 62
     7
100
AcDbLine
 10
186.2194679954
 20
216.1790605025
 30
0.0
 11
186.7194679954
 21
216.1790605025
 31
0.0
  0
LINE
  5
364
330
222
100
AcDbEntity
  8
7_ALL_FEATURES
  6
Continuous
 62
     7
100
AcDbLine
 10
198.7194679954
 20
217.1216402115
 30
0.0
 11
200.9194679954
 21
217.1216402115
 31
0.0
  0
LINE
  5
365
330
222
100
AcDbEntity
  8
7_ALL_FEATURES
  6
Continuous
 62
     7
100
AcDbLine
 10
202.9194679954
 20
217.1216402115
 30
0.0
 11
204.7194679954
 21
217.1216402115
 31
0.0
  0
LINE
  5
366
330
222
100
AcDbEntity
  8
7_ALL_FEATURES
  6
Continuous
 62
     7
100
AcDbLine
 10
206.7194679954
 20
217.1216402115
 30
0.0
 11
208.5194679954
 21
217.1216402115
 31
0.0
  0
LINE
  5
367
330
222
100
AcDbEntity
  8
7_ALL_FEATURES
  6
Continuous
 62
     7
100
AcDbLine
 10
210.5194679954
 20
217.1216402115
 30
0.0
 11
212.3194679954
 21
217.1216402115
 31
0.0
  0
LINE
  5
368
330
222
100
AcDbEntity
  8
7_ALL_FEATURES
  6
Continuous
 62
     7
100
AcDbLine
 10
232.9194679954
 20
217.9290605025
 30
0.0
 11
232.3694679954
 21
217.9290605025
 31
0.0
  0
LINE
  5
369
330
222
100
AcDbEntity
  8
02___PRT_ALL_AXES
  6
Continuous
 62
     7
100
AcDbLine
 10
186.2194679954
 20
218.1790605025
 30
0.0
 11
186.7194679954
 21
218.1790605025
 31
0.0
  0
LINE
  5
36A
330
222
100
AcDbEntity
  8
0
  6
Continuous
 62
     7
100
AcDbLine
 10
232.1194679954
 20
218.1790605025
 30
0.0
 11
232.9194679954
 21
218.1790605025
 31
0.0
  0
LINE
  5
36B
330
222
100
AcDbEntity
  8
7_ALL_FEATURES
  6
Continuous
 62
     7
100
AcDbLine
 10
206.7194679954
 20
202.9893816819
 30
0.0
 11
206.7194679954
 21
242.1788886664
 31
0.0
  0
LINE
  5
36C
330
222
100
AcDbEntity
  8
7_ALL_FEATURES
  6
Continuous
 62
     7
100
AcDbLine
 10
208.5194679954
 20
208.5458177144
 30
0.0
 11
208.5194679954
 21
242.1788886664
 31
0.0
  0
LINE
  5
36D
330
222
100
AcDbEntity
  8
02___PRT_ALL_AXES
  6
Continuous
 62
     7
100
AcDbLine
 10
198.7194679954
 20
221.1790605025
 30
0.0
 11
195.2194679954
 21
221.1790605025
 31
0.0
  0
LINE
  5
36E
330
222
100
AcDbEntity
  8
02___PRT_ALL_AXES
  6
Continuous
 62
     7
100
AcDbLine
 10
192.2194679954
 20
221.1790605025
 30
0.0
 11
187.7194679954
 21
221.1790605025
 31
0.0
  0
LINE
  5
36F
330
222
100
AcDbEntity
  8
7_ALL_FEATURES
  6
Continuous
 62
     7
100
AcDbLine
 10
210.5194679954
 20
213.0213923223
 30
0.0
 11
210.5194679954
 21
242.1788886664
 31
0.0
  0
LINE
  5
370
330
222
100
AcDbEntity
  8
7_ALL_FEATURES
  6
Continuous
 62
     7
100
AcDbLine
 10
212.3194679954
 20
216.3844545126
 30
0.0
 11
212.3194679954
 21
242.1788886664
 31
0.0
  0
LINE
  5
371
330
222
100
AcDbEntity
  8
02___PRT_ALL_AXES
  6
Continuous
 62
     7
100
AcDbLine
 10
186.2194679954
 20
222.6790605025
 30
0.0
 11
186.7194679954
 21
222.6790605025
 31
0.0
  0
LINE
  5
372
330
222
100
AcDbEntity
  8
02___PRT_ALL_AXES
  6
Continuous
 62
     7
100
AcDbLine
 10
195.2194679954
 20
223.1790605025
 30
0.0
 11
192.2194679954
 21
223.1790605025
 31
0.0
  0
LINE
  5
373
330
222
100
AcDbEntity
  8
02___PRT_ALL_AXES
  6
Continuous
 62
     7
100
AcDbLine
 10
186.2194679954
 20
223.6790605025
 30
0.0
 11
186.7194679954
 21
223.6790605025
 31
0.0
  0
LINE
  5
374
330
222
100
AcDbEntity
  8
02___PRT_ALL_AXES
  6
Continuous
 62
     7
100
AcDbLine
 10
186.2194679954
 20
224.1790605025
 30
0.0
 11
186.7194679954
 21
224.1790605025
 31
0.0
  0
LINE
  5
375
330
222
100
AcDbEntity
  8
02___PRT_ALL_AXES
  6
Continuous
 62
     7
100
AcDbLine
 10
198.7194679954
 20
225.1790605025
 30
0.0
 11
195.2194679954
 21
225.1790605025
 31
0.0
  0
LINE
  5
376
330
222
100
AcDbEntity
  8
02___PRT_ALL_AXES
  6
Continuous
 62
     7
100
AcDbLine
 10
192.2194679954
 20
225.1790605025
 30
0.0
 11
187.7194679954
 21
225.1790605025
 31
0.0
  0
LINE
  5
377
330
222
100
AcDbEntity
  8
7_ALL_FEATURES
  6
Continuous
 62
     7
100
AcDbLine
 10
214.3194679954
 20
219.8255158654
 30
0.0
 11
214.3194679954
 21
242.1788886664
 31
0.0
  0
LINE
  5
378
330
222
100
AcDbEntity
  8
7_ALL_FEATURES
  6
Continuous
 62
     7
100
AcDbLine
 10
211.8181978062
 20
215.5162290766
 30
0.0
 11
214.2216096505
 21
219.6790605025
 31
0.0
  0
LINE
  5
379
330
222
100
AcDbEntity
  8
0
  6
Continuous
 62
     7
100
AcDbLine
 10
232.9194679954
 20
226.1790605025
 30
0.0
 11
232.1194679954
 21
226.1790605025
 31
0.0
  0
LINE
  5
37A
330
222
100
AcDbEntity
  8
7_ALL_FEATURES
  6
Continuous
 62
     7
100
AcDbLine
 10
232.3694679954
 20
226.4290605025
 30
0.0
 11
232.9194679954
 21
226.4290605025
 31
0.0
  0
LINE
  5
37B
330
222
100
AcDbEntity
  8
7_ALL_FEATURES
  6
Continuous
 62
     7
100
AcDbLine
 10
198.7194679954
 20
227.2364807935
 30
0.0
 11
200.9194679954
 21
227.2364807935
 31
0.0
  0
LINE
  5
37C
330
222
100
AcDbEntity
  8
7_ALL_FEATURES
  6
Continuous
 62
     7
100
AcDbLine
 10
202.9194679954
 20
227.2364807935
 30
0.0
 11
204.7194679954
 21
227.2364807935
 31
0.0
  0
LINE
  5
37D
330
222
100
AcDbEntity
  8
7_ALL_FEATURES
  6
Continuous
 62
     7
100
AcDbLine
 10
206.7194679954
 20
227.2364807935
 30
0.0
 11
208.5194679954
 21
227.2364807935
 31
0.0
  0
LINE
  5
37E
330
222
100
AcDbEntity
  8
7_ALL_FEATURES
  6
Continuous
 62
     7
100
AcDbLine
 10
210.5194679954
 20
227.2364807935
 30
0.0
 11
212.3194679954
 21
227.2364807935
 31
0.0
  0
LINE
  5
37F
330
222
100
AcDbEntity
  8
7_ALL_FEATURES
  6
Continuous
 62
     7
100
AcDbLine
 10
214.3194679954
 20
227.2364807935
 30
0.0
 11
222.0225281748
 21
227.2364807935
 31
0.0
  0
LINE
  5
380
330
222
100
AcDbEntity
  8
7_ALL_FEATURES
  6
Continuous
 62
     7
100
AcDbLine
 10
227.2194679954
 20
223.3337610409
 30
0.0
 11
226.2194679954
 21
222.7564107717
 31
0.0
  0
LINE
  5
381
330
222
100
AcDbEntity
  8
7_ALL_FEATURES
  6
Continuous
 62
     7
100
AcDbLine
 10
227.2194679954
 20
221.0243599641
 30
0.0
 11
228.2194679954
 21
221.6017102333
 31
0.0
  0
LINE
  5
382
330
222
100
AcDbEntity
  8
7_ALL_FEATURES
  6
Continuous
 62
     7
100
AcDbLine
 10
231.5421177262
 20
229.6790605025
 30
0.0
 11
232.9194679954
 21
229.6790605025
 31
0.0
  0
LINE
  5
383
330
222
100
AcDbEntity
  8
7_ALL_FEATURES
  6
Continuous
 62
     7
100
AcDbLine
 10
226.2194679954
 20
221.6017102333
 30
0.0
 11
227.2194679954
 21
221.0243599641
 31
0.0
  0
LINE
  5
384
330
222
100
AcDbEntity
  8
7_ALL_FEATURES
  6
Continuous
 62
     7
100
AcDbLine
 10
228.2194679954
 20
222.7564107717
 30
0.0
 11
227.2194679954
 21
223.3337610409
 31
0.0
  0
LINE
  5
385
330
222
100
AcDbEntity
  8
7_ALL_FEATURES
  6
Continuous
 62
     7
100
AcDbLine
 10
232.1194679954
 20
226.1790605025
 30
0.0
 11
232.9194679954
 21
226.9790605025
 31
0.0
  0
LINE
  5
386
330
222
100
AcDbEntity
  8
7_ALL_FEATURES
  6
Continuous
 62
     7
100
AcDbLine
 10
232.9194679954
 20
217.3790605025
 30
0.0
 11
232.1194679954
 21
218.1790605025
 31
0.0
  0
LINE
  5
387
330
222
100
AcDbEntity
  8
7_ALL_FEATURES
  6
Continuous
 62
     7
100
AcDbLine
 10
226.2194679954
 20
222.7564107717
 30
0.0
 11
226.2194679954
 21
221.6017102333
 31
0.0
  0
LINE
  5
388
330
222
100
AcDbEntity
  8
02___PRT_ALL_AXES
  6
Continuous
 62
     7
100
AcDbLine
 10
214.3194679954
 20
238.1790605025
 30
0.0
 11
212.3194679954
 21
238.1790605025
 31
0.0
  0
LINE
  5
389
330
222
100
AcDbEntity
  8
02___PRT_ALL_AXES
  6
Continuous
 62
     7
100
AcDbLine
 10
210.5194679954
 20
238.1790605025
 30
0.0
 11
208.5194679954
 21
238.1790605025
 31
0.0
  0
LINE
  5
38A
330
222
100
AcDbEntity
  8
02___PRT_ALL_AXES
  6
Continuous
 62
     7
100
AcDbLine
 10
206.7194679954
 20
238.1790605025
 30
0.0
 11
204.7194679954
 21
238.1790605025
 31
0.0
  0
LINE
  5
38B
330
222
100
AcDbEntity
  8
7_ALL_FEATURES
  6
Continuous
 62
     7
100
AcDbLine
 10
202.9194679954
 20
238.1790605025
 30
0.0
 11
200.9194679954
 21
238.1790605025
 31
0.0
  0
LINE
  5
38C
330
222
100
AcDbEntity
  8
7_ALL_FEATURES
  6
Continuous
 62
     7
100
AcDbLine
 10
228.2194679954
 20
221.6017102333
 30
0.0
 11
228.2194679954
 21
222.7564107717
 31
0.0
  0
LINE
  5
38D
330
222
100
AcDbEntity
  8
02___PRT_ALL_AXES
  6
Continuous
 62
     7
100
AcDbLine
 10
198.7194679954
 20
242.1790605025
 30
0.0
 11
200.9194679954
 21
242.1790605025
 31
0.0
  0
LINE
  5
38E
330
222
100
AcDbEntity
  8
02___PRT_ALL_AXES
  6
Continuous
 62
     7
100
AcDbLine
 10
202.9194679954
 20
242.1790605025
 30
0.0
 11
204.7194679954
 21
242.1790605025
 31
0.0
  0
LINE
  5
38F
330
222
100
AcDbEntity
  8
02___PRT_ALL_AXES
  6
Continuous
 62
     7
100
AcDbLine
 10
206.7194679954
 20
242.1790605025
 30
0.0
 11
208.5194679954
 21
242.1790605025
 31
0.0
  0
LINE
  5
390
330
222
100
AcDbEntity
  8
02___PRT_ALL_AXES
  6
Continuous
 62
     7
100
AcDbLine
 10
210.5194679954
 20
242.1790605025
 30
0.0
 11
212.3194679954
 21
242.1790605025
 31
0.0
  0
LINE
  5
391
330
222
100
AcDbEntity
  8
02___PRT_ALL_AXES
  6
Continuous
 62
     7
100
AcDbLine
 10
214.3194679954
 20
242.1790605025
 30
0.0
 11
232.9194679954
 21
242.1790605025
 31
0.0
  0
LINE
  5
392
330
222
100
AcDbEntity
  8
7_ALL_FEATURES
  6
Continuous
 62
     7
100
AcDbLine
 10
232.1194679954
 20
218.1790605025
 30
0.0
 11
232.1194679954
 21
226.1790605025
 31
0.0
  0
LINE
  5
393
330
222
100
AcDbEntity
  8
0
  6
Continuous
 62
     7
100
AcDbLine
 10
232.9194679954
 20
249.6790605025
 30
0.0
 11
232.9194679954
 21
194.6790605025
 31
0.0
  0
LINE
  5
394
330
222
100
AcDbEntity
  8
7_ALL_FEATURES
  6
Continuous
 62
     7
100
AcDbLine
 10
229.4586684424
 20
210.0704204879
 30
0.0
 11
211.4478346255
 21
178.8747412304
 31
0.0
  0
LINE
  5
395
330
222
100
AcDbEntity
  8
7_ALL_FEATURES
  6
Continuous
 62
     7
100
AcDbLine
 10
224.9025896305
 20
242.1790605025
 30
0.0
 11
211.4478346255
 21
265.4833797745
 31
0.0
  0
LINE
  5
396
330
222
100
AcDbEntity
  8
7_ALL_FEATURES
  6
Continuous
 62
     7
100
AcDbLine
 10
233.7194679954
 20
249.6790605025
 30
0.0
 11
233.7194679954
 21
194.6790605025
 31
0.0
  0
LINE
  5
397
330
222
100
AcDbEntity
  8
0
  6
Continuous
 62
     7
100
AcDbLine
 10
233.7194679954
 20
249.6790605025
 30
0.0
 11
233.7194679954
 21
194.6790605025
 31
0.0
  0
LINE
  5
398
330
222
100
AcDbEntity
  8
7_ALL_FEATURES
  6
Continuous
 62
     7
100
AcDbLine
 10
234.5194679954
 20
249.6790605025
 30
0.0
 11
234.5194679954
 21
194.6790605025
 31
0.0
  0
LINE
  5
399
330
222
100
AcDbEntity
  8
0
  6
Continuous
 62
     7
100
AcDbLine
 10
233.7194679954
 20
249.6790605025
 30
0.0
 11
232.9194679954
 21
249.6790605025
 31
0.0
  0
LINE
  5
39A
330
222
100
AcDbEntity
  8
7_ALL_FEATURES
  6
Continuous
 62
     7
100
AcDbLine
 10
233.7194679954
 20
249.6790605025
 30
0.0
 11
234.5194679954
 21
249.6790605025
 31
0.0
  0
LINE
  5
39B
330
222
100
AcDbEntity
  8
02___PRT_ALL_AXES
  6
Continuous
 62
     7
100
AcDbLine
 10
311.6121339891
 20
92.8223085123
 30
0.0
 11
311.831950987
 21
92.7600970478
 31
0.0
  0
LINE
  5
39C
330
222
100
AcDbEntity
  8
02___PRT_ALL_AXES
  6
Continuous
 62
     9
100
AcDbLine
 10
310.5811604688
 20
93.7264941647
 30
0.0
 11
310.8009774667
 21
93.6642827002
 31
0.0
  0
LINE
  5
39D
330
222
100
AcDbEntity
  8
7_ALL_FEATURES
  6
Continuous
 62
     7
100
AcDbLine
 10
287.8949675749
 20
156.4015198171
 30
0.0
 11
287.3509213402
 21
156.1947420126
 31
0.0
  0
LINE
  5
39E
330
222
100
AcDbEntity
  8
0
  6
Continuous
 62
     7
100
AcDbLine
 10
287.8949675749
 20
156.4015198171
 30
0.0
 11
288.4390138096
 21
156.6082976216
 31
0.0
  0
LINE
  5
39F
330
222
100
AcDbEntity
  8
7_ALL_FEATURES
  6
Continuous
 62
     7
100
AcDbLine
 10
288.7400658531
 20
104.3023328369
 30
0.0
 11
329.0398487993
 21
92.8968976657
 31
0.0
  0
LINE
  5
3A0
330
222
100
AcDbEntity
  8
7_ALL_FEATURES
  6
Continuous
 62
     7
100
AcDbLine
 10
287.3509213402
 20
156.1947420126
 30
0.0
 11
288.7400658531
 21
104.3023328369
 31
0.0
  0
LINE
  5
3A1
330
222
100
AcDbEntity
  8
7_ALL_FEATURES
  6
Continuous
 62
     7
100
AcDbLine
 10
305.643349359
 20
111.2228308037
 30
0.0
 11
311.5051359694
 21
109.5638584152
 31
0.0
  0
LINE
  5
3A2
330
222
100
AcDbEntity
  8
7_ALL_FEATURES
  6
Continuous
 62
     7
100
AcDbLine
 10
307.8645861265
 20
98.8898104804
 30
0.0
 11
310.5811604688
 21
93.7264941647
 31
0.0
  0
LINE
  5
3A3
330
222
100
AcDbEntity
  8
7_ALL_FEATURES
  6
Continuous
 62
     7
100
AcDbLine
 10
308.0844031244
 20
98.8275990159
 30
0.0
 11
310.8009774667
 21
93.6642827002
 31
0.0
  0
LINE
  5
3A4
330
222
100
AcDbEntity
  8
7_ALL_FEATURES
  6
Continuous
 62
     7
100
AcDbLine
 10
306.1873955937
 20
111.4296086082
 30
0.0
 11
311.4954050493
 21
109.9273633526
 31
0.0
  0
LINE
  5
3A5
330
222
100
AcDbEntity
  8
02___PRT_ALL_AXES
  6
Continuous
 62
     7
100
AcDbLine
 10
325.4358907147
 20
152.4943390635
 30
0.0
 11
323.9397635693
 21
151.9257001011
 31
0.0
  0
LINE
  5
3A6
330
222
100
AcDbEntity
  8
02___PRT_ALL_AXES
  6
Continuous
 62
     7
100
AcDbLine
 10
322.5796479826
 20
151.4087555898
 30
0.0
 11
321.3555439546
 21
150.9435055296
 31
0.0
  0
LINE
  5
3A7
330
222
100
AcDbEntity
  8
02___PRT_ALL_AXES
  6
Continuous
 62
     7
100
AcDbLine
 10
319.9954283678
 20
150.4265610183
 30
0.0
 11
318.7713243398
 21
149.9613109581
 31
0.0
  0
LINE
  5
3A8
330
222
100
AcDbEntity
  8
02___PRT_ALL_AXES
  6
Continuous
 62
     7
100
AcDbLine
 10
317.411208753
 20
149.4443664468
 30
0.0
 11
316.187104725
 21
148.9791163866
 31
0.0
  0
LINE
  5
3A9
330
222
100
AcDbEntity
  8
7_ALL_FEATURES
  6
Continuous
 62
     7
100
AcDbLine
 10
304.8856341702
 20
139.5277812631
 30
0.0
 11
305.643349359
 21
111.2228308037
 31
0.0
  0
LINE
  5
3AA
330
222
100
AcDbEntity
  8
7_ALL_FEATURES
  6
Continuous
 62
     7
100
AcDbLine
 10
305.439411325
 20
139.3710541302
 30
0.0
 11
306.1873955937
 21
111.4296086082
 31
0.0
  0
LINE
  5
3AB
330
222
100
AcDbEntity
  8
7_ALL_FEATURES
  6
Continuous
 62
     7
100
AcDbLine
 10
311.5051359694
 20
109.5638584152
 30
0.0
 11
310.7474207805
 21
137.8688088746
 31
0.0
  0
LINE
  5
3AC
330
222
100
AcDbEntity
  8
7_ALL_FEATURES
  6
Continuous
 62
     7
100
AcDbLine
 10
328.1947505211
 20
144.9960846459
 30
0.0
 11
327.6507042864
 21
144.7893068414
 31
0.0
  0
LINE
  5
3AD
330
222
100
AcDbEntity
  8
0
  6
Continuous
 62
     7
100
AcDbLine
 10
328.1947505211
 20
144.9960846459
 30
0.0
 11
328.7387967558
 21
145.2028624504
 31
0.0
  0
LINE
  5
3AE
330
222
100
AcDbEntity
  8
02___PRT_ALL_AXES
  6
Continuous
 62
     7
100
AcDbLine
 10
342.6553900439
 20
147.3414937094
 30
0.0
 11
342.3153611472
 21
147.2122575816
 31
0.0
  0
LINE
  5
3AF
330
222
100
AcDbEntity
  8
02___PRT_ALL_AXES
  6
Continuous
 62
     7
100
AcDbLine
 10
343.9497612459
 20
146.0388173026
 30
0.0
 11
343.6097323492
 21
145.9095811748
 31
0.0
  0
LINE
  5
3B0
330
222
100
AcDbEntity
  8
7_ALL_FEATURES
  6
Continuous
 62
     7
100
AcDbLine
 10
329.4614538404
 20
121.729396551
 30
0.0
 11
329.3664547917
 21
121.7562826881
 31
0.0
  0
LINE
  5
3B1
330
222
100
AcDbEntity
  8
7_ALL_FEATURES
  6
Continuous
 62
     7
100
AcDbLine
 10
329.4322893692
 20
122.8188546022
 30
0.0
 11
329.3372903205
 21
122.8457407393
 31
0.0
  0
LINE
  5
3B2
330
222
100
AcDbEntity
  8
7_ALL_FEATURES
  6
Continuous
 62
     7
100
AcDbLine
 10
329.4322893692
 20
122.8188546022
 30
0.0
 11
329.3369583988
 21
122.8581398931
 31
0.0
  0
LINE
  5
3B3
330
222
100
AcDbEntity
  8
02___PRT_ALL_AXES
  6
Continuous
 62
     7
100
AcDbLine
 10
343.222371915
 20
143.0704057777
 30
0.0
 11
344.8712313588
 21
143.6970943089
 31
0.0
  0
LINE
  5
3B4
330
222
100
AcDbEntity
  8
02___PRT_ALL_AXES
  6
Continuous
 62
     7
100
AcDbLine
 10
345.9670895677
 20
141.2543076465
 30
0.0
 11
345.6270606711
 21
141.1250715186
 31
0.0
  0
LINE
  5
3B5
330
222
100
AcDbEntity
  8
02___PRT_ALL_AXES
  6
Continuous
 62
     7
100
AcDbLine
 10
346.0176039137
 20
139.3673109492
 30
0.0
 11
345.677575017
 21
139.2380748213
 31
0.0
  0
LINE
  5
3B6
330
222
100
AcDbEntity
  8
7_ALL_FEATURES
  6
Continuous
 62
     7
100
AcDbLine
 10
310.7474207805
 20
137.8688088746
 30
0.0
 11
304.8856341702
 21
139.5277812631
 31
0.0
  0
LINE
  5
3B7
330
222
100
AcDbEntity
  8
7_ALL_FEATURES
  6
Continuous
 62
     7
100
AcDbLine
 10
328.7966069498
 20
143.0433245365
 30
0.0
 11
336.9698808306
 21
167.3541112156
 31
0.0
  0
LINE
  5
3B8
330
222
100
AcDbEntity
  8
7_ALL_FEATURES
  6
Continuous
 62
     7
100
AcDbLine
 10
328.8143614516
 20
142.380093418
 30
0.0
 11
337.1896978285
 21
167.291899751
 31
0.0
  0
LINE
  5
3B9
330
222
100
AcDbEntity
  8
7_ALL_FEATURES
  6
Continuous
 62
     7
100
AcDbLine
 10
346.5919142971
 20
134.5581548198
 30
0.0
 11
345.0957871517
 21
133.9895158573
 31
0.0
  0
LINE
  5
3BA
330
222
100
AcDbEntity
  8
7_ALL_FEATURES
  6
Continuous
 62
     7
100
AcDbLine
 10
343.7356715649
 20
133.472571346
 30
0.0
 11
342.5115675369
 21
133.0073212858
 31
0.0
  0
LINE
  5
3BB
330
222
100
AcDbEntity
  8
7_ALL_FEATURES
  6
Continuous
 62
     7
100
AcDbLine
 10
341.1514519501
 20
132.4903767745
 30
0.0
 11
339.9273479221
 21
132.0251267144
 31
0.0
  0
LINE
  5
3BC
330
222
100
AcDbEntity
  8
7_ALL_FEATURES
  6
Continuous
 62
     7
100
AcDbLine
 10
338.5672323353
 20
131.5081822031
 30
0.0
 11
337.3431283073
 21
131.0429321429
 31
0.0
  0
LINE
  5
3BD
330
222
100
AcDbEntity
  8
7_ALL_FEATURES
  6
Continuous
 62
     7
100
AcDbLine
 10
329.0398487993
 20
92.8968976657
 30
0.0
 11
327.6507042864
 21
144.7893068414
 31
0.0
  0
LINE
  5
3BE
330
222
100
AcDbEntity
  8
7_ALL_FEATURES
  6
Continuous
 62
     7
100
AcDbLine
 10
329.583895034
 20
93.1036754702
 30
0.0
 11
328.1947505211
 21
144.9960846459
 31
0.0
  0
LINE
  5
3BF
330
222
100
AcDbEntity
  8
0
  6
Continuous
 62
     7
100
AcDbLine
 10
329.583895034
 20
93.1036754702
 30
0.0
 11
328.1947505211
 21
144.9960846459
 31
0.0
  0
LINE
  5
3C0
330
222
100
AcDbEntity
  8
0
  6
Continuous
 62
     7
100
AcDbLine
 10
330.1279412687
 20
93.3104532748
 30
0.0
 11
328.7387967558
 21
145.2028624504
 31
0.0
  0
LINE
  5
3C1
330
222
100
AcDbEntity
  8
7_ALL_FEATURES
  6
Continuous
 62
     7
100
AcDbLine
 10
329.4614538404
 20
121.729396551
 30
0.0
 11
329.4322893692
 21
122.8188546022
 31
0.0
  0
LINE
  5
3C2
330
222
100
AcDbEntity
  8
7_ALL_FEATURES
  6
Continuous
 62
     7
100
AcDbLine
 10
329.3701253422
 20
121.6191668574
 30
0.0
 11
329.4614538404
 21
121.729396551
 31
0.0
  0
LINE
  5
3C3
330
222
100
AcDbEntity
  8
7_ALL_FEATURES
  6
Continuous
 62
     7
100
AcDbLine
 10
305.643349359
 20
111.2228308037
 30
0.0
 11
306.1873955937
 21
111.4296086082
 31
0.0
  0
LINE
  5
3C4
330
222
100
AcDbEntity
  8
7_ALL_FEATURES
  6
Continuous
 62
     7
100
AcDbLine
 10
346.8473865751
 20
125.0148194338
 30
0.0
 11
345.3512594297
 21
124.4461804713
 31
0.0
  0
LINE
  5
3C5
330
222
100
AcDbEntity
  8
7_ALL_FEATURES
  6
Continuous
 62
     7
100
AcDbLine
 10
343.991143843
 20
123.92923596
 30
0.0
 11
342.7670398149
 21
123.4639858999
 31
0.0
  0
LINE
  5
3C6
330
222
100
AcDbEntity
  8
7_ALL_FEATURES
  6
Continuous
 62
     7
100
AcDbLine
 10
341.4069242282
 20
122.9470413885
 30
0.0
 11
340.1828202001
 21
122.4817913284
 31
0.0
  0
LINE
  5
3C7
330
222
100
AcDbEntity
  8
7_ALL_FEATURES
  6
Continuous
 62
     7
100
AcDbLine
 10
338.8227046134
 20
121.9648468171
 30
0.0
 11
337.5986005853
 21
121.4995967569
 31
0.0
  0
LINE
  5
3C8
330
222
100
AcDbEntity
  8
7_ALL_FEATURES
  6
Continuous
 62
     7
100
AcDbLine
 10
336.2384849986
 20
120.9826522456
 30
0.0
 11
331.4268082538
 21
119.1538592315
 31
0.0
  0
LINE
  5
3C9
330
222
100
AcDbEntity
  8
7_ALL_FEATURES
  6
Continuous
 62
     7
100
AcDbLine
 10
327.6507042864
 20
144.7893068414
 30
0.0
 11
287.3509213402
 21
156.1947420126
 31
0.0
  0
LINE
  5
3CA
330
222
100
AcDbEntity
  8
7_ALL_FEATURES
  6
Continuous
 62
     7
100
AcDbLine
 10
328.1947505211
 20
144.9960846459
 30
0.0
 11
287.8949675749
 21
156.4015198171
 31
0.0
  0
LINE
  5
3CB
330
222
100
AcDbEntity
  8
0
  6
Continuous
 62
     7
100
AcDbLine
 10
328.1947505211
 20
144.9960846459
 30
0.0
 11
287.8949675749
 21
156.4015198171
 31
0.0
  0
LINE
  5
3CC
330
222
100
AcDbEntity
  8
0
  6
Continuous
 62
     7
100
AcDbLine
 10
328.7387967558
 20
145.2028624504
 30
0.0
 11
288.4390138096
 21
156.6082976216
 31
0.0
  0
LINE
  5
3CD
330
222
100
AcDbEntity
  8
7_ALL_FEATURES
  6
Continuous
 62
     7
100
AcDbLine
 10
336.0671710925
 20
127.3821961613
 30
0.0
 11
336.2384849986
 21
120.9826522456
 31
0.0
  0
LINE
  5
3CE
330
222
100
AcDbEntity
  8
7_ALL_FEATURES
  6
Continuous
 62
     7
100
AcDbLine
 10
337.8632898572
 20
132.6249878695
 30
0.0
 11
336.3339722551
 21
128.0761480128
 31
0.0
  0
LINE
  5
3CF
330
222
100
AcDbEntity
  8
7_ALL_FEATURES
  6
Continuous
 62
     7
100
AcDbLine
 10
337.3431283073
 20
131.0429321429
 30
0.0
 11
337.5986005853
 21
121.4995967569
 31
0.0
  0
LINE
  5
3D0
330
222
100
AcDbEntity
  8
7_ALL_FEATURES
  6
Continuous
 62
     7
100
AcDbLine
 10
338.5672323353
 20
131.5081822031
 30
0.0
 11
338.8227046134
 21
121.9648468171
 31
0.0
  0
LINE
  5
3D1
330
222
100
AcDbEntity
  8
7_ALL_FEATURES
  6
Continuous
 62
     7
100
AcDbLine
 10
339.9273479221
 20
132.0251267144
 30
0.0
 11
340.1828202001
 21
122.4817913284
 31
0.0
  0
LINE
  5
3D2
330
222
100
AcDbEntity
  8
02___PRT_ALL_AXES
  6
Continuous
 62
     7
100
AcDbLine
 10
339.6470174298
 20
115.1039141196
 30
0.0
 11
338.1508902844
 21
114.5352751572
 31
0.0
  0
LINE
  5
3D3
330
222
100
AcDbEntity
  8
02___PRT_ALL_AXES
  6
Continuous
 62
     7
100
AcDbLine
 10
336.7907746977
 20
114.0183306459
 30
0.0
 11
335.5666706696
 21
113.5530805857
 31
0.0
  0
LINE
  5
3D4
330
222
100
AcDbEntity
  8
02___PRT_ALL_AXES
  6
Continuous
 62
     7
100
AcDbLine
 10
334.2065550829
 20
113.0361360744
 30
0.0
 11
332.9824510549
 21
112.5708860142
 31
0.0
  0
LINE
  5
3D5
330
222
100
AcDbEntity
  8
02___PRT_ALL_AXES
  6
Continuous
 62
     7
100
AcDbLine
 10
331.6223354681
 20
112.0539415029
 30
0.0
 11
330.3982314401
 21
111.5886914427
 31
0.0
  0
LINE
  5
3D6
330
222
100
AcDbEntity
  8
7_ALL_FEATURES
  6
Continuous
 62
     7
100
AcDbLine
 10
341.1514519501
 20
132.4903767745
 30
0.0
 11
341.4069242282
 21
122.9470413885
 31
0.0
  0
LINE
  5
3D7
330
222
100
AcDbEntity
  8
7_ALL_FEATURES
  6
Continuous
 62
     7
100
AcDbLine
 10
341.536180976
 20
167.3277349819
 30
0.0
 11
341.7873839466
 21
157.9438823899
 31
0.0
  0
LINE
  5
3D8
330
222
100
AcDbEntity
  8
7_ALL_FEATURES
  6
Continuous
 62
     7
100
AcDbLine
 10
342.5115675369
 20
133.0073212858
 30
0.0
 11
342.7670398149
 21
123.4639858999
 31
0.0
  0
LINE
  5
3D9
330
222
100
AcDbEntity
  8
7_ALL_FEATURES
  6
Continuous
 62
     7
100
AcDbLine
 10
343.7356715649
 20
133.472571346
 30
0.0
 11
343.991143843
 21
123.92923596
 31
0.0
  0
LINE
  5
3DA
330
222
100
AcDbEntity
  8
7_ALL_FEATURES
  6
Continuous
 62
     7
100
AcDbLine
 10
345.0957871517
 20
133.9895158573
 30
0.0
 11
345.3512594297
 21
124.4461804713
 31
0.0
  0
LINE
  5
3DB
330
222
100
AcDbEntity
  8
7_ALL_FEATURES
  6
Continuous
 62
     7
100
AcDbLine
 10
346.5919142971
 20
134.5581548198
 30
0.0
 11
346.8473865751
 21
125.0148194338
 31
0.0
  0
LINE
  5
3DC
330
222
100
AcDbEntity
  8
02___PRT_ALL_AXES
  6
Continuous
 62
     7
100
AcDbLine
 10
343.9578310603
 20
145.4395627429
 30
0.0
 11
343.6097323492
 21
145.9095811748
 31
0.0
  0
LINE
  5
3DD
330
222
100
AcDbEntity
  8
7_ALL_FEATURES
  6
Continuous
 62
     7
100
AcDbLine
 10
329.583895034
 20
93.1036754702
 30
0.0
 11
329.0398487993
 21
92.8968976657
 31
0.0
  0
LINE
  5
3DE
330
222
100
AcDbEntity
  8
0
  6
Continuous
 62
     7
100
AcDbLine
 10
329.583895034
 20
93.1036754702
 30
0.0
 11
330.1279412687
 21
93.3104532748
 31
0.0
  0
LINE
  5
3DF
330
222
100
AcDbEntity
  8
02___PRT_ALL_AXES
  6
Continuous
 62
     9
100
AcDbLine
 10
337.1896978285
 20
167.291899751
 30
0.0
 11
336.9698808306
 21
167.3541112156
 31
0.0
  0
LINE
  5
3E0
330
222
100
AcDbEntity
  8
02___PRT_ALL_AXES
  6
Continuous
 62
     7
100
AcDbLine
 10
340.1533908239
 20
169.7143541079
 30
0.0
 11
339.9335738261
 21
169.7765655725
 31
0.0
  0
ARC
  5
3E1
330
222
100
AcDbEntity
  8
02___PRT_ALL_AXES
  6
Continuous
 62
     7
100
AcDbCircle
 10
75.4509943182
 20
99.2196022727
 30
0.0
 40
3.5
100
AcDbArc
 50
11.5683651059
 51
90.0
  0
ARC
  5
3E2
330
222
100
AcDbEntity
  8
02___PRT_ALL_AXES
  6
Continuous
 62
     7
100
AcDbCircle
 10
68.4509943182
 20
99.2196022727
 30
0.0
 40
3.5
100
AcDbArc
 50
90.0
 51
168.4316348941
  0
ARC
  5
3E3
330
222
100
AcDbEntity
  8
02___PRT_ALL_AXES
  6
Continuous
 62
     7
100
AcDbCircle
 10
90.7690909086
 20
58.2800316516
 30
0.0
 40
2.95
100
AcDbArc
 50
32.7198899268
 51
65.7439757901
  0
ARC
  5
3E4
330
222
100
AcDbEntity
  8
02___PRT_ALL_AXES
  6
Continuous
 62
     7
100
AcDbCircle
 10
90.7690909086
 20
58.1591728938
 30
0.0
 40
2.95
100
AcDbArc
 50
294.2560242099
 51
327.2801100731999
  0
ARC
  5
3E5
330
222
100
AcDbEntity
  8
02___PRT_ALL_AXES
  6
Continuous
 62
     7
100
AcDbCircle
 10
53.1328977277
 20
58.2800316516
 30
0.0
 40
2.95
100
AcDbArc
 50
114.2560242099
 51
147.2801100732
  0
ARC
  5
3E6
330
222
100
AcDbEntity
  8
02___PRT_ALL_AXES
  6
Continuous
 62
     7
100
AcDbCircle
 10
53.1328977277
 20
58.1591728938
 30
0.0
 40
2.95
100
AcDbArc
 50
212.7198899268
 51
245.7439757901
  0
ARC
  5
3E7
330
222
100
AcDbEntity
  8
0
  6
Continuous
 62
     7
100
AcDbCircle
 10
51.7509943182
 20
53.4196022727
 30
0.0
 40
0.9
100
AcDbArc
 50
270.0
 51
308.0505095721001
  0
ARC
  5
3E8
330
222
100
AcDbEntity
  8
0
  6
Continuous
 62
     7
100
AcDbCircle
 10
92.1509943182
 20
53.4196022727
 30
0.0
 40
0.9
100
AcDbArc
 50
231.9494904279
 51
270.0
  0
ARC
  5
3E9
330
222
100
AcDbEntity
  8
7_ALL_FEATURES
  6
Continuous
 62
     7
100
AcDbCircle
 10
255.1194679954
 20
253.8418919284
 30
0.0
 40
50.0
100
AcDbArc
 50
180.0
 51
194.4512358191
  0
ARC
  5
3EA
330
222
100
AcDbEntity
  8
7_ALL_FEATURES
  6
Continuous
 62
     7
100
AcDbCircle
 10
255.1194679954
 20
190.5162290766
 30
0.0
 40
50.0
100
AcDbArc
 50
150.0
 51
180.0
  0
ARC
  5
3EB
330
222
100
AcDbEntity
  8
7_ALL_FEATURES
  6
Continuous
 62
     7
100
AcDbCircle
 10
231.5421177262
 20
209.6790605025
 30
0.0
 40
20.0
100
AcDbArc
 50
90.0
 51
150.0
  0
ARC
  5
3EC
330
222
100
AcDbEntity
  8
7_ALL_FEATURES
  6
Continuous
 62
     7
100
AcDbCircle
 10
246.7791765181
 20
200.0704204879
 30
0.0
 40
20.0
100
AcDbArc
 50
133.9030972608
 51
150.0
  0
ARC
  5
3ED
330
222
100
AcDbEntity
  8
02___PRT_ALL_AXES
  6
Continuous
 62
     7
100
AcDbCircle
 10
186.2194679954
 20
213.6790605025
 30
0.0
 40
3.5
100
AcDbArc
 50
180.0
 51
270.0
  0
ARC
  5
3EE
330
222
100
AcDbEntity
  8
02___PRT_ALL_AXES
  6
Continuous
 62
     7
100
AcDbCircle
 10
186.2194679954
 20
220.6790605025
 30
0.0
 40
3.5
100
AcDbArc
 50
90.0
 51
180.0
  0
ARC
  5
3EF
330
222
100
AcDbEntity
  8
7_ALL_FEATURES
  6
Continuous
 62
     7
100
AcDbCircle
 10
186.2194679954
 20
220.6790605025
 30
0.0
 40
3.5
100
AcDbArc
 50
90.0
 51
180.0
  0
ARC
  5
3F0
330
222
100
AcDbEntity
  8
7_ALL_FEATURES
  6
Continuous
 62
     7
100
AcDbCircle
 10
186.2194679954
 20
213.6790605025
 30
0.0
 40
3.5
100
AcDbArc
 50
180.0
 51
270.0
  0
ARC
  5
3F1
330
222
100
AcDbEntity
  8
02___PRT_ALL_AXES
  6
Continuous
 62
     7
100
AcDbCircle
 10
208.5108294513
 20
263.7876990466
 30
0.0
 40
3.3913614559
100
AcDbArc
 50
30.0
 51
180.0
  0
ARC
  5
3F2
330
222
100
AcDbEntity
  8
02___PRT_ALL_AXES
  6
Continuous
 62
     7
100
AcDbCircle
 10
208.5108294513
 20
180.5704219584
 30
0.0
 40
3.3913614559
100
AcDbArc
 50
180.0
 51
330.0
  0
CIRCLE
  5
3F3
330
222
100
AcDbEntity
  8
02___PRT_ALL_AXES
  6
Continuous
 62
     7
100
AcDbCircle
 10
227.2194679954
 20
222.1790605025
 30
0.0
 40
2.75
  0
CIRCLE
  5
3F4
330
222
100
AcDbEntity
  8
02___PRT_ALL_AXES
  6
Continuous
 62
     7
100
AcDbCircle
 10
227.2194679954
 20
222.1790605025
 30
0.0
 40
1.655
  0
ARC
  5
3F5
330
222
100
AcDbEntity
  8
7_ALL_FEATURES
  6
Continuous
 62
     7
100
AcDbCircle
 10
312.8099222186
 20
126.302669951
 30
0.0
 40
29.0091368926
100
AcDbArc
 50
12.3159282298
 51
23.5316940316
  0
ARC
  5
3F6
330
222
100
AcDbEntity
  8
7_ALL_FEATURES
  6
Continuous
 62
     7
100
AcDbCircle
 10
314.2469137564
 20
126.8469238896
 30
0.0
 40
28.9282068129
100
AcDbArc
 50
12.295561233
 51
27.2706250077
  0
ARC
  5
3F7
330
222
100
AcDbEntity
  8
7_ALL_FEATURES
  6
Continuous
 62
     7
100
AcDbCircle
 10
315.5362244529
 20
127.3343870558
 30
0.0
 40
28.8597665238
100
AcDbArc
 50
12.280040984
 51
30.6150381223
  0
ARC
  5
3F8
330
222
100
AcDbEntity
  8
7_ALL_FEATURES
  6
Continuous
 62
     7
100
AcDbCircle
 10
311.8723895814
 20
125.9208285084
 30
0.0
 40
28.711376562
100
AcDbArc
 50
12.2752926233
 51
20.03779193860001
  0
ARC
  5
3F9
330
222
100
AcDbEntity
  8
7_ALL_FEATURES
  6
Continuous
 62
     7
100
AcDbCircle
 10
310.6397471368
 20
125.4328482922
 30
0.0
 40
28.5806597482
100
AcDbArc
 50
12.2728866728
 51
16.0507916595
  0
ARC
  5
3FA
330
222
100
AcDbEntity
  8
7_ALL_FEATURES
  6
Continuous
 62
     7
100
AcDbCircle
 10
312.7025066694
 20
128.0187874702
 30
0.0
 40
22.7237896093
100
AcDbArc
 50
43.9749086059
 51
44.9584052367
  0
ARC
  5
3FB
330
222
100
AcDbEntity
  8
7_ALL_FEATURES
  6
Continuous
 62
     7
100
AcDbCircle
 10
327.338544712
 20
142.9138645028
 30
0.0
 40
9.6329845321
100
AcDbArc
 50
100.4032713135
 51
101.1749011927
  0
ARC
  5
3FC
330
222
100
AcDbEntity
  8
7_ALL_FEATURES
  6
Continuous
 62
     7
100
AcDbCircle
 10
318.2124554315
 20
139.514848446
 30
0.0
 40
9.567110642
100
AcDbArc
 50
102.0430403593
 51
103.221691674
  0
ARC
  5
3FD
330
222
100
AcDbEntity
  8
7_ALL_FEATURES
  6
Continuous
 62
     7
100
AcDbCircle
 10
325.6439627832
 20
119.9765312024
 30
0.0
 40
9.5300674019
100
AcDbArc
 50
294.9477663274
 51
299.5645686839
  0
ARC
  5
3FE
330
222
100
AcDbEntity
  8
7_ALL_FEATURES
  6
Continuous
 62
     7
100
AcDbCircle
 10
327.311061125
 20
143.043561117
 30
0.0
 40
9.5004206761
100
AcDbArc
 50
101.1638846104
 51
110.787256727
  0
ARC
  5
3FF
330
222
100
AcDbEntity
  8
7_ALL_FEATURES
  6
Continuous
 62
     7
100
AcDbCircle
 10
333.4178462396
 20
122.8835091223
 30
0.0
 40
9.4851460247
100
AcDbArc
 50
290.832826901
 51
299.5710954615
  0
ARC
  5
400
330
222
100
AcDbEntity
  8
7_ALL_FEATURES
  6
Continuous
 62
     7
100
AcDbCircle
 10
328.24940701
 20
120.9191199793
 30
0.0
 40
9.4851460247
100
AcDbArc
 50
290.832826901
 51
299.5710954615
  0
ARC
  5
401
330
222
100
AcDbEntity
  8
7_ALL_FEATURES
  6
Continuous
 62
     7
100
AcDbCircle
 10
330.8336266248
 20
121.9013145508
 30
0.0
 40
9.4851460247
100
AcDbArc
 50
290.832826901
 51
299.5710954615
  0
ARC
  5
402
330
222
100
AcDbEntity
  8
7_ALL_FEATURES
  6
Continuous
 62
     7
100
AcDbCircle
 10
324.7193515998
 20
142.0857877826
 30
0.0
 40
9.4749311327
100
AcDbArc
 50
102.9076908819
 51
110.7973234516
  0
ARC
  5
403
330
222
100
AcDbEntity
  8
7_ALL_FEATURES
  6
Continuous
 62
     7
100
AcDbCircle
 10
319.5509123702
 20
140.1213986396
 30
0.0
 40
9.4749311327
100
AcDbArc
 50
102.9076908819
 51
110.7973234516
  0
ARC
  5
404
330
222
100
AcDbEntity
  8
7_ALL_FEATURES
  6
Continuous
 62
     7
100
AcDbCircle
 10
322.135131985
 20
141.1035932111
 30
0.0
 40
9.4749311327
100
AcDbArc
 50
102.9076908819
 51
110.7973234516
  0
ARC
  5
405
330
222
100
AcDbEntity
  8
7_ALL_FEATURES
  6
Continuous
 62
     7
100
AcDbCircle
 10
334.7889846262
 20
123.3780171325
 30
0.0
 40
9.4602564847
100
AcDbArc
 50
290.8187590571
 51
300.460590983
  0
ARC
  5
406
330
222
100
AcDbEntity
  8
7_ALL_FEATURES
  6
Continuous
 62
     7
100
AcDbCircle
 10
325.9386339212
 20
142.5680373199
 30
0.0
 40
9.4573274154
100
AcDbArc
 50
102.0208985015
 51
110.8065827588
  0
ARC
  5
407
330
222
100
AcDbEntity
  8
7_ALL_FEATURES
  6
Continuous
 62
     7
100
AcDbCircle
 10
323.3544143064
 20
141.5858427485
 30
0.0
 40
9.4573274154
100
AcDbArc
 50
102.0208985015
 51
110.8065827588
  0
ARC
  5
408
330
222
100
AcDbEntity
  8
7_ALL_FEATURES
  6
Continuous
 62
     7
100
AcDbCircle
 10
320.7701946916
 20
140.603648177
 30
0.0
 40
9.4573274154
100
AcDbArc
 50
102.0208985015
 51
110.8065827588
  0
ARC
  5
409
330
222
100
AcDbEntity
  8
7_ALL_FEATURES
  6
Continuous
 62
     7
100
AcDbCircle
 10
327.0429897897
 20
120.4153051531
 30
0.0
 40
9.4428127824
100
AcDbArc
 50
290.8157451567001
 51
298.7116460033
  0
ARC
  5
40A
330
222
100
AcDbEntity
  8
7_ALL_FEATURES
  6
Continuous
 62
     7
100
AcDbCircle
 10
329.6272094045
 20
121.3974997246
 30
0.0
 40
9.4428127824
100
AcDbArc
 50
290.8157451567001
 51
298.7116460033
  0
ARC
  5
40B
330
222
100
AcDbEntity
  8
7_ALL_FEATURES
  6
Continuous
 62
     7
100
AcDbCircle
 10
332.2114290193
 20
122.3796942961
 30
0.0
 40
9.4428127824
100
AcDbArc
 50
290.8157451567001
 51
298.7116460033
  0
ARC
  5
40C
330
222
100
AcDbEntity
  8
7_ALL_FEATURES
  6
Continuous
 62
     7
100
AcDbCircle
 10
334.7981764069
 20
123.3589573252
 30
0.0
 40
9.4391744009
100
AcDbArc
 50
285.9564902381
 51
290.8077265908
  0
ARC
  5
40D
330
222
100
AcDbEntity
  8
7_ALL_FEATURES
  6
Continuous
 62
     7
100
AcDbCircle
 10
332.2139567921
 20
122.3767627537
 30
0.0
 40
9.4391744009
100
AcDbArc
 50
285.9564902381
 51
290.8077265908
  0
ARC
  5
40E
330
222
100
AcDbEntity
  8
7_ALL_FEATURES
  6
Continuous
 62
     7
100
AcDbCircle
 10
329.6297371774
 20
121.3945681822
 30
0.0
 40
9.4391744009
100
AcDbArc
 50
285.9564902381
 51
290.8077265908
  0
ARC
  5
40F
330
222
100
AcDbEntity
  8
7_ALL_FEATURES
  6
Continuous
 62
     7
100
AcDbCircle
 10
327.0458480864
 20
120.41140066
 30
0.0
 40
9.4381474952
100
AcDbArc
 50
286.058785827
 51
290.8079491288
  0
ARC
  5
410
330
222
100
AcDbEntity
  8
7_ALL_FEATURES
  6
Continuous
 62
     7
100
AcDbCircle
 10
327.2875124493
 20
143.1180871275
 30
0.0
 40
9.4223896043
100
AcDbArc
 50
110.8142156637
 51
114.8307540496
  0
ARC
  5
411
330
222
100
AcDbEntity
  8
7_ALL_FEATURES
  6
Continuous
 62
     7
100
AcDbCircle
 10
324.7032928345
 20
142.135892556
 30
0.0
 40
9.4223896043
100
AcDbArc
 50
110.8142156638
 51
114.8307540496
  0
ARC
  5
412
330
222
100
AcDbEntity
  8
7_ALL_FEATURES
  6
Continuous
 62
     7
100
AcDbCircle
 10
322.1190732198
 20
141.1536979846
 30
0.0
 40
9.4223896043
100
AcDbArc
 50
110.8142156638
 51
114.8307540496
  0
ARC
  5
413
330
222
100
AcDbEntity
  8
7_ALL_FEATURES
  6
Continuous
 62
     7
100
AcDbCircle
 10
319.5287775829
 20
140.1864257904
 30
0.0
 40
9.4062820586
100
AcDbArc
 50
110.8119193642
 51
112.7281910034
  0
ARC
  5
414
330
222
100
AcDbEntity
  8
02___PRT_ALL_AXES
  6
Continuous
 62
     7
100
AcDbCircle
 10
340.2331905581
 20
142.9528412382
 30
0.0
 40
5.6795147288
100
AcDbArc
 50
74.1895548175
 51
78.5465075115
  0
ARC
  5
415
330
222
100
AcDbEntity
  8
02___PRT_ALL_AXES
  6
Continuous
 62
     7
100
AcDbCircle
 10
312.6624619135
 20
94.8208087057
 30
0.0
 40
2.3514548726
100
AcDbArc
 50
207.7346655956
 51
212.2391702888
  0
ARC
  5
416
330
222
100
AcDbEntity
  8
02___PRT_ALL_AXES
  6
Continuous
 62
     7
100
AcDbCircle
 10
312.2322607874
 20
94.1621369117
 30
0.0
 40
1.4582388655
100
AcDbArc
 50
243.4583590701
 51
245.1213789366
  0
ARC
  5
417
330
222
100
AcDbEntity
  8
02___PRT_ALL_AXES
  6
Continuous
 62
     7
100
AcDbCircle
 10
312.2245093158
 20
94.1451324789
 30
0.0
 40
1.4395514078
100
AcDbArc
 50
245.1165400593
 51
254.1771702256
  0
ARC
  5
418
330
222
100
AcDbEntity
  8
02___PRT_ALL_AXES
  6
Continuous
 62
     7
100
AcDbCircle
 10
339.7631024904
 20
168.3344106554
 30
0.0
 40
1.4340542727
100
AcDbArc
 50
74.224873833
 51
83.08589973069999
  0
SPLINE
  5
419
330
222
100
AcDbEntity
  8
02___PRT_ALL_AXES
  6
Continuous
 62
     7
100
AcDbSpline
 70
     0
 71
     3
 72
    11
 73
     7
 74
     0
 42
0.000000001
 43
0.0000001
 40
0.0
 40
0.0
 40
0.0
 40
0.0
 40
0.2471884812
 40
0.4961682871
 40
0.7471358372
 40
1.0
 40
1.0
 40
1.0
 40
1.0
 10
74.5490705295
 20
98.7196022727
 30
0.0
 10
74.321595
 20
98.6820785418
 30
0.0
 10
73.8693382987
 20
98.5782131914
 30
0.0
 10
73.2099793616
 20
98.3495237881
 30
0.0
 10
72.5690678551
 20
98.0609347894
 30
0.0
 10
72.1552406083
 20
97.8375239233
 30
0.0
 10
71.9509943182
 20
97.7196022727
 30
0.0
  0
SPLINE
  5
41A
330
222
100
AcDbEntity
  8
02___PRT_ALL_AXES
  6
Continuous
 62
     7
100
AcDbSpline
 70
     0
 71
     3
 72
    19
 73
    15
 74
     0
 42
0.000000001
 43
0.0000001
 40
0.0
 40
0.0
 40
0.0
 40
0.0
 40
0.067939647
 40
0.1343369129
 40
0.1986396402
 40
0.2610648807
 40
0.3817414899
 40
0.5000607139
 40
0.6183763092
 40
0.739024176
 40
0.8014382043
 40
0.865725454
 40
0.9320917545
 40
1.0
 40
1.0
 40
1.0
 40
1.0
 10
76.2811213371
 20
99.2196022727
 30
0.0
 10
76.2811213371
 20
99.2754879232
 30
0.0
 10
76.2647345003
 20
99.3866328881
 30
0.0
 10
76.19655972
 20
99.5370927753
 30
0.0
 10
76.0971466852
 20
99.662779539
 30
0.0
 10
75.9397028036
 20
99.7935213725
 30
0.0
 10
75.7097115889
 20
99.8981616775
 30
0.0
 10
75.414946368
 20
99.9381401618
 30
0.0
 10
75.1202176443
 20
99.8980757371
 30
0.0
 10
74.8902868314
 20
99.793396334
 30
0.0
 10
74.7329077422
 20
99.6626464459
 30
0.0
 10
74.6335648163
 20
99.5369654552
 30
0.0
 10
74.5654438081
 20
99.3865550639
 30
0.0
 10
74.5490705295
 20
99.2754620931
 30
0.0
 10
74.5490705295
 20
99.2196022727
 30
0.0
  0
SPLINE
  5
41B
330
222
100
AcDbEntity
  8
02___PRT_ALL_AXES
  6
Continuous
 62
     7
100
AcDbSpline
 70
     0
 71
     3
 72
    11
 73
     7
 74
     0
 42
0.000000001
 43
0.0000001
 40
0.0
 40
0.0
 40
0.0
 40
0.0
 40
0.2528641712
 40
0.5038317346
 40
0.7528115376
 40
1.0
 40
1.0
 40
1.0
 40
1.0
 10
78.8791975485
 20
97.7196022727
 30
0.0
 10
78.6749512515
 20
97.8375239272
 30
0.0
 10
78.261123988
 20
98.060934805
 30
0.0
 10
77.6202124635
 20
98.3495238072
 30
0.0
 10
76.9608535312
 20
98.5782132006
 30
0.0
 10
76.5085968494
 20
98.6820785446
 30
0.0
 10
76.2811213371
 20
98.7196022727
 30
0.0
  0
SPLINE
  5
41C
330
222
100
AcDbEntity
  8
02___PRT_ALL_AXES
  6
Continuous
 62
     7
100
AcDbSpline
 70
     0
 71
     3
 72
    19
 73
    15
 74
     0
 42
0.000000001
 43
0.0000001
 40
0.0
 40
0.0
 40
0.0
 40
0.0
 40
0.0679313718
 40
0.134330414
 40
0.1986328954
 40
0.2610542132
 40
0.3817238737
 40
0.5000536105
 40
0.6183773004
 40
0.7390372629
 40
0.8014553941
 40
0.8657396837
 40
0.9320963707
 40
1.0
 40
1.0
 40
1.0
 40
1.0
 10
69.3529181068
 20
99.2196022727
 30
0.0
 10
69.3529181068
 20
99.2754811242
 30
0.0
 10
69.3365323661
 20
99.3866201362
 30
0.0
 10
69.2683670645
 20
99.5370782124
 30
0.0
 10
69.1689575019
 20
99.662765699
 30
0.0
 10
69.0115231743
 20
99.7935040491
 30
0.0
 10
68.7815385082
 20
99.8981571947
 30
0.0
 10
68.4867628381
 20
99.9381409017
 30
0.0
 10
68.1920084912
 20
99.898077087
 30
0.0
 10
67.962058899
 20
99.7933863045
 30
0.0
 10
67.8046778944
 20
99.6626206941
 30
0.0
 10
67.7053491615
 20
99.5369378037
 30
0.0
 10
67.6372369727
 20
99.3865398166
 30
0.0
 10
67.6208672993
 20
99.2754583039
 30
0.0
 10
67.6208672993
 20
99.2196022727
 30
0.0
  0
SPLINE
  5
41D
330
222
100
AcDbEntity
  8
02___PRT_ALL_AXES
  6
Continuous
 62
     7
100
AcDbSpline
 70
     0
 71
     3
 72
    11
 73
     7
 74
     0
 42
0.000000001
 43
0.0000001
 40
0.0
 40
0.0
 40
0.0
 40
0.0
 40
0.2528641712
 40
0.5038317346
 40
0.7528115376
 40
1.0
 40
1.0
 40
1.0
 40
1.0
 10
71.9509943182
 20
97.7196022727
 30
0.0
 10
71.7467480212
 20
97.8375239272
 30
0.0
 10
71.3329207577
 20
98.060934805
 30
0.0
 10
70.6920092332
 20
98.3495238072
 30
0.0
 10
70.032650301
 20
98.5782132006
 30
0.0
 10
69.5803936192
 20
98.6820785446
 30
0.0
 10
69.3529181068
 20
98.7196022727
 30
0.0
  0
SPLINE
  5
41E
330
222
100
AcDbEntity
  8
02___PRT_ALL_AXES
  6
Continuous
 62
     7
100
AcDbSpline
 70
     0
 71
     3
 72
    11
 73
     7
 74
     0
 42
0.000000001
 43
0.0000001
 40
0.0
 40
0.0
 40
0.0
 40
0.0
 40
0.2471884812
 40
0.4961682871
 40
0.7471358372
 40
1.0
 40
1.0
 40
1.0
 40
1.0
 10
67.6208672993
 20
98.7196022727
 30
0.0
 10
67.3933917697
 20
98.6820785418
 30
0.0
 10
66.9411350684
 20
98.5782131914
 30
0.0
 10
66.2817761313
 20
98.3495237881
 30
0.0
 10
65.6408646249
 20
98.0609347894
 30
0.0
 10
65.227037378
 20
97.8375239233
 30
0.0
 10
65.0227910879
 20
97.7196022727
 30
0.0
  0
SPLINE
  5
41F
330
222
100
AcDbEntity
  8
02___PRT_ALL_AXES
  6
Continuous
 62
     7
100
AcDbSpline
 70
     0
 71
     3
 72
    19
 73
    15
 74
     0
 42
0.000000001
 43
0.0000001
 40
0.0
 40
0.0
 40
0.0
 40
0.0
 40
0.1683075029
 40
0.2404576968
 40
0.3036660769
 40
0.4090527407
 40
0.4554823394
 40
0.5000445236
 40
0.5446094138
 40
0.5910415449
 40
0.6964181475
 40
0.7596236278
 40
0.8317654351
 40
1.0
 40
1.0
 40
1.0
 40
1.0
 10
186.2194679954
 20
211.6790605025
 30
0.0
 10
186.1128576631
 20
211.6790605025
 30
0.0
 10
185.9585264657
 20
211.6548855755
 30
0.0
 10
185.7821285442
 20
211.5760624732
 30
0.0
 10
185.6555932234
 20
211.4901108658
 30
0.0
 10
185.5646118255
 20
211.3826664792
 30
0.0
 10
185.5211415454
 20
211.2650324613
 30
0.0
 10
185.5107673668
 20
211.1789716534
 30
0.0
 10
185.5211734974
 20
211.092910902
 30
0.0
 10
185.5647221528
 20
210.9753095727
 30
0.0
 10
185.6557163043
 20
210.8678964871
 30
0.0
 10
185.7822624009
 20
210.7819812099
 30
0.0
 10
185.9586289379
 20
210.7032223652
 30
0.0
 10
186.1129038639
 20
210.6790605025
 30
0.0
 10
186.2194679954
 20
210.6790605025
 30
0.0
  0
SPLINE
  5
420
330
222
100
AcDbEntity
  8
02___PRT_ALL_AXES
  6
Continuous
 62
     7
100
AcDbSpline
 70
     0
 71
     3
 72
    11
 73
     7
 74
     0
 42
0.000000001
 43
0.0000001
 40
0.0
 40
0.0
 40
0.0
 40
0.0
 40
0.2699449571
 40
0.5270499909
 40
0.7701654741
 40
1.0
 40
1.0
 40
1.0
 40
1.0
 10
187.7194679954
 20
225.1790605025
 30
0.0
 10
187.6036420305
 20
225.0632345376
 30
0.0
 10
187.3846417191
 20
224.8296999229
 30
0.0
 10
187.0958830734
 20
224.4611893216
 30
0.0
 10
186.8656960733
 20
224.081188551
 30
0.0
 10
186.757781602
 20
223.8131581258
 30
0.0
 10
186.7194679954
 20
223.6790605025
 30
0.0
  0
SPLINE
  5
421
330
222
100
AcDbEntity
  8
02___PRT_ALL_AXES
  6
Continuous
 62
     7
100
AcDbSpline
 70
     0
 71
     3
 72
    11
 73
     7
 74
     0
 42
0.000000001
 43
0.0000001
 40
0.0
 40
0.0
 40
0.0
 40
0.0
 40
0.2500103617
 40
0.5000189242
 40
0.7500124732
 40
1.0
 40
1.0
 40
1.0
 40
1.0
 10
187.7194679954
 20
221.1790605025
 30
0.0
 10
187.6011316565
 20
220.9423878248
 30
0.0
 10
187.376946921
 20
220.4626203124
 30
0.0
 10
187.0885099231
 20
219.7223295953
 30
0.0
 10
186.86015952
 20
218.9611123256
 30
0.0
 10
186.7568858135
 20
218.4409852296
 30
0.0
 10
186.7194679954
 20
218.1790605025
 30
0.0
  0
SPLINE
  5
422
330
222
100
AcDbEntity
  8
02___PRT_ALL_AXES
  6
Continuous
 62
     7
100
AcDbSpline
 70
     0
 71
     3
 72
    11
 73
     7
 74
     0
 42
0.000000001
 43
0.0000001
 40
0.0
 40
0.0
 40
0.0
 40
0.0
 40
0.2499875457
 40
0.4999810974
 40
0.7499896465
 40
1.0
 40
1.0
 40
1.0
 40
1.0
 10
186.7194679954
 20
216.1790605025
 30
0.0
 10
186.7568858164
 20
215.9171357555
 30
0.0
 10
186.860159529
 20
215.3970086373
 30
0.0
 10
187.0885099422
 20
214.6357913616
 30
0.0
 10
187.3769469368
 20
213.895500665
 30
0.0
 10
187.6011316604
 20
213.4157331724
 30
0.0
 10
187.7194679954
 20
213.1790605025
 30
0.0
  0
SPLINE
  5
423
330
222
100
AcDbEntity
  8
02___PRT_ALL_AXES
  6
Continuous
 62
     7
100
AcDbSpline
 70
     0
 71
     3
 72
    19
 73
    15
 74
     0
 42
0.000000001
 43
0.0000001
 40
0.0
 40
0.0
 40
0.0
 40
0.0
 40
0.062499569
 40
0.1250450196
 40
0.1876243679
 40
0.2502137548
 40
0.3750836247
 40
0.5000591496
 40
0.6250261711
 40
0.7498800617
 40
0.8124624827
 40
0.8750225901
 40
0.9375286272
 40
1.0
 40
1.0
 40
1.0
 40
1.0
 10
186.2194679954
 20
218.1790605025
 30
0.0
 10
186.1633943837
 20
218.1790605025
 30
0.0
 10
186.0504052897
 20
218.1595513875
 30
0.0
 10
185.8996829065
 20
218.0797674173
 30
0.0
 10
185.7746331976
 20
217.9647079628
 30
0.0
 10
185.6434673316
 20
217.7812642632
 30
0.0
 10
185.5403365803
 20
217.5158643258
 30
0.0
 10
185.5010801578
 20
217.1789066147
 30
0.0
 10
185.5404178699
 20
216.8419747816
 30
0.0
 10
185.6435861876
 20
216.5766205948
 30
0.0
 10
185.7747773439
 20
216.3932389676
 30
0.0
 10
185.8998273731
 20
216.2782681976
 30
0.0
 10
186.0504914765
 20
216.1985504219
 30
0.0
 10
186.1634196808
 20
216.1790605025
 30
0.0
 10
186.2194679954
 20
216.1790605025
 30
0.0
  0
SPLINE
  5
424
330
222
100
AcDbEntity
  8
02___PRT_ALL_AXES
  6
Continuous
 62
     7
100
AcDbSpline
 70
     0
 71
     3
 72
    11
 73
     7
 74
     0
 42
0.000000001
 43
0.0000001
 40
0.0
 40
0.0
 40
0.0
 40
0.0
 40
0.2699449571
 40
0.5270499909
 40
0.7701654741
 40
1.0
 40
1.0
 40
1.0
 40
1.0
 10
187.7194679954
 20
213.1790605025
 30
0.0
 10
187.6036420305
 20
213.0632345376
 30
0.0
 10
187.3846417191
 20
212.8296999229
 30
0.0
 10
187.0958830734
 20
212.4611893216
 30
0.0
 10
186.8656960733
 20
212.081188551
 30
0.0
 10
186.757781602
 20
211.8131581258
 30
0.0
 10
186.7194679954
 20
211.6790605025
 30
0.0
  0
SPLINE
  5
425
330
222
100
AcDbEntity
  8
02___PRT_ALL_AXES
  6
Continuous
 62
     7
100
AcDbSpline
 70
     0
 71
     3
 72
    11
 73
     7
 74
     0
 42
0.000000001
 43
0.0000001
 40
0.0
 40
0.0
 40
0.0
 40
0.0
 40
0.2298345438
 40
0.4729500311
 40
0.7300550521
 40
1.0
 40
1.0
 40
1.0
 40
1.0
 10
186.7194679954
 20
222.6790605025
 30
0.0
 10
186.757781605
 20
222.5449628688
 30
0.0
 10
186.8656960832
 20
222.2769324317
 30
0.0
 10
187.0958830923
 20
221.8969316601
 30
0.0
 10
187.3846417336
 20
221.5284210696
 30
0.0
 10
187.6036420344
 20
221.2948864634
 30
0.0
 10
187.7194679954
 20
221.1790605025
 30
0.0
  0
SPLINE
  5
426
330
222
100
AcDbEntity
  8
02___PRT_ALL_AXES
  6
Continuous
 62
     7
100
AcDbSpline
 70
     0
 71
     3
 72
    19
 73
    15
 74
     0
 42
0.000000001
 43
0.0000001
 40
0.0
 40
0.0
 40
0.0
 40
0.0
 40
0.1683000113
 40
0.2404505744
 40
0.3036556532
 40
0.4090388234
 40
0.4554737865
 40
0.5000393211
 40
0.5446067335
 40
0.591042408
 40
0.696430429
 40
0.7596418824
 40
0.8317824151
 40
1.0
 40
1.0
 40
1.0
 40
1.0
 10
186.2194679954
 20
223.6790605025
 30
0.0
 10
186.1128623201
 20
223.6790605025
 30
0.0
 10
185.9585358936
 20
223.6548876377
 30
0.0
 10
185.7821421706
 20
223.5760705613
 30
0.0
 10
185.6556093068
 20
223.490122808
 30
0.0
 10
185.5646216503
 20
223.3826859373
 30
0.0
 10
185.5211439489
 20
223.2650503761
 30
0.0
 10
185.5107678697
 20
223.178982566
 30
0.0
 10
185.5211709574
 20
223.0929152804
 30
0.0
 10
185.5647239673
 20
222.9753032373
 30
0.0
 10
185.6557291028
 20
222.8678804485
 30
0.0
 10
185.7822887223
 20
222.7819662236
 30
0.0
 10
185.9586522396
 20
222.7032200994
 30
0.0
 10
186.1129145312
 20
222.6790605025
 30
0.0
 10
186.2194679954
 20
222.6790605025
 30
0.0
  0
SPLINE
  5
427
330
222
100
AcDbEntity
  8
02___PRT_ALL_AXES
  6
Continuous
 62
     7
100
AcDbSpline
 70
     0
 71
     3
 72
    11
 73
     7
 74
     0
 42
0.000000001
 43
0.0000001
 40
0.0
 40
0.0
 40
0.0
 40
0.0
 40
0.2298345438
 40
0.4729500311
 40
0.7300550521
 40
1.0
 40
1.0
 40
1.0
 40
1.0
 10
186.7194679954
 20
210.6790605025
 30
0.0
 10
186.757781605
 20
210.5449628688
 30
0.0
 10
186.8656960832
 20
210.2769324317
 30
0.0
 10
187.0958830923
 20
209.8969316601
 30
0.0
 10
187.3846417336
 20
209.5284210696
 30
0.0
 10
187.6036420344
 20
209.2948864634
 30
0.0
 10
187.7194679954
 20
209.1790605025
 30
0.0
  0
SPLINE
  5
428
330
222
100
AcDbEntity
  8
02___PRT_ALL_AXES
  6
Continuous
 62
     7
100
AcDbSpline
 70
     0
 71
     3
 72
    15
 73
    11
 74
     0
 42
0.000000001
 43
0.0000001
 40
0.0
 40
0.0
 40
0.0
 40
0.0
 40
0.1250132813
 40
0.2500216868
 40
0.3750232333
 40
0.5000210771
 40
0.6250147164
 40
0.7500062465
 40
0.8749967139
 40
1.0
 40
1.0
 40
1.0
 40
1.0
 10
329.395944743
 20
120.809635758
 30
0.0
 10
329.4872833927
 20
120.9410158168
 30
0.0
 10
329.6493661169
 20
121.2187868512
 30
0.0
 10
329.8236032459
 20
121.6681015558
 30
0.0
 10
329.9251002936
 20
122.1393076339
 30
0.0
 10
329.9511487239
 20
122.6205802686
 30
0.0
 10
329.9008492519
 20
123.0999299058
 30
0.0
 10
329.7751002999
 20
123.5652575236
 30
0.0
 10
329.5768811566
 20
124.0045315965
 30
0.0
 10
329.3993908843
 20
124.2727323758
 30
0.0
 10
329.3006657139
 20
124.398639943
 30
0.0
  0
SPLINE
  5
429
330
222
100
AcDbEntity
  8
02___PRT_ALL_AXES
  6
Continuous
 62
     7
100
AcDbSpline
 70
     0
 71
     3
 72
    18
 73
    14
 74
     0
 42
0.000000001
 43
0.0000001
 40
0.0
 40
0.0
 40
0.0
 40
0.0
 40
0.046873443
 40
0.0954697738
 40
0.1465084637
 40
0.2004659749
 40
0.3176188545
 40
0.3808521974
 40
0.4467185762
 40
0.5842806661
 40
0.725820621
 40
0.866082167
 40
1.0
 40
1.0
 40
1.0
 40
1.0
 10
329.3197252102
 20
123.5703278602
 30
0.0
 10
329.3618935625
 20
123.5509067396
 30
0.0
 10
329.4440565923
 20
123.5027463014
 30
0.0
 10
329.5541512777
 20
123.4071240364
 30
0.0
 10
329.6510531342
 20
123.2889826895
 30
0.0
 10
329.7636694945
 20
123.0991777112
 30
0.0
 10
329.8396311245
 20
122.8769512982
 30
0.0
 10
329.8813187387
 20
122.6364225546
 30
0.0
 10
329.9003970995
 20
122.3725766585
 30
0.0
 10
329.8772275768
 20
122.0297892943
 30
0.0
 10
329.7805929489
 20
121.6239549594
 30
0.0
 10
329.6208007224
 20
121.2425496398
 30
0.0
 10
329.4734449382
 20
121.0122489421
 30
0.0
 10
329.3909853766
 20
120.90835736
 30
0.0
  0
SPLINE
  5
42A
330
222
100
AcDbEntity
  8
02___PRT_ALL_AXES
  6
Continuous
 62
     7
100
AcDbSpline
 70
     0
 71
     3
 72
    19
 73
    15
 74
     0
 42
0.000000001
 43
0.0000001
 40
0.0
 40
0.0
 40
0.0
 40
0.0
 40
0.0609330688
 40
0.1221312894
 40
0.1837492108
 40
0.2459080088
 40
0.3718683537
 40
0.4996802592
 40
0.6275924384
 40
0.7537831092
 40
0.8160605226
 40
0.8777690891
 40
0.9390318035
 40
1.0
 40
1.0
 40
1.0
 40
1.0
 10
345.8977131265
 20
137.1921710759
 30
0.0
 10
346.0542432006
 20
137.4216277998
 30
0.0
 10
346.3346014435
 20
137.9052306804
 30
0.0
 10
346.6511366101
 20
138.6833084435
 30
0.0
 10
346.8649228717
 20
139.5014029477
 30
0.0
 10
347.0158245251
 20
140.6321553402
 30
0.0
 10
346.9556008269
 20
142.0839389959
 30
0.0
 10
346.5191724101
 20
143.7804116617
 30
0.0
 10
345.7509561321
 20
145.3557752845
 30
0.0
 10
344.8560062605
 20
146.5027909347
 30
0.0
 10
344.0091473963
 20
147.2700210113
 30
0.0
 10
343.3174217487
 20
147.7584032017
 30
0.0
 10
342.5738235864
 20
148.1508585303
 30
0.0
 10
342.0480256766
 20
148.3418069053
 30
0.0
 10
341.7806064782
 20
148.4174904973
 30
0.0
  0
SPLINE
  5
42B
330
222
100
AcDbEntity
  8
02___PRT_ALL_AXES
  6
Continuous
 62
     7
100
AcDbSpline
 70
     0
 71
     3
 72
     9
 73
     5
 74
     0
 42
0.000000001
 43
0.0000001
 40
0.0
 40
0.0
 40
0.0
 40
0.0
 40
0.2470200769
 40
1.0
 40
1.0
 40
1.0
 40
1.0
 10
342.3153611472
 20
147.2122575816
 30
0.0
 10
342.2346805408
 20
147.2788554808
 30
0.0
 10
341.9040360512
 20
147.5435720938
 30
0.0
 10
341.5587058577
 20
147.7897018592
 30
0.0
 10
341.2930763247
 20
147.9661584581
 30
0.0
  0
SPLINE
  5
42C
330
222
100
AcDbEntity
  8
02___PRT_ALL_AXES
  6
Continuous
 62
     7
100
AcDbSpline
 70
     0
 71
     3
 72
     9
 73
     5
 74
     0
 42
0.000000001
 43
0.0000001
 40
0.0
 40
0.0
 40
0.0
 40
0.0
 40
0.2517067478
 40
1.0
 40
1.0
 40
1.0
 40
1.0
 10
345.5413728876
 20
138.1316622627
 30
0.0
 10
345.5569989495
 20
138.2238981384
 30
0.0
 10
345.6152601516
 20
138.5909655735
 30
0.0
 10
345.6572357286
 20
138.9607064482
 30
0.0
 10
345.677575017
 20
139.2380748213
 30
0.0
  0
SPLINE
  5
42D
330
222
100
AcDbEntity
  8
02___PRT_ALL_AXES
  6
Continuous
 62
     7
100
AcDbSpline
 70
     0
 71
     3
 72
    21
 73
    17
 74
     0
 42
0.000000001
 43
0.0000001
 40
0.0
 40
0.0
 40
0.0
 40
0.0
 40
0.0496938794
 40
0.0726600671
 40
0.095370167
 40
0.1423344812
 40
0.1936127609
 40
0.2495487407
 40
0.3096954097
 40
0.4401425101
 40
0.5810547415
 40
0.7282765001
 40
0.8022767332
 40
0.8742747605
 40
0.9413105664
 40
1.0
 40
1.0
 40
1.0
 40
1.0
 10
343.9497612459
 20
146.0388173026
 30
0.0
 10
343.9848862609
 20
146.0521674061
 30
0.0
 10
344.0339285913
 20
146.0820832902
 30
0.0
 10
344.0773948644
 20
146.1404149468
 30
0.0
 10
344.1052953832
 20
146.2053217026
 30
0.0
 10
344.1132921443
 20
146.2986127406
 30
0.0
 10
344.0897229634
 20
146.4137113793
 30
0.0
 10
344.0410097469
 20
146.5311377878
 30
0.0
 10
343.9456673398
 20
146.6918382669
 30
0.0
 10
343.7823754921
 20
146.8843151431
 30
0.0
 10
343.5399294973
 20
147.0894766779
 30
0.0
 10
343.3038394367
 20
147.2314717265
 30
0.0
 10
343.0984933741
 20
147.3161529257
 30
0.0
 10
342.9423685625
 20
147.3582845423
 30
0.0
 10
342.7927351112
 20
147.3724836168
 30
0.0
 10
342.6968733667
 20
147.3572604401
 30
0.0
 10
342.6553900439
 20
147.3414937094
 30
0.0
  0
SPLINE
  5
42E
330
222
100
AcDbEntity
  8
02___PRT_ALL_AXES
  6
Continuous
 62
     7
100
AcDbSpline
 70
     0
 71
     3
 72
    10
 73
     6
 74
     0
 42
0.000000001
 43
0.0000001
 40
0.0
 40
0.0
 40
0.0
 40
0.0
 40
0.2626494566
 40
0.516188114
 40
1.0
 40
1.0
 40
1.0
 40
1.0
 10
345.6270606711
 20
141.1250715186
 30
0.0
 10
345.5955595523
 20
141.358373429
 30
0.0
 10
345.5143009402
 20
141.8145355891
 30
0.0
 10
345.2859527438
 20
142.6820042745
 30
0.0
 10
345.0487293737
 20
143.3014320053
 30
0.0
 10
344.8712313588
 20
143.6970943089
 30
0.0
  0
SPLINE
  5
42F
330
222
100
AcDbEntity
  8
02___PRT_ALL_AXES
  6
Continuous
 62
     7
100
AcDbSpline
 70
     0
 71
     3
 72
    20
 73
    16
 74
     0
 42
0.000000001
 43
0.0000001
 40
0.0
 40
0.0
 40
0.0
 40
0.0
 40
0.0567847095
 40
0.1212821077
 40
0.1908173957
 40
0.2627578957
 40
0.4074334538
 40
0.547957442
 40
0.6801607315
 40
0.741983638
 40
0.8001235127
 40
0.8539997792
 40
0.9035556826
 40
0.9505784112
 40
1.0
 40
1.0
 40
1.0
 40
1.0
 10
346.0176039137
 20
139.3673109492
 30
0.0
 10
346.0586563942
 20
139.3829139278
 30
0.0
 10
346.1389315367
 20
139.4357604543
 30
0.0
 10
346.2357079439
 20
139.5485015939
 30
0.0
 10
346.3158357692
 20
139.6870052132
 30
0.0
 10
346.3994482135
 20
139.8924228691
 30
0.0
 10
346.4617354087
 20
140.1634362687
 30
0.0
 10
346.4809508009
 20
140.486856858
 30
0.0
 10
346.4531199236
 20
140.745860035
 30
0.0
 10
346.4009339974
 20
140.9342137141
 30
0.0
 10
346.3477292126
 20
141.0582720583
 30
0.0
 10
346.2782507083
 20
141.1631963818
 30
0.0
 10
346.1899323504
 20
141.2419606247
 30
0.0
 10
346.0797227304
 20
141.2805627799
 30
0.0
 10
346.0028188834
 20
141.2678874288
 30
0.0
 10
345.9670895677
 20
141.2543076465
 30
0.0
  0
SPLINE
  5
430
330
222
100
AcDbEntity
  8
02___PRT_ALL_AXES
  6
Continuous
 62
     7
100
AcDbSpline
 70
     0
 71
     3
 72
    11
 73
     7
 74
     0
 42
0.000000001
 43
0.0000001
 40
0.0
 40
0.0
 40
0.0
 40
0.0
 40
0.2483458605
 40
0.5002261175
 40
0.7519857684
 40
1.0
 40
1.0
 40
1.0
 40
1.0
 10
345.6270606711
 20
141.1250715186
 30
0.0
 10
345.5760168506
 20
141.5043177366
 30
0.0
 10
345.4264283989
 20
142.2625985045
 30
0.0
 10
345.0720440629
 20
143.368315631
 30
0.0
 10
344.5947739764
 20
144.4262531767
 30
0.0
 10
344.1981323703
 20
145.0888116897
 30
0.0
 10
343.9821366038
 20
145.404070593
 30
0.0
  0
SPLINE
  5
431
330
222
100
AcDbEntity
  8
02___PRT_ALL_AXES
  6
Continuous
 62
     7
100
AcDbSpline
 70
     0
 71
     3
 72
     9
 73
     5
 74
     0
 42
0.000000001
 43
0.0000001
 40
0.0
 40
0.0
 40
0.0
 40
0.0
 40
0.4857941894
 40
1.0
 40
1.0
 40
1.0
 40
1.0
 10
344.8712313588
 20
143.6970943089
 30
0.0
 10
344.7543898513
 20
143.9940224903
 30
0.0
 10
344.4852609981
 20
144.5945248739
 30
0.0
 10
344.1487280829
 20
145.1609296749
 30
0.0
 10
343.9578369994
 20
145.439563498
 30
0.0
  0
SPLINE
  5
432
330
222
100
AcDbEntity
  8
02___PRT_ALL_AXES
  6
Continuous
 62
     9
100
AcDbSpline
 70
     0
 71
     3
 72
     9
 73
     5
 74
     0
 42
0.000000001
 43
0.0000001
 40
0.0
 40
0.0
 40
0.0
 40
0.0
 40
0.2412559524
 40
1.0
 40
1.0
 40
1.0
 40
1.0
 10
345.6818180951
 20
137.7590031474
 30
0.0
 10
345.7253790517
 20
137.8839477114
 30
0.0
 10
345.8880680191
 20
138.4080111794
 30
0.0
 10
345.981075339
 20
138.952772701
 30
0.0
 10
346.0176039137
 20
139.3673109492
 30
0.0
  0
SPLINE
  5
433
330
222
100
AcDbEntity
  8
02___PRT_ALL_AXES
  6
Continuous
 62
     9
100
AcDbSpline
 70
     0
 71
     3
 72
    11
 73
     7
 74
     0
 42
0.000000001
 43
0.0000001
 40
0.0
 40
0.0
 40
0.0
 40
0.0
 40
0.2495635802
 40
0.5025868783
 40
0.754287836
 40
1.0
 40
1.0
 40
1.0
 40
1.0
 10
345.9670895677
 20
141.2543076465
 30
0.0
 10
345.9088413489
 20
141.6870812225
 30
0.0
 10
345.7306608356
 20
142.5514300607
 30
0.0
 10
345.2966686293
 20
143.8016163626
 30
0.0
 10
344.7079361846
 20
144.9793292449
 30
0.0
 10
344.2167069998
 20
145.7017926088
 30
0.0
 10
343.9497612459
 20
146.0388173026
 30
0.0
  0
SPLINE
  5
434
330
222
100
AcDbEntity
  8
02___PRT_ALL_AXES
  6
Continuous
 62
     9
100
AcDbSpline
 70
     0
 71
     3
 72
     9
 73
     5
 74
     0
 42
0.000000001
 43
0.0000001
 40
0.0
 40
0.0
 40
0.0
 40
0.0
 40
0.2595870187
 40
1.0
 40
1.0
 40
1.0
 40
1.0
 10
342.6553900439
 20
147.3414937094
 30
0.0
 10
342.5487286801
 20
147.4254208832
 30
0.0
 10
342.128506664
 20
147.73647384
 30
0.0
 10
341.669416654
 20
147.9967146469
 30
0.0
 10
341.3132817115
 20
148.1484593873
 30
0.0
  0
SPLINE
  5
435
330
222
100
AcDbEntity
  8
02___PRT_ALL_AXES
  6
Continuous
 62
     7
100
AcDbSpline
 70
     0
 71
     3
 72
    10
 73
     6
 74
     0
 42
0.000000001
 43
0.0000001
 40
0.0
 40
0.0
 40
0.0
 40
0.0
 40
0.5192374217
 40
0.7623634715
 40
1.0
 40
1.0
 40
1.0
 40
1.0
 10
310.6735339724
 20
93.5664141651
 30
0.0
 10
310.7864643989
 20
93.387689204
 30
0.0
 10
310.9929649688
 20
93.1452802092
 30
0.0
 10
311.3356383975
 20
92.921579638
 30
0.0
 10
311.5190792778
 20
92.8486874913
 30
0.0
 10
311.6121790116
 20
92.8223379651
 30
0.0
  0
SPLINE
  5
436
330
222
100
AcDbEntity
  8
02___PRT_ALL_AXES
  6
Continuous
 62
     7
100
AcDbSpline
 70
     0
 71
     3
 72
    16
 73
    12
 74
     0
 42
0.000000001
 43
0.0000001
 40
0.0
 40
0.0
 40
0.0
 40
0.0
 40
0.0469765897
 40
0.0949426299
 40
0.1967884173
 40
0.3103523878
 40
0.4363863779
 40
0.5727683539
 40
0.7155146693
 40
0.8596348237
 40
1.0
 40
1.0
 40
1.0
 40
1.0
 10
311.8319960095
 20
92.7601265006
 30
0.0
 10
311.9205519849
 20
92.7350629703
 30
0.0
 10
312.1049677578
 20
92.7017924971
 30
0.0
 10
312.4924765323
 20
92.7066546949
 30
0.0
 10
312.9972995136
 20
92.855670006
 30
0.0
 10
313.5626037583
 20
93.2263918323
 30
0.0
 10
314.0738562999
 20
93.7641672903
 30
0.0
 10
314.5032609226
 20
94.4367652031
 30
0.0
 10
314.8267108025
 20
95.2043764081
 30
0.0
 10
315.0252594321
 20
96.0209703047
 30
0.0
 10
315.0673204022
 20
96.5799919558
 30
0.0
 10
315.0627761017
 20
96.8549516527
 30
0.0
  0
SPLINE
  5
437
330
222
100
AcDbEntity
  8
02___PRT_ALL_AXES
  6
Continuous
 62
     7
100
AcDbSpline
 70
     0
 71
     3
 72
     9
 73
     5
 74
     0
 42
0.000000001
 43
0.0000001
 40
0.0
 40
0.0
 40
0.0
 40
0.0
 40
0.5226770861
 40
1.0
 40
1.0
 40
1.0
 40
1.0
 10
310.8009774667
 20
93.6642827002
 30
0.0
 10
310.893112107
 20
93.4891649851
 30
0.0
 10
311.1108640857
 20
93.1727666854
 30
0.0
 10
311.418986952
 20
92.9383277242
 30
0.0
 10
311.5806495095
 20
92.8575820714
 30
0.0
  0
SPLINE
  5
438
330
222
100
AcDbEntity
  8
7_ALL_FEATURES
  6
Continuous
 62
     7
100
AcDbSpline
 70
     0
 71
     3
 72
    11
 73
     7
 74
     0
 42
0.000000001
 43
0.0000001
 40
0.0
 40
0.0
 40
0.0
 40
0.0
 40
0.2540595488
 40
0.5070353678
 40
0.7564581855
 40
1.0
 40
1.0
 40
1.0
 40
1.0
 10
337.8632898572
 20
132.6249878695
 30
0.0
 10
338.5580162702
 20
134.6913991842
 30
0.0
 10
339.7697679056
 20
138.8764726953
 30
0.0
 10
341.0427998929
 20
145.2492986041
 30
0.0
 10
341.7525730328
 20
151.6185615563
 30
0.0
 10
341.8433076956
 20
155.8548138769
 30
0.0
 10
341.7873839466
 20
157.9438823899
 30
0.0
  0
SPLINE
  5
439
330
222
100
AcDbEntity
  8
7_ALL_FEATURES
  6
Continuous
 62
     7
100
AcDbSpline
 70
     0
 71
     3
 72
    11
 73
     7
 74
     0
 42
0.000000001
 43
0.0000001
 40
0.0
 40
0.0
 40
0.0
 40
0.0
 40
0.2329625672
 40
0.4795454351
 40
0.7365481892
 40
1.0
 40
1.0
 40
1.0
 40
1.0
 10
329.4986440383
 20
117.1331557126
 30
0.0
 10
330.2484298398
 20
117.81258963
 30
0.0
 10
331.6813254561
 20
119.3363170356
 30
0.0
 10
333.5412548297
 20
121.9493310277
 30
0.0
 10
335.128816873
 20
124.8869808548
 30
0.0
 10
335.9693290341
 20
126.9915442555
 30
0.0
 10
336.3339722551
 20
128.0761480128
 30
0.0
  0
SPLINE
  5
43A
330
222
100
AcDbEntity
  8
02___PRT_ALL_AXES
  6
Continuous
 62
     7
100
AcDbSpline
 70
     0
 71
     3
 72
    14
 73
    10
 74
     0
 42
0.000000001
 43
0.0000001
 40
0.0
 40
0.0
 40
0.0
 40
0.0
 40
0.1050360672
 40
0.2128188555
 40
0.3256977952
 40
0.4453660773
 40
0.5727173738
 40
0.7080192646
 40
1.0
 40
1.0
 40
1.0
 40
1.0
 10
340.1529680607
 20
169.7144528627
 30
0.0
 10
340.2521193383
 20
169.6864070215
 30
0.0
 10
340.4474324819
 20
169.6073611294
 30
0.0
 10
340.713263191
 20
169.4262609444
 30
0.0
 10
340.9486292881
 20
169.1867057915
 30
0.0
 10
341.1489219008
 20
168.8940253859
 30
0.0
 10
341.3111013037
 20
168.5543252972
 30
0.0
 10
341.4766390101
 20
168.0347199112
 30
0.0
 10
341.528515911
 20
167.6140685377
 30
0.0
 10
341.536180976
 20
167.3277349819
 30
0.0
  0
SPLINE
  5
43B
330
222
100
AcDbEntity
  8
02___PRT_ALL_AXES
  6
Continuous
 62
     7
100
AcDbSpline
 70
     0
 71
     3
 72
    14
 73
    10
 74
     0
 42
0.000000001
 43
0.0000001
 40
0.0
 40
0.0
 40
0.0
 40
0.0
 40
0.2959172274
 40
0.4352727083
 40
0.5658931596
 40
0.6866840407
 40
0.7978527961
 40
0.9011659203
 40
1.0
 40
1.0
 40
1.0
 40
1.0
 10
336.9698808306
 20
167.3541112156
 30
0.0
 10
337.1011920455
 20
167.7446865201
 30
0.0
 10
337.3632716582
 20
168.3008491718
 30
0.0
 10
337.8376758575
 20
168.9325948427
 30
0.0
 10
338.2277651686
 20
169.3154850795
 30
0.0
 10
338.6464358631
 20
169.6029326975
 30
0.0
 10
339.080972794
 20
169.7842535885
 30
0.0
 10
339.5169990018
 20
169.8507585
 30
0.0
 10
339.8007227138
 20
169.8141228911
 30
0.0
 10
339.9331510628
 20
169.7766643273
 30
0.0
  0
SPLINE
  5
43C
330
222
100
AcDbEntity
  8
02___PRT_ALL_AXES
  6
Continuous
 62
     7
100
AcDbSpline
 70
     0
 71
     3
 72
    14
 73
    10
 74
     0
 42
0.000000001
 43
0.0000001
 40
0.0
 40
0.0
 40
0.0
 40
0.0
 40
0.2920987384
 40
0.4305997137
 40
0.5613851451
 40
0.6832982142
 40
0.7961551132
 40
0.9009539479
 40
1.0
 40
1.0
 40
1.0
 40
1.0
 10
337.1896978285
 20
167.291899751
 30
0.0
 10
337.3124942007
 20
167.6571482982
 30
0.0
 10
337.5538924774
 20
168.1791072098
 30
0.0
 10
337.9857074664
 20
168.7827327048
 30
0.0
 10
338.3418540336
 20
169.1588643731
 30
0.0
 10
338.7256419144
 20
169.4545389404
 30
0.0
 10
339.1266914127
 20
169.6606127779
 30
0.0
 10
339.5335941774
 20
169.7697046537
 30
0.0
 10
339.8060253028
 20
169.773778106
 30
0.0
 10
339.9357355914
 20
169.7580361221
 30
0.0
  0
SPLINE
  5
43D
330
222
100
AcDbEntity
  8
7_ALL_FEATURES
  6
Continuous
 62
     7
100
AcDbSpline
 70
     0
 71
     3
 72
    11
 73
     7
 74
     0
 42
0.000000001
 43
0.0000001
 40
0.0
 40
0.0
 40
0.0
 40
0.0
 40
0.2518900387
 40
0.5048889196
 40
0.755411327
 40
1.0
 40
1.0
 40
1.0
 40
1.0
 10
346.5919142971
 20
134.5581548198
 30
0.0
 10
346.3601428677
 20
135.6249191799
 30
0.0
 10
345.7707834147
 20
137.7379653357
 30
0.0
 10
344.5401094985
 20
140.7788640631
 30
0.0
 10
342.9894262251
 20
143.6338982371
 30
0.0
 10
341.7485265127
 20
145.3920187736
 30
0.0
 10
341.0837247449
 20
146.2176445007
 30
0.0
  0
SPLINE
  5
43E
330
222
100
AcDbEntity
  8
7_ALL_FEATURES
  6
Continuous
 62
     7
100
AcDbSpline
 70
     0
 71
     3
 72
    11
 73
     7
 74
     0
 42
0.000000001
 43
0.0000001
 40
0.0
 40
0.0
 40
0.0
 40
0.0
 40
0.2616465523
 40
0.5136358287
 40
0.7586500476
 40
1.0
 40
1.0
 40
1.0
 40
1.0
 10
332.0180731909
 20
152.6742225412
 30
0.0
 10
331.4562054636
 20
152.8323464961
 30
0.0
 10
330.3300540454
 20
153.0679923141
 30
0.0
 10
328.6333779178
 20
153.1610816846
 30
0.0
 10
326.9884160084
 20
152.9840460942
 30
0.0
 10
325.93878325
 20
152.6854856622
 30
0.0
 10
325.4354981203
 20
152.4941873883
 30
0.0
  0
SPLINE
  5
43F
330
222
100
AcDbEntity
  8
7_ALL_FEATURES
  6
Continuous
 62
     7
100
AcDbSpline
 70
     0
 71
     3
 72
    13
 73
     9
 74
     0
 42
0.000000001
 43
0.0000001
 40
0.0
 40
0.0
 40
0.0
 40
0.0
 40
0.2752022859
 40
0.5317098422
 40
0.6536316014
 40
0.7718325786
 40
0.8870045483
 40
1.0
 40
1.0
 40
1.0
 40
1.0
 10
336.2384849986
 20
120.9826522456
 30
0.0
 10
336.0471854329
 20
119.9593676716
 30
0.0
 10
335.5193877055
 20
118.0066676895
 30
0.0
 10
334.4298868275
 20
115.7665234684
 30
0.0
 10
333.3384662385
 20
114.2329901047
 30
0.0
 10
332.4350146234
 20
113.2334737681
 30
0.0
 10
331.4409109969
 20
112.3749398755
 30
0.0
 10
330.7179267979
 20
111.8981522635
 30
0.0
 10
330.3461369457
 20
111.6872765416
 30
0.0
  0
SPLINE
  5
440
330
222
100
AcDbEntity
  8
7_ALL_FEATURES
  6
Continuous
 62
     7
100
AcDbSpline
 70
     0
 71
     3
 72
    13
 73
     9
 74
     0
 42
0.000000001
 43
0.0000001
 40
0.0
 40
0.0
 40
0.0
 40
0.0
 40
0.2752022859
 40
0.5317098422
 40
0.6536316014
 40
0.7718325786
 40
0.8870045483
 40
1.0
 40
1.0
 40
1.0
 40
1.0
 10
343.991143843
 20
123.92923596
 30
0.0
 10
343.7998442773
 20
122.905951386
 30
0.0
 10
343.2720465499
 20
120.9532514039
 30
0.0
 10
342.1825456719
 20
118.7131071828
 30
0.0
 10
341.0911250829
 20
117.1795738191
 30
0.0
 10
340.1876734678
 20
116.1800574825
 30
0.0
 10
339.1935698412
 20
115.3215235899
 30
0.0
 10
338.4705856423
 20
114.8447359779
 30
0.0
 10
338.0987957901
 20
114.6338602561
 30
0.0
  0
SPLINE
  5
441
330
222
100
AcDbEntity
  8
7_ALL_FEATURES
  6
Continuous
 62
     7
100
AcDbSpline
 70
     0
 71
     3
 72
    13
 73
     9
 74
     0
 42
0.000000001
 43
0.0000001
 40
0.0
 40
0.0
 40
0.0
 40
0.0
 40
0.2752022859
 40
0.5317098422
 40
0.6536316014
 40
0.7718325786
 40
0.8870045483
 40
1.0
 40
1.0
 40
1.0
 40
1.0
 10
338.8227046134
 20
121.9648468171
 30
0.0
 10
338.6314050477
 20
120.941562243
 30
0.0
 10
338.1036073203
 20
118.988862261
 30
0.0
 10
337.0141064423
 20
116.7487180398
 30
0.0
 10
335.9226858533
 20
115.2151846762
 30
0.0
 10
335.0192342382
 20
114.2156683395
 30
0.0
 10
334.0251306117
 20
113.3571344469
 30
0.0
 10
333.3021464127
 20
112.880346835
 30
0.0
 10
332.9303565605
 20
112.6694711131
 30
0.0
  0
SPLINE
  5
442
330
222
100
AcDbEntity
  8
7_ALL_FEATURES
  6
Continuous
 62
     7
100
AcDbSpline
 70
     0
 71
     3
 72
    13
 73
     9
 74
     0
 42
0.000000001
 43
0.0000001
 40
0.0
 40
0.0
 40
0.0
 40
0.0
 40
0.2752022859
 40
0.5317098422
 40
0.6536316014
 40
0.7718325786
 40
0.8870045483
 40
1.0
 40
1.0
 40
1.0
 40
1.0
 10
341.4069242282
 20
122.9470413885
 30
0.0
 10
341.2156246625
 20
121.9237568145
 30
0.0
 10
340.6878269351
 20
119.9710568324
 30
0.0
 10
339.5983260571
 20
117.7309126113
 30
0.0
 10
338.5069054681
 20
116.1973792477
 30
0.0
 10
337.603453853
 20
115.197862911
 30
0.0
 10
336.6093502264
 20
114.3393290184
 30
0.0
 10
335.8863660275
 20
113.8625414065
 30
0.0
 10
335.5145761753
 20
113.6516656846
 30
0.0
  0
SPLINE
  5
443
330
222
100
AcDbEntity
  8
7_ALL_FEATURES
  6
Continuous
 62
     7
100
AcDbSpline
 70
     0
 71
     3
 72
    14
 73
    10
 74
     0
 42
0.000000001
 43
0.0000001
 40
0.0
 40
0.0
 40
0.0
 40
0.0
 40
0.1132336322
 40
0.227857766
 40
0.3451527654
 40
0.4662023484
 40
0.5918362332
 40
0.7225924759
 40
1.0
 40
1.0
 40
1.0
 40
1.0
 10
339.6474100243
 20
115.1040657948
 30
0.0
 10
340.0987995033
 20
115.2756385734
 30
0.0
 10
340.9818583892
 20
115.6919028178
 30
0.0
 10
342.2067590502
 20
116.5175798988
 30
0.0
 10
343.3221398937
 20
117.5361785553
 30
0.0
 10
344.3152680226
 20
118.7350982991
 30
0.0
 10
345.1757654608
 20
120.100544956
 30
0.0
 10
346.1530391315
 20
122.1609700145
 30
0.0
 10
346.6299885787
 20
123.8519311889
 30
0.0
 10
346.8473865751
 20
125.0148194338
 30
0.0
  0
SPLINE
  5
444
330
222
100
AcDbEntity
  8
7_ALL_FEATURES
  6
Continuous
 62
     7
100
AcDbSpline
 70
     0
 71
     3
 72
    11
 73
     7
 74
     0
 42
0.000000001
 43
0.0000001
 40
0.0
 40
0.0
 40
0.0
 40
0.0
 40
0.2361260229
 40
0.4796167741
 40
0.7335505531
 40
1.0
 40
1.0
 40
1.0
 40
1.0
 10
323.9689709612
 20
151.8179816261
 30
0.0
 10
324.5549743647
 20
151.943004741
 30
0.0
 10
325.7718496609
 20
152.0848285035
 30
0.0
 10
327.6384171364
 20
151.9682722782
 30
0.0
 10
329.5346645796
 20
151.5298340962
 30
0.0
 10
330.7670416594
 20
151.0411149843
 30
0.0
 10
331.377708444
 20
150.7508534679
 30
0.0
  0
SPLINE
  5
445
330
222
100
AcDbEntity
  8
7_ALL_FEATURES
  6
Continuous
 62
     7
100
AcDbSpline
 70
     0
 71
     3
 72
    11
 73
     7
 74
     0
 42
0.000000001
 43
0.0000001
 40
0.0
 40
0.0
 40
0.0
 40
0.0
 40
0.2312355809
 40
0.4725430517
 40
0.7280784443
 40
1.0
 40
1.0
 40
1.0
 40
1.0
 10
321.3847513464
 20
150.8357870546
 30
0.0
 10
322.1224800055
 20
150.9931805686
 30
0.0
 10
323.6734106877
 20
151.1352875281
 30
0.0
 10
326.0450652554
 20
150.826546939
 30
0.0
 10
328.4334878574
 20
150.0165206358
 30
0.0
 10
329.9500473498
 20
149.1849554599
 30
0.0
 10
330.6939314631
 20
148.7017310633
 30
0.0
  0
SPLINE
  5
446
330
222
100
AcDbEntity
  8
7_ALL_FEATURES
  6
Continuous
 62
     7
100
AcDbSpline
 70
     0
 71
     3
 72
    13
 73
     9
 74
     0
 42
0.000000001
 43
0.0000001
 40
0.0
 40
0.0
 40
0.0
 40
0.0
 40
0.1122166825
 40
0.2267614509
 40
0.3445592803
 40
0.4663442968
 40
0.7233915942
 40
1.0
 40
1.0
 40
1.0
 40
1.0
 10
318.8005317316
 20
149.8535924831
 30
0.0
 10
319.2409805473
 20
149.9475617034
 30
0.0
 10
320.1456202715
 20
150.0745917673
 30
0.0
 10
321.5322733663
 20
150.0794803705
 30
0.0
 10
322.9460966174
 20
149.9007501012
 30
0.0
 10
324.8827408911
 20
149.4120784218
 30
0.0
 10
327.3045682614
 20
148.3324471348
 30
0.0
 10
329.0663025732
 20
147.09212533
 30
0.0
 10
329.9193089703
 20
146.3816735343
 30
0.0
  0
SPLINE
  5
447
330
222
100
AcDbEntity
  8
7_ALL_FEATURES
  6
Continuous
 62
     7
100
AcDbSpline
 70
     0
 71
     3
 72
    13
 73
     9
 74
     0
 42
0.000000001
 43
0.0000001
 40
0.0
 40
0.0
 40
0.0
 40
0.0
 40
0.1128479003
 40
0.2279015467
 40
0.3460267124
 40
0.4679214728
 40
0.7245369046
 40
1.0
 40
1.0
 40
1.0
 40
1.0
 10
316.2163121168
 20
148.8713979116
 30
0.0
 10
316.6384905448
 20
148.9614691668
 30
0.0
 10
317.5044670311
 20
149.085666333
 30
0.0
 10
318.8314317832
 20
149.1014523421
 30
0.0
 10
320.1845014923
 20
148.9483991076
 30
0.0
 10
322.0379181251
 20
148.5144281691
 30
0.0
 10
324.3624853028
 20
147.5397298344
 30
0.0
 10
326.0672340868
 20
146.4064242855
 30
0.0
 10
326.8956250389
 20
145.7551737512
 30
0.0
  0
SPLINE
  5
448
330
222
100
AcDbEntity
  8
7_ALL_FEATURES
  6
Continuous
 62
     7
100
AcDbSpline
 70
     0
 71
     3
 72
     9
 73
     5
 74
     0
 42
0.000000001
 43
0.0000001
 40
0.0
 40
0.0
 40
0.0
 40
0.0
 40
0.5023364107
 40
1.0
 40
1.0
 40
1.0
 40
1.0
 10
345.0957871517
 20
133.9895158573
 30
0.0
 10
344.7024393778
 20
135.799960689
 30
0.0
 10
343.5635406415
 20
139.3342373813
 30
0.0
 10
341.7797807011
 20
142.5925030093
 30
0.0
 10
340.7384652437
 20
144.1039704756
 30
0.0
  0
SPLINE
  5
449
330
222
100
AcDbEntity
  8
7_ALL_FEATURES
  6
Continuous
 62
     7
100
AcDbSpline
 70
     0
 71
     3
 72
    11
 73
     7
 74
     0
 42
0.000000001
 43
0.0000001
 40
0.0
 40
0.0
 40
0.0
 40
0.0
 40
0.2630767685
 40
0.5162567379
 40
0.7611688265
 40
1.0
 40
1.0
 40
1.0
 40
1.0
 10
331.7069654068
 20
151.7109476261
 30
0.0
 10
331.1979865947
 20
151.9067423391
 30
0.0
 10
330.1755591713
 20
152.2333552397
 30
0.0
 10
328.6189049352
 20
152.5177812791
 30
0.0
 10
327.08774258
 20
152.5829608755
 30
0.0
 10
326.0860067328
 20
152.4778948471
 30
0.0
 10
325.5990656194
 20
152.3884939669
 30
0.0
  0
SPLINE
  5
44A
330
222
100
AcDbEntity
  8
7_ALL_FEATURES
  6
Continuous
 62
     7
100
AcDbSpline
 70
     0
 71
     3
 72
    11
 73
     7
 74
     0
 42
0.000000001
 43
0.0000001
 40
0.0
 40
0.0
 40
0.0
 40
0.0
 40
0.2693423997
 40
0.5240016961
 40
0.7662831997
 40
1.0
 40
1.0
 40
1.0
 40
1.0
 10
331.0709407502
 20
149.8118982994
 30
0.0
 10
330.3819980346
 20
150.1962509712
 30
0.0
 10
328.9849449385
 20
150.849119837
 30
0.0
 10
326.8116716997
 20
151.4535232787
 30
0.0
 10
324.6666785755
 20
151.6388371764
 30
0.0
 10
323.2700734757
 20
151.4742915869
 30
0.0
 10
322.6028324123
 20
151.3212989487
 30
0.0
  0
SPLINE
  5
44B
330
222
100
AcDbEntity
  8
7_ALL_FEATURES
  6
Continuous
 62
     7
100
AcDbSpline
 70
     0
 71
     3
 72
    13
 73
     9
 74
     0
 42
0.000000001
 43
0.0000001
 40
0.0
 40
0.0
 40
0.0
 40
0.0
 40
0.1129854467
 40
0.2280876403
 40
0.3461981336
 40
0.4680435848
 40
0.7245329772
 40
1.0
 40
1.0
 40
1.0
 40
1.0
 10
331.5793338323
 20
112.1335000376
 30
0.0
 10
331.9590268005
 20
112.341310796
 30
0.0
 10
332.6977965812
 20
112.8136956638
 30
0.0
 10
333.7142875605
 20
113.6709892393
 30
0.0
 10
334.638194736
 20
114.6740396255
 30
0.0
 10
335.7543573171
 20
116.2186678046
 30
0.0
 10
336.8677044166
 20
118.4839850187
 30
0.0
 10
337.4046753075
 20
120.4622669299
 30
0.0
 10
337.5986005853
 20
121.4995967569
 30
0.0
  0
SPLINE
  5
44C
330
222
100
AcDbEntity
  8
7_ALL_FEATURES
  6
Continuous
 62
     7
100
AcDbSpline
 70
     0
 71
     3
 72
    13
 73
     9
 74
     0
 42
0.000000001
 43
0.0000001
 40
0.0
 40
0.0
 40
0.0
 40
0.0
 40
0.1129854467
 40
0.2280876403
 40
0.3461981336
 40
0.4680435848
 40
0.7245329772
 40
1.0
 40
1.0
 40
1.0
 40
1.0
 10
334.1635534471
 20
113.1156946091
 30
0.0
 10
334.5432464153
 20
113.3235053675
 30
0.0
 10
335.282016196
 20
113.7958902352
 30
0.0
 10
336.2985071753
 20
114.6531838108
 30
0.0
 10
337.2224143508
 20
115.656234197
 30
0.0
 10
338.3385769319
 20
117.2008623761
 30
0.0
 10
339.4519240314
 20
119.4661795902
 30
0.0
 10
339.9888949223
 20
121.4444615014
 30
0.0
 10
340.1828202001
 20
122.4817913284
 30
0.0
  0
LINE
  5
44D
330
222
100
AcDbEntity
  8
7_ALL_FEATURES
  6
Continuous
 62
     7
100
AcDbLine
 10
337.3431283073
 20
131.0429321429
 30
0.0
 11
337.3388963912
 21
131.0623769065
 31
0.0
  0
SPLINE
  5
44E
330
222
100
AcDbEntity
  8
7_ALL_FEATURES
  6
Continuous
 62
     7
100
AcDbSpline
 70
     0
 71
     3
 72
    14
 73
    10
 74
     0
 42
0.000000001
 43
0.0000001
 40
0.0
 40
0.0
 40
0.0
 40
0.0
 40
0.2788413931
 40
0.4105682786
 40
0.5370260167
 40
0.6585016424
 40
0.7755565385
 40
0.8890275822
 40
1.0
 40
1.0
 40
1.0
 40
1.0
 10
329.5198252631
 20
145.1918523201
 30
0.0
 10
328.613683345
 20
146.0306863191
 30
0.0
 10
327.167495708
 20
147.1570140833
 30
0.0
 10
325.0832292595
 20
148.3096171072
 30
0.0
 10
323.5269265999
 20
148.9560556766
 30
0.0
 10
321.9662368043
 20
149.3922848342
 30
0.0
 10
320.4181793291
 20
149.6126948698
 30
0.0
 10
318.9008984612
 20
149.6139270443
 30
0.0
 10
317.9133856133
 20
149.4667386512
 30
0.0
 10
317.4343931827
 20
149.3569098057
 30
0.0
  0
SPLINE
  5
44F
330
222
100
AcDbEntity
  8
7_ALL_FEATURES
  6
Continuous
 62
     7
100
AcDbSpline
 70
     0
 71
     3
 72
    13
 73
     9
 74
     0
 42
0.000000001
 43
0.0000001
 40
0.0
 40
0.0
 40
0.0
 40
0.0
 40
0.1129854467
 40
0.2280876403
 40
0.3461981336
 40
0.4680435848
 40
0.7245329772
 40
1.0
 40
1.0
 40
1.0
 40
1.0
 10
336.7477730619
 20
114.0978891806
 30
0.0
 10
337.1274660301
 20
114.305699939
 30
0.0
 10
337.8662358108
 20
114.7780848067
 30
0.0
 10
338.8827267901
 20
115.6353783822
 30
0.0
 10
339.8066339656
 20
116.6384287685
 30
0.0
 10
340.9227965467
 20
118.1830569476
 30
0.0
 10
342.0361436462
 20
120.4483741617
 30
0.0
 10
342.573114537
 20
122.4266560729
 30
0.0
 10
342.7670398149
 20
123.4639858999
 30
0.0
  0
SPLINE
  5
450
330
222
100
AcDbEntity
  8
7_ALL_FEATURES
  6
Continuous
 62
     7
100
AcDbSpline
 70
     0
 71
     3
 72
    13
 73
     9
 74
     0
 42
0.000000001
 43
0.0000001
 40
0.0
 40
0.0
 40
0.0
 40
0.0
 40
0.1130137723
 40
0.2282596768
 40
0.3465520123
 40
0.4685487883
 40
0.7250686976
 40
1.0
 40
1.0
 40
1.0
 40
1.0
 10
339.5848200229
 20
115.2234836938
 30
0.0
 10
339.9487338186
 20
115.4372307521
 30
0.0
 10
340.6560153909
 20
115.9180469027
 30
0.0
 10
341.627911186
 20
116.7773803348
 30
0.0
 10
342.511098321
 20
117.7730093951
 30
0.0
 10
343.5780176306
 20
119.2950943287
 30
0.0
 10
344.6439176365
 20
121.5098714042
 30
0.0
 10
345.1625869645
 20
123.4369485764
 30
0.0
 10
345.3512594297
 20
124.4461804713
 30
0.0
  0
SPLINE
  5
451
330
222
100
AcDbEntity
  8
7_ALL_FEATURES
  6
Continuous
 62
     7
100
AcDbSpline
 70
     0
 71
     3
 72
    13
 73
     9
 74
     0
 42
0.000000001
 43
0.0000001
 40
0.0
 40
0.0
 40
0.0
 40
0.0
 40
0.2743851713
 40
0.5305064383
 40
0.6524622856
 40
0.7708790825
 40
0.8864457845
 40
1.0
 40
1.0
 40
1.0
 40
1.0
 10
330.3399833951
 20
147.6344762642
 30
0.0
 10
329.5296896918
 20
148.2299276689
 30
0.0
 10
327.8679105464
 20
149.2600395939
 30
0.0
 10
325.6198821865
 20
150.125111423
 30
0.0
 10
323.8344213148
 20
150.4930414222
 30
0.0
 10
322.5319511156
 20
150.608442855
 30
0.0
 10
321.2559160911
 20
150.5662034792
 30
0.0
 10
320.4242347624
 20
150.4321100058
 30
0.0
 10
320.0186127975
 20
150.3391043772
 30
0.0
  0
ENDSEC
  0
SECTION
  2
OBJECTS
  0
DICTIONARY
  5
C
330
0
100
AcDbDictionary
281
     1
  3
ACAD_GROUP
350
D
  3
ACAD_IMAGE_VARS
350
49B
  3
ACAD_LAYOUT
350
1A
  3
ACAD_MLINESTYLE
350
17
  3
ACAD_PLOTSETTINGS
350
19
  3
ACAD_PLOTSTYLENAME
350
E
  3
ACAD_SCALELIST
350
457
  3
APPDATA
350
499
  3
DWGPROPS
350
4C2
  0
DICTIONARY
  5
D
102
{ACAD_REACTORS
330
C
102
}
330
C
100
AcDbDictionary
281
     1
  0
RASTERVARIABLES
  5
49B
102
{ACAD_REACTORS
330
C
102
}
330
C
100
AcDbRasterVariables
 90
        0
 70
     1
 71
     1
 72
     1
  0
DICTIONARY
  5
1A
102
{ACAD_REACTORS
330
C
102
}
330
C
100
AcDbDictionary
281
     1
  3
Layout1
350
454
  3
Model
350
453
  0
DICTIONARY
  5
17
102
{ACAD_REACTORS
330
C
102
}
330
C
100
AcDbDictionary
281
     1
  3
Standard
350
18
  0
DICTIONARY
  5
19
102
{ACAD_REACTORS
330
C
102
}
330
C
100
AcDbDictionary
281
     1
  0
ACDBDICTIONARYWDFLT
  5
E
102
{ACAD_REACTORS
330
C
102
}
330
C
100
AcDbDictionary
281
     1
  3
Normal
350
F
100
AcDbDictionaryWithDefault
340
F
  0
DICTIONARY
  5
457
102
{ACAD_REACTORS
330
C
102
}
330
C
100
AcDbDictionary
281
     1
  3
A0
350
458
  3
A1
350
459
  3
A2
350
45A
  3
A3
350
45B
  3
A4
350
45C
  3
A5
350
45D
  3
A6
350
45E
  3
A7
350
45F
  3
A8
350
460
  3
A9
350
461
  3
B0
350
462
  3
B1
350
463
  3
B2
350
464
  3
B3
350
465
  3
B4
350
466
  3
B5
350
467
  3
B6
350
468
  3
B7
350
469
  3
B8
350
46A
  3
B9
350
46B
  3
C0
350
46C
  3
C1
350
46D
  3
C2
350
46E
  3
C3
350
46F
  3
C4
350
470
  3
C5
350
471
  3
C6
350
472
  3
C7
350
473
  3
C8
350
474
  3
C9
350
475
  3
D0
350
476
  3
D1
350
477
  3
D2
350
478
  0
DICTIONARY
  5
499
102
{ACAD_REACTORS
330
C
102
}
330
C
100
AcDbDictionary
281
     1
  0
XRECORD
  5
4C2
102
{ACAD_REACTORS
330
C
102
}
330
C
100
AcDbXrecord
280
     1
  1
DWGPROPS COOKIE
  2

  3

  4

  6

  7

  8
andrea.faggionato
  9

300
=
301
=
302
=
303
=
304
=
305
=
306
=
307
=
308
=
309
=
 40
0.0
 41
0.0
 42
2456744.582968854
  1

 90
        0
  0
LAYOUT
  5
454
102
{ACAD_REACTORS
330
1A
102
}
330
1A
100
AcDbPlotSettings
  1

  2
none_device
  4
ISO_A3_(420.00_x_297.00_MM)
  6

 40
0.0
 41
0.0
 42
0.0
 43
0.0
 44
420.0
 45
297.0
 46
0.0
 47
0.0
 48
0.0
 49
0.0
140
0.0
141
0.0
142
1.0
143
1.0
 70
     0
 72
     1
 73
     0
 74
     0
  7

 75
     0
147
1.0
148
0.0
149
0.0
100
AcDbLayout
  1
Layout1
 70
     0
 71
     1
 10
0.0
 20
0.0
 11
420.0
 21
297.0
 12
0.0
 22
0.0
 32
0.0
 14
0.0
 24
0.0
 34
0.0
 15
0.0
 25
0.0
 35
0.0
146
0.0
 13
0.0
 23
0.0
 33
0.0
 16
1.0
 26
0.0
 36
0.0
 17
0.0
 27
1.0
 37
0.0
 76
     0
330
223
  0
LAYOUT
  5
453
102
{ACAD_REACTORS
330
1A
102
}
330
1A
100
AcDbPlotSettings
  1

  2
none_device
  4
ISO_A3_(420.00_x_297.00_MM)
  6

 40
0.0
 41
0.0
 42
0.0
 43
0.0
 44
420.0
 45
297.0
 46
0.0
 47
0.0
 48
0.0
 49
0.0
140
0.0
141
0.0
142
1.0
143
1.0
 70
  1024
 72
     1
 73
     0
 74
     0
  7

 75
     0
147
1.0
148
0.0
149
0.0
100
AcDbLayout
  1
Model
 70
     0
 71
     0
 10
0.0
 20
0.0
 11
420.0
 21
297.0
 12
0.0
 22
0.0
 32
0.0
 14
0.0
 24
0.0
 34
0.0
 15
0.0
 25
0.0
 35
0.0
146
0.0
 13
0.0
 23
0.0
 33
0.0
 16
1.0
 26
0.0
 36
0.0
 17
0.0
 27
1.0
 37
0.0
 76
     0
330
222
331
1F4
  0
MLINESTYLE
  5
18
102
{ACAD_REACTORS
330
17
102
}
330
17
100
AcDbMlineStyle
  2
STANDARD
 70
     0
  3

 62
   256
 51
90.0
 52
90.0
 71
     2
 49
0.5
 62
   256
  6
BYLAYER
 49
-0.5
 62
   256
  6
BYLAYER
  0
ACDBPLACEHOLDER
  5
F
102
{ACAD_REACTORS
330
E
102
}
330
E
  0
SCALE
  5
458
102
{ACAD_REACTORS
330
457
102
}
330
457
100
AcDbScale
 70
     0
300
1:1
140
1.0
141
1.0
290
     1
  0
SCALE
  5
459
102
{ACAD_REACTORS
330
457
102
}
330
457
100
AcDbScale
 70
     0
300
1:2
140
1.0
141
2.0
290
     0
  0
SCALE
  5
45A
102
{ACAD_REACTORS
330
457
102
}
330
457
100
AcDbScale
 70
     0
300
1:4
140
1.0
141
4.0
290
     0
  0
SCALE
  5
45B
102
{ACAD_REACTORS
330
457
102
}
330
457
100
AcDbScale
 70
     0
300
1:5
140
1.0
141
5.0
290
     0
  0
SCALE
  5
45C
102
{ACAD_REACTORS
330
457
102
}
330
457
100
AcDbScale
 70
     0
300
1:8
140
1.0
141
8.0
290
     0
  0
SCALE
  5
45D
102
{ACAD_REACTORS
330
457
102
}
330
457
100
AcDbScale
 70
     0
300
1:10
140
1.0
141
10.0
290
     0
  0
SCALE
  5
45E
102
{ACAD_REACTORS
330
457
102
}
330
457
100
AcDbScale
 70
     0
300
1:16
140
1.0
141
16.0
290
     0
  0
SCALE
  5
45F
102
{ACAD_REACTORS
330
457
102
}
330
457
100
AcDbScale
 70
     0
300
1:20
140
1.0
141
20.0
290
     0
  0
SCALE
  5
460
102
{ACAD_REACTORS
330
457
102
}
330
457
100
AcDbScale
 70
     0
300
1:30
140
1.0
141
30.0
290
     0
  0
SCALE
  5
461
102
{ACAD_REACTORS
330
457
102
}
330
457
100
AcDbScale
 70
     0
300
1:40
140
1.0
141
40.0
290
     0
  0
SCALE
  5
462
102
{ACAD_REACTORS
330
457
102
}
330
457
100
AcDbScale
 70
     0
300
1:50
140
1.0
141
50.0
290
     0
  0
SCALE
  5
463
102
{ACAD_REACTORS
330
457
102
}
330
457
100
AcDbScale
 70
     0
300
1:100
140
1.0
141
100.0
290
     0
  0
SCALE
  5
464
102
{ACAD_REACTORS
330
457
102
}
330
457
100
AcDbScale
 70
     0
300
2:1
140
2.0
141
1.0
290
     0
  0
SCALE
  5
465
102
{ACAD_REACTORS
330
457
102
}
330
457
100
AcDbScale
 70
     0
300
4:1
140
4.0
141
1.0
290
     0
  0
SCALE
  5
466
102
{ACAD_REACTORS
330
457
102
}
330
457
100
AcDbScale
 70
     0
300
8:1
140
8.0
141
1.0
290
     0
  0
SCALE
  5
467
102
{ACAD_REACTORS
330
457
102
}
330
457
100
AcDbScale
 70
     0
300
10:1
140
10.0
141
1.0
290
     0
  0
SCALE
  5
468
102
{ACAD_REACTORS
330
457
102
}
330
457
100
AcDbScale
 70
     0
300
100:1
140
100.0
141
1.0
290
     0
  0
SCALE
  5
469
102
{ACAD_REACTORS
330
457
102
}
330
457
100
AcDbScale
 70
     0
300
1/128" = 1'-0"
140
0.0078125
141
12.0
290
     0
  0
SCALE
  5
46A
102
{ACAD_REACTORS
330
457
102
}
330
457
100
AcDbScale
 70
     0
300
1/64" = 1'-0"
140
0.015625
141
12.0
290
     0
  0
SCALE
  5
46B
102
{ACAD_REACTORS
330
457
102
}
330
457
100
AcDbScale
 70
     0
300
1/32" = 1'-0"
140
0.03125
141
12.0
290
     0
  0
SCALE
  5
46C
102
{ACAD_REACTORS
330
457
102
}
330
457
100
AcDbScale
 70
     0
300
1/16" = 1'-0"
140
0.0625
141
12.0
290
     0
  0
SCALE
  5
46D
102
{ACAD_REACTORS
330
457
102
}
330
457
100
AcDbScale
 70
     0
300
3/32" = 1'-0"
140
0.09375
141
12.0
290
     0
  0
SCALE
  5
46E
102
{ACAD_REACTORS
330
457
102
}
330
457
100
AcDbScale
 70
     0
300
1/8" = 1'-0"
140
0.125
141
12.0
290
     0
  0
SCALE
  5
46F
102
{ACAD_REACTORS
330
457
102
}
330
457
100
AcDbScale
 70
     0
300
3/16" = 1'-0"
140
0.1875
141
12.0
290
     0
  0
SCALE
  5
470
102
{ACAD_REACTORS
330
457
102
}
330
457
100
AcDbScale
 70
     0
300
1/4" = 1'-0"
140
0.25
141
12.0
290
     0
  0
SCALE
  5
471
102
{ACAD_REACTORS
330
457
102
}
330
457
100
AcDbScale
 70
     0
300
3/8" = 1'-0"
140
0.375
141
12.0
290
     0
  0
SCALE
  5
472
102
{ACAD_REACTORS
330
457
102
}
330
457
100
AcDbScale
 70
     0
300
1/2" = 1'-0"
140
0.5
141
12.0
290
     0
  0
SCALE
  5
473
102
{ACAD_REACTORS
330
457
102
}
330
457
100
AcDbScale
 70
     0
300
3/4" = 1'-0"
140
0.75
141
12.0
290
     0
  0
SCALE
  5
474
102
{ACAD_REACTORS
330
457
102
}
330
457
100
AcDbScale
 70
     0
300
1" = 1'-0"
140
1.0
141
12.0
290
     0
  0
SCALE
  5
475
102
{ACAD_REACTORS
330
457
102
}
330
457
100
AcDbScale
 70
     0
300
1-1/2" = 1'-0"
140
1.5
141
12.0
290
     0
  0
SCALE
  5
476
102
{ACAD_REACTORS
330
457
102
}
330
457
100
AcDbScale
 70
     0
300
3" = 1'-0"
140
3.0
141
12.0
290
     0
  0
SCALE
  5
477
102
{ACAD_REACTORS
330
457
102
}
330
457
100
AcDbScale
 70
     0
300
6" = 1'-0"
140
6.0
141
12.0
290
     0
  0
SCALE
  5
478
102
{ACAD_REACTORS
330
457
102
}
330
457
100
AcDbScale
 70
     0
300
1'-0" = 1'-0"
140
12.0
141
12.0
290
     0
  0
ENDSEC
  0
EOF
