  0
SECTION
  2
HEADER
  9
$ACADVER
  1
AC1015
  9
$ACADMAINTVER
 70
     6
  9
$DWGCODEPAGE
  3
ANSI_1252
  9
$INSBASE
 10
0.0
 20
0.0
 30
0.0
  9
$EXTMIN
 10
0.0
 20
0.0
 30
0.0
  9
$EXTMAX
 10
420.0
 20
297.0
 30
0.0
  9
$LIMMIN
 10
0.0
 20
0.0
  9
$LIMMAX
 10
420.0
 20
297.0
  9
$ORTHOMODE
 70
     0
  9
$REGENMODE
 70
     1
  9
$FILLMODE
 70
     1
  9
$QTEXTMODE
 70
     0
  9
$MIRRTEXT
 70
     1
  9
$LTSCALE
 40
23.1
  9
$ATTMODE
 70
     1
  9
$TEXTSIZE
 40
0.2
  9
$TRACEWID
 40
0.05
  9
$TEXTSTYLE
  7
STANDARD
  9
$CLAYER
  8
0
  9
$CELTYPE
  6
BYLAYER
  9
$CECOLOR
 62
   256
  9
$CELTSCALE
 40
1.0
  9
$DISPSILH
 70
     0
  9
$DIMSCALE
 40
1.0
  9
$DIMASZ
 40
2.5
  9
$DIMEXO
 40
2.625
  9
$DIMDLI
 40
15.96
  9
$DIMRND
 40
0.0
  9
$DIMDLE
 40
0.0
  9
$DIMEXE
 40
7.56
  9
$DIMTP
 40
0.01
  9
$DIMTM
 40
0.01
  9
$DIMTXT
 40
3.0
  9
$DIMCEN
 40
3.78
  9
$DIMTSZ
 40
0.0
  9
$DIMTOL
 70
     1
  9
$DIMLIM
 70
     0
  9
$DIMTIH
 70
     1
  9
$DIMTOH
 70
     1
  9
$DIMSE1
 70
     0
  9
$DIMSE2
 70
     0
  9
$DIMTAD
 70
     0
  9
$DIMZIN
 70
     0
  9
$DIMBLK
  1
CLOSED
  9
$DIMASO
 70
     1
  9
$DIMSHO
 70
     1
  9
$DIMPOST
  1

  9
$DIMAPOST
  1

  9
$DIMALT
 70
     0
  9
$DIMALTD
 70
     2
  9
$DIMALTF
 40
25.4
  9
$DIMLFAC
 40
1.0
  9
$DIMTOFL
 70
     0
  9
$DIMTVP
 40
0.0
  9
$DIMTIX
 70
     0
  9
$DIMSOXD
 70
     0
  9
$DIMSAH
 70
     0
  9
$DIMBLK1
  1

  9
$DIMBLK2
  1

  9
$DIMSTYLE
  2
STANDARD
  9
$DIMCLRD
 70
     0
  9
$DIMCLRE
 70
     0
  9
$DIMCLRT
 70
     0
  9
$DIMTFAC
 40
1.0
  9
$DIMGAP
 40
0.09
  9
$DIMJUST
 70
     0
  9
$DIMSD1
 70
     0
  9
$DIMSD2
 70
     0
  9
$DIMTOLJ
 70
     1
  9
$DIMTZIN
 70
     0
  9
$DIMALTZ
 70
     0
  9
$DIMALTTZ
 70
     0
  9
$DIMUPT
 70
     0
  9
$DIMDEC
 70
     4
  9
$DIMTDEC
 70
     4
  9
$DIMALTU
 70
     2
  9
$DIMALTTD
 70
     2
  9
$DIMTXSTY
  7
STANDARD
  9
$DIMAUNIT
 70
     0
  9
$DIMADEC
 70
     0
  9
$DIMALTRND
 40
0.0
  9
$DIMAZIN
 70
     0
  9
$DIMDSEP
 70
    46
  9
$DIMATFIT
 70
     3
  9
$DIMFRAC
 70
     0
  9
$DIMLDRBLK
  1

  9
$DIMLUNIT
 70
     2
  9
$DIMLWD
 70
    -2
  9
$DIMLWE
 70
    -2
  9
$DIMTMOVE
 70
     0
  9
$LUNITS
 70
     2
  9
$LUPREC
 70
     4
  9
$SKETCHINC
 40
0.1
  9
$FILLETRAD
 40
0.5
  9
$AUNITS
 70
     0
  9
$AUPREC
 70
     0
  9
$MENU
  1
.
  9
$ELEVATION
 40
0.0
  9
$PELEVATION
 40
0.0
  9
$THICKNESS
 40
0.0
  9
$LIMCHECK
 70
     0
  9
$CHAMFERA
 40
0.0
  9
$CHAMFERB
 40
0.0
  9
$CHAMFERC
 40
0.0
  9
$CHAMFERD
 40
0.0
  9
$SKPOLY
 70
     0
  9
$TDCREATE
 40
2447893.041666667
  9
$TDUCREATE
 40
0.0
  9
$TDUPDATE
 40
2456744.607889502
  9
$TDUUPDATE
 40
2456744.566222836
  9
$TDINDWG
 40
0.0006346412
  9
$TDUSRTIMER
 40
2456744.56558831
  9
$USRTIMER
 70
     1
  9
$ANGBASE
 50
0.0
  9
$ANGDIR
 70
     0
  9
$PDMODE
 70
     3
  9
$PDSIZE
 40
0.3125
  9
$PLINEWID
 40
0.0
  9
$SPLFRAME
 70
     0
  9
$SPLINETYPE
 70
     6
  9
$SPLINESEGS
 70
     8
  9
$HANDSEED
  5
4BB
  9
$SURFTAB1
 70
     6
  9
$SURFTAB2
 70
     6
  9
$SURFTYPE
 70
     6
  9
$SURFU
 70
     6
  9
$SURFV
 70
     6
  9
$UCSBASE
  2

  9
$UCSNAME
  2

  9
$UCSORG
 10
0.0
 20
0.0
 30
0.0
  9
$UCSXDIR
 10
1.0
 20
0.0
 30
0.0
  9
$UCSYDIR
 10
0.0
 20
1.0
 30
0.0
  9
$UCSORTHOREF
  2

  9
$UCSORTHOVIEW
 70
     0
  9
$UCSORGTOP
 10
0.0
 20
0.0
 30
0.0
  9
$UCSORGBOTTOM
 10
0.0
 20
0.0
 30
0.0
  9
$UCSORGLEFT
 10
0.0
 20
0.0
 30
0.0
  9
$UCSORGRIGHT
 10
0.0
 20
0.0
 30
0.0
  9
$UCSORGFRONT
 10
0.0
 20
0.0
 30
0.0
  9
$UCSORGBACK
 10
0.0
 20
0.0
 30
0.0
  9
$PUCSBASE
  2

  9
$PUCSNAME
  2

  9
$PUCSORG
 10
0.0
 20
0.0
 30
0.0
  9
$PUCSXDIR
 10
1.0
 20
0.0
 30
0.0
  9
$PUCSYDIR
 10
0.0
 20
1.0
 30
0.0
  9
$PUCSORTHOREF
  2

  9
$PUCSORTHOVIEW
 70
     0
  9
$PUCSORGTOP
 10
0.0
 20
0.0
 30
0.0
  9
$PUCSORGBOTTOM
 10
0.0
 20
0.0
 30
0.0
  9
$PUCSORGLEFT
 10
0.0
 20
0.0
 30
0.0
  9
$PUCSORGRIGHT
 10
0.0
 20
0.0
 30
0.0
  9
$PUCSORGFRONT
 10
0.0
 20
0.0
 30
0.0
  9
$PUCSORGBACK
 10
0.0
 20
0.0
 30
0.0
  9
$USERI1
 70
     0
  9
$USERI2
 70
     0
  9
$USERI3
 70
     0
  9
$USERI4
 70
     0
  9
$USERI5
 70
     0
  9
$USERR1
 40
0.0
  9
$USERR2
 40
0.0
  9
$USERR3
 40
0.0
  9
$USERR4
 40
0.0
  9
$USERR5
 40
0.0
  9
$WORLDVIEW
 70
     1
  9
$SHADEDGE
 70
     3
  9
$SHADEDIF
 70
    70
  9
$TILEMODE
 70
     1
  9
$MAXACTVP
 70
    64
  9
$PINSBASE
 10
0.0
 20
0.0
 30
0.0
  9
$PLIMCHECK
 70
     0
  9
$PEXTMIN
 10
1.000000000000000E+20
 20
1.000000000000000E+20
 30
1.000000000000000E+20
  9
$PEXTMAX
 10
-1.000000000000000E+20
 20
-1.000000000000000E+20
 30
-1.000000000000000E+20
  9
$PLIMMIN
 10
0.0
 20
0.0
  9
$PLIMMAX
 10
420.0
 20
297.0
  9
$UNITMODE
 70
     0
  9
$VISRETAIN
 70
     1
  9
$PLINEGEN
 70
     0
  9
$PSLTSCALE
 70
     1
  9
$TREEDEPTH
 70
  3020
  9
$CMLSTYLE
  2

  9
$CMLJUST
 70
     0
  9
$CMLSCALE
 40
1.0
  9
$PROXYGRAPHICS
 70
     1
  9
$MEASUREMENT
 70
     1
  9
$CELWEIGHT
370
    -1
  9
$ENDCAPS
280
     0
  9
$JOINSTYLE
280
     0
  9
$LWDISPLAY
290
     0
  9
$INSUNITS
 70
     4
  9
$HYPERLINKBASE
  1

  9
$STYLESHEET
  1

  9
$XEDIT
290
     1
  9
$CEPSNTYPE
380
     0
  9
$PSTYLEMODE
290
     1
  9
$FINGERPRINTGUID
  2
{7ADB3BD3-5344-413F-860A-CD13866642CF}
  9
$VERSIONGUID
  2
{FAEB1C32-E019-11D5-929B-00C0DF256EC4}
  9
$EXTNAMES
290
     1
  9
$PSVPSCALE
 40
0.0
  9
$OLESTARTUP
290
     0
  0
ENDSEC
  0
SECTION
  2
CLASSES
  0
CLASS
  1
ACDBDICTIONARYWDFLT
  2
AcDbDictionaryWithDefault
  3
ObjectDBX Classes
 90
        0
280
     0
281
     0
  0
CLASS
  1
ACDBPLACEHOLDER
  2
AcDbPlaceHolder
  3
ObjectDBX Classes
 90
        0
280
     0
281
     0
  0
CLASS
  1
LAYOUT
  2
AcDbLayout
  3
ObjectDBX Classes
 90
        0
280
     0
281
     0
  0
CLASS
  1
TABLESTYLE
  2
AcDbTableStyle
  3
ObjectDBX Classes
 90
     4095
280
     0
281
     0
  0
CLASS
  1
ACAD_TABLE
  2
AcDbTable
  3
ObjectDBX Classes
 90
     1025
280
     0
281
     1
  0
CLASS
  1
SCALE
  2
AcDbScale
  3
ObjectDBX Classes
 90
     1153
280
     0
281
     0
  0
CLASS
  1
TABLEGEOMETRY
  2
AcDbTableGeometry
  3
ObjectDBX Classes
 90
     1152
280
     0
281
     0
  0
CLASS
  1
VISUALSTYLE
  2
AcDbVisualStyle
  3
ObjectDBX Classes
 90
     4095
280
     0
281
     0
  0
CLASS
  1
MATERIAL
  2
AcDbMaterial
  3
ObjectDBX Classes
 90
     1153
280
     0
281
     0
  0
CLASS
  1
SUN
  2
AcDbSun
  3
SCENEOE
 90
     1153
280
     0
281
     0
  0
CLASS
  1
RASTERVARIABLES
  2
AcDbRasterVariables
  3
ISM
 90
        0
280
     0
281
     0
  0
ENDSEC
  0
SECTION
  2
TABLES
  0
TABLE
  2
VPORT
  5
8
330
0
100
AcDbSymbolTable
 70
     1
  0
VPORT
  5
1F4
330
8
100
AcDbSymbolTableRecord
100
AcDbViewportTableRecord
  2
*ACTIVE
 70
     0
 10
0.0
 20
0.0
 11
1.0
 21
1.0
 12
292.8054594106818
 22
130.9683487173227
 13
0.0
 23
0.0
 14
1.0
 24
1.0
 15
0.0
 25
0.0
 16
0.0
 26
0.0
 36
1.0
 17
0.0
 27
0.0
 37
0.0
 40
371.2499999999999
 41
1.732905982905983
 42
50.0
 43
0.0
 44
0.0
 50
0.0
 51
0.0
 71
    16
 72
   100
 73
     1
 74
     1
 75
     0
 76
     0
 77
     0
 78
     0
281
     0
 65
     1
110
0.0
120
0.0
130
0.0
111
1.0
121
0.0
131
0.0
112
0.0
122
1.0
132
0.0
 79
     0
146
0.0
  0
ENDTAB
  0
TABLE
  2
LTYPE
  5
5
330
0
100
AcDbSymbolTable
 70
     6
  0
LTYPE
  5
14
330
5
100
AcDbSymbolTableRecord
100
AcDbLinetypeTableRecord
  2
BYBLOCK
 70
     0
  3

 72
    65
 73
     0
 40
0.0
  0
LTYPE
  5
15
330
5
100
AcDbSymbolTableRecord
100
AcDbLinetypeTableRecord
  2
BYLAYER
 70
     0
  3

 72
    65
 73
     0
 40
0.0
  0
LTYPE
  5
16
330
5
100
AcDbSymbolTableRecord
100
AcDbLinetypeTableRecord
  2
CONTINUOUS
 70
     0
  3
Solid line
 72
    65
 73
     0
 40
0.0
  0
LTYPE
  5
1F5
330
5
100
AcDbSymbolTableRecord
100
AcDbLinetypeTableRecord
  2
CENTER
 70
     0
  3
____ _ ____ _ ____ _ ____ _ ____ _ ____ _ ____
 72
    65
 73
     4
 40
0.6
 49
0.375
 74
     0
 49
-0.075
 74
     0
 49
0.075
 74
     0
 49
-0.075
 74
     0
  0
LTYPE
  5
1F6
330
5
100
AcDbSymbolTableRecord
100
AcDbLinetypeTableRecord
  2
HIDDEN
 70
     0
  3
- - - - - - - - - - - - - - - - - - - -
 72
    65
 73
     2
 40
0.2
 49
0.1
 74
     0
 49
-0.1
 74
     0
  0
LTYPE
  5
1F7
330
5
100
AcDbSymbolTableRecord
100
AcDbLinetypeTableRecord
  2
PHANTOM
 70
     0
  3
_____ _ _ _____ _ _ _____ _ _ _____
 72
    65
 73
     6
 40
0.8
 49
0.45
 74
     0
 49
-0.05
 74
     0
 49
0.1
 74
     0
 49
-0.05
 74
     0
 49
0.1
 74
     0
 49
-0.05
 74
     0
  0
LTYPE
  5
1F8
330
5
100
AcDbSymbolTableRecord
100
AcDbLinetypeTableRecord
  2
DOT
 70
     0
  3
. . . . . . . . . . . . . . . . . . . .
 72
    65
 73
     2
 40
0.2
 49
0.1
 74
     0
 49
-0.1
 74
     0
  0
LTYPE
  5
1F9
330
5
100
AcDbSymbolTableRecord
100
AcDbLinetypeTableRecord
  2
DASHED
 70
     0
  3
- - - - - - - - - - - - - - - - - - - -
 72
    65
 73
     2
 40
0.2
 49
0.1
 74
     0
 49
-0.1
 74
     0
  0
ENDTAB
  0
TABLE
  2
LAYER
  5
2
330
0
100
AcDbSymbolTable
 70
    36
  0
LAYER
  5
10
330
2
100
AcDbSymbolTableRecord
100
AcDbLayerTableRecord
  2
0
 70
     0
 62
     7
  6
CONTINUOUS
370
    -3
390
F
  0
LAYER
  5
1FA
330
2
100
AcDbSymbolTableRecord
100
AcDbLayerTableRecord
  2
DEFAULT_1
 70
     0
 62
     7
  6
CENTER
370
    -3
390
F
  0
LAYER
  5
1FB
330
2
100
AcDbSymbolTableRecord
100
AcDbLayerTableRecord
  2
DEFAULT_2
 70
     0
 62
     8
  6
HIDDEN
370
    -3
390
F
  0
LAYER
  5
1FC
330
2
100
AcDbSymbolTableRecord
100
AcDbLayerTableRecord
  2
DEFAULT_3
 70
     0
 62
     7
  6
PHANTOM
370
    -3
390
F
  0
LAYER
  5
1FD
330
2
100
AcDbSymbolTableRecord
100
AcDbLayerTableRecord
  2
01_ALL_DTM_PLN
 70
     0
 62
     7
  6
CONTINUOUS
370
    -3
390
F
  0
LAYER
  5
1FE
330
2
100
AcDbSymbolTableRecord
100
AcDbLayerTableRecord
  2
01__ASM_ALL_DTM_PLN
 70
     0
 62
     7
  6
CONTINUOUS
370
    -3
390
F
  0
LAYER
  5
1FF
330
2
100
AcDbSymbolTableRecord
100
AcDbLayerTableRecord
  2
01__ASM_DEF_DTM_PLN
 70
     0
 62
     7
  6
CONTINUOUS
370
    -3
390
F
  0
LAYER
  5
200
330
2
100
AcDbSymbolTableRecord
100
AcDbLayerTableRecord
  2
01___PRT_ALL_DTM_PLN
 70
     0
 62
     7
  6
CONTINUOUS
370
    -3
390
F
  0
LAYER
  5
201
330
2
100
AcDbSymbolTableRecord
100
AcDbLayerTableRecord
  2
01___PRT_DEF_DTM_PLN
 70
     0
 62
     7
  6
CONTINUOUS
370
    -3
390
F
  0
LAYER
  5
202
330
2
100
AcDbSymbolTableRecord
100
AcDbLayerTableRecord
  2
02_ALL_AXES
 70
     0
 62
     7
  6
CONTINUOUS
370
    -3
390
F
  0
LAYER
  5
203
330
2
100
AcDbSymbolTableRecord
100
AcDbLayerTableRecord
  2
02__ASM_ALL_AXES
 70
     0
 62
     7
  6
CONTINUOUS
370
    -3
390
F
  0
LAYER
  5
204
330
2
100
AcDbSymbolTableRecord
100
AcDbLayerTableRecord
  2
02___PRT_ALL_AXES
 70
     0
 62
     7
  6
CONTINUOUS
370
    -3
390
F
  0
LAYER
  5
205
330
2
100
AcDbSymbolTableRecord
100
AcDbLayerTableRecord
  2
03_ALL_CURVES
 70
     0
 62
     7
  6
CONTINUOUS
370
    -3
390
F
  0
LAYER
  5
206
330
2
100
AcDbSymbolTableRecord
100
AcDbLayerTableRecord
  2
03__ASM_ALL_CURVES
 70
     0
 62
     7
  6
CONTINUOUS
370
    -3
390
F
  0
LAYER
  5
207
330
2
100
AcDbSymbolTableRecord
100
AcDbLayerTableRecord
  2
03___PRT_ALL_CURVES
 70
     0
 62
     7
  6
CONTINUOUS
370
    -3
390
F
  0
LAYER
  5
208
330
2
100
AcDbSymbolTableRecord
100
AcDbLayerTableRecord
  2
04_ALL_DTM_PNT
 70
     0
 62
     7
  6
CONTINUOUS
370
    -3
390
F
  0
LAYER
  5
209
330
2
100
AcDbSymbolTableRecord
100
AcDbLayerTableRecord
  2
04__ASM_ALL_DTM_PNT
 70
     0
 62
     7
  6
CONTINUOUS
370
    -3
390
F
  0
LAYER
  5
20A
330
2
100
AcDbSymbolTableRecord
100
AcDbLayerTableRecord
  2
04___PRT_ALL_DTM_PNT
 70
     0
 62
     7
  6
CONTINUOUS
370
    -3
390
F
  0
LAYER
  5
20B
330
2
100
AcDbSymbolTableRecord
100
AcDbLayerTableRecord
  2
05_ALL_DTM_CSYS
 70
     0
 62
     7
  6
CONTINUOUS
370
    -3
390
F
  0
LAYER
  5
20C
330
2
100
AcDbSymbolTableRecord
100
AcDbLayerTableRecord
  2
05__ASM_ALL_DTM_CSYS
 70
     0
 62
     7
  6
CONTINUOUS
370
    -3
390
F
  0
LAYER
  5
20D
330
2
100
AcDbSymbolTableRecord
100
AcDbLayerTableRecord
  2
05__ASM_DEF_DTM_CSYS
 70
     0
 62
     7
  6
CONTINUOUS
370
    -3
390
F
  0
LAYER
  5
20E
330
2
100
AcDbSymbolTableRecord
100
AcDbLayerTableRecord
  2
05___PRT_ALL_DTM_CSYS
 70
     0
 62
     7
  6
CONTINUOUS
370
    -3
390
F
  0
LAYER
  5
20F
330
2
100
AcDbSymbolTableRecord
100
AcDbLayerTableRecord
  2
05___PRT_DEF_DTM_CSYS
 70
     0
 62
     7
  6
CONTINUOUS
370
    -3
390
F
  0
LAYER
  5
210
330
2
100
AcDbSymbolTableRecord
100
AcDbLayerTableRecord
  2
06_ALL_SURFS
 70
     0
 62
     7
  6
CONTINUOUS
370
    -3
390
F
  0
LAYER
  5
211
330
2
100
AcDbSymbolTableRecord
100
AcDbLayerTableRecord
  2
06__ASM_ALL_SURFS
 70
     0
 62
     7
  6
CONTINUOUS
370
    -3
390
F
  0
LAYER
  5
212
330
2
100
AcDbSymbolTableRecord
100
AcDbLayerTableRecord
  2
06___PRT_ALL_SURFS
 70
     0
 62
     7
  6
CONTINUOUS
370
    -3
390
F
  0
LAYER
  5
213
330
2
100
AcDbSymbolTableRecord
100
AcDbLayerTableRecord
  2
07__ASM_ALL_SKELETONS
 70
     0
 62
     7
  6
CONTINUOUS
370
    -3
390
F
  0
LAYER
  5
214
330
2
100
AcDbSymbolTableRecord
100
AcDbLayerTableRecord
  2
1_ALL_PLANES
 70
     0
 62
     7
  6
CONTINUOUS
370
    -3
390
F
  0
LAYER
  5
215
330
2
100
AcDbSymbolTableRecord
100
AcDbLayerTableRecord
  2
2_ALL_CSYS
 70
     0
 62
     7
  6
CONTINUOUS
370
    -3
390
F
  0
LAYER
  5
216
330
2
100
AcDbSymbolTableRecord
100
AcDbLayerTableRecord
  2
3_ALL_AXES
 70
     0
 62
     7
  6
CONTINUOUS
370
    -3
390
F
  0
LAYER
  5
217
330
2
100
AcDbSymbolTableRecord
100
AcDbLayerTableRecord
  2
4_ALL_POINTS
 70
     0
 62
     7
  6
CONTINUOUS
370
    -3
390
F
  0
LAYER
  5
218
330
2
100
AcDbSymbolTableRecord
100
AcDbLayerTableRecord
  2
5_ALL_CURVES
 70
     0
 62
     7
  6
CONTINUOUS
370
    -3
390
F
  0
LAYER
  5
219
330
2
100
AcDbSymbolTableRecord
100
AcDbLayerTableRecord
  2
6_ALL_SURFS
 70
     0
 62
     7
  6
CONTINUOUS
370
    -3
390
F
  0
LAYER
  5
21A
330
2
100
AcDbSymbolTableRecord
100
AcDbLayerTableRecord
  2
7_ALL_FEATURES
 70
     0
 62
     7
  6
CONTINUOUS
370
    -3
390
F
  0
LAYER
  5
21B
330
2
100
AcDbSymbolTableRecord
100
AcDbLayerTableRecord
  2
8_ALL_NOTES_BALLOONS_SYMBOLS_GT
 70
     0
 62
     7
  6
CONTINUOUS
370
    -3
390
F
  0
LAYER
  5
494
330
2
100
AcDbSymbolTableRecord
100
AcDbLayerTableRecord
  2
Defpoints
 70
     0
 62
     7
  6
CONTINUOUS
290
     0
370
    -3
390
F
  0
ENDTAB
  0
TABLE
  2
STYLE
  5
3
330
0
100
AcDbSymbolTable
 70
     6
  0
STYLE
  5
11
330
3
100
AcDbSymbolTableRecord
100
AcDbTextStyleTableRecord
  2
STANDARD
 70
     0
 40
0.0
 41
0.85
 50
0.0
 71
     0
 42
0.2
  3
txt
  4

  0
STYLE
  5
21C
330
3
100
AcDbSymbolTableRecord
100
AcDbTextStyleTableRecord
  2
TEXTSTYLE_1
 70
     0
 40
0.0
 41
0.8
 50
0.0
 71
     0
 42
0.2
  3
gdt
  4

  0
STYLE
  5
21D
330
3
100
AcDbSymbolTableRecord
100
AcDbTextStyleTableRecord
  2
TEXTSTYLE_2
 70
     0
 40
0.0
 41
0.9
 50
0.0
 71
     0
 42
0.2
  3
txt
  4

  0
STYLE
  5
21E
330
3
100
AcDbSymbolTableRecord
100
AcDbTextStyleTableRecord
  2
TEXTSTYLE_3
 70
     0
 40
0.0
 41
0.9
 50
0.0
 71
     0
 42
0.2
  3
txt
  4

  0
STYLE
  5
21F
330
3
100
AcDbSymbolTableRecord
100
AcDbTextStyleTableRecord
  2
TEXTSTYLE_4
 70
     0
 40
0.0
 41
0.85
 50
0.0
 71
     0
 42
0.2
  3
gdt
  4

  0
STYLE
  5
220
330
3
100
AcDbSymbolTableRecord
100
AcDbTextStyleTableRecord
  2
TEXTSTYLE_5
 70
     0
 40
0.0
 41
0.85
 50
0.0
 71
     0
 42
0.2
  3
txt
  4

  0
ENDTAB
  0
TABLE
  2
VIEW
  5
6
330
0
100
AcDbSymbolTable
 70
     0
  0
ENDTAB
  0
TABLE
  2
UCS
  5
7
330
0
100
AcDbSymbolTable
 70
     0
  0
ENDTAB
  0
TABLE
  2
APPID
  5
9
330
0
100
AcDbSymbolTable
 70
     1
  0
APPID
  5
221
330
9
100
AcDbSymbolTableRecord
100
AcDbRegAppTableRecord
  2
ACAD
 70
     0
  0
ENDTAB
  0
TABLE
  2
DIMSTYLE
  5
A
330
0
100
AcDbSymbolTable
 70
     4
100
AcDbDimStyleTable
  0
DIMSTYLE
105
22C
330
A
100
AcDbSymbolTableRecord
100
AcDbDimStyleTableRecord
  2
STANDARD
 70
     0
 41
2.5
 47
0.01
 48
0.01
 71
     1
 73
     0
 74
     0
 77
     1
 78
     8
140
3.0
178
     0
271
     2
272
     2
284
     8
340
11
341
224
342
224
343
224
344
224
  0
DIMSTYLE
105
22D
330
A
100
AcDbSymbolTableRecord
100
AcDbDimStyleTableRecord
  2
DIMSTYLE_1
 70
     0
 41
2.5
 47
0.3
 48
0.3
 73
     0
 74
     0
 77
     1
 78
     8
140
3.0
178
     0
271
     0
272
     0
284
     8
340
11
341
224
342
224
343
224
344
224
  0
DIMSTYLE
105
22E
330
A
100
AcDbSymbolTableRecord
100
AcDbDimStyleTableRecord
  2
DIMSTYLE_2
 70
     0
 41
2.5
 47
0.3
 48
0.3
 73
     0
 74
     0
 77
     1
 78
     8
140
3.0
178
     0
271
     2
272
     2
284
     8
340
11
341
224
342
224
343
224
344
224
  0
DIMSTYLE
105
22F
330
A
100
AcDbSymbolTableRecord
100
AcDbDimStyleTableRecord
  2
DIMSTYLE_3
 70
     0
 41
2.5
 47
0.1
 48
0.1
 73
     0
 74
     0
 77
     1
 78
     8
140
3.0
178
     0
271
     2
272
     2
284
     8
340
11
341
224
342
224
343
224
344
224
  0
ENDTAB
  0
TABLE
  2
BLOCK_RECORD
  5
1
330
0
100
AcDbSymbolTable
 70
     8
  0
BLOCK_RECORD
  5
222
330
1
100
AcDbSymbolTableRecord
100
AcDbBlockTableRecord
  2
*Model_Space
340
44B
  0
BLOCK_RECORD
  5
223
330
1
100
AcDbSymbolTableRecord
100
AcDbBlockTableRecord
  2
*Paper_Space
340
44C
  0
BLOCK_RECORD
  5
224
330
1
100
AcDbSymbolTableRecord
100
AcDbBlockTableRecord
  2
_CLOSED
340
0
102
{BLKREFS
331
0
331
0
331
0
331
0
331
0
331
0
331
0
331
0
331
0
331
0
331
289
331
288
331
280
331
27F
331
277
331
276
331
292
331
291
331
29D
331
29C
102
}
  0
BLOCK_RECORD
  5
225
330
1
100
AcDbSymbolTableRecord
100
AcDbBlockTableRecord
  2
*D1
340
0
  0
BLOCK_RECORD
  5
226
330
1
100
AcDbSymbolTableRecord
100
AcDbBlockTableRecord
  2
*D2
340
0
  0
BLOCK_RECORD
  5
227
330
1
100
AcDbSymbolTableRecord
100
AcDbBlockTableRecord
  2
*D3
340
0
  0
BLOCK_RECORD
  5
228
330
1
100
AcDbSymbolTableRecord
100
AcDbBlockTableRecord
  2
*D4
340
0
  0
BLOCK_RECORD
  5
229
330
1
100
AcDbSymbolTableRecord
100
AcDbBlockTableRecord
  2
*D5
340
0
  0
BLOCK_RECORD
  5
22A
330
1
100
AcDbSymbolTableRecord
100
AcDbBlockTableRecord
  2
LOGO2_BL0
340
0
102
{BLKREFS
331
2C7
102
}
  0
BLOCK_RECORD
  5
22B
330
1
100
AcDbSymbolTableRecord
100
AcDbBlockTableRecord
  2
*T7
340
0
102
{BLKREFS
331
2C8
331
2C8
102
}
  0
ENDTAB
  0
ENDSEC
  0
SECTION
  2
BLOCKS
  0
BLOCK
  5
20
330
222
100
AcDbEntity
  8
0
100
AcDbBlockBegin
  2
*Model_Space
 70
     0
 10
0.0
 20
0.0
 30
0.0
  3
*Model_Space
  1
*Model_Space
  0
ENDBLK
  5
21
330
222
100
AcDbEntity
  8
0
100
AcDbBlockEnd
  0
BLOCK
  5
1C
330
223
100
AcDbEntity
 67
     1
  8
0
100
AcDbBlockBegin
  2
*Paper_Space
 70
     0
 10
0.0
 20
0.0
 30
0.0
  3
*Paper_Space
  1
*Paper_Space
  0
ENDBLK
  5
1D
330
223
100
AcDbEntity
 67
     1
  8
0
100
AcDbBlockEnd
  0
BLOCK
  5
26C
330
224
100
AcDbEntity
  8
0
100
AcDbBlockBegin
  2
_CLOSED
 70
     0
 10
0.0
 20
0.0
 30
0.0
  3
_CLOSED
  1
_CLOSED
  0
LINE
  5
26D
330
224
100
AcDbEntity
  8
0
  6
ByBlock
 62
     0
100
AcDbLine
 10
0.0
 20
0.0
 30
0.0
 11
-1.0
 21
0.2
 31
0.0
  0
LINE
  5
26E
330
224
100
AcDbEntity
  8
0
  6
ByBlock
 62
     0
100
AcDbLine
 10
-1.0
 20
0.2
 30
0.0
 11
-1.0
 21
-0.2
 31
0.0
  0
LINE
  5
26F
330
224
100
AcDbEntity
  8
0
  6
ByBlock
 62
     0
100
AcDbLine
 10
-1.0
 20
-0.2
 30
0.0
 11
0.0
 21
0.0
 31
0.0
  0
LINE
  5
270
330
224
100
AcDbEntity
  8
0
  6
ByBlock
 62
     0
100
AcDbLine
 10
-1.0
 20
0.0
 30
0.0
 11
0.0
 21
0.0
 31
0.0
  0
ENDBLK
  5
271
330
224
100
AcDbEntity
  8
0
  6
ByBlock
 62
     0
100
AcDbBlockEnd
  0
BLOCK
  5
272
330
225
100
AcDbEntity
  8
0
100
AcDbBlockBegin
  2
*D1
 70
     1
 10
0.0
 20
0.0
 30
0.0
  3
*D1
  1
*D1
  0
LINE
  5
273
330
225
100
AcDbEntity
  8
0
  6
Continuous
 62
     0
370
    -2
100
AcDbLine
 10
104.1505886912
 20
53.7396928267
 30
0.0
 11
110.8808591732
 21
53.7396928267
 31
0.0
  0
LINE
  5
274
330
225
100
AcDbEntity
  8
0
  6
Continuous
 62
     0
370
    -2
100
AcDbLine
 10
104.1505886912
 20
105.5396928267
 30
0.0
 11
110.8808591732
 21
105.5396928267
 31
0.0
  0
LINE
  5
275
330
225
100
AcDbEntity
  8
0
  6
Continuous
 62
     0
370
    -2
100
AcDbLine
 10
110.7008591732
 20
56.2396928267
 30
0.0
 11
110.7008591732
 21
103.0396928267
 31
0.0
  0
INSERT
  5
276
330
225
100
AcDbEntity
  8
0
 62
     0
370
    -2
100
AcDbBlockReference
  2
_CLOSED
 10
110.7008591732
 20
53.7396928267
 30
0.0
 41
2.5
 42
2.5
 43
2.5
 50
270.0
  0
INSERT
  5
277
330
225
100
AcDbEntity
  8
0
 62
     0
370
    -2
100
AcDbBlockReference
  2
_CLOSED
 10
110.7008591732
 20
105.5396928267
 30
0.0
 41
2.5
 42
2.5
 43
2.5
 50
90.0
  0
MTEXT
  5
278
330
225
100
AcDbEntity
  8
0
 62
     0
100
AcDbMText
 10
105.7008591732
 20
79.6396928267
 30
0.0
 40
3.0
 41
0.0
 71
     2
 72
     1
  1
\A1;52
 11
0.0
 21
1.0
 31
0.0
 73
     1
 44
1.0
  0
POINT
  5
279
330
225
100
AcDbEntity
  8
Defpoints
 62
     0
100
AcDbPoint
 10
104.0880886912
 20
53.7396928267
 30
0.0
  0
POINT
  5
499
330
225
100
AcDbEntity
  8
Defpoints
 62
     0
100
AcDbPoint
 10
104.0880886912
 20
105.5396928267
 30
0.0
  0
POINT
  5
49A
330
225
100
AcDbEntity
  8
Defpoints
 62
     0
100
AcDbPoint
 10
110.7008591732
 20
105.5396928267
 30
0.0
  0
ENDBLK
  5
27A
330
225
100
AcDbEntity
  8
0
  6
ByBlock
 62
     0
100
AcDbBlockEnd
  0
BLOCK
  5
27B
330
226
100
AcDbEntity
  8
0
100
AcDbBlockBegin
  2
*D2
 70
     1
 10
0.0
 20
0.0
 30
0.0
  3
*D2
  1
*D2
  0
LINE
  5
27C
330
226
100
AcDbEntity
  8
0
  6
Continuous
 62
     0
370
    -2
100
AcDbLine
 10
46.9426935369
 20
175.2023320681
 30
0.0
 11
46.9426935369
 21
168.8477853245
 31
0.0
  0
LINE
  5
27D
330
226
100
AcDbEntity
  8
0
  6
Continuous
 62
     0
370
    -2
100
AcDbLine
 10
101.9426935369
 20
174.88815025
 30
0.0
 11
101.9426935369
 21
168.8477853245
 31
0.0
  0
LINE
  5
27E
330
226
100
AcDbEntity
  8
0
  6
Continuous
 62
     0
370
    -2
100
AcDbLine
 10
49.4426935369
 20
169.0277853245
 30
0.0
 11
99.4426935369
 21
169.0277853245
 31
0.0
  0
INSERT
  5
27F
330
226
100
AcDbEntity
  8
0
 62
     0
370
    -2
100
AcDbBlockReference
  2
_CLOSED
 10
46.9426935369
 20
169.0277853245
 30
0.0
 41
2.5
 42
2.5
 43
2.5
 50
180.0
  0
INSERT
  5
280
330
226
100
AcDbEntity
  8
0
 62
     0
370
    -2
100
AcDbBlockReference
  2
_CLOSED
 10
101.9426935369
 20
169.0277853245
 30
0.0
 41
2.5
 42
2.5
 43
2.5
  0
MTEXT
  5
281
330
226
100
AcDbEntity
  8
0
 62
     0
100
AcDbMText
 10
74.4426935369
 20
174.0277853245
 30
0.0
 40
3.0
 41
0.0
 71
     2
 72
     1
  1
\A1;55
 73
     1
 44
1.0
  0
POINT
  5
282
330
226
100
AcDbEntity
  8
Defpoints
 62
     0
100
AcDbPoint
 10
46.9426935369
 20
175.2648320681
 30
0.0
  0
POINT
  5
497
330
226
100
AcDbEntity
  8
Defpoints
 62
     0
100
AcDbPoint
 10
101.9426935369
 20
174.95065025
 30
0.0
  0
POINT
  5
498
330
226
100
AcDbEntity
  8
Defpoints
 62
     0
100
AcDbPoint
 10
101.9426935369
 20
169.0277853245
 30
0.0
  0
ENDBLK
  5
283
330
226
100
AcDbEntity
  8
0
  6
ByBlock
 62
     0
100
AcDbBlockEnd
  0
BLOCK
  5
284
330
227
100
AcDbEntity
  8
0
100
AcDbBlockBegin
  2
*D3
 70
     1
 10
0.0
 20
0.0
 30
0.0
  3
*D3
  1
*D3
  0
LINE
  5
285
330
227
100
AcDbEntity
  8
0
  6
Continuous
 62
     0
370
    -2
100
AcDbLine
 10
104.3248211486
 20
249.2624289773
 30
0.0
 11
110.8328512858
 21
249.2624289773
 31
0.0
  0
LINE
  5
286
330
227
100
AcDbEntity
  8
0
  6
Continuous
 62
     0
370
    -2
100
AcDbLine
 10
103.7983211486
 20
194.2624289773
 30
0.0
 11
110.8328512858
 21
194.2624289773
 31
0.0
  0
LINE
  5
287
330
227
100
AcDbEntity
  8
0
  6
Continuous
 62
     0
370
    -2
100
AcDbLine
 10
110.6528512858
 20
246.7624289773
 30
0.0
 11
110.6528512858
 21
196.7624289773
 31
0.0
  0
INSERT
  5
288
330
227
100
AcDbEntity
  8
0
 62
     0
370
    -2
100
AcDbBlockReference
  2
_CLOSED
 10
110.6528512858
 20
249.2624289773
 30
0.0
 41
2.5
 42
2.5
 43
2.5
 50
89.99999999999999
  0
INSERT
  5
289
330
227
100
AcDbEntity
  8
0
 62
     0
370
    -2
100
AcDbBlockReference
  2
_CLOSED
 10
110.6528512858
 20
194.2624289773
 30
0.0
 41
2.5
 42
2.5
 43
2.5
 50
270.0
  0
MTEXT
  5
28A
330
227
100
AcDbEntity
  8
0
 62
     0
100
AcDbMText
 10
105.6528512858
 20
221.7624289773
 30
0.0
 40
3.0
 41
0.0
 71
     2
 72
     1
  1
\A1;55
 11
2.583791766400364E-16
 21
1.0
 31
0.0
 73
     1
 44
1.0
  0
POINT
  5
28B
330
227
100
AcDbEntity
  8
Defpoints
 62
     0
100
AcDbPoint
 10
104.2623211486
 20
249.2624289773
 30
0.0
  0
POINT
  5
495
330
227
100
AcDbEntity
  8
Defpoints
 62
     0
100
AcDbPoint
 10
103.7358211486
 20
194.2624289773
 30
0.0
  0
POINT
  5
496
330
227
100
AcDbEntity
  8
Defpoints
 62
     0
100
AcDbPoint
 10
110.6528512858
 20
194.2624289773
 30
0.0
  0
ENDBLK
  5
28C
330
227
100
AcDbEntity
  8
0
  6
ByBlock
 62
     0
100
AcDbBlockEnd
  0
BLOCK
  5
28D
330
228
100
AcDbEntity
  8
0
100
AcDbBlockBegin
  2
*D4
 70
     1
 10
0.0
 20
0.0
 30
0.0
  3
*D4
  1
*D4
  0
LINE
  5
28E
330
228
100
AcDbEntity
  8
0
  6
Continuous
 62
     0
370
    -2
100
AcDbLine
 10
177.8539370932
 20
241.7624289773
 30
0.0
 11
169.376629128
 21
241.7624289773
 31
0.0
  0
LINE
  5
28F
330
228
100
AcDbEntity
  8
0
  6
Continuous
 62
     0
370
    -2
100
AcDbLine
 10
178.1681189113
 20
201.7624289773
 30
0.0
 11
169.376629128
 21
201.7624289773
 31
0.0
  0
LINE
  5
290
330
228
100
AcDbEntity
  8
0
  6
Continuous
 62
     0
370
    -2
100
AcDbLine
 10
169.556629128
 20
239.2624289773
 30
0.0
 11
169.556629128
 21
204.2624289773
 31
0.0
  0
INSERT
  5
291
330
228
100
AcDbEntity
  8
0
 62
     0
370
    -2
100
AcDbBlockReference
  2
_CLOSED
 10
169.556629128
 20
241.7624289773
 30
0.0
 41
2.5
 42
2.5
 43
2.5
 50
90.0
  0
INSERT
  5
292
330
228
100
AcDbEntity
  8
0
 62
     0
370
    -2
100
AcDbBlockReference
  2
_CLOSED
 10
169.556629128
 20
201.7624289773
 30
0.0
 41
2.5
 42
2.5
 43
2.5
 50
270.0
  0
MTEXT
  5
293
330
228
100
AcDbEntity
  8
0
 62
     0
100
AcDbMText
 10
164.556629128
 20
221.7624289773
 30
0.0
 40
3.0
 41
0.0
 71
     2
 72
     1
  1
\A1;%%c40
 11
0.0
 21
1.0
 31
0.0
 73
     1
 44
1.0
  0
POINT
  5
294
330
228
100
AcDbEntity
  8
Defpoints
 62
     0
100
AcDbPoint
 10
177.9164370932
 20
241.7624289773
 30
0.0
  0
POINT
  5
49B
330
228
100
AcDbEntity
  8
Defpoints
 62
     0
100
AcDbPoint
 10
178.2306189113
 20
201.7624289773
 30
0.0
  0
POINT
  5
49C
330
228
100
AcDbEntity
  8
Defpoints
 62
     0
100
AcDbPoint
 10
169.556629128
 20
201.7624289773
 30
0.0
  0
ENDBLK
  5
295
330
228
100
AcDbEntity
  8
0
  6
ByBlock
 62
     0
100
AcDbBlockEnd
  0
BLOCK
  5
296
330
229
100
AcDbEntity
  8
0
100
AcDbBlockBegin
  2
*D5
 70
     1
 10
0.0
 20
0.0
 30
0.0
  3
*D5
  1
*D5
  0
LINE
  5
297
330
229
100
AcDbEntity
  8
0
  6
Continuous
 62
     0
370
    -2
100
AcDbLine
 10
232.63046875
 20
251.1302304284
 30
0.0
 11
232.63046875
 21
271.6689384603923
 31
0.0
  0
LINE
  5
298
330
229
100
AcDbEntity
  8
0
  6
Continuous
 62
     0
370
    -2
100
AcDbLine
 10
231.03046875
 20
251.0296922466
 30
0.0
 11
231.03046875
 21
271.6689384603923
 31
0.0
  0
LINE
  5
299
330
229
100
AcDbEntity
  8
0
  6
Continuous
 62
     0
370
    -2
100
AcDbLine
 10
232.63046875
 20
271.4889384603923
 30
0.0
 11
247.4429922265385
 21
271.4889384603923
 31
0.0
  0
LINE
  5
29A
330
229
100
AcDbEntity
  8
0
  6
Continuous
 62
     0
370
    -2
100
AcDbLine
 10
235.13046875
 20
271.4889384603923
 30
0.0
 11
237.63046875
 21
271.4889384603923
 31
0.0
  0
LINE
  5
29B
330
229
100
AcDbEntity
  8
0
  6
Continuous
 62
     0
370
    -2
100
AcDbLine
 10
228.53046875
 20
271.4889384603923
 30
0.0
 11
226.03046875
 21
271.4889384603923
 31
0.0
  0
INSERT
  5
29C
330
229
100
AcDbEntity
  8
0
 62
     0
370
    -2
100
AcDbBlockReference
  2
_CLOSED
 10
232.63046875
 20
271.4889384603923
 30
0.0
 41
2.5
 42
2.5
 43
2.5
 50
180.0
  0
INSERT
  5
29D
330
229
100
AcDbEntity
  8
0
 62
     0
370
    -2
100
AcDbBlockReference
  2
_CLOSED
 10
231.03046875
 20
271.4889384603923
 30
0.0
 41
2.5
 42
2.5
 43
2.5
  0
MTEXT
  5
29E
330
229
100
AcDbEntity
  8
0
 62
     0
100
AcDbMText
 10
241.1929922265385
 20
276.4889384603923
 30
0.0
 40
3.0
 41
0.0
 71
     1
 72
     1
  1
\A1;1.6
 73
     1
 44
1.0
  0
POINT
  5
29F
330
229
100
AcDbEntity
  8
Defpoints
 62
     0
100
AcDbPoint
 10
232.63046875
 20
251.0677304284
 30
0.0
  0
POINT
  5
49D
330
229
100
AcDbEntity
  8
Defpoints
 62
     0
100
AcDbPoint
 10
231.03046875
 20
250.9671922466
 30
0.0
  0
POINT
  5
49E
330
229
100
AcDbEntity
  8
Defpoints
 62
     0
100
AcDbPoint
 10
231.03046875
 20
271.4889384603923
 30
0.0
  0
ENDBLK
  5
2A0
330
229
100
AcDbEntity
  8
0
  6
ByBlock
 62
     0
100
AcDbBlockEnd
  0
BLOCK
  5
230
330
22A
100
AcDbEntity
  8
0
100
AcDbBlockBegin
  2
LOGO2_BL0
 70
     0
 10
333.1473869546
 20
37.5239270671
 30
0.0
  3
LOGO2_BL0
  1
LOGO2_BL0
  0
LINE
  5
231
330
22A
100
AcDbEntity
  8
0
  6
Continuous
 62
     7
100
AcDbLine
 10
324.8903121828
 20
40.7194184059
 30
0.0
 11
323.5859712535
 21
40.7194184059
 31
0.0
  0
LINE
  5
232
330
22A
100
AcDbEntity
  8
0
  6
Continuous
 62
     7
100
AcDbLine
 10
323.5859712535
 20
40.7194184059
 30
0.0
 11
323.5859712535
 21
30.260352346
 31
0.0
  0
LINE
  5
233
330
22A
100
AcDbEntity
  8
0
  6
Continuous
 62
     7
100
AcDbLine
 10
323.5859712535
 20
30.260352346
 30
0.0
 11
328.0670261417
 21
30.260352346
 31
0.0
  0
LINE
  5
234
330
22A
100
AcDbEntity
  8
0
  6
Continuous
 62
     7
100
AcDbLine
 10
328.0670261417
 20
30.260352346
 30
0.0
 11
328.0670261417
 21
31.4532066711
 31
0.0
  0
LINE
  5
235
330
22A
100
AcDbEntity
  8
0
  6
Continuous
 62
     7
100
AcDbLine
 10
328.0670261417
 20
31.4532066711
 30
0.0
 11
324.8903121828
 21
31.4532066711
 31
0.0
  0
LINE
  5
236
330
22A
100
AcDbEntity
  8
0
  6
Continuous
 62
     7
100
AcDbLine
 10
324.8903121828
 20
31.4532066711
 30
0.0
 11
324.8903121828
 21
40.7194184059
 31
0.0
  0
LINE
  5
237
330
22A
100
AcDbEntity
  8
0
  6
Continuous
 62
     7
100
AcDbLine
 10
339.8266383991
 20
40.7194184059
 30
0.0
 11
338.522820881
 21
40.7194184059
 31
0.0
  0
LINE
  5
238
330
22A
100
AcDbEntity
  8
0
  6
Continuous
 62
     7
100
AcDbLine
 10
338.522820881
 20
40.7194184059
 30
0.0
 11
338.522820881
 21
30.260352346
 31
0.0
  0
LINE
  5
239
330
22A
100
AcDbEntity
  8
0
  6
Continuous
 62
     7
100
AcDbLine
 10
338.522820881
 20
30.260352346
 30
0.0
 11
343.0040066221
 21
30.260352346
 31
0.0
  0
LINE
  5
23A
330
22A
100
AcDbEntity
  8
0
  6
Continuous
 62
     7
100
AcDbLine
 10
343.0040066221
 20
30.260352346
 30
0.0
 11
343.0040066221
 21
31.4532066711
 31
0.0
  0
LINE
  5
23B
330
22A
100
AcDbEntity
  8
0
  6
Continuous
 62
     7
100
AcDbLine
 10
343.0040066221
 20
31.4532066711
 30
0.0
 11
339.8266383991
 21
31.4532066711
 31
0.0
  0
LINE
  5
23C
330
22A
100
AcDbEntity
  8
0
  6
Continuous
 62
     7
100
AcDbLine
 10
339.8266383991
 20
31.4532066711
 30
0.0
 11
339.8266383991
 21
40.7194184059
 31
0.0
  0
LWPOLYLINE
  5
23D
330
22A
100
AcDbEntity
  8
0
  6
Continuous
 62
     7
100
AcDbPolyline
 90
        2
 70
     0
 43
0.2
 10
321.9403661644
 20
26.9168010391
 10
321.9403661644
 20
25.0597377898
  0
LWPOLYLINE
  5
23E
330
22A
100
AcDbEntity
  8
0
  6
Continuous
 62
     7
100
AcDbPolyline
 90
        2
 70
     0
 43
0.2
 10
321.9403661644
 20
25.0597377898
 10
322.7360821748
 20
25.0597377898
  0
LWPOLYLINE
  5
23F
330
22A
100
AcDbEntity
  8
0
  6
Continuous
 62
     7
100
AcDbPolyline
 90
        2
 70
     0
 43
0.2
 10
322.7360821748
 20
25.0597377898
 10
322.7360821748
 20
25.2717193614
  0
LWPOLYLINE
  5
240
330
22A
100
AcDbEntity
  8
0
  6
Continuous
 62
     7
100
AcDbPolyline
 90
        2
 70
     0
 43
0.2
 10
322.7360821748
 20
25.2717193614
 10
322.1719756593
 20
25.2717193614
  0
LWPOLYLINE
  5
241
330
22A
100
AcDbEntity
  8
0
  6
Continuous
 62
     7
100
AcDbPolyline
 90
        2
 70
     0
 43
0.2
 10
322.1719756593
 20
25.2717193614
 10
322.1719756593
 20
26.9168010391
  0
LWPOLYLINE
  5
242
330
22A
100
AcDbEntity
  8
0
  6
Continuous
 62
     7
100
AcDbPolyline
 90
        2
 70
     0
 43
0.2
 10
322.1719756593
 20
26.9168010391
 10
321.9403661644
 20
26.9168010391
  0
SPLINE
  5
243
330
22A
100
AcDbEntity
  8
0
  6
Continuous
 62
     7
100
AcDbSpline
 70
     3
 71
     3
 72
    35
 73
    31
 74
     0
 42
0.000000001
 43
0.0000001
 40
0.0
 40
0.0
 40
0.0
 40
0.0
 40
1.0
 40
1.0
 40
1.0
 40
2.0
 40
2.0
 40
2.0
 40
3.0
 40
3.0
 40
3.0
 40
4.0
 40
4.0
 40
4.0
 40
5.0
 40
5.0
 40
5.0
 40
6.0
 40
6.0
 40
6.0
 40
7.0
 40
7.0
 40
7.0
 40
8.0
 40
8.0
 40
8.0
 40
9.0
 40
9.0
 40
9.0
 40
10.0
 40
10.0
 40
10.0
 40
10.0
 10
324.1343754303
 20
26.2122894457
 30
0.0
 10
324.1343754303
 20
26.2122894457
 30
0.0
 10
324.1343754303
 20
25.5501741665
 30
0.0
 10
324.1343754303
 20
25.5501741665
 30
0.0
 10
324.1343754303
 20
25.2350805712
 30
0.0
 10
324.2822391191
 20
25.0204819432
 30
0.0
 10
324.6223256034
 20
25.0204819432
 30
0.0
 10
324.9618886764
 20
25.0204819432
 30
0.0
 10
325.1100140709
 20
25.2350805712
 30
0.0
 10
325.1100140709
 20
25.5501741665
 30
0.0
 10
325.1100140709
 20
25.5501741665
 30
0.0
 10
325.1100140709
 20
26.2122894457
 30
0.0
 10
325.1100140709
 20
26.2122894457
 30
0.0
 10
325.1100140709
 20
26.2122894457
 30
0.0
 10
324.887956832
 20
26.2122894457
 30
0.0
 10
324.887956832
 20
26.2122894457
 30
0.0
 10
324.887956832
 20
26.2122894457
 30
0.0
 10
324.887956832
 20
25.5752979083
 30
0.0
 10
324.887956832
 20
25.5752979083
 30
0.0
 10
324.887956832
 20
25.3894869011
 30
0.0
 10
324.8412423746
 20
25.2267059906
 30
0.0
 10
324.6223256034
 20
25.2267059906
 30
0.0
 10
324.402885421
 20
25.2267059906
 30
0.0
 10
324.3561709636
 20
25.3894869011
 30
0.0
 10
324.3561709636
 20
25.5752979083
 30
0.0
 10
324.3561709636
 20
25.5752979083
 30
0.0
 10
324.3561709636
 20
26.2122894457
 30
0.0
 10
324.3561709636
 20
26.2122894457
 30
0.0
 10
324.3561709636
 20
26.2122894457
 30
0.0
 10
324.1343754303
 20
26.2122894457
 30
0.0
 10
324.1343754303
 20
26.2122894457
 30
0.0
  0
SPLINE
  5
244
330
22A
100
AcDbEntity
  8
0
  6
Continuous
 62
     7
100
AcDbSpline
 70
     3
 71
     3
 72
    35
 73
    31
 74
     0
 42
0.000000001
 43
0.0000001
 40
0.0
 40
0.0
 40
0.0
 40
0.0
 40
1.0
 40
1.0
 40
1.0
 40
2.0
 40
2.0
 40
2.0
 40
3.0
 40
3.0
 40
3.0
 40
4.0
 40
4.0
 40
4.0
 40
5.0
 40
5.0
 40
5.0
 40
6.0
 40
6.0
 40
6.0
 40
7.0
 40
7.0
 40
7.0
 40
8.0
 40
8.0
 40
8.0
 40
9.0
 40
9.0
 40
9.0
 40
10.0
 40
10.0
 40
10.0
 40
10.0
 10
327.5331466281
 20
26.1709399539
 30
0.0
 10
327.4446901205
 20
26.2222342601
 30
0.0
 10
327.3312407238
 20
26.2473580019
 30
0.0
 10
327.2276052888
 20
26.2473580019
 30
0.0
 10
326.8727324356
 20
26.2473580019
 30
0.0
 10
326.5972872454
 20
25.9835587129
 30
0.0
 10
326.5972872454
 20
25.6260688032
 30
0.0
 10
326.5972872454
 20
25.2811407645
 30
0.0
 10
326.8757420505
 20
25.0210053545
 30
0.0
 10
327.2153051235
 20
25.0210053545
 30
0.0
 10
327.3312407238
 20
25.0210053545
 30
0.0
 10
327.4319973967
 20
25.0429886286
 30
0.0
 10
327.5331466281
 20
25.0968999912
 30
0.0
 10
327.5331466281
 20
25.0968999912
 30
0.0
 10
327.5331466281
 20
25.3795420867
 30
0.0
 10
327.5331466281
 20
25.3795420867
 30
0.0
 10
327.4492699692
 20
25.2863748774
 30
0.0
 10
327.345765387
 20
25.2272294019
 30
0.0
 10
327.2176604743
 20
25.2272294019
 30
0.0
 10
326.9839573343
 20
25.2272294019
 30
0.0
 10
326.8186902202
 20
25.3994317156
 30
0.0
 10
326.8186902202
 20
25.6360136177
 30
0.0
 10
326.8186902202
 20
25.8479951893
 30
0.0
 10
326.9864435379
 20
26.040087132
 30
0.0
 10
327.2032666639
 20
26.040087132
 30
0.0
 10
327.3360822782
 20
26.040087132
 30
0.0
 10
327.4446901205
 20
25.9861757693
 30
0.0
 10
327.5331466281
 20
25.8851573907
 30
0.0
 10
327.5331466281
 20
25.8851573907
 30
0.0
 10
327.5331466281
 20
26.1709399539
 30
0.0
 10
327.5331466281
 20
26.1709399539
 30
0.0
  0
SPLINE
  5
245
330
22A
100
AcDbEntity
  8
0
  6
Continuous
 62
     7
100
AcDbSpline
 70
     3
 71
     3
 72
    32
 73
    28
 74
     0
 42
0.000000001
 43
0.0000001
 40
0.0
 40
0.0
 40
0.0
 40
0.0
 40
1.0
 40
1.0
 40
1.0
 40
2.0
 40
2.0
 40
2.0
 40
3.0
 40
3.0
 40
3.0
 40
4.0
 40
4.0
 40
4.0
 40
5.0
 40
5.0
 40
5.0
 40
6.0
 40
6.0
 40
6.0
 40
7.0
 40
7.0
 40
7.0
 40
8.0
 40
8.0
 40
8.0
 40
9.0
 40
9.0
 40
9.0
 40
9.0
 10
330.0650178804
 20
25.5993748276
 30
0.0
 10
330.0650178804
 20
25.5993748276
 30
0.0
 10
330.0650178804
 20
25.6333965613
 30
0.0
 10
330.0650178804
 20
25.6333965613
 30
0.0
 10
330.0650178804
 20
25.9757075435
 30
0.0
 10
329.8921613025
 20
26.2473580019
 30
0.0
 10
329.5255116954
 20
26.2473580019
 30
0.0
 10
329.153889681
 20
26.2473580019
 30
0.0
 10
328.9641530891
 20
25.9809416564
 30
0.0
 10
328.9641530891
 20
25.6260688032
 30
0.0
 10
328.9641530891
 20
25.2863748774
 30
0.0
 10
329.1782283059
 20
25.0204819432
 30
0.0
 10
329.5303532498
 20
25.0204819432
 30
0.0
 10
329.754373281
 20
25.0204819432
 30
0.0
 10
329.9565408909
 20
25.1361558378
 30
0.0
 10
330.0650178804
 20
25.3355755385
 30
0.0
 10
330.0650178804
 20
25.3355755385
 30
0.0
 10
329.8773749337
 20
25.4423514412
 30
0.0
 10
329.8773749337
 20
25.4423514412
 30
0.0
 10
329.7938908332
 20
25.3036474499
 30
0.0
 10
329.7026864163
 20
25.2178079987
 30
0.0
 10
329.5331011591
 20
25.2178079987
 30
0.0
 10
329.3211195875
 20
25.2178079987
 30
0.0
 10
329.1881731204
 20
25.4025721833
 30
0.0
 10
329.1858177696
 20
25.5993748276
 30
0.0
 10
329.1858177696
 20
25.5993748276
 30
0.0
 10
330.0650178804
 20
25.5993748276
 30
0.0
 10
330.0650178804
 20
25.5993748276
 30
0.0
  0
SPLINE
  5
246
330
22A
100
AcDbEntity
  8
0
  6
Continuous
 62
     7
100
AcDbSpline
 70
     3
 71
     3
 72
    14
 73
    10
 74
     0
 42
0.000000001
 43
0.0000001
 40
0.0
 40
0.0
 40
0.0
 40
0.0
 40
1.0
 40
1.0
 40
1.0
 40
2.0
 40
2.0
 40
2.0
 40
3.0
 40
3.0
 40
3.0
 40
3.0
 10
329.1978562292
 20
25.7668664397
 30
0.0
 10
329.2254661746
 20
25.9317409954
 30
0.0
 10
329.3533093817
 20
26.054742648
 30
0.0
 10
329.5255116954
 20
26.054742648
 30
0.0
 10
329.7026864163
 20
26.054742648
 30
0.0
 10
329.816135813
 20
25.9390687534
 30
0.0
 10
329.8433531999
 20
25.7668664397
 30
0.0
 10
329.8433531999
 20
25.7668664397
 30
0.0
 10
329.1978562292
 20
25.7668664397
 30
0.0
 10
329.1978562292
 20
25.7668664397
 30
0.0
  0
SPLINE
  5
247
330
22A
100
AcDbEntity
  8
0
  6
Continuous
 62
     7
100
AcDbSpline
 70
     3
 71
     3
 72
    20
 73
    16
 74
     0
 42
0.000000001
 43
0.0000001
 40
0.0
 40
0.0
 40
0.0
 40
0.0
 40
1.0
 40
1.0
 40
1.0
 40
2.0
 40
2.0
 40
2.0
 40
3.0
 40
3.0
 40
3.0
 40
4.0
 40
4.0
 40
4.0
 40
5.0
 40
5.0
 40
5.0
 40
5.0
 10
332.0890493306
 20
25.9762309548
 30
0.0
 10
332.0890493306
 20
25.9762309548
 30
0.0
 10
332.5001888972
 20
25.4737561185
 30
0.0
 10
332.5001888972
 20
25.4737561185
 30
0.0
 10
332.3841224441
 20
25.3580822239
 30
0.0
 10
332.2463344226
 20
25.2277528132
 30
0.0
 10
332.0743938145
 20
25.2277528132
 30
0.0
 10
331.8969573879
 20
25.2277528132
 30
0.0
 10
331.7294657758
 20
25.3921039576
 30
0.0
 10
331.7294657758
 20
25.5690169729
 30
0.0
 10
331.7294657758
 20
25.7469768107
 30
0.0
 10
331.9392228494
 20
25.8731189311
 30
0.0
 10
332.0668043508
 20
25.9610520275
 30
0.0
 10
332.0668043508
 20
25.9610520275
 30
0.0
 10
332.0890493306
 20
25.9762309548
 30
0.0
 10
332.0890493306
 20
25.9762309548
 30
0.0
  0
SPLINE
  5
248
330
22A
100
AcDbEntity
  8
0
  6
Continuous
 62
     7
100
AcDbSpline
 70
     3
 71
     3
 72
    23
 73
    19
 74
     0
 42
0.000000001
 43
0.0000001
 40
0.0
 40
0.0
 40
0.0
 40
0.0
 40
1.0
 40
1.0
 40
1.0
 40
2.0
 40
2.0
 40
2.0
 40
3.0
 40
3.0
 40
3.0
 40
4.0
 40
4.0
 40
4.0
 40
5.0
 40
5.0
 40
5.0
 40
6.0
 40
6.0
 40
6.0
 40
6.0
 10
332.1383808444
 20
26.2672476309
 30
0.0
 10
332.1383808444
 20
26.2672476309
 30
0.0
 10
332.0767491653
 20
26.3457593241
 30
0.0
 10
332.0767491653
 20
26.3457593241
 30
0.0
 10
332.0228378026
 20
26.4143262028
 30
0.0
 10
331.9660476779
 20
26.4834164928
 30
0.0
 10
331.9660476779
 20
26.5771071133
 30
0.0
 10
331.9660476779
 20
26.6959214757
 30
0.0
 10
332.0619627964
 20
26.7733863463
 30
0.0
 10
332.1729259894
 20
26.7733863463
 30
0.0
 10
332.2961893477
 20
26.7733863463
 30
0.0
 10
332.3894874098
 20
26.7022024111
 30
0.0
 10
332.3894874098
 20
26.5718730004
 30
0.0
 10
332.3894874098
 20
26.4368328882
 30
0.0
 10
332.2613824971
 20
26.3604148401
 30
0.0
 10
332.1678227294
 20
26.2866138485
 30
0.0
 10
332.1678227294
 20
26.2866138485
 30
0.0
 10
332.1383808444
 20
26.2672476309
 30
0.0
 10
332.1383808444
 20
26.2672476309
 30
0.0
  0
SPLINE
  5
249
330
22A
100
AcDbEntity
  8
0
  6
Continuous
 62
     7
100
AcDbSpline
 70
     3
 71
     3
 72
    50
 73
    46
 74
     0
 42
0.000000001
 43
0.0000001
 40
0.0
 40
0.0
 40
0.0
 40
0.0
 40
1.0
 40
1.0
 40
1.0
 40
2.0
 40
2.0
 40
2.0
 40
3.0
 40
3.0
 40
3.0
 40
4.0
 40
4.0
 40
4.0
 40
5.0
 40
5.0
 40
5.0
 40
6.0
 40
6.0
 40
6.0
 40
7.0
 40
7.0
 40
7.0
 40
8.0
 40
8.0
 40
8.0
 40
9.0
 40
9.0
 40
9.0
 40
10.0
 40
10.0
 40
10.0
 40
11.0
 40
11.0
 40
11.0
 40
12.0
 40
12.0
 40
12.0
 40
13.0
 40
13.0
 40
13.0
 40
14.0
 40
14.0
 40
14.0
 40
15.0
 40
15.0
 40
15.0
 40
15.0
 10
332.8405370871
 20
25.0602612011
 30
0.0
 10
332.8405370871
 20
25.0602612011
 30
0.0
 10
333.1259270918
 20
25.0602612011
 30
0.0
 10
333.1259270918
 20
25.0602612011
 30
0.0
 10
333.1259270918
 20
25.0602612011
 30
0.0
 10
332.793560924
 20
25.471139062
 30
0.0
 10
332.793560924
 20
25.471139062
 30
0.0
 10
332.793560924
 20
25.471139062
 30
0.0
 10
333.0200671588
 20
25.7370319963
 30
0.0
 10
333.0200671588
 20
25.7370319963
 30
0.0
 10
333.0200671588
 20
25.7370319963
 30
0.0
 10
332.8718109116
 20
25.8898680923
 30
0.0
 10
332.8718109116
 20
25.8898680923
 30
0.0
 10
332.8718109116
 20
25.8898680923
 30
0.0
 10
332.6559037553
 20
25.6386306742
 30
0.0
 10
332.6559037553
 20
25.6386306742
 30
0.0
 10
332.6559037553
 20
25.6386306742
 30
0.0
 10
332.2688411079
 20
26.1065603655
 30
0.0
 10
332.2688411079
 20
26.1065603655
 30
0.0
 10
332.4242942604
 20
26.2206640263
 30
0.0
 10
332.6065722414
 20
26.3604148401
 30
0.0
 10
332.6065722414
 20
26.5697793553
 30
0.0
 10
332.6065722414
 20
26.8136890154
 30
0.0
 10
332.4045354843
 20
26.9571037083
 30
0.0
 10
332.1780292495
 20
26.9571037083
 30
0.0
 10
331.9338578837
 20
26.9571037083
 30
0.0
 10
331.7494862575
 20
26.8063612574
 30
0.0
 10
331.7494862575
 20
26.5498897263
 30
0.0
 10
331.7494862575
 20
26.3923429287
 30
0.0
 10
331.8481492853
 20
26.25468576
 30
0.0
 10
331.953485807
 20
26.1437225669
 30
0.0
 10
331.953485807
 20
26.1437225669
 30
0.0
 10
331.8379427652
 20
26.0599767609
 30
0.0
 10
331.8379427652
 20
26.0599767609
 30
0.0
 10
331.660244633
 20
25.9317409954
 30
0.0
 10
331.5129043554
 20
25.8040286411
 30
0.0
 10
331.5129043554
 20
25.5669233277
 30
0.0
 10
331.5129043554
 20
25.2465956195
 30
0.0
 10
331.7714695316
 20
25.0204819432
 30
0.0
 10
332.0818524253
 20
25.0204819432
 30
0.0
 10
332.3007691965
 20
25.0204819432
 30
0.0
 10
332.4979643992
 20
25.145577241
 30
0.0
 10
332.6382386243
 20
25.3114986192
 30
0.0
 10
332.6382386243
 20
25.3114986192
 30
0.0
 10
332.8405370871
 20
25.0602612011
 30
0.0
 10
332.8405370871
 20
25.0602612011
 30
0.0
  0
LWPOLYLINE
  5
24A
330
22A
100
AcDbEntity
  8
0
  6
Continuous
 62
     7
100
AcDbPolyline
 90
        2
 70
     0
 43
0.2
 10
334.7759811768
 20
26.9168010391
 10
334.5446333876
 20
26.9168010391
  0
LWPOLYLINE
  5
24B
330
22A
100
AcDbEntity
  8
0
  6
Continuous
 62
     7
100
AcDbPolyline
 90
        2
 70
     0
 43
0.2
 10
334.5446333876
 20
26.9168010391
 10
334.5446333876
 20
25.0597377898
  0
LWPOLYLINE
  5
24C
330
22A
100
AcDbEntity
  8
0
  6
Continuous
 62
     7
100
AcDbPolyline
 90
        2
 70
     0
 43
0.2
 10
334.5446333876
 20
25.0597377898
 10
335.3399568395
 20
25.0597377898
  0
LWPOLYLINE
  5
24D
330
22A
100
AcDbEntity
  8
0
  6
Continuous
 62
     7
100
AcDbPolyline
 90
        2
 70
     0
 43
0.2
 10
335.3399568395
 20
25.0597377898
 10
335.3399568395
 20
25.2717193614
  0
LWPOLYLINE
  5
24E
330
22A
100
AcDbEntity
  8
0
  6
Continuous
 62
     7
100
AcDbPolyline
 90
        2
 70
     0
 43
0.2
 10
335.3399568395
 20
25.2717193614
 10
334.7759811768
 20
25.2717193614
  0
LWPOLYLINE
  5
24F
330
22A
100
AcDbEntity
  8
0
  6
Continuous
 62
     7
100
AcDbPolyline
 90
        2
 70
     0
 43
0.2
 10
334.7759811768
 20
25.2717193614
 10
334.7759811768
 20
26.9168010391
  0
LWPOLYLINE
  5
250
330
22A
100
AcDbEntity
  8
0
  6
Continuous
 62
     7
100
AcDbPolyline
 90
        2
 70
     0
 43
0.2
 10
337.019060251
 20
26.2122894457
 10
336.7979189819
 20
26.2122894457
  0
LWPOLYLINE
  5
251
330
22A
100
AcDbEntity
  8
0
  6
Continuous
 62
     7
100
AcDbPolyline
 90
        2
 70
     0
 43
0.2
 10
336.7979189819
 20
26.2122894457
 10
336.7979189819
 20
25.0602612011
  0
LWPOLYLINE
  5
252
330
22A
100
AcDbEntity
  8
0
  6
Continuous
 62
     7
100
AcDbPolyline
 90
        2
 70
     0
 43
0.2
 10
336.7979189819
 20
25.0602612011
 10
337.019060251
 20
25.0602612011
  0
LWPOLYLINE
  5
253
330
22A
100
AcDbEntity
  8
0
  6
Continuous
 62
     7
100
AcDbPolyline
 90
        2
 70
     0
 43
0.2
 10
337.019060251
 20
25.0602612011
 10
337.019060251
 20
26.2122894457
  0
SPLINE
  5
254
330
22A
100
AcDbEntity
  8
0
  6
Continuous
 62
     7
100
AcDbSpline
 70
     3
 71
     3
 72
    17
 73
    13
 74
     0
 42
0.000000001
 43
0.0000001
 40
0.0
 40
0.0
 40
0.0
 40
0.0
 40
1.0
 40
1.0
 40
1.0
 40
2.0
 40
2.0
 40
2.0
 40
3.0
 40
3.0
 40
3.0
 40
4.0
 40
4.0
 40
4.0
 40
4.0
 10
336.9086204693
 20
26.894817765
 30
0.0
 10
336.8246129576
 20
26.894817765
 30
0.0
 10
336.7560460788
 20
26.825727475
 30
0.0
 10
336.7560460788
 20
26.7398880238
 30
0.0
 10
336.7560460788
 20
26.6556188065
 30
0.0
 10
336.8246129576
 20
26.5896689842
 30
0.0
 10
336.9086204693
 20
26.5896689842
 30
0.0
 10
336.9923662753
 20
26.5896689842
 30
0.0
 10
337.0611948597
 20
26.6556188065
 30
0.0
 10
337.0611948597
 20
26.7398880238
 30
0.0
 10
337.0611948597
 20
26.825727475
 30
0.0
 10
336.9923662753
 20
26.894817765
 30
0.0
 10
336.9086204693
 20
26.894817765
 30
0.0
  0
SPLINE
  5
255
330
22A
100
AcDbEntity
  8
0
  6
Continuous
 62
     7
100
AcDbSpline
 70
     3
 71
     3
 72
    17
 73
    13
 74
     0
 42
0.000000001
 43
0.0000001
 40
0.0
 40
0.0
 40
0.0
 40
0.0
 40
1.0
 40
1.0
 40
1.0
 40
2.0
 40
2.0
 40
2.0
 40
3.0
 40
3.0
 40
3.0
 40
4.0
 40
4.0
 40
4.0
 40
4.0
 10
339.1493441926
 20
25.2178079987
 30
0.0
 10
338.915379347
 20
25.2178079987
 30
0.0
 10
338.7850499363
 20
25.4198447558
 30
0.0
 10
338.7850499363
 20
25.6360136177
 30
0.0
 10
338.7850499363
 20
25.8506122457
 30
0.0
 10
338.9208751655
 20
26.0495085351
 30
0.0
 10
339.1493441926
 20
26.0495085351
 30
0.0
 10
339.3888048568
 20
26.0495085351
 30
0.0
 10
339.5243683804
 20
25.8605570602
 30
0.0
 10
339.5243683804
 20
25.6360136177
 30
0.0
 10
339.5243683804
 20
25.4098999414
 30
0.0
 10
339.3911602076
 20
25.2178079987
 30
0.0
 10
339.1493441926
 20
25.2178079987
 30
0.0
  0
SPLINE
  5
256
330
22A
100
AcDbEntity
  8
0
  6
Continuous
 62
     7
100
AcDbSpline
 70
     3
 71
     3
 72
    50
 73
    46
 74
     0
 42
0.000000001
 43
0.0000001
 40
0.0
 40
0.0
 40
0.0
 40
0.0
 40
1.0
 40
1.0
 40
1.0
 40
2.0
 40
2.0
 40
2.0
 40
3.0
 40
3.0
 40
3.0
 40
4.0
 40
4.0
 40
4.0
 40
5.0
 40
5.0
 40
5.0
 40
6.0
 40
6.0
 40
6.0
 40
7.0
 40
7.0
 40
7.0
 40
8.0
 40
8.0
 40
8.0
 40
9.0
 40
9.0
 40
9.0
 40
10.0
 40
10.0
 40
10.0
 40
11.0
 40
11.0
 40
11.0
 40
12.0
 40
12.0
 40
12.0
 40
13.0
 40
13.0
 40
13.0
 40
14.0
 40
14.0
 40
14.0
 40
15.0
 40
15.0
 40
15.0
 40
15.0
 10
339.7334711899
 20
26.2128128569
 30
0.0
 10
339.7334711899
 20
26.2128128569
 30
0.0
 10
339.5118065095
 20
26.2128128569
 30
0.0
 10
339.5118065095
 20
26.2128128569
 30
0.0
 10
339.5118065095
 20
26.2128128569
 30
0.0
 10
339.5118065095
 20
26.0154868014
 30
0.0
 10
339.5118065095
 20
26.0154868014
 30
0.0
 10
339.5118065095
 20
26.0154868014
 30
0.0
 10
339.5070958079
 20
26.0154868014
 30
0.0
 10
339.5070958079
 20
26.0154868014
 30
0.0
 10
339.4157605382
 20
26.158378083
 30
0.0
 10
339.2778416638
 20
26.2468345907
 30
0.0
 10
339.1051159388
 20
26.2468345907
 30
0.0
 10
338.772749771
 20
26.2468345907
 30
0.0
 10
338.5636469615
 20
25.9589583823
 30
0.0
 10
338.5636469615
 20
25.6433413757
 30
0.0
 10
338.5636469615
 20
25.3135922644
 30
0.0
 10
338.7607113114
 20
25.0204819432
 30
0.0
 10
339.1155841646
 20
25.0204819432
 30
0.0
 10
339.2778416638
 20
25.0204819432
 30
0.0
 10
339.4178541833
 20
25.1089384508
 30
0.0
 10
339.5070958079
 20
25.2397912728
 30
0.0
 10
339.5070958079
 20
25.2397912728
 30
0.0
 10
339.5118065095
 20
25.2397912728
 30
0.0
 10
339.5118065095
 20
25.2397912728
 30
0.0
 10
339.5118065095
 20
25.2397912728
 30
0.0
 10
339.5118065095
 20
25.0204819432
 30
0.0
 10
339.5118065095
 20
25.0204819432
 30
0.0
 10
339.5118065095
 20
24.7839000411
 30
0.0
 10
339.4552780904
 20
24.5970422113
 30
0.0
 10
339.1820573981
 20
24.5970422113
 30
0.0
 10
338.9797589354
 20
24.5970422113
 30
0.0
 10
338.8371293594
 20
24.7153331624
 30
0.0
 10
338.8371293594
 20
24.9215572098
 30
0.0
 10
338.8371293594
 20
24.9215572098
 30
0.0
 10
338.615464679
 20
24.9215572098
 30
0.0
 10
338.615464679
 20
24.9215572098
 30
0.0
 10
338.6204370862
 20
24.5970422113
 30
0.0
 10
338.8515231698
 20
24.4002395671
 30
0.0
 10
339.171850878
 20
24.4002395671
 30
0.0
 10
339.6198909404
 20
24.4002395671
 30
0.0
 10
339.7334711899
 20
24.6854987189
 30
0.0
 10
339.7334711899
 20
25.0822444751
 30
0.0
 10
339.7334711899
 20
25.0822444751
 30
0.0
 10
339.7334711899
 20
26.2128128569
 30
0.0
 10
339.7334711899
 20
26.2128128569
 30
0.0
  0
SPLINE
  5
257
330
22A
100
AcDbEntity
  8
0
  6
Continuous
 62
     7
100
AcDbSpline
 70
     3
 71
     3
 72
    44
 73
    40
 74
     0
 42
0.000000001
 43
0.0000001
 40
0.0
 40
0.0
 40
0.0
 40
0.0
 40
1.0
 40
1.0
 40
1.0
 40
2.0
 40
2.0
 40
2.0
 40
3.0
 40
3.0
 40
3.0
 40
4.0
 40
4.0
 40
4.0
 40
5.0
 40
5.0
 40
5.0
 40
6.0
 40
6.0
 40
6.0
 40
7.0
 40
7.0
 40
7.0
 40
8.0
 40
8.0
 40
8.0
 40
9.0
 40
9.0
 40
9.0
 40
10.0
 40
10.0
 40
10.0
 40
11.0
 40
11.0
 40
11.0
 40
12.0
 40
12.0
 40
12.0
 40
13.0
 40
13.0
 40
13.0
 40
13.0
 10
341.3023965253
 20
27.1978729007
 30
0.0
 10
341.3023965253
 20
27.1978729007
 30
0.0
 10
341.3023965253
 20
25.0597377898
 30
0.0
 10
341.3023965253
 20
25.0597377898
 30
0.0
 10
341.3023965253
 20
25.0597377898
 30
0.0
 10
341.5237995001
 20
25.0597377898
 30
0.0
 10
341.5237995001
 20
25.0597377898
 30
0.0
 10
341.5237995001
 20
25.0597377898
 30
0.0
 10
341.5237995001
 20
25.5894300131
 30
0.0
 10
341.5237995001
 20
25.5894300131
 30
0.0
 10
341.5237995001
 20
25.7993179395
 30
0.0
 10
341.5237995001
 20
26.0500319464
 30
0.0
 10
341.8090586519
 20
26.0500319464
 30
0.0
 10
342.0359574452
 20
26.0500319464
 30
0.0
 10
342.0629131266
 20
25.9170854793
 30
0.0
 10
342.0629131266
 20
25.7208062464
 30
0.0
 10
342.0629131266
 20
25.7208062464
 30
0.0
 10
342.0629131266
 20
25.0597377898
 30
0.0
 10
342.0629131266
 20
25.0597377898
 30
0.0
 10
342.0629131266
 20
25.0597377898
 30
0.0
 10
342.2848395126
 20
25.0597377898
 30
0.0
 10
342.2848395126
 20
25.0597377898
 30
0.0
 10
342.2848395126
 20
25.0597377898
 30
0.0
 10
342.2848395126
 20
25.7469768107
 30
0.0
 10
342.2848395126
 20
25.7469768107
 30
0.0
 10
342.2848395126
 20
26.027525261
 30
0.0
 10
342.2008320009
 20
26.2473580019
 30
0.0
 10
341.8757935911
 20
26.2473580019
 30
0.0
 10
341.7360427773
 20
26.2473580019
 30
0.0
 10
341.5978621973
 20
26.1808847684
 30
0.0
 10
341.5285102016
 20
26.0578831157
 30
0.0
 10
341.5285102016
 20
26.0578831157
 30
0.0
 10
341.5237995001
 20
26.0578831157
 30
0.0
 10
341.5237995001
 20
26.0578831157
 30
0.0
 10
341.5237995001
 20
26.0578831157
 30
0.0
 10
341.5237995001
 20
27.1978729007
 30
0.0
 10
341.5237995001
 20
27.1978729007
 30
0.0
 10
341.5237995001
 20
27.1978729007
 30
0.0
 10
341.3023965253
 20
27.1978729007
 30
0.0
 10
341.3023965253
 20
27.1978729007
 30
0.0
  0
LWPOLYLINE
  5
258
330
22A
100
AcDbEntity
  8
0
  6
Continuous
 62
     7
100
AcDbPolyline
 90
        2
 70
     0
 43
0.2
 10
344.1246301895
 20
26.005541987
 10
344.341060757
 20
26.005541987
  0
LWPOLYLINE
  5
259
330
22A
100
AcDbEntity
  8
0
  6
Continuous
 62
     7
100
AcDbPolyline
 90
        2
 70
     0
 43
0.2
 10
344.341060757
 20
26.005541987
 10
344.341060757
 20
26.2122894457
  0
LWPOLYLINE
  5
25A
330
22A
100
AcDbEntity
  8
0
  6
Continuous
 62
     7
100
AcDbPolyline
 90
        2
 70
     0
 43
0.2
 10
344.341060757
 20
26.2122894457
 10
344.1246301895
 20
26.2122894457
  0
LWPOLYLINE
  5
25B
330
22A
100
AcDbEntity
  8
0
  6
Continuous
 62
     7
100
AcDbPolyline
 90
        2
 70
     0
 43
0.2
 10
344.1246301895
 20
26.2122894457
 10
344.1246301895
 20
26.65300175
  0
LWPOLYLINE
  5
25C
330
22A
100
AcDbEntity
  8
0
  6
Continuous
 62
     7
100
AcDbPolyline
 90
        2
 70
     0
 43
0.2
 10
344.1246301895
 20
26.65300175
 10
343.9029655091
 20
26.65300175
  0
LWPOLYLINE
  5
25D
330
22A
100
AcDbEntity
  8
0
  6
Continuous
 62
     7
100
AcDbPolyline
 90
        2
 70
     0
 43
0.2
 10
343.9029655091
 20
26.65300175
 10
343.9029655091
 20
26.2122894457
  0
LWPOLYLINE
  5
25E
330
22A
100
AcDbEntity
  8
0
  6
Continuous
 62
     7
100
AcDbPolyline
 90
        2
 70
     0
 43
0.2
 10
343.9029655091
 20
26.2122894457
 10
343.7823192072
 20
26.2122894457
  0
LWPOLYLINE
  5
25F
330
22A
100
AcDbEntity
  8
0
  6
Continuous
 62
     7
100
AcDbPolyline
 90
        2
 70
     0
 43
0.2
 10
343.7823192072
 20
26.2122894457
 10
343.7823192072
 20
26.005541987
  0
LWPOLYLINE
  5
260
330
22A
100
AcDbEntity
  8
0
  6
Continuous
 62
     7
100
AcDbPolyline
 90
        2
 70
     0
 43
0.2
 10
343.7823192072
 20
26.005541987
 10
343.9029655091
 20
26.005541987
  0
LWPOLYLINE
  5
261
330
22A
100
AcDbEntity
  8
0
  6
Continuous
 62
     7
100
AcDbPolyline
 90
        2
 70
     0
 43
0.2
 10
343.9029655091
 20
26.005541987
 10
343.9029655091
 20
25.0597377898
  0
LWPOLYLINE
  5
262
330
22A
100
AcDbEntity
  8
0
  6
Continuous
 62
     7
100
AcDbPolyline
 90
        2
 70
     0
 43
0.2
 10
343.9029655091
 20
25.0597377898
 10
344.1246301895
 20
25.0597377898
  0
LWPOLYLINE
  5
263
330
22A
100
AcDbEntity
  8
0
  6
Continuous
 62
     7
100
AcDbPolyline
 90
        2
 70
     0
 43
0.2
 10
344.1246301895
 20
25.0597377898
 10
344.1246301895
 20
26.005541987
  0
SPLINE
  5
264
330
22A
100
AcDbEntity
  8
0
  6
Continuous
 62
     7
100
AcDbSpline
 70
     3
 71
     3
 72
    20
 73
    16
 74
     0
 42
0.000000001
 43
0.0000001
 40
0.0
 40
0.0
 40
0.0
 40
0.0
 40
1.0
 40
1.0
 40
1.0
 40
2.0
 40
2.0
 40
2.0
 40
3.0
 40
3.0
 40
3.0
 40
4.0
 40
4.0
 40
4.0
 40
5.0
 40
5.0
 40
5.0
 40
5.0
 10
331.9066404967
 20
35.4206642332
 30
0.0
 10
331.9066404967
 20
35.4206642332
 30
0.0
 10
334.2229971512
 20
32.5911028109
 30
0.0
 10
334.2229971512
 20
32.5911028109
 30
0.0
 10
333.5713500978
 20
31.9389323462
 30
0.0
 10
332.7944768938
 20
31.2030160755
 30
0.0
 10
331.8232872491
 20
31.2030160755
 30
0.0
 10
330.8247493647
 20
31.2030160755
 30
0.0
 10
329.8814313711
 20
32.1325945228
 30
0.0
 10
329.8814313711
 20
33.1317866713
 30
0.0
 10
329.8814313711
 20
34.1309788198
 30
0.0
 10
331.0602844442
 20
34.8375840585
 30
0.0
 10
331.7818069046
 20
35.3374418384
 30
0.0
 10
331.7818069046
 20
35.3374418384
 30
0.0
 10
331.9066404967
 20
35.4206642332
 30
0.0
 10
331.9066404967
 20
35.4206642332
 30
0.0
  0
SPLINE
  5
265
330
22A
100
AcDbEntity
  8
0
  6
Continuous
 62
     7
100
AcDbSpline
 70
     3
 71
     3
 72
    23
 73
    19
 74
     0
 42
0.000000001
 43
0.0000001
 40
0.0
 40
0.0
 40
0.0
 40
0.0
 40
1.0
 40
1.0
 40
1.0
 40
2.0
 40
2.0
 40
2.0
 40
3.0
 40
3.0
 40
3.0
 40
4.0
 40
4.0
 40
4.0
 40
5.0
 40
5.0
 40
5.0
 40
6.0
 40
6.0
 40
6.0
 40
6.0
 10
332.1840484793
 20
37.0584181529
 30
0.0
 10
332.1840484793
 20
37.0584181529
 30
0.0
 10
331.8375502067
 20
37.5017475137
 30
0.0
 10
331.8375502067
 20
37.5017475137
 30
0.0
 10
331.5317471618
 20
37.8898569837
 30
0.0
 10
331.2128588347
 20
38.2783590121
 30
0.0
 10
331.2128588347
 20
38.8053033262
 30
0.0
 10
331.2128588347
 20
39.4714750428
 30
0.0
 10
331.7541969591
 20
39.9151969621
 30
0.0
 10
332.3781032143
 20
39.9151969621
 30
0.0
 10
333.0718848763
 20
39.9151969621
 30
0.0
 10
333.5990908961
 20
39.5129553874
 30
0.0
 10
333.5990908961
 20
38.7779550864
 30
0.0
 10
333.5990908961
 20
38.0146905758
 30
0.0
 10
332.8778301414
 20
37.58457735
 30
0.0
 10
332.3507549745
 20
37.1688579346
 30
0.0
 10
332.3507549745
 20
37.1688579346
 30
0.0
 10
332.1840484793
 20
37.0584181529
 30
0.0
 10
332.1840484793
 20
37.0584181529
 30
0.0
  0
SPLINE
  5
266
330
22A
100
AcDbEntity
  8
0
  6
Continuous
 62
     7
100
AcDbSpline
 70
     3
 71
     3
 72
    50
 73
    46
 74
     0
 42
0.000000001
 43
0.0000001
 40
0.0
 40
0.0
 40
0.0
 40
0.0
 40
1.0
 40
1.0
 40
1.0
 40
2.0
 40
2.0
 40
2.0
 40
3.0
 40
3.0
 40
3.0
 40
4.0
 40
4.0
 40
4.0
 40
5.0
 40
5.0
 40
5.0
 40
6.0
 40
6.0
 40
6.0
 40
7.0
 40
7.0
 40
7.0
 40
8.0
 40
8.0
 40
8.0
 40
9.0
 40
9.0
 40
9.0
 40
10.0
 40
10.0
 40
10.0
 40
11.0
 40
11.0
 40
11.0
 40
12.0
 40
12.0
 40
12.0
 40
13.0
 40
13.0
 40
13.0
 40
14.0
 40
14.0
 40
14.0
 40
15.0
 40
15.0
 40
15.0
 40
15.0
 10
336.1376356422
 20
30.2598289348
 30
0.0
 10
336.1376356422
 20
30.2598289348
 30
0.0
 10
337.7468636468
 20
30.2598289348
 30
0.0
 10
337.7468636468
 20
30.2598289348
 30
0.0
 10
337.7468636468
 20
30.2598289348
 30
0.0
 10
335.8738363531
 20
32.5769707062
 30
0.0
 10
335.8738363531
 20
32.5769707062
 30
0.0
 10
335.8738363531
 20
32.5769707062
 30
0.0
 10
337.1501747786
 20
34.0744504008
 30
0.0
 10
337.1501747786
 20
34.0744504008
 30
0.0
 10
337.1501747786
 20
34.0744504008
 30
0.0
 10
336.3179508309
 20
34.9354619693
 30
0.0
 10
336.3179508309
 20
34.9354619693
 30
0.0
 10
336.3179508309
 20
34.9354619693
 30
0.0
 10
335.0973557076
 20
33.5201578469
 30
0.0
 10
335.0973557076
 20
33.5201578469
 30
0.0
 10
335.0973557076
 20
33.5201578469
 30
0.0
 10
332.9194413388
 20
36.1555336813
 30
0.0
 10
332.9194413388
 20
36.1555336813
 30
0.0
 10
333.7930147782
 20
36.7935720412
 30
0.0
 10
334.8196860194
 20
37.58457735
 30
0.0
 10
334.8196860194
 20
38.7634304231
 30
0.0
 10
334.8196860194
 20
40.1371233482
 30
0.0
 10
333.6817898795
 20
40.9416064976
 30
0.0
 10
332.4064982766
 20
40.9416064976
 30
0.0
 10
331.0330670573
 20
40.9416064976
 30
0.0
 10
329.9921328585
 20
40.0953812979
 30
0.0
 10
329.9921328585
 20
38.6527289358
 30
0.0
 10
329.9921328585
 20
37.7651542444
 30
0.0
 10
330.547472235
 20
36.9882810403
 30
0.0
 10
331.1436376918
 20
36.3638513739
 30
0.0
 10
331.1436376918
 20
36.3638513739
 30
0.0
 10
330.4917289328
 20
35.8922578035
 30
0.0
 10
330.4917289328
 20
35.8922578035
 30
0.0
 10
329.4931910484
 20
35.1709970488
 30
0.0
 10
328.6603128365
 20
34.4497362942
 30
0.0
 10
328.6603128365
 20
33.1181779778
 30
0.0
 10
328.6603128365
 20
31.3145026798
 30
0.0
 10
330.1173590091
 20
30.0379025487
 30
0.0
 10
331.8648984465
 20
30.0379025487
 30
0.0
 10
333.0997565274
 20
30.0379025487
 30
0.0
 10
334.2091267521
 20
30.7460780212
 30
0.0
 10
335.000001208
 20
31.6746096459
 30
0.0
 10
335.000001208
 20
31.6746096459
 30
0.0
 10
336.1376356422
 20
30.2598289348
 30
0.0
 10
336.1376356422
 20
30.2598289348
 30
0.0
  0
LINE
  5
267
330
22A
100
AcDbEntity
  8
0
  6
Continuous
 62
     7
100
AcDbLine
 10
321.9404970172
 20
28.2337038394
 30
0.0
 11
344.3544077449
 21
28.2337038394
 31
0.0
  0
LINE
  5
268
330
22A
100
AcDbEntity
  8
0
  6
Continuous
 62
     7
100
AcDbLine
 10
344.3544077449
 20
28.2337038394
 30
0.0
 11
344.3544077449
 21
50.6476145671
 31
0.0
  0
LINE
  5
269
330
22A
100
AcDbEntity
  8
0
  6
Continuous
 62
     7
100
AcDbLine
 10
344.3544077449
 20
50.6476145671
 30
0.0
 11
321.9404970172
 21
50.6476145671
 31
0.0
  0
LINE
  5
26A
330
22A
100
AcDbEntity
  8
0
  6
Continuous
 62
     7
100
AcDbLine
 10
321.9404970172
 20
50.6476145671
 30
0.0
 11
321.9404970172
 21
28.2337038394
 31
0.0
  0
ENDBLK
  5
26B
330
22A
100
AcDbEntity
  8
0
  6
ByBlock
 62
     0
100
AcDbBlockEnd
  0
BLOCK
  5
2A1
330
22B
100
AcDbEntity
  8
0
100
AcDbBlockBegin
  2
*T7
 70
     1
 10
0.0
 20
0.0
 30
0.0
  3
*T7
  1
*T7
  0
MTEXT
  5
2A2
330
22B
100
AcDbEntity
  8
0
  6
Continuous
 62
     0
100
AcDbMText
 10
30.28622003006668
 20
-3.0
 30
0.0
 40
3.0
 41
40.18162670675557
 71
     4
 72
     5
  1
3S5_C_062
 73
     1
 44
1.0
  0
MTEXT
  5
2A3
330
22B
100
AcDbEntity
  8
0
  6
Continuous
 62
     0
100
AcDbMText
 10
70.58784673682226
 20
-0.06
 30
0.0
 40
3.5
 41
20.03081335337778
 71
     1
 72
     5
  1
Rev:00
 73
     1
 44
1.0
  0
MTEXT
  5
2A4
330
22B
100
AcDbEntity
  8
0
  6
Continuous
 62
     0
100
AcDbMText
 10
30.28622003006668
 20
-6.06
 30
0.0
 40
3.5
 41
40.18162670675557
 71
     1
 72
     5
  1
Scale:1:1
 73
     1
 44
1.0
  0
MTEXT
  5
2A5
330
22B
100
AcDbEntity
  8
0
  6
Continuous
 62
     0
100
AcDbMText
 10
70.58784673682226
 20
-9.0
 30
0.0
 40
3.5
 41
20.03081335337778
 71
     4
 72
     5
  1
A3
 73
     1
 44
1.0
  0
MTEXT
  5
2A6
330
22B
100
AcDbEntity
  8
0
  6
Continuous
 62
     0
100
AcDbMText
 10
30.28622003006668
 20
-17.0
 30
0.0
 40
3.5
 41
60.33244006013336
 71
     4
 72
     5
  1
STEP 6.2
 73
     1
 44
1.0
  0
MTEXT
  5
2A7
330
22B
100
AcDbEntity
  8
0
  6
Continuous
 62
     0
100
AcDbMText
 10
30.28622003006668
 20
-24.5
 30
0.0
 40
2.5
 41
60.33244006013336
 71
     4
 72
     5
  1
DATE:27/03/2014
 73
     1
 44
1.0
  0
MTEXT
  5
2A8
330
22B
100
AcDbEntity
  8
0
  6
Continuous
 62
     0
100
AcDbMText
 10
0.06
 20
-27.06
 30
0.0
 40
1.85
 41
90.55866009020004
 71
     1
 72
     5
  1
Any integral or partial reproductions are prohibited \Pwithout prior authorisation of L & L Luce & Light s.r.l., \Pin accordance with the law in force. \PAll rights reserved.
 73
     1
 44
1.0
  0
LINE
  5
2A9
330
22B
100
AcDbEntity
  8
0
  6
Continuous
 62
     0
370
    -2
100
AcDbLine
 10
0.0
 20
0.0
 30
0.0
 11
10.07540667668889
 21
0.0
 31
0.0
  0
LINE
  5
2AA
330
22B
100
AcDbEntity
  8
0
  6
Continuous
 62
     0
370
    -2
100
AcDbLine
 10
10.07540667668889
 20
0.0
 30
0.0
 11
20.15081335337779
 21
0.0
 31
0.0
  0
LINE
  5
2AB
330
22B
100
AcDbEntity
  8
0
  6
Continuous
 62
     0
370
    -2
100
AcDbLine
 10
20.15081335337779
 20
0.0
 30
0.0
 11
30.22622003006668
 21
0.0
 31
0.0
  0
LINE
  5
2AC
330
22B
100
AcDbEntity
  8
0
  6
Continuous
 62
     0
370
    -2
100
AcDbLine
 10
0.0
 20
0.0
 30
0.0
 11
0.0
 21
-6.0
 31
0.0
  0
LINE
  5
2AD
330
22B
100
AcDbEntity
  8
0
  6
Continuous
 62
     0
370
    -2
100
AcDbLine
 10
0.0
 20
-6.0
 30
0.0
 11
0.0
 21
-12.0
 31
0.0
  0
LINE
  5
2AE
330
22B
100
AcDbEntity
  8
0
  6
Continuous
 62
     0
370
    -2
100
AcDbLine
 10
0.0
 20
-12.0
 30
0.0
 11
0.0
 21
-22.0
 31
0.0
  0
LINE
  5
2AF
330
22B
100
AcDbEntity
  8
0
  6
Continuous
 62
     0
370
    -2
100
AcDbLine
 10
0.0
 20
-22.0
 30
0.0
 11
0.0
 21
-27.0
 31
0.0
  0
LINE
  5
2B0
330
22B
100
AcDbEntity
  8
0
  6
Continuous
 62
     0
370
    -2
100
AcDbLine
 10
30.22622003006668
 20
0.0
 30
0.0
 11
70.52784673682226
 21
0.0
 31
0.0
  0
LINE
  5
2B1
330
22B
100
AcDbEntity
  8
0
  6
Continuous
 62
     0
370
    -2
100
AcDbLine
 10
30.22622003006668
 20
0.0
 30
0.0
 11
30.22622003006668
 21
-6.0
 31
0.0
  0
LINE
  5
2B2
330
22B
100
AcDbEntity
  8
0
  6
Continuous
 62
     0
370
    -2
100
AcDbLine
 10
70.52784673682226
 20
0.0
 30
0.0
 11
90.67866009020004
 21
0.0
 31
0.0
  0
LINE
  5
49F
330
22B
100
AcDbEntity
  8
0
  6
Continuous
 62
     0
370
    -2
100
AcDbLine
 10
70.52784673682226
 20
0.0
 30
0.0
 11
70.52784673682226
 21
-6.0
 31
0.0
  0
LINE
  5
4A0
330
22B
100
AcDbEntity
  8
0
  6
Continuous
 62
     0
370
    -2
100
AcDbLine
 10
90.67866009020004
 20
0.0
 30
0.0
 11
90.67866009020004
 21
-6.0
 31
0.0
  0
LINE
  5
4A1
330
22B
100
AcDbEntity
  8
0
  6
Continuous
 62
     0
370
    -2
100
AcDbLine
 10
30.22622003006668
 20
-6.0
 30
0.0
 11
70.52784673682226
 21
-6.0
 31
0.0
  0
LINE
  5
4A2
330
22B
100
AcDbEntity
  8
0
  6
Continuous
 62
     0
370
    -2
100
AcDbLine
 10
30.22622003006668
 20
-6.0
 30
0.0
 11
30.22622003006668
 21
-12.0
 31
0.0
  0
LINE
  5
4A3
330
22B
100
AcDbEntity
  8
0
  6
Continuous
 62
     0
370
    -2
100
AcDbLine
 10
70.52784673682226
 20
-6.0
 30
0.0
 11
90.67866009020004
 21
-6.0
 31
0.0
  0
LINE
  5
4A4
330
22B
100
AcDbEntity
  8
0
  6
Continuous
 62
     0
370
    -2
100
AcDbLine
 10
70.52784673682226
 20
-6.0
 30
0.0
 11
70.52784673682226
 21
-12.0
 31
0.0
  0
LINE
  5
4A5
330
22B
100
AcDbEntity
  8
0
  6
Continuous
 62
     0
370
    -2
100
AcDbLine
 10
90.67866009020004
 20
-6.0
 30
0.0
 11
90.67866009020004
 21
-12.0
 31
0.0
  0
LINE
  5
4A6
330
22B
100
AcDbEntity
  8
0
  6
Continuous
 62
     0
370
    -2
100
AcDbLine
 10
30.22622003006668
 20
-12.0
 30
0.0
 11
70.52784673682226
 21
-12.0
 31
0.0
  0
LINE
  5
4A7
330
22B
100
AcDbEntity
  8
0
  6
Continuous
 62
     0
370
    -2
100
AcDbLine
 10
70.52784673682226
 20
-12.0
 30
0.0
 11
90.67866009020003
 21
-12.0
 31
0.0
  0
LINE
  5
4A8
330
22B
100
AcDbEntity
  8
0
  6
Continuous
 62
     0
370
    -2
100
AcDbLine
 10
30.22622003006668
 20
-12.0
 30
0.0
 11
30.22622003006668
 21
-22.0
 31
0.0
  0
LINE
  5
4A9
330
22B
100
AcDbEntity
  8
0
  6
Continuous
 62
     0
370
    -2
100
AcDbLine
 10
90.67866009020004
 20
-12.0
 30
0.0
 11
90.67866009020004
 21
-22.0
 31
0.0
  0
LINE
  5
4AA
330
22B
100
AcDbEntity
  8
0
  6
Continuous
 62
     0
370
    -2
100
AcDbLine
 10
30.22622003006668
 20
-22.0
 30
0.0
 11
70.52784673682226
 21
-22.0
 31
0.0
  0
LINE
  5
4AB
330
22B
100
AcDbEntity
  8
0
  6
Continuous
 62
     0
370
    -2
100
AcDbLine
 10
70.52784673682226
 20
-22.0
 30
0.0
 11
90.67866009020003
 21
-22.0
 31
0.0
  0
LINE
  5
4AC
330
22B
100
AcDbEntity
  8
0
  6
Continuous
 62
     0
370
    -2
100
AcDbLine
 10
30.22622003006668
 20
-22.0
 30
0.0
 11
30.22622003006668
 21
-27.0
 31
0.0
  0
LINE
  5
4AD
330
22B
100
AcDbEntity
  8
0
  6
Continuous
 62
     0
370
    -2
100
AcDbLine
 10
90.67866009020004
 20
-22.0
 30
0.0
 11
90.67866009020004
 21
-27.0
 31
0.0
  0
LINE
  5
4AE
330
22B
100
AcDbEntity
  8
0
  6
Continuous
 62
     0
370
    -2
100
AcDbLine
 10
0.0
 20
-27.0
 30
0.0
 11
10.07540667668889
 21
-27.0
 31
0.0
  0
LINE
  5
4AF
330
22B
100
AcDbEntity
  8
0
  6
Continuous
 62
     0
370
    -2
100
AcDbLine
 10
10.07540667668889
 20
-27.0
 30
0.0
 11
20.15081335337779
 21
-27.0
 31
0.0
  0
LINE
  5
4B0
330
22B
100
AcDbEntity
  8
0
  6
Continuous
 62
     0
370
    -2
100
AcDbLine
 10
20.15081335337779
 20
-27.0
 30
0.0
 11
30.22622003006668
 21
-27.0
 31
0.0
  0
LINE
  5
4B1
330
22B
100
AcDbEntity
  8
0
  6
Continuous
 62
     0
370
    -2
100
AcDbLine
 10
30.22622003006668
 20
-27.0
 30
0.0
 11
70.52784673682226
 21
-27.0
 31
0.0
  0
LINE
  5
4B2
330
22B
100
AcDbEntity
  8
0
  6
Continuous
 62
     0
370
    -2
100
AcDbLine
 10
70.52784673682226
 20
-27.0
 30
0.0
 11
90.67866009020004
 21
-27.0
 31
0.0
  0
LINE
  5
4B3
330
22B
100
AcDbEntity
  8
0
  6
Continuous
 62
     0
370
    -2
100
AcDbLine
 10
0.0
 20
-27.0
 30
0.0
 11
0.0
 21
-40.0
 31
0.0
  0
LINE
  5
4B4
330
22B
100
AcDbEntity
  8
0
  6
Continuous
 62
     0
370
    -2
100
AcDbLine
 10
90.67866009020004
 20
-27.0
 30
0.0
 11
90.67866009020004
 21
-40.0
 31
0.0
  0
LINE
  5
4B5
330
22B
100
AcDbEntity
  8
0
  6
Continuous
 62
     0
370
    -2
100
AcDbLine
 10
0.0
 20
-40.0
 30
0.0
 11
10.07540667668889
 21
-40.0
 31
0.0
  0
LINE
  5
4B6
330
22B
100
AcDbEntity
  8
0
  6
Continuous
 62
     0
370
    -2
100
AcDbLine
 10
10.07540667668889
 20
-40.0
 30
0.0
 11
20.15081335337779
 21
-40.0
 31
0.0
  0
LINE
  5
4B7
330
22B
100
AcDbEntity
  8
0
  6
Continuous
 62
     0
370
    -2
100
AcDbLine
 10
20.15081335337779
 20
-40.0
 30
0.0
 11
30.22622003006668
 21
-40.0
 31
0.0
  0
LINE
  5
4B8
330
22B
100
AcDbEntity
  8
0
  6
Continuous
 62
     0
370
    -2
100
AcDbLine
 10
30.22622003006668
 20
-40.0
 30
0.0
 11
70.52784673682226
 21
-40.0
 31
0.0
  0
LINE
  5
4B9
330
22B
100
AcDbEntity
  8
0
  6
Continuous
 62
     0
370
    -2
100
AcDbLine
 10
70.52784673682226
 20
-40.0
 30
0.0
 11
90.67866009020004
 21
-40.0
 31
0.0
  0
ENDBLK
  5
2B3
330
22B
100
AcDbEntity
  8
0
100
AcDbBlockEnd
  0
ENDSEC
  0
SECTION
  2
ENTITIES
  0
MTEXT
  5
2B4
330
222
100
AcDbEntity
  8
0
  6
Continuous
 62
     2
100
AcDbMText
 10
1.6467220993
 20
53.595027386
 30
0.0
 40
4.0
 41
2.2857142857
 71
     1
 72
     1
  1
1
  7
TEXTSTYLE_2
 73
     1
 44
0.9
  0
MTEXT
  5
2B5
330
222
100
AcDbEntity
  8
0
  6
Continuous
 62
     2
100
AcDbMText
 10
1.6467220993
 20
153.595027386
 30
0.0
 40
4.0
 41
3.1428571429
 71
     1
 72
     1
  1
2
  7
TEXTSTYLE_2
 73
     1
 44
0.9
  0
MTEXT
  5
2B6
330
222
100
AcDbEntity
  8
0
  6
Continuous
 62
     2
100
AcDbMText
 10
1.6467220993
 20
253.595027386
 30
0.0
 40
4.0
 41
2.8571428571
 71
     1
 72
     1
  1
3
  7
TEXTSTYLE_2
 73
     1
 44
0.9
  0
MTEXT
  5
2B7
330
222
100
AcDbEntity
  8
0
  6
Continuous
 62
     2
100
AcDbMText
 10
414.6467220993
 20
60.6268709614
 30
0.0
 40
4.0
 41
2.2857142857
 71
     1
 72
     1
  1
1
  7
TEXTSTYLE_2
 73
     1
 44
0.9
  0
MTEXT
  5
2B8
330
222
100
AcDbEntity
  8
0
  6
Continuous
 62
     2
100
AcDbMText
 10
414.6467220993
 20
160.6268709614
 30
0.0
 40
4.0
 41
3.1428571429
 71
     1
 72
     1
  1
2
  7
TEXTSTYLE_2
 73
     1
 44
0.9
  0
MTEXT
  5
2B9
330
222
100
AcDbEntity
  8
0
  6
Continuous
 62
     2
100
AcDbMText
 10
414.6467220993
 20
260.6268709614
 30
0.0
 40
4.0
 41
2.8571428571
 71
     1
 72
     1
  1
3
  7
TEXTSTYLE_2
 73
     1
 44
0.9
  0
MTEXT
  5
2BA
330
222
100
AcDbEntity
  8
0
  6
Continuous
 62
     2
100
AcDbMText
 10
362.154890719
 20
5.35876025
 30
0.0
 40
4.0
 41
3.6
 71
     1
 72
     1
  1
A
  7
TEXTSTYLE_3
 73
     1
 44
0.9
  0
MTEXT
  5
2BB
330
222
100
AcDbEntity
  8
0
  6
Continuous
 62
     2
100
AcDbMText
 10
262.154890719
 20
5.35876025
 30
0.0
 40
4.0
 41
3.6
 71
     1
 72
     1
  1
B
  7
TEXTSTYLE_3
 73
     1
 44
0.9
  0
MTEXT
  5
2BC
330
222
100
AcDbEntity
  8
0
  6
Continuous
 62
     2
100
AcDbMText
 10
162.154890719
 20
5.35876025
 30
0.0
 40
4.0
 41
3.6
 71
     1
 72
     1
  1
C
  7
TEXTSTYLE_3
 73
     1
 44
0.9
  0
MTEXT
  5
2BD
330
222
100
AcDbEntity
  8
0
  6
Continuous
 62
     2
100
AcDbMText
 10
55.7978688212
 20
5.5353441916
 30
0.0
 40
4.0
 41
3.6
 71
     1
 72
     1
  1
D
  7
TEXTSTYLE_3
 73
     1
 44
0.9
  0
MTEXT
  5
2BE
330
222
100
AcDbEntity
  8
0
  6
Continuous
 62
     2
100
AcDbMText
 10
362.154890719
 20
295.35876025
 30
0.0
 40
4.0
 41
3.6
 71
     1
 72
     1
  1
A
  7
TEXTSTYLE_3
 73
     1
 44
0.9
  0
MTEXT
  5
2BF
330
222
100
AcDbEntity
  8
0
  6
Continuous
 62
     2
100
AcDbMText
 10
262.154890719
 20
295.35876025
 30
0.0
 40
4.0
 41
3.6
 71
     1
 72
     1
  1
B
  7
TEXTSTYLE_3
 73
     1
 44
0.9
  0
MTEXT
  5
2C0
330
222
100
AcDbEntity
  8
0
  6
Continuous
 62
     2
100
AcDbMText
 10
162.154890719
 20
295.35876025
 30
0.0
 40
4.0
 41
3.6
 71
     1
 72
     1
  1
C
  7
TEXTSTYLE_3
 73
     1
 44
0.9
  0
MTEXT
  5
2C1
330
222
100
AcDbEntity
  8
0
  6
Continuous
 62
     2
100
AcDbMText
 10
53.9878834197
 20
295.579490177
 30
0.0
 40
4.0
 41
3.6
 71
     1
 72
     1
  1
D
  7
TEXTSTYLE_3
 73
     1
 44
0.9
  0
DIMENSION
  5
2C2
330
222
100
AcDbEntity
  8
0
  6
Continuous
 62
     2
100
AcDbDimension
  2
*D1
 10
110.7008591732
 20
105.5396928267
 30
0.0
 11
110.7008591732
 21
79.6396928267
 31
0.0
 70
   160
 71
     2
 42
51.8
  3
DIMSTYLE_1
100
AcDbAlignedDimension
 13
104.0880886912
 23
53.7396928267
 33
0.0
 14
104.0880886912
 24
105.5396928267
 34
0.0
 50
90.0
100
AcDbRotatedDimension
1001
ACAD
1000
DSTYLE
1002
{
1070
   147
1040
2.0
1002
}
  0
DIMENSION
  5
2C3
330
222
100
AcDbEntity
  8
0
  6
Continuous
 62
     2
100
AcDbDimension
  2
*D2
 10
101.9426935369
 20
169.0277853245
 30
0.0
 11
74.4426935369
 21
169.0277853245
 31
0.0
 70
   160
 71
     2
 42
54.99999999999999
  3
DIMSTYLE_2
100
AcDbAlignedDimension
 13
46.9426935369
 23
175.2648320681
 33
0.0
 14
101.9426935369
 24
174.95065025
 34
0.0
100
AcDbRotatedDimension
1001
ACAD
1000
DSTYLE
1002
{
1070
   147
1040
2.0
1002
}
  0
DIMENSION
  5
2C4
330
222
100
AcDbEntity
  8
0
  6
Continuous
 62
     2
100
AcDbDimension
  2
*D3
 10
110.6528512858
 20
194.2624289773
 30
0.0
 11
110.6528512858
 21
221.7624289773
 31
0.0
 70
   160
 71
     2
 42
55.0
  3
DIMSTYLE_2
100
AcDbAlignedDimension
 13
104.2623211486
 23
249.2624289773
 33
0.0
 14
103.7358211486
 24
194.2624289773
 34
0.0
 50
270.0
100
AcDbRotatedDimension
1001
ACAD
1000
DSTYLE
1002
{
1070
   147
1040
2.0
1002
}
  0
DIMENSION
  5
2C5
330
222
100
AcDbEntity
  8
0
  6
Continuous
 62
     2
100
AcDbDimension
  2
*D4
 10
169.556629128
 20
201.7624289773
 30
0.0
 11
169.556629128
 21
221.7624289773
 31
0.0
 70
   160
  1
%%c<>
 71
     2
 42
40.0
  3
DIMSTYLE_2
100
AcDbAlignedDimension
 13
177.9164370932
 23
241.7624289773
 33
0.0
 14
178.2306189113
 24
201.7624289773
 34
0.0
 50
270.0
100
AcDbRotatedDimension
1001
ACAD
1000
DSTYLE
1002
{
1070
   147
1040
2.0
1002
}
  0
DIMENSION
  5
2C6
330
222
100
AcDbEntity
  8
0
  6
Continuous
 62
     2
100
AcDbDimension
  2
*D5
 10
231.03046875
 20
271.4889384603923
 30
0.0
 11
243.3179922265385
 21
271.4889384603923
 31
0.0
 70
   160
 71
     1
 42
1.599999999999994
  3
DIMSTYLE_3
100
AcDbAlignedDimension
 13
232.63046875
 23
251.0677304284
 33
0.0
 14
231.03046875
 24
250.9671922466
 34
0.0
 50
180.0
100
AcDbRotatedDimension
1001
ACAD
1000
DSTYLE
1002
{
1070
   147
1040
2.0
1002
}
  0
INSERT
  5
2C7
330
222
100
AcDbEntity
  8
0
  6
Continuous
 62
     2
100
AcDbBlockReference
  2
LOGO2_BL0
 10
333.1473869546
 20
37.5239270671
 30
0.0
  0
INSERT
  5
2C8
330
222
100
AcDbEntity
  8
0
  6
Continuous
 62
     2
100
AcDbBlockReference
  2
*T7
 10
319.3213399098
 20
51.0239270671
 30
0.0
  0
LINE
  5
2C9
330
222
100
AcDbEntity
  8
0
  6
Continuous
 62
     7
100
AcDbLine
 10
0.0
 20
0.0
 30
0.0
 11
0.0
 21
297.0
 31
0.0
  0
LWPOLYLINE
  5
2CA
330
222
100
AcDbEntity
  8
0
  6
Continuous
 62
     7
100
AcDbPolyline
 90
        2
 70
     0
 43
0.1000000003
 10
7.0536312849
 20
0.0
 10
7.0536312849
 20
297.0
  0
LWPOLYLINE
  5
2CB
330
222
100
AcDbEntity
  8
0
  6
Continuous
 62
     7
100
AcDbPolyline
 90
        2
 70
     0
 43
0.4999999952
 10
10.0536312849
 20
10.0318435754
 10
10.0536312849
 20
287.0
  0
LINE
  5
2CC
330
222
100
AcDbEntity
  8
0
  6
Continuous
 62
     7
100
AcDbLine
 10
0.0
 20
0.0
 30
0.0
 11
420.0
 21
0.0
 31
0.0
  0
LWPOLYLINE
  5
2CD
330
222
100
AcDbEntity
  8
0
  6
Continuous
 62
     7
100
AcDbPolyline
 90
        2
 70
     0
 43
0.1000000003
 10
0.0
 20
7.0318435754
 10
420.0
 20
7.0318435754
  0
LWPOLYLINE
  5
2CE
330
222
100
AcDbEntity
  8
0
  6
Continuous
 62
     7
100
AcDbPolyline
 90
        2
 70
     0
 43
0.4999999952
 10
10.0536312849
 20
10.0318435754
 10
410.0
 20
10.0318435754
  0
LINE
  5
2CF
330
222
100
AcDbEntity
  8
0
  6
Continuous
 62
     7
100
AcDbLine
 10
113.0
 20
297.0
 30
0.0
 11
113.0
 21
290.0
 31
0.0
  0
LINE
  5
2D0
330
222
100
AcDbEntity
  8
0
  6
Continuous
 62
     7
100
AcDbLine
 10
113.0
 20
7.0
 30
0.0
 11
113.0
 21
0.0
 31
0.0
  0
LWPOLYLINE
  5
2D1
330
222
100
AcDbEntity
  8
0
  6
Continuous
 62
     7
100
AcDbPolyline
 90
        2
 70
     0
 43
0.1000000003
 10
123.0
 20
10.0
 10
123.0
 20
0.0
  0
LWPOLYLINE
  5
2D2
330
222
100
AcDbEntity
  8
0
  6
Continuous
 62
     7
100
AcDbPolyline
 90
        2
 70
     0
 43
0.1000000003
 10
123.0
 20
287.0
 10
123.0
 20
297.0
  0
LINE
  5
2D3
330
222
100
AcDbEntity
  8
0
  6
Continuous
 62
     7
100
AcDbLine
 10
0.0
 20
99.9681564246
 30
0.0
 11
7.0
 21
99.9681564246
 31
0.0
  0
LINE
  5
2D4
330
222
100
AcDbEntity
  8
0
  6
Continuous
 62
     7
100
AcDbLine
 10
413.0
 20
107.0
 30
0.0
 11
420.0
 21
107.0
 31
0.0
  0
LWPOLYLINE
  5
2D5
330
222
100
AcDbEntity
  8
0
  6
Continuous
 62
     7
100
AcDbPolyline
 90
        2
 70
     0
 43
0.1000000003
 10
210.0
 20
10.0
 10
210.0
 20
0.0
  0
LWPOLYLINE
  5
2D6
330
222
100
AcDbEntity
  8
0
  6
Continuous
 62
     7
100
AcDbPolyline
 90
        2
 70
     0
 43
0.1000000003
 10
210.0
 20
287.0
 10
210.0
 20
297.0
  0
LWPOLYLINE
  5
2D7
330
222
100
AcDbEntity
  8
0
  6
Continuous
 62
     7
100
AcDbPolyline
 90
        2
 70
     0
 43
0.1000000003
 10
10.0
 20
148.5
 10
0.0
 20
148.5
  0
LWPOLYLINE
  5
2D8
330
222
100
AcDbEntity
  8
0
  6
Continuous
 62
     7
100
AcDbPolyline
 90
        2
 70
     0
 43
0.1000000003
 10
410.0
 20
148.5
 10
420.0
 20
148.5
  0
LINE
  5
2D9
330
222
100
AcDbEntity
  8
0
  6
Continuous
 62
     7
100
AcDbLine
 10
0.0
 20
199.9681564246
 30
0.0
 11
7.0
 21
199.9681564246
 31
0.0
  0
LWPOLYLINE
  5
2DA
330
222
100
AcDbEntity
  8
0
  6
Continuous
 62
     7
100
AcDbPolyline
 90
        2
 70
     0
 43
0.1000000003
 10
10.0
 20
202.9681564246
 10
0.0
 20
202.9681564246
  0
LWPOLYLINE
  5
2DB
330
222
100
AcDbEntity
  8
0
  6
Continuous
 62
     7
100
AcDbPolyline
 90
        2
 70
     0
 43
0.1000000003
 10
410.0
 20
210.0
 10
420.0
 20
210.0
  0
LINE
  5
2DC
330
222
100
AcDbEntity
  8
0
  6
Continuous
 62
     7
100
AcDbLine
 10
313.0
 20
297.0
 30
0.0
 11
313.0
 21
290.0
 31
0.0
  0
LINE
  5
2DD
330
222
100
AcDbEntity
  8
0
  6
Continuous
 62
     7
100
AcDbLine
 10
313.0
 20
7.0
 30
0.0
 11
313.0
 21
0.0
 31
0.0
  0
LWPOLYLINE
  5
2DE
330
222
100
AcDbEntity
  8
0
  6
Continuous
 62
     7
100
AcDbPolyline
 90
        2
 70
     0
 43
0.4999999952
 10
10.0536312849
 20
287.0
 10
410.0
 20
287.0
  0
LWPOLYLINE
  5
2DF
330
222
100
AcDbEntity
  8
0
  6
Continuous
 62
     7
100
AcDbPolyline
 90
        2
 70
     0
 43
0.1000000003
 10
0.0
 20
290.0
 10
420.0
 20
290.0
  0
LINE
  5
2E0
330
222
100
AcDbEntity
  8
0
  6
Continuous
 62
     7
100
AcDbLine
 10
0.0
 20
297.0
 30
0.0
 11
420.0
 21
297.0
 31
0.0
  0
LWPOLYLINE
  5
2E1
330
222
100
AcDbEntity
  8
0
  6
Continuous
 62
     7
100
AcDbPolyline
 90
        2
 70
     0
 43
0.4999999952
 10
410.0
 20
10.0318435754
 10
410.0
 20
287.0
  0
LWPOLYLINE
  5
2E2
330
222
100
AcDbEntity
  8
0
  6
Continuous
 62
     7
100
AcDbPolyline
 90
        2
 70
     0
 43
0.1000000003
 10
413.0
 20
0.0
 10
413.0
 20
297.0
  0
LINE
  5
2E3
330
222
100
AcDbEntity
  8
0
  6
Continuous
 62
     7
100
AcDbLine
 10
420.0
 20
0.0
 30
0.0
 11
420.0
 21
297.0
 31
0.0
  0
LINE
  5
2E4
330
222
100
AcDbEntity
  8
7_ALL_FEATURES
  6
Continuous
 62
     7
100
AcDbLine
 10
46.9426935369
 20
54.5396928267
 30
0.0
 11
46.9426935369
 21
53.7396928267
 31
0.0
  0
LINE
  5
2E5
330
222
100
AcDbEntity
  8
0
  6
Continuous
 62
     7
100
AcDbLine
 10
46.9426935369
 20
54.5396928267
 30
0.0
 11
46.9426935369
 21
55.3396928267
 31
0.0
  0
LINE
  5
2E6
330
222
100
AcDbEntity
  8
7_ALL_FEATURES
  6
Continuous
 62
     7
100
AcDbLine
 10
101.9426935369
 20
53.7396928267
 30
0.0
 11
46.9426935369
 21
53.7396928267
 31
0.0
  0
LINE
  5
2E7
330
222
100
AcDbEntity
  8
7_ALL_FEATURES
  6
Continuous
 62
     7
100
AcDbLine
 10
101.9426935369
 20
54.5396928267
 30
0.0
 11
46.9426935369
 21
54.5396928267
 31
0.0
  0
LINE
  5
2E8
330
222
100
AcDbEntity
  8
0
  6
Continuous
 62
     7
100
AcDbLine
 10
101.9426935369
 20
54.5396928267
 30
0.0
 11
46.9426935369
 21
54.5396928267
 31
0.0
  0
LINE
  5
2E9
330
222
100
AcDbEntity
  8
0
  6
Continuous
 62
     7
100
AcDbLine
 10
101.9426935369
 20
55.3396928267
 30
0.0
 11
46.9426935369
 21
55.3396928267
 31
0.0
  0
LINE
  5
2EA
330
222
100
AcDbEntity
  8
7_ALL_FEATURES
  6
Continuous
 62
     9
100
AcDbLine
 10
55.0926935369
 20
56.7170430959
 30
0.0
 11
54.7926935369
 21
56.7170430959
 31
0.0
  0
LINE
  5
2EB
330
222
100
AcDbEntity
  8
02___PRT_ALL_AXES
  6
Continuous
 62
     7
100
AcDbLine
 10
53.1426935369
 20
59.3846928267
 30
0.0
 11
53.1426935369
 21
62.6946928267
 31
0.0
  0
LINE
  5
2EC
330
222
100
AcDbEntity
  8
02___PRT_ALL_AXES
  6
Continuous
 62
     7
100
AcDbLine
 10
54.4126935369
 20
58.2896928267
 30
0.0
 11
54.4126935369
 21
63.7896928267
 31
0.0
  0
LINE
  5
2ED
330
222
100
AcDbEntity
  8
02___PRT_ALL_AXES
  6
Continuous
 62
     7
100
AcDbLine
 10
54.7926935369
 20
58.2896928267
 30
0.0
 11
54.4126935369
 21
58.2896928267
 31
0.0
  0
LINE
  5
2EE
330
222
100
AcDbEntity
  8
02___PRT_ALL_AXES
  6
Continuous
 62
     7
100
AcDbLine
 10
94.0926935369
 20
58.2896928267
 30
0.0
 11
94.4726935369
 21
58.2896928267
 31
0.0
  0
LINE
  5
2EF
330
222
100
AcDbEntity
  8
7_ALL_FEATURES
  6
Continuous
 62
     9
100
AcDbLine
 10
93.7926935369
 20
58.8004923797
 30
0.0
 11
94.0926935369
 21
58.8004923797
 31
0.0
  0
LINE
  5
2F0
330
222
100
AcDbEntity
  8
7_ALL_FEATURES
  6
Continuous
 62
     7
100
AcDbLine
 10
54.7926935369
 20
55.3396928267
 30
0.0
 11
54.7926935369
 21
83.1396928267
 31
0.0
  0
LINE
  5
2F1
330
222
100
AcDbEntity
  8
7_ALL_FEATURES
  6
Continuous
 62
     7
100
AcDbLine
 10
55.0926935369
 20
89.5396928267
 30
0.0
 11
55.0926935369
 21
87.3396928267
 31
0.0
  0
LINE
  5
2F2
330
222
100
AcDbEntity
  8
7_ALL_FEATURES
  6
Continuous
 62
     7
100
AcDbLine
 10
55.0926935369
 20
85.3396928267
 30
0.0
 11
55.0926935369
 21
83.5396928267
 31
0.0
  0
LINE
  5
2F3
330
222
100
AcDbEntity
  8
7_ALL_FEATURES
  6
Continuous
 62
     7
100
AcDbLine
 10
55.0926935369
 20
83.1396928267
 30
0.0
 11
55.0926935369
 21
55.3396928267
 31
0.0
  0
LINE
  5
2F4
330
222
100
AcDbEntity
  8
7_ALL_FEATURES
  6
Continuous
 62
     7
100
AcDbLine
 10
58.4426935369
 20
87.3396928267
 30
0.0
 11
58.4426935369
 21
85.3396928267
 31
0.0
  0
LINE
  5
2F5
330
222
100
AcDbEntity
  8
02___PRT_ALL_AXES
  6
Continuous
 62
     7
100
AcDbLine
 10
58.4426935369
 20
83.5396928267
 30
0.0
 11
58.4426935369
 21
81.5396928267
 31
0.0
  0
LINE
  5
2F6
330
222
100
AcDbEntity
  8
02___PRT_ALL_AXES
  6
Continuous
 62
     7
100
AcDbLine
 10
58.4426935369
 20
79.7396928267
 30
0.0
 11
58.4426935369
 21
77.7396928267
 31
0.0
  0
LINE
  5
2F7
330
222
100
AcDbEntity
  8
02___PRT_ALL_AXES
  6
Continuous
 62
     7
100
AcDbLine
 10
58.4426935369
 20
75.9396928267
 30
0.0
 11
58.4426935369
 21
73.9396928267
 31
0.0
  0
LINE
  5
2F8
330
222
100
AcDbEntity
  8
02___PRT_ALL_AXES
  6
Continuous
 62
     7
100
AcDbLine
 10
54.7926935369
 20
63.7896928267
 30
0.0
 11
54.4126935369
 21
63.7896928267
 31
0.0
  0
LINE
  5
2F9
330
222
100
AcDbEntity
  8
02___PRT_ALL_AXES
  6
Continuous
 62
     7
100
AcDbLine
 10
94.0926935369
 20
63.7896928267
 30
0.0
 11
94.4726935369
 21
63.7896928267
 31
0.0
  0
LINE
  5
2FA
330
222
100
AcDbEntity
  8
02___PRT_ALL_AXES
  6
Continuous
 62
     7
100
AcDbLine
 10
67.5144903067
 20
89.5396928267
 30
0.0
 11
67.5144903067
 21
93.0396928267
 31
0.0
  0
LINE
  5
2FB
330
222
100
AcDbEntity
  8
02___PRT_ALL_AXES
  6
Continuous
 62
     7
100
AcDbLine
 10
67.5144903067
 20
96.0396928267
 30
0.0
 11
67.5144903067
 21
102.7448549283
 31
0.0
  0
LINE
  5
2FC
330
222
100
AcDbEntity
  8
02___PRT_ALL_AXES
  6
Continuous
 62
     7
100
AcDbLine
 10
68.4426935369
 20
96.0396928267
 30
0.0
 11
68.4426935369
 21
93.0396928267
 31
0.0
  0
LINE
  5
2FD
330
222
100
AcDbEntity
  8
7_ALL_FEATURES
  6
Continuous
 62
     7
100
AcDbLine
 10
55.0926935369
 20
73.9396928267
 30
0.0
 11
93.7926935369
 21
73.9396928267
 31
0.0
  0
LINE
  5
2FE
330
222
100
AcDbEntity
  8
7_ALL_FEATURES
  6
Continuous
 62
     9
100
AcDbLine
 10
55.0926935369
 20
74.0375511716
 30
0.0
 11
54.7926935369
 21
74.0375511716
 31
0.0
  0
LINE
  5
2FF
330
222
100
AcDbEntity
  8
02___PRT_ALL_AXES
  6
Continuous
 62
     7
100
AcDbLine
 10
70.112566518
 20
102.0396928267
 30
0.0
 11
70.112566518
 21
101.5396928267
 31
0.0
  0
LINE
  5
300
330
222
100
AcDbEntity
  8
02___PRT_ALL_AXES
  6
Continuous
 62
     7
100
AcDbLine
 10
71.8446173256
 20
102.0396928267
 30
0.0
 11
71.8446173256
 21
101.5396928267
 31
0.0
  0
LINE
  5
301
330
222
100
AcDbEntity
  8
7_ALL_FEATURES
  6
Continuous
 62
     7
100
AcDbLine
 10
93.7926935369
 20
75.9396928267
 30
0.0
 11
55.0926935369
 21
75.9396928267
 31
0.0
  0
LINE
  5
302
330
222
100
AcDbEntity
  8
7_ALL_FEATURES
  6
Continuous
 62
     9
100
AcDbLine
 10
55.0926935369
 20
76.4409630159
 30
0.0
 11
54.7926935369
 21
76.4409630159
 31
0.0
  0
LINE
  5
303
330
222
100
AcDbEntity
  8
02___PRT_ALL_AXES
  6
Continuous
 62
     9
100
AcDbLine
 10
94.0926935369
 20
76.8113261966
 30
0.0
 11
93.7926935369
 21
76.8113261966
 31
0.0
  0
LINE
  5
304
330
222
100
AcDbEntity
  8
02___PRT_ALL_AXES
  6
Continuous
 62
     7
100
AcDbLine
 10
74.4426935369
 20
89.5396928267
 30
0.0
 11
74.4426935369
 21
93.0396928267
 31
0.0
  0
LINE
  5
305
330
222
100
AcDbEntity
  8
02___PRT_ALL_AXES
  6
Continuous
 62
     7
100
AcDbLine
 10
74.4426935369
 20
96.0396928267
 30
0.0
 11
74.4426935369
 21
100.5396928267
 31
0.0
  0
LINE
  5
306
330
222
100
AcDbEntity
  8
7_ALL_FEATURES
  6
Continuous
 62
     7
100
AcDbLine
 10
55.0926935369
 20
77.7396928267
 30
0.0
 11
93.7926935369
 21
77.7396928267
 31
0.0
  0
LINE
  5
307
330
222
100
AcDbEntity
  8
7_ALL_FEATURES
  6
Continuous
 62
     7
100
AcDbLine
 10
93.7926935369
 20
79.7396928267
 30
0.0
 11
55.0926935369
 21
79.7396928267
 31
0.0
  0
LINE
  5
308
330
222
100
AcDbEntity
  8
02___PRT_ALL_AXES
  6
Continuous
 62
     7
100
AcDbLine
 10
77.0407697483
 20
102.0396928267
 30
0.0
 11
77.0407697483
 21
101.5396928267
 31
0.0
  0
LINE
  5
309
330
222
100
AcDbEntity
  8
7_ALL_FEATURES
  6
Continuous
 62
     7
100
AcDbLine
 10
55.0926935369
 20
81.5396928267
 30
0.0
 11
93.7926935369
 21
81.5396928267
 31
0.0
  0
LINE
  5
30A
330
222
100
AcDbEntity
  8
02___PRT_ALL_AXES
  6
Continuous
 62
     7
100
AcDbLine
 10
78.7728205559
 20
102.0396928267
 30
0.0
 11
78.7728205559
 21
101.5396928267
 31
0.0
  0
LINE
  5
30B
330
222
100
AcDbEntity
  8
02___PRT_ALL_AXES
  6
Continuous
 62
     7
100
AcDbLine
 10
94.0926935369
 20
83.1396928267
 30
0.0
 11
93.7926935369
 21
83.1396928267
 31
0.0
  0
LINE
  5
30C
330
222
100
AcDbEntity
  8
7_ALL_FEATURES
  6
Continuous
 62
     7
100
AcDbLine
 10
55.0926935369
 20
83.1396928267
 30
0.0
 11
54.7926935369
 21
83.1396928267
 31
0.0
  0
LINE
  5
30D
330
222
100
AcDbEntity
  8
7_ALL_FEATURES
  6
Continuous
 62
     7
100
AcDbLine
 10
93.7926935369
 20
83.5396928267
 30
0.0
 11
55.0926935369
 21
83.5396928267
 31
0.0
  0
LINE
  5
30E
330
222
100
AcDbEntity
  8
02___PRT_ALL_AXES
  6
Continuous
 62
     7
100
AcDbLine
 10
80.4426935369
 20
96.0396928267
 30
0.0
 11
80.4426935369
 21
93.0396928267
 31
0.0
  0
LINE
  5
30F
330
222
100
AcDbEntity
  8
02___PRT_ALL_AXES
  6
Continuous
 62
     7
100
AcDbLine
 10
81.3708967672
 20
89.5396928267
 30
0.0
 11
81.3708967672
 21
93.0396928267
 31
0.0
  0
LINE
  5
310
330
222
100
AcDbEntity
  8
02___PRT_ALL_AXES
  6
Continuous
 62
     7
100
AcDbLine
 10
81.3708967672
 20
96.0396928267
 30
0.0
 11
81.3708967672
 21
102.7448549283
 31
0.0
  0
LINE
  5
311
330
222
100
AcDbEntity
  8
7_ALL_FEATURES
  6
Continuous
 62
     7
100
AcDbLine
 10
55.0926935369
 20
85.3396928267
 30
0.0
 11
93.7926935369
 21
85.3396928267
 31
0.0
  0
LINE
  5
312
330
222
100
AcDbEntity
  8
7_ALL_FEATURES
  6
Continuous
 62
     7
100
AcDbLine
 10
93.7926935369
 20
87.3396928267
 30
0.0
 11
55.0926935369
 21
87.3396928267
 31
0.0
  0
LINE
  5
313
330
222
100
AcDbEntity
  8
7_ALL_FEATURES
  6
Continuous
 62
     7
100
AcDbLine
 10
93.7926935369
 20
89.5396928267
 30
0.0
 11
55.0926935369
 21
89.5396928267
 31
0.0
  0
LINE
  5
314
330
222
100
AcDbEntity
  8
02___PRT_ALL_AXES
  6
Continuous
 62
     7
100
AcDbLine
 10
67.5144903067
 20
93.0396928267
 30
0.0
 11
81.3708967672
 21
93.0396928267
 31
0.0
  0
LINE
  5
315
330
222
100
AcDbEntity
  8
7_ALL_FEATURES
  6
Continuous
 62
     7
100
AcDbLine
 10
90.4426935369
 20
87.3396928267
 30
0.0
 11
90.4426935369
 21
85.3396928267
 31
0.0
  0
LINE
  5
316
330
222
100
AcDbEntity
  8
02___PRT_ALL_AXES
  6
Continuous
 62
     7
100
AcDbLine
 10
90.4426935369
 20
83.5396928267
 30
0.0
 11
90.4426935369
 21
81.5396928267
 31
0.0
  0
LINE
  5
317
330
222
100
AcDbEntity
  8
02___PRT_ALL_AXES
  6
Continuous
 62
     7
100
AcDbLine
 10
90.4426935369
 20
79.7396928267
 30
0.0
 11
90.4426935369
 21
77.7396928267
 31
0.0
  0
LINE
  5
318
330
222
100
AcDbEntity
  8
02___PRT_ALL_AXES
  6
Continuous
 62
     7
100
AcDbLine
 10
90.4426935369
 20
75.9396928267
 30
0.0
 11
90.4426935369
 21
73.9396928267
 31
0.0
  0
LINE
  5
319
330
222
100
AcDbEntity
  8
02___PRT_ALL_AXES
  6
Continuous
 62
     7
100
AcDbLine
 10
67.5144903067
 20
96.0396928267
 30
0.0
 11
81.3708967672
 21
96.0396928267
 31
0.0
  0
LINE
  5
31A
330
222
100
AcDbEntity
  8
7_ALL_FEATURES
  6
Continuous
 62
     7
100
AcDbLine
 10
93.7926935369
 20
89.5396928267
 30
0.0
 11
93.7926935369
 21
87.3396928267
 31
0.0
  0
LINE
  5
31B
330
222
100
AcDbEntity
  8
7_ALL_FEATURES
  6
Continuous
 62
     7
100
AcDbLine
 10
93.7926935369
 20
85.3396928267
 30
0.0
 11
93.7926935369
 21
83.5396928267
 31
0.0
  0
LINE
  5
31C
330
222
100
AcDbEntity
  8
7_ALL_FEATURES
  6
Continuous
 62
     7
100
AcDbLine
 10
93.7926935369
 20
55.3396928267
 30
0.0
 11
93.7926935369
 21
76.8113261966
 31
0.0
  0
LINE
  5
31D
330
222
100
AcDbEntity
  8
02___PRT_ALL_AXES
  6
Continuous
 62
     7
100
AcDbLine
 10
93.7926935369
 20
76.8113261966
 30
0.0
 11
93.7926935369
 21
83.1396928267
 31
0.0
  0
LINE
  5
31E
330
222
100
AcDbEntity
  8
7_ALL_FEATURES
  6
Continuous
 62
     7
100
AcDbLine
 10
94.0926935369
 20
55.3396928267
 30
0.0
 11
94.0926935369
 21
76.8113261966
 31
0.0
  0
LINE
  5
31F
330
222
100
AcDbEntity
  8
02___PRT_ALL_AXES
  6
Continuous
 62
     7
100
AcDbLine
 10
94.0926935369
 20
76.8113261966
 30
0.0
 11
94.0926935369
 21
83.1396928267
 31
0.0
  0
LINE
  5
320
330
222
100
AcDbEntity
  8
02___PRT_ALL_AXES
  6
Continuous
 62
     7
100
AcDbLine
 10
94.4726935369
 20
58.2896928267
 30
0.0
 11
94.4726935369
 21
63.7896928267
 31
0.0
  0
LINE
  5
321
330
222
100
AcDbEntity
  8
02___PRT_ALL_AXES
  6
Continuous
 62
     7
100
AcDbLine
 10
95.7426935369
 20
59.3846928267
 30
0.0
 11
95.7426935369
 21
62.6946928267
 31
0.0
  0
LINE
  5
322
330
222
100
AcDbEntity
  8
02___PRT_ALL_AXES
  6
Continuous
 62
     7
100
AcDbLine
 10
77.0407697483
 20
101.5396928267
 30
0.0
 11
71.8446173256
 21
101.5396928267
 31
0.0
  0
LINE
  5
323
330
222
100
AcDbEntity
  8
02___PRT_ALL_AXES
  6
Continuous
 62
     7
100
AcDbLine
 10
70.112566518
 20
101.5396928267
 30
0.0
 11
67.5144903067
 21
101.5396928267
 31
0.0
  0
LINE
  5
324
330
222
100
AcDbEntity
  8
02___PRT_ALL_AXES
  6
Continuous
 62
     7
100
AcDbLine
 10
78.7728205559
 20
101.5396928267
 30
0.0
 11
81.3708967672
 21
101.5396928267
 31
0.0
  0
LINE
  5
325
330
222
100
AcDbEntity
  8
02___PRT_ALL_AXES
  6
Continuous
 62
     9
100
AcDbLine
 10
70.112566518
 20
102.0396928267
 30
0.0
 11
67.5144903067
 21
102.0396928267
 31
0.0
  0
LINE
  5
326
330
222
100
AcDbEntity
  8
02___PRT_ALL_AXES
  6
Continuous
 62
     9
100
AcDbLine
 10
71.8446173256
 20
102.0396928267
 30
0.0
 11
77.0407697483
 21
102.0396928267
 31
0.0
  0
LINE
  5
327
330
222
100
AcDbEntity
  8
02___PRT_ALL_AXES
  6
Continuous
 62
     9
100
AcDbLine
 10
78.7728205559
 20
102.0396928267
 30
0.0
 11
81.3708967672
 21
102.0396928267
 31
0.0
  0
LINE
  5
328
330
222
100
AcDbEntity
  8
7_ALL_FEATURES
  6
Continuous
 62
     7
100
AcDbLine
 10
101.9426935369
 20
54.5396928267
 30
0.0
 11
101.9426935369
 21
53.7396928267
 31
0.0
  0
LINE
  5
329
330
222
100
AcDbEntity
  8
0
  6
Continuous
 62
     7
100
AcDbLine
 10
101.9426935369
 20
54.5396928267
 30
0.0
 11
101.9426935369
 21
55.3396928267
 31
0.0
  0
LINE
  5
32A
330
222
100
AcDbEntity
  8
02___PRT_ALL_AXES
  6
Continuous
 62
     7
100
AcDbLine
 10
77.9426935369
 20
105.5396928267
 30
0.0
 11
70.9426935369
 21
105.5396928267
 31
0.0
  0
LINE
  5
32B
330
222
100
AcDbEntity
  8
7_ALL_FEATURES
  6
Continuous
 62
     7
100
AcDbLine
 10
77.9426935369
 20
105.5396928267
 30
0.0
 11
70.9426935369
 21
105.5396928267
 31
0.0
  0
LINE
  5
32C
330
222
100
AcDbEntity
  8
02___PRT_ALL_AXES
  6
Continuous
 62
     7
100
AcDbLine
 10
54.7926935369
 20
176.7624289773
 30
0.0
 11
55.0926935369
 21
176.7624289773
 31
0.0
  0
LINE
  5
32D
330
222
100
AcDbEntity
  8
02___PRT_ALL_AXES
  6
Continuous
 62
     9
100
AcDbLine
 10
54.7926935369
 20
178.4581097052
 30
0.0
 11
55.0926935369
 21
178.4581097052
 31
0.0
  0
LINE
  5
32E
330
222
100
AcDbEntity
  8
7_ALL_FEATURES
  6
Continuous
 62
     7
100
AcDbLine
 10
46.9426935369
 20
249.2624289773
 30
0.0
 11
46.9426935369
 21
194.2624289773
 31
0.0
  0
LINE
  5
32F
330
222
100
AcDbEntity
  8
7_ALL_FEATURES
  6
Continuous
 62
     7
100
AcDbLine
 10
46.9426935369
 20
194.2624289773
 30
0.0
 11
101.9426935369
 21
194.2624289773
 31
0.0
  0
LINE
  5
330
330
222
100
AcDbEntity
  8
7_ALL_FEATURES
  6
Continuous
 62
     7
100
AcDbLine
 10
54.7926935369
 20
194.2624289773
 30
0.0
 11
54.7926935369
 21
178.4581097052
 31
0.0
  0
LINE
  5
331
330
222
100
AcDbEntity
  8
02___PRT_ALL_AXES
  6
Continuous
 62
     7
100
AcDbLine
 10
54.7926935369
 20
178.4581097052
 30
0.0
 11
54.7926935369
 21
176.7626628804
 31
0.0
  0
LINE
  5
332
330
222
100
AcDbEntity
  8
7_ALL_FEATURES
  6
Continuous
 62
     7
100
AcDbLine
 10
55.0926935369
 20
194.2624289773
 30
0.0
 11
55.0926935369
 21
178.4581097052
 31
0.0
  0
LINE
  5
333
330
222
100
AcDbEntity
  8
02___PRT_ALL_AXES
  6
Continuous
 62
     7
100
AcDbLine
 10
55.0926935369
 20
178.4581097052
 30
0.0
 11
55.0926935369
 21
176.7626628804
 31
0.0
  0
LINE
  5
334
330
222
100
AcDbEntity
  8
7_ALL_FEATURES
  6
Continuous
 62
     7
100
AcDbLine
 10
93.7926935369
 20
249.2624289773
 30
0.0
 11
93.7926935369
 21
265.0667482493
 31
0.0
  0
LINE
  5
335
330
222
100
AcDbEntity
  8
02___PRT_ALL_AXES
  6
Continuous
 62
     7
100
AcDbLine
 10
93.7926935369
 20
265.0667482493
 30
0.0
 11
93.7926935369
 21
266.7621950742
 31
0.0
  0
LINE
  5
336
330
222
100
AcDbEntity
  8
7_ALL_FEATURES
  6
Continuous
 62
     7
100
AcDbLine
 10
94.0926935369
 20
249.2624289773
 30
0.0
 11
94.0926935369
 21
265.0667482493
 31
0.0
  0
LINE
  5
337
330
222
100
AcDbEntity
  8
02___PRT_ALL_AXES
  6
Continuous
 62
     7
100
AcDbLine
 10
94.0926935369
 20
265.0667482493
 30
0.0
 11
94.0926935369
 21
266.7621950742
 31
0.0
  0
LINE
  5
338
330
222
100
AcDbEntity
  8
7_ALL_FEATURES
  6
Continuous
 62
     7
100
AcDbLine
 10
101.9426935369
 20
194.2624289773
 30
0.0
 11
101.9426935369
 21
249.2624289773
 31
0.0
  0
LINE
  5
339
330
222
100
AcDbEntity
  8
7_ALL_FEATURES
  6
Continuous
 62
     7
100
AcDbLine
 10
101.9426935369
 20
249.2624289773
 30
0.0
 11
46.9426935369
 21
249.2624289773
 31
0.0
  0
LINE
  5
33A
330
222
100
AcDbEntity
  8
02___PRT_ALL_AXES
  6
Continuous
 62
     9
100
AcDbLine
 10
94.0926935369
 20
265.0667482493
 30
0.0
 11
93.7926935369
 21
265.0667482493
 31
0.0
  0
LINE
  5
33B
330
222
100
AcDbEntity
  8
02___PRT_ALL_AXES
  6
Continuous
 62
     7
100
AcDbLine
 10
94.0926935369
 20
266.7624289773
 30
0.0
 11
93.7926935369
 21
266.7624289773
 31
0.0
  0
LINE
  5
33C
330
222
100
AcDbEntity
  8
0
  6
Continuous
 62
     7
100
AcDbLine
 10
231.83046875
 20
194.2624289773
 30
0.0
 11
231.03046875
 21
194.2624289773
 31
0.0
  0
LINE
  5
33D
330
222
100
AcDbEntity
  8
7_ALL_FEATURES
  6
Continuous
 62
     7
100
AcDbLine
 10
231.83046875
 20
194.2624289773
 30
0.0
 11
232.63046875
 21
194.2624289773
 31
0.0
  0
LINE
  5
33E
330
222
100
AcDbEntity
  8
02___PRT_ALL_AXES
  6
Continuous
 62
     7
100
AcDbLine
 10
180.83046875
 20
220.2624289773
 30
0.0
 11
180.83046875
 21
213.2624289773
 31
0.0
  0
LINE
  5
33F
330
222
100
AcDbEntity
  8
7_ALL_FEATURES
  6
Continuous
 62
     7
100
AcDbLine
 10
180.83046875
 20
220.2624289773
 30
0.0
 11
180.83046875
 21
213.2624289773
 31
0.0
  0
LINE
  5
340
330
222
100
AcDbEntity
  8
02___PRT_ALL_AXES
  6
Continuous
 62
     7
100
AcDbLine
 10
184.83046875
 20
209.7624289773
 30
0.0
 11
185.83046875
 21
208.7624289773
 31
0.0
  0
LINE
  5
341
330
222
100
AcDbEntity
  8
02___PRT_ALL_AXES
  6
Continuous
 62
     9
100
AcDbLine
 10
184.33046875
 20
223.7624289773
 30
0.0
 11
184.33046875
 21
223.2624289773
 31
0.0
  0
LINE
  5
342
330
222
100
AcDbEntity
  8
02___PRT_ALL_AXES
  6
Continuous
 62
     9
100
AcDbLine
 10
184.33046875
 20
222.2624289773
 30
0.0
 11
184.33046875
 21
217.7624289773
 31
0.0
  0
LINE
  5
343
330
222
100
AcDbEntity
  8
02___PRT_ALL_AXES
  6
Continuous
 62
     9
100
AcDbLine
 10
184.33046875
 20
215.7624289773
 30
0.0
 11
184.33046875
 21
211.2624289773
 31
0.0
  0
LINE
  5
344
330
222
100
AcDbEntity
  8
02___PRT_ALL_AXES
  6
Continuous
 62
     9
100
AcDbLine
 10
184.33046875
 20
210.2624289773
 30
0.0
 11
184.33046875
 21
209.7624289773
 31
0.0
  0
LINE
  5
345
330
222
100
AcDbEntity
  8
02___PRT_ALL_AXES
  6
Continuous
 62
     7
100
AcDbLine
 10
184.83046875
 20
223.7624289773
 30
0.0
 11
184.83046875
 21
223.2624289773
 31
0.0
  0
LINE
  5
346
330
222
100
AcDbEntity
  8
02___PRT_ALL_AXES
  6
Continuous
 62
     7
100
AcDbLine
 10
184.83046875
 20
222.2624289773
 30
0.0
 11
184.83046875
 21
217.7624289773
 31
0.0
  0
LINE
  5
347
330
222
100
AcDbEntity
  8
02___PRT_ALL_AXES
  6
Continuous
 62
     7
100
AcDbLine
 10
184.83046875
 20
215.7624289773
 30
0.0
 11
184.83046875
 21
211.2624289773
 31
0.0
  0
LINE
  5
348
330
222
100
AcDbEntity
  8
02___PRT_ALL_AXES
  6
Continuous
 62
     7
100
AcDbLine
 10
184.83046875
 20
210.2624289773
 30
0.0
 11
184.83046875
 21
209.7624289773
 31
0.0
  0
LINE
  5
349
330
222
100
AcDbEntity
  8
02___PRT_ALL_AXES
  6
Continuous
 62
     7
100
AcDbLine
 10
184.83046875
 20
223.7624289773
 30
0.0
 11
185.83046875
 21
224.7624289773
 31
0.0
  0
LINE
  5
34A
330
222
100
AcDbEntity
  8
02___PRT_ALL_AXES
  6
Continuous
 62
     7
100
AcDbLine
 10
196.83046875
 20
201.7624289773
 30
0.0
 11
199.03046875
 21
201.7624289773
 31
0.0
  0
LINE
  5
34B
330
222
100
AcDbEntity
  8
02___PRT_ALL_AXES
  6
Continuous
 62
     7
100
AcDbLine
 10
201.03046875
 20
201.7624289773
 30
0.0
 11
202.83046875
 21
201.7624289773
 31
0.0
  0
LINE
  5
34C
330
222
100
AcDbEntity
  8
02___PRT_ALL_AXES
  6
Continuous
 62
     7
100
AcDbLine
 10
223.0135903851
 20
201.7624289773
 30
0.0
 11
231.03046875
 21
201.7624289773
 31
0.0
  0
LINE
  5
34D
330
222
100
AcDbEntity
  8
02___PRT_ALL_AXES
  6
Continuous
 62
     7
100
AcDbLine
 10
190.33046875
 20
208.7624289773
 30
0.0
 11
190.33046875
 21
224.7624289773
 31
0.0
  0
LINE
  5
34E
330
222
100
AcDbEntity
  8
02___PRT_ALL_AXES
  6
Continuous
 62
     7
100
AcDbLine
 10
193.33046875
 20
208.7624289773
 30
0.0
 11
193.33046875
 21
224.7624289773
 31
0.0
  0
LINE
  5
34F
330
222
100
AcDbEntity
  8
02___PRT_ALL_AXES
  6
Continuous
 62
     7
100
AcDbLine
 10
204.83046875
 20
205.7624289773
 30
0.0
 11
202.83046875
 21
205.7624289773
 31
0.0
  0
LINE
  5
350
330
222
100
AcDbEntity
  8
7_ALL_FEATURES
  6
Continuous
 62
     7
100
AcDbLine
 10
201.03046875
 20
205.7624289773
 30
0.0
 11
199.03046875
 21
205.7624289773
 31
0.0
  0
LINE
  5
351
330
222
100
AcDbEntity
  8
02___PRT_ALL_AXES
  6
Continuous
 62
     7
100
AcDbLine
 10
196.83046875
 20
208.7624289773
 30
0.0
 11
193.33046875
 21
208.7624289773
 31
0.0
  0
LINE
  5
352
330
222
100
AcDbEntity
  8
02___PRT_ALL_AXES
  6
Continuous
 62
     7
100
AcDbLine
 10
190.33046875
 20
208.7624289773
 30
0.0
 11
185.83046875
 21
208.7624289773
 31
0.0
  0
LINE
  5
353
330
222
100
AcDbEntity
  8
02___PRT_ALL_AXES
  6
Continuous
 62
     7
100
AcDbLine
 10
184.33046875
 20
209.7624289773
 30
0.0
 11
184.83046875
 21
209.7624289773
 31
0.0
  0
LINE
  5
354
330
222
100
AcDbEntity
  8
02___PRT_ALL_AXES
  6
Continuous
 62
     7
100
AcDbLine
 10
184.33046875
 20
210.2624289773
 30
0.0
 11
184.83046875
 21
210.2624289773
 31
0.0
  0
LINE
  5
355
330
222
100
AcDbEntity
  8
02___PRT_ALL_AXES
  6
Continuous
 62
     7
100
AcDbLine
 10
193.33046875
 20
210.7624289773
 30
0.0
 11
190.33046875
 21
210.7624289773
 31
0.0
  0
LINE
  5
356
330
222
100
AcDbEntity
  8
02___PRT_ALL_AXES
  6
Continuous
 62
     7
100
AcDbLine
 10
184.33046875
 20
211.2624289773
 30
0.0
 11
184.83046875
 21
211.2624289773
 31
0.0
  0
LINE
  5
357
330
222
100
AcDbEntity
  8
7_ALL_FEATURES
  6
Continuous
 62
     7
100
AcDbLine
 10
196.83046875
 20
201.7626008134
 30
0.0
 11
196.83046875
 21
241.7622571411
 31
0.0
  0
LINE
  5
358
330
222
100
AcDbEntity
  8
7_ALL_FEATURES
  6
Continuous
 62
     7
100
AcDbLine
 10
199.03046875
 20
201.7626008134
 30
0.0
 11
199.03046875
 21
241.7622571411
 31
0.0
  0
LINE
  5
359
330
222
100
AcDbEntity
  8
02___PRT_ALL_AXES
  6
Continuous
 62
     7
100
AcDbLine
 10
196.83046875
 20
212.7624289773
 30
0.0
 11
193.33046875
 21
212.7624289773
 31
0.0
  0
LINE
  5
35A
330
222
100
AcDbEntity
  8
02___PRT_ALL_AXES
  6
Continuous
 62
     7
100
AcDbLine
 10
190.33046875
 20
212.7624289773
 30
0.0
 11
185.83046875
 21
212.7624289773
 31
0.0
  0
LINE
  5
35B
330
222
100
AcDbEntity
  8
7_ALL_FEATURES
  6
Continuous
 62
     7
100
AcDbLine
 10
201.03046875
 20
201.7626008134
 30
0.0
 11
201.03046875
 21
241.7622571411
 31
0.0
  0
LINE
  5
35C
330
222
100
AcDbEntity
  8
7_ALL_FEATURES
  6
Continuous
 62
     7
100
AcDbLine
 10
202.83046875
 20
201.7626008134
 30
0.0
 11
202.83046875
 21
241.7622571411
 31
0.0
  0
LINE
  5
35D
330
222
100
AcDbEntity
  8
7_ALL_FEATURES
  6
Continuous
 62
     7
100
AcDbLine
 10
203.23046875
 20
263.3710675214
 30
0.0
 11
203.23046875
 21
253.4252604032
 31
0.0
  0
LINE
  5
35E
330
222
100
AcDbEntity
  8
7_ALL_FEATURES
  6
Continuous
 62
     7
100
AcDbLine
 10
203.23046875
 20
180.1537904332
 30
0.0
 11
203.23046875
 21
190.0995975514
 31
0.0
  0
LINE
  5
35F
330
222
100
AcDbEntity
  8
02___PRT_ALL_AXES
  6
Continuous
 62
     7
100
AcDbLine
 10
184.33046875
 20
215.7624289773
 30
0.0
 11
184.83046875
 21
215.7624289773
 31
0.0
  0
LINE
  5
360
330
222
100
AcDbEntity
  8
7_ALL_FEATURES
  6
Continuous
 62
     7
100
AcDbLine
 10
196.83046875
 20
216.7050086863
 30
0.0
 11
199.03046875
 21
216.7050086863
 31
0.0
  0
LINE
  5
361
330
222
100
AcDbEntity
  8
7_ALL_FEATURES
  6
Continuous
 62
     7
100
AcDbLine
 10
201.03046875
 20
216.7050086863
 30
0.0
 11
202.83046875
 21
216.7050086863
 31
0.0
  0
LINE
  5
362
330
222
100
AcDbEntity
  8
7_ALL_FEATURES
  6
Continuous
 62
     7
100
AcDbLine
 10
204.83046875
 20
216.7050086863
 30
0.0
 11
206.63046875
 21
216.7050086863
 31
0.0
  0
LINE
  5
363
330
222
100
AcDbEntity
  8
7_ALL_FEATURES
  6
Continuous
 62
     7
100
AcDbLine
 10
208.63046875
 20
216.7050086863
 30
0.0
 11
210.43046875
 21
216.7050086863
 31
0.0
  0
LINE
  5
364
330
222
100
AcDbEntity
  8
7_ALL_FEATURES
  6
Continuous
 62
     7
100
AcDbLine
 10
231.03046875
 20
217.5124289773
 30
0.0
 11
230.48046875
 21
217.5124289773
 31
0.0
  0
LINE
  5
365
330
222
100
AcDbEntity
  8
02___PRT_ALL_AXES
  6
Continuous
 62
     7
100
AcDbLine
 10
184.33046875
 20
217.7624289773
 30
0.0
 11
184.83046875
 21
217.7624289773
 31
0.0
  0
LINE
  5
366
330
222
100
AcDbEntity
  8
0
  6
Continuous
 62
     7
100
AcDbLine
 10
230.23046875
 20
217.7624289773
 30
0.0
 11
231.03046875
 21
217.7624289773
 31
0.0
  0
LINE
  5
367
330
222
100
AcDbEntity
  8
7_ALL_FEATURES
  6
Continuous
 62
     7
100
AcDbLine
 10
204.83046875
 20
202.5727501567
 30
0.0
 11
204.83046875
 21
241.7622571411
 31
0.0
  0
LINE
  5
368
330
222
100
AcDbEntity
  8
7_ALL_FEATURES
  6
Continuous
 62
     7
100
AcDbLine
 10
206.63046875
 20
208.1291861892
 30
0.0
 11
206.63046875
 21
241.7622571411
 31
0.0
  0
LINE
  5
369
330
222
100
AcDbEntity
  8
02___PRT_ALL_AXES
  6
Continuous
 62
     7
100
AcDbLine
 10
196.83046875
 20
220.7624289773
 30
0.0
 11
193.33046875
 21
220.7624289773
 31
0.0
  0
LINE
  5
36A
330
222
100
AcDbEntity
  8
02___PRT_ALL_AXES
  6
Continuous
 62
     7
100
AcDbLine
 10
190.33046875
 20
220.7624289773
 30
0.0
 11
185.83046875
 21
220.7624289773
 31
0.0
  0
LINE
  5
36B
330
222
100
AcDbEntity
  8
7_ALL_FEATURES
  6
Continuous
 62
     7
100
AcDbLine
 10
208.63046875
 20
212.6047607971
 30
0.0
 11
208.63046875
 21
241.7622571411
 31
0.0
  0
LINE
  5
36C
330
222
100
AcDbEntity
  8
7_ALL_FEATURES
  6
Continuous
 62
     7
100
AcDbLine
 10
210.43046875
 20
215.9678229874
 30
0.0
 11
210.43046875
 21
241.7622571411
 31
0.0
  0
LINE
  5
36D
330
222
100
AcDbEntity
  8
02___PRT_ALL_AXES
  6
Continuous
 62
     7
100
AcDbLine
 10
184.33046875
 20
222.2624289773
 30
0.0
 11
184.83046875
 21
222.2624289773
 31
0.0
  0
LINE
  5
36E
330
222
100
AcDbEntity
  8
02___PRT_ALL_AXES
  6
Continuous
 62
     7
100
AcDbLine
 10
193.33046875
 20
222.7624289773
 30
0.0
 11
190.33046875
 21
222.7624289773
 31
0.0
  0
LINE
  5
36F
330
222
100
AcDbEntity
  8
02___PRT_ALL_AXES
  6
Continuous
 62
     7
100
AcDbLine
 10
184.33046875
 20
223.2624289773
 30
0.0
 11
184.83046875
 21
223.2624289773
 31
0.0
  0
LINE
  5
370
330
222
100
AcDbEntity
  8
02___PRT_ALL_AXES
  6
Continuous
 62
     7
100
AcDbLine
 10
184.33046875
 20
223.7624289773
 30
0.0
 11
184.83046875
 21
223.7624289773
 31
0.0
  0
LINE
  5
371
330
222
100
AcDbEntity
  8
02___PRT_ALL_AXES
  6
Continuous
 62
     7
100
AcDbLine
 10
196.83046875
 20
224.7624289773
 30
0.0
 11
193.33046875
 21
224.7624289773
 31
0.0
  0
LINE
  5
372
330
222
100
AcDbEntity
  8
02___PRT_ALL_AXES
  6
Continuous
 62
     7
100
AcDbLine
 10
190.33046875
 20
224.7624289773
 30
0.0
 11
185.83046875
 21
224.7624289773
 31
0.0
  0
LINE
  5
373
330
222
100
AcDbEntity
  8
7_ALL_FEATURES
  6
Continuous
 62
     7
100
AcDbLine
 10
212.43046875
 20
219.4088843401
 30
0.0
 11
212.43046875
 21
241.7622571411
 31
0.0
  0
LINE
  5
374
330
222
100
AcDbEntity
  8
7_ALL_FEATURES
  6
Continuous
 62
     7
100
AcDbLine
 10
209.9291985608
 20
215.0995975514
 30
0.0
 11
212.3326104051
 21
219.2624289773
 31
0.0
  0
LINE
  5
375
330
222
100
AcDbEntity
  8
0
  6
Continuous
 62
     7
100
AcDbLine
 10
231.03046875
 20
225.7624289773
 30
0.0
 11
230.23046875
 21
225.7624289773
 31
0.0
  0
LINE
  5
376
330
222
100
AcDbEntity
  8
7_ALL_FEATURES
  6
Continuous
 62
     7
100
AcDbLine
 10
230.48046875
 20
226.0124289773
 30
0.0
 11
231.03046875
 21
226.0124289773
 31
0.0
  0
LINE
  5
377
330
222
100
AcDbEntity
  8
7_ALL_FEATURES
  6
Continuous
 62
     7
100
AcDbLine
 10
196.83046875
 20
226.8198492683
 30
0.0
 11
199.03046875
 21
226.8198492683
 31
0.0
  0
LINE
  5
378
330
222
100
AcDbEntity
  8
7_ALL_FEATURES
  6
Continuous
 62
     7
100
AcDbLine
 10
201.03046875
 20
226.8198492683
 30
0.0
 11
202.83046875
 21
226.8198492683
 31
0.0
  0
LINE
  5
379
330
222
100
AcDbEntity
  8
7_ALL_FEATURES
  6
Continuous
 62
     7
100
AcDbLine
 10
204.83046875
 20
226.8198492683
 30
0.0
 11
206.63046875
 21
226.8198492683
 31
0.0
  0
LINE
  5
37A
330
222
100
AcDbEntity
  8
7_ALL_FEATURES
  6
Continuous
 62
     7
100
AcDbLine
 10
208.63046875
 20
226.8198492683
 30
0.0
 11
210.43046875
 21
226.8198492683
 31
0.0
  0
LINE
  5
37B
330
222
100
AcDbEntity
  8
7_ALL_FEATURES
  6
Continuous
 62
     7
100
AcDbLine
 10
212.43046875
 20
226.8198492683
 30
0.0
 11
220.1335289294
 21
226.8198492683
 31
0.0
  0
LINE
  5
37C
330
222
100
AcDbEntity
  8
7_ALL_FEATURES
  6
Continuous
 62
     7
100
AcDbLine
 10
225.33046875
 20
222.9171295157
 30
0.0
 11
224.33046875
 21
222.3397792465
 31
0.0
  0
LINE
  5
37D
330
222
100
AcDbEntity
  8
7_ALL_FEATURES
  6
Continuous
 62
     7
100
AcDbLine
 10
225.33046875
 20
220.6077284389
 30
0.0
 11
226.33046875
 21
221.1850787081
 31
0.0
  0
LINE
  5
37E
330
222
100
AcDbEntity
  8
7_ALL_FEATURES
  6
Continuous
 62
     7
100
AcDbLine
 10
229.6531184808
 20
229.2624289773
 30
0.0
 11
231.03046875
 21
229.2624289773
 31
0.0
  0
LINE
  5
37F
330
222
100
AcDbEntity
  8
7_ALL_FEATURES
  6
Continuous
 62
     7
100
AcDbLine
 10
224.33046875
 20
221.1850787081
 30
0.0
 11
225.33046875
 21
220.6077284389
 31
0.0
  0
LINE
  5
380
330
222
100
AcDbEntity
  8
7_ALL_FEATURES
  6
Continuous
 62
     7
100
AcDbLine
 10
226.33046875
 20
222.3397792465
 30
0.0
 11
225.33046875
 21
222.9171295157
 31
0.0
  0
LINE
  5
381
330
222
100
AcDbEntity
  8
7_ALL_FEATURES
  6
Continuous
 62
     7
100
AcDbLine
 10
230.23046875
 20
225.7624289773
 30
0.0
 11
231.03046875
 21
226.5624289773
 31
0.0
  0
LINE
  5
382
330
222
100
AcDbEntity
  8
7_ALL_FEATURES
  6
Continuous
 62
     7
100
AcDbLine
 10
231.03046875
 20
216.9624289773
 30
0.0
 11
230.23046875
 21
217.7624289773
 31
0.0
  0
LINE
  5
383
330
222
100
AcDbEntity
  8
7_ALL_FEATURES
  6
Continuous
 62
     7
100
AcDbLine
 10
224.33046875
 20
222.3397792465
 30
0.0
 11
224.33046875
 21
221.1850787081
 31
0.0
  0
LINE
  5
384
330
222
100
AcDbEntity
  8
02___PRT_ALL_AXES
  6
Continuous
 62
     7
100
AcDbLine
 10
212.43046875
 20
237.7624289773
 30
0.0
 11
210.43046875
 21
237.7624289773
 31
0.0
  0
LINE
  5
385
330
222
100
AcDbEntity
  8
02___PRT_ALL_AXES
  6
Continuous
 62
     7
100
AcDbLine
 10
208.63046875
 20
237.7624289773
 30
0.0
 11
206.63046875
 21
237.7624289773
 31
0.0
  0
LINE
  5
386
330
222
100
AcDbEntity
  8
02___PRT_ALL_AXES
  6
Continuous
 62
     7
100
AcDbLine
 10
204.83046875
 20
237.7624289773
 30
0.0
 11
202.83046875
 21
237.7624289773
 31
0.0
  0
LINE
  5
387
330
222
100
AcDbEntity
  8
7_ALL_FEATURES
  6
Continuous
 62
     7
100
AcDbLine
 10
201.03046875
 20
237.7624289773
 30
0.0
 11
199.03046875
 21
237.7624289773
 31
0.0
  0
LINE
  5
388
330
222
100
AcDbEntity
  8
7_ALL_FEATURES
  6
Continuous
 62
     7
100
AcDbLine
 10
226.33046875
 20
221.1850787081
 30
0.0
 11
226.33046875
 21
222.3397792465
 31
0.0
  0
LINE
  5
389
330
222
100
AcDbEntity
  8
02___PRT_ALL_AXES
  6
Continuous
 62
     7
100
AcDbLine
 10
196.83046875
 20
241.7624289773
 30
0.0
 11
199.03046875
 21
241.7624289773
 31
0.0
  0
LINE
  5
38A
330
222
100
AcDbEntity
  8
02___PRT_ALL_AXES
  6
Continuous
 62
     7
100
AcDbLine
 10
201.03046875
 20
241.7624289773
 30
0.0
 11
202.83046875
 21
241.7624289773
 31
0.0
  0
LINE
  5
38B
330
222
100
AcDbEntity
  8
02___PRT_ALL_AXES
  6
Continuous
 62
     7
100
AcDbLine
 10
204.83046875
 20
241.7624289773
 30
0.0
 11
206.63046875
 21
241.7624289773
 31
0.0
  0
LINE
  5
38C
330
222
100
AcDbEntity
  8
02___PRT_ALL_AXES
  6
Continuous
 62
     7
100
AcDbLine
 10
208.63046875
 20
241.7624289773
 30
0.0
 11
210.43046875
 21
241.7624289773
 31
0.0
  0
LINE
  5
38D
330
222
100
AcDbEntity
  8
02___PRT_ALL_AXES
  6
Continuous
 62
     7
100
AcDbLine
 10
212.43046875
 20
241.7624289773
 30
0.0
 11
231.03046875
 21
241.7624289773
 31
0.0
  0
LINE
  5
38E
330
222
100
AcDbEntity
  8
7_ALL_FEATURES
  6
Continuous
 62
     7
100
AcDbLine
 10
230.23046875
 20
217.7624289773
 30
0.0
 11
230.23046875
 21
225.7624289773
 31
0.0
  0
LINE
  5
38F
330
222
100
AcDbEntity
  8
0
  6
Continuous
 62
     7
100
AcDbLine
 10
231.03046875
 20
249.2624289773
 30
0.0
 11
231.03046875
 21
194.2624289773
 31
0.0
  0
LINE
  5
390
330
222
100
AcDbEntity
  8
7_ALL_FEATURES
  6
Continuous
 62
     7
100
AcDbLine
 10
227.569669197
 20
209.6537889627
 30
0.0
 11
209.5588353801
 21
178.4581097052
 31
0.0
  0
LINE
  5
391
330
222
100
AcDbEntity
  8
7_ALL_FEATURES
  6
Continuous
 62
     7
100
AcDbLine
 10
223.0135903851
 20
241.7624289773
 30
0.0
 11
209.5588353801
 21
265.0667482493
 31
0.0
  0
LINE
  5
392
330
222
100
AcDbEntity
  8
7_ALL_FEATURES
  6
Continuous
 62
     7
100
AcDbLine
 10
231.83046875
 20
249.2624289773
 30
0.0
 11
231.83046875
 21
194.2624289773
 31
0.0
  0
LINE
  5
393
330
222
100
AcDbEntity
  8
0
  6
Continuous
 62
     7
100
AcDbLine
 10
231.83046875
 20
249.2624289773
 30
0.0
 11
231.83046875
 21
194.2624289773
 31
0.0
  0
LINE
  5
394
330
222
100
AcDbEntity
  8
7_ALL_FEATURES
  6
Continuous
 62
     7
100
AcDbLine
 10
232.63046875
 20
249.2624289773
 30
0.0
 11
232.63046875
 21
194.2624289773
 31
0.0
  0
LINE
  5
395
330
222
100
AcDbEntity
  8
0
  6
Continuous
 62
     7
100
AcDbLine
 10
231.83046875
 20
249.2624289773
 30
0.0
 11
231.03046875
 21
249.2624289773
 31
0.0
  0
LINE
  5
396
330
222
100
AcDbEntity
  8
7_ALL_FEATURES
  6
Continuous
 62
     7
100
AcDbLine
 10
231.83046875
 20
249.2624289773
 30
0.0
 11
232.63046875
 21
249.2624289773
 31
0.0
  0
LINE
  5
397
330
222
100
AcDbEntity
  8
02___PRT_ALL_AXES
  6
Continuous
 62
     7
100
AcDbLine
 10
334.5161308352
 20
74.3231336661
 30
0.0
 11
334.7359478331
 21
74.2609222015
 31
0.0
  0
LINE
  5
398
330
222
100
AcDbEntity
  8
02___PRT_ALL_AXES
  6
Continuous
 62
     9
100
AcDbLine
 10
333.4851573149
 20
75.2273193185
 30
0.0
 11
333.7049743128
 21
75.1651078539
 31
0.0
  0
LINE
  5
399
330
222
100
AcDbEntity
  8
7_ALL_FEATURES
  6
Continuous
 62
     7
100
AcDbLine
 10
310.798964421
 20
137.9023449709
 30
0.0
 11
310.2549181863
 21
137.6955671664
 31
0.0
  0
LINE
  5
39A
330
222
100
AcDbEntity
  8
0
  6
Continuous
 62
     7
100
AcDbLine
 10
310.798964421
 20
137.9023449709
 30
0.0
 11
311.3430106557
 21
138.1091227754
 31
0.0
  0
LINE
  5
39B
330
222
100
AcDbEntity
  8
7_ALL_FEATURES
  6
Continuous
 62
     7
100
AcDbLine
 10
311.6440626992
 20
85.8031579907
 30
0.0
 11
351.9438456454
 21
74.3977228195
 31
0.0
  0
LINE
  5
39C
330
222
100
AcDbEntity
  8
7_ALL_FEATURES
  6
Continuous
 62
     7
100
AcDbLine
 10
310.2549181863
 20
137.6955671664
 30
0.0
 11
311.6440626992
 21
85.8031579907
 31
0.0
  0
LINE
  5
39D
330
222
100
AcDbEntity
  8
7_ALL_FEATURES
  6
Continuous
 62
     7
100
AcDbLine
 10
330.7685829726
 20
80.3906356342
 30
0.0
 11
333.4851573149
 21
75.2273193185
 31
0.0
  0
LINE
  5
39E
330
222
100
AcDbEntity
  8
7_ALL_FEATURES
  6
Continuous
 62
     7
100
AcDbLine
 10
330.9883999705
 20
80.3284241696
 30
0.0
 11
333.7049743128
 21
75.1651078539
 31
0.0
  0
LINE
  5
39F
330
222
100
AcDbEntity
  8
02___PRT_ALL_AXES
  6
Continuous
 62
     7
100
AcDbLine
 10
348.3398875608
 20
133.9951642173
 30
0.0
 11
346.8437604154
 21
133.4265252549
 31
0.0
  0
LINE
  5
3A0
330
222
100
AcDbEntity
  8
02___PRT_ALL_AXES
  6
Continuous
 62
     7
100
AcDbLine
 10
345.4836448287
 20
132.9095807435
 30
0.0
 11
344.2595408006
 21
132.4443306834
 31
0.0
  0
LINE
  5
3A1
330
222
100
AcDbEntity
  8
02___PRT_ALL_AXES
  6
Continuous
 62
     7
100
AcDbLine
 10
342.8994252139
 20
131.9273861721
 30
0.0
 11
341.6753211858
 21
131.4621361119
 31
0.0
  0
LINE
  5
3A2
330
222
100
AcDbEntity
  8
02___PRT_ALL_AXES
  6
Continuous
 62
     7
100
AcDbLine
 10
340.3152055991
 20
130.9451916006
 30
0.0
 11
339.091101571
 21
130.4799415404
 31
0.0
  0
LINE
  5
3A3
330
222
100
AcDbEntity
  8
7_ALL_FEATURES
  6
Continuous
 62
     7
100
AcDbLine
 10
351.0987473672
 20
126.4969097996
 30
0.0
 11
350.5547011325
 21
126.2901319951
 31
0.0
  0
LINE
  5
3A4
330
222
100
AcDbEntity
  8
0
  6
Continuous
 62
     7
100
AcDbLine
 10
351.0987473672
 20
126.4969097996
 30
0.0
 11
351.6427936019
 21
126.7036876042
 31
0.0
  0
LINE
  5
3A5
330
222
100
AcDbEntity
  8
02___PRT_ALL_AXES
  6
Continuous
 62
     7
100
AcDbLine
 10
365.5593868899
 20
128.8423188632
 30
0.0
 11
365.2193579932
 21
128.7130827354
 31
0.0
  0
LINE
  5
3A6
330
222
100
AcDbEntity
  8
02___PRT_ALL_AXES
  6
Continuous
 62
     7
100
AcDbLine
 10
366.8537580919
 20
127.5396424564
 30
0.0
 11
366.5137291952
 21
127.4104063286
 31
0.0
  0
LINE
  5
3A7
330
222
100
AcDbEntity
  8
7_ALL_FEATURES
  6
Continuous
 62
     7
100
AcDbLine
 10
352.3654506865
 20
103.2302217048
 30
0.0
 11
352.2704516378
 21
103.2571078419
 31
0.0
  0
LINE
  5
3A8
330
222
100
AcDbEntity
  8
7_ALL_FEATURES
  6
Continuous
 62
     7
100
AcDbLine
 10
352.3362862152
 20
104.3196797559
 30
0.0
 11
352.2412871666
 21
104.3465658931
 31
0.0
  0
LINE
  5
3A9
330
222
100
AcDbEntity
  8
7_ALL_FEATURES
  6
Continuous
 62
     7
100
AcDbLine
 10
352.3362862152
 20
104.3196797559
 30
0.0
 11
352.2409552449
 21
104.3589650469
 31
0.0
  0
LINE
  5
3AA
330
222
100
AcDbEntity
  8
02___PRT_ALL_AXES
  6
Continuous
 62
     7
100
AcDbLine
 10
366.1263687611
 20
124.5712309314
 30
0.0
 11
367.7752282049
 21
125.1979194627
 31
0.0
  0
LINE
  5
3AB
330
222
100
AcDbEntity
  8
02___PRT_ALL_AXES
  6
Continuous
 62
     7
100
AcDbLine
 10
368.8710864138
 20
122.7551328002
 30
0.0
 11
368.5310575171
 21
122.6258966724
 31
0.0
  0
LINE
  5
3AC
330
222
100
AcDbEntity
  8
02___PRT_ALL_AXES
  6
Continuous
 62
     7
100
AcDbLine
 10
368.9216007597
 20
120.8681361029
 30
0.0
 11
368.581571863
 21
120.7388999751
 31
0.0
  0
LINE
  5
3AD
330
222
100
AcDbEntity
  8
7_ALL_FEATURES
  6
Continuous
 62
     7
100
AcDbLine
 10
351.7006037959
 20
124.5441496903
 30
0.0
 11
359.8738776767
 21
148.8549363694
 31
0.0
  0
LINE
  5
3AE
330
222
100
AcDbEntity
  8
7_ALL_FEATURES
  6
Continuous
 62
     7
100
AcDbLine
 10
351.7183582977
 20
123.8809185718
 30
0.0
 11
360.0936946745
 21
148.7927249048
 31
0.0
  0
LINE
  5
3AF
330
222
100
AcDbEntity
  8
7_ALL_FEATURES
  6
Continuous
 62
     7
100
AcDbLine
 10
369.4959111431
 20
116.0589799735
 30
0.0
 11
367.9997839977
 21
115.4903410111
 31
0.0
  0
LINE
  5
3B0
330
222
100
AcDbEntity
  8
7_ALL_FEATURES
  6
Continuous
 62
     7
100
AcDbLine
 10
366.639668411
 20
114.9733964998
 30
0.0
 11
365.4155643829
 21
114.5081464396
 31
0.0
  0
LINE
  5
3B1
330
222
100
AcDbEntity
  8
7_ALL_FEATURES
  6
Continuous
 62
     7
100
AcDbLine
 10
364.0554487962
 20
113.9912019283
 30
0.0
 11
362.8313447681
 21
113.5259518681
 31
0.0
  0
LINE
  5
3B2
330
222
100
AcDbEntity
  8
7_ALL_FEATURES
  6
Continuous
 62
     7
100
AcDbLine
 10
361.4712291814
 20
113.0090073568
 30
0.0
 11
360.2471251533
 21
112.5437572966
 31
0.0
  0
LINE
  5
3B3
330
222
100
AcDbEntity
  8
7_ALL_FEATURES
  6
Continuous
 62
     7
100
AcDbLine
 10
351.9438456454
 20
74.3977228195
 30
0.0
 11
350.5547011325
 21
126.2901319951
 31
0.0
  0
LINE
  5
3B4
330
222
100
AcDbEntity
  8
7_ALL_FEATURES
  6
Continuous
 62
     7
100
AcDbLine
 10
352.4878918801
 20
74.604500624
 30
0.0
 11
351.0987473672
 21
126.4969097996
 31
0.0
  0
LINE
  5
3B5
330
222
100
AcDbEntity
  8
0
  6
Continuous
 62
     7
100
AcDbLine
 10
352.4878918801
 20
74.604500624
 30
0.0
 11
351.0987473672
 21
126.4969097996
 31
0.0
  0
LINE
  5
3B6
330
222
100
AcDbEntity
  8
0
  6
Continuous
 62
     7
100
AcDbLine
 10
353.0319381148
 20
74.8112784285
 30
0.0
 11
351.6427936019
 21
126.7036876042
 31
0.0
  0
LINE
  5
3B7
330
222
100
AcDbEntity
  8
7_ALL_FEATURES
  6
Continuous
 62
     7
100
AcDbLine
 10
352.3654506865
 20
103.2302217048
 30
0.0
 11
352.3362862152
 21
104.3196797559
 31
0.0
  0
LINE
  5
3B8
330
222
100
AcDbEntity
  8
7_ALL_FEATURES
  6
Continuous
 62
     7
100
AcDbLine
 10
352.2741221882
 20
103.1199920112
 30
0.0
 11
352.3654506865
 21
103.2302217048
 31
0.0
  0
LINE
  5
3B9
330
222
100
AcDbEntity
  8
7_ALL_FEATURES
  6
Continuous
 62
     7
100
AcDbLine
 10
369.7513834212
 20
106.5156445875
 30
0.0
 11
368.2552562758
 21
105.9470056251
 31
0.0
  0
LINE
  5
3BA
330
222
100
AcDbEntity
  8
7_ALL_FEATURES
  6
Continuous
 62
     7
100
AcDbLine
 10
366.8951406891
 20
105.4300611138
 30
0.0
 11
365.671036661
 21
104.9648110536
 31
0.0
  0
LINE
  5
3BB
330
222
100
AcDbEntity
  8
7_ALL_FEATURES
  6
Continuous
 62
     7
100
AcDbLine
 10
364.3109210743
 20
104.4478665423
 30
0.0
 11
363.0868170462
 21
103.9826164821
 31
0.0
  0
LINE
  5
3BC
330
222
100
AcDbEntity
  8
7_ALL_FEATURES
  6
Continuous
 62
     7
100
AcDbLine
 10
361.7267014595
 20
103.4656719708
 30
0.0
 11
360.5025974314
 21
103.0004219106
 31
0.0
  0
LINE
  5
3BD
330
222
100
AcDbEntity
  8
7_ALL_FEATURES
  6
Continuous
 62
     7
100
AcDbLine
 10
359.1424818447
 20
102.4834773993
 30
0.0
 11
354.3308050999
 21
100.6546843852
 31
0.0
  0
LINE
  5
3BE
330
222
100
AcDbEntity
  8
7_ALL_FEATURES
  6
Continuous
 62
     7
100
AcDbLine
 10
350.5547011325
 20
126.2901319951
 30
0.0
 11
310.2549181863
 21
137.6955671664
 31
0.0
  0
LINE
  5
3BF
330
222
100
AcDbEntity
  8
7_ALL_FEATURES
  6
Continuous
 62
     7
100
AcDbLine
 10
351.0987473672
 20
126.4969097996
 30
0.0
 11
310.798964421
 21
137.9023449709
 31
0.0
  0
LINE
  5
3C0
330
222
100
AcDbEntity
  8
0
  6
Continuous
 62
     7
100
AcDbLine
 10
351.0987473672
 20
126.4969097996
 30
0.0
 11
310.798964421
 21
137.9023449709
 31
0.0
  0
LINE
  5
3C1
330
222
100
AcDbEntity
  8
0
  6
Continuous
 62
     7
100
AcDbLine
 10
351.6427936019
 20
126.7036876042
 30
0.0
 11
311.3430106557
 21
138.1091227754
 31
0.0
  0
LINE
  5
3C2
330
222
100
AcDbEntity
  8
7_ALL_FEATURES
  6
Continuous
 62
     7
100
AcDbLine
 10
358.9711679385
 20
108.883021315
 30
0.0
 11
359.1424818447
 21
102.4834773993
 31
0.0
  0
LINE
  5
3C3
330
222
100
AcDbEntity
  8
7_ALL_FEATURES
  6
Continuous
 62
     7
100
AcDbLine
 10
360.7672867033
 20
114.1258130232
 30
0.0
 11
359.2379691012
 21
109.5769731665
 31
0.0
  0
LINE
  5
3C4
330
222
100
AcDbEntity
  8
7_ALL_FEATURES
  6
Continuous
 62
     7
100
AcDbLine
 10
360.2471251533
 20
112.5437572966
 30
0.0
 11
360.5025974314
 21
103.0004219106
 31
0.0
  0
LINE
  5
3C5
330
222
100
AcDbEntity
  8
7_ALL_FEATURES
  6
Continuous
 62
     7
100
AcDbLine
 10
361.4712291814
 20
113.0090073568
 30
0.0
 11
361.7267014595
 21
103.4656719708
 31
0.0
  0
LINE
  5
3C6
330
222
100
AcDbEntity
  8
7_ALL_FEATURES
  6
Continuous
 62
     7
100
AcDbLine
 10
362.8313447681
 20
113.5259518681
 30
0.0
 11
363.0868170462
 21
103.9826164821
 31
0.0
  0
LINE
  5
3C7
330
222
100
AcDbEntity
  8
02___PRT_ALL_AXES
  6
Continuous
 62
     7
100
AcDbLine
 10
362.5510142759
 20
96.6047392734
 30
0.0
 11
361.0548871305
 21
96.0361003109
 31
0.0
  0
LINE
  5
3C8
330
222
100
AcDbEntity
  8
02___PRT_ALL_AXES
  6
Continuous
 62
     7
100
AcDbLine
 10
359.6947715438
 20
95.5191557996
 30
0.0
 11
358.4706675157
 21
95.0539057394
 31
0.0
  0
LINE
  5
3C9
330
222
100
AcDbEntity
  8
02___PRT_ALL_AXES
  6
Continuous
 62
     7
100
AcDbLine
 10
357.110551929
 20
94.5369612281
 30
0.0
 11
355.8864479009
 21
94.071711168
 31
0.0
  0
LINE
  5
3CA
330
222
100
AcDbEntity
  8
02___PRT_ALL_AXES
  6
Continuous
 62
     7
100
AcDbLine
 10
354.5263323142
 20
93.5547666566
 30
0.0
 11
353.3022282861
 21
93.0895165965
 31
0.0
  0
LINE
  5
3CB
330
222
100
AcDbEntity
  8
7_ALL_FEATURES
  6
Continuous
 62
     7
100
AcDbLine
 10
364.0554487962
 20
113.9912019283
 30
0.0
 11
364.3109210743
 21
104.4478665423
 31
0.0
  0
LINE
  5
3CC
330
222
100
AcDbEntity
  8
7_ALL_FEATURES
  6
Continuous
 62
     7
100
AcDbLine
 10
364.4401778221
 20
148.8285601356
 30
0.0
 11
364.6913807927
 21
139.4447075437
 31
0.0
  0
LINE
  5
3CD
330
222
100
AcDbEntity
  8
7_ALL_FEATURES
  6
Continuous
 62
     7
100
AcDbLine
 10
365.4155643829
 20
114.5081464396
 30
0.0
 11
365.671036661
 21
104.9648110536
 31
0.0
  0
LINE
  5
3CE
330
222
100
AcDbEntity
  8
7_ALL_FEATURES
  6
Continuous
 62
     7
100
AcDbLine
 10
366.639668411
 20
114.9733964998
 30
0.0
 11
366.8951406891
 21
105.4300611138
 31
0.0
  0
LINE
  5
3CF
330
222
100
AcDbEntity
  8
7_ALL_FEATURES
  6
Continuous
 62
     7
100
AcDbLine
 10
367.9997839977
 20
115.4903410111
 30
0.0
 11
368.2552562758
 21
105.9470056251
 31
0.0
  0
LINE
  5
3D0
330
222
100
AcDbEntity
  8
7_ALL_FEATURES
  6
Continuous
 62
     7
100
AcDbLine
 10
369.4959111431
 20
116.0589799735
 30
0.0
 11
369.7513834212
 21
106.5156445875
 31
0.0
  0
LINE
  5
3D1
330
222
100
AcDbEntity
  8
02___PRT_ALL_AXES
  6
Continuous
 62
     7
100
AcDbLine
 10
366.8618279063
 20
126.9403878966
 30
0.0
 11
366.5137291952
 21
127.4104063286
 31
0.0
  0
LINE
  5
3D2
330
222
100
AcDbEntity
  8
7_ALL_FEATURES
  6
Continuous
 62
     7
100
AcDbLine
 10
352.4878918801
 20
74.604500624
 30
0.0
 11
351.9438456454
 21
74.3977228195
 31
0.0
  0
LINE
  5
3D3
330
222
100
AcDbEntity
  8
0
  6
Continuous
 62
     7
100
AcDbLine
 10
352.4878918801
 20
74.604500624
 30
0.0
 11
353.0319381148
 21
74.8112784285
 31
0.0
  0
LINE
  5
3D4
330
222
100
AcDbEntity
  8
02___PRT_ALL_AXES
  6
Continuous
 62
     9
100
AcDbLine
 10
360.0936946745
 20
148.7927249048
 30
0.0
 11
359.8738776767
 21
148.8549363694
 31
0.0
  0
LINE
  5
3D5
330
222
100
AcDbEntity
  8
02___PRT_ALL_AXES
  6
Continuous
 62
     7
100
AcDbLine
 10
363.05738767
 20
151.2151792617
 30
0.0
 11
362.8375706721
 21
151.2773907263
 31
0.0
  0
ARC
  5
3D6
330
222
100
AcDbEntity
  8
02___PRT_ALL_AXES
  6
Continuous
 62
     7
100
AcDbCircle
 10
77.9426935369
 20
102.0396928267
 30
0.0
 40
3.5
100
AcDbArc
 50
11.5683651059
 51
90.0
  0
ARC
  5
3D7
330
222
100
AcDbEntity
  8
02___PRT_ALL_AXES
  6
Continuous
 62
     7
100
AcDbCircle
 10
70.9426935369
 20
102.0396928267
 30
0.0
 40
3.5
100
AcDbArc
 50
90.0
 51
168.4316348941
  0
ARC
  5
3D8
330
222
100
AcDbEntity
  8
02___PRT_ALL_AXES
  6
Continuous
 62
     7
100
AcDbCircle
 10
93.2607901274
 20
61.1001222056
 30
0.0
 40
2.95
100
AcDbArc
 50
32.7198899268
 51
65.7439757901
  0
ARC
  5
3D9
330
222
100
AcDbEntity
  8
02___PRT_ALL_AXES
  6
Continuous
 62
     7
100
AcDbCircle
 10
93.2607901274
 20
60.9792634478
 30
0.0
 40
2.95
100
AcDbArc
 50
294.2560242099
 51
327.2801100731999
  0
ARC
  5
3DA
330
222
100
AcDbEntity
  8
02___PRT_ALL_AXES
  6
Continuous
 62
     7
100
AcDbCircle
 10
55.6245969465
 20
61.1001222056
 30
0.0
 40
2.95
100
AcDbArc
 50
114.2560242099
 51
147.2801100732
  0
ARC
  5
3DB
330
222
100
AcDbEntity
  8
02___PRT_ALL_AXES
  6
Continuous
 62
     7
100
AcDbCircle
 10
55.6245969465
 20
60.9792634478
 30
0.0
 40
2.95
100
AcDbArc
 50
212.7198899268
 51
245.7439757901
  0
ARC
  5
3DC
330
222
100
AcDbEntity
  8
0
  6
Continuous
 62
     7
100
AcDbCircle
 10
54.2426935369
 20
56.2396928267
 30
0.0
 40
0.9
100
AcDbArc
 50
270.0
 51
308.0505095721001
  0
ARC
  5
3DD
330
222
100
AcDbEntity
  8
0
  6
Continuous
 62
     7
100
AcDbCircle
 10
94.6426935369
 20
56.2396928267
 30
0.0
 40
0.9
100
AcDbArc
 50
231.9494904279
 51
270.0
  0
ARC
  5
3DE
330
222
100
AcDbEntity
  8
7_ALL_FEATURES
  6
Continuous
 62
     7
100
AcDbCircle
 10
253.23046875
 20
253.4252604032
 30
0.0
 40
50.0
100
AcDbArc
 50
180.0
 51
194.4512358191
  0
ARC
  5
3DF
330
222
100
AcDbEntity
  8
7_ALL_FEATURES
  6
Continuous
 62
     7
100
AcDbCircle
 10
253.23046875
 20
190.0995975514
 30
0.0
 40
50.0
100
AcDbArc
 50
150.0
 51
180.0
  0
ARC
  5
3E0
330
222
100
AcDbEntity
  8
7_ALL_FEATURES
  6
Continuous
 62
     7
100
AcDbCircle
 10
229.6531184808
 20
209.2624289773
 30
0.0
 40
20.0
100
AcDbArc
 50
90.0
 51
150.0
  0
ARC
  5
3E1
330
222
100
AcDbEntity
  8
7_ALL_FEATURES
  6
Continuous
 62
     7
100
AcDbCircle
 10
244.8901772727
 20
199.6537889627
 30
0.0
 40
20.0
100
AcDbArc
 50
133.9030972608
 51
150.0
  0
ARC
  5
3E2
330
222
100
AcDbEntity
  8
02___PRT_ALL_AXES
  6
Continuous
 62
     7
100
AcDbCircle
 10
184.33046875
 20
213.2624289773
 30
0.0
 40
3.5
100
AcDbArc
 50
180.0
 51
270.0
  0
ARC
  5
3E3
330
222
100
AcDbEntity
  8
02___PRT_ALL_AXES
  6
Continuous
 62
     7
100
AcDbCircle
 10
184.33046875
 20
220.2624289773
 30
0.0
 40
3.5
100
AcDbArc
 50
90.0
 51
180.0
  0
ARC
  5
3E4
330
222
100
AcDbEntity
  8
7_ALL_FEATURES
  6
Continuous
 62
     7
100
AcDbCircle
 10
184.33046875
 20
220.2624289773
 30
0.0
 40
3.5
100
AcDbArc
 50
90.0
 51
180.0
  0
ARC
  5
3E5
330
222
100
AcDbEntity
  8
7_ALL_FEATURES
  6
Continuous
 62
     7
100
AcDbCircle
 10
184.33046875
 20
213.2624289773
 30
0.0
 40
3.5
100
AcDbArc
 50
180.0
 51
270.0
  0
ARC
  5
3E6
330
222
100
AcDbEntity
  8
02___PRT_ALL_AXES
  6
Continuous
 62
     7
100
AcDbCircle
 10
206.6218302059
 20
263.3710675214
 30
0.0
 40
3.3913614559
100
AcDbArc
 50
30.0
 51
180.0
  0
ARC
  5
3E7
330
222
100
AcDbEntity
  8
02___PRT_ALL_AXES
  6
Continuous
 62
     7
100
AcDbCircle
 10
206.6218302059
 20
180.1537904332
 30
0.0
 40
3.3913614559
100
AcDbArc
 50
180.0
 51
330.0
  0
CIRCLE
  5
3E8
330
222
100
AcDbEntity
  8
02___PRT_ALL_AXES
  6
Continuous
 62
     7
100
AcDbCircle
 10
225.33046875
 20
221.7624289773
 30
0.0
 40
2.75
  0
CIRCLE
  5
3E9
330
222
100
AcDbEntity
  8
02___PRT_ALL_AXES
  6
Continuous
 62
     7
100
AcDbCircle
 10
225.33046875
 20
221.7624289773
 30
0.0
 40
1.655
  0
ARC
  5
3EA
330
222
100
AcDbEntity
  8
7_ALL_FEATURES
  6
Continuous
 62
     7
100
AcDbCircle
 10
335.7139190647
 20
107.8034951048
 30
0.0
 40
29.0091368926
100
AcDbArc
 50
12.3159282298
 51
23.5316940316
  0
ARC
  5
3EB
330
222
100
AcDbEntity
  8
7_ALL_FEATURES
  6
Continuous
 62
     7
100
AcDbCircle
 10
337.1509106025
 20
108.3477490433
 30
0.0
 40
28.9282068129
100
AcDbArc
 50
12.295561233
 51
27.2706250077
  0
ARC
  5
3EC
330
222
100
AcDbEntity
  8
7_ALL_FEATURES
  6
Continuous
 62
     7
100
AcDbCircle
 10
338.4402212989
 20
108.8352122096
 30
0.0
 40
28.8597665238
100
AcDbArc
 50
12.280040984
 51
30.6150381223
  0
ARC
  5
3ED
330
222
100
AcDbEntity
  8
7_ALL_FEATURES
  6
Continuous
 62
     7
100
AcDbCircle
 10
334.7763864275
 20
107.4216536622
 30
0.0
 40
28.711376562
100
AcDbArc
 50
12.2752926233
 51
20.03779193860001
  0
ARC
  5
3EE
330
222
100
AcDbEntity
  8
7_ALL_FEATURES
  6
Continuous
 62
     7
100
AcDbCircle
 10
333.5437439828
 20
106.9336734459
 30
0.0
 40
28.5806597483
100
AcDbArc
 50
12.2728866728
 51
16.0507916595
  0
ARC
  5
3EF
330
222
100
AcDbEntity
  8
7_ALL_FEATURES
  6
Continuous
 62
     7
100
AcDbCircle
 10
335.6065035156
 20
109.5196126241
 30
0.0
 40
22.723789609
100
AcDbArc
 50
43.9749086059
 51
44.95840523660001
  0
ARC
  5
3F0
330
222
100
AcDbEntity
  8
7_ALL_FEATURES
  6
Continuous
 62
     7
100
AcDbCircle
 10
350.242541558
 20
124.4146896571
 30
0.0
 40
9.6329845315
100
AcDbArc
 50
100.4032713134
 51
101.1749011928
  0
ARC
  5
3F1
330
222
100
AcDbEntity
  8
7_ALL_FEATURES
  6
Continuous
 62
     7
100
AcDbCircle
 10
341.1164522776
 20
121.0156735995
 30
0.0
 40
9.5671106422
100
AcDbArc
 50
102.0430403593
 51
103.221691674
  0
ARC
  5
3F2
330
222
100
AcDbEntity
  8
7_ALL_FEATURES
  6
Continuous
 62
     7
100
AcDbCircle
 10
348.5479596293
 20
101.4773563561
 30
0.0
 40
9.5300674019
100
AcDbArc
 50
294.9477663274
 51
299.5645686839
  0
ARC
  5
3F3
330
222
100
AcDbEntity
  8
7_ALL_FEATURES
  6
Continuous
 62
     7
100
AcDbCircle
 10
350.2150579711
 20
124.5443862708
 30
0.0
 40
9.5004206761
100
AcDbArc
 50
101.1638846104
 51
110.787256727
  0
ARC
  5
3F4
330
222
100
AcDbEntity
  8
7_ALL_FEATURES
  6
Continuous
 62
     7
100
AcDbCircle
 10
356.3218430857
 20
104.384334276
 30
0.0
 40
9.4851460247
100
AcDbArc
 50
290.832826901
 51
299.5710954615
  0
ARC
  5
3F5
330
222
100
AcDbEntity
  8
7_ALL_FEATURES
  6
Continuous
 62
     7
100
AcDbCircle
 10
351.1534038561
 20
102.4199451331
 30
0.0
 40
9.4851460247
100
AcDbArc
 50
290.832826901
 51
299.5710954615
  0
ARC
  5
3F6
330
222
100
AcDbEntity
  8
7_ALL_FEATURES
  6
Continuous
 62
     7
100
AcDbCircle
 10
353.7376234709
 20
103.4021397046
 30
0.0
 40
9.4851460247
100
AcDbArc
 50
290.832826901
 51
299.5710954615
  0
ARC
  5
3F7
330
222
100
AcDbEntity
  8
7_ALL_FEATURES
  6
Continuous
 62
     7
100
AcDbCircle
 10
347.6233484459
 20
123.5866129363
 30
0.0
 40
9.4749311327
100
AcDbArc
 50
102.9076908819
 51
110.7973234516
  0
ARC
  5
3F8
330
222
100
AcDbEntity
  8
7_ALL_FEATURES
  6
Continuous
 62
     7
100
AcDbCircle
 10
342.4549092163
 20
121.6222237934
 30
0.0
 40
9.4749311327
100
AcDbArc
 50
102.9076908819
 51
110.7973234516
  0
ARC
  5
3F9
330
222
100
AcDbEntity
  8
7_ALL_FEATURES
  6
Continuous
 62
     7
100
AcDbCircle
 10
345.0391288311
 20
122.6044183649
 30
0.0
 40
9.4749311327
100
AcDbArc
 50
102.9076908819
 51
110.7973234516
  0
ARC
  5
3FA
330
222
100
AcDbEntity
  8
7_ALL_FEATURES
  6
Continuous
 62
     7
100
AcDbCircle
 10
357.6929814722
 20
104.8788422862
 30
0.0
 40
9.4602564847
100
AcDbArc
 50
290.8187590571
 51
300.460590983
  0
ARC
  5
3FB
330
222
100
AcDbEntity
  8
7_ALL_FEATURES
  6
Continuous
 62
     7
100
AcDbCircle
 10
348.8426307673
 20
124.0688624737
 30
0.0
 40
9.4573274154
100
AcDbArc
 50
102.0208985015
 51
110.8065827589
  0
ARC
  5
3FC
330
222
100
AcDbEntity
  8
7_ALL_FEATURES
  6
Continuous
 62
     7
100
AcDbCircle
 10
346.2584111525
 20
123.0866679022
 30
0.0
 40
9.4573274154
100
AcDbArc
 50
102.0208985015
 51
110.8065827588
  0
ARC
  5
3FD
330
222
100
AcDbEntity
  8
7_ALL_FEATURES
  6
Continuous
 62
     7
100
AcDbCircle
 10
343.6741915377
 20
122.1044733307
 30
0.0
 40
9.4573274154
100
AcDbArc
 50
102.0208985015
 51
110.8065827588
  0
ARC
  5
3FE
330
222
100
AcDbEntity
  8
7_ALL_FEATURES
  6
Continuous
 62
     7
100
AcDbCircle
 10
349.9469866358
 20
101.9161303069
 30
0.0
 40
9.4428127824
100
AcDbArc
 50
290.8157451567001
 51
298.7116460033
  0
ARC
  5
3FF
330
222
100
AcDbEntity
  8
7_ALL_FEATURES
  6
Continuous
 62
     7
100
AcDbCircle
 10
352.5312062506
 20
102.8983248783
 30
0.0
 40
9.4428127824
100
AcDbArc
 50
290.8157451567001
 51
298.7116460033
  0
ARC
  5
400
330
222
100
AcDbEntity
  8
7_ALL_FEATURES
  6
Continuous
 62
     7
100
AcDbCircle
 10
355.1154258654
 20
103.8805194498
 30
0.0
 40
9.4428127824
100
AcDbArc
 50
290.8157451567001
 51
298.7116460033
  0
ARC
  5
401
330
222
100
AcDbEntity
  8
7_ALL_FEATURES
  6
Continuous
 62
     7
100
AcDbCircle
 10
357.702173253
 20
104.859782479
 30
0.0
 40
9.4391744009
100
AcDbArc
 50
285.9564902381
 51
290.8077265908
  0
ARC
  5
402
330
222
100
AcDbEntity
  8
7_ALL_FEATURES
  6
Continuous
 62
     7
100
AcDbCircle
 10
355.1179536382
 20
103.8775879075
 30
0.0
 40
9.4391744009
100
AcDbArc
 50
285.9564902381
 51
290.8077265908
  0
ARC
  5
403
330
222
100
AcDbEntity
  8
7_ALL_FEATURES
  6
Continuous
 62
     7
100
AcDbCircle
 10
352.5337340234
 20
102.895393336
 30
0.0
 40
9.4391744009
100
AcDbArc
 50
285.9564902381
 51
290.8077265908
  0
ARC
  5
404
330
222
100
AcDbEntity
  8
7_ALL_FEATURES
  6
Continuous
 62
     7
100
AcDbCircle
 10
349.9498449324
 20
101.9122258138
 30
0.0
 40
9.4381474953
100
AcDbArc
 50
286.058785827
 51
290.8079491288
  0
ARC
  5
405
330
222
100
AcDbEntity
  8
7_ALL_FEATURES
  6
Continuous
 62
     7
100
AcDbCircle
 10
350.1915092954
 20
124.6189122813
 30
0.0
 40
9.4223896043
100
AcDbArc
 50
110.8142156638
 51
114.8307540496
  0
ARC
  5
406
330
222
100
AcDbEntity
  8
7_ALL_FEATURES
  6
Continuous
 62
     7
100
AcDbCircle
 10
347.6072896806
 20
123.6367177098
 30
0.0
 40
9.4223896043
100
AcDbArc
 50
110.8142156637
 51
114.8307540496
  0
ARC
  5
407
330
222
100
AcDbEntity
  8
7_ALL_FEATURES
  6
Continuous
 62
     7
100
AcDbCircle
 10
345.0230700658
 20
122.6545231383
 30
0.0
 40
9.4223896043
100
AcDbArc
 50
110.8142156638
 51
114.8307540496
  0
ARC
  5
408
330
222
100
AcDbEntity
  8
7_ALL_FEATURES
  6
Continuous
 62
     7
100
AcDbCircle
 10
342.432774429
 20
121.6872509441
 30
0.0
 40
9.4062820586
100
AcDbArc
 50
110.8119193642
 51
112.7281910034
  0
ARC
  5
409
330
222
100
AcDbEntity
  8
02___PRT_ALL_AXES
  6
Continuous
 62
     7
100
AcDbCircle
 10
363.1371874042
 20
124.453666392
 30
0.0
 40
5.6795147288
100
AcDbArc
 50
74.1895548175
 51
78.5465075115
  0
ARC
  5
40A
330
222
100
AcDbEntity
  8
02___PRT_ALL_AXES
  6
Continuous
 62
     7
100
AcDbCircle
 10
335.5664587596
 20
76.3216338594
 30
0.0
 40
2.3514548727
100
AcDbArc
 50
207.7346655956
 51
212.2391702888
  0
ARC
  5
40B
330
222
100
AcDbEntity
  8
02___PRT_ALL_AXES
  6
Continuous
 62
     7
100
AcDbCircle
 10
335.1362576336
 20
75.6629620657
 30
0.0
 40
1.4582388657
100
AcDbArc
 50
243.4583590702
 51
245.1213789364
  0
ARC
  5
40C
330
222
100
AcDbEntity
  8
02___PRT_ALL_AXES
  6
Continuous
 62
     7
100
AcDbCircle
 10
335.1285061618
 20
75.6459576327
 30
0.0
 40
1.4395514078
100
AcDbArc
 50
245.1165400593
 51
254.1771702256
  0
ARC
  5
40D
330
222
100
AcDbEntity
  8
02___PRT_ALL_AXES
  6
Continuous
 62
     7
100
AcDbCircle
 10
362.6670993365
 20
149.8352358091
 30
0.0
 40
1.4340542727
100
AcDbArc
 50
74.224873833
 51
83.08589973069999
  0
SPLINE
  5
40E
330
222
100
AcDbEntity
  8
02___PRT_ALL_AXES
  6
Continuous
 62
     7
100
AcDbSpline
 70
     0
 71
     3
 72
    11
 73
     7
 74
     0
 42
0.000000001
 43
0.0000001
 40
0.0
 40
0.0
 40
0.0
 40
0.0
 40
0.2471884812
 40
0.4961682871
 40
0.7471358372
 40
1.0
 40
1.0
 40
1.0
 40
1.0
 10
77.0407697483
 20
101.5396928267
 30
0.0
 10
76.8132942187
 20
101.5021690958
 30
0.0
 10
76.3610375174
 20
101.3983037454
 30
0.0
 10
75.7016785804
 20
101.1696143421
 30
0.0
 10
75.0607670739
 20
100.8810253434
 30
0.0
 10
74.6469398271
 20
100.6576144773
 30
0.0
 10
74.4426935369
 20
100.5396928267
 30
0.0
  0
SPLINE
  5
40F
330
222
100
AcDbEntity
  8
02___PRT_ALL_AXES
  6
Continuous
 62
     7
100
AcDbSpline
 70
     0
 71
     3
 72
    19
 73
    15
 74
     0
 42
0.000000001
 43
0.0000001
 40
0.0
 40
0.0
 40
0.0
 40
0.0
 40
0.067939647
 40
0.1343369129
 40
0.1986396402
 40
0.2610648807
 40
0.3817414899
 40
0.5000607139
 40
0.6183763092
 40
0.739024176
 40
0.8014382043
 40
0.865725454
 40
0.9320917545
 40
1.0
 40
1.0
 40
1.0
 40
1.0
 10
78.7728205559
 20
102.0396928267
 30
0.0
 10
78.7728205559
 20
102.0955784772
 30
0.0
 10
78.756433719
 20
102.2067234421
 30
0.0
 10
78.6882589387
 20
102.3571833293
 30
0.0
 10
78.5888459039
 20
102.482870093
 30
0.0
 10
78.4314020223
 20
102.6136119265
 30
0.0
 10
78.2014108077
 20
102.7182522314
 30
0.0
 10
77.9066455867
 20
102.7582307158
 30
0.0
 10
77.611916863
 20
102.7181662911
 30
0.0
 10
77.3819860501
 20
102.613486888
 30
0.0
 10
77.224606961
 20
102.4827369999
 30
0.0
 10
77.125264035
 20
102.3570560092
 30
0.0
 10
77.0571430269
 20
102.2066456179
 30
0.0
 10
77.0407697483
 20
102.095552647
 30
0.0
 10
77.0407697483
 20
102.0396928267
 30
0.0
  0
SPLINE
  5
410
330
222
100
AcDbEntity
  8
02___PRT_ALL_AXES
  6
Continuous
 62
     7
100
AcDbSpline
 70
     0
 71
     3
 72
    11
 73
     7
 74
     0
 42
0.000000001
 43
0.0000001
 40
0.0
 40
0.0
 40
0.0
 40
0.0
 40
0.2528641712
 40
0.5038317346
 40
0.7528115376
 40
1.0
 40
1.0
 40
1.0
 40
1.0
 10
81.3708967672
 20
100.5396928267
 30
0.0
 10
81.1666504703
 20
100.6576144812
 30
0.0
 10
80.7528232067
 20
100.881025359
 30
0.0
 10
80.1119116822
 20
101.1696143612
 30
0.0
 10
79.45255275
 20
101.3983037545
 30
0.0
 10
79.0002960682
 20
101.5021690986
 30
0.0
 10
78.7728205559
 20
101.5396928267
 30
0.0
  0
SPLINE
  5
411
330
222
100
AcDbEntity
  8
02___PRT_ALL_AXES
  6
Continuous
 62
     7
100
AcDbSpline
 70
     0
 71
     3
 72
    19
 73
    15
 74
     0
 42
0.000000001
 43
0.0000001
 40
0.0
 40
0.0
 40
0.0
 40
0.0
 40
0.0679313718
 40
0.134330414
 40
0.1986328954
 40
0.2610542132
 40
0.3817238737
 40
0.5000536105
 40
0.6183773004
 40
0.7390372629
 40
0.8014553941
 40
0.8657396837
 40
0.9320963707
 40
1.0
 40
1.0
 40
1.0
 40
1.0
 10
71.8446173256
 20
102.0396928267
 30
0.0
 10
71.8446173256
 20
102.0955716782
 30
0.0
 10
71.8282315849
 20
102.2067106901
 30
0.0
 10
71.7600662832
 20
102.3571687663
 30
0.0
 10
71.6606567206
 20
102.482856253
 30
0.0
 10
71.503222393
 20
102.613594603
 30
0.0
 10
71.2732377269
 20
102.7182477487
 30
0.0
 10
70.9784620569
 20
102.7582314557
 30
0.0
 10
70.68370771
 20
102.718167641
 30
0.0
 10
70.4537581177
 20
102.6134768585
 30
0.0
 10
70.2963771131
 20
102.482711248
 30
0.0
 10
70.1970483803
 20
102.3570283577
 30
0.0
 10
70.1289361914
 20
102.2066303706
 30
0.0
 10
70.112566518
 20
102.0955488579
 30
0.0
 10
70.112566518
 20
102.0396928267
 30
0.0
  0
SPLINE
  5
412
330
222
100
AcDbEntity
  8
02___PRT_ALL_AXES
  6
Continuous
 62
     7
100
AcDbSpline
 70
     0
 71
     3
 72
    11
 73
     7
 74
     0
 42
0.000000001
 43
0.0000001
 40
0.0
 40
0.0
 40
0.0
 40
0.0
 40
0.2528641712
 40
0.5038317346
 40
0.7528115376
 40
1.0
 40
1.0
 40
1.0
 40
1.0
 10
74.4426935369
 20
100.5396928267
 30
0.0
 10
74.23844724
 20
100.6576144812
 30
0.0
 10
73.8246199765
 20
100.881025359
 30
0.0
 10
73.183708452
 20
101.1696143612
 30
0.0
 10
72.5243495197
 20
101.3983037545
 30
0.0
 10
72.0720928379
 20
101.5021690986
 30
0.0
 10
71.8446173256
 20
101.5396928267
 30
0.0
  0
SPLINE
  5
413
330
222
100
AcDbEntity
  8
02___PRT_ALL_AXES
  6
Continuous
 62
     7
100
AcDbSpline
 70
     0
 71
     3
 72
    11
 73
     7
 74
     0
 42
0.000000001
 43
0.0000001
 40
0.0
 40
0.0
 40
0.0
 40
0.0
 40
0.2471884812
 40
0.4961682871
 40
0.7471358372
 40
1.0
 40
1.0
 40
1.0
 40
1.0
 10
70.112566518
 20
101.5396928267
 30
0.0
 10
69.8850909884
 20
101.5021690958
 30
0.0
 10
69.4328342871
 20
101.3983037454
 30
0.0
 10
68.7734753501
 20
101.1696143421
 30
0.0
 10
68.1325638436
 20
100.8810253434
 30
0.0
 10
67.7187365968
 20
100.6576144773
 30
0.0
 10
67.5144903067
 20
100.5396928267
 30
0.0
  0
SPLINE
  5
414
330
222
100
AcDbEntity
  8
02___PRT_ALL_AXES
  6
Continuous
 62
     7
100
AcDbSpline
 70
     0
 71
     3
 72
    19
 73
    15
 74
     0
 42
0.000000001
 43
0.0000001
 40
0.0
 40
0.0
 40
0.0
 40
0.0
 40
0.1683075029
 40
0.2404576968
 40
0.3036660769
 40
0.4090527407
 40
0.4554823394
 40
0.5000445236
 40
0.5446094138
 40
0.5910415449
 40
0.6964181475
 40
0.7596236278
 40
0.8317654351
 40
1.0
 40
1.0
 40
1.0
 40
1.0
 10
184.33046875
 20
211.2624289773
 30
0.0
 10
184.2238584177
 20
211.2624289773
 30
0.0
 10
184.0695272203
 20
211.2382540503
 30
0.0
 10
183.8931292988
 20
211.159430948
 30
0.0
 10
183.766593978
 20
211.0734793406
 30
0.0
 10
183.6756125801
 20
210.966034954
 30
0.0
 10
183.6321423
 20
210.8484009361
 30
0.0
 10
183.6217681214
 20
210.7623401282
 30
0.0
 10
183.632174252
 20
210.6762793768
 30
0.0
 10
183.6757229075
 20
210.5586780475
 30
0.0
 10
183.7667170589
 20
210.4512649619
 30
0.0
 10
183.8932631555
 20
210.3653496847
 30
0.0
 10
184.0696296925
 20
210.28659084
 30
0.0
 10
184.2239046185
 20
210.2624289773
 30
0.0
 10
184.33046875
 20
210.2624289773
 30
0.0
  0
SPLINE
  5
415
330
222
100
AcDbEntity
  8
02___PRT_ALL_AXES
  6
Continuous
 62
     7
100
AcDbSpline
 70
     0
 71
     3
 72
    11
 73
     7
 74
     0
 42
0.000000001
 43
0.0000001
 40
0.0
 40
0.0
 40
0.0
 40
0.0
 40
0.2699449571
 40
0.5270499909
 40
0.7701654741
 40
1.0
 40
1.0
 40
1.0
 40
1.0
 10
185.83046875
 20
224.7624289773
 30
0.0
 10
185.7146427851
 20
224.6466030124
 30
0.0
 10
185.4956424737
 20
224.4130683977
 30
0.0
 10
185.2068838281
 20
224.0445577964
 30
0.0
 10
184.9766968279
 20
223.6645570257
 30
0.0
 10
184.8687823566
 20
223.3965266005
 30
0.0
 10
184.83046875
 20
223.2624289773
 30
0.0
  0
SPLINE
  5
416
330
222
100
AcDbEntity
  8
02___PRT_ALL_AXES
  6
Continuous
 62
     7
100
AcDbSpline
 70
     0
 71
     3
 72
    11
 73
     7
 74
     0
 42
0.000000001
 43
0.0000001
 40
0.0
 40
0.0
 40
0.0
 40
0.0
 40
0.2500103617
 40
0.5000189242
 40
0.7500124732
 40
1.0
 40
1.0
 40
1.0
 40
1.0
 10
185.83046875
 20
220.7624289773
 30
0.0
 10
185.7121324111
 20
220.5257562996
 30
0.0
 10
185.4879476756
 20
220.0459887872
 30
0.0
 10
185.1995106777
 20
219.3056980701
 30
0.0
 10
184.9711602746
 20
218.5444808004
 30
0.0
 10
184.8678865682
 20
218.0243537044
 30
0.0
 10
184.83046875
 20
217.7624289773
 30
0.0
  0
SPLINE
  5
417
330
222
100
AcDbEntity
  8
02___PRT_ALL_AXES
  6
Continuous
 62
     7
100
AcDbSpline
 70
     0
 71
     3
 72
    11
 73
     7
 74
     0
 42
0.000000001
 43
0.0000001
 40
0.0
 40
0.0
 40
0.0
 40
0.0
 40
0.2499875457
 40
0.4999810974
 40
0.7499896465
 40
1.0
 40
1.0
 40
1.0
 40
1.0
 10
184.83046875
 20
215.7624289773
 30
0.0
 10
184.867886571
 20
215.5005042303
 30
0.0
 10
184.9711602836
 20
214.9803771121
 30
0.0
 10
185.1995106968
 20
214.2191598364
 30
0.0
 10
185.4879476914
 20
213.4788691398
 30
0.0
 10
185.7121324151
 20
212.9991016472
 30
0.0
 10
185.83046875
 20
212.7624289773
 30
0.0
  0
SPLINE
  5
418
330
222
100
AcDbEntity
  8
02___PRT_ALL_AXES
  6
Continuous
 62
     7
100
AcDbSpline
 70
     0
 71
     3
 72
    19
 73
    15
 74
     0
 42
0.000000001
 43
0.0000001
 40
0.0
 40
0.0
 40
0.0
 40
0.0
 40
0.062499569
 40
0.1250450196
 40
0.1876243679
 40
0.2502137548
 40
0.3750836247
 40
0.5000591496
 40
0.6250261711
 40
0.7498800617
 40
0.8124624827
 40
0.8750225901
 40
0.9375286272
 40
1.0
 40
1.0
 40
1.0
 40
1.0
 10
184.33046875
 20
217.7624289773
 30
0.0
 10
184.2743951383
 20
217.7624289773
 30
0.0
 10
184.1614060444
 20
217.7429198622
 30
0.0
 10
184.0106836611
 20
217.6631358921
 30
0.0
 10
183.8856339522
 20
217.5480764376
 30
0.0
 10
183.7544680862
 20
217.3646327379
 30
0.0
 10
183.6513373349
 20
217.0992328006
 30
0.0
 10
183.6120809124
 20
216.7622750895
 30
0.0
 10
183.6514186245
 20
216.4253432564
 30
0.0
 10
183.7545869423
 20
216.1599890696
 30
0.0
 10
183.8857780985
 20
215.9766074424
 30
0.0
 10
184.0108281277
 20
215.8616366724
 30
0.0
 10
184.1614922311
 20
215.7819188967
 30
0.0
 10
184.2744204354
 20
215.7624289773
 30
0.0
 10
184.33046875
 20
215.7624289773
 30
0.0
  0
SPLINE
  5
419
330
222
100
AcDbEntity
  8
02___PRT_ALL_AXES
  6
Continuous
 62
     7
100
AcDbSpline
 70
     0
 71
     3
 72
    11
 73
     7
 74
     0
 42
0.000000001
 43
0.0000001
 40
0.0
 40
0.0
 40
0.0
 40
0.0
 40
0.2699449571
 40
0.5270499909
 40
0.7701654741
 40
1.0
 40
1.0
 40
1.0
 40
1.0
 10
185.83046875
 20
212.7624289773
 30
0.0
 10
185.7146427851
 20
212.6466030124
 30
0.0
 10
185.4956424737
 20
212.4130683977
 30
0.0
 10
185.2068838281
 20
212.0445577964
 30
0.0
 10
184.9766968279
 20
211.6645570257
 30
0.0
 10
184.8687823566
 20
211.3965266005
 30
0.0
 10
184.83046875
 20
211.2624289773
 30
0.0
  0
SPLINE
  5
41A
330
222
100
AcDbEntity
  8
02___PRT_ALL_AXES
  6
Continuous
 62
     7
100
AcDbSpline
 70
     0
 71
     3
 72
    11
 73
     7
 74
     0
 42
0.000000001
 43
0.0000001
 40
0.0
 40
0.0
 40
0.0
 40
0.0
 40
0.2298345438
 40
0.4729500311
 40
0.7300550521
 40
1.0
 40
1.0
 40
1.0
 40
1.0
 10
184.83046875
 20
222.2624289773
 30
0.0
 10
184.8687823596
 20
222.1283313436
 30
0.0
 10
184.9766968378
 20
221.8603009065
 30
0.0
 10
185.2068838469
 20
221.4803001349
 30
0.0
 10
185.4956424882
 20
221.1117895444
 30
0.0
 10
185.714642789
 20
220.8782549382
 30
0.0
 10
185.83046875
 20
220.7624289773
 30
0.0
  0
SPLINE
  5
41B
330
222
100
AcDbEntity
  8
02___PRT_ALL_AXES
  6
Continuous
 62
     7
100
AcDbSpline
 70
     0
 71
     3
 72
    19
 73
    15
 74
     0
 42
0.000000001
 43
0.0000001
 40
0.0
 40
0.0
 40
0.0
 40
0.0
 40
0.1683000113
 40
0.2404505744
 40
0.3036556532
 40
0.4090388234
 40
0.4554737865
 40
0.5000393211
 40
0.5446067335
 40
0.591042408
 40
0.696430429
 40
0.7596418824
 40
0.8317824151
 40
1.0
 40
1.0
 40
1.0
 40
1.0
 10
184.33046875
 20
223.2624289773
 30
0.0
 10
184.2238630748
 20
223.2624289773
 30
0.0
 10
184.0695366482
 20
223.2382561125
 30
0.0
 10
183.8931429252
 20
223.1594390361
 30
0.0
 10
183.7666100614
 20
223.0734912828
 30
0.0
 10
183.6756224049
 20
222.9660544121
 30
0.0
 10
183.6321447036
 20
222.8484188509
 30
0.0
 10
183.6217686243
 20
222.7623510408
 30
0.0
 10
183.632171712
 20
222.6762837552
 30
0.0
 10
183.6757247219
 20
222.5586717121
 30
0.0
 10
183.7667298574
 20
222.4512489233
 30
0.0
 10
183.8932894769
 20
222.3653346984
 30
0.0
 10
184.0696529942
 20
222.2865885742
 30
0.0
 10
184.2239152859
 20
222.2624289773
 30
0.0
 10
184.33046875
 20
222.2624289773
 30
0.0
  0
SPLINE
  5
41C
330
222
100
AcDbEntity
  8
02___PRT_ALL_AXES
  6
Continuous
 62
     7
100
AcDbSpline
 70
     0
 71
     3
 72
    11
 73
     7
 74
     0
 42
0.000000001
 43
0.0000001
 40
0.0
 40
0.0
 40
0.0
 40
0.0
 40
0.2298345438
 40
0.4729500311
 40
0.7300550521
 40
1.0
 40
1.0
 40
1.0
 40
1.0
 10
184.83046875
 20
210.2624289773
 30
0.0
 10
184.8687823596
 20
210.1283313436
 30
0.0
 10
184.9766968378
 20
209.8603009065
 30
0.0
 10
185.2068838469
 20
209.4803001349
 30
0.0
 10
185.4956424882
 20
209.1117895444
 30
0.0
 10
185.714642789
 20
208.8782549382
 30
0.0
 10
185.83046875
 20
208.7624289773
 30
0.0
  0
SPLINE
  5
41D
330
222
100
AcDbEntity
  8
02___PRT_ALL_AXES
  6
Continuous
 62
     7
100
AcDbSpline
 70
     0
 71
     3
 72
    15
 73
    11
 74
     0
 42
0.000000001
 43
0.0000001
 40
0.0
 40
0.0
 40
0.0
 40
0.0
 40
0.1250132813
 40
0.2500216868
 40
0.3750232333
 40
0.5000210771
 40
0.6250147164
 40
0.7500062465
 40
0.8749967139
 40
1.0
 40
1.0
 40
1.0
 40
1.0
 10
352.2999415891
 20
102.3104609118
 30
0.0
 10
352.3912802388
 20
102.4418409706
 30
0.0
 10
352.5533629629
 20
102.7196120049
 30
0.0
 10
352.727600092
 20
103.1689267095
 30
0.0
 10
352.8290971396
 20
103.6401327876
 30
0.0
 10
352.85514557
 20
104.1214054224
 30
0.0
 10
352.804846098
 20
104.6007550596
 30
0.0
 10
352.679097146
 20
105.0660826774
 30
0.0
 10
352.4808780027
 20
105.5053567503
 30
0.0
 10
352.3033877303
 20
105.7735575295
 30
0.0
 10
352.2046625599
 20
105.8994650968
 30
0.0
  0
SPLINE
  5
41E
330
222
100
AcDbEntity
  8
02___PRT_ALL_AXES
  6
Continuous
 62
     7
100
AcDbSpline
 70
     0
 71
     3
 72
    18
 73
    14
 74
     0
 42
0.000000001
 43
0.0000001
 40
0.0
 40
0.0
 40
0.0
 40
0.0
 40
0.046873443
 40
0.0954697738
 40
0.1465084637
 40
0.2004659749
 40
0.3176188545
 40
0.3808521974
 40
0.4467185762
 40
0.5842806661
 40
0.725820621
 40
0.866082167
 40
1.0
 40
1.0
 40
1.0
 40
1.0
 10
352.2237220562
 20
105.0711530139
 30
0.0
 10
352.2658904086
 20
105.0517318933
 30
0.0
 10
352.3480534383
 20
105.0035714552
 30
0.0
 10
352.4581481238
 20
104.9079491901
 30
0.0
 10
352.5550499802
 20
104.7898078433
 30
0.0
 10
352.6676663406
 20
104.600002865
 30
0.0
 10
352.7436279705
 20
104.377776452
 30
0.0
 10
352.7853155848
 20
104.1372477084
 30
0.0
 10
352.8043939455
 20
103.8734018123
 30
0.0
 10
352.7812244229
 20
103.5306144481
 30
0.0
 10
352.6845897949
 20
103.1247801132
 30
0.0
 10
352.5247975684
 20
102.7433747936
 30
0.0
 10
352.3774417842
 20
102.5130740959
 30
0.0
 10
352.2949822227
 20
102.4091825138
 30
0.0
  0
SPLINE
  5
41F
330
222
100
AcDbEntity
  8
02___PRT_ALL_AXES
  6
Continuous
 62
     7
100
AcDbSpline
 70
     0
 71
     3
 72
    19
 73
    15
 74
     0
 42
0.000000001
 43
0.0000001
 40
0.0
 40
0.0
 40
0.0
 40
0.0
 40
0.0609330688
 40
0.1221312894
 40
0.1837492108
 40
0.2459080088
 40
0.3718683537
 40
0.4996802592
 40
0.6275924384
 40
0.7537831092
 40
0.8160605226
 40
0.8777690891
 40
0.9390318035
 40
1.0
 40
1.0
 40
1.0
 40
1.0
 10
368.8017099726
 20
118.6929962296
 30
0.0
 10
368.9582400467
 20
118.9224529535
 30
0.0
 10
369.2385982895
 20
119.4060558342
 30
0.0
 10
369.5551334562
 20
120.1841335973
 30
0.0
 10
369.7689197178
 20
121.0022281014
 30
0.0
 10
369.9198213712
 20
122.1329804939
 30
0.0
 10
369.8595976729
 20
123.5847641496
 30
0.0
 10
369.4231692562
 20
125.2812368155
 30
0.0
 10
368.6549529781
 20
126.8566004382
 30
0.0
 10
367.7600031065
 20
128.0036160884
 30
0.0
 10
366.9131442424
 20
128.7708461651
 30
0.0
 10
366.2214185948
 20
129.2592283555
 30
0.0
 10
365.4778204325
 20
129.6516836841
 30
0.0
 10
364.9520225227
 20
129.8426320591
 30
0.0
 10
364.6846033243
 20
129.9183156511
 30
0.0
  0
SPLINE
  5
420
330
222
100
AcDbEntity
  8
02___PRT_ALL_AXES
  6
Continuous
 62
     7
100
AcDbSpline
 70
     0
 71
     3
 72
     9
 73
     5
 74
     0
 42
0.000000001
 43
0.0000001
 40
0.0
 40
0.0
 40
0.0
 40
0.0
 40
0.2470200769
 40
1.0
 40
1.0
 40
1.0
 40
1.0
 10
365.2193579932
 20
128.7130827354
 30
0.0
 10
365.1386773869
 20
128.7796806346
 30
0.0
 10
364.8080328972
 20
129.0443972475
 30
0.0
 10
364.4627027037
 20
129.2905270129
 30
0.0
 10
364.1970731708
 20
129.4669836119
 30
0.0
  0
SPLINE
  5
421
330
222
100
AcDbEntity
  8
02___PRT_ALL_AXES
  6
Continuous
 62
     7
100
AcDbSpline
 70
     0
 71
     3
 72
     9
 73
     5
 74
     0
 42
0.000000001
 43
0.0000001
 40
0.0
 40
0.0
 40
0.0
 40
0.0
 40
0.2517067478
 40
1.0
 40
1.0
 40
1.0
 40
1.0
 10
368.4453697337
 20
119.6324874165
 30
0.0
 10
368.4609957956
 20
119.7247232922
 30
0.0
 10
368.5192569977
 20
120.0917907273
 30
0.0
 10
368.5612325746
 20
120.461531602
 30
0.0
 10
368.581571863
 20
120.7388999751
 30
0.0
  0
SPLINE
  5
422
330
222
100
AcDbEntity
  8
02___PRT_ALL_AXES
  6
Continuous
 62
     7
100
AcDbSpline
 70
     0
 71
     3
 72
    21
 73
    17
 74
     0
 42
0.000000001
 43
0.0000001
 40
0.0
 40
0.0
 40
0.0
 40
0.0
 40
0.0496938794
 40
0.0726600671
 40
0.095370167
 40
0.1423344812
 40
0.1936127609
 40
0.2495487407
 40
0.3096954097
 40
0.4401425101
 40
0.5810547415
 40
0.7282765001
 40
0.8022767332
 40
0.8742747605
 40
0.9413105664
 40
1.0
 40
1.0
 40
1.0
 40
1.0
 10
366.8537580919
 20
127.5396424564
 30
0.0
 10
366.888883107
 20
127.5529925598
 30
0.0
 10
366.9379254374
 20
127.582908444
 30
0.0
 10
366.9813917105
 20
127.6412401005
 30
0.0
 10
367.0092922292
 20
127.7061468564
 30
0.0
 10
367.0172889903
 20
127.7994378943
 30
0.0
 10
366.9937198095
 20
127.914536533
 30
0.0
 10
366.945006593
 20
128.0319629416
 30
0.0
 10
366.8496641859
 20
128.1926634207
 30
0.0
 10
366.6863723382
 20
128.3851402968
 30
0.0
 10
366.4439263434
 20
128.5903018316
 30
0.0
 10
366.2078362827
 20
128.7322968803
 30
0.0
 10
366.0024902202
 20
128.8169780794
 30
0.0
 10
365.8463654085
 20
128.859109696
 30
0.0
 10
365.6967319572
 20
128.8733087706
 30
0.0
 10
365.6008702128
 20
128.8580855938
 30
0.0
 10
365.5593868899
 20
128.8423188632
 30
0.0
  0
SPLINE
  5
423
330
222
100
AcDbEntity
  8
02___PRT_ALL_AXES
  6
Continuous
 62
     7
100
AcDbSpline
 70
     0
 71
     3
 72
    10
 73
     6
 74
     0
 42
0.000000001
 43
0.0000001
 40
0.0
 40
0.0
 40
0.0
 40
0.0
 40
0.2626494566
 40
0.516188114
 40
1.0
 40
1.0
 40
1.0
 40
1.0
 10
368.5310575171
 20
122.6258966724
 30
0.0
 10
368.4995563984
 20
122.8591985827
 30
0.0
 10
368.4182977863
 20
123.3153607429
 30
0.0
 10
368.1899495899
 20
124.1828294283
 30
0.0
 10
367.9527262197
 20
124.8022571591
 30
0.0
 10
367.7752282049
 20
125.1979194627
 30
0.0
  0
SPLINE
  5
424
330
222
100
AcDbEntity
  8
02___PRT_ALL_AXES
  6
Continuous
 62
     7
100
AcDbSpline
 70
     0
 71
     3
 72
    20
 73
    16
 74
     0
 42
0.000000001
 43
0.0000001
 40
0.0
 40
0.0
 40
0.0
 40
0.0
 40
0.0567847095
 40
0.1212821077
 40
0.1908173957
 40
0.2627578957
 40
0.4074334538
 40
0.547957442
 40
0.6801607315
 40
0.741983638
 40
0.8001235127
 40
0.8539997792
 40
0.9035556826
 40
0.9505784112
 40
1.0
 40
1.0
 40
1.0
 40
1.0
 10
368.9216007597
 20
120.8681361029
 30
0.0
 10
368.9626532402
 20
120.8837390816
 30
0.0
 10
369.0429283828
 20
120.9365856081
 30
0.0
 10
369.1397047899
 20
121.0493267477
 30
0.0
 10
369.2198326152
 20
121.187830367
 30
0.0
 10
369.3034450595
 20
121.3932480229
 30
0.0
 10
369.3657322548
 20
121.6642614224
 30
0.0
 10
369.384947647
 20
121.9876820117
 30
0.0
 10
369.3571167697
 20
122.2466851888
 30
0.0
 10
369.3049308435
 20
122.4350388679
 30
0.0
 10
369.2517260587
 20
122.559097212
 30
0.0
 10
369.1822475544
 20
122.6640215356
 30
0.0
 10
369.0939291965
 20
122.7427857785
 30
0.0
 10
368.9837195764
 20
122.7813879336
 30
0.0
 10
368.9068157295
 20
122.7687125826
 30
0.0
 10
368.8710864138
 20
122.7551328002
 30
0.0
  0
SPLINE
  5
425
330
222
100
AcDbEntity
  8
02___PRT_ALL_AXES
  6
Continuous
 62
     7
100
AcDbSpline
 70
     0
 71
     3
 72
    11
 73
     7
 74
     0
 42
0.000000001
 43
0.0000001
 40
0.0
 40
0.0
 40
0.0
 40
0.0
 40
0.2483458605
 40
0.5002261175
 40
0.7519857684
 40
1.0
 40
1.0
 40
1.0
 40
1.0
 10
368.5310575171
 20
122.6258966724
 30
0.0
 10
368.4800136967
 20
123.0051428904
 30
0.0
 10
368.330425245
 20
123.7634236582
 30
0.0
 10
367.9760409089
 20
124.8691407848
 30
0.0
 10
367.4987708225
 20
125.9270783304
 30
0.0
 10
367.1021292163
 20
126.5896368434
 30
0.0
 10
366.8861334499
 20
126.9048957468
 30
0.0
  0
SPLINE
  5
426
330
222
100
AcDbEntity
  8
02___PRT_ALL_AXES
  6
Continuous
 62
     7
100
AcDbSpline
 70
     0
 71
     3
 72
     9
 73
     5
 74
     0
 42
0.000000001
 43
0.0000001
 40
0.0
 40
0.0
 40
0.0
 40
0.0
 40
0.4857941894
 40
1.0
 40
1.0
 40
1.0
 40
1.0
 10
367.7752282049
 20
125.1979194627
 30
0.0
 10
367.6583866973
 20
125.4948476441
 30
0.0
 10
367.3892578442
 20
126.0953500276
 30
0.0
 10
367.052724929
 20
126.6617548286
 30
0.0
 10
366.8618338454
 20
126.9403886518
 30
0.0
  0
SPLINE
  5
427
330
222
100
AcDbEntity
  8
02___PRT_ALL_AXES
  6
Continuous
 62
     9
100
AcDbSpline
 70
     0
 71
     3
 72
     9
 73
     5
 74
     0
 42
0.000000001
 43
0.0000001
 40
0.0
 40
0.0
 40
0.0
 40
0.0
 40
0.2412559524
 40
1.0
 40
1.0
 40
1.0
 40
1.0
 10
368.5858149411
 20
119.2598283011
 30
0.0
 10
368.6293758977
 20
119.3847728652
 30
0.0
 10
368.7920648651
 20
119.9088363331
 30
0.0
 10
368.8850721851
 20
120.4535978547
 30
0.0
 10
368.9216007597
 20
120.8681361029
 30
0.0
  0
SPLINE
  5
428
330
222
100
AcDbEntity
  8
02___PRT_ALL_AXES
  6
Continuous
 62
     9
100
AcDbSpline
 70
     0
 71
     3
 72
    11
 73
     7
 74
     0
 42
0.000000001
 43
0.0000001
 40
0.0
 40
0.0
 40
0.0
 40
0.0
 40
0.2495635802
 40
0.5025868783
 40
0.754287836
 40
1.0
 40
1.0
 40
1.0
 40
1.0
 10
368.8710864138
 20
122.7551328002
 30
0.0
 10
368.812838195
 20
123.1879063763
 30
0.0
 10
368.6346576817
 20
124.0522552145
 30
0.0
 10
368.2006654753
 20
125.3024415163
 30
0.0
 10
367.6119330306
 20
126.4801543987
 30
0.0
 10
367.1207038458
 20
127.2026177626
 30
0.0
 10
366.8537580919
 20
127.5396424564
 30
0.0
  0
SPLINE
  5
429
330
222
100
AcDbEntity
  8
02___PRT_ALL_AXES
  6
Continuous
 62
     9
100
AcDbSpline
 70
     0
 71
     3
 72
     9
 73
     5
 74
     0
 42
0.000000001
 43
0.0000001
 40
0.0
 40
0.0
 40
0.0
 40
0.0
 40
0.2595870187
 40
1.0
 40
1.0
 40
1.0
 40
1.0
 10
365.5593868899
 20
128.8423188632
 30
0.0
 10
365.4527255261
 20
128.926246037
 30
0.0
 10
365.03250351
 20
129.2372989938
 30
0.0
 10
364.5734135001
 20
129.4975398007
 30
0.0
 10
364.2172785575
 20
129.6492845411
 30
0.0
  0
SPLINE
  5
42A
330
222
100
AcDbEntity
  8
02___PRT_ALL_AXES
  6
Continuous
 62
     7
100
AcDbSpline
 70
     0
 71
     3
 72
    10
 73
     6
 74
     0
 42
0.000000001
 43
0.0000001
 40
0.0
 40
0.0
 40
0.0
 40
0.0
 40
0.5192374217
 40
0.7623634715
 40
1.0
 40
1.0
 40
1.0
 40
1.0
 10
333.5775308185
 20
75.0672393189
 30
0.0
 10
333.6904612449
 20
74.8885143577
 30
0.0
 10
333.8969618149
 20
74.6461053629
 30
0.0
 10
334.2396352435
 20
74.4224047918
 30
0.0
 10
334.4230761239
 20
74.3495126451
 30
0.0
 10
334.5161758577
 20
74.3231631189
 30
0.0
  0
SPLINE
  5
42B
330
222
100
AcDbEntity
  8
02___PRT_ALL_AXES
  6
Continuous
 62
     7
100
AcDbSpline
 70
     0
 71
     3
 72
    16
 73
    12
 74
     0
 42
0.000000001
 43
0.0000001
 40
0.0
 40
0.0
 40
0.0
 40
0.0
 40
0.0469765897
 40
0.0949426299
 40
0.1967884173
 40
0.3103523878
 40
0.4363863779
 40
0.5727683539
 40
0.7155146693
 40
0.8596348237
 40
1.0
 40
1.0
 40
1.0
 40
1.0
 10
334.7359928556
 20
74.2609516543
 30
0.0
 10
334.824548831
 20
74.2358881241
 30
0.0
 10
335.0089646039
 20
74.2026176508
 30
0.0
 10
335.3964733784
 20
74.2074798487
 30
0.0
 10
335.9012963596
 20
74.3564951597
 30
0.0
 10
336.4666006043
 20
74.7272169861
 30
0.0
 10
336.977853146
 20
75.264992444
 30
0.0
 10
337.4072577687
 20
75.9375903569
 30
0.0
 10
337.7307076485
 20
76.7052015618
 30
0.0
 10
337.9292562782
 20
77.5217954585
 30
0.0
 10
337.9713172483
 20
78.0808171096
 30
0.0
 10
337.9667729478
 20
78.3557768065
 30
0.0
  0
SPLINE
  5
42C
330
222
100
AcDbEntity
  8
02___PRT_ALL_AXES
  6
Continuous
 62
     7
100
AcDbSpline
 70
     0
 71
     3
 72
     9
 73
     5
 74
     0
 42
0.000000001
 43
0.0000001
 40
0.0
 40
0.0
 40
0.0
 40
0.0
 40
0.5226770861
 40
1.0
 40
1.0
 40
1.0
 40
1.0
 10
333.7049743128
 20
75.1651078539
 30
0.0
 10
333.7971089531
 20
74.9899901388
 30
0.0
 10
334.0148609318
 20
74.6735918391
 30
0.0
 10
334.3229837981
 20
74.4391528779
 30
0.0
 10
334.4846463556
 20
74.3584072252
 30
0.0
  0
SPLINE
  5
42D
330
222
100
AcDbEntity
  8
7_ALL_FEATURES
  6
Continuous
 62
     7
100
AcDbSpline
 70
     0
 71
     3
 72
    11
 73
     7
 74
     0
 42
0.000000001
 43
0.0000001
 40
0.0
 40
0.0
 40
0.0
 40
0.0
 40
0.2540595488
 40
0.5070353678
 40
0.7564581855
 40
1.0
 40
1.0
 40
1.0
 40
1.0
 10
360.7672867033
 20
114.1258130232
 30
0.0
 10
361.4620131162
 20
116.192224338
 30
0.0
 10
362.6737647517
 20
120.3772978491
 30
0.0
 10
363.9467967389
 20
126.7501237579
 30
0.0
 10
364.6565698788
 20
133.1193867101
 30
0.0
 10
364.7473045416
 20
137.3556390307
 30
0.0
 10
364.6913807927
 20
139.4447075437
 30
0.0
  0
SPLINE
  5
42E
330
222
100
AcDbEntity
  8
7_ALL_FEATURES
  6
Continuous
 62
     7
100
AcDbSpline
 70
     0
 71
     3
 72
    11
 73
     7
 74
     0
 42
0.000000001
 43
0.0000001
 40
0.0
 40
0.0
 40
0.0
 40
0.0
 40
0.2329625672
 40
0.4795454351
 40
0.7365481892
 40
1.0
 40
1.0
 40
1.0
 40
1.0
 10
352.4026408844
 20
98.6339808664
 30
0.0
 10
353.1524266859
 20
99.3134147837
 30
0.0
 10
354.5853223021
 20
100.8371421894
 30
0.0
 10
356.4452516757
 20
103.4501561814
 30
0.0
 10
358.032813719
 20
106.3878060085
 30
0.0
 10
358.8733258802
 20
108.4923694092
 30
0.0
 10
359.2379691012
 20
109.5769731665
 30
0.0
  0
SPLINE
  5
42F
330
222
100
AcDbEntity
  8
02___PRT_ALL_AXES
  6
Continuous
 62
     7
100
AcDbSpline
 70
     0
 71
     3
 72
    14
 73
    10
 74
     0
 42
0.000000001
 43
0.0000001
 40
0.0
 40
0.0
 40
0.0
 40
0.0
 40
0.1050360672
 40
0.2128188555
 40
0.3256977952
 40
0.4453660773
 40
0.5727173738
 40
0.7080192646
 40
1.0
 40
1.0
 40
1.0
 40
1.0
 10
363.0569649068
 20
151.2152780165
 30
0.0
 10
363.1561161844
 20
151.1872321752
 30
0.0
 10
363.3514293279
 20
151.1081862832
 30
0.0
 10
363.6172600371
 20
150.9270860981
 30
0.0
 10
363.8526261342
 20
150.6875309452
 30
0.0
 10
364.0529187469
 20
150.3948505397
 30
0.0
 10
364.2150981498
 20
150.055150451
 30
0.0
 10
364.3806358562
 20
149.5355450649
 30
0.0
 10
364.4325127571
 20
149.1148936914
 30
0.0
 10
364.4401778221
 20
148.8285601356
 30
0.0
  0
SPLINE
  5
430
330
222
100
AcDbEntity
  8
02___PRT_ALL_AXES
  6
Continuous
 62
     7
100
AcDbSpline
 70
     0
 71
     3
 72
    14
 73
    10
 74
     0
 42
0.000000001
 43
0.0000001
 40
0.0
 40
0.0
 40
0.0
 40
0.0
 40
0.2959172274
 40
0.4352727083
 40
0.5658931596
 40
0.6866840407
 40
0.7978527961
 40
0.9011659203
 40
1.0
 40
1.0
 40
1.0
 40
1.0
 10
359.8738776767
 20
148.8549363694
 30
0.0
 10
360.0051888916
 20
149.2455116738
 30
0.0
 10
360.2672685043
 20
149.8016743256
 30
0.0
 10
360.7416727035
 20
150.4334199965
 30
0.0
 10
361.1317620147
 20
150.8163102332
 30
0.0
 10
361.5504327092
 20
151.1037578513
 30
0.0
 10
361.9849696401
 20
151.2850787423
 30
0.0
 10
362.4209958479
 20
151.3515836538
 30
0.0
 10
362.7047195599
 20
151.3149480448
 30
0.0
 10
362.8371479089
 20
151.2774894811
 30
0.0
  0
SPLINE
  5
431
330
222
100
AcDbEntity
  8
02___PRT_ALL_AXES
  6
Continuous
 62
     7
100
AcDbSpline
 70
     0
 71
     3
 72
    14
 73
    10
 74
     0
 42
0.000000001
 43
0.0000001
 40
0.0
 40
0.0
 40
0.0
 40
0.0
 40
0.2920987384
 40
0.4305997137
 40
0.5613851451
 40
0.6832982142
 40
0.7961551132
 40
0.9009539479
 40
1.0
 40
1.0
 40
1.0
 40
1.0
 10
360.0936946745
 20
148.7927249048
 30
0.0
 10
360.2164910468
 20
149.1579734519
 30
0.0
 10
360.4578893235
 20
149.6799323636
 30
0.0
 10
360.8897043125
 20
150.2835578586
 30
0.0
 10
361.2458508797
 20
150.6596895268
 30
0.0
 10
361.6296387605
 20
150.9553640941
 30
0.0
 10
362.0306882587
 20
151.1614379317
 30
0.0
 10
362.4375910235
 20
151.2705298075
 30
0.0
 10
362.7100221489
 20
151.2746032598
 30
0.0
 10
362.8397324375
 20
151.2588612758
 30
0.0
  0
SPLINE
  5
432
330
222
100
AcDbEntity
  8
7_ALL_FEATURES
  6
Continuous
 62
     7
100
AcDbSpline
 70
     0
 71
     3
 72
    11
 73
     7
 74
     0
 42
0.000000001
 43
0.0000001
 40
0.0
 40
0.0
 40
0.0
 40
0.0
 40
0.2518900387
 40
0.5048889196
 40
0.755411327
 40
1.0
 40
1.0
 40
1.0
 40
1.0
 10
369.4959111431
 20
116.0589799735
 30
0.0
 10
369.2641397138
 20
117.1257443337
 30
0.0
 10
368.6747802607
 20
119.2387904895
 30
0.0
 10
367.4441063446
 20
122.2796892169
 30
0.0
 10
365.8934230712
 20
125.1347233909
 30
0.0
 10
364.6525233588
 20
126.8928439274
 30
0.0
 10
363.9877215909
 20
127.7184696544
 30
0.0
  0
SPLINE
  5
433
330
222
100
AcDbEntity
  8
7_ALL_FEATURES
  6
Continuous
 62
     7
100
AcDbSpline
 70
     0
 71
     3
 72
    11
 73
     7
 74
     0
 42
0.000000001
 43
0.0000001
 40
0.0
 40
0.0
 40
0.0
 40
0.0
 40
0.2616465523
 40
0.5136358287
 40
0.7586500476
 40
1.0
 40
1.0
 40
1.0
 40
1.0
 10
354.922070037
 20
134.175047695
 30
0.0
 10
354.3602023097
 20
134.3331716498
 30
0.0
 10
353.2340508914
 20
134.5688174679
 30
0.0
 10
351.5373747638
 20
134.6619068384
 30
0.0
 10
349.8924128545
 20
134.484871248
 30
0.0
 10
348.8427800961
 20
134.1863108159
 30
0.0
 10
348.3394949663
 20
133.9950125421
 30
0.0
  0
SPLINE
  5
434
330
222
100
AcDbEntity
  8
7_ALL_FEATURES
  6
Continuous
 62
     7
100
AcDbSpline
 70
     0
 71
     3
 72
    13
 73
     9
 74
     0
 42
0.000000001
 43
0.0000001
 40
0.0
 40
0.0
 40
0.0
 40
0.0
 40
0.2752022859
 40
0.5317098422
 40
0.6536316014
 40
0.7718325786
 40
0.8870045483
 40
1.0
 40
1.0
 40
1.0
 40
1.0
 10
359.1424818447
 20
102.4834773993
 30
0.0
 10
358.951182279
 20
101.4601928253
 30
0.0
 10
358.4233845516
 20
99.5074928432
 30
0.0
 10
357.3338836736
 20
97.2673486221
 30
0.0
 10
356.2424630846
 20
95.7338152584
 30
0.0
 10
355.3390114695
 20
94.7342989218
 30
0.0
 10
354.3449078429
 20
93.8757650292
 30
0.0
 10
353.621923644
 20
93.3989774172
 30
0.0
 10
353.2501337918
 20
93.1881016954
 30
0.0
  0
SPLINE
  5
435
330
222
100
AcDbEntity
  8
7_ALL_FEATURES
  6
Continuous
 62
     7
100
AcDbSpline
 70
     0
 71
     3
 72
    13
 73
     9
 74
     0
 42
0.000000001
 43
0.0000001
 40
0.0
 40
0.0
 40
0.0
 40
0.0
 40
0.2752022859
 40
0.5317098422
 40
0.6536316014
 40
0.7718325786
 40
0.8870045483
 40
1.0
 40
1.0
 40
1.0
 40
1.0
 10
366.8951406891
 20
105.4300611138
 30
0.0
 10
366.7038411234
 20
104.4067765398
 30
0.0
 10
366.176043396
 20
102.4540765577
 30
0.0
 10
365.0865425179
 20
100.2139323366
 30
0.0
 10
363.995121929
 20
98.6803989729
 30
0.0
 10
363.0916703139
 20
97.6808826363
 30
0.0
 10
362.0975666873
 20
96.8223487437
 30
0.0
 10
361.3745824884
 20
96.3455611317
 30
0.0
 10
361.0027926362
 20
96.1346854098
 30
0.0
  0
SPLINE
  5
436
330
222
100
AcDbEntity
  8
7_ALL_FEATURES
  6
Continuous
 62
     7
100
AcDbSpline
 70
     0
 71
     3
 72
    13
 73
     9
 74
     0
 42
0.000000001
 43
0.0000001
 40
0.0
 40
0.0
 40
0.0
 40
0.0
 40
0.2752022859
 40
0.5317098422
 40
0.6536316014
 40
0.7718325786
 40
0.8870045483
 40
1.0
 40
1.0
 40
1.0
 40
1.0
 10
361.7267014595
 20
103.4656719708
 30
0.0
 10
361.5354018938
 20
102.4423873968
 30
0.0
 10
361.0076041664
 20
100.4896874147
 30
0.0
 10
359.9181032884
 20
98.2495431936
 30
0.0
 10
358.8266826994
 20
96.7160098299
 30
0.0
 10
357.9232310843
 20
95.7164934933
 30
0.0
 10
356.9291274577
 20
94.8579596007
 30
0.0
 10
356.2061432588
 20
94.3811719887
 30
0.0
 10
355.8343534066
 20
94.1702962669
 30
0.0
  0
SPLINE
  5
437
330
222
100
AcDbEntity
  8
7_ALL_FEATURES
  6
Continuous
 62
     7
100
AcDbSpline
 70
     0
 71
     3
 72
    13
 73
     9
 74
     0
 42
0.000000001
 43
0.0000001
 40
0.0
 40
0.0
 40
0.0
 40
0.0
 40
0.2752022859
 40
0.5317098422
 40
0.6536316014
 40
0.7718325786
 40
0.8870045483
 40
1.0
 40
1.0
 40
1.0
 40
1.0
 10
364.3109210743
 20
104.4478665423
 30
0.0
 10
364.1196215086
 20
103.4245819683
 30
0.0
 10
363.5918237812
 20
101.4718819862
 30
0.0
 10
362.5023229032
 20
99.2317377651
 30
0.0
 10
361.4109023142
 20
97.6982044014
 30
0.0
 10
360.5074506991
 20
96.6986880648
 30
0.0
 10
359.5133470725
 20
95.8401541722
 30
0.0
 10
358.7903628736
 20
95.3633665602
 30
0.0
 10
358.4185730214
 20
95.1524908383
 30
0.0
  0
SPLINE
  5
438
330
222
100
AcDbEntity
  8
7_ALL_FEATURES
  6
Continuous
 62
     7
100
AcDbSpline
 70
     0
 71
     3
 72
    14
 73
    10
 74
     0
 42
0.000000001
 43
0.0000001
 40
0.0
 40
0.0
 40
0.0
 40
0.0
 40
0.1132336322
 40
0.227857766
 40
0.3451527654
 40
0.4662023484
 40
0.5918362332
 40
0.7225924759
 40
1.0
 40
1.0
 40
1.0
 40
1.0
 10
362.5514068704
 20
96.6048909486
 30
0.0
 10
363.0027963493
 20
96.7764637272
 30
0.0
 10
363.8858552353
 20
97.1927279715
 30
0.0
 10
365.1107558963
 20
98.0184050526
 30
0.0
 10
366.2261367398
 20
99.0370037091
 30
0.0
 10
367.2192648687
 20
100.2359234529
 30
0.0
 10
368.0797623069
 20
101.6013701098
 30
0.0
 10
369.0570359775
 20
103.6617951683
 30
0.0
 10
369.5339854248
 20
105.3527563427
 30
0.0
 10
369.7513834212
 20
106.5156445875
 30
0.0
  0
SPLINE
  5
439
330
222
100
AcDbEntity
  8
7_ALL_FEATURES
  6
Continuous
 62
     7
100
AcDbSpline
 70
     0
 71
     3
 72
    11
 73
     7
 74
     0
 42
0.000000001
 43
0.0000001
 40
0.0
 40
0.0
 40
0.0
 40
0.0
 40
0.2361260229
 40
0.4796167741
 40
0.7335505531
 40
1.0
 40
1.0
 40
1.0
 40
1.0
 10
346.8729678072
 20
133.3188067798
 30
0.0
 10
347.4589712107
 20
133.4438298947
 30
0.0
 10
348.675846507
 20
133.5856536573
 30
0.0
 10
350.5424139825
 20
133.4690974319
 30
0.0
 10
352.4386614256
 20
133.03065925
 30
0.0
 10
353.6710385055
 20
132.5419401381
 30
0.0
 10
354.2817052901
 20
132.2516786217
 30
0.0
  0
SPLINE
  5
43A
330
222
100
AcDbEntity
  8
7_ALL_FEATURES
  6
Continuous
 62
     7
100
AcDbSpline
 70
     0
 71
     3
 72
    11
 73
     7
 74
     0
 42
0.000000001
 43
0.0000001
 40
0.0
 40
0.0
 40
0.0
 40
0.0
 40
0.2312355809
 40
0.4725430517
 40
0.7280784443
 40
1.0
 40
1.0
 40
1.0
 40
1.0
 10
344.2887481924
 20
132.3366122083
 30
0.0
 10
345.0264768516
 20
132.4940057224
 30
0.0
 10
346.5774075337
 20
132.6361126819
 30
0.0
 10
348.9490621015
 20
132.3273720928
 30
0.0
 10
351.3374847034
 20
131.5173457896
 30
0.0
 10
352.8540441959
 20
130.6857806137
 30
0.0
 10
353.5979283091
 20
130.202556217
 30
0.0
  0
SPLINE
  5
43B
330
222
100
AcDbEntity
  8
7_ALL_FEATURES
  6
Continuous
 62
     7
100
AcDbSpline
 70
     0
 71
     3
 72
    13
 73
     9
 74
     0
 42
0.000000001
 43
0.0000001
 40
0.0
 40
0.0
 40
0.0
 40
0.0
 40
0.1122166825
 40
0.2267614509
 40
0.3445592803
 40
0.4663442968
 40
0.7233915942
 40
1.0
 40
1.0
 40
1.0
 40
1.0
 10
341.7045285776
 20
131.3544176369
 30
0.0
 10
342.1449773934
 20
131.4483868571
 30
0.0
 10
343.0496171176
 20
131.5754169211
 30
0.0
 10
344.4362702123
 20
131.5803055243
 30
0.0
 10
345.8500934634
 20
131.4015752549
 30
0.0
 10
347.7867377372
 20
130.9129035755
 30
0.0
 10
350.2085651075
 20
129.8332722885
 30
0.0
 10
351.9702994192
 20
128.5929504838
 30
0.0
 10
352.8233058164
 20
127.8824986881
 30
0.0
  0
SPLINE
  5
43C
330
222
100
AcDbEntity
  8
7_ALL_FEATURES
  6
Continuous
 62
     7
100
AcDbSpline
 70
     0
 71
     3
 72
    13
 73
     9
 74
     0
 42
0.000000001
 43
0.0000001
 40
0.0
 40
0.0
 40
0.0
 40
0.0
 40
0.1128479003
 40
0.2279015467
 40
0.3460267124
 40
0.4679214728
 40
0.7245369046
 40
1.0
 40
1.0
 40
1.0
 40
1.0
 10
339.1203089628
 20
130.3722230654
 30
0.0
 10
339.5424873909
 20
130.4622943206
 30
0.0
 10
340.4084638772
 20
130.5864914867
 30
0.0
 10
341.7354286293
 20
130.6022774959
 30
0.0
 10
343.0884983384
 20
130.4492242614
 30
0.0
 10
344.9419149712
 20
130.0152533229
 30
0.0
 10
347.2664821489
 20
129.0405549882
 30
0.0
 10
348.9712309328
 20
127.9072494393
 30
0.0
 10
349.7996218849
 20
127.2559989049
 30
0.0
  0
SPLINE
  5
43D
330
222
100
AcDbEntity
  8
7_ALL_FEATURES
  6
Continuous
 62
     7
100
AcDbSpline
 70
     0
 71
     3
 72
     9
 73
     5
 74
     0
 42
0.000000001
 43
0.0000001
 40
0.0
 40
0.0
 40
0.0
 40
0.0
 40
0.5023364107
 40
1.0
 40
1.0
 40
1.0
 40
1.0
 10
367.9997839977
 20
115.4903410111
 30
0.0
 10
367.6064362238
 20
117.3007858428
 30
0.0
 10
366.4675374876
 20
120.8350625351
 30
0.0
 10
364.6837775472
 20
124.0933281631
 30
0.0
 10
363.6424620897
 20
125.6047956293
 30
0.0
  0
SPLINE
  5
43E
330
222
100
AcDbEntity
  8
7_ALL_FEATURES
  6
Continuous
 62
     7
100
AcDbSpline
 70
     0
 71
     3
 72
    11
 73
     7
 74
     0
 42
0.000000001
 43
0.0000001
 40
0.0
 40
0.0
 40
0.0
 40
0.0
 40
0.2630767685
 40
0.5162567379
 40
0.7611688265
 40
1.0
 40
1.0
 40
1.0
 40
1.0
 10
354.6109622528
 20
133.2117727799
 30
0.0
 10
354.1019834408
 20
133.4075674928
 30
0.0
 10
353.0795560173
 20
133.7341803935
 30
0.0
 10
351.5229017812
 20
134.0186064329
 30
0.0
 10
349.9917394261
 20
134.0837860292
 30
0.0
 10
348.9900035788
 20
133.9787200009
 30
0.0
 10
348.5030624655
 20
133.8893191206
 30
0.0
  0
SPLINE
  5
43F
330
222
100
AcDbEntity
  8
7_ALL_FEATURES
  6
Continuous
 62
     7
100
AcDbSpline
 70
     0
 71
     3
 72
    11
 73
     7
 74
     0
 42
0.000000001
 43
0.0000001
 40
0.0
 40
0.0
 40
0.0
 40
0.0
 40
0.2693423997
 40
0.5240016961
 40
0.7662831997
 40
1.0
 40
1.0
 40
1.0
 40
1.0
 10
353.9749375962
 20
131.3127234532
 30
0.0
 10
353.2859948807
 20
131.6970761249
 30
0.0
 10
351.8889417846
 20
132.3499449907
 30
0.0
 10
349.7156685458
 20
132.9543484324
 30
0.0
 10
347.5706754216
 20
133.1396623302
 30
0.0
 10
346.1740703218
 20
132.9751167407
 30
0.0
 10
345.5068292584
 20
132.8221241024
 30
0.0
  0
SPLINE
  5
440
330
222
100
AcDbEntity
  8
7_ALL_FEATURES
  6
Continuous
 62
     7
100
AcDbSpline
 70
     0
 71
     3
 72
    13
 73
     9
 74
     0
 42
0.000000001
 43
0.0000001
 40
0.0
 40
0.0
 40
0.0
 40
0.0
 40
0.1129854467
 40
0.2280876403
 40
0.3461981336
 40
0.4680435848
 40
0.7245329772
 40
1.0
 40
1.0
 40
1.0
 40
1.0
 10
354.4833306784
 20
93.6343251914
 30
0.0
 10
354.8630236466
 20
93.8421359498
 30
0.0
 10
355.6017934273
 20
94.3145208175
 30
0.0
 10
356.6182844066
 20
95.171814393
 30
0.0
 10
357.542191582
 20
96.1748647793
 30
0.0
 10
358.6583541632
 20
97.7194929584
 30
0.0
 10
359.7717012627
 20
99.9848101725
 30
0.0
 10
360.3086721535
 20
101.9630920837
 30
0.0
 10
360.5025974314
 20
103.0004219106
 30
0.0
  0
SPLINE
  5
441
330
222
100
AcDbEntity
  8
7_ALL_FEATURES
  6
Continuous
 62
     7
100
AcDbSpline
 70
     0
 71
     3
 72
    13
 73
     9
 74
     0
 42
0.000000001
 43
0.0000001
 40
0.0
 40
0.0
 40
0.0
 40
0.0
 40
0.1129854467
 40
0.2280876403
 40
0.3461981336
 40
0.4680435848
 40
0.7245329772
 40
1.0
 40
1.0
 40
1.0
 40
1.0
 10
357.0675502932
 20
94.6165197629
 30
0.0
 10
357.4472432614
 20
94.8243305212
 30
0.0
 10
358.1860130421
 20
95.296715389
 30
0.0
 10
359.2025040214
 20
96.1540089645
 30
0.0
 10
360.1264111968
 20
97.1570593507
 30
0.0
 10
361.242573778
 20
98.7016875299
 30
0.0
 10
362.3559208775
 20
100.967004744
 30
0.0
 10
362.8928917683
 20
102.9452866551
 30
0.0
 10
363.0868170462
 20
103.9826164821
 30
0.0
  0
LINE
  5
442
330
222
100
AcDbEntity
  8
7_ALL_FEATURES
  6
Continuous
 62
     7
100
AcDbLine
 10
360.2471251533
 20
112.5437572966
 30
0.0
 11
360.2428932372
 21
112.5632020603
 31
0.0
  0
SPLINE
  5
443
330
222
100
AcDbEntity
  8
7_ALL_FEATURES
  6
Continuous
 62
     7
100
AcDbSpline
 70
     0
 71
     3
 72
    14
 73
    10
 74
     0
 42
0.000000001
 43
0.0000001
 40
0.0
 40
0.0
 40
0.0
 40
0.0
 40
0.2788413931
 40
0.4105682786
 40
0.5370260167
 40
0.6585016424
 40
0.7755565385
 40
0.8890275822
 40
1.0
 40
1.0
 40
1.0
 40
1.0
 10
352.4238221092
 20
126.6926774738
 30
0.0
 10
351.5176801911
 20
127.5315114728
 30
0.0
 10
350.0714925541
 20
128.6578392371
 30
0.0
 10
347.9872261055
 20
129.810442261
 30
0.0
 10
346.430923446
 20
130.4568808303
 30
0.0
 10
344.8702336503
 20
130.893109988
 30
0.0
 10
343.3221761752
 20
131.1135200235
 30
0.0
 10
341.8048953073
 20
131.1147521981
 30
0.0
 10
340.8173824593
 20
130.9675638049
 30
0.0
 10
340.3383900288
 20
130.8577349594
 30
0.0
  0
SPLINE
  5
444
330
222
100
AcDbEntity
  8
7_ALL_FEATURES
  6
Continuous
 62
     7
100
AcDbSpline
 70
     0
 71
     3
 72
    13
 73
     9
 74
     0
 42
0.000000001
 43
0.0000001
 40
0.0
 40
0.0
 40
0.0
 40
0.0
 40
0.1129854467
 40
0.2280876403
 40
0.3461981336
 40
0.4680435848
 40
0.7245329772
 40
1.0
 40
1.0
 40
1.0
 40
1.0
 10
359.651769908
 20
95.5987143344
 30
0.0
 10
360.0314628762
 20
95.8065250927
 30
0.0
 10
360.7702326569
 20
96.2789099605
 30
0.0
 10
361.7867236362
 20
97.136203536
 30
0.0
 10
362.7106308116
 20
98.1392539222
 30
0.0
 10
363.8267933928
 20
99.6838821014
 30
0.0
 10
364.9401404922
 20
101.9491993155
 30
0.0
 10
365.4771113831
 20
103.9274812266
 30
0.0
 10
365.671036661
 20
104.9648110536
 30
0.0
  0
SPLINE
  5
445
330
222
100
AcDbEntity
  8
7_ALL_FEATURES
  6
Continuous
 62
     7
100
AcDbSpline
 70
     0
 71
     3
 72
    13
 73
     9
 74
     0
 42
0.000000001
 43
0.0000001
 40
0.0
 40
0.0
 40
0.0
 40
0.0
 40
0.1130137723
 40
0.2282596768
 40
0.3465520123
 40
0.4685487883
 40
0.7250686976
 40
1.0
 40
1.0
 40
1.0
 40
1.0
 10
362.488816869
 20
96.7243088475
 30
0.0
 10
362.8527306647
 20
96.9380559058
 30
0.0
 10
363.560012237
 20
97.4188720565
 30
0.0
 10
364.5319080321
 20
98.2782054886
 30
0.0
 10
365.415095167
 20
99.2738345489
 30
0.0
 10
366.4820144767
 20
100.7959194824
 30
0.0
 10
367.5479144826
 20
103.010696558
 30
0.0
 10
368.0665838106
 20
104.9377737301
 30
0.0
 10
368.2552562758
 20
105.9470056251
 30
0.0
  0
SPLINE
  5
446
330
222
100
AcDbEntity
  8
7_ALL_FEATURES
  6
Continuous
 62
     7
100
AcDbSpline
 70
     0
 71
     3
 72
    13
 73
     9
 74
     0
 42
0.000000001
 43
0.0000001
 40
0.0
 40
0.0
 40
0.0
 40
0.0
 40
0.2743851713
 40
0.5305064383
 40
0.6524622856
 40
0.7708790825
 40
0.8864457845
 40
1.0
 40
1.0
 40
1.0
 40
1.0
 10
353.2439802411
 20
129.1353014179
 30
0.0
 10
352.4336865378
 20
129.7307528227
 30
0.0
 10
350.7719073925
 20
130.7608647477
 30
0.0
 10
348.5238790325
 20
131.6259365768
 30
0.0
 10
346.7384181609
 20
131.993866576
 30
0.0
 10
345.4359479617
 20
132.1092680087
 30
0.0
 10
344.1599129372
 20
132.067028633
 30
0.0
 10
343.3282316085
 20
131.9329351596
 30
0.0
 10
342.9226096436
 20
131.8399295309
 30
0.0
  0
ELLIPSE
  5
447
330
222
100
AcDbEntity
  8
7_ALL_FEATURES
  6
Continuous
 62
     7
100
AcDbEllipse
 10
74.4426935369
 20
221.7624289773
 30
0.0
 11
0.0
 21
-14.5
 31
0.0
210
0.0
220
0.0
230
1.0
 40
0.6206896552
 41
0.0
 42
6.283185307179586
  0
ELLIPSE
  5
448
330
222
100
AcDbEntity
  8
7_ALL_FEATURES
  6
Continuous
 62
     7
100
AcDbEllipse
 10
331.6434281505
 20
106.2534227974
 30
0.0
 11
-1.6020816166
 21
13.7873553824
 31
0.0
210
0.0
220
0.0
230
1.0
 40
0.4647315543
 41
0.1567434158
 42
3.210041716
  0
ELLIPSE
  5
449
330
222
100
AcDbEntity
  8
7_ALL_FEATURES
  6
Continuous
 62
     7
100
AcDbEllipse
 10
331.0993819158
 20
106.0466449929
 30
0.0
 11
-1.6020816166
 21
13.7873553824
 31
0.0
210
0.0
220
0.0
230
1.0
 40
0.4647315543
 41
0.0
 42
6.283185307179586
  0
ENDSEC
  0
SECTION
  2
OBJECTS
  0
DICTIONARY
  5
C
330
0
100
AcDbDictionary
281
     1
  3
ACAD_GROUP
350
D
  3
ACAD_IMAGE_VARS
350
493
  3
ACAD_LAYOUT
350
1A
  3
ACAD_MLINESTYLE
350
17
  3
ACAD_PLOTSETTINGS
350
19
  3
ACAD_PLOTSTYLENAME
350
E
  3
ACAD_SCALELIST
350
44F
  3
APPDATA
350
491
  3
DWGPROPS
350
4BA
  0
DICTIONARY
  5
D
102
{ACAD_REACTORS
330
C
102
}
330
C
100
AcDbDictionary
281
     1
  0
RASTERVARIABLES
  5
493
102
{ACAD_REACTORS
330
C
102
}
330
C
100
AcDbRasterVariables
 90
        0
 70
     1
 71
     1
 72
     1
  0
DICTIONARY
  5
1A
102
{ACAD_REACTORS
330
C
102
}
330
C
100
AcDbDictionary
281
     1
  3
Layout1
350
44C
  3
Model
350
44B
  0
DICTIONARY
  5
17
102
{ACAD_REACTORS
330
C
102
}
330
C
100
AcDbDictionary
281
     1
  3
Standard
350
18
  0
DICTIONARY
  5
19
102
{ACAD_REACTORS
330
C
102
}
330
C
100
AcDbDictionary
281
     1
  0
ACDBDICTIONARYWDFLT
  5
E
102
{ACAD_REACTORS
330
C
102
}
330
C
100
AcDbDictionary
281
     1
  3
Normal
350
F
100
AcDbDictionaryWithDefault
340
F
  0
DICTIONARY
  5
44F
102
{ACAD_REACTORS
330
C
102
}
330
C
100
AcDbDictionary
281
     1
  3
A0
350
450
  3
A1
350
451
  3
A2
350
452
  3
A3
350
453
  3
A4
350
454
  3
A5
350
455
  3
A6
350
456
  3
A7
350
457
  3
A8
350
458
  3
A9
350
459
  3
B0
350
45A
  3
B1
350
45B
  3
B2
350
45C
  3
B3
350
45D
  3
B4
350
45E
  3
B5
350
45F
  3
B6
350
460
  3
B7
350
461
  3
B8
350
462
  3
B9
350
463
  3
C0
350
464
  3
C1
350
465
  3
C2
350
466
  3
C3
350
467
  3
C4
350
468
  3
C5
350
469
  3
C6
350
46A
  3
C7
350
46B
  3
C8
350
46C
  3
C9
350
46D
  3
D0
350
46E
  3
D1
350
46F
  3
D2
350
470
  0
DICTIONARY
  5
491
102
{ACAD_REACTORS
330
C
102
}
330
C
100
AcDbDictionary
281
     1
  0
XRECORD
  5
4BA
102
{ACAD_REACTORS
330
C
102
}
330
C
100
AcDbXrecord
280
     1
  1
DWGPROPS COOKIE
  2

  3

  4

  6

  7

  8
andrea.faggionato
  9

300
=
301
=
302
=
303
=
304
=
305
=
306
=
307
=
308
=
309
=
 40
0.0
 41
0.0
 42
2456744.566222836
  1

 90
        0
  0
LAYOUT
  5
44C
102
{ACAD_REACTORS
330
1A
102
}
330
1A
100
AcDbPlotSettings
  1

  2
none_device
  4
ISO_A3_(420.00_x_297.00_MM)
  6

 40
0.0
 41
0.0
 42
0.0
 43
0.0
 44
420.0
 45
297.0
 46
0.0
 47
0.0
 48
0.0
 49
0.0
140
0.0
141
0.0
142
1.0
143
1.0
 70
     0
 72
     1
 73
     0
 74
     0
  7

 75
     0
147
1.0
148
0.0
149
0.0
100
AcDbLayout
  1
Layout1
 70
     0
 71
     1
 10
0.0
 20
0.0
 11
420.0
 21
297.0
 12
0.0
 22
0.0
 32
0.0
 14
0.0
 24
0.0
 34
0.0
 15
0.0
 25
0.0
 35
0.0
146
0.0
 13
0.0
 23
0.0
 33
0.0
 16
1.0
 26
0.0
 36
0.0
 17
0.0
 27
1.0
 37
0.0
 76
     0
330
223
  0
LAYOUT
  5
44B
102
{ACAD_REACTORS
330
1A
102
}
330
1A
100
AcDbPlotSettings
  1

  2
none_device
  4
ISO_A3_(420.00_x_297.00_MM)
  6

 40
0.0
 41
0.0
 42
0.0
 43
0.0
 44
420.0
 45
297.0
 46
0.0
 47
0.0
 48
0.0
 49
0.0
140
0.0
141
0.0
142
1.0
143
1.0
 70
  1024
 72
     1
 73
     0
 74
     0
  7

 75
     0
147
1.0
148
0.0
149
0.0
100
AcDbLayout
  1
Model
 70
     0
 71
     0
 10
0.0
 20
0.0
 11
420.0
 21
297.0
 12
0.0
 22
0.0
 32
0.0
 14
0.0
 24
0.0
 34
0.0
 15
0.0
 25
0.0
 35
0.0
146
0.0
 13
0.0
 23
0.0
 33
0.0
 16
1.0
 26
0.0
 36
0.0
 17
0.0
 27
1.0
 37
0.0
 76
     0
330
222
331
1F4
  0
MLINESTYLE
  5
18
102
{ACAD_REACTORS
330
17
102
}
330
17
100
AcDbMlineStyle
  2
STANDARD
 70
     0
  3

 62
   256
 51
90.0
 52
90.0
 71
     2
 49
0.5
 62
   256
  6
BYLAYER
 49
-0.5
 62
   256
  6
BYLAYER
  0
ACDBPLACEHOLDER
  5
F
102
{ACAD_REACTORS
330
E
102
}
330
E
  0
SCALE
  5
450
102
{ACAD_REACTORS
330
44F
102
}
330
44F
100
AcDbScale
 70
     0
300
1:1
140
1.0
141
1.0
290
     1
  0
SCALE
  5
451
102
{ACAD_REACTORS
330
44F
102
}
330
44F
100
AcDbScale
 70
     0
300
1:2
140
1.0
141
2.0
290
     0
  0
SCALE
  5
452
102
{ACAD_REACTORS
330
44F
102
}
330
44F
100
AcDbScale
 70
     0
300
1:4
140
1.0
141
4.0
290
     0
  0
SCALE
  5
453
102
{ACAD_REACTORS
330
44F
102
}
330
44F
100
AcDbScale
 70
     0
300
1:5
140
1.0
141
5.0
290
     0
  0
SCALE
  5
454
102
{ACAD_REACTORS
330
44F
102
}
330
44F
100
AcDbScale
 70
     0
300
1:8
140
1.0
141
8.0
290
     0
  0
SCALE
  5
455
102
{ACAD_REACTORS
330
44F
102
}
330
44F
100
AcDbScale
 70
     0
300
1:10
140
1.0
141
10.0
290
     0
  0
SCALE
  5
456
102
{ACAD_REACTORS
330
44F
102
}
330
44F
100
AcDbScale
 70
     0
300
1:16
140
1.0
141
16.0
290
     0
  0
SCALE
  5
457
102
{ACAD_REACTORS
330
44F
102
}
330
44F
100
AcDbScale
 70
     0
300
1:20
140
1.0
141
20.0
290
     0
  0
SCALE
  5
458
102
{ACAD_REACTORS
330
44F
102
}
330
44F
100
AcDbScale
 70
     0
300
1:30
140
1.0
141
30.0
290
     0
  0
SCALE
  5
459
102
{ACAD_REACTORS
330
44F
102
}
330
44F
100
AcDbScale
 70
     0
300
1:40
140
1.0
141
40.0
290
     0
  0
SCALE
  5
45A
102
{ACAD_REACTORS
330
44F
102
}
330
44F
100
AcDbScale
 70
     0
300
1:50
140
1.0
141
50.0
290
     0
  0
SCALE
  5
45B
102
{ACAD_REACTORS
330
44F
102
}
330
44F
100
AcDbScale
 70
     0
300
1:100
140
1.0
141
100.0
290
     0
  0
SCALE
  5
45C
102
{ACAD_REACTORS
330
44F
102
}
330
44F
100
AcDbScale
 70
     0
300
2:1
140
2.0
141
1.0
290
     0
  0
SCALE
  5
45D
102
{ACAD_REACTORS
330
44F
102
}
330
44F
100
AcDbScale
 70
     0
300
4:1
140
4.0
141
1.0
290
     0
  0
SCALE
  5
45E
102
{ACAD_REACTORS
330
44F
102
}
330
44F
100
AcDbScale
 70
     0
300
8:1
140
8.0
141
1.0
290
     0
  0
SCALE
  5
45F
102
{ACAD_REACTORS
330
44F
102
}
330
44F
100
AcDbScale
 70
     0
300
10:1
140
10.0
141
1.0
290
     0
  0
SCALE
  5
460
102
{ACAD_REACTORS
330
44F
102
}
330
44F
100
AcDbScale
 70
     0
300
100:1
140
100.0
141
1.0
290
     0
  0
SCALE
  5
461
102
{ACAD_REACTORS
330
44F
102
}
330
44F
100
AcDbScale
 70
     0
300
1/128" = 1'-0"
140
0.0078125
141
12.0
290
     0
  0
SCALE
  5
462
102
{ACAD_REACTORS
330
44F
102
}
330
44F
100
AcDbScale
 70
     0
300
1/64" = 1'-0"
140
0.015625
141
12.0
290
     0
  0
SCALE
  5
463
102
{ACAD_REACTORS
330
44F
102
}
330
44F
100
AcDbScale
 70
     0
300
1/32" = 1'-0"
140
0.03125
141
12.0
290
     0
  0
SCALE
  5
464
102
{ACAD_REACTORS
330
44F
102
}
330
44F
100
AcDbScale
 70
     0
300
1/16" = 1'-0"
140
0.0625
141
12.0
290
     0
  0
SCALE
  5
465
102
{ACAD_REACTORS
330
44F
102
}
330
44F
100
AcDbScale
 70
     0
300
3/32" = 1'-0"
140
0.09375
141
12.0
290
     0
  0
SCALE
  5
466
102
{ACAD_REACTORS
330
44F
102
}
330
44F
100
AcDbScale
 70
     0
300
1/8" = 1'-0"
140
0.125
141
12.0
290
     0
  0
SCALE
  5
467
102
{ACAD_REACTORS
330
44F
102
}
330
44F
100
AcDbScale
 70
     0
300
3/16" = 1'-0"
140
0.1875
141
12.0
290
     0
  0
SCALE
  5
468
102
{ACAD_REACTORS
330
44F
102
}
330
44F
100
AcDbScale
 70
     0
300
1/4" = 1'-0"
140
0.25
141
12.0
290
     0
  0
SCALE
  5
469
102
{ACAD_REACTORS
330
44F
102
}
330
44F
100
AcDbScale
 70
     0
300
3/8" = 1'-0"
140
0.375
141
12.0
290
     0
  0
SCALE
  5
46A
102
{ACAD_REACTORS
330
44F
102
}
330
44F
100
AcDbScale
 70
     0
300
1/2" = 1'-0"
140
0.5
141
12.0
290
     0
  0
SCALE
  5
46B
102
{ACAD_REACTORS
330
44F
102
}
330
44F
100
AcDbScale
 70
     0
300
3/4" = 1'-0"
140
0.75
141
12.0
290
     0
  0
SCALE
  5
46C
102
{ACAD_REACTORS
330
44F
102
}
330
44F
100
AcDbScale
 70
     0
300
1" = 1'-0"
140
1.0
141
12.0
290
     0
  0
SCALE
  5
46D
102
{ACAD_REACTORS
330
44F
102
}
330
44F
100
AcDbScale
 70
     0
300
1-1/2" = 1'-0"
140
1.5
141
12.0
290
     0
  0
SCALE
  5
46E
102
{ACAD_REACTORS
330
44F
102
}
330
44F
100
AcDbScale
 70
     0
300
3" = 1'-0"
140
3.0
141
12.0
290
     0
  0
SCALE
  5
46F
102
{ACAD_REACTORS
330
44F
102
}
330
44F
100
AcDbScale
 70
     0
300
6" = 1'-0"
140
6.0
141
12.0
290
     0
  0
SCALE
  5
470
102
{ACAD_REACTORS
330
44F
102
}
330
44F
100
AcDbScale
 70
     0
300
1'-0" = 1'-0"
140
12.0
141
12.0
290
     0
  0
ENDSEC
  0
EOF
