  0
SECTION
  2
HEADER
  9
$ACADVER
  1
AC1015
  9
$ACADMAINTVER
 70
     6
  9
$DWGCODEPAGE
  3
ANSI_1252
  9
$INSBASE
 10
0.0
 20
0.0
 30
0.0
  9
$EXTMIN
 10
0.0
 20
0.0
 30
0.0
  9
$EXTMAX
 10
420.0
 20
297.0
 30
0.0
  9
$LIMMIN
 10
0.0
 20
0.0
  9
$LIMMAX
 10
420.0
 20
297.0
  9
$ORTHOMODE
 70
     0
  9
$REGENMODE
 70
     1
  9
$FILLMODE
 70
     1
  9
$QTEXTMODE
 70
     0
  9
$MIRRTEXT
 70
     1
  9
$LTSCALE
 40
23.1
  9
$ATTMODE
 70
     1
  9
$TEXTSIZE
 40
0.2
  9
$TRACEWID
 40
0.05
  9
$TEXTSTYLE
  7
STANDARD
  9
$CLAYER
  8
0
  9
$CELTYPE
  6
BYLAYER
  9
$CECOLOR
 62
   256
  9
$CELTSCALE
 40
1.0
  9
$DISPSILH
 70
     0
  9
$DIMSCALE
 40
1.0
  9
$DIMASZ
 40
2.5
  9
$DIMEXO
 40
2.625
  9
$DIMDLI
 40
15.96
  9
$DIMRND
 40
0.0
  9
$DIMDLE
 40
0.0
  9
$DIMEXE
 40
7.56
  9
$DIMTP
 40
0.01
  9
$DIMTM
 40
0.01
  9
$DIMTXT
 40
3.0
  9
$DIMCEN
 40
3.78
  9
$DIMTSZ
 40
0.0
  9
$DIMTOL
 70
     1
  9
$DIMLIM
 70
     0
  9
$DIMTIH
 70
     1
  9
$DIMTOH
 70
     1
  9
$DIMSE1
 70
     0
  9
$DIMSE2
 70
     0
  9
$DIMTAD
 70
     0
  9
$DIMZIN
 70
     0
  9
$DIMBLK
  1
CLOSED
  9
$DIMASO
 70
     1
  9
$DIMSHO
 70
     1
  9
$DIMPOST
  1

  9
$DIMAPOST
  1

  9
$DIMALT
 70
     0
  9
$DIMALTD
 70
     2
  9
$DIMALTF
 40
25.4
  9
$DIMLFAC
 40
1.0
  9
$DIMTOFL
 70
     0
  9
$DIMTVP
 40
0.0
  9
$DIMTIX
 70
     0
  9
$DIMSOXD
 70
     0
  9
$DIMSAH
 70
     0
  9
$DIMBLK1
  1

  9
$DIMBLK2
  1

  9
$DIMSTYLE
  2
STANDARD
  9
$DIMCLRD
 70
     0
  9
$DIMCLRE
 70
     0
  9
$DIMCLRT
 70
     0
  9
$DIMTFAC
 40
1.0
  9
$DIMGAP
 40
0.09
  9
$DIMJUST
 70
     0
  9
$DIMSD1
 70
     0
  9
$DIMSD2
 70
     0
  9
$DIMTOLJ
 70
     1
  9
$DIMTZIN
 70
     0
  9
$DIMALTZ
 70
     0
  9
$DIMALTTZ
 70
     0
  9
$DIMUPT
 70
     0
  9
$DIMDEC
 70
     4
  9
$DIMTDEC
 70
     4
  9
$DIMALTU
 70
     2
  9
$DIMALTTD
 70
     2
  9
$DIMTXSTY
  7
STANDARD
  9
$DIMAUNIT
 70
     0
  9
$DIMADEC
 70
     0
  9
$DIMALTRND
 40
0.0
  9
$DIMAZIN
 70
     0
  9
$DIMDSEP
 70
    46
  9
$DIMATFIT
 70
     3
  9
$DIMFRAC
 70
     0
  9
$DIMLDRBLK
  1

  9
$DIMLUNIT
 70
     2
  9
$DIMLWD
 70
    -2
  9
$DIMLWE
 70
    -2
  9
$DIMTMOVE
 70
     0
  9
$LUNITS
 70
     2
  9
$LUPREC
 70
     4
  9
$SKETCHINC
 40
0.1
  9
$FILLETRAD
 40
0.5
  9
$AUNITS
 70
     0
  9
$AUPREC
 70
     0
  9
$MENU
  1
.
  9
$ELEVATION
 40
0.0
  9
$PELEVATION
 40
0.0
  9
$THICKNESS
 40
0.0
  9
$LIMCHECK
 70
     0
  9
$CHAMFERA
 40
0.0
  9
$CHAMFERB
 40
0.0
  9
$CHAMFERC
 40
0.0
  9
$CHAMFERD
 40
0.0
  9
$SKPOLY
 70
     0
  9
$TDCREATE
 40
2447893.041666667
  9
$TDUCREATE
 40
0.0
  9
$TDUPDATE
 40
2456744.603992211
  9
$TDUUPDATE
 40
2456744.562325544
  9
$TDINDWG
 40
0.0003748148
  9
$TDUSRTIMER
 40
2456744.561950856
  9
$USRTIMER
 70
     1
  9
$ANGBASE
 50
0.0
  9
$ANGDIR
 70
     0
  9
$PDMODE
 70
     3
  9
$PDSIZE
 40
0.3125
  9
$PLINEWID
 40
0.0
  9
$SPLFRAME
 70
     0
  9
$SPLINETYPE
 70
     6
  9
$SPLINESEGS
 70
     8
  9
$HANDSEED
  5
4C3
  9
$SURFTAB1
 70
     6
  9
$SURFTAB2
 70
     6
  9
$SURFTYPE
 70
     6
  9
$SURFU
 70
     6
  9
$SURFV
 70
     6
  9
$UCSBASE
  2

  9
$UCSNAME
  2

  9
$UCSORG
 10
0.0
 20
0.0
 30
0.0
  9
$UCSXDIR
 10
1.0
 20
0.0
 30
0.0
  9
$UCSYDIR
 10
0.0
 20
1.0
 30
0.0
  9
$UCSORTHOREF
  2

  9
$UCSORTHOVIEW
 70
     0
  9
$UCSORGTOP
 10
0.0
 20
0.0
 30
0.0
  9
$UCSORGBOTTOM
 10
0.0
 20
0.0
 30
0.0
  9
$UCSORGLEFT
 10
0.0
 20
0.0
 30
0.0
  9
$UCSORGRIGHT
 10
0.0
 20
0.0
 30
0.0
  9
$UCSORGFRONT
 10
0.0
 20
0.0
 30
0.0
  9
$UCSORGBACK
 10
0.0
 20
0.0
 30
0.0
  9
$PUCSBASE
  2

  9
$PUCSNAME
  2

  9
$PUCSORG
 10
0.0
 20
0.0
 30
0.0
  9
$PUCSXDIR
 10
1.0
 20
0.0
 30
0.0
  9
$PUCSYDIR
 10
0.0
 20
1.0
 30
0.0
  9
$PUCSORTHOREF
  2

  9
$PUCSORTHOVIEW
 70
     0
  9
$PUCSORGTOP
 10
0.0
 20
0.0
 30
0.0
  9
$PUCSORGBOTTOM
 10
0.0
 20
0.0
 30
0.0
  9
$PUCSORGLEFT
 10
0.0
 20
0.0
 30
0.0
  9
$PUCSORGRIGHT
 10
0.0
 20
0.0
 30
0.0
  9
$PUCSORGFRONT
 10
0.0
 20
0.0
 30
0.0
  9
$PUCSORGBACK
 10
0.0
 20
0.0
 30
0.0
  9
$USERI1
 70
     0
  9
$USERI2
 70
     0
  9
$USERI3
 70
     0
  9
$USERI4
 70
     0
  9
$USERI5
 70
     0
  9
$USERR1
 40
0.0
  9
$USERR2
 40
0.0
  9
$USERR3
 40
0.0
  9
$USERR4
 40
0.0
  9
$USERR5
 40
0.0
  9
$WORLDVIEW
 70
     1
  9
$SHADEDGE
 70
     3
  9
$SHADEDIF
 70
    70
  9
$TILEMODE
 70
     1
  9
$MAXACTVP
 70
    64
  9
$PINSBASE
 10
0.0
 20
0.0
 30
0.0
  9
$PLIMCHECK
 70
     0
  9
$PEXTMIN
 10
1.000000000000000E+20
 20
1.000000000000000E+20
 30
1.000000000000000E+20
  9
$PEXTMAX
 10
-1.000000000000000E+20
 20
-1.000000000000000E+20
 30
-1.000000000000000E+20
  9
$PLIMMIN
 10
0.0
 20
0.0
  9
$PLIMMAX
 10
420.0
 20
297.0
  9
$UNITMODE
 70
     0
  9
$VISRETAIN
 70
     1
  9
$PLINEGEN
 70
     0
  9
$PSLTSCALE
 70
     1
  9
$TREEDEPTH
 70
  3020
  9
$CMLSTYLE
  2

  9
$CMLJUST
 70
     0
  9
$CMLSCALE
 40
1.0
  9
$PROXYGRAPHICS
 70
     1
  9
$MEASUREMENT
 70
     1
  9
$CELWEIGHT
370
    -1
  9
$ENDCAPS
280
     0
  9
$JOINSTYLE
280
     0
  9
$LWDISPLAY
290
     0
  9
$INSUNITS
 70
     4
  9
$HYPERLINKBASE
  1

  9
$STYLESHEET
  1

  9
$XEDIT
290
     1
  9
$CEPSNTYPE
380
     0
  9
$PSTYLEMODE
290
     1
  9
$FINGERPRINTGUID
  2
{8578687E-2B9B-474D-AA0D-122CF345CEDE}
  9
$VERSIONGUID
  2
{FAEB1C32-E019-11D5-929B-00C0DF256EC4}
  9
$EXTNAMES
290
     1
  9
$PSVPSCALE
 40
0.0
  9
$OLESTARTUP
290
     0
  0
ENDSEC
  0
SECTION
  2
CLASSES
  0
CLASS
  1
ACDBDICTIONARYWDFLT
  2
AcDbDictionaryWithDefault
  3
ObjectDBX Classes
 90
        0
280
     0
281
     0
  0
CLASS
  1
ACDBPLACEHOLDER
  2
AcDbPlaceHolder
  3
ObjectDBX Classes
 90
        0
280
     0
281
     0
  0
CLASS
  1
LAYOUT
  2
AcDbLayout
  3
ObjectDBX Classes
 90
        0
280
     0
281
     0
  0
CLASS
  1
TABLESTYLE
  2
AcDbTableStyle
  3
ObjectDBX Classes
 90
     4095
280
     0
281
     0
  0
CLASS
  1
ACAD_TABLE
  2
AcDbTable
  3
ObjectDBX Classes
 90
     1025
280
     0
281
     1
  0
CLASS
  1
SCALE
  2
AcDbScale
  3
ObjectDBX Classes
 90
     1153
280
     0
281
     0
  0
CLASS
  1
TABLEGEOMETRY
  2
AcDbTableGeometry
  3
ObjectDBX Classes
 90
     1152
280
     0
281
     0
  0
CLASS
  1
VISUALSTYLE
  2
AcDbVisualStyle
  3
ObjectDBX Classes
 90
     4095
280
     0
281
     0
  0
CLASS
  1
MATERIAL
  2
AcDbMaterial
  3
ObjectDBX Classes
 90
     1153
280
     0
281
     0
  0
CLASS
  1
SUN
  2
AcDbSun
  3
SCENEOE
 90
     1153
280
     0
281
     0
  0
CLASS
  1
RASTERVARIABLES
  2
AcDbRasterVariables
  3
ISM
 90
        0
280
     0
281
     0
  0
ENDSEC
  0
SECTION
  2
TABLES
  0
TABLE
  2
VPORT
  5
8
330
0
100
AcDbSymbolTable
 70
     1
  0
VPORT
  5
1F4
330
8
100
AcDbSymbolTableRecord
100
AcDbViewportTableRecord
  2
*ACTIVE
 70
     0
 10
0.0
 20
0.0
 11
1.0
 21
1.0
 12
210.0
 22
148.5
 13
0.0
 23
0.0
 14
1.0
 24
1.0
 15
0.0
 25
0.0
 16
0.0
 26
0.0
 36
1.0
 17
0.0
 27
0.0
 37
0.0
 40
297.0
 41
1.4141414141
 42
50.0
 43
0.0
 44
0.0
 50
0.0
 51
0.0
 71
     0
 72
   100
 73
     1
 74
     1
 75
     0
 76
     0
 77
     0
 78
     0
281
     0
 65
     1
110
0.0
120
0.0
130
0.0
111
1.0
121
0.0
131
0.0
112
0.0
122
1.0
132
0.0
 79
     0
146
0.0
  0
ENDTAB
  0
TABLE
  2
LTYPE
  5
5
330
0
100
AcDbSymbolTable
 70
     6
  0
LTYPE
  5
14
330
5
100
AcDbSymbolTableRecord
100
AcDbLinetypeTableRecord
  2
BYBLOCK
 70
     0
  3

 72
    65
 73
     0
 40
0.0
  0
LTYPE
  5
15
330
5
100
AcDbSymbolTableRecord
100
AcDbLinetypeTableRecord
  2
BYLAYER
 70
     0
  3

 72
    65
 73
     0
 40
0.0
  0
LTYPE
  5
16
330
5
100
AcDbSymbolTableRecord
100
AcDbLinetypeTableRecord
  2
CONTINUOUS
 70
     0
  3
Solid line
 72
    65
 73
     0
 40
0.0
  0
LTYPE
  5
1F5
330
5
100
AcDbSymbolTableRecord
100
AcDbLinetypeTableRecord
  2
CENTER
 70
     0
  3
____ _ ____ _ ____ _ ____ _ ____ _ ____ _ ____
 72
    65
 73
     4
 40
0.6
 49
0.375
 74
     0
 49
-0.075
 74
     0
 49
0.075
 74
     0
 49
-0.075
 74
     0
  0
LTYPE
  5
1F6
330
5
100
AcDbSymbolTableRecord
100
AcDbLinetypeTableRecord
  2
HIDDEN
 70
     0
  3
- - - - - - - - - - - - - - - - - - - -
 72
    65
 73
     2
 40
0.2
 49
0.1
 74
     0
 49
-0.1
 74
     0
  0
LTYPE
  5
1F7
330
5
100
AcDbSymbolTableRecord
100
AcDbLinetypeTableRecord
  2
PHANTOM
 70
     0
  3
_____ _ _ _____ _ _ _____ _ _ _____
 72
    65
 73
     6
 40
0.8
 49
0.45
 74
     0
 49
-0.05
 74
     0
 49
0.1
 74
     0
 49
-0.05
 74
     0
 49
0.1
 74
     0
 49
-0.05
 74
     0
  0
LTYPE
  5
1F8
330
5
100
AcDbSymbolTableRecord
100
AcDbLinetypeTableRecord
  2
DOT
 70
     0
  3
. . . . . . . . . . . . . . . . . . . .
 72
    65
 73
     2
 40
0.2
 49
0.1
 74
     0
 49
-0.1
 74
     0
  0
LTYPE
  5
1F9
330
5
100
AcDbSymbolTableRecord
100
AcDbLinetypeTableRecord
  2
DASHED
 70
     0
  3
- - - - - - - - - - - - - - - - - - - -
 72
    65
 73
     2
 40
0.2
 49
0.1
 74
     0
 49
-0.1
 74
     0
  0
ENDTAB
  0
TABLE
  2
LAYER
  5
2
330
0
100
AcDbSymbolTable
 70
    36
  0
LAYER
  5
10
330
2
100
AcDbSymbolTableRecord
100
AcDbLayerTableRecord
  2
0
 70
     0
 62
     7
  6
CONTINUOUS
370
    -3
390
F
  0
LAYER
  5
1FA
330
2
100
AcDbSymbolTableRecord
100
AcDbLayerTableRecord
  2
DEFAULT_1
 70
     0
 62
     7
  6
CENTER
370
    -3
390
F
  0
LAYER
  5
1FB
330
2
100
AcDbSymbolTableRecord
100
AcDbLayerTableRecord
  2
DEFAULT_2
 70
     0
 62
     8
  6
HIDDEN
370
    -3
390
F
  0
LAYER
  5
1FC
330
2
100
AcDbSymbolTableRecord
100
AcDbLayerTableRecord
  2
DEFAULT_3
 70
     0
 62
     7
  6
PHANTOM
370
    -3
390
F
  0
LAYER
  5
1FD
330
2
100
AcDbSymbolTableRecord
100
AcDbLayerTableRecord
  2
01_ALL_DTM_PLN
 70
     0
 62
     7
  6
CONTINUOUS
370
    -3
390
F
  0
LAYER
  5
1FE
330
2
100
AcDbSymbolTableRecord
100
AcDbLayerTableRecord
  2
01__ASM_ALL_DTM_PLN
 70
     0
 62
     7
  6
CONTINUOUS
370
    -3
390
F
  0
LAYER
  5
1FF
330
2
100
AcDbSymbolTableRecord
100
AcDbLayerTableRecord
  2
01__ASM_DEF_DTM_PLN
 70
     0
 62
     7
  6
CONTINUOUS
370
    -3
390
F
  0
LAYER
  5
200
330
2
100
AcDbSymbolTableRecord
100
AcDbLayerTableRecord
  2
01___PRT_ALL_DTM_PLN
 70
     0
 62
     7
  6
CONTINUOUS
370
    -3
390
F
  0
LAYER
  5
201
330
2
100
AcDbSymbolTableRecord
100
AcDbLayerTableRecord
  2
01___PRT_DEF_DTM_PLN
 70
     0
 62
     7
  6
CONTINUOUS
370
    -3
390
F
  0
LAYER
  5
202
330
2
100
AcDbSymbolTableRecord
100
AcDbLayerTableRecord
  2
02_ALL_AXES
 70
     0
 62
     7
  6
CONTINUOUS
370
    -3
390
F
  0
LAYER
  5
203
330
2
100
AcDbSymbolTableRecord
100
AcDbLayerTableRecord
  2
02__ASM_ALL_AXES
 70
     0
 62
     7
  6
CONTINUOUS
370
    -3
390
F
  0
LAYER
  5
204
330
2
100
AcDbSymbolTableRecord
100
AcDbLayerTableRecord
  2
02___PRT_ALL_AXES
 70
     0
 62
     7
  6
CONTINUOUS
370
    -3
390
F
  0
LAYER
  5
205
330
2
100
AcDbSymbolTableRecord
100
AcDbLayerTableRecord
  2
03_ALL_CURVES
 70
     0
 62
     7
  6
CONTINUOUS
370
    -3
390
F
  0
LAYER
  5
206
330
2
100
AcDbSymbolTableRecord
100
AcDbLayerTableRecord
  2
03__ASM_ALL_CURVES
 70
     0
 62
     7
  6
CONTINUOUS
370
    -3
390
F
  0
LAYER
  5
207
330
2
100
AcDbSymbolTableRecord
100
AcDbLayerTableRecord
  2
03___PRT_ALL_CURVES
 70
     0
 62
     7
  6
CONTINUOUS
370
    -3
390
F
  0
LAYER
  5
208
330
2
100
AcDbSymbolTableRecord
100
AcDbLayerTableRecord
  2
04_ALL_DTM_PNT
 70
     0
 62
     7
  6
CONTINUOUS
370
    -3
390
F
  0
LAYER
  5
209
330
2
100
AcDbSymbolTableRecord
100
AcDbLayerTableRecord
  2
04__ASM_ALL_DTM_PNT
 70
     0
 62
     7
  6
CONTINUOUS
370
    -3
390
F
  0
LAYER
  5
20A
330
2
100
AcDbSymbolTableRecord
100
AcDbLayerTableRecord
  2
04___PRT_ALL_DTM_PNT
 70
     0
 62
     7
  6
CONTINUOUS
370
    -3
390
F
  0
LAYER
  5
20B
330
2
100
AcDbSymbolTableRecord
100
AcDbLayerTableRecord
  2
05_ALL_DTM_CSYS
 70
     0
 62
     7
  6
CONTINUOUS
370
    -3
390
F
  0
LAYER
  5
20C
330
2
100
AcDbSymbolTableRecord
100
AcDbLayerTableRecord
  2
05__ASM_ALL_DTM_CSYS
 70
     0
 62
     7
  6
CONTINUOUS
370
    -3
390
F
  0
LAYER
  5
20D
330
2
100
AcDbSymbolTableRecord
100
AcDbLayerTableRecord
  2
05__ASM_DEF_DTM_CSYS
 70
     0
 62
     7
  6
CONTINUOUS
370
    -3
390
F
  0
LAYER
  5
20E
330
2
100
AcDbSymbolTableRecord
100
AcDbLayerTableRecord
  2
05___PRT_ALL_DTM_CSYS
 70
     0
 62
     7
  6
CONTINUOUS
370
    -3
390
F
  0
LAYER
  5
20F
330
2
100
AcDbSymbolTableRecord
100
AcDbLayerTableRecord
  2
05___PRT_DEF_DTM_CSYS
 70
     0
 62
     7
  6
CONTINUOUS
370
    -3
390
F
  0
LAYER
  5
210
330
2
100
AcDbSymbolTableRecord
100
AcDbLayerTableRecord
  2
06_ALL_SURFS
 70
     0
 62
     7
  6
CONTINUOUS
370
    -3
390
F
  0
LAYER
  5
211
330
2
100
AcDbSymbolTableRecord
100
AcDbLayerTableRecord
  2
06__ASM_ALL_SURFS
 70
     0
 62
     7
  6
CONTINUOUS
370
    -3
390
F
  0
LAYER
  5
212
330
2
100
AcDbSymbolTableRecord
100
AcDbLayerTableRecord
  2
06___PRT_ALL_SURFS
 70
     0
 62
     7
  6
CONTINUOUS
370
    -3
390
F
  0
LAYER
  5
213
330
2
100
AcDbSymbolTableRecord
100
AcDbLayerTableRecord
  2
07__ASM_ALL_SKELETONS
 70
     0
 62
     7
  6
CONTINUOUS
370
    -3
390
F
  0
LAYER
  5
214
330
2
100
AcDbSymbolTableRecord
100
AcDbLayerTableRecord
  2
1_ALL_PLANES
 70
     0
 62
     7
  6
CONTINUOUS
370
    -3
390
F
  0
LAYER
  5
215
330
2
100
AcDbSymbolTableRecord
100
AcDbLayerTableRecord
  2
2_ALL_CSYS
 70
     0
 62
     7
  6
CONTINUOUS
370
    -3
390
F
  0
LAYER
  5
216
330
2
100
AcDbSymbolTableRecord
100
AcDbLayerTableRecord
  2
3_ALL_AXES
 70
     0
 62
     7
  6
CONTINUOUS
370
    -3
390
F
  0
LAYER
  5
217
330
2
100
AcDbSymbolTableRecord
100
AcDbLayerTableRecord
  2
4_ALL_POINTS
 70
     0
 62
     7
  6
CONTINUOUS
370
    -3
390
F
  0
LAYER
  5
218
330
2
100
AcDbSymbolTableRecord
100
AcDbLayerTableRecord
  2
5_ALL_CURVES
 70
     0
 62
     7
  6
CONTINUOUS
370
    -3
390
F
  0
LAYER
  5
219
330
2
100
AcDbSymbolTableRecord
100
AcDbLayerTableRecord
  2
6_ALL_SURFS
 70
     0
 62
     7
  6
CONTINUOUS
370
    -3
390
F
  0
LAYER
  5
21A
330
2
100
AcDbSymbolTableRecord
100
AcDbLayerTableRecord
  2
7_ALL_FEATURES
 70
     0
 62
     7
  6
CONTINUOUS
370
    -3
390
F
  0
LAYER
  5
21B
330
2
100
AcDbSymbolTableRecord
100
AcDbLayerTableRecord
  2
8_ALL_NOTES_BALLOONS_SYMBOLS_GT
 70
     0
 62
     7
  6
CONTINUOUS
370
    -3
390
F
  0
LAYER
  5
49C
330
2
100
AcDbSymbolTableRecord
100
AcDbLayerTableRecord
  2
Defpoints
 70
     0
 62
     7
  6
CONTINUOUS
290
     0
370
    -3
390
F
  0
ENDTAB
  0
TABLE
  2
STYLE
  5
3
330
0
100
AcDbSymbolTable
 70
     6
  0
STYLE
  5
11
330
3
100
AcDbSymbolTableRecord
100
AcDbTextStyleTableRecord
  2
STANDARD
 70
     0
 40
0.0
 41
0.85
 50
0.0
 71
     0
 42
0.2
  3
txt
  4

  0
STYLE
  5
21C
330
3
100
AcDbSymbolTableRecord
100
AcDbTextStyleTableRecord
  2
TEXTSTYLE_1
 70
     0
 40
0.0
 41
0.8
 50
0.0
 71
     0
 42
0.2
  3
gdt
  4

  0
STYLE
  5
21D
330
3
100
AcDbSymbolTableRecord
100
AcDbTextStyleTableRecord
  2
TEXTSTYLE_2
 70
     0
 40
0.0
 41
0.9
 50
0.0
 71
     0
 42
0.2
  3
txt
  4

  0
STYLE
  5
21E
330
3
100
AcDbSymbolTableRecord
100
AcDbTextStyleTableRecord
  2
TEXTSTYLE_3
 70
     0
 40
0.0
 41
0.9
 50
0.0
 71
     0
 42
0.2
  3
txt
  4

  0
STYLE
  5
21F
330
3
100
AcDbSymbolTableRecord
100
AcDbTextStyleTableRecord
  2
TEXTSTYLE_4
 70
     0
 40
0.0
 41
0.85
 50
0.0
 71
     0
 42
0.2
  3
gdt
  4

  0
STYLE
  5
220
330
3
100
AcDbSymbolTableRecord
100
AcDbTextStyleTableRecord
  2
TEXTSTYLE_5
 70
     0
 40
0.0
 41
0.85
 50
0.0
 71
     0
 42
0.2
  3
txt
  4

  0
ENDTAB
  0
TABLE
  2
VIEW
  5
6
330
0
100
AcDbSymbolTable
 70
     0
  0
ENDTAB
  0
TABLE
  2
UCS
  5
7
330
0
100
AcDbSymbolTable
 70
     0
  0
ENDTAB
  0
TABLE
  2
APPID
  5
9
330
0
100
AcDbSymbolTable
 70
     1
  0
APPID
  5
221
330
9
100
AcDbSymbolTableRecord
100
AcDbRegAppTableRecord
  2
ACAD
 70
     0
  0
ENDTAB
  0
TABLE
  2
DIMSTYLE
  5
A
330
0
100
AcDbSymbolTable
 70
     4
100
AcDbDimStyleTable
  0
DIMSTYLE
105
22C
330
A
100
AcDbSymbolTableRecord
100
AcDbDimStyleTableRecord
  2
STANDARD
 70
     0
 41
2.5
 47
0.01
 48
0.01
 71
     1
 73
     0
 74
     0
 77
     1
 78
     8
140
3.0
178
     0
271
     2
272
     2
284
     8
340
11
341
224
342
224
343
224
344
224
  0
DIMSTYLE
105
22D
330
A
100
AcDbSymbolTableRecord
100
AcDbDimStyleTableRecord
  2
DIMSTYLE_1
 70
     0
 41
2.5
 47
0.3
 48
0.3
 73
     0
 74
     0
 77
     1
 78
     8
140
3.0
178
     0
271
     0
272
     0
284
     8
340
11
341
224
342
224
343
224
344
224
  0
DIMSTYLE
105
22E
330
A
100
AcDbSymbolTableRecord
100
AcDbDimStyleTableRecord
  2
DIMSTYLE_2
 70
     0
 41
2.5
 47
0.3
 48
0.3
 73
     0
 74
     0
 77
     1
 78
     8
140
3.0
178
     0
271
     2
272
     2
284
     8
340
11
341
224
342
224
343
224
344
224
  0
DIMSTYLE
105
22F
330
A
100
AcDbSymbolTableRecord
100
AcDbDimStyleTableRecord
  2
DIMSTYLE_3
 70
     0
 41
2.5
 47
0.1
 48
0.1
 73
     0
 74
     0
 77
     1
 78
     8
140
3.0
178
     0
271
     2
272
     2
284
     8
340
11
341
224
342
224
343
224
344
224
  0
ENDTAB
  0
TABLE
  2
BLOCK_RECORD
  5
1
330
0
100
AcDbSymbolTable
 70
     8
  0
BLOCK_RECORD
  5
222
330
1
100
AcDbSymbolTableRecord
100
AcDbBlockTableRecord
  2
*Model_Space
340
453
  0
BLOCK_RECORD
  5
223
330
1
100
AcDbSymbolTableRecord
100
AcDbBlockTableRecord
  2
*Paper_Space
340
454
  0
BLOCK_RECORD
  5
224
330
1
100
AcDbSymbolTableRecord
100
AcDbBlockTableRecord
  2
_CLOSED
340
0
102
{BLKREFS
331
0
331
0
331
0
331
0
331
0
331
0
331
0
331
0
331
0
331
0
331
280
331
27F
331
289
331
288
331
292
331
291
331
29D
331
29C
331
277
331
276
102
}
  0
BLOCK_RECORD
  5
225
330
1
100
AcDbSymbolTableRecord
100
AcDbBlockTableRecord
  2
*D1
340
0
  0
BLOCK_RECORD
  5
226
330
1
100
AcDbSymbolTableRecord
100
AcDbBlockTableRecord
  2
*D2
340
0
  0
BLOCK_RECORD
  5
227
330
1
100
AcDbSymbolTableRecord
100
AcDbBlockTableRecord
  2
*D3
340
0
  0
BLOCK_RECORD
  5
228
330
1
100
AcDbSymbolTableRecord
100
AcDbBlockTableRecord
  2
*D4
340
0
  0
BLOCK_RECORD
  5
229
330
1
100
AcDbSymbolTableRecord
100
AcDbBlockTableRecord
  2
*D5
340
0
  0
BLOCK_RECORD
  5
22A
330
1
100
AcDbSymbolTableRecord
100
AcDbBlockTableRecord
  2
LOGO2_BL0
340
0
102
{BLKREFS
331
2C7
102
}
  0
BLOCK_RECORD
  5
22B
330
1
100
AcDbSymbolTableRecord
100
AcDbBlockTableRecord
  2
*T7
340
0
102
{BLKREFS
331
2C8
331
2C8
102
}
  0
ENDTAB
  0
ENDSEC
  0
SECTION
  2
BLOCKS
  0
BLOCK
  5
20
330
222
100
AcDbEntity
  8
0
100
AcDbBlockBegin
  2
*Model_Space
 70
     0
 10
0.0
 20
0.0
 30
0.0
  3
*Model_Space
  1
*Model_Space
  0
ENDBLK
  5
21
330
222
100
AcDbEntity
  8
0
100
AcDbBlockEnd
  0
BLOCK
  5
1C
330
223
100
AcDbEntity
 67
     1
  8
0
100
AcDbBlockBegin
  2
*Paper_Space
 70
     0
 10
0.0
 20
0.0
 30
0.0
  3
*Paper_Space
  1
*Paper_Space
  0
ENDBLK
  5
1D
330
223
100
AcDbEntity
 67
     1
  8
0
100
AcDbBlockEnd
  0
BLOCK
  5
26C
330
224
100
AcDbEntity
  8
0
100
AcDbBlockBegin
  2
_CLOSED
 70
     0
 10
0.0
 20
0.0
 30
0.0
  3
_CLOSED
  1
_CLOSED
  0
LINE
  5
26D
330
224
100
AcDbEntity
  8
0
  6
ByBlock
 62
     0
100
AcDbLine
 10
0.0
 20
0.0
 30
0.0
 11
-1.0
 21
0.2
 31
0.0
  0
LINE
  5
26E
330
224
100
AcDbEntity
  8
0
  6
ByBlock
 62
     0
100
AcDbLine
 10
-1.0
 20
0.2
 30
0.0
 11
-1.0
 21
-0.2
 31
0.0
  0
LINE
  5
26F
330
224
100
AcDbEntity
  8
0
  6
ByBlock
 62
     0
100
AcDbLine
 10
-1.0
 20
-0.2
 30
0.0
 11
0.0
 21
0.0
 31
0.0
  0
LINE
  5
270
330
224
100
AcDbEntity
  8
0
  6
ByBlock
 62
     0
100
AcDbLine
 10
-1.0
 20
0.0
 30
0.0
 11
0.0
 21
0.0
 31
0.0
  0
ENDBLK
  5
271
330
224
100
AcDbEntity
  8
0
  6
ByBlock
 62
     0
100
AcDbBlockEnd
  0
BLOCK
  5
272
330
225
100
AcDbEntity
  8
0
100
AcDbBlockBegin
  2
*D1
 70
     1
 10
0.0
 20
0.0
 30
0.0
  3
*D1
  1
*D1
  0
LINE
  5
273
330
225
100
AcDbEntity
  8
0
  6
Continuous
 62
     0
370
    -2
100
AcDbLine
 10
103.4828838876
 20
48.0944300426
 30
0.0
 11
110.1435846704
 21
48.0944300426
 31
0.0
  0
LINE
  5
274
330
225
100
AcDbEntity
  8
0
  6
Continuous
 62
     0
370
    -2
100
AcDbLine
 10
104.111247524
 20
99.8944300426
 30
0.0
 11
110.1435846704
 21
99.8944300426
 31
0.0
  0
LINE
  5
275
330
225
100
AcDbEntity
  8
0
  6
Continuous
 62
     0
370
    -2
100
AcDbLine
 10
109.9635846704
 20
50.5944300426
 30
0.0
 11
109.9635846704
 21
97.3944300426
 31
0.0
  0
INSERT
  5
276
330
225
100
AcDbEntity
  8
0
 62
     0
370
    -2
100
AcDbBlockReference
  2
_CLOSED
 10
109.9635846704
 20
48.0944300426
 30
0.0
 41
2.5
 42
2.5
 43
2.5
 50
270.0
  0
INSERT
  5
277
330
225
100
AcDbEntity
  8
0
 62
     0
370
    -2
100
AcDbBlockReference
  2
_CLOSED
 10
109.9635846704
 20
99.8944300426
 30
0.0
 41
2.5
 42
2.5
 43
2.5
 50
90.0
  0
MTEXT
  5
278
330
225
100
AcDbEntity
  8
0
 62
     0
100
AcDbMText
 10
104.9635846704
 20
71.9829375495
 30
0.0
 40
3.0
 41
0.0
 71
     2
 72
     1
  1
\A1;52
 11
0.0
 21
1.0
 31
0.0
 73
     1
 44
1.0
  0
POINT
  5
279
330
225
100
AcDbEntity
  8
Defpoints
 62
     0
100
AcDbPoint
 10
103.4203838876
 20
48.0944300426
 30
0.0
  0
POINT
  5
4A5
330
225
100
AcDbEntity
  8
Defpoints
 62
     0
100
AcDbPoint
 10
104.048747524
 20
99.8944300426
 30
0.0
  0
POINT
  5
4A6
330
225
100
AcDbEntity
  8
Defpoints
 62
     0
100
AcDbPoint
 10
111.2054190341
 20
99.8944300426
 30
0.0
  0
ENDBLK
  5
27A
330
225
100
AcDbEntity
  8
0
  6
ByBlock
 62
     0
100
AcDbBlockEnd
  0
BLOCK
  5
27B
330
226
100
AcDbEntity
  8
0
100
AcDbBlockBegin
  2
*D2
 70
     1
 10
0.0
 20
0.0
 30
0.0
  3
*D2
  1
*D2
  0
LINE
  5
27C
330
226
100
AcDbEntity
  8
0
  6
Continuous
 62
     0
370
    -2
100
AcDbLine
 10
46.2054190341
 20
173.7651614128
 30
0.0
 11
46.2054190341
 21
168.1454593302
 31
0.0
  0
LINE
  5
27D
330
226
100
AcDbEntity
  8
0
  6
Continuous
 62
     0
370
    -2
100
AcDbLine
 10
101.2054190341
 20
174.5506159582
 30
0.0
 11
101.2054190341
 21
168.1454593302
 31
0.0
  0
LINE
  5
27E
330
226
100
AcDbEntity
  8
0
  6
Continuous
 62
     0
370
    -2
100
AcDbLine
 10
48.7054190341
 20
168.3254593302
 30
0.0
 11
98.7054190341
 21
168.3254593302
 31
0.0
  0
INSERT
  5
27F
330
226
100
AcDbEntity
  8
0
 62
     0
370
    -2
100
AcDbBlockReference
  2
_CLOSED
 10
46.2054190341
 20
168.3254593302
 30
0.0
 41
2.5
 42
2.5
 43
2.5
 50
180.0
  0
INSERT
  5
280
330
226
100
AcDbEntity
  8
0
 62
     0
370
    -2
100
AcDbBlockReference
  2
_CLOSED
 10
101.2054190341
 20
168.3254593302
 30
0.0
 41
2.5
 42
2.5
 43
2.5
  0
MTEXT
  5
281
330
226
100
AcDbEntity
  8
0
 62
     0
100
AcDbMText
 10
73.7054190341
 20
173.3254593302
 30
0.0
 40
3.0
 41
0.0
 71
     2
 72
     1
  1
\A1;55
 73
     1
 44
1.0
  0
POINT
  5
282
330
226
100
AcDbEntity
  8
Defpoints
 62
     0
100
AcDbPoint
 10
46.2054190341
 20
173.8276614128
 30
0.0
  0
POINT
  5
49D
330
226
100
AcDbEntity
  8
Defpoints
 62
     0
100
AcDbPoint
 10
101.2054190341
 20
174.6131159582
 30
0.0
  0
POINT
  5
49E
330
226
100
AcDbEntity
  8
Defpoints
 62
     0
100
AcDbPoint
 10
101.2054190341
 20
168.3254593302
 30
0.0
  0
ENDBLK
  5
283
330
226
100
AcDbEntity
  8
0
  6
ByBlock
 62
     0
100
AcDbBlockEnd
  0
BLOCK
  5
284
330
227
100
AcDbEntity
  8
0
100
AcDbBlockBegin
  2
*D3
 70
     1
 10
0.0
 20
0.0
 30
0.0
  3
*D3
  1
*D3
  0
LINE
  5
285
330
227
100
AcDbEntity
  8
0
  6
Continuous
 62
     0
370
    -2
100
AcDbLine
 10
103.4394499388
 20
248.560102983
 30
0.0
 11
110.0955767829
 21
248.560102983
 31
0.0
  0
LINE
  5
286
330
227
100
AcDbEntity
  8
0
  6
Continuous
 62
     0
370
    -2
100
AcDbLine
 10
104.2249044842
 20
193.560102983
 30
0.0
 11
110.0955767829
 21
193.560102983
 31
0.0
  0
LINE
  5
287
330
227
100
AcDbEntity
  8
0
  6
Continuous
 62
     0
370
    -2
100
AcDbLine
 10
109.9155767829
 20
246.060102983
 30
0.0
 11
109.9155767829
 21
196.060102983
 31
0.0
  0
INSERT
  5
288
330
227
100
AcDbEntity
  8
0
 62
     0
370
    -2
100
AcDbBlockReference
  2
_CLOSED
 10
109.9155767829
 20
248.560102983
 30
0.0
 41
2.5
 42
2.5
 43
2.5
 50
89.99999999999999
  0
INSERT
  5
289
330
227
100
AcDbEntity
  8
0
 62
     0
370
    -2
100
AcDbBlockReference
  2
_CLOSED
 10
109.9155767829
 20
193.560102983
 30
0.0
 41
2.5
 42
2.5
 43
2.5
 50
270.0
  0
MTEXT
  5
28A
330
227
100
AcDbEntity
  8
0
 62
     0
100
AcDbMText
 10
104.9155767829
 20
221.060102983
 30
0.0
 40
3.0
 41
0.0
 71
     2
 72
     1
  1
\A1;55
 11
2.583791766400364E-16
 21
1.0
 31
0.0
 73
     1
 44
1.0
  0
POINT
  5
28B
330
227
100
AcDbEntity
  8
Defpoints
 62
     0
100
AcDbPoint
 10
103.3769499388
 20
248.560102983
 30
0.0
  0
POINT
  5
49F
330
227
100
AcDbEntity
  8
Defpoints
 62
     0
100
AcDbPoint
 10
104.1624044842
 20
193.560102983
 30
0.0
  0
POINT
  5
4A0
330
227
100
AcDbEntity
  8
Defpoints
 62
     0
100
AcDbPoint
 10
109.9155767829
 20
193.560102983
 30
0.0
  0
ENDBLK
  5
28C
330
227
100
AcDbEntity
  8
0
  6
ByBlock
 62
     0
100
AcDbBlockEnd
  0
BLOCK
  5
28D
330
228
100
AcDbEntity
  8
0
100
AcDbBlockBegin
  2
*D4
 70
     1
 10
0.0
 20
0.0
 30
0.0
  3
*D4
  1
*D4
  0
LINE
  5
28E
330
228
100
AcDbEntity
  8
0
  6
Continuous
 62
     0
370
    -2
100
AcDbLine
 10
170.480631757
 20
241.060102983
 30
0.0
 11
161.6378595967
 21
241.060102983
 31
0.0
  0
LINE
  5
28F
330
228
100
AcDbEntity
  8
0
  6
Continuous
 62
     0
370
    -2
100
AcDbLine
 10
170.7222127229
 20
201.060102983
 30
0.0
 11
161.6378595967
 21
201.060102983
 31
0.0
  0
LINE
  5
290
330
228
100
AcDbEntity
  8
0
  6
Continuous
 62
     0
370
    -2
100
AcDbLine
 10
161.8178595967
 20
238.560102983
 30
0.0
 11
161.8178595967
 21
203.560102983
 31
0.0
  0
INSERT
  5
291
330
228
100
AcDbEntity
  8
0
 62
     0
370
    -2
100
AcDbBlockReference
  2
_CLOSED
 10
161.8178595967
 20
241.060102983
 30
0.0
 41
2.5
 42
2.5
 43
2.5
 50
90.0
  0
INSERT
  5
292
330
228
100
AcDbEntity
  8
0
 62
     0
370
    -2
100
AcDbBlockReference
  2
_CLOSED
 10
161.8178595967
 20
201.060102983
 30
0.0
 41
2.5
 42
2.5
 43
2.5
 50
270.0
  0
MTEXT
  5
293
330
228
100
AcDbEntity
  8
0
 62
     0
100
AcDbMText
 10
156.8178595967
 20
221.060102983
 30
0.0
 40
3.0
 41
0.0
 71
     2
 72
     1
  1
\A1;%%c40
 11
0.0
 21
1.0
 31
0.0
 73
     1
 44
1.0
  0
POINT
  5
294
330
228
100
AcDbEntity
  8
Defpoints
 62
     0
100
AcDbPoint
 10
170.543131757
 20
241.060102983
 30
0.0
  0
POINT
  5
4A1
330
228
100
AcDbEntity
  8
Defpoints
 62
     0
100
AcDbPoint
 10
170.7847127229
 20
201.060102983
 30
0.0
  0
POINT
  5
4A2
330
228
100
AcDbEntity
  8
Defpoints
 62
     0
100
AcDbPoint
 10
161.8178595967
 20
201.060102983
 30
0.0
  0
ENDBLK
  5
295
330
228
100
AcDbEntity
  8
0
  6
ByBlock
 62
     0
100
AcDbBlockEnd
  0
BLOCK
  5
296
330
229
100
AcDbEntity
  8
0
100
AcDbBlockBegin
  2
*D5
 70
     1
 10
0.0
 20
0.0
 30
0.0
  3
*D5
  1
*D5
  0
LINE
  5
297
330
229
100
AcDbEntity
  8
0
  6
Continuous
 62
     0
370
    -2
100
AcDbLine
 10
223.2916992187
 20
249.372602983
 30
0.0
 11
223.2916992187
 21
272.3772011855
 31
0.0
  0
LINE
  5
298
330
229
100
AcDbEntity
  8
0
  6
Continuous
 62
     0
370
    -2
100
AcDbLine
 10
224.8916992187
 20
249.372602983
 30
0.0
 11
224.8916992187
 21
272.3772011855
 31
0.0
  0
LINE
  5
299
330
229
100
AcDbEntity
  8
0
  6
Continuous
 62
     0
370
    -2
100
AcDbLine
 10
224.8916992187
 20
272.1972011855
 30
0.0
 11
238.2713745434
 21
272.1972011855
 31
0.0
  0
LINE
  5
29A
330
229
100
AcDbEntity
  8
0
  6
Continuous
 62
     0
370
    -2
100
AcDbLine
 10
220.7916992187
 20
272.1972011855
 30
0.0
 11
218.2916992187
 21
272.1972011855
 31
0.0
  0
LINE
  5
29B
330
229
100
AcDbEntity
  8
0
  6
Continuous
 62
     0
370
    -2
100
AcDbLine
 10
227.3916992187
 20
272.1972011855
 30
0.0
 11
229.8916992187
 21
272.1972011855
 31
0.0
  0
INSERT
  5
29C
330
229
100
AcDbEntity
  8
0
 62
     0
370
    -2
100
AcDbBlockReference
  2
_CLOSED
 10
223.2916992187
 20
272.1972011855
 30
0.0
 41
2.5
 42
2.5
 43
2.5
  0
INSERT
  5
29D
330
229
100
AcDbEntity
  8
0
 62
     0
370
    -2
100
AcDbBlockReference
  2
_CLOSED
 10
224.8916992187
 20
272.1972011855
 30
0.0
 41
2.5
 42
2.5
 43
2.5
 50
180.0
  0
MTEXT
  5
29E
330
229
100
AcDbEntity
  8
0
 62
     0
100
AcDbMText
 10
232.0213745434
 20
277.1972011855
 30
0.0
 40
3.0
 41
0.0
 71
     1
 72
     1
  1
\A1;1.6
 73
     1
 44
1.0
  0
POINT
  5
29F
330
229
100
AcDbEntity
  8
Defpoints
 62
     0
100
AcDbPoint
 10
223.2916992187
 20
249.310102983
 30
0.0
  0
POINT
  5
4A3
330
229
100
AcDbEntity
  8
Defpoints
 62
     0
100
AcDbPoint
 10
224.8916992187
 20
249.310102983
 30
0.0
  0
POINT
  5
4A4
330
229
100
AcDbEntity
  8
Defpoints
 62
     0
100
AcDbPoint
 10
224.8916992187
 20
269.9472011855
 30
0.0
  0
ENDBLK
  5
2A0
330
229
100
AcDbEntity
  8
0
  6
ByBlock
 62
     0
100
AcDbBlockEnd
  0
BLOCK
  5
230
330
22A
100
AcDbEntity
  8
0
100
AcDbBlockBegin
  2
LOGO2_BL0
 70
     0
 10
333.1473869546
 20
37.5239270671
 30
0.0
  3
LOGO2_BL0
  1
LOGO2_BL0
  0
LINE
  5
231
330
22A
100
AcDbEntity
  8
0
  6
Continuous
 62
     7
100
AcDbLine
 10
324.8903121828
 20
40.7194184059
 30
0.0
 11
323.5859712535
 21
40.7194184059
 31
0.0
  0
LINE
  5
232
330
22A
100
AcDbEntity
  8
0
  6
Continuous
 62
     7
100
AcDbLine
 10
323.5859712535
 20
40.7194184059
 30
0.0
 11
323.5859712535
 21
30.260352346
 31
0.0
  0
LINE
  5
233
330
22A
100
AcDbEntity
  8
0
  6
Continuous
 62
     7
100
AcDbLine
 10
323.5859712535
 20
30.260352346
 30
0.0
 11
328.0670261417
 21
30.260352346
 31
0.0
  0
LINE
  5
234
330
22A
100
AcDbEntity
  8
0
  6
Continuous
 62
     7
100
AcDbLine
 10
328.0670261417
 20
30.260352346
 30
0.0
 11
328.0670261417
 21
31.4532066711
 31
0.0
  0
LINE
  5
235
330
22A
100
AcDbEntity
  8
0
  6
Continuous
 62
     7
100
AcDbLine
 10
328.0670261417
 20
31.4532066711
 30
0.0
 11
324.8903121828
 21
31.4532066711
 31
0.0
  0
LINE
  5
236
330
22A
100
AcDbEntity
  8
0
  6
Continuous
 62
     7
100
AcDbLine
 10
324.8903121828
 20
31.4532066711
 30
0.0
 11
324.8903121828
 21
40.7194184059
 31
0.0
  0
LINE
  5
237
330
22A
100
AcDbEntity
  8
0
  6
Continuous
 62
     7
100
AcDbLine
 10
339.8266383991
 20
40.7194184059
 30
0.0
 11
338.522820881
 21
40.7194184059
 31
0.0
  0
LINE
  5
238
330
22A
100
AcDbEntity
  8
0
  6
Continuous
 62
     7
100
AcDbLine
 10
338.522820881
 20
40.7194184059
 30
0.0
 11
338.522820881
 21
30.260352346
 31
0.0
  0
LINE
  5
239
330
22A
100
AcDbEntity
  8
0
  6
Continuous
 62
     7
100
AcDbLine
 10
338.522820881
 20
30.260352346
 30
0.0
 11
343.0040066221
 21
30.260352346
 31
0.0
  0
LINE
  5
23A
330
22A
100
AcDbEntity
  8
0
  6
Continuous
 62
     7
100
AcDbLine
 10
343.0040066221
 20
30.260352346
 30
0.0
 11
343.0040066221
 21
31.4532066711
 31
0.0
  0
LINE
  5
23B
330
22A
100
AcDbEntity
  8
0
  6
Continuous
 62
     7
100
AcDbLine
 10
343.0040066221
 20
31.4532066711
 30
0.0
 11
339.8266383991
 21
31.4532066711
 31
0.0
  0
LINE
  5
23C
330
22A
100
AcDbEntity
  8
0
  6
Continuous
 62
     7
100
AcDbLine
 10
339.8266383991
 20
31.4532066711
 30
0.0
 11
339.8266383991
 21
40.7194184059
 31
0.0
  0
LWPOLYLINE
  5
23D
330
22A
100
AcDbEntity
  8
0
  6
Continuous
 62
     7
100
AcDbPolyline
 90
        2
 70
     0
 43
0.2
 10
321.9403661644
 20
26.9168010391
 10
321.9403661644
 20
25.0597377898
  0
LWPOLYLINE
  5
23E
330
22A
100
AcDbEntity
  8
0
  6
Continuous
 62
     7
100
AcDbPolyline
 90
        2
 70
     0
 43
0.2
 10
321.9403661644
 20
25.0597377898
 10
322.7360821748
 20
25.0597377898
  0
LWPOLYLINE
  5
23F
330
22A
100
AcDbEntity
  8
0
  6
Continuous
 62
     7
100
AcDbPolyline
 90
        2
 70
     0
 43
0.2
 10
322.7360821748
 20
25.0597377898
 10
322.7360821748
 20
25.2717193614
  0
LWPOLYLINE
  5
240
330
22A
100
AcDbEntity
  8
0
  6
Continuous
 62
     7
100
AcDbPolyline
 90
        2
 70
     0
 43
0.2
 10
322.7360821748
 20
25.2717193614
 10
322.1719756593
 20
25.2717193614
  0
LWPOLYLINE
  5
241
330
22A
100
AcDbEntity
  8
0
  6
Continuous
 62
     7
100
AcDbPolyline
 90
        2
 70
     0
 43
0.2
 10
322.1719756593
 20
25.2717193614
 10
322.1719756593
 20
26.9168010391
  0
LWPOLYLINE
  5
242
330
22A
100
AcDbEntity
  8
0
  6
Continuous
 62
     7
100
AcDbPolyline
 90
        2
 70
     0
 43
0.2
 10
322.1719756593
 20
26.9168010391
 10
321.9403661644
 20
26.9168010391
  0
SPLINE
  5
243
330
22A
100
AcDbEntity
  8
0
  6
Continuous
 62
     7
100
AcDbSpline
 70
     3
 71
     3
 72
    35
 73
    31
 74
     0
 42
0.000000001
 43
0.0000001
 40
0.0
 40
0.0
 40
0.0
 40
0.0
 40
1.0
 40
1.0
 40
1.0
 40
2.0
 40
2.0
 40
2.0
 40
3.0
 40
3.0
 40
3.0
 40
4.0
 40
4.0
 40
4.0
 40
5.0
 40
5.0
 40
5.0
 40
6.0
 40
6.0
 40
6.0
 40
7.0
 40
7.0
 40
7.0
 40
8.0
 40
8.0
 40
8.0
 40
9.0
 40
9.0
 40
9.0
 40
10.0
 40
10.0
 40
10.0
 40
10.0
 10
324.1343754303
 20
26.2122894457
 30
0.0
 10
324.1343754303
 20
26.2122894457
 30
0.0
 10
324.1343754303
 20
25.5501741665
 30
0.0
 10
324.1343754303
 20
25.5501741665
 30
0.0
 10
324.1343754303
 20
25.2350805712
 30
0.0
 10
324.2822391191
 20
25.0204819432
 30
0.0
 10
324.6223256034
 20
25.0204819432
 30
0.0
 10
324.9618886764
 20
25.0204819432
 30
0.0
 10
325.1100140709
 20
25.2350805712
 30
0.0
 10
325.1100140709
 20
25.5501741665
 30
0.0
 10
325.1100140709
 20
25.5501741665
 30
0.0
 10
325.1100140709
 20
26.2122894457
 30
0.0
 10
325.1100140709
 20
26.2122894457
 30
0.0
 10
325.1100140709
 20
26.2122894457
 30
0.0
 10
324.887956832
 20
26.2122894457
 30
0.0
 10
324.887956832
 20
26.2122894457
 30
0.0
 10
324.887956832
 20
26.2122894457
 30
0.0
 10
324.887956832
 20
25.5752979083
 30
0.0
 10
324.887956832
 20
25.5752979083
 30
0.0
 10
324.887956832
 20
25.3894869011
 30
0.0
 10
324.8412423746
 20
25.2267059906
 30
0.0
 10
324.6223256034
 20
25.2267059906
 30
0.0
 10
324.402885421
 20
25.2267059906
 30
0.0
 10
324.3561709636
 20
25.3894869011
 30
0.0
 10
324.3561709636
 20
25.5752979083
 30
0.0
 10
324.3561709636
 20
25.5752979083
 30
0.0
 10
324.3561709636
 20
26.2122894457
 30
0.0
 10
324.3561709636
 20
26.2122894457
 30
0.0
 10
324.3561709636
 20
26.2122894457
 30
0.0
 10
324.1343754303
 20
26.2122894457
 30
0.0
 10
324.1343754303
 20
26.2122894457
 30
0.0
  0
SPLINE
  5
244
330
22A
100
AcDbEntity
  8
0
  6
Continuous
 62
     7
100
AcDbSpline
 70
     3
 71
     3
 72
    35
 73
    31
 74
     0
 42
0.000000001
 43
0.0000001
 40
0.0
 40
0.0
 40
0.0
 40
0.0
 40
1.0
 40
1.0
 40
1.0
 40
2.0
 40
2.0
 40
2.0
 40
3.0
 40
3.0
 40
3.0
 40
4.0
 40
4.0
 40
4.0
 40
5.0
 40
5.0
 40
5.0
 40
6.0
 40
6.0
 40
6.0
 40
7.0
 40
7.0
 40
7.0
 40
8.0
 40
8.0
 40
8.0
 40
9.0
 40
9.0
 40
9.0
 40
10.0
 40
10.0
 40
10.0
 40
10.0
 10
327.5331466281
 20
26.1709399539
 30
0.0
 10
327.4446901205
 20
26.2222342601
 30
0.0
 10
327.3312407238
 20
26.2473580019
 30
0.0
 10
327.2276052888
 20
26.2473580019
 30
0.0
 10
326.8727324356
 20
26.2473580019
 30
0.0
 10
326.5972872454
 20
25.9835587129
 30
0.0
 10
326.5972872454
 20
25.6260688032
 30
0.0
 10
326.5972872454
 20
25.2811407645
 30
0.0
 10
326.8757420505
 20
25.0210053545
 30
0.0
 10
327.2153051235
 20
25.0210053545
 30
0.0
 10
327.3312407238
 20
25.0210053545
 30
0.0
 10
327.4319973967
 20
25.0429886286
 30
0.0
 10
327.5331466281
 20
25.0968999912
 30
0.0
 10
327.5331466281
 20
25.0968999912
 30
0.0
 10
327.5331466281
 20
25.3795420867
 30
0.0
 10
327.5331466281
 20
25.3795420867
 30
0.0
 10
327.4492699692
 20
25.2863748774
 30
0.0
 10
327.345765387
 20
25.2272294019
 30
0.0
 10
327.2176604743
 20
25.2272294019
 30
0.0
 10
326.9839573343
 20
25.2272294019
 30
0.0
 10
326.8186902202
 20
25.3994317156
 30
0.0
 10
326.8186902202
 20
25.6360136177
 30
0.0
 10
326.8186902202
 20
25.8479951893
 30
0.0
 10
326.9864435379
 20
26.040087132
 30
0.0
 10
327.2032666639
 20
26.040087132
 30
0.0
 10
327.3360822782
 20
26.040087132
 30
0.0
 10
327.4446901205
 20
25.9861757693
 30
0.0
 10
327.5331466281
 20
25.8851573907
 30
0.0
 10
327.5331466281
 20
25.8851573907
 30
0.0
 10
327.5331466281
 20
26.1709399539
 30
0.0
 10
327.5331466281
 20
26.1709399539
 30
0.0
  0
SPLINE
  5
245
330
22A
100
AcDbEntity
  8
0
  6
Continuous
 62
     7
100
AcDbSpline
 70
     3
 71
     3
 72
    32
 73
    28
 74
     0
 42
0.000000001
 43
0.0000001
 40
0.0
 40
0.0
 40
0.0
 40
0.0
 40
1.0
 40
1.0
 40
1.0
 40
2.0
 40
2.0
 40
2.0
 40
3.0
 40
3.0
 40
3.0
 40
4.0
 40
4.0
 40
4.0
 40
5.0
 40
5.0
 40
5.0
 40
6.0
 40
6.0
 40
6.0
 40
7.0
 40
7.0
 40
7.0
 40
8.0
 40
8.0
 40
8.0
 40
9.0
 40
9.0
 40
9.0
 40
9.0
 10
330.0650178804
 20
25.5993748276
 30
0.0
 10
330.0650178804
 20
25.5993748276
 30
0.0
 10
330.0650178804
 20
25.6333965613
 30
0.0
 10
330.0650178804
 20
25.6333965613
 30
0.0
 10
330.0650178804
 20
25.9757075435
 30
0.0
 10
329.8921613025
 20
26.2473580019
 30
0.0
 10
329.5255116954
 20
26.2473580019
 30
0.0
 10
329.153889681
 20
26.2473580019
 30
0.0
 10
328.9641530891
 20
25.9809416564
 30
0.0
 10
328.9641530891
 20
25.6260688032
 30
0.0
 10
328.9641530891
 20
25.2863748774
 30
0.0
 10
329.1782283059
 20
25.0204819432
 30
0.0
 10
329.5303532498
 20
25.0204819432
 30
0.0
 10
329.754373281
 20
25.0204819432
 30
0.0
 10
329.9565408909
 20
25.1361558378
 30
0.0
 10
330.0650178804
 20
25.3355755385
 30
0.0
 10
330.0650178804
 20
25.3355755385
 30
0.0
 10
329.8773749337
 20
25.4423514412
 30
0.0
 10
329.8773749337
 20
25.4423514412
 30
0.0
 10
329.7938908332
 20
25.3036474499
 30
0.0
 10
329.7026864163
 20
25.2178079987
 30
0.0
 10
329.5331011591
 20
25.2178079987
 30
0.0
 10
329.3211195875
 20
25.2178079987
 30
0.0
 10
329.1881731204
 20
25.4025721833
 30
0.0
 10
329.1858177696
 20
25.5993748276
 30
0.0
 10
329.1858177696
 20
25.5993748276
 30
0.0
 10
330.0650178804
 20
25.5993748276
 30
0.0
 10
330.0650178804
 20
25.5993748276
 30
0.0
  0
SPLINE
  5
246
330
22A
100
AcDbEntity
  8
0
  6
Continuous
 62
     7
100
AcDbSpline
 70
     3
 71
     3
 72
    14
 73
    10
 74
     0
 42
0.000000001
 43
0.0000001
 40
0.0
 40
0.0
 40
0.0
 40
0.0
 40
1.0
 40
1.0
 40
1.0
 40
2.0
 40
2.0
 40
2.0
 40
3.0
 40
3.0
 40
3.0
 40
3.0
 10
329.1978562292
 20
25.7668664397
 30
0.0
 10
329.2254661746
 20
25.9317409954
 30
0.0
 10
329.3533093817
 20
26.054742648
 30
0.0
 10
329.5255116954
 20
26.054742648
 30
0.0
 10
329.7026864163
 20
26.054742648
 30
0.0
 10
329.816135813
 20
25.9390687534
 30
0.0
 10
329.8433531999
 20
25.7668664397
 30
0.0
 10
329.8433531999
 20
25.7668664397
 30
0.0
 10
329.1978562292
 20
25.7668664397
 30
0.0
 10
329.1978562292
 20
25.7668664397
 30
0.0
  0
SPLINE
  5
247
330
22A
100
AcDbEntity
  8
0
  6
Continuous
 62
     7
100
AcDbSpline
 70
     3
 71
     3
 72
    20
 73
    16
 74
     0
 42
0.000000001
 43
0.0000001
 40
0.0
 40
0.0
 40
0.0
 40
0.0
 40
1.0
 40
1.0
 40
1.0
 40
2.0
 40
2.0
 40
2.0
 40
3.0
 40
3.0
 40
3.0
 40
4.0
 40
4.0
 40
4.0
 40
5.0
 40
5.0
 40
5.0
 40
5.0
 10
332.0890493306
 20
25.9762309548
 30
0.0
 10
332.0890493306
 20
25.9762309548
 30
0.0
 10
332.5001888972
 20
25.4737561185
 30
0.0
 10
332.5001888972
 20
25.4737561185
 30
0.0
 10
332.3841224441
 20
25.3580822239
 30
0.0
 10
332.2463344226
 20
25.2277528132
 30
0.0
 10
332.0743938145
 20
25.2277528132
 30
0.0
 10
331.8969573879
 20
25.2277528132
 30
0.0
 10
331.7294657758
 20
25.3921039576
 30
0.0
 10
331.7294657758
 20
25.5690169729
 30
0.0
 10
331.7294657758
 20
25.7469768107
 30
0.0
 10
331.9392228494
 20
25.8731189311
 30
0.0
 10
332.0668043508
 20
25.9610520275
 30
0.0
 10
332.0668043508
 20
25.9610520275
 30
0.0
 10
332.0890493306
 20
25.9762309548
 30
0.0
 10
332.0890493306
 20
25.9762309548
 30
0.0
  0
SPLINE
  5
248
330
22A
100
AcDbEntity
  8
0
  6
Continuous
 62
     7
100
AcDbSpline
 70
     3
 71
     3
 72
    23
 73
    19
 74
     0
 42
0.000000001
 43
0.0000001
 40
0.0
 40
0.0
 40
0.0
 40
0.0
 40
1.0
 40
1.0
 40
1.0
 40
2.0
 40
2.0
 40
2.0
 40
3.0
 40
3.0
 40
3.0
 40
4.0
 40
4.0
 40
4.0
 40
5.0
 40
5.0
 40
5.0
 40
6.0
 40
6.0
 40
6.0
 40
6.0
 10
332.1383808444
 20
26.2672476309
 30
0.0
 10
332.1383808444
 20
26.2672476309
 30
0.0
 10
332.0767491653
 20
26.3457593241
 30
0.0
 10
332.0767491653
 20
26.3457593241
 30
0.0
 10
332.0228378026
 20
26.4143262028
 30
0.0
 10
331.9660476779
 20
26.4834164928
 30
0.0
 10
331.9660476779
 20
26.5771071133
 30
0.0
 10
331.9660476779
 20
26.6959214757
 30
0.0
 10
332.0619627964
 20
26.7733863463
 30
0.0
 10
332.1729259894
 20
26.7733863463
 30
0.0
 10
332.2961893477
 20
26.7733863463
 30
0.0
 10
332.3894874098
 20
26.7022024111
 30
0.0
 10
332.3894874098
 20
26.5718730004
 30
0.0
 10
332.3894874098
 20
26.4368328882
 30
0.0
 10
332.2613824971
 20
26.3604148401
 30
0.0
 10
332.1678227294
 20
26.2866138485
 30
0.0
 10
332.1678227294
 20
26.2866138485
 30
0.0
 10
332.1383808444
 20
26.2672476309
 30
0.0
 10
332.1383808444
 20
26.2672476309
 30
0.0
  0
SPLINE
  5
249
330
22A
100
AcDbEntity
  8
0
  6
Continuous
 62
     7
100
AcDbSpline
 70
     3
 71
     3
 72
    50
 73
    46
 74
     0
 42
0.000000001
 43
0.0000001
 40
0.0
 40
0.0
 40
0.0
 40
0.0
 40
1.0
 40
1.0
 40
1.0
 40
2.0
 40
2.0
 40
2.0
 40
3.0
 40
3.0
 40
3.0
 40
4.0
 40
4.0
 40
4.0
 40
5.0
 40
5.0
 40
5.0
 40
6.0
 40
6.0
 40
6.0
 40
7.0
 40
7.0
 40
7.0
 40
8.0
 40
8.0
 40
8.0
 40
9.0
 40
9.0
 40
9.0
 40
10.0
 40
10.0
 40
10.0
 40
11.0
 40
11.0
 40
11.0
 40
12.0
 40
12.0
 40
12.0
 40
13.0
 40
13.0
 40
13.0
 40
14.0
 40
14.0
 40
14.0
 40
15.0
 40
15.0
 40
15.0
 40
15.0
 10
332.8405370871
 20
25.0602612011
 30
0.0
 10
332.8405370871
 20
25.0602612011
 30
0.0
 10
333.1259270918
 20
25.0602612011
 30
0.0
 10
333.1259270918
 20
25.0602612011
 30
0.0
 10
333.1259270918
 20
25.0602612011
 30
0.0
 10
332.793560924
 20
25.471139062
 30
0.0
 10
332.793560924
 20
25.471139062
 30
0.0
 10
332.793560924
 20
25.471139062
 30
0.0
 10
333.0200671588
 20
25.7370319963
 30
0.0
 10
333.0200671588
 20
25.7370319963
 30
0.0
 10
333.0200671588
 20
25.7370319963
 30
0.0
 10
332.8718109116
 20
25.8898680923
 30
0.0
 10
332.8718109116
 20
25.8898680923
 30
0.0
 10
332.8718109116
 20
25.8898680923
 30
0.0
 10
332.6559037553
 20
25.6386306742
 30
0.0
 10
332.6559037553
 20
25.6386306742
 30
0.0
 10
332.6559037553
 20
25.6386306742
 30
0.0
 10
332.2688411079
 20
26.1065603655
 30
0.0
 10
332.2688411079
 20
26.1065603655
 30
0.0
 10
332.4242942604
 20
26.2206640263
 30
0.0
 10
332.6065722414
 20
26.3604148401
 30
0.0
 10
332.6065722414
 20
26.5697793553
 30
0.0
 10
332.6065722414
 20
26.8136890154
 30
0.0
 10
332.4045354843
 20
26.9571037083
 30
0.0
 10
332.1780292495
 20
26.9571037083
 30
0.0
 10
331.9338578837
 20
26.9571037083
 30
0.0
 10
331.7494862575
 20
26.8063612574
 30
0.0
 10
331.7494862575
 20
26.5498897263
 30
0.0
 10
331.7494862575
 20
26.3923429287
 30
0.0
 10
331.8481492853
 20
26.25468576
 30
0.0
 10
331.953485807
 20
26.1437225669
 30
0.0
 10
331.953485807
 20
26.1437225669
 30
0.0
 10
331.8379427652
 20
26.0599767609
 30
0.0
 10
331.8379427652
 20
26.0599767609
 30
0.0
 10
331.660244633
 20
25.9317409954
 30
0.0
 10
331.5129043554
 20
25.8040286411
 30
0.0
 10
331.5129043554
 20
25.5669233277
 30
0.0
 10
331.5129043554
 20
25.2465956195
 30
0.0
 10
331.7714695316
 20
25.0204819432
 30
0.0
 10
332.0818524253
 20
25.0204819432
 30
0.0
 10
332.3007691965
 20
25.0204819432
 30
0.0
 10
332.4979643992
 20
25.145577241
 30
0.0
 10
332.6382386243
 20
25.3114986192
 30
0.0
 10
332.6382386243
 20
25.3114986192
 30
0.0
 10
332.8405370871
 20
25.0602612011
 30
0.0
 10
332.8405370871
 20
25.0602612011
 30
0.0
  0
LWPOLYLINE
  5
24A
330
22A
100
AcDbEntity
  8
0
  6
Continuous
 62
     7
100
AcDbPolyline
 90
        2
 70
     0
 43
0.2
 10
334.7759811768
 20
26.9168010391
 10
334.5446333876
 20
26.9168010391
  0
LWPOLYLINE
  5
24B
330
22A
100
AcDbEntity
  8
0
  6
Continuous
 62
     7
100
AcDbPolyline
 90
        2
 70
     0
 43
0.2
 10
334.5446333876
 20
26.9168010391
 10
334.5446333876
 20
25.0597377898
  0
LWPOLYLINE
  5
24C
330
22A
100
AcDbEntity
  8
0
  6
Continuous
 62
     7
100
AcDbPolyline
 90
        2
 70
     0
 43
0.2
 10
334.5446333876
 20
25.0597377898
 10
335.3399568395
 20
25.0597377898
  0
LWPOLYLINE
  5
24D
330
22A
100
AcDbEntity
  8
0
  6
Continuous
 62
     7
100
AcDbPolyline
 90
        2
 70
     0
 43
0.2
 10
335.3399568395
 20
25.0597377898
 10
335.3399568395
 20
25.2717193614
  0
LWPOLYLINE
  5
24E
330
22A
100
AcDbEntity
  8
0
  6
Continuous
 62
     7
100
AcDbPolyline
 90
        2
 70
     0
 43
0.2
 10
335.3399568395
 20
25.2717193614
 10
334.7759811768
 20
25.2717193614
  0
LWPOLYLINE
  5
24F
330
22A
100
AcDbEntity
  8
0
  6
Continuous
 62
     7
100
AcDbPolyline
 90
        2
 70
     0
 43
0.2
 10
334.7759811768
 20
25.2717193614
 10
334.7759811768
 20
26.9168010391
  0
LWPOLYLINE
  5
250
330
22A
100
AcDbEntity
  8
0
  6
Continuous
 62
     7
100
AcDbPolyline
 90
        2
 70
     0
 43
0.2
 10
337.019060251
 20
26.2122894457
 10
336.7979189819
 20
26.2122894457
  0
LWPOLYLINE
  5
251
330
22A
100
AcDbEntity
  8
0
  6
Continuous
 62
     7
100
AcDbPolyline
 90
        2
 70
     0
 43
0.2
 10
336.7979189819
 20
26.2122894457
 10
336.7979189819
 20
25.0602612011
  0
LWPOLYLINE
  5
252
330
22A
100
AcDbEntity
  8
0
  6
Continuous
 62
     7
100
AcDbPolyline
 90
        2
 70
     0
 43
0.2
 10
336.7979189819
 20
25.0602612011
 10
337.019060251
 20
25.0602612011
  0
LWPOLYLINE
  5
253
330
22A
100
AcDbEntity
  8
0
  6
Continuous
 62
     7
100
AcDbPolyline
 90
        2
 70
     0
 43
0.2
 10
337.019060251
 20
25.0602612011
 10
337.019060251
 20
26.2122894457
  0
SPLINE
  5
254
330
22A
100
AcDbEntity
  8
0
  6
Continuous
 62
     7
100
AcDbSpline
 70
     3
 71
     3
 72
    17
 73
    13
 74
     0
 42
0.000000001
 43
0.0000001
 40
0.0
 40
0.0
 40
0.0
 40
0.0
 40
1.0
 40
1.0
 40
1.0
 40
2.0
 40
2.0
 40
2.0
 40
3.0
 40
3.0
 40
3.0
 40
4.0
 40
4.0
 40
4.0
 40
4.0
 10
336.9086204693
 20
26.894817765
 30
0.0
 10
336.8246129576
 20
26.894817765
 30
0.0
 10
336.7560460788
 20
26.825727475
 30
0.0
 10
336.7560460788
 20
26.7398880238
 30
0.0
 10
336.7560460788
 20
26.6556188065
 30
0.0
 10
336.8246129576
 20
26.5896689842
 30
0.0
 10
336.9086204693
 20
26.5896689842
 30
0.0
 10
336.9923662753
 20
26.5896689842
 30
0.0
 10
337.0611948597
 20
26.6556188065
 30
0.0
 10
337.0611948597
 20
26.7398880238
 30
0.0
 10
337.0611948597
 20
26.825727475
 30
0.0
 10
336.9923662753
 20
26.894817765
 30
0.0
 10
336.9086204693
 20
26.894817765
 30
0.0
  0
SPLINE
  5
255
330
22A
100
AcDbEntity
  8
0
  6
Continuous
 62
     7
100
AcDbSpline
 70
     3
 71
     3
 72
    17
 73
    13
 74
     0
 42
0.000000001
 43
0.0000001
 40
0.0
 40
0.0
 40
0.0
 40
0.0
 40
1.0
 40
1.0
 40
1.0
 40
2.0
 40
2.0
 40
2.0
 40
3.0
 40
3.0
 40
3.0
 40
4.0
 40
4.0
 40
4.0
 40
4.0
 10
339.1493441926
 20
25.2178079987
 30
0.0
 10
338.915379347
 20
25.2178079987
 30
0.0
 10
338.7850499363
 20
25.4198447558
 30
0.0
 10
338.7850499363
 20
25.6360136177
 30
0.0
 10
338.7850499363
 20
25.8506122457
 30
0.0
 10
338.9208751655
 20
26.0495085351
 30
0.0
 10
339.1493441926
 20
26.0495085351
 30
0.0
 10
339.3888048568
 20
26.0495085351
 30
0.0
 10
339.5243683804
 20
25.8605570602
 30
0.0
 10
339.5243683804
 20
25.6360136177
 30
0.0
 10
339.5243683804
 20
25.4098999414
 30
0.0
 10
339.3911602076
 20
25.2178079987
 30
0.0
 10
339.1493441926
 20
25.2178079987
 30
0.0
  0
SPLINE
  5
256
330
22A
100
AcDbEntity
  8
0
  6
Continuous
 62
     7
100
AcDbSpline
 70
     3
 71
     3
 72
    50
 73
    46
 74
     0
 42
0.000000001
 43
0.0000001
 40
0.0
 40
0.0
 40
0.0
 40
0.0
 40
1.0
 40
1.0
 40
1.0
 40
2.0
 40
2.0
 40
2.0
 40
3.0
 40
3.0
 40
3.0
 40
4.0
 40
4.0
 40
4.0
 40
5.0
 40
5.0
 40
5.0
 40
6.0
 40
6.0
 40
6.0
 40
7.0
 40
7.0
 40
7.0
 40
8.0
 40
8.0
 40
8.0
 40
9.0
 40
9.0
 40
9.0
 40
10.0
 40
10.0
 40
10.0
 40
11.0
 40
11.0
 40
11.0
 40
12.0
 40
12.0
 40
12.0
 40
13.0
 40
13.0
 40
13.0
 40
14.0
 40
14.0
 40
14.0
 40
15.0
 40
15.0
 40
15.0
 40
15.0
 10
339.7334711899
 20
26.2128128569
 30
0.0
 10
339.7334711899
 20
26.2128128569
 30
0.0
 10
339.5118065095
 20
26.2128128569
 30
0.0
 10
339.5118065095
 20
26.2128128569
 30
0.0
 10
339.5118065095
 20
26.2128128569
 30
0.0
 10
339.5118065095
 20
26.0154868014
 30
0.0
 10
339.5118065095
 20
26.0154868014
 30
0.0
 10
339.5118065095
 20
26.0154868014
 30
0.0
 10
339.5070958079
 20
26.0154868014
 30
0.0
 10
339.5070958079
 20
26.0154868014
 30
0.0
 10
339.4157605382
 20
26.158378083
 30
0.0
 10
339.2778416638
 20
26.2468345907
 30
0.0
 10
339.1051159388
 20
26.2468345907
 30
0.0
 10
338.772749771
 20
26.2468345907
 30
0.0
 10
338.5636469615
 20
25.9589583823
 30
0.0
 10
338.5636469615
 20
25.6433413757
 30
0.0
 10
338.5636469615
 20
25.3135922644
 30
0.0
 10
338.7607113114
 20
25.0204819432
 30
0.0
 10
339.1155841646
 20
25.0204819432
 30
0.0
 10
339.2778416638
 20
25.0204819432
 30
0.0
 10
339.4178541833
 20
25.1089384508
 30
0.0
 10
339.5070958079
 20
25.2397912728
 30
0.0
 10
339.5070958079
 20
25.2397912728
 30
0.0
 10
339.5118065095
 20
25.2397912728
 30
0.0
 10
339.5118065095
 20
25.2397912728
 30
0.0
 10
339.5118065095
 20
25.2397912728
 30
0.0
 10
339.5118065095
 20
25.0204819432
 30
0.0
 10
339.5118065095
 20
25.0204819432
 30
0.0
 10
339.5118065095
 20
24.7839000411
 30
0.0
 10
339.4552780904
 20
24.5970422113
 30
0.0
 10
339.1820573981
 20
24.5970422113
 30
0.0
 10
338.9797589354
 20
24.5970422113
 30
0.0
 10
338.8371293594
 20
24.7153331624
 30
0.0
 10
338.8371293594
 20
24.9215572098
 30
0.0
 10
338.8371293594
 20
24.9215572098
 30
0.0
 10
338.615464679
 20
24.9215572098
 30
0.0
 10
338.615464679
 20
24.9215572098
 30
0.0
 10
338.6204370862
 20
24.5970422113
 30
0.0
 10
338.8515231698
 20
24.4002395671
 30
0.0
 10
339.171850878
 20
24.4002395671
 30
0.0
 10
339.6198909404
 20
24.4002395671
 30
0.0
 10
339.7334711899
 20
24.6854987189
 30
0.0
 10
339.7334711899
 20
25.0822444751
 30
0.0
 10
339.7334711899
 20
25.0822444751
 30
0.0
 10
339.7334711899
 20
26.2128128569
 30
0.0
 10
339.7334711899
 20
26.2128128569
 30
0.0
  0
SPLINE
  5
257
330
22A
100
AcDbEntity
  8
0
  6
Continuous
 62
     7
100
AcDbSpline
 70
     3
 71
     3
 72
    44
 73
    40
 74
     0
 42
0.000000001
 43
0.0000001
 40
0.0
 40
0.0
 40
0.0
 40
0.0
 40
1.0
 40
1.0
 40
1.0
 40
2.0
 40
2.0
 40
2.0
 40
3.0
 40
3.0
 40
3.0
 40
4.0
 40
4.0
 40
4.0
 40
5.0
 40
5.0
 40
5.0
 40
6.0
 40
6.0
 40
6.0
 40
7.0
 40
7.0
 40
7.0
 40
8.0
 40
8.0
 40
8.0
 40
9.0
 40
9.0
 40
9.0
 40
10.0
 40
10.0
 40
10.0
 40
11.0
 40
11.0
 40
11.0
 40
12.0
 40
12.0
 40
12.0
 40
13.0
 40
13.0
 40
13.0
 40
13.0
 10
341.3023965253
 20
27.1978729007
 30
0.0
 10
341.3023965253
 20
27.1978729007
 30
0.0
 10
341.3023965253
 20
25.0597377898
 30
0.0
 10
341.3023965253
 20
25.0597377898
 30
0.0
 10
341.3023965253
 20
25.0597377898
 30
0.0
 10
341.5237995001
 20
25.0597377898
 30
0.0
 10
341.5237995001
 20
25.0597377898
 30
0.0
 10
341.5237995001
 20
25.0597377898
 30
0.0
 10
341.5237995001
 20
25.5894300131
 30
0.0
 10
341.5237995001
 20
25.5894300131
 30
0.0
 10
341.5237995001
 20
25.7993179395
 30
0.0
 10
341.5237995001
 20
26.0500319464
 30
0.0
 10
341.8090586519
 20
26.0500319464
 30
0.0
 10
342.0359574452
 20
26.0500319464
 30
0.0
 10
342.0629131266
 20
25.9170854793
 30
0.0
 10
342.0629131266
 20
25.7208062464
 30
0.0
 10
342.0629131266
 20
25.7208062464
 30
0.0
 10
342.0629131266
 20
25.0597377898
 30
0.0
 10
342.0629131266
 20
25.0597377898
 30
0.0
 10
342.0629131266
 20
25.0597377898
 30
0.0
 10
342.2848395126
 20
25.0597377898
 30
0.0
 10
342.2848395126
 20
25.0597377898
 30
0.0
 10
342.2848395126
 20
25.0597377898
 30
0.0
 10
342.2848395126
 20
25.7469768107
 30
0.0
 10
342.2848395126
 20
25.7469768107
 30
0.0
 10
342.2848395126
 20
26.027525261
 30
0.0
 10
342.2008320009
 20
26.2473580019
 30
0.0
 10
341.8757935911
 20
26.2473580019
 30
0.0
 10
341.7360427773
 20
26.2473580019
 30
0.0
 10
341.5978621973
 20
26.1808847684
 30
0.0
 10
341.5285102016
 20
26.0578831157
 30
0.0
 10
341.5285102016
 20
26.0578831157
 30
0.0
 10
341.5237995001
 20
26.0578831157
 30
0.0
 10
341.5237995001
 20
26.0578831157
 30
0.0
 10
341.5237995001
 20
26.0578831157
 30
0.0
 10
341.5237995001
 20
27.1978729007
 30
0.0
 10
341.5237995001
 20
27.1978729007
 30
0.0
 10
341.5237995001
 20
27.1978729007
 30
0.0
 10
341.3023965253
 20
27.1978729007
 30
0.0
 10
341.3023965253
 20
27.1978729007
 30
0.0
  0
LWPOLYLINE
  5
258
330
22A
100
AcDbEntity
  8
0
  6
Continuous
 62
     7
100
AcDbPolyline
 90
        2
 70
     0
 43
0.2
 10
344.1246301895
 20
26.005541987
 10
344.341060757
 20
26.005541987
  0
LWPOLYLINE
  5
259
330
22A
100
AcDbEntity
  8
0
  6
Continuous
 62
     7
100
AcDbPolyline
 90
        2
 70
     0
 43
0.2
 10
344.341060757
 20
26.005541987
 10
344.341060757
 20
26.2122894457
  0
LWPOLYLINE
  5
25A
330
22A
100
AcDbEntity
  8
0
  6
Continuous
 62
     7
100
AcDbPolyline
 90
        2
 70
     0
 43
0.2
 10
344.341060757
 20
26.2122894457
 10
344.1246301895
 20
26.2122894457
  0
LWPOLYLINE
  5
25B
330
22A
100
AcDbEntity
  8
0
  6
Continuous
 62
     7
100
AcDbPolyline
 90
        2
 70
     0
 43
0.2
 10
344.1246301895
 20
26.2122894457
 10
344.1246301895
 20
26.65300175
  0
LWPOLYLINE
  5
25C
330
22A
100
AcDbEntity
  8
0
  6
Continuous
 62
     7
100
AcDbPolyline
 90
        2
 70
     0
 43
0.2
 10
344.1246301895
 20
26.65300175
 10
343.9029655091
 20
26.65300175
  0
LWPOLYLINE
  5
25D
330
22A
100
AcDbEntity
  8
0
  6
Continuous
 62
     7
100
AcDbPolyline
 90
        2
 70
     0
 43
0.2
 10
343.9029655091
 20
26.65300175
 10
343.9029655091
 20
26.2122894457
  0
LWPOLYLINE
  5
25E
330
22A
100
AcDbEntity
  8
0
  6
Continuous
 62
     7
100
AcDbPolyline
 90
        2
 70
     0
 43
0.2
 10
343.9029655091
 20
26.2122894457
 10
343.7823192072
 20
26.2122894457
  0
LWPOLYLINE
  5
25F
330
22A
100
AcDbEntity
  8
0
  6
Continuous
 62
     7
100
AcDbPolyline
 90
        2
 70
     0
 43
0.2
 10
343.7823192072
 20
26.2122894457
 10
343.7823192072
 20
26.005541987
  0
LWPOLYLINE
  5
260
330
22A
100
AcDbEntity
  8
0
  6
Continuous
 62
     7
100
AcDbPolyline
 90
        2
 70
     0
 43
0.2
 10
343.7823192072
 20
26.005541987
 10
343.9029655091
 20
26.005541987
  0
LWPOLYLINE
  5
261
330
22A
100
AcDbEntity
  8
0
  6
Continuous
 62
     7
100
AcDbPolyline
 90
        2
 70
     0
 43
0.2
 10
343.9029655091
 20
26.005541987
 10
343.9029655091
 20
25.0597377898
  0
LWPOLYLINE
  5
262
330
22A
100
AcDbEntity
  8
0
  6
Continuous
 62
     7
100
AcDbPolyline
 90
        2
 70
     0
 43
0.2
 10
343.9029655091
 20
25.0597377898
 10
344.1246301895
 20
25.0597377898
  0
LWPOLYLINE
  5
263
330
22A
100
AcDbEntity
  8
0
  6
Continuous
 62
     7
100
AcDbPolyline
 90
        2
 70
     0
 43
0.2
 10
344.1246301895
 20
25.0597377898
 10
344.1246301895
 20
26.005541987
  0
SPLINE
  5
264
330
22A
100
AcDbEntity
  8
0
  6
Continuous
 62
     7
100
AcDbSpline
 70
     3
 71
     3
 72
    20
 73
    16
 74
     0
 42
0.000000001
 43
0.0000001
 40
0.0
 40
0.0
 40
0.0
 40
0.0
 40
1.0
 40
1.0
 40
1.0
 40
2.0
 40
2.0
 40
2.0
 40
3.0
 40
3.0
 40
3.0
 40
4.0
 40
4.0
 40
4.0
 40
5.0
 40
5.0
 40
5.0
 40
5.0
 10
331.9066404967
 20
35.4206642332
 30
0.0
 10
331.9066404967
 20
35.4206642332
 30
0.0
 10
334.2229971512
 20
32.5911028109
 30
0.0
 10
334.2229971512
 20
32.5911028109
 30
0.0
 10
333.5713500978
 20
31.9389323462
 30
0.0
 10
332.7944768938
 20
31.2030160755
 30
0.0
 10
331.8232872491
 20
31.2030160755
 30
0.0
 10
330.8247493647
 20
31.2030160755
 30
0.0
 10
329.8814313711
 20
32.1325945228
 30
0.0
 10
329.8814313711
 20
33.1317866713
 30
0.0
 10
329.8814313711
 20
34.1309788198
 30
0.0
 10
331.0602844442
 20
34.8375840585
 30
0.0
 10
331.7818069046
 20
35.3374418384
 30
0.0
 10
331.7818069046
 20
35.3374418384
 30
0.0
 10
331.9066404967
 20
35.4206642332
 30
0.0
 10
331.9066404967
 20
35.4206642332
 30
0.0
  0
SPLINE
  5
265
330
22A
100
AcDbEntity
  8
0
  6
Continuous
 62
     7
100
AcDbSpline
 70
     3
 71
     3
 72
    23
 73
    19
 74
     0
 42
0.000000001
 43
0.0000001
 40
0.0
 40
0.0
 40
0.0
 40
0.0
 40
1.0
 40
1.0
 40
1.0
 40
2.0
 40
2.0
 40
2.0
 40
3.0
 40
3.0
 40
3.0
 40
4.0
 40
4.0
 40
4.0
 40
5.0
 40
5.0
 40
5.0
 40
6.0
 40
6.0
 40
6.0
 40
6.0
 10
332.1840484793
 20
37.0584181529
 30
0.0
 10
332.1840484793
 20
37.0584181529
 30
0.0
 10
331.8375502067
 20
37.5017475137
 30
0.0
 10
331.8375502067
 20
37.5017475137
 30
0.0
 10
331.5317471618
 20
37.8898569837
 30
0.0
 10
331.2128588347
 20
38.2783590121
 30
0.0
 10
331.2128588347
 20
38.8053033262
 30
0.0
 10
331.2128588347
 20
39.4714750428
 30
0.0
 10
331.7541969591
 20
39.9151969621
 30
0.0
 10
332.3781032143
 20
39.9151969621
 30
0.0
 10
333.0718848763
 20
39.9151969621
 30
0.0
 10
333.5990908961
 20
39.5129553874
 30
0.0
 10
333.5990908961
 20
38.7779550864
 30
0.0
 10
333.5990908961
 20
38.0146905758
 30
0.0
 10
332.8778301414
 20
37.58457735
 30
0.0
 10
332.3507549745
 20
37.1688579346
 30
0.0
 10
332.3507549745
 20
37.1688579346
 30
0.0
 10
332.1840484793
 20
37.0584181529
 30
0.0
 10
332.1840484793
 20
37.0584181529
 30
0.0
  0
SPLINE
  5
266
330
22A
100
AcDbEntity
  8
0
  6
Continuous
 62
     7
100
AcDbSpline
 70
     3
 71
     3
 72
    50
 73
    46
 74
     0
 42
0.000000001
 43
0.0000001
 40
0.0
 40
0.0
 40
0.0
 40
0.0
 40
1.0
 40
1.0
 40
1.0
 40
2.0
 40
2.0
 40
2.0
 40
3.0
 40
3.0
 40
3.0
 40
4.0
 40
4.0
 40
4.0
 40
5.0
 40
5.0
 40
5.0
 40
6.0
 40
6.0
 40
6.0
 40
7.0
 40
7.0
 40
7.0
 40
8.0
 40
8.0
 40
8.0
 40
9.0
 40
9.0
 40
9.0
 40
10.0
 40
10.0
 40
10.0
 40
11.0
 40
11.0
 40
11.0
 40
12.0
 40
12.0
 40
12.0
 40
13.0
 40
13.0
 40
13.0
 40
14.0
 40
14.0
 40
14.0
 40
15.0
 40
15.0
 40
15.0
 40
15.0
 10
336.1376356422
 20
30.2598289348
 30
0.0
 10
336.1376356422
 20
30.2598289348
 30
0.0
 10
337.7468636468
 20
30.2598289348
 30
0.0
 10
337.7468636468
 20
30.2598289348
 30
0.0
 10
337.7468636468
 20
30.2598289348
 30
0.0
 10
335.8738363531
 20
32.5769707062
 30
0.0
 10
335.8738363531
 20
32.5769707062
 30
0.0
 10
335.8738363531
 20
32.5769707062
 30
0.0
 10
337.1501747786
 20
34.0744504008
 30
0.0
 10
337.1501747786
 20
34.0744504008
 30
0.0
 10
337.1501747786
 20
34.0744504008
 30
0.0
 10
336.3179508309
 20
34.9354619693
 30
0.0
 10
336.3179508309
 20
34.9354619693
 30
0.0
 10
336.3179508309
 20
34.9354619693
 30
0.0
 10
335.0973557076
 20
33.5201578469
 30
0.0
 10
335.0973557076
 20
33.5201578469
 30
0.0
 10
335.0973557076
 20
33.5201578469
 30
0.0
 10
332.9194413388
 20
36.1555336813
 30
0.0
 10
332.9194413388
 20
36.1555336813
 30
0.0
 10
333.7930147782
 20
36.7935720412
 30
0.0
 10
334.8196860194
 20
37.58457735
 30
0.0
 10
334.8196860194
 20
38.7634304231
 30
0.0
 10
334.8196860194
 20
40.1371233482
 30
0.0
 10
333.6817898795
 20
40.9416064976
 30
0.0
 10
332.4064982766
 20
40.9416064976
 30
0.0
 10
331.0330670573
 20
40.9416064976
 30
0.0
 10
329.9921328585
 20
40.0953812979
 30
0.0
 10
329.9921328585
 20
38.6527289358
 30
0.0
 10
329.9921328585
 20
37.7651542444
 30
0.0
 10
330.547472235
 20
36.9882810403
 30
0.0
 10
331.1436376918
 20
36.3638513739
 30
0.0
 10
331.1436376918
 20
36.3638513739
 30
0.0
 10
330.4917289328
 20
35.8922578035
 30
0.0
 10
330.4917289328
 20
35.8922578035
 30
0.0
 10
329.4931910484
 20
35.1709970488
 30
0.0
 10
328.6603128365
 20
34.4497362942
 30
0.0
 10
328.6603128365
 20
33.1181779778
 30
0.0
 10
328.6603128365
 20
31.3145026798
 30
0.0
 10
330.1173590091
 20
30.0379025487
 30
0.0
 10
331.8648984465
 20
30.0379025487
 30
0.0
 10
333.0997565274
 20
30.0379025487
 30
0.0
 10
334.2091267521
 20
30.7460780212
 30
0.0
 10
335.000001208
 20
31.6746096459
 30
0.0
 10
335.000001208
 20
31.6746096459
 30
0.0
 10
336.1376356422
 20
30.2598289348
 30
0.0
 10
336.1376356422
 20
30.2598289348
 30
0.0
  0
LINE
  5
267
330
22A
100
AcDbEntity
  8
0
  6
Continuous
 62
     7
100
AcDbLine
 10
321.9404970172
 20
28.2337038394
 30
0.0
 11
344.3544077449
 21
28.2337038394
 31
0.0
  0
LINE
  5
268
330
22A
100
AcDbEntity
  8
0
  6
Continuous
 62
     7
100
AcDbLine
 10
344.3544077449
 20
28.2337038394
 30
0.0
 11
344.3544077449
 21
50.6476145671
 31
0.0
  0
LINE
  5
269
330
22A
100
AcDbEntity
  8
0
  6
Continuous
 62
     7
100
AcDbLine
 10
344.3544077449
 20
50.6476145671
 30
0.0
 11
321.9404970172
 21
50.6476145671
 31
0.0
  0
LINE
  5
26A
330
22A
100
AcDbEntity
  8
0
  6
Continuous
 62
     7
100
AcDbLine
 10
321.9404970172
 20
50.6476145671
 30
0.0
 11
321.9404970172
 21
28.2337038394
 31
0.0
  0
ENDBLK
  5
26B
330
22A
100
AcDbEntity
  8
0
  6
ByBlock
 62
     0
100
AcDbBlockEnd
  0
BLOCK
  5
2A1
330
22B
100
AcDbEntity
  8
0
100
AcDbBlockBegin
  2
*T7
 70
     1
 10
0.0
 20
0.0
 30
0.0
  3
*T7
  1
*T7
  0
MTEXT
  5
2A2
330
22B
100
AcDbEntity
  8
0
  6
Continuous
 62
     0
100
AcDbMText
 10
30.28622003006668
 20
-3.0
 30
0.0
 40
3.0
 41
40.18162670675557
 71
     4
 72
     5
  1
3S5_C_061
 73
     1
 44
1.0
  0
MTEXT
  5
2A3
330
22B
100
AcDbEntity
  8
0
  6
Continuous
 62
     0
100
AcDbMText
 10
70.58784673682226
 20
-0.06
 30
0.0
 40
3.5
 41
20.03081335337778
 71
     1
 72
     5
  1
Rev:00
 73
     1
 44
1.0
  0
MTEXT
  5
2A4
330
22B
100
AcDbEntity
  8
0
  6
Continuous
 62
     0
100
AcDbMText
 10
30.28622003006668
 20
-6.06
 30
0.0
 40
3.5
 41
40.18162670675557
 71
     1
 72
     5
  1
Scale:1:1
 73
     1
 44
1.0
  0
MTEXT
  5
2A5
330
22B
100
AcDbEntity
  8
0
  6
Continuous
 62
     0
100
AcDbMText
 10
70.58784673682226
 20
-9.0
 30
0.0
 40
3.5
 41
20.03081335337778
 71
     4
 72
     5
  1
A3
 73
     1
 44
1.0
  0
MTEXT
  5
2A6
330
22B
100
AcDbEntity
  8
0
  6
Continuous
 62
     0
100
AcDbMText
 10
30.28622003006668
 20
-17.0
 30
0.0
 40
3.5
 41
60.33244006013336
 71
     4
 72
     5
  1
STEP 6.1
 73
     1
 44
1.0
  0
MTEXT
  5
2A7
330
22B
100
AcDbEntity
  8
0
  6
Continuous
 62
     0
100
AcDbMText
 10
30.28622003006668
 20
-24.5
 30
0.0
 40
2.5
 41
60.33244006013336
 71
     4
 72
     5
  1
DATE:27/03/2014
 73
     1
 44
1.0
  0
MTEXT
  5
2A8
330
22B
100
AcDbEntity
  8
0
  6
Continuous
 62
     0
100
AcDbMText
 10
0.06
 20
-27.06
 30
0.0
 40
1.85
 41
90.55866009020004
 71
     1
 72
     5
  1
Any integral or partial reproductions are prohibited \Pwithout prior authorisation of L & L Luce & Light s.r.l., \Pin accordance with the law in force. \PAll rights reserved.
 73
     1
 44
1.0
  0
LINE
  5
2A9
330
22B
100
AcDbEntity
  8
0
  6
Continuous
 62
     0
370
    -2
100
AcDbLine
 10
0.0
 20
0.0
 30
0.0
 11
10.07540667668889
 21
0.0
 31
0.0
  0
LINE
  5
2AA
330
22B
100
AcDbEntity
  8
0
  6
Continuous
 62
     0
370
    -2
100
AcDbLine
 10
10.07540667668889
 20
0.0
 30
0.0
 11
20.15081335337779
 21
0.0
 31
0.0
  0
LINE
  5
2AB
330
22B
100
AcDbEntity
  8
0
  6
Continuous
 62
     0
370
    -2
100
AcDbLine
 10
20.15081335337779
 20
0.0
 30
0.0
 11
30.22622003006668
 21
0.0
 31
0.0
  0
LINE
  5
2AC
330
22B
100
AcDbEntity
  8
0
  6
Continuous
 62
     0
370
    -2
100
AcDbLine
 10
0.0
 20
0.0
 30
0.0
 11
0.0
 21
-6.0
 31
0.0
  0
LINE
  5
2AD
330
22B
100
AcDbEntity
  8
0
  6
Continuous
 62
     0
370
    -2
100
AcDbLine
 10
0.0
 20
-6.0
 30
0.0
 11
0.0
 21
-12.0
 31
0.0
  0
LINE
  5
2AE
330
22B
100
AcDbEntity
  8
0
  6
Continuous
 62
     0
370
    -2
100
AcDbLine
 10
0.0
 20
-12.0
 30
0.0
 11
0.0
 21
-22.0
 31
0.0
  0
LINE
  5
2AF
330
22B
100
AcDbEntity
  8
0
  6
Continuous
 62
     0
370
    -2
100
AcDbLine
 10
0.0
 20
-22.0
 30
0.0
 11
0.0
 21
-27.0
 31
0.0
  0
LINE
  5
2B0
330
22B
100
AcDbEntity
  8
0
  6
Continuous
 62
     0
370
    -2
100
AcDbLine
 10
30.22622003006668
 20
0.0
 30
0.0
 11
70.52784673682226
 21
0.0
 31
0.0
  0
LINE
  5
2B1
330
22B
100
AcDbEntity
  8
0
  6
Continuous
 62
     0
370
    -2
100
AcDbLine
 10
30.22622003006668
 20
0.0
 30
0.0
 11
30.22622003006668
 21
-6.0
 31
0.0
  0
LINE
  5
2B2
330
22B
100
AcDbEntity
  8
0
  6
Continuous
 62
     0
370
    -2
100
AcDbLine
 10
70.52784673682226
 20
0.0
 30
0.0
 11
90.67866009020004
 21
0.0
 31
0.0
  0
LINE
  5
4A7
330
22B
100
AcDbEntity
  8
0
  6
Continuous
 62
     0
370
    -2
100
AcDbLine
 10
70.52784673682226
 20
0.0
 30
0.0
 11
70.52784673682226
 21
-6.0
 31
0.0
  0
LINE
  5
4A8
330
22B
100
AcDbEntity
  8
0
  6
Continuous
 62
     0
370
    -2
100
AcDbLine
 10
90.67866009020004
 20
0.0
 30
0.0
 11
90.67866009020004
 21
-6.0
 31
0.0
  0
LINE
  5
4A9
330
22B
100
AcDbEntity
  8
0
  6
Continuous
 62
     0
370
    -2
100
AcDbLine
 10
30.22622003006668
 20
-6.0
 30
0.0
 11
70.52784673682226
 21
-6.0
 31
0.0
  0
LINE
  5
4AA
330
22B
100
AcDbEntity
  8
0
  6
Continuous
 62
     0
370
    -2
100
AcDbLine
 10
30.22622003006668
 20
-6.0
 30
0.0
 11
30.22622003006668
 21
-12.0
 31
0.0
  0
LINE
  5
4AB
330
22B
100
AcDbEntity
  8
0
  6
Continuous
 62
     0
370
    -2
100
AcDbLine
 10
70.52784673682226
 20
-6.0
 30
0.0
 11
90.67866009020004
 21
-6.0
 31
0.0
  0
LINE
  5
4AC
330
22B
100
AcDbEntity
  8
0
  6
Continuous
 62
     0
370
    -2
100
AcDbLine
 10
70.52784673682226
 20
-6.0
 30
0.0
 11
70.52784673682226
 21
-12.0
 31
0.0
  0
LINE
  5
4AD
330
22B
100
AcDbEntity
  8
0
  6
Continuous
 62
     0
370
    -2
100
AcDbLine
 10
90.67866009020004
 20
-6.0
 30
0.0
 11
90.67866009020004
 21
-12.0
 31
0.0
  0
LINE
  5
4AE
330
22B
100
AcDbEntity
  8
0
  6
Continuous
 62
     0
370
    -2
100
AcDbLine
 10
30.22622003006668
 20
-12.0
 30
0.0
 11
70.52784673682226
 21
-12.0
 31
0.0
  0
LINE
  5
4AF
330
22B
100
AcDbEntity
  8
0
  6
Continuous
 62
     0
370
    -2
100
AcDbLine
 10
70.52784673682226
 20
-12.0
 30
0.0
 11
90.67866009020003
 21
-12.0
 31
0.0
  0
LINE
  5
4B0
330
22B
100
AcDbEntity
  8
0
  6
Continuous
 62
     0
370
    -2
100
AcDbLine
 10
30.22622003006668
 20
-12.0
 30
0.0
 11
30.22622003006668
 21
-22.0
 31
0.0
  0
LINE
  5
4B1
330
22B
100
AcDbEntity
  8
0
  6
Continuous
 62
     0
370
    -2
100
AcDbLine
 10
90.67866009020004
 20
-12.0
 30
0.0
 11
90.67866009020004
 21
-22.0
 31
0.0
  0
LINE
  5
4B2
330
22B
100
AcDbEntity
  8
0
  6
Continuous
 62
     0
370
    -2
100
AcDbLine
 10
30.22622003006668
 20
-22.0
 30
0.0
 11
70.52784673682226
 21
-22.0
 31
0.0
  0
LINE
  5
4B3
330
22B
100
AcDbEntity
  8
0
  6
Continuous
 62
     0
370
    -2
100
AcDbLine
 10
70.52784673682226
 20
-22.0
 30
0.0
 11
90.67866009020003
 21
-22.0
 31
0.0
  0
LINE
  5
4B4
330
22B
100
AcDbEntity
  8
0
  6
Continuous
 62
     0
370
    -2
100
AcDbLine
 10
30.22622003006668
 20
-22.0
 30
0.0
 11
30.22622003006668
 21
-27.0
 31
0.0
  0
LINE
  5
4B5
330
22B
100
AcDbEntity
  8
0
  6
Continuous
 62
     0
370
    -2
100
AcDbLine
 10
90.67866009020004
 20
-22.0
 30
0.0
 11
90.67866009020004
 21
-27.0
 31
0.0
  0
LINE
  5
4B6
330
22B
100
AcDbEntity
  8
0
  6
Continuous
 62
     0
370
    -2
100
AcDbLine
 10
0.0
 20
-27.0
 30
0.0
 11
10.07540667668889
 21
-27.0
 31
0.0
  0
LINE
  5
4B7
330
22B
100
AcDbEntity
  8
0
  6
Continuous
 62
     0
370
    -2
100
AcDbLine
 10
10.07540667668889
 20
-27.0
 30
0.0
 11
20.15081335337779
 21
-27.0
 31
0.0
  0
LINE
  5
4B8
330
22B
100
AcDbEntity
  8
0
  6
Continuous
 62
     0
370
    -2
100
AcDbLine
 10
20.15081335337779
 20
-27.0
 30
0.0
 11
30.22622003006668
 21
-27.0
 31
0.0
  0
LINE
  5
4B9
330
22B
100
AcDbEntity
  8
0
  6
Continuous
 62
     0
370
    -2
100
AcDbLine
 10
30.22622003006668
 20
-27.0
 30
0.0
 11
70.52784673682226
 21
-27.0
 31
0.0
  0
LINE
  5
4BA
330
22B
100
AcDbEntity
  8
0
  6
Continuous
 62
     0
370
    -2
100
AcDbLine
 10
70.52784673682226
 20
-27.0
 30
0.0
 11
90.67866009020004
 21
-27.0
 31
0.0
  0
LINE
  5
4BB
330
22B
100
AcDbEntity
  8
0
  6
Continuous
 62
     0
370
    -2
100
AcDbLine
 10
0.0
 20
-27.0
 30
0.0
 11
0.0
 21
-40.0
 31
0.0
  0
LINE
  5
4BC
330
22B
100
AcDbEntity
  8
0
  6
Continuous
 62
     0
370
    -2
100
AcDbLine
 10
90.67866009020004
 20
-27.0
 30
0.0
 11
90.67866009020004
 21
-40.0
 31
0.0
  0
LINE
  5
4BD
330
22B
100
AcDbEntity
  8
0
  6
Continuous
 62
     0
370
    -2
100
AcDbLine
 10
0.0
 20
-40.0
 30
0.0
 11
10.07540667668889
 21
-40.0
 31
0.0
  0
LINE
  5
4BE
330
22B
100
AcDbEntity
  8
0
  6
Continuous
 62
     0
370
    -2
100
AcDbLine
 10
10.07540667668889
 20
-40.0
 30
0.0
 11
20.15081335337779
 21
-40.0
 31
0.0
  0
LINE
  5
4BF
330
22B
100
AcDbEntity
  8
0
  6
Continuous
 62
     0
370
    -2
100
AcDbLine
 10
20.15081335337779
 20
-40.0
 30
0.0
 11
30.22622003006668
 21
-40.0
 31
0.0
  0
LINE
  5
4C0
330
22B
100
AcDbEntity
  8
0
  6
Continuous
 62
     0
370
    -2
100
AcDbLine
 10
30.22622003006668
 20
-40.0
 30
0.0
 11
70.52784673682226
 21
-40.0
 31
0.0
  0
LINE
  5
4C1
330
22B
100
AcDbEntity
  8
0
  6
Continuous
 62
     0
370
    -2
100
AcDbLine
 10
70.52784673682226
 20
-40.0
 30
0.0
 11
90.67866009020004
 21
-40.0
 31
0.0
  0
ENDBLK
  5
2B3
330
22B
100
AcDbEntity
  8
0
100
AcDbBlockEnd
  0
ENDSEC
  0
SECTION
  2
ENTITIES
  0
MTEXT
  5
2B4
330
222
100
AcDbEntity
  8
0
  6
Continuous
 62
     2
100
AcDbMText
 10
1.6467220993
 20
53.595027386
 30
0.0
 40
4.0
 41
2.2857142857
 71
     1
 72
     1
  1
1
  7
TEXTSTYLE_2
 73
     1
 44
0.9
  0
MTEXT
  5
2B5
330
222
100
AcDbEntity
  8
0
  6
Continuous
 62
     2
100
AcDbMText
 10
1.6467220993
 20
153.595027386
 30
0.0
 40
4.0
 41
3.1428571429
 71
     1
 72
     1
  1
2
  7
TEXTSTYLE_2
 73
     1
 44
0.9
  0
MTEXT
  5
2B6
330
222
100
AcDbEntity
  8
0
  6
Continuous
 62
     2
100
AcDbMText
 10
1.6467220993
 20
253.595027386
 30
0.0
 40
4.0
 41
2.8571428571
 71
     1
 72
     1
  1
3
  7
TEXTSTYLE_2
 73
     1
 44
0.9
  0
MTEXT
  5
2B7
330
222
100
AcDbEntity
  8
0
  6
Continuous
 62
     2
100
AcDbMText
 10
414.6467220993
 20
60.6268709614
 30
0.0
 40
4.0
 41
2.2857142857
 71
     1
 72
     1
  1
1
  7
TEXTSTYLE_2
 73
     1
 44
0.9
  0
MTEXT
  5
2B8
330
222
100
AcDbEntity
  8
0
  6
Continuous
 62
     2
100
AcDbMText
 10
414.6467220993
 20
160.6268709614
 30
0.0
 40
4.0
 41
3.1428571429
 71
     1
 72
     1
  1
2
  7
TEXTSTYLE_2
 73
     1
 44
0.9
  0
MTEXT
  5
2B9
330
222
100
AcDbEntity
  8
0
  6
Continuous
 62
     2
100
AcDbMText
 10
414.6467220993
 20
260.6268709614
 30
0.0
 40
4.0
 41
2.8571428571
 71
     1
 72
     1
  1
3
  7
TEXTSTYLE_2
 73
     1
 44
0.9
  0
MTEXT
  5
2BA
330
222
100
AcDbEntity
  8
0
  6
Continuous
 62
     2
100
AcDbMText
 10
362.154890719
 20
5.35876025
 30
0.0
 40
4.0
 41
3.6
 71
     1
 72
     1
  1
A
  7
TEXTSTYLE_3
 73
     1
 44
0.9
  0
MTEXT
  5
2BB
330
222
100
AcDbEntity
  8
0
  6
Continuous
 62
     2
100
AcDbMText
 10
262.154890719
 20
5.35876025
 30
0.0
 40
4.0
 41
3.6
 71
     1
 72
     1
  1
B
  7
TEXTSTYLE_3
 73
     1
 44
0.9
  0
MTEXT
  5
2BC
330
222
100
AcDbEntity
  8
0
  6
Continuous
 62
     2
100
AcDbMText
 10
162.154890719
 20
5.35876025
 30
0.0
 40
4.0
 41
3.6
 71
     1
 72
     1
  1
C
  7
TEXTSTYLE_3
 73
     1
 44
0.9
  0
MTEXT
  5
2BD
330
222
100
AcDbEntity
  8
0
  6
Continuous
 62
     2
100
AcDbMText
 10
55.7978688212
 20
5.5353441916
 30
0.0
 40
4.0
 41
3.6
 71
     1
 72
     1
  1
D
  7
TEXTSTYLE_3
 73
     1
 44
0.9
  0
MTEXT
  5
2BE
330
222
100
AcDbEntity
  8
0
  6
Continuous
 62
     2
100
AcDbMText
 10
362.154890719
 20
295.35876025
 30
0.0
 40
4.0
 41
3.6
 71
     1
 72
     1
  1
A
  7
TEXTSTYLE_3
 73
     1
 44
0.9
  0
MTEXT
  5
2BF
330
222
100
AcDbEntity
  8
0
  6
Continuous
 62
     2
100
AcDbMText
 10
262.154890719
 20
295.35876025
 30
0.0
 40
4.0
 41
3.6
 71
     1
 72
     1
  1
B
  7
TEXTSTYLE_3
 73
     1
 44
0.9
  0
MTEXT
  5
2C0
330
222
100
AcDbEntity
  8
0
  6
Continuous
 62
     2
100
AcDbMText
 10
162.154890719
 20
295.35876025
 30
0.0
 40
4.0
 41
3.6
 71
     1
 72
     1
  1
C
  7
TEXTSTYLE_3
 73
     1
 44
0.9
  0
MTEXT
  5
2C1
330
222
100
AcDbEntity
  8
0
  6
Continuous
 62
     2
100
AcDbMText
 10
53.9878834197
 20
295.579490177
 30
0.0
 40
4.0
 41
3.6
 71
     1
 72
     1
  1
D
  7
TEXTSTYLE_3
 73
     1
 44
0.9
  0
DIMENSION
  5
2C2
330
222
100
AcDbEntity
  8
0
  6
Continuous
 62
     2
100
AcDbDimension
  2
*D1
 10
109.9635846704
 20
99.8944300426
 30
0.0
 11
109.9635846704
 21
71.9829375495
 31
0.0
 70
   160
 71
     2
 42
51.8
  3
DIMSTYLE_1
100
AcDbAlignedDimension
 13
103.4203838876
 23
48.0944300426
 33
0.0
 14
104.048747524
 24
99.8944300426
 34
0.0
 50
90.0
100
AcDbRotatedDimension
1001
ACAD
1000
DSTYLE
1002
{
1070
   147
1040
2.0
1002
}
  0
DIMENSION
  5
2C3
330
222
100
AcDbEntity
  8
0
  6
Continuous
 62
     2
100
AcDbDimension
  2
*D2
 10
101.2054190341
 20
168.3254593302
 30
0.0
 11
73.7054190341
 21
168.3254593302
 31
0.0
 70
   160
 71
     2
 42
55.00000000000001
  3
DIMSTYLE_2
100
AcDbAlignedDimension
 13
46.2054190341
 23
173.8276614128
 33
0.0
 14
101.2054190341
 24
174.6131159582
 34
0.0
100
AcDbRotatedDimension
1001
ACAD
1000
DSTYLE
1002
{
1070
   147
1040
2.0
1002
}
  0
DIMENSION
  5
2C4
330
222
100
AcDbEntity
  8
0
  6
Continuous
 62
     2
100
AcDbDimension
  2
*D3
 10
109.9155767829
 20
193.560102983
 30
0.0
 11
109.9155767829
 21
221.060102983
 31
0.0
 70
   160
 71
     2
 42
55.0
  3
DIMSTYLE_2
100
AcDbAlignedDimension
 13
103.3769499388
 23
248.560102983
 33
0.0
 14
104.1624044842
 24
193.560102983
 34
0.0
 50
270.0
100
AcDbRotatedDimension
1001
ACAD
1000
DSTYLE
1002
{
1070
   147
1040
2.0
1002
}
  0
DIMENSION
  5
2C5
330
222
100
AcDbEntity
  8
0
  6
Continuous
 62
     2
100
AcDbDimension
  2
*D4
 10
161.8178595967
 20
201.060102983
 30
0.0
 11
161.8178595967
 21
221.060102983
 31
0.0
 70
   160
  1
%%c<>
 71
     2
 42
40.0
  3
DIMSTYLE_2
100
AcDbAlignedDimension
 13
170.543131757
 23
241.060102983
 33
0.0
 14
170.7847127229
 24
201.060102983
 34
0.0
 50
270.0
100
AcDbRotatedDimension
1001
ACAD
1000
DSTYLE
1002
{
1070
   147
1040
2.0
1002
}
  0
DIMENSION
  5
2C6
330
222
100
AcDbEntity
  8
0
  6
Continuous
 62
     2
100
AcDbDimension
  2
*D5
 10
224.8916992187
 20
272.1972011855
 30
0.0
 11
234.1463745434
 21
272.1972011855
 31
0.0
 70
   160
 71
     1
 42
1.600000000000023
  3
DIMSTYLE_3
100
AcDbAlignedDimension
 13
223.2916992187
 23
249.310102983
 33
0.0
 14
224.8916992187
 24
249.310102983
 34
0.0
100
AcDbRotatedDimension
1001
ACAD
1000
DSTYLE
1002
{
1070
   147
1040
2.0
1002
}
  0
INSERT
  5
2C7
330
222
100
AcDbEntity
  8
0
  6
Continuous
 62
     2
100
AcDbBlockReference
  2
LOGO2_BL0
 10
333.1473869546
 20
37.5239270671
 30
0.0
  0
INSERT
  5
2C8
330
222
100
AcDbEntity
  8
0
  6
Continuous
 62
     2
100
AcDbBlockReference
  2
*T7
 10
319.3213399098
 20
51.0239270671
 30
0.0
  0
LINE
  5
2C9
330
222
100
AcDbEntity
  8
0
  6
Continuous
 62
     7
100
AcDbLine
 10
0.0
 20
0.0
 30
0.0
 11
0.0
 21
297.0
 31
0.0
  0
LWPOLYLINE
  5
2CA
330
222
100
AcDbEntity
  8
0
  6
Continuous
 62
     7
100
AcDbPolyline
 90
        2
 70
     0
 43
0.1000000003
 10
7.0536312849
 20
0.0
 10
7.0536312849
 20
297.0
  0
LWPOLYLINE
  5
2CB
330
222
100
AcDbEntity
  8
0
  6
Continuous
 62
     7
100
AcDbPolyline
 90
        2
 70
     0
 43
0.4999999952
 10
10.0536312849
 20
10.0318435754
 10
10.0536312849
 20
287.0
  0
LINE
  5
2CC
330
222
100
AcDbEntity
  8
0
  6
Continuous
 62
     7
100
AcDbLine
 10
0.0
 20
0.0
 30
0.0
 11
420.0
 21
0.0
 31
0.0
  0
LWPOLYLINE
  5
2CD
330
222
100
AcDbEntity
  8
0
  6
Continuous
 62
     7
100
AcDbPolyline
 90
        2
 70
     0
 43
0.1000000003
 10
0.0
 20
7.0318435754
 10
420.0
 20
7.0318435754
  0
LWPOLYLINE
  5
2CE
330
222
100
AcDbEntity
  8
0
  6
Continuous
 62
     7
100
AcDbPolyline
 90
        2
 70
     0
 43
0.4999999952
 10
10.0536312849
 20
10.0318435754
 10
410.0
 20
10.0318435754
  0
LINE
  5
2CF
330
222
100
AcDbEntity
  8
0
  6
Continuous
 62
     7
100
AcDbLine
 10
113.0
 20
297.0
 30
0.0
 11
113.0
 21
290.0
 31
0.0
  0
LINE
  5
2D0
330
222
100
AcDbEntity
  8
0
  6
Continuous
 62
     7
100
AcDbLine
 10
113.0
 20
7.0
 30
0.0
 11
113.0
 21
0.0
 31
0.0
  0
LWPOLYLINE
  5
2D1
330
222
100
AcDbEntity
  8
0
  6
Continuous
 62
     7
100
AcDbPolyline
 90
        2
 70
     0
 43
0.1000000003
 10
123.0
 20
10.0
 10
123.0
 20
0.0
  0
LWPOLYLINE
  5
2D2
330
222
100
AcDbEntity
  8
0
  6
Continuous
 62
     7
100
AcDbPolyline
 90
        2
 70
     0
 43
0.1000000003
 10
123.0
 20
287.0
 10
123.0
 20
297.0
  0
LINE
  5
2D3
330
222
100
AcDbEntity
  8
0
  6
Continuous
 62
     7
100
AcDbLine
 10
0.0
 20
99.9681564246
 30
0.0
 11
7.0
 21
99.9681564246
 31
0.0
  0
LINE
  5
2D4
330
222
100
AcDbEntity
  8
0
  6
Continuous
 62
     7
100
AcDbLine
 10
413.0
 20
107.0
 30
0.0
 11
420.0
 21
107.0
 31
0.0
  0
LWPOLYLINE
  5
2D5
330
222
100
AcDbEntity
  8
0
  6
Continuous
 62
     7
100
AcDbPolyline
 90
        2
 70
     0
 43
0.1000000003
 10
210.0
 20
10.0
 10
210.0
 20
0.0
  0
LWPOLYLINE
  5
2D6
330
222
100
AcDbEntity
  8
0
  6
Continuous
 62
     7
100
AcDbPolyline
 90
        2
 70
     0
 43
0.1000000003
 10
210.0
 20
287.0
 10
210.0
 20
297.0
  0
LWPOLYLINE
  5
2D7
330
222
100
AcDbEntity
  8
0
  6
Continuous
 62
     7
100
AcDbPolyline
 90
        2
 70
     0
 43
0.1000000003
 10
10.0
 20
148.5
 10
0.0
 20
148.5
  0
LWPOLYLINE
  5
2D8
330
222
100
AcDbEntity
  8
0
  6
Continuous
 62
     7
100
AcDbPolyline
 90
        2
 70
     0
 43
0.1000000003
 10
410.0
 20
148.5
 10
420.0
 20
148.5
  0
LINE
  5
2D9
330
222
100
AcDbEntity
  8
0
  6
Continuous
 62
     7
100
AcDbLine
 10
0.0
 20
199.9681564246
 30
0.0
 11
7.0
 21
199.9681564246
 31
0.0
  0
LWPOLYLINE
  5
2DA
330
222
100
AcDbEntity
  8
0
  6
Continuous
 62
     7
100
AcDbPolyline
 90
        2
 70
     0
 43
0.1000000003
 10
10.0
 20
202.9681564246
 10
0.0
 20
202.9681564246
  0
LWPOLYLINE
  5
2DB
330
222
100
AcDbEntity
  8
0
  6
Continuous
 62
     7
100
AcDbPolyline
 90
        2
 70
     0
 43
0.1000000003
 10
410.0
 20
210.0
 10
420.0
 20
210.0
  0
LINE
  5
2DC
330
222
100
AcDbEntity
  8
0
  6
Continuous
 62
     7
100
AcDbLine
 10
313.0
 20
297.0
 30
0.0
 11
313.0
 21
290.0
 31
0.0
  0
LINE
  5
2DD
330
222
100
AcDbEntity
  8
0
  6
Continuous
 62
     7
100
AcDbLine
 10
313.0
 20
7.0
 30
0.0
 11
313.0
 21
0.0
 31
0.0
  0
LWPOLYLINE
  5
2DE
330
222
100
AcDbEntity
  8
0
  6
Continuous
 62
     7
100
AcDbPolyline
 90
        2
 70
     0
 43
0.4999999952
 10
10.0536312849
 20
287.0
 10
410.0
 20
287.0
  0
LWPOLYLINE
  5
2DF
330
222
100
AcDbEntity
  8
0
  6
Continuous
 62
     7
100
AcDbPolyline
 90
        2
 70
     0
 43
0.1000000003
 10
0.0
 20
290.0
 10
420.0
 20
290.0
  0
LINE
  5
2E0
330
222
100
AcDbEntity
  8
0
  6
Continuous
 62
     7
100
AcDbLine
 10
0.0
 20
297.0
 30
0.0
 11
420.0
 21
297.0
 31
0.0
  0
LWPOLYLINE
  5
2E1
330
222
100
AcDbEntity
  8
0
  6
Continuous
 62
     7
100
AcDbPolyline
 90
        2
 70
     0
 43
0.4999999952
 10
410.0
 20
10.0318435754
 10
410.0
 20
287.0
  0
LWPOLYLINE
  5
2E2
330
222
100
AcDbEntity
  8
0
  6
Continuous
 62
     7
100
AcDbPolyline
 90
        2
 70
     0
 43
0.1000000003
 10
413.0
 20
0.0
 10
413.0
 20
297.0
  0
LINE
  5
2E3
330
222
100
AcDbEntity
  8
0
  6
Continuous
 62
     7
100
AcDbLine
 10
420.0
 20
0.0
 30
0.0
 11
420.0
 21
297.0
 31
0.0
  0
LINE
  5
2E4
330
222
100
AcDbEntity
  8
7_ALL_FEATURES
  6
Continuous
 62
     7
100
AcDbLine
 10
46.2054190341
 20
48.8944300426
 30
0.0
 11
46.2054190341
 21
48.0944300426
 31
0.0
  0
LINE
  5
2E5
330
222
100
AcDbEntity
  8
0
  6
Continuous
 62
     7
100
AcDbLine
 10
46.2054190341
 20
48.8944300426
 30
0.0
 11
46.2054190341
 21
49.6944300426
 31
0.0
  0
LINE
  5
2E6
330
222
100
AcDbEntity
  8
7_ALL_FEATURES
  6
Continuous
 62
     7
100
AcDbLine
 10
101.2054190341
 20
48.0944300426
 30
0.0
 11
46.2054190341
 21
48.0944300426
 31
0.0
  0
LINE
  5
2E7
330
222
100
AcDbEntity
  8
7_ALL_FEATURES
  6
Continuous
 62
     7
100
AcDbLine
 10
101.2054190341
 20
48.8944300426
 30
0.0
 11
46.2054190341
 21
48.8944300426
 31
0.0
  0
LINE
  5
2E8
330
222
100
AcDbEntity
  8
0
  6
Continuous
 62
     7
100
AcDbLine
 10
101.2054190341
 20
48.8944300426
 30
0.0
 11
46.2054190341
 21
48.8944300426
 31
0.0
  0
LINE
  5
2E9
330
222
100
AcDbEntity
  8
0
  6
Continuous
 62
     7
100
AcDbLine
 10
101.2054190341
 20
49.6944300426
 30
0.0
 11
46.2054190341
 21
49.6944300426
 31
0.0
  0
LINE
  5
2EA
330
222
100
AcDbEntity
  8
7_ALL_FEATURES
  6
Continuous
 62
     9
100
AcDbLine
 10
54.3554190341
 20
51.0717803118
 30
0.0
 11
54.0554190341
 21
51.0717803118
 31
0.0
  0
LINE
  5
2EB
330
222
100
AcDbEntity
  8
02___PRT_ALL_AXES
  6
Continuous
 62
     7
100
AcDbLine
 10
52.4054190341
 20
53.7394300426
 30
0.0
 11
52.4054190341
 21
57.0494300426
 31
0.0
  0
LINE
  5
2EC
330
222
100
AcDbEntity
  8
02___PRT_ALL_AXES
  6
Continuous
 62
     7
100
AcDbLine
 10
53.6754190341
 20
52.6444300426
 30
0.0
 11
53.6754190341
 21
58.1444300426
 31
0.0
  0
LINE
  5
2ED
330
222
100
AcDbEntity
  8
02___PRT_ALL_AXES
  6
Continuous
 62
     7
100
AcDbLine
 10
54.0554190341
 20
52.6444300426
 30
0.0
 11
53.6754190341
 21
52.6444300426
 31
0.0
  0
LINE
  5
2EE
330
222
100
AcDbEntity
  8
02___PRT_ALL_AXES
  6
Continuous
 62
     7
100
AcDbLine
 10
93.3554190341
 20
52.6444300426
 30
0.0
 11
93.7354190341
 21
52.6444300426
 31
0.0
  0
LINE
  5
2EF
330
222
100
AcDbEntity
  8
7_ALL_FEATURES
  6
Continuous
 62
     9
100
AcDbLine
 10
93.0554190341
 20
53.1552295956
 30
0.0
 11
93.3554190341
 21
53.1552295956
 31
0.0
  0
LINE
  5
2F0
330
222
100
AcDbEntity
  8
7_ALL_FEATURES
  6
Continuous
 62
     7
100
AcDbLine
 10
54.0554190341
 20
49.6944300426
 30
0.0
 11
54.0554190341
 21
77.4944300426
 31
0.0
  0
LINE
  5
2F1
330
222
100
AcDbEntity
  8
7_ALL_FEATURES
  6
Continuous
 62
     7
100
AcDbLine
 10
54.3554190341
 20
83.8944300426
 30
0.0
 11
54.3554190341
 21
81.6944300426
 31
0.0
  0
LINE
  5
2F2
330
222
100
AcDbEntity
  8
7_ALL_FEATURES
  6
Continuous
 62
     7
100
AcDbLine
 10
54.3554190341
 20
79.6944300426
 30
0.0
 11
54.3554190341
 21
77.8944300426
 31
0.0
  0
LINE
  5
2F3
330
222
100
AcDbEntity
  8
7_ALL_FEATURES
  6
Continuous
 62
     7
100
AcDbLine
 10
54.3554190341
 20
77.4944300426
 30
0.0
 11
54.3554190341
 21
49.6944300426
 31
0.0
  0
LINE
  5
2F4
330
222
100
AcDbEntity
  8
7_ALL_FEATURES
  6
Continuous
 62
     7
100
AcDbLine
 10
57.7054190341
 20
81.6944300426
 30
0.0
 11
57.7054190341
 21
79.6944300426
 31
0.0
  0
LINE
  5
2F5
330
222
100
AcDbEntity
  8
02___PRT_ALL_AXES
  6
Continuous
 62
     7
100
AcDbLine
 10
57.7054190341
 20
77.8944300426
 30
0.0
 11
57.7054190341
 21
75.8944300426
 31
0.0
  0
LINE
  5
2F6
330
222
100
AcDbEntity
  8
02___PRT_ALL_AXES
  6
Continuous
 62
     7
100
AcDbLine
 10
57.7054190341
 20
74.0944300426
 30
0.0
 11
57.7054190341
 21
72.0944300426
 31
0.0
  0
LINE
  5
2F7
330
222
100
AcDbEntity
  8
02___PRT_ALL_AXES
  6
Continuous
 62
     7
100
AcDbLine
 10
57.7054190341
 20
70.2944300426
 30
0.0
 11
57.7054190341
 21
68.2944300426
 31
0.0
  0
LINE
  5
2F8
330
222
100
AcDbEntity
  8
02___PRT_ALL_AXES
  6
Continuous
 62
     7
100
AcDbLine
 10
54.0554190341
 20
58.1444300426
 30
0.0
 11
53.6754190341
 21
58.1444300426
 31
0.0
  0
LINE
  5
2F9
330
222
100
AcDbEntity
  8
02___PRT_ALL_AXES
  6
Continuous
 62
     7
100
AcDbLine
 10
93.3554190341
 20
58.1444300426
 30
0.0
 11
93.7354190341
 21
58.1444300426
 31
0.0
  0
LINE
  5
2FA
330
222
100
AcDbEntity
  8
02___PRT_ALL_AXES
  6
Continuous
 62
     7
100
AcDbLine
 10
66.7772158038
 20
83.8944300426
 30
0.0
 11
66.7772158038
 21
87.3944300426
 31
0.0
  0
LINE
  5
2FB
330
222
100
AcDbEntity
  8
02___PRT_ALL_AXES
  6
Continuous
 62
     7
100
AcDbLine
 10
66.7772158038
 20
90.3944300426
 30
0.0
 11
66.7772158038
 21
97.0995921442
 31
0.0
  0
LINE
  5
2FC
330
222
100
AcDbEntity
  8
02___PRT_ALL_AXES
  6
Continuous
 62
     7
100
AcDbLine
 10
67.7054190341
 20
90.3944300426
 30
0.0
 11
67.7054190341
 21
87.3944300426
 31
0.0
  0
LINE
  5
2FD
330
222
100
AcDbEntity
  8
7_ALL_FEATURES
  6
Continuous
 62
     7
100
AcDbLine
 10
54.3554190341
 20
68.2944300426
 30
0.0
 11
93.0554190341
 21
68.2944300426
 31
0.0
  0
LINE
  5
2FE
330
222
100
AcDbEntity
  8
7_ALL_FEATURES
  6
Continuous
 62
     9
100
AcDbLine
 10
54.3554190341
 20
68.3922883875
 30
0.0
 11
54.0554190341
 21
68.3922883875
 31
0.0
  0
LINE
  5
2FF
330
222
100
AcDbEntity
  8
02___PRT_ALL_AXES
  6
Continuous
 62
     7
100
AcDbLine
 10
69.3752920152
 20
96.3944300426
 30
0.0
 11
69.3752920152
 21
95.8944300426
 31
0.0
  0
LINE
  5
300
330
222
100
AcDbEntity
  8
02___PRT_ALL_AXES
  6
Continuous
 62
     7
100
AcDbLine
 10
71.1073428227
 20
96.3944300426
 30
0.0
 11
71.1073428227
 21
95.8944300426
 31
0.0
  0
LINE
  5
301
330
222
100
AcDbEntity
  8
7_ALL_FEATURES
  6
Continuous
 62
     7
100
AcDbLine
 10
93.0554190341
 20
70.2944300426
 30
0.0
 11
54.3554190341
 21
70.2944300426
 31
0.0
  0
LINE
  5
302
330
222
100
AcDbEntity
  8
7_ALL_FEATURES
  6
Continuous
 62
     9
100
AcDbLine
 10
54.3554190341
 20
70.7957002318
 30
0.0
 11
54.0554190341
 21
70.7957002318
 31
0.0
  0
LINE
  5
303
330
222
100
AcDbEntity
  8
02___PRT_ALL_AXES
  6
Continuous
 62
     9
100
AcDbLine
 10
93.3554190341
 20
71.1660634125
 30
0.0
 11
93.0554190341
 21
71.1660634125
 31
0.0
  0
LINE
  5
304
330
222
100
AcDbEntity
  8
02___PRT_ALL_AXES
  6
Continuous
 62
     7
100
AcDbLine
 10
73.7054190341
 20
83.8944300426
 30
0.0
 11
73.7054190341
 21
87.3944300426
 31
0.0
  0
LINE
  5
305
330
222
100
AcDbEntity
  8
02___PRT_ALL_AXES
  6
Continuous
 62
     7
100
AcDbLine
 10
73.7054190341
 20
90.3944300426
 30
0.0
 11
73.7054190341
 21
94.8944300426
 31
0.0
  0
LINE
  5
306
330
222
100
AcDbEntity
  8
7_ALL_FEATURES
  6
Continuous
 62
     7
100
AcDbLine
 10
54.3554190341
 20
72.0944300426
 30
0.0
 11
93.0554190341
 21
72.0944300426
 31
0.0
  0
LINE
  5
307
330
222
100
AcDbEntity
  8
7_ALL_FEATURES
  6
Continuous
 62
     7
100
AcDbLine
 10
93.0554190341
 20
74.0944300426
 30
0.0
 11
54.3554190341
 21
74.0944300426
 31
0.0
  0
LINE
  5
308
330
222
100
AcDbEntity
  8
02___PRT_ALL_AXES
  6
Continuous
 62
     7
100
AcDbLine
 10
76.3034952454
 20
96.3944300426
 30
0.0
 11
76.3034952454
 21
95.8944300426
 31
0.0
  0
LINE
  5
309
330
222
100
AcDbEntity
  8
7_ALL_FEATURES
  6
Continuous
 62
     7
100
AcDbLine
 10
54.3554190341
 20
75.8944300426
 30
0.0
 11
93.0554190341
 21
75.8944300426
 31
0.0
  0
LINE
  5
30A
330
222
100
AcDbEntity
  8
02___PRT_ALL_AXES
  6
Continuous
 62
     7
100
AcDbLine
 10
78.035546053
 20
96.3944300426
 30
0.0
 11
78.035546053
 21
95.8944300426
 31
0.0
  0
LINE
  5
30B
330
222
100
AcDbEntity
  8
02___PRT_ALL_AXES
  6
Continuous
 62
     7
100
AcDbLine
 10
93.3554190341
 20
77.4944300426
 30
0.0
 11
93.0554190341
 21
77.4944300426
 31
0.0
  0
LINE
  5
30C
330
222
100
AcDbEntity
  8
7_ALL_FEATURES
  6
Continuous
 62
     7
100
AcDbLine
 10
54.3554190341
 20
77.4944300426
 30
0.0
 11
54.0554190341
 21
77.4944300426
 31
0.0
  0
LINE
  5
30D
330
222
100
AcDbEntity
  8
7_ALL_FEATURES
  6
Continuous
 62
     7
100
AcDbLine
 10
93.0554190341
 20
77.8944300426
 30
0.0
 11
54.3554190341
 21
77.8944300426
 31
0.0
  0
LINE
  5
30E
330
222
100
AcDbEntity
  8
02___PRT_ALL_AXES
  6
Continuous
 62
     7
100
AcDbLine
 10
79.7054190341
 20
90.3944300426
 30
0.0
 11
79.7054190341
 21
87.3944300426
 31
0.0
  0
LINE
  5
30F
330
222
100
AcDbEntity
  8
02___PRT_ALL_AXES
  6
Continuous
 62
     7
100
AcDbLine
 10
80.6336222644
 20
83.8944300426
 30
0.0
 11
80.6336222644
 21
87.3944300426
 31
0.0
  0
LINE
  5
310
330
222
100
AcDbEntity
  8
02___PRT_ALL_AXES
  6
Continuous
 62
     7
100
AcDbLine
 10
80.6336222644
 20
90.3944300426
 30
0.0
 11
80.6336222644
 21
97.0995921442
 31
0.0
  0
LINE
  5
311
330
222
100
AcDbEntity
  8
7_ALL_FEATURES
  6
Continuous
 62
     7
100
AcDbLine
 10
54.3554190341
 20
79.6944300426
 30
0.0
 11
93.0554190341
 21
79.6944300426
 31
0.0
  0
LINE
  5
312
330
222
100
AcDbEntity
  8
7_ALL_FEATURES
  6
Continuous
 62
     7
100
AcDbLine
 10
93.0554190341
 20
81.6944300426
 30
0.0
 11
54.3554190341
 21
81.6944300426
 31
0.0
  0
LINE
  5
313
330
222
100
AcDbEntity
  8
7_ALL_FEATURES
  6
Continuous
 62
     7
100
AcDbLine
 10
93.0554190341
 20
83.8944300426
 30
0.0
 11
54.3554190341
 21
83.8944300426
 31
0.0
  0
LINE
  5
314
330
222
100
AcDbEntity
  8
02___PRT_ALL_AXES
  6
Continuous
 62
     7
100
AcDbLine
 10
66.7772158038
 20
87.3944300426
 30
0.0
 11
80.6336222644
 21
87.3944300426
 31
0.0
  0
LINE
  5
315
330
222
100
AcDbEntity
  8
7_ALL_FEATURES
  6
Continuous
 62
     7
100
AcDbLine
 10
89.7054190341
 20
81.6944300426
 30
0.0
 11
89.7054190341
 21
79.6944300426
 31
0.0
  0
LINE
  5
316
330
222
100
AcDbEntity
  8
02___PRT_ALL_AXES
  6
Continuous
 62
     7
100
AcDbLine
 10
89.7054190341
 20
77.8944300426
 30
0.0
 11
89.7054190341
 21
75.8944300426
 31
0.0
  0
LINE
  5
317
330
222
100
AcDbEntity
  8
02___PRT_ALL_AXES
  6
Continuous
 62
     7
100
AcDbLine
 10
89.7054190341
 20
74.0944300426
 30
0.0
 11
89.7054190341
 21
72.0944300426
 31
0.0
  0
LINE
  5
318
330
222
100
AcDbEntity
  8
02___PRT_ALL_AXES
  6
Continuous
 62
     7
100
AcDbLine
 10
89.7054190341
 20
70.2944300426
 30
0.0
 11
89.7054190341
 21
68.2944300426
 31
0.0
  0
LINE
  5
319
330
222
100
AcDbEntity
  8
02___PRT_ALL_AXES
  6
Continuous
 62
     7
100
AcDbLine
 10
66.7772158038
 20
90.3944300426
 30
0.0
 11
80.6336222644
 21
90.3944300426
 31
0.0
  0
LINE
  5
31A
330
222
100
AcDbEntity
  8
7_ALL_FEATURES
  6
Continuous
 62
     7
100
AcDbLine
 10
93.0554190341
 20
83.8944300426
 30
0.0
 11
93.0554190341
 21
81.6944300426
 31
0.0
  0
LINE
  5
31B
330
222
100
AcDbEntity
  8
7_ALL_FEATURES
  6
Continuous
 62
     7
100
AcDbLine
 10
93.0554190341
 20
79.6944300426
 30
0.0
 11
93.0554190341
 21
77.8944300426
 31
0.0
  0
LINE
  5
31C
330
222
100
AcDbEntity
  8
7_ALL_FEATURES
  6
Continuous
 62
     7
100
AcDbLine
 10
93.0554190341
 20
49.6944300426
 30
0.0
 11
93.0554190341
 21
71.1660634125
 31
0.0
  0
LINE
  5
31D
330
222
100
AcDbEntity
  8
02___PRT_ALL_AXES
  6
Continuous
 62
     7
100
AcDbLine
 10
93.0554190341
 20
71.1660634125
 30
0.0
 11
93.0554190341
 21
77.4944300426
 31
0.0
  0
LINE
  5
31E
330
222
100
AcDbEntity
  8
7_ALL_FEATURES
  6
Continuous
 62
     7
100
AcDbLine
 10
93.3554190341
 20
49.6944300426
 30
0.0
 11
93.3554190341
 21
71.1660634125
 31
0.0
  0
LINE
  5
31F
330
222
100
AcDbEntity
  8
02___PRT_ALL_AXES
  6
Continuous
 62
     7
100
AcDbLine
 10
93.3554190341
 20
71.1660634125
 30
0.0
 11
93.3554190341
 21
77.4944300426
 31
0.0
  0
LINE
  5
320
330
222
100
AcDbEntity
  8
02___PRT_ALL_AXES
  6
Continuous
 62
     7
100
AcDbLine
 10
93.7354190341
 20
52.6444300426
 30
0.0
 11
93.7354190341
 21
58.1444300426
 31
0.0
  0
LINE
  5
321
330
222
100
AcDbEntity
  8
02___PRT_ALL_AXES
  6
Continuous
 62
     7
100
AcDbLine
 10
95.0054190341
 20
53.7394300426
 30
0.0
 11
95.0054190341
 21
57.0494300426
 31
0.0
  0
LINE
  5
322
330
222
100
AcDbEntity
  8
02___PRT_ALL_AXES
  6
Continuous
 62
     7
100
AcDbLine
 10
76.3034952454
 20
95.8944300426
 30
0.0
 11
71.1073428227
 21
95.8944300426
 31
0.0
  0
LINE
  5
323
330
222
100
AcDbEntity
  8
02___PRT_ALL_AXES
  6
Continuous
 62
     7
100
AcDbLine
 10
69.3752920152
 20
95.8944300426
 30
0.0
 11
66.7772158038
 21
95.8944300426
 31
0.0
  0
LINE
  5
324
330
222
100
AcDbEntity
  8
02___PRT_ALL_AXES
  6
Continuous
 62
     7
100
AcDbLine
 10
78.035546053
 20
95.8944300426
 30
0.0
 11
80.6336222644
 21
95.8944300426
 31
0.0
  0
LINE
  5
325
330
222
100
AcDbEntity
  8
02___PRT_ALL_AXES
  6
Continuous
 62
     9
100
AcDbLine
 10
69.3752920152
 20
96.3944300426
 30
0.0
 11
66.7772158038
 21
96.3944300426
 31
0.0
  0
LINE
  5
326
330
222
100
AcDbEntity
  8
02___PRT_ALL_AXES
  6
Continuous
 62
     9
100
AcDbLine
 10
71.1073428227
 20
96.3944300426
 30
0.0
 11
76.3034952454
 21
96.3944300426
 31
0.0
  0
LINE
  5
327
330
222
100
AcDbEntity
  8
02___PRT_ALL_AXES
  6
Continuous
 62
     9
100
AcDbLine
 10
78.035546053
 20
96.3944300426
 30
0.0
 11
80.6336222644
 21
96.3944300426
 31
0.0
  0
LINE
  5
328
330
222
100
AcDbEntity
  8
7_ALL_FEATURES
  6
Continuous
 62
     7
100
AcDbLine
 10
101.2054190341
 20
48.8944300426
 30
0.0
 11
101.2054190341
 21
48.0944300426
 31
0.0
  0
LINE
  5
329
330
222
100
AcDbEntity
  8
0
  6
Continuous
 62
     7
100
AcDbLine
 10
101.2054190341
 20
48.8944300426
 30
0.0
 11
101.2054190341
 21
49.6944300426
 31
0.0
  0
LINE
  5
32A
330
222
100
AcDbEntity
  8
02___PRT_ALL_AXES
  6
Continuous
 62
     7
100
AcDbLine
 10
77.2054190341
 20
99.8944300426
 30
0.0
 11
70.2054190341
 21
99.8944300426
 31
0.0
  0
LINE
  5
32B
330
222
100
AcDbEntity
  8
7_ALL_FEATURES
  6
Continuous
 62
     7
100
AcDbLine
 10
77.2054190341
 20
99.8944300426
 30
0.0
 11
70.2054190341
 21
99.8944300426
 31
0.0
  0
LINE
  5
32C
330
222
100
AcDbEntity
  8
02___PRT_ALL_AXES
  6
Continuous
 62
     7
100
AcDbLine
 10
54.0554190341
 20
176.060102983
 30
0.0
 11
54.3554190341
 21
176.060102983
 31
0.0
  0
LINE
  5
32D
330
222
100
AcDbEntity
  8
02___PRT_ALL_AXES
  6
Continuous
 62
     9
100
AcDbLine
 10
54.0554190341
 20
177.7557837109
 30
0.0
 11
54.3554190341
 21
177.7557837109
 31
0.0
  0
LINE
  5
32E
330
222
100
AcDbEntity
  8
7_ALL_FEATURES
  6
Continuous
 62
     7
100
AcDbLine
 10
46.2054190341
 20
248.560102983
 30
0.0
 11
46.2054190341
 21
193.560102983
 31
0.0
  0
LINE
  5
32F
330
222
100
AcDbEntity
  8
7_ALL_FEATURES
  6
Continuous
 62
     7
100
AcDbLine
 10
46.2054190341
 20
193.560102983
 30
0.0
 11
101.2054190341
 21
193.560102983
 31
0.0
  0
LINE
  5
330
330
222
100
AcDbEntity
  8
7_ALL_FEATURES
  6
Continuous
 62
     7
100
AcDbLine
 10
54.0554190341
 20
193.560102983
 30
0.0
 11
54.0554190341
 21
177.7557837109
 31
0.0
  0
LINE
  5
331
330
222
100
AcDbEntity
  8
02___PRT_ALL_AXES
  6
Continuous
 62
     7
100
AcDbLine
 10
54.0554190341
 20
177.7557837109
 30
0.0
 11
54.0554190341
 21
176.060336886
 31
0.0
  0
LINE
  5
332
330
222
100
AcDbEntity
  8
7_ALL_FEATURES
  6
Continuous
 62
     7
100
AcDbLine
 10
54.3554190341
 20
193.560102983
 30
0.0
 11
54.3554190341
 21
177.7557837109
 31
0.0
  0
LINE
  5
333
330
222
100
AcDbEntity
  8
02___PRT_ALL_AXES
  6
Continuous
 62
     7
100
AcDbLine
 10
54.3554190341
 20
177.7557837109
 30
0.0
 11
54.3554190341
 21
176.060336886
 31
0.0
  0
LINE
  5
334
330
222
100
AcDbEntity
  8
7_ALL_FEATURES
  6
Continuous
 62
     7
100
AcDbLine
 10
65.4554190341
 20
229.310102983
 30
0.0
 11
65.4554190341
 21
212.810102983
 31
0.0
  0
LINE
  5
335
330
222
100
AcDbEntity
  8
7_ALL_FEATURES
  6
Continuous
 62
     7
100
AcDbLine
 10
65.4554190341
 20
212.810102983
 30
0.0
 11
81.9554190341
 21
212.810102983
 31
0.0
  0
LINE
  5
336
330
222
100
AcDbEntity
  8
7_ALL_FEATURES
  6
Continuous
 62
     7
100
AcDbLine
 10
81.9554190341
 20
212.810102983
 30
0.0
 11
81.9554190341
 21
229.310102983
 31
0.0
  0
LINE
  5
337
330
222
100
AcDbEntity
  8
7_ALL_FEATURES
  6
Continuous
 62
     7
100
AcDbLine
 10
81.9554190341
 20
229.310102983
 30
0.0
 11
65.4554190341
 21
229.310102983
 31
0.0
  0
LINE
  5
338
330
222
100
AcDbEntity
  8
7_ALL_FEATURES
  6
Continuous
 62
     7
100
AcDbLine
 10
93.0554190341
 20
248.560102983
 30
0.0
 11
93.0554190341
 21
264.364422255
 31
0.0
  0
LINE
  5
339
330
222
100
AcDbEntity
  8
02___PRT_ALL_AXES
  6
Continuous
 62
     7
100
AcDbLine
 10
93.0554190341
 20
264.364422255
 30
0.0
 11
93.0554190341
 21
266.0598690799
 31
0.0
  0
LINE
  5
33A
330
222
100
AcDbEntity
  8
7_ALL_FEATURES
  6
Continuous
 62
     7
100
AcDbLine
 10
93.3554190341
 20
248.560102983
 30
0.0
 11
93.3554190341
 21
264.364422255
 31
0.0
  0
LINE
  5
33B
330
222
100
AcDbEntity
  8
02___PRT_ALL_AXES
  6
Continuous
 62
     7
100
AcDbLine
 10
93.3554190341
 20
264.364422255
 30
0.0
 11
93.3554190341
 21
266.0598690799
 31
0.0
  0
LINE
  5
33C
330
222
100
AcDbEntity
  8
7_ALL_FEATURES
  6
Continuous
 62
     7
100
AcDbLine
 10
101.2054190341
 20
193.560102983
 30
0.0
 11
101.2054190341
 21
248.560102983
 31
0.0
  0
LINE
  5
33D
330
222
100
AcDbEntity
  8
7_ALL_FEATURES
  6
Continuous
 62
     7
100
AcDbLine
 10
101.2054190341
 20
248.560102983
 30
0.0
 11
46.2054190341
 21
248.560102983
 31
0.0
  0
LINE
  5
33E
330
222
100
AcDbEntity
  8
02___PRT_ALL_AXES
  6
Continuous
 62
     9
100
AcDbLine
 10
93.3554190341
 20
264.364422255
 30
0.0
 11
93.0554190341
 21
264.364422255
 31
0.0
  0
LINE
  5
33F
330
222
100
AcDbEntity
  8
02___PRT_ALL_AXES
  6
Continuous
 62
     7
100
AcDbLine
 10
93.3554190341
 20
266.060102983
 30
0.0
 11
93.0554190341
 21
266.060102983
 31
0.0
  0
LINE
  5
340
330
222
100
AcDbEntity
  8
0
  6
Continuous
 62
     7
100
AcDbLine
 10
224.0916992187
 20
193.560102983
 30
0.0
 11
223.2916992187
 21
193.560102983
 31
0.0
  0
LINE
  5
341
330
222
100
AcDbEntity
  8
7_ALL_FEATURES
  6
Continuous
 62
     7
100
AcDbLine
 10
224.0916992187
 20
193.560102983
 30
0.0
 11
224.8916992187
 21
193.560102983
 31
0.0
  0
LINE
  5
342
330
222
100
AcDbEntity
  8
02___PRT_ALL_AXES
  6
Continuous
 62
     7
100
AcDbLine
 10
173.0916992187
 20
219.560102983
 30
0.0
 11
173.0916992187
 21
212.560102983
 31
0.0
  0
LINE
  5
343
330
222
100
AcDbEntity
  8
7_ALL_FEATURES
  6
Continuous
 62
     7
100
AcDbLine
 10
173.0916992187
 20
219.560102983
 30
0.0
 11
173.0916992187
 21
212.560102983
 31
0.0
  0
LINE
  5
344
330
222
100
AcDbEntity
  8
02___PRT_ALL_AXES
  6
Continuous
 62
     7
100
AcDbLine
 10
177.0916992187
 20
209.060102983
 30
0.0
 11
178.0916992187
 21
208.060102983
 31
0.0
  0
LINE
  5
345
330
222
100
AcDbEntity
  8
02___PRT_ALL_AXES
  6
Continuous
 62
     9
100
AcDbLine
 10
176.5916992187
 20
223.060102983
 30
0.0
 11
176.5916992187
 21
222.560102983
 31
0.0
  0
LINE
  5
346
330
222
100
AcDbEntity
  8
02___PRT_ALL_AXES
  6
Continuous
 62
     9
100
AcDbLine
 10
176.5916992187
 20
221.560102983
 30
0.0
 11
176.5916992187
 21
217.060102983
 31
0.0
  0
LINE
  5
347
330
222
100
AcDbEntity
  8
02___PRT_ALL_AXES
  6
Continuous
 62
     9
100
AcDbLine
 10
176.5916992187
 20
215.060102983
 30
0.0
 11
176.5916992187
 21
210.560102983
 31
0.0
  0
LINE
  5
348
330
222
100
AcDbEntity
  8
02___PRT_ALL_AXES
  6
Continuous
 62
     9
100
AcDbLine
 10
176.5916992187
 20
209.560102983
 30
0.0
 11
176.5916992187
 21
209.060102983
 31
0.0
  0
LINE
  5
349
330
222
100
AcDbEntity
  8
02___PRT_ALL_AXES
  6
Continuous
 62
     7
100
AcDbLine
 10
177.0916992187
 20
223.060102983
 30
0.0
 11
177.0916992187
 21
222.560102983
 31
0.0
  0
LINE
  5
34A
330
222
100
AcDbEntity
  8
02___PRT_ALL_AXES
  6
Continuous
 62
     7
100
AcDbLine
 10
177.0916992187
 20
221.560102983
 30
0.0
 11
177.0916992187
 21
217.060102983
 31
0.0
  0
LINE
  5
34B
330
222
100
AcDbEntity
  8
02___PRT_ALL_AXES
  6
Continuous
 62
     7
100
AcDbLine
 10
177.0916992187
 20
215.060102983
 30
0.0
 11
177.0916992187
 21
210.560102983
 31
0.0
  0
LINE
  5
34C
330
222
100
AcDbEntity
  8
02___PRT_ALL_AXES
  6
Continuous
 62
     7
100
AcDbLine
 10
177.0916992187
 20
209.560102983
 30
0.0
 11
177.0916992187
 21
209.060102983
 31
0.0
  0
LINE
  5
34D
330
222
100
AcDbEntity
  8
02___PRT_ALL_AXES
  6
Continuous
 62
     7
100
AcDbLine
 10
177.0916992187
 20
223.060102983
 30
0.0
 11
178.0916992187
 21
224.060102983
 31
0.0
  0
LINE
  5
34E
330
222
100
AcDbEntity
  8
02___PRT_ALL_AXES
  6
Continuous
 62
     7
100
AcDbLine
 10
189.0916992187
 20
201.060102983
 30
0.0
 11
191.2916992187
 21
201.060102983
 31
0.0
  0
LINE
  5
34F
330
222
100
AcDbEntity
  8
02___PRT_ALL_AXES
  6
Continuous
 62
     7
100
AcDbLine
 10
193.2916992187
 20
201.060102983
 30
0.0
 11
195.0916992187
 21
201.060102983
 31
0.0
  0
LINE
  5
350
330
222
100
AcDbEntity
  8
02___PRT_ALL_AXES
  6
Continuous
 62
     7
100
AcDbLine
 10
215.2748208539
 20
201.060102983
 30
0.0
 11
223.2916992187
 21
201.060102983
 31
0.0
  0
LINE
  5
351
330
222
100
AcDbEntity
  8
02___PRT_ALL_AXES
  6
Continuous
 62
     7
100
AcDbLine
 10
182.5916992187
 20
208.060102983
 30
0.0
 11
182.5916992187
 21
224.060102983
 31
0.0
  0
LINE
  5
352
330
222
100
AcDbEntity
  8
02___PRT_ALL_AXES
  6
Continuous
 62
     7
100
AcDbLine
 10
185.5916992187
 20
208.060102983
 30
0.0
 11
185.5916992187
 21
224.060102983
 31
0.0
  0
LINE
  5
353
330
222
100
AcDbEntity
  8
02___PRT_ALL_AXES
  6
Continuous
 62
     7
100
AcDbLine
 10
197.0916992187
 20
205.060102983
 30
0.0
 11
195.0916992187
 21
205.060102983
 31
0.0
  0
LINE
  5
354
330
222
100
AcDbEntity
  8
7_ALL_FEATURES
  6
Continuous
 62
     7
100
AcDbLine
 10
193.2916992187
 20
205.060102983
 30
0.0
 11
191.2916992187
 21
205.060102983
 31
0.0
  0
LINE
  5
355
330
222
100
AcDbEntity
  8
02___PRT_ALL_AXES
  6
Continuous
 62
     7
100
AcDbLine
 10
189.0916992187
 20
208.060102983
 30
0.0
 11
185.5916992187
 21
208.060102983
 31
0.0
  0
LINE
  5
356
330
222
100
AcDbEntity
  8
02___PRT_ALL_AXES
  6
Continuous
 62
     7
100
AcDbLine
 10
182.5916992187
 20
208.060102983
 30
0.0
 11
178.0916992187
 21
208.060102983
 31
0.0
  0
LINE
  5
357
330
222
100
AcDbEntity
  8
02___PRT_ALL_AXES
  6
Continuous
 62
     7
100
AcDbLine
 10
176.5916992187
 20
209.060102983
 30
0.0
 11
177.0916992187
 21
209.060102983
 31
0.0
  0
LINE
  5
358
330
222
100
AcDbEntity
  8
02___PRT_ALL_AXES
  6
Continuous
 62
     7
100
AcDbLine
 10
176.5916992187
 20
209.560102983
 30
0.0
 11
177.0916992187
 21
209.560102983
 31
0.0
  0
LINE
  5
359
330
222
100
AcDbEntity
  8
02___PRT_ALL_AXES
  6
Continuous
 62
     7
100
AcDbLine
 10
185.5916992187
 20
210.060102983
 30
0.0
 11
182.5916992187
 21
210.060102983
 31
0.0
  0
LINE
  5
35A
330
222
100
AcDbEntity
  8
02___PRT_ALL_AXES
  6
Continuous
 62
     7
100
AcDbLine
 10
176.5916992187
 20
210.560102983
 30
0.0
 11
177.0916992187
 21
210.560102983
 31
0.0
  0
LINE
  5
35B
330
222
100
AcDbEntity
  8
7_ALL_FEATURES
  6
Continuous
 62
     7
100
AcDbLine
 10
189.0916992187
 20
201.0602748191
 30
0.0
 11
189.0916992187
 21
241.0599311468
 31
0.0
  0
LINE
  5
35C
330
222
100
AcDbEntity
  8
7_ALL_FEATURES
  6
Continuous
 62
     7
100
AcDbLine
 10
191.2916992187
 20
201.0602748191
 30
0.0
 11
191.2916992187
 21
241.0599311468
 31
0.0
  0
LINE
  5
35D
330
222
100
AcDbEntity
  8
02___PRT_ALL_AXES
  6
Continuous
 62
     7
100
AcDbLine
 10
189.0916992187
 20
212.060102983
 30
0.0
 11
185.5916992187
 21
212.060102983
 31
0.0
  0
LINE
  5
35E
330
222
100
AcDbEntity
  8
02___PRT_ALL_AXES
  6
Continuous
 62
     7
100
AcDbLine
 10
182.5916992187
 20
212.060102983
 30
0.0
 11
178.0916992187
 21
212.060102983
 31
0.0
  0
LINE
  5
35F
330
222
100
AcDbEntity
  8
7_ALL_FEATURES
  6
Continuous
 62
     7
100
AcDbLine
 10
193.2916992187
 20
201.0602748191
 30
0.0
 11
193.2916992187
 21
241.0599311468
 31
0.0
  0
LINE
  5
360
330
222
100
AcDbEntity
  8
7_ALL_FEATURES
  6
Continuous
 62
     7
100
AcDbLine
 10
195.0916992187
 20
201.0602748191
 30
0.0
 11
195.0916992187
 21
241.0599311468
 31
0.0
  0
LINE
  5
361
330
222
100
AcDbEntity
  8
7_ALL_FEATURES
  6
Continuous
 62
     7
100
AcDbLine
 10
195.4916992187
 20
262.6687415271
 30
0.0
 11
195.4916992187
 21
252.7229344089
 31
0.0
  0
LINE
  5
362
330
222
100
AcDbEntity
  8
7_ALL_FEATURES
  6
Continuous
 62
     7
100
AcDbLine
 10
195.4916992187
 20
179.4514644389
 30
0.0
 11
195.4916992187
 21
189.397271557
 31
0.0
  0
LINE
  5
363
330
222
100
AcDbEntity
  8
02___PRT_ALL_AXES
  6
Continuous
 62
     7
100
AcDbLine
 10
176.5916992187
 20
215.060102983
 30
0.0
 11
177.0916992187
 21
215.060102983
 31
0.0
  0
LINE
  5
364
330
222
100
AcDbEntity
  8
7_ALL_FEATURES
  6
Continuous
 62
     7
100
AcDbLine
 10
189.0916992187
 20
216.0026826919
 30
0.0
 11
191.2916992187
 21
216.0026826919
 31
0.0
  0
LINE
  5
365
330
222
100
AcDbEntity
  8
7_ALL_FEATURES
  6
Continuous
 62
     7
100
AcDbLine
 10
193.2916992187
 20
216.0026826919
 30
0.0
 11
195.0916992187
 21
216.0026826919
 31
0.0
  0
LINE
  5
366
330
222
100
AcDbEntity
  8
7_ALL_FEATURES
  6
Continuous
 62
     7
100
AcDbLine
 10
197.0916992187
 20
216.0026826919
 30
0.0
 11
198.8916992187
 21
216.0026826919
 31
0.0
  0
LINE
  5
367
330
222
100
AcDbEntity
  8
7_ALL_FEATURES
  6
Continuous
 62
     7
100
AcDbLine
 10
200.8916992187
 20
216.0026826919
 30
0.0
 11
202.6916992187
 21
216.0026826919
 31
0.0
  0
LINE
  5
368
330
222
100
AcDbEntity
  8
7_ALL_FEATURES
  6
Continuous
 62
     7
100
AcDbLine
 10
223.2916992187
 20
216.810102983
 30
0.0
 11
222.7416992187
 21
216.810102983
 31
0.0
  0
LINE
  5
369
330
222
100
AcDbEntity
  8
02___PRT_ALL_AXES
  6
Continuous
 62
     7
100
AcDbLine
 10
176.5916992187
 20
217.060102983
 30
0.0
 11
177.0916992187
 21
217.060102983
 31
0.0
  0
LINE
  5
36A
330
222
100
AcDbEntity
  8
0
  6
Continuous
 62
     7
100
AcDbLine
 10
222.4916992187
 20
217.060102983
 30
0.0
 11
223.2916992187
 21
217.060102983
 31
0.0
  0
LINE
  5
36B
330
222
100
AcDbEntity
  8
7_ALL_FEATURES
  6
Continuous
 62
     7
100
AcDbLine
 10
197.0916992187
 20
201.8704241624
 30
0.0
 11
197.0916992187
 21
241.0599311468
 31
0.0
  0
LINE
  5
36C
330
222
100
AcDbEntity
  8
7_ALL_FEATURES
  6
Continuous
 62
     7
100
AcDbLine
 10
198.8916992187
 20
207.4268601949
 30
0.0
 11
198.8916992187
 21
241.0599311468
 31
0.0
  0
LINE
  5
36D
330
222
100
AcDbEntity
  8
02___PRT_ALL_AXES
  6
Continuous
 62
     7
100
AcDbLine
 10
189.0916992187
 20
220.060102983
 30
0.0
 11
185.5916992187
 21
220.060102983
 31
0.0
  0
LINE
  5
36E
330
222
100
AcDbEntity
  8
02___PRT_ALL_AXES
  6
Continuous
 62
     7
100
AcDbLine
 10
182.5916992187
 20
220.060102983
 30
0.0
 11
178.0916992187
 21
220.060102983
 31
0.0
  0
LINE
  5
36F
330
222
100
AcDbEntity
  8
7_ALL_FEATURES
  6
Continuous
 62
     7
100
AcDbLine
 10
200.8916992187
 20
211.9024348028
 30
0.0
 11
200.8916992187
 21
241.0599311468
 31
0.0
  0
LINE
  5
370
330
222
100
AcDbEntity
  8
7_ALL_FEATURES
  6
Continuous
 62
     7
100
AcDbLine
 10
202.6916992187
 20
215.2654969931
 30
0.0
 11
202.6916992187
 21
241.0599311468
 31
0.0
  0
LINE
  5
371
330
222
100
AcDbEntity
  8
02___PRT_ALL_AXES
  6
Continuous
 62
     7
100
AcDbLine
 10
176.5916992187
 20
221.560102983
 30
0.0
 11
177.0916992187
 21
221.560102983
 31
0.0
  0
LINE
  5
372
330
222
100
AcDbEntity
  8
02___PRT_ALL_AXES
  6
Continuous
 62
     7
100
AcDbLine
 10
185.5916992187
 20
222.060102983
 30
0.0
 11
182.5916992187
 21
222.060102983
 31
0.0
  0
LINE
  5
373
330
222
100
AcDbEntity
  8
02___PRT_ALL_AXES
  6
Continuous
 62
     7
100
AcDbLine
 10
176.5916992187
 20
222.560102983
 30
0.0
 11
177.0916992187
 21
222.560102983
 31
0.0
  0
LINE
  5
374
330
222
100
AcDbEntity
  8
02___PRT_ALL_AXES
  6
Continuous
 62
     7
100
AcDbLine
 10
176.5916992187
 20
223.060102983
 30
0.0
 11
177.0916992187
 21
223.060102983
 31
0.0
  0
LINE
  5
375
330
222
100
AcDbEntity
  8
02___PRT_ALL_AXES
  6
Continuous
 62
     7
100
AcDbLine
 10
189.0916992187
 20
224.060102983
 30
0.0
 11
185.5916992187
 21
224.060102983
 31
0.0
  0
LINE
  5
376
330
222
100
AcDbEntity
  8
02___PRT_ALL_AXES
  6
Continuous
 62
     7
100
AcDbLine
 10
182.5916992187
 20
224.060102983
 30
0.0
 11
178.0916992187
 21
224.060102983
 31
0.0
  0
LINE
  5
377
330
222
100
AcDbEntity
  8
7_ALL_FEATURES
  6
Continuous
 62
     7
100
AcDbLine
 10
204.6916992187
 20
218.7065583458
 30
0.0
 11
204.6916992187
 21
241.0599311468
 31
0.0
  0
LINE
  5
378
330
222
100
AcDbEntity
  8
7_ALL_FEATURES
  6
Continuous
 62
     7
100
AcDbLine
 10
202.1904290295
 20
214.397271557
 30
0.0
 11
204.5938408739
 21
218.560102983
 31
0.0
  0
LINE
  5
379
330
222
100
AcDbEntity
  8
0
  6
Continuous
 62
     7
100
AcDbLine
 10
223.2916992187
 20
225.060102983
 30
0.0
 11
222.4916992187
 21
225.060102983
 31
0.0
  0
LINE
  5
37A
330
222
100
AcDbEntity
  8
7_ALL_FEATURES
  6
Continuous
 62
     7
100
AcDbLine
 10
222.7416992187
 20
225.310102983
 30
0.0
 11
223.2916992187
 21
225.310102983
 31
0.0
  0
LINE
  5
37B
330
222
100
AcDbEntity
  8
7_ALL_FEATURES
  6
Continuous
 62
     7
100
AcDbLine
 10
189.0916992187
 20
226.117523274
 30
0.0
 11
191.2916992187
 21
226.117523274
 31
0.0
  0
LINE
  5
37C
330
222
100
AcDbEntity
  8
7_ALL_FEATURES
  6
Continuous
 62
     7
100
AcDbLine
 10
193.2916992187
 20
226.117523274
 30
0.0
 11
195.0916992187
 21
226.117523274
 31
0.0
  0
LINE
  5
37D
330
222
100
AcDbEntity
  8
7_ALL_FEATURES
  6
Continuous
 62
     7
100
AcDbLine
 10
197.0916992187
 20
226.117523274
 30
0.0
 11
198.8916992187
 21
226.117523274
 31
0.0
  0
LINE
  5
37E
330
222
100
AcDbEntity
  8
7_ALL_FEATURES
  6
Continuous
 62
     7
100
AcDbLine
 10
200.8916992187
 20
226.117523274
 30
0.0
 11
202.6916992187
 21
226.117523274
 31
0.0
  0
LINE
  5
37F
330
222
100
AcDbEntity
  8
7_ALL_FEATURES
  6
Continuous
 62
     7
100
AcDbLine
 10
204.6916992187
 20
226.117523274
 30
0.0
 11
212.3947593981
 21
226.117523274
 31
0.0
  0
LINE
  5
380
330
222
100
AcDbEntity
  8
7_ALL_FEATURES
  6
Continuous
 62
     7
100
AcDbLine
 10
217.5916992187
 20
222.2148035213
 30
0.0
 11
216.5916992187
 21
221.6374532521
 31
0.0
  0
LINE
  5
381
330
222
100
AcDbEntity
  8
7_ALL_FEATURES
  6
Continuous
 62
     7
100
AcDbLine
 10
217.5916992187
 20
219.9054024446
 30
0.0
 11
218.5916992187
 21
220.4827527138
 31
0.0
  0
LINE
  5
382
330
222
100
AcDbEntity
  8
7_ALL_FEATURES
  6
Continuous
 62
     7
100
AcDbLine
 10
221.9143489496
 20
228.560102983
 30
0.0
 11
223.2916992187
 21
228.560102983
 31
0.0
  0
LINE
  5
383
330
222
100
AcDbEntity
  8
7_ALL_FEATURES
  6
Continuous
 62
     7
100
AcDbLine
 10
216.5916992187
 20
220.4827527138
 30
0.0
 11
217.5916992187
 21
219.9054024446
 31
0.0
  0
LINE
  5
384
330
222
100
AcDbEntity
  8
7_ALL_FEATURES
  6
Continuous
 62
     7
100
AcDbLine
 10
218.5916992187
 20
221.6374532521
 30
0.0
 11
217.5916992187
 21
222.2148035213
 31
0.0
  0
LINE
  5
385
330
222
100
AcDbEntity
  8
7_ALL_FEATURES
  6
Continuous
 62
     7
100
AcDbLine
 10
222.4916992187
 20
225.060102983
 30
0.0
 11
223.2916992187
 21
225.860102983
 31
0.0
  0
LINE
  5
386
330
222
100
AcDbEntity
  8
7_ALL_FEATURES
  6
Continuous
 62
     7
100
AcDbLine
 10
223.2916992187
 20
216.260102983
 30
0.0
 11
222.4916992187
 21
217.060102983
 31
0.0
  0
LINE
  5
387
330
222
100
AcDbEntity
  8
7_ALL_FEATURES
  6
Continuous
 62
     7
100
AcDbLine
 10
216.5916992187
 20
221.6374532521
 30
0.0
 11
216.5916992187
 21
220.4827527138
 31
0.0
  0
LINE
  5
388
330
222
100
AcDbEntity
  8
02___PRT_ALL_AXES
  6
Continuous
 62
     7
100
AcDbLine
 10
204.6916992187
 20
237.060102983
 30
0.0
 11
202.6916992187
 21
237.060102983
 31
0.0
  0
LINE
  5
389
330
222
100
AcDbEntity
  8
02___PRT_ALL_AXES
  6
Continuous
 62
     7
100
AcDbLine
 10
200.8916992187
 20
237.060102983
 30
0.0
 11
198.8916992187
 21
237.060102983
 31
0.0
  0
LINE
  5
38A
330
222
100
AcDbEntity
  8
02___PRT_ALL_AXES
  6
Continuous
 62
     7
100
AcDbLine
 10
197.0916992187
 20
237.060102983
 30
0.0
 11
195.0916992187
 21
237.060102983
 31
0.0
  0
LINE
  5
38B
330
222
100
AcDbEntity
  8
7_ALL_FEATURES
  6
Continuous
 62
     7
100
AcDbLine
 10
193.2916992187
 20
237.060102983
 30
0.0
 11
191.2916992187
 21
237.060102983
 31
0.0
  0
LINE
  5
38C
330
222
100
AcDbEntity
  8
7_ALL_FEATURES
  6
Continuous
 62
     7
100
AcDbLine
 10
218.5916992187
 20
220.4827527138
 30
0.0
 11
218.5916992187
 21
221.6374532521
 31
0.0
  0
LINE
  5
38D
330
222
100
AcDbEntity
  8
02___PRT_ALL_AXES
  6
Continuous
 62
     7
100
AcDbLine
 10
189.0916992187
 20
241.060102983
 30
0.0
 11
191.2916992187
 21
241.060102983
 31
0.0
  0
LINE
  5
38E
330
222
100
AcDbEntity
  8
02___PRT_ALL_AXES
  6
Continuous
 62
     7
100
AcDbLine
 10
193.2916992187
 20
241.060102983
 30
0.0
 11
195.0916992187
 21
241.060102983
 31
0.0
  0
LINE
  5
38F
330
222
100
AcDbEntity
  8
02___PRT_ALL_AXES
  6
Continuous
 62
     7
100
AcDbLine
 10
197.0916992187
 20
241.060102983
 30
0.0
 11
198.8916992187
 21
241.060102983
 31
0.0
  0
LINE
  5
390
330
222
100
AcDbEntity
  8
02___PRT_ALL_AXES
  6
Continuous
 62
     7
100
AcDbLine
 10
200.8916992187
 20
241.060102983
 30
0.0
 11
202.6916992187
 21
241.060102983
 31
0.0
  0
LINE
  5
391
330
222
100
AcDbEntity
  8
02___PRT_ALL_AXES
  6
Continuous
 62
     7
100
AcDbLine
 10
204.6916992187
 20
241.060102983
 30
0.0
 11
223.2916992187
 21
241.060102983
 31
0.0
  0
LINE
  5
392
330
222
100
AcDbEntity
  8
7_ALL_FEATURES
  6
Continuous
 62
     7
100
AcDbLine
 10
222.4916992187
 20
217.060102983
 30
0.0
 11
222.4916992187
 21
225.060102983
 31
0.0
  0
LINE
  5
393
330
222
100
AcDbEntity
  8
0
  6
Continuous
 62
     7
100
AcDbLine
 10
223.2916992187
 20
248.560102983
 30
0.0
 11
223.2916992187
 21
193.560102983
 31
0.0
  0
LINE
  5
394
330
222
100
AcDbEntity
  8
7_ALL_FEATURES
  6
Continuous
 62
     7
100
AcDbLine
 10
219.8308996657
 20
208.9514629684
 30
0.0
 11
201.8200658489
 21
177.7557837109
 31
0.0
  0
LINE
  5
395
330
222
100
AcDbEntity
  8
7_ALL_FEATURES
  6
Continuous
 62
     7
100
AcDbLine
 10
215.2748208539
 20
241.060102983
 30
0.0
 11
201.8200658489
 21
264.364422255
 31
0.0
  0
LINE
  5
396
330
222
100
AcDbEntity
  8
7_ALL_FEATURES
  6
Continuous
 62
     7
100
AcDbLine
 10
224.0916992187
 20
248.560102983
 30
0.0
 11
224.0916992187
 21
193.560102983
 31
0.0
  0
LINE
  5
397
330
222
100
AcDbEntity
  8
0
  6
Continuous
 62
     7
100
AcDbLine
 10
224.0916992187
 20
248.560102983
 30
0.0
 11
224.0916992187
 21
193.560102983
 31
0.0
  0
LINE
  5
398
330
222
100
AcDbEntity
  8
7_ALL_FEATURES
  6
Continuous
 62
     7
100
AcDbLine
 10
224.8916992187
 20
248.560102983
 30
0.0
 11
224.8916992187
 21
193.560102983
 31
0.0
  0
LINE
  5
399
330
222
100
AcDbEntity
  8
0
  6
Continuous
 62
     7
100
AcDbLine
 10
224.0916992187
 20
248.560102983
 30
0.0
 11
223.2916992187
 21
248.560102983
 31
0.0
  0
LINE
  5
39A
330
222
100
AcDbEntity
  8
7_ALL_FEATURES
  6
Continuous
 62
     7
100
AcDbLine
 10
224.0916992187
 20
248.560102983
 30
0.0
 11
224.8916992187
 21
248.560102983
 31
0.0
  0
LINE
  5
39B
330
222
100
AcDbEntity
  8
02___PRT_ALL_AXES
  6
Continuous
 62
     7
100
AcDbLine
 10
306.830916781
 20
82.3668474967
 30
0.0
 11
307.0507337789
 21
82.3046360321
 31
0.0
  0
LINE
  5
39C
330
222
100
AcDbEntity
  8
02___PRT_ALL_AXES
  6
Continuous
 62
     9
100
AcDbLine
 10
305.7999432607
 20
83.2710331491
 30
0.0
 11
306.0197602585
 21
83.2088216845
 31
0.0
  0
LINE
  5
39D
330
222
100
AcDbEntity
  8
7_ALL_FEATURES
  6
Continuous
 62
     7
100
AcDbLine
 10
283.1137503668
 20
145.9460588015
 30
0.0
 11
282.5697041321
 21
145.739280997
 31
0.0
  0
LINE
  5
39E
330
222
100
AcDbEntity
  8
0
  6
Continuous
 62
     7
100
AcDbLine
 10
283.1137503668
 20
145.9460588015
 30
0.0
 11
283.6577966015
 21
146.152836606
 31
0.0
  0
LINE
  5
39F
330
222
100
AcDbEntity
  8
7_ALL_FEATURES
  6
Continuous
 62
     7
100
AcDbLine
 10
283.958848645
 20
93.8468718213
 30
0.0
 11
324.2586315912
 21
82.4414366501
 31
0.0
  0
LINE
  5
3A0
330
222
100
AcDbEntity
  8
7_ALL_FEATURES
  6
Continuous
 62
     7
100
AcDbLine
 10
282.5697041321
 20
145.739280997
 30
0.0
 11
283.958848645
 21
93.8468718213
 31
0.0
  0
LINE
  5
3A1
330
222
100
AcDbEntity
  8
7_ALL_FEATURES
  6
Continuous
 62
     7
100
AcDbLine
 10
303.0833689184
 20
88.4343494648
 30
0.0
 11
305.7999432607
 21
83.2710331491
 31
0.0
  0
LINE
  5
3A2
330
222
100
AcDbEntity
  8
7_ALL_FEATURES
  6
Continuous
 62
     7
100
AcDbLine
 10
303.3031859162
 20
88.3721380002
 30
0.0
 11
306.0197602585
 21
83.2088216845
 31
0.0
  0
LINE
  5
3A3
330
222
100
AcDbEntity
  8
02___PRT_ALL_AXES
  6
Continuous
 62
     7
100
AcDbLine
 10
320.6546735066
 20
142.0388780479
 30
0.0
 11
319.1585463612
 21
141.4702390855
 31
0.0
  0
LINE
  5
3A4
330
222
100
AcDbEntity
  8
02___PRT_ALL_AXES
  6
Continuous
 62
     7
100
AcDbLine
 10
317.7984307744
 20
140.9532945742
 30
0.0
 11
316.5743267464
 21
140.488044514
 31
0.0
  0
LINE
  5
3A5
330
222
100
AcDbEntity
  8
02___PRT_ALL_AXES
  6
Continuous
 62
     7
100
AcDbLine
 10
315.2142111596
 20
139.9711000027
 30
0.0
 11
313.9901071316
 21
139.5058499425
 31
0.0
  0
LINE
  5
3A6
330
222
100
AcDbEntity
  8
02___PRT_ALL_AXES
  6
Continuous
 62
     7
100
AcDbLine
 10
312.6299915449
 20
138.9889054312
 30
0.0
 11
311.4058875168
 21
138.523655371
 31
0.0
  0
LINE
  5
3A7
330
222
100
AcDbEntity
  8
7_ALL_FEATURES
  6
Continuous
 62
     7
100
AcDbLine
 10
297.5775720966
 20
108.0173127229
 30
0.0
 11
309.6675069805
 21
104.5956821715
 31
0.0
  0
LINE
  5
3A8
330
222
100
AcDbEntity
  8
7_ALL_FEATURES
  6
Continuous
 62
     7
100
AcDbLine
 10
298.1216183313
 20
108.2240905274
 30
0.0
 11
309.6577760603
 21
104.9591871089
 31
0.0
  0
LINE
  5
3A9
330
222
100
AcDbEntity
  8
7_ALL_FEATURES
  6
Continuous
 62
     7
100
AcDbLine
 10
297.1608287427
 20
123.5850354756
 30
0.0
 11
297.5775720966
 21
108.0173127229
 31
0.0
  0
LINE
  5
3AA
330
222
100
AcDbEntity
  8
7_ALL_FEATURES
  6
Continuous
 62
     7
100
AcDbLine
 10
297.7146058976
 20
123.4283083426
 30
0.0
 11
298.1216183313
 21
108.2240905274
 31
0.0
  0
LINE
  5
3AB
330
222
100
AcDbEntity
  8
7_ALL_FEATURES
  6
Continuous
 62
     7
100
AcDbLine
 10
323.4135333129
 20
134.5406236303
 30
0.0
 11
322.8694870782
 21
134.3338458257
 31
0.0
  0
LINE
  5
3AC
330
222
100
AcDbEntity
  8
0
  6
Continuous
 62
     7
100
AcDbLine
 10
323.4135333129
 20
134.5406236303
 30
0.0
 11
323.9575795476
 21
134.7474014348
 31
0.0
  0
LINE
  5
3AD
330
222
100
AcDbEntity
  8
7_ALL_FEATURES
  6
Continuous
 62
     7
100
AcDbLine
 10
309.6675069805
 20
104.5956821715
 30
0.0
 11
309.2507636266
 21
120.1634049242
 31
0.0
  0
LINE
  5
3AE
330
222
100
AcDbEntity
  8
02___PRT_ALL_AXES
  6
Continuous
 62
     7
100
AcDbLine
 10
337.8741728357
 20
136.8860326938
 30
0.0
 11
337.534143939
 21
136.756796566
 31
0.0
  0
LINE
  5
3AF
330
222
100
AcDbEntity
  8
02___PRT_ALL_AXES
  6
Continuous
 62
     7
100
AcDbLine
 10
339.1685440377
 20
135.583356287
 30
0.0
 11
338.828515141
 21
135.4541201592
 31
0.0
  0
LINE
  5
3B0
330
222
100
AcDbEntity
  8
7_ALL_FEATURES
  6
Continuous
 62
     7
100
AcDbLine
 10
324.6802366322
 20
111.2739355354
 30
0.0
 11
324.5852375836
 21
111.3008216725
 31
0.0
  0
LINE
  5
3B1
330
222
100
AcDbEntity
  8
7_ALL_FEATURES
  6
Continuous
 62
     7
100
AcDbLine
 10
324.651072161
 20
112.3633935865
 30
0.0
 11
324.5560731124
 21
112.3902797237
 31
0.0
  0
LINE
  5
3B2
330
222
100
AcDbEntity
  8
7_ALL_FEATURES
  6
Continuous
 62
     7
100
AcDbLine
 10
324.651072161
 20
112.3633935865
 30
0.0
 11
324.5557411907
 21
112.4026788775
 31
0.0
  0
LINE
  5
3B3
330
222
100
AcDbEntity
  8
02___PRT_ALL_AXES
  6
Continuous
 62
     7
100
AcDbLine
 10
338.4411547068
 20
132.6149447621
 30
0.0
 11
340.0900141506
 21
133.2416332933
 31
0.0
  0
LINE
  5
3B4
330
222
100
AcDbEntity
  8
7_ALL_FEATURES
  6
Continuous
 62
     7
100
AcDbLine
 10
309.2507636266
 20
120.1634049242
 30
0.0
 11
297.1608287427
 21
123.5850354756
 31
0.0
  0
LINE
  5
3B5
330
222
100
AcDbEntity
  8
02___PRT_ALL_AXES
  6
Continuous
 62
     7
100
AcDbLine
 10
341.1858723596
 20
130.7988466308
 30
0.0
 11
340.8458434629
 21
130.669610503
 31
0.0
  0
LINE
  5
3B6
330
222
100
AcDbEntity
  8
02___PRT_ALL_AXES
  6
Continuous
 62
     7
100
AcDbLine
 10
341.2363867055
 20
128.9118499336
 30
0.0
 11
340.8963578088
 21
128.7826138057
 31
0.0
  0
LINE
  5
3B7
330
222
100
AcDbEntity
  8
7_ALL_FEATURES
  6
Continuous
 62
     7
100
AcDbLine
 10
297.5775720966
 20
108.0173127229
 30
0.0
 11
298.1216183313
 21
108.2240905274
 31
0.0
  0
LINE
  5
3B8
330
222
100
AcDbEntity
  8
7_ALL_FEATURES
  6
Continuous
 62
     7
100
AcDbLine
 10
324.0153897417
 20
132.5878635209
 30
0.0
 11
332.1886636224
 21
156.8986502
 31
0.0
  0
LINE
  5
3B9
330
222
100
AcDbEntity
  8
7_ALL_FEATURES
  6
Continuous
 62
     7
100
AcDbLine
 10
324.0331442434
 20
131.9246324024
 30
0.0
 11
332.4084806203
 21
156.8364387354
 31
0.0
  0
LINE
  5
3BA
330
222
100
AcDbEntity
  8
7_ALL_FEATURES
  6
Continuous
 62
     7
100
AcDbLine
 10
341.8106970889
 20
124.1026938041
 30
0.0
 11
340.3145699435
 21
123.5340548417
 31
0.0
  0
LINE
  5
3BB
330
222
100
AcDbEntity
  8
7_ALL_FEATURES
  6
Continuous
 62
     7
100
AcDbLine
 10
338.9544543568
 20
123.0171103304
 30
0.0
 11
337.7303503287
 21
122.5518602702
 31
0.0
  0
LINE
  5
3BC
330
222
100
AcDbEntity
  8
7_ALL_FEATURES
  6
Continuous
 62
     7
100
AcDbLine
 10
336.370234742
 20
122.0349157589
 30
0.0
 11
335.1461307139
 21
121.5696656987
 31
0.0
  0
LINE
  5
3BD
330
222
100
AcDbEntity
  8
7_ALL_FEATURES
  6
Continuous
 62
     7
100
AcDbLine
 10
333.7860151272
 20
121.0527211874
 30
0.0
 11
332.5619110991
 21
120.5874711272
 31
0.0
  0
LINE
  5
3BE
330
222
100
AcDbEntity
  8
7_ALL_FEATURES
  6
Continuous
 62
     7
100
AcDbLine
 10
324.2586315912
 20
82.4414366501
 30
0.0
 11
322.8694870782
 21
134.3338458257
 31
0.0
  0
LINE
  5
3BF
330
222
100
AcDbEntity
  8
7_ALL_FEATURES
  6
Continuous
 62
     7
100
AcDbLine
 10
324.8026778258
 20
82.6482144546
 30
0.0
 11
323.4135333129
 21
134.5406236303
 31
0.0
  0
LINE
  5
3C0
330
222
100
AcDbEntity
  8
0
  6
Continuous
 62
     7
100
AcDbLine
 10
324.8026778258
 20
82.6482144546
 30
0.0
 11
323.4135333129
 21
134.5406236303
 31
0.0
  0
LINE
  5
3C1
330
222
100
AcDbEntity
  8
0
  6
Continuous
 62
     7
100
AcDbLine
 10
325.3467240605
 20
82.8549922591
 30
0.0
 11
323.9575795476
 21
134.7474014348
 31
0.0
  0
LINE
  5
3C2
330
222
100
AcDbEntity
  8
7_ALL_FEATURES
  6
Continuous
 62
     7
100
AcDbLine
 10
324.6802366322
 20
111.2739355354
 30
0.0
 11
324.651072161
 21
112.3633935865
 31
0.0
  0
LINE
  5
3C3
330
222
100
AcDbEntity
  8
7_ALL_FEATURES
  6
Continuous
 62
     7
100
AcDbLine
 10
324.588908134
 20
111.1637058418
 30
0.0
 11
324.6802366322
 21
111.2739355354
 31
0.0
  0
LINE
  5
3C4
330
222
100
AcDbEntity
  8
7_ALL_FEATURES
  6
Continuous
 62
     7
100
AcDbLine
 10
342.066169367
 20
114.5593584182
 30
0.0
 11
340.5700422215
 21
113.9907194557
 31
0.0
  0
LINE
  5
3C5
330
222
100
AcDbEntity
  8
7_ALL_FEATURES
  6
Continuous
 62
     7
100
AcDbLine
 10
339.2099266348
 20
113.4737749444
 30
0.0
 11
337.9858226068
 21
113.0085248842
 31
0.0
  0
LINE
  5
3C6
330
222
100
AcDbEntity
  8
7_ALL_FEATURES
  6
Continuous
 62
     7
100
AcDbLine
 10
336.62570702
 20
112.4915803729
 30
0.0
 11
335.401602992
 21
112.0263303127
 31
0.0
  0
LINE
  5
3C7
330
222
100
AcDbEntity
  8
7_ALL_FEATURES
  6
Continuous
 62
     7
100
AcDbLine
 10
334.0414874052
 20
111.5093858014
 30
0.0
 11
332.8173833772
 21
111.0441357413
 31
0.0
  0
LINE
  5
3C8
330
222
100
AcDbEntity
  8
7_ALL_FEATURES
  6
Continuous
 62
     7
100
AcDbLine
 10
331.4572677904
 20
110.52719123
 30
0.0
 11
326.6455910457
 21
108.6983982158
 31
0.0
  0
LINE
  5
3C9
330
222
100
AcDbEntity
  8
7_ALL_FEATURES
  6
Continuous
 62
     7
100
AcDbLine
 10
322.8694870782
 20
134.3338458257
 30
0.0
 11
282.5697041321
 21
145.739280997
 31
0.0
  0
LINE
  5
3CA
330
222
100
AcDbEntity
  8
7_ALL_FEATURES
  6
Continuous
 62
     7
100
AcDbLine
 10
323.4135333129
 20
134.5406236303
 30
0.0
 11
283.1137503668
 21
145.9460588015
 31
0.0
  0
LINE
  5
3CB
330
222
100
AcDbEntity
  8
0
  6
Continuous
 62
     7
100
AcDbLine
 10
323.4135333129
 20
134.5406236303
 30
0.0
 11
283.1137503668
 21
145.9460588015
 31
0.0
  0
LINE
  5
3CC
330
222
100
AcDbEntity
  8
0
  6
Continuous
 62
     7
100
AcDbLine
 10
323.9575795476
 20
134.7474014348
 30
0.0
 11
283.6577966015
 21
146.152836606
 31
0.0
  0
LINE
  5
3CD
330
222
100
AcDbEntity
  8
7_ALL_FEATURES
  6
Continuous
 62
     7
100
AcDbLine
 10
331.2859538843
 20
116.9267351456
 30
0.0
 11
331.4572677904
 21
110.52719123
 31
0.0
  0
LINE
  5
3CE
330
222
100
AcDbEntity
  8
7_ALL_FEATURES
  6
Continuous
 62
     7
100
AcDbLine
 10
333.082072649
 20
122.1695268539
 30
0.0
 11
331.552755047
 21
117.6206869971
 31
0.0
  0
LINE
  5
3CF
330
222
100
AcDbEntity
  8
7_ALL_FEATURES
  6
Continuous
 62
     7
100
AcDbLine
 10
332.5619110991
 20
120.5874711272
 30
0.0
 11
332.8173833772
 21
111.0441357413
 31
0.0
  0
LINE
  5
3D0
330
222
100
AcDbEntity
  8
7_ALL_FEATURES
  6
Continuous
 62
     7
100
AcDbLine
 10
333.7860151272
 20
121.0527211874
 30
0.0
 11
334.0414874052
 21
111.5093858014
 31
0.0
  0
LINE
  5
3D1
330
222
100
AcDbEntity
  8
7_ALL_FEATURES
  6
Continuous
 62
     7
100
AcDbLine
 10
335.1461307139
 20
121.5696656987
 30
0.0
 11
335.401602992
 21
112.0263303127
 31
0.0
  0
LINE
  5
3D2
330
222
100
AcDbEntity
  8
02___PRT_ALL_AXES
  6
Continuous
 62
     7
100
AcDbLine
 10
334.8658002217
 20
104.648453104
 30
0.0
 11
333.3696730763
 21
104.0798141415
 31
0.0
  0
LINE
  5
3D3
330
222
100
AcDbEntity
  8
02___PRT_ALL_AXES
  6
Continuous
 62
     7
100
AcDbLine
 10
332.0095574895
 20
103.5628696302
 30
0.0
 11
330.7854534615
 21
103.0976195701
 31
0.0
  0
LINE
  5
3D4
330
222
100
AcDbEntity
  8
02___PRT_ALL_AXES
  6
Continuous
 62
     7
100
AcDbLine
 10
329.4253378747
 20
102.5806750587
 30
0.0
 11
328.2012338467
 21
102.1154249986
 31
0.0
  0
LINE
  5
3D5
330
222
100
AcDbEntity
  8
02___PRT_ALL_AXES
  6
Continuous
 62
     7
100
AcDbLine
 10
326.84111826
 20
101.5984804873
 30
0.0
 11
325.6170142319
 21
101.1332304271
 31
0.0
  0
LINE
  5
3D6
330
222
100
AcDbEntity
  8
7_ALL_FEATURES
  6
Continuous
 62
     7
100
AcDbLine
 10
336.370234742
 20
122.0349157589
 30
0.0
 11
336.62570702
 21
112.4915803729
 31
0.0
  0
LINE
  5
3D7
330
222
100
AcDbEntity
  8
7_ALL_FEATURES
  6
Continuous
 62
     7
100
AcDbLine
 10
336.7549637678
 20
156.8722739662
 30
0.0
 11
337.0061667385
 21
147.4884213743
 31
0.0
  0
LINE
  5
3D8
330
222
100
AcDbEntity
  8
7_ALL_FEATURES
  6
Continuous
 62
     7
100
AcDbLine
 10
337.7303503287
 20
122.5518602702
 30
0.0
 11
337.9858226068
 21
113.0085248842
 31
0.0
  0
LINE
  5
3D9
330
222
100
AcDbEntity
  8
7_ALL_FEATURES
  6
Continuous
 62
     7
100
AcDbLine
 10
338.9544543568
 20
123.0171103304
 30
0.0
 11
339.2099266348
 21
113.4737749444
 31
0.0
  0
LINE
  5
3DA
330
222
100
AcDbEntity
  8
7_ALL_FEATURES
  6
Continuous
 62
     7
100
AcDbLine
 10
340.3145699435
 20
123.5340548417
 30
0.0
 11
340.5700422215
 21
113.9907194557
 31
0.0
  0
LINE
  5
3DB
330
222
100
AcDbEntity
  8
7_ALL_FEATURES
  6
Continuous
 62
     7
100
AcDbLine
 10
341.8106970889
 20
124.1026938041
 30
0.0
 11
342.066169367
 21
114.5593584182
 31
0.0
  0
LINE
  5
3DC
330
222
100
AcDbEntity
  8
02___PRT_ALL_AXES
  6
Continuous
 62
     7
100
AcDbLine
 10
339.1766138521
 20
134.9841017272
 30
0.0
 11
338.828515141
 21
135.4541201592
 31
0.0
  0
LINE
  5
3DD
330
222
100
AcDbEntity
  8
7_ALL_FEATURES
  6
Continuous
 62
     7
100
AcDbLine
 10
324.8026778258
 20
82.6482144546
 30
0.0
 11
324.2586315912
 21
82.4414366501
 31
0.0
  0
LINE
  5
3DE
330
222
100
AcDbEntity
  8
0
  6
Continuous
 62
     7
100
AcDbLine
 10
324.8026778258
 20
82.6482144546
 30
0.0
 11
325.3467240605
 21
82.8549922591
 31
0.0
  0
LINE
  5
3DF
330
222
100
AcDbEntity
  8
02___PRT_ALL_AXES
  6
Continuous
 62
     9
100
AcDbLine
 10
332.4084806203
 20
156.8364387354
 30
0.0
 11
332.1886636224
 21
156.8986502
 31
0.0
  0
LINE
  5
3E0
330
222
100
AcDbEntity
  8
02___PRT_ALL_AXES
  6
Continuous
 62
     7
100
AcDbLine
 10
335.3721736158
 20
159.2588930923
 30
0.0
 11
335.1523566179
 21
159.3211045569
 31
0.0
  0
ARC
  5
3E1
330
222
100
AcDbEntity
  8
02___PRT_ALL_AXES
  6
Continuous
 62
     7
100
AcDbCircle
 10
77.2054190341
 20
96.3944300426
 30
0.0
 40
3.5
100
AcDbArc
 50
11.5683651059
 51
90.0
  0
ARC
  5
3E2
330
222
100
AcDbEntity
  8
02___PRT_ALL_AXES
  6
Continuous
 62
     7
100
AcDbCircle
 10
70.2054190341
 20
96.3944300426
 30
0.0
 40
3.5
100
AcDbArc
 50
90.0
 51
168.4316348941
  0
ARC
  5
3E3
330
222
100
AcDbEntity
  8
02___PRT_ALL_AXES
  6
Continuous
 62
     7
100
AcDbCircle
 10
92.5235156245
 20
55.4548594215
 30
0.0
 40
2.95
100
AcDbArc
 50
32.7198899268
 51
65.7439757901
  0
ARC
  5
3E4
330
222
100
AcDbEntity
  8
02___PRT_ALL_AXES
  6
Continuous
 62
     7
100
AcDbCircle
 10
92.5235156245
 20
55.3340006637
 30
0.0
 40
2.95
100
AcDbArc
 50
294.2560242099
 51
327.2801100731999
  0
ARC
  5
3E5
330
222
100
AcDbEntity
  8
02___PRT_ALL_AXES
  6
Continuous
 62
     7
100
AcDbCircle
 10
54.8873224436
 20
55.4548594215
 30
0.0
 40
2.95
100
AcDbArc
 50
114.2560242099
 51
147.2801100732
  0
ARC
  5
3E6
330
222
100
AcDbEntity
  8
02___PRT_ALL_AXES
  6
Continuous
 62
     7
100
AcDbCircle
 10
54.8873224436
 20
55.3340006637
 30
0.0
 40
2.95
100
AcDbArc
 50
212.7198899268
 51
245.7439757901
  0
ARC
  5
3E7
330
222
100
AcDbEntity
  8
0
  6
Continuous
 62
     7
100
AcDbCircle
 10
53.5054190341
 20
50.5944300426
 30
0.0
 40
0.9
100
AcDbArc
 50
270.0
 51
308.0505095721001
  0
ARC
  5
3E8
330
222
100
AcDbEntity
  8
0
  6
Continuous
 62
     7
100
AcDbCircle
 10
93.9054190341
 20
50.5944300426
 30
0.0
 40
0.9
100
AcDbArc
 50
231.9494904279
 51
270.0
  0
ARC
  5
3E9
330
222
100
AcDbEntity
  8
7_ALL_FEATURES
  6
Continuous
 62
     7
100
AcDbCircle
 10
245.4916992187
 20
252.7229344089
 30
0.0
 40
50.0
100
AcDbArc
 50
180.0
 51
194.4512358191
  0
ARC
  5
3EA
330
222
100
AcDbEntity
  8
7_ALL_FEATURES
  6
Continuous
 62
     7
100
AcDbCircle
 10
245.4916992187
 20
189.397271557
 30
0.0
 40
50.0
100
AcDbArc
 50
150.0
 51
180.0
  0
ARC
  5
3EB
330
222
100
AcDbEntity
  8
7_ALL_FEATURES
  6
Continuous
 62
     7
100
AcDbCircle
 10
221.9143489496
 20
208.560102983
 30
0.0
 40
20.0
100
AcDbArc
 50
90.0
 51
150.0
  0
ARC
  5
3EC
330
222
100
AcDbEntity
  8
7_ALL_FEATURES
  6
Continuous
 62
     7
100
AcDbCircle
 10
237.1514077414
 20
198.9514629684
 30
0.0
 40
20.0
100
AcDbArc
 50
133.9030972608
 51
150.0
  0
ARC
  5
3ED
330
222
100
AcDbEntity
  8
02___PRT_ALL_AXES
  6
Continuous
 62
     7
100
AcDbCircle
 10
176.5916992187
 20
212.560102983
 30
0.0
 40
3.5
100
AcDbArc
 50
180.0
 51
270.0
  0
ARC
  5
3EE
330
222
100
AcDbEntity
  8
02___PRT_ALL_AXES
  6
Continuous
 62
     7
100
AcDbCircle
 10
176.5916992187
 20
219.560102983
 30
0.0
 40
3.5
100
AcDbArc
 50
90.0
 51
180.0
  0
ARC
  5
3EF
330
222
100
AcDbEntity
  8
7_ALL_FEATURES
  6
Continuous
 62
     7
100
AcDbCircle
 10
176.5916992187
 20
219.560102983
 30
0.0
 40
3.5
100
AcDbArc
 50
90.0
 51
180.0
  0
ARC
  5
3F0
330
222
100
AcDbEntity
  8
7_ALL_FEATURES
  6
Continuous
 62
     7
100
AcDbCircle
 10
176.5916992187
 20
212.560102983
 30
0.0
 40
3.5
100
AcDbArc
 50
180.0
 51
270.0
  0
ARC
  5
3F1
330
222
100
AcDbEntity
  8
02___PRT_ALL_AXES
  6
Continuous
 62
     7
100
AcDbCircle
 10
198.8830606747
 20
262.6687415271
 30
0.0
 40
3.3913614559
100
AcDbArc
 50
30.0
 51
180.0
  0
ARC
  5
3F2
330
222
100
AcDbEntity
  8
02___PRT_ALL_AXES
  6
Continuous
 62
     7
100
AcDbCircle
 10
198.8830606747
 20
179.4514644389
 30
0.0
 40
3.3913614559
100
AcDbArc
 50
180.0
 51
330.0
  0
CIRCLE
  5
3F3
330
222
100
AcDbEntity
  8
02___PRT_ALL_AXES
  6
Continuous
 62
     7
100
AcDbCircle
 10
217.5916992187
 20
221.060102983
 30
0.0
 40
2.75
  0
CIRCLE
  5
3F4
330
222
100
AcDbEntity
  8
02___PRT_ALL_AXES
  6
Continuous
 62
     7
100
AcDbCircle
 10
217.5916992187
 20
221.060102983
 30
0.0
 40
1.655
  0
ARC
  5
3F5
330
222
100
AcDbEntity
  8
7_ALL_FEATURES
  6
Continuous
 62
     7
100
AcDbCircle
 10
308.0287050105
 20
115.8472089354
 30
0.0
 40
29.0091368926
100
AcDbArc
 50
12.3159282298
 51
23.5316940316
  0
ARC
  5
3F6
330
222
100
AcDbEntity
  8
7_ALL_FEATURES
  6
Continuous
 62
     7
100
AcDbCircle
 10
309.4656965483
 20
116.3914628739
 30
0.0
 40
28.9282068129
100
AcDbArc
 50
12.295561233
 51
27.2706250077
  0
ARC
  5
3F7
330
222
100
AcDbEntity
  8
7_ALL_FEATURES
  6
Continuous
 62
     7
100
AcDbCircle
 10
310.7550072447
 20
116.8789260402
 30
0.0
 40
28.8597665238
100
AcDbArc
 50
12.280040984
 51
30.6150381223
  0
ARC
  5
3F8
330
222
100
AcDbEntity
  8
7_ALL_FEATURES
  6
Continuous
 62
     7
100
AcDbCircle
 10
307.0911723732
 20
115.4653674928
 30
0.0
 40
28.711376562
100
AcDbArc
 50
12.2752926233
 51
20.03779193860001
  0
ARC
  5
3F9
330
222
100
AcDbEntity
  8
7_ALL_FEATURES
  6
Continuous
 62
     7
100
AcDbCircle
 10
305.8585299286
 20
114.9773872765
 30
0.0
 40
28.5806597483
100
AcDbArc
 50
12.2728866728
 51
16.0507916595
  0
ARC
  5
3FA
330
222
100
AcDbEntity
  8
7_ALL_FEATURES
  6
Continuous
 62
     7
100
AcDbCircle
 10
307.9212894614
 20
117.5633264547
 30
0.0
 40
22.723789609
100
AcDbArc
 50
43.9749086059
 51
44.9584052367
  0
ARC
  5
3FB
330
222
100
AcDbEntity
  8
7_ALL_FEATURES
  6
Continuous
 62
     7
100
AcDbCircle
 10
322.5573275038
 20
132.4584034873
 30
0.0
 40
9.6329845319
100
AcDbArc
 50
100.4032713134
 51
101.1749011927
  0
ARC
  5
3FC
330
222
100
AcDbEntity
  8
7_ALL_FEATURES
  6
Continuous
 62
     7
100
AcDbCircle
 10
313.4312382234
 20
129.0593874299
 30
0.0
 40
9.5671106424
100
AcDbArc
 50
102.0430403593
 51
103.221691674
  0
ARC
  5
3FD
330
222
100
AcDbEntity
  8
7_ALL_FEATURES
  6
Continuous
 62
     7
100
AcDbCircle
 10
320.8627455751
 20
109.5210701867
 30
0.0
 40
9.5300674019
100
AcDbArc
 50
294.9477663274
 51
299.5645686839
  0
ARC
  5
3FE
330
222
100
AcDbEntity
  8
7_ALL_FEATURES
  6
Continuous
 62
     7
100
AcDbCircle
 10
322.5298439168
 20
132.5881001014
 30
0.0
 40
9.5004206761
100
AcDbArc
 50
101.1638846104
 51
110.787256727
  0
ARC
  5
3FF
330
222
100
AcDbEntity
  8
7_ALL_FEATURES
  6
Continuous
 62
     7
100
AcDbCircle
 10
328.6366290315
 20
112.4280481067
 30
0.0
 40
9.4851460247
100
AcDbArc
 50
290.832826901
 51
299.5710954615
  0
ARC
  5
400
330
222
100
AcDbEntity
  8
7_ALL_FEATURES
  6
Continuous
 62
     7
100
AcDbCircle
 10
323.4681898019
 20
110.4636589637
 30
0.0
 40
9.4851460247
100
AcDbArc
 50
290.832826901
 51
299.5710954615
  0
ARC
  5
401
330
222
100
AcDbEntity
  8
7_ALL_FEATURES
  6
Continuous
 62
     7
100
AcDbCircle
 10
326.0524094167
 20
111.4458535352
 30
0.0
 40
9.4851460247
100
AcDbArc
 50
290.832826901
 51
299.5710954615
  0
ARC
  5
402
330
222
100
AcDbEntity
  8
7_ALL_FEATURES
  6
Continuous
 62
     7
100
AcDbCircle
 10
319.9381343917
 20
131.6303267669
 30
0.0
 40
9.4749311327
100
AcDbArc
 50
102.9076908819
 51
110.7973234516
  0
ARC
  5
403
330
222
100
AcDbEntity
  8
7_ALL_FEATURES
  6
Continuous
 62
     7
100
AcDbCircle
 10
314.7696951621
 20
129.665937624
 30
0.0
 40
9.4749311327
100
AcDbArc
 50
102.9076908819
 51
110.7973234516
  0
ARC
  5
404
330
222
100
AcDbEntity
  8
7_ALL_FEATURES
  6
Continuous
 62
     7
100
AcDbCircle
 10
317.3539147769
 20
130.6481321955
 30
0.0
 40
9.4749311327
100
AcDbArc
 50
102.9076908819
 51
110.7973234516
  0
ARC
  5
405
330
222
100
AcDbEntity
  8
7_ALL_FEATURES
  6
Continuous
 62
     7
100
AcDbCircle
 10
330.007767418
 20
112.9225561168
 30
0.0
 40
9.4602564846
100
AcDbArc
 50
290.8187590571
 51
300.460590983
  0
ARC
  5
406
330
222
100
AcDbEntity
  8
7_ALL_FEATURES
  6
Continuous
 62
     7
100
AcDbCircle
 10
321.157416713
 20
132.1125763043
 30
0.0
 40
9.4573274154
100
AcDbArc
 50
102.0208985015
 51
110.8065827588
  0
ARC
  5
407
330
222
100
AcDbEntity
  8
7_ALL_FEATURES
  6
Continuous
 62
     7
100
AcDbCircle
 10
318.5731970982
 20
131.1303817328
 30
0.0
 40
9.4573274154
100
AcDbArc
 50
102.0208985015
 51
110.8065827588
  0
ARC
  5
408
330
222
100
AcDbEntity
  8
7_ALL_FEATURES
  6
Continuous
 62
     7
100
AcDbCircle
 10
315.9889774834
 20
130.1481871613
 30
0.0
 40
9.4573274154
100
AcDbArc
 50
102.0208985015
 51
110.8065827589
  0
ARC
  5
409
330
222
100
AcDbEntity
  8
7_ALL_FEATURES
  6
Continuous
 62
     7
100
AcDbCircle
 10
322.2617725816
 20
109.9598441375
 30
0.0
 40
9.4428127824
100
AcDbArc
 50
290.8157451567001
 51
298.7116460033
  0
ARC
  5
40A
330
222
100
AcDbEntity
  8
7_ALL_FEATURES
  6
Continuous
 62
     7
100
AcDbCircle
 10
324.8459921964
 20
110.942038709
 30
0.0
 40
9.4428127824
100
AcDbArc
 50
290.8157451567001
 51
298.7116460033
  0
ARC
  5
40B
330
222
100
AcDbEntity
  8
7_ALL_FEATURES
  6
Continuous
 62
     7
100
AcDbCircle
 10
327.4302118112
 20
111.9242332805
 30
0.0
 40
9.4428127824
100
AcDbArc
 50
290.8157451567001
 51
298.7116460033
  0
ARC
  5
40C
330
222
100
AcDbEntity
  8
7_ALL_FEATURES
  6
Continuous
 62
     7
100
AcDbCircle
 10
330.0169591988
 20
112.9034963096
 30
0.0
 40
9.4391744009
100
AcDbArc
 50
285.9564902381
 51
290.8077265908
  0
ARC
  5
40D
330
222
100
AcDbEntity
  8
7_ALL_FEATURES
  6
Continuous
 62
     7
100
AcDbCircle
 10
327.432739584
 20
111.9213017381
 30
0.0
 40
9.4391744009
100
AcDbArc
 50
285.9564902381
 51
290.8077265908
  0
ARC
  5
40E
330
222
100
AcDbEntity
  8
7_ALL_FEATURES
  6
Continuous
 62
     7
100
AcDbCircle
 10
324.8485199692
 20
110.9391071666
 30
0.0
 40
9.4391744009
100
AcDbArc
 50
285.9564902381
 51
290.8077265908
  0
ARC
  5
40F
330
222
100
AcDbEntity
  8
7_ALL_FEATURES
  6
Continuous
 62
     7
100
AcDbCircle
 10
322.2646308782
 20
109.9559396444
 30
0.0
 40
9.4381474953
100
AcDbArc
 50
286.058785827
 51
290.8079491288
  0
ARC
  5
410
330
222
100
AcDbEntity
  8
7_ALL_FEATURES
  6
Continuous
 62
     7
100
AcDbCircle
 10
322.5062952412
 20
132.6626261119
 30
0.0
 40
9.4223896043
100
AcDbArc
 50
110.8142156638
 51
114.8307540496
  0
ARC
  5
411
330
222
100
AcDbEntity
  8
7_ALL_FEATURES
  6
Continuous
 62
     7
100
AcDbCircle
 10
319.9220756264
 20
131.6804315404
 30
0.0
 40
9.4223896043
100
AcDbArc
 50
110.8142156638
 51
114.8307540496
  0
ARC
  5
412
330
222
100
AcDbEntity
  8
7_ALL_FEATURES
  6
Continuous
 62
     7
100
AcDbCircle
 10
317.3378560116
 20
130.698236969
 30
0.0
 40
9.4223896043
100
AcDbArc
 50
110.8142156637
 51
114.8307540496
  0
ARC
  5
413
330
222
100
AcDbEntity
  8
7_ALL_FEATURES
  6
Continuous
 62
     7
100
AcDbCircle
 10
314.7475603748
 20
129.7309647747
 30
0.0
 40
9.4062820586
100
AcDbArc
 50
110.8119193642
 51
112.7281910034
  0
ARC
  5
414
330
222
100
AcDbEntity
  8
02___PRT_ALL_AXES
  6
Continuous
 62
     7
100
AcDbCircle
 10
335.4519733499
 20
132.4973802226
 30
0.0
 40
5.6795147289
100
AcDbArc
 50
74.1895548175
 51
78.5465075115
  0
ARC
  5
415
330
222
100
AcDbEntity
  8
02___PRT_ALL_AXES
  6
Continuous
 62
     7
100
AcDbCircle
 10
307.8812447054
 20
84.3653476901
 30
0.0
 40
2.3514548727
100
AcDbArc
 50
207.7346655957
 51
212.2391702887
  0
ARC
  5
416
330
222
100
AcDbEntity
  8
02___PRT_ALL_AXES
  6
Continuous
 62
     7
100
AcDbCircle
 10
307.4510435793
 20
83.7066758962
 30
0.0
 40
1.4582388656
100
AcDbArc
 50
243.4583590702
 51
245.1213789366
  0
ARC
  5
417
330
222
100
AcDbEntity
  8
02___PRT_ALL_AXES
  6
Continuous
 62
     7
100
AcDbCircle
 10
307.4432921076
 20
83.6896714633
 30
0.0
 40
1.4395514078
100
AcDbArc
 50
245.1165400593
 51
254.1771702256
  0
ARC
  5
418
330
222
100
AcDbEntity
  8
02___PRT_ALL_AXES
  6
Continuous
 62
     7
100
AcDbCircle
 10
334.9818852823
 20
157.8789496397
 30
0.0
 40
1.4340542727
100
AcDbArc
 50
74.224873833
 51
83.08589973069999
  0
SPLINE
  5
419
330
222
100
AcDbEntity
  8
02___PRT_ALL_AXES
  6
Continuous
 62
     7
100
AcDbSpline
 70
     0
 71
     3
 72
    11
 73
     7
 74
     0
 42
0.000000001
 43
0.0000001
 40
0.0
 40
0.0
 40
0.0
 40
0.0
 40
0.2471884812
 40
0.4961682871
 40
0.7471358372
 40
1.0
 40
1.0
 40
1.0
 40
1.0
 10
76.3034952454
 20
95.8944300426
 30
0.0
 10
76.0760197159
 20
95.8569063117
 30
0.0
 10
75.6237630146
 20
95.7530409613
 30
0.0
 10
74.9644040775
 20
95.524351558
 30
0.0
 10
74.3234925711
 20
95.2357625593
 30
0.0
 10
73.9096653242
 20
95.0123516932
 30
0.0
 10
73.7054190341
 20
94.8944300426
 30
0.0
  0
SPLINE
  5
41A
330
222
100
AcDbEntity
  8
02___PRT_ALL_AXES
  6
Continuous
 62
     7
100
AcDbSpline
 70
     0
 71
     3
 72
    19
 73
    15
 74
     0
 42
0.000000001
 43
0.0000001
 40
0.0
 40
0.0
 40
0.0
 40
0.0
 40
0.067939647
 40
0.1343369129
 40
0.1986396402
 40
0.2610648807
 40
0.3817414899
 40
0.5000607139
 40
0.6183763092
 40
0.739024176
 40
0.8014382043
 40
0.865725454
 40
0.9320917545
 40
1.0
 40
1.0
 40
1.0
 40
1.0
 10
78.035546053
 20
96.3944300426
 30
0.0
 10
78.035546053
 20
96.4503156931
 30
0.0
 10
78.0191592162
 20
96.561460658
 30
0.0
 10
77.9509844359
 20
96.7119205452
 30
0.0
 10
77.8515714011
 20
96.8376073089
 30
0.0
 10
77.6941275195
 20
96.9683491424
 30
0.0
 10
77.4641363048
 20
97.0729894473
 30
0.0
 10
77.1693710839
 20
97.1129679317
 30
0.0
 10
76.8746423602
 20
97.072903507
 30
0.0
 10
76.6447115473
 20
96.9682241039
 30
0.0
 10
76.4873324581
 20
96.8374742158
 30
0.0
 10
76.3879895322
 20
96.7117932251
 30
0.0
 10
76.319868524
 20
96.5613828338
 30
0.0
 10
76.3034952454
 20
96.4502898629
 30
0.0
 10
76.3034952454
 20
96.3944300426
 30
0.0
  0
SPLINE
  5
41B
330
222
100
AcDbEntity
  8
02___PRT_ALL_AXES
  6
Continuous
 62
     7
100
AcDbSpline
 70
     0
 71
     3
 72
    11
 73
     7
 74
     0
 42
0.000000001
 43
0.0000001
 40
0.0
 40
0.0
 40
0.0
 40
0.0
 40
0.2528641712
 40
0.5038317346
 40
0.7528115376
 40
1.0
 40
1.0
 40
1.0
 40
1.0
 10
80.6336222644
 20
94.8944300426
 30
0.0
 10
80.4293759674
 20
95.0123516971
 30
0.0
 10
80.0155487039
 20
95.2357625749
 30
0.0
 10
79.3746371794
 20
95.5243515771
 30
0.0
 10
78.7152782471
 20
95.7530409704
 30
0.0
 10
78.2630215653
 20
95.8569063145
 30
0.0
 10
78.035546053
 20
95.8944300426
 30
0.0
  0
SPLINE
  5
41C
330
222
100
AcDbEntity
  8
02___PRT_ALL_AXES
  6
Continuous
 62
     7
100
AcDbSpline
 70
     0
 71
     3
 72
    19
 73
    15
 74
     0
 42
0.000000001
 43
0.0000001
 40
0.0
 40
0.0
 40
0.0
 40
0.0
 40
0.0679313718
 40
0.134330414
 40
0.1986328954
 40
0.2610542132
 40
0.3817238737
 40
0.5000536105
 40
0.6183773004
 40
0.7390372629
 40
0.8014553941
 40
0.8657396837
 40
0.9320963707
 40
1.0
 40
1.0
 40
1.0
 40
1.0
 10
71.1073428227
 20
96.3944300426
 30
0.0
 10
71.1073428227
 20
96.4503088941
 30
0.0
 10
71.090957082
 20
96.561447906
 30
0.0
 10
71.0227917804
 20
96.7119059822
 30
0.0
 10
70.9233822178
 20
96.8375934689
 30
0.0
 10
70.7659478902
 20
96.968331819
 30
0.0
 10
70.5359632241
 20
97.0729849646
 30
0.0
 10
70.2411875541
 20
97.1129686716
 30
0.0
 10
69.9464332071
 20
97.0729048569
 30
0.0
 10
69.7164836149
 20
96.9682140744
 30
0.0
 10
69.5591026103
 20
96.837448464
 30
0.0
 10
69.4597738774
 20
96.7117655736
 30
0.0
 10
69.3916616886
 20
96.5613675865
 30
0.0
 10
69.3752920152
 20
96.4502860738
 30
0.0
 10
69.3752920152
 20
96.3944300426
 30
0.0
  0
SPLINE
  5
41D
330
222
100
AcDbEntity
  8
02___PRT_ALL_AXES
  6
Continuous
 62
     7
100
AcDbSpline
 70
     0
 71
     3
 72
    11
 73
     7
 74
     0
 42
0.000000001
 43
0.0000001
 40
0.0
 40
0.0
 40
0.0
 40
0.0
 40
0.2528641712
 40
0.5038317346
 40
0.7528115376
 40
1.0
 40
1.0
 40
1.0
 40
1.0
 10
73.7054190341
 20
94.8944300426
 30
0.0
 10
73.5011727372
 20
95.0123516971
 30
0.0
 10
73.0873454736
 20
95.2357625749
 30
0.0
 10
72.4464339491
 20
95.5243515771
 30
0.0
 10
71.7870750169
 20
95.7530409704
 30
0.0
 10
71.3348183351
 20
95.8569063145
 30
0.0
 10
71.1073428227
 20
95.8944300426
 30
0.0
  0
SPLINE
  5
41E
330
222
100
AcDbEntity
  8
02___PRT_ALL_AXES
  6
Continuous
 62
     7
100
AcDbSpline
 70
     0
 71
     3
 72
    11
 73
     7
 74
     0
 42
0.000000001
 43
0.0000001
 40
0.0
 40
0.0
 40
0.0
 40
0.0
 40
0.2471884812
 40
0.4961682871
 40
0.7471358372
 40
1.0
 40
1.0
 40
1.0
 40
1.0
 10
69.3752920152
 20
95.8944300426
 30
0.0
 10
69.1478164856
 20
95.8569063117
 30
0.0
 10
68.6955597843
 20
95.7530409613
 30
0.0
 10
68.0362008473
 20
95.524351558
 30
0.0
 10
67.3952893408
 20
95.2357625593
 30
0.0
 10
66.981462094
 20
95.0123516932
 30
0.0
 10
66.7772158038
 20
94.8944300426
 30
0.0
  0
SPLINE
  5
41F
330
222
100
AcDbEntity
  8
02___PRT_ALL_AXES
  6
Continuous
 62
     7
100
AcDbSpline
 70
     0
 71
     3
 72
    19
 73
    15
 74
     0
 42
0.000000001
 43
0.0000001
 40
0.0
 40
0.0
 40
0.0
 40
0.0
 40
0.1683075029
 40
0.2404576968
 40
0.3036660769
 40
0.4090527407
 40
0.4554823394
 40
0.5000445236
 40
0.5446094138
 40
0.5910415449
 40
0.6964181475
 40
0.7596236278
 40
0.8317654351
 40
1.0
 40
1.0
 40
1.0
 40
1.0
 10
176.5916992187
 20
210.560102983
 30
0.0
 10
176.4850888864
 20
210.560102983
 30
0.0
 10
176.3307576891
 20
210.535928056
 30
0.0
 10
176.1543597675
 20
210.4571049537
 30
0.0
 10
176.0278244467
 20
210.3711533463
 30
0.0
 10
175.9368430489
 20
210.2637089597
 30
0.0
 10
175.8933727688
 20
210.1460749418
 30
0.0
 10
175.8829985902
 20
210.0600141339
 30
0.0
 10
175.8934047208
 20
209.9739533825
 30
0.0
 10
175.9369533762
 20
209.8563520532
 30
0.0
 10
176.0279475276
 20
209.7489389676
 30
0.0
 10
176.1544936242
 20
209.6630236904
 30
0.0
 10
176.3308601612
 20
209.5842648457
 30
0.0
 10
176.4851350872
 20
209.560102983
 30
0.0
 10
176.5916992187
 20
209.560102983
 30
0.0
  0
SPLINE
  5
420
330
222
100
AcDbEntity
  8
02___PRT_ALL_AXES
  6
Continuous
 62
     7
100
AcDbSpline
 70
     0
 71
     3
 72
    11
 73
     7
 74
     0
 42
0.000000001
 43
0.0000001
 40
0.0
 40
0.0
 40
0.0
 40
0.0
 40
0.2699449571
 40
0.5270499909
 40
0.7701654741
 40
1.0
 40
1.0
 40
1.0
 40
1.0
 10
178.0916992187
 20
224.060102983
 30
0.0
 10
177.9758732538
 20
223.944277018
 30
0.0
 10
177.7568729424
 20
223.7107424034
 30
0.0
 10
177.4681142968
 20
223.3422318021
 30
0.0
 10
177.2379272967
 20
222.9622310314
 30
0.0
 10
177.1300128254
 20
222.6942006062
 30
0.0
 10
177.0916992187
 20
222.560102983
 30
0.0
  0
SPLINE
  5
421
330
222
100
AcDbEntity
  8
02___PRT_ALL_AXES
  6
Continuous
 62
     7
100
AcDbSpline
 70
     0
 71
     3
 72
    11
 73
     7
 74
     0
 42
0.000000001
 43
0.0000001
 40
0.0
 40
0.0
 40
0.0
 40
0.0
 40
0.2500103617
 40
0.5000189242
 40
0.7500124732
 40
1.0
 40
1.0
 40
1.0
 40
1.0
 10
178.0916992187
 20
220.060102983
 30
0.0
 10
177.9733628799
 20
219.8234303052
 30
0.0
 10
177.7491781444
 20
219.3436627928
 30
0.0
 10
177.4607411465
 20
218.6033720757
 30
0.0
 10
177.2323907434
 20
217.8421548061
 30
0.0
 10
177.1291170369
 20
217.3220277101
 30
0.0
 10
177.0916992187
 20
217.060102983
 30
0.0
  0
SPLINE
  5
422
330
222
100
AcDbEntity
  8
02___PRT_ALL_AXES
  6
Continuous
 62
     7
100
AcDbSpline
 70
     0
 71
     3
 72
    11
 73
     7
 74
     0
 42
0.000000001
 43
0.0000001
 40
0.0
 40
0.0
 40
0.0
 40
0.0
 40
0.2499875457
 40
0.4999810974
 40
0.7499896465
 40
1.0
 40
1.0
 40
1.0
 40
1.0
 10
177.0916992187
 20
215.060102983
 30
0.0
 10
177.1291170397
 20
214.798178236
 30
0.0
 10
177.2323907524
 20
214.2780511177
 30
0.0
 10
177.4607411655
 20
213.5168338421
 30
0.0
 10
177.7491781602
 20
212.7765431455
 30
0.0
 10
177.9733628838
 20
212.2967756528
 30
0.0
 10
178.0916992187
 20
212.060102983
 30
0.0
  0
SPLINE
  5
423
330
222
100
AcDbEntity
  8
02___PRT_ALL_AXES
  6
Continuous
 62
     7
100
AcDbSpline
 70
     0
 71
     3
 72
    19
 73
    15
 74
     0
 42
0.000000001
 43
0.0000001
 40
0.0
 40
0.0
 40
0.0
 40
0.0
 40
0.062499569
 40
0.1250450196
 40
0.1876243679
 40
0.2502137548
 40
0.3750836247
 40
0.5000591496
 40
0.6250261711
 40
0.7498800617
 40
0.8124624827
 40
0.8750225901
 40
0.9375286272
 40
1.0
 40
1.0
 40
1.0
 40
1.0
 10
176.5916992187
 20
217.060102983
 30
0.0
 10
176.535625607
 20
217.060102983
 30
0.0
 10
176.4226365131
 20
217.0405938679
 30
0.0
 10
176.2719141299
 20
216.9608098978
 30
0.0
 10
176.146864421
 20
216.8457504433
 30
0.0
 10
176.015698555
 20
216.6623067436
 30
0.0
 10
175.9125678037
 20
216.3969068062
 30
0.0
 10
175.8733113811
 20
216.0599490951
 30
0.0
 10
175.9126490932
 20
215.723017262
 30
0.0
 10
176.015817411
 20
215.4576630753
 30
0.0
 10
176.1470085673
 20
215.2742814481
 30
0.0
 10
176.2720585965
 20
215.1593106781
 30
0.0
 10
176.4227226998
 20
215.0795929024
 30
0.0
 10
176.5356509042
 20
215.060102983
 30
0.0
 10
176.5916992187
 20
215.060102983
 30
0.0
  0
SPLINE
  5
424
330
222
100
AcDbEntity
  8
02___PRT_ALL_AXES
  6
Continuous
 62
     7
100
AcDbSpline
 70
     0
 71
     3
 72
    11
 73
     7
 74
     0
 42
0.000000001
 43
0.0000001
 40
0.0
 40
0.0
 40
0.0
 40
0.0
 40
0.2699449571
 40
0.5270499909
 40
0.7701654741
 40
1.0
 40
1.0
 40
1.0
 40
1.0
 10
178.0916992187
 20
212.060102983
 30
0.0
 10
177.9758732538
 20
211.944277018
 30
0.0
 10
177.7568729424
 20
211.7107424034
 30
0.0
 10
177.4681142968
 20
211.3422318021
 30
0.0
 10
177.2379272967
 20
210.9622310314
 30
0.0
 10
177.1300128254
 20
210.6942006062
 30
0.0
 10
177.0916992187
 20
210.560102983
 30
0.0
  0
SPLINE
  5
425
330
222
100
AcDbEntity
  8
02___PRT_ALL_AXES
  6
Continuous
 62
     7
100
AcDbSpline
 70
     0
 71
     3
 72
    11
 73
     7
 74
     0
 42
0.000000001
 43
0.0000001
 40
0.0
 40
0.0
 40
0.0
 40
0.0
 40
0.2298345438
 40
0.4729500311
 40
0.7300550521
 40
1.0
 40
1.0
 40
1.0
 40
1.0
 10
177.0916992187
 20
221.560102983
 30
0.0
 10
177.1300128284
 20
221.4260053493
 30
0.0
 10
177.2379273065
 20
221.1579749121
 30
0.0
 10
177.4681143156
 20
220.7779741405
 30
0.0
 10
177.756872957
 20
220.4094635501
 30
0.0
 10
177.9758732578
 20
220.1759289439
 30
0.0
 10
178.0916992187
 20
220.060102983
 30
0.0
  0
SPLINE
  5
426
330
222
100
AcDbEntity
  8
02___PRT_ALL_AXES
  6
Continuous
 62
     7
100
AcDbSpline
 70
     0
 71
     3
 72
    19
 73
    15
 74
     0
 42
0.000000001
 43
0.0000001
 40
0.0
 40
0.0
 40
0.0
 40
0.0
 40
0.1683000113
 40
0.2404505744
 40
0.3036556532
 40
0.4090388234
 40
0.4554737865
 40
0.5000393211
 40
0.5446067335
 40
0.591042408
 40
0.696430429
 40
0.7596418824
 40
0.8317824151
 40
1.0
 40
1.0
 40
1.0
 40
1.0
 10
176.5916992187
 20
222.560102983
 30
0.0
 10
176.4850935435
 20
222.560102983
 30
0.0
 10
176.3307671169
 20
222.5359301182
 30
0.0
 10
176.154373394
 20
222.4571130418
 30
0.0
 10
176.0278405301
 20
222.3711652885
 30
0.0
 10
175.9368528736
 20
222.2637284178
 30
0.0
 10
175.8933751723
 20
222.1460928566
 30
0.0
 10
175.8829990931
 20
222.0600250464
 30
0.0
 10
175.8934021807
 20
221.9739577609
 30
0.0
 10
175.9369551907
 20
221.8563457178
 30
0.0
 10
176.0279603261
 20
221.748922929
 30
0.0
 10
176.1545199456
 20
221.6630087041
 30
0.0
 10
176.3308834629
 20
221.5842625798
 30
0.0
 10
176.4851457546
 20
221.560102983
 30
0.0
 10
176.5916992187
 20
221.560102983
 30
0.0
  0
SPLINE
  5
427
330
222
100
AcDbEntity
  8
02___PRT_ALL_AXES
  6
Continuous
 62
     7
100
AcDbSpline
 70
     0
 71
     3
 72
    11
 73
     7
 74
     0
 42
0.000000001
 43
0.0000001
 40
0.0
 40
0.0
 40
0.0
 40
0.0
 40
0.2298345438
 40
0.4729500311
 40
0.7300550521
 40
1.0
 40
1.0
 40
1.0
 40
1.0
 10
177.0916992187
 20
209.560102983
 30
0.0
 10
177.1300128284
 20
209.4260053493
 30
0.0
 10
177.2379273065
 20
209.1579749121
 30
0.0
 10
177.4681143156
 20
208.7779741405
 30
0.0
 10
177.756872957
 20
208.4094635501
 30
0.0
 10
177.9758732578
 20
208.1759289439
 30
0.0
 10
178.0916992187
 20
208.060102983
 30
0.0
  0
SPLINE
  5
428
330
222
100
AcDbEntity
  8
02___PRT_ALL_AXES
  6
Continuous
 62
     7
100
AcDbSpline
 70
     0
 71
     3
 72
    15
 73
    11
 74
     0
 42
0.000000001
 43
0.0000001
 40
0.0
 40
0.0
 40
0.0
 40
0.0
 40
0.1250132813
 40
0.2500216868
 40
0.3750232333
 40
0.5000210771
 40
0.6250147164
 40
0.7500062465
 40
0.8749967139
 40
1.0
 40
1.0
 40
1.0
 40
1.0
 10
324.6147275349
 20
110.3541747424
 30
0.0
 10
324.7060661845
 20
110.4855548012
 30
0.0
 10
324.8681489087
 20
110.7633258355
 30
0.0
 10
325.0423860377
 20
111.2126405402
 30
0.0
 10
325.1438830854
 20
111.6838466183
 30
0.0
 10
325.1699315158
 20
112.165119253
 30
0.0
 10
325.1196320437
 20
112.6444688902
 30
0.0
 10
324.9938830917
 20
113.109796508
 30
0.0
 10
324.7956639484
 20
113.5490705809
 30
0.0
 10
324.6181736761
 20
113.8172713601
 30
0.0
 10
324.5194485057
 20
113.9431789274
 30
0.0
  0
SPLINE
  5
429
330
222
100
AcDbEntity
  8
02___PRT_ALL_AXES
  6
Continuous
 62
     7
100
AcDbSpline
 70
     0
 71
     3
 72
    18
 73
    14
 74
     0
 42
0.000000001
 43
0.0000001
 40
0.0
 40
0.0
 40
0.0
 40
0.0
 40
0.046873443
 40
0.0954697738
 40
0.1465084637
 40
0.2004659749
 40
0.3176188545
 40
0.3808521974
 40
0.4467185762
 40
0.5842806661
 40
0.725820621
 40
0.866082167
 40
1.0
 40
1.0
 40
1.0
 40
1.0
 10
324.538508002
 20
113.1148668445
 30
0.0
 10
324.5806763544
 20
113.0954457239
 30
0.0
 10
324.6628393841
 20
113.0472852858
 30
0.0
 10
324.7729340695
 20
112.9516630207
 30
0.0
 10
324.869835926
 20
112.8335216739
 30
0.0
 10
324.9824522864
 20
112.6437166956
 30
0.0
 10
325.0584139163
 20
112.4214902826
 30
0.0
 10
325.1001015305
 20
112.180961539
 30
0.0
 10
325.1191798913
 20
111.9171156429
 30
0.0
 10
325.0960103687
 20
111.5743282787
 30
0.0
 10
324.9993757407
 20
111.1684939438
 30
0.0
 10
324.8395835142
 20
110.7870886242
 30
0.0
 10
324.69222773
 20
110.5567879265
 30
0.0
 10
324.6097681684
 20
110.4528963444
 30
0.0
  0
SPLINE
  5
42A
330
222
100
AcDbEntity
  8
02___PRT_ALL_AXES
  6
Continuous
 62
     7
100
AcDbSpline
 70
     0
 71
     3
 72
    19
 73
    15
 74
     0
 42
0.000000001
 43
0.0000001
 40
0.0
 40
0.0
 40
0.0
 40
0.0
 40
0.0609330688
 40
0.1221312894
 40
0.1837492108
 40
0.2459080088
 40
0.3718683537
 40
0.4996802592
 40
0.6275924384
 40
0.7537831092
 40
0.8160605226
 40
0.8777690891
 40
0.9390318035
 40
1.0
 40
1.0
 40
1.0
 40
1.0
 10
341.1164959184
 20
126.7367100602
 30
0.0
 10
341.2730259924
 20
126.9661667841
 30
0.0
 10
341.5533842353
 20
127.4497696648
 30
0.0
 10
341.8699194019
 20
128.2278474279
 30
0.0
 10
342.0837056635
 20
129.045941932
 30
0.0
 10
342.234607317
 20
130.1766943246
 30
0.0
 10
342.1743836187
 20
131.6284779803
 30
0.0
 10
341.7379552019
 20
133.3249506461
 30
0.0
 10
340.9697389239
 20
134.9003142688
 30
0.0
 10
340.0747890523
 20
136.047329919
 30
0.0
 10
339.2279301882
 20
136.8145599957
 30
0.0
 10
338.5362045406
 20
137.3029421861
 30
0.0
 10
337.7926063783
 20
137.6953975147
 30
0.0
 10
337.2668084684
 20
137.8863458897
 30
0.0
 10
336.9993892701
 20
137.9620294817
 30
0.0
  0
SPLINE
  5
42B
330
222
100
AcDbEntity
  8
02___PRT_ALL_AXES
  6
Continuous
 62
     7
100
AcDbSpline
 70
     0
 71
     3
 72
     9
 73
     5
 74
     0
 42
0.000000001
 43
0.0000001
 40
0.0
 40
0.0
 40
0.0
 40
0.0
 40
0.2470200769
 40
1.0
 40
1.0
 40
1.0
 40
1.0
 10
337.534143939
 20
136.756796566
 30
0.0
 10
337.4534633326
 20
136.8233944652
 30
0.0
 10
337.122818843
 20
137.0881110781
 30
0.0
 10
336.7774886495
 20
137.3342408435
 30
0.0
 10
336.5118591165
 20
137.5106974425
 30
0.0
  0
SPLINE
  5
42C
330
222
100
AcDbEntity
  8
02___PRT_ALL_AXES
  6
Continuous
 62
     7
100
AcDbSpline
 70
     0
 71
     3
 72
     9
 73
     5
 74
     0
 42
0.000000001
 43
0.0000001
 40
0.0
 40
0.0
 40
0.0
 40
0.0
 40
0.2517067478
 40
1.0
 40
1.0
 40
1.0
 40
1.0
 10
340.7601556795
 20
127.6762012471
 30
0.0
 10
340.7757817413
 20
127.7684371228
 30
0.0
 10
340.8340429435
 20
128.1355045579
 30
0.0
 10
340.8760185204
 20
128.5052454326
 30
0.0
 10
340.8963578088
 20
128.7826138057
 30
0.0
  0
SPLINE
  5
42D
330
222
100
AcDbEntity
  8
02___PRT_ALL_AXES
  6
Continuous
 62
     7
100
AcDbSpline
 70
     0
 71
     3
 72
    21
 73
    17
 74
     0
 42
0.000000001
 43
0.0000001
 40
0.0
 40
0.0
 40
0.0
 40
0.0
 40
0.0496938794
 40
0.0726600671
 40
0.095370167
 40
0.1423344812
 40
0.1936127609
 40
0.2495487407
 40
0.3096954097
 40
0.4401425101
 40
0.5810547415
 40
0.7282765001
 40
0.8022767332
 40
0.8742747605
 40
0.9413105664
 40
1.0
 40
1.0
 40
1.0
 40
1.0
 10
339.1685440377
 20
135.583356287
 30
0.0
 10
339.2036690528
 20
135.5967063904
 30
0.0
 10
339.2527113832
 20
135.6266222746
 30
0.0
 10
339.2961776562
 20
135.6849539311
 30
0.0
 10
339.324078175
 20
135.749860687
 30
0.0
 10
339.3320749361
 20
135.843151725
 30
0.0
 10
339.3085057553
 20
135.9582503636
 30
0.0
 10
339.2597925388
 20
136.0756767722
 30
0.0
 10
339.1644501317
 20
136.2363772513
 30
0.0
 10
339.0011582839
 20
136.4288541274
 30
0.0
 10
338.7587122892
 20
136.6340156622
 30
0.0
 10
338.5226222285
 20
136.7760107109
 30
0.0
 10
338.3172761659
 20
136.8606919101
 30
0.0
 10
338.1611513543
 20
136.9028235267
 30
0.0
 10
338.011517903
 20
136.9170226012
 30
0.0
 10
337.9156561585
 20
136.9017994244
 30
0.0
 10
337.8741728357
 20
136.8860326938
 30
0.0
  0
SPLINE
  5
42E
330
222
100
AcDbEntity
  8
02___PRT_ALL_AXES
  6
Continuous
 62
     7
100
AcDbSpline
 70
     0
 71
     3
 72
    10
 73
     6
 74
     0
 42
0.000000001
 43
0.0000001
 40
0.0
 40
0.0
 40
0.0
 40
0.0
 40
0.2626494566
 40
0.516188114
 40
1.0
 40
1.0
 40
1.0
 40
1.0
 10
340.8458434629
 20
130.669610503
 30
0.0
 10
340.8143423442
 20
130.9029124133
 30
0.0
 10
340.7330837321
 20
131.3590745735
 30
0.0
 10
340.5047355357
 20
132.2265432589
 30
0.0
 10
340.2675121655
 20
132.8459709897
 30
0.0
 10
340.0900141506
 20
133.2416332933
 30
0.0
  0
SPLINE
  5
42F
330
222
100
AcDbEntity
  8
02___PRT_ALL_AXES
  6
Continuous
 62
     7
100
AcDbSpline
 70
     0
 71
     3
 72
    20
 73
    16
 74
     0
 42
0.000000001
 43
0.0000001
 40
0.0
 40
0.0
 40
0.0
 40
0.0
 40
0.0567847095
 40
0.1212821077
 40
0.1908173957
 40
0.2627578957
 40
0.4074334538
 40
0.547957442
 40
0.6801607315
 40
0.741983638
 40
0.8001235127
 40
0.8539997792
 40
0.9035556826
 40
0.9505784112
 40
1.0
 40
1.0
 40
1.0
 40
1.0
 10
341.2363867055
 20
128.9118499336
 30
0.0
 10
341.277439186
 20
128.9274529122
 30
0.0
 10
341.3577143285
 20
128.9802994387
 30
0.0
 10
341.4544907357
 20
129.0930405783
 30
0.0
 10
341.534618561
 20
129.2315441976
 30
0.0
 10
341.6182310053
 20
129.4369618535
 30
0.0
 10
341.6805182006
 20
129.707975253
 30
0.0
 10
341.6997335927
 20
130.0313958423
 30
0.0
 10
341.6719027155
 20
130.2903990194
 30
0.0
 10
341.6197167893
 20
130.4787526985
 30
0.0
 10
341.5665120045
 20
130.6028110427
 30
0.0
 10
341.4970335001
 20
130.7077353662
 30
0.0
 10
341.4087151422
 20
130.7864996091
 30
0.0
 10
341.2985055222
 20
130.8251017642
 30
0.0
 10
341.2216016753
 20
130.8124264132
 30
0.0
 10
341.1858723596
 20
130.7988466308
 30
0.0
  0
SPLINE
  5
430
330
222
100
AcDbEntity
  8
02___PRT_ALL_AXES
  6
Continuous
 62
     7
100
AcDbSpline
 70
     0
 71
     3
 72
    11
 73
     7
 74
     0
 42
0.000000001
 43
0.0000001
 40
0.0
 40
0.0
 40
0.0
 40
0.0
 40
0.2483458605
 40
0.5002261175
 40
0.7519857684
 40
1.0
 40
1.0
 40
1.0
 40
1.0
 10
340.8458434629
 20
130.669610503
 30
0.0
 10
340.7947996425
 20
131.048856721
 30
0.0
 10
340.6452111907
 20
131.8071374888
 30
0.0
 10
340.2908268547
 20
132.9128546154
 30
0.0
 10
339.8135567683
 20
133.9707921611
 30
0.0
 10
339.4169151621
 20
134.633350674
 30
0.0
 10
339.2009193957
 20
134.9486095774
 30
0.0
  0
SPLINE
  5
431
330
222
100
AcDbEntity
  8
02___PRT_ALL_AXES
  6
Continuous
 62
     7
100
AcDbSpline
 70
     0
 71
     3
 72
     9
 73
     5
 74
     0
 42
0.000000001
 43
0.0000001
 40
0.0
 40
0.0
 40
0.0
 40
0.0
 40
0.4857941894
 40
1.0
 40
1.0
 40
1.0
 40
1.0
 10
340.0900141506
 20
133.2416332933
 30
0.0
 10
339.9731726431
 20
133.5385614747
 30
0.0
 10
339.70404379
 20
134.1390638583
 30
0.0
 10
339.3675108748
 20
134.7054686593
 30
0.0
 10
339.1766197912
 20
134.9841024824
 30
0.0
  0
SPLINE
  5
432
330
222
100
AcDbEntity
  8
02___PRT_ALL_AXES
  6
Continuous
 62
     9
100
AcDbSpline
 70
     0
 71
     3
 72
     9
 73
     5
 74
     0
 42
0.000000001
 43
0.0000001
 40
0.0
 40
0.0
 40
0.0
 40
0.0
 40
0.2412559524
 40
1.0
 40
1.0
 40
1.0
 40
1.0
 10
340.9006008869
 20
127.3035421317
 30
0.0
 10
340.9441618435
 20
127.4284866958
 30
0.0
 10
341.1068508109
 20
127.9525501638
 30
0.0
 10
341.1998581309
 20
128.4973116854
 30
0.0
 10
341.2363867055
 20
128.9118499336
 30
0.0
  0
SPLINE
  5
433
330
222
100
AcDbEntity
  8
02___PRT_ALL_AXES
  6
Continuous
 62
     9
100
AcDbSpline
 70
     0
 71
     3
 72
    11
 73
     7
 74
     0
 42
0.000000001
 43
0.0000001
 40
0.0
 40
0.0
 40
0.0
 40
0.0
 40
0.2495635802
 40
0.5025868783
 40
0.754287836
 40
1.0
 40
1.0
 40
1.0
 40
1.0
 10
341.1858723596
 20
130.7988466308
 30
0.0
 10
341.1276241407
 20
131.2316202069
 30
0.0
 10
340.9494436275
 20
132.0959690451
 30
0.0
 10
340.5154514211
 20
133.3461553469
 30
0.0
 10
339.9267189764
 20
134.5238682293
 30
0.0
 10
339.4354897916
 20
135.2463315932
 30
0.0
 10
339.1685440377
 20
135.583356287
 30
0.0
  0
SPLINE
  5
434
330
222
100
AcDbEntity
  8
02___PRT_ALL_AXES
  6
Continuous
 62
     9
100
AcDbSpline
 70
     0
 71
     3
 72
     9
 73
     5
 74
     0
 42
0.000000001
 43
0.0000001
 40
0.0
 40
0.0
 40
0.0
 40
0.0
 40
0.2595870187
 40
1.0
 40
1.0
 40
1.0
 40
1.0
 10
337.8741728357
 20
136.8860326938
 30
0.0
 10
337.7675114719
 20
136.9699598676
 30
0.0
 10
337.3472894558
 20
137.2810128244
 30
0.0
 10
336.8881994458
 20
137.5412536313
 30
0.0
 10
336.5320645033
 20
137.6929983717
 30
0.0
  0
SPLINE
  5
435
330
222
100
AcDbEntity
  8
02___PRT_ALL_AXES
  6
Continuous
 62
     7
100
AcDbSpline
 70
     0
 71
     3
 72
    10
 73
     6
 74
     0
 42
0.000000001
 43
0.0000001
 40
0.0
 40
0.0
 40
0.0
 40
0.0
 40
0.5192374217
 40
0.7623634715
 40
1.0
 40
1.0
 40
1.0
 40
1.0
 10
305.8923167643
 20
83.1109531495
 30
0.0
 10
306.0052471907
 20
82.9322281884
 30
0.0
 10
306.2117477606
 20
82.6898191935
 30
0.0
 10
306.5544211893
 20
82.4661186224
 30
0.0
 10
306.7378620697
 20
82.3932264757
 30
0.0
 10
306.8309618034
 20
82.3668769495
 30
0.0
  0
SPLINE
  5
436
330
222
100
AcDbEntity
  8
02___PRT_ALL_AXES
  6
Continuous
 62
     7
100
AcDbSpline
 70
     0
 71
     3
 72
    16
 73
    12
 74
     0
 42
0.000000001
 43
0.0000001
 40
0.0
 40
0.0
 40
0.0
 40
0.0
 40
0.0469765897
 40
0.0949426299
 40
0.1967884173
 40
0.3103523878
 40
0.4363863779
 40
0.5727683539
 40
0.7155146693
 40
0.8596348237
 40
1.0
 40
1.0
 40
1.0
 40
1.0
 10
307.0507788013
 20
82.3046654849
 30
0.0
 10
307.1393347767
 20
82.2796019547
 30
0.0
 10
307.3237505496
 20
82.2463314814
 30
0.0
 10
307.7112593241
 20
82.2511936793
 30
0.0
 10
308.2160823054
 20
82.4002089904
 30
0.0
 10
308.7813865501
 20
82.7709308167
 30
0.0
 10
309.2926390918
 20
83.3087062746
 30
0.0
 10
309.7220437144
 20
83.9813041875
 30
0.0
 10
310.0454935943
 20
84.7489153924
 30
0.0
 10
310.2440422239
 20
85.5655092891
 30
0.0
 10
310.286103194
 20
86.1245309402
 30
0.0
 10
310.2815588936
 20
86.3994906371
 30
0.0
  0
SPLINE
  5
437
330
222
100
AcDbEntity
  8
02___PRT_ALL_AXES
  6
Continuous
 62
     7
100
AcDbSpline
 70
     0
 71
     3
 72
     9
 73
     5
 74
     0
 42
0.000000001
 43
0.0000001
 40
0.0
 40
0.0
 40
0.0
 40
0.0
 40
0.5226770861
 40
1.0
 40
1.0
 40
1.0
 40
1.0
 10
306.0197602585
 20
83.2088216845
 30
0.0
 10
306.1118948989
 20
83.0337039695
 30
0.0
 10
306.3296468775
 20
82.7173056697
 30
0.0
 10
306.6377697438
 20
82.4828667085
 30
0.0
 10
306.7994323014
 20
82.4021210558
 30
0.0
  0
SPLINE
  5
438
330
222
100
AcDbEntity
  8
7_ALL_FEATURES
  6
Continuous
 62
     7
100
AcDbSpline
 70
     0
 71
     3
 72
    11
 73
     7
 74
     0
 42
0.000000001
 43
0.0000001
 40
0.0
 40
0.0
 40
0.0
 40
0.0
 40
0.2540595488
 40
0.5070353678
 40
0.7564581855
 40
1.0
 40
1.0
 40
1.0
 40
1.0
 10
333.082072649
 20
122.1695268539
 30
0.0
 10
333.776799062
 20
124.2359381686
 30
0.0
 10
334.9885506974
 20
128.4210116797
 30
0.0
 10
336.2615826847
 20
134.7938375885
 30
0.0
 10
336.9713558246
 20
141.1631005407
 30
0.0
 10
337.0620904874
 20
145.3993528613
 30
0.0
 10
337.0061667385
 20
147.4884213743
 30
0.0
  0
SPLINE
  5
439
330
222
100
AcDbEntity
  8
7_ALL_FEATURES
  6
Continuous
 62
     7
100
AcDbSpline
 70
     0
 71
     3
 72
    11
 73
     7
 74
     0
 42
0.000000001
 43
0.0000001
 40
0.0
 40
0.0
 40
0.0
 40
0.0
 40
0.2329625672
 40
0.4795454351
 40
0.7365481892
 40
1.0
 40
1.0
 40
1.0
 40
1.0
 10
324.7174268302
 20
106.677694697
 30
0.0
 10
325.4672126316
 20
107.3571286144
 30
0.0
 10
326.9001082479
 20
108.88085602
 30
0.0
 10
328.7600376215
 20
111.493870012
 30
0.0
 10
330.3475996648
 20
114.4315198392
 30
0.0
 10
331.1881118259
 20
116.5360832398
 30
0.0
 10
331.552755047
 20
117.6206869971
 30
0.0
  0
SPLINE
  5
43A
330
222
100
AcDbEntity
  8
02___PRT_ALL_AXES
  6
Continuous
 62
     7
100
AcDbSpline
 70
     0
 71
     3
 72
    14
 73
    10
 74
     0
 42
0.000000001
 43
0.0000001
 40
0.0
 40
0.0
 40
0.0
 40
0.0
 40
0.1050360672
 40
0.2128188555
 40
0.3256977952
 40
0.4453660773
 40
0.5727173738
 40
0.7080192646
 40
1.0
 40
1.0
 40
1.0
 40
1.0
 10
335.3717508525
 20
159.2589918471
 30
0.0
 10
335.4709021301
 20
159.2309460058
 30
0.0
 10
335.6662152737
 20
159.1519001138
 30
0.0
 10
335.9320459828
 20
158.9707999287
 30
0.0
 10
336.1674120799
 20
158.7312447758
 30
0.0
 10
336.3677046927
 20
158.4385643703
 30
0.0
 10
336.5298840955
 20
158.0988642816
 30
0.0
 10
336.695421802
 20
157.5792588955
 30
0.0
 10
336.7472987029
 20
157.158607522
 30
0.0
 10
336.7549637678
 20
156.8722739662
 30
0.0
  0
SPLINE
  5
43B
330
222
100
AcDbEntity
  8
02___PRT_ALL_AXES
  6
Continuous
 62
     7
100
AcDbSpline
 70
     0
 71
     3
 72
    14
 73
    10
 74
     0
 42
0.000000001
 43
0.0000001
 40
0.0
 40
0.0
 40
0.0
 40
0.0
 40
0.2959172274
 40
0.4352727083
 40
0.5658931596
 40
0.6866840407
 40
0.7978527961
 40
0.9011659203
 40
1.0
 40
1.0
 40
1.0
 40
1.0
 10
332.1886636224
 20
156.8986502
 30
0.0
 10
332.3199748373
 20
157.2892255045
 30
0.0
 10
332.58205445
 20
157.8453881562
 30
0.0
 10
333.0564586493
 20
158.4771338271
 30
0.0
 10
333.4465479604
 20
158.8600240638
 30
0.0
 10
333.865218655
 20
159.1474716819
 30
0.0
 10
334.2997555859
 20
159.3287925729
 30
0.0
 10
334.7357817937
 20
159.3952974844
 30
0.0
 10
335.0195055056
 20
159.3586618754
 30
0.0
 10
335.1519338547
 20
159.3212033117
 30
0.0
  0
SPLINE
  5
43C
330
222
100
AcDbEntity
  8
02___PRT_ALL_AXES
  6
Continuous
 62
     7
100
AcDbSpline
 70
     0
 71
     3
 72
    14
 73
    10
 74
     0
 42
0.000000001
 43
0.0000001
 40
0.0
 40
0.0
 40
0.0
 40
0.0
 40
0.2920987384
 40
0.4305997137
 40
0.5613851451
 40
0.6832982142
 40
0.7961551132
 40
0.9009539479
 40
1.0
 40
1.0
 40
1.0
 40
1.0
 10
332.4084806203
 20
156.8364387354
 30
0.0
 10
332.5312769926
 20
157.2016872826
 30
0.0
 10
332.7726752693
 20
157.7236461942
 30
0.0
 10
333.2044902582
 20
158.3272716892
 30
0.0
 10
333.5606368255
 20
158.7034033575
 30
0.0
 10
333.9444247063
 20
158.9990779247
 30
0.0
 10
334.3454742045
 20
159.2051517623
 30
0.0
 10
334.7523769693
 20
159.3142436381
 30
0.0
 10
335.0248080947
 20
159.3183170904
 30
0.0
 10
335.1545183832
 20
159.3025751064
 30
0.0
  0
SPLINE
  5
43D
330
222
100
AcDbEntity
  8
7_ALL_FEATURES
  6
Continuous
 62
     7
100
AcDbSpline
 70
     0
 71
     3
 72
    11
 73
     7
 74
     0
 42
0.000000001
 43
0.0000001
 40
0.0
 40
0.0
 40
0.0
 40
0.0
 40
0.2518900387
 40
0.5048889196
 40
0.755411327
 40
1.0
 40
1.0
 40
1.0
 40
1.0
 10
341.8106970889
 20
124.1026938041
 30
0.0
 10
341.5789256596
 20
125.1694581643
 30
0.0
 10
340.9895662065
 20
127.2825043201
 30
0.0
 10
339.7588922903
 20
130.3234030475
 30
0.0
 10
338.2082090169
 20
133.1784372215
 30
0.0
 10
336.9673093046
 20
134.936557758
 30
0.0
 10
336.3025075367
 20
135.762183485
 30
0.0
  0
SPLINE
  5
43E
330
222
100
AcDbEntity
  8
7_ALL_FEATURES
  6
Continuous
 62
     7
100
AcDbSpline
 70
     0
 71
     3
 72
    11
 73
     7
 74
     0
 42
0.000000001
 43
0.0000001
 40
0.0
 40
0.0
 40
0.0
 40
0.0
 40
0.2616465523
 40
0.5136358287
 40
0.7586500476
 40
1.0
 40
1.0
 40
1.0
 40
1.0
 10
327.2368559828
 20
142.2187615256
 30
0.0
 10
326.6749882554
 20
142.3768854804
 30
0.0
 10
325.5488368372
 20
142.6125312985
 30
0.0
 10
323.8521607096
 20
142.705620669
 30
0.0
 10
322.2071988003
 20
142.5285850786
 30
0.0
 10
321.1575660419
 20
142.2300246466
 30
0.0
 10
320.6542809121
 20
142.0387263727
 30
0.0
  0
SPLINE
  5
43F
330
222
100
AcDbEntity
  8
7_ALL_FEATURES
  6
Continuous
 62
     7
100
AcDbSpline
 70
     0
 71
     3
 72
    13
 73
     9
 74
     0
 42
0.000000001
 43
0.0000001
 40
0.0
 40
0.0
 40
0.0
 40
0.0
 40
0.2752022859
 40
0.5317098422
 40
0.6536316014
 40
0.7718325786
 40
0.8870045483
 40
1.0
 40
1.0
 40
1.0
 40
1.0
 10
331.4572677904
 20
110.52719123
 30
0.0
 10
331.2659682248
 20
109.5039066559
 30
0.0
 10
330.7381704973
 20
107.5512066738
 30
0.0
 10
329.6486696193
 20
105.3110624527
 30
0.0
 10
328.5572490303
 20
103.7775290891
 30
0.0
 10
327.6537974153
 20
102.7780127524
 30
0.0
 10
326.6596937887
 20
101.9194788598
 30
0.0
 10
325.9367095897
 20
101.4426912479
 30
0.0
 10
325.5649197375
 20
101.231815526
 30
0.0
  0
SPLINE
  5
440
330
222
100
AcDbEntity
  8
7_ALL_FEATURES
  6
Continuous
 62
     7
100
AcDbSpline
 70
     0
 71
     3
 72
    13
 73
     9
 74
     0
 42
0.000000001
 43
0.0000001
 40
0.0
 40
0.0
 40
0.0
 40
0.0
 40
0.2752022859
 40
0.5317098422
 40
0.6536316014
 40
0.7718325786
 40
0.8870045483
 40
1.0
 40
1.0
 40
1.0
 40
1.0
 10
339.2099266348
 20
113.4737749444
 30
0.0
 10
339.0186270691
 20
112.4504903704
 30
0.0
 10
338.4908293417
 20
110.4977903883
 30
0.0
 10
337.4013284637
 20
108.2576461672
 30
0.0
 10
336.3099078747
 20
106.7241128035
 30
0.0
 10
335.4064562596
 20
105.7245964669
 30
0.0
 10
334.4123526331
 20
104.8660625743
 30
0.0
 10
333.6893684341
 20
104.3892749623
 30
0.0
 10
333.3175785819
 20
104.1783992404
 30
0.0
  0
SPLINE
  5
441
330
222
100
AcDbEntity
  8
7_ALL_FEATURES
  6
Continuous
 62
     7
100
AcDbSpline
 70
     0
 71
     3
 72
    13
 73
     9
 74
     0
 42
0.000000001
 43
0.0000001
 40
0.0
 40
0.0
 40
0.0
 40
0.0
 40
0.2752022859
 40
0.5317098422
 40
0.6536316014
 40
0.7718325786
 40
0.8870045483
 40
1.0
 40
1.0
 40
1.0
 40
1.0
 10
334.0414874052
 20
111.5093858014
 30
0.0
 10
333.8501878396
 20
110.4861012274
 30
0.0
 10
333.3223901121
 20
108.5334012453
 30
0.0
 10
332.2328892341
 20
106.2932570242
 30
0.0
 10
331.1414686451
 20
104.7597236605
 30
0.0
 10
330.23801703
 20
103.7602073239
 30
0.0
 10
329.2439134035
 20
102.9016734313
 30
0.0
 10
328.5209292045
 20
102.4248858193
 30
0.0
 10
328.1491393523
 20
102.2140100975
 30
0.0
  0
SPLINE
  5
442
330
222
100
AcDbEntity
  8
7_ALL_FEATURES
  6
Continuous
 62
     7
100
AcDbSpline
 70
     0
 71
     3
 72
    13
 73
     9
 74
     0
 42
0.000000001
 43
0.0000001
 40
0.0
 40
0.0
 40
0.0
 40
0.0
 40
0.2752022859
 40
0.5317098422
 40
0.6536316014
 40
0.7718325786
 40
0.8870045483
 40
1.0
 40
1.0
 40
1.0
 40
1.0
 10
336.62570702
 20
112.4915803729
 30
0.0
 10
336.4344074544
 20
111.4682957989
 30
0.0
 10
335.9066097269
 20
109.5155958168
 30
0.0
 10
334.8171088489
 20
107.2754515957
 30
0.0
 10
333.7256882599
 20
105.741918232
 30
0.0
 10
332.8222366448
 20
104.7424018954
 30
0.0
 10
331.8281330183
 20
103.8838680028
 30
0.0
 10
331.1051488193
 20
103.4070803908
 30
0.0
 10
330.7333589671
 20
103.1962046689
 30
0.0
  0
SPLINE
  5
443
330
222
100
AcDbEntity
  8
7_ALL_FEATURES
  6
Continuous
 62
     7
100
AcDbSpline
 70
     0
 71
     3
 72
    14
 73
    10
 74
     0
 42
0.000000001
 43
0.0000001
 40
0.0
 40
0.0
 40
0.0
 40
0.0
 40
0.1132336322
 40
0.227857766
 40
0.3451527654
 40
0.4662023484
 40
0.5918362332
 40
0.7225924759
 40
1.0
 40
1.0
 40
1.0
 40
1.0
 10
334.8661928162
 20
104.6486047792
 30
0.0
 10
335.3175822951
 20
104.8201775578
 30
0.0
 10
336.2006411811
 20
105.2364418022
 30
0.0
 10
337.4255418421
 20
106.0621188832
 30
0.0
 10
338.5409226856
 20
107.0807175397
 30
0.0
 10
339.5340508145
 20
108.2796372835
 30
0.0
 10
340.3945482526
 20
109.6450839404
 30
0.0
 10
341.3718219233
 20
111.7055089989
 30
0.0
 10
341.8487713705
 20
113.3964701733
 30
0.0
 10
342.066169367
 20
114.5593584182
 30
0.0
  0
SPLINE
  5
444
330
222
100
AcDbEntity
  8
7_ALL_FEATURES
  6
Continuous
 62
     7
100
AcDbSpline
 70
     0
 71
     3
 72
    11
 73
     7
 74
     0
 42
0.000000001
 43
0.0000001
 40
0.0
 40
0.0
 40
0.0
 40
0.0
 40
0.2361260229
 40
0.4796167741
 40
0.7335505531
 40
1.0
 40
1.0
 40
1.0
 40
1.0
 10
319.187753753
 20
141.3625206104
 30
0.0
 10
319.7737571565
 20
141.4875437253
 30
0.0
 10
320.9906324527
 20
141.6293674879
 30
0.0
 10
322.8571999283
 20
141.5128112626
 30
0.0
 10
324.7534473714
 20
141.0743730806
 30
0.0
 10
325.9858244512
 20
140.5856539687
 30
0.0
 10
326.5964912358
 20
140.2953924523
 30
0.0
  0
SPLINE
  5
445
330
222
100
AcDbEntity
  8
7_ALL_FEATURES
  6
Continuous
 62
     7
100
AcDbSpline
 70
     0
 71
     3
 72
    11
 73
     7
 74
     0
 42
0.000000001
 43
0.0000001
 40
0.0
 40
0.0
 40
0.0
 40
0.0
 40
0.2312355809
 40
0.4725430517
 40
0.7280784443
 40
1.0
 40
1.0
 40
1.0
 40
1.0
 10
316.6035341382
 20
140.380326039
 30
0.0
 10
317.3412627973
 20
140.537719553
 30
0.0
 10
318.8921934795
 20
140.6798265125
 30
0.0
 10
321.2638480472
 20
140.3710859234
 30
0.0
 10
323.6522706492
 20
139.5610596202
 30
0.0
 10
325.1688301416
 20
138.7294944443
 30
0.0
 10
325.9127142549
 20
138.2462700477
 30
0.0
  0
SPLINE
  5
446
330
222
100
AcDbEntity
  8
7_ALL_FEATURES
  6
Continuous
 62
     7
100
AcDbSpline
 70
     0
 71
     3
 72
    13
 73
     9
 74
     0
 42
0.000000001
 43
0.0000001
 40
0.0
 40
0.0
 40
0.0
 40
0.0
 40
0.1122166825
 40
0.2267614509
 40
0.3445592803
 40
0.4663442968
 40
0.7233915942
 40
1.0
 40
1.0
 40
1.0
 40
1.0
 10
314.0193145234
 20
139.3981314675
 30
0.0
 10
314.4597633391
 20
139.4921006877
 30
0.0
 10
315.3644030633
 20
139.6191307517
 30
0.0
 10
316.7510561581
 20
139.6240193549
 30
0.0
 10
318.1648794092
 20
139.4452890855
 30
0.0
 10
320.1015236829
 20
138.9566174061
 30
0.0
 10
322.5233510532
 20
137.8769861191
 30
0.0
 10
324.285085365
 20
136.6366643144
 30
0.0
 10
325.1380917622
 20
135.9262125187
 30
0.0
  0
SPLINE
  5
447
330
222
100
AcDbEntity
  8
7_ALL_FEATURES
  6
Continuous
 62
     7
100
AcDbSpline
 70
     0
 71
     3
 72
    13
 73
     9
 74
     0
 42
0.000000001
 43
0.0000001
 40
0.0
 40
0.0
 40
0.0
 40
0.0
 40
0.1128479003
 40
0.2279015467
 40
0.3460267124
 40
0.4679214728
 40
0.7245369046
 40
1.0
 40
1.0
 40
1.0
 40
1.0
 10
311.4350949086
 20
138.415936896
 30
0.0
 10
311.8572733366
 20
138.5060081512
 30
0.0
 10
312.723249823
 20
138.6302053173
 30
0.0
 10
314.0502145751
 20
138.6459913265
 30
0.0
 10
315.4032842841
 20
138.492938092
 30
0.0
 10
317.2567009169
 20
138.0589671535
 30
0.0
 10
319.5812680946
 20
137.0842688188
 30
0.0
 10
321.2860168786
 20
135.9509632699
 30
0.0
 10
322.1144078307
 20
135.2997127355
 30
0.0
  0
SPLINE
  5
448
330
222
100
AcDbEntity
  8
7_ALL_FEATURES
  6
Continuous
 62
     7
100
AcDbSpline
 70
     0
 71
     3
 72
     9
 73
     5
 74
     0
 42
0.000000001
 43
0.0000001
 40
0.0
 40
0.0
 40
0.0
 40
0.0
 40
0.5023364107
 40
1.0
 40
1.0
 40
1.0
 40
1.0
 10
340.3145699435
 20
123.5340548417
 30
0.0
 10
339.9212221696
 20
125.3444996734
 30
0.0
 10
338.7823234334
 20
128.8787763657
 30
0.0
 10
336.9985634929
 20
132.1370419937
 30
0.0
 10
335.9572480355
 20
133.6485094599
 30
0.0
  0
SPLINE
  5
449
330
222
100
AcDbEntity
  8
7_ALL_FEATURES
  6
Continuous
 62
     7
100
AcDbSpline
 70
     0
 71
     3
 72
    11
 73
     7
 74
     0
 42
0.000000001
 43
0.0000001
 40
0.0
 40
0.0
 40
0.0
 40
0.0
 40
0.2630767685
 40
0.5162567379
 40
0.7611688265
 40
1.0
 40
1.0
 40
1.0
 40
1.0
 10
326.9257481986
 20
141.2554866105
 30
0.0
 10
326.4167693866
 20
141.4512813235
 30
0.0
 10
325.3943419631
 20
141.7778942241
 30
0.0
 10
323.837687727
 20
142.0623202635
 30
0.0
 10
322.3065253719
 20
142.1274998598
 30
0.0
 10
321.3047895246
 20
142.0224338315
 30
0.0
 10
320.8178484113
 20
141.9330329512
 30
0.0
  0
SPLINE
  5
44A
330
222
100
AcDbEntity
  8
7_ALL_FEATURES
  6
Continuous
 62
     7
100
AcDbSpline
 70
     0
 71
     3
 72
    11
 73
     7
 74
     0
 42
0.000000001
 43
0.0000001
 40
0.0
 40
0.0
 40
0.0
 40
0.0
 40
0.2693423997
 40
0.5240016961
 40
0.7662831997
 40
1.0
 40
1.0
 40
1.0
 40
1.0
 10
326.289723542
 20
139.3564372838
 30
0.0
 10
325.6007808264
 20
139.7407899556
 30
0.0
 10
324.2037277304
 20
140.3936588214
 30
0.0
 10
322.0304544916
 20
140.998062263
 30
0.0
 10
319.8854613673
 20
141.1833761608
 30
0.0
 10
318.4888562676
 20
141.0188305713
 30
0.0
 10
317.8216152042
 20
140.865837933
 30
0.0
  0
SPLINE
  5
44B
330
222
100
AcDbEntity
  8
7_ALL_FEATURES
  6
Continuous
 62
     7
100
AcDbSpline
 70
     0
 71
     3
 72
    13
 73
     9
 74
     0
 42
0.000000001
 43
0.0000001
 40
0.0
 40
0.0
 40
0.0
 40
0.0
 40
0.1129854467
 40
0.2280876403
 40
0.3461981336
 40
0.4680435848
 40
0.7245329772
 40
1.0
 40
1.0
 40
1.0
 40
1.0
 10
326.7981166242
 20
101.678039022
 30
0.0
 10
327.1778095924
 20
101.8858497804
 30
0.0
 10
327.9165793731
 20
102.3582346481
 30
0.0
 10
328.9330703524
 20
103.2155282237
 30
0.0
 10
329.8569775278
 20
104.2185786099
 30
0.0
 10
330.9731401089
 20
105.763206789
 30
0.0
 10
332.0864872084
 20
108.0285240031
 30
0.0
 10
332.6234580993
 20
110.0068059143
 30
0.0
 10
332.8173833772
 20
111.0441357413
 30
0.0
  0
SPLINE
  5
44C
330
222
100
AcDbEntity
  8
7_ALL_FEATURES
  6
Continuous
 62
     7
100
AcDbSpline
 70
     0
 71
     3
 72
    13
 73
     9
 74
     0
 42
0.000000001
 43
0.0000001
 40
0.0
 40
0.0
 40
0.0
 40
0.0
 40
0.1129854467
 40
0.2280876403
 40
0.3461981336
 40
0.4680435848
 40
0.7245329772
 40
1.0
 40
1.0
 40
1.0
 40
1.0
 10
329.382336239
 20
102.6602335935
 30
0.0
 10
329.7620292072
 20
102.8680443519
 30
0.0
 10
330.5007989879
 20
103.3404292196
 30
0.0
 10
331.5172899671
 20
104.1977227951
 30
0.0
 10
332.4411971426
 20
105.2007731813
 30
0.0
 10
333.5573597237
 20
106.7454013605
 30
0.0
 10
334.6707068232
 20
109.0107185746
 30
0.0
 10
335.2076777141
 20
110.9890004858
 30
0.0
 10
335.401602992
 20
112.0263303127
 30
0.0
  0
LINE
  5
44D
330
222
100
AcDbEntity
  8
7_ALL_FEATURES
  6
Continuous
 62
     7
100
AcDbLine
 10
332.5619110991
 20
120.5874711272
 30
0.0
 11
332.557679183
 21
120.6069158909
 31
0.0
  0
SPLINE
  5
44E
330
222
100
AcDbEntity
  8
7_ALL_FEATURES
  6
Continuous
 62
     7
100
AcDbSpline
 70
     0
 71
     3
 72
    14
 73
    10
 74
     0
 42
0.000000001
 43
0.0000001
 40
0.0
 40
0.0
 40
0.0
 40
0.0
 40
0.2788413931
 40
0.4105682786
 40
0.5370260167
 40
0.6585016424
 40
0.7755565385
 40
0.8890275822
 40
1.0
 40
1.0
 40
1.0
 40
1.0
 10
324.738608055
 20
134.7363913044
 30
0.0
 10
323.8324661368
 20
135.5752253034
 30
0.0
 10
322.3862784998
 20
136.7015530677
 30
0.0
 10
320.3020120513
 20
137.8541560916
 30
0.0
 10
318.7457093918
 20
138.500594661
 30
0.0
 10
317.1850195961
 20
138.9368238186
 30
0.0
 10
315.6369621209
 20
139.1572338541
 30
0.0
 10
314.119681253
 20
139.1584660287
 30
0.0
 10
313.1321684051
 20
139.0112776356
 30
0.0
 10
312.6531759746
 20
138.9014487901
 30
0.0
  0
SPLINE
  5
44F
330
222
100
AcDbEntity
  8
7_ALL_FEATURES
  6
Continuous
 62
     7
100
AcDbSpline
 70
     0
 71
     3
 72
    13
 73
     9
 74
     0
 42
0.000000001
 43
0.0000001
 40
0.0
 40
0.0
 40
0.0
 40
0.0
 40
0.1129854467
 40
0.2280876403
 40
0.3461981336
 40
0.4680435848
 40
0.7245329772
 40
1.0
 40
1.0
 40
1.0
 40
1.0
 10
331.9665558538
 20
103.642428165
 30
0.0
 10
332.346248822
 20
103.8502389233
 30
0.0
 10
333.0850186027
 20
104.3226237911
 30
0.0
 10
334.1015095819
 20
105.1799173666
 30
0.0
 10
335.0254167574
 20
106.1829677528
 30
0.0
 10
336.1415793385
 20
107.727595932
 30
0.0
 10
337.254926438
 20
109.9929131461
 30
0.0
 10
337.7918973289
 20
111.9711950572
 30
0.0
 10
337.9858226068
 20
113.0085248842
 30
0.0
  0
SPLINE
  5
450
330
222
100
AcDbEntity
  8
7_ALL_FEATURES
  6
Continuous
 62
     7
100
AcDbSpline
 70
     0
 71
     3
 72
    13
 73
     9
 74
     0
 42
0.000000001
 43
0.0000001
 40
0.0
 40
0.0
 40
0.0
 40
0.0
 40
0.1130137723
 40
0.2282596768
 40
0.3465520123
 40
0.4685487883
 40
0.7250686976
 40
1.0
 40
1.0
 40
1.0
 40
1.0
 10
334.8036028147
 20
104.7680226781
 30
0.0
 10
335.1675166104
 20
104.9817697364
 30
0.0
 10
335.8747981827
 20
105.4625858871
 30
0.0
 10
336.8466939778
 20
106.3219193192
 30
0.0
 10
337.7298811128
 20
107.3175483795
 30
0.0
 10
338.7968004225
 20
108.839633313
 30
0.0
 10
339.8627004284
 20
111.0544103886
 30
0.0
 10
340.3813697564
 20
112.9814875607
 30
0.0
 10
340.5700422215
 20
113.9907194557
 30
0.0
  0
SPLINE
  5
451
330
222
100
AcDbEntity
  8
7_ALL_FEATURES
  6
Continuous
 62
     7
100
AcDbSpline
 70
     0
 71
     3
 72
    13
 73
     9
 74
     0
 42
0.000000001
 43
0.0000001
 40
0.0
 40
0.0
 40
0.0
 40
0.0
 40
0.2743851713
 40
0.5305064383
 40
0.6524622856
 40
0.7708790825
 40
0.8864457845
 40
1.0
 40
1.0
 40
1.0
 40
1.0
 10
325.5587661869
 20
137.1790152485
 30
0.0
 10
324.7484724836
 20
137.7744666533
 30
0.0
 10
323.0866933383
 20
138.8045785783
 30
0.0
 10
320.8386649783
 20
139.6696504074
 30
0.0
 10
319.0532041066
 20
140.0375804066
 30
0.0
 10
317.7507339074
 20
140.1529818393
 30
0.0
 10
316.4746988829
 20
140.1107424636
 30
0.0
 10
315.6430175543
 20
139.9766489902
 30
0.0
 10
315.2373955894
 20
139.8836433615
 30
0.0
  0
ENDSEC
  0
SECTION
  2
OBJECTS
  0
DICTIONARY
  5
C
330
0
100
AcDbDictionary
281
     1
  3
ACAD_GROUP
350
D
  3
ACAD_IMAGE_VARS
350
49B
  3
ACAD_LAYOUT
350
1A
  3
ACAD_MLINESTYLE
350
17
  3
ACAD_PLOTSETTINGS
350
19
  3
ACAD_PLOTSTYLENAME
350
E
  3
ACAD_SCALELIST
350
457
  3
APPDATA
350
499
  3
DWGPROPS
350
4C2
  0
DICTIONARY
  5
D
102
{ACAD_REACTORS
330
C
102
}
330
C
100
AcDbDictionary
281
     1
  0
RASTERVARIABLES
  5
49B
102
{ACAD_REACTORS
330
C
102
}
330
C
100
AcDbRasterVariables
 90
        0
 70
     1
 71
     1
 72
     1
  0
DICTIONARY
  5
1A
102
{ACAD_REACTORS
330
C
102
}
330
C
100
AcDbDictionary
281
     1
  3
Layout1
350
454
  3
Model
350
453
  0
DICTIONARY
  5
17
102
{ACAD_REACTORS
330
C
102
}
330
C
100
AcDbDictionary
281
     1
  3
Standard
350
18
  0
DICTIONARY
  5
19
102
{ACAD_REACTORS
330
C
102
}
330
C
100
AcDbDictionary
281
     1
  0
ACDBDICTIONARYWDFLT
  5
E
102
{ACAD_REACTORS
330
C
102
}
330
C
100
AcDbDictionary
281
     1
  3
Normal
350
F
100
AcDbDictionaryWithDefault
340
F
  0
DICTIONARY
  5
457
102
{ACAD_REACTORS
330
C
102
}
330
C
100
AcDbDictionary
281
     1
  3
A0
350
458
  3
A1
350
459
  3
A2
350
45A
  3
A3
350
45B
  3
A4
350
45C
  3
A5
350
45D
  3
A6
350
45E
  3
A7
350
45F
  3
A8
350
460
  3
A9
350
461
  3
B0
350
462
  3
B1
350
463
  3
B2
350
464
  3
B3
350
465
  3
B4
350
466
  3
B5
350
467
  3
B6
350
468
  3
B7
350
469
  3
B8
350
46A
  3
B9
350
46B
  3
C0
350
46C
  3
C1
350
46D
  3
C2
350
46E
  3
C3
350
46F
  3
C4
350
470
  3
C5
350
471
  3
C6
350
472
  3
C7
350
473
  3
C8
350
474
  3
C9
350
475
  3
D0
350
476
  3
D1
350
477
  3
D2
350
478
  0
DICTIONARY
  5
499
102
{ACAD_REACTORS
330
C
102
}
330
C
100
AcDbDictionary
281
     1
  0
XRECORD
  5
4C2
102
{ACAD_REACTORS
330
C
102
}
330
C
100
AcDbXrecord
280
     1
  1
DWGPROPS COOKIE
  2

  3

  4

  6

  7

  8
andrea.faggionato
  9

300
=
301
=
302
=
303
=
304
=
305
=
306
=
307
=
308
=
309
=
 40
0.0
 41
0.0
 42
2456744.562325544
  1

 90
        0
  0
LAYOUT
  5
454
102
{ACAD_REACTORS
330
1A
102
}
330
1A
100
AcDbPlotSettings
  1

  2
none_device
  4
ISO_A3_(420.00_x_297.00_MM)
  6

 40
0.0
 41
0.0
 42
0.0
 43
0.0
 44
420.0
 45
297.0
 46
0.0
 47
0.0
 48
0.0
 49
0.0
140
0.0
141
0.0
142
1.0
143
1.0
 70
     0
 72
     1
 73
     0
 74
     0
  7

 75
     0
147
1.0
148
0.0
149
0.0
100
AcDbLayout
  1
Layout1
 70
     0
 71
     1
 10
0.0
 20
0.0
 11
420.0
 21
297.0
 12
0.0
 22
0.0
 32
0.0
 14
0.0
 24
0.0
 34
0.0
 15
0.0
 25
0.0
 35
0.0
146
0.0
 13
0.0
 23
0.0
 33
0.0
 16
1.0
 26
0.0
 36
0.0
 17
0.0
 27
1.0
 37
0.0
 76
     0
330
223
  0
LAYOUT
  5
453
102
{ACAD_REACTORS
330
1A
102
}
330
1A
100
AcDbPlotSettings
  1

  2
none_device
  4
ISO_A3_(420.00_x_297.00_MM)
  6

 40
0.0
 41
0.0
 42
0.0
 43
0.0
 44
420.0
 45
297.0
 46
0.0
 47
0.0
 48
0.0
 49
0.0
140
0.0
141
0.0
142
1.0
143
1.0
 70
  1024
 72
     1
 73
     0
 74
     0
  7

 75
     0
147
1.0
148
0.0
149
0.0
100
AcDbLayout
  1
Model
 70
     0
 71
     0
 10
0.0
 20
0.0
 11
420.0
 21
297.0
 12
0.0
 22
0.0
 32
0.0
 14
0.0
 24
0.0
 34
0.0
 15
0.0
 25
0.0
 35
0.0
146
0.0
 13
0.0
 23
0.0
 33
0.0
 16
1.0
 26
0.0
 36
0.0
 17
0.0
 27
1.0
 37
0.0
 76
     0
330
222
331
1F4
  0
MLINESTYLE
  5
18
102
{ACAD_REACTORS
330
17
102
}
330
17
100
AcDbMlineStyle
  2
STANDARD
 70
     0
  3

 62
   256
 51
90.0
 52
90.0
 71
     2
 49
0.5
 62
   256
  6
BYLAYER
 49
-0.5
 62
   256
  6
BYLAYER
  0
ACDBPLACEHOLDER
  5
F
102
{ACAD_REACTORS
330
E
102
}
330
E
  0
SCALE
  5
458
102
{ACAD_REACTORS
330
457
102
}
330
457
100
AcDbScale
 70
     0
300
1:1
140
1.0
141
1.0
290
     1
  0
SCALE
  5
459
102
{ACAD_REACTORS
330
457
102
}
330
457
100
AcDbScale
 70
     0
300
1:2
140
1.0
141
2.0
290
     0
  0
SCALE
  5
45A
102
{ACAD_REACTORS
330
457
102
}
330
457
100
AcDbScale
 70
     0
300
1:4
140
1.0
141
4.0
290
     0
  0
SCALE
  5
45B
102
{ACAD_REACTORS
330
457
102
}
330
457
100
AcDbScale
 70
     0
300
1:5
140
1.0
141
5.0
290
     0
  0
SCALE
  5
45C
102
{ACAD_REACTORS
330
457
102
}
330
457
100
AcDbScale
 70
     0
300
1:8
140
1.0
141
8.0
290
     0
  0
SCALE
  5
45D
102
{ACAD_REACTORS
330
457
102
}
330
457
100
AcDbScale
 70
     0
300
1:10
140
1.0
141
10.0
290
     0
  0
SCALE
  5
45E
102
{ACAD_REACTORS
330
457
102
}
330
457
100
AcDbScale
 70
     0
300
1:16
140
1.0
141
16.0
290
     0
  0
SCALE
  5
45F
102
{ACAD_REACTORS
330
457
102
}
330
457
100
AcDbScale
 70
     0
300
1:20
140
1.0
141
20.0
290
     0
  0
SCALE
  5
460
102
{ACAD_REACTORS
330
457
102
}
330
457
100
AcDbScale
 70
     0
300
1:30
140
1.0
141
30.0
290
     0
  0
SCALE
  5
461
102
{ACAD_REACTORS
330
457
102
}
330
457
100
AcDbScale
 70
     0
300
1:40
140
1.0
141
40.0
290
     0
  0
SCALE
  5
462
102
{ACAD_REACTORS
330
457
102
}
330
457
100
AcDbScale
 70
     0
300
1:50
140
1.0
141
50.0
290
     0
  0
SCALE
  5
463
102
{ACAD_REACTORS
330
457
102
}
330
457
100
AcDbScale
 70
     0
300
1:100
140
1.0
141
100.0
290
     0
  0
SCALE
  5
464
102
{ACAD_REACTORS
330
457
102
}
330
457
100
AcDbScale
 70
     0
300
2:1
140
2.0
141
1.0
290
     0
  0
SCALE
  5
465
102
{ACAD_REACTORS
330
457
102
}
330
457
100
AcDbScale
 70
     0
300
4:1
140
4.0
141
1.0
290
     0
  0
SCALE
  5
466
102
{ACAD_REACTORS
330
457
102
}
330
457
100
AcDbScale
 70
     0
300
8:1
140
8.0
141
1.0
290
     0
  0
SCALE
  5
467
102
{ACAD_REACTORS
330
457
102
}
330
457
100
AcDbScale
 70
     0
300
10:1
140
10.0
141
1.0
290
     0
  0
SCALE
  5
468
102
{ACAD_REACTORS
330
457
102
}
330
457
100
AcDbScale
 70
     0
300
100:1
140
100.0
141
1.0
290
     0
  0
SCALE
  5
469
102
{ACAD_REACTORS
330
457
102
}
330
457
100
AcDbScale
 70
     0
300
1/128" = 1'-0"
140
0.0078125
141
12.0
290
     0
  0
SCALE
  5
46A
102
{ACAD_REACTORS
330
457
102
}
330
457
100
AcDbScale
 70
     0
300
1/64" = 1'-0"
140
0.015625
141
12.0
290
     0
  0
SCALE
  5
46B
102
{ACAD_REACTORS
330
457
102
}
330
457
100
AcDbScale
 70
     0
300
1/32" = 1'-0"
140
0.03125
141
12.0
290
     0
  0
SCALE
  5
46C
102
{ACAD_REACTORS
330
457
102
}
330
457
100
AcDbScale
 70
     0
300
1/16" = 1'-0"
140
0.0625
141
12.0
290
     0
  0
SCALE
  5
46D
102
{ACAD_REACTORS
330
457
102
}
330
457
100
AcDbScale
 70
     0
300
3/32" = 1'-0"
140
0.09375
141
12.0
290
     0
  0
SCALE
  5
46E
102
{ACAD_REACTORS
330
457
102
}
330
457
100
AcDbScale
 70
     0
300
1/8" = 1'-0"
140
0.125
141
12.0
290
     0
  0
SCALE
  5
46F
102
{ACAD_REACTORS
330
457
102
}
330
457
100
AcDbScale
 70
     0
300
3/16" = 1'-0"
140
0.1875
141
12.0
290
     0
  0
SCALE
  5
470
102
{ACAD_REACTORS
330
457
102
}
330
457
100
AcDbScale
 70
     0
300
1/4" = 1'-0"
140
0.25
141
12.0
290
     0
  0
SCALE
  5
471
102
{ACAD_REACTORS
330
457
102
}
330
457
100
AcDbScale
 70
     0
300
3/8" = 1'-0"
140
0.375
141
12.0
290
     0
  0
SCALE
  5
472
102
{ACAD_REACTORS
330
457
102
}
330
457
100
AcDbScale
 70
     0
300
1/2" = 1'-0"
140
0.5
141
12.0
290
     0
  0
SCALE
  5
473
102
{ACAD_REACTORS
330
457
102
}
330
457
100
AcDbScale
 70
     0
300
3/4" = 1'-0"
140
0.75
141
12.0
290
     0
  0
SCALE
  5
474
102
{ACAD_REACTORS
330
457
102
}
330
457
100
AcDbScale
 70
     0
300
1" = 1'-0"
140
1.0
141
12.0
290
     0
  0
SCALE
  5
475
102
{ACAD_REACTORS
330
457
102
}
330
457
100
AcDbScale
 70
     0
300
1-1/2" = 1'-0"
140
1.5
141
12.0
290
     0
  0
SCALE
  5
476
102
{ACAD_REACTORS
330
457
102
}
330
457
100
AcDbScale
 70
     0
300
3" = 1'-0"
140
3.0
141
12.0
290
     0
  0
SCALE
  5
477
102
{ACAD_REACTORS
330
457
102
}
330
457
100
AcDbScale
 70
     0
300
6" = 1'-0"
140
6.0
141
12.0
290
     0
  0
SCALE
  5
478
102
{ACAD_REACTORS
330
457
102
}
330
457
100
AcDbScale
 70
     0
300
1'-0" = 1'-0"
140
12.0
141
12.0
290
     0
  0
ENDSEC
  0
EOF
