  0
SECTION
  2
HEADER
  9
$ACADVER
  1
AC1015
  9
$ACADMAINTVER
 70
     6
  9
$DWGCODEPAGE
  3
ANSI_1252
  9
$INSBASE
 10
0.0
 20
0.0
 30
0.0
  9
$EXTMIN
 10
0.0
 20
0.0
 30
0.0
  9
$EXTMAX
 10
420.0
 20
297.0
 30
0.0
  9
$LIMMIN
 10
0.0
 20
0.0
  9
$LIMMAX
 10
420.0
 20
297.0
  9
$ORTHOMODE
 70
     0
  9
$REGENMODE
 70
     1
  9
$FILLMODE
 70
     1
  9
$QTEXTMODE
 70
     0
  9
$MIRRTEXT
 70
     1
  9
$LTSCALE
 40
23.1
  9
$ATTMODE
 70
     1
  9
$TEXTSIZE
 40
0.2
  9
$TRACEWID
 40
0.05
  9
$TEXTSTYLE
  7
STANDARD
  9
$CLAYER
  8
0
  9
$CELTYPE
  6
BYLAYER
  9
$CECOLOR
 62
   256
  9
$CELTSCALE
 40
1.0
  9
$DISPSILH
 70
     0
  9
$DIMSCALE
 40
1.0
  9
$DIMASZ
 40
2.5
  9
$DIMEXO
 40
2.625
  9
$DIMDLI
 40
15.96
  9
$DIMRND
 40
0.0
  9
$DIMDLE
 40
0.0
  9
$DIMEXE
 40
7.56
  9
$DIMTP
 40
0.01
  9
$DIMTM
 40
0.01
  9
$DIMTXT
 40
3.0
  9
$DIMCEN
 40
3.78
  9
$DIMTSZ
 40
0.0
  9
$DIMTOL
 70
     1
  9
$DIMLIM
 70
     0
  9
$DIMTIH
 70
     1
  9
$DIMTOH
 70
     1
  9
$DIMSE1
 70
     0
  9
$DIMSE2
 70
     0
  9
$DIMTAD
 70
     0
  9
$DIMZIN
 70
     0
  9
$DIMBLK
  1
CLOSED
  9
$DIMASO
 70
     1
  9
$DIMSHO
 70
     1
  9
$DIMPOST
  1

  9
$DIMAPOST
  1

  9
$DIMALT
 70
     0
  9
$DIMALTD
 70
     2
  9
$DIMALTF
 40
25.4
  9
$DIMLFAC
 40
1.0
  9
$DIMTOFL
 70
     0
  9
$DIMTVP
 40
0.0
  9
$DIMTIX
 70
     0
  9
$DIMSOXD
 70
     0
  9
$DIMSAH
 70
     0
  9
$DIMBLK1
  1

  9
$DIMBLK2
  1

  9
$DIMSTYLE
  2
STANDARD
  9
$DIMCLRD
 70
     0
  9
$DIMCLRE
 70
     0
  9
$DIMCLRT
 70
     0
  9
$DIMTFAC
 40
1.0
  9
$DIMGAP
 40
0.09
  9
$DIMJUST
 70
     0
  9
$DIMSD1
 70
     0
  9
$DIMSD2
 70
     0
  9
$DIMTOLJ
 70
     1
  9
$DIMTZIN
 70
     0
  9
$DIMALTZ
 70
     0
  9
$DIMALTTZ
 70
     0
  9
$DIMUPT
 70
     0
  9
$DIMDEC
 70
     4
  9
$DIMTDEC
 70
     4
  9
$DIMALTU
 70
     2
  9
$DIMALTTD
 70
     2
  9
$DIMTXSTY
  7
STANDARD
  9
$DIMAUNIT
 70
     0
  9
$DIMADEC
 70
     0
  9
$DIMALTRND
 40
0.0
  9
$DIMAZIN
 70
     0
  9
$DIMDSEP
 70
    46
  9
$DIMATFIT
 70
     3
  9
$DIMFRAC
 70
     0
  9
$DIMLDRBLK
  1

  9
$DIMLUNIT
 70
     2
  9
$DIMLWD
 70
    -2
  9
$DIMLWE
 70
    -2
  9
$DIMTMOVE
 70
     0
  9
$LUNITS
 70
     2
  9
$LUPREC
 70
     4
  9
$SKETCHINC
 40
0.1
  9
$FILLETRAD
 40
0.5
  9
$AUNITS
 70
     0
  9
$AUPREC
 70
     0
  9
$MENU
  1
.
  9
$ELEVATION
 40
0.0
  9
$PELEVATION
 40
0.0
  9
$THICKNESS
 40
0.0
  9
$LIMCHECK
 70
     0
  9
$CHAMFERA
 40
0.0
  9
$CHAMFERB
 40
0.0
  9
$CHAMFERC
 40
0.0
  9
$CHAMFERD
 40
0.0
  9
$SKPOLY
 70
     0
  9
$TDCREATE
 40
2447893.041666667
  9
$TDUCREATE
 40
0.0
  9
$TDUPDATE
 40
2456744.600371863
  9
$TDUUPDATE
 40
2456744.558705197
  9
$TDINDWG
 40
0.0004038657
  9
$TDUSRTIMER
 40
2456744.558301481
  9
$USRTIMER
 70
     1
  9
$ANGBASE
 50
0.0
  9
$ANGDIR
 70
     0
  9
$PDMODE
 70
     3
  9
$PDSIZE
 40
0.3125
  9
$PLINEWID
 40
0.0
  9
$SPLFRAME
 70
     0
  9
$SPLINETYPE
 70
     6
  9
$SPLINESEGS
 70
     8
  9
$HANDSEED
  5
4C0
  9
$SURFTAB1
 70
     6
  9
$SURFTAB2
 70
     6
  9
$SURFTYPE
 70
     6
  9
$SURFU
 70
     6
  9
$SURFV
 70
     6
  9
$UCSBASE
  2

  9
$UCSNAME
  2

  9
$UCSORG
 10
0.0
 20
0.0
 30
0.0
  9
$UCSXDIR
 10
1.0
 20
0.0
 30
0.0
  9
$UCSYDIR
 10
0.0
 20
1.0
 30
0.0
  9
$UCSORTHOREF
  2

  9
$UCSORTHOVIEW
 70
     0
  9
$UCSORGTOP
 10
0.0
 20
0.0
 30
0.0
  9
$UCSORGBOTTOM
 10
0.0
 20
0.0
 30
0.0
  9
$UCSORGLEFT
 10
0.0
 20
0.0
 30
0.0
  9
$UCSORGRIGHT
 10
0.0
 20
0.0
 30
0.0
  9
$UCSORGFRONT
 10
0.0
 20
0.0
 30
0.0
  9
$UCSORGBACK
 10
0.0
 20
0.0
 30
0.0
  9
$PUCSBASE
  2

  9
$PUCSNAME
  2

  9
$PUCSORG
 10
0.0
 20
0.0
 30
0.0
  9
$PUCSXDIR
 10
1.0
 20
0.0
 30
0.0
  9
$PUCSYDIR
 10
0.0
 20
1.0
 30
0.0
  9
$PUCSORTHOREF
  2

  9
$PUCSORTHOVIEW
 70
     0
  9
$PUCSORGTOP
 10
0.0
 20
0.0
 30
0.0
  9
$PUCSORGBOTTOM
 10
0.0
 20
0.0
 30
0.0
  9
$PUCSORGLEFT
 10
0.0
 20
0.0
 30
0.0
  9
$PUCSORGRIGHT
 10
0.0
 20
0.0
 30
0.0
  9
$PUCSORGFRONT
 10
0.0
 20
0.0
 30
0.0
  9
$PUCSORGBACK
 10
0.0
 20
0.0
 30
0.0
  9
$USERI1
 70
     0
  9
$USERI2
 70
     0
  9
$USERI3
 70
     0
  9
$USERI4
 70
     0
  9
$USERI5
 70
     0
  9
$USERR1
 40
0.0
  9
$USERR2
 40
0.0
  9
$USERR3
 40
0.0
  9
$USERR4
 40
0.0
  9
$USERR5
 40
0.0
  9
$WORLDVIEW
 70
     1
  9
$SHADEDGE
 70
     3
  9
$SHADEDIF
 70
    70
  9
$TILEMODE
 70
     1
  9
$MAXACTVP
 70
    64
  9
$PINSBASE
 10
0.0
 20
0.0
 30
0.0
  9
$PLIMCHECK
 70
     0
  9
$PEXTMIN
 10
1.000000000000000E+20
 20
1.000000000000000E+20
 30
1.000000000000000E+20
  9
$PEXTMAX
 10
-1.000000000000000E+20
 20
-1.000000000000000E+20
 30
-1.000000000000000E+20
  9
$PLIMMIN
 10
0.0
 20
0.0
  9
$PLIMMAX
 10
420.0
 20
297.0
  9
$UNITMODE
 70
     0
  9
$VISRETAIN
 70
     1
  9
$PLINEGEN
 70
     0
  9
$PSLTSCALE
 70
     1
  9
$TREEDEPTH
 70
  3020
  9
$CMLSTYLE
  2

  9
$CMLJUST
 70
     0
  9
$CMLSCALE
 40
1.0
  9
$PROXYGRAPHICS
 70
     1
  9
$MEASUREMENT
 70
     1
  9
$CELWEIGHT
370
    -1
  9
$ENDCAPS
280
     0
  9
$JOINSTYLE
280
     0
  9
$LWDISPLAY
290
     0
  9
$INSUNITS
 70
     4
  9
$HYPERLINKBASE
  1

  9
$STYLESHEET
  1

  9
$XEDIT
290
     1
  9
$CEPSNTYPE
380
     0
  9
$PSTYLEMODE
290
     1
  9
$FINGERPRINTGUID
  2
{44C3DBD3-FA43-4D18-9B6F-F4BC8EF09923}
  9
$VERSIONGUID
  2
{FAEB1C32-E019-11D5-929B-00C0DF256EC4}
  9
$EXTNAMES
290
     1
  9
$PSVPSCALE
 40
0.0
  9
$OLESTARTUP
290
     0
  0
ENDSEC
  0
SECTION
  2
CLASSES
  0
CLASS
  1
ACDBDICTIONARYWDFLT
  2
AcDbDictionaryWithDefault
  3
ObjectDBX Classes
 90
        0
280
     0
281
     0
  0
CLASS
  1
ACDBPLACEHOLDER
  2
AcDbPlaceHolder
  3
ObjectDBX Classes
 90
        0
280
     0
281
     0
  0
CLASS
  1
LAYOUT
  2
AcDbLayout
  3
ObjectDBX Classes
 90
        0
280
     0
281
     0
  0
CLASS
  1
TABLESTYLE
  2
AcDbTableStyle
  3
ObjectDBX Classes
 90
     4095
280
     0
281
     0
  0
CLASS
  1
ACAD_TABLE
  2
AcDbTable
  3
ObjectDBX Classes
 90
     1025
280
     0
281
     1
  0
CLASS
  1
SCALE
  2
AcDbScale
  3
ObjectDBX Classes
 90
     1153
280
     0
281
     0
  0
CLASS
  1
TABLEGEOMETRY
  2
AcDbTableGeometry
  3
ObjectDBX Classes
 90
     1152
280
     0
281
     0
  0
CLASS
  1
VISUALSTYLE
  2
AcDbVisualStyle
  3
ObjectDBX Classes
 90
     4095
280
     0
281
     0
  0
CLASS
  1
MATERIAL
  2
AcDbMaterial
  3
ObjectDBX Classes
 90
     1153
280
     0
281
     0
  0
CLASS
  1
SUN
  2
AcDbSun
  3
SCENEOE
 90
     1153
280
     0
281
     0
  0
CLASS
  1
RASTERVARIABLES
  2
AcDbRasterVariables
  3
ISM
 90
        0
280
     0
281
     0
  0
ENDSEC
  0
SECTION
  2
TABLES
  0
TABLE
  2
VPORT
  5
8
330
0
100
AcDbSymbolTable
 70
     1
  0
VPORT
  5
1F4
330
8
100
AcDbSymbolTableRecord
100
AcDbViewportTableRecord
  2
*ACTIVE
 70
     0
 10
0.0
 20
0.0
 11
1.0
 21
1.0
 12
96.1973978365385
 22
98.14168269230764
 13
0.0
 23
0.0
 14
1.0
 24
1.0
 15
0.0
 25
0.0
 16
0.0
 26
0.0
 36
1.0
 17
0.0
 27
0.0
 37
0.0
 40
371.25
 41
1.732905982905983
 42
50.0
 43
0.0
 44
0.0
 50
0.0
 51
0.0
 71
    16
 72
   100
 73
     1
 74
     1
 75
     0
 76
     0
 77
     0
 78
     0
281
     0
 65
     1
110
0.0
120
0.0
130
0.0
111
1.0
121
0.0
131
0.0
112
0.0
122
1.0
132
0.0
 79
     0
146
0.0
  0
ENDTAB
  0
TABLE
  2
LTYPE
  5
5
330
0
100
AcDbSymbolTable
 70
     6
  0
LTYPE
  5
14
330
5
100
AcDbSymbolTableRecord
100
AcDbLinetypeTableRecord
  2
BYBLOCK
 70
     0
  3

 72
    65
 73
     0
 40
0.0
  0
LTYPE
  5
15
330
5
100
AcDbSymbolTableRecord
100
AcDbLinetypeTableRecord
  2
BYLAYER
 70
     0
  3

 72
    65
 73
     0
 40
0.0
  0
LTYPE
  5
16
330
5
100
AcDbSymbolTableRecord
100
AcDbLinetypeTableRecord
  2
CONTINUOUS
 70
     0
  3
Solid line
 72
    65
 73
     0
 40
0.0
  0
LTYPE
  5
1F5
330
5
100
AcDbSymbolTableRecord
100
AcDbLinetypeTableRecord
  2
CENTER
 70
     0
  3
____ _ ____ _ ____ _ ____ _ ____ _ ____ _ ____
 72
    65
 73
     4
 40
0.6
 49
0.375
 74
     0
 49
-0.075
 74
     0
 49
0.075
 74
     0
 49
-0.075
 74
     0
  0
LTYPE
  5
1F6
330
5
100
AcDbSymbolTableRecord
100
AcDbLinetypeTableRecord
  2
HIDDEN
 70
     0
  3
- - - - - - - - - - - - - - - - - - - -
 72
    65
 73
     2
 40
0.2
 49
0.1
 74
     0
 49
-0.1
 74
     0
  0
LTYPE
  5
1F7
330
5
100
AcDbSymbolTableRecord
100
AcDbLinetypeTableRecord
  2
PHANTOM
 70
     0
  3
_____ _ _ _____ _ _ _____ _ _ _____
 72
    65
 73
     6
 40
0.8
 49
0.45
 74
     0
 49
-0.05
 74
     0
 49
0.1
 74
     0
 49
-0.05
 74
     0
 49
0.1
 74
     0
 49
-0.05
 74
     0
  0
LTYPE
  5
1F8
330
5
100
AcDbSymbolTableRecord
100
AcDbLinetypeTableRecord
  2
DOT
 70
     0
  3
. . . . . . . . . . . . . . . . . . . .
 72
    65
 73
     2
 40
0.2
 49
0.1
 74
     0
 49
-0.1
 74
     0
  0
LTYPE
  5
1F9
330
5
100
AcDbSymbolTableRecord
100
AcDbLinetypeTableRecord
  2
DASHED
 70
     0
  3
- - - - - - - - - - - - - - - - - - - -
 72
    65
 73
     2
 40
0.2
 49
0.1
 74
     0
 49
-0.1
 74
     0
  0
ENDTAB
  0
TABLE
  2
LAYER
  5
2
330
0
100
AcDbSymbolTable
 70
    36
  0
LAYER
  5
10
330
2
100
AcDbSymbolTableRecord
100
AcDbLayerTableRecord
  2
0
 70
     0
 62
     7
  6
CONTINUOUS
370
    -3
390
F
  0
LAYER
  5
1FA
330
2
100
AcDbSymbolTableRecord
100
AcDbLayerTableRecord
  2
DEFAULT_1
 70
     0
 62
     7
  6
CENTER
370
    -3
390
F
  0
LAYER
  5
1FB
330
2
100
AcDbSymbolTableRecord
100
AcDbLayerTableRecord
  2
DEFAULT_2
 70
     0
 62
     8
  6
HIDDEN
370
    -3
390
F
  0
LAYER
  5
1FC
330
2
100
AcDbSymbolTableRecord
100
AcDbLayerTableRecord
  2
DEFAULT_3
 70
     0
 62
     7
  6
PHANTOM
370
    -3
390
F
  0
LAYER
  5
1FD
330
2
100
AcDbSymbolTableRecord
100
AcDbLayerTableRecord
  2
01_ALL_DTM_PLN
 70
     0
 62
     7
  6
CONTINUOUS
370
    -3
390
F
  0
LAYER
  5
1FE
330
2
100
AcDbSymbolTableRecord
100
AcDbLayerTableRecord
  2
01__ASM_ALL_DTM_PLN
 70
     0
 62
     7
  6
CONTINUOUS
370
    -3
390
F
  0
LAYER
  5
1FF
330
2
100
AcDbSymbolTableRecord
100
AcDbLayerTableRecord
  2
01__ASM_DEF_DTM_PLN
 70
     0
 62
     7
  6
CONTINUOUS
370
    -3
390
F
  0
LAYER
  5
200
330
2
100
AcDbSymbolTableRecord
100
AcDbLayerTableRecord
  2
01___PRT_ALL_DTM_PLN
 70
     0
 62
     7
  6
CONTINUOUS
370
    -3
390
F
  0
LAYER
  5
201
330
2
100
AcDbSymbolTableRecord
100
AcDbLayerTableRecord
  2
01___PRT_DEF_DTM_PLN
 70
     0
 62
     7
  6
CONTINUOUS
370
    -3
390
F
  0
LAYER
  5
202
330
2
100
AcDbSymbolTableRecord
100
AcDbLayerTableRecord
  2
02_ALL_AXES
 70
     0
 62
     7
  6
CONTINUOUS
370
    -3
390
F
  0
LAYER
  5
203
330
2
100
AcDbSymbolTableRecord
100
AcDbLayerTableRecord
  2
02__ASM_ALL_AXES
 70
     0
 62
     7
  6
CONTINUOUS
370
    -3
390
F
  0
LAYER
  5
204
330
2
100
AcDbSymbolTableRecord
100
AcDbLayerTableRecord
  2
02___PRT_ALL_AXES
 70
     0
 62
     7
  6
CONTINUOUS
370
    -3
390
F
  0
LAYER
  5
205
330
2
100
AcDbSymbolTableRecord
100
AcDbLayerTableRecord
  2
03_ALL_CURVES
 70
     0
 62
     7
  6
CONTINUOUS
370
    -3
390
F
  0
LAYER
  5
206
330
2
100
AcDbSymbolTableRecord
100
AcDbLayerTableRecord
  2
03__ASM_ALL_CURVES
 70
     0
 62
     7
  6
CONTINUOUS
370
    -3
390
F
  0
LAYER
  5
207
330
2
100
AcDbSymbolTableRecord
100
AcDbLayerTableRecord
  2
03___PRT_ALL_CURVES
 70
     0
 62
     7
  6
CONTINUOUS
370
    -3
390
F
  0
LAYER
  5
208
330
2
100
AcDbSymbolTableRecord
100
AcDbLayerTableRecord
  2
04_ALL_DTM_PNT
 70
     0
 62
     7
  6
CONTINUOUS
370
    -3
390
F
  0
LAYER
  5
209
330
2
100
AcDbSymbolTableRecord
100
AcDbLayerTableRecord
  2
04__ASM_ALL_DTM_PNT
 70
     0
 62
     7
  6
CONTINUOUS
370
    -3
390
F
  0
LAYER
  5
20A
330
2
100
AcDbSymbolTableRecord
100
AcDbLayerTableRecord
  2
04___PRT_ALL_DTM_PNT
 70
     0
 62
     7
  6
CONTINUOUS
370
    -3
390
F
  0
LAYER
  5
20B
330
2
100
AcDbSymbolTableRecord
100
AcDbLayerTableRecord
  2
05_ALL_DTM_CSYS
 70
     0
 62
     7
  6
CONTINUOUS
370
    -3
390
F
  0
LAYER
  5
20C
330
2
100
AcDbSymbolTableRecord
100
AcDbLayerTableRecord
  2
05__ASM_ALL_DTM_CSYS
 70
     0
 62
     7
  6
CONTINUOUS
370
    -3
390
F
  0
LAYER
  5
20D
330
2
100
AcDbSymbolTableRecord
100
AcDbLayerTableRecord
  2
05__ASM_DEF_DTM_CSYS
 70
     0
 62
     7
  6
CONTINUOUS
370
    -3
390
F
  0
LAYER
  5
20E
330
2
100
AcDbSymbolTableRecord
100
AcDbLayerTableRecord
  2
05___PRT_ALL_DTM_CSYS
 70
     0
 62
     7
  6
CONTINUOUS
370
    -3
390
F
  0
LAYER
  5
20F
330
2
100
AcDbSymbolTableRecord
100
AcDbLayerTableRecord
  2
05___PRT_DEF_DTM_CSYS
 70
     0
 62
     7
  6
CONTINUOUS
370
    -3
390
F
  0
LAYER
  5
210
330
2
100
AcDbSymbolTableRecord
100
AcDbLayerTableRecord
  2
06_ALL_SURFS
 70
     0
 62
     7
  6
CONTINUOUS
370
    -3
390
F
  0
LAYER
  5
211
330
2
100
AcDbSymbolTableRecord
100
AcDbLayerTableRecord
  2
06__ASM_ALL_SURFS
 70
     0
 62
     7
  6
CONTINUOUS
370
    -3
390
F
  0
LAYER
  5
212
330
2
100
AcDbSymbolTableRecord
100
AcDbLayerTableRecord
  2
06___PRT_ALL_SURFS
 70
     0
 62
     7
  6
CONTINUOUS
370
    -3
390
F
  0
LAYER
  5
213
330
2
100
AcDbSymbolTableRecord
100
AcDbLayerTableRecord
  2
07__ASM_ALL_SKELETONS
 70
     0
 62
     7
  6
CONTINUOUS
370
    -3
390
F
  0
LAYER
  5
214
330
2
100
AcDbSymbolTableRecord
100
AcDbLayerTableRecord
  2
1_ALL_PLANES
 70
     0
 62
     7
  6
CONTINUOUS
370
    -3
390
F
  0
LAYER
  5
215
330
2
100
AcDbSymbolTableRecord
100
AcDbLayerTableRecord
  2
2_ALL_CSYS
 70
     0
 62
     7
  6
CONTINUOUS
370
    -3
390
F
  0
LAYER
  5
216
330
2
100
AcDbSymbolTableRecord
100
AcDbLayerTableRecord
  2
3_ALL_AXES
 70
     0
 62
     7
  6
CONTINUOUS
370
    -3
390
F
  0
LAYER
  5
217
330
2
100
AcDbSymbolTableRecord
100
AcDbLayerTableRecord
  2
4_ALL_POINTS
 70
     0
 62
     7
  6
CONTINUOUS
370
    -3
390
F
  0
LAYER
  5
218
330
2
100
AcDbSymbolTableRecord
100
AcDbLayerTableRecord
  2
5_ALL_CURVES
 70
     0
 62
     7
  6
CONTINUOUS
370
    -3
390
F
  0
LAYER
  5
219
330
2
100
AcDbSymbolTableRecord
100
AcDbLayerTableRecord
  2
6_ALL_SURFS
 70
     0
 62
     7
  6
CONTINUOUS
370
    -3
390
F
  0
LAYER
  5
21A
330
2
100
AcDbSymbolTableRecord
100
AcDbLayerTableRecord
  2
7_ALL_FEATURES
 70
     0
 62
     7
  6
CONTINUOUS
370
    -3
390
F
  0
LAYER
  5
21B
330
2
100
AcDbSymbolTableRecord
100
AcDbLayerTableRecord
  2
8_ALL_NOTES_BALLOONS_SYMBOLS_GT
 70
     0
 62
     7
  6
CONTINUOUS
370
    -3
390
F
  0
LAYER
  5
499
330
2
100
AcDbSymbolTableRecord
100
AcDbLayerTableRecord
  2
Defpoints
 70
     0
 62
     7
  6
CONTINUOUS
290
     0
370
    -3
390
F
  0
ENDTAB
  0
TABLE
  2
STYLE
  5
3
330
0
100
AcDbSymbolTable
 70
     6
  0
STYLE
  5
11
330
3
100
AcDbSymbolTableRecord
100
AcDbTextStyleTableRecord
  2
STANDARD
 70
     0
 40
0.0
 41
0.85
 50
0.0
 71
     0
 42
0.2
  3
txt
  4

  0
STYLE
  5
21C
330
3
100
AcDbSymbolTableRecord
100
AcDbTextStyleTableRecord
  2
TEXTSTYLE_1
 70
     0
 40
0.0
 41
0.8
 50
0.0
 71
     0
 42
0.2
  3
gdt
  4

  0
STYLE
  5
21D
330
3
100
AcDbSymbolTableRecord
100
AcDbTextStyleTableRecord
  2
TEXTSTYLE_2
 70
     0
 40
0.0
 41
0.9
 50
0.0
 71
     0
 42
0.2
  3
txt
  4

  0
STYLE
  5
21E
330
3
100
AcDbSymbolTableRecord
100
AcDbTextStyleTableRecord
  2
TEXTSTYLE_3
 70
     0
 40
0.0
 41
0.9
 50
0.0
 71
     0
 42
0.2
  3
txt
  4

  0
STYLE
  5
21F
330
3
100
AcDbSymbolTableRecord
100
AcDbTextStyleTableRecord
  2
TEXTSTYLE_4
 70
     0
 40
0.0
 41
0.85
 50
0.0
 71
     0
 42
0.2
  3
gdt
  4

  0
STYLE
  5
220
330
3
100
AcDbSymbolTableRecord
100
AcDbTextStyleTableRecord
  2
TEXTSTYLE_5
 70
     0
 40
0.0
 41
0.85
 50
0.0
 71
     0
 42
0.2
  3
txt
  4

  0
ENDTAB
  0
TABLE
  2
VIEW
  5
6
330
0
100
AcDbSymbolTable
 70
     0
  0
ENDTAB
  0
TABLE
  2
UCS
  5
7
330
0
100
AcDbSymbolTable
 70
     0
  0
ENDTAB
  0
TABLE
  2
APPID
  5
9
330
0
100
AcDbSymbolTable
 70
     1
  0
APPID
  5
221
330
9
100
AcDbSymbolTableRecord
100
AcDbRegAppTableRecord
  2
ACAD
 70
     0
  0
ENDTAB
  0
TABLE
  2
DIMSTYLE
  5
A
330
0
100
AcDbSymbolTable
 70
     5
100
AcDbDimStyleTable
  0
DIMSTYLE
105
22B
330
A
100
AcDbSymbolTableRecord
100
AcDbDimStyleTableRecord
  2
STANDARD
 70
     0
 41
2.5
 47
0.01
 48
0.01
 71
     1
 73
     0
 74
     0
 77
     1
 78
     8
140
3.0
178
     0
271
     2
272
     2
284
     8
340
11
341
224
342
224
343
224
344
224
  0
DIMSTYLE
105
22C
330
A
100
AcDbSymbolTableRecord
100
AcDbDimStyleTableRecord
  2
DIMSTYLE_1
 70
     0
 41
2.5
 47
0.3
 48
0.3
 73
     0
 74
     0
 77
     1
 78
     8
140
3.0
178
     0
271
     0
272
     0
284
     8
340
11
341
224
342
224
343
224
344
224
  0
DIMSTYLE
105
22D
330
A
100
AcDbSymbolTableRecord
100
AcDbDimStyleTableRecord
  2
DIMSTYLE_2
 70
     0
 41
2.5
 47
0.3
 48
0.3
 73
     0
 74
     0
 77
     1
 78
     8
140
3.0
178
     0
271
     2
272
     2
284
     8
340
11
341
224
342
224
343
224
344
224
  0
DIMSTYLE
105
22E
330
A
100
AcDbSymbolTableRecord
100
AcDbDimStyleTableRecord
  2
DIMSTYLE_3
 70
     0
 41
2.5
 47
0.3
 48
0.3
 73
     0
 74
     0
 77
     1
 78
     8
140
3.0
178
     0
271
     2
272
     2
284
     8
340
11
341
224
342
224
343
224
344
224
  0
DIMSTYLE
105
22F
330
A
100
AcDbSymbolTableRecord
100
AcDbDimStyleTableRecord
  2
DIMSTYLE_4
 70
     0
 41
2.5
 47
0.1
 48
0.1
 73
     0
 74
     0
 77
     1
 78
     8
140
3.0
178
     0
271
     2
272
     2
284
     8
340
11
341
224
342
224
343
224
344
224
  0
ENDTAB
  0
TABLE
  2
BLOCK_RECORD
  5
1
330
0
100
AcDbSymbolTable
 70
     7
  0
BLOCK_RECORD
  5
222
330
1
100
AcDbSymbolTableRecord
100
AcDbBlockTableRecord
  2
*Model_Space
340
450
  0
BLOCK_RECORD
  5
223
330
1
100
AcDbSymbolTableRecord
100
AcDbBlockTableRecord
  2
*Paper_Space
340
451
  0
BLOCK_RECORD
  5
224
330
1
100
AcDbSymbolTableRecord
100
AcDbBlockTableRecord
  2
_CLOSED
340
0
102
{BLKREFS
331
0
331
0
331
27E
331
0
331
0
331
0
331
0
331
277
331
276
331
285
331
284
331
290
331
28F
102
}
  0
BLOCK_RECORD
  5
225
330
1
100
AcDbSymbolTableRecord
100
AcDbBlockTableRecord
  2
*D1
340
0
  0
BLOCK_RECORD
  5
226
330
1
100
AcDbSymbolTableRecord
100
AcDbBlockTableRecord
  2
*D2
340
0
  0
BLOCK_RECORD
  5
227
330
1
100
AcDbSymbolTableRecord
100
AcDbBlockTableRecord
  2
*D3
340
0
  0
BLOCK_RECORD
  5
228
330
1
100
AcDbSymbolTableRecord
100
AcDbBlockTableRecord
  2
*D4
340
0
  0
BLOCK_RECORD
  5
229
330
1
100
AcDbSymbolTableRecord
100
AcDbBlockTableRecord
  2
LOGO2_BL0
340
0
102
{BLKREFS
331
2B9
102
}
  0
BLOCK_RECORD
  5
22A
330
1
100
AcDbSymbolTableRecord
100
AcDbBlockTableRecord
  2
*T6
340
0
102
{BLKREFS
331
2BA
331
2BA
102
}
  0
ENDTAB
  0
ENDSEC
  0
SECTION
  2
BLOCKS
  0
BLOCK
  5
20
330
222
100
AcDbEntity
  8
0
100
AcDbBlockBegin
  2
*Model_Space
 70
     0
 10
0.0
 20
0.0
 30
0.0
  3
*Model_Space
  1
*Model_Space
  0
ENDBLK
  5
21
330
222
100
AcDbEntity
  8
0
100
AcDbBlockEnd
  0
BLOCK
  5
1C
330
223
100
AcDbEntity
 67
     1
  8
0
100
AcDbBlockBegin
  2
*Paper_Space
 70
     0
 10
0.0
 20
0.0
 30
0.0
  3
*Paper_Space
  1
*Paper_Space
  0
ENDBLK
  5
1D
330
223
100
AcDbEntity
 67
     1
  8
0
100
AcDbBlockEnd
  0
BLOCK
  5
26C
330
224
100
AcDbEntity
  8
0
100
AcDbBlockBegin
  2
_CLOSED
 70
     0
 10
0.0
 20
0.0
 30
0.0
  3
_CLOSED
  1
_CLOSED
  0
LINE
  5
26D
330
224
100
AcDbEntity
  8
0
  6
ByBlock
 62
     0
100
AcDbLine
 10
0.0
 20
0.0
 30
0.0
 11
-1.0
 21
0.2
 31
0.0
  0
LINE
  5
26E
330
224
100
AcDbEntity
  8
0
  6
ByBlock
 62
     0
100
AcDbLine
 10
-1.0
 20
0.2
 30
0.0
 11
-1.0
 21
-0.2
 31
0.0
  0
LINE
  5
26F
330
224
100
AcDbEntity
  8
0
  6
ByBlock
 62
     0
100
AcDbLine
 10
-1.0
 20
-0.2
 30
0.0
 11
0.0
 21
0.0
 31
0.0
  0
LINE
  5
270
330
224
100
AcDbEntity
  8
0
  6
ByBlock
 62
     0
100
AcDbLine
 10
-1.0
 20
0.0
 30
0.0
 11
0.0
 21
0.0
 31
0.0
  0
ENDBLK
  5
271
330
224
100
AcDbEntity
  8
0
  6
ByBlock
 62
     0
100
AcDbBlockEnd
  0
BLOCK
  5
272
330
225
100
AcDbEntity
  8
0
100
AcDbBlockBegin
  2
*D1
 70
     1
 10
0.0
 20
0.0
 30
0.0
  3
*D1
  1
*D1
  0
LINE
  5
273
330
225
100
AcDbEntity
  8
0
  6
Continuous
 62
     0
370
    -2
100
AcDbLine
 10
102.423177213
 20
51.8729561135
 30
0.0
 11
109.0804043078
 21
51.8729561135
 31
0.0
  0
LINE
  5
274
330
225
100
AcDbEntity
  8
0
  6
Continuous
 62
     0
370
    -2
100
AcDbLine
 10
102.8253299402
 20
103.6729561135
 30
0.0
 11
109.0804043078
 21
103.6729561135
 31
0.0
  0
LINE
  5
275
330
225
100
AcDbEntity
  8
0
  6
Continuous
 62
     0
370
    -2
100
AcDbLine
 10
108.9004043078
 20
54.3729561135
 30
0.0
 11
108.9004043078
 21
101.1729561135
 31
0.0
  0
INSERT
  5
276
330
225
100
AcDbEntity
  8
0
 62
     0
370
    -2
100
AcDbBlockReference
  2
_CLOSED
 10
108.9004043078
 20
51.8729561135
 30
0.0
 41
2.5
 42
2.5
 43
2.5
 50
270.0
  0
INSERT
  5
277
330
225
100
AcDbEntity
  8
0
 62
     0
370
    -2
100
AcDbBlockReference
  2
_CLOSED
 10
108.9004043078
 20
103.6729561135
 30
0.0
 41
2.5
 42
2.5
 43
2.5
 50
90.0
  0
MTEXT
  5
278
330
225
100
AcDbEntity
  8
0
 62
     0
100
AcDbMText
 10
103.9004043078
 20
77.7729561135
 30
0.0
 40
3.0
 41
0.0
 71
     2
 72
     1
  1
\A1;52
 11
0.0
 21
1.0
 31
0.0
 73
     1
 44
1.0
  0
POINT
  5
279
330
225
100
AcDbEntity
  8
Defpoints
 62
     0
100
AcDbPoint
 10
102.360677213
 20
51.8729561135
 30
0.0
  0
POINT
  5
49A
330
225
100
AcDbEntity
  8
Defpoints
 62
     0
100
AcDbPoint
 10
102.7628299402
 20
103.6729561135
 30
0.0
  0
POINT
  5
49B
330
225
100
AcDbEntity
  8
Defpoints
 62
     0
100
AcDbPoint
 10
108.9004043078
 20
103.6729561135
 30
0.0
  0
ENDBLK
  5
27A
330
225
100
AcDbEntity
  8
0
  6
ByBlock
 62
     0
100
AcDbBlockEnd
  0
BLOCK
  5
27B
330
226
100
AcDbEntity
  8
0
100
AcDbBlockBegin
  2
*D2
 70
     1
 10
0.0
 20
0.0
 30
0.0
  3
*D2
  1
*D2
  0
LINE
  5
27C
330
226
100
AcDbEntity
  8
0
  6
Continuous
 62
     0
370
    -2
100
AcDbLine
 10
100.6002319585313
 20
230.9202774558799
 30
0.0
 11
113.1766695608968
 21
235.8139724398707
 31
0.0
  0
MTEXT
  5
27D
330
226
100
AcDbEntity
  8
0
 62
     0
100
AcDbMText
 10
103.1625070771619
 20
237.282492017322
 30
0.0
 40
3.0
 41
0.0
 71
     1
 72
     1
  1
\A1;%%c55
 11
0.9319331095677744
 21
0.3626302239076861
 31
0.0
 73
     1
 44
1.0
  0
INSERT
  5
27E
330
226
100
AcDbEntity
  8
0
 62
     0
370
    -2
100
AcDbBlockReference
  2
_CLOSED
 10
98.27039918461188
 20
230.0137018961107
 30
0.0
 41
2.5
 42
2.5
 43
2.5
 50
201.2618152079098
  0
LINE
  5
49C
330
226
100
AcDbEntity
  8
0
  6
Continuous
 62
     0
100
AcDbLine
 10
72.55223867149972
 20
220.0413707386499
 30
0.0
 11
72.73223867149973
 21
220.0413707386499
 31
0.0
  0
LINE
  5
49D
330
226
100
AcDbEntity
  8
0
  6
Continuous
 62
     0
100
AcDbLine
 10
72.64223867149973
 20
219.9513707386499
 30
0.0
 11
72.64223867149973
 21
220.1313707386499
 31
0.0
  0
POINT
  5
4A2
330
226
100
AcDbEntity
  8
Defpoints
 62
     0
100
AcDbPoint
 10
98.27039918461188
 20
230.0137018961107
 30
0.0
  0
POINT
  5
4A3
330
226
100
AcDbEntity
  8
Defpoints
 62
     0
100
AcDbPoint
 10
47.01407815838757
 20
210.0690395811892
 30
0.0
  0
ENDBLK
  5
27F
330
226
100
AcDbEntity
  8
0
  6
ByBlock
 62
     0
100
AcDbBlockEnd
  0
BLOCK
  5
280
330
227
100
AcDbEntity
  8
0
100
AcDbBlockBegin
  2
*D3
 70
     1
 10
0.0
 20
0.0
 30
0.0
  3
*D3
  1
*D3
  0
LINE
  5
281
330
227
100
AcDbEntity
  8
0
  6
Continuous
 62
     0
370
    -2
100
AcDbLine
 10
175.5955269509
 20
240.0413707386
 30
0.0
 11
165.8620201498
 21
240.0413707386
 31
0.0
  0
LINE
  5
282
330
227
100
AcDbEntity
  8
0
  6
Continuous
 62
     0
370
    -2
100
AcDbLine
 10
175.0064360418
 20
200.0413707386
 30
0.0
 11
165.8620201498
 21
200.0413707386
 31
0.0
  0
LINE
  5
283
330
227
100
AcDbEntity
  8
0
  6
Continuous
 62
     0
370
    -2
100
AcDbLine
 10
166.0420201498
 20
237.5413707386
 30
0.0
 11
166.0420201498
 21
202.5413707386
 31
0.0
  0
INSERT
  5
284
330
227
100
AcDbEntity
  8
0
 62
     0
370
    -2
100
AcDbBlockReference
  2
_CLOSED
 10
166.0420201498
 20
240.0413707386
 30
0.0
 41
2.5
 42
2.5
 43
2.5
 50
90.0
  0
INSERT
  5
285
330
227
100
AcDbEntity
  8
0
 62
     0
370
    -2
100
AcDbBlockReference
  2
_CLOSED
 10
166.0420201498
 20
200.0413707386
 30
0.0
 41
2.5
 42
2.5
 43
2.5
 50
270.0
  0
MTEXT
  5
286
330
227
100
AcDbEntity
  8
0
 62
     0
100
AcDbMText
 10
161.0420201498
 20
220.0413707386
 30
0.0
 40
3.0
 41
0.0
 71
     2
 72
     1
  1
\A1;40
 11
0.0
 21
1.0
 31
0.0
 73
     1
 44
1.0
  0
POINT
  5
287
330
227
100
AcDbEntity
  8
Defpoints
 62
     0
100
AcDbPoint
 10
175.6580269509
 20
240.0413707386
 30
0.0
  0
POINT
  5
49E
330
227
100
AcDbEntity
  8
Defpoints
 62
     0
100
AcDbPoint
 10
175.0689360418
 20
200.0413707386
 30
0.0
  0
POINT
  5
49F
330
227
100
AcDbEntity
  8
Defpoints
 62
     0
100
AcDbPoint
 10
166.0420201498
 20
200.0413707386
 30
0.0
  0
ENDBLK
  5
288
330
227
100
AcDbEntity
  8
0
  6
ByBlock
 62
     0
100
AcDbBlockEnd
  0
BLOCK
  5
289
330
228
100
AcDbEntity
  8
0
100
AcDbBlockBegin
  2
*D4
 70
     1
 10
0.0
 20
0.0
 30
0.0
  3
*D4
  1
*D4
  0
LINE
  5
28A
330
228
100
AcDbEntity
  8
0
  6
Continuous
 62
     0
370
    -2
100
AcDbLine
 10
227.4358466261
 20
250.3335611477
 30
0.0
 11
227.4358466261
 21
272.2537390319
 31
0.0
  0
LINE
  5
28B
330
228
100
AcDbEntity
  8
0
  6
Continuous
 62
     0
370
    -2
100
AcDbLine
 10
229.0358466261
 20
250.5849066022
 30
0.0
 11
229.0358466261
 21
272.2537390319
 31
0.0
  0
LINE
  5
28C
330
228
100
AcDbEntity
  8
0
  6
Continuous
 62
     0
370
    -2
100
AcDbLine
 10
227.4358466261
 20
272.0737390319
 30
0.0
 11
214.04178818455
 21
272.0737390319
 31
0.0
  0
LINE
  5
28D
330
228
100
AcDbEntity
  8
0
  6
Continuous
 62
     0
370
    -2
100
AcDbLine
 10
224.9358466261
 20
272.0737390319
 30
0.0
 11
222.4358466261
 21
272.0737390319
 31
0.0
  0
LINE
  5
28E
330
228
100
AcDbEntity
  8
0
  6
Continuous
 62
     0
370
    -2
100
AcDbLine
 10
231.5358466261
 20
272.0737390319
 30
0.0
 11
234.0358466261
 21
272.0737390319
 31
0.0
  0
INSERT
  5
28F
330
228
100
AcDbEntity
  8
0
 62
     0
370
    -2
100
AcDbBlockReference
  2
_CLOSED
 10
227.4358466261
 20
272.0737390319
 30
0.0
 41
2.5
 42
2.5
 43
2.5
  0
INSERT
  5
290
330
228
100
AcDbEntity
  8
0
 62
     0
370
    -2
100
AcDbBlockReference
  2
_CLOSED
 10
229.0358466261
 20
272.0737390319
 30
0.0
 41
2.5
 42
2.5
 43
2.5
 50
180.0
  0
MTEXT
  5
291
330
228
100
AcDbEntity
  8
0
 62
     0
100
AcDbMText
 10
220.29178818455
 20
277.0737390319
 30
0.0
 40
3.0
 41
0.0
 71
     3
 72
     1
  1
\A1;1.6
 73
     1
 44
1.0
  0
POINT
  5
292
330
228
100
AcDbEntity
  8
Defpoints
 62
     0
100
AcDbPoint
 10
227.4358466261
 20
250.2710611477
 30
0.0
  0
POINT
  5
4A0
330
228
100
AcDbEntity
  8
Defpoints
 62
     0
100
AcDbPoint
 10
229.0358466261
 20
250.5224066022
 30
0.0
  0
POINT
  5
4A1
330
228
100
AcDbEntity
  8
Defpoints
 62
     0
100
AcDbPoint
 10
229.0358466261
 20
272.0737390319
 30
0.0
  0
ENDBLK
  5
293
330
228
100
AcDbEntity
  8
0
  6
ByBlock
 62
     0
100
AcDbBlockEnd
  0
BLOCK
  5
230
330
229
100
AcDbEntity
  8
0
100
AcDbBlockBegin
  2
LOGO2_BL0
 70
     0
 10
333.1473869546
 20
37.5239270671
 30
0.0
  3
LOGO2_BL0
  1
LOGO2_BL0
  0
LINE
  5
231
330
229
100
AcDbEntity
  8
0
  6
Continuous
 62
     7
100
AcDbLine
 10
324.8903121828
 20
40.7194184059
 30
0.0
 11
323.5859712535
 21
40.7194184059
 31
0.0
  0
LINE
  5
232
330
229
100
AcDbEntity
  8
0
  6
Continuous
 62
     7
100
AcDbLine
 10
323.5859712535
 20
40.7194184059
 30
0.0
 11
323.5859712535
 21
30.260352346
 31
0.0
  0
LINE
  5
233
330
229
100
AcDbEntity
  8
0
  6
Continuous
 62
     7
100
AcDbLine
 10
323.5859712535
 20
30.260352346
 30
0.0
 11
328.0670261417
 21
30.260352346
 31
0.0
  0
LINE
  5
234
330
229
100
AcDbEntity
  8
0
  6
Continuous
 62
     7
100
AcDbLine
 10
328.0670261417
 20
30.260352346
 30
0.0
 11
328.0670261417
 21
31.4532066711
 31
0.0
  0
LINE
  5
235
330
229
100
AcDbEntity
  8
0
  6
Continuous
 62
     7
100
AcDbLine
 10
328.0670261417
 20
31.4532066711
 30
0.0
 11
324.8903121828
 21
31.4532066711
 31
0.0
  0
LINE
  5
236
330
229
100
AcDbEntity
  8
0
  6
Continuous
 62
     7
100
AcDbLine
 10
324.8903121828
 20
31.4532066711
 30
0.0
 11
324.8903121828
 21
40.7194184059
 31
0.0
  0
LINE
  5
237
330
229
100
AcDbEntity
  8
0
  6
Continuous
 62
     7
100
AcDbLine
 10
339.8266383991
 20
40.7194184059
 30
0.0
 11
338.522820881
 21
40.7194184059
 31
0.0
  0
LINE
  5
238
330
229
100
AcDbEntity
  8
0
  6
Continuous
 62
     7
100
AcDbLine
 10
338.522820881
 20
40.7194184059
 30
0.0
 11
338.522820881
 21
30.260352346
 31
0.0
  0
LINE
  5
239
330
229
100
AcDbEntity
  8
0
  6
Continuous
 62
     7
100
AcDbLine
 10
338.522820881
 20
30.260352346
 30
0.0
 11
343.0040066221
 21
30.260352346
 31
0.0
  0
LINE
  5
23A
330
229
100
AcDbEntity
  8
0
  6
Continuous
 62
     7
100
AcDbLine
 10
343.0040066221
 20
30.260352346
 30
0.0
 11
343.0040066221
 21
31.4532066711
 31
0.0
  0
LINE
  5
23B
330
229
100
AcDbEntity
  8
0
  6
Continuous
 62
     7
100
AcDbLine
 10
343.0040066221
 20
31.4532066711
 30
0.0
 11
339.8266383991
 21
31.4532066711
 31
0.0
  0
LINE
  5
23C
330
229
100
AcDbEntity
  8
0
  6
Continuous
 62
     7
100
AcDbLine
 10
339.8266383991
 20
31.4532066711
 30
0.0
 11
339.8266383991
 21
40.7194184059
 31
0.0
  0
LWPOLYLINE
  5
23D
330
229
100
AcDbEntity
  8
0
  6
Continuous
 62
     7
100
AcDbPolyline
 90
        2
 70
     0
 43
0.2
 10
321.9403661644
 20
26.9168010391
 10
321.9403661644
 20
25.0597377898
  0
LWPOLYLINE
  5
23E
330
229
100
AcDbEntity
  8
0
  6
Continuous
 62
     7
100
AcDbPolyline
 90
        2
 70
     0
 43
0.2
 10
321.9403661644
 20
25.0597377898
 10
322.7360821748
 20
25.0597377898
  0
LWPOLYLINE
  5
23F
330
229
100
AcDbEntity
  8
0
  6
Continuous
 62
     7
100
AcDbPolyline
 90
        2
 70
     0
 43
0.2
 10
322.7360821748
 20
25.0597377898
 10
322.7360821748
 20
25.2717193614
  0
LWPOLYLINE
  5
240
330
229
100
AcDbEntity
  8
0
  6
Continuous
 62
     7
100
AcDbPolyline
 90
        2
 70
     0
 43
0.2
 10
322.7360821748
 20
25.2717193614
 10
322.1719756593
 20
25.2717193614
  0
LWPOLYLINE
  5
241
330
229
100
AcDbEntity
  8
0
  6
Continuous
 62
     7
100
AcDbPolyline
 90
        2
 70
     0
 43
0.2
 10
322.1719756593
 20
25.2717193614
 10
322.1719756593
 20
26.9168010391
  0
LWPOLYLINE
  5
242
330
229
100
AcDbEntity
  8
0
  6
Continuous
 62
     7
100
AcDbPolyline
 90
        2
 70
     0
 43
0.2
 10
322.1719756593
 20
26.9168010391
 10
321.9403661644
 20
26.9168010391
  0
SPLINE
  5
243
330
229
100
AcDbEntity
  8
0
  6
Continuous
 62
     7
100
AcDbSpline
 70
     3
 71
     3
 72
    35
 73
    31
 74
     0
 42
0.000000001
 43
0.0000001
 40
0.0
 40
0.0
 40
0.0
 40
0.0
 40
1.0
 40
1.0
 40
1.0
 40
2.0
 40
2.0
 40
2.0
 40
3.0
 40
3.0
 40
3.0
 40
4.0
 40
4.0
 40
4.0
 40
5.0
 40
5.0
 40
5.0
 40
6.0
 40
6.0
 40
6.0
 40
7.0
 40
7.0
 40
7.0
 40
8.0
 40
8.0
 40
8.0
 40
9.0
 40
9.0
 40
9.0
 40
10.0
 40
10.0
 40
10.0
 40
10.0
 10
324.1343754303
 20
26.2122894457
 30
0.0
 10
324.1343754303
 20
26.2122894457
 30
0.0
 10
324.1343754303
 20
25.5501741665
 30
0.0
 10
324.1343754303
 20
25.5501741665
 30
0.0
 10
324.1343754303
 20
25.2350805712
 30
0.0
 10
324.2822391191
 20
25.0204819432
 30
0.0
 10
324.6223256034
 20
25.0204819432
 30
0.0
 10
324.9618886764
 20
25.0204819432
 30
0.0
 10
325.1100140709
 20
25.2350805712
 30
0.0
 10
325.1100140709
 20
25.5501741665
 30
0.0
 10
325.1100140709
 20
25.5501741665
 30
0.0
 10
325.1100140709
 20
26.2122894457
 30
0.0
 10
325.1100140709
 20
26.2122894457
 30
0.0
 10
325.1100140709
 20
26.2122894457
 30
0.0
 10
324.887956832
 20
26.2122894457
 30
0.0
 10
324.887956832
 20
26.2122894457
 30
0.0
 10
324.887956832
 20
26.2122894457
 30
0.0
 10
324.887956832
 20
25.5752979083
 30
0.0
 10
324.887956832
 20
25.5752979083
 30
0.0
 10
324.887956832
 20
25.3894869011
 30
0.0
 10
324.8412423746
 20
25.2267059906
 30
0.0
 10
324.6223256034
 20
25.2267059906
 30
0.0
 10
324.402885421
 20
25.2267059906
 30
0.0
 10
324.3561709636
 20
25.3894869011
 30
0.0
 10
324.3561709636
 20
25.5752979083
 30
0.0
 10
324.3561709636
 20
25.5752979083
 30
0.0
 10
324.3561709636
 20
26.2122894457
 30
0.0
 10
324.3561709636
 20
26.2122894457
 30
0.0
 10
324.3561709636
 20
26.2122894457
 30
0.0
 10
324.1343754303
 20
26.2122894457
 30
0.0
 10
324.1343754303
 20
26.2122894457
 30
0.0
  0
SPLINE
  5
244
330
229
100
AcDbEntity
  8
0
  6
Continuous
 62
     7
100
AcDbSpline
 70
     3
 71
     3
 72
    35
 73
    31
 74
     0
 42
0.000000001
 43
0.0000001
 40
0.0
 40
0.0
 40
0.0
 40
0.0
 40
1.0
 40
1.0
 40
1.0
 40
2.0
 40
2.0
 40
2.0
 40
3.0
 40
3.0
 40
3.0
 40
4.0
 40
4.0
 40
4.0
 40
5.0
 40
5.0
 40
5.0
 40
6.0
 40
6.0
 40
6.0
 40
7.0
 40
7.0
 40
7.0
 40
8.0
 40
8.0
 40
8.0
 40
9.0
 40
9.0
 40
9.0
 40
10.0
 40
10.0
 40
10.0
 40
10.0
 10
327.5331466281
 20
26.1709399539
 30
0.0
 10
327.4446901205
 20
26.2222342601
 30
0.0
 10
327.3312407238
 20
26.2473580019
 30
0.0
 10
327.2276052888
 20
26.2473580019
 30
0.0
 10
326.8727324356
 20
26.2473580019
 30
0.0
 10
326.5972872454
 20
25.9835587129
 30
0.0
 10
326.5972872454
 20
25.6260688032
 30
0.0
 10
326.5972872454
 20
25.2811407645
 30
0.0
 10
326.8757420505
 20
25.0210053545
 30
0.0
 10
327.2153051235
 20
25.0210053545
 30
0.0
 10
327.3312407238
 20
25.0210053545
 30
0.0
 10
327.4319973967
 20
25.0429886286
 30
0.0
 10
327.5331466281
 20
25.0968999912
 30
0.0
 10
327.5331466281
 20
25.0968999912
 30
0.0
 10
327.5331466281
 20
25.3795420867
 30
0.0
 10
327.5331466281
 20
25.3795420867
 30
0.0
 10
327.4492699692
 20
25.2863748774
 30
0.0
 10
327.345765387
 20
25.2272294019
 30
0.0
 10
327.2176604743
 20
25.2272294019
 30
0.0
 10
326.9839573343
 20
25.2272294019
 30
0.0
 10
326.8186902202
 20
25.3994317156
 30
0.0
 10
326.8186902202
 20
25.6360136177
 30
0.0
 10
326.8186902202
 20
25.8479951893
 30
0.0
 10
326.9864435379
 20
26.040087132
 30
0.0
 10
327.2032666639
 20
26.040087132
 30
0.0
 10
327.3360822782
 20
26.040087132
 30
0.0
 10
327.4446901205
 20
25.9861757693
 30
0.0
 10
327.5331466281
 20
25.8851573907
 30
0.0
 10
327.5331466281
 20
25.8851573907
 30
0.0
 10
327.5331466281
 20
26.1709399539
 30
0.0
 10
327.5331466281
 20
26.1709399539
 30
0.0
  0
SPLINE
  5
245
330
229
100
AcDbEntity
  8
0
  6
Continuous
 62
     7
100
AcDbSpline
 70
     3
 71
     3
 72
    32
 73
    28
 74
     0
 42
0.000000001
 43
0.0000001
 40
0.0
 40
0.0
 40
0.0
 40
0.0
 40
1.0
 40
1.0
 40
1.0
 40
2.0
 40
2.0
 40
2.0
 40
3.0
 40
3.0
 40
3.0
 40
4.0
 40
4.0
 40
4.0
 40
5.0
 40
5.0
 40
5.0
 40
6.0
 40
6.0
 40
6.0
 40
7.0
 40
7.0
 40
7.0
 40
8.0
 40
8.0
 40
8.0
 40
9.0
 40
9.0
 40
9.0
 40
9.0
 10
330.0650178804
 20
25.5993748276
 30
0.0
 10
330.0650178804
 20
25.5993748276
 30
0.0
 10
330.0650178804
 20
25.6333965613
 30
0.0
 10
330.0650178804
 20
25.6333965613
 30
0.0
 10
330.0650178804
 20
25.9757075435
 30
0.0
 10
329.8921613025
 20
26.2473580019
 30
0.0
 10
329.5255116954
 20
26.2473580019
 30
0.0
 10
329.153889681
 20
26.2473580019
 30
0.0
 10
328.9641530891
 20
25.9809416564
 30
0.0
 10
328.9641530891
 20
25.6260688032
 30
0.0
 10
328.9641530891
 20
25.2863748774
 30
0.0
 10
329.1782283059
 20
25.0204819432
 30
0.0
 10
329.5303532498
 20
25.0204819432
 30
0.0
 10
329.754373281
 20
25.0204819432
 30
0.0
 10
329.9565408909
 20
25.1361558378
 30
0.0
 10
330.0650178804
 20
25.3355755385
 30
0.0
 10
330.0650178804
 20
25.3355755385
 30
0.0
 10
329.8773749337
 20
25.4423514412
 30
0.0
 10
329.8773749337
 20
25.4423514412
 30
0.0
 10
329.7938908332
 20
25.3036474499
 30
0.0
 10
329.7026864163
 20
25.2178079987
 30
0.0
 10
329.5331011591
 20
25.2178079987
 30
0.0
 10
329.3211195875
 20
25.2178079987
 30
0.0
 10
329.1881731204
 20
25.4025721833
 30
0.0
 10
329.1858177696
 20
25.5993748276
 30
0.0
 10
329.1858177696
 20
25.5993748276
 30
0.0
 10
330.0650178804
 20
25.5993748276
 30
0.0
 10
330.0650178804
 20
25.5993748276
 30
0.0
  0
SPLINE
  5
246
330
229
100
AcDbEntity
  8
0
  6
Continuous
 62
     7
100
AcDbSpline
 70
     3
 71
     3
 72
    14
 73
    10
 74
     0
 42
0.000000001
 43
0.0000001
 40
0.0
 40
0.0
 40
0.0
 40
0.0
 40
1.0
 40
1.0
 40
1.0
 40
2.0
 40
2.0
 40
2.0
 40
3.0
 40
3.0
 40
3.0
 40
3.0
 10
329.1978562292
 20
25.7668664397
 30
0.0
 10
329.2254661746
 20
25.9317409954
 30
0.0
 10
329.3533093817
 20
26.054742648
 30
0.0
 10
329.5255116954
 20
26.054742648
 30
0.0
 10
329.7026864163
 20
26.054742648
 30
0.0
 10
329.816135813
 20
25.9390687534
 30
0.0
 10
329.8433531999
 20
25.7668664397
 30
0.0
 10
329.8433531999
 20
25.7668664397
 30
0.0
 10
329.1978562292
 20
25.7668664397
 30
0.0
 10
329.1978562292
 20
25.7668664397
 30
0.0
  0
SPLINE
  5
247
330
229
100
AcDbEntity
  8
0
  6
Continuous
 62
     7
100
AcDbSpline
 70
     3
 71
     3
 72
    20
 73
    16
 74
     0
 42
0.000000001
 43
0.0000001
 40
0.0
 40
0.0
 40
0.0
 40
0.0
 40
1.0
 40
1.0
 40
1.0
 40
2.0
 40
2.0
 40
2.0
 40
3.0
 40
3.0
 40
3.0
 40
4.0
 40
4.0
 40
4.0
 40
5.0
 40
5.0
 40
5.0
 40
5.0
 10
332.0890493306
 20
25.9762309548
 30
0.0
 10
332.0890493306
 20
25.9762309548
 30
0.0
 10
332.5001888972
 20
25.4737561185
 30
0.0
 10
332.5001888972
 20
25.4737561185
 30
0.0
 10
332.3841224441
 20
25.3580822239
 30
0.0
 10
332.2463344226
 20
25.2277528132
 30
0.0
 10
332.0743938145
 20
25.2277528132
 30
0.0
 10
331.8969573879
 20
25.2277528132
 30
0.0
 10
331.7294657758
 20
25.3921039576
 30
0.0
 10
331.7294657758
 20
25.5690169729
 30
0.0
 10
331.7294657758
 20
25.7469768107
 30
0.0
 10
331.9392228494
 20
25.8731189311
 30
0.0
 10
332.0668043508
 20
25.9610520275
 30
0.0
 10
332.0668043508
 20
25.9610520275
 30
0.0
 10
332.0890493306
 20
25.9762309548
 30
0.0
 10
332.0890493306
 20
25.9762309548
 30
0.0
  0
SPLINE
  5
248
330
229
100
AcDbEntity
  8
0
  6
Continuous
 62
     7
100
AcDbSpline
 70
     3
 71
     3
 72
    23
 73
    19
 74
     0
 42
0.000000001
 43
0.0000001
 40
0.0
 40
0.0
 40
0.0
 40
0.0
 40
1.0
 40
1.0
 40
1.0
 40
2.0
 40
2.0
 40
2.0
 40
3.0
 40
3.0
 40
3.0
 40
4.0
 40
4.0
 40
4.0
 40
5.0
 40
5.0
 40
5.0
 40
6.0
 40
6.0
 40
6.0
 40
6.0
 10
332.1383808444
 20
26.2672476309
 30
0.0
 10
332.1383808444
 20
26.2672476309
 30
0.0
 10
332.0767491653
 20
26.3457593241
 30
0.0
 10
332.0767491653
 20
26.3457593241
 30
0.0
 10
332.0228378026
 20
26.4143262028
 30
0.0
 10
331.9660476779
 20
26.4834164928
 30
0.0
 10
331.9660476779
 20
26.5771071133
 30
0.0
 10
331.9660476779
 20
26.6959214757
 30
0.0
 10
332.0619627964
 20
26.7733863463
 30
0.0
 10
332.1729259894
 20
26.7733863463
 30
0.0
 10
332.2961893477
 20
26.7733863463
 30
0.0
 10
332.3894874098
 20
26.7022024111
 30
0.0
 10
332.3894874098
 20
26.5718730004
 30
0.0
 10
332.3894874098
 20
26.4368328882
 30
0.0
 10
332.2613824971
 20
26.3604148401
 30
0.0
 10
332.1678227294
 20
26.2866138485
 30
0.0
 10
332.1678227294
 20
26.2866138485
 30
0.0
 10
332.1383808444
 20
26.2672476309
 30
0.0
 10
332.1383808444
 20
26.2672476309
 30
0.0
  0
SPLINE
  5
249
330
229
100
AcDbEntity
  8
0
  6
Continuous
 62
     7
100
AcDbSpline
 70
     3
 71
     3
 72
    50
 73
    46
 74
     0
 42
0.000000001
 43
0.0000001
 40
0.0
 40
0.0
 40
0.0
 40
0.0
 40
1.0
 40
1.0
 40
1.0
 40
2.0
 40
2.0
 40
2.0
 40
3.0
 40
3.0
 40
3.0
 40
4.0
 40
4.0
 40
4.0
 40
5.0
 40
5.0
 40
5.0
 40
6.0
 40
6.0
 40
6.0
 40
7.0
 40
7.0
 40
7.0
 40
8.0
 40
8.0
 40
8.0
 40
9.0
 40
9.0
 40
9.0
 40
10.0
 40
10.0
 40
10.0
 40
11.0
 40
11.0
 40
11.0
 40
12.0
 40
12.0
 40
12.0
 40
13.0
 40
13.0
 40
13.0
 40
14.0
 40
14.0
 40
14.0
 40
15.0
 40
15.0
 40
15.0
 40
15.0
 10
332.8405370871
 20
25.0602612011
 30
0.0
 10
332.8405370871
 20
25.0602612011
 30
0.0
 10
333.1259270918
 20
25.0602612011
 30
0.0
 10
333.1259270918
 20
25.0602612011
 30
0.0
 10
333.1259270918
 20
25.0602612011
 30
0.0
 10
332.793560924
 20
25.471139062
 30
0.0
 10
332.793560924
 20
25.471139062
 30
0.0
 10
332.793560924
 20
25.471139062
 30
0.0
 10
333.0200671588
 20
25.7370319963
 30
0.0
 10
333.0200671588
 20
25.7370319963
 30
0.0
 10
333.0200671588
 20
25.7370319963
 30
0.0
 10
332.8718109116
 20
25.8898680923
 30
0.0
 10
332.8718109116
 20
25.8898680923
 30
0.0
 10
332.8718109116
 20
25.8898680923
 30
0.0
 10
332.6559037553
 20
25.6386306742
 30
0.0
 10
332.6559037553
 20
25.6386306742
 30
0.0
 10
332.6559037553
 20
25.6386306742
 30
0.0
 10
332.2688411079
 20
26.1065603655
 30
0.0
 10
332.2688411079
 20
26.1065603655
 30
0.0
 10
332.4242942604
 20
26.2206640263
 30
0.0
 10
332.6065722414
 20
26.3604148401
 30
0.0
 10
332.6065722414
 20
26.5697793553
 30
0.0
 10
332.6065722414
 20
26.8136890154
 30
0.0
 10
332.4045354843
 20
26.9571037083
 30
0.0
 10
332.1780292495
 20
26.9571037083
 30
0.0
 10
331.9338578837
 20
26.9571037083
 30
0.0
 10
331.7494862575
 20
26.8063612574
 30
0.0
 10
331.7494862575
 20
26.5498897263
 30
0.0
 10
331.7494862575
 20
26.3923429287
 30
0.0
 10
331.8481492853
 20
26.25468576
 30
0.0
 10
331.953485807
 20
26.1437225669
 30
0.0
 10
331.953485807
 20
26.1437225669
 30
0.0
 10
331.8379427652
 20
26.0599767609
 30
0.0
 10
331.8379427652
 20
26.0599767609
 30
0.0
 10
331.660244633
 20
25.9317409954
 30
0.0
 10
331.5129043554
 20
25.8040286411
 30
0.0
 10
331.5129043554
 20
25.5669233277
 30
0.0
 10
331.5129043554
 20
25.2465956195
 30
0.0
 10
331.7714695316
 20
25.0204819432
 30
0.0
 10
332.0818524253
 20
25.0204819432
 30
0.0
 10
332.3007691965
 20
25.0204819432
 30
0.0
 10
332.4979643992
 20
25.145577241
 30
0.0
 10
332.6382386243
 20
25.3114986192
 30
0.0
 10
332.6382386243
 20
25.3114986192
 30
0.0
 10
332.8405370871
 20
25.0602612011
 30
0.0
 10
332.8405370871
 20
25.0602612011
 30
0.0
  0
LWPOLYLINE
  5
24A
330
229
100
AcDbEntity
  8
0
  6
Continuous
 62
     7
100
AcDbPolyline
 90
        2
 70
     0
 43
0.2
 10
334.7759811768
 20
26.9168010391
 10
334.5446333876
 20
26.9168010391
  0
LWPOLYLINE
  5
24B
330
229
100
AcDbEntity
  8
0
  6
Continuous
 62
     7
100
AcDbPolyline
 90
        2
 70
     0
 43
0.2
 10
334.5446333876
 20
26.9168010391
 10
334.5446333876
 20
25.0597377898
  0
LWPOLYLINE
  5
24C
330
229
100
AcDbEntity
  8
0
  6
Continuous
 62
     7
100
AcDbPolyline
 90
        2
 70
     0
 43
0.2
 10
334.5446333876
 20
25.0597377898
 10
335.3399568395
 20
25.0597377898
  0
LWPOLYLINE
  5
24D
330
229
100
AcDbEntity
  8
0
  6
Continuous
 62
     7
100
AcDbPolyline
 90
        2
 70
     0
 43
0.2
 10
335.3399568395
 20
25.0597377898
 10
335.3399568395
 20
25.2717193614
  0
LWPOLYLINE
  5
24E
330
229
100
AcDbEntity
  8
0
  6
Continuous
 62
     7
100
AcDbPolyline
 90
        2
 70
     0
 43
0.2
 10
335.3399568395
 20
25.2717193614
 10
334.7759811768
 20
25.2717193614
  0
LWPOLYLINE
  5
24F
330
229
100
AcDbEntity
  8
0
  6
Continuous
 62
     7
100
AcDbPolyline
 90
        2
 70
     0
 43
0.2
 10
334.7759811768
 20
25.2717193614
 10
334.7759811768
 20
26.9168010391
  0
LWPOLYLINE
  5
250
330
229
100
AcDbEntity
  8
0
  6
Continuous
 62
     7
100
AcDbPolyline
 90
        2
 70
     0
 43
0.2
 10
337.019060251
 20
26.2122894457
 10
336.7979189819
 20
26.2122894457
  0
LWPOLYLINE
  5
251
330
229
100
AcDbEntity
  8
0
  6
Continuous
 62
     7
100
AcDbPolyline
 90
        2
 70
     0
 43
0.2
 10
336.7979189819
 20
26.2122894457
 10
336.7979189819
 20
25.0602612011
  0
LWPOLYLINE
  5
252
330
229
100
AcDbEntity
  8
0
  6
Continuous
 62
     7
100
AcDbPolyline
 90
        2
 70
     0
 43
0.2
 10
336.7979189819
 20
25.0602612011
 10
337.019060251
 20
25.0602612011
  0
LWPOLYLINE
  5
253
330
229
100
AcDbEntity
  8
0
  6
Continuous
 62
     7
100
AcDbPolyline
 90
        2
 70
     0
 43
0.2
 10
337.019060251
 20
25.0602612011
 10
337.019060251
 20
26.2122894457
  0
SPLINE
  5
254
330
229
100
AcDbEntity
  8
0
  6
Continuous
 62
     7
100
AcDbSpline
 70
     3
 71
     3
 72
    17
 73
    13
 74
     0
 42
0.000000001
 43
0.0000001
 40
0.0
 40
0.0
 40
0.0
 40
0.0
 40
1.0
 40
1.0
 40
1.0
 40
2.0
 40
2.0
 40
2.0
 40
3.0
 40
3.0
 40
3.0
 40
4.0
 40
4.0
 40
4.0
 40
4.0
 10
336.9086204693
 20
26.894817765
 30
0.0
 10
336.8246129576
 20
26.894817765
 30
0.0
 10
336.7560460788
 20
26.825727475
 30
0.0
 10
336.7560460788
 20
26.7398880238
 30
0.0
 10
336.7560460788
 20
26.6556188065
 30
0.0
 10
336.8246129576
 20
26.5896689842
 30
0.0
 10
336.9086204693
 20
26.5896689842
 30
0.0
 10
336.9923662753
 20
26.5896689842
 30
0.0
 10
337.0611948597
 20
26.6556188065
 30
0.0
 10
337.0611948597
 20
26.7398880238
 30
0.0
 10
337.0611948597
 20
26.825727475
 30
0.0
 10
336.9923662753
 20
26.894817765
 30
0.0
 10
336.9086204693
 20
26.894817765
 30
0.0
  0
SPLINE
  5
255
330
229
100
AcDbEntity
  8
0
  6
Continuous
 62
     7
100
AcDbSpline
 70
     3
 71
     3
 72
    17
 73
    13
 74
     0
 42
0.000000001
 43
0.0000001
 40
0.0
 40
0.0
 40
0.0
 40
0.0
 40
1.0
 40
1.0
 40
1.0
 40
2.0
 40
2.0
 40
2.0
 40
3.0
 40
3.0
 40
3.0
 40
4.0
 40
4.0
 40
4.0
 40
4.0
 10
339.1493441926
 20
25.2178079987
 30
0.0
 10
338.915379347
 20
25.2178079987
 30
0.0
 10
338.7850499363
 20
25.4198447558
 30
0.0
 10
338.7850499363
 20
25.6360136177
 30
0.0
 10
338.7850499363
 20
25.8506122457
 30
0.0
 10
338.9208751655
 20
26.0495085351
 30
0.0
 10
339.1493441926
 20
26.0495085351
 30
0.0
 10
339.3888048568
 20
26.0495085351
 30
0.0
 10
339.5243683804
 20
25.8605570602
 30
0.0
 10
339.5243683804
 20
25.6360136177
 30
0.0
 10
339.5243683804
 20
25.4098999414
 30
0.0
 10
339.3911602076
 20
25.2178079987
 30
0.0
 10
339.1493441926
 20
25.2178079987
 30
0.0
  0
SPLINE
  5
256
330
229
100
AcDbEntity
  8
0
  6
Continuous
 62
     7
100
AcDbSpline
 70
     3
 71
     3
 72
    50
 73
    46
 74
     0
 42
0.000000001
 43
0.0000001
 40
0.0
 40
0.0
 40
0.0
 40
0.0
 40
1.0
 40
1.0
 40
1.0
 40
2.0
 40
2.0
 40
2.0
 40
3.0
 40
3.0
 40
3.0
 40
4.0
 40
4.0
 40
4.0
 40
5.0
 40
5.0
 40
5.0
 40
6.0
 40
6.0
 40
6.0
 40
7.0
 40
7.0
 40
7.0
 40
8.0
 40
8.0
 40
8.0
 40
9.0
 40
9.0
 40
9.0
 40
10.0
 40
10.0
 40
10.0
 40
11.0
 40
11.0
 40
11.0
 40
12.0
 40
12.0
 40
12.0
 40
13.0
 40
13.0
 40
13.0
 40
14.0
 40
14.0
 40
14.0
 40
15.0
 40
15.0
 40
15.0
 40
15.0
 10
339.7334711899
 20
26.2128128569
 30
0.0
 10
339.7334711899
 20
26.2128128569
 30
0.0
 10
339.5118065095
 20
26.2128128569
 30
0.0
 10
339.5118065095
 20
26.2128128569
 30
0.0
 10
339.5118065095
 20
26.2128128569
 30
0.0
 10
339.5118065095
 20
26.0154868014
 30
0.0
 10
339.5118065095
 20
26.0154868014
 30
0.0
 10
339.5118065095
 20
26.0154868014
 30
0.0
 10
339.5070958079
 20
26.0154868014
 30
0.0
 10
339.5070958079
 20
26.0154868014
 30
0.0
 10
339.4157605382
 20
26.158378083
 30
0.0
 10
339.2778416638
 20
26.2468345907
 30
0.0
 10
339.1051159388
 20
26.2468345907
 30
0.0
 10
338.772749771
 20
26.2468345907
 30
0.0
 10
338.5636469615
 20
25.9589583823
 30
0.0
 10
338.5636469615
 20
25.6433413757
 30
0.0
 10
338.5636469615
 20
25.3135922644
 30
0.0
 10
338.7607113114
 20
25.0204819432
 30
0.0
 10
339.1155841646
 20
25.0204819432
 30
0.0
 10
339.2778416638
 20
25.0204819432
 30
0.0
 10
339.4178541833
 20
25.1089384508
 30
0.0
 10
339.5070958079
 20
25.2397912728
 30
0.0
 10
339.5070958079
 20
25.2397912728
 30
0.0
 10
339.5118065095
 20
25.2397912728
 30
0.0
 10
339.5118065095
 20
25.2397912728
 30
0.0
 10
339.5118065095
 20
25.2397912728
 30
0.0
 10
339.5118065095
 20
25.0204819432
 30
0.0
 10
339.5118065095
 20
25.0204819432
 30
0.0
 10
339.5118065095
 20
24.7839000411
 30
0.0
 10
339.4552780904
 20
24.5970422113
 30
0.0
 10
339.1820573981
 20
24.5970422113
 30
0.0
 10
338.9797589354
 20
24.5970422113
 30
0.0
 10
338.8371293594
 20
24.7153331624
 30
0.0
 10
338.8371293594
 20
24.9215572098
 30
0.0
 10
338.8371293594
 20
24.9215572098
 30
0.0
 10
338.615464679
 20
24.9215572098
 30
0.0
 10
338.615464679
 20
24.9215572098
 30
0.0
 10
338.6204370862
 20
24.5970422113
 30
0.0
 10
338.8515231698
 20
24.4002395671
 30
0.0
 10
339.171850878
 20
24.4002395671
 30
0.0
 10
339.6198909404
 20
24.4002395671
 30
0.0
 10
339.7334711899
 20
24.6854987189
 30
0.0
 10
339.7334711899
 20
25.0822444751
 30
0.0
 10
339.7334711899
 20
25.0822444751
 30
0.0
 10
339.7334711899
 20
26.2128128569
 30
0.0
 10
339.7334711899
 20
26.2128128569
 30
0.0
  0
SPLINE
  5
257
330
229
100
AcDbEntity
  8
0
  6
Continuous
 62
     7
100
AcDbSpline
 70
     3
 71
     3
 72
    44
 73
    40
 74
     0
 42
0.000000001
 43
0.0000001
 40
0.0
 40
0.0
 40
0.0
 40
0.0
 40
1.0
 40
1.0
 40
1.0
 40
2.0
 40
2.0
 40
2.0
 40
3.0
 40
3.0
 40
3.0
 40
4.0
 40
4.0
 40
4.0
 40
5.0
 40
5.0
 40
5.0
 40
6.0
 40
6.0
 40
6.0
 40
7.0
 40
7.0
 40
7.0
 40
8.0
 40
8.0
 40
8.0
 40
9.0
 40
9.0
 40
9.0
 40
10.0
 40
10.0
 40
10.0
 40
11.0
 40
11.0
 40
11.0
 40
12.0
 40
12.0
 40
12.0
 40
13.0
 40
13.0
 40
13.0
 40
13.0
 10
341.3023965253
 20
27.1978729007
 30
0.0
 10
341.3023965253
 20
27.1978729007
 30
0.0
 10
341.3023965253
 20
25.0597377898
 30
0.0
 10
341.3023965253
 20
25.0597377898
 30
0.0
 10
341.3023965253
 20
25.0597377898
 30
0.0
 10
341.5237995001
 20
25.0597377898
 30
0.0
 10
341.5237995001
 20
25.0597377898
 30
0.0
 10
341.5237995001
 20
25.0597377898
 30
0.0
 10
341.5237995001
 20
25.5894300131
 30
0.0
 10
341.5237995001
 20
25.5894300131
 30
0.0
 10
341.5237995001
 20
25.7993179395
 30
0.0
 10
341.5237995001
 20
26.0500319464
 30
0.0
 10
341.8090586519
 20
26.0500319464
 30
0.0
 10
342.0359574452
 20
26.0500319464
 30
0.0
 10
342.0629131266
 20
25.9170854793
 30
0.0
 10
342.0629131266
 20
25.7208062464
 30
0.0
 10
342.0629131266
 20
25.7208062464
 30
0.0
 10
342.0629131266
 20
25.0597377898
 30
0.0
 10
342.0629131266
 20
25.0597377898
 30
0.0
 10
342.0629131266
 20
25.0597377898
 30
0.0
 10
342.2848395126
 20
25.0597377898
 30
0.0
 10
342.2848395126
 20
25.0597377898
 30
0.0
 10
342.2848395126
 20
25.0597377898
 30
0.0
 10
342.2848395126
 20
25.7469768107
 30
0.0
 10
342.2848395126
 20
25.7469768107
 30
0.0
 10
342.2848395126
 20
26.027525261
 30
0.0
 10
342.2008320009
 20
26.2473580019
 30
0.0
 10
341.8757935911
 20
26.2473580019
 30
0.0
 10
341.7360427773
 20
26.2473580019
 30
0.0
 10
341.5978621973
 20
26.1808847684
 30
0.0
 10
341.5285102016
 20
26.0578831157
 30
0.0
 10
341.5285102016
 20
26.0578831157
 30
0.0
 10
341.5237995001
 20
26.0578831157
 30
0.0
 10
341.5237995001
 20
26.0578831157
 30
0.0
 10
341.5237995001
 20
26.0578831157
 30
0.0
 10
341.5237995001
 20
27.1978729007
 30
0.0
 10
341.5237995001
 20
27.1978729007
 30
0.0
 10
341.5237995001
 20
27.1978729007
 30
0.0
 10
341.3023965253
 20
27.1978729007
 30
0.0
 10
341.3023965253
 20
27.1978729007
 30
0.0
  0
LWPOLYLINE
  5
258
330
229
100
AcDbEntity
  8
0
  6
Continuous
 62
     7
100
AcDbPolyline
 90
        2
 70
     0
 43
0.2
 10
344.1246301895
 20
26.005541987
 10
344.341060757
 20
26.005541987
  0
LWPOLYLINE
  5
259
330
229
100
AcDbEntity
  8
0
  6
Continuous
 62
     7
100
AcDbPolyline
 90
        2
 70
     0
 43
0.2
 10
344.341060757
 20
26.005541987
 10
344.341060757
 20
26.2122894457
  0
LWPOLYLINE
  5
25A
330
229
100
AcDbEntity
  8
0
  6
Continuous
 62
     7
100
AcDbPolyline
 90
        2
 70
     0
 43
0.2
 10
344.341060757
 20
26.2122894457
 10
344.1246301895
 20
26.2122894457
  0
LWPOLYLINE
  5
25B
330
229
100
AcDbEntity
  8
0
  6
Continuous
 62
     7
100
AcDbPolyline
 90
        2
 70
     0
 43
0.2
 10
344.1246301895
 20
26.2122894457
 10
344.1246301895
 20
26.65300175
  0
LWPOLYLINE
  5
25C
330
229
100
AcDbEntity
  8
0
  6
Continuous
 62
     7
100
AcDbPolyline
 90
        2
 70
     0
 43
0.2
 10
344.1246301895
 20
26.65300175
 10
343.9029655091
 20
26.65300175
  0
LWPOLYLINE
  5
25D
330
229
100
AcDbEntity
  8
0
  6
Continuous
 62
     7
100
AcDbPolyline
 90
        2
 70
     0
 43
0.2
 10
343.9029655091
 20
26.65300175
 10
343.9029655091
 20
26.2122894457
  0
LWPOLYLINE
  5
25E
330
229
100
AcDbEntity
  8
0
  6
Continuous
 62
     7
100
AcDbPolyline
 90
        2
 70
     0
 43
0.2
 10
343.9029655091
 20
26.2122894457
 10
343.7823192072
 20
26.2122894457
  0
LWPOLYLINE
  5
25F
330
229
100
AcDbEntity
  8
0
  6
Continuous
 62
     7
100
AcDbPolyline
 90
        2
 70
     0
 43
0.2
 10
343.7823192072
 20
26.2122894457
 10
343.7823192072
 20
26.005541987
  0
LWPOLYLINE
  5
260
330
229
100
AcDbEntity
  8
0
  6
Continuous
 62
     7
100
AcDbPolyline
 90
        2
 70
     0
 43
0.2
 10
343.7823192072
 20
26.005541987
 10
343.9029655091
 20
26.005541987
  0
LWPOLYLINE
  5
261
330
229
100
AcDbEntity
  8
0
  6
Continuous
 62
     7
100
AcDbPolyline
 90
        2
 70
     0
 43
0.2
 10
343.9029655091
 20
26.005541987
 10
343.9029655091
 20
25.0597377898
  0
LWPOLYLINE
  5
262
330
229
100
AcDbEntity
  8
0
  6
Continuous
 62
     7
100
AcDbPolyline
 90
        2
 70
     0
 43
0.2
 10
343.9029655091
 20
25.0597377898
 10
344.1246301895
 20
25.0597377898
  0
LWPOLYLINE
  5
263
330
229
100
AcDbEntity
  8
0
  6
Continuous
 62
     7
100
AcDbPolyline
 90
        2
 70
     0
 43
0.2
 10
344.1246301895
 20
25.0597377898
 10
344.1246301895
 20
26.005541987
  0
SPLINE
  5
264
330
229
100
AcDbEntity
  8
0
  6
Continuous
 62
     7
100
AcDbSpline
 70
     3
 71
     3
 72
    20
 73
    16
 74
     0
 42
0.000000001
 43
0.0000001
 40
0.0
 40
0.0
 40
0.0
 40
0.0
 40
1.0
 40
1.0
 40
1.0
 40
2.0
 40
2.0
 40
2.0
 40
3.0
 40
3.0
 40
3.0
 40
4.0
 40
4.0
 40
4.0
 40
5.0
 40
5.0
 40
5.0
 40
5.0
 10
331.9066404967
 20
35.4206642332
 30
0.0
 10
331.9066404967
 20
35.4206642332
 30
0.0
 10
334.2229971512
 20
32.5911028109
 30
0.0
 10
334.2229971512
 20
32.5911028109
 30
0.0
 10
333.5713500978
 20
31.9389323462
 30
0.0
 10
332.7944768938
 20
31.2030160755
 30
0.0
 10
331.8232872491
 20
31.2030160755
 30
0.0
 10
330.8247493647
 20
31.2030160755
 30
0.0
 10
329.8814313711
 20
32.1325945228
 30
0.0
 10
329.8814313711
 20
33.1317866713
 30
0.0
 10
329.8814313711
 20
34.1309788198
 30
0.0
 10
331.0602844442
 20
34.8375840585
 30
0.0
 10
331.7818069046
 20
35.3374418384
 30
0.0
 10
331.7818069046
 20
35.3374418384
 30
0.0
 10
331.9066404967
 20
35.4206642332
 30
0.0
 10
331.9066404967
 20
35.4206642332
 30
0.0
  0
SPLINE
  5
265
330
229
100
AcDbEntity
  8
0
  6
Continuous
 62
     7
100
AcDbSpline
 70
     3
 71
     3
 72
    23
 73
    19
 74
     0
 42
0.000000001
 43
0.0000001
 40
0.0
 40
0.0
 40
0.0
 40
0.0
 40
1.0
 40
1.0
 40
1.0
 40
2.0
 40
2.0
 40
2.0
 40
3.0
 40
3.0
 40
3.0
 40
4.0
 40
4.0
 40
4.0
 40
5.0
 40
5.0
 40
5.0
 40
6.0
 40
6.0
 40
6.0
 40
6.0
 10
332.1840484793
 20
37.0584181529
 30
0.0
 10
332.1840484793
 20
37.0584181529
 30
0.0
 10
331.8375502067
 20
37.5017475137
 30
0.0
 10
331.8375502067
 20
37.5017475137
 30
0.0
 10
331.5317471618
 20
37.8898569837
 30
0.0
 10
331.2128588347
 20
38.2783590121
 30
0.0
 10
331.2128588347
 20
38.8053033262
 30
0.0
 10
331.2128588347
 20
39.4714750428
 30
0.0
 10
331.7541969591
 20
39.9151969621
 30
0.0
 10
332.3781032143
 20
39.9151969621
 30
0.0
 10
333.0718848763
 20
39.9151969621
 30
0.0
 10
333.5990908961
 20
39.5129553874
 30
0.0
 10
333.5990908961
 20
38.7779550864
 30
0.0
 10
333.5990908961
 20
38.0146905758
 30
0.0
 10
332.8778301414
 20
37.58457735
 30
0.0
 10
332.3507549745
 20
37.1688579346
 30
0.0
 10
332.3507549745
 20
37.1688579346
 30
0.0
 10
332.1840484793
 20
37.0584181529
 30
0.0
 10
332.1840484793
 20
37.0584181529
 30
0.0
  0
SPLINE
  5
266
330
229
100
AcDbEntity
  8
0
  6
Continuous
 62
     7
100
AcDbSpline
 70
     3
 71
     3
 72
    50
 73
    46
 74
     0
 42
0.000000001
 43
0.0000001
 40
0.0
 40
0.0
 40
0.0
 40
0.0
 40
1.0
 40
1.0
 40
1.0
 40
2.0
 40
2.0
 40
2.0
 40
3.0
 40
3.0
 40
3.0
 40
4.0
 40
4.0
 40
4.0
 40
5.0
 40
5.0
 40
5.0
 40
6.0
 40
6.0
 40
6.0
 40
7.0
 40
7.0
 40
7.0
 40
8.0
 40
8.0
 40
8.0
 40
9.0
 40
9.0
 40
9.0
 40
10.0
 40
10.0
 40
10.0
 40
11.0
 40
11.0
 40
11.0
 40
12.0
 40
12.0
 40
12.0
 40
13.0
 40
13.0
 40
13.0
 40
14.0
 40
14.0
 40
14.0
 40
15.0
 40
15.0
 40
15.0
 40
15.0
 10
336.1376356422
 20
30.2598289348
 30
0.0
 10
336.1376356422
 20
30.2598289348
 30
0.0
 10
337.7468636468
 20
30.2598289348
 30
0.0
 10
337.7468636468
 20
30.2598289348
 30
0.0
 10
337.7468636468
 20
30.2598289348
 30
0.0
 10
335.8738363531
 20
32.5769707062
 30
0.0
 10
335.8738363531
 20
32.5769707062
 30
0.0
 10
335.8738363531
 20
32.5769707062
 30
0.0
 10
337.1501747786
 20
34.0744504008
 30
0.0
 10
337.1501747786
 20
34.0744504008
 30
0.0
 10
337.1501747786
 20
34.0744504008
 30
0.0
 10
336.3179508309
 20
34.9354619693
 30
0.0
 10
336.3179508309
 20
34.9354619693
 30
0.0
 10
336.3179508309
 20
34.9354619693
 30
0.0
 10
335.0973557076
 20
33.5201578469
 30
0.0
 10
335.0973557076
 20
33.5201578469
 30
0.0
 10
335.0973557076
 20
33.5201578469
 30
0.0
 10
332.9194413388
 20
36.1555336813
 30
0.0
 10
332.9194413388
 20
36.1555336813
 30
0.0
 10
333.7930147782
 20
36.7935720412
 30
0.0
 10
334.8196860194
 20
37.58457735
 30
0.0
 10
334.8196860194
 20
38.7634304231
 30
0.0
 10
334.8196860194
 20
40.1371233482
 30
0.0
 10
333.6817898795
 20
40.9416064976
 30
0.0
 10
332.4064982766
 20
40.9416064976
 30
0.0
 10
331.0330670573
 20
40.9416064976
 30
0.0
 10
329.9921328585
 20
40.0953812979
 30
0.0
 10
329.9921328585
 20
38.6527289358
 30
0.0
 10
329.9921328585
 20
37.7651542444
 30
0.0
 10
330.547472235
 20
36.9882810403
 30
0.0
 10
331.1436376918
 20
36.3638513739
 30
0.0
 10
331.1436376918
 20
36.3638513739
 30
0.0
 10
330.4917289328
 20
35.8922578035
 30
0.0
 10
330.4917289328
 20
35.8922578035
 30
0.0
 10
329.4931910484
 20
35.1709970488
 30
0.0
 10
328.6603128365
 20
34.4497362942
 30
0.0
 10
328.6603128365
 20
33.1181779778
 30
0.0
 10
328.6603128365
 20
31.3145026798
 30
0.0
 10
330.1173590091
 20
30.0379025487
 30
0.0
 10
331.8648984465
 20
30.0379025487
 30
0.0
 10
333.0997565274
 20
30.0379025487
 30
0.0
 10
334.2091267521
 20
30.7460780212
 30
0.0
 10
335.000001208
 20
31.6746096459
 30
0.0
 10
335.000001208
 20
31.6746096459
 30
0.0
 10
336.1376356422
 20
30.2598289348
 30
0.0
 10
336.1376356422
 20
30.2598289348
 30
0.0
  0
LINE
  5
267
330
229
100
AcDbEntity
  8
0
  6
Continuous
 62
     7
100
AcDbLine
 10
321.9404970172
 20
28.2337038394
 30
0.0
 11
344.3544077449
 21
28.2337038394
 31
0.0
  0
LINE
  5
268
330
229
100
AcDbEntity
  8
0
  6
Continuous
 62
     7
100
AcDbLine
 10
344.3544077449
 20
28.2337038394
 30
0.0
 11
344.3544077449
 21
50.6476145671
 31
0.0
  0
LINE
  5
269
330
229
100
AcDbEntity
  8
0
  6
Continuous
 62
     7
100
AcDbLine
 10
344.3544077449
 20
50.6476145671
 30
0.0
 11
321.9404970172
 21
50.6476145671
 31
0.0
  0
LINE
  5
26A
330
229
100
AcDbEntity
  8
0
  6
Continuous
 62
     7
100
AcDbLine
 10
321.9404970172
 20
50.6476145671
 30
0.0
 11
321.9404970172
 21
28.2337038394
 31
0.0
  0
ENDBLK
  5
26B
330
229
100
AcDbEntity
  8
0
  6
ByBlock
 62
     0
100
AcDbBlockEnd
  0
BLOCK
  5
294
330
22A
100
AcDbEntity
  8
0
100
AcDbBlockBegin
  2
*T6
 70
     1
 10
0.0
 20
0.0
 30
0.0
  3
*T6
  1
*T6
  0
MTEXT
  5
295
330
22A
100
AcDbEntity
  8
0
  6
Continuous
 62
     0
100
AcDbMText
 10
30.28622003006668
 20
-3.0
 30
0.0
 40
3.0
 41
40.18162670675557
 71
     4
 72
     5
  1
3S5_C_052
 73
     1
 44
1.0
  0
MTEXT
  5
296
330
22A
100
AcDbEntity
  8
0
  6
Continuous
 62
     0
100
AcDbMText
 10
70.58784673682226
 20
-0.06
 30
0.0
 40
3.5
 41
20.03081335337778
 71
     1
 72
     5
  1
Rev:00
 73
     1
 44
1.0
  0
MTEXT
  5
297
330
22A
100
AcDbEntity
  8
0
  6
Continuous
 62
     0
100
AcDbMText
 10
30.28622003006668
 20
-6.06
 30
0.0
 40
3.5
 41
40.18162670675557
 71
     1
 72
     5
  1
Scale:1:1
 73
     1
 44
1.0
  0
MTEXT
  5
298
330
22A
100
AcDbEntity
  8
0
  6
Continuous
 62
     0
100
AcDbMText
 10
70.58784673682226
 20
-9.0
 30
0.0
 40
3.5
 41
20.03081335337778
 71
     4
 72
     5
  1
A3
 73
     1
 44
1.0
  0
MTEXT
  5
299
330
22A
100
AcDbEntity
  8
0
  6
Continuous
 62
     0
100
AcDbMText
 10
30.28622003006668
 20
-17.0
 30
0.0
 40
3.5
 41
60.33244006013336
 71
     4
 72
     5
  1
STEP 5.2
 73
     1
 44
1.0
  0
MTEXT
  5
29A
330
22A
100
AcDbEntity
  8
0
  6
Continuous
 62
     0
100
AcDbMText
 10
30.28622003006668
 20
-24.5
 30
0.0
 40
2.5
 41
60.33244006013336
 71
     4
 72
     5
  1
DATE:27/03/2014
 73
     1
 44
1.0
  0
MTEXT
  5
29B
330
22A
100
AcDbEntity
  8
0
  6
Continuous
 62
     0
100
AcDbMText
 10
0.06
 20
-27.06
 30
0.0
 40
1.85
 41
90.55866009020004
 71
     1
 72
     5
  1
Any integral or partial reproductions are prohibited \Pwithout prior authorisation of L & L Luce & Light s.r.l., \Pin accordance with the law in force. \PAll rights reserved.
 73
     1
 44
1.0
  0
LINE
  5
29C
330
22A
100
AcDbEntity
  8
0
  6
Continuous
 62
     0
370
    -2
100
AcDbLine
 10
0.0
 20
0.0
 30
0.0
 11
10.07540667668889
 21
0.0
 31
0.0
  0
LINE
  5
29D
330
22A
100
AcDbEntity
  8
0
  6
Continuous
 62
     0
370
    -2
100
AcDbLine
 10
10.07540667668889
 20
0.0
 30
0.0
 11
20.15081335337779
 21
0.0
 31
0.0
  0
LINE
  5
29E
330
22A
100
AcDbEntity
  8
0
  6
Continuous
 62
     0
370
    -2
100
AcDbLine
 10
20.15081335337779
 20
0.0
 30
0.0
 11
30.22622003006668
 21
0.0
 31
0.0
  0
LINE
  5
29F
330
22A
100
AcDbEntity
  8
0
  6
Continuous
 62
     0
370
    -2
100
AcDbLine
 10
0.0
 20
0.0
 30
0.0
 11
0.0
 21
-6.0
 31
0.0
  0
LINE
  5
2A0
330
22A
100
AcDbEntity
  8
0
  6
Continuous
 62
     0
370
    -2
100
AcDbLine
 10
0.0
 20
-6.0
 30
0.0
 11
0.0
 21
-12.0
 31
0.0
  0
LINE
  5
2A1
330
22A
100
AcDbEntity
  8
0
  6
Continuous
 62
     0
370
    -2
100
AcDbLine
 10
0.0
 20
-12.0
 30
0.0
 11
0.0
 21
-22.0
 31
0.0
  0
LINE
  5
2A2
330
22A
100
AcDbEntity
  8
0
  6
Continuous
 62
     0
370
    -2
100
AcDbLine
 10
0.0
 20
-22.0
 30
0.0
 11
0.0
 21
-27.0
 31
0.0
  0
LINE
  5
2A3
330
22A
100
AcDbEntity
  8
0
  6
Continuous
 62
     0
370
    -2
100
AcDbLine
 10
30.22622003006668
 20
0.0
 30
0.0
 11
70.52784673682226
 21
0.0
 31
0.0
  0
LINE
  5
2A4
330
22A
100
AcDbEntity
  8
0
  6
Continuous
 62
     0
370
    -2
100
AcDbLine
 10
30.22622003006668
 20
0.0
 30
0.0
 11
30.22622003006668
 21
-6.0
 31
0.0
  0
LINE
  5
2A5
330
22A
100
AcDbEntity
  8
0
  6
Continuous
 62
     0
370
    -2
100
AcDbLine
 10
70.52784673682226
 20
0.0
 30
0.0
 11
90.67866009020004
 21
0.0
 31
0.0
  0
LINE
  5
4A4
330
22A
100
AcDbEntity
  8
0
  6
Continuous
 62
     0
370
    -2
100
AcDbLine
 10
70.52784673682226
 20
0.0
 30
0.0
 11
70.52784673682226
 21
-6.0
 31
0.0
  0
LINE
  5
4A5
330
22A
100
AcDbEntity
  8
0
  6
Continuous
 62
     0
370
    -2
100
AcDbLine
 10
90.67866009020004
 20
0.0
 30
0.0
 11
90.67866009020004
 21
-6.0
 31
0.0
  0
LINE
  5
4A6
330
22A
100
AcDbEntity
  8
0
  6
Continuous
 62
     0
370
    -2
100
AcDbLine
 10
30.22622003006668
 20
-6.0
 30
0.0
 11
70.52784673682226
 21
-6.0
 31
0.0
  0
LINE
  5
4A7
330
22A
100
AcDbEntity
  8
0
  6
Continuous
 62
     0
370
    -2
100
AcDbLine
 10
30.22622003006668
 20
-6.0
 30
0.0
 11
30.22622003006668
 21
-12.0
 31
0.0
  0
LINE
  5
4A8
330
22A
100
AcDbEntity
  8
0
  6
Continuous
 62
     0
370
    -2
100
AcDbLine
 10
70.52784673682226
 20
-6.0
 30
0.0
 11
90.67866009020004
 21
-6.0
 31
0.0
  0
LINE
  5
4A9
330
22A
100
AcDbEntity
  8
0
  6
Continuous
 62
     0
370
    -2
100
AcDbLine
 10
70.52784673682226
 20
-6.0
 30
0.0
 11
70.52784673682226
 21
-12.0
 31
0.0
  0
LINE
  5
4AA
330
22A
100
AcDbEntity
  8
0
  6
Continuous
 62
     0
370
    -2
100
AcDbLine
 10
90.67866009020004
 20
-6.0
 30
0.0
 11
90.67866009020004
 21
-12.0
 31
0.0
  0
LINE
  5
4AB
330
22A
100
AcDbEntity
  8
0
  6
Continuous
 62
     0
370
    -2
100
AcDbLine
 10
30.22622003006668
 20
-12.0
 30
0.0
 11
70.52784673682226
 21
-12.0
 31
0.0
  0
LINE
  5
4AC
330
22A
100
AcDbEntity
  8
0
  6
Continuous
 62
     0
370
    -2
100
AcDbLine
 10
70.52784673682226
 20
-12.0
 30
0.0
 11
90.67866009020003
 21
-12.0
 31
0.0
  0
LINE
  5
4AD
330
22A
100
AcDbEntity
  8
0
  6
Continuous
 62
     0
370
    -2
100
AcDbLine
 10
30.22622003006668
 20
-12.0
 30
0.0
 11
30.22622003006668
 21
-22.0
 31
0.0
  0
LINE
  5
4AE
330
22A
100
AcDbEntity
  8
0
  6
Continuous
 62
     0
370
    -2
100
AcDbLine
 10
90.67866009020004
 20
-12.0
 30
0.0
 11
90.67866009020004
 21
-22.0
 31
0.0
  0
LINE
  5
4AF
330
22A
100
AcDbEntity
  8
0
  6
Continuous
 62
     0
370
    -2
100
AcDbLine
 10
30.22622003006668
 20
-22.0
 30
0.0
 11
70.52784673682226
 21
-22.0
 31
0.0
  0
LINE
  5
4B0
330
22A
100
AcDbEntity
  8
0
  6
Continuous
 62
     0
370
    -2
100
AcDbLine
 10
70.52784673682226
 20
-22.0
 30
0.0
 11
90.67866009020003
 21
-22.0
 31
0.0
  0
LINE
  5
4B1
330
22A
100
AcDbEntity
  8
0
  6
Continuous
 62
     0
370
    -2
100
AcDbLine
 10
30.22622003006668
 20
-22.0
 30
0.0
 11
30.22622003006668
 21
-27.0
 31
0.0
  0
LINE
  5
4B2
330
22A
100
AcDbEntity
  8
0
  6
Continuous
 62
     0
370
    -2
100
AcDbLine
 10
90.67866009020004
 20
-22.0
 30
0.0
 11
90.67866009020004
 21
-27.0
 31
0.0
  0
LINE
  5
4B3
330
22A
100
AcDbEntity
  8
0
  6
Continuous
 62
     0
370
    -2
100
AcDbLine
 10
0.0
 20
-27.0
 30
0.0
 11
10.07540667668889
 21
-27.0
 31
0.0
  0
LINE
  5
4B4
330
22A
100
AcDbEntity
  8
0
  6
Continuous
 62
     0
370
    -2
100
AcDbLine
 10
10.07540667668889
 20
-27.0
 30
0.0
 11
20.15081335337779
 21
-27.0
 31
0.0
  0
LINE
  5
4B5
330
22A
100
AcDbEntity
  8
0
  6
Continuous
 62
     0
370
    -2
100
AcDbLine
 10
20.15081335337779
 20
-27.0
 30
0.0
 11
30.22622003006668
 21
-27.0
 31
0.0
  0
LINE
  5
4B6
330
22A
100
AcDbEntity
  8
0
  6
Continuous
 62
     0
370
    -2
100
AcDbLine
 10
30.22622003006668
 20
-27.0
 30
0.0
 11
70.52784673682226
 21
-27.0
 31
0.0
  0
LINE
  5
4B7
330
22A
100
AcDbEntity
  8
0
  6
Continuous
 62
     0
370
    -2
100
AcDbLine
 10
70.52784673682226
 20
-27.0
 30
0.0
 11
90.67866009020004
 21
-27.0
 31
0.0
  0
LINE
  5
4B8
330
22A
100
AcDbEntity
  8
0
  6
Continuous
 62
     0
370
    -2
100
AcDbLine
 10
0.0
 20
-27.0
 30
0.0
 11
0.0
 21
-40.0
 31
0.0
  0
LINE
  5
4B9
330
22A
100
AcDbEntity
  8
0
  6
Continuous
 62
     0
370
    -2
100
AcDbLine
 10
90.67866009020004
 20
-27.0
 30
0.0
 11
90.67866009020004
 21
-40.0
 31
0.0
  0
LINE
  5
4BA
330
22A
100
AcDbEntity
  8
0
  6
Continuous
 62
     0
370
    -2
100
AcDbLine
 10
0.0
 20
-40.0
 30
0.0
 11
10.07540667668889
 21
-40.0
 31
0.0
  0
LINE
  5
4BB
330
22A
100
AcDbEntity
  8
0
  6
Continuous
 62
     0
370
    -2
100
AcDbLine
 10
10.07540667668889
 20
-40.0
 30
0.0
 11
20.15081335337779
 21
-40.0
 31
0.0
  0
LINE
  5
4BC
330
22A
100
AcDbEntity
  8
0
  6
Continuous
 62
     0
370
    -2
100
AcDbLine
 10
20.15081335337779
 20
-40.0
 30
0.0
 11
30.22622003006668
 21
-40.0
 31
0.0
  0
LINE
  5
4BD
330
22A
100
AcDbEntity
  8
0
  6
Continuous
 62
     0
370
    -2
100
AcDbLine
 10
30.22622003006668
 20
-40.0
 30
0.0
 11
70.52784673682226
 21
-40.0
 31
0.0
  0
LINE
  5
4BE
330
22A
100
AcDbEntity
  8
0
  6
Continuous
 62
     0
370
    -2
100
AcDbLine
 10
70.52784673682226
 20
-40.0
 30
0.0
 11
90.67866009020004
 21
-40.0
 31
0.0
  0
ENDBLK
  5
2A6
330
22A
100
AcDbEntity
  8
0
100
AcDbBlockEnd
  0
ENDSEC
  0
SECTION
  2
ENTITIES
  0
MTEXT
  5
2A7
330
222
100
AcDbEntity
  8
0
  6
Continuous
 62
     2
100
AcDbMText
 10
1.6467220993
 20
53.595027386
 30
0.0
 40
4.0
 41
2.2857142857
 71
     1
 72
     1
  1
1
  7
TEXTSTYLE_2
 73
     1
 44
0.9
  0
MTEXT
  5
2A8
330
222
100
AcDbEntity
  8
0
  6
Continuous
 62
     2
100
AcDbMText
 10
1.6467220993
 20
153.595027386
 30
0.0
 40
4.0
 41
3.1428571429
 71
     1
 72
     1
  1
2
  7
TEXTSTYLE_2
 73
     1
 44
0.9
  0
MTEXT
  5
2A9
330
222
100
AcDbEntity
  8
0
  6
Continuous
 62
     2
100
AcDbMText
 10
1.6467220993
 20
253.595027386
 30
0.0
 40
4.0
 41
2.8571428571
 71
     1
 72
     1
  1
3
  7
TEXTSTYLE_2
 73
     1
 44
0.9
  0
MTEXT
  5
2AA
330
222
100
AcDbEntity
  8
0
  6
Continuous
 62
     2
100
AcDbMText
 10
414.6467220993
 20
60.6268709614
 30
0.0
 40
4.0
 41
2.2857142857
 71
     1
 72
     1
  1
1
  7
TEXTSTYLE_2
 73
     1
 44
0.9
  0
MTEXT
  5
2AB
330
222
100
AcDbEntity
  8
0
  6
Continuous
 62
     2
100
AcDbMText
 10
414.6467220993
 20
160.6268709614
 30
0.0
 40
4.0
 41
3.1428571429
 71
     1
 72
     1
  1
2
  7
TEXTSTYLE_2
 73
     1
 44
0.9
  0
MTEXT
  5
2AC
330
222
100
AcDbEntity
  8
0
  6
Continuous
 62
     2
100
AcDbMText
 10
414.6467220993
 20
260.6268709614
 30
0.0
 40
4.0
 41
2.8571428571
 71
     1
 72
     1
  1
3
  7
TEXTSTYLE_2
 73
     1
 44
0.9
  0
MTEXT
  5
2AD
330
222
100
AcDbEntity
  8
0
  6
Continuous
 62
     2
100
AcDbMText
 10
362.154890719
 20
5.35876025
 30
0.0
 40
4.0
 41
3.6
 71
     1
 72
     1
  1
A
  7
TEXTSTYLE_3
 73
     1
 44
0.9
  0
MTEXT
  5
2AE
330
222
100
AcDbEntity
  8
0
  6
Continuous
 62
     2
100
AcDbMText
 10
262.154890719
 20
5.35876025
 30
0.0
 40
4.0
 41
3.6
 71
     1
 72
     1
  1
B
  7
TEXTSTYLE_3
 73
     1
 44
0.9
  0
MTEXT
  5
2AF
330
222
100
AcDbEntity
  8
0
  6
Continuous
 62
     2
100
AcDbMText
 10
162.154890719
 20
5.35876025
 30
0.0
 40
4.0
 41
3.6
 71
     1
 72
     1
  1
C
  7
TEXTSTYLE_3
 73
     1
 44
0.9
  0
MTEXT
  5
2B0
330
222
100
AcDbEntity
  8
0
  6
Continuous
 62
     2
100
AcDbMText
 10
55.7978688212
 20
5.5353441916
 30
0.0
 40
4.0
 41
3.6
 71
     1
 72
     1
  1
D
  7
TEXTSTYLE_3
 73
     1
 44
0.9
  0
MTEXT
  5
2B1
330
222
100
AcDbEntity
  8
0
  6
Continuous
 62
     2
100
AcDbMText
 10
362.154890719
 20
295.35876025
 30
0.0
 40
4.0
 41
3.6
 71
     1
 72
     1
  1
A
  7
TEXTSTYLE_3
 73
     1
 44
0.9
  0
MTEXT
  5
2B2
330
222
100
AcDbEntity
  8
0
  6
Continuous
 62
     2
100
AcDbMText
 10
262.154890719
 20
295.35876025
 30
0.0
 40
4.0
 41
3.6
 71
     1
 72
     1
  1
B
  7
TEXTSTYLE_3
 73
     1
 44
0.9
  0
MTEXT
  5
2B3
330
222
100
AcDbEntity
  8
0
  6
Continuous
 62
     2
100
AcDbMText
 10
162.154890719
 20
295.35876025
 30
0.0
 40
4.0
 41
3.6
 71
     1
 72
     1
  1
C
  7
TEXTSTYLE_3
 73
     1
 44
0.9
  0
MTEXT
  5
2B4
330
222
100
AcDbEntity
  8
0
  6
Continuous
 62
     2
100
AcDbMText
 10
53.9878834197
 20
295.579490177
 30
0.0
 40
4.0
 41
3.6
 71
     1
 72
     1
  1
D
  7
TEXTSTYLE_3
 73
     1
 44
0.9
  0
DIMENSION
  5
2B5
330
222
100
AcDbEntity
  8
0
  6
Continuous
 62
     2
100
AcDbDimension
  2
*D1
 10
108.9004043078
 20
103.6729561135
 30
0.0
 11
108.9004043078
 21
77.7729561135
 31
0.0
 70
   160
 71
     2
 42
51.8
  3
DIMSTYLE_1
100
AcDbAlignedDimension
 13
102.360677213
 23
51.8729561135
 33
0.0
 14
102.7628299402
 24
103.6729561135
 34
0.0
 50
90.0
100
AcDbRotatedDimension
1001
ACAD
1000
DSTYLE
1002
{
1070
   147
1040
2.0
1002
}
  0
DIMENSION
  5
2B6
330
222
100
AcDbEntity
  8
0
  6
Continuous
 62
     2
100
AcDbDimension
  2
*D2
 10
47.01407815838757
 20
210.0690395811892
 30
0.0
 11
108.1442307692308
 21
233.8557692307692
 31
0.0
 70
   163
  1
<>
 71
     1
 42
54.99999999999648
  3
DIMSTYLE_2
100
AcDbDiametricDimension
 15
98.27039918461188
 25
230.0137018961107
 35
0.0
 40
0.0
1001
ACAD
1000
DSTYLE
1002
{
1070
   147
1040
2.0
1002
}
  0
DIMENSION
  5
2B7
330
222
100
AcDbEntity
  8
0
  6
Continuous
 62
     2
100
AcDbDimension
  2
*D3
 10
166.0420201498
 20
200.0413707386
 30
0.0
 11
166.0420201498
 21
220.0413707386
 31
0.0
 70
   160
 71
     2
 42
40.0
  3
DIMSTYLE_3
100
AcDbAlignedDimension
 13
175.6580269509
 23
240.0413707386
 33
0.0
 14
175.0689360418
 24
200.0413707386
 34
0.0
 50
270.0
100
AcDbRotatedDimension
1001
ACAD
1000
DSTYLE
1002
{
1070
   147
1040
2.0
1002
}
  0
DIMENSION
  5
2B8
330
222
100
AcDbEntity
  8
0
  6
Continuous
 62
     2
100
AcDbDimension
  2
*D4
 10
229.0358466261
 20
272.0737390319
 30
0.0
 11
218.16678818455
 21
272.0737390319
 31
0.0
 70
   160
 71
     3
 42
1.600000000000023
  3
DIMSTYLE_4
100
AcDbAlignedDimension
 13
227.4358466261
 23
250.2710611477
 33
0.0
 14
229.0358466261
 24
250.5224066022
 34
0.0
100
AcDbRotatedDimension
1001
ACAD
1000
DSTYLE
1002
{
1070
   147
1040
2.0
1002
}
  0
INSERT
  5
2B9
330
222
100
AcDbEntity
  8
0
  6
Continuous
 62
     2
100
AcDbBlockReference
  2
LOGO2_BL0
 10
333.1473869546
 20
37.5239270671
 30
0.0
  0
INSERT
  5
2BA
330
222
100
AcDbEntity
  8
0
  6
Continuous
 62
     2
100
AcDbBlockReference
  2
*T6
 10
319.3213399098
 20
51.0239270671
 30
0.0
  0
LINE
  5
2BB
330
222
100
AcDbEntity
  8
0
  6
Continuous
 62
     7
100
AcDbLine
 10
0.0
 20
0.0
 30
0.0
 11
0.0
 21
297.0
 31
0.0
  0
LWPOLYLINE
  5
2BC
330
222
100
AcDbEntity
  8
0
  6
Continuous
 62
     7
100
AcDbPolyline
 90
        2
 70
     0
 43
0.1000000003
 10
7.0536312849
 20
0.0
 10
7.0536312849
 20
297.0
  0
LWPOLYLINE
  5
2BD
330
222
100
AcDbEntity
  8
0
  6
Continuous
 62
     7
100
AcDbPolyline
 90
        2
 70
     0
 43
0.4999999952
 10
10.0536312849
 20
10.0318435754
 10
10.0536312849
 20
287.0
  0
LINE
  5
2BE
330
222
100
AcDbEntity
  8
0
  6
Continuous
 62
     7
100
AcDbLine
 10
0.0
 20
0.0
 30
0.0
 11
420.0
 21
0.0
 31
0.0
  0
LWPOLYLINE
  5
2BF
330
222
100
AcDbEntity
  8
0
  6
Continuous
 62
     7
100
AcDbPolyline
 90
        2
 70
     0
 43
0.1000000003
 10
0.0
 20
7.0318435754
 10
420.0
 20
7.0318435754
  0
LWPOLYLINE
  5
2C0
330
222
100
AcDbEntity
  8
0
  6
Continuous
 62
     7
100
AcDbPolyline
 90
        2
 70
     0
 43
0.4999999952
 10
10.0536312849
 20
10.0318435754
 10
410.0
 20
10.0318435754
  0
LINE
  5
2C1
330
222
100
AcDbEntity
  8
0
  6
Continuous
 62
     7
100
AcDbLine
 10
113.0
 20
297.0
 30
0.0
 11
113.0
 21
290.0
 31
0.0
  0
LINE
  5
2C2
330
222
100
AcDbEntity
  8
0
  6
Continuous
 62
     7
100
AcDbLine
 10
113.0
 20
7.0
 30
0.0
 11
113.0
 21
0.0
 31
0.0
  0
LWPOLYLINE
  5
2C3
330
222
100
AcDbEntity
  8
0
  6
Continuous
 62
     7
100
AcDbPolyline
 90
        2
 70
     0
 43
0.1000000003
 10
123.0
 20
10.0
 10
123.0
 20
0.0
  0
LWPOLYLINE
  5
2C4
330
222
100
AcDbEntity
  8
0
  6
Continuous
 62
     7
100
AcDbPolyline
 90
        2
 70
     0
 43
0.1000000003
 10
123.0
 20
287.0
 10
123.0
 20
297.0
  0
LINE
  5
2C5
330
222
100
AcDbEntity
  8
0
  6
Continuous
 62
     7
100
AcDbLine
 10
0.0
 20
99.9681564246
 30
0.0
 11
7.0
 21
99.9681564246
 31
0.0
  0
LINE
  5
2C6
330
222
100
AcDbEntity
  8
0
  6
Continuous
 62
     7
100
AcDbLine
 10
413.0
 20
107.0
 30
0.0
 11
420.0
 21
107.0
 31
0.0
  0
LWPOLYLINE
  5
2C7
330
222
100
AcDbEntity
  8
0
  6
Continuous
 62
     7
100
AcDbPolyline
 90
        2
 70
     0
 43
0.1000000003
 10
210.0
 20
10.0
 10
210.0
 20
0.0
  0
LWPOLYLINE
  5
2C8
330
222
100
AcDbEntity
  8
0
  6
Continuous
 62
     7
100
AcDbPolyline
 90
        2
 70
     0
 43
0.1000000003
 10
210.0
 20
287.0
 10
210.0
 20
297.0
  0
LWPOLYLINE
  5
2C9
330
222
100
AcDbEntity
  8
0
  6
Continuous
 62
     7
100
AcDbPolyline
 90
        2
 70
     0
 43
0.1000000003
 10
10.0
 20
148.5
 10
0.0
 20
148.5
  0
LWPOLYLINE
  5
2CA
330
222
100
AcDbEntity
  8
0
  6
Continuous
 62
     7
100
AcDbPolyline
 90
        2
 70
     0
 43
0.1000000003
 10
410.0
 20
148.5
 10
420.0
 20
148.5
  0
LINE
  5
2CB
330
222
100
AcDbEntity
  8
0
  6
Continuous
 62
     7
100
AcDbLine
 10
0.0
 20
199.9681564246
 30
0.0
 11
7.0
 21
199.9681564246
 31
0.0
  0
LWPOLYLINE
  5
2CC
330
222
100
AcDbEntity
  8
0
  6
Continuous
 62
     7
100
AcDbPolyline
 90
        2
 70
     0
 43
0.1000000003
 10
10.0
 20
202.9681564246
 10
0.0
 20
202.9681564246
  0
LWPOLYLINE
  5
2CD
330
222
100
AcDbEntity
  8
0
  6
Continuous
 62
     7
100
AcDbPolyline
 90
        2
 70
     0
 43
0.1000000003
 10
410.0
 20
210.0
 10
420.0
 20
210.0
  0
LINE
  5
2CE
330
222
100
AcDbEntity
  8
0
  6
Continuous
 62
     7
100
AcDbLine
 10
313.0
 20
297.0
 30
0.0
 11
313.0
 21
290.0
 31
0.0
  0
LINE
  5
2CF
330
222
100
AcDbEntity
  8
0
  6
Continuous
 62
     7
100
AcDbLine
 10
313.0
 20
7.0
 30
0.0
 11
313.0
 21
0.0
 31
0.0
  0
LWPOLYLINE
  5
2D0
330
222
100
AcDbEntity
  8
0
  6
Continuous
 62
     7
100
AcDbPolyline
 90
        2
 70
     0
 43
0.4999999952
 10
10.0536312849
 20
287.0
 10
410.0
 20
287.0
  0
LWPOLYLINE
  5
2D1
330
222
100
AcDbEntity
  8
0
  6
Continuous
 62
     7
100
AcDbPolyline
 90
        2
 70
     0
 43
0.1000000003
 10
0.0
 20
290.0
 10
420.0
 20
290.0
  0
LINE
  5
2D2
330
222
100
AcDbEntity
  8
0
  6
Continuous
 62
     7
100
AcDbLine
 10
0.0
 20
297.0
 30
0.0
 11
420.0
 21
297.0
 31
0.0
  0
LWPOLYLINE
  5
2D3
330
222
100
AcDbEntity
  8
0
  6
Continuous
 62
     7
100
AcDbPolyline
 90
        2
 70
     0
 43
0.4999999952
 10
410.0
 20
10.0318435754
 10
410.0
 20
287.0
  0
LWPOLYLINE
  5
2D4
330
222
100
AcDbEntity
  8
0
  6
Continuous
 62
     7
100
AcDbPolyline
 90
        2
 70
     0
 43
0.1000000003
 10
413.0
 20
0.0
 10
413.0
 20
297.0
  0
LINE
  5
2D5
330
222
100
AcDbEntity
  8
0
  6
Continuous
 62
     7
100
AcDbLine
 10
420.0
 20
0.0
 30
0.0
 11
420.0
 21
297.0
 31
0.0
  0
LINE
  5
2D6
330
222
100
AcDbEntity
  8
02___PRT_ALL_AXES
  6
Continuous
 62
     7
100
AcDbLine
 10
45.1422386715
 20
52.6729561135
 30
0.0
 11
45.1422386715
 21
51.8729561135
 31
0.0
  0
LINE
  5
2D7
330
222
100
AcDbEntity
  8
0
  6
Continuous
 62
     7
100
AcDbLine
 10
45.1422386715
 20
52.6729561135
 30
0.0
 11
45.1422386715
 21
53.4729561135
 31
0.0
  0
LINE
  5
2D8
330
222
100
AcDbEntity
  8
02___PRT_ALL_AXES
  6
Continuous
 62
     7
100
AcDbLine
 10
45.1422386715
 20
51.8729561135
 30
0.0
 11
100.1422386715
 21
51.8729561135
 31
0.0
  0
LINE
  5
2D9
330
222
100
AcDbEntity
  8
02___PRT_ALL_AXES
  6
Continuous
 62
     7
100
AcDbLine
 10
100.1422386715
 20
52.6729561135
 30
0.0
 11
45.1422386715
 21
52.6729561135
 31
0.0
  0
LINE
  5
2DA
330
222
100
AcDbEntity
  8
0
  6
Continuous
 62
     7
100
AcDbLine
 10
45.1422386715
 20
52.6729561135
 30
0.0
 11
100.1422386715
 21
52.6729561135
 31
0.0
  0
LINE
  5
2DB
330
222
100
AcDbEntity
  8
0
  6
Continuous
 62
     7
100
AcDbLine
 10
45.1422386715
 20
53.4729561135
 30
0.0
 11
100.1422386715
 21
53.4729561135
 31
0.0
  0
LINE
  5
2DC
330
222
100
AcDbEntity
  8
7_ALL_FEATURES
  6
Continuous
 62
     9
100
AcDbLine
 10
53.2922386715
 20
54.8503063827
 30
0.0
 11
52.9922386715
 21
54.8503063827
 31
0.0
  0
LINE
  5
2DD
330
222
100
AcDbEntity
  8
02___PRT_ALL_AXES
  6
Continuous
 62
     7
100
AcDbLine
 10
51.3422386715
 20
57.5179561135
 30
0.0
 11
51.3422386715
 21
60.8279561135
 31
0.0
  0
LINE
  5
2DE
330
222
100
AcDbEntity
  8
02___PRT_ALL_AXES
  6
Continuous
 62
     7
100
AcDbLine
 10
52.6122386715
 20
56.4229561135
 30
0.0
 11
52.6122386715
 21
61.9229561135
 31
0.0
  0
LINE
  5
2DF
330
222
100
AcDbEntity
  8
02___PRT_ALL_AXES
  6
Continuous
 62
     7
100
AcDbLine
 10
52.9922386715
 20
56.4229561135
 30
0.0
 11
52.6122386715
 21
56.4229561135
 31
0.0
  0
LINE
  5
2E0
330
222
100
AcDbEntity
  8
02___PRT_ALL_AXES
  6
Continuous
 62
     7
100
AcDbLine
 10
92.2922386715
 20
56.4229561135
 30
0.0
 11
92.6722386715
 21
56.4229561135
 31
0.0
  0
LINE
  5
2E1
330
222
100
AcDbEntity
  8
7_ALL_FEATURES
  6
Continuous
 62
     9
100
AcDbLine
 10
91.9922386715
 20
56.9337556665
 30
0.0
 11
92.2922386715
 21
56.9337556665
 31
0.0
  0
LINE
  5
2E2
330
222
100
AcDbEntity
  8
7_ALL_FEATURES
  6
Continuous
 62
     7
100
AcDbLine
 10
52.9922386715
 20
53.4729561135
 30
0.0
 11
52.9922386715
 21
81.2729561135
 31
0.0
  0
LINE
  5
2E3
330
222
100
AcDbEntity
  8
7_ALL_FEATURES
  6
Continuous
 62
     7
100
AcDbLine
 10
53.2922386715
 20
87.6729561135
 30
0.0
 11
53.2922386715
 21
85.4729561135
 31
0.0
  0
LINE
  5
2E4
330
222
100
AcDbEntity
  8
7_ALL_FEATURES
  6
Continuous
 62
     7
100
AcDbLine
 10
53.2922386715
 20
83.4729561135
 30
0.0
 11
53.2922386715
 21
81.6729561135
 31
0.0
  0
LINE
  5
2E5
330
222
100
AcDbEntity
  8
7_ALL_FEATURES
  6
Continuous
 62
     7
100
AcDbLine
 10
53.2922386715
 20
81.2729561135
 30
0.0
 11
53.2922386715
 21
53.4729561135
 31
0.0
  0
LINE
  5
2E6
330
222
100
AcDbEntity
  8
7_ALL_FEATURES
  6
Continuous
 62
     7
100
AcDbLine
 10
56.6422386715
 20
85.4729561135
 30
0.0
 11
56.6422386715
 21
83.4729561135
 31
0.0
  0
LINE
  5
2E7
330
222
100
AcDbEntity
  8
02___PRT_ALL_AXES
  6
Continuous
 62
     7
100
AcDbLine
 10
56.6422386715
 20
81.6729561135
 30
0.0
 11
56.6422386715
 21
79.6729561135
 31
0.0
  0
LINE
  5
2E8
330
222
100
AcDbEntity
  8
02___PRT_ALL_AXES
  6
Continuous
 62
     7
100
AcDbLine
 10
56.6422386715
 20
77.8729561135
 30
0.0
 11
56.6422386715
 21
75.8729561135
 31
0.0
  0
LINE
  5
2E9
330
222
100
AcDbEntity
  8
02___PRT_ALL_AXES
  6
Continuous
 62
     7
100
AcDbLine
 10
56.6422386715
 20
74.0729561135
 30
0.0
 11
56.6422386715
 21
72.0729561135
 31
0.0
  0
LINE
  5
2EA
330
222
100
AcDbEntity
  8
02___PRT_ALL_AXES
  6
Continuous
 62
     7
100
AcDbLine
 10
52.9922386715
 20
61.9229561135
 30
0.0
 11
52.6122386715
 21
61.9229561135
 31
0.0
  0
LINE
  5
2EB
330
222
100
AcDbEntity
  8
02___PRT_ALL_AXES
  6
Continuous
 62
     7
100
AcDbLine
 10
92.2922386715
 20
61.9229561135
 30
0.0
 11
92.6722386715
 21
61.9229561135
 31
0.0
  0
LINE
  5
2EC
330
222
100
AcDbEntity
  8
02___PRT_ALL_AXES
  6
Continuous
 62
     7
100
AcDbLine
 10
65.7140354413
 20
87.6729561135
 30
0.0
 11
65.7140354413
 21
91.1729561135
 31
0.0
  0
LINE
  5
2ED
330
222
100
AcDbEntity
  8
02___PRT_ALL_AXES
  6
Continuous
 62
     7
100
AcDbLine
 10
65.7140354413
 20
94.1729561135
 30
0.0
 11
65.7140354413
 21
100.8781182151
 31
0.0
  0
LINE
  5
2EE
330
222
100
AcDbEntity
  8
02___PRT_ALL_AXES
  6
Continuous
 62
     7
100
AcDbLine
 10
66.6422386715
 20
94.1729561135
 30
0.0
 11
66.6422386715
 21
91.1729561135
 31
0.0
  0
LINE
  5
2EF
330
222
100
AcDbEntity
  8
7_ALL_FEATURES
  6
Continuous
 62
     7
100
AcDbLine
 10
53.2922386715
 20
72.0729561135
 30
0.0
 11
91.9922386715
 21
72.0729561135
 31
0.0
  0
LINE
  5
2F0
330
222
100
AcDbEntity
  8
7_ALL_FEATURES
  6
Continuous
 62
     9
100
AcDbLine
 10
53.2922386715
 20
72.1708144583
 30
0.0
 11
52.9922386715
 21
72.1708144583
 31
0.0
  0
LINE
  5
2F1
330
222
100
AcDbEntity
  8
02___PRT_ALL_AXES
  6
Continuous
 62
     7
100
AcDbLine
 10
68.3121116526
 20
100.1729561135
 30
0.0
 11
68.3121116526
 21
99.6729561135
 31
0.0
  0
LINE
  5
2F2
330
222
100
AcDbEntity
  8
02___PRT_ALL_AXES
  6
Continuous
 62
     7
100
AcDbLine
 10
70.0441624602
 20
100.1729561135
 30
0.0
 11
70.0441624602
 21
99.6729561135
 31
0.0
  0
LINE
  5
2F3
330
222
100
AcDbEntity
  8
7_ALL_FEATURES
  6
Continuous
 62
     7
100
AcDbLine
 10
91.9922386715
 20
74.0729561135
 30
0.0
 11
53.2922386715
 21
74.0729561135
 31
0.0
  0
LINE
  5
2F4
330
222
100
AcDbEntity
  8
7_ALL_FEATURES
  6
Continuous
 62
     9
100
AcDbLine
 10
53.2922386715
 20
74.5742263027
 30
0.0
 11
52.9922386715
 21
74.5742263027
 31
0.0
  0
LINE
  5
2F5
330
222
100
AcDbEntity
  8
02___PRT_ALL_AXES
  6
Continuous
 62
     9
100
AcDbLine
 10
92.2922386715
 20
74.9445894833
 30
0.0
 11
91.9922386715
 21
74.9445894833
 31
0.0
  0
LINE
  5
2F6
330
222
100
AcDbEntity
  8
02___PRT_ALL_AXES
  6
Continuous
 62
     7
100
AcDbLine
 10
72.6422386715
 20
87.6729561135
 30
0.0
 11
72.6422386715
 21
91.1729561135
 31
0.0
  0
LINE
  5
2F7
330
222
100
AcDbEntity
  8
02___PRT_ALL_AXES
  6
Continuous
 62
     7
100
AcDbLine
 10
72.6422386715
 20
94.1729561135
 30
0.0
 11
72.6422386715
 21
98.6729561135
 31
0.0
  0
LINE
  5
2F8
330
222
100
AcDbEntity
  8
7_ALL_FEATURES
  6
Continuous
 62
     7
100
AcDbLine
 10
53.2922386715
 20
75.8729561135
 30
0.0
 11
91.9922386715
 21
75.8729561135
 31
0.0
  0
LINE
  5
2F9
330
222
100
AcDbEntity
  8
7_ALL_FEATURES
  6
Continuous
 62
     7
100
AcDbLine
 10
91.9922386715
 20
77.8729561135
 30
0.0
 11
53.2922386715
 21
77.8729561135
 31
0.0
  0
LINE
  5
2FA
330
222
100
AcDbEntity
  8
02___PRT_ALL_AXES
  6
Continuous
 62
     7
100
AcDbLine
 10
75.2403148829
 20
100.1729561135
 30
0.0
 11
75.2403148829
 21
99.6729561135
 31
0.0
  0
LINE
  5
2FB
330
222
100
AcDbEntity
  8
7_ALL_FEATURES
  6
Continuous
 62
     7
100
AcDbLine
 10
53.2922386715
 20
79.6729561135
 30
0.0
 11
91.9922386715
 21
79.6729561135
 31
0.0
  0
LINE
  5
2FC
330
222
100
AcDbEntity
  8
02___PRT_ALL_AXES
  6
Continuous
 62
     7
100
AcDbLine
 10
76.9723656905
 20
100.1729561135
 30
0.0
 11
76.9723656905
 21
99.6729561135
 31
0.0
  0
LINE
  5
2FD
330
222
100
AcDbEntity
  8
02___PRT_ALL_AXES
  6
Continuous
 62
     7
100
AcDbLine
 10
92.2922386715
 20
81.2729561135
 30
0.0
 11
91.9922386715
 21
81.2729561135
 31
0.0
  0
LINE
  5
2FE
330
222
100
AcDbEntity
  8
7_ALL_FEATURES
  6
Continuous
 62
     7
100
AcDbLine
 10
53.2922386715
 20
81.2729561135
 30
0.0
 11
52.9922386715
 21
81.2729561135
 31
0.0
  0
LINE
  5
2FF
330
222
100
AcDbEntity
  8
7_ALL_FEATURES
  6
Continuous
 62
     7
100
AcDbLine
 10
91.9922386715
 20
81.6729561135
 30
0.0
 11
53.2922386715
 21
81.6729561135
 31
0.0
  0
LINE
  5
300
330
222
100
AcDbEntity
  8
02___PRT_ALL_AXES
  6
Continuous
 62
     7
100
AcDbLine
 10
78.6422386715
 20
94.1729561135
 30
0.0
 11
78.6422386715
 21
91.1729561135
 31
0.0
  0
LINE
  5
301
330
222
100
AcDbEntity
  8
02___PRT_ALL_AXES
  6
Continuous
 62
     7
100
AcDbLine
 10
79.5704419018
 20
87.6729561135
 30
0.0
 11
79.5704419018
 21
91.1729561135
 31
0.0
  0
LINE
  5
302
330
222
100
AcDbEntity
  8
02___PRT_ALL_AXES
  6
Continuous
 62
     7
100
AcDbLine
 10
79.5704419018
 20
94.1729561135
 30
0.0
 11
79.5704419018
 21
100.8781182151
 31
0.0
  0
LINE
  5
303
330
222
100
AcDbEntity
  8
7_ALL_FEATURES
  6
Continuous
 62
     7
100
AcDbLine
 10
53.2922386715
 20
83.4729561135
 30
0.0
 11
91.9922386715
 21
83.4729561135
 31
0.0
  0
LINE
  5
304
330
222
100
AcDbEntity
  8
7_ALL_FEATURES
  6
Continuous
 62
     7
100
AcDbLine
 10
91.9922386715
 20
85.4729561135
 30
0.0
 11
53.2922386715
 21
85.4729561135
 31
0.0
  0
LINE
  5
305
330
222
100
AcDbEntity
  8
7_ALL_FEATURES
  6
Continuous
 62
     7
100
AcDbLine
 10
91.9922386715
 20
87.6729561135
 30
0.0
 11
53.2922386715
 21
87.6729561135
 31
0.0
  0
LINE
  5
306
330
222
100
AcDbEntity
  8
02___PRT_ALL_AXES
  6
Continuous
 62
     7
100
AcDbLine
 10
65.7140354413
 20
91.1729561135
 30
0.0
 11
79.5704419018
 21
91.1729561135
 31
0.0
  0
LINE
  5
307
330
222
100
AcDbEntity
  8
7_ALL_FEATURES
  6
Continuous
 62
     7
100
AcDbLine
 10
88.6422386715
 20
85.4729561135
 30
0.0
 11
88.6422386715
 21
83.4729561135
 31
0.0
  0
LINE
  5
308
330
222
100
AcDbEntity
  8
02___PRT_ALL_AXES
  6
Continuous
 62
     7
100
AcDbLine
 10
88.6422386715
 20
81.6729561135
 30
0.0
 11
88.6422386715
 21
79.6729561135
 31
0.0
  0
LINE
  5
309
330
222
100
AcDbEntity
  8
02___PRT_ALL_AXES
  6
Continuous
 62
     7
100
AcDbLine
 10
88.6422386715
 20
77.8729561135
 30
0.0
 11
88.6422386715
 21
75.8729561135
 31
0.0
  0
LINE
  5
30A
330
222
100
AcDbEntity
  8
02___PRT_ALL_AXES
  6
Continuous
 62
     7
100
AcDbLine
 10
88.6422386715
 20
74.0729561135
 30
0.0
 11
88.6422386715
 21
72.0729561135
 31
0.0
  0
LINE
  5
30B
330
222
100
AcDbEntity
  8
02___PRT_ALL_AXES
  6
Continuous
 62
     7
100
AcDbLine
 10
65.7140354413
 20
94.1729561135
 30
0.0
 11
79.5704419018
 21
94.1729561135
 31
0.0
  0
LINE
  5
30C
330
222
100
AcDbEntity
  8
7_ALL_FEATURES
  6
Continuous
 62
     7
100
AcDbLine
 10
91.9922386715
 20
87.6729561135
 30
0.0
 11
91.9922386715
 21
85.4729561135
 31
0.0
  0
LINE
  5
30D
330
222
100
AcDbEntity
  8
7_ALL_FEATURES
  6
Continuous
 62
     7
100
AcDbLine
 10
91.9922386715
 20
83.4729561135
 30
0.0
 11
91.9922386715
 21
81.6729561135
 31
0.0
  0
LINE
  5
30E
330
222
100
AcDbEntity
  8
7_ALL_FEATURES
  6
Continuous
 62
     7
100
AcDbLine
 10
91.9922386715
 20
53.4729561135
 30
0.0
 11
91.9922386715
 21
74.9445894833
 31
0.0
  0
LINE
  5
30F
330
222
100
AcDbEntity
  8
02___PRT_ALL_AXES
  6
Continuous
 62
     7
100
AcDbLine
 10
91.9922386715
 20
74.9445894833
 30
0.0
 11
91.9922386715
 21
81.2729561135
 31
0.0
  0
LINE
  5
310
330
222
100
AcDbEntity
  8
7_ALL_FEATURES
  6
Continuous
 62
     7
100
AcDbLine
 10
92.2922386715
 20
53.4729561135
 30
0.0
 11
92.2922386715
 21
74.9445894833
 31
0.0
  0
LINE
  5
311
330
222
100
AcDbEntity
  8
02___PRT_ALL_AXES
  6
Continuous
 62
     7
100
AcDbLine
 10
92.2922386715
 20
74.9445894833
 30
0.0
 11
92.2922386715
 21
81.2729561135
 31
0.0
  0
LINE
  5
312
330
222
100
AcDbEntity
  8
02___PRT_ALL_AXES
  6
Continuous
 62
     7
100
AcDbLine
 10
92.6722386715
 20
56.4229561135
 30
0.0
 11
92.6722386715
 21
61.9229561135
 31
0.0
  0
LINE
  5
313
330
222
100
AcDbEntity
  8
02___PRT_ALL_AXES
  6
Continuous
 62
     7
100
AcDbLine
 10
93.9422386715
 20
57.5179561135
 30
0.0
 11
93.9422386715
 21
60.8279561135
 31
0.0
  0
LINE
  5
314
330
222
100
AcDbEntity
  8
02___PRT_ALL_AXES
  6
Continuous
 62
     7
100
AcDbLine
 10
75.2403148829
 20
99.6729561135
 30
0.0
 11
70.0441624602
 21
99.6729561135
 31
0.0
  0
LINE
  5
315
330
222
100
AcDbEntity
  8
02___PRT_ALL_AXES
  6
Continuous
 62
     7
100
AcDbLine
 10
68.3121116526
 20
99.6729561135
 30
0.0
 11
65.7140354413
 21
99.6729561135
 31
0.0
  0
LINE
  5
316
330
222
100
AcDbEntity
  8
02___PRT_ALL_AXES
  6
Continuous
 62
     7
100
AcDbLine
 10
76.9723656905
 20
99.6729561135
 30
0.0
 11
79.5704419018
 21
99.6729561135
 31
0.0
  0
LINE
  5
317
330
222
100
AcDbEntity
  8
02___PRT_ALL_AXES
  6
Continuous
 62
     9
100
AcDbLine
 10
68.3121116526
 20
100.1729561135
 30
0.0
 11
65.7140354413
 21
100.1729561135
 31
0.0
  0
LINE
  5
318
330
222
100
AcDbEntity
  8
02___PRT_ALL_AXES
  6
Continuous
 62
     9
100
AcDbLine
 10
70.0441624602
 20
100.1729561135
 30
0.0
 11
75.2403148829
 21
100.1729561135
 31
0.0
  0
LINE
  5
319
330
222
100
AcDbEntity
  8
02___PRT_ALL_AXES
  6
Continuous
 62
     9
100
AcDbLine
 10
76.9723656905
 20
100.1729561135
 30
0.0
 11
79.5704419018
 21
100.1729561135
 31
0.0
  0
LINE
  5
31A
330
222
100
AcDbEntity
  8
02___PRT_ALL_AXES
  6
Continuous
 62
     7
100
AcDbLine
 10
100.1422386715
 20
52.6729561135
 30
0.0
 11
100.1422386715
 21
51.8729561135
 31
0.0
  0
LINE
  5
31B
330
222
100
AcDbEntity
  8
0
  6
Continuous
 62
     7
100
AcDbLine
 10
100.1422386715
 20
52.6729561135
 30
0.0
 11
100.1422386715
 21
53.4729561135
 31
0.0
  0
LINE
  5
31C
330
222
100
AcDbEntity
  8
02___PRT_ALL_AXES
  6
Continuous
 62
     7
100
AcDbLine
 10
76.1422386715
 20
103.6729561135
 30
0.0
 11
69.1422386715
 21
103.6729561135
 31
0.0
  0
LINE
  5
31D
330
222
100
AcDbEntity
  8
7_ALL_FEATURES
  6
Continuous
 62
     7
100
AcDbLine
 10
76.1422386715
 20
103.6729561135
 30
0.0
 11
69.1422386715
 21
103.6729561135
 31
0.0
  0
LINE
  5
31E
330
222
100
AcDbEntity
  8
02___PRT_ALL_AXES
  6
Continuous
 62
     7
100
AcDbLine
 10
52.9922386715
 20
175.0413707386
 30
0.0
 11
53.2922386715
 21
175.0413707386
 31
0.0
  0
LINE
  5
31F
330
222
100
AcDbEntity
  8
02___PRT_ALL_AXES
  6
Continuous
 62
     9
100
AcDbLine
 10
52.9922386715
 20
176.7370514666
 30
0.0
 11
53.2922386715
 21
176.7370514666
 31
0.0
  0
LINE
  5
320
330
222
100
AcDbEntity
  8
7_ALL_FEATURES
  6
Continuous
 62
     7
100
AcDbLine
 10
52.9922386715
 20
200.8853982064
 30
0.0
 11
52.9922386715
 21
176.7370514666
 31
0.0
  0
LINE
  5
321
330
222
100
AcDbEntity
  8
02___PRT_ALL_AXES
  6
Continuous
 62
     7
100
AcDbLine
 10
52.9922386715
 20
176.7370514666
 30
0.0
 11
52.9922386715
 21
175.0416046417
 31
0.0
  0
LINE
  5
322
330
222
100
AcDbEntity
  8
7_ALL_FEATURES
  6
Continuous
 62
     7
100
AcDbLine
 10
53.2922386715
 20
200.5641710011
 30
0.0
 11
53.2922386715
 21
176.7370514666
 31
0.0
  0
LINE
  5
323
330
222
100
AcDbEntity
  8
02___PRT_ALL_AXES
  6
Continuous
 62
     7
100
AcDbLine
 10
53.2922386715
 20
176.7370514666
 30
0.0
 11
53.2922386715
 21
175.0416046417
 31
0.0
  0
LINE
  5
324
330
222
100
AcDbEntity
  8
7_ALL_FEATURES
  6
Continuous
 62
     7
100
AcDbLine
 10
91.9922386715
 20
239.5185704762
 30
0.0
 11
91.9922386715
 21
263.3456900107
 31
0.0
  0
LINE
  5
325
330
222
100
AcDbEntity
  8
02___PRT_ALL_AXES
  6
Continuous
 62
     7
100
AcDbLine
 10
91.9922386715
 20
263.3456900107
 30
0.0
 11
91.9922386715
 21
265.0411368355
 31
0.0
  0
LINE
  5
326
330
222
100
AcDbEntity
  8
7_ALL_FEATURES
  6
Continuous
 62
     7
100
AcDbLine
 10
92.2922386715
 20
239.1973432709
 30
0.0
 11
92.2922386715
 21
263.3456900107
 31
0.0
  0
LINE
  5
327
330
222
100
AcDbEntity
  8
02___PRT_ALL_AXES
  6
Continuous
 62
     7
100
AcDbLine
 10
92.2922386715
 20
263.3456900107
 30
0.0
 11
92.2922386715
 21
265.0411368355
 31
0.0
  0
LINE
  5
328
330
222
100
AcDbEntity
  8
02___PRT_ALL_AXES
  6
Continuous
 62
     9
100
AcDbLine
 10
92.2922386715
 20
263.3456900107
 30
0.0
 11
91.9922386715
 21
263.3456900107
 31
0.0
  0
LINE
  5
329
330
222
100
AcDbEntity
  8
02___PRT_ALL_AXES
  6
Continuous
 62
     7
100
AcDbLine
 10
92.2922386715
 20
265.0413707386
 30
0.0
 11
91.9922386715
 21
265.0413707386
 31
0.0
  0
LINE
  5
32A
330
222
100
AcDbEntity
  8
0
  6
Continuous
 62
     7
100
AcDbLine
 10
228.2358466261
 20
192.5413707386
 30
0.0
 11
227.4358466261
 21
192.5413707386
 31
0.0
  0
LINE
  5
32B
330
222
100
AcDbEntity
  8
02___PRT_ALL_AXES
  6
Continuous
 62
     7
100
AcDbLine
 10
228.2358466261
 20
192.5413707386
 30
0.0
 11
229.0358466261
 21
192.5413707386
 31
0.0
  0
LINE
  5
32C
330
222
100
AcDbEntity
  8
02___PRT_ALL_AXES
  6
Continuous
 62
     7
100
AcDbLine
 10
177.2358466261
 20
218.5413707386
 30
0.0
 11
177.2358466261
 21
211.5413707386
 31
0.0
  0
LINE
  5
32D
330
222
100
AcDbEntity
  8
7_ALL_FEATURES
  6
Continuous
 62
     7
100
AcDbLine
 10
177.2358466261
 20
218.5413707386
 30
0.0
 11
177.2358466261
 21
211.5413707386
 31
0.0
  0
LINE
  5
32E
330
222
100
AcDbEntity
  8
02___PRT_ALL_AXES
  6
Continuous
 62
     7
100
AcDbLine
 10
181.2358466261
 20
208.0413707386
 30
0.0
 11
182.2358466261
 21
207.0413707386
 31
0.0
  0
LINE
  5
32F
330
222
100
AcDbEntity
  8
02___PRT_ALL_AXES
  6
Continuous
 62
     9
100
AcDbLine
 10
180.7358466261
 20
222.0413707386
 30
0.0
 11
180.7358466261
 21
221.5413707386
 31
0.0
  0
LINE
  5
330
330
222
100
AcDbEntity
  8
02___PRT_ALL_AXES
  6
Continuous
 62
     9
100
AcDbLine
 10
180.7358466261
 20
220.5413707386
 30
0.0
 11
180.7358466261
 21
216.0413707386
 31
0.0
  0
LINE
  5
331
330
222
100
AcDbEntity
  8
02___PRT_ALL_AXES
  6
Continuous
 62
     9
100
AcDbLine
 10
180.7358466261
 20
214.0413707386
 30
0.0
 11
180.7358466261
 21
209.5413707386
 31
0.0
  0
LINE
  5
332
330
222
100
AcDbEntity
  8
02___PRT_ALL_AXES
  6
Continuous
 62
     9
100
AcDbLine
 10
180.7358466261
 20
208.5413707386
 30
0.0
 11
180.7358466261
 21
208.0413707386
 31
0.0
  0
LINE
  5
333
330
222
100
AcDbEntity
  8
02___PRT_ALL_AXES
  6
Continuous
 62
     7
100
AcDbLine
 10
181.2358466261
 20
222.0413707386
 30
0.0
 11
181.2358466261
 21
221.5413707386
 31
0.0
  0
LINE
  5
334
330
222
100
AcDbEntity
  8
02___PRT_ALL_AXES
  6
Continuous
 62
     7
100
AcDbLine
 10
181.2358466261
 20
220.5413707386
 30
0.0
 11
181.2358466261
 21
216.0413707386
 31
0.0
  0
LINE
  5
335
330
222
100
AcDbEntity
  8
02___PRT_ALL_AXES
  6
Continuous
 62
     7
100
AcDbLine
 10
181.2358466261
 20
214.0413707386
 30
0.0
 11
181.2358466261
 21
209.5413707386
 31
0.0
  0
LINE
  5
336
330
222
100
AcDbEntity
  8
02___PRT_ALL_AXES
  6
Continuous
 62
     7
100
AcDbLine
 10
181.2358466261
 20
208.5413707386
 30
0.0
 11
181.2358466261
 21
208.0413707386
 31
0.0
  0
LINE
  5
337
330
222
100
AcDbEntity
  8
02___PRT_ALL_AXES
  6
Continuous
 62
     7
100
AcDbLine
 10
181.2358466261
 20
222.0413707386
 30
0.0
 11
182.2358466261
 21
223.0413707386
 31
0.0
  0
LINE
  5
338
330
222
100
AcDbEntity
  8
02___PRT_ALL_AXES
  6
Continuous
 62
     7
100
AcDbLine
 10
193.2358466261
 20
200.0413707386
 30
0.0
 11
195.4358466261
 21
200.0413707386
 31
0.0
  0
LINE
  5
339
330
222
100
AcDbEntity
  8
02___PRT_ALL_AXES
  6
Continuous
 62
     7
100
AcDbLine
 10
197.4358466261
 20
200.0413707386
 30
0.0
 11
199.2358466261
 21
200.0413707386
 31
0.0
  0
LINE
  5
33A
330
222
100
AcDbEntity
  8
02___PRT_ALL_AXES
  6
Continuous
 62
     7
100
AcDbLine
 10
219.4189682612
 20
200.0413707386
 30
0.0
 11
227.4358466261
 21
200.0413707386
 31
0.0
  0
LINE
  5
33B
330
222
100
AcDbEntity
  8
02___PRT_ALL_AXES
  6
Continuous
 62
     7
100
AcDbLine
 10
186.7358466261
 20
207.0413707386
 30
0.0
 11
186.7358466261
 21
223.0413707386
 31
0.0
  0
LINE
  5
33C
330
222
100
AcDbEntity
  8
02___PRT_ALL_AXES
  6
Continuous
 62
     7
100
AcDbLine
 10
189.7358466261
 20
207.0413707386
 30
0.0
 11
189.7358466261
 21
223.0413707386
 31
0.0
  0
LINE
  5
33D
330
222
100
AcDbEntity
  8
02___PRT_ALL_AXES
  6
Continuous
 62
     7
100
AcDbLine
 10
201.2358466261
 20
204.0413707386
 30
0.0
 11
199.2358466261
 21
204.0413707386
 31
0.0
  0
LINE
  5
33E
330
222
100
AcDbEntity
  8
7_ALL_FEATURES
  6
Continuous
 62
     7
100
AcDbLine
 10
197.4358466261
 20
204.0413707386
 30
0.0
 11
195.4358466261
 21
204.0413707386
 31
0.0
  0
LINE
  5
33F
330
222
100
AcDbEntity
  8
02___PRT_ALL_AXES
  6
Continuous
 62
     7
100
AcDbLine
 10
193.2358466261
 20
207.0413707386
 30
0.0
 11
189.7358466261
 21
207.0413707386
 31
0.0
  0
LINE
  5
340
330
222
100
AcDbEntity
  8
02___PRT_ALL_AXES
  6
Continuous
 62
     7
100
AcDbLine
 10
186.7358466261
 20
207.0413707386
 30
0.0
 11
182.2358466261
 21
207.0413707386
 31
0.0
  0
LINE
  5
341
330
222
100
AcDbEntity
  8
02___PRT_ALL_AXES
  6
Continuous
 62
     7
100
AcDbLine
 10
180.7358466261
 20
208.0413707386
 30
0.0
 11
181.2358466261
 21
208.0413707386
 31
0.0
  0
LINE
  5
342
330
222
100
AcDbEntity
  8
02___PRT_ALL_AXES
  6
Continuous
 62
     7
100
AcDbLine
 10
180.7358466261
 20
208.5413707386
 30
0.0
 11
181.2358466261
 21
208.5413707386
 31
0.0
  0
LINE
  5
343
330
222
100
AcDbEntity
  8
02___PRT_ALL_AXES
  6
Continuous
 62
     7
100
AcDbLine
 10
189.7358466261
 20
209.0413707386
 30
0.0
 11
186.7358466261
 21
209.0413707386
 31
0.0
  0
LINE
  5
344
330
222
100
AcDbEntity
  8
02___PRT_ALL_AXES
  6
Continuous
 62
     7
100
AcDbLine
 10
180.7358466261
 20
209.5413707386
 30
0.0
 11
181.2358466261
 21
209.5413707386
 31
0.0
  0
LINE
  5
345
330
222
100
AcDbEntity
  8
7_ALL_FEATURES
  6
Continuous
 62
     7
100
AcDbLine
 10
193.2358466261
 20
200.0415425748
 30
0.0
 11
193.2358466261
 21
240.0411989025
 31
0.0
  0
LINE
  5
346
330
222
100
AcDbEntity
  8
7_ALL_FEATURES
  6
Continuous
 62
     7
100
AcDbLine
 10
195.4358466261
 20
200.0415425748
 30
0.0
 11
195.4358466261
 21
240.0411989025
 31
0.0
  0
LINE
  5
347
330
222
100
AcDbEntity
  8
02___PRT_ALL_AXES
  6
Continuous
 62
     7
100
AcDbLine
 10
193.2358466261
 20
211.0413707386
 30
0.0
 11
189.7358466261
 21
211.0413707386
 31
0.0
  0
LINE
  5
348
330
222
100
AcDbEntity
  8
02___PRT_ALL_AXES
  6
Continuous
 62
     7
100
AcDbLine
 10
186.7358466261
 20
211.0413707386
 30
0.0
 11
182.2358466261
 21
211.0413707386
 31
0.0
  0
LINE
  5
349
330
222
100
AcDbEntity
  8
7_ALL_FEATURES
  6
Continuous
 62
     7
100
AcDbLine
 10
197.4358466261
 20
200.0415425748
 30
0.0
 11
197.4358466261
 21
240.0411989025
 31
0.0
  0
LINE
  5
34A
330
222
100
AcDbEntity
  8
7_ALL_FEATURES
  6
Continuous
 62
     7
100
AcDbLine
 10
199.2358466261
 20
200.0415425748
 30
0.0
 11
199.2358466261
 21
240.0411989025
 31
0.0
  0
LINE
  5
34B
330
222
100
AcDbEntity
  8
7_ALL_FEATURES
  6
Continuous
 62
     7
100
AcDbLine
 10
199.6358466261
 20
261.6500092827
 30
0.0
 11
199.6358466261
 21
251.7042021646
 31
0.0
  0
LINE
  5
34C
330
222
100
AcDbEntity
  8
7_ALL_FEATURES
  6
Continuous
 62
     7
100
AcDbLine
 10
199.6358466261
 20
178.4327321945
 30
0.0
 11
199.6358466261
 21
188.3785393127
 31
0.0
  0
LINE
  5
34D
330
222
100
AcDbEntity
  8
02___PRT_ALL_AXES
  6
Continuous
 62
     7
100
AcDbLine
 10
180.7358466261
 20
214.0413707386
 30
0.0
 11
181.2358466261
 21
214.0413707386
 31
0.0
  0
LINE
  5
34E
330
222
100
AcDbEntity
  8
7_ALL_FEATURES
  6
Continuous
 62
     7
100
AcDbLine
 10
193.2358466261
 20
214.9839504476
 30
0.0
 11
195.4358466261
 21
214.9839504476
 31
0.0
  0
LINE
  5
34F
330
222
100
AcDbEntity
  8
7_ALL_FEATURES
  6
Continuous
 62
     7
100
AcDbLine
 10
197.4358466261
 20
214.9839504476
 30
0.0
 11
199.2358466261
 21
214.9839504476
 31
0.0
  0
LINE
  5
350
330
222
100
AcDbEntity
  8
7_ALL_FEATURES
  6
Continuous
 62
     7
100
AcDbLine
 10
201.2358466261
 20
214.9839504476
 30
0.0
 11
203.0358466261
 21
214.9839504476
 31
0.0
  0
LINE
  5
351
330
222
100
AcDbEntity
  8
7_ALL_FEATURES
  6
Continuous
 62
     7
100
AcDbLine
 10
205.0358466261
 20
214.9839504476
 30
0.0
 11
206.8358466261
 21
214.9839504476
 31
0.0
  0
LINE
  5
352
330
222
100
AcDbEntity
  8
7_ALL_FEATURES
  6
Continuous
 62
     7
100
AcDbLine
 10
227.4358466261
 20
215.7913707386
 30
0.0
 11
226.8858466261
 21
215.7913707386
 31
0.0
  0
LINE
  5
353
330
222
100
AcDbEntity
  8
02___PRT_ALL_AXES
  6
Continuous
 62
     7
100
AcDbLine
 10
180.7358466261
 20
216.0413707386
 30
0.0
 11
181.2358466261
 21
216.0413707386
 31
0.0
  0
LINE
  5
354
330
222
100
AcDbEntity
  8
0
  6
Continuous
 62
     7
100
AcDbLine
 10
226.6358466261
 20
216.0413707386
 30
0.0
 11
227.4358466261
 21
216.0413707386
 31
0.0
  0
LINE
  5
355
330
222
100
AcDbEntity
  8
7_ALL_FEATURES
  6
Continuous
 62
     7
100
AcDbLine
 10
201.2358466261
 20
200.851691918
 30
0.0
 11
201.2358466261
 21
240.0411989025
 31
0.0
  0
LINE
  5
356
330
222
100
AcDbEntity
  8
7_ALL_FEATURES
  6
Continuous
 62
     7
100
AcDbLine
 10
203.0358466261
 20
206.4081279506
 30
0.0
 11
203.0358466261
 21
240.0411989025
 31
0.0
  0
LINE
  5
357
330
222
100
AcDbEntity
  8
02___PRT_ALL_AXES
  6
Continuous
 62
     7
100
AcDbLine
 10
193.2358466261
 20
219.0413707386
 30
0.0
 11
189.7358466261
 21
219.0413707386
 31
0.0
  0
LINE
  5
358
330
222
100
AcDbEntity
  8
02___PRT_ALL_AXES
  6
Continuous
 62
     7
100
AcDbLine
 10
186.7358466261
 20
219.0413707386
 30
0.0
 11
182.2358466261
 21
219.0413707386
 31
0.0
  0
LINE
  5
359
330
222
100
AcDbEntity
  8
0
  6
Continuous
 62
     9
100
AcDbLine
 10
228.2358466261
 20
220.0413707386
 30
0.0
 11
227.4358466261
 21
220.0413707386
 31
0.0
  0
LINE
  5
35A
330
222
100
AcDbEntity
  8
7_ALL_FEATURES
  6
Continuous
 62
     7
100
AcDbLine
 10
205.0358466261
 20
210.8837025585
 30
0.0
 11
205.0358466261
 21
240.0411989025
 31
0.0
  0
LINE
  5
35B
330
222
100
AcDbEntity
  8
7_ALL_FEATURES
  6
Continuous
 62
     7
100
AcDbLine
 10
206.8358466261
 20
214.2467647488
 30
0.0
 11
206.8358466261
 21
240.0411989025
 31
0.0
  0
LINE
  5
35C
330
222
100
AcDbEntity
  8
02___PRT_ALL_AXES
  6
Continuous
 62
     7
100
AcDbLine
 10
180.7358466261
 20
220.5413707386
 30
0.0
 11
181.2358466261
 21
220.5413707386
 31
0.0
  0
LINE
  5
35D
330
222
100
AcDbEntity
  8
02___PRT_ALL_AXES
  6
Continuous
 62
     7
100
AcDbLine
 10
189.7358466261
 20
221.0413707386
 30
0.0
 11
186.7358466261
 21
221.0413707386
 31
0.0
  0
LINE
  5
35E
330
222
100
AcDbEntity
  8
02___PRT_ALL_AXES
  6
Continuous
 62
     7
100
AcDbLine
 10
180.7358466261
 20
221.5413707386
 30
0.0
 11
181.2358466261
 21
221.5413707386
 31
0.0
  0
LINE
  5
35F
330
222
100
AcDbEntity
  8
02___PRT_ALL_AXES
  6
Continuous
 62
     7
100
AcDbLine
 10
180.7358466261
 20
222.0413707386
 30
0.0
 11
181.2358466261
 21
222.0413707386
 31
0.0
  0
LINE
  5
360
330
222
100
AcDbEntity
  8
02___PRT_ALL_AXES
  6
Continuous
 62
     7
100
AcDbLine
 10
193.2358466261
 20
223.0413707386
 30
0.0
 11
189.7358466261
 21
223.0413707386
 31
0.0
  0
LINE
  5
361
330
222
100
AcDbEntity
  8
02___PRT_ALL_AXES
  6
Continuous
 62
     7
100
AcDbLine
 10
186.7358466261
 20
223.0413707386
 30
0.0
 11
182.2358466261
 21
223.0413707386
 31
0.0
  0
LINE
  5
362
330
222
100
AcDbEntity
  8
7_ALL_FEATURES
  6
Continuous
 62
     7
100
AcDbLine
 10
208.8358466261
 20
217.6878261015
 30
0.0
 11
208.8358466261
 21
240.0411989025
 31
0.0
  0
LINE
  5
363
330
222
100
AcDbEntity
  8
7_ALL_FEATURES
  6
Continuous
 62
     7
100
AcDbLine
 10
206.3345764369
 20
213.3785393127
 30
0.0
 11
208.7379882812
 21
217.5413707386
 31
0.0
  0
LINE
  5
364
330
222
100
AcDbEntity
  8
0
  6
Continuous
 62
     7
100
AcDbLine
 10
227.4358466261
 20
224.0413707386
 30
0.0
 11
226.6358466261
 21
224.0413707386
 31
0.0
  0
LINE
  5
365
330
222
100
AcDbEntity
  8
7_ALL_FEATURES
  6
Continuous
 62
     7
100
AcDbLine
 10
226.8858466261
 20
224.2913707386
 30
0.0
 11
227.4358466261
 21
224.2913707386
 31
0.0
  0
LINE
  5
366
330
222
100
AcDbEntity
  8
7_ALL_FEATURES
  6
Continuous
 62
     7
100
AcDbLine
 10
193.2358466261
 20
225.0987910297
 30
0.0
 11
195.4358466261
 21
225.0987910297
 31
0.0
  0
LINE
  5
367
330
222
100
AcDbEntity
  8
7_ALL_FEATURES
  6
Continuous
 62
     7
100
AcDbLine
 10
197.4358466261
 20
225.0987910297
 30
0.0
 11
199.2358466261
 21
225.0987910297
 31
0.0
  0
LINE
  5
368
330
222
100
AcDbEntity
  8
7_ALL_FEATURES
  6
Continuous
 62
     7
100
AcDbLine
 10
201.2358466261
 20
225.0987910297
 30
0.0
 11
203.0358466261
 21
225.0987910297
 31
0.0
  0
LINE
  5
369
330
222
100
AcDbEntity
  8
7_ALL_FEATURES
  6
Continuous
 62
     7
100
AcDbLine
 10
205.0358466261
 20
225.0987910297
 30
0.0
 11
206.8358466261
 21
225.0987910297
 31
0.0
  0
LINE
  5
36A
330
222
100
AcDbEntity
  8
7_ALL_FEATURES
  6
Continuous
 62
     7
100
AcDbLine
 10
208.8358466261
 20
225.0987910297
 30
0.0
 11
216.5389068055
 21
225.0987910297
 31
0.0
  0
LINE
  5
36B
330
222
100
AcDbEntity
  8
7_ALL_FEATURES
  6
Continuous
 62
     7
100
AcDbLine
 10
221.7358466261
 20
221.196071277
 30
0.0
 11
220.7358466261
 21
220.6187210078
 31
0.0
  0
LINE
  5
36C
330
222
100
AcDbEntity
  8
7_ALL_FEATURES
  6
Continuous
 62
     7
100
AcDbLine
 10
221.7358466261
 20
218.8866702003
 30
0.0
 11
222.7358466261
 21
219.4640204694
 31
0.0
  0
LINE
  5
36D
330
222
100
AcDbEntity
  8
7_ALL_FEATURES
  6
Continuous
 62
     7
100
AcDbLine
 10
226.0584963569
 20
227.5413707386
 30
0.0
 11
227.4358466261
 21
227.5413707386
 31
0.0
  0
LINE
  5
36E
330
222
100
AcDbEntity
  8
7_ALL_FEATURES
  6
Continuous
 62
     7
100
AcDbLine
 10
220.7358466261
 20
219.4640204694
 30
0.0
 11
221.7358466261
 21
218.8866702003
 31
0.0
  0
LINE
  5
36F
330
222
100
AcDbEntity
  8
7_ALL_FEATURES
  6
Continuous
 62
     7
100
AcDbLine
 10
222.7358466261
 20
220.6187210078
 30
0.0
 11
221.7358466261
 21
221.196071277
 31
0.0
  0
LINE
  5
370
330
222
100
AcDbEntity
  8
7_ALL_FEATURES
  6
Continuous
 62
     7
100
AcDbLine
 10
226.6358466261
 20
224.0413707386
 30
0.0
 11
227.4358466261
 21
224.8413707386
 31
0.0
  0
LINE
  5
371
330
222
100
AcDbEntity
  8
7_ALL_FEATURES
  6
Continuous
 62
     7
100
AcDbLine
 10
227.4358466261
 20
215.2413707386
 30
0.0
 11
226.6358466261
 21
216.0413707386
 31
0.0
  0
LINE
  5
372
330
222
100
AcDbEntity
  8
7_ALL_FEATURES
  6
Continuous
 62
     7
100
AcDbLine
 10
220.7358466261
 20
220.6187210078
 30
0.0
 11
220.7358466261
 21
219.4640204694
 31
0.0
  0
LINE
  5
373
330
222
100
AcDbEntity
  8
02___PRT_ALL_AXES
  6
Continuous
 62
     7
100
AcDbLine
 10
208.8358466261
 20
236.0413707386
 30
0.0
 11
206.8358466261
 21
236.0413707386
 31
0.0
  0
LINE
  5
374
330
222
100
AcDbEntity
  8
02___PRT_ALL_AXES
  6
Continuous
 62
     7
100
AcDbLine
 10
205.0358466261
 20
236.0413707386
 30
0.0
 11
203.0358466261
 21
236.0413707386
 31
0.0
  0
LINE
  5
375
330
222
100
AcDbEntity
  8
02___PRT_ALL_AXES
  6
Continuous
 62
     7
100
AcDbLine
 10
201.2358466261
 20
236.0413707386
 30
0.0
 11
199.2358466261
 21
236.0413707386
 31
0.0
  0
LINE
  5
376
330
222
100
AcDbEntity
  8
7_ALL_FEATURES
  6
Continuous
 62
     7
100
AcDbLine
 10
197.4358466261
 20
236.0413707386
 30
0.0
 11
195.4358466261
 21
236.0413707386
 31
0.0
  0
LINE
  5
377
330
222
100
AcDbEntity
  8
7_ALL_FEATURES
  6
Continuous
 62
     7
100
AcDbLine
 10
222.7358466261
 20
219.4640204694
 30
0.0
 11
222.7358466261
 21
220.6187210078
 31
0.0
  0
LINE
  5
378
330
222
100
AcDbEntity
  8
02___PRT_ALL_AXES
  6
Continuous
 62
     7
100
AcDbLine
 10
193.2358466261
 20
240.0413707386
 30
0.0
 11
195.4358466261
 21
240.0413707386
 31
0.0
  0
LINE
  5
379
330
222
100
AcDbEntity
  8
02___PRT_ALL_AXES
  6
Continuous
 62
     7
100
AcDbLine
 10
197.4358466261
 20
240.0413707386
 30
0.0
 11
199.2358466261
 21
240.0413707386
 31
0.0
  0
LINE
  5
37A
330
222
100
AcDbEntity
  8
02___PRT_ALL_AXES
  6
Continuous
 62
     7
100
AcDbLine
 10
201.2358466261
 20
240.0413707386
 30
0.0
 11
203.0358466261
 21
240.0413707386
 31
0.0
  0
LINE
  5
37B
330
222
100
AcDbEntity
  8
02___PRT_ALL_AXES
  6
Continuous
 62
     7
100
AcDbLine
 10
205.0358466261
 20
240.0413707386
 30
0.0
 11
206.8358466261
 21
240.0413707386
 31
0.0
  0
LINE
  5
37C
330
222
100
AcDbEntity
  8
02___PRT_ALL_AXES
  6
Continuous
 62
     7
100
AcDbLine
 10
208.8358466261
 20
240.0413707386
 30
0.0
 11
227.4358466261
 21
240.0413707386
 31
0.0
  0
LINE
  5
37D
330
222
100
AcDbEntity
  8
7_ALL_FEATURES
  6
Continuous
 62
     7
100
AcDbLine
 10
226.6358466261
 20
216.0413707386
 30
0.0
 11
226.6358466261
 21
224.0413707386
 31
0.0
  0
LINE
  5
37E
330
222
100
AcDbEntity
  8
0
  6
Continuous
 62
     7
100
AcDbLine
 10
227.4358466261
 20
192.5415947888
 30
0.0
 11
227.4358466261
 21
247.5411466885
 31
0.0
  0
LINE
  5
37F
330
222
100
AcDbEntity
  8
7_ALL_FEATURES
  6
Continuous
 62
     7
100
AcDbLine
 10
223.9750470731
 20
207.9327307241
 30
0.0
 11
205.9642132562
 21
176.7370514666
 31
0.0
  0
LINE
  5
380
330
222
100
AcDbEntity
  8
7_ALL_FEATURES
  6
Continuous
 62
     7
100
AcDbLine
 10
219.4189682612
 20
240.0413707386
 30
0.0
 11
205.9642132562
 21
263.3456900107
 31
0.0
  0
LINE
  5
381
330
222
100
AcDbEntity
  8
02___PRT_ALL_AXES
  6
Continuous
 62
     7
100
AcDbLine
 10
228.2358466261
 20
247.5411466885
 30
0.0
 11
228.2358466261
 21
192.5415947888
 31
0.0
  0
LINE
  5
382
330
222
100
AcDbEntity
  8
0
  6
Continuous
 62
     7
100
AcDbLine
 10
228.2358466261
 20
192.5415947888
 30
0.0
 11
228.2358466261
 21
247.5411466885
 31
0.0
  0
LINE
  5
383
330
222
100
AcDbEntity
  8
02___PRT_ALL_AXES
  6
Continuous
 62
     7
100
AcDbLine
 10
229.0358466261
 20
192.5415947888
 30
0.0
 11
229.0358466261
 21
247.5411466885
 31
0.0
  0
LINE
  5
384
330
222
100
AcDbEntity
  8
0
  6
Continuous
 62
     7
100
AcDbLine
 10
228.2358466261
 20
247.5413707386
 30
0.0
 11
227.4358466261
 21
247.5413707386
 31
0.0
  0
LINE
  5
385
330
222
100
AcDbEntity
  8
02___PRT_ALL_AXES
  6
Continuous
 62
     7
100
AcDbLine
 10
228.2358466261
 20
247.5413707386
 30
0.0
 11
229.0358466261
 21
247.5413707386
 31
0.0
  0
LINE
  5
386
330
222
100
AcDbEntity
  8
02___PRT_ALL_AXES
  6
Continuous
 62
     7
100
AcDbLine
 10
322.5973491488
 20
87.8610691628
 30
0.0
 11
322.8171661467
 21
87.7988576982
 31
0.0
  0
LINE
  5
387
330
222
100
AcDbEntity
  8
02___PRT_ALL_AXES
  6
Continuous
 62
     9
100
AcDbLine
 10
321.5663756285
 20
88.7652548152
 30
0.0
 11
321.7861926264
 21
88.7030433506
 31
0.0
  0
LINE
  5
388
330
222
100
AcDbEntity
  8
7_ALL_FEATURES
  6
Continuous
 62
     7
100
AcDbLine
 10
318.8126919939
 20
93.9991037172
 30
0.0
 11
321.5663756285
 21
88.7652548152
 31
0.0
  0
LINE
  5
389
330
222
100
AcDbEntity
  8
7_ALL_FEATURES
  6
Continuous
 62
     7
100
AcDbLine
 10
319.0325089918
 20
93.9368922527
 30
0.0
 11
321.7861926264
 21
88.7030433506
 31
0.0
  0
LINE
  5
38A
330
222
100
AcDbEntity
  8
02___PRT_ALL_AXES
  6
Continuous
 62
     7
100
AcDbLine
 10
336.4211058744
 20
147.533099714
 30
0.0
 11
334.924978729
 21
146.9644607515
 31
0.0
  0
LINE
  5
38B
330
222
100
AcDbEntity
  8
02___PRT_ALL_AXES
  6
Continuous
 62
     7
100
AcDbLine
 10
333.5648631423
 20
146.4475162402
 30
0.0
 11
332.3407591142
 21
145.98226618
 31
0.0
  0
LINE
  5
38C
330
222
100
AcDbEntity
  8
02___PRT_ALL_AXES
  6
Continuous
 62
     7
100
AcDbLine
 10
330.9806435275
 20
145.4653216687
 30
0.0
 11
329.7565394994
 21
145.0000716085
 31
0.0
  0
LINE
  5
38D
330
222
100
AcDbEntity
  8
02___PRT_ALL_AXES
  6
Continuous
 62
     7
100
AcDbLine
 10
328.3964239127
 20
144.4831270972
 30
0.0
 11
327.1723198846
 21
144.0178770371
 31
0.0
  0
LINE
  5
38E
330
222
100
AcDbEntity
  8
02___PRT_ALL_AXES
  6
Continuous
 62
     7
100
AcDbLine
 10
325.8122042979
 20
143.5009325258
 30
0.0
 11
325.2090419761
 21
143.2716862361
 31
0.0
  0
LINE
  5
38F
330
222
100
AcDbEntity
  8
02___PRT_ALL_AXES
  6
Continuous
 62
     7
100
AcDbLine
 10
353.6406052035
 20
142.3802543599
 30
0.0
 11
353.3005763068
 21
142.251018232
 31
0.0
  0
LINE
  5
390
330
222
100
AcDbEntity
  8
7_ALL_FEATURES
  6
Continuous
 62
     7
100
AcDbLine
 10
326.047019571
 20
91.9386225147
 30
0.0
 11
326.0137327132
 21
93.1820750352
 31
0.0
  0
LINE
  5
391
330
222
100
AcDbEntity
  8
02___PRT_ALL_AXES
  6
Continuous
 62
     7
100
AcDbLine
 10
354.9349764055
 20
141.0775779531
 30
0.0
 11
354.5949475088
 21
140.9483418252
 31
0.0
  0
LINE
  5
392
330
222
100
AcDbEntity
  8
7_ALL_FEATURES
  6
Continuous
 62
     7
100
AcDbLine
 10
340.4466690001
 20
116.7681572014
 30
0.0
 11
340.2188906151
 21
116.8326218564
 31
0.0
  0
LINE
  5
393
330
222
100
AcDbEntity
  8
7_ALL_FEATURES
  6
Continuous
 62
     7
100
AcDbLine
 10
340.4175045288
 20
117.8576152526
 30
0.0
 11
340.1257741861
 21
117.9401792583
 31
0.0
  0
LINE
  5
394
330
222
100
AcDbEntity
  8
7_ALL_FEATURES
  6
Continuous
 62
     7
100
AcDbLine
 10
340.4175045288
 20
117.8576152526
 30
0.0
 11
340.118456163
 21
117.9808511959
 31
0.0
  0
LINE
  5
395
330
222
100
AcDbEntity
  8
02___PRT_ALL_AXES
  6
Continuous
 62
     7
100
AcDbLine
 10
354.2075870747
 20
138.1091664281
 30
0.0
 11
355.8564465185
 21
138.7358549594
 31
0.0
  0
LINE
  5
396
330
222
100
AcDbEntity
  8
02___PRT_ALL_AXES
  6
Continuous
 62
     7
100
AcDbLine
 10
356.9523047274
 20
136.2930682969
 30
0.0
 11
356.6122758307
 21
136.1638321691
 31
0.0
  0
LINE
  5
397
330
222
100
AcDbEntity
  8
02___PRT_ALL_AXES
  6
Continuous
 62
     7
100
AcDbLine
 10
357.0028190733
 20
134.4060715996
 30
0.0
 11
356.6627901766
 21
134.2768354718
 31
0.0
  0
LINE
  5
398
330
222
100
AcDbEntity
  8
7_ALL_FEATURES
  6
Continuous
 62
     7
100
AcDbLine
 10
336.8091171228
 20
129.2399984238
 30
0.0
 11
347.9550959903
 21
162.392871866
 31
0.0
  0
LINE
  5
399
330
222
100
AcDbEntity
  8
7_ALL_FEATURES
  6
Continuous
 62
     7
100
AcDbLine
 10
336.9527977253
 20
128.9513249939
 30
0.0
 11
348.1749129881
 21
162.3306604015
 31
0.0
  0
LINE
  5
39A
330
222
100
AcDbEntity
  8
7_ALL_FEATURES
  6
Continuous
 62
     7
100
AcDbLine
 10
357.5771294567
 20
129.5969154702
 30
0.0
 11
356.0810023113
 21
129.0282765078
 31
0.0
  0
LINE
  5
39B
330
222
100
AcDbEntity
  8
7_ALL_FEATURES
  6
Continuous
 62
     7
100
AcDbLine
 10
354.7208867246
 20
128.5113319964
 30
0.0
 11
353.4967826965
 21
128.0460819363
 31
0.0
  0
LINE
  5
39C
330
222
100
AcDbEntity
  8
7_ALL_FEATURES
  6
Continuous
 62
     7
100
AcDbLine
 10
352.1366671098
 20
127.529137425
 30
0.0
 11
350.9125630817
 21
127.0638873648
 31
0.0
  0
LINE
  5
39D
330
222
100
AcDbEntity
  8
7_ALL_FEATURES
  6
Continuous
 62
     7
100
AcDbLine
 10
349.552447495
 20
126.5469428535
 30
0.0
 11
348.3283434669
 21
126.0816927933
 31
0.0
  0
LINE
  5
39E
330
222
100
AcDbEntity
  8
7_ALL_FEATURES
  6
Continuous
 62
     7
100
AcDbLine
 10
340.4466690001
 20
116.7681572014
 30
0.0
 11
340.4175045288
 21
117.8576152526
 31
0.0
  0
LINE
  5
39F
330
222
100
AcDbEntity
  8
7_ALL_FEATURES
  6
Continuous
 62
     7
100
AcDbLine
 10
340.2432848706
 20
116.5226810281
 30
0.0
 11
340.4466690001
 21
116.7681572014
 31
0.0
  0
LINE
  5
3A0
330
222
100
AcDbEntity
  8
0
  6
Continuous
 62
     9
100
AcDbLine
 10
339.8745379372
 20
114.0886407085
 30
0.0
 11
340.4185841719
 21
114.295418513
 31
0.0
  0
LINE
  5
3A1
330
222
100
AcDbEntity
  8
7_ALL_FEATURES
  6
Continuous
 62
     7
100
AcDbLine
 10
357.8326017348
 20
120.0535800842
 30
0.0
 11
356.3364745894
 21
119.4849411218
 31
0.0
  0
LINE
  5
3A2
330
222
100
AcDbEntity
  8
7_ALL_FEATURES
  6
Continuous
 62
     7
100
AcDbLine
 10
354.9763590026
 20
118.9679966105
 30
0.0
 11
353.7522549746
 21
118.5027465503
 31
0.0
  0
LINE
  5
3A3
330
222
100
AcDbEntity
  8
7_ALL_FEATURES
  6
Continuous
 62
     7
100
AcDbLine
 10
352.3921393879
 20
117.985802039
 30
0.0
 11
351.1680353598
 21
117.5205519788
 31
0.0
  0
LINE
  5
3A4
330
222
100
AcDbEntity
  8
7_ALL_FEATURES
  6
Continuous
 62
     7
100
AcDbLine
 10
349.8079197731
 20
117.0036074675
 30
0.0
 11
348.583815745
 21
116.5383574073
 31
0.0
  0
LINE
  5
3A5
330
222
100
AcDbEntity
  8
7_ALL_FEATURES
  6
Continuous
 62
     7
100
AcDbLine
 10
347.2237001583
 20
116.021412896
 30
0.0
 11
342.4120234135
 21
114.1926198819
 31
0.0
  0
LINE
  5
3A6
330
222
100
AcDbEntity
  8
7_ALL_FEATURES
  6
Continuous
 62
     7
100
AcDbLine
 10
347.0523862521
 20
122.4209568117
 30
0.0
 11
347.2237001583
 21
116.021412896
 31
0.0
  0
LINE
  5
3A7
330
222
100
AcDbEntity
  8
7_ALL_FEATURES
  6
Continuous
 62
     7
100
AcDbLine
 10
348.3283434669
 20
126.0816927933
 30
0.0
 11
348.583815745
 21
116.5383574073
 31
0.0
  0
LINE
  5
3A8
330
222
100
AcDbEntity
  8
7_ALL_FEATURES
  6
Continuous
 62
     7
100
AcDbLine
 10
348.8485050169
 20
127.6637485199
 30
0.0
 11
347.3191874148
 21
123.1149086632
 31
0.0
  0
LINE
  5
3A9
330
222
100
AcDbEntity
  8
7_ALL_FEATURES
  6
Continuous
 62
     7
100
AcDbLine
 10
349.552447495
 20
126.5469428535
 30
0.0
 11
349.8079197731
 21
117.0036074675
 31
0.0
  0
LINE
  5
3AA
330
222
100
AcDbEntity
  8
7_ALL_FEATURES
  6
Continuous
 62
     7
100
AcDbLine
 10
350.9125630817
 20
127.0638873648
 30
0.0
 11
351.1680353598
 21
117.5205519788
 31
0.0
  0
LINE
  5
3AB
330
222
100
AcDbEntity
  8
02___PRT_ALL_AXES
  6
Continuous
 62
     7
100
AcDbLine
 10
350.6322325895
 20
110.14267477
 30
0.0
 11
349.1361054441
 21
109.5740358076
 31
0.0
  0
LINE
  5
3AC
330
222
100
AcDbEntity
  8
02___PRT_ALL_AXES
  6
Continuous
 62
     7
100
AcDbLine
 10
347.7759898574
 20
109.0570912963
 30
0.0
 11
346.5518858293
 21
108.5918412361
 31
0.0
  0
LINE
  5
3AD
330
222
100
AcDbEntity
  8
02___PRT_ALL_AXES
  6
Continuous
 62
     7
100
AcDbLine
 10
345.1917702426
 20
108.0748967248
 30
0.0
 11
343.9676662145
 21
107.6096466646
 31
0.0
  0
LINE
  5
3AE
330
222
100
AcDbEntity
  8
02___PRT_ALL_AXES
  6
Continuous
 62
     7
100
AcDbLine
 10
342.6075506278
 20
107.0927021533
 30
0.0
 11
341.3834465997
 21
106.6274520931
 31
0.0
  0
LINE
  5
3AF
330
222
100
AcDbEntity
  8
02___PRT_ALL_AXES
  6
Continuous
 62
     7
100
AcDbLine
 10
340.023331013
 20
106.1105075818
 30
0.0
 11
339.4192311328
 21
105.8809049507
 31
0.0
  0
LINE
  5
3B0
330
222
100
AcDbEntity
  8
7_ALL_FEATURES
  6
Continuous
 62
     7
100
AcDbLine
 10
352.1366671098
 20
127.529137425
 30
0.0
 11
352.3921393879
 21
117.985802039
 31
0.0
  0
LINE
  5
3B1
330
222
100
AcDbEntity
  8
7_ALL_FEATURES
  6
Continuous
 62
     7
100
AcDbLine
 10
352.5213961357
 20
162.3664956323
 30
0.0
 11
352.7725991063
 21
152.9826430403
 31
0.0
  0
LINE
  5
3B2
330
222
100
AcDbEntity
  8
7_ALL_FEATURES
  6
Continuous
 62
     7
100
AcDbLine
 10
353.4967826965
 20
128.0460819363
 30
0.0
 11
353.7522549746
 21
118.5027465503
 31
0.0
  0
LINE
  5
3B3
330
222
100
AcDbEntity
  8
7_ALL_FEATURES
  6
Continuous
 62
     7
100
AcDbLine
 10
354.7208867246
 20
128.5113319964
 30
0.0
 11
354.9763590026
 21
118.9679966105
 31
0.0
  0
LINE
  5
3B4
330
222
100
AcDbEntity
  8
7_ALL_FEATURES
  6
Continuous
 62
     7
100
AcDbLine
 10
356.0810023113
 20
129.0282765078
 30
0.0
 11
356.3364745894
 21
119.4849411218
 31
0.0
  0
LINE
  5
3B5
330
222
100
AcDbEntity
  8
7_ALL_FEATURES
  6
Continuous
 62
     7
100
AcDbLine
 10
357.5771294567
 20
129.5969154702
 30
0.0
 11
357.8326017348
 21
120.0535800842
 31
0.0
  0
LINE
  5
3B6
330
222
100
AcDbEntity
  8
02___PRT_ALL_AXES
  6
Continuous
 62
     7
100
AcDbLine
 10
354.9430462199
 20
140.4783233933
 30
0.0
 11
354.5949475088
 21
140.9483418252
 31
0.0
  0
LINE
  5
3B7
330
222
100
AcDbEntity
  8
02___PRT_ALL_AXES
  6
Continuous
 62
     9
100
AcDbLine
 10
348.1749129881
 20
162.3306604015
 30
0.0
 11
347.9550959903
 21
162.392871866
 31
0.0
  0
LINE
  5
3B8
330
222
100
AcDbEntity
  8
02___PRT_ALL_AXES
  6
Continuous
 62
     7
100
AcDbLine
 10
351.1386059836
 20
164.7531147584
 30
0.0
 11
350.9187889857
 21
164.8153262229
 31
0.0
  0
ARC
  5
3B9
330
222
100
AcDbEntity
  8
02___PRT_ALL_AXES
  6
Continuous
 62
     7
100
AcDbCircle
 10
76.1422386715
 20
100.1729561135
 30
0.0
 40
3.5
100
AcDbArc
 50
11.5683651059
 51
90.0
  0
ARC
  5
3BA
330
222
100
AcDbEntity
  8
02___PRT_ALL_AXES
  6
Continuous
 62
     7
100
AcDbCircle
 10
69.1422386715
 20
100.1729561135
 30
0.0
 40
3.5
100
AcDbArc
 50
90.0
 51
168.4316348941
  0
ARC
  5
3BB
330
222
100
AcDbEntity
  8
02___PRT_ALL_AXES
  6
Continuous
 62
     7
100
AcDbCircle
 10
91.460335262
 20
59.2333854924
 30
0.0
 40
2.95
100
AcDbArc
 50
32.7198899268
 51
65.7439757901
  0
ARC
  5
3BC
330
222
100
AcDbEntity
  8
02___PRT_ALL_AXES
  6
Continuous
 62
     7
100
AcDbCircle
 10
91.460335262
 20
59.1125267346
 30
0.0
 40
2.95
100
AcDbArc
 50
294.2560242099
 51
327.2801100731999
  0
ARC
  5
3BD
330
222
100
AcDbEntity
  8
02___PRT_ALL_AXES
  6
Continuous
 62
     7
100
AcDbCircle
 10
53.8241420811
 20
59.2333854924
 30
0.0
 40
2.95
100
AcDbArc
 50
114.2560242099
 51
147.2801100732
  0
ARC
  5
3BE
330
222
100
AcDbEntity
  8
02___PRT_ALL_AXES
  6
Continuous
 62
     7
100
AcDbCircle
 10
53.8241420811
 20
59.1125267346
 30
0.0
 40
2.95
100
AcDbArc
 50
212.7198899268
 51
245.7439757901
  0
ARC
  5
3BF
330
222
100
AcDbEntity
  8
0
  6
Continuous
 62
     7
100
AcDbCircle
 10
52.4422386715
 20
54.3729561135
 30
0.0
 40
0.9
100
AcDbArc
 50
270.0
 51
308.0505095721001
  0
ARC
  5
3C0
330
222
100
AcDbEntity
  8
0
  6
Continuous
 62
     7
100
AcDbCircle
 10
92.8422386715
 20
54.3729561135
 30
0.0
 40
0.9
100
AcDbArc
 50
231.9494904279
 51
270.0
  0
CIRCLE
  5
3C1
330
222
100
AcDbEntity
  8
02___PRT_ALL_AXES
  6
Continuous
 62
     7
100
AcDbCircle
 10
72.6422386715
 20
220.0413707386
 30
0.0
 40
27.5
  0
ARC
  5
3C2
330
222
100
AcDbEntity
  8
7_ALL_FEATURES
  6
Continuous
 62
     7
100
AcDbCircle
 10
249.6358466261
 20
251.7042021646
 30
0.0
 40
50.0
100
AcDbArc
 50
180.0
 51
194.4512358191
  0
ARC
  5
3C3
330
222
100
AcDbEntity
  8
7_ALL_FEATURES
  6
Continuous
 62
     7
100
AcDbCircle
 10
249.6358466261
 20
188.3785393127
 30
0.0
 40
50.0
100
AcDbArc
 50
150.0
 51
180.0
  0
ARC
  5
3C4
330
222
100
AcDbEntity
  8
7_ALL_FEATURES
  6
Continuous
 62
     7
100
AcDbCircle
 10
226.0584963569
 20
207.5413707386
 30
0.0
 40
20.0
100
AcDbArc
 50
90.0
 51
150.0
  0
ARC
  5
3C5
330
222
100
AcDbEntity
  8
7_ALL_FEATURES
  6
Continuous
 62
     7
100
AcDbCircle
 10
241.2955551487
 20
197.9327307241
 30
0.0
 40
20.0
100
AcDbArc
 50
133.9030972608
 51
150.0
  0
ARC
  5
3C6
330
222
100
AcDbEntity
  8
02___PRT_ALL_AXES
  6
Continuous
 62
     7
100
AcDbCircle
 10
180.7358466261
 20
211.5413707386
 30
0.0
 40
3.5
100
AcDbArc
 50
180.0
 51
270.0
  0
ARC
  5
3C7
330
222
100
AcDbEntity
  8
02___PRT_ALL_AXES
  6
Continuous
 62
     7
100
AcDbCircle
 10
180.7358466261
 20
218.5413707386
 30
0.0
 40
3.5
100
AcDbArc
 50
90.0
 51
180.0
  0
ARC
  5
3C8
330
222
100
AcDbEntity
  8
7_ALL_FEATURES
  6
Continuous
 62
     7
100
AcDbCircle
 10
180.7358466261
 20
218.5413707386
 30
0.0
 40
3.5
100
AcDbArc
 50
90.0
 51
180.0
  0
ARC
  5
3C9
330
222
100
AcDbEntity
  8
7_ALL_FEATURES
  6
Continuous
 62
     7
100
AcDbCircle
 10
180.7358466261
 20
211.5413707386
 30
0.0
 40
3.5
100
AcDbArc
 50
180.0
 51
270.0
  0
ARC
  5
3CA
330
222
100
AcDbEntity
  8
02___PRT_ALL_AXES
  6
Continuous
 62
     7
100
AcDbCircle
 10
203.027208082
 20
261.6500092827
 30
0.0
 40
3.3913614559
100
AcDbArc
 50
30.0
 51
180.0
  0
ARC
  5
3CB
330
222
100
AcDbEntity
  8
02___PRT_ALL_AXES
  6
Continuous
 62
     7
100
AcDbCircle
 10
203.027208082
 20
178.4327321945
 30
0.0
 40
3.3913614559
100
AcDbArc
 50
180.0
 51
330.0
  0
CIRCLE
  5
3CC
330
222
100
AcDbEntity
  8
02___PRT_ALL_AXES
  6
Continuous
 62
     7
100
AcDbCircle
 10
221.7358466261
 20
220.0413707386
 30
0.0
 40
2.75
  0
CIRCLE
  5
3CD
330
222
100
AcDbEntity
  8
02___PRT_ALL_AXES
  6
Continuous
 62
     7
100
AcDbCircle
 10
221.7358466261
 20
220.0413707386
 30
0.0
 40
1.655
  0
ARC
  5
3CE
330
222
100
AcDbEntity
  8
0
  6
Continuous
 62
     7
100
AcDbCircle
 10
300.0201351926
 20
112.3057084123
 30
0.0
 40
39.9458151149
100
AcDbArc
 50
13.3502183227
 51
23.6764355255
  0
ARC
  5
3CF
330
222
100
AcDbEntity
  8
02___PRT_ALL_AXES
  6
Continuous
 62
     7
100
AcDbCircle
 10
300.1711269148
 20
112.3562683075
 30
0.0
 40
39.7872318792
100
AcDbArc
 50
13.3297907123
 51
23.69707116129999
  0
ARC
  5
3D0
330
222
100
AcDbEntity
  8
0
  6
Continuous
 62
     7
100
AcDbCircle
 10
301.6919254148
 20
112.8073811554
 30
0.0
 40
38.7804620665
100
AcDbArc
 50
12.7753341601
 51
12.9633758906
  0
ARC
  5
3D1
330
222
100
AcDbEntity
  8
0
  6
Continuous
 62
     7
100
AcDbCircle
 10
301.7958125546
 20
112.7458419435
 30
0.0
 40
38.1164984964
100
AcDbArc
 50
7.4296980932
 51
13.3228136375
  0
ARC
  5
3D2
330
222
100
AcDbEntity
  8
0
  6
Continuous
 62
     7
100
AcDbCircle
 10
304.3476292278
 20
113.0965759711
 30
0.0
 40
35.5407573764
100
AcDbArc
 50
1.5995299658
 51
7.4009782876
  0
ARC
  5
3D3
330
222
100
AcDbEntity
  8
7_ALL_FEATURES
  6
Continuous
 62
     7
100
AcDbCircle
 10
323.7951373783
 20
121.3414306014
 30
0.0
 40
29.0091368926
100
AcDbArc
 50
12.3159282298
 51
23.5316940316
  0
ARC
  5
3D4
330
222
100
AcDbEntity
  8
7_ALL_FEATURES
  6
Continuous
 62
     7
100
AcDbCircle
 10
325.2321289161
 20
121.88568454
 30
0.0
 40
28.9282068129
100
AcDbArc
 50
12.295561233
 51
27.2706250077
  0
ARC
  5
3D5
330
222
100
AcDbEntity
  8
7_ALL_FEATURES
  6
Continuous
 62
     7
100
AcDbCircle
 10
322.8576047411
 20
120.9595891588
 30
0.0
 40
28.711376562
100
AcDbArc
 50
12.2752926233
 51
20.03779193860001
  0
ARC
  5
3D6
330
222
100
AcDbEntity
  8
7_ALL_FEATURES
  6
Continuous
 62
     7
100
AcDbCircle
 10
321.6249622966
 20
120.4716089426
 30
0.0
 40
28.5806597481
100
AcDbArc
 50
12.2728866728
 51
16.0507916595
  0
ARC
  5
3D7
330
222
100
AcDbEntity
  8
0
  6
Continuous
 62
     7
100
AcDbCircle
 10
324.8021790554
 20
106.3823749448
 30
0.0
 40
13.1624417681
100
AcDbArc
 50
293.40005177
 51
302.6958618329
  0
ARC
  5
3D8
330
222
100
AcDbEntity
  8
02___PRT_ALL_AXES
  6
Continuous
 62
     7
100
AcDbCircle
 10
324.330247429
 20
106.0277322283
 30
0.0
 40
12.9981000301
100
AcDbArc
 50
293.3671718387
 51
295.9192590494
  0
ARC
  5
3D9
330
222
100
AcDbEntity
  8
02___PRT_ALL_AXES
  6
Continuous
 62
     7
100
AcDbCircle
 10
324.8971999461
 20
106.1820032964
 30
0.0
 40
12.9408146562
100
AcDbArc
 50
290.8120081215
 51
293.3662764638
  0
ARC
  5
3DA
330
222
100
AcDbEntity
  8
02___PRT_ALL_AXES
  6
Continuous
 62
     7
100
AcDbCircle
 10
324.3531537114
 20
105.9752254919
 30
0.0
 40
12.9408146562
100
AcDbArc
 50
290.8120081215
 51
293.3662764638
  0
ARC
  5
3DB
330
222
100
AcDbEntity
  8
0
  6
Continuous
 62
     7
100
AcDbCircle
 10
324.8971999461
 20
106.1820032964
 30
0.0
 40
12.9408146562
100
AcDbArc
 50
290.8120081215
 51
293.3662764638
  0
ARC
  5
3DC
330
222
100
AcDbEntity
  8
02___PRT_ALL_AXES
  6
Continuous
 62
     7
100
AcDbCircle
 10
323.6476770732
 20
89.8595693561
 30
0.0
 40
2.3514548727
100
AcDbArc
 50
207.7346655956
 51
212.2391702888
  0
ARC
  5
3DD
330
222
100
AcDbEntity
  8
02___PRT_ALL_AXES
  6
Continuous
 62
     7
100
AcDbCircle
 10
323.2174759471
 20
89.2008975622
 30
0.0
 40
1.4582388655
100
AcDbArc
 50
243.4583590701
 51
245.1213789366
  0
ARC
  5
3DE
330
222
100
AcDbEntity
  8
02___PRT_ALL_AXES
  6
Continuous
 62
     7
100
AcDbCircle
 10
323.2097244754
 20
89.1838931293
 30
0.0
 40
1.4395514078
100
AcDbArc
 50
245.1165400593
 51
254.1771702256
  0
ARC
  5
3DF
330
222
100
AcDbEntity
  8
0
  6
Continuous
 62
     7
100
AcDbCircle
 10
314.5923535244
 20
133.2738470047
 30
0.0
 40
13.0738995458
100
AcDbArc
 50
99.9990867882
 51
108.24675295
  0
ARC
  5
3E0
330
222
100
AcDbEntity
  8
02___PRT_ALL_AXES
  6
Continuous
 62
     7
100
AcDbCircle
 10
314.0270615434
 20
133.1356953675
 30
0.0
 40
13.0020719276
100
AcDbArc
 50
105.6978561596
 51
108.2525260981
  0
ARC
  5
3E1
330
222
100
AcDbEntity
  8
02___PRT_ALL_AXES
  6
Continuous
 62
     7
100
AcDbCircle
 10
314.5545531429
 20
133.3932386533
 30
0.0
 40
12.9486756908
100
AcDbArc
 50
108.2533152369
 51
110.8104323387
  0
ARC
  5
3E2
330
222
100
AcDbEntity
  8
02___PRT_ALL_AXES
  6
Continuous
 62
     7
100
AcDbCircle
 10
314.0105069082
 20
133.1864608488
 30
0.0
 40
12.9486756908
100
AcDbArc
 50
108.2533152369
 51
110.8104323387
  0
ARC
  5
3E3
330
222
100
AcDbEntity
  8
0
  6
Continuous
 62
     7
100
AcDbCircle
 10
314.5545531429
 20
133.3932386533
 30
0.0
 40
12.9486756908
100
AcDbArc
 50
108.2533152369
 51
110.8104323387
  0
ARC
  5
3E4
330
222
100
AcDbEntity
  8
7_ALL_FEATURES
  6
Continuous
 62
     7
100
AcDbCircle
 10
326.5214396125
 20
122.3731477062
 30
0.0
 40
28.8597665238
100
AcDbArc
 50
12.280040984
 51
30.6150381223
  0
ARC
  5
3E5
330
222
100
AcDbEntity
  8
7_ALL_FEATURES
  6
Continuous
 62
     7
100
AcDbCircle
 10
336.6504025549
 20
114.9756860583
 30
0.0
 40
9.4851460247
100
AcDbArc
 50
290.832826901
 51
299.5710954615
  0
ARC
  5
3E6
330
222
100
AcDbEntity
  8
7_ALL_FEATURES
  6
Continuous
 62
     7
100
AcDbCircle
 10
344.4030613993
 20
117.9222697727
 30
0.0
 40
9.4851460247
100
AcDbArc
 50
290.832826901
 51
299.5710954615
  0
ARC
  5
3E7
330
222
100
AcDbEntity
  8
7_ALL_FEATURES
  6
Continuous
 62
     7
100
AcDbCircle
 10
339.2346221697
 20
115.9578806297
 30
0.0
 40
9.4851460247
100
AcDbArc
 50
290.832826901
 51
299.5710954615
  0
ARC
  5
3E8
330
222
100
AcDbEntity
  8
7_ALL_FEATURES
  6
Continuous
 62
     7
100
AcDbCircle
 10
341.8188417845
 20
116.9400752012
 30
0.0
 40
9.4851460247
100
AcDbArc
 50
290.832826901
 51
299.5710954615
  0
ARC
  5
3E9
330
222
100
AcDbEntity
  8
7_ALL_FEATURES
  6
Continuous
 62
     7
100
AcDbCircle
 10
345.7741997858
 20
118.4167777829
 30
0.0
 40
9.4602564847
100
AcDbArc
 50
290.8187590571
 51
300.460590983
  0
ARC
  5
3EA
330
222
100
AcDbEntity
  8
7_ALL_FEATURES
  6
Continuous
 62
     7
100
AcDbCircle
 10
338.0282049494
 20
115.4540658035
 30
0.0
 40
9.4428127824
100
AcDbArc
 50
290.8157451567001
 51
298.7116460033
  0
ARC
  5
3EB
330
222
100
AcDbEntity
  8
7_ALL_FEATURES
  6
Continuous
 62
     7
100
AcDbCircle
 10
340.6124245642
 20
116.436260375
 30
0.0
 40
9.4428127824
100
AcDbArc
 50
290.8157451567001
 51
298.7116460033
  0
ARC
  5
3EC
330
222
100
AcDbEntity
  8
7_ALL_FEATURES
  6
Continuous
 62
     7
100
AcDbCircle
 10
343.196644179
 20
117.4184549465
 30
0.0
 40
9.4428127824
100
AcDbArc
 50
290.8157451567001
 51
298.7116460033
  0
ARC
  5
3ED
330
222
100
AcDbEntity
  8
7_ALL_FEATURES
  6
Continuous
 62
     7
100
AcDbCircle
 10
345.7833915666
 20
118.3977179757
 30
0.0
 40
9.4391744009
100
AcDbArc
 50
285.9564902381
 51
290.8077265908
  0
ARC
  5
3EE
330
222
100
AcDbEntity
  8
7_ALL_FEATURES
  6
Continuous
 62
     7
100
AcDbCircle
 10
343.1991719518
 20
117.4155234042
 30
0.0
 40
9.4391744009
100
AcDbArc
 50
285.9564902381
 51
290.8077265908
  0
ARC
  5
3EF
330
222
100
AcDbEntity
  8
7_ALL_FEATURES
  6
Continuous
 62
     7
100
AcDbCircle
 10
338.0307327222
 20
115.4511342612
 30
0.0
 40
9.4391744009
100
AcDbArc
 50
285.9564902381
 51
290.8077265908
  0
ARC
  5
3F0
330
222
100
AcDbEntity
  8
7_ALL_FEATURES
  6
Continuous
 62
     7
100
AcDbCircle
 10
340.614952337
 20
116.4333288327
 30
0.0
 40
9.4391744009
100
AcDbArc
 50
285.9564902381
 51
290.8077265908
  0
ARC
  5
3F1
330
222
100
AcDbEntity
  8
7_ALL_FEATURES
  6
Continuous
 62
     7
100
AcDbCircle
 10
338.3237598717
 20
137.9526251532
 30
0.0
 40
9.6329845321
100
AcDbArc
 50
100.4032713135
 51
101.1749011927
  0
ARC
  5
3F2
330
222
100
AcDbEntity
  8
7_ALL_FEATURES
  6
Continuous
 62
     7
100
AcDbCircle
 10
338.2962762847
 20
138.0823217674
 30
0.0
 40
9.5004206761
100
AcDbArc
 50
101.1638846104
 51
110.787256727
  0
ARC
  5
3F3
330
222
100
AcDbEntity
  8
7_ALL_FEATURES
  6
Continuous
 62
     7
100
AcDbCircle
 10
335.7045667595
 20
137.124548433
 30
0.0
 40
9.4749311327
100
AcDbArc
 50
102.9076908819
 51
110.7973234516
  0
ARC
  5
3F4
330
222
100
AcDbEntity
  8
7_ALL_FEATURES
  6
Continuous
 62
     7
100
AcDbCircle
 10
330.5361275299
 20
135.16015929
 30
0.0
 40
9.4749311327
100
AcDbArc
 50
102.9076908819
 51
110.7973234516
  0
ARC
  5
3F5
330
222
100
AcDbEntity
  8
7_ALL_FEATURES
  6
Continuous
 62
     7
100
AcDbCircle
 10
333.1203471447
 20
136.1423538615
 30
0.0
 40
9.4749311327
100
AcDbArc
 50
102.9076908819
 51
110.7973234516
  0
ARC
  5
3F6
330
222
100
AcDbEntity
  8
7_ALL_FEATURES
  6
Continuous
 62
     7
100
AcDbCircle
 10
336.9238490809
 20
137.6067979704
 30
0.0
 40
9.4573274154
100
AcDbArc
 50
102.0208985015
 51
110.8065827588
  0
ARC
  5
3F7
330
222
100
AcDbEntity
  8
7_ALL_FEATURES
  6
Continuous
 62
     7
100
AcDbCircle
 10
334.3396294661
 20
136.6246033989
 30
0.0
 40
9.4573274154
100
AcDbArc
 50
102.0208985015
 51
110.8065827589
  0
ARC
  5
3F8
330
222
100
AcDbEntity
  8
7_ALL_FEATURES
  6
Continuous
 62
     7
100
AcDbCircle
 10
331.7554098513
 20
135.6424088274
 30
0.0
 40
9.4573274154
100
AcDbArc
 50
102.0208985015
 51
110.8065827588
  0
ARC
  5
3F9
330
222
100
AcDbEntity
  8
7_ALL_FEATURES
  6
Continuous
 62
     7
100
AcDbCircle
 10
329.1711902365
 20
134.6602142559
 30
0.0
 40
9.4573274154
100
AcDbArc
 50
102.0208985015
 51
110.8065827588
  0
ARC
  5
3FA
330
222
100
AcDbEntity
  8
7_ALL_FEATURES
  6
Continuous
 62
     7
100
AcDbCircle
 10
338.272727609
 20
138.1568477779
 30
0.0
 40
9.4223896043
100
AcDbArc
 50
110.8142156638
 51
114.8307540496
  0
ARC
  5
3FB
330
222
100
AcDbEntity
  8
7_ALL_FEATURES
  6
Continuous
 62
     7
100
AcDbCircle
 10
335.6885079942
 20
137.1746532065
 30
0.0
 40
9.4223896043
100
AcDbArc
 50
110.8142156638
 51
114.8307540496
  0
ARC
  5
3FC
330
222
100
AcDbEntity
  8
7_ALL_FEATURES
  6
Continuous
 62
     7
100
AcDbCircle
 10
333.1042883794
 20
136.192458635
 30
0.0
 40
9.4223896043
100
AcDbArc
 50
110.8142156638
 51
114.8307540496
  0
ARC
  5
3FD
330
222
100
AcDbEntity
  8
7_ALL_FEATURES
  6
Continuous
 62
     7
100
AcDbCircle
 10
330.5200687646
 20
135.2102640635
 30
0.0
 40
9.4223896043
100
AcDbArc
 50
110.8142156637
 51
114.8307540496
  0
ARC
  5
3FE
330
222
100
AcDbEntity
  8
02___PRT_ALL_AXES
  6
Continuous
 62
     7
100
AcDbCircle
 10
351.2184057178
 20
137.9916018886
 30
0.0
 40
5.6795147288
100
AcDbArc
 50
74.1895548175
 51
78.5465075115
  0
ARC
  5
3FF
330
222
100
AcDbEntity
  8
02___PRT_ALL_AXES
  6
Continuous
 62
     7
100
AcDbCircle
 10
350.7483176501
 20
163.3731713058
 30
0.0
 40
1.4340542727
100
AcDbArc
 50
74.224873833
 51
83.08589973069999
  0
SPLINE
  5
400
330
222
100
AcDbEntity
  8
02___PRT_ALL_AXES
  6
Continuous
 62
     7
100
AcDbSpline
 70
     0
 71
     3
 72
    11
 73
     7
 74
     0
 42
0.000000001
 43
0.0000001
 40
0.0
 40
0.0
 40
0.0
 40
0.0
 40
0.2471884812
 40
0.4961682871
 40
0.7471358372
 40
1.0
 40
1.0
 40
1.0
 40
1.0
 10
75.2403148829
 20
99.6729561135
 30
0.0
 10
75.0128393533
 20
99.6354323825
 30
0.0
 10
74.560582652
 20
99.5315670322
 30
0.0
 10
73.901223715
 20
99.3028776289
 30
0.0
 10
73.2603122085
 20
99.0142886301
 30
0.0
 10
72.8464849617
 20
98.7908777641
 30
0.0
 10
72.6422386715
 20
98.6729561135
 30
0.0
  0
SPLINE
  5
401
330
222
100
AcDbEntity
  8
02___PRT_ALL_AXES
  6
Continuous
 62
     7
100
AcDbSpline
 70
     0
 71
     3
 72
    19
 73
    15
 74
     0
 42
0.000000001
 43
0.0000001
 40
0.0
 40
0.0
 40
0.0
 40
0.0
 40
0.067939647
 40
0.1343369129
 40
0.1986396402
 40
0.2610648807
 40
0.3817414899
 40
0.5000607139
 40
0.6183763092
 40
0.739024176
 40
0.8014382043
 40
0.865725454
 40
0.9320917545
 40
1.0
 40
1.0
 40
1.0
 40
1.0
 10
76.9723656905
 20
100.1729561135
 30
0.0
 10
76.9723656905
 20
100.228841764
 30
0.0
 10
76.9559788536
 20
100.3399867288
 30
0.0
 10
76.8878040733
 20
100.4904466161
 30
0.0
 10
76.7883910385
 20
100.6161333797
 30
0.0
 10
76.6309471569
 20
100.7468752133
 30
0.0
 10
76.4009559423
 20
100.8515155182
 30
0.0
 10
76.1061907213
 20
100.8914940026
 30
0.0
 10
75.8114619976
 20
100.8514295779
 30
0.0
 10
75.5815311847
 20
100.7467501747
 30
0.0
 10
75.4241520956
 20
100.6160002867
 30
0.0
 10
75.3248091696
 20
100.490319296
 30
0.0
 10
75.2566881615
 20
100.3399089046
 30
0.0
 10
75.2403148829
 20
100.2288159338
 30
0.0
 10
75.2403148829
 20
100.1729561135
 30
0.0
  0
SPLINE
  5
402
330
222
100
AcDbEntity
  8
02___PRT_ALL_AXES
  6
Continuous
 62
     7
100
AcDbSpline
 70
     0
 71
     3
 72
    11
 73
     7
 74
     0
 42
0.000000001
 43
0.0000001
 40
0.0
 40
0.0
 40
0.0
 40
0.0
 40
0.2528641712
 40
0.5038317346
 40
0.7528115376
 40
1.0
 40
1.0
 40
1.0
 40
1.0
 10
79.5704419018
 20
98.6729561135
 30
0.0
 10
79.3661956049
 20
98.790877768
 30
0.0
 10
78.9523683413
 20
99.0142886457
 30
0.0
 10
78.3114568168
 20
99.3028776479
 30
0.0
 10
77.6520978846
 20
99.5315670413
 30
0.0
 10
77.1998412028
 20
99.6354323854
 30
0.0
 10
76.9723656905
 20
99.6729561135
 30
0.0
  0
SPLINE
  5
403
330
222
100
AcDbEntity
  8
02___PRT_ALL_AXES
  6
Continuous
 62
     7
100
AcDbSpline
 70
     0
 71
     3
 72
    19
 73
    15
 74
     0
 42
0.000000001
 43
0.0000001
 40
0.0
 40
0.0
 40
0.0
 40
0.0
 40
0.0679313718
 40
0.134330414
 40
0.1986328954
 40
0.2610542132
 40
0.3817238737
 40
0.5000536105
 40
0.6183773004
 40
0.7390372629
 40
0.8014553941
 40
0.8657396837
 40
0.9320963707
 40
1.0
 40
1.0
 40
1.0
 40
1.0
 10
70.0441624602
 20
100.1729561135
 30
0.0
 10
70.0441624602
 20
100.228834965
 30
0.0
 10
70.0277767195
 20
100.3399739769
 30
0.0
 10
69.9596114178
 20
100.4904320531
 30
0.0
 10
69.8602018552
 20
100.6161195397
 30
0.0
 10
69.7027675276
 20
100.7468578898
 30
0.0
 10
69.4727828615
 20
100.8515110354
 30
0.0
 10
69.1780071915
 20
100.8914947424
 30
0.0
 10
68.8832528446
 20
100.8514309278
 30
0.0
 10
68.6533032523
 20
100.7467401452
 30
0.0
 10
68.4959222477
 20
100.6159745348
 30
0.0
 10
68.3965935149
 20
100.4902916444
 30
0.0
 10
68.328481326
 20
100.3398936574
 30
0.0
 10
68.3121116526
 20
100.2288121446
 30
0.0
 10
68.3121116526
 20
100.1729561135
 30
0.0
  0
SPLINE
  5
404
330
222
100
AcDbEntity
  8
02___PRT_ALL_AXES
  6
Continuous
 62
     7
100
AcDbSpline
 70
     0
 71
     3
 72
    11
 73
     7
 74
     0
 42
0.000000001
 43
0.0000001
 40
0.0
 40
0.0
 40
0.0
 40
0.0
 40
0.2528641712
 40
0.5038317346
 40
0.7528115376
 40
1.0
 40
1.0
 40
1.0
 40
1.0
 10
72.6422386715
 20
98.6729561135
 30
0.0
 10
72.4379923746
 20
98.790877768
 30
0.0
 10
72.0241651111
 20
99.0142886457
 30
0.0
 10
71.3832535866
 20
99.3028776479
 30
0.0
 10
70.7238946543
 20
99.5315670413
 30
0.0
 10
70.2716379725
 20
99.6354323854
 30
0.0
 10
70.0441624602
 20
99.6729561135
 30
0.0
  0
SPLINE
  5
405
330
222
100
AcDbEntity
  8
02___PRT_ALL_AXES
  6
Continuous
 62
     7
100
AcDbSpline
 70
     0
 71
     3
 72
    11
 73
     7
 74
     0
 42
0.000000001
 43
0.0000001
 40
0.0
 40
0.0
 40
0.0
 40
0.0
 40
0.2471884812
 40
0.4961682871
 40
0.7471358372
 40
1.0
 40
1.0
 40
1.0
 40
1.0
 10
68.3121116526
 20
99.6729561135
 30
0.0
 10
68.084636123
 20
99.6354323825
 30
0.0
 10
67.6323794217
 20
99.5315670322
 30
0.0
 10
66.9730204847
 20
99.3028776289
 30
0.0
 10
66.3321089782
 20
99.0142886301
 30
0.0
 10
65.9182817314
 20
98.7908777641
 30
0.0
 10
65.7140354413
 20
98.6729561135
 30
0.0
  0
SPLINE
  5
406
330
222
100
AcDbEntity
  8
02___PRT_ALL_AXES
  6
Continuous
 62
     7
100
AcDbSpline
 70
     0
 71
     3
 72
    19
 73
    15
 74
     0
 42
0.000000001
 43
0.0000001
 40
0.0
 40
0.0
 40
0.0
 40
0.0
 40
0.1683075029
 40
0.2404576968
 40
0.3036660769
 40
0.4090527407
 40
0.4554823394
 40
0.5000445236
 40
0.5446094138
 40
0.5910415449
 40
0.6964181475
 40
0.7596236278
 40
0.8317654351
 40
1.0
 40
1.0
 40
1.0
 40
1.0
 10
180.7358466261
 20
209.5413707386
 30
0.0
 10
180.6292362938
 20
209.5413707386
 30
0.0
 10
180.4749050964
 20
209.5171958117
 30
0.0
 10
180.2985071749
 20
209.4383727094
 30
0.0
 10
180.1719718541
 20
209.3524211019
 30
0.0
 10
180.0809904562
 20
209.2449767154
 30
0.0
 10
180.0375201761
 20
209.1273426975
 30
0.0
 10
180.0271459975
 20
209.0412818896
 30
0.0
 10
180.0375521281
 20
208.9552211382
 30
0.0
 10
180.0811007835
 20
208.8376198089
 30
0.0
 10
180.1720949349
 20
208.7302067232
 30
0.0
 10
180.2986410316
 20
208.6442914461
 30
0.0
 10
180.4750075686
 20
208.5655326014
 30
0.0
 10
180.6292824946
 20
208.5413707386
 30
0.0
 10
180.7358466261
 20
208.5413707386
 30
0.0
  0
SPLINE
  5
407
330
222
100
AcDbEntity
  8
02___PRT_ALL_AXES
  6
Continuous
 62
     7
100
AcDbSpline
 70
     0
 71
     3
 72
    11
 73
     7
 74
     0
 42
0.000000001
 43
0.0000001
 40
0.0
 40
0.0
 40
0.0
 40
0.0
 40
0.2699449571
 40
0.5270499909
 40
0.7701654741
 40
1.0
 40
1.0
 40
1.0
 40
1.0
 10
182.2358466261
 20
223.0413707386
 30
0.0
 10
182.1200206612
 20
222.9255447737
 30
0.0
 10
181.9010203498
 20
222.6920101591
 30
0.0
 10
181.6122617041
 20
222.3234995577
 30
0.0
 10
181.382074704
 20
221.9434987871
 30
0.0
 10
181.2741602327
 20
221.6754683619
 30
0.0
 10
181.2358466261
 20
221.5413707386
 30
0.0
  0
SPLINE
  5
408
330
222
100
AcDbEntity
  8
02___PRT_ALL_AXES
  6
Continuous
 62
     7
100
AcDbSpline
 70
     0
 71
     3
 72
    11
 73
     7
 74
     0
 42
0.000000001
 43
0.0000001
 40
0.0
 40
0.0
 40
0.0
 40
0.0
 40
0.2500103617
 40
0.5000189242
 40
0.7500124732
 40
1.0
 40
1.0
 40
1.0
 40
1.0
 10
182.2358466261
 20
219.0413707386
 30
0.0
 10
182.1175102872
 20
218.8046980609
 30
0.0
 10
181.8933255517
 20
218.3249305485
 30
0.0
 10
181.6048885538
 20
217.5846398314
 30
0.0
 10
181.3765381507
 20
216.8234225618
 30
0.0
 10
181.2732644442
 20
216.3032954658
 30
0.0
 10
181.2358466261
 20
216.0413707386
 30
0.0
  0
SPLINE
  5
409
330
222
100
AcDbEntity
  8
02___PRT_ALL_AXES
  6
Continuous
 62
     7
100
AcDbSpline
 70
     0
 71
     3
 72
    11
 73
     7
 74
     0
 42
0.000000001
 43
0.0000001
 40
0.0
 40
0.0
 40
0.0
 40
0.0
 40
0.2499875457
 40
0.4999810974
 40
0.7499896465
 40
1.0
 40
1.0
 40
1.0
 40
1.0
 10
181.2358466261
 20
214.0413707386
 30
0.0
 10
181.2732644471
 20
213.7794459917
 30
0.0
 10
181.3765381597
 20
213.2593188734
 30
0.0
 10
181.6048885729
 20
212.4981015977
 30
0.0
 10
181.8933255675
 20
211.7578109012
 30
0.0
 10
182.1175102911
 20
211.2780434085
 30
0.0
 10
182.2358466261
 20
211.0413707386
 30
0.0
  0
SPLINE
  5
40A
330
222
100
AcDbEntity
  8
02___PRT_ALL_AXES
  6
Continuous
 62
     7
100
AcDbSpline
 70
     0
 71
     3
 72
    19
 73
    15
 74
     0
 42
0.000000001
 43
0.0000001
 40
0.0
 40
0.0
 40
0.0
 40
0.0
 40
0.062499569
 40
0.1250450196
 40
0.1876243679
 40
0.2502137548
 40
0.3750836247
 40
0.5000591496
 40
0.6250261711
 40
0.7498800617
 40
0.8124624827
 40
0.8750225901
 40
0.9375286272
 40
1.0
 40
1.0
 40
1.0
 40
1.0
 10
180.7358466261
 20
216.0413707386
 30
0.0
 10
180.6797730143
 20
216.0413707386
 30
0.0
 10
180.5667839204
 20
216.0218616236
 30
0.0
 10
180.4160615372
 20
215.9420776535
 30
0.0
 10
180.2910118283
 20
215.827018199
 30
0.0
 10
180.1598459623
 20
215.6435744993
 30
0.0
 10
180.056715211
 20
215.3781745619
 30
0.0
 10
180.0174587885
 20
215.0412168508
 30
0.0
 10
180.0567965006
 20
214.7042850177
 30
0.0
 10
180.1599648183
 20
214.438930831
 30
0.0
 10
180.2911559746
 20
214.2555492038
 30
0.0
 10
180.4162060038
 20
214.1405784337
 30
0.0
 10
180.5668701071
 20
214.060860658
 30
0.0
 10
180.6797983115
 20
214.0413707386
 30
0.0
 10
180.7358466261
 20
214.0413707386
 30
0.0
  0
SPLINE
  5
40B
330
222
100
AcDbEntity
  8
02___PRT_ALL_AXES
  6
Continuous
 62
     7
100
AcDbSpline
 70
     0
 71
     3
 72
    11
 73
     7
 74
     0
 42
0.000000001
 43
0.0000001
 40
0.0
 40
0.0
 40
0.0
 40
0.0
 40
0.2699449571
 40
0.5270499909
 40
0.7701654741
 40
1.0
 40
1.0
 40
1.0
 40
1.0
 10
182.2358466261
 20
211.0413707386
 30
0.0
 10
182.1200206612
 20
210.9255447737
 30
0.0
 10
181.9010203498
 20
210.6920101591
 30
0.0
 10
181.6122617041
 20
210.3234995577
 30
0.0
 10
181.382074704
 20
209.9434987871
 30
0.0
 10
181.2741602327
 20
209.6754683619
 30
0.0
 10
181.2358466261
 20
209.5413707386
 30
0.0
  0
SPLINE
  5
40C
330
222
100
AcDbEntity
  8
02___PRT_ALL_AXES
  6
Continuous
 62
     7
100
AcDbSpline
 70
     0
 71
     3
 72
    11
 73
     7
 74
     0
 42
0.000000001
 43
0.0000001
 40
0.0
 40
0.0
 40
0.0
 40
0.0
 40
0.2298345438
 40
0.4729500311
 40
0.7300550521
 40
1.0
 40
1.0
 40
1.0
 40
1.0
 10
181.2358466261
 20
220.5413707386
 30
0.0
 10
181.2741602357
 20
220.407273105
 30
0.0
 10
181.3820747138
 20
220.1392426678
 30
0.0
 10
181.612261723
 20
219.7592418962
 30
0.0
 10
181.9010203643
 20
219.3907313058
 30
0.0
 10
182.1200206651
 20
219.1571966996
 30
0.0
 10
182.2358466261
 20
219.0413707386
 30
0.0
  0
SPLINE
  5
40D
330
222
100
AcDbEntity
  8
02___PRT_ALL_AXES
  6
Continuous
 62
     7
100
AcDbSpline
 70
     0
 71
     3
 72
    19
 73
    15
 74
     0
 42
0.000000001
 43
0.0000001
 40
0.0
 40
0.0
 40
0.0
 40
0.0
 40
0.1683000113
 40
0.2404505744
 40
0.3036556532
 40
0.4090388234
 40
0.4554737865
 40
0.5000393211
 40
0.5446067335
 40
0.591042408
 40
0.696430429
 40
0.7596418824
 40
0.8317824151
 40
1.0
 40
1.0
 40
1.0
 40
1.0
 10
180.7358466261
 20
221.5413707386
 30
0.0
 10
180.6292409508
 20
221.5413707386
 30
0.0
 10
180.4749145243
 20
221.5171978739
 30
0.0
 10
180.2985208013
 20
221.4383807975
 30
0.0
 10
180.1719879375
 20
221.3524330442
 30
0.0
 10
180.081000281
 20
221.2449961735
 30
0.0
 10
180.0375225796
 20
221.1273606123
 30
0.0
 10
180.0271465004
 20
221.0412928021
 30
0.0
 10
180.0375495881
 20
220.9552255166
 30
0.0
 10
180.081102598
 20
220.8376134734
 30
0.0
 10
180.1721077335
 20
220.7301906846
 30
0.0
 10
180.2986673529
 20
220.6442764598
 30
0.0
 10
180.4750308703
 20
220.5655303355
 30
0.0
 10
180.6292931619
 20
220.5413707386
 30
0.0
 10
180.7358466261
 20
220.5413707386
 30
0.0
  0
SPLINE
  5
40E
330
222
100
AcDbEntity
  8
02___PRT_ALL_AXES
  6
Continuous
 62
     7
100
AcDbSpline
 70
     0
 71
     3
 72
    11
 73
     7
 74
     0
 42
0.000000001
 43
0.0000001
 40
0.0
 40
0.0
 40
0.0
 40
0.0
 40
0.2298345438
 40
0.4729500311
 40
0.7300550521
 40
1.0
 40
1.0
 40
1.0
 40
1.0
 10
181.2358466261
 20
208.5413707386
 30
0.0
 10
181.2741602357
 20
208.407273105
 30
0.0
 10
181.3820747138
 20
208.1392426678
 30
0.0
 10
181.612261723
 20
207.7592418962
 30
0.0
 10
181.9010203643
 20
207.3907313058
 30
0.0
 10
182.1200206651
 20
207.1571966996
 30
0.0
 10
182.2358466261
 20
207.0413707386
 30
0.0
  0
SPLINE
  5
40F
330
222
100
AcDbEntity
  8
02___PRT_ALL_AXES
  6
Continuous
 62
     7
100
AcDbSpline
 70
     0
 71
     3
 72
     9
 73
     5
 74
     0
 42
0.000000001
 43
0.0000001
 40
0.0
 40
0.0
 40
0.0
 40
0.0
 40
0.4895173751
 40
1.0
 40
1.0
 40
1.0
 40
1.0
 10
339.7761995065
 20
119.8837564909
 30
0.0
 10
339.8495739888
 20
119.8469179747
 30
0.0
 10
339.9919349949
 20
119.7558540035
 30
0.0
 10
340.1140712829
 20
119.6394110548
 30
0.0
 10
340.1708611557
 20
119.5753363393
 30
0.0
  0
SPLINE
  5
410
330
222
100
AcDbEntity
  8
02___PRT_ALL_AXES
  6
Continuous
 62
     7
100
AcDbSpline
 70
     0
 71
     3
 72
    17
 73
    13
 74
     0
 42
0.000000001
 43
0.0000001
 40
0.0
 40
0.0
 40
0.0
 40
0.0
 40
0.124986207
 40
0.1875352824
 40
0.2500820138
 40
0.3750563117
 40
0.5000262475
 40
0.562565914
 40
0.6251076923
 40
0.7500711871
 40
0.8750296452
 40
1.0
 40
1.0
 40
1.0
 40
1.0
 10
340.305838474
 20
115.7448074319
 30
0.0
 10
340.410395473
 20
115.8823749735
 30
0.0
 10
340.5498862247
 20
116.1028961672
 30
0.0
 10
340.695938302
 20
116.4165965037
 30
0.0
 10
340.8147959136
 20
116.7416495434
 30
0.0
 10
340.9107158397
 20
117.1651591673
 30
0.0
 10
340.9332073523
 20
117.5988261571
 30
0.0
 10
340.9067044121
 20
117.9438768502
 30
0.0
 10
340.8507430869
 20
118.2853679388
 30
0.0
 10
340.7258663055
 20
118.7013679985
 30
0.0
 10
340.4925525386
 20
119.1668742384
 30
0.0
 10
340.2854539136
 20
119.4460386861
 30
0.0
 10
340.1708613428
 20
119.5753366524
 30
0.0
  0
SPLINE
  5
411
330
222
100
AcDbEntity
  8
02___PRT_ALL_AXES
  6
Continuous
 62
     7
100
AcDbSpline
 70
     0
 71
     3
 72
    21
 73
    17
 74
     0
 42
0.000000001
 43
0.0000001
 40
0.0
 40
0.0
 40
0.0
 40
0.0
 40
0.0479315253
 40
0.0954473684
 40
0.1440135557
 40
0.1949197065
 40
0.2490936295
 40
0.3070389272
 40
0.3688578416
 40
0.4343136483
 40
0.5029014828
 40
0.5739152286
 40
0.7195694126
 40
0.7924882836
 40
0.8641371768
 40
1.0
 40
1.0
 40
1.0
 40
1.0
 10
339.9954116693
 20
118.6733124222
 30
0.0
 10
340.0499377178
 20
118.6743124064
 30
0.0
 10
340.1592044601
 20
118.6642734134
 30
0.0
 10
340.3157334264
 20
118.6110899818
 30
0.0
 10
340.4586577783
 20
118.5215258727
 30
0.0
 10
340.5843952923
 20
118.3983492941
 30
0.0
 10
340.6903630748
 20
118.244910811
 30
0.0
 10
340.774538118
 20
118.0649203912
 30
0.0
 10
340.8353298618
 20
117.8624546328
 30
0.0
 10
340.8715557251
 20
117.6420182394
 30
0.0
 10
340.882501545
 20
117.4084624766
 30
0.0
 10
340.8629461167
 20
117.0840346215
 30
0.0
 10
340.7931548511
 20
116.7594195968
 30
0.0
 10
340.6776254719
 20
116.449592585
 30
0.0
 10
340.5367975149
 20
116.1629627712
 30
0.0
 10
340.4001167722
 20
115.9672038815
 30
0.0
 10
340.2961508667
 20
115.8528080273
 30
0.0
  0
SPLINE
  5
412
330
222
100
AcDbEntity
  8
02___PRT_ALL_AXES
  6
Continuous
 62
     7
100
AcDbSpline
 70
     0
 71
     3
 72
    19
 73
    15
 74
     0
 42
0.000000001
 43
0.0000001
 40
0.0
 40
0.0
 40
0.0
 40
0.0
 40
0.0609330688
 40
0.1221312894
 40
0.1837492108
 40
0.2459080088
 40
0.3718683537
 40
0.4996802592
 40
0.6275924384
 40
0.7537831092
 40
0.8160605226
 40
0.8777690891
 40
0.9390318035
 40
1.0
 40
1.0
 40
1.0
 40
1.0
 10
356.8829282862
 20
132.2309317263
 30
0.0
 10
357.0394583603
 20
132.4603884502
 30
0.0
 10
357.3198166031
 20
132.9439913308
 30
0.0
 10
357.6363517698
 20
133.7220690939
 30
0.0
 10
357.8501380314
 20
134.5401635981
 30
0.0
 10
358.0010396848
 20
135.6709159906
 30
0.0
 10
357.9408159865
 20
137.1226996463
 30
0.0
 10
357.5043875698
 20
138.8191723121
 30
0.0
 10
356.7361712917
 20
140.3945359349
 30
0.0
 10
355.8412214201
 20
141.5415515851
 30
0.0
 10
354.994362556
 20
142.3087816617
 30
0.0
 10
354.3026369084
 20
142.7971638522
 30
0.0
 10
353.5590387461
 20
143.1896191808
 30
0.0
 10
353.0332408363
 20
143.3805675557
 30
0.0
 10
352.7658216379
 20
143.4562511477
 30
0.0
  0
SPLINE
  5
413
330
222
100
AcDbEntity
  8
02___PRT_ALL_AXES
  6
Continuous
 62
     7
100
AcDbSpline
 70
     0
 71
     3
 72
     9
 73
     5
 74
     0
 42
0.000000001
 43
0.0000001
 40
0.0
 40
0.0
 40
0.0
 40
0.0
 40
0.2470200769
 40
1.0
 40
1.0
 40
1.0
 40
1.0
 10
353.3005763068
 20
142.251018232
 30
0.0
 10
353.2198957004
 20
142.3176161312
 30
0.0
 10
352.8892512108
 20
142.5823327442
 30
0.0
 10
352.5439210173
 20
142.8284625096
 30
0.0
 10
352.2782914844
 20
143.0049191085
 30
0.0
  0
SPLINE
  5
414
330
222
100
AcDbEntity
  8
02___PRT_ALL_AXES
  6
Continuous
 62
     7
100
AcDbSpline
 70
     0
 71
     3
 72
     9
 73
     5
 74
     0
 42
0.000000001
 43
0.0000001
 40
0.0
 40
0.0
 40
0.0
 40
0.0
 40
0.2517067478
 40
1.0
 40
1.0
 40
1.0
 40
1.0
 10
356.5265880473
 20
133.1704229131
 30
0.0
 10
356.5422141092
 20
133.2626587889
 30
0.0
 10
356.6004753113
 20
133.629726224
 30
0.0
 10
356.6424508882
 20
133.9994670986
 30
0.0
 10
356.6627901766
 20
134.2768354718
 30
0.0
  0
SPLINE
  5
415
330
222
100
AcDbEntity
  8
02___PRT_ALL_AXES
  6
Continuous
 62
     7
100
AcDbSpline
 70
     0
 71
     3
 72
    21
 73
    17
 74
     0
 42
0.000000001
 43
0.0000001
 40
0.0
 40
0.0
 40
0.0
 40
0.0
 40
0.0496938794
 40
0.0726600671
 40
0.095370167
 40
0.1423344812
 40
0.1936127609
 40
0.2495487407
 40
0.3096954097
 40
0.4401425101
 40
0.5810547415
 40
0.7282765001
 40
0.8022767332
 40
0.8742747605
 40
0.9413105664
 40
1.0
 40
1.0
 40
1.0
 40
1.0
 10
354.9349764055
 20
141.0775779531
 30
0.0
 10
354.9701014206
 20
141.0909280565
 30
0.0
 10
355.019143751
 20
141.1208439407
 30
0.0
 10
355.0626100241
 20
141.1791755972
 30
0.0
 10
355.0905105428
 20
141.244082353
 30
0.0
 10
355.0985073039
 20
141.337373391
 30
0.0
 10
355.0749381231
 20
141.4524720297
 30
0.0
 10
355.0262249066
 20
141.5698984383
 30
0.0
 10
354.9308824995
 20
141.7305989173
 30
0.0
 10
354.7675906518
 20
141.9230757935
 30
0.0
 10
354.525144657
 20
142.1282373283
 30
0.0
 10
354.2890545963
 20
142.2702323769
 30
0.0
 10
354.0837085338
 20
142.3549135761
 30
0.0
 10
353.9275837221
 20
142.3970451927
 30
0.0
 10
353.7779502708
 20
142.4112442673
 30
0.0
 10
353.6820885264
 20
142.3960210905
 30
0.0
 10
353.6406052035
 20
142.3802543599
 30
0.0
  0
SPLINE
  5
416
330
222
100
AcDbEntity
  8
02___PRT_ALL_AXES
  6
Continuous
 62
     7
100
AcDbSpline
 70
     0
 71
     3
 72
    10
 73
     6
 74
     0
 42
0.000000001
 43
0.0000001
 40
0.0
 40
0.0
 40
0.0
 40
0.0
 40
0.2626494566
 40
0.516188114
 40
1.0
 40
1.0
 40
1.0
 40
1.0
 10
356.6122758307
 20
136.1638321691
 30
0.0
 10
356.580774712
 20
136.3971340794
 30
0.0
 10
356.4995160999
 20
136.8532962395
 30
0.0
 10
356.2711679035
 20
137.7207649249
 30
0.0
 10
356.0339445333
 20
138.3401926558
 30
0.0
 10
355.8564465185
 20
138.7358549594
 30
0.0
  0
SPLINE
  5
417
330
222
100
AcDbEntity
  8
02___PRT_ALL_AXES
  6
Continuous
 62
     7
100
AcDbSpline
 70
     0
 71
     3
 72
    20
 73
    16
 74
     0
 42
0.000000001
 43
0.0000001
 40
0.0
 40
0.0
 40
0.0
 40
0.0
 40
0.0567847095
 40
0.1212821077
 40
0.1908173957
 40
0.2627578957
 40
0.4074334538
 40
0.547957442
 40
0.6801607315
 40
0.741983638
 40
0.8001235127
 40
0.8539997792
 40
0.9035556826
 40
0.9505784112
 40
1.0
 40
1.0
 40
1.0
 40
1.0
 10
357.0028190733
 20
134.4060715996
 30
0.0
 10
357.0438715538
 20
134.4216745783
 30
0.0
 10
357.1241466964
 20
134.4745211047
 30
0.0
 10
357.2209231035
 20
134.5872622443
 30
0.0
 10
357.3010509288
 20
134.7257658636
 30
0.0
 10
357.3846633731
 20
134.9311835195
 30
0.0
 10
357.4469505684
 20
135.2021969191
 30
0.0
 10
357.4661659606
 20
135.5256175084
 30
0.0
 10
357.4383350833
 20
135.7846206855
 30
0.0
 10
357.3861491571
 20
135.9729743645
 30
0.0
 10
357.3329443723
 20
136.0970327087
 30
0.0
 10
357.2634658679
 20
136.2019570322
 30
0.0
 10
357.1751475101
 20
136.2807212752
 30
0.0
 10
357.06493789
 20
136.3193234303
 30
0.0
 10
356.9880340431
 20
136.3066480793
 30
0.0
 10
356.9523047274
 20
136.2930682969
 30
0.0
  0
SPLINE
  5
418
330
222
100
AcDbEntity
  8
02___PRT_ALL_AXES
  6
Continuous
 62
     7
100
AcDbSpline
 70
     0
 71
     3
 72
    11
 73
     7
 74
     0
 42
0.000000001
 43
0.0000001
 40
0.0
 40
0.0
 40
0.0
 40
0.0
 40
0.2483458605
 40
0.5002261175
 40
0.7519857684
 40
1.0
 40
1.0
 40
1.0
 40
1.0
 10
356.6122758307
 20
136.1638321691
 30
0.0
 10
356.5612320103
 20
136.5430783871
 30
0.0
 10
356.4116435586
 20
137.3013591549
 30
0.0
 10
356.0572592225
 20
138.4070762815
 30
0.0
 10
355.5799891361
 20
139.4650138271
 30
0.0
 10
355.1833475299
 20
140.1275723401
 30
0.0
 10
354.9673517635
 20
140.4428312435
 30
0.0
  0
SPLINE
  5
419
330
222
100
AcDbEntity
  8
02___PRT_ALL_AXES
  6
Continuous
 62
     7
100
AcDbSpline
 70
     0
 71
     3
 72
     9
 73
     5
 74
     0
 42
0.000000001
 43
0.0000001
 40
0.0
 40
0.0
 40
0.0
 40
0.0
 40
0.4857941894
 40
1.0
 40
1.0
 40
1.0
 40
1.0
 10
355.8564465185
 20
138.7358549594
 30
0.0
 10
355.7396050109
 20
139.0327831408
 30
0.0
 10
355.4704761578
 20
139.6332855243
 30
0.0
 10
355.1339432426
 20
140.1996903253
 30
0.0
 10
354.943052159
 20
140.4783241485
 30
0.0
  0
SPLINE
  5
41A
330
222
100
AcDbEntity
  8
02___PRT_ALL_AXES
  6
Continuous
 62
     9
100
AcDbSpline
 70
     0
 71
     3
 72
     9
 73
     5
 74
     0
 42
0.000000001
 43
0.0000001
 40
0.0
 40
0.0
 40
0.0
 40
0.0
 40
0.2412559524
 40
1.0
 40
1.0
 40
1.0
 40
1.0
 10
356.6670332547
 20
132.7977637978
 30
0.0
 10
356.7105942113
 20
132.9227083618
 30
0.0
 10
356.8732831787
 20
133.4467718298
 30
0.0
 10
356.9662904987
 20
133.9915333514
 30
0.0
 10
357.0028190733
 20
134.4060715996
 30
0.0
  0
SPLINE
  5
41B
330
222
100
AcDbEntity
  8
02___PRT_ALL_AXES
  6
Continuous
 62
     9
100
AcDbSpline
 70
     0
 71
     3
 72
    11
 73
     7
 74
     0
 42
0.000000001
 43
0.0000001
 40
0.0
 40
0.0
 40
0.0
 40
0.0
 40
0.2495635802
 40
0.5025868783
 40
0.754287836
 40
1.0
 40
1.0
 40
1.0
 40
1.0
 10
356.9523047274
 20
136.2930682969
 30
0.0
 10
356.8940565086
 20
136.7258418729
 30
0.0
 10
356.7158759953
 20
137.5901907111
 30
0.0
 10
356.2818837889
 20
138.840377013
 30
0.0
 10
355.6931513442
 20
140.0180898953
 30
0.0
 10
355.2019221594
 20
140.7405532592
 30
0.0
 10
354.9349764055
 20
141.0775779531
 30
0.0
  0
SPLINE
  5
41C
330
222
100
AcDbEntity
  8
02___PRT_ALL_AXES
  6
Continuous
 62
     9
100
AcDbSpline
 70
     0
 71
     3
 72
     9
 73
     5
 74
     0
 42
0.000000001
 43
0.0000001
 40
0.0
 40
0.0
 40
0.0
 40
0.0
 40
0.2595870187
 40
1.0
 40
1.0
 40
1.0
 40
1.0
 10
353.6406052035
 20
142.3802543599
 30
0.0
 10
353.5339438397
 20
142.4641815336
 30
0.0
 10
353.1137218236
 20
142.7752344905
 30
0.0
 10
352.6546318137
 20
143.0354752973
 30
0.0
 10
352.2984968711
 20
143.1872200378
 30
0.0
  0
SPLINE
  5
41D
330
222
100
AcDbEntity
  8
02___PRT_ALL_AXES
  6
Continuous
 62
     7
100
AcDbSpline
 70
     0
 71
     3
 72
    10
 73
     6
 74
     0
 42
0.000000001
 43
0.0000001
 40
0.0
 40
0.0
 40
0.0
 40
0.0
 40
0.5192374217
 40
0.7623634715
 40
1.0
 40
1.0
 40
1.0
 40
1.0
 10
321.6587491321
 20
88.6051748156
 30
0.0
 10
321.7716795585
 20
88.4264498544
 30
0.0
 10
321.9781801285
 20
88.1840408596
 30
0.0
 10
322.3208535571
 20
87.9603402884
 30
0.0
 10
322.5042944375
 20
87.8874481417
 30
0.0
 10
322.5973941713
 20
87.8610986156
 30
0.0
  0
SPLINE
  5
41E
330
222
100
AcDbEntity
  8
02___PRT_ALL_AXES
  6
Continuous
 62
     7
100
AcDbSpline
 70
     0
 71
     3
 72
    16
 73
    12
 74
     0
 42
0.000000001
 43
0.0000001
 40
0.0
 40
0.0
 40
0.0
 40
0.0
 40
0.0469495016
 40
0.094901377
 40
0.1967885421
 40
0.3105010864
 40
0.4367424812
 40
0.5733053879
 40
0.7161086348
 40
0.8600784807
 40
1.0
 40
1.0
 40
1.0
 40
1.0
 10
322.8172111692
 20
87.798887151
 30
0.0
 10
322.9063895634
 20
87.7736474608
 30
0.0
 10
323.0921700738
 20
87.740264499
 30
0.0
 10
323.4826456096
 20
87.7459418496
 30
0.0
 10
323.9911961444
 20
87.8980840016
 30
0.0
 10
324.5597211451
 20
88.2747692686
 30
0.0
 10
325.0727772485
 20
88.8201138329
 30
0.0
 10
325.5020778366
 20
89.5010437569
 30
0.0
 10
325.8232026749
 20
90.2767263166
 30
0.0
 10
326.0170221998
 20
91.099979264
 30
0.0
 10
326.0544110917
 20
91.6625073861
 30
0.0
 10
326.047019571
 20
91.9386225147
 30
0.0
  0
SPLINE
  5
41F
330
222
100
AcDbEntity
  8
02___PRT_ALL_AXES
  6
Continuous
 62
     7
100
AcDbSpline
 70
     0
 71
     3
 72
     9
 73
     5
 74
     0
 42
0.000000001
 43
0.0000001
 40
0.0
 40
0.0
 40
0.0
 40
0.0
 40
0.5226770861
 40
1.0
 40
1.0
 40
1.0
 40
1.0
 10
321.7861926264
 20
88.7030433506
 30
0.0
 10
321.8783272667
 20
88.5279256355
 30
0.0
 10
322.0960792454
 20
88.2115273358
 30
0.0
 10
322.4042021117
 20
87.9770883746
 30
0.0
 10
322.5658646692
 20
87.8963427218
 30
0.0
  0
SPLINE
  5
420
330
222
100
AcDbEntity
  8
7_ALL_FEATURES
  6
Continuous
 62
     7
100
AcDbSpline
 70
     0
 71
     3
 72
    11
 73
     7
 74
     0
 42
0.000000001
 43
0.0000001
 40
0.0
 40
0.0
 40
0.0
 40
0.0
 40
0.2540595488
 40
0.5070353678
 40
0.7564581855
 40
1.0
 40
1.0
 40
1.0
 40
1.0
 10
348.8485050169
 20
127.6637485199
 30
0.0
 10
349.5432314298
 20
129.7301598346
 30
0.0
 10
350.7549830653
 20
133.9152333458
 30
0.0
 10
352.0280150525
 20
140.2880592545
 30
0.0
 10
352.7377881924
 20
146.6573222068
 30
0.0
 10
352.8285228552
 20
150.8935745273
 30
0.0
 10
352.7725991063
 20
152.9826430403
 30
0.0
  0
SPLINE
  5
421
330
222
100
AcDbEntity
  8
7_ALL_FEATURES
  6
Continuous
 62
     7
100
AcDbSpline
 70
     0
 71
     3
 72
    11
 73
     7
 74
     0
 42
0.000000001
 43
0.0000001
 40
0.0
 40
0.0
 40
0.0
 40
0.0
 40
0.2325787399
 40
0.4790764133
 40
0.7362395599
 40
1.0
 40
1.0
 40
1.0
 40
1.0
 10
340.3699072776
 20
112.0694984823
 30
0.0
 10
341.1328113768
 20
112.7495665588
 30
0.0
 10
342.5912995129
 20
114.2804710048
 30
0.0
 10
344.4832785032
 20
116.9154693486
 30
0.0
 10
346.0971252575
 20
119.8855983838
 30
0.0
 10
346.9498352698
 20
122.0162985668
 30
0.0
 10
347.3191874148
 20
123.1149086632
 30
0.0
  0
SPLINE
  5
422
330
222
100
AcDbEntity
  8
02___PRT_ALL_AXES
  6
Continuous
 62
     7
100
AcDbSpline
 70
     0
 71
     3
 72
    14
 73
    10
 74
     0
 42
0.000000001
 43
0.0000001
 40
0.0
 40
0.0
 40
0.0
 40
0.0
 40
0.1050360672
 40
0.2128188555
 40
0.3256977952
 40
0.4453660773
 40
0.5727173738
 40
0.7080192646
 40
1.0
 40
1.0
 40
1.0
 40
1.0
 10
351.1381832204
 20
164.7532135131
 30
0.0
 10
351.237334498
 20
164.7251676719
 30
0.0
 10
351.4326476415
 20
164.6461217798
 30
0.0
 10
351.6984783507
 20
164.4650215948
 30
0.0
 10
351.9338444478
 20
164.2254664419
 30
0.0
 10
352.1341370605
 20
163.9327860363
 30
0.0
 10
352.2963164634
 20
163.5930859476
 30
0.0
 10
352.4618541698
 20
163.0734805616
 30
0.0
 10
352.5137310707
 20
162.6528291881
 30
0.0
 10
352.5213961357
 20
162.3664956323
 30
0.0
  0
SPLINE
  5
423
330
222
100
AcDbEntity
  8
02___PRT_ALL_AXES
  6
Continuous
 62
     7
100
AcDbSpline
 70
     0
 71
     3
 72
    14
 73
    10
 74
     0
 42
0.000000001
 43
0.0000001
 40
0.0
 40
0.0
 40
0.0
 40
0.0
 40
0.2959172274
 40
0.4352727083
 40
0.5658931596
 40
0.6866840407
 40
0.7978527961
 40
0.9011659203
 40
1.0
 40
1.0
 40
1.0
 40
1.0
 10
347.9550959903
 20
162.392871866
 30
0.0
 10
348.0864072052
 20
162.7834471705
 30
0.0
 10
348.3484868178
 20
163.3396098223
 30
0.0
 10
348.8228910171
 20
163.9713554931
 30
0.0
 10
349.2129803283
 20
164.3542457299
 30
0.0
 10
349.6316510228
 20
164.6416933479
 30
0.0
 10
350.0661879537
 20
164.8230142389
 30
0.0
 10
350.5022141615
 20
164.8895191504
 30
0.0
 10
350.7859378735
 20
164.8528835415
 30
0.0
 10
350.9183662225
 20
164.8154249777
 30
0.0
  0
SPLINE
  5
424
330
222
100
AcDbEntity
  8
02___PRT_ALL_AXES
  6
Continuous
 62
     7
100
AcDbSpline
 70
     0
 71
     3
 72
    14
 73
    10
 74
     0
 42
0.000000001
 43
0.0000001
 40
0.0
 40
0.0
 40
0.0
 40
0.0
 40
0.2920987384
 40
0.4305997137
 40
0.5613851451
 40
0.6832982142
 40
0.7961551132
 40
0.9009539479
 40
1.0
 40
1.0
 40
1.0
 40
1.0
 10
348.1749129881
 20
162.3306604015
 30
0.0
 10
348.2977093604
 20
162.6959089486
 30
0.0
 10
348.5391076371
 20
163.2178678602
 30
0.0
 10
348.9709226261
 20
163.8214933552
 30
0.0
 10
349.3270691933
 20
164.1976250235
 30
0.0
 10
349.7108570741
 20
164.4932995908
 30
0.0
 10
350.1119065723
 20
164.6993734283
 30
0.0
 10
350.5188093371
 20
164.8084653041
 30
0.0
 10
350.7912404625
 20
164.8125387564
 30
0.0
 10
350.9209507511
 20
164.7967967725
 30
0.0
  0
SPLINE
  5
425
330
222
100
AcDbEntity
  8
02___PRT_ALL_AXES
  6
Continuous
 62
     7
100
AcDbSpline
 70
     0
 71
     3
 72
     9
 73
     5
 74
     0
 42
0.000000001
 43
0.0000001
 40
0.0
 40
0.0
 40
0.0
 40
0.0
 40
0.2452792259
 40
1.0
 40
1.0
 40
1.0
 40
1.0
 10
339.8745379372
 20
114.0886407085
 30
0.0
 10
339.8580989189
 20
114.7027310756
 30
0.0
 10
339.7225602808
 20
117.2042315036
 30
0.0
 10
339.3216369001
 20
119.6899944282
 30
0.0
 10
338.8864560644
 20
121.529441665
 30
0.0
  0
LINE
  5
426
330
222
100
AcDbEntity
  8
02___PRT_ALL_AXES
  6
Continuous
 62
     7
100
AcDbLine
 10
336.6036242885
 20
128.3467953696
 30
0.0
 11
336.5803124335
 21
128.3998584493
 31
0.0
  0
SPLINE
  5
427
330
222
100
AcDbEntity
  8
02___PRT_ALL_AXES
  6
Continuous
 62
     7
100
AcDbSpline
 70
     0
 71
     3
 72
     9
 73
     5
 74
     0
 42
0.000000001
 43
0.0000001
 40
0.0
 40
0.0
 40
0.0
 40
0.0
 40
0.2525753876
 40
1.0
 40
1.0
 40
1.0
 40
1.0
 10
336.5803124335
 20
128.3998584493
 30
0.0
 10
336.335724749
 20
128.955497978
 30
0.0
 10
335.317310322
 20
131.1329247523
 30
0.0
 10
334.0997130092
 20
133.2179917103
 30
0.0
 10
333.0826470789
 20
134.6988777785
 30
0.0
  0
SPLINE
  5
428
330
222
100
AcDbEntity
  8
02___PRT_ALL_AXES
  6
Continuous
 62
     7
100
AcDbSpline
 70
     0
 71
     3
 72
    15
 73
    11
 74
     0
 42
0.000000001
 43
0.0000001
 40
0.0
 40
0.0
 40
0.0
 40
0.0
 40
0.1466421635
 40
0.287912294
 40
0.4227233258
 40
0.5504471595
 40
0.6710348975
 40
0.7851236118
 40
0.8940914611
 40
1.0
 40
1.0
 40
1.0
 40
1.0
 10
333.0826470789
 20
134.6988777785
 30
0.0
 10
332.3395771597
 20
135.7808153975
 30
0.0
 10
330.765000817
 20
137.8288237848
 30
0.0
 10
328.1211184564
 20
140.5477251229
 30
0.0
 10
325.2871408302
 20
142.8079905902
 30
0.0
 10
322.3238098785
 20
144.5582738146
 30
0.0
 10
319.2940225709
 20
145.7576166184
 30
0.0
 10
316.2622702156
 20
146.3744346244
 30
0.0
 10
313.29824605
 20
146.3884963205
 30
0.0
 10
311.3990260085
 20
145.9872710816
 30
0.0
 10
310.4987850349
 20
145.6903499889
 30
0.0
  0
SPLINE
  5
429
330
222
100
AcDbEntity
  8
02___PRT_ALL_AXES
  6
Continuous
 62
     7
100
AcDbSpline
 70
     0
 71
     3
 72
    15
 73
    11
 74
     0
 42
0.000000001
 43
0.0000001
 40
0.0
 40
0.0
 40
0.0
 40
0.0
 40
0.1459576921
 40
0.2860230484
 40
0.4195442106
 40
0.5462976354
 40
0.6665736958
 40
0.7812367823
 40
0.8917325655
 40
1.0
 40
1.0
 40
1.0
 40
1.0
 10
299.0307087564
 20
125.2872980752
 30
0.0
 10
298.9994725778
 20
126.4541461202
 30
0.0
 10
299.0568196436
 20
128.746179894
 30
0.0
 10
299.5212337004
 20
132.0767193345
 30
0.0
 10
300.354998243
 20
135.1773572057
 30
0.0
 10
301.5446731309
 20
137.9901323086
 30
0.0
 10
303.070829089
 20
140.4620109453
 30
0.0
 10
304.9085095135
 20
142.5444779145
 30
0.0
 10
307.0240245018
 20
144.1933198324
 30
0.0
 10
308.6007831774
 20
144.9827512762
 30
0.0
 10
309.4101380753
 20
145.2903779315
 30
0.0
  0
SPLINE
  5
42A
330
222
100
AcDbEntity
  8
02___PRT_ALL_AXES
  6
Continuous
 62
     7
100
AcDbSpline
 70
     0
 71
     3
 72
    14
 73
    10
 74
     0
 42
0.000000001
 43
0.0000001
 40
0.0
 40
0.0
 40
0.0
 40
0.0
 40
0.1081770527
 40
0.2189090628
 40
0.3339502167
 40
0.454581321
 40
0.5815474113
 40
0.715070357
 40
1.0
 40
1.0
 40
1.0
 40
1.0
 10
330.029625954
 20
94.3024878501
 30
0.0
 10
330.804439894
 20
94.6372311133
 30
0.0
 10
332.3094935635
 20
95.4711065714
 30
0.0
 10
334.319013162
 20
97.1517650721
 30
0.0
 10
336.0608356483
 20
99.2358132961
 30
0.0
 10
337.5049346317
 20
101.6819165169
 30
0.0
 10
338.6290501084
 20
104.4457184384
 30
0.0
 10
339.7000726388
 20
108.5736206097
 30
0.0
 10
339.9340286731
 20
111.8663250459
 30
0.0
 10
339.8745379372
 20
114.0886407085
 30
0.0
  0
SPLINE
  5
42B
330
222
100
AcDbEntity
  8
02___PRT_ALL_AXES
  6
Continuous
 62
     7
100
AcDbSpline
 70
     0
 71
     3
 72
    20
 73
    16
 74
     0
 42
0.000000001
 43
0.0000001
 40
0.0
 40
0.0
 40
0.0
 40
0.0
 40
0.0488334736
 40
0.0985375699
 40
0.1498846858
 40
0.2034760448
 40
0.3185007955
 40
0.3803589171
 40
0.4448437861
 40
0.5116346175
 40
0.5803001435
 40
0.7210030064
 40
0.7920066617
 40
0.862586536
 40
1.0
 40
1.0
 40
1.0
 40
1.0
 10
328.9510623836
 20
93.8787830476
 30
0.0
 10
328.1994881998
 20
93.593118189
 30
0.0
 10
326.6250152046
 20
93.1580605357
 30
0.0
 10
324.1536565046
 20
92.9463253177
 30
0.0
 10
321.6051859575
 20
93.1733210784
 30
0.0
 10
318.0836237207
 20
94.0719788207
 30
0.0
 10
314.6589670752
 20
95.8283978802
 30
0.0
 10
311.4909235623
 20
98.2349471748
 30
0.0
 10
309.1799881562
 20
100.4291923413
 30
0.0
 10
307.0326142684
 20
102.9314220959
 30
0.0
 10
304.4116701828
 20
106.6534617237
 30
0.0
 10
302.2821494289
 20
110.7818638906
 30
0.0
 10
300.7028424947
 20
115.1582130868
 30
0.0
 10
299.5264247512
 20
119.6026178232
 30
0.0
 10
299.0912530589
 20
123.0256257355
 30
0.0
 10
299.0307087564
 20
125.2872980752
 30
0.0
  0
SPLINE
  5
42C
330
222
100
AcDbEntity
  8
02___PRT_ALL_AXES
  6
Continuous
 62
     7
100
AcDbSpline
 70
     0
 71
     3
 72
    14
 73
    10
 74
     0
 42
0.000000001
 43
0.0000001
 40
0.0
 40
0.0
 40
0.0
 40
0.0
 40
0.2841138528
 40
0.4175486712
 40
0.5446444428
 40
0.6655611057
 40
0.7809339657
 40
0.8918886794
 40
1.0
 40
1.0
 40
1.0
 40
1.0
 10
339.3304917025
 20
113.881862904
 30
0.0
 10
339.3883523268
 20
111.720441137
 30
0.0
 10
339.169160822
 20
108.5172845526
 30
0.0
 10
338.1616272513
 20
104.4882668969
 30
0.0
 10
337.1016112725
 20
101.7760466983
 30
0.0
 10
335.7377582383
 20
99.3587704317
 30
0.0
 10
334.090000683
 20
97.2774740244
 30
0.0
 10
332.1849996788
 20
95.5705929111
 30
0.0
 10
330.7517776751
 20
94.6967182787
 30
0.0
 10
330.0117707056
 20
94.3370993263
 30
0.0
  0
SPLINE
  5
42D
330
222
100
AcDbEntity
  8
02___PRT_ALL_AXES
  6
Continuous
 62
     7
100
AcDbSpline
 70
     0
 71
     3
 72
    18
 73
    14
 74
     0
 42
0.000000001
 43
0.0000001
 40
0.0
 40
0.0
 40
0.0
 40
0.0
 40
0.0492305846
 40
0.0994805174
 40
0.1513097007
 40
0.2051545298
 40
0.2613102477
 40
0.319929719
 40
0.4443642656
 40
0.5774806044
 40
0.716752297
 40
0.8588265871
 40
1.0
 40
1.0
 40
1.0
 40
1.0
 10
310.5091634327
 20
145.6528143368
 30
0.0
 10
311.1900386958
 20
145.8441844713
 30
0.0
 10
312.6000283014
 20
146.1186633692
 30
0.0
 10
314.7807235227
 20
146.1926283974
 30
0.0
 10
317.013629392
 20
145.9325325449
 30
0.0
 10
319.2696871378
 20
145.3431314343
 30
0.0
 10
321.5214742913
 20
144.433251502
 30
0.0
 10
324.5401179353
 20
142.7769501276
 30
0.0
 10
328.1370651104
 20
139.9480226114
 30
0.0
 10
331.9151882734
 20
135.6431390625
 30
0.0
 10
335.0726704923
 20
130.5649285484
 30
0.0
 10
337.4589024856
 20
124.9596864235
 30
0.0
 10
338.4728599419
 20
120.9988281527
 30
0.0
 10
338.8170099332
 20
119.0001110076
 30
0.0
  0
SPLINE
  5
42E
330
222
100
AcDbEntity
  8
02___PRT_ALL_AXES
  6
Continuous
 62
     7
100
AcDbSpline
 70
     0
 71
     3
 72
     9
 73
     5
 74
     0
 42
0.000000001
 43
0.0000001
 40
0.0
 40
0.0
 40
0.0
 40
0.0
 40
0.2534838788
 40
1.0
 40
1.0
 40
1.0
 40
1.0
 10
338.8170099332
 20
119.0001110076
 30
0.0
 10
338.8907978108
 20
118.5715737423
 30
0.0
 10
339.1526397643
 20
116.8761260861
 30
0.0
 10
339.2962220396
 20
115.162028756
 30
0.0
 10
339.3304917025
 20
113.881862904
 30
0.0
  0
SPLINE
  5
42F
330
222
100
AcDbEntity
  8
0
  6
Continuous
 62
     7
100
AcDbSpline
 70
     0
 71
     3
 72
    15
 73
    11
 74
     0
 42
0.000000001
 43
0.0000001
 40
0.0
 40
0.0
 40
0.0
 40
0.0
 40
0.1459576921
 40
0.2860230484
 40
0.4195442106
 40
0.5462976354
 40
0.6665736958
 40
0.7812367823
 40
0.8917325655
 40
1.0
 40
1.0
 40
1.0
 40
1.0
 10
340.4185841719
 20
114.295418513
 30
0.0
 10
340.4498203505
 20
113.128570468
 30
0.0
 10
340.3924732847
 20
110.8365366942
 30
0.0
 10
339.9280592279
 20
107.5059972537
 30
0.0
 10
339.0942946853
 20
104.4053593825
 30
0.0
 10
337.9046197974
 20
101.5925842796
 30
0.0
 10
336.3784638393
 20
99.1207056429
 30
0.0
 10
334.5407834147
 20
97.0382386736
 30
0.0
 10
332.4252684265
 20
95.3893967558
 30
0.0
 10
330.8485097509
 20
94.599965312
 30
0.0
 10
330.039154853
 20
94.2923386567
 30
0.0
  0
SPLINE
  5
430
330
222
100
AcDbEntity
  8
0
  6
Continuous
 62
     7
100
AcDbSpline
 70
     0
 71
     3
 72
    18
 73
    14
 74
     0
 42
0.000000001
 43
0.0000001
 40
0.0
 40
0.0
 40
0.0
 40
0.0
 40
0.0495869496
 40
0.0998417054
 40
0.1513746907
 40
0.2046931348
 40
0.2601733605
 40
0.3180508072
 40
0.4410958488
 40
0.5733941353
 40
0.7128044817
 40
0.8562101391
 40
1.0
 40
1.0
 40
1.0
 40
1.0
 10
310.4982305446
 20
145.7039335406
 30
0.0
 10
311.1490132423
 20
145.9512886937
 30
0.0
 10
312.502222129
 20
146.3437238247
 30
0.0
 10
314.6199164448
 20
146.604043521
 30
0.0
 10
316.8047607914
 20
146.536099037
 30
0.0
 10
319.0283816722
 20
146.1420395319
 30
0.0
 10
321.2638804748
 20
145.4282604751
 30
0.0
 10
324.284484154
 20
144.0357290467
 30
0.0
 10
327.9338581209
 20
141.5186760096
 30
0.0
 10
331.8367510969
 20
137.5447524707
 30
0.0
 10
335.1840152848
 20
132.7422012562
 30
0.0
 10
337.8198095245
 20
127.3395933278
 30
0.0
 10
339.0311367484
 20
123.4743039219
 30
0.0
 10
339.4840153222
 20
121.5069316334
 30
0.0
  0
SPLINE
  5
431
330
222
100
AcDbEntity
  8
0
  6
Continuous
 62
     7
100
AcDbSpline
 70
     0
 71
     3
 72
     9
 73
     5
 74
     0
 42
0.000000001
 43
0.0000001
 40
0.0
 40
0.0
 40
0.0
 40
0.0
 40
0.2542763775
 40
1.0
 40
1.0
 40
1.0
 40
1.0
 10
339.5123632049
 20
121.3828533554
 30
0.0
 10
339.6464003666
 20
120.7917078068
 30
0.0
 10
340.1189604382
 20
118.4550174704
 30
0.0
 10
340.3710133406
 20
116.0724582798
 30
0.0
 10
340.4185841719
 20
114.295418513
 30
0.0
  0
SPLINE
  5
432
330
222
100
AcDbEntity
  8
7_ALL_FEATURES
  6
Continuous
 62
     7
100
AcDbSpline
 70
     0
 71
     3
 72
    11
 73
     7
 74
     0
 42
0.000000001
 43
0.0000001
 40
0.0
 40
0.0
 40
0.0
 40
0.0
 40
0.2518900387
 40
0.5048889196
 40
0.755411327
 40
1.0
 40
1.0
 40
1.0
 40
1.0
 10
357.5771294567
 20
129.5969154702
 30
0.0
 10
357.3453580274
 20
130.6636798303
 30
0.0
 10
356.7559985743
 20
132.7767259861
 30
0.0
 10
355.5253246582
 20
135.8176247136
 30
0.0
 10
353.9746413848
 20
138.6726588875
 30
0.0
 10
352.7337416724
 20
140.4307794241
 30
0.0
 10
352.0689399045
 20
141.2564051511
 30
0.0
  0
SPLINE
  5
433
330
222
100
AcDbEntity
  8
7_ALL_FEATURES
  6
Continuous
 62
     7
100
AcDbSpline
 70
     0
 71
     3
 72
    11
 73
     7
 74
     0
 42
0.000000001
 43
0.0000001
 40
0.0
 40
0.0
 40
0.0
 40
0.0
 40
0.2616465523
 40
0.5136358287
 40
0.7586500476
 40
1.0
 40
1.0
 40
1.0
 40
1.0
 10
343.0032883506
 20
147.7129831916
 30
0.0
 10
342.4414206233
 20
147.8711071465
 30
0.0
 10
341.315269205
 20
148.1067529646
 30
0.0
 10
339.6185930774
 20
148.199842335
 30
0.0
 10
337.9736311681
 20
148.0228067447
 30
0.0
 10
336.9239984097
 20
147.7242463126
 30
0.0
 10
336.4207132799
 20
147.5329480387
 30
0.0
  0
SPLINE
  5
434
330
222
100
AcDbEntity
  8
7_ALL_FEATURES
  6
Continuous
 62
     7
100
AcDbSpline
 70
     0
 71
     3
 72
    13
 73
     9
 74
     0
 42
0.000000001
 43
0.0000001
 40
0.0
 40
0.0
 40
0.0
 40
0.0
 40
0.2752022859
 40
0.5317098422
 40
0.6536316014
 40
0.7718325786
 40
0.8870045483
 40
1.0
 40
1.0
 40
1.0
 40
1.0
 10
347.2237001583
 20
116.021412896
 30
0.0
 10
347.0324005926
 20
114.998128322
 30
0.0
 10
346.5046028652
 20
113.0454283399
 30
0.0
 10
345.4151019872
 20
110.8052841188
 30
0.0
 10
344.3236813982
 20
109.2717507551
 30
0.0
 10
343.4202297831
 20
108.2722344185
 30
0.0
 10
342.4261261565
 20
107.4137005259
 30
0.0
 10
341.7031419576
 20
106.9369129139
 30
0.0
 10
341.3313521054
 20
106.726037192
 30
0.0
  0
SPLINE
  5
435
330
222
100
AcDbEntity
  8
7_ALL_FEATURES
  6
Continuous
 62
     7
100
AcDbSpline
 70
     0
 71
     3
 72
    13
 73
     9
 74
     0
 42
0.000000001
 43
0.0000001
 40
0.0
 40
0.0
 40
0.0
 40
0.0
 40
0.2752022859
 40
0.5317098422
 40
0.6536316014
 40
0.7718325786
 40
0.8870045483
 40
1.0
 40
1.0
 40
1.0
 40
1.0
 10
354.9763590026
 20
118.9679966105
 30
0.0
 10
354.785059437
 20
117.9447120364
 30
0.0
 10
354.2572617096
 20
115.9920120544
 30
0.0
 10
353.1677608315
 20
113.7518678332
 30
0.0
 10
352.0763402426
 20
112.2183344696
 30
0.0
 10
351.1728886275
 20
111.2188181329
 30
0.0
 10
350.1787850009
 20
110.3602842403
 30
0.0
 10
349.455800802
 20
109.8834966284
 30
0.0
 10
349.0840109498
 20
109.6726209065
 30
0.0
  0
SPLINE
  5
436
330
222
100
AcDbEntity
  8
7_ALL_FEATURES
  6
Continuous
 62
     7
100
AcDbSpline
 70
     0
 71
     3
 72
    13
 73
     9
 74
     0
 42
0.000000001
 43
0.0000001
 40
0.0
 40
0.0
 40
0.0
 40
0.0
 40
0.2752022859
 40
0.5317098422
 40
0.6536316014
 40
0.7718325786
 40
0.8870045483
 40
1.0
 40
1.0
 40
1.0
 40
1.0
 10
349.8079197731
 20
117.0036074675
 30
0.0
 10
349.6166202074
 20
115.9803228935
 30
0.0
 10
349.08882248
 20
114.0276229114
 30
0.0
 10
347.999321602
 20
111.7874786903
 30
0.0
 10
346.907901013
 20
110.2539453266
 30
0.0
 10
346.0044493979
 20
109.25442899
 30
0.0
 10
345.0103457713
 20
108.3958950974
 30
0.0
 10
344.2873615724
 20
107.9191074854
 30
0.0
 10
343.9155717202
 20
107.7082317635
 30
0.0
  0
SPLINE
  5
437
330
222
100
AcDbEntity
  8
7_ALL_FEATURES
  6
Continuous
 62
     7
100
AcDbSpline
 70
     0
 71
     3
 72
    13
 73
     9
 74
     0
 42
0.000000001
 43
0.0000001
 40
0.0
 40
0.0
 40
0.0
 40
0.0
 40
0.2752022859
 40
0.5317098422
 40
0.6536316014
 40
0.7718325786
 40
0.8870045483
 40
1.0
 40
1.0
 40
1.0
 40
1.0
 10
352.3921393879
 20
117.985802039
 30
0.0
 10
352.2008398222
 20
116.962517465
 30
0.0
 10
351.6730420948
 20
115.0098174829
 30
0.0
 10
350.5835412167
 20
112.7696732618
 30
0.0
 10
349.4921206278
 20
111.2361398981
 30
0.0
 10
348.5886690127
 20
110.2366235615
 30
0.0
 10
347.5945653861
 20
109.3780896689
 30
0.0
 10
346.8715811872
 20
108.9013020569
 30
0.0
 10
346.499791335
 20
108.690426335
 30
0.0
  0
SPLINE
  5
438
330
222
100
AcDbEntity
  8
7_ALL_FEATURES
  6
Continuous
 62
     7
100
AcDbSpline
 70
     0
 71
     3
 72
    14
 73
    10
 74
     0
 42
0.000000001
 43
0.0000001
 40
0.0
 40
0.0
 40
0.0
 40
0.0
 40
0.1132336322
 40
0.227857766
 40
0.3451527654
 40
0.4662023484
 40
0.5918362332
 40
0.7225924759
 40
1.0
 40
1.0
 40
1.0
 40
1.0
 10
350.632625184
 20
110.1428264452
 30
0.0
 10
351.0840146629
 20
110.3143992239
 30
0.0
 10
351.9670735489
 20
110.7306634682
 30
0.0
 10
353.1919742099
 20
111.5563405492
 30
0.0
 10
354.3073550534
 20
112.5749392058
 30
0.0
 10
355.3004831823
 20
113.7738589495
 30
0.0
 10
356.1609806205
 20
115.1393056064
 30
0.0
 10
357.1382542911
 20
117.199730665
 30
0.0
 10
357.6152037384
 20
118.8906918394
 30
0.0
 10
357.8326017348
 20
120.0535800842
 30
0.0
  0
SPLINE
  5
439
330
222
100
AcDbEntity
  8
7_ALL_FEATURES
  6
Continuous
 62
     7
100
AcDbSpline
 70
     0
 71
     3
 72
    11
 73
     7
 74
     0
 42
0.000000001
 43
0.0000001
 40
0.0
 40
0.0
 40
0.0
 40
0.0
 40
0.2361260229
 40
0.4796167741
 40
0.7335505531
 40
1.0
 40
1.0
 40
1.0
 40
1.0
 10
334.9541861208
 20
146.8567422765
 30
0.0
 10
335.5401895243
 20
146.9817653914
 30
0.0
 10
336.7570648206
 20
147.1235891539
 30
0.0
 10
338.6236322961
 20
147.0070329286
 30
0.0
 10
340.5198797392
 20
146.5685947467
 30
0.0
 10
341.7522568191
 20
146.0798756348
 30
0.0
 10
342.3629236037
 20
145.7896141184
 30
0.0
  0
SPLINE
  5
43A
330
222
100
AcDbEntity
  8
7_ALL_FEATURES
  6
Continuous
 62
     7
100
AcDbSpline
 70
     0
 71
     3
 72
    11
 73
     7
 74
     0
 42
0.000000001
 43
0.0000001
 40
0.0
 40
0.0
 40
0.0
 40
0.0
 40
0.2312355809
 40
0.4725430517
 40
0.7280784443
 40
1.0
 40
1.0
 40
1.0
 40
1.0
 10
332.369966506
 20
145.874547705
 30
0.0
 10
333.1076951652
 20
146.031941219
 30
0.0
 10
334.6586258473
 20
146.1740481785
 30
0.0
 10
337.0302804151
 20
145.8653075895
 30
0.0
 10
339.418703017
 20
145.0552812862
 30
0.0
 10
340.9352625095
 20
144.2237161103
 30
0.0
 10
341.6791466227
 20
143.7404917137
 30
0.0
  0
SPLINE
  5
43B
330
222
100
AcDbEntity
  8
7_ALL_FEATURES
  6
Continuous
 62
     7
100
AcDbSpline
 70
     0
 71
     3
 72
    13
 73
     9
 74
     0
 42
0.000000001
 43
0.0000001
 40
0.0
 40
0.0
 40
0.0
 40
0.0
 40
0.1122166825
 40
0.2267614509
 40
0.3445592803
 40
0.4663442968
 40
0.7233915942
 40
1.0
 40
1.0
 40
1.0
 40
1.0
 10
329.7857468912
 20
144.8923531335
 30
0.0
 10
330.226195707
 20
144.9863223538
 30
0.0
 10
331.1308354312
 20
145.1133524178
 30
0.0
 10
332.5174885259
 20
145.1182410209
 30
0.0
 10
333.931311777
 20
144.9395107516
 30
0.0
 10
335.8679560507
 20
144.4508390722
 30
0.0
 10
338.2897834211
 20
143.3712077852
 30
0.0
 10
340.0515177328
 20
142.1308859805
 30
0.0
 10
340.90452413
 20
141.4204341847
 30
0.0
  0
SPLINE
  5
43C
330
222
100
AcDbEntity
  8
7_ALL_FEATURES
  6
Continuous
 62
     7
100
AcDbSpline
 70
     0
 71
     3
 72
    13
 73
     9
 74
     0
 42
0.000000001
 43
0.0000001
 40
0.0
 40
0.0
 40
0.0
 40
0.0
 40
0.1097410611
 40
0.2223223714
 40
0.3389127393
 40
0.4603718367
 40
0.719251208
 40
1.0
 40
1.0
 40
1.0
 40
1.0
 10
327.2015272764
 20
143.910158562
 30
0.0
 10
327.7161822306
 20
144.0199595719
 30
0.0
 10
328.7790527651
 20
144.1562679932
 30
0.0
 10
330.4094772264
 20
144.1069532649
 30
0.0
 10
332.0699899583
 20
143.8079014032
 30
0.0
 10
334.3416690032
 20
143.0675813822
 30
0.0
 10
337.1407064046
 20
141.5151078121
 30
0.0
 10
339.1059637143
 20
139.8044658015
 30
0.0
 10
340.040759345
 20
138.8356588506
 30
0.0
  0
SPLINE
  5
43D
330
222
100
AcDbEntity
  8
7_ALL_FEATURES
  6
Continuous
 62
     7
100
AcDbSpline
 70
     0
 71
     3
 72
     9
 73
     5
 74
     0
 42
0.000000001
 43
0.0000001
 40
0.0
 40
0.0
 40
0.0
 40
0.0
 40
0.5023364107
 40
1.0
 40
1.0
 40
1.0
 40
1.0
 10
356.0810023113
 20
129.0282765078
 30
0.0
 10
355.6876545374
 20
130.8387213394
 30
0.0
 10
354.5487558012
 20
134.3729980317
 30
0.0
 10
352.7649958608
 20
137.6312636597
 30
0.0
 10
351.7236804033
 20
139.142731126
 30
0.0
  0
SPLINE
  5
43E
330
222
100
AcDbEntity
  8
7_ALL_FEATURES
  6
Continuous
 62
     7
100
AcDbSpline
 70
     0
 71
     3
 72
    11
 73
     7
 74
     0
 42
0.000000001
 43
0.0000001
 40
0.0
 40
0.0
 40
0.0
 40
0.0
 40
0.2630767685
 40
0.5162567379
 40
0.7611688265
 40
1.0
 40
1.0
 40
1.0
 40
1.0
 10
342.6921805664
 20
146.7497082765
 30
0.0
 10
342.1832017544
 20
146.9455029895
 30
0.0
 10
341.1607743309
 20
147.2721158901
 30
0.0
 10
339.6041200948
 20
147.5565419296
 30
0.0
 10
338.0729577397
 20
147.6217215259
 30
0.0
 10
337.0712218924
 20
147.5166554975
 30
0.0
 10
336.5842807791
 20
147.4272546173
 30
0.0
  0
SPLINE
  5
43F
330
222
100
AcDbEntity
  8
7_ALL_FEATURES
  6
Continuous
 62
     7
100
AcDbSpline
 70
     0
 71
     3
 72
    11
 73
     7
 74
     0
 42
0.000000001
 43
0.0000001
 40
0.0
 40
0.0
 40
0.0
 40
0.0
 40
0.2693423997
 40
0.5240016961
 40
0.7662831997
 40
1.0
 40
1.0
 40
1.0
 40
1.0
 10
342.0561559098
 20
144.8506589498
 30
0.0
 10
341.3672131943
 20
145.2350116216
 30
0.0
 10
339.9701600982
 20
145.8878804874
 30
0.0
 10
337.7968868594
 20
146.4922839291
 30
0.0
 10
335.6518937352
 20
146.6775978269
 30
0.0
 10
334.2552886354
 20
146.5130522374
 30
0.0
 10
333.588047572
 20
146.3600595991
 30
0.0
  0
SPLINE
  5
440
330
222
100
AcDbEntity
  8
7_ALL_FEATURES
  6
Continuous
 62
     7
100
AcDbSpline
 70
     0
 71
     3
 72
    13
 73
     9
 74
     0
 42
0.000000001
 43
0.0000001
 40
0.0
 40
0.0
 40
0.0
 40
0.0
 40
0.1129854467
 40
0.2280876403
 40
0.3461981336
 40
0.4680435848
 40
0.7245329772
 40
1.0
 40
1.0
 40
1.0
 40
1.0
 10
342.564548992
 20
107.1722606881
 30
0.0
 10
342.9442419602
 20
107.3800714464
 30
0.0
 10
343.6830117409
 20
107.8524563142
 30
0.0
 10
344.6995027202
 20
108.7097498897
 30
0.0
 10
345.6234098956
 20
109.7128002759
 30
0.0
 10
346.7395724768
 20
111.2574284551
 30
0.0
 10
347.8529195763
 20
113.5227456691
 30
0.0
 10
348.3898904671
 20
115.5010275803
 30
0.0
 10
348.583815745
 20
116.5383574073
 30
0.0
  0
SPLINE
  5
441
330
222
100
AcDbEntity
  8
7_ALL_FEATURES
  6
Continuous
 62
     7
100
AcDbSpline
 70
     0
 71
     3
 72
    13
 73
     9
 74
     0
 42
0.000000001
 43
0.0000001
 40
0.0
 40
0.0
 40
0.0
 40
0.0
 40
0.1129854467
 40
0.2280876403
 40
0.3461981336
 40
0.4680435848
 40
0.7245329772
 40
1.0
 40
1.0
 40
1.0
 40
1.0
 10
345.1487686068
 20
108.1544552595
 30
0.0
 10
345.528461575
 20
108.3622660179
 30
0.0
 10
346.2672313557
 20
108.8346508857
 30
0.0
 10
347.283722335
 20
109.6919444612
 30
0.0
 10
348.2076295104
 20
110.6949948474
 30
0.0
 10
349.3237920916
 20
112.2396230266
 30
0.0
 10
350.4371391911
 20
114.5049402406
 30
0.0
 10
350.9741100819
 20
116.4832221518
 30
0.0
 10
351.1680353598
 20
117.5205519788
 30
0.0
  0
LINE
  5
442
330
222
100
AcDbEntity
  8
7_ALL_FEATURES
  6
Continuous
 62
     7
100
AcDbLine
 10
348.3283434669
 20
126.0816927933
 30
0.0
 11
348.3241115508
 21
126.101137557
 31
0.0
  0
SPLINE
  5
443
330
222
100
AcDbEntity
  8
7_ALL_FEATURES
  6
Continuous
 62
     7
100
AcDbSpline
 70
     0
 71
     3
 72
    14
 73
    10
 74
     0
 42
0.000000001
 43
0.0000001
 40
0.0
 40
0.0
 40
0.0
 40
0.0
 40
0.2788413931
 40
0.4105682786
 40
0.5370260167
 40
0.6585016424
 40
0.7755565385
 40
0.8890275822
 40
1.0
 40
1.0
 40
1.0
 40
1.0
 10
340.5050404228
 20
140.2306129705
 30
0.0
 10
339.5988985047
 20
141.0694469695
 30
0.0
 10
338.1527108677
 20
142.1957747338
 30
0.0
 10
336.0684444191
 20
143.3483777576
 30
0.0
 10
334.5121417596
 20
143.994816327
 30
0.0
 10
332.9514519639
 20
144.4310454846
 30
0.0
 10
331.4033944888
 20
144.6514555202
 30
0.0
 10
329.8861136208
 20
144.6526876947
 30
0.0
 10
328.8986007729
 20
144.5054993016
 30
0.0
 10
328.4196083424
 20
144.3956704561
 30
0.0
  0
SPLINE
  5
444
330
222
100
AcDbEntity
  8
7_ALL_FEATURES
  6
Continuous
 62
     7
100
AcDbSpline
 70
     0
 71
     3
 72
    13
 73
     9
 74
     0
 42
0.000000001
 43
0.0000001
 40
0.0
 40
0.0
 40
0.0
 40
0.0
 40
0.1129854467
 40
0.2280876403
 40
0.3461981336
 40
0.4680435848
 40
0.7245329772
 40
1.0
 40
1.0
 40
1.0
 40
1.0
 10
347.7329882216
 20
109.136649831
 30
0.0
 10
348.1126811898
 20
109.3444605894
 30
0.0
 10
348.8514509705
 20
109.8168454572
 30
0.0
 10
349.8679419498
 20
110.6741390327
 30
0.0
 10
350.7918491252
 20
111.6771894189
 30
0.0
 10
351.9080117064
 20
113.221817598
 30
0.0
 10
353.0213588058
 20
115.4871348121
 30
0.0
 10
353.5583296967
 20
117.4654167233
 30
0.0
 10
353.7522549746
 20
118.5027465503
 30
0.0
  0
SPLINE
  5
445
330
222
100
AcDbEntity
  8
7_ALL_FEATURES
  6
Continuous
 62
     7
100
AcDbSpline
 70
     0
 71
     3
 72
    13
 73
     9
 74
     0
 42
0.000000001
 43
0.0000001
 40
0.0
 40
0.0
 40
0.0
 40
0.0
 40
0.1130137723
 40
0.2282596768
 40
0.3465520123
 40
0.4685487883
 40
0.7250686976
 40
1.0
 40
1.0
 40
1.0
 40
1.0
 10
350.5700351826
 20
110.2622443442
 30
0.0
 10
350.9339489783
 20
110.4759914025
 30
0.0
 10
351.6412305506
 20
110.9568075532
 30
0.0
 10
352.6131263457
 20
111.8161409852
 30
0.0
 10
353.4963134806
 20
112.8117700455
 30
0.0
 10
354.5632327903
 20
114.3338549791
 30
0.0
 10
355.6291327962
 20
116.5486320547
 30
0.0
 10
356.1478021242
 20
118.4757092268
 30
0.0
 10
356.3364745894
 20
119.4849411218
 30
0.0
  0
SPLINE
  5
446
330
222
100
AcDbEntity
  8
7_ALL_FEATURES
  6
Continuous
 62
     7
100
AcDbSpline
 70
     0
 71
     3
 72
    13
 73
     9
 74
     0
 42
0.000000001
 43
0.0000001
 40
0.0
 40
0.0
 40
0.0
 40
0.0
 40
0.2743851713
 40
0.5305064383
 40
0.6524622856
 40
0.7708790825
 40
0.8864457845
 40
1.0
 40
1.0
 40
1.0
 40
1.0
 10
341.3251985547
 20
142.6732369146
 30
0.0
 10
340.5149048514
 20
143.2686883193
 30
0.0
 10
338.8531257061
 20
144.2988002443
 30
0.0
 10
336.6050973461
 20
145.1638720734
 30
0.0
 10
334.8196364745
 20
145.5318020727
 30
0.0
 10
333.5171662753
 20
145.6472035054
 30
0.0
 10
332.2411312508
 20
145.6049641297
 30
0.0
 10
331.4094499221
 20
145.4708706562
 30
0.0
 10
331.0038279572
 20
145.3778650276
 30
0.0
  0
SPLINE
  5
447
330
222
100
AcDbEntity
  8
0
  6
Continuous
 62
     7
100
AcDbSpline
 70
     0
 71
     3
 72
     9
 73
     5
 74
     0
 42
0.000000001
 43
0.0000001
 40
0.0
 40
0.0
 40
0.0
 40
0.0
 40
0.2533425115
 40
1.0
 40
1.0
 40
1.0
 40
1.0
 10
339.8745379372
 20
114.0886407085
 30
0.0
 10
339.8824066674
 20
113.7946991054
 30
0.0
 10
339.8982301951
 20
112.6341061856
 30
0.0
 10
339.8526453613
 20
111.4725287501
 30
0.0
 10
339.7814455615
 20
110.6088359975
 30
0.0
  0
SPLINE
  5
448
330
222
100
AcDbEntity
  8
0
  6
Continuous
 62
     7
100
AcDbSpline
 70
     0
 71
     3
 72
    14
 73
    10
 74
     0
 42
0.000000001
 43
0.0000001
 40
0.0
 40
0.0
 40
0.0
 40
0.0
 40
0.2780600525
 40
0.4097977386
 40
0.5364701776
 40
0.6582721234
 40
0.7756362407
 40
0.8892414872
 40
1.0
 40
1.0
 40
1.0
 40
1.0
 10
339.7814455615
 20
110.6088359975
 30
0.0
 10
339.6458571831
 20
108.9640743533
 30
0.0
 10
339.2463775253
 20
106.5466298588
 30
0.0
 10
338.2683856429
 20
103.5120018803
 30
0.0
 10
337.3527196736
 20
101.4443306508
 30
0.0
 10
336.2510639856
 20
99.5674377563
 30
0.0
 10
334.9739648097
 20
97.9009513188
 30
0.0
 10
333.534638942
 20
96.4635169646
 30
0.0
 10
332.4655605489
 20
95.6604885122
 30
0.0
 10
331.9122608114
 20
95.3055247282
 30
0.0
  0
SPLINE
  5
449
330
222
100
AcDbEntity
  8
0
  6
Continuous
 62
     7
100
AcDbSpline
 70
     0
 71
     3
 72
    15
 73
    11
 74
     0
 42
0.000000001
 43
0.0000001
 40
0.0
 40
0.0
 40
0.0
 40
0.0
 40
0.1060450758
 40
0.2160093316
 40
0.3313128288
 40
0.4528176631
 40
0.58083069
 40
0.7151607304
 40
0.855198324
 40
1.0
 40
1.0
 40
1.0
 40
1.0
 10
312.3222999068
 20
146.1491608225
 30
0.0
 10
313.1917308432
 20
146.3028696556
 30
0.0
 10
314.9983166431
 20
146.4386983208
 30
0.0
 10
317.7533599851
 20
146.1290055297
 30
0.0
 10
320.5383221876
 20
145.3200828709
 30
0.0
 10
323.3003885937
 20
144.0308124466
 30
0.0
 10
325.9900500447
 20
142.2878634787
 30
0.0
 10
328.5587992852
 20
140.124845318
 30
0.0
 10
330.9598464306
 20
137.5829072943
 30
0.0
 10
332.4001184136
 20
135.6926650654
 30
0.0
 10
333.0826470789
 20
134.6988777785
 30
0.0
  0
SPLINE
  5
44A
330
222
100
AcDbEntity
  8
0
  6
Continuous
 62
     7
100
AcDbSpline
 70
     0
 71
     3
 72
     9
 73
     5
 74
     0
 42
0.000000001
 43
0.0000001
 40
0.0
 40
0.0
 40
0.0
 40
0.0
 40
0.2471375714
 40
1.0
 40
1.0
 40
1.0
 40
1.0
 10
333.0826470789
 20
134.6988777785
 30
0.0
 10
333.4189461439
 20
134.2092137506
 30
0.0
 10
334.7313223768
 20
132.1949667357
 30
0.0
 10
335.8512506132
 20
130.0560970573
 30
0.0
 10
336.5803124335
 20
128.3998584493
 30
0.0
  0
LINE
  5
44B
330
222
100
AcDbEntity
  8
0
  6
Continuous
 62
     7
100
AcDbLine
 10
336.5803124335
 20
128.3998584493
 30
0.0
 11
336.6036242885
 21
128.3467953696
 31
0.0
  0
ELLIPSE
  5
44C
330
222
100
AcDbEntity
  8
7_ALL_FEATURES
  6
Continuous
 62
     7
100
AcDbEllipse
 10
72.6422386715
 20
220.0413707386
 30
0.0
 11
0.0
 21
-14.5
 31
0.0
210
0.0
220
0.0
230
1.0
 40
0.6206896552
 41
0.0
 42
6.283185307179586
  0
ELLIPSE
  5
44D
330
222
100
AcDbEntity
  8
7_ALL_FEATURES
  6
Continuous
 62
     7
100
AcDbEllipse
 10
319.7246464641
 20
119.7913582941
 30
0.0
 11
-1.6020816166
 21
13.7873553824
 31
0.0
210
0.0
220
0.0
230
1.0
 40
0.4647315543
 41
6.4399287229
 42
9.4932270232
  0
ELLIPSE
  5
44E
330
222
100
AcDbEntity
  8
7_ALL_FEATURES
  6
Continuous
 62
     7
100
AcDbEllipse
 10
319.1806002294
 20
119.5845804896
 30
0.0
 11
-1.6020816166
 21
13.7873553824
 31
0.0
210
0.0
220
0.0
230
1.0
 40
0.4647315543
 41
0.0
 42
6.283185307179586
  0
ENDSEC
  0
SECTION
  2
OBJECTS
  0
DICTIONARY
  5
C
330
0
100
AcDbDictionary
281
     1
  3
ACAD_GROUP
350
D
  3
ACAD_IMAGE_VARS
350
498
  3
ACAD_LAYOUT
350
1A
  3
ACAD_MLINESTYLE
350
17
  3
ACAD_PLOTSETTINGS
350
19
  3
ACAD_PLOTSTYLENAME
350
E
  3
ACAD_SCALELIST
350
454
  3
APPDATA
350
496
  3
DWGPROPS
350
4BF
  0
DICTIONARY
  5
D
102
{ACAD_REACTORS
330
C
102
}
330
C
100
AcDbDictionary
281
     1
  0
RASTERVARIABLES
  5
498
102
{ACAD_REACTORS
330
C
102
}
330
C
100
AcDbRasterVariables
 90
        0
 70
     1
 71
     1
 72
     1
  0
DICTIONARY
  5
1A
102
{ACAD_REACTORS
330
C
102
}
330
C
100
AcDbDictionary
281
     1
  3
Layout1
350
451
  3
Model
350
450
  0
DICTIONARY
  5
17
102
{ACAD_REACTORS
330
C
102
}
330
C
100
AcDbDictionary
281
     1
  3
Standard
350
18
  0
DICTIONARY
  5
19
102
{ACAD_REACTORS
330
C
102
}
330
C
100
AcDbDictionary
281
     1
  0
ACDBDICTIONARYWDFLT
  5
E
102
{ACAD_REACTORS
330
C
102
}
330
C
100
AcDbDictionary
281
     1
  3
Normal
350
F
100
AcDbDictionaryWithDefault
340
F
  0
DICTIONARY
  5
454
102
{ACAD_REACTORS
330
C
102
}
330
C
100
AcDbDictionary
281
     1
  3
A0
350
455
  3
A1
350
456
  3
A2
350
457
  3
A3
350
458
  3
A4
350
459
  3
A5
350
45A
  3
A6
350
45B
  3
A7
350
45C
  3
A8
350
45D
  3
A9
350
45E
  3
B0
350
45F
  3
B1
350
460
  3
B2
350
461
  3
B3
350
462
  3
B4
350
463
  3
B5
350
464
  3
B6
350
465
  3
B7
350
466
  3
B8
350
467
  3
B9
350
468
  3
C0
350
469
  3
C1
350
46A
  3
C2
350
46B
  3
C3
350
46C
  3
C4
350
46D
  3
C5
350
46E
  3
C6
350
46F
  3
C7
350
470
  3
C8
350
471
  3
C9
350
472
  3
D0
350
473
  3
D1
350
474
  3
D2
350
475
  0
DICTIONARY
  5
496
102
{ACAD_REACTORS
330
C
102
}
330
C
100
AcDbDictionary
281
     1
  0
XRECORD
  5
4BF
102
{ACAD_REACTORS
330
C
102
}
330
C
100
AcDbXrecord
280
     1
  1
DWGPROPS COOKIE
  2

  3

  4

  6

  7

  8
andrea.faggionato
  9

300
=
301
=
302
=
303
=
304
=
305
=
306
=
307
=
308
=
309
=
 40
0.0
 41
0.0
 42
2456744.558705197
  1

 90
        0
  0
LAYOUT
  5
451
102
{ACAD_REACTORS
330
1A
102
}
330
1A
100
AcDbPlotSettings
  1

  2
none_device
  4
ISO_A3_(420.00_x_297.00_MM)
  6

 40
0.0
 41
0.0
 42
0.0
 43
0.0
 44
420.0
 45
297.0
 46
0.0
 47
0.0
 48
0.0
 49
0.0
140
0.0
141
0.0
142
1.0
143
1.0
 70
     0
 72
     1
 73
     0
 74
     0
  7

 75
     0
147
1.0
148
0.0
149
0.0
100
AcDbLayout
  1
Layout1
 70
     0
 71
     1
 10
0.0
 20
0.0
 11
420.0
 21
297.0
 12
0.0
 22
0.0
 32
0.0
 14
0.0
 24
0.0
 34
0.0
 15
0.0
 25
0.0
 35
0.0
146
0.0
 13
0.0
 23
0.0
 33
0.0
 16
1.0
 26
0.0
 36
0.0
 17
0.0
 27
1.0
 37
0.0
 76
     0
330
223
  0
LAYOUT
  5
450
102
{ACAD_REACTORS
330
1A
102
}
330
1A
100
AcDbPlotSettings
  1

  2
none_device
  4
ISO_A3_(420.00_x_297.00_MM)
  6

 40
0.0
 41
0.0
 42
0.0
 43
0.0
 44
420.0
 45
297.0
 46
0.0
 47
0.0
 48
0.0
 49
0.0
140
0.0
141
0.0
142
1.0
143
1.0
 70
  1024
 72
     1
 73
     0
 74
     0
  7

 75
     0
147
1.0
148
0.0
149
0.0
100
AcDbLayout
  1
Model
 70
     0
 71
     0
 10
0.0
 20
0.0
 11
420.0
 21
297.0
 12
0.0
 22
0.0
 32
0.0
 14
0.0
 24
0.0
 34
0.0
 15
0.0
 25
0.0
 35
0.0
146
0.0
 13
0.0
 23
0.0
 33
0.0
 16
1.0
 26
0.0
 36
0.0
 17
0.0
 27
1.0
 37
0.0
 76
     0
330
222
331
1F4
  0
MLINESTYLE
  5
18
102
{ACAD_REACTORS
330
17
102
}
330
17
100
AcDbMlineStyle
  2
STANDARD
 70
     0
  3

 62
   256
 51
90.0
 52
90.0
 71
     2
 49
0.5
 62
   256
  6
BYLAYER
 49
-0.5
 62
   256
  6
BYLAYER
  0
ACDBPLACEHOLDER
  5
F
102
{ACAD_REACTORS
330
E
102
}
330
E
  0
SCALE
  5
455
102
{ACAD_REACTORS
330
454
102
}
330
454
100
AcDbScale
 70
     0
300
1:1
140
1.0
141
1.0
290
     1
  0
SCALE
  5
456
102
{ACAD_REACTORS
330
454
102
}
330
454
100
AcDbScale
 70
     0
300
1:2
140
1.0
141
2.0
290
     0
  0
SCALE
  5
457
102
{ACAD_REACTORS
330
454
102
}
330
454
100
AcDbScale
 70
     0
300
1:4
140
1.0
141
4.0
290
     0
  0
SCALE
  5
458
102
{ACAD_REACTORS
330
454
102
}
330
454
100
AcDbScale
 70
     0
300
1:5
140
1.0
141
5.0
290
     0
  0
SCALE
  5
459
102
{ACAD_REACTORS
330
454
102
}
330
454
100
AcDbScale
 70
     0
300
1:8
140
1.0
141
8.0
290
     0
  0
SCALE
  5
45A
102
{ACAD_REACTORS
330
454
102
}
330
454
100
AcDbScale
 70
     0
300
1:10
140
1.0
141
10.0
290
     0
  0
SCALE
  5
45B
102
{ACAD_REACTORS
330
454
102
}
330
454
100
AcDbScale
 70
     0
300
1:16
140
1.0
141
16.0
290
     0
  0
SCALE
  5
45C
102
{ACAD_REACTORS
330
454
102
}
330
454
100
AcDbScale
 70
     0
300
1:20
140
1.0
141
20.0
290
     0
  0
SCALE
  5
45D
102
{ACAD_REACTORS
330
454
102
}
330
454
100
AcDbScale
 70
     0
300
1:30
140
1.0
141
30.0
290
     0
  0
SCALE
  5
45E
102
{ACAD_REACTORS
330
454
102
}
330
454
100
AcDbScale
 70
     0
300
1:40
140
1.0
141
40.0
290
     0
  0
SCALE
  5
45F
102
{ACAD_REACTORS
330
454
102
}
330
454
100
AcDbScale
 70
     0
300
1:50
140
1.0
141
50.0
290
     0
  0
SCALE
  5
460
102
{ACAD_REACTORS
330
454
102
}
330
454
100
AcDbScale
 70
     0
300
1:100
140
1.0
141
100.0
290
     0
  0
SCALE
  5
461
102
{ACAD_REACTORS
330
454
102
}
330
454
100
AcDbScale
 70
     0
300
2:1
140
2.0
141
1.0
290
     0
  0
SCALE
  5
462
102
{ACAD_REACTORS
330
454
102
}
330
454
100
AcDbScale
 70
     0
300
4:1
140
4.0
141
1.0
290
     0
  0
SCALE
  5
463
102
{ACAD_REACTORS
330
454
102
}
330
454
100
AcDbScale
 70
     0
300
8:1
140
8.0
141
1.0
290
     0
  0
SCALE
  5
464
102
{ACAD_REACTORS
330
454
102
}
330
454
100
AcDbScale
 70
     0
300
10:1
140
10.0
141
1.0
290
     0
  0
SCALE
  5
465
102
{ACAD_REACTORS
330
454
102
}
330
454
100
AcDbScale
 70
     0
300
100:1
140
100.0
141
1.0
290
     0
  0
SCALE
  5
466
102
{ACAD_REACTORS
330
454
102
}
330
454
100
AcDbScale
 70
     0
300
1/128" = 1'-0"
140
0.0078125
141
12.0
290
     0
  0
SCALE
  5
467
102
{ACAD_REACTORS
330
454
102
}
330
454
100
AcDbScale
 70
     0
300
1/64" = 1'-0"
140
0.015625
141
12.0
290
     0
  0
SCALE
  5
468
102
{ACAD_REACTORS
330
454
102
}
330
454
100
AcDbScale
 70
     0
300
1/32" = 1'-0"
140
0.03125
141
12.0
290
     0
  0
SCALE
  5
469
102
{ACAD_REACTORS
330
454
102
}
330
454
100
AcDbScale
 70
     0
300
1/16" = 1'-0"
140
0.0625
141
12.0
290
     0
  0
SCALE
  5
46A
102
{ACAD_REACTORS
330
454
102
}
330
454
100
AcDbScale
 70
     0
300
3/32" = 1'-0"
140
0.09375
141
12.0
290
     0
  0
SCALE
  5
46B
102
{ACAD_REACTORS
330
454
102
}
330
454
100
AcDbScale
 70
     0
300
1/8" = 1'-0"
140
0.125
141
12.0
290
     0
  0
SCALE
  5
46C
102
{ACAD_REACTORS
330
454
102
}
330
454
100
AcDbScale
 70
     0
300
3/16" = 1'-0"
140
0.1875
141
12.0
290
     0
  0
SCALE
  5
46D
102
{ACAD_REACTORS
330
454
102
}
330
454
100
AcDbScale
 70
     0
300
1/4" = 1'-0"
140
0.25
141
12.0
290
     0
  0
SCALE
  5
46E
102
{ACAD_REACTORS
330
454
102
}
330
454
100
AcDbScale
 70
     0
300
3/8" = 1'-0"
140
0.375
141
12.0
290
     0
  0
SCALE
  5
46F
102
{ACAD_REACTORS
330
454
102
}
330
454
100
AcDbScale
 70
     0
300
1/2" = 1'-0"
140
0.5
141
12.0
290
     0
  0
SCALE
  5
470
102
{ACAD_REACTORS
330
454
102
}
330
454
100
AcDbScale
 70
     0
300
3/4" = 1'-0"
140
0.75
141
12.0
290
     0
  0
SCALE
  5
471
102
{ACAD_REACTORS
330
454
102
}
330
454
100
AcDbScale
 70
     0
300
1" = 1'-0"
140
1.0
141
12.0
290
     0
  0
SCALE
  5
472
102
{ACAD_REACTORS
330
454
102
}
330
454
100
AcDbScale
 70
     0
300
1-1/2" = 1'-0"
140
1.5
141
12.0
290
     0
  0
SCALE
  5
473
102
{ACAD_REACTORS
330
454
102
}
330
454
100
AcDbScale
 70
     0
300
3" = 1'-0"
140
3.0
141
12.0
290
     0
  0
SCALE
  5
474
102
{ACAD_REACTORS
330
454
102
}
330
454
100
AcDbScale
 70
     0
300
6" = 1'-0"
140
6.0
141
12.0
290
     0
  0
SCALE
  5
475
102
{ACAD_REACTORS
330
454
102
}
330
454
100
AcDbScale
 70
     0
300
1'-0" = 1'-0"
140
12.0
141
12.0
290
     0
  0
ENDSEC
  0
EOF
