  0
SECTION
  2
HEADER
  9
$ACADVER
  1
AC1027
  9
$ACADMAINTVER
 70
   105
  9
$DWGCODEPAGE
  3
ANSI_1252
  9
$REQUIREDVERSIONS
160
                 0
  9
$LASTSAVEDBY
  1
andrea.zolin
  9
$INSBASE
 10
0.0
 20
0.0
 30
0.0
  9
$EXTMIN
 10
0.0
 20
0.0
 30
0.0
  9
$EXTMAX
 10
420.0
 20
297.0
 30
0.0
  9
$LIMMIN
 10
0.0
 20
0.0
  9
$LIMMAX
 10
420.0
 20
297.0
  9
$ORTHOMODE
 70
     0
  9
$REGENMODE
 70
     1
  9
$FILLMODE
 70
     1
  9
$QTEXTMODE
 70
     0
  9
$MIRRTEXT
 70
     1
  9
$LTSCALE
 40
23.1
  9
$ATTMODE
 70
     1
  9
$TEXTSIZE
 40
0.2
  9
$TRACEWID
 40
0.05
  9
$TEXTSTYLE
  7
STANDARD
  9
$CLAYER
  8
0
  9
$CELTYPE
  6
BYLAYER
  9
$CECOLOR
 62
   256
  9
$CELTSCALE
 40
1.0
  9
$DISPSILH
 70
     0
  9
$DIMSCALE
 40
1.0
  9
$DIMASZ
 40
2.5
  9
$DIMEXO
 40
0.75
  9
$DIMDLI
 40
15.96
  9
$DIMRND
 40
0.0
  9
$DIMDLE
 40
0.0
  9
$DIMEXE
 40
0.75
  9
$DIMTP
 40
0.01
  9
$DIMTM
 40
0.01
  9
$DIMTXT
 40
3.0
  9
$DIMCEN
 40
3.78
  9
$DIMTSZ
 40
0.0
  9
$DIMTOL
 70
     1
  9
$DIMLIM
 70
     0
  9
$DIMTIH
 70
     1
  9
$DIMTOH
 70
     1
  9
$DIMSE1
 70
     0
  9
$DIMSE2
 70
     0
  9
$DIMTAD
 70
     0
  9
$DIMZIN
 70
     0
  9
$DIMBLK
  1
CLOSED
  9
$DIMASO
 70
     1
  9
$DIMSHO
 70
     1
  9
$DIMPOST
  1

  9
$DIMAPOST
  1

  9
$DIMALT
 70
     0
  9
$DIMALTD
 70
     2
  9
$DIMALTF
 40
25.4
  9
$DIMLFAC
 40
1.0
  9
$DIMTOFL
 70
     0
  9
$DIMTVP
 40
0.0
  9
$DIMTIX
 70
     0
  9
$DIMSOXD
 70
     0
  9
$DIMSAH
 70
     0
  9
$DIMBLK1
  1

  9
$DIMBLK2
  1

  9
$DIMSTYLE
  2
STANDARD
  9
$DIMCLRD
 70
     0
  9
$DIMCLRE
 70
     0
  9
$DIMCLRT
 70
     0
  9
$DIMTFAC
 40
1.0
  9
$DIMGAP
 40
0.625
  9
$DIMJUST
 70
     0
  9
$DIMSD1
 70
     0
  9
$DIMSD2
 70
     0
  9
$DIMTOLJ
 70
     1
  9
$DIMTZIN
 70
     0
  9
$DIMALTZ
 70
     0
  9
$DIMALTTZ
 70
     0
  9
$DIMUPT
 70
     0
  9
$DIMDEC
 70
     4
  9
$DIMTDEC
 70
     4
  9
$DIMALTU
 70
     2
  9
$DIMALTTD
 70
     2
  9
$DIMTXSTY
  7
STANDARD
  9
$DIMAUNIT
 70
     0
  9
$DIMADEC
 70
     0
  9
$DIMALTRND
 40
0.0
  9
$DIMAZIN
 70
     0
  9
$DIMDSEP
 70
    44
  9
$DIMATFIT
 70
     3
  9
$DIMFRAC
 70
     0
  9
$DIMLDRBLK
  1

  9
$DIMLUNIT
 70
     2
  9
$DIMLWD
 70
    -2
  9
$DIMLWE
 70
    -2
  9
$DIMTMOVE
 70
     0
  9
$DIMFXL
 40
1.0
  9
$DIMFXLON
 70
     0
  9
$DIMJOGANG
 40
0.7853981633974483
  9
$DIMTFILL
 70
     0
  9
$DIMTFILLCLR
 70
     0
  9
$DIMARCSYM
 70
     0
  9
$DIMLTYPE
  6

  9
$DIMLTEX1
  6

  9
$DIMLTEX2
  6

  9
$DIMTXTDIRECTION
 70
     0
  9
$LUNITS
 70
     2
  9
$LUPREC
 70
     4
  9
$SKETCHINC
 40
0.1
  9
$FILLETRAD
 40
0.5
  9
$AUNITS
 70
     0
  9
$AUPREC
 70
     0
  9
$MENU
  1
.
  9
$ELEVATION
 40
0.0
  9
$PELEVATION
 40
0.0
  9
$THICKNESS
 40
0.0
  9
$LIMCHECK
 70
     0
  9
$CHAMFERA
 40
0.0
  9
$CHAMFERB
 40
0.0
  9
$CHAMFERC
 40
0.0
  9
$CHAMFERD
 40
0.0
  9
$SKPOLY
 70
     0
  9
$TDCREATE
 40
2447893.083333333
  9
$TDUCREATE
 40
0.0
  9
$TDUPDATE
 40
2458603.432069618
  9
$TDUUPDATE
 40
2458603.348736285
  9
$TDINDWG
 40
0.0003169444
  9
$TDUSRTIMER
 40
0.0003169444
  9
$USRTIMER
 70
     1
  9
$ANGBASE
 50
0.0
  9
$ANGDIR
 70
     0
  9
$PDMODE
 70
     3
  9
$PDSIZE
 40
0.3125
  9
$PLINEWID
 40
0.0
  9
$SPLFRAME
 70
     0
  9
$SPLINETYPE
 70
     6
  9
$SPLINESEGS
 70
     8
  9
$HANDSEED
  5
527
  9
$SURFTAB1
 70
     6
  9
$SURFTAB2
 70
     6
  9
$SURFTYPE
 70
     6
  9
$SURFU
 70
     6
  9
$SURFV
 70
     6
  9
$UCSBASE
  2

  9
$UCSNAME
  2

  9
$UCSORG
 10
0.0
 20
0.0
 30
0.0
  9
$UCSXDIR
 10
1.0
 20
0.0
 30
0.0
  9
$UCSYDIR
 10
0.0
 20
1.0
 30
0.0
  9
$UCSORTHOREF
  2

  9
$UCSORTHOVIEW
 70
     0
  9
$UCSORGTOP
 10
0.0
 20
0.0
 30
0.0
  9
$UCSORGBOTTOM
 10
0.0
 20
0.0
 30
0.0
  9
$UCSORGLEFT
 10
0.0
 20
0.0
 30
0.0
  9
$UCSORGRIGHT
 10
0.0
 20
0.0
 30
0.0
  9
$UCSORGFRONT
 10
0.0
 20
0.0
 30
0.0
  9
$UCSORGBACK
 10
0.0
 20
0.0
 30
0.0
  9
$PUCSBASE
  2

  9
$PUCSNAME
  2

  9
$PUCSORG
 10
0.0
 20
0.0
 30
0.0
  9
$PUCSXDIR
 10
1.0
 20
0.0
 30
0.0
  9
$PUCSYDIR
 10
0.0
 20
1.0
 30
0.0
  9
$PUCSORTHOREF
  2

  9
$PUCSORTHOVIEW
 70
     0
  9
$PUCSORGTOP
 10
0.0
 20
0.0
 30
0.0
  9
$PUCSORGBOTTOM
 10
0.0
 20
0.0
 30
0.0
  9
$PUCSORGLEFT
 10
0.0
 20
0.0
 30
0.0
  9
$PUCSORGRIGHT
 10
0.0
 20
0.0
 30
0.0
  9
$PUCSORGFRONT
 10
0.0
 20
0.0
 30
0.0
  9
$PUCSORGBACK
 10
0.0
 20
0.0
 30
0.0
  9
$USERI1
 70
     0
  9
$USERI2
 70
     0
  9
$USERI3
 70
     0
  9
$USERI4
 70
     0
  9
$USERI5
 70
     0
  9
$USERR1
 40
0.0
  9
$USERR2
 40
0.0
  9
$USERR3
 40
0.0
  9
$USERR4
 40
0.0
  9
$USERR5
 40
0.0
  9
$WORLDVIEW
 70
     1
  9
$SHADEDGE
 70
     3
  9
$SHADEDIF
 70
    70
  9
$TILEMODE
 70
     0
  9
$MAXACTVP
 70
    64
  9
$PINSBASE
 10
0.0
 20
0.0
 30
0.0
  9
$PLIMCHECK
 70
     0
  9
$PEXTMIN
 10
0.0
 20
0.0
 30
0.0
  9
$PEXTMAX
 10
420.0
 20
297.0
 30
0.0
  9
$PLIMMIN
 10
0.0
 20
0.0
  9
$PLIMMAX
 10
420.0
 20
297.0
  9
$UNITMODE
 70
     0
  9
$VISRETAIN
 70
     1
  9
$PLINEGEN
 70
     0
  9
$PSLTSCALE
 70
     1
  9
$TREEDEPTH
 70
  3020
  9
$CMLSTYLE
  2
Standard
  9
$CMLJUST
 70
     0
  9
$CMLSCALE
 40
1.0
  9
$PROXYGRAPHICS
 70
     1
  9
$MEASUREMENT
 70
     1
  9
$CELWEIGHT
370
    -1
  9
$ENDCAPS
280
     0
  9
$JOINSTYLE
280
     0
  9
$LWDISPLAY
290
     0
  9
$INSUNITS
 70
     4
  9
$HYPERLINKBASE
  1

  9
$STYLESHEET
  1

  9
$XEDIT
290
     1
  9
$CEPSNTYPE
380
     0
  9
$PSTYLEMODE
290
     1
  9
$FINGERPRINTGUID
  2
{818F65CC-3FC7-48EA-A2B1-337220F6E8DC}
  9
$VERSIONGUID
  2
{FAEB1C32-E019-11D5-929B-00C0DF256EC4}
  9
$EXTNAMES
290
     1
  9
$PSVPSCALE
 40
0.0
  9
$OLESTARTUP
290
     0
  9
$SORTENTS
280
   127
  9
$INDEXCTL
280
     0
  9
$HIDETEXT
280
     1
  9
$XCLIPFRAME
280
     2
  9
$HALOGAP
280
     0
  9
$OBSCOLOR
 70
   257
  9
$OBSLTYPE
280
     0
  9
$INTERSECTIONDISPLAY
280
     0
  9
$INTERSECTIONCOLOR
 70
   257
  9
$DIMASSOC
280
     2
  9
$PROJECTNAME
  1

  9
$CAMERADISPLAY
290
     0
  9
$LENSLENGTH
 40
50.0
  9
$CAMERAHEIGHT
 40
0.0
  9
$STEPSPERSEC
 40
2.0
  9
$STEPSIZE
 40
6.0
  9
$3DDWFPREC
 40
2.0
  9
$PSOLWIDTH
 40
0.25
  9
$PSOLHEIGHT
 40
4.0
  9
$LOFTANG1
 40
1.570796326794897
  9
$LOFTANG2
 40
1.570796326794897
  9
$LOFTMAG1
 40
0.0
  9
$LOFTMAG2
 40
0.0
  9
$LOFTPARAM
 70
     7
  9
$LOFTNORMALS
280
     1
  9
$LATITUDE
 40
37.795
  9
$LONGITUDE
 40
-122.394
  9
$NORTHDIRECTION
 40
0.0
  9
$TIMEZONE
 70
 -8000
  9
$LIGHTGLYPHDISPLAY
280
     1
  9
$TILEMODELIGHTSYNCH
280
     1
  9
$SOLIDHIST
280
     0
  9
$SHOWHIST
280
     1
  9
$DWFFRAME
280
     2
  9
$DGNFRAME
280
     2
  9
$REALWORLDSCALE
290
     1
  9
$INTERFERECOLOR
 62
   256
  9
$CSHADOW
280
     0
  9
$SHADOWPLANELOCATION
 40
0.0
  0
ENDSEC
  0
SECTION
  2
CLASSES
  0
CLASS
  1
ACDBDICTIONARYWDFLT
  2
AcDbDictionaryWithDefault
  3
ObjectDBX Classes
 90
        0
 91
        4
280
     0
281
     0
  0
CLASS
  1
ACDBPLACEHOLDER
  2
AcDbPlaceHolder
  3
ObjectDBX Classes
 90
        0
 91
        1
280
     0
281
     0
  0
CLASS
  1
LAYOUT
  2
AcDbLayout
  3
ObjectDBX Classes
 90
        0
 91
        1
280
     0
281
     0
  0
CLASS
  1
TABLESTYLE
  2
AcDbTableStyle
  3
ObjectDBX Classes
 90
     4095
 91
        4
280
     0
281
     0
  0
CLASS
  1
ACAD_TABLE
  2
AcDbTable
  3
ObjectDBX Classes
 90
     1025
 91
        4
280
     0
281
     1
  0
CLASS
  1
SCALE
  2
AcDbScale
  3
ObjectDBX Classes
 90
     1153
 91
        4
280
     0
281
     0
  0
CLASS
  1
VISUALSTYLE
  2
AcDbVisualStyle
  3
ObjectDBX Classes
 90
     4095
 91
        4
280
     0
281
     0
  0
CLASS
  1
TABLEGEOMETRY
  2
AcDbTableGeometry
  3
ObjectDBX Classes
 90
     1152
 91
        4
280
     0
281
     0
  0
CLASS
  1
MATERIAL
  2
AcDbMaterial
  3
ObjectDBX Classes
 90
     1153
 91
        4
280
     0
281
     0
  0
CLASS
  1
MLEADERSTYLE
  2
AcDbMLeaderStyle
  3
ACDB_MLEADERSTYLE_CLASS
 90
     4095
 91
        4
280
     0
281
     0
  0
CLASS
  1
SUN
  2
AcDbSun
  3
SCENEOE
 90
     1153
 91
        4
280
     0
281
     0
  0
CLASS
  1
DICTIONARYVAR
  2
AcDbDictionaryVar
  3
ObjectDBX Classes
 90
        0
 91
        4
280
     0
281
     0
  0
CLASS
  1
CELLSTYLEMAP
  2
AcDbCellStyleMap
  3
ObjectDBX Classes
 90
     1152
 91
        4
280
     0
281
     0
  0
ENDSEC
  0
SECTION
  2
TABLES
  0
TABLE
  2
VPORT
  5
8
330
0
100
AcDbSymbolTable
 70
     1
  0
VPORT
  5
1F4
330
8
100
AcDbSymbolTableRecord
100
AcDbViewportTableRecord
  2
*ACTIVE
 70
     0
 10
0.0
 20
0.0
 11
1.0
 21
1.0
 12
210.0
 22
148.5
 13
0.0
 23
0.0
 14
1.0
 24
1.0
 15
0.0
 25
0.0
 16
0.0
 26
0.0
 36
1.0
 17
0.0
 27
0.0
 37
0.0
 40
297.0
 41
1.4141414141
 42
50.0
 43
0.0
 44
0.0
 50
0.0
 51
0.0
 71
     0
 72
   100
 73
     1
 74
     1
 75
     0
 76
     0
 77
     0
 78
     0
281
     0
 65
     1
110
0.0
120
0.0
130
0.0
111
1.0
121
0.0
131
0.0
112
0.0
122
1.0
132
0.0
 79
     0
146
0.0
348
4FF
 60
     3
 61
     5
292
     1
282
     1
141
0.0
142
0.0
 63
   256
  0
ENDTAB
  0
TABLE
  2
LTYPE
  5
5
330
0
100
AcDbSymbolTable
 70
     6
  0
LTYPE
  5
14
330
5
100
AcDbSymbolTableRecord
100
AcDbLinetypeTableRecord
  2
BYBLOCK
 70
     0
  3

 72
    65
 73
     0
 40
0.0
  0
LTYPE
  5
15
330
5
100
AcDbSymbolTableRecord
100
AcDbLinetypeTableRecord
  2
BYLAYER
 70
     0
  3

 72
    65
 73
     0
 40
0.0
  0
LTYPE
  5
16
330
5
100
AcDbSymbolTableRecord
100
AcDbLinetypeTableRecord
  2
CONTINUOUS
 70
     0
  3
Solid line
 72
    65
 73
     0
 40
0.0
  0
LTYPE
  5
1F5
330
5
100
AcDbSymbolTableRecord
100
AcDbLinetypeTableRecord
  2
CENTER
 70
     0
  3
____ _ ____ _ ____ _ ____ _ ____ _ ____ _ ____
 72
    65
 73
     4
 40
0.6
 49
0.375
 74
     0
 49
-0.075
 74
     0
 49
0.075
 74
     0
 49
-0.075
 74
     0
  0
LTYPE
  5
1F6
330
5
100
AcDbSymbolTableRecord
100
AcDbLinetypeTableRecord
  2
HIDDEN
 70
     0
  3
- - - - - - - - - - - - - - - - - - - -
 72
    65
 73
     2
 40
0.2
 49
0.1
 74
     0
 49
-0.1
 74
     0
  0
LTYPE
  5
1F7
330
5
100
AcDbSymbolTableRecord
100
AcDbLinetypeTableRecord
  2
PHANTOM
 70
     0
  3
_____ _ _ _____ _ _ _____ _ _ _____
 72
    65
 73
     6
 40
0.8
 49
0.45
 74
     0
 49
-0.05
 74
     0
 49
0.1
 74
     0
 49
-0.05
 74
     0
 49
0.1
 74
     0
 49
-0.05
 74
     0
  0
LTYPE
  5
1F8
330
5
100
AcDbSymbolTableRecord
100
AcDbLinetypeTableRecord
  2
DOT
 70
     0
  3
. . . . . . . . . . . . . . . . . . . .
 72
    65
 73
     2
 40
0.2
 49
0.1
 74
     0
 49
-0.1
 74
     0
  0
LTYPE
  5
1F9
330
5
100
AcDbSymbolTableRecord
100
AcDbLinetypeTableRecord
  2
DASHED
 70
     0
  3
- - - - - - - - - - - - - - - - - - - -
 72
    65
 73
     2
 40
0.2
 49
0.1
 74
     0
 49
-0.1
 74
     0
  0
ENDTAB
  0
TABLE
  2
LAYER
  5
2
330
0
100
AcDbSymbolTable
 70
    38
  0
LAYER
  5
10
330
2
100
AcDbSymbolTableRecord
100
AcDbLayerTableRecord
  2
0
 70
     0
 62
     7
  6
CONTINUOUS
370
    -3
390
F
347
517
348
0
  0
LAYER
  5
1FA
330
2
100
AcDbSymbolTableRecord
100
AcDbLayerTableRecord
  2
DEFAULT_1
 70
     0
 62
     7
  6
CENTER
370
    -3
390
F
347
517
348
0
  0
LAYER
  5
1FB
330
2
100
AcDbSymbolTableRecord
100
AcDbLayerTableRecord
  2
DEFAULT_2
 70
     0
 62
     8
  6
HIDDEN
370
    -3
390
F
347
517
348
0
  0
LAYER
  5
1FC
330
2
100
AcDbSymbolTableRecord
100
AcDbLayerTableRecord
  2
DEFAULT_3
 70
     0
 62
     7
  6
PHANTOM
370
    -3
390
F
347
517
348
0
  0
LAYER
  5
1FD
330
2
100
AcDbSymbolTableRecord
100
AcDbLayerTableRecord
  2
01_ALL_DTM_PLN
 70
     0
 62
     7
  6
CONTINUOUS
370
    -3
390
F
347
517
348
0
  0
LAYER
  5
1FE
330
2
100
AcDbSymbolTableRecord
100
AcDbLayerTableRecord
  2
01__ASM_ALL_DTM_PLN
 70
     0
 62
     7
  6
CONTINUOUS
370
    -3
390
F
347
517
348
0
  0
LAYER
  5
1FF
330
2
100
AcDbSymbolTableRecord
100
AcDbLayerTableRecord
  2
01__ASM_DEF_DTM_PLN
 70
     0
 62
     7
  6
CONTINUOUS
370
    -3
390
F
347
517
348
0
  0
LAYER
  5
200
330
2
100
AcDbSymbolTableRecord
100
AcDbLayerTableRecord
  2
01___PRT_ALL_DTM_PLN
 70
     0
 62
     7
  6
CONTINUOUS
370
    -3
390
F
347
517
348
0
  0
LAYER
  5
201
330
2
100
AcDbSymbolTableRecord
100
AcDbLayerTableRecord
  2
01___PRT_DEF_DTM_PLN
 70
     0
 62
     7
  6
CONTINUOUS
370
    -3
390
F
347
517
348
0
  0
LAYER
  5
202
330
2
100
AcDbSymbolTableRecord
100
AcDbLayerTableRecord
  2
02_ALL_AXES
 70
     0
 62
     7
  6
CONTINUOUS
370
    -3
390
F
347
517
348
0
  0
LAYER
  5
203
330
2
100
AcDbSymbolTableRecord
100
AcDbLayerTableRecord
  2
02__ASM_ALL_AXES
 70
     0
 62
     7
  6
CONTINUOUS
370
    -3
390
F
347
517
348
0
  0
LAYER
  5
204
330
2
100
AcDbSymbolTableRecord
100
AcDbLayerTableRecord
  2
02___PRT_ALL_AXES
 70
     0
 62
     7
  6
CONTINUOUS
370
    -3
390
F
347
517
348
0
  0
LAYER
  5
205
330
2
100
AcDbSymbolTableRecord
100
AcDbLayerTableRecord
  2
03_ALL_CURVES
 70
     0
 62
     7
  6
CONTINUOUS
370
    -3
390
F
347
517
348
0
  0
LAYER
  5
206
330
2
100
AcDbSymbolTableRecord
100
AcDbLayerTableRecord
  2
03__ASM_ALL_CURVES
 70
     0
 62
     7
  6
CONTINUOUS
370
    -3
390
F
347
517
348
0
  0
LAYER
  5
207
330
2
100
AcDbSymbolTableRecord
100
AcDbLayerTableRecord
  2
03___PRT_ALL_CURVES
 70
     0
 62
     7
  6
CONTINUOUS
370
    -3
390
F
347
517
348
0
  0
LAYER
  5
208
330
2
100
AcDbSymbolTableRecord
100
AcDbLayerTableRecord
  2
04_ALL_DTM_PNT
 70
     0
 62
     7
  6
CONTINUOUS
370
    -3
390
F
347
517
348
0
  0
LAYER
  5
209
330
2
100
AcDbSymbolTableRecord
100
AcDbLayerTableRecord
  2
04__ASM_ALL_DTM_PNT
 70
     0
 62
     7
  6
CONTINUOUS
370
    -3
390
F
347
517
348
0
  0
LAYER
  5
20A
330
2
100
AcDbSymbolTableRecord
100
AcDbLayerTableRecord
  2
04___PRT_ALL_DTM_PNT
 70
     0
 62
     7
  6
CONTINUOUS
370
    -3
390
F
347
517
348
0
  0
LAYER
  5
20B
330
2
100
AcDbSymbolTableRecord
100
AcDbLayerTableRecord
  2
05_ALL_DTM_CSYS
 70
     0
 62
     7
  6
CONTINUOUS
370
    -3
390
F
347
517
348
0
  0
LAYER
  5
20C
330
2
100
AcDbSymbolTableRecord
100
AcDbLayerTableRecord
  2
05__ASM_ALL_DTM_CSYS
 70
     0
 62
     7
  6
CONTINUOUS
370
    -3
390
F
347
517
348
0
  0
LAYER
  5
20D
330
2
100
AcDbSymbolTableRecord
100
AcDbLayerTableRecord
  2
05__ASM_DEF_DTM_CSYS
 70
     0
 62
     7
  6
CONTINUOUS
370
    -3
390
F
347
517
348
0
  0
LAYER
  5
20E
330
2
100
AcDbSymbolTableRecord
100
AcDbLayerTableRecord
  2
05___PRT_ALL_DTM_CSYS
 70
     0
 62
     7
  6
CONTINUOUS
370
    -3
390
F
347
517
348
0
  0
LAYER
  5
20F
330
2
100
AcDbSymbolTableRecord
100
AcDbLayerTableRecord
  2
05___PRT_DEF_DTM_CSYS
 70
     0
 62
     7
  6
CONTINUOUS
370
    -3
390
F
347
517
348
0
  0
LAYER
  5
210
330
2
100
AcDbSymbolTableRecord
100
AcDbLayerTableRecord
  2
06_ALL_SURFS
 70
     0
 62
     7
  6
CONTINUOUS
370
    -3
390
F
347
517
348
0
  0
LAYER
  5
211
330
2
100
AcDbSymbolTableRecord
100
AcDbLayerTableRecord
  2
06__ASM_ALL_SURFS
 70
     0
 62
     7
  6
CONTINUOUS
370
    -3
390
F
347
517
348
0
  0
LAYER
  5
212
330
2
100
AcDbSymbolTableRecord
100
AcDbLayerTableRecord
  2
06___PRT_ALL_SURFS
 70
     0
 62
     7
  6
CONTINUOUS
370
    -3
390
F
347
517
348
0
  0
LAYER
  5
213
330
2
100
AcDbSymbolTableRecord
100
AcDbLayerTableRecord
  2
07__ASM_ALL_SKELETONS
 70
     0
 62
     7
  6
CONTINUOUS
370
    -3
390
F
347
517
348
0
  0
LAYER
  5
214
330
2
100
AcDbSymbolTableRecord
100
AcDbLayerTableRecord
  2
1_ALL_PLANES
 70
     0
 62
     7
  6
CONTINUOUS
370
    -3
390
F
347
517
348
0
  0
LAYER
  5
215
330
2
100
AcDbSymbolTableRecord
100
AcDbLayerTableRecord
  2
2_ALL_CSYS
 70
     0
 62
     7
  6
CONTINUOUS
370
    -3
390
F
347
517
348
0
  0
LAYER
  5
216
330
2
100
AcDbSymbolTableRecord
100
AcDbLayerTableRecord
  2
3_ALL_AXES
 70
     0
 62
     7
  6
CONTINUOUS
370
    -3
390
F
347
517
348
0
  0
LAYER
  5
217
330
2
100
AcDbSymbolTableRecord
100
AcDbLayerTableRecord
  2
4_ALL_POINTS
 70
     0
 62
     7
  6
CONTINUOUS
370
    -3
390
F
347
517
348
0
  0
LAYER
  5
218
330
2
100
AcDbSymbolTableRecord
100
AcDbLayerTableRecord
  2
5_ALL_CURVES
 70
     0
 62
     7
  6
CONTINUOUS
370
    -3
390
F
347
517
348
0
  0
LAYER
  5
219
330
2
100
AcDbSymbolTableRecord
100
AcDbLayerTableRecord
  2
5__COSTRUZIONE
 70
     0
 62
     7
  6
CONTINUOUS
370
    -3
390
F
347
517
348
0
  0
LAYER
  5
21A
330
2
100
AcDbSymbolTableRecord
100
AcDbLayerTableRecord
  2
6_ALL_SURFS
 70
     0
 62
     7
  6
CONTINUOUS
370
    -3
390
F
347
517
348
0
  0
LAYER
  5
21B
330
2
100
AcDbSymbolTableRecord
100
AcDbLayerTableRecord
  2
7_ALL_FEATURES
 70
     0
 62
     7
  6
CONTINUOUS
370
    -3
390
F
347
517
348
0
  0
LAYER
  5
21C
330
2
100
AcDbSymbolTableRecord
100
AcDbLayerTableRecord
  2
9_SOLID
 70
     0
 62
     7
  6
CONTINUOUS
370
    -3
390
F
347
517
348
0
  0
LAYER
  5
21D
330
2
100
AcDbSymbolTableRecord
100
AcDbLayerTableRecord
  2
CLOSED_SHELL
 70
     0
 62
     7
  6
CONTINUOUS
370
    -3
390
F
347
517
348
0
  0
LAYER
  5
21E
330
2
100
AcDbSymbolTableRecord
100
AcDbLayerTableRecord
  2
XXX_SOLIDO
 70
     0
 62
     7
  6
CONTINUOUS
370
    -3
390
F
347
517
348
0
  0
ENDTAB
  0
TABLE
  2
STYLE
  5
3
330
0
100
AcDbSymbolTable
 70
     5
  0
STYLE
  5
11
330
3
100
AcDbSymbolTableRecord
100
AcDbTextStyleTableRecord
  2
STANDARD
 70
     0
 40
0.0
 41
1.0
 50
0.0
 71
     0
 42
0.2
  3
arial.ttf
  4

  0
STYLE
  5
21F
330
3
100
AcDbSymbolTableRecord
100
AcDbTextStyleTableRecord
  2
TEXTSTYLE_1
 70
     0
 40
0.0
 41
0.8
 50
0.0
 71
     0
 42
0.2
  3
gdt
  4

  0
STYLE
  5
220
330
3
100
AcDbSymbolTableRecord
100
AcDbTextStyleTableRecord
  2
TEXTSTYLE_2
 70
     0
 40
0.0
 41
0.85
 50
0.0
 71
     0
 42
0.2
  3
gdt
  4

  0
STYLE
  5
221
330
3
100
AcDbSymbolTableRecord
100
AcDbTextStyleTableRecord
  2
TEXTSTYLE_3
 70
     0
 40
0.0
 41
2.0
 50
0.0
 71
     0
 42
0.2
  3
txt
  4

  0
STYLE
  5
222
330
3
100
AcDbSymbolTableRecord
100
AcDbTextStyleTableRecord
  2
TEXTSTYLE_4
 70
     0
 40
0.0
 41
0.85
 50
0.0
 71
     0
 42
0.2
  3
txt
  4

  0
ENDTAB
  0
TABLE
  2
VIEW
  5
6
330
0
100
AcDbSymbolTable
 70
     0
  0
ENDTAB
  0
TABLE
  2
UCS
  5
7
330
0
100
AcDbSymbolTable
 70
     0
  0
ENDTAB
  0
TABLE
  2
APPID
  5
9
330
0
100
AcDbSymbolTable
 70
     1
  0
APPID
  5
223
330
9
100
AcDbSymbolTableRecord
100
AcDbRegAppTableRecord
  2
ACAD
 70
     0
  0
ENDTAB
  0
TABLE
  2
DIMSTYLE
  5
A
330
0
100
AcDbSymbolTable
 70
     3
100
AcDbDimStyleTable
  0
DIMSTYLE
105
22F
330
A
100
AcDbSymbolTableRecord
100
AcDbDimStyleTableRecord
  2
STANDARD
 70
     0
 41
2.5
 42
0.75
 44
0.75
 47
0.01
 48
0.01
 71
     1
 73
     0
 74
     0
 77
     1
 78
     8
 79
     2
140
3.0
147
0.625
171
     1
178
     0
179
     2
271
     2
272
     2
278
    44
284
     8
340
11
341
226
342
226
343
226
344
226
  0
DIMSTYLE
105
230
330
A
100
AcDbSymbolTableRecord
100
AcDbDimStyleTableRecord
  2
DIMSTYLE_1
 70
     0
 41
2.5
 42
0.75
 44
0.75
 47
0.5
 48
0.5
 73
     0
 74
     0
 77
     1
 78
     8
 79
     2
140
3.0
147
0.75
171
     1
178
     0
179
     2
271
     2
272
     2
278
    44
284
     8
340
11
341
226
342
226
343
226
344
226
  0
DIMSTYLE
105
231
330
A
100
AcDbSymbolTableRecord
100
AcDbDimStyleTableRecord
  2
DIMSTYLE_2
 70
     0
 41
2.5
 42
0.75
 44
0.75
 47
0.3
 48
0.3
 73
     0
 74
     0
 77
     1
 78
     8
 79
     2
140
3.0
147
0.75
171
     1
178
     0
179
     2
271
     2
272
     2
278
    44
284
     8
340
11
341
226
342
226
343
226
344
226
  0
ENDTAB
  0
TABLE
  2
BLOCK_RECORD
  5
1
330
0
100
AcDbSymbolTable
 70
     9
  0
BLOCK_RECORD
  5
224
330
1
100
AcDbSymbolTableRecord
100
AcDbBlockTableRecord
  2
*Model_Space
340
4D4
 70
     0
280
     1
281
     0
  0
BLOCK_RECORD
  5
225
330
1
100
AcDbSymbolTableRecord
100
AcDbBlockTableRecord
  2
*Paper_Space
340
4D5
 70
     0
280
     1
281
     0
  0
BLOCK_RECORD
  5
226
330
1
100
AcDbSymbolTableRecord
100
AcDbBlockTableRecord
  2
_CLOSED
340
0
102
{BLKREFS
331
284
331
285
331
28D
331
28E
331
296
331
297
331
29F
331
2A0
331
2A8
331
2A9
102
}
 70
     0
280
     1
281
     0
  0
BLOCK_RECORD
  5
227
330
1
100
AcDbSymbolTableRecord
100
AcDbBlockTableRecord
  2
*D1
340
0
 70
     0
280
     1
281
     0
  0
BLOCK_RECORD
  5
228
330
1
100
AcDbSymbolTableRecord
100
AcDbBlockTableRecord
  2
*D2
340
0
 70
     0
280
     1
281
     0
  0
BLOCK_RECORD
  5
229
330
1
100
AcDbSymbolTableRecord
100
AcDbBlockTableRecord
  2
*D3
340
0
 70
     0
280
     1
281
     0
  0
BLOCK_RECORD
  5
22A
330
1
100
AcDbSymbolTableRecord
100
AcDbBlockTableRecord
  2
*D4
340
0
 70
     0
280
     1
281
     0
  0
BLOCK_RECORD
  5
22B
330
1
100
AcDbSymbolTableRecord
100
AcDbBlockTableRecord
  2
*D5
340
0
 70
     0
280
     1
281
     0
  0
BLOCK_RECORD
  5
22C
330
1
100
AcDbSymbolTableRecord
100
AcDbBlockTableRecord
  2
LOGO2_BL1
340
0
102
{BLKREFS
331
4D1
102
}
 70
     0
280
     1
281
     0
  0
BLOCK_RECORD
  5
22D
330
1
100
AcDbSymbolTableRecord
100
AcDbBlockTableRecord
  2
PROIEZIONE_EU_BL0
340
0
102
{BLKREFS
331
4D0
102
}
 70
     0
280
     1
281
     0
  0
BLOCK_RECORD
  5
22E
330
1
100
AcDbSymbolTableRecord
100
AcDbBlockTableRecord
  2
*T8
340
0
102
{BLKREFS
331
4D2
102
}
 70
     0
280
     1
281
     0
  0
ENDTAB
  0
ENDSEC
  0
SECTION
  2
BLOCKS
  0
BLOCK
  5
20
330
224
100
AcDbEntity
  8
0
100
AcDbBlockBegin
  2
*Model_Space
 70
     0
 10
0.0
 20
0.0
 30
0.0
  3
*Model_Space
  1

  0
ENDBLK
  5
21
330
224
100
AcDbEntity
  8
0
100
AcDbBlockEnd
  0
BLOCK
  5
1C
330
225
100
AcDbEntity
 67
     1
  8
0
100
AcDbBlockBegin
  2
*Paper_Space
 70
     0
 10
0.0
 20
0.0
 30
0.0
  3
*Paper_Space
  1

  0
ENDBLK
  5
1D
330
225
100
AcDbEntity
 67
     1
  8
0
100
AcDbBlockEnd
  0
BLOCK
  5
278
330
226
100
AcDbEntity
  8
0
100
AcDbBlockBegin
  2
_CLOSED
 70
     0
 10
0.0
 20
0.0
 30
0.0
  3
_CLOSED
  1

  0
LINE
  5
279
330
226
100
AcDbEntity
  8
0
  6
ByBlock
 62
     0
100
AcDbLine
 10
0.0
 20
0.0
 30
0.0
 11
-1.0
 21
0.2
 31
0.0
  0
LINE
  5
27A
330
226
100
AcDbEntity
  8
0
  6
ByBlock
 62
     0
100
AcDbLine
 10
-1.0
 20
0.2
 30
0.0
 11
-1.0
 21
-0.2
 31
0.0
  0
LINE
  5
27B
330
226
100
AcDbEntity
  8
0
  6
ByBlock
 62
     0
100
AcDbLine
 10
-1.0
 20
-0.2
 30
0.0
 11
0.0
 21
0.0
 31
0.0
  0
LINE
  5
27C
330
226
100
AcDbEntity
  8
0
  6
ByBlock
 62
     0
100
AcDbLine
 10
-1.0
 20
0.0
 30
0.0
 11
0.0
 21
0.0
 31
0.0
  0
ENDBLK
  5
27D
330
226
100
AcDbEntity
  8
0
  6
ByBlock
 62
     0
100
AcDbBlockEnd
  0
BLOCK
  5
27E
330
227
100
AcDbEntity
  8
0
100
AcDbBlockBegin
  2
*D1
 70
     1
 10
0.0
 20
0.0
 30
0.0
  3
*D1
  1

  0
MTEXT
  5
27F
330
227
100
AcDbEntity
  8
0
  6
Continuous
 62
     2
100
AcDbMText
 10
392.5538405351
 20
196.6566595681
 30
0.0
 40
3.0
 41
6.9925650558
 46
0.0
 71
     2
 72
     1
  1
122
 11
0.0
 21
1.0
 31
0.0
 73
     1
 44
0.9
  0
LINE
  5
280
330
227
100
AcDbEntity
  8
0
  6
Continuous
 62
     2
100
AcDbLine
 10
378.9476928627
 20
135.6566595681
 30
0.0
 11
397.0538405351
 21
135.6566595681
 31
0.0
  0
LINE
  5
281
330
227
100
AcDbEntity
  8
0
  6
Continuous
 62
     2
100
AcDbLine
 10
369.8471693025
 20
257.6566595681
 30
0.0
 11
397.0538405351
 21
257.6566595681
 31
0.0
  0
LINE
  5
282
330
227
100
AcDbEntity
  8
0
  6
Continuous
 62
     2
100
AcDbLine
 10
396.3038405351
 20
135.6566595681
 30
0.0
 11
396.3038405351
 21
196.6566595681
 31
0.0
  0
LINE
  5
283
330
227
100
AcDbEntity
  8
0
  6
Continuous
 62
     2
100
AcDbLine
 10
396.3038405351
 20
257.6566595681
 30
0.0
 11
396.3038405351
 21
196.6566595681
 31
0.0
  0
INSERT
  5
284
330
227
100
AcDbEntity
  8
0
  6
Continuous
 62
     2
100
AcDbBlockReference
  2
_CLOSED
 10
396.3038405351
 20
135.6566595681
 30
0.0
 41
2.5
 42
2.5
 43
2.5
 50
270.0
  0
INSERT
  5
285
330
227
100
AcDbEntity
  8
0
  6
Continuous
 62
     2
100
AcDbBlockReference
  2
_CLOSED
 10
396.3038405351
 20
257.6566595681
 30
0.0
 41
2.5
 42
2.5
 43
2.5
 50
90.0
  0
ENDBLK
  5
286
330
227
100
AcDbEntity
  8
0
  6
ByBlock
 62
     0
100
AcDbBlockEnd
  0
BLOCK
  5
287
330
228
100
AcDbEntity
  8
0
100
AcDbBlockBegin
  2
*D2
 70
     1
 10
0.0
 20
0.0
 30
0.0
  3
*D2
  1

  0
MTEXT
  5
288
330
228
100
AcDbEntity
  8
0
  6
Continuous
 62
     2
100
AcDbMText
 10
327.8154939098
 20
120.8589797462
 30
0.0
 40
3.0
 41
4.6617100372
 46
0.0
 71
     2
 72
     1
  1
90
 73
     1
 44
0.9
  0
LINE
  5
289
330
228
100
AcDbEntity
  8
0
  6
Continuous
 62
     2
100
AcDbLine
 10
282.8154939098
 20
130.9831824632
 30
0.0
 11
282.8154939098
 21
116.3589797462
 31
0.0
  0
LINE
  5
28A
330
228
100
AcDbEntity
  8
0
  6
Continuous
 62
     2
100
AcDbLine
 10
372.8154939098
 20
131.2233667564
 30
0.0
 11
372.8154939098
 21
116.3589797462
 31
0.0
  0
LINE
  5
28B
330
228
100
AcDbEntity
  8
0
  6
Continuous
 62
     2
100
AcDbLine
 10
282.8154939098
 20
117.1089797462
 30
0.0
 11
327.8154939098
 21
117.1089797462
 31
0.0
  0
LINE
  5
28C
330
228
100
AcDbEntity
  8
0
  6
Continuous
 62
     2
100
AcDbLine
 10
372.8154939098
 20
117.1089797462
 30
0.0
 11
327.8154939098
 21
117.1089797462
 31
0.0
  0
INSERT
  5
28D
330
228
100
AcDbEntity
  8
0
  6
Continuous
 62
     2
100
AcDbBlockReference
  2
_CLOSED
 10
282.8154939098
 20
117.1089797462
 30
0.0
 41
2.5
 42
2.5
 43
2.5
 50
180.0
  0
INSERT
  5
28E
330
228
100
AcDbEntity
  8
0
  6
Continuous
 62
     2
100
AcDbBlockReference
  2
_CLOSED
 10
372.8154939098
 20
117.1089797462
 30
0.0
 41
2.5
 42
2.5
 43
2.5
  0
ENDBLK
  5
28F
330
228
100
AcDbEntity
  8
0
  6
ByBlock
 62
     0
100
AcDbBlockEnd
  0
BLOCK
  5
290
330
229
100
AcDbEntity
  8
0
100
AcDbBlockBegin
  2
*D3
 70
     1
 10
0.0
 20
0.0
 30
0.0
  3
*D3
  1

  0
MTEXT
  5
291
330
229
100
AcDbEntity
  8
0
  6
Continuous
 62
     2
100
AcDbMText
 10
94.7674829208
 20
275.1751707178
 30
0.0
 40
3.0
 41
6.9925650558
 46
0.0
 71
     2
 72
     1
  1
120
 73
     1
 44
0.9
  0
LINE
  5
292
330
229
100
AcDbEntity
  8
0
  6
Continuous
 62
     2
100
AcDbLine
 10
35.1581940564
 20
260.9230597886
 30
0.0
 11
35.1581940564
 21
272.1751707178
 31
0.0
  0
LINE
  5
293
330
229
100
AcDbEntity
  8
0
  6
Continuous
 62
     2
100
AcDbLine
 10
155.1581940564
 20
263.0529765694
 30
0.0
 11
155.1581940564
 21
272.1751707178
 31
0.0
  0
LINE
  5
294
330
229
100
AcDbEntity
  8
0
  6
Continuous
 62
     2
100
AcDbLine
 10
35.1581940564
 20
271.4251707178
 30
0.0
 11
95.1581940564
 21
271.4251707178
 31
0.0
  0
LINE
  5
295
330
229
100
AcDbEntity
  8
0
  6
Continuous
 62
     2
100
AcDbLine
 10
155.1581940564
 20
271.4251707178
 30
0.0
 11
95.1581940564
 21
271.4251707178
 31
0.0
  0
INSERT
  5
296
330
229
100
AcDbEntity
  8
0
  6
Continuous
 62
     2
100
AcDbBlockReference
  2
_CLOSED
 10
35.1581940564
 20
271.4251707178
 30
0.0
 41
2.5
 42
2.5
 43
2.5
 50
180.0
  0
INSERT
  5
297
330
229
100
AcDbEntity
  8
0
  6
Continuous
 62
     2
100
AcDbBlockReference
  2
_CLOSED
 10
155.1581940564
 20
271.4251707178
 30
0.0
 41
2.5
 42
2.5
 43
2.5
  0
ENDBLK
  5
298
330
229
100
AcDbEntity
  8
0
  6
ByBlock
 62
     0
100
AcDbBlockEnd
  0
BLOCK
  5
299
330
22A
100
AcDbEntity
  8
0
100
AcDbBlockBegin
  2
*D4
 70
     1
 10
0.0
 20
0.0
 30
0.0
  3
*D4
  1

  0
MTEXT
  5
29A
330
22A
100
AcDbEntity
  8
0
  6
Continuous
 62
     2
100
AcDbMText
 10
109.6331940564
 20
286.7019981218
 30
0.0
 40
3.0
 41
12.8141263941
 46
0.0
 71
     2
 72
     1
  1
148,95
 73
     1
 44
0.9
  0
LINE
  5
29B
330
22A
100
AcDbEntity
  8
0
  6
Continuous
 62
     2
100
AcDbLine
 10
35.1581940564
 20
263.0529765694
 30
0.0
 11
35.1581940564
 21
283.7019981218
 31
0.0
  0
LINE
  5
29C
330
22A
100
AcDbEntity
  8
0
  6
Continuous
 62
     2
100
AcDbLine
 10
184.1081940564
 20
263.0529765694
 30
0.0
 11
184.1081940564
 21
283.7019981218
 31
0.0
  0
LINE
  5
29D
330
22A
100
AcDbEntity
  8
0
  6
Continuous
 62
     2
100
AcDbLine
 10
35.1581940564
 20
282.9519981218
 30
0.0
 11
109.6331940564
 21
282.9519981218
 31
0.0
  0
LINE
  5
29E
330
22A
100
AcDbEntity
  8
0
  6
Continuous
 62
     2
100
AcDbLine
 10
184.1081940564
 20
282.9519981218
 30
0.0
 11
109.6331940564
 21
282.9519981218
 31
0.0
  0
INSERT
  5
29F
330
22A
100
AcDbEntity
  8
0
  6
Continuous
 62
     2
100
AcDbBlockReference
  2
_CLOSED
 10
35.1581940564
 20
282.9519981218
 30
0.0
 41
2.5
 42
2.5
 43
2.5
 50
180.0
  0
INSERT
  5
2A0
330
22A
100
AcDbEntity
  8
0
  6
Continuous
 62
     2
100
AcDbBlockReference
  2
_CLOSED
 10
184.1081940564
 20
282.9519981218
 30
0.0
 41
2.5
 42
2.5
 43
2.5
  0
ENDBLK
  5
2A1
330
22A
100
AcDbEntity
  8
0
  6
ByBlock
 62
     0
100
AcDbBlockEnd
  0
BLOCK
  5
2A2
330
22B
100
AcDbEntity
  8
0
100
AcDbBlockBegin
  2
*D5
 70
     1
 10
0.0
 20
0.0
 30
0.0
  3
*D5
  1

  0
MTEXT
  5
2A3
330
22B
100
AcDbEntity
  8
0
  6
Continuous
 62
     2
100
AcDbMText
 10
14.5114036152
 20
215.6566595681
 30
0.0
 40
3.0
 41
8.6617100372
 46
0.0
 71
     2
 72
     1
  1
{\Fgdt;n}\Farial.ttf;84
  7
TEXTSTYLE_2
 11
0.0
 21
1.0
 31
0.0
 73
     1
 44
0.9
  0
LINE
  5
2A4
330
22B
100
AcDbEntity
  8
0
  6
Continuous
 62
     2
100
AcDbLine
 10
33.0639272427
 20
257.6566595681
 30
0.0
 11
17.5114036152
 21
257.6566595681
 31
0.0
  0
LINE
  5
2A5
330
22B
100
AcDbEntity
  8
0
  6
Continuous
 62
     2
100
AcDbLine
 10
31.1103715647
 20
173.6566595681
 30
0.0
 11
17.5114036152
 21
173.6566595681
 31
0.0
  0
LINE
  5
2A6
330
22B
100
AcDbEntity
  8
0
  6
Continuous
 62
     2
100
AcDbLine
 10
18.2614036152
 20
257.6566595681
 30
0.0
 11
18.2614036152
 21
215.6566595681
 31
0.0
  0
LINE
  5
2A7
330
22B
100
AcDbEntity
  8
0
  6
Continuous
 62
     2
100
AcDbLine
 10
18.2614036152
 20
173.6566595681
 30
0.0
 11
18.2614036152
 21
215.6566595681
 31
0.0
  0
INSERT
  5
2A8
330
22B
100
AcDbEntity
  8
0
  6
Continuous
 62
     2
100
AcDbBlockReference
  2
_CLOSED
 10
18.2614036152
 20
257.6566595681
 30
0.0
 41
2.5
 42
2.5
 43
2.5
 50
90.0
  0
INSERT
  5
2A9
330
22B
100
AcDbEntity
  8
0
  6
Continuous
 62
     2
100
AcDbBlockReference
  2
_CLOSED
 10
18.2614036152
 20
173.6566595681
 30
0.0
 41
2.5
 42
2.5
 43
2.5
 50
270.0
  0
ENDBLK
  5
2AA
330
22B
100
AcDbEntity
  8
0
  6
ByBlock
 62
     0
100
AcDbBlockEnd
  0
BLOCK
  5
232
330
22C
100
AcDbEntity
  8
0
100
AcDbBlockBegin
  2
LOGO2_BL1
 70
     0
 10
295.0085136744
 20
40.9495689654
 30
0.0
  3
LOGO2_BL1
  1

  0
LINE
  5
233
330
22C
100
AcDbEntity
  8
0
  6
Continuous
 62
     7
100
AcDbLine
 10
286.7514389026
 20
44.1450603042
 30
0.0
 11
285.4470979732
 21
44.1450603042
 31
0.0
  0
LINE
  5
234
330
22C
100
AcDbEntity
  8
0
  6
Continuous
 62
     7
100
AcDbLine
 10
285.4470979732
 20
44.1450603042
 30
0.0
 11
285.4470979732
 21
33.6859942444
 31
0.0
  0
LINE
  5
235
330
22C
100
AcDbEntity
  8
0
  6
Continuous
 62
     7
100
AcDbLine
 10
285.4470979732
 20
33.6859942444
 30
0.0
 11
289.9281528615
 21
33.6859942444
 31
0.0
  0
LINE
  5
236
330
22C
100
AcDbEntity
  8
0
  6
Continuous
 62
     7
100
AcDbLine
 10
289.9281528615
 20
33.6859942444
 30
0.0
 11
289.9281528615
 21
34.8788485694
 31
0.0
  0
LINE
  5
237
330
22C
100
AcDbEntity
  8
0
  6
Continuous
 62
     7
100
AcDbLine
 10
289.9281528615
 20
34.8788485694
 30
0.0
 11
286.7514389026
 21
34.8788485694
 31
0.0
  0
LINE
  5
238
330
22C
100
AcDbEntity
  8
0
  6
Continuous
 62
     7
100
AcDbLine
 10
286.7514389026
 20
34.8788485694
 30
0.0
 11
286.7514389026
 21
44.1450603042
 31
0.0
  0
LINE
  5
239
330
22C
100
AcDbEntity
  8
0
  6
Continuous
 62
     7
100
AcDbLine
 10
301.6877651189
 20
44.1450603042
 30
0.0
 11
300.3839476008
 21
44.1450603042
 31
0.0
  0
LINE
  5
23A
330
22C
100
AcDbEntity
  8
0
  6
Continuous
 62
     7
100
AcDbLine
 10
300.3839476008
 20
44.1450603042
 30
0.0
 11
300.3839476008
 21
33.6859942444
 31
0.0
  0
LINE
  5
23B
330
22C
100
AcDbEntity
  8
0
  6
Continuous
 62
     7
100
AcDbLine
 10
300.3839476008
 20
33.6859942444
 30
0.0
 11
304.8651333419
 21
33.6859942444
 31
0.0
  0
LINE
  5
23C
330
22C
100
AcDbEntity
  8
0
  6
Continuous
 62
     7
100
AcDbLine
 10
304.8651333419
 20
33.6859942444
 30
0.0
 11
304.8651333419
 21
34.8788485694
 31
0.0
  0
LINE
  5
23D
330
22C
100
AcDbEntity
  8
0
  6
Continuous
 62
     7
100
AcDbLine
 10
304.8651333419
 20
34.8788485694
 30
0.0
 11
301.6877651189
 21
34.8788485694
 31
0.0
  0
LINE
  5
23E
330
22C
100
AcDbEntity
  8
0
  6
Continuous
 62
     7
100
AcDbLine
 10
301.6877651189
 20
34.8788485694
 30
0.0
 11
301.6877651189
 21
44.1450603042
 31
0.0
  0
LWPOLYLINE
  5
23F
330
22C
100
AcDbEntity
  8
0
  6
Continuous
 62
     7
100
AcDbPolyline
 90
        2
 70
     0
 43
0.2
 10
283.8014928841
 20
30.3424429374
 10
283.8014928841
 20
28.4853796881
  0
LWPOLYLINE
  5
240
330
22C
100
AcDbEntity
  8
0
  6
Continuous
 62
     7
100
AcDbPolyline
 90
        2
 70
     0
 43
0.2
 10
283.8014928841
 20
28.4853796881
 10
284.5972088945
 20
28.4853796881
  0
LWPOLYLINE
  5
241
330
22C
100
AcDbEntity
  8
0
  6
Continuous
 62
     7
100
AcDbPolyline
 90
        2
 70
     0
 43
0.2
 10
284.5972088945
 20
28.4853796881
 10
284.5972088945
 20
28.6973612597
  0
LWPOLYLINE
  5
242
330
22C
100
AcDbEntity
  8
0
  6
Continuous
 62
     7
100
AcDbPolyline
 90
        2
 70
     0
 43
0.2
 10
284.5972088945
 20
28.6973612597
 10
284.033102379
 20
28.6973612597
  0
LWPOLYLINE
  5
243
330
22C
100
AcDbEntity
  8
0
  6
Continuous
 62
     7
100
AcDbPolyline
 90
        2
 70
     0
 43
0.2
 10
284.033102379
 20
28.6973612597
 10
284.033102379
 20
30.3424429374
  0
LWPOLYLINE
  5
244
330
22C
100
AcDbEntity
  8
0
  6
Continuous
 62
     7
100
AcDbPolyline
 90
        2
 70
     0
 43
0.2
 10
284.033102379
 20
30.3424429374
 10
283.8014928841
 20
30.3424429374
  0
SPLINE
  5
245
330
22C
100
AcDbEntity
  8
0
  6
Continuous
 62
     7
100
AcDbSpline
 70
     3
 71
     3
 72
    35
 73
    31
 74
     0
 42
0.000000001
 43
0.0000001
 40
0.0
 40
0.0
 40
0.0
 40
0.0
 40
1.0
 40
1.0
 40
1.0
 40
2.0
 40
2.0
 40
2.0
 40
3.0
 40
3.0
 40
3.0
 40
4.0
 40
4.0
 40
4.0
 40
5.0
 40
5.0
 40
5.0
 40
6.0
 40
6.0
 40
6.0
 40
7.0
 40
7.0
 40
7.0
 40
8.0
 40
8.0
 40
8.0
 40
9.0
 40
9.0
 40
9.0
 40
10.0
 40
10.0
 40
10.0
 40
10.0
 10
285.9955021501
 20
29.637931344
 30
0.0
 10
285.9955021501
 20
29.637931344
 30
0.0
 10
285.9955021501
 20
28.9758160648
 30
0.0
 10
285.9955021501
 20
28.9758160648
 30
0.0
 10
285.9955021501
 20
28.6607224695
 30
0.0
 10
286.1433658389
 20
28.4461238415
 30
0.0
 10
286.4834523232
 20
28.4461238415
 30
0.0
 10
286.8230153962
 20
28.4461238415
 30
0.0
 10
286.9711407907
 20
28.6607224695
 30
0.0
 10
286.9711407907
 20
28.9758160648
 30
0.0
 10
286.9711407907
 20
28.9758160648
 30
0.0
 10
286.9711407907
 20
29.637931344
 30
0.0
 10
286.9711407907
 20
29.637931344
 30
0.0
 10
286.9711407907
 20
29.637931344
 30
0.0
 10
286.7490835518
 20
29.637931344
 30
0.0
 10
286.7490835518
 20
29.637931344
 30
0.0
 10
286.7490835518
 20
29.637931344
 30
0.0
 10
286.7490835518
 20
29.0009398066
 30
0.0
 10
286.7490835518
 20
29.0009398066
 30
0.0
 10
286.7490835518
 20
28.8151287994
 30
0.0
 10
286.7023690943
 20
28.6523478889
 30
0.0
 10
286.4834523232
 20
28.6523478889
 30
0.0
 10
286.2640121407
 20
28.6523478889
 30
0.0
 10
286.2172976833
 20
28.8151287994
 30
0.0
 10
286.2172976833
 20
29.0009398066
 30
0.0
 10
286.2172976833
 20
29.0009398066
 30
0.0
 10
286.2172976833
 20
29.637931344
 30
0.0
 10
286.2172976833
 20
29.637931344
 30
0.0
 10
286.2172976833
 20
29.637931344
 30
0.0
 10
285.9955021501
 20
29.637931344
 30
0.0
 10
285.9955021501
 20
29.637931344
 30
0.0
  0
SPLINE
  5
246
330
22C
100
AcDbEntity
  8
0
  6
Continuous
 62
     7
100
AcDbSpline
 70
     3
 71
     3
 72
    35
 73
    31
 74
     0
 42
0.000000001
 43
0.0000001
 40
0.0
 40
0.0
 40
0.0
 40
0.0
 40
1.0
 40
1.0
 40
1.0
 40
2.0
 40
2.0
 40
2.0
 40
3.0
 40
3.0
 40
3.0
 40
4.0
 40
4.0
 40
4.0
 40
5.0
 40
5.0
 40
5.0
 40
6.0
 40
6.0
 40
6.0
 40
7.0
 40
7.0
 40
7.0
 40
8.0
 40
8.0
 40
8.0
 40
9.0
 40
9.0
 40
9.0
 40
10.0
 40
10.0
 40
10.0
 40
10.0
 10
289.3942733478
 20
29.5965818522
 30
0.0
 10
289.3058168402
 20
29.6478761584
 30
0.0
 10
289.1923674436
 20
29.6729999003
 30
0.0
 10
289.0887320086
 20
29.6729999003
 30
0.0
 10
288.7338591554
 20
29.6729999003
 30
0.0
 10
288.4584139651
 20
29.4092006112
 30
0.0
 10
288.4584139651
 20
29.0517107016
 30
0.0
 10
288.4584139651
 20
28.7067826628
 30
0.0
 10
288.7368687703
 20
28.4466472528
 30
0.0
 10
289.0764318433
 20
28.4466472528
 30
0.0
 10
289.1923674436
 20
28.4466472528
 30
0.0
 10
289.2931241165
 20
28.4686305269
 30
0.0
 10
289.3942733478
 20
28.5225418895
 30
0.0
 10
289.3942733478
 20
28.5225418895
 30
0.0
 10
289.3942733478
 20
28.805183985
 30
0.0
 10
289.3942733478
 20
28.805183985
 30
0.0
 10
289.310396689
 20
28.7120167757
 30
0.0
 10
289.2068921068
 20
28.6528713002
 30
0.0
 10
289.0787871941
 20
28.6528713002
 30
0.0
 10
288.8450840541
 20
28.6528713002
 30
0.0
 10
288.6798169399
 20
28.8250736139
 30
0.0
 10
288.6798169399
 20
29.061655516
 30
0.0
 10
288.6798169399
 20
29.2736370876
 30
0.0
 10
288.8475702577
 20
29.4657290303
 30
0.0
 10
289.0643933837
 20
29.4657290303
 30
0.0
 10
289.197208998
 20
29.4657290303
 30
0.0
 10
289.3058168402
 20
29.4118176676
 30
0.0
 10
289.3942733478
 20
29.3107992891
 30
0.0
 10
289.3942733478
 20
29.3107992891
 30
0.0
 10
289.3942733478
 20
29.5965818522
 30
0.0
 10
289.3942733478
 20
29.5965818522
 30
0.0
  0
SPLINE
  5
247
330
22C
100
AcDbEntity
  8
0
  6
Continuous
 62
     7
100
AcDbSpline
 70
     3
 71
     3
 72
    32
 73
    28
 74
     0
 42
0.000000001
 43
0.0000001
 40
0.0
 40
0.0
 40
0.0
 40
0.0
 40
1.0
 40
1.0
 40
1.0
 40
2.0
 40
2.0
 40
2.0
 40
3.0
 40
3.0
 40
3.0
 40
4.0
 40
4.0
 40
4.0
 40
5.0
 40
5.0
 40
5.0
 40
6.0
 40
6.0
 40
6.0
 40
7.0
 40
7.0
 40
7.0
 40
8.0
 40
8.0
 40
8.0
 40
9.0
 40
9.0
 40
9.0
 40
9.0
 10
291.9261446001
 20
29.0250167259
 30
0.0
 10
291.9261446001
 20
29.0250167259
 30
0.0
 10
291.9261446001
 20
29.0590384596
 30
0.0
 10
291.9261446001
 20
29.0590384596
 30
0.0
 10
291.9261446001
 20
29.4013494419
 30
0.0
 10
291.7532880223
 20
29.6729999003
 30
0.0
 10
291.3866384151
 20
29.6729999003
 30
0.0
 10
291.0150164007
 20
29.6729999003
 30
0.0
 10
290.8252798089
 20
29.4065835547
 30
0.0
 10
290.8252798089
 20
29.0517107016
 30
0.0
 10
290.8252798089
 20
28.7120167757
 30
0.0
 10
291.0393550256
 20
28.4461238415
 30
0.0
 10
291.3914799695
 20
28.4461238415
 30
0.0
 10
291.6155000007
 20
28.4461238415
 30
0.0
 10
291.8176676107
 20
28.5617977361
 30
0.0
 10
291.9261446001
 20
28.7612174368
 30
0.0
 10
291.9261446001
 20
28.7612174368
 30
0.0
 10
291.7385016534
 20
28.8679933395
 30
0.0
 10
291.7385016534
 20
28.8679933395
 30
0.0
 10
291.655017553
 20
28.7292893482
 30
0.0
 10
291.5638131361
 20
28.643449897
 30
0.0
 10
291.3942278788
 20
28.643449897
 30
0.0
 10
291.1822463072
 20
28.643449897
 30
0.0
 10
291.0492998401
 20
28.8282140816
 30
0.0
 10
291.0469444893
 20
29.0250167259
 30
0.0
 10
291.0469444893
 20
29.0250167259
 30
0.0
 10
291.9261446001
 20
29.0250167259
 30
0.0
 10
291.9261446001
 20
29.0250167259
 30
0.0
  0
SPLINE
  5
248
330
22C
100
AcDbEntity
  8
0
  6
Continuous
 62
     7
100
AcDbSpline
 70
     3
 71
     3
 72
    14
 73
    10
 74
     0
 42
0.000000001
 43
0.0000001
 40
0.0
 40
0.0
 40
0.0
 40
0.0
 40
1.0
 40
1.0
 40
1.0
 40
2.0
 40
2.0
 40
2.0
 40
3.0
 40
3.0
 40
3.0
 40
3.0
 10
291.0589829489
 20
29.192508338
 30
0.0
 10
291.0865928944
 20
29.3573828937
 30
0.0
 10
291.2144361014
 20
29.4803845463
 30
0.0
 10
291.3866384151
 20
29.4803845463
 30
0.0
 10
291.5638131361
 20
29.4803845463
 30
0.0
 10
291.6772625327
 20
29.3647106517
 30
0.0
 10
291.7044799197
 20
29.192508338
 30
0.0
 10
291.7044799197
 20
29.192508338
 30
0.0
 10
291.0589829489
 20
29.192508338
 30
0.0
 10
291.0589829489
 20
29.192508338
 30
0.0
  0
SPLINE
  5
249
330
22C
100
AcDbEntity
  8
0
  6
Continuous
 62
     7
100
AcDbSpline
 70
     3
 71
     3
 72
    20
 73
    16
 74
     0
 42
0.000000001
 43
0.0000001
 40
0.0
 40
0.0
 40
0.0
 40
0.0
 40
1.0
 40
1.0
 40
1.0
 40
2.0
 40
2.0
 40
2.0
 40
3.0
 40
3.0
 40
3.0
 40
4.0
 40
4.0
 40
4.0
 40
5.0
 40
5.0
 40
5.0
 40
5.0
 10
293.9501760503
 20
29.4018728531
 30
0.0
 10
293.9501760503
 20
29.4018728531
 30
0.0
 10
294.3613156169
 20
28.8993980168
 30
0.0
 10
294.3613156169
 20
28.8993980168
 30
0.0
 10
294.2452491638
 20
28.7837241222
 30
0.0
 10
294.1074611423
 20
28.6533947115
 30
0.0
 10
293.9355205342
 20
28.6533947115
 30
0.0
 10
293.7580841076
 20
28.6533947115
 30
0.0
 10
293.5905924955
 20
28.8177458559
 30
0.0
 10
293.5905924955
 20
28.9946588712
 30
0.0
 10
293.5905924955
 20
29.1726187091
 30
0.0
 10
293.8003495691
 20
29.2987608294
 30
0.0
 10
293.9279310706
 20
29.3866939258
 30
0.0
 10
293.9279310706
 20
29.3866939258
 30
0.0
 10
293.9501760503
 20
29.4018728531
 30
0.0
 10
293.9501760503
 20
29.4018728531
 30
0.0
  0
SPLINE
  5
24A
330
22C
100
AcDbEntity
  8
0
  6
Continuous
 62
     7
100
AcDbSpline
 70
     3
 71
     3
 72
    23
 73
    19
 74
     0
 42
0.000000001
 43
0.0000001
 40
0.0
 40
0.0
 40
0.0
 40
0.0
 40
1.0
 40
1.0
 40
1.0
 40
2.0
 40
2.0
 40
2.0
 40
3.0
 40
3.0
 40
3.0
 40
4.0
 40
4.0
 40
4.0
 40
5.0
 40
5.0
 40
5.0
 40
6.0
 40
6.0
 40
6.0
 40
6.0
 10
293.9995075642
 20
29.6928895292
 30
0.0
 10
293.9995075642
 20
29.6928895292
 30
0.0
 10
293.937875885
 20
29.7714012224
 30
0.0
 10
293.937875885
 20
29.7714012224
 30
0.0
 10
293.8839645224
 20
29.8399681011
 30
0.0
 10
293.8271743976
 20
29.9090583911
 30
0.0
 10
293.8271743976
 20
30.0027490116
 30
0.0
 10
293.8271743976
 20
30.121563374
 30
0.0
 10
293.9230895161
 20
30.1990282446
 30
0.0
 10
294.0340527092
 20
30.1990282446
 30
0.0
 10
294.1573160675
 20
30.1990282446
 30
0.0
 10
294.2506141295
 20
30.1278443094
 30
0.0
 10
294.2506141295
 20
29.9975148987
 30
0.0
 10
294.2506141295
 20
29.8624747865
 30
0.0
 10
294.1225092168
 20
29.7860567384
 30
0.0
 10
294.0289494491
 20
29.7122557468
 30
0.0
 10
294.0289494491
 20
29.7122557468
 30
0.0
 10
293.9995075642
 20
29.6928895292
 30
0.0
 10
293.9995075642
 20
29.6928895292
 30
0.0
  0
SPLINE
  5
24B
330
22C
100
AcDbEntity
  8
0
  6
Continuous
 62
     7
100
AcDbSpline
 70
     3
 71
     3
 72
    50
 73
    46
 74
     0
 42
0.000000001
 43
0.0000001
 40
0.0
 40
0.0
 40
0.0
 40
0.0
 40
1.0
 40
1.0
 40
1.0
 40
2.0
 40
2.0
 40
2.0
 40
3.0
 40
3.0
 40
3.0
 40
4.0
 40
4.0
 40
4.0
 40
5.0
 40
5.0
 40
5.0
 40
6.0
 40
6.0
 40
6.0
 40
7.0
 40
7.0
 40
7.0
 40
8.0
 40
8.0
 40
8.0
 40
9.0
 40
9.0
 40
9.0
 40
10.0
 40
10.0
 40
10.0
 40
11.0
 40
11.0
 40
11.0
 40
12.0
 40
12.0
 40
12.0
 40
13.0
 40
13.0
 40
13.0
 40
14.0
 40
14.0
 40
14.0
 40
15.0
 40
15.0
 40
15.0
 40
15.0
 10
294.7016638069
 20
28.4859030994
 30
0.0
 10
294.7016638069
 20
28.4859030994
 30
0.0
 10
294.9870538116
 20
28.4859030994
 30
0.0
 10
294.9870538116
 20
28.4859030994
 30
0.0
 10
294.9870538116
 20
28.4859030994
 30
0.0
 10
294.6546876438
 20
28.8967809603
 30
0.0
 10
294.6546876438
 20
28.8967809603
 30
0.0
 10
294.6546876438
 20
28.8967809603
 30
0.0
 10
294.8811938786
 20
29.1626738946
 30
0.0
 10
294.8811938786
 20
29.1626738946
 30
0.0
 10
294.8811938786
 20
29.1626738946
 30
0.0
 10
294.7329376313
 20
29.3155099906
 30
0.0
 10
294.7329376313
 20
29.3155099906
 30
0.0
 10
294.7329376313
 20
29.3155099906
 30
0.0
 10
294.5170304751
 20
29.0642725725
 30
0.0
 10
294.5170304751
 20
29.0642725725
 30
0.0
 10
294.5170304751
 20
29.0642725725
 30
0.0
 10
294.1299678277
 20
29.5322022638
 30
0.0
 10
294.1299678277
 20
29.5322022638
 30
0.0
 10
294.2854209802
 20
29.6463059246
 30
0.0
 10
294.4676989612
 20
29.7860567384
 30
0.0
 10
294.4676989612
 20
29.9954212536
 30
0.0
 10
294.4676989612
 20
30.2393309137
 30
0.0
 10
294.2656622041
 20
30.3827456066
 30
0.0
 10
294.0391559692
 20
30.3827456066
 30
0.0
 10
293.7949846034
 20
30.3827456066
 30
0.0
 10
293.6106129773
 20
30.2320031557
 30
0.0
 10
293.6106129773
 20
29.9755316246
 30
0.0
 10
293.6106129773
 20
29.817984827
 30
0.0
 10
293.7092760051
 20
29.6803276583
 30
0.0
 10
293.8146125267
 20
29.5693644653
 30
0.0
 10
293.8146125267
 20
29.5693644653
 30
0.0
 10
293.6990694849
 20
29.4856186592
 30
0.0
 10
293.6990694849
 20
29.4856186592
 30
0.0
 10
293.5213713527
 20
29.3573828937
 30
0.0
 10
293.3740310752
 20
29.2296705394
 30
0.0
 10
293.3740310752
 20
28.992565226
 30
0.0
 10
293.3740310752
 20
28.6722375178
 30
0.0
 10
293.6325962514
 20
28.4461238415
 30
0.0
 10
293.9429791451
 20
28.4461238415
 30
0.0
 10
294.1618959162
 20
28.4461238415
 30
0.0
 10
294.3590911189
 20
28.5712191393
 30
0.0
 10
294.4993653441
 20
28.7371405175
 30
0.0
 10
294.4993653441
 20
28.7371405175
 30
0.0
 10
294.7016638069
 20
28.4859030994
 30
0.0
 10
294.7016638069
 20
28.4859030994
 30
0.0
  0
LWPOLYLINE
  5
24C
330
22C
100
AcDbEntity
  8
0
  6
Continuous
 62
     7
100
AcDbPolyline
 90
        2
 70
     0
 43
0.2
 10
296.6371078966
 20
30.3424429374
 10
296.4057601073
 20
30.3424429374
  0
LWPOLYLINE
  5
24D
330
22C
100
AcDbEntity
  8
0
  6
Continuous
 62
     7
100
AcDbPolyline
 90
        2
 70
     0
 43
0.2
 10
296.4057601073
 20
30.3424429374
 10
296.4057601073
 20
28.4853796881
  0
LWPOLYLINE
  5
24E
330
22C
100
AcDbEntity
  8
0
  6
Continuous
 62
     7
100
AcDbPolyline
 90
        2
 70
     0
 43
0.2
 10
296.4057601073
 20
28.4853796881
 10
297.2010835593
 20
28.4853796881
  0
LWPOLYLINE
  5
24F
330
22C
100
AcDbEntity
  8
0
  6
Continuous
 62
     7
100
AcDbPolyline
 90
        2
 70
     0
 43
0.2
 10
297.2010835593
 20
28.4853796881
 10
297.2010835593
 20
28.6973612597
  0
LWPOLYLINE
  5
250
330
22C
100
AcDbEntity
  8
0
  6
Continuous
 62
     7
100
AcDbPolyline
 90
        2
 70
     0
 43
0.2
 10
297.2010835593
 20
28.6973612597
 10
296.6371078966
 20
28.6973612597
  0
LWPOLYLINE
  5
251
330
22C
100
AcDbEntity
  8
0
  6
Continuous
 62
     7
100
AcDbPolyline
 90
        2
 70
     0
 43
0.2
 10
296.6371078966
 20
28.6973612597
 10
296.6371078966
 20
30.3424429374
  0
LWPOLYLINE
  5
252
330
22C
100
AcDbEntity
  8
0
  6
Continuous
 62
     7
100
AcDbPolyline
 90
        2
 70
     0
 43
0.2
 10
298.8801869707
 20
29.637931344
 10
298.6590457016
 20
29.637931344
  0
LWPOLYLINE
  5
253
330
22C
100
AcDbEntity
  8
0
  6
Continuous
 62
     7
100
AcDbPolyline
 90
        2
 70
     0
 43
0.2
 10
298.6590457016
 20
29.637931344
 10
298.6590457016
 20
28.4859030994
  0
LWPOLYLINE
  5
254
330
22C
100
AcDbEntity
  8
0
  6
Continuous
 62
     7
100
AcDbPolyline
 90
        2
 70
     0
 43
0.2
 10
298.6590457016
 20
28.4859030994
 10
298.8801869707
 20
28.4859030994
  0
LWPOLYLINE
  5
255
330
22C
100
AcDbEntity
  8
0
  6
Continuous
 62
     7
100
AcDbPolyline
 90
        2
 70
     0
 43
0.2
 10
298.8801869707
 20
28.4859030994
 10
298.8801869707
 20
29.637931344
  0
LWPOLYLINE
  5
256
330
22C
100
AcDbEntity
  8
0
  6
Continuous
 62
     7
100
AcDbPolyline
 90
        2
 70
     1
 43
0.2
 10
298.6171636935
 20
30.1678852729
 42
1.0
 10
298.9223306845
 20
30.1678852729
 42
1.0
  0
SPLINE
  5
257
330
22C
100
AcDbEntity
  8
0
  6
Continuous
 62
     7
100
AcDbSpline
 70
     3
 71
     3
 72
    17
 73
    13
 74
     0
 42
0.000000001
 43
0.0000001
 40
0.0
 40
0.0
 40
0.0
 40
0.0
 40
1.0
 40
1.0
 40
1.0
 40
2.0
 40
2.0
 40
2.0
 40
3.0
 40
3.0
 40
3.0
 40
4.0
 40
4.0
 40
4.0
 40
4.0
 10
301.0104709124
 20
28.643449897
 30
0.0
 10
300.7765060667
 20
28.643449897
 30
0.0
 10
300.646176656
 20
28.8454866541
 30
0.0
 10
300.646176656
 20
29.061655516
 30
0.0
 10
300.646176656
 20
29.2762541441
 30
0.0
 10
300.7820018852
 20
29.4751504334
 30
0.0
 10
301.0104709124
 20
29.4751504334
 30
0.0
 10
301.2499315766
 20
29.4751504334
 30
0.0
 10
301.3854951001
 20
29.2861989585
 30
0.0
 10
301.3854951001
 20
29.061655516
 30
0.0
 10
301.3854951001
 20
28.8355418397
 30
0.0
 10
301.2522869274
 20
28.643449897
 30
0.0
 10
301.0104709124
 20
28.643449897
 30
0.0
  0
SPLINE
  5
258
330
22C
100
AcDbEntity
  8
0
  6
Continuous
 62
     7
100
AcDbSpline
 70
     3
 71
     3
 72
    50
 73
    46
 74
     0
 42
0.000000001
 43
0.0000001
 40
0.0
 40
0.0
 40
0.0
 40
0.0
 40
1.0
 40
1.0
 40
1.0
 40
2.0
 40
2.0
 40
2.0
 40
3.0
 40
3.0
 40
3.0
 40
4.0
 40
4.0
 40
4.0
 40
5.0
 40
5.0
 40
5.0
 40
6.0
 40
6.0
 40
6.0
 40
7.0
 40
7.0
 40
7.0
 40
8.0
 40
8.0
 40
8.0
 40
9.0
 40
9.0
 40
9.0
 40
10.0
 40
10.0
 40
10.0
 40
11.0
 40
11.0
 40
11.0
 40
12.0
 40
12.0
 40
12.0
 40
13.0
 40
13.0
 40
13.0
 40
14.0
 40
14.0
 40
14.0
 40
15.0
 40
15.0
 40
15.0
 40
15.0
 10
301.5945979096
 20
29.6384547553
 30
0.0
 10
301.5945979096
 20
29.6384547553
 30
0.0
 10
301.3729332292
 20
29.6384547553
 30
0.0
 10
301.3729332292
 20
29.6384547553
 30
0.0
 10
301.3729332292
 20
29.6384547553
 30
0.0
 10
301.3729332292
 20
29.4411286997
 30
0.0
 10
301.3729332292
 20
29.4411286997
 30
0.0
 10
301.3729332292
 20
29.4411286997
 30
0.0
 10
301.3682225276
 20
29.4411286997
 30
0.0
 10
301.3682225276
 20
29.4411286997
 30
0.0
 10
301.2768872579
 20
29.5840199813
 30
0.0
 10
301.1389683835
 20
29.672476489
 30
0.0
 10
300.9662426585
 20
29.672476489
 30
0.0
 10
300.6338764907
 20
29.672476489
 30
0.0
 10
300.4247736812
 20
29.3846002806
 30
0.0
 10
300.4247736812
 20
29.0689832741
 30
0.0
 10
300.4247736812
 20
28.7392341627
 30
0.0
 10
300.6218380311
 20
28.4461238415
 30
0.0
 10
300.9767108843
 20
28.4461238415
 30
0.0
 10
301.1389683835
 20
28.4461238415
 30
0.0
 10
301.278980903
 20
28.5345803491
 30
0.0
 10
301.3682225276
 20
28.6654331711
 30
0.0
 10
301.3682225276
 20
28.6654331711
 30
0.0
 10
301.3729332292
 20
28.6654331711
 30
0.0
 10
301.3729332292
 20
28.6654331711
 30
0.0
 10
301.3729332292
 20
28.6654331711
 30
0.0
 10
301.3729332292
 20
28.4461238415
 30
0.0
 10
301.3729332292
 20
28.4461238415
 30
0.0
 10
301.3729332292
 20
28.2095419394
 30
0.0
 10
301.3164048101
 20
28.0226841096
 30
0.0
 10
301.0431841179
 20
28.0226841096
 30
0.0
 10
300.8408856551
 20
28.0226841096
 30
0.0
 10
300.6982560792
 20
28.1409750607
 30
0.0
 10
300.6982560792
 20
28.3471991081
 30
0.0
 10
300.6982560792
 20
28.3471991081
 30
0.0
 10
300.4765913987
 20
28.3471991081
 30
0.0
 10
300.4765913987
 20
28.3471991081
 30
0.0
 10
300.481563806
 20
28.0226841096
 30
0.0
 10
300.7126498896
 20
27.8258814654
 30
0.0
 10
301.0329775978
 20
27.8258814654
 30
0.0
 10
301.4810176602
 20
27.8258814654
 30
0.0
 10
301.5945979096
 20
28.1111406173
 30
0.0
 10
301.5945979096
 20
28.5078863735
 30
0.0
 10
301.5945979096
 20
28.5078863735
 30
0.0
 10
301.5945979096
 20
29.6384547553
 30
0.0
 10
301.5945979096
 20
29.6384547553
 30
0.0
  0
SPLINE
  5
259
330
22C
100
AcDbEntity
  8
0
  6
Continuous
 62
     7
100
AcDbSpline
 70
     3
 71
     3
 72
    44
 73
    40
 74
     0
 42
0.000000001
 43
0.0000001
 40
0.0
 40
0.0
 40
0.0
 40
0.0
 40
1.0
 40
1.0
 40
1.0
 40
2.0
 40
2.0
 40
2.0
 40
3.0
 40
3.0
 40
3.0
 40
4.0
 40
4.0
 40
4.0
 40
5.0
 40
5.0
 40
5.0
 40
6.0
 40
6.0
 40
6.0
 40
7.0
 40
7.0
 40
7.0
 40
8.0
 40
8.0
 40
8.0
 40
9.0
 40
9.0
 40
9.0
 40
10.0
 40
10.0
 40
10.0
 40
11.0
 40
11.0
 40
11.0
 40
12.0
 40
12.0
 40
12.0
 40
13.0
 40
13.0
 40
13.0
 40
13.0
 10
303.163523245
 20
30.623514799
 30
0.0
 10
303.163523245
 20
30.623514799
 30
0.0
 10
303.163523245
 20
28.4853796881
 30
0.0
 10
303.163523245
 20
28.4853796881
 30
0.0
 10
303.163523245
 20
28.4853796881
 30
0.0
 10
303.3849262198
 20
28.4853796881
 30
0.0
 10
303.3849262198
 20
28.4853796881
 30
0.0
 10
303.3849262198
 20
28.4853796881
 30
0.0
 10
303.3849262198
 20
29.0150719114
 30
0.0
 10
303.3849262198
 20
29.0150719114
 30
0.0
 10
303.3849262198
 20
29.2249598378
 30
0.0
 10
303.3849262198
 20
29.4756738447
 30
0.0
 10
303.6701853717
 20
29.4756738447
 30
0.0
 10
303.897084165
 20
29.4756738447
 30
0.0
 10
303.9240398463
 20
29.3427273776
 30
0.0
 10
303.9240398463
 20
29.1464481447
 30
0.0
 10
303.9240398463
 20
29.1464481447
 30
0.0
 10
303.9240398463
 20
28.4853796881
 30
0.0
 10
303.9240398463
 20
28.4853796881
 30
0.0
 10
303.9240398463
 20
28.4853796881
 30
0.0
 10
304.1459662324
 20
28.4853796881
 30
0.0
 10
304.1459662324
 20
28.4853796881
 30
0.0
 10
304.1459662324
 20
28.4853796881
 30
0.0
 10
304.1459662324
 20
29.1726187091
 30
0.0
 10
304.1459662324
 20
29.1726187091
 30
0.0
 10
304.1459662324
 20
29.4531671594
 30
0.0
 10
304.0619587207
 20
29.6729999003
 30
0.0
 10
303.7369203109
 20
29.6729999003
 30
0.0
 10
303.597169497
 20
29.6729999003
 30
0.0
 10
303.458988917
 20
29.6065266667
 30
0.0
 10
303.3896369214
 20
29.483525014
 30
0.0
 10
303.3896369214
 20
29.483525014
 30
0.0
 10
303.3849262198
 20
29.483525014
 30
0.0
 10
303.3849262198
 20
29.483525014
 30
0.0
 10
303.3849262198
 20
29.483525014
 30
0.0
 10
303.3849262198
 20
30.623514799
 30
0.0
 10
303.3849262198
 20
30.623514799
 30
0.0
 10
303.3849262198
 20
30.623514799
 30
0.0
 10
303.163523245
 20
30.623514799
 30
0.0
 10
303.163523245
 20
30.623514799
 30
0.0
  0
LWPOLYLINE
  5
25A
330
22C
100
AcDbEntity
  8
0
  6
Continuous
 62
     7
100
AcDbPolyline
 90
        2
 70
     0
 43
0.2
 10
305.9857569092
 20
29.4311838853
 10
306.2021874768
 20
29.4311838853
  0
LWPOLYLINE
  5
25B
330
22C
100
AcDbEntity
  8
0
  6
Continuous
 62
     7
100
AcDbPolyline
 90
        2
 70
     0
 43
0.2
 10
306.2021874768
 20
29.4311838853
 10
306.2021874768
 20
29.637931344
  0
LWPOLYLINE
  5
25C
330
22C
100
AcDbEntity
  8
0
  6
Continuous
 62
     7
100
AcDbPolyline
 90
        2
 70
     0
 43
0.2
 10
306.2021874768
 20
29.637931344
 10
305.9857569092
 20
29.637931344
  0
LWPOLYLINE
  5
25D
330
22C
100
AcDbEntity
  8
0
  6
Continuous
 62
     7
100
AcDbPolyline
 90
        2
 70
     0
 43
0.2
 10
305.9857569092
 20
29.637931344
 10
305.9857569092
 20
30.0786436484
  0
LWPOLYLINE
  5
25E
330
22C
100
AcDbEntity
  8
0
  6
Continuous
 62
     7
100
AcDbPolyline
 90
        2
 70
     0
 43
0.2
 10
305.9857569092
 20
30.0786436484
 10
305.7640922288
 20
30.0786436484
  0
LWPOLYLINE
  5
25F
330
22C
100
AcDbEntity
  8
0
  6
Continuous
 62
     7
100
AcDbPolyline
 90
        2
 70
     0
 43
0.2
 10
305.7640922288
 20
30.0786436484
 10
305.7640922288
 20
29.637931344
  0
LWPOLYLINE
  5
260
330
22C
100
AcDbEntity
  8
0
  6
Continuous
 62
     7
100
AcDbPolyline
 90
        2
 70
     0
 43
0.2
 10
305.7640922288
 20
29.637931344
 10
305.643445927
 20
29.637931344
  0
LWPOLYLINE
  5
261
330
22C
100
AcDbEntity
  8
0
  6
Continuous
 62
     7
100
AcDbPolyline
 90
        2
 70
     0
 43
0.2
 10
305.643445927
 20
29.637931344
 10
305.643445927
 20
29.4311838853
  0
LWPOLYLINE
  5
262
330
22C
100
AcDbEntity
  8
0
  6
Continuous
 62
     7
100
AcDbPolyline
 90
        2
 70
     0
 43
0.2
 10
305.643445927
 20
29.4311838853
 10
305.7640922288
 20
29.4311838853
  0
LWPOLYLINE
  5
263
330
22C
100
AcDbEntity
  8
0
  6
Continuous
 62
     7
100
AcDbPolyline
 90
        2
 70
     0
 43
0.2
 10
305.7640922288
 20
29.4311838853
 10
305.7640922288
 20
28.4853796881
  0
LWPOLYLINE
  5
264
330
22C
100
AcDbEntity
  8
0
  6
Continuous
 62
     7
100
AcDbPolyline
 90
        2
 70
     0
 43
0.2
 10
305.7640922288
 20
28.4853796881
 10
305.9857569092
 20
28.4853796881
  0
LWPOLYLINE
  5
265
330
22C
100
AcDbEntity
  8
0
  6
Continuous
 62
     7
100
AcDbPolyline
 90
        2
 70
     0
 43
0.2
 10
305.9857569092
 20
28.4853796881
 10
305.9857569092
 20
29.4311838853
  0
SPLINE
  5
266
330
22C
100
AcDbEntity
  8
0
  6
Continuous
 62
     7
100
AcDbSpline
 70
     3
 71
     3
 72
    20
 73
    16
 74
     0
 42
0.000000001
 43
0.0000001
 40
0.0
 40
0.0
 40
0.0
 40
0.0
 40
1.0
 40
1.0
 40
1.0
 40
2.0
 40
2.0
 40
2.0
 40
3.0
 40
3.0
 40
3.0
 40
4.0
 40
4.0
 40
4.0
 40
5.0
 40
5.0
 40
5.0
 40
5.0
 10
293.7677672165
 20
38.8463061315
 30
0.0
 10
293.7677672165
 20
38.8463061315
 30
0.0
 10
296.0841238709
 20
36.0167447092
 30
0.0
 10
296.0841238709
 20
36.0167447092
 30
0.0
 10
295.4324768175
 20
35.3645742446
 30
0.0
 10
294.6556036135
 20
34.6286579738
 30
0.0
 10
293.6844139689
 20
34.6286579738
 30
0.0
 10
292.6858760844
 20
34.6286579738
 30
0.0
 10
291.7425580909
 20
35.5582364211
 30
0.0
 10
291.7425580909
 20
36.5574285696
 30
0.0
 10
291.7425580909
 20
37.5566207182
 30
0.0
 10
292.921411164
 20
38.2632259568
 30
0.0
 10
293.6429336243
 20
38.7630837367
 30
0.0
 10
293.6429336243
 20
38.7630837367
 30
0.0
 10
293.7677672165
 20
38.8463061315
 30
0.0
 10
293.7677672165
 20
38.8463061315
 30
0.0
  0
SPLINE
  5
267
330
22C
100
AcDbEntity
  8
0
  6
Continuous
 62
     7
100
AcDbSpline
 70
     3
 71
     3
 72
    23
 73
    19
 74
     0
 42
0.000000001
 43
0.0000001
 40
0.0
 40
0.0
 40
0.0
 40
0.0
 40
1.0
 40
1.0
 40
1.0
 40
2.0
 40
2.0
 40
2.0
 40
3.0
 40
3.0
 40
3.0
 40
4.0
 40
4.0
 40
4.0
 40
5.0
 40
5.0
 40
5.0
 40
6.0
 40
6.0
 40
6.0
 40
6.0
 10
294.045175199
 20
40.4840600512
 30
0.0
 10
294.045175199
 20
40.4840600512
 30
0.0
 10
293.6986769265
 20
40.927389412
 30
0.0
 10
293.6986769265
 20
40.927389412
 30
0.0
 10
293.3928738815
 20
41.315498882
 30
0.0
 10
293.0739855544
 20
41.7040009104
 30
0.0
 10
293.0739855544
 20
42.2309452245
 30
0.0
 10
293.0739855544
 20
42.8971169411
 30
0.0
 10
293.6153236789
 20
43.3408388604
 30
0.0
 10
294.239229934
 20
43.3408388604
 30
0.0
 10
294.9330115961
 20
43.3408388604
 30
0.0
 10
295.4602176158
 20
42.9385972857
 30
0.0
 10
295.4602176158
 20
42.2035969847
 30
0.0
 10
295.4602176158
 20
41.4403324742
 30
0.0
 10
294.7389568611
 20
41.0102192483
 30
0.0
 10
294.2118816942
 20
40.594499833
 30
0.0
 10
294.2118816942
 20
40.594499833
 30
0.0
 10
294.045175199
 20
40.4840600512
 30
0.0
 10
294.045175199
 20
40.4840600512
 30
0.0
  0
SPLINE
  5
268
330
22C
100
AcDbEntity
  8
0
  6
Continuous
 62
     7
100
AcDbSpline
 70
     3
 71
     3
 72
    50
 73
    46
 74
     0
 42
0.000000001
 43
0.0000001
 40
0.0
 40
0.0
 40
0.0
 40
0.0
 40
1.0
 40
1.0
 40
1.0
 40
2.0
 40
2.0
 40
2.0
 40
3.0
 40
3.0
 40
3.0
 40
4.0
 40
4.0
 40
4.0
 40
5.0
 40
5.0
 40
5.0
 40
6.0
 40
6.0
 40
6.0
 40
7.0
 40
7.0
 40
7.0
 40
8.0
 40
8.0
 40
8.0
 40
9.0
 40
9.0
 40
9.0
 40
10.0
 40
10.0
 40
10.0
 40
11.0
 40
11.0
 40
11.0
 40
12.0
 40
12.0
 40
12.0
 40
13.0
 40
13.0
 40
13.0
 40
14.0
 40
14.0
 40
14.0
 40
15.0
 40
15.0
 40
15.0
 40
15.0
 10
297.998762362
 20
33.6854708331
 30
0.0
 10
297.998762362
 20
33.6854708331
 30
0.0
 10
299.6079903665
 20
33.6854708331
 30
0.0
 10
299.6079903665
 20
33.6854708331
 30
0.0
 10
299.6079903665
 20
33.6854708331
 30
0.0
 10
297.7349630729
 20
36.0026126045
 30
0.0
 10
297.7349630729
 20
36.0026126045
 30
0.0
 10
297.7349630729
 20
36.0026126045
 30
0.0
 10
299.0113014984
 20
37.5000922991
 30
0.0
 10
299.0113014984
 20
37.5000922991
 30
0.0
 10
299.0113014984
 20
37.5000922991
 30
0.0
 10
298.1790775506
 20
38.3611038676
 30
0.0
 10
298.1790775506
 20
38.3611038676
 30
0.0
 10
298.1790775506
 20
38.3611038676
 30
0.0
 10
296.9584824273
 20
36.9457997452
 30
0.0
 10
296.9584824273
 20
36.9457997452
 30
0.0
 10
296.9584824273
 20
36.9457997452
 30
0.0
 10
294.7805680585
 20
39.5811755796
 30
0.0
 10
294.7805680585
 20
39.5811755796
 30
0.0
 10
295.654141498
 20
40.2192139396
 30
0.0
 10
296.6808127391
 20
41.0102192483
 30
0.0
 10
296.6808127391
 20
42.1890723215
 30
0.0
 10
296.6808127391
 20
43.5627652465
 30
0.0
 10
295.5429165993
 20
44.3672483959
 30
0.0
 10
294.2676249964
 20
44.3672483959
 30
0.0
 10
292.894193777
 20
44.3672483959
 30
0.0
 10
291.8532595783
 20
43.5210231963
 30
0.0
 10
291.8532595783
 20
42.0783708341
 30
0.0
 10
291.8532595783
 20
41.1907961427
 30
0.0
 10
292.4085989547
 20
40.4139229386
 30
0.0
 10
293.0047644116
 20
39.7894932722
 30
0.0
 10
293.0047644116
 20
39.7894932722
 30
0.0
 10
292.3528556525
 20
39.3178997018
 30
0.0
 10
292.3528556525
 20
39.3178997018
 30
0.0
 10
291.3543177681
 20
38.5966389472
 30
0.0
 10
290.5214395563
 20
37.8753781925
 30
0.0
 10
290.5214395563
 20
36.5438198761
 30
0.0
 10
290.5214395563
 20
34.7401445781
 30
0.0
 10
291.9784857289
 20
33.463544447
 30
0.0
 10
293.7260251663
 20
33.463544447
 30
0.0
 10
294.9608832472
 20
33.463544447
 30
0.0
 10
296.0702534718
 20
34.1717199195
 30
0.0
 10
296.8611279278
 20
35.1002515442
 30
0.0
 10
296.8611279278
 20
35.1002515442
 30
0.0
 10
297.998762362
 20
33.6854708331
 30
0.0
 10
297.998762362
 20
33.6854708331
 30
0.0
  0
LINE
  5
269
330
22C
100
AcDbEntity
  8
0
  6
Continuous
 62
     7
100
AcDbLine
 10
283.801623737
 20
31.6593457377
 30
0.0
 11
306.2155344646
 21
31.6593457377
 31
0.0
  0
LINE
  5
26A
330
22C
100
AcDbEntity
  8
0
  6
Continuous
 62
     7
100
AcDbLine
 10
306.2155344646
 20
31.6593457377
 30
0.0
 11
306.2155344646
 21
54.0732564654
 31
0.0
  0
LINE
  5
26B
330
22C
100
AcDbEntity
  8
0
  6
Continuous
 62
     7
100
AcDbLine
 10
306.2155344646
 20
54.0732564654
 30
0.0
 11
283.801623737
 21
54.0732564654
 31
0.0
  0
LINE
  5
26C
330
22C
100
AcDbEntity
  8
0
  6
Continuous
 62
     7
100
AcDbLine
 10
283.801623737
 20
54.0732564654
 30
0.0
 11
283.801623737
 21
31.6593457377
 31
0.0
  0
ENDBLK
  5
26D
330
22C
100
AcDbEntity
  8
0
  6
ByBlock
 62
     0
100
AcDbBlockEnd
  0
BLOCK
  5
26E
330
22D
100
AcDbEntity
  8
0
100
AcDbBlockBegin
  2
PROIEZIONE_EU_BL0
 70
     0
 10
296.1824666296
 20
66.5745689654
 30
0.0
  3
PROIEZIONE_EU_BL0
  1

  0
LWPOLYLINE
  5
26F
330
22D
100
AcDbEntity
  8
DEFAULT_1
  6
CENTER
 62
     7
100
AcDbPolyline
 90
        2
 70
     0
 43
0.25
 10
302.3090872913
 20
71.5742630972
 10
302.3091282736
 20
61.5748748335
  0
LWPOLYLINE
  5
270
330
22D
100
AcDbEntity
  8
DEFAULT_1
  6
CENTER
 62
     7
100
AcDbPolyline
 90
        2
 70
     0
 43
0.25
 10
308.3091171163
 20
66.5748401005
 10
284.0558161429
 20
66.5745694401
  0
LWPOLYLINE
  5
271
330
22D
100
AcDbEntity
  8
0
  6
Continuous
 62
     7
100
AcDbPolyline
 90
        2
 70
     1
 43
0.25
 10
298.7619771155
 20
66.5560212112
 42
1.0
 10
305.8683062141
 20
66.5560212112
 42
1.0
  0
LWPOLYLINE
  5
272
330
22D
100
AcDbEntity
  8
0
  6
Continuous
 62
     7
100
AcDbPolyline
 90
        2
 70
     1
 43
0.25
 10
300.3117209438
 20
66.5739192558
 42
1.0
 10
304.3234726939
 20
66.5739192558
 42
1.0
  0
LWPOLYLINE
  5
273
330
22D
100
AcDbEntity
  8
0
  6
Continuous
 62
     7
100
AcDbPolyline
 90
        2
 70
     0
 43
0.25
 10
296.3091149103
 20
70.1497724606
 10
296.3091145557
 20
63.0495695523
  0
LWPOLYLINE
  5
274
330
22D
100
AcDbEntity
  8
0
  6
Continuous
 62
     7
100
AcDbPolyline
 90
        2
 70
     0
 43
0.25
 10
296.3091429921
 20
63.0495411159
 10
286.314585721
 20
64.5696345288
  0
LWPOLYLINE
  5
275
330
22D
100
AcDbEntity
  8
0
  6
Continuous
 62
     7
100
AcDbPolyline
 90
        2
 70
     0
 43
0.25
 10
286.3122757353
 20
64.5689569872
 10
286.3096088312
 20
68.5745955986
  0
LWPOLYLINE
  5
276
330
22D
100
AcDbEntity
  8
0
  6
Continuous
 62
     7
100
AcDbPolyline
 90
        2
 70
     0
 43
0.25
 10
286.3096005552
 20
68.5745873226
 10
296.3093437925
 20
70.1497445426
  0
ENDBLK
  5
277
330
22D
100
AcDbEntity
  8
0
  6
ByBlock
 62
     0
100
AcDbBlockEnd
  0
BLOCK
  5
2AB
330
22E
100
AcDbEntity
  8
0
100
AcDbBlockBegin
  2
*T8
 70
     1
 10
0.0
 20
0.0
 30
0.0
  3
*T8
  1

  0
LINE
  5
2AC
330
22E
100
AcDbEntity
  8
0
  6
Continuous
 62
     2
100
AcDbLine
 10
0.0
 20
0.0
 30
0.0
 11
130.0
 21
0.0
 31
0.0
  0
LINE
  5
2AD
330
22E
100
AcDbEntity
  8
0
  6
Continuous
 62
     2
100
AcDbLine
 10
0.0
 20
0.0
 30
0.0
 11
0.0
 21
-66.0
 31
0.0
  0
LINE
  5
2AE
330
22E
100
AcDbEntity
  8
0
  6
Continuous
 62
     2
100
AcDbLine
 10
30.0
 20
-8.0
 30
0.0
 11
130.0
 21
-8.0
 31
0.0
  0
LINE
  5
2AF
330
22E
100
AcDbEntity
  8
0
  6
Continuous
 62
     2
100
AcDbLine
 10
0.0
 20
-16.0
 30
0.0
 11
130.0
 21
-16.0
 31
0.0
  0
LINE
  5
2B0
330
22E
100
AcDbEntity
  8
0
  6
Continuous
 62
     2
100
AcDbLine
 10
30.0
 20
-22.0
 30
0.0
 11
130.0
 21
-22.0
 31
0.0
  0
LINE
  5
2B1
330
22E
100
AcDbEntity
  8
0
  6
Continuous
 62
     2
100
AcDbLine
 10
30.0
 20
-28.0
 30
0.0
 11
130.0
 21
-28.0
 31
0.0
  0
LINE
  5
2B2
330
22E
100
AcDbEntity
  8
0
  6
Continuous
 62
     2
100
AcDbLine
 10
30.0
 20
-34.0
 30
0.0
 11
130.0
 21
-34.0
 31
0.0
  0
LINE
  5
2B3
330
22E
100
AcDbEntity
  8
0
  6
Continuous
 62
     2
100
AcDbLine
 10
30.0
 20
-40.0
 30
0.0
 11
130.0
 21
-40.0
 31
0.0
  0
LINE
  5
2B4
330
22E
100
AcDbEntity
  8
0
  6
Continuous
 62
     2
100
AcDbLine
 10
30.0
 20
-46.0
 30
0.0
 11
130.0
 21
-46.0
 31
0.0
  0
LINE
  5
2B5
330
22E
100
AcDbEntity
  8
0
  6
Continuous
 62
     2
100
AcDbLine
 10
0.0
 20
-52.0
 30
0.0
 11
130.0
 21
-52.0
 31
0.0
  0
LINE
  5
2B6
330
22E
100
AcDbEntity
  8
0
  6
Continuous
 62
     2
100
AcDbLine
 10
0.0
 20
-58.0
 30
0.0
 11
130.0
 21
-58.0
 31
0.0
  0
LINE
  5
2B7
330
22E
100
AcDbEntity
  8
0
  6
Continuous
 62
     2
100
AcDbLine
 10
0.0
 20
-62.0
 30
0.0
 11
130.0
 21
-62.0
 31
0.0
  0
LINE
  5
2B8
330
22E
100
AcDbEntity
  8
0
  6
Continuous
 62
     2
100
AcDbLine
 10
0.0
 20
-66.0
 30
0.0
 11
130.0
 21
-66.0
 31
0.0
  0
LINE
  5
2B9
330
22E
100
AcDbEntity
  8
0
  6
Continuous
 62
     2
100
AcDbLine
 10
30.0
 20
0.0
 30
0.0
 11
30.0
 21
-58.0
 31
0.0
  0
LINE
  5
2BA
330
22E
100
AcDbEntity
  8
0
  6
Continuous
 62
     2
100
AcDbLine
 10
50.0
 20
-16.0
 30
0.0
 11
50.0
 21
-22.0
 31
0.0
  0
LINE
  5
2BB
330
22E
100
AcDbEntity
  8
0
  6
Continuous
 62
     2
100
AcDbLine
 10
80.0
 20
-46.0
 30
0.0
 11
80.0
 21
-58.0
 31
0.0
  0
LINE
  5
2BC
330
22E
100
AcDbEntity
  8
0
  6
Continuous
 62
     2
100
AcDbLine
 10
90.0
 20
-16.0
 30
0.0
 11
90.0
 21
-22.0
 31
0.0
  0
LINE
  5
2BD
330
22E
100
AcDbEntity
  8
0
  6
Continuous
 62
     2
100
AcDbLine
 10
90.0
 20
-28.0
 30
0.0
 11
90.0
 21
-34.0
 31
0.0
  0
LINE
  5
2BE
330
22E
100
AcDbEntity
  8
0
  6
Continuous
 62
     2
100
AcDbLine
 10
110.0
 20
-16.0
 30
0.0
 11
110.0
 21
-22.0
 31
0.0
  0
LINE
  5
2BF
330
22E
100
AcDbEntity
  8
0
  6
Continuous
 62
     2
100
AcDbLine
 10
120.0
 20
-28.0
 30
0.0
 11
120.0
 21
-34.0
 31
0.0
  0
LINE
  5
2C0
330
22E
100
AcDbEntity
  8
0
  6
Continuous
 62
     2
100
AcDbLine
 10
130.0
 20
0.0
 30
0.0
 11
130.0
 21
-66.0
 31
0.0
  0
MTEXT
  5
2C1
330
22E
100
AcDbEntity
  8
9_SOLID
  6
Continuous
 62
     2
100
AcDbMText
 10
31.4875
 20
-1.625
 30
0.0
 40
1.9
 41
189.819047619
 46
0.0
 71
     1
 72
     1
  1
EN: Chamfer/radii unlisted 0.3x45°. Remove sharp edges.\PGen. tol.: hole H11, shaft h11, lenght Js12. UNI EN 22768 Medium Grande.
  7
TEXTSTYLE_4
 73
     1
 44
0.9
  0
MTEXT
  5
2C2
330
22E
100
AcDbEntity
  8
9_SOLID
  6
Continuous
 62
     2
100
AcDbMText
 10
31.4875
 20
-9.625
 30
0.0
 40
1.9
 41
197.6904761905
 46
0.0
 71
     1
 72
     1
  1
IT: Sm./rac. non quotati 0.3x45°. Eliminare spigoli taglienti.\PToll. gen.: foro H11, albero h11, lunghezza Js12. UNI EN 22768 Grado Medio.
  7
TEXTSTYLE_4
 73
     1
 44
0.9
  0
MTEXT
  5
2C3
330
22E
100
AcDbEntity
  8
9_SOLID
  6
Continuous
 62
     2
100
AcDbMText
 10
31.4875
 20
-17.75
 30
0.0
 40
3.0
 41
29.4285714286
 46
0.0
 71
     1
 72
     1
  1
Pj: 423
  7
TEXTSTYLE_4
 73
     1
 44
0.9
  0
MTEXT
  5
2C4
330
22E
100
AcDbEntity
  8
9_SOLID
  6
Continuous
 62
     2
100
AcDbMText
 10
51.4875
 20
-17.75
 30
0.0
 40
3.0
 41
50.7142857143
 46
0.0
 71
     1
 72
     1
  1
% Check: %
  7
TEXTSTYLE_4
 73
     1
 44
0.9
  0
MTEXT
  5
2C5
330
22E
100
AcDbEntity
  8
9_SOLID
  6
Continuous
 62
     2
100
AcDbMText
 10
91.4875
 20
-17.75
 30
0.0
 40
3.0
 41
26.0
 46
0.0
 71
     1
 72
     1
  1
Rev:00
  7
TEXTSTYLE_4
 73
     1
 44
0.9
  0
MTEXT
  5
2C6
330
22E
100
AcDbEntity
  8
9_SOLID
  6
Continuous
 62
     2
100
AcDbMText
 10
111.4875
 20
-17.5
 30
0.0
 40
3.0
 41
26.2857142857
 46
0.0
 71
     1
 72
     1
  1
Ver: A
  7
TEXTSTYLE_4
 73
     1
 44
0.9
  0
MTEXT
  5
2C7
330
22E
100
AcDbEntity
  8
9_SOLID
  6
Continuous
 62
     2
100
AcDbMText
 10
31.4875
 20
-23.75
 30
0.0
 40
3.0
 41
98.2857142857
 46
0.0
 71
     1
 72
     1
  1
Neutral code: 423_C_401
  7
TEXTSTYLE_4
 73
     1
 44
0.9
  0
MTEXT
  5
2C8
330
22E
100
AcDbEntity
  8
9_SOLID
  6
Continuous
 62
     2
100
AcDbMText
 10
31.4875
 20
-29.75
 30
0.0
 40
3.0
 41
25.8571428571
 46
0.0
 71
     1
 72
     1
  1
Code: 
  7
TEXTSTYLE_4
 73
     1
 44
0.9
  0
MTEXT
  5
2C9
330
22E
100
AcDbEntity
  8
9_SOLID
  6
Continuous
 62
     2
100
AcDbMText
 10
91.4875
 20
-29.5
 30
0.0
 40
3.0
 41
37.1428571429
 46
0.0
 71
     1
 72
     1
  1
Scale: 1:1
  7
TEXTSTYLE_4
 73
     1
 44
0.9
  0
MTEXT
  5
2CA
330
22E
100
AcDbEntity
  8
9_SOLID
  6
Continuous
 62
     2
100
AcDbMText
 10
125.0
 20
-29.5
 30
0.0
 40
3.0
 41
10.5714285714
 46
0.0
 71
     2
 72
     1
  1
A3
  7
TEXTSTYLE_4
 73
     1
 44
0.9
  0
MTEXT
  5
2CB
330
22E
100
AcDbEntity
  8
9_SOLID
  6
Continuous
 62
     2
100
AcDbMText
 10
31.4875
 20
-35.5
 30
0.0
 40
3.0
 41
80.4285714286
 46
0.0
 71
     1
 72
     1
  1
It descr.: SPOT 3.4
  7
TEXTSTYLE_4
 73
     1
 44
0.9
  0
MTEXT
  5
2CC
330
22E
100
AcDbEntity
  8
9_SOLID
  6
Continuous
 62
     2
100
AcDbMText
 10
31.4875
 20
-41.5
 30
0.0
 40
3.0
 41
45.2857142857
 46
0.0
 71
     1
 72
     1
  1
En descr.: 
  7
TEXTSTYLE_4
 73
     1
 44
0.9
  0
MTEXT
  5
2CD
330
22E
100
AcDbEntity
  8
9_SOLID
  6
Continuous
 62
     2
100
AcDbMText
 10
31.4875
 20
-47.5
 30
0.0
 40
3.0
 41
42.1428571429
 46
0.0
 71
     1
 72
     1
  1
Des.: A.G.
  7
TEXTSTYLE_4
 73
     1
 44
0.9
  0
MTEXT
  5
2CE
330
22E
100
AcDbEntity
  8
9_SOLID
  6
Continuous
 62
     2
100
AcDbMText
 10
81.4875
 20
-47.5
 30
0.0
 40
3.0
 41
46.4285714286
 46
0.0
 71
     1
 72
     1
  1
Check: A.P.
  7
TEXTSTYLE_4
 73
     1
 44
0.9
  0
MTEXT
  5
2CF
330
22E
100
AcDbEntity
  8
9_SOLID
  6
Continuous
 62
     2
100
AcDbMText
 10
1.4875
 20
-53.5
 30
0.0
 40
3.0
 41
58.0
 46
0.0
 71
     1
 72
     1
  1
Date: 12.04.19
  7
TEXTSTYLE_4
 73
     1
 44
0.9
  0
MTEXT
  5
2D0
330
22E
100
AcDbEntity
  8
9_SOLID
  6
Continuous
 62
     2
100
AcDbMText
 10
31.4875
 20
-53.5
 30
0.0
 40
3.0
 41
24.2857142857
 46
0.0
 71
     1
 72
     1
  1
Mat.: 
  7
TEXTSTYLE_4
 73
     1
 44
0.9
  0
MTEXT
  5
2D1
330
22E
100
AcDbEntity
  8
9_SOLID
  6
Continuous
 62
     2
100
AcDbMText
 10
81.4875
 20
-54.0
 30
0.0
 40
2.0
 41
56.4761904762
 46
0.0
 71
     1
 72
     1
  1
Disegno per catalogo
  7
TEXTSTYLE_4
 73
     1
 44
0.9
  0
MTEXT
  5
2D2
330
22E
100
AcDbEntity
  8
9_SOLID
  6
Continuous
 62
     2
100
AcDbMText
 10
1.4875
 20
-59.1
 30
0.0
 40
1.8
 41
234.9428571429
 46
0.0
 71
     1
 72
     1
  1
It: A norma di legge si diffida da qualsiasi riproduzione senza nostra autorizzazione esplicita.
  7
TEXTSTYLE_4
 73
     1
 44
0.9
  0
MTEXT
  5
2D3
330
22E
100
AcDbEntity
  8
9_SOLID
  6
Continuous
 62
     2
100
AcDbMText
 10
1.4875
 20
-63.1
 30
0.0
 40
1.8
 41
210.8571428571
 46
0.0
 71
     1
 72
     1
  1
En: According to the law, beware of any reproduction made without our authorization.
  7
TEXTSTYLE_4
 73
     1
 44
0.9
  0
ENDBLK
  5
2D4
330
22E
100
AcDbEntity
  8
0
  6
ByBlock
 62
     0
100
AcDbBlockEnd
  0
ENDSEC
  0
SECTION
  2
ENTITIES
  0
LINE
  5
2D5
330
225
100
AcDbEntity
 67
     1
  8
0
  6
Continuous
 62
     7
100
AcDbLine
 10
0.0
 20
0.0
 30
0.0
 11
420.0
 21
0.0
 31
0.0
  0
LINE
  5
2D6
330
225
100
AcDbEntity
 67
     1
  8
0
  6
Continuous
 62
     7
100
AcDbLine
 10
420.0
 20
0.0
 30
0.0
 11
420.0
 21
297.0
 31
0.0
  0
LINE
  5
2D7
330
225
100
AcDbEntity
 67
     1
  8
0
  6
Continuous
 62
     7
100
AcDbLine
 10
0.0
 20
297.0
 30
0.0
 11
420.0
 21
297.0
 31
0.0
  0
LINE
  5
2D8
330
225
100
AcDbEntity
 67
     1
  8
0
  6
Continuous
 62
     7
100
AcDbLine
 10
0.0
 20
0.0
 30
0.0
 11
0.0
 21
297.0
 31
0.0
  0
VIEWPORT
  5
2D9
330
225
100
AcDbEntity
 67
     1
  8
0
100
AcDbViewport
 10
210.0
 20
148.5
 30
0.0
 40
420.0
 41
297.0
 68
     1
 69
     1
 12
210.0
 22
148.5
 13
0.0
 23
0.0
 14
10.0
 24
10.0
 15
10.0
 25
10.0
 16
0.0
 26
0.0
 36
1.0
 17
0.0
 27
0.0
 37
0.0
 42
50.0
 43
0.0
 44
0.0
 45
297.0
 50
0.0
 51
0.0
 72
   100
 90
    32864
  1

281
     0
 71
     1
 74
     0
110
0.0
120
0.0
130
0.0
111
1.0
121
0.0
131
0.0
112
0.0
122
1.0
132
0.0
 79
     0
146
0.0
170
     0
 61
     5
348
4FF
292
     1
282
     1
141
0.0
142
0.0
 63
   256
361
51B
  0
SPLINE
  5
2DA
330
225
100
AcDbEntity
 67
     1
  8
0
  6
Continuous
 62
     2
100
AcDbSpline
 70
     0
 71
     3
 72
    13
 73
     9
 74
     0
 42
0.000000001
 43
0.0000001
 40
0.0
 40
0.0
 40
0.0
 40
0.0
 40
0.1666666667
 40
0.3333333333
 40
0.5
 40
0.6666666667
 40
0.8333333333
 40
1.0
 40
1.0
 40
1.0
 40
1.0
 10
135.1581940564
 20
105.4810176096
 30
0.0
 10
135.4197594822
 20
105.4810176096
 30
0.0
 10
135.9430574378
 20
105.4860290228
 30
0.0
 10
136.6753747606
 20
105.506606883
 30
0.0
 10
137.3040465845
 20
105.5347032561
 30
0.0
 10
137.7863063632
 20
105.5627706372
 30
0.0
 10
138.0893049212
 20
105.5832926345
 30
0.0
 10
138.1581940564
 20
105.5882974782
 30
0.0
 10
138.1581940564
 20
105.5882974782
 30
0.0
  0
SPLINE
  5
2DB
330
225
100
AcDbEntity
 67
     1
  8
0
  6
Continuous
 62
     2
100
AcDbSpline
 70
     0
 71
     3
 72
    13
 73
     9
 74
     0
 42
0.000000001
 43
0.0000001
 40
0.0
 40
0.0
 40
0.0
 40
0.0
 40
0.1666666667
 40
0.3333333333
 40
0.5
 40
0.6666666667
 40
0.8333333333
 40
1.0
 40
1.0
 40
1.0
 40
1.0
 10
132.1581940564
 20
105.5882974782
 30
0.0
 10
132.1581940564
 20
105.5882974782
 30
0.0
 10
132.2270832183
 20
105.5832926384
 30
0.0
 10
132.5300789959
 20
105.5627708073
 30
0.0
 10
133.0123447106
 20
105.5347030551
 30
0.0
 10
133.6410269032
 20
105.5066063272
 30
0.0
 10
134.3733511838
 20
105.4860286599
 30
0.0
 10
134.8966374734
 20
105.4810176096
 30
0.0
 10
135.1581940564
 20
105.4810176096
 30
0.0
  0
SPLINE
  5
2DC
330
225
100
AcDbEntity
 67
     1
  8
0
  6
Continuous
 62
     2
100
AcDbSpline
 70
     0
 71
     3
 72
    13
 73
     9
 74
     0
 42
0.000000001
 43
0.0000001
 40
0.0
 40
0.0
 40
0.0
 40
0.0
 40
0.1666666667
 40
0.3333333333
 40
0.5
 40
0.6666666667
 40
0.8333333333
 40
1.0
 40
1.0
 40
1.0
 40
1.0
 10
138.1581940564
 20
21.5882974782
 30
0.0
 10
138.1581940564
 20
21.5882974782
 30
0.0
 10
138.0893048944
 20
21.5933023181
 30
0.0
 10
137.7863091168
 20
21.6138241492
 30
0.0
 10
137.3040434021
 20
21.6418919014
 30
0.0
 10
136.6753612094
 20
21.6699886293
 30
0.0
 10
135.9430369287
 20
21.6905662966
 30
0.0
 10
135.4197506392
 20
21.6955773469
 30
0.0
 10
135.1581940564
 20
21.6955773469
 30
0.0
  0
SPLINE
  5
2DD
330
225
100
AcDbEntity
 67
     1
  8
0
  6
Continuous
 62
     2
100
AcDbSpline
 70
     0
 71
     3
 72
    13
 73
     9
 74
     0
 42
0.000000001
 43
0.0000001
 40
0.0
 40
0.0
 40
0.0
 40
0.0
 40
0.1666666667
 40
0.3333333333
 40
0.5
 40
0.6666666667
 40
0.8333333333
 40
1.0
 40
1.0
 40
1.0
 40
1.0
 10
135.1581940564
 20
21.6955773469
 30
0.0
 10
134.8966286306
 20
21.6955773469
 30
0.0
 10
134.3733306752
 20
21.6905659336
 30
0.0
 10
133.6410133523
 20
21.6699880735
 30
0.0
 10
133.0123415283
 20
21.6418917004
 30
0.0
 10
132.5300817495
 20
21.6138243193
 30
0.0
 10
132.2270831915
 20
21.5933023219
 30
0.0
 10
132.1581940564
 20
21.5882974782
 30
0.0
 10
132.1581940564
 20
21.5882974782
 30
0.0
  0
LINE
  5
2DE
330
225
100
AcDbEntity
 67
     1
  8
3_ALL_AXES
  6
Continuous
 62
     7
100
AcDbLine
 10
129.1581940564
 20
105.5882974782
 30
0.0
 11
129.1581940564
 21
106.5882974782
 31
0.0
  0
LINE
  5
2DF
330
225
100
AcDbEntity
 67
     1
  8
3_ALL_AXES
  6
Continuous
 62
     7
100
AcDbLine
 10
141.1581940564
 20
105.5882974782
 30
0.0
 11
141.1581940564
 21
106.5882974782
 31
0.0
  0
LINE
  5
2E0
330
225
100
AcDbEntity
 67
     1
  8
3_ALL_AXES
  6
Continuous
 62
     7
100
AcDbLine
 10
129.1581940564
 20
105.5882974782
 30
0.0
 11
132.1581940564
 21
105.5882974782
 31
0.0
  0
LINE
  5
2E1
330
225
100
AcDbEntity
 67
     1
  8
3_ALL_AXES
  6
Continuous
 62
     7
100
AcDbLine
 10
132.1581940564
 20
105.5882974782
 30
0.0
 11
132.3586325272
 21
105.5882974782
 31
0.0
  0
LINE
  5
2E2
330
225
100
AcDbEntity
 67
     1
  8
3_ALL_AXES
  6
Continuous
 62
     7
100
AcDbLine
 10
132.3586325272
 20
105.5882974782
 30
0.0
 11
137.9577555856
 21
105.5882974782
 31
0.0
  0
LINE
  5
2E3
330
225
100
AcDbEntity
 67
     1
  8
3_ALL_AXES
  6
Continuous
 62
     7
100
AcDbLine
 10
137.9577555856
 20
105.5882974782
 30
0.0
 11
138.1581940564
 21
105.5882974782
 31
0.0
  0
LINE
  5
2E4
330
225
100
AcDbEntity
 67
     1
  8
3_ALL_AXES
  6
Continuous
 62
     7
100
AcDbLine
 10
138.1581940564
 20
105.5882974782
 30
0.0
 11
141.1581940564
 21
105.5882974782
 31
0.0
  0
LINE
  5
2E5
330
225
100
AcDbEntity
 67
     1
  8
3_ALL_AXES
  6
Continuous
 62
     7
100
AcDbLine
 10
129.1581940564
 20
17.5882974782
 30
0.0
 11
129.1581940564
 21
18.5882974782
 31
0.0
  0
LINE
  5
2E6
330
225
100
AcDbEntity
 67
     1
  8
3_ALL_AXES
  6
Continuous
 62
     7
100
AcDbLine
 10
141.1581940564
 20
17.5882974782
 30
0.0
 11
141.1581940564
 21
18.5882974782
 31
0.0
  0
LINE
  5
2E7
330
225
100
AcDbEntity
 67
     1
  8
3_ALL_AXES
  6
Continuous
 62
     7
100
AcDbLine
 10
129.1581940564
 20
17.5882974782
 30
0.0
 11
129.9081940564
 21
17.5882974782
 31
0.0
  0
LINE
  5
2E8
330
225
100
AcDbEntity
 67
     1
  8
3_ALL_AXES
  6
Continuous
 62
     7
100
AcDbLine
 10
129.9081940564
 20
17.5882974782
 30
0.0
 11
131.9581940564
 21
17.5882974782
 31
0.0
  0
LINE
  5
2E9
330
225
100
AcDbEntity
 67
     1
  8
3_ALL_AXES
  6
Continuous
 62
     7
100
AcDbLine
 10
131.9581940564
 20
17.5882974782
 30
0.0
 11
132.1581940564
 21
17.5882974782
 31
0.0
  0
LINE
  5
2EA
330
225
100
AcDbEntity
 67
     1
  8
3_ALL_AXES
  6
Continuous
 62
     7
100
AcDbLine
 10
132.1581940564
 20
17.5882974782
 30
0.0
 11
138.1581940564
 21
17.5882974782
 31
0.0
  0
LINE
  5
2EB
330
225
100
AcDbEntity
 67
     1
  8
3_ALL_AXES
  6
Continuous
 62
     7
100
AcDbLine
 10
138.1581940564
 20
17.5882974782
 30
0.0
 11
138.3581940564
 21
17.5882974782
 31
0.0
  0
LINE
  5
2EC
330
225
100
AcDbEntity
 67
     1
  8
3_ALL_AXES
  6
Continuous
 62
     7
100
AcDbLine
 10
138.3581940564
 20
17.5882974782
 30
0.0
 11
140.4081940564
 21
17.5882974782
 31
0.0
  0
LINE
  5
2ED
330
225
100
AcDbEntity
 67
     1
  8
3_ALL_AXES
  6
Continuous
 62
     7
100
AcDbLine
 10
140.4081940564
 20
17.5882974782
 30
0.0
 11
141.1581940564
 21
17.5882974782
 31
0.0
  0
LINE
  5
2EE
330
225
100
AcDbEntity
 67
     1
  8
3_ALL_AXES
  6
Continuous
 62
     7
100
AcDbLine
 10
141.1581940564
 20
21.5882974782
 30
0.0
 11
141.1581940564
 21
20.5882974782
 31
0.0
  0
LINE
  5
2EF
330
225
100
AcDbEntity
 67
     1
  8
3_ALL_AXES
  6
Continuous
 62
     7
100
AcDbLine
 10
129.1581940564
 20
21.5882974782
 30
0.0
 11
129.1581940564
 21
20.5882974782
 31
0.0
  0
LINE
  5
2F0
330
225
100
AcDbEntity
 67
     1
  8
3_ALL_AXES
  6
Continuous
 62
     7
100
AcDbLine
 10
141.1581940564
 20
21.5882974782
 30
0.0
 11
138.1581940564
 21
21.5882974782
 31
0.0
  0
LINE
  5
2F1
330
225
100
AcDbEntity
 67
     1
  8
3_ALL_AXES
  6
Continuous
 62
     7
100
AcDbLine
 10
138.1581940564
 20
21.5882974782
 30
0.0
 11
137.9577555856
 21
21.5882974782
 31
0.0
  0
LINE
  5
2F2
330
225
100
AcDbEntity
 67
     1
  8
3_ALL_AXES
  6
Continuous
 62
     7
100
AcDbLine
 10
137.9577555856
 20
21.5882974782
 30
0.0
 11
132.3586325272
 21
21.5882974782
 31
0.0
  0
LINE
  5
2F3
330
225
100
AcDbEntity
 67
     1
  8
3_ALL_AXES
  6
Continuous
 62
     7
100
AcDbLine
 10
132.3586325272
 20
21.5882974782
 30
0.0
 11
132.1581940564
 21
21.5882974782
 31
0.0
  0
LINE
  5
2F4
330
225
100
AcDbEntity
 67
     1
  8
3_ALL_AXES
  6
Continuous
 62
     7
100
AcDbLine
 10
132.1581940564
 20
21.5882974782
 30
0.0
 11
129.1581940564
 21
21.5882974782
 31
0.0
  0
LINE
  5
2F5
330
225
100
AcDbEntity
 67
     1
  8
3_ALL_AXES
  6
Continuous
 62
     7
100
AcDbLine
 10
141.1581940564
 20
109.5882974782
 30
0.0
 11
141.1581940564
 21
108.5882974782
 31
0.0
  0
LINE
  5
2F6
330
225
100
AcDbEntity
 67
     1
  8
3_ALL_AXES
  6
Continuous
 62
     7
100
AcDbLine
 10
129.1581940564
 20
109.5882974782
 30
0.0
 11
129.1581940564
 21
108.5882974782
 31
0.0
  0
LINE
  5
2F7
330
225
100
AcDbEntity
 67
     1
  8
3_ALL_AXES
  6
Continuous
 62
     7
100
AcDbLine
 10
141.1581940564
 20
109.5882974782
 30
0.0
 11
140.4081940564
 21
109.5882974782
 31
0.0
  0
LINE
  5
2F8
330
225
100
AcDbEntity
 67
     1
  8
3_ALL_AXES
  6
Continuous
 62
     7
100
AcDbLine
 10
140.4081940564
 20
109.5882974782
 30
0.0
 11
138.3581940564
 21
109.5882974782
 31
0.0
  0
LINE
  5
2F9
330
225
100
AcDbEntity
 67
     1
  8
3_ALL_AXES
  6
Continuous
 62
     7
100
AcDbLine
 10
138.3581940564
 20
109.5882974782
 30
0.0
 11
138.1581940564
 21
109.5882974782
 31
0.0
  0
LINE
  5
2FA
330
225
100
AcDbEntity
 67
     1
  8
3_ALL_AXES
  6
Continuous
 62
     7
100
AcDbLine
 10
138.1581940564
 20
109.5882974782
 30
0.0
 11
132.1581940564
 21
109.5882974782
 31
0.0
  0
LINE
  5
2FB
330
225
100
AcDbEntity
 67
     1
  8
3_ALL_AXES
  6
Continuous
 62
     7
100
AcDbLine
 10
132.1581940564
 20
109.5882974782
 30
0.0
 11
131.9581940564
 21
109.5882974782
 31
0.0
  0
LINE
  5
2FC
330
225
100
AcDbEntity
 67
     1
  8
3_ALL_AXES
  6
Continuous
 62
     7
100
AcDbLine
 10
131.9581940564
 20
109.5882974782
 30
0.0
 11
129.9081940564
 21
109.5882974782
 31
0.0
  0
LINE
  5
2FD
330
225
100
AcDbEntity
 67
     1
  8
3_ALL_AXES
  6
Continuous
 62
     7
100
AcDbLine
 10
129.9081940564
 20
109.5882974782
 30
0.0
 11
129.1581940564
 21
109.5882974782
 31
0.0
  0
LINE
  5
2FE
330
225
100
AcDbEntity
 67
     1
  8
3_ALL_AXES
  6
Continuous
 62
     7
100
AcDbLine
 10
132.2081940564
 20
112.8882974782
 30
0.0
 11
132.8487929796
 21
112.8882974782
 31
0.0
  0
LINE
  5
2FF
330
225
100
AcDbEntity
 67
     1
  8
3_ALL_AXES
  6
Continuous
 62
     7
100
AcDbLine
 10
132.8487929796
 20
112.8882974782
 30
0.0
 11
134.003493518
 21
112.8882974782
 31
0.0
  0
LINE
  5
300
330
225
100
AcDbEntity
 67
     1
  8
3_ALL_AXES
  6
Continuous
 62
     7
100
AcDbLine
 10
134.003493518
 20
112.8882974782
 30
0.0
 11
136.3128945947
 21
112.8882974782
 31
0.0
  0
LINE
  5
301
330
225
100
AcDbEntity
 67
     1
  8
3_ALL_AXES
  6
Continuous
 62
     7
100
AcDbLine
 10
136.3128945947
 20
112.8882974782
 30
0.0
 11
137.4675951331
 21
112.8882974782
 31
0.0
  0
LINE
  5
302
330
225
100
AcDbEntity
 67
     1
  8
3_ALL_AXES
  6
Continuous
 62
     7
100
AcDbLine
 10
137.4675951331
 20
112.8882974782
 30
0.0
 11
138.1081940564
 21
112.8882974782
 31
0.0
  0
ARC
  5
303
330
225
100
AcDbEntity
 67
     1
  8
3_ALL_AXES
  6
Continuous
 62
     7
100
AcDbCircle
 10
134.9852670223
 20
108.0253903496
 30
0.0
 40
5.6
100
AcDbArc
 50
119.7295032907
 51
155.0423847701
  0
ARC
  5
304
330
225
100
AcDbEntity
 67
     1
  8
3_ALL_AXES
  6
Continuous
 62
     7
100
AcDbCircle
 10
135.3311210904
 20
108.0253903496
 30
0.0
 40
5.6
100
AcDbArc
 50
24.9576152299
 51
60.2704967093
  0
LINE
  5
305
330
225
100
AcDbEntity
 67
     1
  8
3_ALL_AXES
  6
Continuous
 62
     7
100
AcDbLine
 10
129.9081940564
 20
110.3882974782
 30
0.0
 11
129.9081940564
 21
109.5882974782
 31
0.0
  0
LINE
  5
306
330
225
100
AcDbEntity
 67
     1
  8
3_ALL_AXES
  6
Continuous
 62
     7
100
AcDbLine
 10
140.4081940564
 20
110.3882974782
 30
0.0
 11
140.4081940564
 21
109.5882974782
 31
0.0
  0
LINE
  5
307
330
225
100
AcDbEntity
 67
     1
  8
3_ALL_AXES
  6
Continuous
 62
     7
100
AcDbLine
 10
129.9081940564
 20
110.3882974782
 30
0.0
 11
140.4081940564
 21
110.3882974782
 31
0.0
  0
LINE
  5
308
330
225
100
AcDbEntity
 67
     1
  8
3_ALL_AXES
  6
Continuous
 62
     7
100
AcDbLine
 10
138.1081940564
 20
14.2882974782
 30
0.0
 11
137.4675951331
 21
14.2882974782
 31
0.0
  0
LINE
  5
309
330
225
100
AcDbEntity
 67
     1
  8
3_ALL_AXES
  6
Continuous
 62
     7
100
AcDbLine
 10
137.4675951331
 20
14.2882974782
 30
0.0
 11
136.3128945947
 21
14.2882974782
 31
0.0
  0
LINE
  5
30A
330
225
100
AcDbEntity
 67
     1
  8
3_ALL_AXES
  6
Continuous
 62
     7
100
AcDbLine
 10
136.3128945947
 20
14.2882974782
 30
0.0
 11
134.003493518
 21
14.2882974782
 31
0.0
  0
LINE
  5
30B
330
225
100
AcDbEntity
 67
     1
  8
3_ALL_AXES
  6
Continuous
 62
     7
100
AcDbLine
 10
134.003493518
 20
14.2882974782
 30
0.0
 11
132.8487929796
 21
14.2882974782
 31
0.0
  0
LINE
  5
30C
330
225
100
AcDbEntity
 67
     1
  8
3_ALL_AXES
  6
Continuous
 62
     7
100
AcDbLine
 10
132.8487929796
 20
14.2882974782
 30
0.0
 11
132.2081940564
 21
14.2882974782
 31
0.0
  0
ARC
  5
30D
330
225
100
AcDbEntity
 67
     1
  8
3_ALL_AXES
  6
Continuous
 62
     7
100
AcDbCircle
 10
135.3311210904
 20
19.1512046069
 30
0.0
 40
5.6
100
AcDbArc
 50
299.7295032907
 51
335.0423847700999
  0
ARC
  5
30E
330
225
100
AcDbEntity
 67
     1
  8
3_ALL_AXES
  6
Continuous
 62
     7
100
AcDbCircle
 10
134.9852670223
 20
19.1512046069
 30
0.0
 40
5.6
100
AcDbArc
 50
204.9576152299
 51
240.2704967093
  0
LINE
  5
30F
330
225
100
AcDbEntity
 67
     1
  8
3_ALL_AXES
  6
Continuous
 62
     7
100
AcDbLine
 10
140.4081940564
 20
16.7882974782
 30
0.0
 11
140.4081940564
 21
17.5882974782
 31
0.0
  0
LINE
  5
310
330
225
100
AcDbEntity
 67
     1
  8
3_ALL_AXES
  6
Continuous
 62
     7
100
AcDbLine
 10
129.9081940564
 20
16.7882974782
 30
0.0
 11
129.9081940564
 21
17.5882974782
 31
0.0
  0
LINE
  5
311
330
225
100
AcDbEntity
 67
     1
  8
3_ALL_AXES
  6
Continuous
 62
     7
100
AcDbLine
 10
140.4081940564
 20
16.7882974782
 30
0.0
 11
129.9081940564
 21
16.7882974782
 31
0.0
  0
LINE
  5
312
330
225
100
AcDbEntity
 67
     1
  8
02___PRT_ALL_AXES
  6
Continuous
 62
     7
100
AcDbLine
 10
163.1581940564
 20
71.3882974782
 30
0.0
 11
168.9081940564
 21
71.3882974782
 31
0.0
  0
LINE
  5
313
330
225
100
AcDbEntity
 67
     1
  8
02___PRT_ALL_AXES
  6
Continuous
 62
     7
100
AcDbLine
 10
163.1581940564
 20
55.7882974782
 30
0.0
 11
168.9081940564
 21
55.7882974782
 31
0.0
  0
LINE
  5
314
330
225
100
AcDbEntity
 67
     1
  8
7_ALL_FEATURES
  6
Continuous
 62
     7
100
AcDbLine
 10
180.6081940564
 20
54.5882974782
 30
0.0
 11
179.9081940564
 21
54.5882974782
 31
0.0
  0
LINE
  5
315
330
225
100
AcDbEntity
 67
     1
  8
7_ALL_FEATURES
  6
Continuous
 62
     7
100
AcDbLine
 10
163.1581940564
 20
63.5882974782
 30
0.0
 11
163.1581940564
 21
73.0882974782
 31
0.0
  0
LINE
  5
316
330
225
100
AcDbEntity
 67
     1
  8
7_ALL_FEATURES
  6
Continuous
 62
     7
100
AcDbLine
 10
180.6081940564
 20
72.5882974782
 30
0.0
 11
179.9081940564
 21
72.5882974782
 31
0.0
  0
ARC
  5
317
330
225
100
AcDbEntity
 67
     1
  8
7_ALL_FEATURES
  6
Continuous
 62
     7
100
AcDbCircle
 10
180.6081940564
 20
58.0882974782
 30
0.0
 40
3.5
100
AcDbArc
 50
270.0
 51
360.0
  0
LINE
  5
318
330
225
100
AcDbEntity
 67
     1
  8
7_ALL_FEATURES
  6
Continuous
 62
     7
100
AcDbLine
 10
184.1081940564
 20
69.0882974782
 30
0.0
 11
184.1081940564
 21
67.4382974782
 31
0.0
  0
LINE
  5
319
330
225
100
AcDbEntity
 67
     1
  8
7_ALL_FEATURES
  6
Continuous
 62
     7
100
AcDbLine
 10
184.1081940564
 20
67.4382974782
 30
0.0
 11
184.1081940564
 21
59.7382974782
 31
0.0
  0
LINE
  5
31A
330
225
100
AcDbEntity
 67
     1
  8
7_ALL_FEATURES
  6
Continuous
 62
     7
100
AcDbLine
 10
184.1081940564
 20
59.7382974782
 30
0.0
 11
184.1081940564
 21
58.0882974782
 31
0.0
  0
ARC
  5
31B
330
225
100
AcDbEntity
 67
     1
  8
7_ALL_FEATURES
  6
Continuous
 62
     7
100
AcDbCircle
 10
180.6081940564
 20
69.0882974782
 30
0.0
 40
3.5
100
AcDbArc
 50
0.0
 51
90.0
  0
LINE
  5
31C
330
225
100
AcDbEntity
 67
     1
  8
7_ALL_FEATURES
  6
Continuous
 62
     7
100
AcDbLine
 10
163.1581940564
 20
54.0882974782
 30
0.0
 11
163.1581940564
 21
63.5882974782
 31
0.0
  0
LINE
  5
31D
330
225
100
AcDbEntity
 67
     1
  8
7_ALL_FEATURES
  6
Continuous
 62
     7
100
AcDbLine
 10
155.1581940564
 20
54.0882974782
 30
0.0
 11
163.1581940564
 21
54.0882974782
 31
0.0
  0
LINE
  5
31E
330
225
100
AcDbEntity
 67
     1
  8
7_ALL_FEATURES
  6
Continuous
 62
     7
100
AcDbLine
 10
155.1581940564
 20
73.0882974782
 30
0.0
 11
163.1581940564
 21
73.0882974782
 31
0.0
  0
LINE
  5
31F
330
225
100
AcDbEntity
 67
     1
  8
7_ALL_FEATURES
  6
Continuous
 62
     7
100
AcDbLine
 10
168.9081940564
 20
52.6186423636
 30
0.0
 11
179.9081940564
 21
52.6186423636
 31
0.0
  0
LINE
  5
320
330
225
100
AcDbEntity
 67
     1
  8
7_ALL_FEATURES
  6
Continuous
 62
     7
100
AcDbLine
 10
168.9081940564
 20
74.5579525928
 30
0.0
 11
179.9081940564
 21
74.5579525928
 31
0.0
  0
LINE
  5
321
330
225
100
AcDbEntity
 67
     1
  8
7_ALL_FEATURES
  6
Continuous
 62
     7
100
AcDbLine
 10
168.9081940564
 20
74.5579525928
 30
0.0
 11
168.9081940564
 21
71.3882974782
 31
0.0
  0
LINE
  5
322
330
225
100
AcDbEntity
 67
     1
  8
7_ALL_FEATURES
  6
Continuous
 62
     7
100
AcDbLine
 10
168.9081940564
 20
71.3882974782
 30
0.0
 11
168.9081940564
 21
69.0731250355
 31
0.0
  0
LINE
  5
323
330
225
100
AcDbEntity
 67
     1
  8
7_ALL_FEATURES
  6
Continuous
 62
     7
100
AcDbLine
 10
168.9081940564
 20
69.0731250355
 30
0.0
 11
168.9081940564
 21
58.1034699209
 31
0.0
  0
LINE
  5
324
330
225
100
AcDbEntity
 67
     1
  8
7_ALL_FEATURES
  6
Continuous
 62
     7
100
AcDbLine
 10
168.9081940564
 20
58.1034699209
 30
0.0
 11
168.9081940564
 21
55.7882974782
 31
0.0
  0
LINE
  5
325
330
225
100
AcDbEntity
 67
     1
  8
7_ALL_FEATURES
  6
Continuous
 62
     7
100
AcDbLine
 10
168.9081940564
 20
55.7882974782
 30
0.0
 11
168.9081940564
 21
52.6186423636
 31
0.0
  0
LINE
  5
326
330
225
100
AcDbEntity
 67
     1
  8
7_ALL_FEATURES
  6
Continuous
 62
     7
100
AcDbLine
 10
179.9081940564
 20
74.5579525928
 30
0.0
 11
179.9081940564
 21
72.5882974782
 31
0.0
  0
LINE
  5
327
330
225
100
AcDbEntity
 67
     1
  8
7_ALL_FEATURES
  6
Continuous
 62
     7
100
AcDbLine
 10
179.9081940564
 20
72.5882974782
 30
0.0
 11
179.9081940564
 21
69.0731250355
 31
0.0
  0
LINE
  5
328
330
225
100
AcDbEntity
 67
     1
  8
7_ALL_FEATURES
  6
Continuous
 62
     7
100
AcDbLine
 10
179.9081940564
 20
69.0731250355
 30
0.0
 11
179.9081940564
 21
58.1034699209
 31
0.0
  0
LINE
  5
329
330
225
100
AcDbEntity
 67
     1
  8
7_ALL_FEATURES
  6
Continuous
 62
     7
100
AcDbLine
 10
179.9081940564
 20
58.1034699209
 30
0.0
 11
179.9081940564
 21
54.5882974782
 31
0.0
  0
LINE
  5
32A
330
225
100
AcDbEntity
 67
     1
  8
7_ALL_FEATURES
  6
Continuous
 62
     7
100
AcDbLine
 10
179.9081940564
 20
54.5882974782
 30
0.0
 11
179.9081940564
 21
52.6186423636
 31
0.0
  0
LINE
  5
32B
330
225
100
AcDbEntity
 67
     1
  8
7_ALL_FEATURES
  6
Continuous
 62
     7
100
AcDbLine
 10
155.1581940564
 20
63.5882974782
 30
0.0
 11
163.1581940564
 21
63.5882974782
 31
0.0
  0
LINE
  5
32C
330
225
100
AcDbEntity
 67
     1
  8
7_ALL_FEATURES
  6
Continuous
 62
     7
100
AcDbLine
 10
168.9081940564
 20
58.1034699209
 30
0.0
 11
179.9081940564
 21
58.1034699209
 31
0.0
  0
LINE
  5
32D
330
225
100
AcDbEntity
 67
     1
  8
7_ALL_FEATURES
  6
Continuous
 62
     7
100
AcDbLine
 10
168.9081940564
 20
69.0731250355
 30
0.0
 11
179.9081940564
 21
69.0731250355
 31
0.0
  0
LINE
  5
32E
330
225
100
AcDbEntity
 67
     1
  8
7_ALL_FEATURES
  6
Continuous
 62
     9
100
AcDbLine
 10
180.6081940564
 20
72.5882974782
 30
0.0
 11
180.6081940564
 21
54.5882974782
 31
0.0
  0
SPLINE
  5
32F
330
225
100
AcDbEntity
 67
     1
  8
7_ALL_FEATURES
  6
Continuous
 62
     7
100
AcDbSpline
 70
     0
 71
     3
 72
    13
 73
     9
 74
     0
 42
0.000000001
 43
0.0000001
 40
0.0
 40
0.0
 40
0.0
 40
0.0
 40
0.1184105226
 40
0.237628839
 40
0.3583965797
 40
0.4813323562
 40
0.7347958233
 40
1.0
 40
1.0
 40
1.0
 40
1.0
 10
238.9489941688
 20
71.7501773003
 30
0.0
 10
238.9790576043
 20
71.7679289889
 30
0.0
 10
239.0421896443
 20
71.7990350054
 30
0.0
 10
239.1432561248
 20
71.8311382411
 30
0.0
 10
239.2492726407
 20
71.8482947134
 30
0.0
 10
239.3962671167
 20
71.8509535242
 30
0.0
 10
239.5843492135
 20
71.8149352193
 30
0.0
 10
239.7242325737
 20
71.7491683033
 30
0.0
 10
239.7908573024
 20
71.7082338485
 30
0.0
  0
SPLINE
  5
330
330
225
100
AcDbEntity
 67
     1
  8
7_ALL_FEATURES
  6
Continuous
 62
     7
100
AcDbSpline
 70
     0
 71
     3
 72
    15
 73
    11
 74
     0
 42
0.000000001
 43
0.0000001
 40
0.0
 40
0.0
 40
0.0
 40
0.0
 40
0.1021320415
 40
0.2104396598
 40
0.3251786301
 40
0.4465343087
 40
0.5746342742
 40
0.7095580638
 40
0.8513449568
 40
1.0
 40
1.0
 40
1.0
 40
1.0
 10
225.4379203626
 20
66.4315510541
 30
0.0
 10
225.9307058682
 20
66.4989759861
 30
0.0
 10
226.941133013
 20
66.6759326614
 30
0.0
 10
228.4807042729
 20
67.050765367
 30
0.0
 10
230.0849987574
 20
67.5429946419
 30
0.0
 10
231.7513133459
 20
68.152674
 30
0.0
 10
233.47703129
 20
68.8795468644
 30
0.0
 10
235.2594806769
 20
69.7230672569
 30
0.0
 10
237.0959720363
 20
70.6824290752
 30
0.0
 10
238.3256121536
 20
71.3820939033
 30
0.0
 10
238.9489941032
 20
71.7501774113
 30
0.0
  0
SPLINE
  5
331
330
225
100
AcDbEntity
 67
     1
  8
7_ALL_FEATURES
  6
Continuous
 62
     7
100
AcDbSpline
 70
     0
 71
     3
 72
    15
 73
    11
 74
     0
 42
0.000000001
 43
0.0000001
 40
0.0
 40
0.0
 40
0.0
 40
0.0
 40
0.1069936582
 40
0.2187351991
 40
0.3354803255
 40
0.4574350948
 40
0.5847607381
 40
0.7175784146
 40
0.8559733061
 40
1.0
 40
1.0
 40
1.0
 40
1.0
 10
226.6714196761
 20
64.6029303137
 30
0.0
 10
227.1778922269
 20
64.6943300228
 30
0.0
 10
228.2075085033
 20
64.9145520539
 30
0.0
 10
229.7643536556
 20
65.3419588447
 30
0.0
 10
231.3651834124
 20
65.8722371369
 30
0.0
 10
233.0090558242
 20
66.5043644464
 30
0.0
 10
234.6950553614
 20
67.2373966591
 30
0.0
 10
236.4221348629
 20
68.0704079042
 30
0.0
 10
238.1891233592
 20
69.0024479172
 30
0.0
 10
239.3693265067
 20
69.6757437362
 30
0.0
 10
239.9658822878
 20
70.0279874044
 30
0.0
  0
SPLINE
  5
332
330
225
100
AcDbEntity
 67
     1
  8
7_ALL_FEATURES
  6
Continuous
 62
     7
100
AcDbSpline
 70
     0
 71
     3
 72
    18
 73
    14
 74
     0
 42
0.000000001
 43
0.0000001
 40
0.0
 40
0.0
 40
0.0
 40
0.0
 40
0.1287202533
 40
0.2568766083
 40
0.383984318
 40
0.5097087654
 40
0.633918622
 40
0.6955558857
 40
0.7568708278
 40
0.8179103241
 40
0.878732526
 40
0.9394046016
 40
1.0
 40
1.0
 40
1.0
 40
1.0
 10
226.8147494534
 20
63.5882974782
 30
0.0
 10
226.8147494534
 20
63.3597194132
 30
0.0
 10
226.7725663067
 20
62.9024387385
 30
0.0
 10
226.5849706638
 20
62.2429761232
 30
0.0
 10
226.2800358343
 20
61.6344326733
 30
0.0
 10
225.8693211027
 20
61.1005103509
 30
0.0
 10
225.4499877798
 20
60.733485316
 30
0.0
 10
225.0794696188
 20
60.497050334
 30
0.0
 10
224.7871372115
 20
60.349811097
 30
0.0
 10
224.4826414378
 20
60.2337980631
 30
0.0
 10
224.1688816962
 20
60.1501088516
 30
0.0
 10
223.8489417539
 20
60.0995683462
 30
0.0
 10
223.633429007
 20
60.0882974782
 30
0.0
 10
223.5258252806
 20
60.0882974782
 30
0.0
  0
SPLINE
  5
333
330
225
100
AcDbEntity
 67
     1
  8
7_ALL_FEATURES
  6
Continuous
 62
     7
100
AcDbSpline
 70
     0
 71
     3
 72
    17
 73
    13
 74
     0
 42
0.000000001
 43
0.0000001
 40
0.0
 40
0.0
 40
0.0
 40
0.0
 40
0.05577231
 40
0.1119731349
 40
0.168991553
 40
0.2271438122
 40
0.3473416184
 40
0.4733660958
 40
0.6041104377
 40
0.737323389
 40
0.8701975982
 40
1.0
 40
1.0
 40
1.0
 40
1.0
 10
239.9658822222
 20
57.1486074411
 30
0.0
 10
239.99782633
 20
57.1297452637
 30
0.0
 10
240.0590238587
 20
57.0866355397
 30
0.0
 10
240.1397833576
 20
57.0078151785
 30
0.0
 10
240.2082893401
 20
56.9161288721
 30
0.0
 10
240.2824163653
 20
56.7776650017
 30
0.0
 10
240.3378327097
 20
56.5800073251
 30
0.0
 10
240.3410139733
 20
56.3267909338
 30
0.0
 10
240.2826884551
 20
56.0716669503
 30
0.0
 10
240.167104167
 20
55.8319293062
 30
0.0
 10
240.0024026045
 20
55.6238335333
 30
0.0
 10
239.8644206767
 20
55.5135586896
 30
0.0
 10
239.7908573024
 20
55.4683611079
 30
0.0
  0
SPLINE
  5
334
330
225
100
AcDbEntity
 67
     1
  8
7_ALL_FEATURES
  6
Continuous
 62
     7
100
AcDbSpline
 70
     0
 71
     3
 72
    15
 73
    11
 74
     0
 42
0.000000001
 43
0.0000001
 40
0.0
 40
0.0
 40
0.0
 40
0.0
 40
0.1069936582
 40
0.2187351991
 40
0.3354803255
 40
0.4574350948
 40
0.5847607381
 40
0.7175784146
 40
0.8559733061
 40
1.0
 40
1.0
 40
1.0
 40
1.0
 10
226.6714196761
 20
62.5736646428
 30
0.0
 10
227.1778922269
 20
62.4822649337
 30
0.0
 10
228.2075085033
 20
62.2620429026
 30
0.0
 10
229.7643536556
 20
61.8346361118
 30
0.0
 10
231.3651834124
 20
61.3043578196
 30
0.0
 10
233.0090558242
 20
60.6722305101
 30
0.0
 10
234.6950553614
 20
59.9391982974
 30
0.0
 10
236.4221348629
 20
59.1061870523
 30
0.0
 10
238.1891233592
 20
58.1741470393
 30
0.0
 10
239.3693265067
 20
57.5008512203
 30
0.0
 10
239.9658822878
 20
57.1486075521
 30
0.0
  0
SPLINE
  5
335
330
225
100
AcDbEntity
 67
     1
  8
7_ALL_FEATURES
  6
Continuous
 62
     7
100
AcDbSpline
 70
     0
 71
     3
 72
    15
 73
    11
 74
     0
 42
0.000000001
 43
0.0000001
 40
0.0
 40
0.0
 40
0.0
 40
0.0
 40
0.1021320415
 40
0.2104396598
 40
0.3251786301
 40
0.4465343087
 40
0.5746342742
 40
0.7095580638
 40
0.8513449568
 40
1.0
 40
1.0
 40
1.0
 40
1.0
 10
225.4379203626
 20
60.7450439024
 30
0.0
 10
225.9307058682
 20
60.6776189704
 30
0.0
 10
226.941133013
 20
60.5006622951
 30
0.0
 10
228.4807042729
 20
60.1258295895
 30
0.0
 10
230.0849987574
 20
59.6336003146
 30
0.0
 10
231.7513133459
 20
59.0239209565
 30
0.0
 10
233.47703129
 20
58.2970480921
 30
0.0
 10
235.2594806769
 20
57.4535276995
 30
0.0
 10
237.0959720363
 20
56.4941658813
 30
0.0
 10
238.3256121536
 20
55.7945010532
 30
0.0
 10
238.9489941032
 20
55.4264175452
 30
0.0
  0
LINE
  5
336
330
225
100
AcDbEntity
 67
     1
  8
7_ALL_FEATURES
  6
Continuous
 62
     7
100
AcDbLine
 10
226.6761716046
 20
62.5882974782
 30
0.0
 11
227.5747145001
 21
62.5882974782
 31
0.0
  0
ARC
  5
337
330
225
100
AcDbEntity
 67
     1
  8
7_ALL_FEATURES
  6
Continuous
 62
     7
100
AcDbCircle
 10
227.5746186183
 20
63.5883933471
 30
0.0
 40
0.9999140008
100
AcDbArc
 50
359.9945067035
 51
89.9945058551
  0
LINE
  5
338
330
225
100
AcDbEntity
 67
     1
  8
7_ALL_FEATURES
  6
Continuous
 62
     7
100
AcDbLine
 10
226.6761716046
 20
64.5882974782
 30
0.0
 11
227.5747145001
 21
64.5882974782
 31
0.0
  0
ARC
  5
339
330
225
100
AcDbEntity
 67
     1
  8
7_ALL_FEATURES
  6
Continuous
 62
     7
100
AcDbCircle
 10
227.5746186183
 20
63.5882016094
 30
0.0
 40
0.9999140008
100
AcDbArc
 50
270.0054941449
 51
0.0054932965
  0
SPLINE
  5
33A
330
225
100
AcDbEntity
 67
     1
  8
7_ALL_FEATURES
  6
Continuous
 62
     7
100
AcDbSpline
 70
     0
 71
     3
 72
    13
 73
     9
 74
     0
 42
0.000000001
 43
0.0000001
 40
0.0
 40
0.0
 40
0.0
 40
0.0
 40
0.2652041767
 40
0.5186676438
 40
0.6416034203
 40
0.762371161
 40
0.8815894774
 40
1.0
 40
1.0
 40
1.0
 40
1.0
 10
239.7908573024
 20
55.4683611079
 30
0.0
 10
239.7242325737
 20
55.4274266532
 30
0.0
 10
239.5843492135
 20
55.3616597372
 30
0.0
 10
239.3962671167
 20
55.3256414322
 30
0.0
 10
239.2492726407
 20
55.3283002431
 30
0.0
 10
239.1432561248
 20
55.3454567154
 30
0.0
 10
239.0421896443
 20
55.377559951
 30
0.0
 10
238.9790576043
 20
55.4086659676
 30
0.0
 10
238.9489941688
 20
55.4264176562
 30
0.0
  0
SPLINE
  5
33B
330
225
100
AcDbEntity
 67
     1
  8
7_ALL_FEATURES
  6
Continuous
 62
     7
100
AcDbSpline
 70
     0
 71
     3
 72
    17
 73
    13
 74
     0
 42
0.000000001
 43
0.0000001
 40
0.0
 40
0.0
 40
0.0
 40
0.0
 40
0.1298024018
 40
0.262676611
 40
0.3958895623
 40
0.5266339042
 40
0.6526583816
 40
0.7728561878
 40
0.831008447
 40
0.8880268651
 40
0.94422769
 40
1.0
 40
1.0
 40
1.0
 40
1.0
 10
239.7908573024
 20
71.7082338485
 30
0.0
 10
239.8644206767
 20
71.6630362669
 30
0.0
 10
240.0024026045
 20
71.5527614232
 30
0.0
 10
240.167104167
 20
71.3446656503
 30
0.0
 10
240.2826884551
 20
71.1049280062
 30
0.0
 10
240.3410139733
 20
70.8498040227
 30
0.0
 10
240.3378327097
 20
70.5965876314
 30
0.0
 10
240.2824163653
 20
70.3989299548
 30
0.0
 10
240.2082893401
 20
70.2604660844
 30
0.0
 10
240.1397833576
 20
70.1687797779
 30
0.0
 10
240.0590238587
 20
70.0899594168
 30
0.0
 10
239.99782633
 20
70.0468496928
 30
0.0
 10
239.9658822222
 20
70.0279875154
 30
0.0
  0
LINE
  5
33C
330
225
100
AcDbEntity
 67
     1
  8
7_ALL_FEATURES
  6
Continuous
 62
     7
100
AcDbLine
 10
211.5551202642
 20
60.0882974782
 30
0.0
 11
223.5258252806
 21
60.0882974782
 31
0.0
  0
LINE
  5
33D
330
225
100
AcDbEntity
 67
     1
  8
7_ALL_FEATURES
  6
Continuous
 62
     7
100
AcDbLine
 10
184.1081940564
 20
67.0882974782
 30
0.0
 11
202.1581940564
 21
67.0882974782
 31
0.0
  0
LINE
  5
33E
330
225
100
AcDbEntity
 67
     1
  8
7_ALL_FEATURES
  6
Continuous
 62
     7
100
AcDbLine
 10
184.1081940564
 20
60.0882974782
 30
0.0
 11
202.1581940564
 21
60.0882974782
 31
0.0
  0
SPLINE
  5
33F
330
225
100
AcDbEntity
 67
     1
  8
7_ALL_FEATURES
  6
Continuous
 62
     7
100
AcDbSpline
 70
     0
 71
     3
 72
    18
 73
    14
 74
     0
 42
0.000000001
 43
0.0000001
 40
0.0
 40
0.0
 40
0.0
 40
0.0
 40
0.0605953984
 40
0.121267474
 40
0.1820896759
 40
0.2431291722
 40
0.3044441143
 40
0.366081378
 40
0.4902912346
 40
0.616015682
 40
0.7431233917
 40
0.8712797467
 40
1.0
 40
1.0
 40
1.0
 40
1.0
 10
223.5258252806
 20
67.0882974782
 30
0.0
 10
223.633429007
 20
67.0882974782
 30
0.0
 10
223.8489417539
 20
67.0770266103
 30
0.0
 10
224.1688816962
 20
67.0264861049
 30
0.0
 10
224.4826414378
 20
66.9427968934
 30
0.0
 10
224.7871372115
 20
66.8267838595
 30
0.0
 10
225.0794696188
 20
66.6795446225
 30
0.0
 10
225.4499877798
 20
66.4431096405
 30
0.0
 10
225.8693211027
 20
66.0760846056
 30
0.0
 10
226.2800358343
 20
65.5421622832
 30
0.0
 10
226.5849706638
 20
64.9336188333
 30
0.0
 10
226.7725663067
 20
64.274156218
 30
0.0
 10
226.8147494534
 20
63.8168755433
 30
0.0
 10
226.8147494534
 20
63.5882974782
 30
0.0
  0
LINE
  5
340
330
225
100
AcDbEntity
 67
     1
  8
7_ALL_FEATURES
  6
Continuous
 62
     7
100
AcDbLine
 10
211.5551202642
 20
67.0882974782
 30
0.0
 11
223.5258252806
 21
67.0882974782
 31
0.0
  0
LINE
  5
341
330
225
100
AcDbEntity
 67
     1
  8
7_ALL_FEATURES
  6
Continuous
 62
     7
100
AcDbLine
 10
202.1581940564
 20
67.0882974782
 30
0.0
 11
211.5551202642
 21
67.0882974782
 31
0.0
  0
LINE
  5
342
330
225
100
AcDbEntity
 67
     1
  8
7_ALL_FEATURES
  6
Continuous
 62
     7
100
AcDbLine
 10
202.1581940564
 20
60.0882974782
 30
0.0
 11
211.5551202642
 21
60.0882974782
 31
0.0
  0
LINE
  5
343
330
225
100
AcDbEntity
 67
     1
  8
7_ALL_FEATURES
  6
Continuous
 62
     9
100
AcDbLine
 10
202.1581940564
 20
63.5882974782
 30
0.0
 11
202.1581940564
 21
60.0882974782
 31
0.0
  0
SPLINE
  5
344
330
225
100
AcDbEntity
 67
     1
  8
7_ALL_FEATURES
  6
Continuous
 62
     9
100
AcDbSpline
 70
     0
 71
     3
 72
    18
 73
    14
 74
     0
 42
0.000000001
 43
0.0000001
 40
0.0
 40
0.0
 40
0.0
 40
0.0
 40
0.1287202533
 40
0.2568766083
 40
0.383984318
 40
0.5097087654
 40
0.633918622
 40
0.6955558857
 40
0.7568708278
 40
0.8179103241
 40
0.878732526
 40
0.9394046016
 40
1.0
 40
1.0
 40
1.0
 40
1.0
 10
214.844044437
 20
63.5882974782
 30
0.0
 10
214.844044437
 20
63.3597194132
 30
0.0
 10
214.8018612903
 20
62.9024387385
 30
0.0
 10
214.6142656474
 20
62.2429761232
 30
0.0
 10
214.3093308179
 20
61.6344326733
 30
0.0
 10
213.8986160863
 20
61.1005103509
 30
0.0
 10
213.4792827634
 20
60.733485316
 30
0.0
 10
213.1087646024
 20
60.497050334
 30
0.0
 10
212.8164321951
 20
60.349811097
 30
0.0
 10
212.5119364214
 20
60.2337980631
 30
0.0
 10
212.1981766798
 20
60.1501088516
 30
0.0
 10
211.8782367375
 20
60.0995683462
 30
0.0
 10
211.6627239906
 20
60.0882974782
 30
0.0
 10
211.5551202642
 20
60.0882974782
 30
0.0
  0
LINE
  5
345
330
225
100
AcDbEntity
 67
     1
  8
7_ALL_FEATURES
  6
Continuous
 62
     9
100
AcDbLine
 10
202.1581940564
 20
67.0882974782
 30
0.0
 11
202.1581940564
 21
63.5882974782
 31
0.0
  0
SPLINE
  5
346
330
225
100
AcDbEntity
 67
     1
  8
7_ALL_FEATURES
  6
Continuous
 62
     9
100
AcDbSpline
 70
     0
 71
     3
 72
    18
 73
    14
 74
     0
 42
0.000000001
 43
0.0000001
 40
0.0
 40
0.0
 40
0.0
 40
0.0
 40
0.0605953984
 40
0.121267474
 40
0.1820896759
 40
0.2431291722
 40
0.3044441143
 40
0.366081378
 40
0.4902912346
 40
0.616015682
 40
0.7431233917
 40
0.8712797467
 40
1.0
 40
1.0
 40
1.0
 40
1.0
 10
211.5551202642
 20
67.0882974782
 30
0.0
 10
211.6627239906
 20
67.0882974782
 30
0.0
 10
211.8782367375
 20
67.0770266103
 30
0.0
 10
212.1981766798
 20
67.0264861049
 30
0.0
 10
212.5119364214
 20
66.9427968934
 30
0.0
 10
212.8164321951
 20
66.8267838595
 30
0.0
 10
213.1087646024
 20
66.6795446225
 30
0.0
 10
213.4792827634
 20
66.4431096405
 30
0.0
 10
213.8986160863
 20
66.0760846056
 30
0.0
 10
214.3093308179
 20
65.5421622832
 30
0.0
 10
214.6142656474
 20
64.9336188333
 30
0.0
 10
214.8018612903
 20
64.274156218
 30
0.0
 10
214.844044437
 20
63.8168755433
 30
0.0
 10
214.844044437
 20
63.5882974782
 30
0.0
  0
LINE
  5
347
330
225
100
AcDbEntity
 67
     1
  8
7_ALL_FEATURES
  6
Continuous
 62
     7
100
AcDbLine
 10
123.1740877851
 20
20.5882974782
 30
0.0
 11
123.1740877851
 21
18.5882974782
 31
0.0
  0
LINE
  5
348
330
225
100
AcDbEntity
 67
     1
  8
7_ALL_FEATURES
  6
Continuous
 62
     7
100
AcDbLine
 10
123.1742105512
 20
108.5882974782
 30
0.0
 11
127.50463808
 21
108.5882974782
 31
0.0
  0
LINE
  5
349
330
225
100
AcDbEntity
 67
     1
  8
7_ALL_FEATURES
  6
Continuous
 62
     7
100
AcDbLine
 10
123.1740877851
 20
106.5882974782
 30
0.0
 11
123.1740877851
 21
108.5882974782
 31
0.0
  0
LINE
  5
34A
330
225
100
AcDbEntity
 67
     1
  8
7_ALL_FEATURES
  6
Continuous
 62
     7
100
AcDbLine
 10
175.1581940564
 20
18.5882974782
 30
0.0
 11
174.4681036742
 21
18.5882974782
 31
0.0
  0
LINE
  5
34B
330
225
100
AcDbEntity
 67
     1
  8
7_ALL_FEATURES
  6
Continuous
 62
     7
100
AcDbLine
 10
174.4681036742
 20
18.5882974782
 30
0.0
 11
160.2201369223
 21
18.5882974782
 31
0.0
  0
LINE
  5
34C
330
225
100
AcDbEntity
 67
     1
  8
7_ALL_FEATURES
  6
Continuous
 62
     7
100
AcDbLine
 10
160.2201369223
 20
18.5882974782
 30
0.0
 11
159.2204711189
 21
18.5882974782
 31
0.0
  0
LINE
  5
34D
330
225
100
AcDbEntity
 67
     1
  8
7_ALL_FEATURES
  6
Continuous
 62
     7
100
AcDbLine
 10
159.2204711189
 20
18.5882974782
 30
0.0
 11
147.5730562596
 21
18.5882974782
 31
0.0
  0
LINE
  5
34E
330
225
100
AcDbEntity
 67
     1
  8
7_ALL_FEATURES
  6
Continuous
 62
     7
100
AcDbLine
 10
147.5730562596
 20
18.5882974782
 30
0.0
 11
147.560860334
 21
18.5882974782
 31
0.0
  0
LINE
  5
34F
330
225
100
AcDbEntity
 67
     1
  8
7_ALL_FEATURES
  6
Continuous
 62
     7
100
AcDbLine
 10
147.560860334
 20
18.5882974782
 30
0.0
 11
146.9663026858
 21
18.5882974782
 31
0.0
  0
LINE
  5
350
330
225
100
AcDbEntity
 67
     1
  8
7_ALL_FEATURES
  6
Continuous
 62
     7
100
AcDbLine
 10
146.9663026858
 20
18.5882974782
 30
0.0
 11
143.1098530716
 21
18.5882974782
 31
0.0
  0
LINE
  5
351
330
225
100
AcDbEntity
 67
     1
  8
7_ALL_FEATURES
  6
Continuous
 62
     7
100
AcDbLine
 10
143.1098530716
 20
18.5882974782
 30
0.0
 11
141.1581940564
 21
18.5882974782
 31
0.0
  0
LINE
  5
352
330
225
100
AcDbEntity
 67
     1
  8
7_ALL_FEATURES
  6
Continuous
 62
     7
100
AcDbLine
 10
141.1581940564
 20
18.5882974782
 30
0.0
 11
129.3123727169
 21
18.5882974782
 31
0.0
  0
LINE
  5
353
330
225
100
AcDbEntity
 67
     1
  8
7_ALL_FEATURES
  6
Continuous
 62
     7
100
AcDbLine
 10
129.3123727169
 20
18.5882974782
 30
0.0
 11
129.1581940564
 21
18.5882974782
 31
0.0
  0
LINE
  5
354
330
225
100
AcDbEntity
 67
     1
  8
7_ALL_FEATURES
  6
Continuous
 62
     7
100
AcDbLine
 10
129.1581940564
 20
18.5882974782
 30
0.0
 11
127.50463808
 21
18.5882974782
 31
0.0
  0
LINE
  5
355
330
225
100
AcDbEntity
 67
     1
  8
7_ALL_FEATURES
  6
Continuous
 62
     7
100
AcDbLine
 10
127.50463808
 20
18.5882974782
 30
0.0
 11
123.1740890429
 21
18.5882974782
 31
0.0
  0
LINE
  5
356
330
225
100
AcDbEntity
 67
     1
  8
7_ALL_FEATURES
  6
Continuous
 62
     7
100
AcDbLine
 10
174.4681036742
 20
108.5882974782
 30
0.0
 11
175.1581940564
 21
108.5882974782
 31
0.0
  0
LINE
  5
357
330
225
100
AcDbEntity
 67
     1
  8
7_ALL_FEATURES
  6
Continuous
 62
     7
100
AcDbLine
 10
143.1098530716
 20
108.5882974782
 30
0.0
 11
146.8084105435
 21
108.5882974782
 31
0.0
  0
LINE
  5
358
330
225
100
AcDbEntity
 67
     1
  8
7_ALL_FEATURES
  6
Continuous
 62
     7
100
AcDbLine
 10
146.8084105435
 20
108.5882974782
 30
0.0
 11
146.9663026858
 21
108.5882974782
 31
0.0
  0
LINE
  5
359
330
225
100
AcDbEntity
 67
     1
  8
7_ALL_FEATURES
  6
Continuous
 62
     7
100
AcDbLine
 10
146.9663026858
 20
108.5882974782
 30
0.0
 11
147.560860334
 21
108.5882974782
 31
0.0
  0
LINE
  5
35A
330
225
100
AcDbEntity
 67
     1
  8
7_ALL_FEATURES
  6
Continuous
 62
     7
100
AcDbLine
 10
147.560860334
 20
108.5882974782
 30
0.0
 11
159.2204711189
 21
108.5882974782
 31
0.0
  0
LINE
  5
35B
330
225
100
AcDbEntity
 67
     1
  8
7_ALL_FEATURES
  6
Continuous
 62
     7
100
AcDbLine
 10
159.2204711189
 20
108.5882974782
 30
0.0
 11
160.220447896
 21
108.5882974782
 31
0.0
  0
LINE
  5
35C
330
225
100
AcDbEntity
 67
     1
  8
7_ALL_FEATURES
  6
Continuous
 62
     7
100
AcDbLine
 10
160.220447896
 20
108.5882974782
 30
0.0
 11
174.4681036742
 21
108.5882974782
 31
0.0
  0
LINE
  5
35D
330
225
100
AcDbEntity
 67
     1
  8
7_ALL_FEATURES
  6
Continuous
 62
     7
100
AcDbLine
 10
127.50463808
 20
108.5882974782
 30
0.0
 11
129.1581940564
 21
108.5882974782
 31
0.0
  0
LINE
  5
35E
330
225
100
AcDbEntity
 67
     1
  8
7_ALL_FEATURES
  6
Continuous
 62
     7
100
AcDbLine
 10
129.1581940564
 20
108.5882974782
 30
0.0
 11
141.058238681
 21
108.5882974782
 31
0.0
  0
LINE
  5
35F
330
225
100
AcDbEntity
 67
     1
  8
7_ALL_FEATURES
  6
Continuous
 62
     7
100
AcDbLine
 10
141.058238681
 20
108.5882974782
 30
0.0
 11
141.1581940564
 21
108.5882974782
 31
0.0
  0
LINE
  5
360
330
225
100
AcDbEntity
 67
     1
  8
7_ALL_FEATURES
  6
Continuous
 62
     7
100
AcDbLine
 10
141.1581940564
 20
108.5882974782
 30
0.0
 11
143.1098530716
 21
108.5882974782
 31
0.0
  0
LINE
  5
361
330
225
100
AcDbEntity
 67
     1
  8
7_ALL_FEATURES
  6
Continuous
 62
     7
100
AcDbLine
 10
175.1581940564
 20
18.5882974782
 30
0.0
 11
175.1581940564
 21
20.5882974782
 31
0.0
  0
LINE
  5
362
330
225
100
AcDbEntity
 67
     1
  8
7_ALL_FEATURES
  6
Continuous
 62
     7
100
AcDbLine
 10
175.1581940564
 20
106.5882974782
 30
0.0
 11
175.1581940564
 21
108.5882974782
 31
0.0
  0
LINE
  5
363
330
225
100
AcDbEntity
 67
     1
  8
7_ALL_FEATURES
  6
Continuous
 62
     9
100
AcDbLine
 10
127.50463808
 20
18.5882974782
 30
0.0
 11
127.50463808
 21
20.5882974782
 31
0.0
  0
LINE
  5
364
330
225
100
AcDbEntity
 67
     1
  8
7_ALL_FEATURES
  6
Continuous
 62
     9
100
AcDbLine
 10
143.1098530716
 20
18.5882974782
 30
0.0
 11
143.1098530716
 21
20.5882974782
 31
0.0
  0
LINE
  5
365
330
225
100
AcDbEntity
 67
     1
  8
7_ALL_FEATURES
  6
Continuous
 62
     9
100
AcDbLine
 10
174.4681036742
 20
18.5882974782
 30
0.0
 11
174.4681036742
 21
20.5882974782
 31
0.0
  0
LINE
  5
366
330
225
100
AcDbEntity
 67
     1
  8
7_ALL_FEATURES
  6
Continuous
 62
     9
100
AcDbLine
 10
174.4681036742
 20
106.5882974782
 30
0.0
 11
174.4681036742
 21
108.5882974782
 31
0.0
  0
LINE
  5
367
330
225
100
AcDbEntity
 67
     1
  8
7_ALL_FEATURES
  6
Continuous
 62
     9
100
AcDbLine
 10
127.50463808
 20
106.5882974782
 30
0.0
 11
127.50463808
 21
108.5882974782
 31
0.0
  0
LINE
  5
368
330
225
100
AcDbEntity
 67
     1
  8
7_ALL_FEATURES
  6
Continuous
 62
     9
100
AcDbLine
 10
143.1098530716
 20
106.5882974782
 30
0.0
 11
143.1098530716
 21
108.5882974782
 31
0.0
  0
LINE
  5
369
330
225
100
AcDbEntity
 67
     1
  8
7_ALL_FEATURES
  6
Continuous
 62
     7
100
AcDbLine
 10
155.1581940564
 20
63.5882974782
 30
0.0
 11
155.1581940564
 21
54.0882974782
 31
0.0
  0
LINE
  5
36A
330
225
100
AcDbEntity
 67
     1
  8
7_ALL_FEATURES
  6
Continuous
 62
     7
100
AcDbLine
 10
155.1581940564
 20
54.0882974782
 30
0.0
 11
155.1581940564
 21
23.2887695824
 31
0.0
  0
LINE
  5
36B
330
225
100
AcDbEntity
 67
     1
  8
7_ALL_FEATURES
  6
Continuous
 62
     7
100
AcDbLine
 10
155.1581940564
 20
23.2887695824
 30
0.0
 11
155.1581940564
 21
21.8887862323
 31
0.0
  0
LINE
  5
36C
330
225
100
AcDbEntity
 67
     1
  8
3_ALL_AXES
  6
Continuous
 62
     7
100
AcDbLine
 10
36.1581940564
 20
21.5882974782
 30
0.0
 11
129.1581940564
 21
21.5882974782
 31
0.0
  0
LINE
  5
36D
330
225
100
AcDbEntity
 67
     1
  8
3_ALL_AXES
  6
Continuous
 62
     7
100
AcDbLine
 10
141.1581940564
 20
21.5882974782
 30
0.0
 11
154.8581940564
 21
21.5882974782
 31
0.0
  0
LINE
  5
36E
330
225
100
AcDbEntity
 67
     1
  8
3_ALL_AXES
  6
Continuous
 62
     7
100
AcDbLine
 10
36.1581940564
 20
105.5882974782
 30
0.0
 11
129.1581940564
 21
105.5882974782
 31
0.0
  0
LINE
  5
36F
330
225
100
AcDbEntity
 67
     1
  8
3_ALL_AXES
  6
Continuous
 62
     7
100
AcDbLine
 10
141.1581940564
 20
105.5882974782
 30
0.0
 11
154.8581940564
 21
105.5882974782
 31
0.0
  0
LINE
  5
370
330
225
100
AcDbEntity
 67
     1
  8
7_ALL_FEATURES
  6
Continuous
 62
     7
100
AcDbLine
 10
35.1581940564
 20
22.5887779201
 30
0.0
 11
35.1581940564
 21
23.238770267
 31
0.0
  0
LINE
  5
371
330
225
100
AcDbEntity
 67
     1
  8
7_ALL_FEATURES
  6
Continuous
 62
     7
100
AcDbLine
 10
35.1581940564
 20
23.238770267
 30
0.0
 11
35.1581940564
 21
23.616313651
 31
0.0
  0
LINE
  5
372
330
225
100
AcDbEntity
 67
     1
  8
7_ALL_FEATURES
  6
Continuous
 62
     7
100
AcDbLine
 10
35.1581940564
 20
23.616313651
 30
0.0
 11
35.1581940564
 21
63.5882974782
 31
0.0
  0
ARC
  5
373
330
225
100
AcDbEntity
 67
     1
  8
7_ALL_FEATURES
  6
Continuous
 62
     7
100
AcDbCircle
 10
36.1581940564
 20
22.5882974782
 30
0.0
 40
1.0
100
AcDbArc
 50
180.0
 51
270.0
  0
LINE
  5
374
330
225
100
AcDbEntity
 67
     1
  8
7_ALL_FEATURES
  6
Continuous
 62
     7
100
AcDbLine
 10
35.1581940564
 20
63.5882974782
 30
0.0
 11
35.1581940564
 21
23.6162530788
 31
0.0
  0
LINE
  5
375
330
225
100
AcDbEntity
 67
     1
  8
7_ALL_FEATURES
  6
Continuous
 62
     7
100
AcDbLine
 10
35.1581940564
 20
23.6162530788
 30
0.0
 11
35.1581940564
 21
23.238770267
 31
0.0
  0
LINE
  5
376
330
225
100
AcDbEntity
 67
     1
  8
7_ALL_FEATURES
  6
Continuous
 62
     7
100
AcDbLine
 10
35.1581940564
 20
23.238770267
 30
0.0
 11
35.1581940564
 21
22.5882974782
 31
0.0
  0
ARC
  5
377
330
225
100
AcDbEntity
 67
     1
  8
7_ALL_FEATURES
  6
Continuous
 62
     7
100
AcDbCircle
 10
36.1581940564
 20
104.5882974782
 30
0.0
 40
1.0
100
AcDbArc
 50
90.0
 51
180.0
  0
LINE
  5
378
330
225
100
AcDbEntity
 67
     1
  8
7_ALL_FEATURES
  6
Continuous
 62
     7
100
AcDbLine
 10
35.1581940564
 20
63.5882974782
 30
0.0
 11
35.1581940564
 21
103.5603243799
 31
0.0
  0
LINE
  5
379
330
225
100
AcDbEntity
 67
     1
  8
7_ALL_FEATURES
  6
Continuous
 62
     7
100
AcDbLine
 10
35.1581940564
 20
103.5603243799
 30
0.0
 11
35.1581940564
 21
103.9378246895
 31
0.0
  0
LINE
  5
37A
330
225
100
AcDbEntity
 67
     1
  8
7_ALL_FEATURES
  6
Continuous
 62
     7
100
AcDbLine
 10
35.1581940564
 20
103.9378246895
 30
0.0
 11
35.1581940564
 21
104.5878170364
 31
0.0
  0
LINE
  5
37B
330
225
100
AcDbEntity
 67
     1
  8
7_ALL_FEATURES
  6
Continuous
 62
     7
100
AcDbLine
 10
35.1581940564
 20
104.5882974782
 30
0.0
 11
35.1581940564
 21
103.9378246895
 31
0.0
  0
LINE
  5
37C
330
225
100
AcDbEntity
 67
     1
  8
7_ALL_FEATURES
  6
Continuous
 62
     7
100
AcDbLine
 10
35.1581940564
 20
103.9378246895
 30
0.0
 11
35.1581940564
 21
103.5603418777
 31
0.0
  0
LINE
  5
37D
330
225
100
AcDbEntity
 67
     1
  8
7_ALL_FEATURES
  6
Continuous
 62
     7
100
AcDbLine
 10
35.1581940564
 20
103.5603418777
 30
0.0
 11
35.1581940564
 21
63.5882974782
 31
0.0
  0
LINE
  5
37E
330
225
100
AcDbEntity
 67
     1
  8
7_ALL_FEATURES
  6
Continuous
 62
     7
100
AcDbLine
 10
155.1581940564
 20
105.2878087242
 30
0.0
 11
155.1581940564
 21
103.8878253741
 31
0.0
  0
LINE
  5
37F
330
225
100
AcDbEntity
 67
     1
  8
7_ALL_FEATURES
  6
Continuous
 62
     7
100
AcDbLine
 10
155.1581940564
 20
103.8878253741
 30
0.0
 11
155.1581940564
 21
73.0882974782
 31
0.0
  0
LINE
  5
380
330
225
100
AcDbEntity
 67
     1
  8
7_ALL_FEATURES
  6
Continuous
 62
     7
100
AcDbLine
 10
155.1581940564
 20
73.0882974782
 30
0.0
 11
155.1581940564
 21
63.5882974782
 31
0.0
  0
LINE
  5
381
330
225
100
AcDbEntity
 67
     1
  8
7_ALL_FEATURES
  6
Continuous
 62
     7
100
AcDbLine
 10
155.1581940564
 20
105.2882974782
 30
0.0
 11
154.8581940564
 21
105.5882974782
 31
0.0
  0
LINE
  5
382
330
225
100
AcDbEntity
 67
     1
  8
7_ALL_FEATURES
  6
Continuous
 62
     7
100
AcDbLine
 10
155.1581940564
 20
21.8882974782
 30
0.0
 11
154.8581940564
 21
21.5882974782
 31
0.0
  0
LINE
  5
383
330
225
100
AcDbEntity
 67
     1
  8
7_ALL_FEATURES
  6
Continuous
 62
     9
100
AcDbLine
 10
36.1581940564
 20
21.5882974782
 30
0.0
 11
36.1581940564
 21
63.5882974782
 31
0.0
  0
LINE
  5
384
330
225
100
AcDbEntity
 67
     1
  8
7_ALL_FEATURES
  6
Continuous
 62
     7
100
AcDbLine
 10
154.8581940564
 20
63.5882974782
 30
0.0
 11
154.8581940564
 21
21.5882974782
 31
0.0
  0
LINE
  5
385
330
225
100
AcDbEntity
 67
     1
  8
7_ALL_FEATURES
  6
Continuous
 62
     9
100
AcDbLine
 10
36.1581940564
 20
63.5882974782
 30
0.0
 11
36.1581940564
 21
105.5882974782
 31
0.0
  0
LINE
  5
386
330
225
100
AcDbEntity
 67
     1
  8
7_ALL_FEATURES
  6
Continuous
 62
     7
100
AcDbLine
 10
154.8581940564
 20
105.5882974782
 30
0.0
 11
154.8581940564
 21
63.5882974782
 31
0.0
  0
LINE
  5
387
330
225
100
AcDbEntity
 67
     1
  8
7_ALL_FEATURES
  6
Continuous
 62
     3
100
AcDbLine
 10
127.50463808
 20
106.5882974782
 30
0.0
 11
129.1581940564
 21
106.5882974782
 31
0.0
  0
LINE
  5
388
330
225
100
AcDbEntity
 67
     1
  8
7_ALL_FEATURES
  6
Continuous
 62
     3
100
AcDbLine
 10
129.1581940564
 20
106.5882974782
 30
0.0
 11
141.058238681
 21
106.5882974782
 31
0.0
  0
LINE
  5
389
330
225
100
AcDbEntity
 67
     1
  8
7_ALL_FEATURES
  6
Continuous
 62
     3
100
AcDbLine
 10
141.058238681
 20
106.5882974782
 30
0.0
 11
141.1581940564
 21
106.5882974782
 31
0.0
  0
LINE
  5
38A
330
225
100
AcDbEntity
 67
     1
  8
7_ALL_FEATURES
  6
Continuous
 62
     3
100
AcDbLine
 10
141.1581940564
 20
106.5882974782
 30
0.0
 11
143.1098530716
 21
106.5882974782
 31
0.0
  0
LINE
  5
38B
330
225
100
AcDbEntity
 67
     1
  8
7_ALL_FEATURES
  6
Continuous
 62
     3
100
AcDbLine
 10
143.1098530716
 20
106.5882974782
 30
0.0
 11
146.8084105435
 21
106.5882974782
 31
0.0
  0
LINE
  5
38C
330
225
100
AcDbEntity
 67
     1
  8
7_ALL_FEATURES
  6
Continuous
 62
     3
100
AcDbLine
 10
146.8084105435
 20
106.5882974782
 30
0.0
 11
146.9663026858
 21
106.5882974782
 31
0.0
  0
LINE
  5
38D
330
225
100
AcDbEntity
 67
     1
  8
7_ALL_FEATURES
  6
Continuous
 62
     3
100
AcDbLine
 10
146.9663026858
 20
106.5882974782
 30
0.0
 11
147.560860334
 21
106.5882974782
 31
0.0
  0
LINE
  5
38E
330
225
100
AcDbEntity
 67
     1
  8
7_ALL_FEATURES
  6
Continuous
 62
     3
100
AcDbLine
 10
147.560860334
 20
106.5882974782
 30
0.0
 11
159.2204711189
 21
106.5882974782
 31
0.0
  0
LINE
  5
38F
330
225
100
AcDbEntity
 67
     1
  8
7_ALL_FEATURES
  6
Continuous
 62
     3
100
AcDbLine
 10
159.2204711189
 20
106.5882974782
 30
0.0
 11
160.220447896
 21
106.5882974782
 31
0.0
  0
LINE
  5
390
330
225
100
AcDbEntity
 67
     1
  8
7_ALL_FEATURES
  6
Continuous
 62
     3
100
AcDbLine
 10
160.220447896
 20
106.5882974782
 30
0.0
 11
174.4681036742
 21
106.5882974782
 31
0.0
  0
LINE
  5
391
330
225
100
AcDbEntity
 67
     1
  8
7_ALL_FEATURES
  6
Continuous
 62
     3
100
AcDbLine
 10
174.4681036742
 20
106.5882974782
 30
0.0
 11
175.1581940564
 21
106.5882974782
 31
0.0
  0
LINE
  5
392
330
225
100
AcDbEntity
 67
     1
  8
7_ALL_FEATURES
  6
Continuous
 62
     3
100
AcDbLine
 10
123.1742105512
 20
106.5882974782
 30
0.0
 11
127.50463808
 21
106.5882974782
 31
0.0
  0
LINE
  5
393
330
225
100
AcDbEntity
 67
     1
  8
7_ALL_FEATURES
  6
Continuous
 62
     3
100
AcDbLine
 10
175.1581940564
 20
20.5882974782
 30
0.0
 11
175.1581940564
 21
22.5882974782
 31
0.0
  0
LINE
  5
394
330
225
100
AcDbEntity
 67
     1
  8
7_ALL_FEATURES
  6
Continuous
 62
     3
100
AcDbLine
 10
175.1581940564
 20
104.5882974782
 30
0.0
 11
175.1581940564
 21
74.5579525928
 31
0.0
  0
LINE
  5
395
330
225
100
AcDbEntity
 67
     1
  8
7_ALL_FEATURES
  6
Continuous
 62
     3
100
AcDbLine
 10
175.1581940564
 20
52.6186423636
 30
0.0
 11
175.1581940564
 21
22.5882974782
 31
0.0
  0
ARC
  5
396
330
225
100
AcDbEntity
 67
     1
  8
7_ALL_FEATURES
  6
Continuous
 62
     3
100
AcDbCircle
 10
155.1581940564
 20
63.5882974782
 30
0.0
 40
17.25
100
AcDbArc
 50
60.0
 51
90.0
  0
ARC
  5
397
330
225
100
AcDbEntity
 67
     1
  8
7_ALL_FEATURES
  6
Continuous
 62
     3
100
AcDbCircle
 10
165.1581940564
 20
80.9088055539
 30
0.0
 40
2.75
100
AcDbArc
 50
240.0
 51
60.0
  0
ARC
  5
398
330
225
100
AcDbEntity
 67
     1
  8
7_ALL_FEATURES
  6
Continuous
 62
     3
100
AcDbCircle
 10
155.1581940564
 20
63.5882974782
 30
0.0
 40
22.75
100
AcDbArc
 50
60.0
 51
90.0
  0
ARC
  5
399
330
225
100
AcDbEntity
 67
     1
  8
7_ALL_FEATURES
  6
Continuous
 62
     3
100
AcDbCircle
 10
155.1581940564
 20
63.5882974782
 30
0.0
 40
22.75
100
AcDbArc
 50
270.0
 51
300.0
  0
ARC
  5
39A
330
225
100
AcDbEntity
 67
     1
  8
7_ALL_FEATURES
  6
Continuous
 62
     3
100
AcDbCircle
 10
165.1581940564
 20
46.2677894026
 30
0.0
 40
2.75
100
AcDbArc
 50
300.0
 51
120.0
  0
ARC
  5
39B
330
225
100
AcDbEntity
 67
     1
  8
7_ALL_FEATURES
  6
Continuous
 62
     3
100
AcDbCircle
 10
155.1581940564
 20
63.5882974782
 30
0.0
 40
17.25
100
AcDbArc
 50
270.0
 51
300.0
  0
LINE
  5
39C
330
225
100
AcDbEntity
 67
     1
  8
7_ALL_FEATURES
  6
Continuous
 62
     3
100
AcDbLine
 10
175.1581940564
 20
104.5882974782
 30
0.0
 11
175.1581940564
 21
106.5882974782
 31
0.0
  0
LINE
  5
39D
330
225
100
AcDbEntity
 67
     1
  8
7_ALL_FEATURES
  6
Continuous
 62
     3
100
AcDbLine
 10
175.1581940564
 20
20.5882974782
 30
0.0
 11
174.4681036742
 21
20.5882974782
 31
0.0
  0
LINE
  5
39E
330
225
100
AcDbEntity
 67
     1
  8
7_ALL_FEATURES
  6
Continuous
 62
     3
100
AcDbLine
 10
174.4681036742
 20
20.5882974782
 30
0.0
 11
160.2201369223
 21
20.5882974782
 31
0.0
  0
LINE
  5
39F
330
225
100
AcDbEntity
 67
     1
  8
7_ALL_FEATURES
  6
Continuous
 62
     3
100
AcDbLine
 10
160.2201369223
 20
20.5882974782
 30
0.0
 11
159.2204711189
 21
20.5882974782
 31
0.0
  0
LINE
  5
3A0
330
225
100
AcDbEntity
 67
     1
  8
7_ALL_FEATURES
  6
Continuous
 62
     3
100
AcDbLine
 10
159.2204711189
 20
20.5882974782
 30
0.0
 11
147.5730562596
 21
20.5882974782
 31
0.0
  0
LINE
  5
3A1
330
225
100
AcDbEntity
 67
     1
  8
7_ALL_FEATURES
  6
Continuous
 62
     3
100
AcDbLine
 10
147.5730562596
 20
20.5882974782
 30
0.0
 11
147.560860334
 21
20.5882974782
 31
0.0
  0
LINE
  5
3A2
330
225
100
AcDbEntity
 67
     1
  8
7_ALL_FEATURES
  6
Continuous
 62
     3
100
AcDbLine
 10
147.560860334
 20
20.5882974782
 30
0.0
 11
146.9663026858
 21
20.5882974782
 31
0.0
  0
LINE
  5
3A3
330
225
100
AcDbEntity
 67
     1
  8
7_ALL_FEATURES
  6
Continuous
 62
     3
100
AcDbLine
 10
146.9663026858
 20
20.5882974782
 30
0.0
 11
143.1098530716
 21
20.5882974782
 31
0.0
  0
LINE
  5
3A4
330
225
100
AcDbEntity
 67
     1
  8
7_ALL_FEATURES
  6
Continuous
 62
     3
100
AcDbLine
 10
143.1098530716
 20
20.5882974782
 30
0.0
 11
141.1581940564
 21
20.5882974782
 31
0.0
  0
LINE
  5
3A5
330
225
100
AcDbEntity
 67
     1
  8
7_ALL_FEATURES
  6
Continuous
 62
     3
100
AcDbLine
 10
141.1581940564
 20
20.5882974782
 30
0.0
 11
129.3123727169
 21
20.5882974782
 31
0.0
  0
LINE
  5
3A6
330
225
100
AcDbEntity
 67
     1
  8
7_ALL_FEATURES
  6
Continuous
 62
     3
100
AcDbLine
 10
129.3123727169
 20
20.5882974782
 30
0.0
 11
129.1581940564
 21
20.5882974782
 31
0.0
  0
LINE
  5
3A7
330
225
100
AcDbEntity
 67
     1
  8
7_ALL_FEATURES
  6
Continuous
 62
     3
100
AcDbLine
 10
129.1581940564
 20
20.5882974782
 30
0.0
 11
127.50463808
 21
20.5882974782
 31
0.0
  0
LINE
  5
3A8
330
225
100
AcDbEntity
 67
     1
  8
7_ALL_FEATURES
  6
Continuous
 62
     3
100
AcDbLine
 10
127.50463808
 20
20.5882974782
 30
0.0
 11
123.1740890429
 21
20.5882974782
 31
0.0
  0
LINE
  5
3A9
330
225
100
AcDbEntity
 67
     1
  8
7_ALL_FEATURES
  6
Continuous
 62
     9
100
AcDbLine
 10
155.1581940564
 20
104.5882974782
 30
0.0
 11
175.1581940564
 21
104.5882974782
 31
0.0
  0
LINE
  5
3AA
330
225
100
AcDbEntity
 67
     1
  8
7_ALL_FEATURES
  6
Continuous
 62
     9
100
AcDbLine
 10
155.1581940564
 20
22.5882974782
 30
0.0
 11
175.1581940564
 21
22.5882974782
 31
0.0
  0
LINE
  5
3AB
330
225
100
AcDbEntity
 67
     1
  8
7_ALL_FEATURES
  6
Continuous
 62
     7
100
AcDbLine
 10
134.003493518
 20
217.6566595681
 30
0.0
 11
132.8487929796
 21
215.6566595681
 31
0.0
  0
LINE
  5
3AC
330
225
100
AcDbEntity
 67
     1
  8
7_ALL_FEATURES
  6
Continuous
 62
     7
100
AcDbLine
 10
132.8487929796
 20
215.6566595681
 30
0.0
 11
134.003493518
 21
213.6566595681
 31
0.0
  0
LINE
  5
3AD
330
225
100
AcDbEntity
 67
     1
  8
7_ALL_FEATURES
  6
Continuous
 62
     7
100
AcDbLine
 10
134.003493518
 20
213.6566595681
 30
0.0
 11
136.3128945947
 21
213.6566595681
 31
0.0
  0
LINE
  5
3AE
330
225
100
AcDbEntity
 67
     1
  8
7_ALL_FEATURES
  6
Continuous
 62
     7
100
AcDbLine
 10
136.3128945947
 20
213.6566595681
 30
0.0
 11
137.4675951331
 21
215.6566595681
 31
0.0
  0
LINE
  5
3AF
330
225
100
AcDbEntity
 67
     1
  8
7_ALL_FEATURES
  6
Continuous
 62
     7
100
AcDbLine
 10
137.4675951331
 20
215.6566595681
 30
0.0
 11
136.3128945947
 21
217.6566595681
 31
0.0
  0
LINE
  5
3B0
330
225
100
AcDbEntity
 67
     1
  8
7_ALL_FEATURES
  6
Continuous
 62
     7
100
AcDbLine
 10
136.3128945947
 20
217.6566595681
 30
0.0
 11
134.003493518
 21
217.6566595681
 31
0.0
  0
ARC
  5
3B1
330
225
100
AcDbEntity
 67
     1
  8
3_ALL_AXES
  6
Continuous
 62
     7
100
AcDbCircle
 10
135.1581940564
 20
215.6566595681
 30
0.0
 40
5.25
100
AcDbArc
 50
0.0
 51
180.0
  0
ARC
  5
3B2
330
225
100
AcDbEntity
 67
     1
  8
3_ALL_AXES
  6
Continuous
 62
     7
100
AcDbCircle
 10
135.1581940564
 20
215.6566595681
 30
0.0
 40
5.25
100
AcDbArc
 50
180.0
 51
360.0
  0
ARC
  5
3B3
330
225
100
AcDbEntity
 67
     1
  8
3_ALL_AXES
  6
Continuous
 62
     7
100
AcDbCircle
 10
135.1581940564
 20
215.6566595681
 30
0.0
 40
2.95
100
AcDbArc
 50
0.0
 51
180.0
  0
ARC
  5
3B4
330
225
100
AcDbEntity
 67
     1
  8
3_ALL_AXES
  6
Continuous
 62
     7
100
AcDbCircle
 10
135.1581940564
 20
215.6566595681
 30
0.0
 40
2.95
100
AcDbArc
 50
180.0
 51
360.0
  0
ARC
  5
3B5
330
225
100
AcDbEntity
 67
     1
  8
3_ALL_AXES
  6
Continuous
 62
     7
100
AcDbCircle
 10
135.1581940564
 20
215.6566595681
 30
0.0
 40
6.0
100
AcDbArc
 50
180.0
 51
360.0
  0
ARC
  5
3B6
330
225
100
AcDbEntity
 67
     1
  8
3_ALL_AXES
  6
Continuous
 62
     7
100
AcDbCircle
 10
135.1581940564
 20
215.6566595681
 30
0.0
 40
6.0
100
AcDbArc
 50
0.0
 51
180.0
  0
LINE
  5
3B7
330
225
100
AcDbEntity
 67
     1
  8
7_ALL_FEATURES
  6
Continuous
 62
     7
100
AcDbLine
 10
180.6081940564
 20
224.6566595681
 30
0.0
 11
179.9081940564
 21
224.6566595681
 31
0.0
  0
LINE
  5
3B8
330
225
100
AcDbEntity
 67
     1
  8
7_ALL_FEATURES
  6
Continuous
 62
     7
100
AcDbLine
 10
184.1081940564
 20
221.1565096542
 30
0.0
 11
184.1081940564
 21
221.1331975377
 31
0.0
  0
LINE
  5
3B9
330
225
100
AcDbEntity
 67
     1
  8
7_ALL_FEATURES
  6
Continuous
 62
     7
100
AcDbLine
 10
184.1081940564
 20
221.1331975377
 30
0.0
 11
184.1081940564
 21
219.5064865789
 31
0.0
  0
LINE
  5
3BA
330
225
100
AcDbEntity
 67
     1
  8
7_ALL_FEATURES
  6
Continuous
 62
     7
100
AcDbLine
 10
184.1081940564
 20
219.5064865789
 30
0.0
 11
184.1081940564
 21
215.6566595681
 31
0.0
  0
ARC
  5
3BB
330
225
100
AcDbEntity
 67
     1
  8
7_ALL_FEATURES
  6
Continuous
 62
     7
100
AcDbCircle
 10
180.6081940564
 20
221.1566595681
 30
0.0
 40
3.5
100
AcDbArc
 50
0.0
 51
90.0
  0
LINE
  5
3BC
330
225
100
AcDbEntity
 67
     1
  8
7_ALL_FEATURES
  6
Continuous
 62
     7
100
AcDbLine
 10
184.1081940564
 20
221.1378742796
 30
0.0
 11
184.1081940564
 21
221.1566595681
 31
0.0
  0
LINE
  5
3BD
330
225
100
AcDbEntity
 67
     1
  8
7_ALL_FEATURES
  6
Continuous
 62
     7
100
AcDbLine
 10
184.1081940564
 20
215.6566595681
 30
0.0
 11
184.1081940564
 21
221.1378742796
 31
0.0
  0
LINE
  5
3BE
330
225
100
AcDbEntity
 67
     1
  8
7_ALL_FEATURES
  6
Continuous
 62
     7
100
AcDbLine
 10
180.6081940564
 20
206.6566595681
 30
0.0
 11
179.9081940564
 21
206.6566595681
 31
0.0
  0
LINE
  5
3BF
330
225
100
AcDbEntity
 67
     1
  8
7_ALL_FEATURES
  6
Continuous
 62
     7
100
AcDbLine
 10
184.1081940564
 20
210.156809482
 30
0.0
 11
184.1081940564
 21
211.8068325572
 31
0.0
  0
LINE
  5
3C0
330
225
100
AcDbEntity
 67
     1
  8
7_ALL_FEATURES
  6
Continuous
 62
     7
100
AcDbLine
 10
184.1081940564
 20
211.8068325572
 30
0.0
 11
184.1081940564
 21
215.6566595681
 31
0.0
  0
ARC
  5
3C1
330
225
100
AcDbEntity
 67
     1
  8
7_ALL_FEATURES
  6
Continuous
 62
     7
100
AcDbCircle
 10
180.6081940564
 20
210.1566595681
 30
0.0
 40
3.5
100
AcDbArc
 50
270.0
 51
360.0
  0
LINE
  5
3C2
330
225
100
AcDbEntity
 67
     1
  8
7_ALL_FEATURES
  6
Continuous
 62
     7
100
AcDbLine
 10
184.1081940564
 20
210.1566595681
 30
0.0
 11
184.1081940564
 21
211.8068325572
 31
0.0
  0
LINE
  5
3C3
330
225
100
AcDbEntity
 67
     1
  8
7_ALL_FEATURES
  6
Continuous
 62
     7
100
AcDbLine
 10
184.1081940564
 20
211.8068325572
 30
0.0
 11
184.1081940564
 21
215.6566595681
 31
0.0
  0
LINE
  5
3C4
330
225
100
AcDbEntity
 67
     1
  8
7_ALL_FEATURES
  6
Continuous
 62
     7
100
AcDbLine
 10
163.1581940564
 20
204.6870044535
 30
0.0
 11
163.1581940564
 21
207.8566595681
 31
0.0
  0
LINE
  5
3C5
330
225
100
AcDbEntity
 67
     1
  8
7_ALL_FEATURES
  6
Continuous
 62
     7
100
AcDbLine
 10
163.1581940564
 20
207.8566595681
 30
0.0
 11
163.1581940564
 21
210.1718320108
 31
0.0
  0
LINE
  5
3C6
330
225
100
AcDbEntity
 67
     1
  8
7_ALL_FEATURES
  6
Continuous
 62
     7
100
AcDbLine
 10
163.1581940564
 20
210.1718320108
 30
0.0
 11
163.1581940564
 21
221.1414871254
 31
0.0
  0
LINE
  5
3C7
330
225
100
AcDbEntity
 67
     1
  8
7_ALL_FEATURES
  6
Continuous
 62
     7
100
AcDbLine
 10
163.1581940564
 20
221.1414871254
 30
0.0
 11
163.1581940564
 21
223.4566595681
 31
0.0
  0
LINE
  5
3C8
330
225
100
AcDbEntity
 67
     1
  8
7_ALL_FEATURES
  6
Continuous
 62
     7
100
AcDbLine
 10
163.1581940564
 20
223.4566595681
 30
0.0
 11
163.1581940564
 21
226.6263146827
 31
0.0
  0
LINE
  5
3C9
330
225
100
AcDbEntity
 67
     1
  8
7_ALL_FEATURES
  6
Continuous
 62
     7
100
AcDbLine
 10
163.1581940564
 20
207.8566595681
 30
0.0
 11
168.9081940564
 21
207.8566595681
 31
0.0
  0
LINE
  5
3CA
330
225
100
AcDbEntity
 67
     1
  8
7_ALL_FEATURES
  6
Continuous
 62
     7
100
AcDbLine
 10
163.1581940564
 20
223.4566595681
 30
0.0
 11
168.9081940564
 21
223.4566595681
 31
0.0
  0
LINE
  5
3CB
330
225
100
AcDbEntity
 67
     1
  8
7_ALL_FEATURES
  6
Continuous
 62
     7
100
AcDbLine
 10
155.1581940564
 20
226.6263146827
 30
0.0
 11
163.1581940564
 21
226.6263146827
 31
0.0
  0
LINE
  5
3CC
330
225
100
AcDbEntity
 67
     1
  8
7_ALL_FEATURES
  6
Continuous
 62
     7
100
AcDbLine
 10
155.1581940564
 20
204.6870044535
 30
0.0
 11
163.1581940564
 21
204.6870044535
 31
0.0
  0
LINE
  5
3CD
330
225
100
AcDbEntity
 67
     1
  8
7_ALL_FEATURES
  6
Continuous
 62
     7
100
AcDbLine
 10
168.9081940564
 20
225.1566595681
 30
0.0
 11
168.9081940564
 21
215.6566595681
 31
0.0
  0
LINE
  5
3CE
330
225
100
AcDbEntity
 67
     1
  8
7_ALL_FEATURES
  6
Continuous
 62
     7
100
AcDbLine
 10
168.9081940564
 20
215.6566595681
 30
0.0
 11
168.9081940564
 21
206.1566595681
 31
0.0
  0
LINE
  5
3CF
330
225
100
AcDbEntity
 67
     1
  8
7_ALL_FEATURES
  6
Continuous
 62
     7
100
AcDbLine
 10
168.9081940564
 20
225.1566595681
 30
0.0
 11
179.9081940564
 21
225.1566595681
 31
0.0
  0
LINE
  5
3D0
330
225
100
AcDbEntity
 67
     1
  8
7_ALL_FEATURES
  6
Continuous
 62
     7
100
AcDbLine
 10
179.9081940564
 20
215.6566595681
 30
0.0
 11
179.9081940564
 21
206.1566595681
 31
0.0
  0
LINE
  5
3D1
330
225
100
AcDbEntity
 67
     1
  8
7_ALL_FEATURES
  6
Continuous
 62
     7
100
AcDbLine
 10
179.9081940564
 20
225.1566595681
 30
0.0
 11
179.9081940564
 21
215.6566595681
 31
0.0
  0
LINE
  5
3D2
330
225
100
AcDbEntity
 67
     1
  8
7_ALL_FEATURES
  6
Continuous
 62
     7
100
AcDbLine
 10
168.9081940564
 20
206.1566595681
 30
0.0
 11
179.9081940564
 21
206.1566595681
 31
0.0
  0
LINE
  5
3D3
330
225
100
AcDbEntity
 67
     1
  8
7_ALL_FEATURES
  6
Continuous
 62
     9
100
AcDbLine
 10
180.6081940564
 20
206.6566595681
 30
0.0
 11
180.6081940564
 21
215.6566595681
 31
0.0
  0
LINE
  5
3D4
330
225
100
AcDbEntity
 67
     1
  8
7_ALL_FEATURES
  6
Continuous
 62
     7
100
AcDbLine
 10
168.9081940564
 20
215.6566595681
 30
0.0
 11
179.9081940564
 21
215.6566595681
 31
0.0
  0
LINE
  5
3D5
330
225
100
AcDbEntity
 67
     1
  8
7_ALL_FEATURES
  6
Continuous
 62
     7
100
AcDbLine
 10
155.1581940564
 20
210.1718320108
 30
0.0
 11
163.1581940564
 21
210.1718320108
 31
0.0
  0
LINE
  5
3D6
330
225
100
AcDbEntity
 67
     1
  8
7_ALL_FEATURES
  6
Continuous
 62
     7
100
AcDbLine
 10
155.1581940564
 20
221.1414871254
 30
0.0
 11
163.1581940564
 21
221.1414871254
 31
0.0
  0
LINE
  5
3D7
330
225
100
AcDbEntity
 67
     1
  8
7_ALL_FEATURES
  6
Continuous
 62
     9
100
AcDbLine
 10
180.6081940564
 20
224.6566595681
 30
0.0
 11
180.6081940564
 21
215.6566595681
 31
0.0
  0
LINE
  5
3D8
330
225
100
AcDbEntity
 67
     1
  8
7_ALL_FEATURES
  6
Continuous
 62
     7
100
AcDbLine
 10
184.1081940564
 20
212.1566595681
 30
0.0
 11
202.1581940564
 21
212.1566595681
 31
0.0
  0
LINE
  5
3D9
330
225
100
AcDbEntity
 67
     1
  8
7_ALL_FEATURES
  6
Continuous
 62
     7
100
AcDbLine
 10
184.1081940564
 20
219.1566595681
 30
0.0
 11
202.1581940564
 21
219.1566595681
 31
0.0
  0
ARC
  5
3DA
330
225
100
AcDbEntity
 67
     1
  8
7_ALL_FEATURES
  6
Continuous
 62
     7
100
AcDbCircle
 10
202.1581940564
 20
205.6566595681
 30
0.0
 40
6.5
100
AcDbArc
 50
20.0
 51
90.0
  0
ARC
  5
3DB
330
225
100
AcDbEntity
 67
     1
  8
7_ALL_FEATURES
  6
Continuous
 62
     7
100
AcDbCircle
 10
202.1581940564
 20
205.6566595681
 30
0.0
 40
13.5
100
AcDbArc
 50
20.0
 51
90.0
  0
LINE
  5
3DC
330
225
100
AcDbEntity
 67
     1
  8
7_ALL_FEATURES
  6
Continuous
 62
     7
100
AcDbLine
 10
226.8147494534
 20
177.3846897755
 30
0.0
 11
225.422483132
 21
176.8779462763
 31
0.0
  0
LINE
  5
3DD
330
225
100
AcDbEntity
 67
     1
  8
7_ALL_FEATURES
  6
Continuous
 62
     7
100
AcDbLine
 10
225.422483132
 20
176.8779462763
 30
0.0
 11
225.4053380592
 21
176.8717059802
 31
0.0
  0
LINE
  5
3DE
330
225
100
AcDbEntity
 67
     1
  8
7_ALL_FEATURES
  6
Continuous
 62
     7
100
AcDbLine
 10
225.4053380592
 20
176.8717059802
 30
0.0
 11
223.6517202201
 21
176.2334412844
 31
0.0
  0
LINE
  5
3DF
330
225
100
AcDbEntity
 67
     1
  8
7_ALL_FEATURES
  6
Continuous
 62
     7
100
AcDbLine
 10
223.6517202201
 20
176.2334412844
 30
0.0
 11
223.5259538952
 21
176.1876660857
 31
0.0
  0
LINE
  5
3E0
330
225
100
AcDbEntity
 67
     1
  8
7_ALL_FEATURES
  6
Continuous
 62
     7
100
AcDbLine
 10
223.5259538952
 20
176.1876660857
 30
0.0
 11
221.6464400391
 21
175.5035789872
 31
0.0
  0
LINE
  5
3E1
330
225
100
AcDbEntity
 67
     1
  8
7_ALL_FEATURES
  6
Continuous
 62
     7
100
AcDbLine
 10
221.6464400391
 20
175.5035789872
 30
0.0
 11
220.7157046473
 21
175.1648190086
 31
0.0
  0
LINE
  5
3E2
330
225
100
AcDbEntity
 67
     1
  8
7_ALL_FEATURES
  6
Continuous
 62
     7
100
AcDbLine
 10
220.7157046473
 20
175.1648190086
 30
0.0
 11
220.7062352302
 21
175.1613724227
 31
0.0
  0
LINE
  5
3E3
330
225
100
AcDbEntity
 67
     1
  8
7_ALL_FEATURES
  6
Continuous
 62
     7
100
AcDbLine
 10
220.7062352302
 20
175.1613724227
 30
0.0
 11
220.2369011079
 21
174.9905487722
 31
0.0
  0
SPLINE
  5
3E4
330
225
100
AcDbEntity
 67
     1
  8
7_ALL_FEATURES
  6
Continuous
 62
     7
100
AcDbSpline
 70
     0
 71
     3
 72
    11
 73
     7
 74
     0
 42
0.000000001
 43
0.0000001
 40
0.0
 40
0.0
 40
0.0
 40
0.0
 40
0.2533271412
 40
0.5051268738
 40
0.7543570629
 40
1.0
 40
1.0
 40
1.0
 40
1.0
 10
225.4053380592
 20
176.8717059802
 30
0.0
 10
226.4621721672
 20
174.1107701275
 30
0.0
 10
228.671866092
 20
168.6441064173
 30
0.0
 10
232.2749861734
 20
160.6097954936
 30
0.0
 10
236.1413689211
 20
152.7986967318
 30
0.0
 10
238.9039852529
 20
147.7251923596
 30
0.0
 10
240.3257719308
 20
145.2360104887
 30
0.0
  0
SPLINE
  5
3E5
330
225
100
AcDbEntity
 67
     1
  8
7_ALL_FEATURES
  6
Continuous
 62
     7
100
AcDbSpline
 70
     0
 71
     3
 72
    17
 73
    13
 74
     0
 42
0.000000001
 43
0.0000001
 40
0.0
 40
0.0
 40
0.0
 40
0.0
 40
0.0320677067
 40
0.0656063812
 40
0.1018871264
 40
0.1418809997
 40
0.2353431166
 40
0.3490305391
 40
0.4834833778
 40
0.6379454167
 40
0.8108322355
 40
1.0
 40
1.0
 40
1.0
 40
1.0
 10
238.5891046595
 20
144.2440498693
 30
0.0
 10
238.5920919591
 20
144.2388197415
 30
0.0
 10
238.5994739916
 20
144.2287974043
 30
0.0
 10
238.6140209003
 20
144.2161639372
 30
0.0
 10
238.6319809859
 20
144.2058047914
 30
0.0
 10
238.6618809485
 20
144.1944367874
 30
0.0
 10
238.7080799953
 20
144.1868240641
 30
0.0
 10
238.7723958175
 20
144.1869444388
 30
0.0
 10
238.8476266499
 20
144.1958296555
 30
0.0
 10
238.9326496141
 20
144.2133807836
 30
0.0
 10
239.0261830636
 20
144.2393577397
 30
0.0
 10
239.0906312825
 20
144.2611632489
 30
0.0
 10
239.1240190887
 20
144.2733154165
 30
0.0
  0
SPLINE
  5
3E6
330
225
100
AcDbEntity
 67
     1
  8
7_ALL_FEATURES
  6
Continuous
 62
     7
100
AcDbSpline
 70
     0
 71
     3
 72
    11
 73
     7
 74
     0
 42
0.000000001
 43
0.0000001
 40
0.0
 40
0.0
 40
0.0
 40
0.0
 40
0.2532690107
 40
0.5050371783
 40
0.754280242
 40
1.0
 40
1.0
 40
1.0
 40
1.0
 10
223.531574903
 20
176.1722174318
 30
0.0
 10
224.5977328671
 20
173.3863486085
 30
0.0
 10
226.8271226759
 20
167.8700468962
 30
0.0
 10
230.4628546334
 20
159.7622254699
 30
0.0
 10
234.3651112909
 20
151.8783021359
 30
0.0
 10
237.1537379703
 20
146.7570063754
 30
0.0
 10
238.5891044602
 20
144.2440497554
 30
0.0
  0
LINE
  5
3E7
330
225
100
AcDbEntity
 67
     1
  8
7_ALL_FEATURES
  6
Continuous
 62
     7
100
AcDbLine
 10
208.2661960915
 20
207.8797904997
 30
0.0
 11
220.2369011079
 21
174.9905487722
 31
0.0
  0
LINE
  5
3E8
330
225
100
AcDbEntity
 67
     1
  8
7_ALL_FEATURES
  6
Continuous
 62
     7
100
AcDbLine
 10
214.844044437
 20
210.273931503
 30
0.0
 11
226.8147494534
 21
177.3846897755
 31
0.0
  0
LINE
  5
3E9
330
225
100
AcDbEntity
 67
     1
  8
7_ALL_FEATURES
  6
Continuous
 62
     7
100
AcDbLine
 10
222.5968657313
 20
175.8145307576
 30
0.0
 11
221.6464400391
 21
175.5035789872
 31
0.0
  0
LINE
  5
3EA
330
225
100
AcDbEntity
 67
     1
  8
7_ALL_FEATURES
  6
Continuous
 62
     7
100
AcDbLine
 10
228.5745424795
 20
140.4336199437
 30
0.0
 11
227.5747145001
 21
140.4150723949
 31
0.0
  0
LINE
  5
3EB
330
225
100
AcDbEntity
 67
     1
  8
7_ALL_FEATURES
  6
Continuous
 62
     7
100
AcDbLine
 10
227.5747145001
 20
140.4150723949
 30
0.0
 11
226.5748865206
 21
140.3965248461
 31
0.0
  0
ARC
  5
3EC
330
225
100
AcDbEntity
 67
     1
  8
7_ALL_FEATURES
  6
Continuous
 62
     7
100
AcDbCircle
 10
107.5953569695
 20
138.1893665385
 30
0.0
 40
119.0
100
AcDbArc
 50
1.0627572062
 51
18.1007652657
  0
ARC
  5
3ED
330
225
100
AcDbEntity
 67
     1
  8
7_ALL_FEATURES
  6
Continuous
 62
     7
100
AcDbCircle
 10
107.5953569695
 20
138.1893665385
 30
0.0
 40
121.0
100
AcDbArc
 50
1.0627572062
 51
18.1165979488
  0
SPLINE
  5
3EE
330
225
100
AcDbEntity
 67
     1
  8
7_ALL_FEATURES
  6
Continuous
 62
     7
100
AcDbSpline
 70
     0
 71
     3
 72
    16
 73
    12
 74
     0
 42
0.000000001
 43
0.0000001
 40
0.0
 40
0.0
 40
0.0
 40
0.0
 40
0.2278920975
 40
0.4275619664
 40
0.5981091519
 40
0.7388727795
 40
0.8493217442
 40
0.9291293517
 40
0.9783864561
 40
0.9920776893
 40
1.0
 40
1.0
 40
1.0
 40
1.0
 10
223.6517202201
 20
176.2334412844
 30
0.0
 10
223.642288837
 20
176.2292888727
 30
0.0
 10
223.6246205826
 20
176.2214372209
 30
0.0
 10
223.6000082808
 20
176.2102257673
 30
0.0
 10
223.5790979107
 20
176.2003881618
 30
0.0
 10
223.5619853441
 20
176.191979895
 30
0.0
 10
223.5487112118
 20
176.1850227615
 30
0.0
 10
223.5393622205
 20
176.1796184239
 30
0.0
 10
223.5340036677
 20
176.1758769036
 30
0.0
 10
223.5317888067
 20
176.1736113376
 30
0.0
 10
223.531446969
 20
176.172552047
 30
0.0
 10
223.5315750789
 20
176.1722174991
 30
0.0
  0
SPLINE
  5
3EF
330
225
100
AcDbEntity
 67
     1
  8
7_ALL_FEATURES
  6
Continuous
 62
     7
100
AcDbSpline
 70
     0
 71
     3
 72
    21
 73
    17
 74
     0
 42
0.000000001
 43
0.0000001
 40
0.0
 40
0.0
 40
0.0
 40
0.0
 40
0.1512453581
 40
0.3135937012
 40
0.4766722755
 40
0.6300446674
 40
0.7000646644
 40
0.7642021262
 40
0.8215768558
 40
0.8715247573
 40
0.9136914396
 40
0.9482104866
 40
0.9629003476
 40
0.9761635775
 40
0.9883672991
 40
1.0
 40
1.0
 40
1.0
 40
1.0
 10
239.1240190887
 20
144.2733154165
 30
0.0
 10
239.2002752675
 20
144.3010703958
 30
0.0
 10
239.3554793909
 20
144.3667122141
 30
0.0
 10
239.582806171
 20
144.4843680592
 30
0.0
 10
239.8019762009
 20
144.6188091519
 30
0.0
 10
239.9702069138
 20
144.7405146014
 30
0.0
 10
240.0884402866
 20
144.8397096136
 30
0.0
 10
240.1634636981
 20
144.9100334155
 30
0.0
 10
240.2263088953
 20
144.9773261335
 30
0.0
 10
240.2759789586
 20
145.0404822577
 30
0.0
 10
240.311705622
 20
145.0984597218
 30
0.0
 10
240.3304483225
 20
145.1442215065
 30
0.0
 10
240.3367298456
 20
145.1772635568
 30
0.0
 10
240.3372900789
 20
145.1989188359
 30
0.0
 10
240.3338875439
 20
145.2186767599
 30
0.0
 10
240.3288673231
 20
145.2305906505
 30
0.0
 10
240.3257717315
 20
145.2360103748
 30
0.0
  0
SPLINE
  5
3F0
330
225
100
AcDbEntity
 67
     1
  8
7_ALL_FEATURES
  6
Continuous
 62
     7
100
AcDbSpline
 70
     0
 71
     3
 72
    17
 73
    13
 74
     0
 42
0.000000001
 43
0.0000001
 40
0.0
 40
0.0
 40
0.0
 40
0.0
 40
0.0320677067
 40
0.0656063812
 40
0.1018871264
 40
0.1418809997
 40
0.2353431166
 40
0.3490305391
 40
0.4834833778
 40
0.6379454167
 40
0.8108322355
 40
1.0
 40
1.0
 40
1.0
 40
1.0
 10
240.3257717315
 20
145.2360103748
 30
0.0
 10
240.3227844319
 20
145.2412405026
 30
0.0
 10
240.3154023994
 20
145.2512628399
 30
0.0
 10
240.3008554907
 20
145.2638963069
 30
0.0
 10
240.2828954051
 20
145.2742554527
 30
0.0
 10
240.2529954425
 20
145.2856234567
 30
0.0
 10
240.2067963958
 20
145.29323618
 30
0.0
 10
240.1424805735
 20
145.2931158053
 30
0.0
 10
240.0672497411
 20
145.2842305886
 30
0.0
 10
239.9822267769
 20
145.2666794605
 30
0.0
 10
239.8886933274
 20
145.2407025044
 30
0.0
 10
239.8242451085
 20
145.2188969952
 30
0.0
 10
239.7908573024
 20
145.2067448276
 30
0.0
  0
LINE
  5
3F1
330
225
100
AcDbEntity
 67
     1
  8
7_ALL_FEATURES
  6
Continuous
 62
     9
100
AcDbLine
 10
214.844044437
 20
210.273931503
 30
0.0
 11
208.2661960915
 21
207.8797904997
 31
0.0
  0
LINE
  5
3F2
330
225
100
AcDbEntity
 67
     1
  8
7_ALL_FEATURES
  6
Continuous
 62
     9
100
AcDbLine
 10
202.1581940564
 20
219.1566595681
 30
0.0
 11
202.1581940564
 21
212.1566595681
 31
0.0
  0
SPLINE
  5
3F3
330
225
100
AcDbEntity
 67
     1
  8
7_ALL_FEATURES
  6
Continuous
 62
     7
100
AcDbSpline
 70
     0
 71
     3
 72
    21
 73
    17
 74
     0
 42
0.000000001
 43
0.0000001
 40
0.0
 40
0.0
 40
0.0
 40
0.0
 40
0.1512453581
 40
0.3135937012
 40
0.4766722755
 40
0.6300446674
 40
0.7000646644
 40
0.7642021262
 40
0.8215768558
 40
0.8715247573
 40
0.9136914396
 40
0.9482104866
 40
0.9629003476
 40
0.9761635775
 40
0.9883672991
 40
1.0
 40
1.0
 40
1.0
 40
1.0
 10
239.7908573024
 20
145.2067448276
 30
0.0
 10
239.7146011235
 20
145.1789898483
 30
0.0
 10
239.5593970001
 20
145.11334803
 30
0.0
 10
239.33207022
 20
144.995692185
 30
0.0
 10
239.1129001902
 20
144.8612510922
 30
0.0
 10
238.9446694772
 20
144.7395456427
 30
0.0
 10
238.8264361044
 20
144.6403506305
 30
0.0
 10
238.7514126929
 20
144.5700268286
 30
0.0
 10
238.6885674957
 20
144.5027341106
 30
0.0
 10
238.6388974324
 20
144.4395779864
 30
0.0
 10
238.603170769
 20
144.3816005223
 30
0.0
 10
238.5844280685
 20
144.3358387376
 30
0.0
 10
238.5781465454
 20
144.3027966873
 30
0.0
 10
238.5775863121
 20
144.2811414082
 30
0.0
 10
238.5809888471
 20
144.2613834842
 30
0.0
 10
238.5860090679
 20
144.2494695936
 30
0.0
 10
238.5891046595
 20
144.2440498693
 30
0.0
  0
ARC
  5
3F4
330
225
100
AcDbEntity
 67
     1
  8
7_ALL_FEATURES
  6
Continuous
 62
     7
100
AcDbCircle
 10
136.3462224196
 20
158.4634968593
 30
0.0
 40
1.0
100
AcDbArc
 50
113.908516066
 51
199.3034331959
  0
LINE
  5
3F5
330
225
100
AcDbEntity
 67
     1
  8
7_ALL_FEATURES
  6
Continuous
 62
     7
100
AcDbLine
 10
135.9409449486
 20
159.3776905869
 30
0.0
 11
149.9979645603
 21
165.6094040474
 31
0.0
  0
ARC
  5
3F6
330
225
100
AcDbEntity
 67
     1
  8
7_ALL_FEATURES
  6
Continuous
 62
     7
100
AcDbCircle
 10
150.4032420313
 20
164.6952103198
 30
0.0
 40
1.0
100
AcDbArc
 50
27.0070954058
 51
113.908516066
  0
ARC
  5
3F7
330
225
100
AcDbEntity
 67
     1
  8
7_ALL_FEATURES
  6
Continuous
 62
     7
100
AcDbCircle
 10
282.2638858382
 20
231.9021341805
 30
0.0
 40
147.0
100
AcDbArc
 50
207.0070954058
 51
213.7598155036
  0
ARC
  5
3F8
330
225
100
AcDbEntity
 67
     1
  8
7_ALL_FEATURES
  6
Continuous
 62
     7
100
AcDbCircle
 10
159.2204711189
 20
149.6566595681
 30
0.0
 40
1.0
100
AcDbArc
 50
270.0
 51
33.7598155036
  0
LINE
  5
3F9
330
225
100
AcDbEntity
 67
     1
  8
7_ALL_FEATURES
  6
Continuous
 62
     7
100
AcDbLine
 10
159.2204711189
 20
148.6566595681
 30
0.0
 11
139.9524471635
 21
148.6566595681
 31
0.0
  0
ARC
  5
3FA
330
225
100
AcDbEntity
 67
     1
  8
7_ALL_FEATURES
  6
Continuous
 62
     7
100
AcDbCircle
 10
139.9524471635
 20
149.6566595681
 30
0.0
 40
1.0
100
AcDbArc
 50
205.2328146449
 51
270.0
  0
ARC
  5
3FB
330
225
100
AcDbEntity
 67
     1
  8
7_ALL_FEATURES
  6
Continuous
 62
     7
100
AcDbCircle
 10
223.1740877851
 20
188.8760238189
 30
0.0
 40
93.0
100
AcDbArc
 50
199.3034331959
 51
205.2328146449
  0
ARC
  5
3FC
330
225
100
AcDbEntity
 67
     1
  8
7_ALL_FEATURES
  6
Continuous
 62
     7
100
AcDbCircle
 10
146.5610252148
 20
172.8366314008
 30
0.0
 40
1.0
100
AcDbArc
 50
293.908516066
 51
23.5213794749
  0
LINE
  5
3FD
330
225
100
AcDbEntity
 67
     1
  8
7_ALL_FEATURES
  6
Continuous
 62
     7
100
AcDbLine
 10
146.9663026858
 20
171.9224376732
 30
0.0
 11
134.1773442539
 21
166.252877083
 31
0.0
  0
ARC
  5
3FE
330
225
100
AcDbEntity
 67
     1
  8
7_ALL_FEATURES
  6
Continuous
 62
     7
100
AcDbCircle
 10
133.7720667829
 20
167.1670708106
 30
0.0
 40
1.0
100
AcDbArc
 50
193.6486239156
 51
293.908516066
  0
ARC
  5
3FF
330
225
100
AcDbEntity
 67
     1
  8
7_ALL_FEATURES
  6
Continuous
 62
     7
100
AcDbCircle
 10
223.1740877851
 20
188.8760238189
 30
0.0
 40
93.0
100
AcDbArc
 50
185.2807973625
 51
193.6486239156
  0
ARC
  5
400
330
225
100
AcDbEntity
 67
     1
  8
7_ALL_FEATURES
  6
Continuous
 62
     7
100
AcDbCircle
 10
131.5645725672
 20
180.4086321581
 30
0.0
 40
1.0
100
AcDbArc
 50
113.908516066
 51
185.2807973625
  0
LINE
  5
401
330
225
100
AcDbEntity
 67
     1
  8
7_ALL_FEATURES
  6
Continuous
 62
     7
100
AcDbLine
 10
131.1592950962
 20
181.3228258856
 30
0.0
 11
141.4907568581
 21
185.9029368271
 31
0.0
  0
ARC
  5
402
330
225
100
AcDbEntity
 67
     1
  8
7_ALL_FEATURES
  6
Continuous
 62
     7
100
AcDbCircle
 10
141.8960343291
 20
184.9887430996
 30
0.0
 40
1.0
100
AcDbArc
 50
18.4805293508
 51
113.908516066
  0
ARC
  5
403
330
225
100
AcDbEntity
 67
     1
  8
7_ALL_FEATURES
  6
Continuous
 62
     7
100
AcDbCircle
 10
282.2638858382
 20
231.9021341805
 30
0.0
 40
147.0
100
AcDbArc
 50
198.4805293508
 51
203.5213794749
  0
ARC
  5
404
330
225
100
AcDbEntity
 67
     1
  8
7_ALL_FEATURES
  6
Continuous
 62
     7
100
AcDbCircle
 10
139.2856301972
 20
193.6762474826
 30
0.0
 40
1.0
100
AcDbArc
 50
293.908516066
 51
14.9682068796
  0
LINE
  5
405
330
225
100
AcDbEntity
 67
     1
  8
7_ALL_FEATURES
  6
Continuous
 62
     7
100
AcDbLine
 10
139.6909076681
 20
192.7620537551
 30
0.0
 11
131.5872931626
 21
189.1695850108
 31
0.0
  0
ARC
  5
406
330
225
100
AcDbEntity
 67
     1
  8
7_ALL_FEATURES
  6
Continuous
 62
     7
100
AcDbCircle
 10
131.1820156916
 20
190.0837787383
 30
0.0
 40
1.0
100
AcDbArc
 50
179.247812529
 51
293.908516066
  0
ARC
  5
407
330
225
100
AcDbEntity
 67
     1
  8
7_ALL_FEATURES
  6
Continuous
 62
     7
100
AcDbCircle
 10
223.1740877851
 20
188.8760238189
 30
0.0
 40
93.0
100
AcDbArc
 50
173.6302289185
 51
179.247812529
  0
ARC
  5
408
330
225
100
AcDbEntity
 67
     1
  8
7_ALL_FEATURES
  6
Continuous
 62
     7
100
AcDbCircle
 10
131.7420413943
 20
199.0829279912
 30
0.0
 40
1.0
100
AcDbArc
 50
113.908516066
 51
173.6302289185
  0
LINE
  5
409
330
225
100
AcDbEntity
 67
     1
  8
7_ALL_FEATURES
  6
Continuous
 62
     7
100
AcDbLine
 10
131.3367639233
 20
199.9971217188
 30
0.0
 11
136.9956649614
 21
202.5058078233
 31
0.0
  0
ARC
  5
40A
330
225
100
AcDbEntity
 67
     1
  8
7_ALL_FEATURES
  6
Continuous
 62
     7
100
AcDbCircle
 10
137.4009424324
 20
201.5916140958
 30
0.0
 40
1.0
100
AcDbArc
 50
11.8178389881
 51
113.908516066
  0
ARC
  5
40B
330
225
100
AcDbEntity
 67
     1
  8
7_ALL_FEATURES
  6
Continuous
 62
     7
100
AcDbCircle
 10
282.2638858382
 20
231.9021341805
 30
0.0
 40
147.0
100
AcDbArc
 50
191.8178389881
 51
194.9682068796
  0
ARC
  5
40C
330
225
100
AcDbEntity
 67
     1
  8
7_ALL_FEATURES
  6
Continuous
 62
     7
100
AcDbCircle
 10
172.1581940564
 20
140.6566595681
 30
0.0
 40
3.0
100
AcDbArc
 50
0.0
 51
39.6488164839
  0
ARC
  5
40D
330
225
100
AcDbEntity
 67
     1
  8
7_ALL_FEATURES
  6
Continuous
 62
     7
100
AcDbCircle
 10
282.2638858382
 20
231.9021341805
 30
0.0
 40
140.0
100
AcDbArc
 50
186.3018681995
 51
219.6488164839
  0
ARC
  5
40E
330
225
100
AcDbEntity
 67
     1
  8
7_ALL_FEATURES
  6
Continuous
 62
     7
100
AcDbCircle
 10
135.1581940564
 20
215.6566595681
 30
0.0
 40
8.0
100
AcDbArc
 50
6.301868199499999
 51
163.0765444175
  0
ARC
  5
40F
330
225
100
AcDbEntity
 67
     1
  8
7_ALL_FEATURES
  6
Continuous
 62
     7
100
AcDbCircle
 10
223.1740877851
 20
188.8760238189
 30
0.0
 40
100.0
100
AcDbArc
 50
163.0765444175
 51
207.9142219154
  0
ARC
  5
410
330
225
100
AcDbEntity
 67
     1
  8
7_ALL_FEATURES
  6
Continuous
 62
     7
100
AcDbCircle
 10
132.1581940564
 20
140.6566595681
 30
0.0
 40
3.0
100
AcDbArc
 50
0.0
 51
27.9142219153
  0
LINE
  5
411
330
225
100
AcDbEntity
 67
     1
  8
7_ALL_FEATURES
  6
Continuous
 62
     7
100
AcDbLine
 10
135.1581940564
 20
140.6566595681
 30
0.0
 11
135.1581940564
 21
139.6566595681
 31
0.0
  0
LINE
  5
412
330
225
100
AcDbEntity
 67
     1
  8
7_ALL_FEATURES
  6
Continuous
 62
     7
100
AcDbLine
 10
175.1581940564
 20
139.6566595681
 30
0.0
 11
175.1581940564
 21
140.6566595681
 31
0.0
  0
LINE
  5
413
330
225
100
AcDbEntity
 67
     1
  8
7_ALL_FEATURES
  6
Continuous
 62
     7
100
AcDbLine
 10
135.1581940564
 20
139.6566595681
 30
0.0
 11
135.1581940564
 21
137.6566595681
 31
0.0
  0
LINE
  5
414
330
225
100
AcDbEntity
 67
     1
  8
7_ALL_FEATURES
  6
Continuous
 62
     7
100
AcDbLine
 10
135.1581940564
 20
137.6566595681
 30
0.0
 11
135.1581940564
 21
135.6566595681
 31
0.0
  0
LINE
  5
415
330
225
100
AcDbEntity
 67
     1
  8
7_ALL_FEATURES
  6
Continuous
 62
     7
100
AcDbLine
 10
135.1581940564
 20
135.6566595681
 30
0.0
 11
175.1581940564
 21
135.6566595681
 31
0.0
  0
LINE
  5
416
330
225
100
AcDbEntity
 67
     1
  8
7_ALL_FEATURES
  6
Continuous
 62
     7
100
AcDbLine
 10
175.1581940564
 20
139.6566595681
 30
0.0
 11
175.1581940564
 21
137.6566595681
 31
0.0
  0
LINE
  5
417
330
225
100
AcDbEntity
 67
     1
  8
7_ALL_FEATURES
  6
Continuous
 62
     7
100
AcDbLine
 10
175.1581940564
 20
137.6566595681
 30
0.0
 11
175.1581940564
 21
135.6566595681
 31
0.0
  0
LINE
  5
418
330
225
100
AcDbEntity
 67
     1
  8
7_ALL_FEATURES
  6
Continuous
 62
     9
100
AcDbLine
 10
135.1581940564
 20
139.6566595681
 30
0.0
 11
175.1581940564
 21
139.6566595681
 31
0.0
  0
LINE
  5
419
330
225
100
AcDbEntity
 67
     1
  8
7_ALL_FEATURES
  6
Continuous
 62
     7
100
AcDbLine
 10
35.1581940564
 20
174.6566595681
 30
0.0
 11
35.1581940564
 21
175.3066595681
 31
0.0
  0
LINE
  5
41A
330
225
100
AcDbEntity
 67
     1
  8
7_ALL_FEATURES
  6
Continuous
 62
     7
100
AcDbLine
 10
35.1581940564
 20
175.3066595681
 30
0.0
 11
35.1581940564
 21
256.0066595681
 31
0.0
  0
LINE
  5
41B
330
225
100
AcDbEntity
 67
     1
  8
7_ALL_FEATURES
  6
Continuous
 62
     7
100
AcDbLine
 10
35.1581940564
 20
256.0066595681
 30
0.0
 11
35.1581940564
 21
256.6566595681
 31
0.0
  0
LINE
  5
41C
330
225
100
AcDbEntity
 67
     1
  8
7_ALL_FEATURES
  6
Continuous
 62
     7
100
AcDbLine
 10
155.1581940564
 20
257.3566595681
 30
0.0
 11
155.1581940564
 21
255.9566595681
 31
0.0
  0
LINE
  5
41D
330
225
100
AcDbEntity
 67
     1
  8
7_ALL_FEATURES
  6
Continuous
 62
     7
100
AcDbLine
 10
155.1581940564
 20
255.9566595681
 30
0.0
 11
155.1581940564
 21
226.6263146827
 31
0.0
  0
LINE
  5
41E
330
225
100
AcDbEntity
 67
     1
  8
7_ALL_FEATURES
  6
Continuous
 62
     7
100
AcDbLine
 10
155.1581940564
 20
226.6263146827
 30
0.0
 11
155.1581940564
 21
221.1414871254
 31
0.0
  0
LINE
  5
41F
330
225
100
AcDbEntity
 67
     1
  8
7_ALL_FEATURES
  6
Continuous
 62
     7
100
AcDbLine
 10
155.1581940564
 20
221.1414871254
 30
0.0
 11
155.1581940564
 21
210.1718320108
 31
0.0
  0
LINE
  5
420
330
225
100
AcDbEntity
 67
     1
  8
7_ALL_FEATURES
  6
Continuous
 62
     7
100
AcDbLine
 10
155.1581940564
 20
210.1718320108
 30
0.0
 11
155.1581940564
 21
204.6870044535
 31
0.0
  0
LINE
  5
421
330
225
100
AcDbEntity
 67
     1
  8
7_ALL_FEATURES
  6
Continuous
 62
     7
100
AcDbLine
 10
155.1581940564
 20
204.6870044535
 30
0.0
 11
155.1581940564
 21
175.3566595681
 31
0.0
  0
LINE
  5
422
330
225
100
AcDbEntity
 67
     1
  8
7_ALL_FEATURES
  6
Continuous
 62
     7
100
AcDbLine
 10
155.1581940564
 20
175.3566595681
 30
0.0
 11
155.1581940564
 21
173.9566595681
 31
0.0
  0
LINE
  5
423
330
225
100
AcDbEntity
 67
     1
  8
7_ALL_FEATURES
  6
Continuous
 62
     7
100
AcDbLine
 10
36.1581940564
 20
257.6566595681
 30
0.0
 11
154.8581940564
 21
257.6566595681
 31
0.0
  0
LINE
  5
424
330
225
100
AcDbEntity
 67
     1
  8
7_ALL_FEATURES
  6
Continuous
 62
     7
100
AcDbLine
 10
36.1581940564
 20
173.6566595681
 30
0.0
 11
124.4566653713
 21
173.6566595681
 31
0.0
  0
LINE
  5
425
330
225
100
AcDbEntity
 67
     1
  8
7_ALL_FEATURES
  6
Continuous
 62
     7
100
AcDbLine
 10
131.4557556109
 20
173.6566595681
 30
0.0
 11
147.3020166407
 21
173.6566595681
 31
0.0
  0
ARC
  5
426
330
225
100
AcDbEntity
 67
     1
  8
7_ALL_FEATURES
  6
Continuous
 62
     7
100
AcDbCircle
 10
36.1581940564
 20
174.6566595681
 30
0.0
 40
1.0
100
AcDbArc
 50
180.0
 51
270.0
  0
ARC
  5
427
330
225
100
AcDbEntity
 67
     1
  8
7_ALL_FEATURES
  6
Continuous
 62
     7
100
AcDbCircle
 10
36.1581940564
 20
256.6566595681
 30
0.0
 40
1.0
100
AcDbArc
 50
90.0
 51
180.0
  0
LINE
  5
428
330
225
100
AcDbEntity
 67
     1
  8
7_ALL_FEATURES
  6
Continuous
 62
     7
100
AcDbLine
 10
155.1581940568
 20
173.9566595685
 30
0.0
 11
154.9765579814
 21
173.7750234931
 31
0.0
  0
LINE
  5
429
330
225
100
AcDbEntity
 67
     1
  8
7_ALL_FEATURES
  6
Continuous
 62
     7
100
AcDbLine
 10
155.1581940568
 20
257.3566595677
 30
0.0
 11
154.8581940568
 21
257.6566595677
 31
0.0
  0
LINE
  5
42A
330
225
100
AcDbEntity
 67
     1
  8
7_ALL_FEATURES
  6
Continuous
 62
     7
100
AcDbLine
 10
154.8581940564
 20
257.6566595681
 30
0.0
 11
154.8581940564
 21
174.0542054155
 31
0.0
  0
LINE
  5
42B
330
225
100
AcDbEntity
 67
     1
  8
7_ALL_FEATURES
  6
Continuous
 62
     9
100
AcDbLine
 10
36.1581940564
 20
173.6566595681
 30
0.0
 11
36.1581940564
 21
257.6566595681
 31
0.0
  0
SPLINE
  5
42C
330
225
100
AcDbEntity
 67
     1
  8
0
  6
Continuous
 62
     2
100
AcDbSpline
 70
     0
 71
     3
 72
    13
 73
     9
 74
     0
 42
0.000000001
 43
0.0000001
 40
0.0
 40
0.0
 40
0.0
 40
0.0
 40
0.1666666667
 40
0.3333333333
 40
0.5
 40
0.6666666667
 40
0.8333333333
 40
1.0
 40
1.0
 40
1.0
 40
1.0
 10
285.8154939098
 20
215.6566595681
 30
0.0
 10
285.8154939098
 20
215.9183674886
 30
0.0
 10
285.8204987497
 20
216.4418061646
 30
0.0
 10
285.8410205808
 20
217.1735653457
 30
0.0
 10
285.869088333
 20
217.8022214174
 30
0.0
 10
285.8971850609
 20
218.2846708742
 30
0.0
 10
285.9177627282
 20
218.5878787694
 30
0.0
 10
285.9227737785
 20
218.6566595681
 30
0.0
 10
285.9227737785
 20
218.6566595681
 30
0.0
  0
SPLINE
  5
42D
330
225
100
AcDbEntity
 67
     1
  8
0
  6
Continuous
 62
     2
100
AcDbSpline
 70
     0
 71
     3
 72
    13
 73
     9
 74
     0
 42
0.000000001
 43
0.0000001
 40
0.0
 40
0.0
 40
0.0
 40
0.0
 40
0.1666666667
 40
0.3333333333
 40
0.5
 40
0.6666666667
 40
0.8333333333
 40
1.0
 40
1.0
 40
1.0
 40
1.0
 10
285.9227737785
 20
212.6566595681
 30
0.0
 10
285.9227737785
 20
212.6566595681
 30
0.0
 10
285.9177623652
 20
212.725445397
 30
0.0
 10
285.8971845051
 20
213.0286570613
 30
0.0
 10
285.8690881319
 20
213.5111024601
 30
0.0
 10
285.8410207508
 20
214.1397495554
 30
0.0
 10
285.8204987535
 20
214.8715116482
 30
0.0
 10
285.8154939098
 20
215.3949509391
 30
0.0
 10
285.8154939098
 20
215.6566595681
 30
0.0
  0
SPLINE
  5
42E
330
225
100
AcDbEntity
 67
     1
  8
0
  6
Continuous
 62
     2
100
AcDbSpline
 70
     0
 71
     3
 72
    13
 73
     9
 74
     0
 42
0.000000001
 43
0.0000001
 40
0.0
 40
0.0
 40
0.0
 40
0.0
 40
0.1666666667
 40
0.3333333333
 40
0.5
 40
0.6666666667
 40
0.8333333333
 40
1.0
 40
1.0
 40
1.0
 40
1.0
 10
369.7082140411
 20
218.6566595681
 30
0.0
 10
369.7082140411
 20
218.6566595681
 30
0.0
 10
369.7132254544
 20
218.5878737393
 30
0.0
 10
369.7338033145
 20
218.284662075
 30
0.0
 10
369.7618996877
 20
217.8022166761
 30
0.0
 10
369.7899670688
 20
217.1735695808
 30
0.0
 10
369.8104890661
 20
216.4418074879
 30
0.0
 10
369.8154939098
 20
215.9183681971
 30
0.0
 10
369.8154939098
 20
215.6566595681
 30
0.0
  0
LINE
  5
42F
330
225
100
AcDbEntity
 67
     1
  8
3_ALL_AXES
  6
Continuous
 62
     7
100
AcDbLine
 10
285.8154939098
 20
221.6566595681
 30
0.0
 11
284.8154939098
 21
221.6566595681
 31
0.0
  0
LINE
  5
430
330
225
100
AcDbEntity
 67
     1
  8
3_ALL_AXES
  6
Continuous
 62
     7
100
AcDbLine
 10
285.8154939098
 20
215.6566595681
 30
0.0
 11
285.8154939098
 21
218.8566036365
 31
0.0
  0
LINE
  5
431
330
225
100
AcDbEntity
 67
     1
  8
3_ALL_AXES
  6
Continuous
 62
     7
100
AcDbLine
 10
285.8154939098
 20
218.8566036365
 30
0.0
 11
285.8154939098
 21
221.6566595681
 31
0.0
  0
LINE
  5
432
330
225
100
AcDbEntity
 67
     1
  8
3_ALL_AXES
  6
Continuous
 62
     7
100
AcDbLine
 10
285.8154939098
 20
209.6566595681
 30
0.0
 11
285.8154939098
 21
212.4567154996
 31
0.0
  0
LINE
  5
433
330
225
100
AcDbEntity
 67
     1
  8
3_ALL_AXES
  6
Continuous
 62
     7
100
AcDbLine
 10
285.8154939098
 20
212.4567154996
 30
0.0
 11
285.8154939098
 21
215.6566595681
 31
0.0
  0
LINE
  5
434
330
225
100
AcDbEntity
 67
     1
  8
3_ALL_AXES
  6
Continuous
 62
     7
100
AcDbLine
 10
285.8154939098
 20
209.6566595681
 30
0.0
 11
284.8154939098
 21
209.6566595681
 31
0.0
  0
LINE
  5
435
330
225
100
AcDbEntity
 67
     1
  8
3_ALL_AXES
  6
Continuous
 62
     7
100
AcDbLine
 10
373.8154939098
 20
221.6566595681
 30
0.0
 11
372.8154939098
 21
221.6566595681
 31
0.0
  0
LINE
  5
436
330
225
100
AcDbEntity
 67
     1
  8
3_ALL_AXES
  6
Continuous
 62
     7
100
AcDbLine
 10
373.8154939098
 20
215.6566595681
 30
0.0
 11
373.8154939098
 21
218.6566595681
 31
0.0
  0
LINE
  5
437
330
225
100
AcDbEntity
 67
     1
  8
3_ALL_AXES
  6
Continuous
 62
     7
100
AcDbLine
 10
373.8154939098
 20
218.6566595681
 30
0.0
 11
373.8154939098
 21
218.8566036365
 31
0.0
  0
LINE
  5
438
330
225
100
AcDbEntity
 67
     1
  8
3_ALL_AXES
  6
Continuous
 62
     7
100
AcDbLine
 10
373.8154939098
 20
218.8566036365
 30
0.0
 11
373.8154939098
 21
220.9066168036
 31
0.0
  0
LINE
  5
439
330
225
100
AcDbEntity
 67
     1
  8
3_ALL_AXES
  6
Continuous
 62
     7
100
AcDbLine
 10
373.8154939098
 20
220.9066168036
 30
0.0
 11
373.8154939098
 21
221.6566595681
 31
0.0
  0
LINE
  5
43A
330
225
100
AcDbEntity
 67
     1
  8
3_ALL_AXES
  6
Continuous
 62
     7
100
AcDbLine
 10
373.8154939098
 20
209.6566595681
 30
0.0
 11
373.8154939098
 21
210.4067023326
 31
0.0
  0
LINE
  5
43B
330
225
100
AcDbEntity
 67
     1
  8
3_ALL_AXES
  6
Continuous
 62
     7
100
AcDbLine
 10
373.8154939098
 20
210.4067023326
 30
0.0
 11
373.8154939098
 21
212.4567154996
 31
0.0
  0
LINE
  5
43C
330
225
100
AcDbEntity
 67
     1
  8
3_ALL_AXES
  6
Continuous
 62
     7
100
AcDbLine
 10
373.8154939098
 20
212.4567154996
 30
0.0
 11
373.8154939098
 21
212.6566595681
 31
0.0
  0
LINE
  5
43D
330
225
100
AcDbEntity
 67
     1
  8
3_ALL_AXES
  6
Continuous
 62
     7
100
AcDbLine
 10
373.8154939098
 20
212.6566595681
 30
0.0
 11
373.8154939098
 21
215.6566595681
 31
0.0
  0
LINE
  5
43E
330
225
100
AcDbEntity
 67
     1
  8
3_ALL_AXES
  6
Continuous
 62
     7
100
AcDbLine
 10
373.8154939098
 20
209.6566595681
 30
0.0
 11
372.8154939098
 21
209.6566595681
 31
0.0
  0
LINE
  5
43F
330
225
100
AcDbEntity
 67
     1
  8
3_ALL_AXES
  6
Continuous
 62
     7
100
AcDbLine
 10
369.8154939098
 20
215.6566595681
 30
0.0
 11
369.8154939098
 21
212.4567154996
 31
0.0
  0
LINE
  5
440
330
225
100
AcDbEntity
 67
     1
  8
3_ALL_AXES
  6
Continuous
 62
     7
100
AcDbLine
 10
369.8154939098
 20
212.4567154996
 30
0.0
 11
369.8154939098
 21
209.6566595681
 31
0.0
  0
LINE
  5
441
330
225
100
AcDbEntity
 67
     1
  8
3_ALL_AXES
  6
Continuous
 62
     7
100
AcDbLine
 10
369.8154939098
 20
221.6566595681
 30
0.0
 11
369.8154939098
 21
218.8566036365
 31
0.0
  0
LINE
  5
442
330
225
100
AcDbEntity
 67
     1
  8
3_ALL_AXES
  6
Continuous
 62
     7
100
AcDbLine
 10
369.8154939098
 20
218.8566036365
 30
0.0
 11
369.8154939098
 21
215.6566595681
 31
0.0
  0
LINE
  5
443
330
225
100
AcDbEntity
 67
     1
  8
3_ALL_AXES
  6
Continuous
 62
     7
100
AcDbLine
 10
369.8154939098
 20
221.6566595681
 30
0.0
 11
370.8154939098
 21
221.6566595681
 31
0.0
  0
LINE
  5
444
330
225
100
AcDbEntity
 67
     1
  8
3_ALL_AXES
  6
Continuous
 62
     7
100
AcDbLine
 10
369.8154939098
 20
209.6566595681
 30
0.0
 11
370.8154939098
 21
209.6566595681
 31
0.0
  0
LINE
  5
445
330
225
100
AcDbEntity
 67
     1
  8
3_ALL_AXES
  6
Continuous
 62
     7
100
AcDbLine
 10
281.8154939098
 20
215.6566595681
 30
0.0
 11
281.8154939098
 21
212.6566595681
 31
0.0
  0
LINE
  5
446
330
225
100
AcDbEntity
 67
     1
  8
3_ALL_AXES
  6
Continuous
 62
     7
100
AcDbLine
 10
281.8154939098
 20
212.6566595681
 30
0.0
 11
281.8154939098
 21
212.4567154996
 31
0.0
  0
LINE
  5
447
330
225
100
AcDbEntity
 67
     1
  8
3_ALL_AXES
  6
Continuous
 62
     7
100
AcDbLine
 10
281.8154939098
 20
212.4567154996
 30
0.0
 11
281.8154939098
 21
210.4066595681
 31
0.0
  0
LINE
  5
448
330
225
100
AcDbEntity
 67
     1
  8
3_ALL_AXES
  6
Continuous
 62
     7
100
AcDbLine
 10
281.8154939098
 20
210.4066595681
 30
0.0
 11
281.8154939098
 21
209.6566595681
 31
0.0
  0
LINE
  5
449
330
225
100
AcDbEntity
 67
     1
  8
3_ALL_AXES
  6
Continuous
 62
     7
100
AcDbLine
 10
281.8154939098
 20
221.6566595681
 30
0.0
 11
281.8154939098
 21
220.9066168036
 31
0.0
  0
LINE
  5
44A
330
225
100
AcDbEntity
 67
     1
  8
3_ALL_AXES
  6
Continuous
 62
     7
100
AcDbLine
 10
281.8154939098
 20
220.9066168036
 30
0.0
 11
281.8154939098
 21
218.8566036365
 31
0.0
  0
LINE
  5
44B
330
225
100
AcDbEntity
 67
     1
  8
3_ALL_AXES
  6
Continuous
 62
     7
100
AcDbLine
 10
281.8154939098
 20
218.8566036365
 30
0.0
 11
281.8154939098
 21
218.6566595681
 31
0.0
  0
LINE
  5
44C
330
225
100
AcDbEntity
 67
     1
  8
3_ALL_AXES
  6
Continuous
 62
     7
100
AcDbLine
 10
281.8154939098
 20
218.6566595681
 30
0.0
 11
281.8154939098
 21
215.6566595681
 31
0.0
  0
LINE
  5
44D
330
225
100
AcDbEntity
 67
     1
  8
3_ALL_AXES
  6
Continuous
 62
     7
100
AcDbLine
 10
281.8154939098
 20
221.6566595681
 30
0.0
 11
282.8154939098
 21
221.6566595681
 31
0.0
  0
LINE
  5
44E
330
225
100
AcDbEntity
 67
     1
  8
3_ALL_AXES
  6
Continuous
 62
     7
100
AcDbLine
 10
281.8154939098
 20
209.6566595681
 30
0.0
 11
282.8154939098
 21
209.6566595681
 31
0.0
  0
LINE
  5
44F
330
225
100
AcDbEntity
 67
     1
  8
3_ALL_AXES
  6
Continuous
 62
     7
100
AcDbLine
 10
369.7082140411
 20
212.6566595681
 30
0.0
 11
369.8154939098
 21
212.6566595681
 31
0.0
  0
LINE
  5
450
330
225
100
AcDbEntity
 67
     1
  8
3_ALL_AXES
  6
Continuous
 62
     7
100
AcDbLine
 10
373.8154939098
 20
210.4066595681
 30
0.0
 11
374.6154939098
 21
210.4066595681
 31
0.0
  0
LINE
  5
451
330
225
100
AcDbEntity
 67
     1
  8
3_ALL_AXES
  6
Continuous
 62
     7
100
AcDbLine
 10
377.1154939098
 20
212.7066595681
 30
0.0
 11
377.1154939098
 21
215.6566595681
 31
0.0
  0
ARC
  5
452
330
225
100
AcDbEntity
 67
     1
  8
3_ALL_AXES
  6
Continuous
 62
     7
100
AcDbCircle
 10
372.2525867812
 20
215.483732534
 30
0.0
 40
5.6
100
AcDbArc
 50
294.9576152299
 51
330.2704967092999
  0
LINE
  5
453
330
225
100
AcDbEntity
 67
     1
  8
3_ALL_AXES
  6
Continuous
 62
     7
100
AcDbLine
 10
369.7082140411
 20
218.6566595681
 30
0.0
 11
369.8154939098
 21
218.6566595681
 31
0.0
  0
LINE
  5
454
330
225
100
AcDbEntity
 67
     1
  8
3_ALL_AXES
  6
Continuous
 62
     7
100
AcDbLine
 10
373.8154939098
 20
220.9066595681
 30
0.0
 11
374.6154939098
 21
220.9066595681
 31
0.0
  0
LINE
  5
455
330
225
100
AcDbEntity
 67
     1
  8
3_ALL_AXES
  6
Continuous
 62
     7
100
AcDbLine
 10
377.1154939098
 20
218.6066595681
 30
0.0
 11
377.1154939098
 21
215.6566595681
 31
0.0
  0
ARC
  5
456
330
225
100
AcDbEntity
 67
     1
  8
3_ALL_AXES
  6
Continuous
 62
     7
100
AcDbCircle
 10
372.2525867812
 20
215.8295866022
 30
0.0
 40
5.6
100
AcDbArc
 50
29.7295032907
 51
65.0423847701
  0
LINE
  5
457
330
225
100
AcDbEntity
 67
     1
  8
3_ALL_AXES
  6
Continuous
 62
     7
100
AcDbLine
 10
374.6154939098
 20
210.4066595681
 30
0.0
 11
374.6154939098
 21
215.6566595681
 31
0.0
  0
LINE
  5
458
330
225
100
AcDbEntity
 67
     1
  8
3_ALL_AXES
  6
Continuous
 62
     7
100
AcDbLine
 10
374.6154939098
 20
220.9066595681
 30
0.0
 11
374.6154939098
 21
215.6566595681
 31
0.0
  0
LINE
  5
459
330
225
100
AcDbEntity
 67
     1
  8
3_ALL_AXES
  6
Continuous
 62
     7
100
AcDbLine
 10
285.9227737785
 20
212.6566595681
 30
0.0
 11
285.8154939098
 21
212.6566595681
 31
0.0
  0
LINE
  5
45A
330
225
100
AcDbEntity
 67
     1
  8
3_ALL_AXES
  6
Continuous
 62
     7
100
AcDbLine
 10
281.8154939098
 20
210.4066595681
 30
0.0
 11
281.0154939098
 21
210.4066595681
 31
0.0
  0
LINE
  5
45B
330
225
100
AcDbEntity
 67
     1
  8
3_ALL_AXES
  6
Continuous
 62
     7
100
AcDbLine
 10
278.5154939098
 20
215.6566595681
 30
0.0
 11
278.5154939098
 21
218.6066595681
 31
0.0
  0
ARC
  5
45C
330
225
100
AcDbEntity
 67
     1
  8
3_ALL_AXES
  6
Continuous
 62
     7
100
AcDbCircle
 10
283.3784010385
 20
215.483732534
 30
0.0
 40
5.6
100
AcDbArc
 50
209.7295032907
 51
245.0423847701
  0
LINE
  5
45D
330
225
100
AcDbEntity
 67
     1
  8
3_ALL_AXES
  6
Continuous
 62
     7
100
AcDbLine
 10
278.5154939098
 20
215.6566595681
 30
0.0
 11
278.5154939098
 21
212.7066595681
 31
0.0
  0
LINE
  5
45E
330
225
100
AcDbEntity
 67
     1
  8
3_ALL_AXES
  6
Continuous
 62
     7
100
AcDbLine
 10
285.9227737785
 20
218.6566595681
 30
0.0
 11
285.8154939098
 21
218.6566595681
 31
0.0
  0
LINE
  5
45F
330
225
100
AcDbEntity
 67
     1
  8
3_ALL_AXES
  6
Continuous
 62
     7
100
AcDbLine
 10
281.8154939098
 20
220.9066595681
 30
0.0
 11
281.0154939098
 21
220.9066595681
 31
0.0
  0
ARC
  5
460
330
225
100
AcDbEntity
 67
     1
  8
3_ALL_AXES
  6
Continuous
 62
     7
100
AcDbCircle
 10
283.3784010385
 20
215.8295866022
 30
0.0
 40
5.6
100
AcDbArc
 50
114.9576152299
 51
150.2704967093
  0
LINE
  5
461
330
225
100
AcDbEntity
 67
     1
  8
3_ALL_AXES
  6
Continuous
 62
     7
100
AcDbLine
 10
281.0154939098
 20
215.6566595681
 30
0.0
 11
281.0154939098
 21
210.4066595681
 31
0.0
  0
LINE
  5
462
330
225
100
AcDbEntity
 67
     1
  8
3_ALL_AXES
  6
Continuous
 62
     7
100
AcDbLine
 10
281.0154939098
 20
215.6566595681
 30
0.0
 11
281.0154939098
 21
220.9066595681
 31
0.0
  0
SPLINE
  5
463
330
225
100
AcDbEntity
 67
     1
  8
7_ALL_FEATURES
  6
Continuous
 62
     7
100
AcDbSpline
 70
     0
 71
     3
 72
    12
 73
     8
 74
     0
 42
0.000000001
 43
0.0000001
 40
0.0
 40
0.0
 40
0.0
 40
0.0
 40
0.255325154
 40
0.507115694
 40
0.6316858615
 40
0.7553594911
 40
1.0
 40
1.0
 40
1.0
 40
1.0
 10
324.9712876337
 20
173.8695116256
 30
0.0
 10
324.8381444955
 20
171.3710175678
 30
0.0
 10
324.4150714609
 20
166.4155642927
 30
0.0
 10
323.4817000033
 20
160.2912999694
 30
0.0
 10
322.4966236673
 20
155.4903547565
 30
0.0
 10
321.36327534
 20
150.7945574849
 30
0.0
 10
320.3332843727
 20
147.3312274877
 30
0.0
 10
319.5671489585
 20
145.0596079767
 30
0.0
  0
SPLINE
  5
464
330
225
100
AcDbEntity
 67
     1
  8
7_ALL_FEATURES
  6
Continuous
 62
     7
100
AcDbSpline
 70
     0
 71
     3
 72
    10
 73
     6
 74
     0
 42
0.000000001
 43
0.0000001
 40
0.0
 40
0.0
 40
0.0
 40
0.0
 40
0.2334149524
 40
0.4741267257
 40
1.0
 40
1.0
 40
1.0
 40
1.0
 10
321.4622689998
 20
144.4204522682
 30
0.0
 10
321.457321935
 20
144.4057842306
 30
0.0
 10
321.4441377809
 20
144.3769470026
 30
0.0
 10
321.404934186
 20
144.32303608
 30
0.0
 10
321.3638659527
 20
144.2910905815
 30
0.0
 10
321.333860421
 20
144.2733154165
 30
0.0
  0
SPLINE
  5
465
330
225
100
AcDbEntity
 67
     1
  8
7_ALL_FEATURES
  6
Continuous
 62
     7
100
AcDbSpline
 70
     0
 71
     3
 72
    12
 73
     8
 74
     0
 42
0.000000001
 43
0.0000001
 40
0.0
 40
0.0
 40
0.0
 40
0.0
 40
0.2547376494
 40
0.5063196329
 40
0.6309332052
 40
0.7547528392
 40
1.0
 40
1.0
 40
1.0
 40
1.0
 10
326.815517976
 20
171.3534522039
 30
0.0
 10
326.6437005405
 20
169.0222395371
 30
0.0
 10
326.1644226326
 20
164.3976362469
 30
0.0
 10
325.2153685659
 20
158.6824289423
 30
0.0
 10
324.2503982291
 20
154.1960369524
 30
0.0
 10
323.1571504928
 20
149.7992600921
 30
0.0
 10
322.1814625845
 20
146.5528875315
 30
0.0
 10
321.462269002
 20
144.4204522675
 30
0.0
  0
SPLINE
  5
466
330
225
100
AcDbEntity
 67
     1
  8
7_ALL_FEATURES
  6
Continuous
 62
     7
100
AcDbSpline
 70
     0
 71
     3
 72
    12
 73
     8
 74
     0
 42
0.000000001
 43
0.0000001
 40
0.0
 40
0.0
 40
0.0
 40
0.0
 40
0.2547376494
 40
0.5063196329
 40
0.6309332052
 40
0.7547528392
 40
1.0
 40
1.0
 40
1.0
 40
1.0
 10
328.8154698436
 20
171.3534522039
 30
0.0
 10
328.9872872791
 20
169.0222395371
 30
0.0
 10
329.466565187
 20
164.3976362469
 30
0.0
 10
330.4156192537
 20
158.6824289423
 30
0.0
 10
331.3805895905
 20
154.1960369524
 30
0.0
 10
332.4738373268
 20
149.7992600921
 30
0.0
 10
333.4495252351
 20
146.5528875315
 30
0.0
 10
334.1687188176
 20
144.4204522675
 30
0.0
  0
SPLINE
  5
467
330
225
100
AcDbEntity
 67
     1
  8
7_ALL_FEATURES
  6
Continuous
 62
     7
100
AcDbSpline
 70
     0
 71
     3
 72
    24
 73
    20
 74
     0
 42
0.000000001
 43
0.0000001
 40
0.0
 40
0.0
 40
0.0
 40
0.0
 40
0.0187433566
 40
0.0379486556
 40
0.0792256097
 40
0.1263549423
 40
0.1803965499
 40
0.2413864393
 40
0.3086565524
 40
0.381062179
 40
0.4571384596
 40
0.5352181624
 40
0.6135308755
 40
0.6902945566
 40
0.7638060753
 40
0.8325374918
 40
0.8952477838
 40
0.9511265396
 40
1.0
 40
1.0
 40
1.0
 40
1.0
 10
336.063838859
 20
145.0596079759
 30
0.0
 10
336.0682131265
 20
145.0466382813
 30
0.0
 10
336.0746787469
 20
145.0195063792
 30
0.0
 10
336.0779440695
 20
144.9614812405
 30
0.0
 10
336.0622100477
 20
144.8831549156
 30
0.0
 10
336.0158356018
 20
144.7891486277
 30
0.0
 10
335.9437500224
 20
144.6944859333
 30
0.0
 10
335.8479827892
 20
144.6014587768
 30
0.0
 10
335.7311915691
 20
144.5124712336
 30
0.0
 10
335.5966518506
 20
144.430028049
 30
0.0
 10
335.4482123382
 20
144.356498133
 30
0.0
 10
335.290160991
 20
144.2940205011
 30
0.0
 10
335.1270865751
 20
144.2444142359
 30
0.0
 10
334.963729265
 20
144.209117327
 30
0.0
 10
334.8048209105
 20
144.1891439288
 30
0.0
 10
334.6549396831
 20
144.1850482243
 30
0.0
 10
334.5182893688
 20
144.1969646406
 30
0.0
 10
334.3987043002
 20
144.2245545423
 30
0.0
 10
334.327834043
 20
144.2551249151
 30
0.0
 10
334.2971273987
 20
144.2733154165
 30
0.0
  0
SPLINE
  5
468
330
225
100
AcDbEntity
 67
     1
  8
7_ALL_FEATURES
  6
Continuous
 62
     7
100
AcDbSpline
 70
     0
 71
     3
 72
    12
 73
     8
 74
     0
 42
0.000000001
 43
0.0000001
 40
0.0
 40
0.0
 40
0.0
 40
0.0
 40
0.255325154
 40
0.507115694
 40
0.6316858615
 40
0.7553594911
 40
1.0
 40
1.0
 40
1.0
 40
1.0
 10
330.6597001893
 20
173.8695115615
 30
0.0
 10
330.7928433286
 20
171.3710175093
 30
0.0
 10
331.2159163646
 20
166.4155642454
 30
0.0
 10
332.1492878224
 20
160.291299936
 30
0.0
 10
333.1343641574
 20
155.4903547338
 30
0.0
 10
334.2677124832
 20
150.7945574725
 30
0.0
 10
335.2977034485
 20
147.3312274829
 30
0.0
 10
336.0638388612
 20
145.0596079767
 30
0.0
  0
SPLINE
  5
469
330
225
100
AcDbEntity
 67
     1
  8
7_ALL_FEATURES
  6
Continuous
 62
     7
100
AcDbSpline
 70
     0
 71
     3
 72
    26
 73
    22
 74
     0
 42
0.000000001
 43
0.0000001
 40
0.0
 40
0.0
 40
0.0
 40
0.0
 40
0.0005454346
 40
0.0015561475
 40
0.0052760247
 40
0.0113471213
 40
0.0197790924
 40
0.0305612499
 40
0.0436706945
 40
0.0590789723
 40
0.0767493872
 40
0.1187059572
 40
0.1691409503
 40
0.2275711093
 40
0.2934352864
 40
0.366100261
 40
0.4448670362
 40
0.5289776766
 40
0.6176226685
 40
0.8050670799
 40
1.0
 40
1.0
 40
1.0
 40
1.0
 10
328.8154939098
 20
140.4150723949
 30
0.0
 10
328.8154939098
 20
140.4148904363
 30
0.0
 10
328.8150729225
 20
140.4144571179
 30
0.0
 10
328.8134744098
 20
140.4138307576
 30
0.0
 10
328.809896635
 20
140.4130448691
 30
0.0
 10
328.8039023056
 20
140.4122152325
 30
0.0
 10
328.79549811
 20
140.4113445303
 30
0.0
 10
328.7847539728
 20
140.410480316
 30
0.0
 10
328.7716698017
 20
140.4096167151
 30
0.0
 10
328.7562853351
 20
140.4087634239
 30
0.0
 10
328.7312812366
 20
140.4075727062
 30
0.0
 10
328.6945903962
 20
140.406172058
 30
0.0
 10
328.6442987399
 20
140.4046420539
 30
0.0
 10
328.5860259896
 20
140.4032043023
 30
0.0
 10
328.5203330671
 20
140.4018739097
 30
0.0
 10
328.4478524185
 20
140.4006660185
 30
0.0
 10
328.369281983
 20
140.3995931911
 30
0.0
 10
328.2853783743
 20
140.3986664131
 30
0.0
 10
328.1652190192
 20
140.3976188683
 30
0.0
 10
328.0080864785
 20
140.3967536913
 30
0.0
 10
327.8805241257
 20
140.3965248461
 30
0.0
 10
327.8154939098
 20
140.3965248461
 30
0.0
  0
LINE
  5
46A
330
225
100
AcDbEntity
 67
     1
  8
7_ALL_FEATURES
  6
Continuous
 62
     7
100
AcDbLine
 10
328.8154939098
 20
173.7315991907
 30
0.0
 11
328.8154939098
 21
140.4150723949
 31
0.0
  0
LINE
  5
46B
330
225
100
AcDbEntity
 67
     1
  8
7_ALL_FEATURES
  6
Continuous
 62
     7
100
AcDbLine
 10
326.8154939098
 20
173.7315992133
 30
0.0
 11
326.8154939098
 21
140.4150723949
 31
0.0
  0
SPLINE
  5
46C
330
225
100
AcDbEntity
 67
     1
  8
7_ALL_FEATURES
  6
Continuous
 62
     7
100
AcDbSpline
 70
     0
 71
     3
 72
    26
 73
    22
 74
     0
 42
0.000000001
 43
0.0000001
 40
0.0
 40
0.0
 40
0.0
 40
0.0
 40
0.1949329201
 40
0.3823773315
 40
0.4710223234
 40
0.5551329638
 40
0.633899739
 40
0.7065647136
 40
0.7724288907
 40
0.8308590497
 40
0.8812940428
 40
0.9232506128
 40
0.9409210277
 40
0.9563293055
 40
0.9694387501
 40
0.9802209076
 40
0.9886528787
 40
0.9947239753
 40
0.9984438525
 40
0.9994545654
 40
1.0
 40
1.0
 40
1.0
 40
1.0
 10
327.8154939098
 20
140.3965248461
 30
0.0
 10
327.750463694
 20
140.3965248461
 30
0.0
 10
327.6229013411
 20
140.3967536913
 30
0.0
 10
327.4657688004
 20
140.3976188683
 30
0.0
 10
327.3456094453
 20
140.3986664131
 30
0.0
 10
327.2617058366
 20
140.3995931911
 30
0.0
 10
327.1831354011
 20
140.4006660185
 30
0.0
 10
327.1106547526
 20
140.4018739097
 30
0.0
 10
327.04496183
 20
140.4032043023
 30
0.0
 10
326.9866890797
 20
140.4046420539
 30
0.0
 10
326.9363974234
 20
140.406172058
 30
0.0
 10
326.899706583
 20
140.4075727062
 30
0.0
 10
326.8747024845
 20
140.4087634239
 30
0.0
 10
326.8593180179
 20
140.4096167151
 30
0.0
 10
326.8462338468
 20
140.410480316
 30
0.0
 10
326.8354897096
 20
140.4113445303
 30
0.0
 10
326.8270855141
 20
140.4122152325
 30
0.0
 10
326.8210911846
 20
140.4130448691
 30
0.0
 10
326.8175134098
 20
140.4138307576
 30
0.0
 10
326.8159148971
 20
140.4144571179
 30
0.0
 10
326.8154939098
 20
140.4148904363
 30
0.0
 10
326.8154939098
 20
140.4150723949
 30
0.0
  0
SPLINE
  5
46D
330
225
100
AcDbEntity
 67
     1
  8
7_ALL_FEATURES
  6
Continuous
 62
     7
100
AcDbSpline
 70
     0
 71
     3
 72
    10
 73
     6
 74
     0
 42
0.000000001
 43
0.0000001
 40
0.0
 40
0.0
 40
0.0
 40
0.0
 40
0.5258732743
 40
0.7665850476
 40
1.0
 40
1.0
 40
1.0
 40
1.0
 10
334.2971273987
 20
144.2733154165
 30
0.0
 10
334.2671218669
 20
144.2910905815
 30
0.0
 10
334.2260536336
 20
144.32303608
 30
0.0
 10
334.1868500388
 20
144.3769470026
 30
0.0
 10
334.1736658846
 20
144.4057842306
 30
0.0
 10
334.1687188198
 20
144.4204522682
 30
0.0
  0
SPLINE
  5
46E
330
225
100
AcDbEntity
 67
     1
  8
7_ALL_FEATURES
  6
Continuous
 62
     7
100
AcDbSpline
 70
     0
 71
     3
 72
    24
 73
    20
 74
     0
 42
0.000000001
 43
0.0000001
 40
0.0
 40
0.0
 40
0.0
 40
0.0
 40
0.0488734604
 40
0.1047522162
 40
0.1674625082
 40
0.2361939247
 40
0.3097054434
 40
0.3864691245
 40
0.4647818376
 40
0.5428615404
 40
0.618937821
 40
0.6913434476
 40
0.7586135607
 40
0.8196034501
 40
0.8736450577
 40
0.9207743903
 40
0.9620513444
 40
0.9812566434
 40
1.0
 40
1.0
 40
1.0
 40
1.0
 10
321.333860421
 20
144.2733154165
 30
0.0
 10
321.3031537766
 20
144.2551249151
 30
0.0
 10
321.2322835194
 20
144.2245545423
 30
0.0
 10
321.1126984508
 20
144.1969646406
 30
0.0
 10
320.9760481365
 20
144.1850482243
 30
0.0
 10
320.8261669092
 20
144.1891439288
 30
0.0
 10
320.6672585546
 20
144.209117327
 30
0.0
 10
320.5039012445
 20
144.2444142359
 30
0.0
 10
320.3408268286
 20
144.2940205011
 30
0.0
 10
320.1827754814
 20
144.356498133
 30
0.0
 10
320.034335969
 20
144.430028049
 30
0.0
 10
319.8997962505
 20
144.5124712336
 30
0.0
 10
319.7830050304
 20
144.6014587768
 30
0.0
 10
319.6872377972
 20
144.6944859333
 30
0.0
 10
319.6151522178
 20
144.7891486277
 30
0.0
 10
319.5687777719
 20
144.8831549156
 30
0.0
 10
319.5530437501
 20
144.9614812405
 30
0.0
 10
319.5563090727
 20
145.0195063792
 30
0.0
 10
319.5627746932
 20
145.0466382813
 30
0.0
 10
319.5671489606
 20
145.0596079759
 30
0.0
  0
LINE
  5
46F
330
225
100
AcDbEntity
 67
     1
  8
7_ALL_FEATURES
  6
Continuous
 62
     7
100
AcDbLine
 10
372.8154939098
 20
223.6561893601
 30
0.0
 11
372.8154939098
 21
221.6566595681
 31
0.0
  0
LINE
  5
470
330
225
100
AcDbEntity
 67
     1
  8
7_ALL_FEATURES
  6
Continuous
 62
     7
100
AcDbLine
 10
372.8154939098
 20
221.6566595681
 30
0.0
 11
372.8154939098
 21
218.8566036365
 31
0.0
  0
LINE
  5
471
330
225
100
AcDbEntity
 67
     1
  8
7_ALL_FEATURES
  6
Continuous
 62
     7
100
AcDbLine
 10
372.8154939098
 20
218.8566036365
 30
0.0
 11
372.8154939098
 21
218.7066595681
 31
0.0
  0
LINE
  5
472
330
225
100
AcDbEntity
 67
     1
  8
7_ALL_FEATURES
  6
Continuous
 62
     7
100
AcDbLine
 10
372.8154939098
 20
218.7066595681
 30
0.0
 11
372.8154939098
 21
217.9854105028
 31
0.0
  0
LINE
  5
473
330
225
100
AcDbEntity
 67
     1
  8
7_ALL_FEATURES
  6
Continuous
 62
     7
100
AcDbLine
 10
370.8154939098
 20
223.6566595681
 30
0.0
 11
372.8154939098
 21
223.6566595681
 31
0.0
  0
LINE
  5
474
330
225
100
AcDbEntity
 67
     1
  8
7_ALL_FEATURES
  6
Continuous
 62
     7
100
AcDbLine
 10
284.8154939098
 20
223.6566595681
 30
0.0
 11
282.8154939098
 21
223.6566595681
 31
0.0
  0
LINE
  5
475
330
225
100
AcDbEntity
 67
     1
  8
7_ALL_FEATURES
  6
Continuous
 62
     7
100
AcDbLine
 10
368.8154939098
 20
135.6566595681
 30
0.0
 11
286.8154939098
 21
135.6566595681
 31
0.0
  0
LINE
  5
476
330
225
100
AcDbEntity
 67
     1
  8
7_ALL_FEATURES
  6
Continuous
 62
     7
100
AcDbLine
 10
282.8154939098
 20
217.9854105028
 30
0.0
 11
282.8154939098
 21
218.7066595681
 31
0.0
  0
LINE
  5
477
330
225
100
AcDbEntity
 67
     1
  8
7_ALL_FEATURES
  6
Continuous
 62
     7
100
AcDbLine
 10
282.8154939098
 20
218.7066595681
 30
0.0
 11
282.8154939098
 21
218.8566036365
 31
0.0
  0
LINE
  5
478
330
225
100
AcDbEntity
 67
     1
  8
7_ALL_FEATURES
  6
Continuous
 62
     7
100
AcDbLine
 10
282.8154939098
 20
218.8566036365
 30
0.0
 11
282.8154939098
 21
221.6566595681
 31
0.0
  0
LINE
  5
479
330
225
100
AcDbEntity
 67
     1
  8
7_ALL_FEATURES
  6
Continuous
 62
     7
100
AcDbLine
 10
282.8154939098
 20
221.6566595681
 30
0.0
 11
282.8154939098
 21
223.6566409689
 31
0.0
  0
LINE
  5
47A
330
225
100
AcDbEntity
 67
     1
  8
7_ALL_FEATURES
  6
Continuous
 62
     7
100
AcDbLine
 10
282.8154939098
 20
142.0611070705
 30
0.0
 11
282.8154939098
 21
166.1672328498
 31
0.0
  0
LINE
  5
47B
330
225
100
AcDbEntity
 67
     1
  8
7_ALL_FEATURES
  6
Continuous
 62
     7
100
AcDbLine
 10
282.8154939098
 20
166.1672328498
 30
0.0
 11
282.8154939098
 21
166.252877083
 31
0.0
  0
LINE
  5
47C
330
225
100
AcDbEntity
 67
     1
  8
7_ALL_FEATURES
  6
Continuous
 62
     7
100
AcDbLine
 10
282.8154939098
 20
166.252877083
 30
0.0
 11
282.8154939098
 21
166.434780705
 31
0.0
  0
LINE
  5
47D
330
225
100
AcDbEntity
 67
     1
  8
7_ALL_FEATURES
  6
Continuous
 62
     7
100
AcDbLine
 10
282.8154939098
 20
166.434780705
 30
0.0
 11
282.8154939098
 21
171.9224376732
 31
0.0
  0
LINE
  5
47E
330
225
100
AcDbEntity
 67
     1
  8
7_ALL_FEATURES
  6
Continuous
 62
     7
100
AcDbLine
 10
282.8154939098
 20
171.9224376732
 30
0.0
 11
282.8154939098
 21
189.0839424501
 31
0.0
  0
LINE
  5
47F
330
225
100
AcDbEntity
 67
     1
  8
7_ALL_FEATURES
  6
Continuous
 62
     7
100
AcDbLine
 10
282.8154939098
 20
189.0839424501
 30
0.0
 11
282.8154939098
 21
189.1695850108
 31
0.0
  0
LINE
  5
480
330
225
100
AcDbEntity
 67
     1
  8
7_ALL_FEATURES
  6
Continuous
 62
     7
100
AcDbLine
 10
282.8154939098
 20
189.1695850108
 30
0.0
 11
282.8154939098
 21
192.7620537551
 31
0.0
  0
LINE
  5
481
330
225
100
AcDbEntity
 67
     1
  8
7_ALL_FEATURES
  6
Continuous
 62
     7
100
AcDbLine
 10
282.8154939098
 20
192.7620537551
 30
0.0
 11
282.8154939098
 21
209.6566595681
 31
0.0
  0
LINE
  5
482
330
225
100
AcDbEntity
 67
     1
  8
7_ALL_FEATURES
  6
Continuous
 62
     7
100
AcDbLine
 10
282.8154939098
 20
209.6566595681
 30
0.0
 11
282.8154939098
 21
215.6566595681
 31
0.0
  0
LINE
  5
483
330
225
100
AcDbEntity
 67
     1
  8
7_ALL_FEATURES
  6
Continuous
 62
     7
100
AcDbLine
 10
282.8154939098
 20
215.6566595681
 30
0.0
 11
282.8154939098
 21
217.9854105028
 31
0.0
  0
LINE
  5
484
330
225
100
AcDbEntity
 67
     1
  8
7_ALL_FEATURES
  6
Continuous
 62
     7
100
AcDbLine
 10
282.8154939098
 20
140.6566595681
 30
0.0
 11
282.8154939098
 21
142.0611070705
 31
0.0
  0
LINE
  5
485
330
225
100
AcDbEntity
 67
     1
  8
7_ALL_FEATURES
  6
Continuous
 62
     7
100
AcDbLine
 10
282.8154939098
 20
139.6566595681
 30
0.0
 11
282.8154939098
 21
140.6566595681
 31
0.0
  0
LINE
  5
486
330
225
100
AcDbEntity
 67
     1
  8
7_ALL_FEATURES
  6
Continuous
 62
     7
100
AcDbLine
 10
372.8154939098
 20
217.9854105028
 30
0.0
 11
372.8154939098
 21
215.6566595681
 31
0.0
  0
LINE
  5
487
330
225
100
AcDbEntity
 67
     1
  8
7_ALL_FEATURES
  6
Continuous
 62
     7
100
AcDbLine
 10
372.8154939098
 20
215.6566595681
 30
0.0
 11
372.8154939098
 21
209.6566595681
 31
0.0
  0
LINE
  5
488
330
225
100
AcDbEntity
 67
     1
  8
7_ALL_FEATURES
  6
Continuous
 62
     7
100
AcDbLine
 10
372.8154939098
 20
209.6566595681
 30
0.0
 11
372.8154939098
 21
192.7620537551
 31
0.0
  0
LINE
  5
489
330
225
100
AcDbEntity
 67
     1
  8
7_ALL_FEATURES
  6
Continuous
 62
     7
100
AcDbLine
 10
372.8154939098
 20
192.7620537551
 30
0.0
 11
372.8154939098
 21
189.1695850108
 31
0.0
  0
LINE
  5
48A
330
225
100
AcDbEntity
 67
     1
  8
7_ALL_FEATURES
  6
Continuous
 62
     7
100
AcDbLine
 10
372.8154939098
 20
189.1695850108
 30
0.0
 11
372.8154939098
 21
189.0839424501
 31
0.0
  0
LINE
  5
48B
330
225
100
AcDbEntity
 67
     1
  8
7_ALL_FEATURES
  6
Continuous
 62
     7
100
AcDbLine
 10
372.8154939098
 20
189.0839424501
 30
0.0
 11
372.8154939098
 21
189.0668344779
 31
0.0
  0
LINE
  5
48C
330
225
100
AcDbEntity
 67
     1
  8
7_ALL_FEATURES
  6
Continuous
 62
     7
100
AcDbLine
 10
372.8154939098
 20
189.0668344779
 30
0.0
 11
372.8154939098
 21
171.9224376732
 31
0.0
  0
LINE
  5
48D
330
225
100
AcDbEntity
 67
     1
  8
7_ALL_FEATURES
  6
Continuous
 62
     7
100
AcDbLine
 10
372.8154939098
 20
171.9224376732
 30
0.0
 11
372.8154939098
 21
166.252877083
 31
0.0
  0
LINE
  5
48E
330
225
100
AcDbEntity
 67
     1
  8
7_ALL_FEATURES
  6
Continuous
 62
     7
100
AcDbLine
 10
372.8154939098
 20
166.252877083
 30
0.0
 11
372.8154939098
 21
166.1672067428
 31
0.0
  0
LINE
  5
48F
330
225
100
AcDbEntity
 67
     1
  8
7_ALL_FEATURES
  6
Continuous
 62
     7
100
AcDbLine
 10
372.8154939098
 20
166.1672067428
 30
0.0
 11
372.8154939098
 21
142.0611070705
 31
0.0
  0
LINE
  5
490
330
225
100
AcDbEntity
 67
     1
  8
7_ALL_FEATURES
  6
Continuous
 62
     7
100
AcDbLine
 10
372.8154939098
 20
142.0611070705
 30
0.0
 11
372.8154939098
 21
140.6566595681
 31
0.0
  0
LINE
  5
491
330
225
100
AcDbEntity
 67
     1
  8
7_ALL_FEATURES
  6
Continuous
 62
     7
100
AcDbLine
 10
372.8154939098
 20
140.6566595681
 30
0.0
 11
372.8154939098
 21
139.6566595681
 31
0.0
  0
ARC
  5
492
330
225
100
AcDbEntity
 67
     1
  8
7_ALL_FEATURES
  6
Continuous
 62
     7
100
AcDbCircle
 10
286.8154939098
 20
139.6566595681
 30
0.0
 40
4.0
100
AcDbArc
 50
180.0
 51
270.0
  0
ARC
  5
493
330
225
100
AcDbEntity
 67
     1
  8
7_ALL_FEATURES
  6
Continuous
 62
     7
100
AcDbCircle
 10
368.8154939098
 20
139.6566595681
 30
0.0
 40
4.0
100
AcDbArc
 50
270.0
 51
360.0
  0
LINE
  5
494
330
225
100
AcDbEntity
 67
     1
  8
7_ALL_FEATURES
  6
Continuous
 62
     9
100
AcDbLine
 10
284.8154939098
 20
217.9854105028
 30
0.0
 11
282.8154939098
 21
217.9854105028
 31
0.0
  0
LINE
  5
495
330
225
100
AcDbEntity
 67
     1
  8
7_ALL_FEATURES
  6
Continuous
 62
     9
100
AcDbLine
 10
372.8154939098
 20
139.6566595681
 30
0.0
 11
370.8154939098
 21
139.6566595681
 31
0.0
  0
LINE
  5
496
330
225
100
AcDbEntity
 67
     1
  8
7_ALL_FEATURES
  6
Continuous
 62
     9
100
AcDbLine
 10
286.8154939098
 20
135.6566595681
 30
0.0
 11
286.8154939098
 21
137.6566595681
 31
0.0
  0
LINE
  5
497
330
225
100
AcDbEntity
 67
     1
  8
7_ALL_FEATURES
  6
Continuous
 62
     9
100
AcDbLine
 10
372.8154939098
 20
140.6566595681
 30
0.0
 11
370.8154939098
 21
140.6566595681
 31
0.0
  0
LINE
  5
498
330
225
100
AcDbEntity
 67
     1
  8
7_ALL_FEATURES
  6
Continuous
 62
     9
100
AcDbLine
 10
368.8154939098
 20
135.6566595681
 30
0.0
 11
368.8154939098
 21
137.6566595681
 31
0.0
  0
LINE
  5
499
330
225
100
AcDbEntity
 67
     1
  8
7_ALL_FEATURES
  6
Continuous
 62
     9
100
AcDbLine
 10
372.8154939098
 20
142.0611070705
 30
0.0
 11
370.8154939098
 21
142.0611070705
 31
0.0
  0
LINE
  5
49A
330
225
100
AcDbEntity
 67
     1
  8
7_ALL_FEATURES
  6
Continuous
 62
     9
100
AcDbLine
 10
372.8154939098
 20
217.9854105028
 30
0.0
 11
370.8154939098
 21
217.9854105028
 31
0.0
  0
LINE
  5
49B
330
225
100
AcDbEntity
 67
     1
  8
7_ALL_FEATURES
  6
Continuous
 62
     9
100
AcDbLine
 10
284.8154939098
 20
140.6566595681
 30
0.0
 11
282.8154939098
 21
140.6566595681
 31
0.0
  0
LINE
  5
49C
330
225
100
AcDbEntity
 67
     1
  8
7_ALL_FEATURES
  6
Continuous
 62
     9
100
AcDbLine
 10
284.8154939098
 20
142.0611070705
 30
0.0
 11
282.8154939098
 21
142.0611070705
 31
0.0
  0
LINE
  5
49D
330
225
100
AcDbEntity
 67
     1
  8
7_ALL_FEATURES
  6
Continuous
 62
     9
100
AcDbLine
 10
282.8154939098
 20
139.6566595681
 30
0.0
 11
284.8154939098
 21
139.6566595681
 31
0.0
  0
ARC
  5
49E
330
225
100
AcDbEntity
 67
     1
  8
7_ALL_FEATURES
  6
Continuous
 62
     7
100
AcDbCircle
 10
327.8154939098
 20
215.6566595681
 30
0.0
 40
40.0
100
AcDbArc
 50
270.0
 51
90.0
  0
ARC
  5
49F
330
225
100
AcDbEntity
 67
     1
  8
7_ALL_FEATURES
  6
Continuous
 62
     7
100
AcDbCircle
 10
327.8154939098
 20
215.6566595681
 30
0.0
 40
40.0
100
AcDbArc
 50
90.0
 51
270.0
  0
ARC
  5
4A0
330
225
100
AcDbEntity
 67
     1
  8
7_ALL_FEATURES
  6
Continuous
 62
     7
100
AcDbCircle
 10
327.8154939098
 20
215.6566595681
 30
0.0
 40
39.5
100
AcDbArc
 50
270.0
 51
90.0
  0
ARC
  5
4A1
330
225
100
AcDbEntity
 67
     1
  8
7_ALL_FEATURES
  6
Continuous
 62
     7
100
AcDbCircle
 10
327.8154939098
 20
215.6566595681
 30
0.0
 40
39.5
100
AcDbArc
 50
90.0
 51
270.0
  0
ARC
  5
4A2
330
225
100
AcDbEntity
 67
     1
  8
7_ALL_FEATURES
  6
Continuous
 62
     7
100
AcDbCircle
 10
327.8154939098
 20
215.6566595681
 30
0.0
 40
40.35
100
AcDbArc
 50
270.0
 51
90.0
  0
ARC
  5
4A3
330
225
100
AcDbEntity
 67
     1
  8
7_ALL_FEATURES
  6
Continuous
 62
     7
100
AcDbCircle
 10
327.8154939098
 20
215.6566595681
 30
0.0
 40
40.35
100
AcDbArc
 50
90.0
 51
270.0
  0
ARC
  5
4A4
330
225
100
AcDbEntity
 67
     1
  8
7_ALL_FEATURES
  6
Continuous
 62
     7
100
AcDbCircle
 10
327.8154939098
 20
215.6566595681
 30
0.0
 40
42.0
100
AcDbArc
 50
270.0
 51
90.0
  0
ARC
  5
4A5
330
225
100
AcDbEntity
 67
     1
  8
7_ALL_FEATURES
  6
Continuous
 62
     7
100
AcDbCircle
 10
327.8154939098
 20
215.6566595681
 30
0.0
 40
42.0
100
AcDbArc
 50
90.0
 51
270.0
  0
ARC
  5
4A6
330
225
100
AcDbEntity
 67
     1
  8
7_ALL_FEATURES
  6
Continuous
 62
     9
100
AcDbCircle
 10
327.8154939098
 20
215.6566595681
 30
0.0
 40
41.0
100
AcDbArc
 50
90.0
 51
270.0
  0
ARC
  5
4A7
330
225
100
AcDbEntity
 67
     1
  8
7_ALL_FEATURES
  6
Continuous
 62
     9
100
AcDbCircle
 10
327.8154939098
 20
215.6566595681
 30
0.0
 40
41.0
100
AcDbArc
 50
270.0
 51
90.0
  0
LINE
  5
4A8
330
225
100
AcDbEntity
 67
     1
  8
7_ALL_FEATURES
  6
Continuous
 62
     3
100
AcDbLine
 10
284.8154939098
 20
139.6566595681
 30
0.0
 11
284.8154939098
 21
140.6566595681
 31
0.0
  0
LINE
  5
4A9
330
225
100
AcDbEntity
 67
     1
  8
7_ALL_FEATURES
  6
Continuous
 62
     3
100
AcDbLine
 10
284.8154939098
 20
140.6566595681
 30
0.0
 11
284.8154939098
 21
142.0611070705
 31
0.0
  0
LINE
  5
4AA
330
225
100
AcDbEntity
 67
     1
  8
7_ALL_FEATURES
  6
Continuous
 62
     3
100
AcDbLine
 10
284.8154939098
 20
142.0611070705
 30
0.0
 11
284.8154939098
 21
166.1672328498
 31
0.0
  0
LINE
  5
4AB
330
225
100
AcDbEntity
 67
     1
  8
7_ALL_FEATURES
  6
Continuous
 62
     3
100
AcDbLine
 10
284.8154939098
 20
166.1672328498
 30
0.0
 11
284.8154939098
 21
166.252877083
 31
0.0
  0
LINE
  5
4AC
330
225
100
AcDbEntity
 67
     1
  8
7_ALL_FEATURES
  6
Continuous
 62
     3
100
AcDbLine
 10
284.8154939098
 20
166.252877083
 30
0.0
 11
284.8154939098
 21
166.434780705
 31
0.0
  0
LINE
  5
4AD
330
225
100
AcDbEntity
 67
     1
  8
7_ALL_FEATURES
  6
Continuous
 62
     3
100
AcDbLine
 10
284.8154939098
 20
166.434780705
 30
0.0
 11
284.8154939098
 21
171.9224376732
 31
0.0
  0
LINE
  5
4AE
330
225
100
AcDbEntity
 67
     1
  8
7_ALL_FEATURES
  6
Continuous
 62
     3
100
AcDbLine
 10
284.8154939098
 20
171.9224376732
 30
0.0
 11
284.8154939098
 21
189.0839424501
 31
0.0
  0
LINE
  5
4AF
330
225
100
AcDbEntity
 67
     1
  8
7_ALL_FEATURES
  6
Continuous
 62
     3
100
AcDbLine
 10
284.8154939098
 20
189.0839424501
 30
0.0
 11
284.8154939098
 21
189.1695850108
 31
0.0
  0
LINE
  5
4B0
330
225
100
AcDbEntity
 67
     1
  8
7_ALL_FEATURES
  6
Continuous
 62
     3
100
AcDbLine
 10
284.8154939098
 20
189.1695850108
 30
0.0
 11
284.8154939098
 21
192.7620537551
 31
0.0
  0
LINE
  5
4B1
330
225
100
AcDbEntity
 67
     1
  8
7_ALL_FEATURES
  6
Continuous
 62
     3
100
AcDbLine
 10
284.8154939098
 20
192.7620537551
 30
0.0
 11
284.8154939098
 21
209.6566595681
 31
0.0
  0
LINE
  5
4B2
330
225
100
AcDbEntity
 67
     1
  8
7_ALL_FEATURES
  6
Continuous
 62
     3
100
AcDbLine
 10
284.8154939098
 20
209.6566595681
 30
0.0
 11
284.8154939098
 21
215.6566595681
 31
0.0
  0
LINE
  5
4B3
330
225
100
AcDbEntity
 67
     1
  8
7_ALL_FEATURES
  6
Continuous
 62
     3
100
AcDbLine
 10
284.8154939098
 20
215.6566595681
 30
0.0
 11
284.8154939098
 21
217.9854105028
 31
0.0
  0
LINE
  5
4B4
330
225
100
AcDbEntity
 67
     1
  8
7_ALL_FEATURES
  6
Continuous
 62
     3
100
AcDbLine
 10
284.8154939098
 20
217.9854105028
 30
0.0
 11
284.8154939098
 21
218.7066595681
 31
0.0
  0
LINE
  5
4B5
330
225
100
AcDbEntity
 67
     1
  8
7_ALL_FEATURES
  6
Continuous
 62
     3
100
AcDbLine
 10
284.8154939098
 20
218.7066595681
 30
0.0
 11
284.8154939098
 21
218.8566036365
 31
0.0
  0
LINE
  5
4B6
330
225
100
AcDbEntity
 67
     1
  8
7_ALL_FEATURES
  6
Continuous
 62
     3
100
AcDbLine
 10
284.8154939098
 20
218.8566036365
 30
0.0
 11
284.8154939098
 21
221.6566595681
 31
0.0
  0
LINE
  5
4B7
330
225
100
AcDbEntity
 67
     1
  8
7_ALL_FEATURES
  6
Continuous
 62
     3
100
AcDbLine
 10
284.8154939098
 20
221.6566595681
 30
0.0
 11
284.8154939098
 21
223.6566409689
 31
0.0
  0
LINE
  5
4B8
330
225
100
AcDbEntity
 67
     1
  8
7_ALL_FEATURES
  6
Continuous
 62
     3
100
AcDbLine
 10
370.8154939098
 20
223.6561893601
 30
0.0
 11
370.8154939098
 21
221.6566595681
 31
0.0
  0
LINE
  5
4B9
330
225
100
AcDbEntity
 67
     1
  8
7_ALL_FEATURES
  6
Continuous
 62
     3
100
AcDbLine
 10
370.8154939098
 20
221.6566595681
 30
0.0
 11
370.8154939098
 21
218.8566036365
 31
0.0
  0
LINE
  5
4BA
330
225
100
AcDbEntity
 67
     1
  8
7_ALL_FEATURES
  6
Continuous
 62
     3
100
AcDbLine
 10
370.8154939098
 20
218.8566036365
 30
0.0
 11
370.8154939098
 21
218.7066595681
 31
0.0
  0
LINE
  5
4BB
330
225
100
AcDbEntity
 67
     1
  8
7_ALL_FEATURES
  6
Continuous
 62
     3
100
AcDbLine
 10
370.8154939098
 20
218.7066595681
 30
0.0
 11
370.8154939098
 21
217.9854105028
 31
0.0
  0
LINE
  5
4BC
330
225
100
AcDbEntity
 67
     1
  8
7_ALL_FEATURES
  6
Continuous
 62
     3
100
AcDbLine
 10
368.8154939098
 20
137.6566595681
 30
0.0
 11
286.8154939098
 21
137.6566595681
 31
0.0
  0
ARC
  5
4BD
330
225
100
AcDbEntity
 67
     1
  8
7_ALL_FEATURES
  6
Continuous
 62
     3
100
AcDbCircle
 10
286.8154939098
 20
139.6566595681
 30
0.0
 40
2.0
100
AcDbArc
 50
180.0
 51
270.0
  0
ARC
  5
4BE
330
225
100
AcDbEntity
 67
     1
  8
7_ALL_FEATURES
  6
Continuous
 62
     3
100
AcDbCircle
 10
368.8154939098
 20
139.6566595681
 30
0.0
 40
2.0
100
AcDbArc
 50
270.0
 51
360.0
  0
LINE
  5
4BF
330
225
100
AcDbEntity
 67
     1
  8
7_ALL_FEATURES
  6
Continuous
 62
     3
100
AcDbLine
 10
370.8154939098
 20
217.9854105028
 30
0.0
 11
370.8154939098
 21
215.6566595681
 31
0.0
  0
LINE
  5
4C0
330
225
100
AcDbEntity
 67
     1
  8
7_ALL_FEATURES
  6
Continuous
 62
     3
100
AcDbLine
 10
370.8154939098
 20
215.6566595681
 30
0.0
 11
370.8154939098
 21
209.6566595681
 31
0.0
  0
LINE
  5
4C1
330
225
100
AcDbEntity
 67
     1
  8
7_ALL_FEATURES
  6
Continuous
 62
     3
100
AcDbLine
 10
370.8154939098
 20
209.6566595681
 30
0.0
 11
370.8154939098
 21
192.7620537551
 31
0.0
  0
LINE
  5
4C2
330
225
100
AcDbEntity
 67
     1
  8
7_ALL_FEATURES
  6
Continuous
 62
     3
100
AcDbLine
 10
370.8154939098
 20
192.7620537551
 30
0.0
 11
370.8154939098
 21
189.1695850108
 31
0.0
  0
LINE
  5
4C3
330
225
100
AcDbEntity
 67
     1
  8
7_ALL_FEATURES
  6
Continuous
 62
     3
100
AcDbLine
 10
370.8154939098
 20
189.1695850108
 30
0.0
 11
370.8154939098
 21
189.0839424501
 31
0.0
  0
LINE
  5
4C4
330
225
100
AcDbEntity
 67
     1
  8
7_ALL_FEATURES
  6
Continuous
 62
     3
100
AcDbLine
 10
370.8154939098
 20
189.0839424501
 30
0.0
 11
370.8154939098
 21
189.0668344779
 31
0.0
  0
LINE
  5
4C5
330
225
100
AcDbEntity
 67
     1
  8
7_ALL_FEATURES
  6
Continuous
 62
     3
100
AcDbLine
 10
370.8154939098
 20
189.0668344779
 30
0.0
 11
370.8154939098
 21
171.9224376732
 31
0.0
  0
LINE
  5
4C6
330
225
100
AcDbEntity
 67
     1
  8
7_ALL_FEATURES
  6
Continuous
 62
     3
100
AcDbLine
 10
370.8154939098
 20
171.9224376732
 30
0.0
 11
370.8154939098
 21
166.252877083
 31
0.0
  0
LINE
  5
4C7
330
225
100
AcDbEntity
 67
     1
  8
7_ALL_FEATURES
  6
Continuous
 62
     3
100
AcDbLine
 10
370.8154939098
 20
166.252877083
 30
0.0
 11
370.8154939098
 21
166.1672067428
 31
0.0
  0
LINE
  5
4C8
330
225
100
AcDbEntity
 67
     1
  8
7_ALL_FEATURES
  6
Continuous
 62
     3
100
AcDbLine
 10
370.8154939098
 20
166.1672067428
 30
0.0
 11
370.8154939098
 21
142.0611070705
 31
0.0
  0
LINE
  5
4C9
330
225
100
AcDbEntity
 67
     1
  8
7_ALL_FEATURES
  6
Continuous
 62
     3
100
AcDbLine
 10
370.8154939098
 20
142.0611070705
 30
0.0
 11
370.8154939098
 21
140.6566595681
 31
0.0
  0
LINE
  5
4CA
330
225
100
AcDbEntity
 67
     1
  8
7_ALL_FEATURES
  6
Continuous
 62
     3
100
AcDbLine
 10
370.8154939098
 20
140.6566595681
 30
0.0
 11
370.8154939098
 21
139.6566595681
 31
0.0
  0
DIMENSION
  5
4CB
330
225
100
AcDbEntity
 67
     1
  8
0
  6
Continuous
 62
     2
100
AcDbDimension
280
     0
  2
*D1
 10
396.3038405351
 20
257.6566595681
 30
0.0
 11
396.3038405351
 21
196.7688173889
 31
0.0
 70
   160
 71
     2
 42
122.0
 73
     0
 74
     0
 75
     0
  3
DIMSTYLE_1
100
AcDbAlignedDimension
 13
378.1976928627
 23
135.6566595681
 33
0.0
 14
369.0971693025
 24
257.6566595681
 34
0.0
 50
90.0
100
AcDbRotatedDimension
  0
DIMENSION
  5
4CC
330
225
100
AcDbEntity
 67
     1
  8
0
  6
Continuous
 62
     2
100
AcDbDimension
280
     0
  2
*D2
 10
372.8154939098
 20
117.1089797462
 30
0.0
 11
327.8074493408
 21
117.1089797462
 31
0.0
 70
   160
 71
     2
 42
90.0
 73
     0
 74
     0
 75
     0
  3
DIMSTYLE_2
100
AcDbAlignedDimension
 13
282.8154939098
 23
131.7331824632
 33
0.0
 14
372.8154939098
 24
131.9733667564
 34
0.0
100
AcDbRotatedDimension
  0
DIMENSION
  5
4CD
330
225
100
AcDbEntity
 67
     1
  8
0
  6
Continuous
 62
     2
100
AcDbDimension
280
     0
  2
*D3
 10
155.1581940564
 20
271.4251707178
 30
0.0
 11
94.8963743591
 21
271.4251707178
 31
0.0
 70
   160
 71
     2
 42
120.0
 73
     0
 74
     0
 75
     0
  3
DIMSTYLE_2
100
AcDbAlignedDimension
 13
35.1581940564
 23
260.1730597886
 33
0.0
 14
155.1581940564
 24
262.3029765694
 34
0.0
100
AcDbRotatedDimension
  0
DIMENSION
  5
4CE
330
225
100
AcDbEntity
 67
     1
  8
0
  6
Continuous
 62
     2
100
AcDbDimension
280
     0
  2
*D4
 10
184.1081940564
 20
282.9519981218
 30
0.0
 11
109.7693385315
 21
282.9519981218
 31
0.0
 70
   160
 71
     2
 42
148.95
 73
     0
 74
     0
 75
     0
  3
DIMSTYLE_1
100
AcDbAlignedDimension
 13
35.1581940564
 23
262.3029765694
 33
0.0
 14
184.1081940564
 24
262.3029765694
 34
0.0
100
AcDbRotatedDimension
  0
DIMENSION
  5
4CF
330
225
100
AcDbEntity
 67
     1
  8
0
  6
Continuous
 62
     2
100
AcDbDimension
280
     0
  2
*D5
 10
18.2614036152
 20
173.6566595681
 30
0.0
 11
18.2614036152
 21
215.6566595681
 31
0.0
 70
   160
  1
%%c<>
 71
     2
 42
84.0
 73
     0
 74
     0
 75
     0
  3
DIMSTYLE_2
100
AcDbAlignedDimension
 13
33.8139272427
 23
257.6566595681
 33
0.0
 14
31.8603715647
 24
173.6566595681
 34
0.0
 50
270.0
100
AcDbRotatedDimension
  0
INSERT
  5
4D0
330
225
100
AcDbEntity
 67
     1
  8
0
  6
Continuous
 62
     2
100
AcDbBlockReference
  2
PROIEZIONE_EU_BL0
 10
296.1824666296
 20
66.5745689654
 30
0.0
  0
INSERT
  5
4D1
330
225
100
AcDbEntity
 67
     1
  8
0
  6
Continuous
 62
     2
100
AcDbBlockReference
  2
LOGO2_BL1
 10
295.0085136744
 20
40.9495689654
 30
0.0
  0
ACAD_TABLE
  5
4D2
330
225
100
AcDbEntity
 67
     1
  8
0
  6
Continuous
 62
     2
160
              6964
310
341B00002F000000880000001D000000000000000000F03F00000000000000000000000000000000E5EB2062EB9271400000000000000000000000000000F03F000000000000000022ECE8BCC5BC524000000000000000000000000000000000000000000000F03F0000000000000000000000000000000000000000000000
310
000000000000000000000000000000F03F54000000200000000200000000000000000000000000000000000000000000000000000000000000004060400000000000000000000000000000000000000000000000000000000000000000000000000000F03F5400000020000000020000000000000000000000000000000000
310
00000000000000000000000000000000000000000000008050C0000000000000000000000000000000000000000000000000000000000000F03F5400000020000000020000000000000000003E4000000000000020C00000000000000000000000000040604000000000000020C00000000000000000000000000000000000
310
00000000000000000000000000F03F540000002000000002000000000000000000000000000000000030C00000000000000000000000000040604000000000000030C0000000000000000000000000000000000000000000000000000000000000F03F5400000020000000020000000000000000003E4000000000000036C0
310
0000000000000000000000000040604000000000000036C0000000000000000000000000000000000000000000000000000000000000F03F5400000020000000020000000000000000003E400000000000003CC0000000000000000000000000004060400000000000003CC000000000000000000000000000000000000000
310
0000000000000000000000F03F5400000020000000020000000000000000003E4000000000000041C00000000000000000000000000040604000000000000041C0000000000000000000000000000000000000000000000000000000000000F03F5400000020000000020000000000000000003E4000000000000044C00000
310
000000000000000000000040604000000000000044C0000000000000000000000000000000000000000000000000000000000000F03F5400000020000000020000000000000000003E4000000000000047C00000000000000000000000000040604000000000000047C0000000000000000000000000000000000000000000
310
000000000000000000F03F54000000200000000200000000000000000000000000000000004AC0000000000000000000000000004060400000000000004AC0000000000000000000000000000000000000000000000000000000000000F03F54000000200000000200000000000000000000000000000000004DC000000000
310
0000000000000000004060400000000000004DC0000000000000000000000000000000000000000000000000000000000000F03F54000000200000000200000000000000000000000000000000004FC0000000000000000000000000004060400000000000004FC00000000000000000000000000000000000000000000000
310
00000000000000F03F540000002000000002000000000000000000000000000000008050C00000000000000000000000000040604000000000008050C0000000000000000000000000000000000000000000000000000000000000F03F5400000020000000020000000000000000003E400000000000000000000000000000
310
00000000000000003E400000000000004DC0000000000000000000000000000000000000000000000000000000000000F03F540000002000000002000000000000000000494000000000000030C00000000000000000000000000000494000000000000036C000000000000000000000000000000000000000000000000000
310
0000000000F03F540000002000000002000000000000000000544000000000000047C0000000000000000000000000000054400000000000004DC0000000000000000000000000000000000000000000000000000000000000F03F540000002000000002000000000000000080564000000000000030C00000000000000000
310
000000000080564000000000000036C0000000000000000000000000000000000000000000000000000000000000F03F54000000200000000200000000000000008056400000000000003CC00000000000000000000000000080564000000000000041C0000000000000000000000000000000000000000000000000000000
310
000000F03F5400000020000000020000000000000000805B4000000000000030C000000000000000000000000000805B4000000000000036C0000000000000000000000000000000000000000000000000000000000000F03F5400000020000000020000000000000000005E400000000000003CC000000000000000000000
310
000000005E4000000000000041C0000000000000000000000000000000000000000000000000000000000000F03F540000002000000002000000000000000040604000000000000000000000000000000000000000000040604000000000008050C00000000000000000000000000000000000000000000000000000000000
310
00F03F0C00000010000000230000001C01000026000000CDCCCCCCCC7C3F403333333333330CC0000000000000000000000000000000000000000000000000000000000000F03F000000000000F03F0000000000000000000000000000000045004E003A0020004300680061006D006600650072002F007200610064006900
310
6900200075006E006C0069007300740065006400200030002E003300780034003500B0002E002000520065006D006F00760065002000730068006100720070002000650064006700650073002E0000003700000001000000666666666666FE3F333333333333EB3F0000000000000000000000000000F03F00000000000000
310
0000000000000000000000000000000000000000000000000000000000000000007400780074000000000000004001000026000000CDCCCCCCCC7C3F4000000000008019C0000000000000000000000000000000000000000000000000000000000000F03F000000000000F03F000000000000000000000000000000004700
310
65006E002E00200074006F006C002E003A00200068006F006C00650020004800310031002C0020007300680061006600740020006800310031002C0020006C0065006E0067006800740020004A007300310032002E00200055004E004900200045004E0020003200320037003600380020004D0065006400690075006D0020
310
004700720061006E00640065002E00000000004800000001000000666666666666FE3F333333333333EB3F0000000000000000000000000000F03F000000000000000000000000000000000000000000000000000000000000000000000000000000007400780074000000000000002C01000026000000CDCCCCCCCC7C3F40
310
CDCCCCCCCC0C27C0000000000000000000000000000000000000000000000000000000000000F03F000000000000F03F00000000000000000000000000000000490054003A00200053006D002E002F007200610063002E0020006E006F006E002000710075006F007400610074006900200030002E003300780034003500B0
310
002E00200045006C0069006D0069006E00610072006500200073007000690067006F006C00690020007400610067006C00690065006E00740069002E00000000003E00000001000000666666666666FE3F333333333333EB3F0000000000000000000000000000F03F00000000000000000000000000000000000000000000
310
0000000000000000000000000000000000007400780074000000000000004401000026000000CDCCCCCCCC7C3F400000000000C02CC0000000000000000000000000000000000000000000000000000000000000F03F000000000000F03F0000000000000000000000000000000054006F006C006C002E002000670065006E
310
002E003A00200066006F0072006F0020004800310031002C00200061006C006200650072006F0020006800310031002C0020006C0075006E006700680065007A007A00610020004A007300310032002E00200055004E004900200045004E00200032003200370036003800200047007200610064006F0020004D0065006400
310
69006F002E0000004B00000001000000666666666666FE3F333333333333EB3F0000000000000000000000000000F03F00000000000000000000000000000000000000000000000000000000000000000000000000000000740078007400000000000000BC00000026000000CDCCCCCCCC7C3F400000000000C034C0000000
310
000000000000000000000000000000000000000000000000000000F03F000000000000F03F0000000000000000000000000000000050006A003A002000340032003300000007000000010000000000000000000840333333333333EB3F0000000000000000000000000000F03F000000000000000000000000000000000000
310
00000000000000000000000000000000000000000000740078007400000000000000C4000000260000006666666666BE49400000000000C034C0000000000000000000000000000000000000000000000000000000000000F03F000000000000F03F000000000000000000000000000000002500200043006800650063006B
310
003A0020002500000000000A000000010000000000000000000840333333333333EB3F0000000000000000000000000000F03F00000000000000000000000000000000000000000000000000000000000000000000000000000000740078007400000000000000BC000000260000003333333333DF56400000000000C034C0
310
000000000000000000000000000000000000000000000000000000000000F03F000000000000F03F000000000000000000000000000000005200650076003A00300030000000000006000000010000000000000000000840333333333333EB3F0000000000000000000000000000F03F000000000000000000000000000000
310
00000000000000000000000000000000000000000000000000740078007400000000000000BC000000260000003333333333DF5B4000000000008034C0000000000000000000000000000000000000000000000000000000000000F03F000000000000F03F000000000000000000000000000000005600650072003A002000
310
41000000000006000000010000000000000000000840333333333333EB3F0000000000000000000000000000F03F00000000000000000000000000000000000000000000000000000000000000000000000000000000740078007400000000000000DC00000026000000CDCCCCCCCC7C3F400000000000C03AC00000000000
310
00000000000000000000000000000000000000000000000000F03F000000000000F03F000000000000000000000000000000004E00650075007400720061006C00200063006F00640065003A0020003400320033005F0043005F00340030003100000017000000010000000000000000000840333333333333EB3F00000000
310
00000000000000000000F03F00000000000000000000000000000000000000000000000000000000000000000000000000000000740078007400000000000000BC00000026000000CDCCCCCCCC7C3F4000000000006040C0000000000000000000000000000000000000000000000000000000000000F03F000000000000F0
310
3F0000000000000000000000000000000043006F00640065003A0020000000000006000000010000000000000000000840333333333333EB3F0000000000000000000000000000F03F00000000000000000000000000000000000000000000000000000000000000000000000000000000740078007400000000000000C400
310
0000260000003333333333DF564000000000004040C0000000000000000000000000000000000000000000000000000000000000F03F000000000000F03F000000000000000000000000000000005300630061006C0065003A00200031003A003100000000000A000000010000000000000000000840333333333333EB3F00
310
00000000000000000000000000F03F00000000000000000000000000000000000000000000000000000000000000000000000000000000740078007400000000000000B4000000260000000000000000B85E4000000000004040C0000000000000000000000000000000000000000000000000000000000000F03F00000000
310
0000F03F00000000000000000000000000000000410033000000000002000000010000000000000000000840333333333333EB3F0000000000000000000000000000F03F00000000000000000000000000000000000000000000000000000000000000000000000000000000740078007400000000000000D4000000260000
310
00CDCCCCCCCC7C3F4000000000004043C0000000000000000000000000000000000000000000000000000000000000F03F000000000000F03F00000000000000000000000000000000490074002000640065007300630072002E003A002000530050004F005400200033002E00340000001300000001000000000000000000
310
0840333333333333EB3F0000000000000000000000000000F03F00000000000000000000000000000000000000000000000000000000000000000000000000000000740078007400000000000000C400000026000000CDCCCCCCCC7C3F4000000000004046C000000000000000000000000000000000000000000000000000
310
0000000000F03F000000000000F03F0000000000000000000000000000000045006E002000640065007300630072002E003A00200000000B000000010000000000000000000840333333333333EB3F0000000000000000000000000000F03F0000000000000000000000000000000000000000000000000000000000000000
310
0000000000000000740078007400000000000000C400000026000000CDCCCCCCCC7C3F4000000000004049C0000000000000000000000000000000000000000000000000000000000000F03F000000000000F03F000000000000000000000000000000004400650073002E003A00200041002E0047002E00000000000A0000
310
00010000000000000000000840333333333333EB3F0000000000000000000000000000F03F00000000000000000000000000000000000000000000000000000000000000000000000000000000740078007400000000000000C40000002600000033333333335F544000000000004049C00000000000000000000000000000
310
00000000000000000000000000000000F03F000000000000F03F0000000000000000000000000000000043006800650063006B003A00200041002E0050002E0000000B000000010000000000000000000840333333333333EB3F0000000000000000000000000000F03F000000000000000000000000000000000000000000
310
00000000000000000000000000000000000000740078007400000000000000CC00000026000000CDCCCCCCCCCCF73F0000000000404CC0000000000000000000000000000000000000000000000000000000000000F03F000000000000F03F0000000000000000000000000000000044006100740065003A00200031003200
310
2E00300034002E0031003900000000000E000000010000000000000000000840333333333333EB3F0000000000000000000000000000F03F00000000000000000000000000000000000000000000000000000000000000000000000000000000740078007400000000000000BC00000026000000CDCCCCCCCC7C3F40000000
310
0000404CC0000000000000000000000000000000000000000000000000000000000000F03F000000000000F03F000000000000000000000000000000004D00610074002E003A0020000000000006000000010000000000000000000840333333333333EB3F0000000000000000000000000000F03F00000000000000000000
310
000000000000000000000000000000000000000000000000000000000000740078007400000000000000D80000002600000033333333335F54400000000000004CC0000000000000000000000000000000000000000000000000000000000000F03F000000000000F03F000000000000000000000000000000004400690073
310
00650067006E006F002000700065007200200063006100740061006C006F0067006F000000000014000000010000000000000000000040333333333333EB3F0000000000000000000000000000F03F000000000000000000000000000000000000000000000000000000000000000000000000000000007400780074000000
310
000000007001000026000000CDCCCCCCCCCCF73F3333333333734EC0000000000000000000000000000000000000000000000000000000000000F03F000000000000F03F00000000000000000000000000000000490074003A002000410020006E006F0072006D00610020006400690020006C006500670067006500200073
310
0069002000640069006600660069006400610020006400610020007100750061006C0073006900610073006900200072006900700072006F00640075007A0069006F006E0065002000730065006E007A00610020006E006F00730074007200610020006100750074006F00720069007A007A0061007A0069006F006E006500
310
20006500730070006C00690063006900740061002E00000000006000000001000000CDCCCCCCCCCCFC3F333333333333EB3F0000000000000000000000000000F03F000000000000000000000000000000000000000000000000000000000000000000000000000000007400780074000000000000005801000026000000CD
310
CCCCCCCCCCF73F9A999999993950C0000000000000000000000000000000000000000000000000000000000000F03F000000000000F03F0000000000000000000000000000000045006E003A0020004100630063006F007200640069006E006700200074006F00200074006800650020006C00610077002C00200062006500
310
770061007200650020006F006600200061006E007900200072006500700072006F00640075006300740069006F006E0020006D00610064006500200077006900740068006F007500740020006F0075007200200061007500740068006F00720069007A006100740069006F006E002E00000000005400000001000000CDCCCC
310
CCCCCCFC3F333333333333EB3F0000000000000000000000000000F03F00000000000000000000000000000000000000000000000000000000000000000000000000000000740078007400000000000000080000001F000000880000001D000000000000000000F03F00000000000000000000000000000000000000000000
310
00000000000000000000000000000000F03F0000000000000000000000000000000000000000000000000000000000000000000000000000F03F0000000000000000000000000000000000000000000000000000000000000000000000000000F03F080000001F000000
100
AcDbBlockReference
  2
*T8
 10
281.1824666296
 20
74.9495689654
 30
0.0
100
AcDbTable
342
4D6
343
22E
 11
1.0
 21
0.0
 31
0.0
 90
       54
 91
       13
 92
       13
 93
        0
 94
        0
 95
        0
 96
        0
141
4.0
141
4.0
141
4.0
141
4.0
141
6.0
141
6.0
141
6.0
141
6.0
141
6.0
141
6.0
141
6.0
141
4.0
141
4.0
142
10.0
142
10.0
142
10.0
142
10.0
142
10.0
142
10.0
142
10.0
142
10.0
142
10.0
142
10.0
142
10.0
142
10.0
142
10.0
171
     1
172
     0
173
     0
174
     0
175
     3
176
     4
 91
       49
178
     0
145
0.0
170
     5
  7
TEXTSTYLE_3
140
0.5
 92
        0
301
CELL_VALUE
 93
        4
 90
        4
  1
 \P \P \P \P 
 94
        0
300

302
 \P \P \P \P 
304
ACVALUE_END
171
     1
172
     0
173
     1
174
     0
175
     1
176
     1
 91
        0
178
     0
145
0.0
 92
        0
301
CELL_VALUE
 93
        3
 90
        0
 91
        0
 94
        0
300

302

304
ACVALUE_END
171
     1
172
     0
173
     1
174
     0
175
     1
176
     1
 91
        0
178
     0
145
0.0
 92
        0
301
CELL_VALUE
 93
        3
 90
        0
 91
        0
 94
        0
300

302

304
ACVALUE_END
171
     1
172
     0
173
     0
174
     0
175
    10
176
     2
 91
       49
178
     0
145
0.0
170
     4
  7
TEXTSTYLE_4
140
1.9
 92
        0
301
CELL_VALUE
 93
        4
 90
        4
  1
EN: Chamfer/radii unlisted 0.3x45°. Remove sharp edges.\PGen. tol.: hole H11, shaft h11, lenght Js12. UNI EN 22768 Medium Grande.
 94
        0
300

302
EN: Chamfer/radii unlisted 0.3x45°. Remove sharp edges.\PGen. tol.: hole H11, shaft h11, lenght Js12. UNI EN 22768 Medium Grande.
304
ACVALUE_END
171
     1
172
     0
173
     1
174
     0
175
     1
176
     1
 91
        0
178
     0
145
0.0
 92
        0
301
CELL_VALUE
 93
        3
 90
        0
 91
        0
 94
        0
300

302

304
ACVALUE_END
171
     1
172
     0
173
     1
174
     0
175
     1
176
     1
 91
        0
178
     0
145
0.0
 92
        0
301
CELL_VALUE
 93
        3
 90
        0
 91
        0
 94
        0
300

302

304
ACVALUE_END
171
     1
172
     0
173
     1
174
     0
175
     1
176
     1
 91
        0
178
     0
145
0.0
 92
        0
301
CELL_VALUE
 93
        3
 90
        0
 91
        0
 94
        0
300

302

304
ACVALUE_END
171
     1
172
     0
173
     1
174
     0
175
     1
176
     1
 91
        0
178
     0
145
0.0
 92
        0
301
CELL_VALUE
 93
        3
 90
        0
 91
        0
 94
        0
300

302

304
ACVALUE_END
171
     1
172
     0
173
     1
174
     0
175
     1
176
     1
 91
        0
178
     0
145
0.0
 92
        0
301
CELL_VALUE
 93
        3
 90
        0
 91
        0
 94
        0
300

302

304
ACVALUE_END
171
     1
172
     0
173
     1
174
     0
175
     1
176
     1
 91
        0
178
     0
145
0.0
 92
        0
301
CELL_VALUE
 93
        3
 90
        0
 91
        0
 94
        0
300

302

304
ACVALUE_END
171
     1
172
     0
173
     1
174
     0
175
     1
176
     1
 91
        0
178
     0
145
0.0
 92
        0
301
CELL_VALUE
 93
        3
 90
        0
 91
        0
 94
        0
300

302

304
ACVALUE_END
171
     1
172
     0
173
     1
174
     0
175
     1
176
     1
 91
        0
178
     0
145
0.0
 92
        0
301
CELL_VALUE
 93
        3
 90
        0
 91
        0
 94
        0
300

302

304
ACVALUE_END
171
     1
172
     0
173
     1
174
     0
175
     1
176
     1
 91
        0
178
     0
145
0.0
 92
        0
301
CELL_VALUE
 93
        3
 90
        0
 91
        0
 94
        0
300

302

304
ACVALUE_END
171
     1
172
     0
173
     1
174
     0
175
     1
176
     1
 91
        0
178
     0
145
0.0
 92
        0
301
CELL_VALUE
 93
        3
 90
        0
 91
        0
 94
        0
300

302

304
ACVALUE_END
171
     1
172
     0
173
     1
174
     0
175
     1
176
     1
 91
        0
178
     0
145
0.0
 92
        0
301
CELL_VALUE
 93
        3
 90
        0
 91
        0
 94
        0
300

302

304
ACVALUE_END
171
     1
172
     0
173
     1
174
     0
175
     1
176
     1
 91
        0
178
     0
145
0.0
 92
        0
301
CELL_VALUE
 93
        3
 90
        0
 91
        0
 94
        0
300

302

304
ACVALUE_END
171
     1
172
     0
173
     1
174
     0
175
     1
176
     1
 91
        0
178
     0
145
0.0
 92
        0
301
CELL_VALUE
 93
        3
 90
        0
 91
        0
 94
        0
300

302

304
ACVALUE_END
171
     1
172
     0
173
     1
174
     0
175
     1
176
     1
 91
        0
178
     0
145
0.0
 92
        0
301
CELL_VALUE
 93
        3
 90
        0
 91
        0
 94
        0
300

302

304
ACVALUE_END
171
     1
172
     0
173
     1
174
     0
175
     1
176
     1
 91
        0
178
     0
145
0.0
 92
        0
301
CELL_VALUE
 93
        3
 90
        0
 91
        0
 94
        0
300

302

304
ACVALUE_END
171
     1
172
     0
173
     1
174
     0
175
     1
176
     1
 91
        0
178
     0
145
0.0
 92
        0
301
CELL_VALUE
 93
        3
 90
        0
 91
        0
 94
        0
300

302

304
ACVALUE_END
171
     1
172
     0
173
     1
174
     0
175
     1
176
     1
 91
        0
178
     0
145
0.0
 92
        0
301
CELL_VALUE
 93
        3
 90
        0
 91
        0
 94
        0
300

302

304
ACVALUE_END
171
     1
172
     0
173
     1
174
     0
175
     1
176
     1
 91
        0
178
     0
145
0.0
 92
        0
301
CELL_VALUE
 93
        3
 90
        0
 91
        0
 94
        0
300

302

304
ACVALUE_END
171
     1
172
     0
173
     1
174
     0
175
     1
176
     1
 91
        0
178
     0
145
0.0
 92
        0
301
CELL_VALUE
 93
        3
 90
        0
 91
        0
 94
        0
300

302

304
ACVALUE_END
171
     1
172
     0
173
     1
174
     0
175
     1
176
     1
 91
        0
178
     0
145
0.0
 92
        0
301
CELL_VALUE
 93
        3
 90
        0
 91
        0
 94
        0
300

302

304
ACVALUE_END
171
     1
172
     0
173
     1
174
     0
175
     1
176
     1
 91
        0
178
     0
145
0.0
 92
        0
301
CELL_VALUE
 93
        3
 90
        0
 91
        0
 94
        0
300

302

304
ACVALUE_END
171
     1
172
     0
173
     1
174
     0
175
     1
176
     1
 91
        0
178
     0
145
0.0
 92
        0
301
CELL_VALUE
 93
        3
 90
        0
 91
        0
 94
        0
300

302

304
ACVALUE_END
171
     1
172
     0
173
     1
174
     0
175
     1
176
     1
 91
        0
178
     0
145
0.0
 92
        0
301
CELL_VALUE
 93
        3
 90
        0
 91
        0
 94
        0
300

302

304
ACVALUE_END
171
     1
172
     0
173
     1
174
     0
175
     1
176
     1
 91
        0
178
     0
145
0.0
 92
        0
301
CELL_VALUE
 93
        3
 90
        0
 91
        0
 94
        0
300

302

304
ACVALUE_END
171
     1
172
     0
173
     1
174
     0
175
     1
176
     1
 91
        0
178
     0
145
0.0
 92
        0
301
CELL_VALUE
 93
        3
 90
        0
 91
        0
 94
        0
300

302

304
ACVALUE_END
171
     1
172
     0
173
     0
174
     0
175
    10
176
     2
 91
       49
178
     0
145
0.0
170
     4
  7
TEXTSTYLE_4
140
1.9
 92
        0
301
CELL_VALUE
 93
        4
 90
        4
  1
IT: Sm./rac. non quotati 0.3x45°. Eliminare spigoli taglienti.\PToll. gen.: foro H11, albero h11, lunghezza Js12. UNI EN 22768 Grado Medio.
 94
        0
300

302
IT: Sm./rac. non quotati 0.3x45°. Eliminare spigoli taglienti.\PToll. gen.: foro H11, albero h11, lunghezza Js12. UNI EN 22768 Grado Medio.
304
ACVALUE_END
171
     1
172
     0
173
     1
174
     0
175
     1
176
     1
 91
        0
178
     0
145
0.0
 92
        0
301
CELL_VALUE
 93
        3
 90
        0
 91
        0
 94
        0
300

302

304
ACVALUE_END
171
     1
172
     0
173
     1
174
     0
175
     1
176
     1
 91
        0
178
     0
145
0.0
 92
        0
301
CELL_VALUE
 93
        3
 90
        0
 91
        0
 94
        0
300

302

304
ACVALUE_END
171
     1
172
     0
173
     1
174
     0
175
     1
176
     1
 91
        0
178
     0
145
0.0
 92
        0
301
CELL_VALUE
 93
        3
 90
        0
 91
        0
 94
        0
300

302

304
ACVALUE_END
171
     1
172
     0
173
     1
174
     0
175
     1
176
     1
 91
        0
178
     0
145
0.0
 92
        0
301
CELL_VALUE
 93
        3
 90
        0
 91
        0
 94
        0
300

302

304
ACVALUE_END
171
     1
172
     0
173
     1
174
     0
175
     1
176
     1
 91
        0
178
     0
145
0.0
 92
        0
301
CELL_VALUE
 93
        3
 90
        0
 91
        0
 94
        0
300

302

304
ACVALUE_END
171
     1
172
     0
173
     1
174
     0
175
     1
176
     1
 91
        0
178
     0
145
0.0
 92
        0
301
CELL_VALUE
 93
        3
 90
        0
 91
        0
 94
        0
300

302

304
ACVALUE_END
171
     1
172
     0
173
     1
174
     0
175
     1
176
     1
 91
        0
178
     0
145
0.0
 92
        0
301
CELL_VALUE
 93
        3
 90
        0
 91
        0
 94
        0
300

302

304
ACVALUE_END
171
     1
172
     0
173
     1
174
     0
175
     1
176
     1
 91
        0
178
     0
145
0.0
 92
        0
301
CELL_VALUE
 93
        3
 90
        0
 91
        0
 94
        0
300

302

304
ACVALUE_END
171
     1
172
     0
173
     1
174
     0
175
     1
176
     1
 91
        0
178
     0
145
0.0
 92
        0
301
CELL_VALUE
 93
        3
 90
        0
 91
        0
 94
        0
300

302

304
ACVALUE_END
171
     1
172
     0
173
     1
174
     0
175
     1
176
     1
 91
        0
178
     0
145
0.0
 92
        0
301
CELL_VALUE
 93
        3
 90
        0
 91
        0
 94
        0
300

302

304
ACVALUE_END
171
     1
172
     0
173
     1
174
     0
175
     1
176
     1
 91
        0
178
     0
145
0.0
 92
        0
301
CELL_VALUE
 93
        3
 90
        0
 91
        0
 94
        0
300

302

304
ACVALUE_END
171
     1
172
     0
173
     1
174
     0
175
     1
176
     1
 91
        0
178
     0
145
0.0
 92
        0
301
CELL_VALUE
 93
        3
 90
        0
 91
        0
 94
        0
300

302

304
ACVALUE_END
171
     1
172
     0
173
     1
174
     0
175
     1
176
     1
 91
        0
178
     0
145
0.0
 92
        0
301
CELL_VALUE
 93
        3
 90
        0
 91
        0
 94
        0
300

302

304
ACVALUE_END
171
     1
172
     0
173
     1
174
     0
175
     1
176
     1
 91
        0
178
     0
145
0.0
 92
        0
301
CELL_VALUE
 93
        3
 90
        0
 91
        0
 94
        0
300

302

304
ACVALUE_END
171
     1
172
     0
173
     1
174
     0
175
     1
176
     1
 91
        0
178
     0
145
0.0
 92
        0
301
CELL_VALUE
 93
        3
 90
        0
 91
        0
 94
        0
300

302

304
ACVALUE_END
171
     1
172
     0
173
     1
174
     0
175
     1
176
     1
 91
        0
178
     0
145
0.0
 92
        0
301
CELL_VALUE
 93
        3
 90
        0
 91
        0
 94
        0
300

302

304
ACVALUE_END
171
     1
172
     0
173
     1
174
     0
175
     1
176
     1
 91
        0
178
     0
145
0.0
 92
        0
301
CELL_VALUE
 93
        3
 90
        0
 91
        0
 94
        0
300

302

304
ACVALUE_END
171
     1
172
     0
173
     1
174
     0
175
     1
176
     1
 91
        0
178
     0
145
0.0
 92
        0
301
CELL_VALUE
 93
        3
 90
        0
 91
        0
 94
        0
300

302

304
ACVALUE_END
171
     1
172
     0
173
     1
174
     0
175
     1
176
     1
 91
        0
178
     0
145
0.0
 92
        0
301
CELL_VALUE
 93
        3
 90
        0
 91
        0
 94
        0
300

302

304
ACVALUE_END
171
     1
172
     0
173
     1
174
     0
175
     1
176
     1
 91
        0
178
     0
145
0.0
 92
        0
301
CELL_VALUE
 93
        3
 90
        0
 91
        0
 94
        0
300

302

304
ACVALUE_END
171
     1
172
     0
173
     1
174
     0
175
     1
176
     1
 91
        0
178
     0
145
0.0
 92
        0
301
CELL_VALUE
 93
        3
 90
        0
 91
        0
 94
        0
300

302

304
ACVALUE_END
171
     1
172
     0
173
     1
174
     0
175
     1
176
     1
 91
        0
178
     0
145
0.0
 92
        0
301
CELL_VALUE
 93
        3
 90
        0
 91
        0
 94
        0
300

302

304
ACVALUE_END
171
     1
172
     0
173
     0
174
     0
175
     3
176
     6
 91
       33
178
     0
145
0.0
170
     5
140
3.5
 92
        0
301
CELL_VALUE
 93
        4
 90
        4
  1
 
 94
        0
300

302
 
304
ACVALUE_END
171
     1
172
     0
173
     1
174
     0
175
     1
176
     1
 91
        0
178
     0
145
0.0
 92
        0
301
CELL_VALUE
 93
        3
 90
        0
 91
        0
 94
        0
300

302

304
ACVALUE_END
171
     1
172
     0
173
     1
174
     0
175
     1
176
     1
 91
        0
178
     0
145
0.0
 92
        0
301
CELL_VALUE
 93
        3
 90
        0
 91
        0
 94
        0
300

302

304
ACVALUE_END
171
     1
172
     0
173
     0
174
     0
175
     2
176
     1
 91
       48
178
     0
145
0.0
  7
TEXTSTYLE_4
140
3.0
 92
        0
301
CELL_VALUE
 93
        4
 90
        4
  1
Pj: 423
 94
        0
300

302
Pj: 423
304
ACVALUE_END
171
     1
172
     0
173
     1
174
     0
175
     1
176
     1
 91
        0
178
     0
145
0.0
 92
        0
301
CELL_VALUE
 93
        3
 90
        0
 91
        0
 94
        0
300

302

304
ACVALUE_END
171
     1
172
     0
173
     0
174
     0
175
     4
176
     1
 91
       48
178
     0
145
0.0
  7
TEXTSTYLE_4
140
3.0
 92
        0
301
CELL_VALUE
 93
        4
 90
        4
  1
% Check: %
 94
        0
300

302
% Check: %
304
ACVALUE_END
171
     1
172
     0
173
     1
174
     0
175
     1
176
     1
 91
        0
178
     0
145
0.0
 92
        0
301
CELL_VALUE
 93
        3
 90
        0
 91
        0
 94
        0
300

302

304
ACVALUE_END
171
     1
172
     0
173
     1
174
     0
175
     1
176
     1
 91
        0
178
     0
145
0.0
 92
        0
301
CELL_VALUE
 93
        3
 90
        0
 91
        0
 94
        0
300

302

304
ACVALUE_END
171
     1
172
     0
173
     1
174
     0
175
     1
176
     1
 91
        0
178
     0
145
0.0
 92
        0
301
CELL_VALUE
 93
        3
 90
        0
 91
        0
 94
        0
300

302

304
ACVALUE_END
171
     1
172
     0
173
     0
174
     0
175
     2
176
     1
 91
       48
178
     0
145
0.0
  7
TEXTSTYLE_4
140
3.0
 92
        0
301
CELL_VALUE
 93
        4
 90
        4
  1
Rev:00
 94
        0
300

302
Rev:00
304
ACVALUE_END
171
     1
172
     0
173
     1
174
     0
175
     1
176
     1
 91
        0
178
     0
145
0.0
 92
        0
301
CELL_VALUE
 93
        3
 90
        0
 91
        0
 94
        0
300

302

304
ACVALUE_END
171
     1
172
     0
173
     0
174
     0
175
     2
176
     1
 91
       49
178
     0
145
0.0
170
     4
  7
TEXTSTYLE_4
140
3.0
 92
        0
301
CELL_VALUE
 93
        4
 90
        4
  1
Ver: A
 94
        0
300

302
Ver: A
304
ACVALUE_END
171
     1
172
     0
173
     1
174
     0
175
     1
176
     1
 91
        0
178
     0
145
0.0
 92
        0
301
CELL_VALUE
 93
        3
 90
        0
 91
        0
 94
        0
300

302

304
ACVALUE_END
171
     1
172
     0
173
     1
174
     0
175
     1
176
     1
 91
        0
178
     0
145
0.0
 92
        0
301
CELL_VALUE
 93
        3
 90
        0
 91
        0
 94
        0
300

302

304
ACVALUE_END
171
     1
172
     0
173
     1
174
     0
175
     1
176
     1
 91
        0
178
     0
145
0.0
 92
        0
301
CELL_VALUE
 93
        3
 90
        0
 91
        0
 94
        0
300

302

304
ACVALUE_END
171
     1
172
     0
173
     1
174
     0
175
     1
176
     1
 91
        0
178
     0
145
0.0
 92
        0
301
CELL_VALUE
 93
        3
 90
        0
 91
        0
 94
        0
300

302

304
ACVALUE_END
171
     1
172
     0
173
     0
174
     0
175
    10
176
     1
 91
       48
178
     0
145
0.0
  7
TEXTSTYLE_4
140
3.0
 92
        0
301
CELL_VALUE
 93
        4
 90
        4
  1
Neutral code: 423_C_401
 94
        0
300

302
Neutral code: 423_C_401
304
ACVALUE_END
171
     1
172
     0
173
     1
174
     0
175
     1
176
     1
 91
        0
178
     0
145
0.0
 92
        0
301
CELL_VALUE
 93
        3
 90
        0
 91
        0
 94
        0
300

302

304
ACVALUE_END
171
     1
172
     0
173
     1
174
     0
175
     1
176
     1
 91
        0
178
     0
145
0.0
 92
        0
301
CELL_VALUE
 93
        3
 90
        0
 91
        0
 94
        0
300

302

304
ACVALUE_END
171
     1
172
     0
173
     1
174
     0
175
     1
176
     1
 91
        0
178
     0
145
0.0
 92
        0
301
CELL_VALUE
 93
        3
 90
        0
 91
        0
 94
        0
300

302

304
ACVALUE_END
171
     1
172
     0
173
     1
174
     0
175
     1
176
     1
 91
        0
178
     0
145
0.0
 92
        0
301
CELL_VALUE
 93
        3
 90
        0
 91
        0
 94
        0
300

302

304
ACVALUE_END
171
     1
172
     0
173
     1
174
     0
175
     1
176
     1
 91
        0
178
     0
145
0.0
 92
        0
301
CELL_VALUE
 93
        3
 90
        0
 91
        0
 94
        0
300

302

304
ACVALUE_END
171
     1
172
     0
173
     1
174
     0
175
     1
176
     1
 91
        0
178
     0
145
0.0
 92
        0
301
CELL_VALUE
 93
        3
 90
        0
 91
        0
 94
        0
300

302

304
ACVALUE_END
171
     1
172
     0
173
     1
174
     0
175
     1
176
     1
 91
        0
178
     0
145
0.0
 92
        0
301
CELL_VALUE
 93
        3
 90
        0
 91
        0
 94
        0
300

302

304
ACVALUE_END
171
     1
172
     0
173
     1
174
     0
175
     1
176
     1
 91
        0
178
     0
145
0.0
 92
        0
301
CELL_VALUE
 93
        3
 90
        0
 91
        0
 94
        0
300

302

304
ACVALUE_END
171
     1
172
     0
173
     1
174
     0
175
     1
176
     1
 91
        0
178
     0
145
0.0
 92
        0
301
CELL_VALUE
 93
        3
 90
        0
 91
        0
 94
        0
300

302

304
ACVALUE_END
171
     1
172
     0
173
     1
174
     0
175
     1
176
     1
 91
        0
178
     0
145
0.0
 92
        0
301
CELL_VALUE
 93
        3
 90
        0
 91
        0
 94
        0
300

302

304
ACVALUE_END
171
     1
172
     0
173
     1
174
     0
175
     1
176
     1
 91
        0
178
     0
145
0.0
 92
        0
301
CELL_VALUE
 93
        3
 90
        0
 91
        0
 94
        0
300

302

304
ACVALUE_END
171
     1
172
     0
173
     1
174
     0
175
     1
176
     1
 91
        0
178
     0
145
0.0
 92
        0
301
CELL_VALUE
 93
        3
 90
        0
 91
        0
 94
        0
300

302

304
ACVALUE_END
171
     1
172
     0
173
     0
174
     0
175
     6
176
     1
 91
       48
178
     0
145
0.0
  7
TEXTSTYLE_4
140
3.0
 92
        0
301
CELL_VALUE
 93
        4
 90
        4
  1
Code: 
 94
        0
300

302
Code: 
304
ACVALUE_END
171
     1
172
     0
173
     1
174
     0
175
     1
176
     1
 91
        0
178
     0
145
0.0
 92
        0
301
CELL_VALUE
 93
        3
 90
        0
 91
        0
 94
        0
300

302

304
ACVALUE_END
171
     1
172
     0
173
     1
174
     0
175
     1
176
     1
 91
        0
178
     0
145
0.0
 92
        0
301
CELL_VALUE
 93
        3
 90
        0
 91
        0
 94
        0
300

302

304
ACVALUE_END
171
     1
172
     0
173
     1
174
     0
175
     1
176
     1
 91
        0
178
     0
145
0.0
 92
        0
301
CELL_VALUE
 93
        3
 90
        0
 91
        0
 94
        0
300

302

304
ACVALUE_END
171
     1
172
     0
173
     1
174
     0
175
     1
176
     1
 91
        0
178
     0
145
0.0
 92
        0
301
CELL_VALUE
 93
        3
 90
        0
 91
        0
 94
        0
300

302

304
ACVALUE_END
171
     1
172
     0
173
     1
174
     0
175
     1
176
     1
 91
        0
178
     0
145
0.0
 92
        0
301
CELL_VALUE
 93
        3
 90
        0
 91
        0
 94
        0
300

302

304
ACVALUE_END
171
     1
172
     0
173
     0
174
     0
175
     3
176
     1
 91
       49
178
     0
145
0.0
170
     4
  7
TEXTSTYLE_4
140
3.0
 92
        0
301
CELL_VALUE
 93
        4
 90
        4
  1
Scale: 1:1
 94
        0
300

302
Scale: 1:1
304
ACVALUE_END
171
     1
172
     0
173
     1
174
     0
175
     1
176
     1
 91
        0
178
     0
145
0.0
 92
        0
301
CELL_VALUE
 93
        3
 90
        0
 91
        0
 94
        0
300

302

304
ACVALUE_END
171
     1
172
     0
173
     1
174
     0
175
     1
176
     1
 91
        0
178
     0
145
0.0
 92
        0
301
CELL_VALUE
 93
        3
 90
        0
 91
        0
 94
        0
300

302

304
ACVALUE_END
171
     1
172
     0
173
     0
174
     0
175
     1
176
     1
 91
       49
178
     0
145
0.0
170
     5
  7
TEXTSTYLE_4
140
3.0
 92
        0
301
CELL_VALUE
 93
        4
 90
        4
  1
A3
 94
        0
300

302
A3
304
ACVALUE_END
171
     1
172
     0
173
     1
174
     0
175
     1
176
     1
 91
        0
178
     0
145
0.0
 92
        0
301
CELL_VALUE
 93
        3
 90
        0
 91
        0
 94
        0
300

302

304
ACVALUE_END
171
     1
172
     0
173
     1
174
     0
175
     1
176
     1
 91
        0
178
     0
145
0.0
 92
        0
301
CELL_VALUE
 93
        3
 90
        0
 91
        0
 94
        0
300

302

304
ACVALUE_END
171
     1
172
     0
173
     1
174
     0
175
     1
176
     1
 91
        0
178
     0
145
0.0
 92
        0
301
CELL_VALUE
 93
        3
 90
        0
 91
        0
 94
        0
300

302

304
ACVALUE_END
171
     1
172
     0
173
     0
174
     0
175
    10
176
     1
 91
       49
178
     0
145
0.0
170
     4
  7
TEXTSTYLE_4
140
3.0
 92
        0
301
CELL_VALUE
 93
        4
 90
        4
  1
It descr.: SPOT 3.4
 94
        0
300

302
It descr.: SPOT 3.4
304
ACVALUE_END
171
     1
172
     0
173
     1
174
     0
175
     1
176
     1
 91
        0
178
     0
145
0.0
 92
        0
301
CELL_VALUE
 93
        3
 90
        0
 91
        0
 94
        0
300

302

304
ACVALUE_END
171
     1
172
     0
173
     1
174
     0
175
     1
176
     1
 91
        0
178
     0
145
0.0
 92
        0
301
CELL_VALUE
 93
        3
 90
        0
 91
        0
 94
        0
300

302

304
ACVALUE_END
171
     1
172
     0
173
     1
174
     0
175
     1
176
     1
 91
        0
178
     0
145
0.0
 92
        0
301
CELL_VALUE
 93
        3
 90
        0
 91
        0
 94
        0
300

302

304
ACVALUE_END
171
     1
172
     0
173
     1
174
     0
175
     1
176
     1
 91
        0
178
     0
145
0.0
 92
        0
301
CELL_VALUE
 93
        3
 90
        0
 91
        0
 94
        0
300

302

304
ACVALUE_END
171
     1
172
     0
173
     1
174
     0
175
     1
176
     1
 91
        0
178
     0
145
0.0
 92
        0
301
CELL_VALUE
 93
        3
 90
        0
 91
        0
 94
        0
300

302

304
ACVALUE_END
171
     1
172
     0
173
     1
174
     0
175
     1
176
     1
 91
        0
178
     0
145
0.0
 92
        0
301
CELL_VALUE
 93
        3
 90
        0
 91
        0
 94
        0
300

302

304
ACVALUE_END
171
     1
172
     0
173
     1
174
     0
175
     1
176
     1
 91
        0
178
     0
145
0.0
 92
        0
301
CELL_VALUE
 93
        3
 90
        0
 91
        0
 94
        0
300

302

304
ACVALUE_END
171
     1
172
     0
173
     1
174
     0
175
     1
176
     1
 91
        0
178
     0
145
0.0
 92
        0
301
CELL_VALUE
 93
        3
 90
        0
 91
        0
 94
        0
300

302

304
ACVALUE_END
171
     1
172
     0
173
     1
174
     0
175
     1
176
     1
 91
        0
178
     0
145
0.0
 92
        0
301
CELL_VALUE
 93
        3
 90
        0
 91
        0
 94
        0
300

302

304
ACVALUE_END
171
     1
172
     0
173
     1
174
     0
175
     1
176
     1
 91
        0
178
     0
145
0.0
 92
        0
301
CELL_VALUE
 93
        3
 90
        0
 91
        0
 94
        0
300

302

304
ACVALUE_END
171
     1
172
     0
173
     1
174
     0
175
     1
176
     1
 91
        0
178
     0
145
0.0
 92
        0
301
CELL_VALUE
 93
        3
 90
        0
 91
        0
 94
        0
300

302

304
ACVALUE_END
171
     1
172
     0
173
     1
174
     0
175
     1
176
     1
 91
        0
178
     0
145
0.0
 92
        0
301
CELL_VALUE
 93
        3
 90
        0
 91
        0
 94
        0
300

302

304
ACVALUE_END
171
     1
172
     0
173
     0
174
     0
175
    10
176
     1
 91
       49
178
     0
145
0.0
170
     4
  7
TEXTSTYLE_4
140
3.0
 92
        0
301
CELL_VALUE
 93
        4
 90
        4
  1
En descr.: 
 94
        0
300

302
En descr.: 
304
ACVALUE_END
171
     1
172
     0
173
     1
174
     0
175
     1
176
     1
 91
        0
178
     0
145
0.0
 92
        0
301
CELL_VALUE
 93
        3
 90
        0
 91
        0
 94
        0
300

302

304
ACVALUE_END
171
     1
172
     0
173
     1
174
     0
175
     1
176
     1
 91
        0
178
     0
145
0.0
 92
        0
301
CELL_VALUE
 93
        3
 90
        0
 91
        0
 94
        0
300

302

304
ACVALUE_END
171
     1
172
     0
173
     1
174
     0
175
     1
176
     1
 91
        0
178
     0
145
0.0
 92
        0
301
CELL_VALUE
 93
        3
 90
        0
 91
        0
 94
        0
300

302

304
ACVALUE_END
171
     1
172
     0
173
     1
174
     0
175
     1
176
     1
 91
        0
178
     0
145
0.0
 92
        0
301
CELL_VALUE
 93
        3
 90
        0
 91
        0
 94
        0
300

302

304
ACVALUE_END
171
     1
172
     0
173
     1
174
     0
175
     1
176
     1
 91
        0
178
     0
145
0.0
 92
        0
301
CELL_VALUE
 93
        3
 90
        0
 91
        0
 94
        0
300

302

304
ACVALUE_END
171
     1
172
     0
173
     1
174
     0
175
     1
176
     1
 91
        0
178
     0
145
0.0
 92
        0
301
CELL_VALUE
 93
        3
 90
        0
 91
        0
 94
        0
300

302

304
ACVALUE_END
171
     1
172
     0
173
     1
174
     0
175
     1
176
     1
 91
        0
178
     0
145
0.0
 92
        0
301
CELL_VALUE
 93
        3
 90
        0
 91
        0
 94
        0
300

302

304
ACVALUE_END
171
     1
172
     0
173
     1
174
     0
175
     1
176
     1
 91
        0
178
     0
145
0.0
 92
        0
301
CELL_VALUE
 93
        3
 90
        0
 91
        0
 94
        0
300

302

304
ACVALUE_END
171
     1
172
     0
173
     1
174
     0
175
     1
176
     1
 91
        0
178
     0
145
0.0
 92
        0
301
CELL_VALUE
 93
        3
 90
        0
 91
        0
 94
        0
300

302

304
ACVALUE_END
171
     1
172
     0
173
     1
174
     0
175
     1
176
     1
 91
        0
178
     0
145
0.0
 92
        0
301
CELL_VALUE
 93
        3
 90
        0
 91
        0
 94
        0
300

302

304
ACVALUE_END
171
     1
172
     0
173
     1
174
     0
175
     1
176
     1
 91
        0
178
     0
145
0.0
 92
        0
301
CELL_VALUE
 93
        3
 90
        0
 91
        0
 94
        0
300

302

304
ACVALUE_END
171
     1
172
     0
173
     1
174
     0
175
     1
176
     1
 91
        0
178
     0
145
0.0
 92
        0
301
CELL_VALUE
 93
        3
 90
        0
 91
        0
 94
        0
300

302

304
ACVALUE_END
171
     1
172
     0
173
     0
174
     0
175
     5
176
     1
 91
       49
178
     0
145
0.0
170
     4
  7
TEXTSTYLE_4
140
3.0
 92
        0
301
CELL_VALUE
 93
        4
 90
        4
  1
Des.: A.G.
 94
        0
300

302
Des.: A.G.
304
ACVALUE_END
171
     1
172
     0
173
     1
174
     0
175
     1
176
     1
 91
        0
178
     0
145
0.0
 92
        0
301
CELL_VALUE
 93
        3
 90
        0
 91
        0
 94
        0
300

302

304
ACVALUE_END
171
     1
172
     0
173
     1
174
     0
175
     1
176
     1
 91
        0
178
     0
145
0.0
 92
        0
301
CELL_VALUE
 93
        3
 90
        0
 91
        0
 94
        0
300

302

304
ACVALUE_END
171
     1
172
     0
173
     1
174
     0
175
     1
176
     1
 91
        0
178
     0
145
0.0
 92
        0
301
CELL_VALUE
 93
        3
 90
        0
 91
        0
 94
        0
300

302

304
ACVALUE_END
171
     1
172
     0
173
     1
174
     0
175
     1
176
     1
 91
        0
178
     0
145
0.0
 92
        0
301
CELL_VALUE
 93
        3
 90
        0
 91
        0
 94
        0
300

302

304
ACVALUE_END
171
     1
172
     0
173
     0
174
     0
175
     5
176
     1
 91
       49
178
     0
145
0.0
170
     4
  7
TEXTSTYLE_4
140
3.0
 92
        0
301
CELL_VALUE
 93
        4
 90
        4
  1
Check: A.P.
 94
        0
300

302
Check: A.P.
304
ACVALUE_END
171
     1
172
     0
173
     1
174
     0
175
     1
176
     1
 91
        0
178
     0
145
0.0
 92
        0
301
CELL_VALUE
 93
        3
 90
        0
 91
        0
 94
        0
300

302

304
ACVALUE_END
171
     1
172
     0
173
     1
174
     0
175
     1
176
     1
 91
        0
178
     0
145
0.0
 92
        0
301
CELL_VALUE
 93
        3
 90
        0
 91
        0
 94
        0
300

302

304
ACVALUE_END
171
     1
172
     0
173
     1
174
     0
175
     1
176
     1
 91
        0
178
     0
145
0.0
 92
        0
301
CELL_VALUE
 93
        3
 90
        0
 91
        0
 94
        0
300

302

304
ACVALUE_END
171
     1
172
     0
173
     1
174
     0
175
     1
176
     1
 91
        0
178
     0
145
0.0
 92
        0
301
CELL_VALUE
 93
        3
 90
        0
 91
        0
 94
        0
300

302

304
ACVALUE_END
171
     1
172
     0
173
     0
174
     0
175
     3
176
     1
 91
       49
178
     0
145
0.0
170
     4
  7
TEXTSTYLE_4
140
3.0
 92
        0
301
CELL_VALUE
 93
        4
 90
        4
  1
Date: 12.04.19
 94
        0
300

302
Date: 12.04.19
304
ACVALUE_END
171
     1
172
     0
173
     1
174
     0
175
     1
176
     1
 91
        0
178
     0
145
0.0
 92
        0
301
CELL_VALUE
 93
        3
 90
        0
 91
        0
 94
        0
300

302

304
ACVALUE_END
171
     1
172
     0
173
     1
174
     0
175
     1
176
     1
 91
        0
178
     0
145
0.0
 92
        0
301
CELL_VALUE
 93
        3
 90
        0
 91
        0
 94
        0
300

302

304
ACVALUE_END
171
     1
172
     0
173
     0
174
     0
175
     5
176
     1
 91
       49
178
     0
145
0.0
170
     4
  7
TEXTSTYLE_4
140
3.0
 92
        0
301
CELL_VALUE
 93
        4
 90
        4
  1
Mat.: 
 94
        0
300

302
Mat.: 
304
ACVALUE_END
171
     1
172
     0
173
     1
174
     0
175
     1
176
     1
 91
        0
178
     0
145
0.0
 92
        0
301
CELL_VALUE
 93
        3
 90
        0
 91
        0
 94
        0
300

302

304
ACVALUE_END
171
     1
172
     0
173
     1
174
     0
175
     1
176
     1
 91
        0
178
     0
145
0.0
 92
        0
301
CELL_VALUE
 93
        3
 90
        0
 91
        0
 94
        0
300

302

304
ACVALUE_END
171
     1
172
     0
173
     1
174
     0
175
     1
176
     1
 91
        0
178
     0
145
0.0
 92
        0
301
CELL_VALUE
 93
        3
 90
        0
 91
        0
 94
        0
300

302

304
ACVALUE_END
171
     1
172
     0
173
     1
174
     0
175
     1
176
     1
 91
        0
178
     0
145
0.0
 92
        0
301
CELL_VALUE
 93
        3
 90
        0
 91
        0
 94
        0
300

302

304
ACVALUE_END
171
     1
172
     0
173
     0
174
     0
175
     5
176
     1
 91
       49
178
     0
145
0.0
170
     4
  7
TEXTSTYLE_4
140
2.0
 92
        0
301
CELL_VALUE
 93
        4
 90
        4
  1
Disegno per catalogo
 94
        0
300

302
Disegno per catalogo
304
ACVALUE_END
171
     1
172
     0
173
     1
174
     0
175
     1
176
     1
 91
        0
178
     0
145
0.0
 92
        0
301
CELL_VALUE
 93
        3
 90
        0
 91
        0
 94
        0
300

302

304
ACVALUE_END
171
     1
172
     0
173
     1
174
     0
175
     1
176
     1
 91
        0
178
     0
145
0.0
 92
        0
301
CELL_VALUE
 93
        3
 90
        0
 91
        0
 94
        0
300

302

304
ACVALUE_END
171
     1
172
     0
173
     1
174
     0
175
     1
176
     1
 91
        0
178
     0
145
0.0
 92
        0
301
CELL_VALUE
 93
        3
 90
        0
 91
        0
 94
        0
300

302

304
ACVALUE_END
171
     1
172
     0
173
     1
174
     0
175
     1
176
     1
 91
        0
178
     0
145
0.0
 92
        0
301
CELL_VALUE
 93
        3
 90
        0
 91
        0
 94
        0
300

302

304
ACVALUE_END
171
     1
172
     0
173
     0
174
     0
175
    13
176
     1
 91
       49
178
     0
145
0.0
170
     4
  7
TEXTSTYLE_4
140
1.8
 92
        0
301
CELL_VALUE
 93
        4
 90
        4
  1
It: A norma di legge si diffida da qualsiasi riproduzione senza nostra autorizzazione esplicita.
 94
        0
300

302
It: A norma di legge si diffida da qualsiasi riproduzione senza nostra autorizzazione esplicita.
304
ACVALUE_END
171
     1
172
     0
173
     1
174
     0
175
     1
176
     1
 91
        0
178
     0
145
0.0
 92
        0
301
CELL_VALUE
 93
        3
 90
        0
 91
        0
 94
        0
300

302

304
ACVALUE_END
171
     1
172
     0
173
     1
174
     0
175
     1
176
     1
 91
        0
178
     0
145
0.0
 92
        0
301
CELL_VALUE
 93
        3
 90
        0
 91
        0
 94
        0
300

302

304
ACVALUE_END
171
     1
172
     0
173
     1
174
     0
175
     1
176
     1
 91
        0
178
     0
145
0.0
 92
        0
301
CELL_VALUE
 93
        3
 90
        0
 91
        0
 94
        0
300

302

304
ACVALUE_END
171
     1
172
     0
173
     1
174
     0
175
     1
176
     1
 91
        0
178
     0
145
0.0
 92
        0
301
CELL_VALUE
 93
        3
 90
        0
 91
        0
 94
        0
300

302

304
ACVALUE_END
171
     1
172
     0
173
     1
174
     0
175
     1
176
     1
 91
        0
178
     0
145
0.0
 92
        0
301
CELL_VALUE
 93
        3
 90
        0
 91
        0
 94
        0
300

302

304
ACVALUE_END
171
     1
172
     0
173
     1
174
     0
175
     1
176
     1
 91
        0
178
     0
145
0.0
 92
        0
301
CELL_VALUE
 93
        3
 90
        0
 91
        0
 94
        0
300

302

304
ACVALUE_END
171
     1
172
     0
173
     1
174
     0
175
     1
176
     1
 91
        0
178
     0
145
0.0
 92
        0
301
CELL_VALUE
 93
        3
 90
        0
 91
        0
 94
        0
300

302

304
ACVALUE_END
171
     1
172
     0
173
     1
174
     0
175
     1
176
     1
 91
        0
178
     0
145
0.0
 92
        0
301
CELL_VALUE
 93
        3
 90
        0
 91
        0
 94
        0
300

302

304
ACVALUE_END
171
     1
172
     0
173
     1
174
     0
175
     1
176
     1
 91
        0
178
     0
145
0.0
 92
        0
301
CELL_VALUE
 93
        3
 90
        0
 91
        0
 94
        0
300

302

304
ACVALUE_END
171
     1
172
     0
173
     1
174
     0
175
     1
176
     1
 91
        0
178
     0
145
0.0
 92
        0
301
CELL_VALUE
 93
        3
 90
        0
 91
        0
 94
        0
300

302

304
ACVALUE_END
171
     1
172
     0
173
     1
174
     0
175
     1
176
     1
 91
        0
178
     0
145
0.0
 92
        0
301
CELL_VALUE
 93
        3
 90
        0
 91
        0
 94
        0
300

302

304
ACVALUE_END
171
     1
172
     0
173
     1
174
     0
175
     1
176
     1
 91
        0
178
     0
145
0.0
 92
        0
301
CELL_VALUE
 93
        3
 90
        0
 91
        0
 94
        0
300

302

304
ACVALUE_END
171
     1
172
     0
173
     0
174
     0
175
    13
176
     1
 91
       49
178
     0
145
0.0
170
     4
  7
TEXTSTYLE_4
140
1.8
 92
        0
301
CELL_VALUE
 93
        4
 90
        4
  1
En: According to the law, beware of any reproduction made without our authorization.
 94
        0
300

302
En: According to the law, beware of any reproduction made without our authorization.
304
ACVALUE_END
171
     1
172
     0
173
     1
174
     0
175
     1
176
     1
 91
        0
178
     0
145
0.0
 92
        0
301
CELL_VALUE
 93
        3
 90
        0
 91
        0
 94
        0
300

302

304
ACVALUE_END
171
     1
172
     0
173
     1
174
     0
175
     1
176
     1
 91
        0
178
     0
145
0.0
 92
        0
301
CELL_VALUE
 93
        3
 90
        0
 91
        0
 94
        0
300

302

304
ACVALUE_END
171
     1
172
     0
173
     1
174
     0
175
     1
176
     1
 91
        0
178
     0
145
0.0
 92
        0
301
CELL_VALUE
 93
        3
 90
        0
 91
        0
 94
        0
300

302

304
ACVALUE_END
171
     1
172
     0
173
     1
174
     0
175
     1
176
     1
 91
        0
178
     0
145
0.0
 92
        0
301
CELL_VALUE
 93
        3
 90
        0
 91
        0
 94
        0
300

302

304
ACVALUE_END
171
     1
172
     0
173
     1
174
     0
175
     1
176
     1
 91
        0
178
     0
145
0.0
 92
        0
301
CELL_VALUE
 93
        3
 90
        0
 91
        0
 94
        0
300

302

304
ACVALUE_END
171
     1
172
     0
173
     1
174
     0
175
     1
176
     1
 91
        0
178
     0
145
0.0
 92
        0
301
CELL_VALUE
 93
        3
 90
        0
 91
        0
 94
        0
300

302

304
ACVALUE_END
171
     1
172
     0
173
     1
174
     0
175
     1
176
     1
 91
        0
178
     0
145
0.0
 92
        0
301
CELL_VALUE
 93
        3
 90
        0
 91
        0
 94
        0
300

302

304
ACVALUE_END
171
     1
172
     0
173
     1
174
     0
175
     1
176
     1
 91
        0
178
     0
145
0.0
 92
        0
301
CELL_VALUE
 93
        3
 90
        0
 91
        0
 94
        0
300

302

304
ACVALUE_END
171
     1
172
     0
173
     1
174
     0
175
     1
176
     1
 91
        0
178
     0
145
0.0
 92
        0
301
CELL_VALUE
 93
        3
 90
        0
 91
        0
 94
        0
300

302

304
ACVALUE_END
171
     1
172
     0
173
     1
174
     0
175
     1
176
     1
 91
        0
178
     0
145
0.0
 92
        0
301
CELL_VALUE
 93
        3
 90
        0
 91
        0
 94
        0
300

302

304
ACVALUE_END
171
     1
172
     0
173
     1
174
     0
175
     1
176
     1
 91
        0
178
     0
145
0.0
 92
        0
301
CELL_VALUE
 93
        3
 90
        0
 91
        0
 94
        0
300

302

304
ACVALUE_END
171
     1
172
     0
173
     1
174
     0
175
     1
176
     1
 91
        0
178
     0
145
0.0
 92
        0
301
CELL_VALUE
 93
        3
 90
        0
 91
        0
 94
        0
300

302

304
ACVALUE_END
  0
ENDSEC
  0
SECTION
  2
OBJECTS
  0
DICTIONARY
  5
C
330
0
100
AcDbDictionary
281
     1
  3
ACAD_DETAILVIEWSTYLE
350
525
  3
ACAD_GROUP
350
D
  3
ACAD_LAYOUT
350
1A
  3
ACAD_MATERIAL
350
514
  3
ACAD_MLEADERSTYLE
350
518
  3
ACAD_MLINESTYLE
350
17
  3
ACAD_PLOTSETTINGS
350
19
  3
ACAD_PLOTSTYLENAME
350
E
  3
ACAD_SCALELIST
350
4D8
  3
ACAD_SECTIONVIEWSTYLE
350
526
  3
ACAD_TABLESTYLE
350
4D3
  3
ACAD_VISUALSTYLE
350
4FA
  3
ACDB_RECOMPOSE_DATA
350
522
  3
AcDbVariableDictionary
350
51C
  3
APPDATA
350
51A
  0
SUN
  5
51B
330
2D9
100
AcDbSun
 90
        1
290
     0
 63
     7
421
 16777215
 40
1.0
291
     1
 91
  2455826
 92
 54000000
292
     0
 70
     2
 71
   256
280
     1
  0
DICTIONARY
  5
525
102
{ACAD_REACTORS
330
C
102
}
330
C
100
AcDbDictionary
281
     1
  0
DICTIONARY
  5
D
102
{ACAD_REACTORS
330
C
102
}
330
C
100
AcDbDictionary
281
     1
  0
DICTIONARY
  5
1A
102
{ACAD_REACTORS
330
C
102
}
330
C
100
AcDbDictionary
281
     1
  3
167553_1
350
4D5
  3
Model
350
4D4
  0
DICTIONARY
  5
514
102
{ACAD_REACTORS
330
C
102
}
330
C
100
AcDbDictionary
281
     1
  3
ByBlock
350
516
  3
ByLayer
350
515
  3
Global
350
517
  0
DICTIONARY
  5
518
102
{ACAD_REACTORS
330
C
102
}
330
C
100
AcDbDictionary
281
     1
  3
Standard
350
519
  0
DICTIONARY
  5
17
102
{ACAD_REACTORS
330
C
102
}
330
C
100
AcDbDictionary
281
     1
  3
Standard
350
18
  0
DICTIONARY
  5
19
102
{ACAD_REACTORS
330
C
102
}
330
C
100
AcDbDictionary
281
     1
  0
ACDBDICTIONARYWDFLT
  5
E
102
{ACAD_REACTORS
330
C
102
}
330
C
100
AcDbDictionary
281
     1
  3
Normal
350
F
100
AcDbDictionaryWithDefault
340
F
  0
DICTIONARY
  5
4D8
102
{ACAD_REACTORS
330
C
102
}
330
C
100
AcDbDictionary
281
     1
  3
A0
350
4D9
  3
A1
350
4DA
  3
A2
350
4DB
  3
A3
350
4DC
  3
A4
350
4DD
  3
A5
350
4DE
  3
A6
350
4DF
  3
A7
350
4E0
  3
A8
350
4E1
  3
A9
350
4E2
  3
B0
350
4E3
  3
B1
350
4E4
  3
B2
350
4E5
  3
B3
350
4E6
  3
B4
350
4E7
  3
B5
350
4E8
  3
B6
350
4E9
  3
B7
350
4EA
  3
B8
350
4EB
  3
B9
350
4EC
  3
C0
350
4ED
  3
C1
350
4EE
  3
C2
350
4EF
  3
C3
350
4F0
  3
C4
350
4F1
  3
C5
350
4F2
  3
C6
350
4F3
  3
C7
350
4F4
  3
C8
350
4F5
  3
C9
350
4F6
  3
D0
350
4F7
  3
D1
350
4F8
  3
D2
350
4F9
  0
DICTIONARY
  5
526
102
{ACAD_REACTORS
330
C
102
}
330
C
100
AcDbDictionary
281
     1
  0
DICTIONARY
  5
4D3
330
C
100
AcDbDictionary
281
     1
  3
Standard
350
4D6
  3
Standard1
350
4D7
  0
DICTIONARY
  5
4FA
102
{ACAD_REACTORS
330
C
102
}
330
C
100
AcDbDictionary
281
     1
  3
2dWireframe
350
4FF
  3
Basic
350
502
  3
Brighten
350
506
  3
ColorChange
350
50A
  3
Conceptual
350
504
  3
Dim
350
505
  3
EdgeColorOff
350
50D
  3
Facepattern
350
509
  3
Flat
350
4FB
  3
FlatWithEdges
350
4FC
  3
Gouraud
350
4FD
  3
GouraudWithEdges
350
4FE
  3
Hidden
350
501
  3
JitterOff
350
50B
  3
Linepattern
350
508
  3
OverhangOff
350
50C
  3
Realistic
350
503
  3
Shaded
350
512
  3
Shaded with edges
350
511
  3
Shades of Gray
350
50E
  3
Sketchy
350
50F
  3
Thicken
350
507
  3
Wireframe
350
500
  3
X-Ray
350
510
  0
XRECORD
  5
522
102
{ACAD_REACTORS
330
C
102
}
330
C
100
AcDbXrecord
280
     1
 90
        1
330
4D7
330
4D6
  0
DICTIONARY
  5
51C
102
{ACAD_REACTORS
330
C
102
}
330
C
100
AcDbDictionary
281
     1
  3
CANNOSCALE
350
51D
  3
CMLEADERSTYLE
350
524
  3
CTABLESTYLE
350
523
  0
DICTIONARY
  5
51A
102
{ACAD_REACTORS
330
C
102
}
330
C
100
AcDbDictionary
281
     1
  0
LAYOUT
  5
4D5
102
{ACAD_REACTORS
330
1A
102
}
330
1A
100
AcDbPlotSettings
  1

  2
none_device
  4
ISO_A3_(420.00_x_297.00_MM)
  6

 40
0.0
 41
0.0
 42
0.0
 43
0.0
 44
420.0
 45
297.0
 46
0.0
 47
0.0
 48
0.0
 49
0.0
140
0.0
141
0.0
142
1.0
143
1.0
 70
     0
 72
     1
 73
     0
 74
     0
  7

 75
     0
 76
     0
 77
     2
 78
   300
147
1.0
148
0.0
149
0.0
100
AcDbLayout
  1
167553_1
 70
     0
 71
     1
 10
0.0
 20
0.0
 11
420.0
 21
297.0
 12
0.0
 22
0.0
 32
0.0
 14
0.0
 24
0.0
 34
0.0
 15
420.0
 25
297.0
 35
0.0
146
0.0
 13
0.0
 23
0.0
 33
0.0
 16
1.0
 26
0.0
 36
0.0
 17
0.0
 27
1.0
 37
0.0
 76
     0
330
225
331
2D9
  0
LAYOUT
  5
4D4
102
{ACAD_REACTORS
330
1A
102
}
330
1A
100
AcDbPlotSettings
  1

  2
none_device
  4

  6

 40
0.0
 41
0.0
 42
0.0
 43
0.0
 44
420.0
 45
297.0
 46
0.0
 47
0.0
 48
0.0
 49
0.0
140
0.0
141
0.0
142
1.0
143
1.0
 70
  1024
 72
     1
 73
     0
 74
     0
  7

 75
     0
 76
     0
 77
     2
 78
   300
147
1.0
148
0.0
149
0.0
100
AcDbLayout
  1
Model
 70
     0
 71
     0
 10
0.0
 20
0.0
 11
420.0
 21
297.0
 12
0.0
 22
0.0
 32
0.0
 14
0.0
 24
0.0
 34
0.0
 15
0.0
 25
0.0
 35
0.0
146
0.0
 13
0.0
 23
0.0
 33
0.0
 16
1.0
 26
0.0
 36
0.0
 17
0.0
 27
1.0
 37
0.0
 76
     0
330
224
331
1F4
  0
MATERIAL
  5
516
102
{ACAD_REACTORS
330
514
102
}
330
514
100
AcDbMaterial
  1
ByBlock
 72
     1
 94
      127
  0
MATERIAL
  5
515
102
{ACAD_REACTORS
330
514
102
}
330
514
100
AcDbMaterial
  1
ByLayer
 72
     1
 94
      127
  0
MATERIAL
  5
517
102
{ACAD_REACTORS
330
514
102
}
330
514
100
AcDbMaterial
  1
Global
 72
     1
 94
      127
  0
MLEADERSTYLE
  5
519
102
{ACAD_REACTORS
330
518
102
}
330
518
100
AcDbMLeaderStyle
179
     2
170
     2
171
     1
172
     0
 90
        2
 40
0.0
 41
0.0
173
     1
 91
-1056964608
340
14
 92
       -2
290
     1
 42
2.0
291
     1
 43
8.0
  3
Standard
341
0
 44
4.0
300

342
11
174
     1
178
     1
175
     1
176
     0
 93
-1056964608
 45
4.0
292
     0
297
     0
 46
4.0
343
0
 94
-1056964608
 47
1.0
 49
1.0
140
1.0
293
     1
141
0.0
294
     1
177
     0
142
1.0
295
     0
296
     0
143
3.75
271
     0
272
     9
273
     9
298
     0
  0
MLINESTYLE
  5
18
102
{ACAD_REACTORS
330
17
102
}
330
17
100
AcDbMlineStyle
  2
STANDARD
 70
     0
  3

 62
   256
 51
90.0
 52
90.0
 71
     2
 49
0.5
 62
   256
  6
BYLAYER
 49
-0.5
 62
   256
  6
BYLAYER
  0
ACDBPLACEHOLDER
  5
F
102
{ACAD_REACTORS
330
E
102
}
330
E
  0
SCALE
  5
4D9
102
{ACAD_REACTORS
330
4D8
102
}
330
4D8
100
AcDbScale
 70
     0
300
1:1
140
1.0
141
1.0
290
     1
  0
SCALE
  5
4DA
102
{ACAD_REACTORS
330
4D8
102
}
330
4D8
100
AcDbScale
 70
     0
300
1:2
140
1.0
141
2.0
290
     0
  0
SCALE
  5
4DB
102
{ACAD_REACTORS
330
4D8
102
}
330
4D8
100
AcDbScale
 70
     0
300
1:4
140
1.0
141
4.0
290
     0
  0
SCALE
  5
4DC
102
{ACAD_REACTORS
330
4D8
102
}
330
4D8
100
AcDbScale
 70
     0
300
1:5
140
1.0
141
5.0
290
     0
  0
SCALE
  5
4DD
102
{ACAD_REACTORS
330
4D8
102
}
330
4D8
100
AcDbScale
 70
     0
300
1:8
140
1.0
141
8.0
290
     0
  0
SCALE
  5
4DE
102
{ACAD_REACTORS
330
4D8
102
}
330
4D8
100
AcDbScale
 70
     0
300
1:10
140
1.0
141
10.0
290
     0
  0
SCALE
  5
4DF
102
{ACAD_REACTORS
330
4D8
102
}
330
4D8
100
AcDbScale
 70
     0
300
1:16
140
1.0
141
16.0
290
     0
  0
SCALE
  5
4E0
102
{ACAD_REACTORS
330
4D8
102
}
330
4D8
100
AcDbScale
 70
     0
300
1:20
140
1.0
141
20.0
290
     0
  0
SCALE
  5
4E1
102
{ACAD_REACTORS
330
4D8
102
}
330
4D8
100
AcDbScale
 70
     0
300
1:30
140
1.0
141
30.0
290
     0
  0
SCALE
  5
4E2
102
{ACAD_REACTORS
330
4D8
102
}
330
4D8
100
AcDbScale
 70
     0
300
1:40
140
1.0
141
40.0
290
     0
  0
SCALE
  5
4E3
102
{ACAD_REACTORS
330
4D8
102
}
330
4D8
100
AcDbScale
 70
     0
300
1:50
140
1.0
141
50.0
290
     0
  0
SCALE
  5
4E4
102
{ACAD_REACTORS
330
4D8
102
}
330
4D8
100
AcDbScale
 70
     0
300
1:100
140
1.0
141
100.0
290
     0
  0
SCALE
  5
4E5
102
{ACAD_REACTORS
330
4D8
102
}
330
4D8
100
AcDbScale
 70
     0
300
2:1
140
2.0
141
1.0
290
     0
  0
SCALE
  5
4E6
102
{ACAD_REACTORS
330
4D8
102
}
330
4D8
100
AcDbScale
 70
     0
300
4:1
140
4.0
141
1.0
290
     0
  0
SCALE
  5
4E7
102
{ACAD_REACTORS
330
4D8
102
}
330
4D8
100
AcDbScale
 70
     0
300
8:1
140
8.0
141
1.0
290
     0
  0
SCALE
  5
4E8
102
{ACAD_REACTORS
330
4D8
102
}
330
4D8
100
AcDbScale
 70
     0
300
10:1
140
10.0
141
1.0
290
     0
  0
SCALE
  5
4E9
102
{ACAD_REACTORS
330
4D8
102
}
330
4D8
100
AcDbScale
 70
     0
300
100:1
140
100.0
141
1.0
290
     0
  0
SCALE
  5
4EA
102
{ACAD_REACTORS
330
4D8
102
}
330
4D8
100
AcDbScale
 70
     0
300
1/128" = 1'-0"
140
0.0078125
141
12.0
290
     0
  0
SCALE
  5
4EB
102
{ACAD_REACTORS
330
4D8
102
}
330
4D8
100
AcDbScale
 70
     0
300
1/64" = 1'-0"
140
0.015625
141
12.0
290
     0
  0
SCALE
  5
4EC
102
{ACAD_REACTORS
330
4D8
102
}
330
4D8
100
AcDbScale
 70
     0
300
1/32" = 1'-0"
140
0.03125
141
12.0
290
     0
  0
SCALE
  5
4ED
102
{ACAD_REACTORS
330
4D8
102
}
330
4D8
100
AcDbScale
 70
     0
300
1/16" = 1'-0"
140
0.0625
141
12.0
290
     0
  0
SCALE
  5
4EE
102
{ACAD_REACTORS
330
4D8
102
}
330
4D8
100
AcDbScale
 70
     0
300
3/32" = 1'-0"
140
0.09375
141
12.0
290
     0
  0
SCALE
  5
4EF
102
{ACAD_REACTORS
330
4D8
102
}
330
4D8
100
AcDbScale
 70
     0
300
1/8" = 1'-0"
140
0.125
141
12.0
290
     0
  0
SCALE
  5
4F0
102
{ACAD_REACTORS
330
4D8
102
}
330
4D8
100
AcDbScale
 70
     0
300
3/16" = 1'-0"
140
0.1875
141
12.0
290
     0
  0
SCALE
  5
4F1
102
{ACAD_REACTORS
330
4D8
102
}
330
4D8
100
AcDbScale
 70
     0
300
1/4" = 1'-0"
140
0.25
141
12.0
290
     0
  0
SCALE
  5
4F2
102
{ACAD_REACTORS
330
4D8
102
}
330
4D8
100
AcDbScale
 70
     0
300
3/8" = 1'-0"
140
0.375
141
12.0
290
     0
  0
SCALE
  5
4F3
102
{ACAD_REACTORS
330
4D8
102
}
330
4D8
100
AcDbScale
 70
     0
300
1/2" = 1'-0"
140
0.5
141
12.0
290
     0
  0
SCALE
  5
4F4
102
{ACAD_REACTORS
330
4D8
102
}
330
4D8
100
AcDbScale
 70
     0
300
3/4" = 1'-0"
140
0.75
141
12.0
290
     0
  0
SCALE
  5
4F5
102
{ACAD_REACTORS
330
4D8
102
}
330
4D8
100
AcDbScale
 70
     0
300
1" = 1'-0"
140
1.0
141
12.0
290
     0
  0
SCALE
  5
4F6
102
{ACAD_REACTORS
330
4D8
102
}
330
4D8
100
AcDbScale
 70
     0
300
1-1/2" = 1'-0"
140
1.5
141
12.0
290
     0
  0
SCALE
  5
4F7
102
{ACAD_REACTORS
330
4D8
102
}
330
4D8
100
AcDbScale
 70
     0
300
3" = 1'-0"
140
3.0
141
12.0
290
     0
  0
SCALE
  5
4F8
102
{ACAD_REACTORS
330
4D8
102
}
330
4D8
100
AcDbScale
 70
     0
300
6" = 1'-0"
140
6.0
141
12.0
290
     0
  0
SCALE
  5
4F9
102
{ACAD_REACTORS
330
4D8
102
}
330
4D8
100
AcDbScale
 70
     0
300
1'-0" = 1'-0"
140
12.0
141
12.0
290
     0
  0
TABLESTYLE
  5
4D6
102
{ACAD_REACTORS
330
4D3
330
4D2
102
}
102
{ACAD_XDICTIONARY
360
51E
102
}
330
4D3
100
AcDbTableStyle
  3
Standard
 70
     0
 71
     0
 40
0.06
 41
0.06
280
     1
281
     1
  7
STANDARD
140
0.18
170
     1
 62
     0
 63
   257
283
     0
 90
        4
 91
        0
  1

274
    -2
284
     1
 64
     0
275
    -2
285
     1
 65
     0
276
    -2
286
     1
 66
     0
277
    -2
287
     1
 67
     0
278
    -2
288
     1
 68
     0
279
    -2
289
     1
 69
     0
  7
STANDARD
140
0.18
170
     1
 62
     0
 63
   257
283
     0
 90
        4
 91
        0
  1

274
    -2
284
     1
 64
     0
275
    -2
285
     1
 65
     0
276
    -2
286
     1
 66
     0
277
    -2
287
     1
 67
     0
278
    -2
288
     1
 68
     0
279
    -2
289
     1
 69
     0
  7
STANDARD
140
0.18
170
     1
 62
     0
 63
   257
283
     0
 90
        4
 91
        0
  1

274
    -2
284
     1
 64
     0
275
    -2
285
     1
 65
     0
276
    -2
286
     1
 66
     0
277
    -2
287
     1
 67
     0
278
    -2
288
     1
 68
     0
279
    -2
289
     1
 69
     0
  0
TABLESTYLE
  5
4D7
102
{ACAD_REACTORS
330
4D3
102
}
102
{ACAD_XDICTIONARY
360
520
102
}
330
4D3
100
AcDbTableStyle
  3
Standard1
 70
     1
 71
     0
 40
0.06
 41
0.06
280
     1
281
     1
  7
STANDARD
140
0.18
170
     1
 62
     0
 63
   257
283
     0
 90
        4
 91
        0
  1

274
    -2
284
     1
 64
     0
275
    -2
285
     1
 65
     0
276
    -2
286
     1
 66
     0
277
    -2
287
     1
 67
     0
278
    -2
288
     1
 68
     0
279
    -2
289
     1
 69
     0
  7
STANDARD
140
0.18
170
     1
 62
     0
 63
   257
283
     0
 90
        4
 91
        0
  1

274
    -2
284
     1
 64
     0
275
    -2
285
     1
 65
     0
276
    -2
286
     1
 66
     0
277
    -2
287
     1
 67
     0
278
    -2
288
     1
 68
     0
279
    -2
289
     1
 69
     0
  7
STANDARD
140
0.18
170
     1
 62
     0
 63
   257
283
     0
 90
        4
 91
        0
  1

274
    -2
284
     1
 64
     0
275
    -2
285
     1
 65
     0
276
    -2
286
     1
 66
     0
277
    -2
287
     1
 67
     0
278
    -2
288
     1
 68
     0
279
    -2
289
     1
 69
     0
  0
VISUALSTYLE
  5
4FF
102
{ACAD_REACTORS
330
4FA
102
}
330
4FA
100
AcDbVisualStyle
  2
2dWireframe
 70
     4
177
     3
291
     0
 70
    58
 90
        0
176
     1
 90
        2
176
     1
 90
        0
176
     1
 90
        0
176
     1
 40
0.6
176
     1
 40
30.0
176
     1
 62
     7
420
 16777215
176
     1
 90
        1
176
     1
 90
        4
176
     1
 62
     7
176
     1
 62
   257
176
     1
 90
        1
176
     1
 90
        1
176
     1
 40
1.0
176
     1
 90
        0
176
     1
 62
   257
176
     1
 40
1.0
176
     1
 90
        1
176
     1
 90
        6
176
     1
 90
        2
176
     1
 62
     7
176
     1
 90
        5
176
     1
 90
        0
176
     1
 90
        0
176
     1
290
     0
176
     1
 90
        1
176
     1
 40
0.0
176
     1
 90
        0
176
     1
290
     1
176
     1
290
     1
176
     1
290
     0
176
     1
290
     0
176
     1
290
     0
176
     1
290
     0
176
     1
290
     0
176
     1
290
     0
176
     1
290
     0
176
     1
 90
       50
176
     1
 40
0.0
176
     1
 40
1.0
176
     1
 90
        0
176
     1
 62
    18
420
        0
176
     1
 90
       50
176
     1
 90
        3
176
     1
 62
     5
420
      255
176
     1
290
     0
176
     1
 90
       50
176
     1
 90
       50
176
     1
 90
       50
176
     1
290
     0
176
     1
 90
       50
176
     1
 62
   256
176
     0
 40
1.0
176
     0
 90
        2
176
     1
  1
strokes_ogs.tif
176
     1
290
     0
176
     1
 40
1.0
176
     1
 40
1.0
176
     1
  0
VISUALSTYLE
  5
502
102
{ACAD_REACTORS
330
4FA
102
}
330
4FA
100
AcDbVisualStyle
  2
Basic
 70
     7
177
     3
291
     1
 70
    58
 90
        1
176
     1
 90
        0
176
     1
 90
        1
176
     1
 90
        0
176
     1
 40
0.6
176
     1
 40
30.0
176
     1
 62
     7
420
 16777215
176
     1
 90
        0
176
     1
 90
        4
176
     1
 62
     7
176
     1
 62
   257
176
     1
 90
        1
176
     1
 90
        1
176
     1
 40
1.0
176
     1
 90
        8
176
     1
 62
     7
176
     1
 40
1.0
176
     1
 90
        1
176
     1
 90
        6
176
     1
 90
        2
176
     1
 62
     7
176
     1
 90
        5
176
     1
 90
        0
176
     1
 90
        0
176
     1
290
     0
176
     1
 90
        1
176
     1
 40
0.0
176
     1
 90
        0
176
     1
290
     0
176
     1
290
     1
176
     1
290
     1
176
     1
290
     0
176
     1
290
     0
176
     1
290
     0
176
     1
290
     0
176
     1
290
     0
176
     1
290
     0
176
     1
 90
       50
176
     1
 40
0.0
176
     1
 40
1.0
176
     1
 90
        0
176
     1
 62
    18
420
        0
176
     1
 90
       50
176
     1
 90
        3
176
     1
 62
     5
420
      255
176
     1
290
     0
176
     1
 90
       50
176
     1
 90
       50
176
     1
 90
       50
176
     1
290
     0
176
     1
 90
       50
176
     1
 62
   256
176
     0
 40
1.0
176
     0
 90
        2
176
     1
  1
strokes_ogs.tif
176
     1
290
     0
176
     1
 40
1.0
176
     1
 40
1.0
176
     1
  0
VISUALSTYLE
  5
506
102
{ACAD_REACTORS
330
4FA
102
}
330
4FA
100
AcDbVisualStyle
  2
Brighten
 70
    12
177
     3
291
     1
 70
    58
 90
        2
176
     1
 90
        2
176
     1
 90
        0
176
     1
 90
        0
176
     1
 40
0.6
176
     1
 40
30.0
176
     1
 62
     7
420
 16777215
176
     1
 90
        1
176
     1
 90
        4
176
     1
 62
     7
176
     1
 62
   257
176
     1
 90
        1
176
     1
 90
        1
176
     1
 40
1.0
176
     1
 90
        8
176
     1
 62
     7
176
     1
 40
1.0
176
     1
 90
        1
176
     1
 90
        6
176
     1
 90
        2
176
     1
 62
     7
176
     1
 90
        5
176
     1
 90
        0
176
     1
 90
        0
176
     1
290
     0
176
     1
 90
        1
176
     1
 40
50.0
176
     1
 90
        0
176
     1
290
     0
176
     1
290
     1
176
     1
290
     1
176
     1
290
     0
176
     1
290
     0
176
     1
290
     0
176
     1
290
     0
176
     1
290
     0
176
     1
290
     0
176
     1
 90
       50
176
     1
 40
0.0
176
     1
 40
1.0
176
     1
 90
        0
176
     1
 62
    18
420
        0
176
     1
 90
       50
176
     1
 90
        3
176
     1
 62
     5
420
      255
176
     1
290
     0
176
     1
 90
       50
176
     1
 90
       50
176
     1
 90
       50
176
     1
290
     0
176
     1
 90
       50
176
     1
 62
   256
176
     0
 40
1.0
176
     0
 90
        2
176
     1
  1
strokes_ogs.tif
176
     1
290
     0
176
     1
 40
1.0
176
     1
 40
1.0
176
     1
  0
VISUALSTYLE
  5
50A
102
{ACAD_REACTORS
330
4FA
102
}
330
4FA
100
AcDbVisualStyle
  2
ColorChange
 70
    16
177
     3
291
     1
 70
    58
 90
        2
176
     1
 90
        2
176
     1
 90
        3
176
     1
 90
        0
176
     1
 40
0.6
176
     1
 40
30.0
176
     1
 62
     8
420
  8421504
176
     1
 90
        1
176
     1
 90
        4
176
     1
 62
     7
176
     1
 62
   257
176
     1
 90
        1
176
     1
 90
        1
176
     1
 40
1.0
176
     1
 90
        8
176
     1
 62
     8
420
  8421504
176
     1
 40
1.0
176
     1
 90
        1
176
     1
 90
        6
176
     1
 90
        2
176
     1
 62
     7
176
     1
 90
        5
176
     1
 90
        0
176
     1
 90
        0
176
     1
290
     0
176
     1
 90
        1
176
     1
 40
0.0
176
     1
 90
        0
176
     1
290
     0
176
     1
290
     1
176
     1
290
     1
176
     1
290
     0
176
     1
290
     0
176
     1
290
     0
176
     1
290
     0
176
     1
290
     0
176
     1
290
     0
176
     1
 90
       50
176
     1
 40
0.0
176
     1
 40
1.0
176
     1
 90
        0
176
     1
 62
    18
420
        0
176
     1
 90
       50
176
     1
 90
        3
176
     1
 62
     5
420
      255
176
     1
290
     0
176
     1
 90
       50
176
     1
 90
       50
176
     1
 90
       50
176
     1
290
     0
176
     1
 90
       50
176
     1
 62
   256
176
     0
 40
1.0
176
     0
 90
        2
176
     1
  1
strokes_ogs.tif
176
     1
290
     0
176
     1
 40
1.0
176
     1
 40
1.0
176
     1
  0
VISUALSTYLE
  5
504
102
{ACAD_REACTORS
330
4FA
102
}
330
4FA
100
AcDbVisualStyle
  2
Conceptual
 70
     9
177
     3
291
     0
 70
    58
 90
        3
176
     1
 90
        2
176
     1
 90
        0
176
     1
 90
        0
176
     1
 40
0.6
176
     1
 40
30.0
176
     1
 62
     7
420
 16777215
176
     1
 90
        2
176
     1
 90
        2
176
     1
 62
     7
176
     1
 62
   257
176
     1
 90
        1
176
     1
 90
        1
176
     1
 40
179.0
176
     1
 90
        8
176
     1
 62
     7
176
     1
 40
1.0
176
     1
 90
        1
176
     1
 90
        6
176
     1
 90
        2
176
     1
 62
     7
176
     1
 90
        3
176
     1
 90
        0
176
     1
 90
        0
176
     1
290
     0
176
     1
 90
        1
176
     1
 40
0.0
176
     1
 90
        0
176
     1
290
     0
176
     1
290
     1
176
     1
290
     1
176
     1
290
     0
176
     1
290
     0
176
     1
290
     0
176
     1
290
     0
176
     1
290
     0
176
     1
290
     0
176
     1
 90
       50
176
     1
 40
0.0
176
     1
 40
1.0
176
     1
 90
        0
176
     1
 62
    18
420
        0
176
     1
 90
       50
176
     1
 90
        3
176
     1
 62
     5
420
      255
176
     1
290
     0
176
     1
 90
       50
176
     1
 90
       50
176
     1
 90
       50
176
     1
290
     0
176
     1
 90
       50
176
     1
 62
   256
176
     0
 40
1.0
176
     0
 90
        2
176
     1
  1
strokes_ogs.tif
176
     1
290
     0
176
     1
 40
1.0
176
     1
 40
1.0
176
     1
  0
VISUALSTYLE
  5
505
102
{ACAD_REACTORS
330
4FA
102
}
330
4FA
100
AcDbVisualStyle
  2
Dim
 70
    11
177
     3
291
     1
 70
    58
 90
        2
176
     1
 90
        2
176
     1
 90
        0
176
     1
 90
        0
176
     1
 40
0.6
176
     1
 40
30.0
176
     1
 62
     7
420
 16777215
176
     1
 90
        1
176
     1
 90
        4
176
     1
 62
     7
176
     1
 62
   257
176
     1
 90
        1
176
     1
 90
        1
176
     1
 40
1.0
176
     1
 90
        8
176
     1
 62
     7
176
     1
 40
1.0
176
     1
 90
        1
176
     1
 90
        6
176
     1
 90
        2
176
     1
 62
     7
176
     1
 90
        5
176
     1
 90
        0
176
     1
 90
        0
176
     1
290
     0
176
     1
 90
        1
176
     1
 40
-50.0
176
     1
 90
        0
176
     1
290
     0
176
     1
290
     1
176
     1
290
     1
176
     1
290
     0
176
     1
290
     0
176
     1
290
     0
176
     1
290
     0
176
     1
290
     0
176
     1
290
     0
176
     1
 90
       50
176
     1
 40
0.0
176
     1
 40
1.0
176
     1
 90
        0
176
     1
 62
    18
420
        0
176
     1
 90
       50
176
     1
 90
        3
176
     1
 62
     5
420
      255
176
     1
290
     0
176
     1
 90
       50
176
     1
 90
       50
176
     1
 90
       50
176
     1
290
     0
176
     1
 90
       50
176
     1
 62
   256
176
     0
 40
1.0
176
     0
 90
        2
176
     1
  1
strokes_ogs.tif
176
     1
290
     0
176
     1
 40
1.0
176
     1
 40
1.0
176
     1
  0
VISUALSTYLE
  5
50D
102
{ACAD_REACTORS
330
4FA
102
}
330
4FA
100
AcDbVisualStyle
  2
EdgeColorOff
 70
    22
177
     3
291
     1
 70
    58
 90
        2
176
     0
 90
        2
176
     0
 90
        0
176
     0
 90
        0
176
     0
 40
0.6
176
     0
 40
30.0
176
     0
 62
     7
420
 16777215
176
     0
 90
        1
176
     0
 90
        4
176
     0
 62
     7
176
     0
 62
   257
176
     0
 90
        1
176
     0
 90
        1
176
     0
 40
1.0
176
     0
 90
        8
176
     2
 62
     7
176
     0
 40
1.0
176
     0
 90
        1
176
     0
 90
        6
176
     0
 90
        2
176
     0
 62
     7
176
     0
 90
        5
176
     0
 90
        0
176
     0
 90
        0
176
     0
290
     0
176
     0
 90
        1
176
     0
 40
0.0
176
     0
 90
        0
176
     0
290
     0
176
     0
290
     1
176
     0
290
     1
176
     0
290
     0
176
     0
290
     0
176
     0
290
     0
176
     0
290
     0
176
     0
290
     0
176
     0
290
     0
176
     0
 90
       50
176
     0
 40
0.0
176
     0
 40
1.0
176
     0
 90
        0
176
     0
 62
    18
420
        0
176
     0
 90
       50
176
     0
 90
        3
176
     0
 62
     5
420
      255
176
     0
290
     0
176
     0
 90
       50
176
     0
 90
       50
176
     0
 90
       50
176
     0
290
     0
176
     0
 90
       50
176
     0
 62
   256
176
     0
 40
1.0
176
     0
 90
        2
176
     0
  1
strokes_ogs.tif
176
     0
290
     0
176
     0
 40
1.0
176
     0
 40
1.0
176
     0
  0
VISUALSTYLE
  5
509
102
{ACAD_REACTORS
330
4FA
102
}
330
4FA
100
AcDbVisualStyle
  2
Facepattern
 70
    15
177
     3
291
     1
 70
    58
 90
        2
176
     1
 90
        2
176
     1
 90
        0
176
     1
 90
        0
176
     1
 40
0.6
176
     1
 40
30.0
176
     1
 62
     7
420
 16777215
176
     1
 90
        1
176
     1
 90
        4
176
     1
 62
     7
176
     1
 62
   257
176
     1
 90
        1
176
     1
 90
        1
176
     1
 40
1.0
176
     1
 90
        8
176
     1
 62
     7
176
     1
 40
1.0
176
     1
 90
        1
176
     1
 90
        6
176
     1
 90
        2
176
     1
 62
     7
176
     1
 90
        5
176
     1
 90
        0
176
     1
 90
        0
176
     1
290
     0
176
     1
 90
        1
176
     1
 40
0.0
176
     1
 90
        0
176
     1
290
     0
176
     1
290
     1
176
     1
290
     1
176
     1
290
     0
176
     1
290
     0
176
     1
290
     0
176
     1
290
     0
176
     1
290
     0
176
     1
290
     0
176
     1
 90
       50
176
     1
 40
0.0
176
     1
 40
1.0
176
     1
 90
        0
176
     1
 62
    18
420
        0
176
     1
 90
       50
176
     1
 90
        3
176
     1
 62
     5
420
      255
176
     1
290
     0
176
     1
 90
       50
176
     1
 90
       50
176
     1
 90
       50
176
     1
290
     0
176
     1
 90
       50
176
     1
 62
   256
176
     0
 40
1.0
176
     0
 90
        2
176
     1
  1
strokes_ogs.tif
176
     1
290
     0
176
     1
 40
1.0
176
     1
 40
1.0
176
     1
  0
VISUALSTYLE
  5
4FB
102
{ACAD_REACTORS
330
4FA
102
}
330
4FA
100
AcDbVisualStyle
  2
Flat
 70
     0
177
     3
291
     1
 70
    58
 90
        2
176
     1
 90
        1
176
     1
 90
        1
176
     1
 90
        2
176
     1
 40
0.6
176
     1
 40
30.0
176
     1
 62
     7
420
 16777215
176
     1
 90
        0
176
     1
 90
        0
176
     1
 62
     7
176
     1
 62
   257
176
     1
 90
        1
176
     1
 90
        1
176
     1
 40
1.0
176
     1
 90
        8
176
     1
 62
     7
176
     1
 40
1.0
176
     1
 90
        1
176
     1
 90
        6
176
     1
 90
        2
176
     1
 62
     7
176
     1
 90
        5
176
     1
 90
        0
176
     1
 90
        0
176
     1
290
     0
176
     1
 90
       13
176
     1
 40
0.0
176
     1
 90
        0
176
     1
290
     0
176
     1
290
     1
176
     1
290
     1
176
     1
290
     0
176
     1
290
     0
176
     1
290
     0
176
     1
290
     0
176
     1
290
     0
176
     1
290
     0
176
     1
 90
       50
176
     1
 40
0.0
176
     1
 40
1.0
176
     1
 90
        0
176
     1
 62
    18
420
        0
176
     1
 90
       50
176
     1
 90
        3
176
     1
 62
     5
420
      255
176
     1
290
     0
176
     1
 90
       50
176
     1
 90
       50
176
     1
 90
       50
176
     1
290
     0
176
     1
 90
       50
176
     1
 62
   256
176
     0
 40
1.0
176
     0
 90
        2
176
     1
  1
strokes_ogs.tif
176
     1
290
     0
176
     1
 40
1.0
176
     1
 40
1.0
176
     1
  0
VISUALSTYLE
  5
4FC
102
{ACAD_REACTORS
330
4FA
102
}
330
4FA
100
AcDbVisualStyle
  2
FlatWithEdges
 70
     1
177
     3
291
     1
 70
    58
 90
        2
176
     1
 90
        1
176
     1
 90
        1
176
     1
 90
        2
176
     1
 40
0.6
176
     1
 40
30.0
176
     1
 62
     7
420
 16777215
176
     1
 90
        1
176
     1
 90
        0
176
     1
 62
     7
176
     1
 62
   257
176
     1
 90
        1
176
     1
 90
        1
176
     1
 40
1.0
176
     1
 90
        0
176
     1
 62
   257
176
     1
 40
1.0
176
     1
 90
        1
176
     1
 90
        6
176
     1
 90
        2
176
     1
 62
     7
176
     1
 90
        5
176
     1
 90
        0
176
     1
 90
        0
176
     1
290
     0
176
     1
 90
       13
176
     1
 40
0.0
176
     1
 90
        0
176
     1
290
     0
176
     1
290
     1
176
     1
290
     1
176
     1
290
     0
176
     1
290
     0
176
     1
290
     0
176
     1
290
     0
176
     1
290
     0
176
     1
290
     0
176
     1
 90
       50
176
     1
 40
0.0
176
     1
 40
1.0
176
     1
 90
        0
176
     1
 62
    18
420
        0
176
     1
 90
       50
176
     1
 90
        3
176
     1
 62
     5
420
      255
176
     1
290
     0
176
     1
 90
       50
176
     1
 90
       50
176
     1
 90
       50
176
     1
290
     0
176
     1
 90
       50
176
     1
 62
   256
176
     0
 40
1.0
176
     0
 90
        2
176
     1
  1
strokes_ogs.tif
176
     1
290
     0
176
     1
 40
1.0
176
     1
 40
1.0
176
     1
  0
VISUALSTYLE
  5
4FD
102
{ACAD_REACTORS
330
4FA
102
}
330
4FA
100
AcDbVisualStyle
  2
Gouraud
 70
     2
177
     3
291
     1
 70
    58
 90
        2
176
     1
 90
        2
176
     1
 90
        1
176
     1
 90
        2
176
     1
 40
0.6
176
     1
 40
30.0
176
     1
 62
     7
420
 16777215
176
     1
 90
        0
176
     1
 90
        0
176
     1
 62
     7
176
     1
 62
   257
176
     1
 90
        1
176
     1
 90
        1
176
     1
 40
1.0
176
     1
 90
        0
176
     1
 62
     7
176
     1
 40
1.0
176
     1
 90
        1
176
     1
 90
        6
176
     1
 90
        2
176
     1
 62
     7
176
     1
 90
        5
176
     1
 90
        0
176
     1
 90
        0
176
     1
290
     0
176
     1
 90
       13
176
     1
 40
0.0
176
     1
 90
        0
176
     1
290
     0
176
     1
290
     1
176
     1
290
     1
176
     1
290
     0
176
     1
290
     0
176
     1
290
     0
176
     1
290
     0
176
     1
290
     0
176
     1
290
     0
176
     1
 90
       50
176
     1
 40
0.0
176
     1
 40
1.0
176
     1
 90
        0
176
     1
 62
    18
420
        0
176
     1
 90
       50
176
     1
 90
        3
176
     1
 62
     5
420
      255
176
     1
290
     0
176
     1
 90
       50
176
     1
 90
       50
176
     1
 90
       50
176
     1
290
     0
176
     1
 90
       50
176
     1
 62
   256
176
     0
 40
1.0
176
     0
 90
        2
176
     1
  1
strokes_ogs.tif
176
     1
290
     0
176
     1
 40
1.0
176
     1
 40
1.0
176
     1
  0
VISUALSTYLE
  5
4FE
102
{ACAD_REACTORS
330
4FA
102
}
330
4FA
100
AcDbVisualStyle
  2
GouraudWithEdges
 70
     3
177
     3
291
     1
 70
    58
 90
        2
176
     1
 90
        2
176
     1
 90
        1
176
     1
 90
        2
176
     1
 40
0.6
176
     1
 40
30.0
176
     1
 62
     7
420
 16777215
176
     1
 90
        1
176
     1
 90
        0
176
     1
 62
     7
176
     1
 62
   257
176
     1
 90
        1
176
     1
 90
        1
176
     1
 40
1.0
176
     1
 90
        0
176
     1
 62
   257
176
     1
 40
1.0
176
     1
 90
        1
176
     1
 90
        6
176
     1
 90
        2
176
     1
 62
     7
176
     1
 90
        5
176
     1
 90
        0
176
     1
 90
        0
176
     1
290
     0
176
     1
 90
       13
176
     1
 40
0.0
176
     1
 90
        0
176
     1
290
     0
176
     1
290
     1
176
     1
290
     1
176
     1
290
     0
176
     1
290
     0
176
     1
290
     0
176
     1
290
     0
176
     1
290
     0
176
     1
290
     0
176
     1
 90
       50
176
     1
 40
0.0
176
     1
 40
1.0
176
     1
 90
        0
176
     1
 62
    18
420
        0
176
     1
 90
       50
176
     1
 90
        3
176
     1
 62
     5
420
      255
176
     1
290
     0
176
     1
 90
       50
176
     1
 90
       50
176
     1
 90
       50
176
     1
290
     0
176
     1
 90
       50
176
     1
 62
   256
176
     0
 40
1.0
176
     0
 90
        2
176
     1
  1
strokes_ogs.tif
176
     1
290
     0
176
     1
 40
1.0
176
     1
 40
1.0
176
     1
  0
VISUALSTYLE
  5
501
102
{ACAD_REACTORS
330
4FA
102
}
330
4FA
100
AcDbVisualStyle
  2
Hidden
 70
     6
177
     3
291
     0
 70
    58
 90
        1
176
     1
 90
        2
176
     1
 90
        2
176
     1
 90
        0
176
     1
 40
0.6
176
     1
 40
30.0
176
     1
 62
     7
420
 16777215
176
     1
 90
        2
176
     1
 90
        2
176
     1
 62
     7
176
     1
 62
   257
176
     1
 90
        2
176
     1
 90
        1
176
     1
 40
40.0
176
     1
 90
        0
176
     1
 62
   257
176
     1
 40
1.0
176
     1
 90
        1
176
     1
 90
        6
176
     1
 90
        2
176
     1
 62
     7
176
     1
 90
        3
176
     1
 90
        0
176
     1
 90
        0
176
     1
290
     0
176
     1
 90
        1
176
     1
 40
0.0
176
     1
 90
        0
176
     1
290
     0
176
     1
290
     1
176
     1
290
     1
176
     1
290
     0
176
     1
290
     0
176
     1
290
     0
176
     1
290
     0
176
     1
290
     0
176
     1
290
     0
176
     1
 90
       50
176
     1
 40
0.0
176
     1
 40
1.0
176
     1
 90
        0
176
     1
 62
    18
420
        0
176
     1
 90
       50
176
     1
 90
        3
176
     1
 62
     5
420
      255
176
     1
290
     0
176
     1
 90
       50
176
     1
 90
       50
176
     1
 90
       50
176
     1
290
     0
176
     1
 90
       50
176
     1
 62
   256
176
     0
 40
1.0
176
     0
 90
        2
176
     1
  1
strokes_ogs.tif
176
     1
290
     0
176
     1
 40
1.0
176
     1
 40
1.0
176
     1
  0
VISUALSTYLE
  5
50B
102
{ACAD_REACTORS
330
4FA
102
}
330
4FA
100
AcDbVisualStyle
  2
JitterOff
 70
    20
177
     3
291
     1
 70
    58
 90
        2
176
     0
 90
        2
176
     0
 90
        0
176
     0
 90
        0
176
     0
 40
0.6
176
     0
 40
30.0
176
     0
 62
     7
420
 16777215
176
     0
 90
        1
176
     0
 90
        4
176
     0
 62
     7
176
     0
 62
   257
176
     0
 90
        1
176
     0
 90
        1
176
     0
 40
1.0
176
     0
 90
       10
176
     2
 62
     7
176
     0
 40
1.0
176
     0
 90
        1
176
     0
 90
        6
176
     0
 90
        2
176
     0
 62
     7
176
     0
 90
        5
176
     0
 90
        0
176
     0
 90
        0
176
     0
290
     0
176
     0
 90
        1
176
     0
 40
0.0
176
     0
 90
        0
176
     0
290
     0
176
     0
290
     1
176
     0
290
     1
176
     0
290
     0
176
     0
290
     0
176
     0
290
     0
176
     0
290
     0
176
     0
290
     0
176
     0
290
     0
176
     0
 90
       50
176
     0
 40
0.0
176
     0
 40
1.0
176
     0
 90
        0
176
     0
 62
    18
420
        0
176
     0
 90
       50
176
     0
 90
        3
176
     0
 62
     5
420
      255
176
     0
290
     0
176
     0
 90
       50
176
     0
 90
       50
176
     0
 90
       50
176
     0
290
     0
176
     0
 90
       50
176
     0
 62
   256
176
     0
 40
1.0
176
     0
 90
        2
176
     0
  1
strokes_ogs.tif
176
     0
290
     0
176
     0
 40
1.0
176
     0
 40
1.0
176
     0
  0
VISUALSTYLE
  5
508
102
{ACAD_REACTORS
330
4FA
102
}
330
4FA
100
AcDbVisualStyle
  2
Linepattern
 70
    14
177
     3
291
     1
 70
    58
 90
        2
176
     1
 90
        2
176
     1
 90
        0
176
     1
 90
        0
176
     1
 40
0.6
176
     1
 40
30.0
176
     1
 62
     7
420
 16777215
176
     1
 90
        1
176
     1
 90
        4
176
     1
 62
     7
176
     1
 62
   257
176
     1
 90
        7
176
     1
 90
        7
176
     1
 40
1.0
176
     1
 90
        8
176
     1
 62
     7
176
     1
 40
1.0
176
     1
 90
        1
176
     1
 90
        6
176
     1
 90
        2
176
     1
 62
     7
176
     1
 90
        5
176
     1
 90
        0
176
     1
 90
        0
176
     1
290
     0
176
     1
 90
        1
176
     1
 40
0.0
176
     1
 90
        0
176
     1
290
     0
176
     1
290
     1
176
     1
290
     1
176
     1
290
     0
176
     1
290
     0
176
     1
290
     0
176
     1
290
     0
176
     1
290
     0
176
     1
290
     0
176
     1
 90
       50
176
     1
 40
0.0
176
     1
 40
1.0
176
     1
 90
        0
176
     1
 62
    18
420
        0
176
     1
 90
       50
176
     1
 90
        3
176
     1
 62
     5
420
      255
176
     1
290
     0
176
     1
 90
       50
176
     1
 90
       50
176
     1
 90
       50
176
     1
290
     0
176
     1
 90
       50
176
     1
 62
   256
176
     0
 40
1.0
176
     0
 90
        2
176
     1
  1
strokes_ogs.tif
176
     1
290
     0
176
     1
 40
1.0
176
     1
 40
1.0
176
     1
  0
VISUALSTYLE
  5
50C
102
{ACAD_REACTORS
330
4FA
102
}
330
4FA
100
AcDbVisualStyle
  2
OverhangOff
 70
    21
177
     3
291
     1
 70
    58
 90
        2
176
     0
 90
        2
176
     0
 90
        0
176
     0
 90
        0
176
     0
 40
0.6
176
     0
 40
30.0
176
     0
 62
     7
420
 16777215
176
     0
 90
        1
176
     0
 90
        4
176
     0
 62
     7
176
     0
 62
   257
176
     0
 90
        1
176
     0
 90
        1
176
     0
 40
1.0
176
     0
 90
        9
176
     2
 62
     7
176
     0
 40
1.0
176
     0
 90
        1
176
     0
 90
        6
176
     0
 90
        2
176
     0
 62
     7
176
     0
 90
        5
176
     0
 90
        0
176
     0
 90
        0
176
     0
290
     0
176
     0
 90
        1
176
     0
 40
0.0
176
     0
 90
        0
176
     0
290
     0
176
     0
290
     1
176
     0
290
     1
176
     0
290
     0
176
     0
290
     0
176
     0
290
     0
176
     0
290
     0
176
     0
290
     0
176
     0
290
     0
176
     0
 90
       50
176
     0
 40
0.0
176
     0
 40
1.0
176
     0
 90
        0
176
     0
 62
    18
420
        0
176
     0
 90
       50
176
     0
 90
        3
176
     0
 62
     5
420
      255
176
     0
290
     0
176
     0
 90
       50
176
     0
 90
       50
176
     0
 90
       50
176
     0
290
     0
176
     0
 90
       50
176
     0
 62
   256
176
     0
 40
1.0
176
     0
 90
        2
176
     0
  1
strokes_ogs.tif
176
     0
290
     0
176
     0
 40
1.0
176
     0
 40
1.0
176
     0
  0
VISUALSTYLE
  5
503
102
{ACAD_REACTORS
330
4FA
102
}
330
4FA
100
AcDbVisualStyle
  2
Realistic
 70
     8
177
     3
291
     0
 70
    58
 90
        2
176
     1
 90
        3
176
     1
 90
        0
176
     1
 90
        2
176
     1
 40
0.6
176
     1
 40
30.0
176
     1
 62
     7
420
 16777215
176
     1
 90
        0
176
     1
 90
        0
176
     1
 62
     7
176
     1
 62
   257
176
     1
 90
        1
176
     1
 90
        1
176
     1
 40
1.0
176
     1
 90
        8
176
     1
 62
   257
176
     1
 40
1.0
176
     1
 90
        1
176
     1
 90
        6
176
     1
 90
        2
176
     1
 62
     7
176
     1
 90
        3
176
     1
 90
        0
176
     1
 90
        0
176
     1
290
     0
176
     1
 90
       13
176
     1
 40
0.0
176
     1
 90
        0
176
     1
290
     0
176
     1
290
     1
176
     1
290
     1
176
     1
290
     0
176
     1
290
     0
176
     1
290
     0
176
     1
290
     0
176
     1
290
     0
176
     1
290
     0
176
     1
 90
       50
176
     1
 40
0.0
176
     1
 40
1.0
176
     1
 90
        0
176
     1
 62
    18
420
        0
176
     1
 90
       50
176
     1
 90
        3
176
     1
 62
     5
420
      255
176
     1
290
     0
176
     1
 90
       50
176
     1
 90
       50
176
     1
 90
       50
176
     1
290
     0
176
     1
 90
       50
176
     1
 62
   256
176
     0
 40
1.0
176
     0
 90
        2
176
     1
  1
strokes_ogs.tif
176
     1
290
     0
176
     1
 40
1.0
176
     1
 40
1.0
176
     1
  0
VISUALSTYLE
  5
512
102
{ACAD_REACTORS
330
4FA
102
}
330
4FA
100
AcDbVisualStyle
  2
Shaded
 70
    27
177
     3
291
     0
 70
    58
 90
        2
176
     1
 90
        2
176
     1
 90
        1
176
     1
 90
        2
176
     1
 40
0.6
176
     1
 40
30.0
176
     1
 62
     7
420
 16777215
176
     1
 90
        0
176
     1
 90
        4
176
     1
 62
     7
176
     1
 62
   257
176
     1
 90
        1
176
     1
 90
        1
176
     1
 40
1.0
176
     1
 90
        8
176
     1
 62
   257
176
     1
 40
1.0
176
     1
 90
        1
176
     1
 90
        6
176
     1
 90
        2
176
     1
 62
     8
420
  7895160
176
     1
 90
        3
176
     1
 90
        0
176
     1
 90
        0
176
     1
290
     0
176
     1
 90
        5
176
     1
 40
0.0
176
     1
 90
        0
176
     1
290
     0
176
     1
290
     1
176
     1
290
     1
176
     1
290
     0
176
     1
290
     0
176
     1
290
     0
176
     1
290
     0
176
     1
290
     0
176
     1
290
     0
176
     1
 90
       50
176
     1
 40
0.0
176
     1
 40
1.0
176
     1
 90
        0
176
     1
 62
    18
420
        0
176
     1
 90
       50
176
     1
 90
        3
176
     1
 62
     5
420
      255
176
     1
290
     0
176
     1
 90
       50
176
     1
 90
       50
176
     1
 90
       50
176
     1
290
     0
176
     1
 90
       50
176
     1
 62
   256
176
     0
 40
1.0
176
     0
 90
        2
176
     1
  1
strokes_ogs.tif
176
     1
290
     0
176
     1
 40
1.0
176
     1
 40
1.0
176
     1
  0
VISUALSTYLE
  5
511
102
{ACAD_REACTORS
330
4FA
102
}
330
4FA
100
AcDbVisualStyle
  2
Shaded with edges
 70
    26
177
     3
291
     0
 70
    58
 90
        2
176
     1
 90
        2
176
     1
 90
        1
176
     1
 90
        2
176
     1
 40
0.6
176
     1
 40
30.0
176
     1
 62
     7
420
 16777215
176
     1
 90
        1
176
     1
 90
       10
176
     1
 62
     7
176
     1
 62
   257
176
     1
 90
        2
176
     1
 90
        1
176
     1
 40
1.0
176
     1
 90
        8
176
     1
 62
   257
176
     1
 40
1.0
176
     1
 90
        1
176
     1
 90
        6
176
     1
 90
        2
176
     1
 62
     7
176
     1
 90
        3
176
     1
 90
        0
176
     1
 90
        0
176
     1
290
     0
176
     1
 90
        5
176
     1
 40
0.0
176
     1
 90
        0
176
     1
290
     0
176
     1
290
     1
176
     1
290
     1
176
     1
290
     0
176
     1
290
     0
176
     1
290
     0
176
     1
290
     0
176
     1
290
     0
176
     1
290
     0
176
     1
 90
       50
176
     1
 40
0.0
176
     1
 40
1.0
176
     1
 90
        0
176
     1
 62
    18
420
        0
176
     1
 90
       50
176
     1
 90
        3
176
     1
 62
     5
420
      255
176
     1
290
     0
176
     1
 90
       50
176
     1
 90
       50
176
     1
 90
       50
176
     1
290
     0
176
     1
 90
       50
176
     1
 62
   256
176
     0
 40
1.0
176
     0
 90
        2
176
     1
  1
strokes_ogs.tif
176
     1
290
     0
176
     1
 40
1.0
176
     1
 40
1.0
176
     1
  0
VISUALSTYLE
  5
50E
102
{ACAD_REACTORS
330
4FA
102
}
330
4FA
100
AcDbVisualStyle
  2
Shades of Gray
 70
    23
177
     3
291
     0
 70
    58
 90
        2
176
     1
 90
        2
176
     1
 90
        3
176
     1
 90
        0
176
     1
 40
0.6
176
     1
 40
30.0
176
     1
 62
     7
420
 16777215
176
     1
 90
        2
176
     1
 90
        2
176
     1
 62
     7
176
     1
 62
     7
176
     1
 90
        1
176
     1
 90
        1
176
     1
 40
40.0
176
     1
 90
        8
176
     1
 62
     7
176
     1
 40
1.0
176
     1
 90
        1
176
     1
 90
        6
176
     1
 90
        2
176
     1
 62
     7
176
     1
 90
        3
176
     1
 90
        0
176
     1
 90
        0
176
     1
290
     0
176
     1
 90
        1
176
     1
 40
0.0
176
     1
 90
        0
176
     1
290
     0
176
     1
290
     1
176
     1
290
     1
176
     1
290
     0
176
     1
290
     0
176
     1
290
     0
176
     1
290
     0
176
     1
290
     0
176
     1
290
     0
176
     1
 90
       50
176
     1
 40
0.0
176
     1
 40
1.0
176
     1
 90
        0
176
     1
 62
    18
420
        0
176
     1
 90
       50
176
     1
 90
        3
176
     1
 62
     5
420
      255
176
     1
290
     0
176
     1
 90
       50
176
     1
 90
       50
176
     1
 90
       50
176
     1
290
     0
176
     1
 90
       50
176
     1
 62
   256
176
     0
 40
1.0
176
     0
 90
        2
176
     1
  1
strokes_ogs.tif
176
     1
290
     0
176
     1
 40
1.0
176
     1
 40
1.0
176
     1
  0
VISUALSTYLE
  5
50F
102
{ACAD_REACTORS
330
4FA
102
}
330
4FA
100
AcDbVisualStyle
  2
Sketchy
 70
    24
177
     3
291
     0
 70
    58
 90
        1
176
     1
 90
        2
176
     1
 90
        2
176
     1
 90
        0
176
     1
 40
0.6
176
     1
 40
30.0
176
     1
 62
     7
420
 16777215
176
     1
 90
        2
176
     1
 90
        2
176
     1
 62
     7
176
     1
 62
     7
176
     1
 90
        1
176
     1
 90
        1
176
     1
 40
40.0
176
     1
 90
       11
176
     1
 62
     7
176
     1
 40
1.0
176
     1
 90
        1
176
     1
 90
        6
176
     1
 90
        2
176
     1
 62
     7
176
     1
 90
        6
176
     1
 90
        0
176
     1
 90
        0
176
     1
290
     0
176
     1
 90
        1
176
     1
 40
0.0
176
     1
 90
        0
176
     1
290
     0
176
     1
290
     1
176
     1
290
     1
176
     1
290
     0
176
     1
290
     0
176
     1
290
     0
176
     1
290
     0
176
     1
290
     0
176
     1
290
     0
176
     1
 90
       50
176
     1
 40
0.0
176
     1
 40
1.0
176
     1
 90
        0
176
     1
 62
    18
420
        0
176
     1
 90
       50
176
     1
 90
        3
176
     1
 62
     5
420
      255
176
     1
290
     0
176
     1
 90
       50
176
     1
 90
       50
176
     1
 90
       50
176
     1
290
     0
176
     1
 90
       50
176
     1
 62
   256
176
     0
 40
1.0
176
     0
 90
        2
176
     1
  1
strokes_ogs.tif
176
     1
290
     0
176
     1
 40
1.0
176
     1
 40
1.0
176
     1
  0
VISUALSTYLE
  5
507
102
{ACAD_REACTORS
330
4FA
102
}
330
4FA
100
AcDbVisualStyle
  2
Thicken
 70
    13
177
     3
291
     1
 70
    58
 90
        2
176
     1
 90
        2
176
     1
 90
        0
176
     1
 90
        0
176
     1
 40
0.6
176
     1
 40
30.0
176
     1
 62
     7
420
 16777215
176
     1
 90
        1
176
     1
 90
        4
176
     1
 62
     7
176
     1
 62
   257
176
     1
 90
        1
176
     1
 90
        1
176
     1
 40
1.0
176
     1
 90
       12
176
     1
 62
     7
176
     1
 40
1.0
176
     1
 90
        1
176
     1
 90
        6
176
     1
 90
        2
176
     1
 62
     7
176
     1
 90
        5
176
     1
 90
        0
176
     1
 90
        0
176
     1
290
     0
176
     1
 90
        1
176
     1
 40
0.0
176
     1
 90
        0
176
     1
290
     0
176
     1
290
     1
176
     1
290
     1
176
     1
290
     0
176
     1
290
     0
176
     1
290
     0
176
     1
290
     0
176
     1
290
     0
176
     1
290
     0
176
     1
 90
       50
176
     1
 40
0.0
176
     1
 40
1.0
176
     1
 90
        0
176
     1
 62
    18
420
        0
176
     1
 90
       50
176
     1
 90
        3
176
     1
 62
     5
420
      255
176
     1
290
     0
176
     1
 90
       50
176
     1
 90
       50
176
     1
 90
       50
176
     1
290
     0
176
     1
 90
       50
176
     1
 62
   256
176
     0
 40
1.0
176
     0
 90
        2
176
     1
  1
strokes_ogs.tif
176
     1
290
     0
176
     1
 40
1.0
176
     1
 40
1.0
176
     1
  0
VISUALSTYLE
  5
500
102
{ACAD_REACTORS
330
4FA
102
}
330
4FA
100
AcDbVisualStyle
  2
Wireframe
 70
     5
177
     3
291
     0
 70
    58
 90
        0
176
     1
 90
        2
176
     1
 90
        0
176
     1
 90
        0
176
     1
 40
0.6
176
     1
 40
30.0
176
     1
 62
     7
420
 16777215
176
     1
 90
        1
176
     1
 90
        4
176
     1
 62
     7
176
     1
 62
   257
176
     1
 90
        1
176
     1
 90
        1
176
     1
 40
1.0
176
     1
 90
        0
176
     1
 62
   257
176
     1
 40
1.0
176
     1
 90
        1
176
     1
 90
        6
176
     1
 90
        2
176
     1
 62
     7
176
     1
 90
        3
176
     1
 90
        0
176
     1
 90
        0
176
     1
290
     0
176
     1
 90
        1
176
     1
 40
0.0
176
     1
 90
        0
176
     1
290
     0
176
     1
290
     1
176
     1
290
     1
176
     1
290
     0
176
     1
290
     0
176
     1
290
     0
176
     1
290
     0
176
     1
290
     0
176
     1
290
     0
176
     1
 90
       50
176
     1
 40
0.0
176
     1
 40
1.0
176
     1
 90
        0
176
     1
 62
    18
420
        0
176
     1
 90
       50
176
     1
 90
        3
176
     1
 62
     5
420
      255
176
     1
290
     0
176
     1
 90
       50
176
     1
 90
       50
176
     1
 90
       50
176
     1
290
     0
176
     1
 90
       50
176
     1
 62
   256
176
     0
 40
1.0
176
     0
 90
        2
176
     1
  1
strokes_ogs.tif
176
     1
290
     0
176
     1
 40
1.0
176
     1
 40
1.0
176
     1
  0
VISUALSTYLE
  5
510
102
{ACAD_REACTORS
330
4FA
102
}
330
4FA
100
AcDbVisualStyle
  2
X-Ray
 70
    25
177
     3
291
     0
 70
    58
 90
        2
176
     1
 90
        2
176
     1
 90
        1
176
     1
 90
        1
176
     1
 40
0.5
176
     1
 40
30.0
176
     1
 62
     7
420
 16777215
176
     1
 90
        1
176
     1
 90
        0
176
     1
 62
     7
176
     1
 62
   257
176
     1
 90
        1
176
     1
 90
        1
176
     1
 40
1.0
176
     1
 90
        8
176
     1
 62
     7
176
     1
 40
1.0
176
     1
 90
        1
176
     1
 90
        6
176
     1
 90
        2
176
     1
 62
     7
176
     1
 90
        3
176
     1
 90
        0
176
     1
 90
        0
176
     1
290
     0
176
     1
 90
       13
176
     1
 40
0.0
176
     1
 90
        0
176
     1
290
     0
176
     1
290
     1
176
     1
290
     1
176
     1
290
     0
176
     1
290
     0
176
     1
290
     0
176
     1
290
     0
176
     1
290
     0
176
     1
290
     0
176
     1
 90
       50
176
     1
 40
0.0
176
     1
 40
1.0
176
     1
 90
        0
176
     1
 62
    18
420
        0
176
     1
 90
       50
176
     1
 90
        3
176
     1
 62
     5
420
      255
176
     1
290
     0
176
     1
 90
       50
176
     1
 90
       50
176
     1
 90
       50
176
     1
290
     0
176
     1
 90
       50
176
     1
 62
   256
176
     0
 40
1.0
176
     0
 90
        2
176
     1
  1
strokes_ogs.tif
176
     1
290
     0
176
     1
 40
1.0
176
     1
 40
1.0
176
     1
  0
DICTIONARYVAR
  5
51D
102
{ACAD_REACTORS
330
51C
102
}
330
51C
100
DictionaryVariables
280
     0
  1
1:1
  0
DICTIONARYVAR
  5
524
102
{ACAD_REACTORS
330
51C
102
}
330
51C
100
DictionaryVariables
280
     0
  1
Standard
  0
DICTIONARYVAR
  5
523
102
{ACAD_REACTORS
330
51C
102
}
330
51C
100
DictionaryVariables
280
     0
  1
Standard
  0
DICTIONARY
  5
51E
330
4D6
100
AcDbDictionary
280
     1
281
     1
  3
ACAD_ROUNDTRIP_2008_TABLESTYLE_CELLSTYLEMAP
360
51F
  0
DICTIONARY
  5
520
330
4D7
100
AcDbDictionary
280
     1
281
     1
  3
ACAD_ROUNDTRIP_2008_TABLESTYLE_CELLSTYLEMAP
360
521
  0
CELLSTYLEMAP
  5
51F
102
{ACAD_REACTORS
330
51E
102
}
330
51E
100
AcDbCellStyleMap
 90
        3
300
CELLSTYLE
  1
TABLEFORMAT_BEGIN
 90
        5
170
     1
 91
        0
 92
    32768
 62
   257
 93
        1
300
CONTENTFORMAT
  1
CONTENTFORMAT_BEGIN
 90
        0
 91
        0
 92
        4
 93
        0
300

 40
0.0
140
1.0
 94
        1
 62
     0
340
11
144
0.18
309
CONTENTFORMAT_END
171
     1
301
MARGIN
  1
CELLMARGIN_BEGIN
 40
0.06
 40
0.06
 40
0.06
 40
0.06
 40
0.18
 40
0.18
309
CELLMARGIN_END
 94
        6
 95
        1
302
GRIDFORMAT
  1
GRIDFORMAT_BEGIN
 90
        0
 91
        1
 62
     0
 92
       -2
340
0
 93
        0
 40
0.045
309
GRIDFORMAT_END
 95
        2
302
GRIDFORMAT
  1
GRIDFORMAT_BEGIN
 90
        0
 91
        1
 62
     0
 92
       -2
340
0
 93
        0
 40
0.045
309
GRIDFORMAT_END
 95
        4
302
GRIDFORMAT
  1
GRIDFORMAT_BEGIN
 90
        0
 91
        1
 62
     0
 92
       -2
340
0
 93
        0
 40
0.045
309
GRIDFORMAT_END
 95
        8
302
GRIDFORMAT
  1
GRIDFORMAT_BEGIN
 90
        0
 91
        1
 62
     0
 92
       -2
340
0
 93
        0
 40
0.045
309
GRIDFORMAT_END
 95
       16
302
GRIDFORMAT
  1
GRIDFORMAT_BEGIN
 90
        0
 91
        1
 62
     0
 92
       -2
340
0
 93
        0
 40
0.045
309
GRIDFORMAT_END
 95
       32
302
GRIDFORMAT
  1
GRIDFORMAT_BEGIN
 90
        0
 91
        1
 62
     0
 92
       -2
340
0
 93
        0
 40
0.045
309
GRIDFORMAT_END
309
TABLEFORMAT_END
  1
CELLSTYLE_BEGIN
 90
        1
 91
        1
300
_TITLE
309
CELLSTYLE_END
300
CELLSTYLE
  1
TABLEFORMAT_BEGIN
 90
        5
170
     1
 91
        0
 92
        0
 62
   257
 93
        1
300
CONTENTFORMAT
  1
CONTENTFORMAT_BEGIN
 90
        0
 91
        0
 92
        4
 93
        0
300

 40
0.0
140
1.0
 94
        1
 62
     0
340
11
144
0.18
309
CONTENTFORMAT_END
171
     1
301
MARGIN
  1
CELLMARGIN_BEGIN
 40
0.06
 40
0.06
 40
0.06
 40
0.06
 40
0.18
 40
0.18
309
CELLMARGIN_END
 94
        6
 95
        1
302
GRIDFORMAT
  1
GRIDFORMAT_BEGIN
 90
        0
 91
        1
 62
     0
 92
       -2
340
0
 93
        0
 40
0.045
309
GRIDFORMAT_END
 95
        2
302
GRIDFORMAT
  1
GRIDFORMAT_BEGIN
 90
        0
 91
        1
 62
     0
 92
       -2
340
0
 93
        0
 40
0.045
309
GRIDFORMAT_END
 95
        4
302
GRIDFORMAT
  1
GRIDFORMAT_BEGIN
 90
        0
 91
        1
 62
     0
 92
       -2
340
0
 93
        0
 40
0.045
309
GRIDFORMAT_END
 95
        8
302
GRIDFORMAT
  1
GRIDFORMAT_BEGIN
 90
        0
 91
        1
 62
     0
 92
       -2
340
0
 93
        0
 40
0.045
309
GRIDFORMAT_END
 95
       16
302
GRIDFORMAT
  1
GRIDFORMAT_BEGIN
 90
        0
 91
        1
 62
     0
 92
       -2
340
0
 93
        0
 40
0.045
309
GRIDFORMAT_END
 95
       32
302
GRIDFORMAT
  1
GRIDFORMAT_BEGIN
 90
        0
 91
        1
 62
     0
 92
       -2
340
0
 93
        0
 40
0.045
309
GRIDFORMAT_END
309
TABLEFORMAT_END
  1
CELLSTYLE_BEGIN
 90
        2
 91
        1
300
_HEADER
309
CELLSTYLE_END
300
CELLSTYLE
  1
TABLEFORMAT_BEGIN
 90
        5
170
     1
 91
        0
 92
        0
 62
   257
 93
        1
300
CONTENTFORMAT
  1
CONTENTFORMAT_BEGIN
 90
        0
 91
        0
 92
        4
 93
        0
300

 40
0.0
140
1.0
 94
        1
 62
     0
340
11
144
0.18
309
CONTENTFORMAT_END
171
     1
301
MARGIN
  1
CELLMARGIN_BEGIN
 40
0.06
 40
0.06
 40
0.06
 40
0.06
 40
0.18
 40
0.18
309
CELLMARGIN_END
 94
        6
 95
        1
302
GRIDFORMAT
  1
GRIDFORMAT_BEGIN
 90
        0
 91
        1
 62
     0
 92
       -2
340
0
 93
        0
 40
0.045
309
GRIDFORMAT_END
 95
        2
302
GRIDFORMAT
  1
GRIDFORMAT_BEGIN
 90
        0
 91
        1
 62
     0
 92
       -2
340
0
 93
        0
 40
0.045
309
GRIDFORMAT_END
 95
        4
302
GRIDFORMAT
  1
GRIDFORMAT_BEGIN
 90
        0
 91
        1
 62
     0
 92
       -2
340
0
 93
        0
 40
0.045
309
GRIDFORMAT_END
 95
        8
302
GRIDFORMAT
  1
GRIDFORMAT_BEGIN
 90
        0
 91
        1
 62
     0
 92
       -2
340
0
 93
        0
 40
0.045
309
GRIDFORMAT_END
 95
       16
302
GRIDFORMAT
  1
GRIDFORMAT_BEGIN
 90
        0
 91
        1
 62
     0
 92
       -2
340
0
 93
        0
 40
0.045
309
GRIDFORMAT_END
 95
       32
302
GRIDFORMAT
  1
GRIDFORMAT_BEGIN
 90
        0
 91
        1
 62
     0
 92
       -2
340
0
 93
        0
 40
0.045
309
GRIDFORMAT_END
309
TABLEFORMAT_END
  1
CELLSTYLE_BEGIN
 90
        3
 91
        2
300
_DATA
309
CELLSTYLE_END
  0
CELLSTYLEMAP
  5
521
102
{ACAD_REACTORS
330
520
102
}
330
520
100
AcDbCellStyleMap
 90
        3
300
CELLSTYLE
  1
TABLEFORMAT_BEGIN
 90
        5
170
     1
 91
        0
 92
    32768
 62
   257
 93
        1
300
CONTENTFORMAT
  1
CONTENTFORMAT_BEGIN
 90
        0
 91
        0
 92
        4
 93
        0
300

 40
0.0
140
1.0
 94
        1
 62
     0
340
11
144
0.18
309
CONTENTFORMAT_END
171
     1
301
MARGIN
  1
CELLMARGIN_BEGIN
 40
0.06
 40
0.06
 40
0.06
 40
0.06
 40
0.18
 40
0.18
309
CELLMARGIN_END
 94
        6
 95
        1
302
GRIDFORMAT
  1
GRIDFORMAT_BEGIN
 90
        0
 91
        1
 62
     0
 92
       -2
340
0
 93
        0
 40
0.045
309
GRIDFORMAT_END
 95
        2
302
GRIDFORMAT
  1
GRIDFORMAT_BEGIN
 90
        0
 91
        1
 62
     0
 92
       -2
340
0
 93
        0
 40
0.045
309
GRIDFORMAT_END
 95
        4
302
GRIDFORMAT
  1
GRIDFORMAT_BEGIN
 90
        0
 91
        1
 62
     0
 92
       -2
340
0
 93
        0
 40
0.045
309
GRIDFORMAT_END
 95
        8
302
GRIDFORMAT
  1
GRIDFORMAT_BEGIN
 90
        0
 91
        1
 62
     0
 92
       -2
340
0
 93
        0
 40
0.045
309
GRIDFORMAT_END
 95
       16
302
GRIDFORMAT
  1
GRIDFORMAT_BEGIN
 90
        0
 91
        1
 62
     0
 92
       -2
340
0
 93
        0
 40
0.045
309
GRIDFORMAT_END
 95
       32
302
GRIDFORMAT
  1
GRIDFORMAT_BEGIN
 90
        0
 91
        1
 62
     0
 92
       -2
340
0
 93
        0
 40
0.045
309
GRIDFORMAT_END
309
TABLEFORMAT_END
  1
CELLSTYLE_BEGIN
 90
        1
 91
        1
300
_TITLE
309
CELLSTYLE_END
300
CELLSTYLE
  1
TABLEFORMAT_BEGIN
 90
        5
170
     1
 91
        0
 92
        0
 62
   257
 93
        1
300
CONTENTFORMAT
  1
CONTENTFORMAT_BEGIN
 90
        0
 91
        0
 92
        4
 93
        0
300

 40
0.0
140
1.0
 94
        1
 62
     0
340
11
144
0.18
309
CONTENTFORMAT_END
171
     1
301
MARGIN
  1
CELLMARGIN_BEGIN
 40
0.06
 40
0.06
 40
0.06
 40
0.06
 40
0.18
 40
0.18
309
CELLMARGIN_END
 94
        6
 95
        1
302
GRIDFORMAT
  1
GRIDFORMAT_BEGIN
 90
        0
 91
        1
 62
     0
 92
       -2
340
0
 93
        0
 40
0.045
309
GRIDFORMAT_END
 95
        2
302
GRIDFORMAT
  1
GRIDFORMAT_BEGIN
 90
        0
 91
        1
 62
     0
 92
       -2
340
0
 93
        0
 40
0.045
309
GRIDFORMAT_END
 95
        4
302
GRIDFORMAT
  1
GRIDFORMAT_BEGIN
 90
        0
 91
        1
 62
     0
 92
       -2
340
0
 93
        0
 40
0.045
309
GRIDFORMAT_END
 95
        8
302
GRIDFORMAT
  1
GRIDFORMAT_BEGIN
 90
        0
 91
        1
 62
     0
 92
       -2
340
0
 93
        0
 40
0.045
309
GRIDFORMAT_END
 95
       16
302
GRIDFORMAT
  1
GRIDFORMAT_BEGIN
 90
        0
 91
        1
 62
     0
 92
       -2
340
0
 93
        0
 40
0.045
309
GRIDFORMAT_END
 95
       32
302
GRIDFORMAT
  1
GRIDFORMAT_BEGIN
 90
        0
 91
        1
 62
     0
 92
       -2
340
0
 93
        0
 40
0.045
309
GRIDFORMAT_END
309
TABLEFORMAT_END
  1
CELLSTYLE_BEGIN
 90
        2
 91
        1
300
_HEADER
309
CELLSTYLE_END
300
CELLSTYLE
  1
TABLEFORMAT_BEGIN
 90
        5
170
     1
 91
        0
 92
        0
 62
   257
 93
        1
300
CONTENTFORMAT
  1
CONTENTFORMAT_BEGIN
 90
        0
 91
        0
 92
        4
 93
        0
300

 40
0.0
140
1.0
 94
        1
 62
     0
340
11
144
0.18
309
CONTENTFORMAT_END
171
     1
301
MARGIN
  1
CELLMARGIN_BEGIN
 40
0.06
 40
0.06
 40
0.06
 40
0.06
 40
0.18
 40
0.18
309
CELLMARGIN_END
 94
        6
 95
        1
302
GRIDFORMAT
  1
GRIDFORMAT_BEGIN
 90
        0
 91
        1
 62
     0
 92
       -2
340
0
 93
        0
 40
0.045
309
GRIDFORMAT_END
 95
        2
302
GRIDFORMAT
  1
GRIDFORMAT_BEGIN
 90
        0
 91
        1
 62
     0
 92
       -2
340
0
 93
        0
 40
0.045
309
GRIDFORMAT_END
 95
        4
302
GRIDFORMAT
  1
GRIDFORMAT_BEGIN
 90
        0
 91
        1
 62
     0
 92
       -2
340
0
 93
        0
 40
0.045
309
GRIDFORMAT_END
 95
        8
302
GRIDFORMAT
  1
GRIDFORMAT_BEGIN
 90
        0
 91
        1
 62
     0
 92
       -2
340
0
 93
        0
 40
0.045
309
GRIDFORMAT_END
 95
       16
302
GRIDFORMAT
  1
GRIDFORMAT_BEGIN
 90
        0
 91
        1
 62
     0
 92
       -2
340
0
 93
        0
 40
0.045
309
GRIDFORMAT_END
 95
       32
302
GRIDFORMAT
  1
GRIDFORMAT_BEGIN
 90
        0
 91
        1
 62
     0
 92
       -2
340
0
 93
        0
 40
0.045
309
GRIDFORMAT_END
309
TABLEFORMAT_END
  1
CELLSTYLE_BEGIN
 90
        3
 91
        2
300
_DATA
309
CELLSTYLE_END
  0
ENDSEC
  0
EOF
