  0
SECTION
  2
HEADER
  9
$ACADVER
  1
AC1027
  9
$ACADMAINTVER
 70
   105
  9
$DWGCODEPAGE
  3
ANSI_1252
  9
$REQUIREDVERSIONS
160
                 0
  9
$LASTSAVEDBY
  1
andrea.zolin
  9
$INSBASE
 10
0.0
 20
0.0
 30
0.0
  9
$EXTMIN
 10
0.0
 20
0.0
 30
0.0
  9
$EXTMAX
 10
420.0
 20
297.0
 30
0.0
  9
$LIMMIN
 10
0.0
 20
0.0
  9
$LIMMAX
 10
420.0
 20
297.0
  9
$ORTHOMODE
 70
     0
  9
$REGENMODE
 70
     1
  9
$FILLMODE
 70
     1
  9
$QTEXTMODE
 70
     0
  9
$MIRRTEXT
 70
     1
  9
$LTSCALE
 40
23.1
  9
$ATTMODE
 70
     1
  9
$TEXTSIZE
 40
0.2
  9
$TRACEWID
 40
0.05
  9
$TEXTSTYLE
  7
STANDARD
  9
$CLAYER
  8
0
  9
$CELTYPE
  6
BYLAYER
  9
$CECOLOR
 62
   256
  9
$CELTSCALE
 40
1.0
  9
$DISPSILH
 70
     0
  9
$DIMSCALE
 40
1.0
  9
$DIMASZ
 40
2.5
  9
$DIMEXO
 40
0.75
  9
$DIMDLI
 40
15.96
  9
$DIMRND
 40
0.0
  9
$DIMDLE
 40
0.0
  9
$DIMEXE
 40
0.75
  9
$DIMTP
 40
0.01
  9
$DIMTM
 40
0.01
  9
$DIMTXT
 40
3.0
  9
$DIMCEN
 40
3.78
  9
$DIMTSZ
 40
0.0
  9
$DIMTOL
 70
     1
  9
$DIMLIM
 70
     0
  9
$DIMTIH
 70
     1
  9
$DIMTOH
 70
     1
  9
$DIMSE1
 70
     0
  9
$DIMSE2
 70
     0
  9
$DIMTAD
 70
     0
  9
$DIMZIN
 70
     0
  9
$DIMBLK
  1
CLOSED
  9
$DIMASO
 70
     1
  9
$DIMSHO
 70
     1
  9
$DIMPOST
  1

  9
$DIMAPOST
  1

  9
$DIMALT
 70
     0
  9
$DIMALTD
 70
     2
  9
$DIMALTF
 40
25.4
  9
$DIMLFAC
 40
1.0
  9
$DIMTOFL
 70
     0
  9
$DIMTVP
 40
0.0
  9
$DIMTIX
 70
     0
  9
$DIMSOXD
 70
     0
  9
$DIMSAH
 70
     0
  9
$DIMBLK1
  1

  9
$DIMBLK2
  1

  9
$DIMSTYLE
  2
STANDARD
  9
$DIMCLRD
 70
     0
  9
$DIMCLRE
 70
     0
  9
$DIMCLRT
 70
     0
  9
$DIMTFAC
 40
1.0
  9
$DIMGAP
 40
0.625
  9
$DIMJUST
 70
     0
  9
$DIMSD1
 70
     0
  9
$DIMSD2
 70
     0
  9
$DIMTOLJ
 70
     1
  9
$DIMTZIN
 70
     0
  9
$DIMALTZ
 70
     0
  9
$DIMALTTZ
 70
     0
  9
$DIMUPT
 70
     0
  9
$DIMDEC
 70
     4
  9
$DIMTDEC
 70
     4
  9
$DIMALTU
 70
     2
  9
$DIMALTTD
 70
     2
  9
$DIMTXSTY
  7
STANDARD
  9
$DIMAUNIT
 70
     0
  9
$DIMADEC
 70
     0
  9
$DIMALTRND
 40
0.0
  9
$DIMAZIN
 70
     0
  9
$DIMDSEP
 70
    44
  9
$DIMATFIT
 70
     3
  9
$DIMFRAC
 70
     0
  9
$DIMLDRBLK
  1

  9
$DIMLUNIT
 70
     2
  9
$DIMLWD
 70
    -2
  9
$DIMLWE
 70
    -2
  9
$DIMTMOVE
 70
     0
  9
$DIMFXL
 40
1.0
  9
$DIMFXLON
 70
     0
  9
$DIMJOGANG
 40
0.7853981633974483
  9
$DIMTFILL
 70
     0
  9
$DIMTFILLCLR
 70
     0
  9
$DIMARCSYM
 70
     0
  9
$DIMLTYPE
  6

  9
$DIMLTEX1
  6

  9
$DIMLTEX2
  6

  9
$DIMTXTDIRECTION
 70
     0
  9
$LUNITS
 70
     2
  9
$LUPREC
 70
     4
  9
$SKETCHINC
 40
0.1
  9
$FILLETRAD
 40
0.5
  9
$AUNITS
 70
     0
  9
$AUPREC
 70
     0
  9
$MENU
  1
.
  9
$ELEVATION
 40
0.0
  9
$PELEVATION
 40
0.0
  9
$THICKNESS
 40
0.0
  9
$LIMCHECK
 70
     0
  9
$CHAMFERA
 40
0.0
  9
$CHAMFERB
 40
0.0
  9
$CHAMFERC
 40
0.0
  9
$CHAMFERD
 40
0.0
  9
$SKPOLY
 70
     0
  9
$TDCREATE
 40
2447893.083333333
  9
$TDUCREATE
 40
0.0
  9
$TDUPDATE
 40
2458591.468067697
  9
$TDUUPDATE
 40
2458591.384734363
  9
$TDINDWG
 40
0.0008681366
  9
$TDUSRTIMER
 40
0.0008681366
  9
$USRTIMER
 70
     1
  9
$ANGBASE
 50
0.0
  9
$ANGDIR
 70
     0
  9
$PDMODE
 70
     3
  9
$PDSIZE
 40
0.3125
  9
$PLINEWID
 40
0.0
  9
$SPLFRAME
 70
     0
  9
$SPLINETYPE
 70
     6
  9
$SPLINESEGS
 70
     8
  9
$HANDSEED
  5
51D
  9
$SURFTAB1
 70
     6
  9
$SURFTAB2
 70
     6
  9
$SURFTYPE
 70
     6
  9
$SURFU
 70
     6
  9
$SURFV
 70
     6
  9
$UCSBASE
  2

  9
$UCSNAME
  2

  9
$UCSORG
 10
0.0
 20
0.0
 30
0.0
  9
$UCSXDIR
 10
1.0
 20
0.0
 30
0.0
  9
$UCSYDIR
 10
0.0
 20
1.0
 30
0.0
  9
$UCSORTHOREF
  2

  9
$UCSORTHOVIEW
 70
     0
  9
$UCSORGTOP
 10
0.0
 20
0.0
 30
0.0
  9
$UCSORGBOTTOM
 10
0.0
 20
0.0
 30
0.0
  9
$UCSORGLEFT
 10
0.0
 20
0.0
 30
0.0
  9
$UCSORGRIGHT
 10
0.0
 20
0.0
 30
0.0
  9
$UCSORGFRONT
 10
0.0
 20
0.0
 30
0.0
  9
$UCSORGBACK
 10
0.0
 20
0.0
 30
0.0
  9
$PUCSBASE
  2

  9
$PUCSNAME
  2

  9
$PUCSORG
 10
0.0
 20
0.0
 30
0.0
  9
$PUCSXDIR
 10
1.0
 20
0.0
 30
0.0
  9
$PUCSYDIR
 10
0.0
 20
1.0
 30
0.0
  9
$PUCSORTHOREF
  2

  9
$PUCSORTHOVIEW
 70
     0
  9
$PUCSORGTOP
 10
0.0
 20
0.0
 30
0.0
  9
$PUCSORGBOTTOM
 10
0.0
 20
0.0
 30
0.0
  9
$PUCSORGLEFT
 10
0.0
 20
0.0
 30
0.0
  9
$PUCSORGRIGHT
 10
0.0
 20
0.0
 30
0.0
  9
$PUCSORGFRONT
 10
0.0
 20
0.0
 30
0.0
  9
$PUCSORGBACK
 10
0.0
 20
0.0
 30
0.0
  9
$USERI1
 70
     0
  9
$USERI2
 70
     0
  9
$USERI3
 70
     0
  9
$USERI4
 70
     0
  9
$USERI5
 70
     0
  9
$USERR1
 40
0.0
  9
$USERR2
 40
0.0
  9
$USERR3
 40
0.0
  9
$USERR4
 40
0.0
  9
$USERR5
 40
0.0
  9
$WORLDVIEW
 70
     1
  9
$SHADEDGE
 70
     3
  9
$SHADEDIF
 70
    70
  9
$TILEMODE
 70
     0
  9
$MAXACTVP
 70
    64
  9
$PINSBASE
 10
0.0
 20
0.0
 30
0.0
  9
$PLIMCHECK
 70
     0
  9
$PEXTMIN
 10
0.0
 20
0.0
 30
0.0
  9
$PEXTMAX
 10
420.0
 20
297.0
 30
0.0
  9
$PLIMMIN
 10
0.0
 20
0.0
  9
$PLIMMAX
 10
420.0
 20
297.0
  9
$UNITMODE
 70
     0
  9
$VISRETAIN
 70
     1
  9
$PLINEGEN
 70
     0
  9
$PSLTSCALE
 70
     1
  9
$TREEDEPTH
 70
  3020
  9
$CMLSTYLE
  2
Standard
  9
$CMLJUST
 70
     0
  9
$CMLSCALE
 40
1.0
  9
$PROXYGRAPHICS
 70
     1
  9
$MEASUREMENT
 70
     1
  9
$CELWEIGHT
370
    -1
  9
$ENDCAPS
280
     0
  9
$JOINSTYLE
280
     0
  9
$LWDISPLAY
290
     0
  9
$INSUNITS
 70
     4
  9
$HYPERLINKBASE
  1

  9
$STYLESHEET
  1

  9
$XEDIT
290
     1
  9
$CEPSNTYPE
380
     0
  9
$PSTYLEMODE
290
     1
  9
$FINGERPRINTGUID
  2
{3ED953F1-E0CA-4DAC-BDC1-2950E8FCE46F}
  9
$VERSIONGUID
  2
{FAEB1C32-E019-11D5-929B-00C0DF256EC4}
  9
$EXTNAMES
290
     1
  9
$PSVPSCALE
 40
0.0
  9
$OLESTARTUP
290
     0
  9
$SORTENTS
280
   127
  9
$INDEXCTL
280
     0
  9
$HIDETEXT
280
     1
  9
$XCLIPFRAME
280
     2
  9
$HALOGAP
280
     0
  9
$OBSCOLOR
 70
   257
  9
$OBSLTYPE
280
     0
  9
$INTERSECTIONDISPLAY
280
     0
  9
$INTERSECTIONCOLOR
 70
   257
  9
$DIMASSOC
280
     2
  9
$PROJECTNAME
  1

  9
$CAMERADISPLAY
290
     0
  9
$LENSLENGTH
 40
50.0
  9
$CAMERAHEIGHT
 40
0.0
  9
$STEPSPERSEC
 40
2.0
  9
$STEPSIZE
 40
6.0
  9
$3DDWFPREC
 40
2.0
  9
$PSOLWIDTH
 40
0.25
  9
$PSOLHEIGHT
 40
4.0
  9
$LOFTANG1
 40
1.570796326794897
  9
$LOFTANG2
 40
1.570796326794897
  9
$LOFTMAG1
 40
0.0
  9
$LOFTMAG2
 40
0.0
  9
$LOFTPARAM
 70
     7
  9
$LOFTNORMALS
280
     1
  9
$LATITUDE
 40
37.795
  9
$LONGITUDE
 40
-122.394
  9
$NORTHDIRECTION
 40
0.0
  9
$TIMEZONE
 70
 -8000
  9
$LIGHTGLYPHDISPLAY
280
     1
  9
$TILEMODELIGHTSYNCH
280
     1
  9
$SOLIDHIST
280
     0
  9
$SHOWHIST
280
     1
  9
$DWFFRAME
280
     2
  9
$DGNFRAME
280
     2
  9
$REALWORLDSCALE
290
     1
  9
$INTERFERECOLOR
 62
   256
  9
$CSHADOW
280
     0
  9
$SHADOWPLANELOCATION
 40
0.0
  0
ENDSEC
  0
SECTION
  2
CLASSES
  0
CLASS
  1
ACDBDICTIONARYWDFLT
  2
AcDbDictionaryWithDefault
  3
ObjectDBX Classes
 90
        0
 91
        4
280
     0
281
     0
  0
CLASS
  1
ACDBPLACEHOLDER
  2
AcDbPlaceHolder
  3
ObjectDBX Classes
 90
        0
 91
        1
280
     0
281
     0
  0
CLASS
  1
LAYOUT
  2
AcDbLayout
  3
ObjectDBX Classes
 90
        0
 91
        1
280
     0
281
     0
  0
CLASS
  1
SCALE
  2
AcDbScale
  3
ObjectDBX Classes
 90
     1153
 91
        4
280
     0
281
     0
  0
CLASS
  1
VISUALSTYLE
  2
AcDbVisualStyle
  3
ObjectDBX Classes
 90
     4095
 91
        4
280
     0
281
     0
  0
CLASS
  1
MATERIAL
  2
AcDbMaterial
  3
ObjectDBX Classes
 90
     1153
 91
        4
280
     0
281
     0
  0
CLASS
  1
TABLESTYLE
  2
AcDbTableStyle
  3
ObjectDBX Classes
 90
     4095
 91
        4
280
     0
281
     0
  0
CLASS
  1
MLEADERSTYLE
  2
AcDbMLeaderStyle
  3
ACDB_MLEADERSTYLE_CLASS
 90
     4095
 91
        4
280
     0
281
     0
  0
CLASS
  1
DICTIONARYVAR
  2
AcDbDictionaryVar
  3
ObjectDBX Classes
 90
        0
 91
        4
280
     0
281
     0
  0
CLASS
  1
CELLSTYLEMAP
  2
AcDbCellStyleMap
  3
ObjectDBX Classes
 90
     1152
 91
        4
280
     0
281
     0
  0
ENDSEC
  0
SECTION
  2
TABLES
  0
TABLE
  2
VPORT
  5
8
330
0
100
AcDbSymbolTable
 70
     1
  0
VPORT
  5
1F4
330
8
100
AcDbSymbolTableRecord
100
AcDbViewportTableRecord
  2
*ACTIVE
 70
     0
 10
0.0
 20
0.0
 11
1.0
 21
1.0
 12
210.0
 22
148.5
 13
0.0
 23
0.0
 14
1.0
 24
1.0
 15
0.0
 25
0.0
 16
0.0
 26
0.0
 36
1.0
 17
0.0
 27
0.0
 37
0.0
 40
297.0
 41
1.4141414141
 42
50.0
 43
0.0
 44
0.0
 50
0.0
 51
0.0
 71
     0
 72
   100
 73
     1
 74
     1
 75
     0
 76
     0
 77
     0
 78
     0
281
     0
 65
     1
110
0.0
120
0.0
130
0.0
111
1.0
121
0.0
131
0.0
112
0.0
122
1.0
132
0.0
 79
     0
146
0.0
348
4F6
 60
     3
 61
     5
292
     1
282
     1
141
0.0
142
0.0
 63
   256
  0
ENDTAB
  0
TABLE
  2
LTYPE
  5
5
330
0
100
AcDbSymbolTable
 70
     6
  0
LTYPE
  5
14
330
5
100
AcDbSymbolTableRecord
100
AcDbLinetypeTableRecord
  2
BYBLOCK
 70
     0
  3

 72
    65
 73
     0
 40
0.0
  0
LTYPE
  5
15
330
5
100
AcDbSymbolTableRecord
100
AcDbLinetypeTableRecord
  2
BYLAYER
 70
     0
  3

 72
    65
 73
     0
 40
0.0
  0
LTYPE
  5
16
330
5
100
AcDbSymbolTableRecord
100
AcDbLinetypeTableRecord
  2
CONTINUOUS
 70
     0
  3
Solid line
 72
    65
 73
     0
 40
0.0
  0
LTYPE
  5
1F5
330
5
100
AcDbSymbolTableRecord
100
AcDbLinetypeTableRecord
  2
CENTER
 70
     0
  3
____ _ ____ _ ____ _ ____ _ ____ _ ____ _ ____
 72
    65
 73
     4
 40
0.6
 49
0.375
 74
     0
 49
-0.075
 74
     0
 49
0.075
 74
     0
 49
-0.075
 74
     0
  0
LTYPE
  5
1F6
330
5
100
AcDbSymbolTableRecord
100
AcDbLinetypeTableRecord
  2
HIDDEN
 70
     0
  3
- - - - - - - - - - - - - - - - - - - -
 72
    65
 73
     2
 40
0.2
 49
0.1
 74
     0
 49
-0.1
 74
     0
  0
LTYPE
  5
1F7
330
5
100
AcDbSymbolTableRecord
100
AcDbLinetypeTableRecord
  2
PHANTOM
 70
     0
  3
_____ _ _ _____ _ _ _____ _ _ _____
 72
    65
 73
     6
 40
0.8
 49
0.45
 74
     0
 49
-0.05
 74
     0
 49
0.1
 74
     0
 49
-0.05
 74
     0
 49
0.1
 74
     0
 49
-0.05
 74
     0
  0
LTYPE
  5
1F8
330
5
100
AcDbSymbolTableRecord
100
AcDbLinetypeTableRecord
  2
DOT
 70
     0
  3
. . . . . . . . . . . . . . . . . . . .
 72
    65
 73
     2
 40
0.2
 49
0.1
 74
     0
 49
-0.1
 74
     0
  0
LTYPE
  5
1F9
330
5
100
AcDbSymbolTableRecord
100
AcDbLinetypeTableRecord
  2
DASHED
 70
     0
  3
- - - - - - - - - - - - - - - - - - - -
 72
    65
 73
     2
 40
0.2
 49
0.1
 74
     0
 49
-0.1
 74
     0
  0
ENDTAB
  0
TABLE
  2
LAYER
  5
2
330
0
100
AcDbSymbolTable
 70
    38
  0
LAYER
  5
10
330
2
100
AcDbSymbolTableRecord
100
AcDbLayerTableRecord
  2
0
 70
     0
 62
     7
  6
CONTINUOUS
370
    -3
390
F
347
50D
348
0
  0
LAYER
  5
1FA
330
2
100
AcDbSymbolTableRecord
100
AcDbLayerTableRecord
  2
DEFAULT_1
 70
     0
 62
     7
  6
CENTER
370
    -3
390
F
347
50D
348
0
  0
LAYER
  5
1FB
330
2
100
AcDbSymbolTableRecord
100
AcDbLayerTableRecord
  2
DEFAULT_2
 70
     0
 62
     8
  6
HIDDEN
370
    -3
390
F
347
50D
348
0
  0
LAYER
  5
1FC
330
2
100
AcDbSymbolTableRecord
100
AcDbLayerTableRecord
  2
DEFAULT_3
 70
     0
 62
     7
  6
PHANTOM
370
    -3
390
F
347
50D
348
0
  0
LAYER
  5
1FD
330
2
100
AcDbSymbolTableRecord
100
AcDbLayerTableRecord
  2
01_ALL_DTM_PLN
 70
     0
 62
     7
  6
CONTINUOUS
370
    -3
390
F
347
50D
348
0
  0
LAYER
  5
1FE
330
2
100
AcDbSymbolTableRecord
100
AcDbLayerTableRecord
  2
01__ASM_ALL_DTM_PLN
 70
     0
 62
     7
  6
CONTINUOUS
370
    -3
390
F
347
50D
348
0
  0
LAYER
  5
1FF
330
2
100
AcDbSymbolTableRecord
100
AcDbLayerTableRecord
  2
01__ASM_DEF_DTM_PLN
 70
     0
 62
     7
  6
CONTINUOUS
370
    -3
390
F
347
50D
348
0
  0
LAYER
  5
200
330
2
100
AcDbSymbolTableRecord
100
AcDbLayerTableRecord
  2
01___PRT_ALL_DTM_PLN
 70
     0
 62
     7
  6
CONTINUOUS
370
    -3
390
F
347
50D
348
0
  0
LAYER
  5
201
330
2
100
AcDbSymbolTableRecord
100
AcDbLayerTableRecord
  2
01___PRT_DEF_DTM_PLN
 70
     0
 62
     7
  6
CONTINUOUS
370
    -3
390
F
347
50D
348
0
  0
LAYER
  5
202
330
2
100
AcDbSymbolTableRecord
100
AcDbLayerTableRecord
  2
02_ALL_AXES
 70
     0
 62
     7
  6
CONTINUOUS
370
    -3
390
F
347
50D
348
0
  0
LAYER
  5
203
330
2
100
AcDbSymbolTableRecord
100
AcDbLayerTableRecord
  2
02__ASM_ALL_AXES
 70
     0
 62
     7
  6
CONTINUOUS
370
    -3
390
F
347
50D
348
0
  0
LAYER
  5
204
330
2
100
AcDbSymbolTableRecord
100
AcDbLayerTableRecord
  2
02___PRT_ALL_AXES
 70
     0
 62
     7
  6
CONTINUOUS
370
    -3
390
F
347
50D
348
0
  0
LAYER
  5
205
330
2
100
AcDbSymbolTableRecord
100
AcDbLayerTableRecord
  2
03_ALL_CURVES
 70
     0
 62
     7
  6
CONTINUOUS
370
    -3
390
F
347
50D
348
0
  0
LAYER
  5
206
330
2
100
AcDbSymbolTableRecord
100
AcDbLayerTableRecord
  2
03__ASM_ALL_CURVES
 70
     0
 62
     7
  6
CONTINUOUS
370
    -3
390
F
347
50D
348
0
  0
LAYER
  5
207
330
2
100
AcDbSymbolTableRecord
100
AcDbLayerTableRecord
  2
03___PRT_ALL_CURVES
 70
     0
 62
     7
  6
CONTINUOUS
370
    -3
390
F
347
50D
348
0
  0
LAYER
  5
208
330
2
100
AcDbSymbolTableRecord
100
AcDbLayerTableRecord
  2
04_ALL_DTM_PNT
 70
     0
 62
     7
  6
CONTINUOUS
370
    -3
390
F
347
50D
348
0
  0
LAYER
  5
209
330
2
100
AcDbSymbolTableRecord
100
AcDbLayerTableRecord
  2
04__ASM_ALL_DTM_PNT
 70
     0
 62
     7
  6
CONTINUOUS
370
    -3
390
F
347
50D
348
0
  0
LAYER
  5
20A
330
2
100
AcDbSymbolTableRecord
100
AcDbLayerTableRecord
  2
04___PRT_ALL_DTM_PNT
 70
     0
 62
     7
  6
CONTINUOUS
370
    -3
390
F
347
50D
348
0
  0
LAYER
  5
20B
330
2
100
AcDbSymbolTableRecord
100
AcDbLayerTableRecord
  2
05_ALL_DTM_CSYS
 70
     0
 62
     7
  6
CONTINUOUS
370
    -3
390
F
347
50D
348
0
  0
LAYER
  5
20C
330
2
100
AcDbSymbolTableRecord
100
AcDbLayerTableRecord
  2
05__ASM_ALL_DTM_CSYS
 70
     0
 62
     7
  6
CONTINUOUS
370
    -3
390
F
347
50D
348
0
  0
LAYER
  5
20D
330
2
100
AcDbSymbolTableRecord
100
AcDbLayerTableRecord
  2
05__ASM_DEF_DTM_CSYS
 70
     0
 62
     7
  6
CONTINUOUS
370
    -3
390
F
347
50D
348
0
  0
LAYER
  5
20E
330
2
100
AcDbSymbolTableRecord
100
AcDbLayerTableRecord
  2
05___PRT_ALL_DTM_CSYS
 70
     0
 62
     7
  6
CONTINUOUS
370
    -3
390
F
347
50D
348
0
  0
LAYER
  5
20F
330
2
100
AcDbSymbolTableRecord
100
AcDbLayerTableRecord
  2
05___PRT_DEF_DTM_CSYS
 70
     0
 62
     7
  6
CONTINUOUS
370
    -3
390
F
347
50D
348
0
  0
LAYER
  5
210
330
2
100
AcDbSymbolTableRecord
100
AcDbLayerTableRecord
  2
06_ALL_SURFS
 70
     0
 62
     7
  6
CONTINUOUS
370
    -3
390
F
347
50D
348
0
  0
LAYER
  5
211
330
2
100
AcDbSymbolTableRecord
100
AcDbLayerTableRecord
  2
06__ASM_ALL_SURFS
 70
     0
 62
     7
  6
CONTINUOUS
370
    -3
390
F
347
50D
348
0
  0
LAYER
  5
212
330
2
100
AcDbSymbolTableRecord
100
AcDbLayerTableRecord
  2
06___PRT_ALL_SURFS
 70
     0
 62
     7
  6
CONTINUOUS
370
    -3
390
F
347
50D
348
0
  0
LAYER
  5
213
330
2
100
AcDbSymbolTableRecord
100
AcDbLayerTableRecord
  2
07__ASM_ALL_SKELETONS
 70
     0
 62
     7
  6
CONTINUOUS
370
    -3
390
F
347
50D
348
0
  0
LAYER
  5
214
330
2
100
AcDbSymbolTableRecord
100
AcDbLayerTableRecord
  2
1_ALL_PLANES
 70
     0
 62
     7
  6
CONTINUOUS
370
    -3
390
F
347
50D
348
0
  0
LAYER
  5
215
330
2
100
AcDbSymbolTableRecord
100
AcDbLayerTableRecord
  2
2_ALL_CSYS
 70
     0
 62
     7
  6
CONTINUOUS
370
    -3
390
F
347
50D
348
0
  0
LAYER
  5
216
330
2
100
AcDbSymbolTableRecord
100
AcDbLayerTableRecord
  2
3_ALL_AXES
 70
     0
 62
     7
  6
CONTINUOUS
370
    -3
390
F
347
50D
348
0
  0
LAYER
  5
217
330
2
100
AcDbSymbolTableRecord
100
AcDbLayerTableRecord
  2
4_ALL_POINTS
 70
     0
 62
     7
  6
CONTINUOUS
370
    -3
390
F
347
50D
348
0
  0
LAYER
  5
218
330
2
100
AcDbSymbolTableRecord
100
AcDbLayerTableRecord
  2
5_ALL_CURVES
 70
     0
 62
     7
  6
CONTINUOUS
370
    -3
390
F
347
50D
348
0
  0
LAYER
  5
219
330
2
100
AcDbSymbolTableRecord
100
AcDbLayerTableRecord
  2
5__COSTRUZIONE
 70
     0
 62
     7
  6
CONTINUOUS
370
    -3
390
F
347
50D
348
0
  0
LAYER
  5
21A
330
2
100
AcDbSymbolTableRecord
100
AcDbLayerTableRecord
  2
6_ALL_SURFS
 70
     0
 62
     7
  6
CONTINUOUS
370
    -3
390
F
347
50D
348
0
  0
LAYER
  5
21B
330
2
100
AcDbSymbolTableRecord
100
AcDbLayerTableRecord
  2
7_ALL_FEATURES
 70
     0
 62
     7
  6
CONTINUOUS
370
    -3
390
F
347
50D
348
0
  0
LAYER
  5
21C
330
2
100
AcDbSymbolTableRecord
100
AcDbLayerTableRecord
  2
9_SOLID
 70
     0
 62
     7
  6
CONTINUOUS
370
    -3
390
F
347
50D
348
0
  0
LAYER
  5
21D
330
2
100
AcDbSymbolTableRecord
100
AcDbLayerTableRecord
  2
INTFCLR_2
 70
     0
 62
     7
  6
CONTINUOUS
370
    -3
390
F
347
50D
348
0
  0
LAYER
  5
21E
330
2
100
AcDbSymbolTableRecord
100
AcDbLayerTableRecord
  2
XXX_SOLIDO
 70
     0
 62
     7
  6
CONTINUOUS
370
    -3
390
F
347
50D
348
0
  0
ENDTAB
  0
TABLE
  2
STYLE
  5
3
330
0
100
AcDbSymbolTable
 70
     4
  0
STYLE
  5
11
330
3
100
AcDbSymbolTableRecord
100
AcDbTextStyleTableRecord
  2
STANDARD
 70
     0
 40
0.0
 41
1.0
 50
0.0
 71
     0
 42
0.2
  3
arial.ttf
  4

  0
STYLE
  5
21F
330
3
100
AcDbSymbolTableRecord
100
AcDbTextStyleTableRecord
  2
TEXTSTYLE_1
 70
     0
 40
0.0
 41
0.8
 50
0.0
 71
     0
 42
0.2
  3
gdt
  4

  0
STYLE
  5
220
330
3
100
AcDbSymbolTableRecord
100
AcDbTextStyleTableRecord
  2
TEXTSTYLE_2
 70
     0
 40
0.0
 41
0.85
 50
0.0
 71
     0
 42
0.2
  3
gdt
  4

  0
STYLE
  5
221
330
3
100
AcDbSymbolTableRecord
100
AcDbTextStyleTableRecord
  2
TEXTSTYLE_3
 70
     0
 40
0.0
 41
0.85
 50
0.0
 71
     0
 42
0.2
  3
txt
  4

  0
ENDTAB
  0
TABLE
  2
VIEW
  5
6
330
0
100
AcDbSymbolTable
 70
     0
  0
ENDTAB
  0
TABLE
  2
UCS
  5
7
330
0
100
AcDbSymbolTable
 70
     0
  0
ENDTAB
  0
TABLE
  2
APPID
  5
9
330
0
100
AcDbSymbolTable
 70
     1
  0
APPID
  5
222
330
9
100
AcDbSymbolTableRecord
100
AcDbRegAppTableRecord
  2
ACAD
 70
     0
  0
ENDTAB
  0
TABLE
  2
DIMSTYLE
  5
A
330
0
100
AcDbSymbolTable
 70
     3
100
AcDbDimStyleTable
  0
DIMSTYLE
105
22C
330
A
100
AcDbSymbolTableRecord
100
AcDbDimStyleTableRecord
  2
STANDARD
 70
     0
 41
2.5
 42
0.75
 44
0.75
 47
0.01
 48
0.01
 71
     1
 73
     0
 74
     0
 77
     1
 78
     8
 79
     2
140
3.0
147
0.625
171
     1
178
     0
179
     2
271
     2
272
     2
278
    44
284
     8
340
11
341
225
342
225
343
225
344
225
  0
DIMSTYLE
105
22D
330
A
100
AcDbSymbolTableRecord
100
AcDbDimStyleTableRecord
  2
DIMSTYLE_1
 70
     0
 41
2.5
 42
0.75
 44
0.75
 47
0.3
 48
0.3
 73
     0
 74
     0
 77
     1
 78
     8
 79
     2
140
3.0
147
0.75
171
     1
178
     0
179
     2
271
     2
272
     2
278
    44
284
     8
340
11
341
225
342
225
343
225
344
225
  0
DIMSTYLE
105
22E
330
A
100
AcDbSymbolTableRecord
100
AcDbDimStyleTableRecord
  2
DIMSTYLE_2
 70
     0
 41
2.5
 42
0.75
 44
0.75
 47
0.5
 48
0.5
 73
     0
 74
     0
 77
     1
 78
     8
 79
     2
140
3.0
147
0.75
171
     1
178
     0
179
     2
271
     2
272
     2
278
    44
284
     8
340
11
341
225
342
225
343
225
344
225
  0
ENDTAB
  0
TABLE
  2
BLOCK_RECORD
  5
1
330
0
100
AcDbSymbolTable
 70
     7
  0
BLOCK_RECORD
  5
223
330
1
100
AcDbSymbolTableRecord
100
AcDbBlockTableRecord
  2
*Model_Space
340
4CD
 70
     0
280
     1
281
     0
  0
BLOCK_RECORD
  5
224
330
1
100
AcDbSymbolTableRecord
100
AcDbBlockTableRecord
  2
*Paper_Space
340
4CE
 70
     0
280
     1
281
     0
  0
BLOCK_RECORD
  5
225
330
1
100
AcDbSymbolTableRecord
100
AcDbBlockTableRecord
  2
_CLOSED
340
0
102
{BLKREFS
331
277
331
278
331
280
331
281
331
289
331
28A
331
292
331
293
331
29B
331
29C
102
}
 70
     0
280
     1
281
     0
  0
BLOCK_RECORD
  5
226
330
1
100
AcDbSymbolTableRecord
100
AcDbBlockTableRecord
  2
*D1
340
0
 70
     0
280
     1
281
     0
  0
BLOCK_RECORD
  5
227
330
1
100
AcDbSymbolTableRecord
100
AcDbBlockTableRecord
  2
*D2
340
0
 70
     0
280
     1
281
     0
  0
BLOCK_RECORD
  5
228
330
1
100
AcDbSymbolTableRecord
100
AcDbBlockTableRecord
  2
*D3
340
0
 70
     0
280
     1
281
     0
  0
BLOCK_RECORD
  5
229
330
1
100
AcDbSymbolTableRecord
100
AcDbBlockTableRecord
  2
*D4
340
0
 70
     0
280
     1
281
     0
  0
BLOCK_RECORD
  5
22A
330
1
100
AcDbSymbolTableRecord
100
AcDbBlockTableRecord
  2
*D5
340
0
 70
     0
280
     1
281
     0
  0
BLOCK_RECORD
  5
22B
330
1
100
AcDbSymbolTableRecord
100
AcDbBlockTableRecord
  2
LOGO2_BL0
340
0
102
{BLKREFS
331
4C5
102
}
 70
     0
280
     1
281
     0
  0
ENDTAB
  0
ENDSEC
  0
SECTION
  2
BLOCKS
  0
BLOCK
  5
20
330
223
100
AcDbEntity
  8
0
100
AcDbBlockBegin
  2
*Model_Space
 70
     0
 10
0.0
 20
0.0
 30
0.0
  3
*Model_Space
  1

  0
ENDBLK
  5
21
330
223
100
AcDbEntity
  8
0
100
AcDbBlockEnd
  0
BLOCK
  5
1C
330
224
100
AcDbEntity
 67
     1
  8
0
100
AcDbBlockBegin
  2
*Paper_Space
 70
     0
 10
0.0
 20
0.0
 30
0.0
  3
*Paper_Space
  1

  0
ENDBLK
  5
1D
330
224
100
AcDbEntity
 67
     1
  8
0
100
AcDbBlockEnd
  0
BLOCK
  5
26B
330
225
100
AcDbEntity
  8
0
100
AcDbBlockBegin
  2
_CLOSED
 70
     0
 10
0.0
 20
0.0
 30
0.0
  3
_CLOSED
  1

  0
LINE
  5
26C
330
225
100
AcDbEntity
  8
0
  6
ByBlock
 62
     0
100
AcDbLine
 10
0.0
 20
0.0
 30
0.0
 11
-1.0
 21
0.2
 31
0.0
  0
LINE
  5
26D
330
225
100
AcDbEntity
  8
0
  6
ByBlock
 62
     0
100
AcDbLine
 10
-1.0
 20
0.2
 30
0.0
 11
-1.0
 21
-0.2
 31
0.0
  0
LINE
  5
26E
330
225
100
AcDbEntity
  8
0
  6
ByBlock
 62
     0
100
AcDbLine
 10
-1.0
 20
-0.2
 30
0.0
 11
0.0
 21
0.0
 31
0.0
  0
LINE
  5
26F
330
225
100
AcDbEntity
  8
0
  6
ByBlock
 62
     0
100
AcDbLine
 10
-1.0
 20
0.0
 30
0.0
 11
0.0
 21
0.0
 31
0.0
  0
ENDBLK
  5
270
330
225
100
AcDbEntity
  8
0
  6
ByBlock
 62
     0
100
AcDbBlockEnd
  0
BLOCK
  5
271
330
226
100
AcDbEntity
  8
0
100
AcDbBlockBegin
  2
*D1
 70
     1
 10
0.0
 20
0.0
 30
0.0
  3
*D1
  1

  0
MTEXT
  5
272
330
226
100
AcDbEntity
  8
0
  6
Continuous
 62
     2
100
AcDbMText
 10
27.4039678427
 20
214.6597743811
 30
0.0
 40
3.0
 41
12.1524163569
 46
0.0
 71
     2
 72
     1
  1
{\Fgdt;n}\Farial.ttf;59,5
  7
TEXTSTYLE_2
 11
0.0
 21
1.0
 31
0.0
 73
     1
 44
0.9
  0
LINE
  5
273
330
226
100
AcDbEntity
  8
0
  6
Continuous
 62
     2
100
AcDbLine
 10
47.1739061222
 20
244.4097743811
 30
0.0
 11
30.4039678427
 21
244.4097743811
 31
0.0
  0
LINE
  5
274
330
226
100
AcDbEntity
  8
0
  6
Continuous
 62
     2
100
AcDbLine
 10
47.6582843202
 20
184.9097743811
 30
0.0
 11
30.4039678427
 21
184.9097743811
 31
0.0
  0
LINE
  5
275
330
226
100
AcDbEntity
  8
0
  6
Continuous
 62
     2
100
AcDbLine
 10
31.1539678427
 20
244.4097743811
 30
0.0
 11
31.1539678427
 21
214.6597743811
 31
0.0
  0
LINE
  5
276
330
226
100
AcDbEntity
  8
0
  6
Continuous
 62
     2
100
AcDbLine
 10
31.1539678427
 20
184.9097743811
 30
0.0
 11
31.1539678427
 21
214.6597743811
 31
0.0
  0
INSERT
  5
277
330
226
100
AcDbEntity
  8
0
  6
Continuous
 62
     2
100
AcDbBlockReference
  2
_CLOSED
 10
31.1539678427
 20
244.4097743811
 30
0.0
 41
2.5
 42
2.5
 43
2.5
 50
90.0
  0
INSERT
  5
278
330
226
100
AcDbEntity
  8
0
  6
Continuous
 62
     2
100
AcDbBlockReference
  2
_CLOSED
 10
31.1539678427
 20
184.9097743811
 30
0.0
 41
2.5
 42
2.5
 43
2.5
 50
270.0
  0
ENDBLK
  5
279
330
226
100
AcDbEntity
  8
0
  6
ByBlock
 62
     0
100
AcDbBlockEnd
  0
BLOCK
  5
27A
330
227
100
AcDbEntity
  8
0
100
AcDbBlockBegin
  2
*D2
 70
     1
 10
0.0
 20
0.0
 30
0.0
  3
*D2
  1

  0
MTEXT
  5
27B
330
227
100
AcDbEntity
  8
0
  6
Continuous
 62
     2
100
AcDbMText
 10
372.3436650209
 20
197.0347743811
 30
0.0
 40
3.0
 41
10.4832713755
 46
0.0
 71
     2
 72
     1
  1
94,75
 11
0.0
 21
1.0
 31
0.0
 73
     1
 44
0.9
  0
LINE
  5
27C
330
227
100
AcDbEntity
  8
0
  6
Continuous
 62
     2
100
AcDbLine
 10
352.2057468897
 20
149.6597743811
 30
0.0
 11
376.8436650209
 21
149.6597743811
 31
0.0
  0
LINE
  5
27D
330
227
100
AcDbEntity
  8
0
  6
Continuous
 62
     2
100
AcDbLine
 10
348.8704648394
 20
244.4097743811
 30
0.0
 11
376.8436650209
 21
244.4097743811
 31
0.0
  0
LINE
  5
27E
330
227
100
AcDbEntity
  8
0
  6
Continuous
 62
     2
100
AcDbLine
 10
376.0936650209
 20
149.6597743811
 30
0.0
 11
376.0936650209
 21
197.0347743811
 31
0.0
  0
LINE
  5
27F
330
227
100
AcDbEntity
  8
0
  6
Continuous
 62
     2
100
AcDbLine
 10
376.0936650209
 20
244.4097743811
 30
0.0
 11
376.0936650209
 21
197.0347743811
 31
0.0
  0
INSERT
  5
280
330
227
100
AcDbEntity
  8
0
  6
Continuous
 62
     2
100
AcDbBlockReference
  2
_CLOSED
 10
376.0936650209
 20
149.6597743811
 30
0.0
 41
2.5
 42
2.5
 43
2.5
 50
270.0
  0
INSERT
  5
281
330
227
100
AcDbEntity
  8
0
  6
Continuous
 62
     2
100
AcDbBlockReference
  2
_CLOSED
 10
376.0936650209
 20
244.4097743811
 30
0.0
 41
2.5
 42
2.5
 43
2.5
 50
90.0
  0
ENDBLK
  5
282
330
227
100
AcDbEntity
  8
0
  6
ByBlock
 62
     0
100
AcDbBlockEnd
  0
BLOCK
  5
283
330
228
100
AcDbEntity
  8
0
100
AcDbBlockBegin
  2
*D3
 70
     1
 10
0.0
 20
0.0
 30
0.0
  3
*D3
  1

  0
MTEXT
  5
284
330
228
100
AcDbEntity
  8
0
  6
Continuous
 62
     2
100
AcDbMText
 10
98.0226446831
 20
263.7158022028
 30
0.0
 40
3.0
 41
4.6617100372
 46
0.0
 71
     2
 72
     1
  1
95
 73
     1
 44
0.9
  0
LINE
  5
285
330
228
100
AcDbEntity
  8
0
  6
Continuous
 62
     2
100
AcDbLine
 10
50.5226446831
 20
247.8733405658
 30
0.0
 11
50.5226446831
 21
260.7158022028
 31
0.0
  0
LINE
  5
286
330
228
100
AcDbEntity
  8
0
  6
Continuous
 62
     2
100
AcDbLine
 10
145.5226446831
 20
246.6129089751
 30
0.0
 11
145.5226446831
 21
260.7158022028
 31
0.0
  0
LINE
  5
287
330
228
100
AcDbEntity
  8
0
  6
Continuous
 62
     2
100
AcDbLine
 10
50.5226446831
 20
259.9658022028
 30
0.0
 11
98.0226446831
 21
259.9658022028
 31
0.0
  0
LINE
  5
288
330
228
100
AcDbEntity
  8
0
  6
Continuous
 62
     2
100
AcDbLine
 10
145.5226446831
 20
259.9658022028
 30
0.0
 11
98.0226446831
 21
259.9658022028
 31
0.0
  0
INSERT
  5
289
330
228
100
AcDbEntity
  8
0
  6
Continuous
 62
     2
100
AcDbBlockReference
  2
_CLOSED
 10
50.5226446831
 20
259.9658022028
 30
0.0
 41
2.5
 42
2.5
 43
2.5
 50
180.0
  0
INSERT
  5
28A
330
228
100
AcDbEntity
  8
0
  6
Continuous
 62
     2
100
AcDbBlockReference
  2
_CLOSED
 10
145.5226446831
 20
259.9658022028
 30
0.0
 41
2.5
 42
2.5
 43
2.5
  0
ENDBLK
  5
28B
330
228
100
AcDbEntity
  8
0
  6
ByBlock
 62
     0
100
AcDbBlockEnd
  0
BLOCK
  5
28C
330
229
100
AcDbEntity
  8
0
100
AcDbBlockBegin
  2
*D4
 70
     1
 10
0.0
 20
0.0
 30
0.0
  3
*D4
  1

  0
MTEXT
  5
28D
330
229
100
AcDbEntity
  8
0
  6
Continuous
 62
     2
100
AcDbMText
 10
112.4976446831
 20
279.9559000911
 30
0.0
 40
3.0
 41
12.8141263941
 46
0.0
 71
     2
 72
     1
  1
123,95
 73
     1
 44
0.9
  0
LINE
  5
28E
330
229
100
AcDbEntity
  8
0
  6
Continuous
 62
     2
100
AcDbLine
 10
50.5226446831
 20
249.1650157605
 30
0.0
 11
50.5226446831
 21
276.9559000911
 31
0.0
  0
LINE
  5
28F
330
229
100
AcDbEntity
  8
0
  6
Continuous
 62
     2
100
AcDbLine
 10
174.4726446831
 20
244.4828466837
 30
0.0
 11
174.4726446831
 21
276.9559000911
 31
0.0
  0
LINE
  5
290
330
229
100
AcDbEntity
  8
0
  6
Continuous
 62
     2
100
AcDbLine
 10
50.5226446831
 20
276.2059000911
 30
0.0
 11
112.4976446831
 21
276.2059000911
 31
0.0
  0
LINE
  5
291
330
229
100
AcDbEntity
  8
0
  6
Continuous
 62
     2
100
AcDbLine
 10
174.4726446831
 20
276.2059000911
 30
0.0
 11
112.4976446831
 21
276.2059000911
 31
0.0
  0
INSERT
  5
292
330
229
100
AcDbEntity
  8
0
  6
Continuous
 62
     2
100
AcDbBlockReference
  2
_CLOSED
 10
50.5226446831
 20
276.2059000911
 30
0.0
 41
2.5
 42
2.5
 43
2.5
 50
180.0
  0
INSERT
  5
293
330
229
100
AcDbEntity
  8
0
  6
Continuous
 62
     2
100
AcDbBlockReference
  2
_CLOSED
 10
174.4726446831
 20
276.2059000911
 30
0.0
 41
2.5
 42
2.5
 43
2.5
  0
ENDBLK
  5
294
330
229
100
AcDbEntity
  8
0
  6
ByBlock
 62
     0
100
AcDbBlockEnd
  0
BLOCK
  5
295
330
22A
100
AcDbEntity
  8
0
100
AcDbBlockBegin
  2
*D5
 70
     1
 10
0.0
 20
0.0
 30
0.0
  3
*D5
  1

  0
MTEXT
  5
296
330
22A
100
AcDbEntity
  8
0
  6
Continuous
 62
     2
100
AcDbMText
 10
316.0304092221
 20
127.2355892155
 30
0.0
 40
3.0
 41
8.1524163569
 46
0.0
 71
     2
 72
     1
  1
65,5
 73
     1
 44
0.9
  0
LINE
  5
297
330
22A
100
AcDbEntity
  8
0
  6
Continuous
 62
     2
100
AcDbLine
 10
283.2804092221
 20
145.5462163464
 30
0.0
 11
283.2804092221
 21
122.7355892155
 31
0.0
  0
LINE
  5
298
330
22A
100
AcDbEntity
  8
0
  6
Continuous
 62
     2
100
AcDbLine
 10
348.7804092221
 20
146.6208901084
 30
0.0
 11
348.7804092221
 21
122.7355892155
 31
0.0
  0
LINE
  5
299
330
22A
100
AcDbEntity
  8
0
  6
Continuous
 62
     2
100
AcDbLine
 10
283.2804092221
 20
123.4855892155
 30
0.0
 11
316.0304092221
 21
123.4855892155
 31
0.0
  0
LINE
  5
29A
330
22A
100
AcDbEntity
  8
0
  6
Continuous
 62
     2
100
AcDbLine
 10
348.7804092221
 20
123.4855892155
 30
0.0
 11
316.0304092221
 21
123.4855892155
 31
0.0
  0
INSERT
  5
29B
330
22A
100
AcDbEntity
  8
0
  6
Continuous
 62
     2
100
AcDbBlockReference
  2
_CLOSED
 10
283.2804092221
 20
123.4855892155
 30
0.0
 41
2.5
 42
2.5
 43
2.5
 50
180.0
  0
INSERT
  5
29C
330
22A
100
AcDbEntity
  8
0
  6
Continuous
 62
     2
100
AcDbBlockReference
  2
_CLOSED
 10
348.7804092221
 20
123.4855892155
 30
0.0
 41
2.5
 42
2.5
 43
2.5
  0
ENDBLK
  5
29D
330
22A
100
AcDbEntity
  8
0
  6
ByBlock
 62
     0
100
AcDbBlockEnd
  0
BLOCK
  5
22F
330
22B
100
AcDbEntity
  8
0
100
AcDbBlockBegin
  2
LOGO2_BL0
 70
     0
 10
333.6475659158
 20
36.9217920391
 30
0.0
  3
LOGO2_BL0
  1

  0
LINE
  5
230
330
22B
100
AcDbEntity
  8
0
  6
Continuous
 62
     7
100
AcDbLine
 10
325.390491144
 20
40.1172833779
 30
0.0
 11
324.0861502147
 21
40.1172833779
 31
0.0
  0
LINE
  5
231
330
22B
100
AcDbEntity
  8
0
  6
Continuous
 62
     7
100
AcDbLine
 10
324.0861502147
 20
40.1172833779
 30
0.0
 11
324.0861502147
 21
29.6582173181
 31
0.0
  0
LINE
  5
232
330
22B
100
AcDbEntity
  8
0
  6
Continuous
 62
     7
100
AcDbLine
 10
324.0861502147
 20
29.6582173181
 30
0.0
 11
328.567205103
 21
29.6582173181
 31
0.0
  0
LINE
  5
233
330
22B
100
AcDbEntity
  8
0
  6
Continuous
 62
     7
100
AcDbLine
 10
328.567205103
 20
29.6582173181
 30
0.0
 11
328.567205103
 21
30.8510716431
 31
0.0
  0
LINE
  5
234
330
22B
100
AcDbEntity
  8
0
  6
Continuous
 62
     7
100
AcDbLine
 10
328.567205103
 20
30.8510716431
 30
0.0
 11
325.390491144
 21
30.8510716431
 31
0.0
  0
LINE
  5
235
330
22B
100
AcDbEntity
  8
0
  6
Continuous
 62
     7
100
AcDbLine
 10
325.390491144
 20
30.8510716431
 30
0.0
 11
325.390491144
 21
40.1172833779
 31
0.0
  0
LINE
  5
236
330
22B
100
AcDbEntity
  8
0
  6
Continuous
 62
     7
100
AcDbLine
 10
340.3268173604
 20
40.1172833779
 30
0.0
 11
339.0229998423
 21
40.1172833779
 31
0.0
  0
LINE
  5
237
330
22B
100
AcDbEntity
  8
0
  6
Continuous
 62
     7
100
AcDbLine
 10
339.0229998423
 20
40.1172833779
 30
0.0
 11
339.0229998423
 21
29.6582173181
 31
0.0
  0
LINE
  5
238
330
22B
100
AcDbEntity
  8
0
  6
Continuous
 62
     7
100
AcDbLine
 10
339.0229998423
 20
29.6582173181
 30
0.0
 11
343.5041855834
 21
29.6582173181
 31
0.0
  0
LINE
  5
239
330
22B
100
AcDbEntity
  8
0
  6
Continuous
 62
     7
100
AcDbLine
 10
343.5041855834
 20
29.6582173181
 30
0.0
 11
343.5041855834
 21
30.8510716431
 31
0.0
  0
LINE
  5
23A
330
22B
100
AcDbEntity
  8
0
  6
Continuous
 62
     7
100
AcDbLine
 10
343.5041855834
 20
30.8510716431
 30
0.0
 11
340.3268173604
 21
30.8510716431
 31
0.0
  0
LINE
  5
23B
330
22B
100
AcDbEntity
  8
0
  6
Continuous
 62
     7
100
AcDbLine
 10
340.3268173604
 20
30.8510716431
 30
0.0
 11
340.3268173604
 21
40.1172833779
 31
0.0
  0
LWPOLYLINE
  5
23C
330
22B
100
AcDbEntity
  8
0
  6
Continuous
 62
     7
100
AcDbPolyline
 90
        2
 70
     0
 43
0.2
 10
322.4405451256
 20
26.3146660112
 10
322.4405451256
 20
24.4576027618
  0
LWPOLYLINE
  5
23D
330
22B
100
AcDbEntity
  8
0
  6
Continuous
 62
     7
100
AcDbPolyline
 90
        2
 70
     0
 43
0.2
 10
322.4405451256
 20
24.4576027618
 10
323.236261136
 20
24.4576027618
  0
LWPOLYLINE
  5
23E
330
22B
100
AcDbEntity
  8
0
  6
Continuous
 62
     7
100
AcDbPolyline
 90
        2
 70
     0
 43
0.2
 10
323.236261136
 20
24.4576027618
 10
323.236261136
 20
24.6695843334
  0
LWPOLYLINE
  5
23F
330
22B
100
AcDbEntity
  8
0
  6
Continuous
 62
     7
100
AcDbPolyline
 90
        2
 70
     0
 43
0.2
 10
323.236261136
 20
24.6695843334
 10
322.6721546205
 20
24.6695843334
  0
LWPOLYLINE
  5
240
330
22B
100
AcDbEntity
  8
0
  6
Continuous
 62
     7
100
AcDbPolyline
 90
        2
 70
     0
 43
0.2
 10
322.6721546205
 20
24.6695843334
 10
322.6721546205
 20
26.3146660112
  0
LWPOLYLINE
  5
241
330
22B
100
AcDbEntity
  8
0
  6
Continuous
 62
     7
100
AcDbPolyline
 90
        2
 70
     0
 43
0.2
 10
322.6721546205
 20
26.3146660112
 10
322.4405451256
 20
26.3146660112
  0
SPLINE
  5
242
330
22B
100
AcDbEntity
  8
0
  6
Continuous
 62
     7
100
AcDbSpline
 70
     3
 71
     3
 72
    35
 73
    31
 74
     0
 42
0.000000001
 43
0.0000001
 40
0.0
 40
0.0
 40
0.0
 40
0.0
 40
1.0
 40
1.0
 40
1.0
 40
2.0
 40
2.0
 40
2.0
 40
3.0
 40
3.0
 40
3.0
 40
4.0
 40
4.0
 40
4.0
 40
5.0
 40
5.0
 40
5.0
 40
6.0
 40
6.0
 40
6.0
 40
7.0
 40
7.0
 40
7.0
 40
8.0
 40
8.0
 40
8.0
 40
9.0
 40
9.0
 40
9.0
 40
10.0
 40
10.0
 40
10.0
 40
10.0
 10
324.6345543915
 20
25.6101544177
 30
0.0
 10
324.6345543915
 20
25.6101544177
 30
0.0
 10
324.6345543915
 20
24.9480391385
 30
0.0
 10
324.6345543915
 20
24.9480391385
 30
0.0
 10
324.6345543915
 20
24.6329455432
 30
0.0
 10
324.7824180804
 20
24.4183469152
 30
0.0
 10
325.1225045647
 20
24.4183469152
 30
0.0
 10
325.4620676377
 20
24.4183469152
 30
0.0
 10
325.6101930321
 20
24.6329455432
 30
0.0
 10
325.6101930321
 20
24.9480391385
 30
0.0
 10
325.6101930321
 20
24.9480391385
 30
0.0
 10
325.6101930321
 20
25.6101544177
 30
0.0
 10
325.6101930321
 20
25.6101544177
 30
0.0
 10
325.6101930321
 20
25.6101544177
 30
0.0
 10
325.3881357933
 20
25.6101544177
 30
0.0
 10
325.3881357933
 20
25.6101544177
 30
0.0
 10
325.3881357933
 20
25.6101544177
 30
0.0
 10
325.3881357933
 20
24.9731628803
 30
0.0
 10
325.3881357933
 20
24.9731628803
 30
0.0
 10
325.3881357933
 20
24.7873518732
 30
0.0
 10
325.3414213358
 20
24.6245709626
 30
0.0
 10
325.1225045647
 20
24.6245709626
 30
0.0
 10
324.9030643822
 20
24.6245709626
 30
0.0
 10
324.8563499248
 20
24.7873518732
 30
0.0
 10
324.8563499248
 20
24.9731628803
 30
0.0
 10
324.8563499248
 20
24.9731628803
 30
0.0
 10
324.8563499248
 20
25.6101544177
 30
0.0
 10
324.8563499248
 20
25.6101544177
 30
0.0
 10
324.8563499248
 20
25.6101544177
 30
0.0
 10
324.6345543915
 20
25.6101544177
 30
0.0
 10
324.6345543915
 20
25.6101544177
 30
0.0
  0
SPLINE
  5
243
330
22B
100
AcDbEntity
  8
0
  6
Continuous
 62
     7
100
AcDbSpline
 70
     3
 71
     3
 72
    35
 73
    31
 74
     0
 42
0.000000001
 43
0.0000001
 40
0.0
 40
0.0
 40
0.0
 40
0.0
 40
1.0
 40
1.0
 40
1.0
 40
2.0
 40
2.0
 40
2.0
 40
3.0
 40
3.0
 40
3.0
 40
4.0
 40
4.0
 40
4.0
 40
5.0
 40
5.0
 40
5.0
 40
6.0
 40
6.0
 40
6.0
 40
7.0
 40
7.0
 40
7.0
 40
8.0
 40
8.0
 40
8.0
 40
9.0
 40
9.0
 40
9.0
 40
10.0
 40
10.0
 40
10.0
 40
10.0
 10
328.0333255893
 20
25.5688049259
 30
0.0
 10
327.9448690817
 20
25.6200992322
 30
0.0
 10
327.831419685
 20
25.645222974
 30
0.0
 10
327.72778425
 20
25.645222974
 30
0.0
 10
327.3729113969
 20
25.645222974
 30
0.0
 10
327.0974662066
 20
25.3814236849
 30
0.0
 10
327.0974662066
 20
25.0239337753
 30
0.0
 10
327.0974662066
 20
24.6790057366
 30
0.0
 10
327.3759210118
 20
24.4188703265
 30
0.0
 10
327.7154840848
 20
24.4188703265
 30
0.0
 10
327.831419685
 20
24.4188703265
 30
0.0
 10
327.9321763579
 20
24.4408536006
 30
0.0
 10
328.0333255893
 20
24.4947649632
 30
0.0
 10
328.0333255893
 20
24.4947649632
 30
0.0
 10
328.0333255893
 20
24.7774070587
 30
0.0
 10
328.0333255893
 20
24.7774070587
 30
0.0
 10
327.9494489304
 20
24.6842398494
 30
0.0
 10
327.8459443483
 20
24.6250943739
 30
0.0
 10
327.7178394356
 20
24.6250943739
 30
0.0
 10
327.4841362955
 20
24.6250943739
 30
0.0
 10
327.3188691814
 20
24.7972966876
 30
0.0
 10
327.3188691814
 20
25.0338785897
 30
0.0
 10
327.3188691814
 20
25.2458601613
 30
0.0
 10
327.4866224991
 20
25.437952104
 30
0.0
 10
327.7034456251
 20
25.437952104
 30
0.0
 10
327.8362612394
 20
25.437952104
 30
0.0
 10
327.9448690817
 20
25.3840407413
 30
0.0
 10
328.0333255893
 20
25.2830223628
 30
0.0
 10
328.0333255893
 20
25.2830223628
 30
0.0
 10
328.0333255893
 20
25.5688049259
 30
0.0
 10
328.0333255893
 20
25.5688049259
 30
0.0
  0
SPLINE
  5
244
330
22B
100
AcDbEntity
  8
0
  6
Continuous
 62
     7
100
AcDbSpline
 70
     3
 71
     3
 72
    32
 73
    28
 74
     0
 42
0.000000001
 43
0.0000001
 40
0.0
 40
0.0
 40
0.0
 40
0.0
 40
1.0
 40
1.0
 40
1.0
 40
2.0
 40
2.0
 40
2.0
 40
3.0
 40
3.0
 40
3.0
 40
4.0
 40
4.0
 40
4.0
 40
5.0
 40
5.0
 40
5.0
 40
6.0
 40
6.0
 40
6.0
 40
7.0
 40
7.0
 40
7.0
 40
8.0
 40
8.0
 40
8.0
 40
9.0
 40
9.0
 40
9.0
 40
9.0
 10
330.5651968416
 20
24.9972397996
 30
0.0
 10
330.5651968416
 20
24.9972397996
 30
0.0
 10
330.5651968416
 20
25.0312615333
 30
0.0
 10
330.5651968416
 20
25.0312615333
 30
0.0
 10
330.5651968416
 20
25.3735725156
 30
0.0
 10
330.3923402638
 20
25.645222974
 30
0.0
 10
330.0256906566
 20
25.645222974
 30
0.0
 10
329.6540686422
 20
25.645222974
 30
0.0
 10
329.4643320504
 20
25.3788066284
 30
0.0
 10
329.4643320504
 20
25.0239337753
 30
0.0
 10
329.4643320504
 20
24.6842398494
 30
0.0
 10
329.6784072671
 20
24.4183469152
 30
0.0
 10
330.030532211
 20
24.4183469152
 30
0.0
 10
330.2545522422
 20
24.4183469152
 30
0.0
 10
330.4567198522
 20
24.5340208098
 30
0.0
 10
330.5651968416
 20
24.7334405105
 30
0.0
 10
330.5651968416
 20
24.7334405105
 30
0.0
 10
330.3775538949
 20
24.8402164132
 30
0.0
 10
330.3775538949
 20
24.8402164132
 30
0.0
 10
330.2940697945
 20
24.7015124219
 30
0.0
 10
330.2028653775
 20
24.6156729707
 30
0.0
 10
330.0332801203
 20
24.6156729707
 30
0.0
 10
329.8212985487
 20
24.6156729707
 30
0.0
 10
329.6883520816
 20
24.8004371554
 30
0.0
 10
329.6859967308
 20
24.9972397996
 30
0.0
 10
329.6859967308
 20
24.9972397996
 30
0.0
 10
330.5651968416
 20
24.9972397996
 30
0.0
 10
330.5651968416
 20
24.9972397996
 30
0.0
  0
SPLINE
  5
245
330
22B
100
AcDbEntity
  8
0
  6
Continuous
 62
     7
100
AcDbSpline
 70
     3
 71
     3
 72
    14
 73
    10
 74
     0
 42
0.000000001
 43
0.0000001
 40
0.0
 40
0.0
 40
0.0
 40
0.0
 40
1.0
 40
1.0
 40
1.0
 40
2.0
 40
2.0
 40
2.0
 40
3.0
 40
3.0
 40
3.0
 40
3.0
 10
329.6980351904
 20
25.1647314117
 30
0.0
 10
329.7256451358
 20
25.3296059674
 30
0.0
 10
329.8534883429
 20
25.45260762
 30
0.0
 10
330.0256906566
 20
25.45260762
 30
0.0
 10
330.2028653775
 20
25.45260762
 30
0.0
 10
330.3163147742
 20
25.3369337254
 30
0.0
 10
330.3435321612
 20
25.1647314117
 30
0.0
 10
330.3435321612
 20
25.1647314117
 30
0.0
 10
329.6980351904
 20
25.1647314117
 30
0.0
 10
329.6980351904
 20
25.1647314117
 30
0.0
  0
SPLINE
  5
246
330
22B
100
AcDbEntity
  8
0
  6
Continuous
 62
     7
100
AcDbSpline
 70
     3
 71
     3
 72
    20
 73
    16
 74
     0
 42
0.000000001
 43
0.0000001
 40
0.0
 40
0.0
 40
0.0
 40
0.0
 40
1.0
 40
1.0
 40
1.0
 40
2.0
 40
2.0
 40
2.0
 40
3.0
 40
3.0
 40
3.0
 40
4.0
 40
4.0
 40
4.0
 40
5.0
 40
5.0
 40
5.0
 40
5.0
 10
332.5892282918
 20
25.3740959269
 30
0.0
 10
332.5892282918
 20
25.3740959269
 30
0.0
 10
333.0003678584
 20
24.8716210905
 30
0.0
 10
333.0003678584
 20
24.8716210905
 30
0.0
 10
332.8843014053
 20
24.7559471959
 30
0.0
 10
332.7465133838
 20
24.6256177852
 30
0.0
 10
332.5745727757
 20
24.6256177852
 30
0.0
 10
332.3971363491
 20
24.6256177852
 30
0.0
 10
332.229644737
 20
24.7899689296
 30
0.0
 10
332.229644737
 20
24.9668819449
 30
0.0
 10
332.229644737
 20
25.1448417828
 30
0.0
 10
332.4394018106
 20
25.2709839031
 30
0.0
 10
332.566983312
 20
25.3589169995
 30
0.0
 10
332.566983312
 20
25.3589169995
 30
0.0
 10
332.5892282918
 20
25.3740959269
 30
0.0
 10
332.5892282918
 20
25.3740959269
 30
0.0
  0
SPLINE
  5
247
330
22B
100
AcDbEntity
  8
0
  6
Continuous
 62
     7
100
AcDbSpline
 70
     3
 71
     3
 72
    23
 73
    19
 74
     0
 42
0.000000001
 43
0.0000001
 40
0.0
 40
0.0
 40
0.0
 40
0.0
 40
1.0
 40
1.0
 40
1.0
 40
2.0
 40
2.0
 40
2.0
 40
3.0
 40
3.0
 40
3.0
 40
4.0
 40
4.0
 40
4.0
 40
5.0
 40
5.0
 40
5.0
 40
6.0
 40
6.0
 40
6.0
 40
6.0
 10
332.6385598056
 20
25.6651126029
 30
0.0
 10
332.6385598056
 20
25.6651126029
 30
0.0
 10
332.5769281265
 20
25.7436242961
 30
0.0
 10
332.5769281265
 20
25.7436242961
 30
0.0
 10
332.5230167639
 20
25.8121911748
 30
0.0
 10
332.4662266391
 20
25.8812814648
 30
0.0
 10
332.4662266391
 20
25.9749720853
 30
0.0
 10
332.4662266391
 20
26.0937864477
 30
0.0
 10
332.5621417576
 20
26.1712513183
 30
0.0
 10
332.6731049506
 20
26.1712513183
 30
0.0
 10
332.7963683089
 20
26.1712513183
 30
0.0
 10
332.889666371
 20
26.1000673831
 30
0.0
 10
332.889666371
 20
25.9697379725
 30
0.0
 10
332.889666371
 20
25.8346978602
 30
0.0
 10
332.7615614583
 20
25.7582798122
 30
0.0
 10
332.6680016906
 20
25.6844788206
 30
0.0
 10
332.6680016906
 20
25.6844788206
 30
0.0
 10
332.6385598056
 20
25.6651126029
 30
0.0
 10
332.6385598056
 20
25.6651126029
 30
0.0
  0
SPLINE
  5
248
330
22B
100
AcDbEntity
  8
0
  6
Continuous
 62
     7
100
AcDbSpline
 70
     3
 71
     3
 72
    50
 73
    46
 74
     0
 42
0.000000001
 43
0.0000001
 40
0.0
 40
0.0
 40
0.0
 40
0.0
 40
1.0
 40
1.0
 40
1.0
 40
2.0
 40
2.0
 40
2.0
 40
3.0
 40
3.0
 40
3.0
 40
4.0
 40
4.0
 40
4.0
 40
5.0
 40
5.0
 40
5.0
 40
6.0
 40
6.0
 40
6.0
 40
7.0
 40
7.0
 40
7.0
 40
8.0
 40
8.0
 40
8.0
 40
9.0
 40
9.0
 40
9.0
 40
10.0
 40
10.0
 40
10.0
 40
11.0
 40
11.0
 40
11.0
 40
12.0
 40
12.0
 40
12.0
 40
13.0
 40
13.0
 40
13.0
 40
14.0
 40
14.0
 40
14.0
 40
15.0
 40
15.0
 40
15.0
 40
15.0
 10
333.3407160483
 20
24.4581261731
 30
0.0
 10
333.3407160483
 20
24.4581261731
 30
0.0
 10
333.626106053
 20
24.4581261731
 30
0.0
 10
333.626106053
 20
24.4581261731
 30
0.0
 10
333.626106053
 20
24.4581261731
 30
0.0
 10
333.2937398852
 20
24.8690040341
 30
0.0
 10
333.2937398852
 20
24.8690040341
 30
0.0
 10
333.2937398852
 20
24.8690040341
 30
0.0
 10
333.5202461201
 20
25.1348969683
 30
0.0
 10
333.5202461201
 20
25.1348969683
 30
0.0
 10
333.5202461201
 20
25.1348969683
 30
0.0
 10
333.3719898728
 20
25.2877330644
 30
0.0
 10
333.3719898728
 20
25.2877330644
 30
0.0
 10
333.3719898728
 20
25.2877330644
 30
0.0
 10
333.1560827165
 20
25.0364956462
 30
0.0
 10
333.1560827165
 20
25.0364956462
 30
0.0
 10
333.1560827165
 20
25.0364956462
 30
0.0
 10
332.7690200692
 20
25.5044253375
 30
0.0
 10
332.7690200692
 20
25.5044253375
 30
0.0
 10
332.9244732216
 20
25.6185289983
 30
0.0
 10
333.1067512026
 20
25.7582798122
 30
0.0
 10
333.1067512026
 20
25.9676443273
 30
0.0
 10
333.1067512026
 20
26.2115539874
 30
0.0
 10
332.9047144455
 20
26.3549686803
 30
0.0
 10
332.6782082107
 20
26.3549686803
 30
0.0
 10
332.4340368449
 20
26.3549686803
 30
0.0
 10
332.2496652188
 20
26.2042262294
 30
0.0
 10
332.2496652188
 20
25.9477546984
 30
0.0
 10
332.2496652188
 20
25.7902079007
 30
0.0
 10
332.3483282465
 20
25.652550732
 30
0.0
 10
332.4536647682
 20
25.541587539
 30
0.0
 10
332.4536647682
 20
25.541587539
 30
0.0
 10
332.3381217264
 20
25.4578417329
 30
0.0
 10
332.3381217264
 20
25.4578417329
 30
0.0
 10
332.1604235942
 20
25.3296059674
 30
0.0
 10
332.0130833166
 20
25.2018936131
 30
0.0
 10
332.0130833166
 20
24.9647882997
 30
0.0
 10
332.0130833166
 20
24.6444605916
 30
0.0
 10
332.2716484929
 20
24.4183469152
 30
0.0
 10
332.5820313866
 20
24.4183469152
 30
0.0
 10
332.8009481577
 20
24.4183469152
 30
0.0
 10
332.9981433604
 20
24.543442213
 30
0.0
 10
333.1384175856
 20
24.7093635913
 30
0.0
 10
333.1384175856
 20
24.7093635913
 30
0.0
 10
333.3407160483
 20
24.4581261731
 30
0.0
 10
333.3407160483
 20
24.4581261731
 30
0.0
  0
LWPOLYLINE
  5
249
330
22B
100
AcDbEntity
  8
0
  6
Continuous
 62
     7
100
AcDbPolyline
 90
        2
 70
     0
 43
0.2
 10
335.276160138
 20
26.3146660112
 10
335.0448123488
 20
26.3146660112
  0
LWPOLYLINE
  5
24A
330
22B
100
AcDbEntity
  8
0
  6
Continuous
 62
     7
100
AcDbPolyline
 90
        2
 70
     0
 43
0.2
 10
335.0448123488
 20
26.3146660112
 10
335.0448123488
 20
24.4576027618
  0
LWPOLYLINE
  5
24B
330
22B
100
AcDbEntity
  8
0
  6
Continuous
 62
     7
100
AcDbPolyline
 90
        2
 70
     0
 43
0.2
 10
335.0448123488
 20
24.4576027618
 10
335.8401358007
 20
24.4576027618
  0
LWPOLYLINE
  5
24C
330
22B
100
AcDbEntity
  8
0
  6
Continuous
 62
     7
100
AcDbPolyline
 90
        2
 70
     0
 43
0.2
 10
335.8401358007
 20
24.4576027618
 10
335.8401358007
 20
24.6695843334
  0
LWPOLYLINE
  5
24D
330
22B
100
AcDbEntity
  8
0
  6
Continuous
 62
     7
100
AcDbPolyline
 90
        2
 70
     0
 43
0.2
 10
335.8401358007
 20
24.6695843334
 10
335.276160138
 20
24.6695843334
  0
LWPOLYLINE
  5
24E
330
22B
100
AcDbEntity
  8
0
  6
Continuous
 62
     7
100
AcDbPolyline
 90
        2
 70
     0
 43
0.2
 10
335.276160138
 20
24.6695843334
 10
335.276160138
 20
26.3146660112
  0
LWPOLYLINE
  5
24F
330
22B
100
AcDbEntity
  8
0
  6
Continuous
 62
     7
100
AcDbPolyline
 90
        2
 70
     0
 43
0.2
 10
337.5192392122
 20
25.6101544177
 10
337.2980979431
 20
25.6101544177
  0
LWPOLYLINE
  5
250
330
22B
100
AcDbEntity
  8
0
  6
Continuous
 62
     7
100
AcDbPolyline
 90
        2
 70
     0
 43
0.2
 10
337.2980979431
 20
25.6101544177
 10
337.2980979431
 20
24.4581261731
  0
LWPOLYLINE
  5
251
330
22B
100
AcDbEntity
  8
0
  6
Continuous
 62
     7
100
AcDbPolyline
 90
        2
 70
     0
 43
0.2
 10
337.2980979431
 20
24.4581261731
 10
337.5192392122
 20
24.4581261731
  0
LWPOLYLINE
  5
252
330
22B
100
AcDbEntity
  8
0
  6
Continuous
 62
     7
100
AcDbPolyline
 90
        2
 70
     0
 43
0.2
 10
337.5192392122
 20
24.4581261731
 10
337.5192392122
 20
25.6101544177
  0
LWPOLYLINE
  5
253
330
22B
100
AcDbEntity
  8
0
  6
Continuous
 62
     7
100
AcDbPolyline
 90
        2
 70
     1
 43
0.2
 10
337.256215935
 20
26.1401083467
 42
1.0
 10
337.5613829259
 20
26.1401083467
 42
1.0
  0
SPLINE
  5
254
330
22B
100
AcDbEntity
  8
0
  6
Continuous
 62
     7
100
AcDbSpline
 70
     3
 71
     3
 72
    17
 73
    13
 74
     0
 42
0.000000001
 43
0.0000001
 40
0.0
 40
0.0
 40
0.0
 40
0.0
 40
1.0
 40
1.0
 40
1.0
 40
2.0
 40
2.0
 40
2.0
 40
3.0
 40
3.0
 40
3.0
 40
4.0
 40
4.0
 40
4.0
 40
4.0
 10
339.6495231538
 20
24.6156729707
 30
0.0
 10
339.4155583082
 20
24.6156729707
 30
0.0
 10
339.2852288975
 20
24.8177097279
 30
0.0
 10
339.2852288975
 20
25.0338785897
 30
0.0
 10
339.2852288975
 20
25.2484772178
 30
0.0
 10
339.4210541267
 20
25.4473735072
 30
0.0
 10
339.6495231538
 20
25.4473735072
 30
0.0
 10
339.888983818
 20
25.4473735072
 30
0.0
 10
340.0245473416
 20
25.2584220322
 30
0.0
 10
340.0245473416
 20
25.0338785897
 30
0.0
 10
340.0245473416
 20
24.8077649134
 30
0.0
 10
339.8913391688
 20
24.6156729707
 30
0.0
 10
339.6495231538
 20
24.6156729707
 30
0.0
  0
SPLINE
  5
255
330
22B
100
AcDbEntity
  8
0
  6
Continuous
 62
     7
100
AcDbSpline
 70
     3
 71
     3
 72
    50
 73
    46
 74
     0
 42
0.000000001
 43
0.0000001
 40
0.0
 40
0.0
 40
0.0
 40
0.0
 40
1.0
 40
1.0
 40
1.0
 40
2.0
 40
2.0
 40
2.0
 40
3.0
 40
3.0
 40
3.0
 40
4.0
 40
4.0
 40
4.0
 40
5.0
 40
5.0
 40
5.0
 40
6.0
 40
6.0
 40
6.0
 40
7.0
 40
7.0
 40
7.0
 40
8.0
 40
8.0
 40
8.0
 40
9.0
 40
9.0
 40
9.0
 40
10.0
 40
10.0
 40
10.0
 40
11.0
 40
11.0
 40
11.0
 40
12.0
 40
12.0
 40
12.0
 40
13.0
 40
13.0
 40
13.0
 40
14.0
 40
14.0
 40
14.0
 40
15.0
 40
15.0
 40
15.0
 40
15.0
 10
340.2336501511
 20
25.610677829
 30
0.0
 10
340.2336501511
 20
25.610677829
 30
0.0
 10
340.0119854707
 20
25.610677829
 30
0.0
 10
340.0119854707
 20
25.610677829
 30
0.0
 10
340.0119854707
 20
25.610677829
 30
0.0
 10
340.0119854707
 20
25.4133517734
 30
0.0
 10
340.0119854707
 20
25.4133517734
 30
0.0
 10
340.0119854707
 20
25.4133517734
 30
0.0
 10
340.0072747691
 20
25.4133517734
 30
0.0
 10
340.0072747691
 20
25.4133517734
 30
0.0
 10
339.9159394994
 20
25.556243055
 30
0.0
 10
339.778020625
 20
25.6446995627
 30
0.0
 10
339.6052949
 20
25.6446995627
 30
0.0
 10
339.2729287322
 20
25.6446995627
 30
0.0
 10
339.0638259227
 20
25.3568233544
 30
0.0
 10
339.0638259227
 20
25.0412063478
 30
0.0
 10
339.0638259227
 20
24.7114572364
 30
0.0
 10
339.2608902726
 20
24.4183469152
 30
0.0
 10
339.6157631258
 20
24.4183469152
 30
0.0
 10
339.778020625
 20
24.4183469152
 30
0.0
 10
339.9180331445
 20
24.5068034229
 30
0.0
 10
340.0072747691
 20
24.6376562448
 30
0.0
 10
340.0072747691
 20
24.6376562448
 30
0.0
 10
340.0119854707
 20
24.6376562448
 30
0.0
 10
340.0119854707
 20
24.6376562448
 30
0.0
 10
340.0119854707
 20
24.6376562448
 30
0.0
 10
340.0119854707
 20
24.4183469152
 30
0.0
 10
340.0119854707
 20
24.4183469152
 30
0.0
 10
340.0119854707
 20
24.1817650131
 30
0.0
 10
339.9554570516
 20
23.9949071833
 30
0.0
 10
339.6822363593
 20
23.9949071833
 30
0.0
 10
339.4799378966
 20
23.9949071833
 30
0.0
 10
339.3373083206
 20
24.1131981344
 30
0.0
 10
339.3373083206
 20
24.3194221818
 30
0.0
 10
339.3373083206
 20
24.3194221818
 30
0.0
 10
339.1156436402
 20
24.3194221818
 30
0.0
 10
339.1156436402
 20
24.3194221818
 30
0.0
 10
339.1206160475
 20
23.9949071833
 30
0.0
 10
339.351702131
 20
23.7981045391
 30
0.0
 10
339.6720298392
 20
23.7981045391
 30
0.0
 10
340.1200699016
 20
23.7981045391
 30
0.0
 10
340.2336501511
 20
24.083363691
 30
0.0
 10
340.2336501511
 20
24.4801094472
 30
0.0
 10
340.2336501511
 20
24.4801094472
 30
0.0
 10
340.2336501511
 20
25.610677829
 30
0.0
 10
340.2336501511
 20
25.610677829
 30
0.0
  0
SPLINE
  5
256
330
22B
100
AcDbEntity
  8
0
  6
Continuous
 62
     7
100
AcDbSpline
 70
     3
 71
     3
 72
    44
 73
    40
 74
     0
 42
0.000000001
 43
0.0000001
 40
0.0
 40
0.0
 40
0.0
 40
0.0
 40
1.0
 40
1.0
 40
1.0
 40
2.0
 40
2.0
 40
2.0
 40
3.0
 40
3.0
 40
3.0
 40
4.0
 40
4.0
 40
4.0
 40
5.0
 40
5.0
 40
5.0
 40
6.0
 40
6.0
 40
6.0
 40
7.0
 40
7.0
 40
7.0
 40
8.0
 40
8.0
 40
8.0
 40
9.0
 40
9.0
 40
9.0
 40
10.0
 40
10.0
 40
10.0
 40
11.0
 40
11.0
 40
11.0
 40
12.0
 40
12.0
 40
12.0
 40
13.0
 40
13.0
 40
13.0
 40
13.0
 10
341.8025754865
 20
26.5957378727
 30
0.0
 10
341.8025754865
 20
26.5957378727
 30
0.0
 10
341.8025754865
 20
24.4576027618
 30
0.0
 10
341.8025754865
 20
24.4576027618
 30
0.0
 10
341.8025754865
 20
24.4576027618
 30
0.0
 10
342.0239784613
 20
24.4576027618
 30
0.0
 10
342.0239784613
 20
24.4576027618
 30
0.0
 10
342.0239784613
 20
24.4576027618
 30
0.0
 10
342.0239784613
 20
24.9872949851
 30
0.0
 10
342.0239784613
 20
24.9872949851
 30
0.0
 10
342.0239784613
 20
25.1971829116
 30
0.0
 10
342.0239784613
 20
25.4478969184
 30
0.0
 10
342.3092376132
 20
25.4478969184
 30
0.0
 10
342.5361364065
 20
25.4478969184
 30
0.0
 10
342.5630920878
 20
25.3149504513
 30
0.0
 10
342.5630920878
 20
25.1186712184
 30
0.0
 10
342.5630920878
 20
25.1186712184
 30
0.0
 10
342.5630920878
 20
24.4576027618
 30
0.0
 10
342.5630920878
 20
24.4576027618
 30
0.0
 10
342.5630920878
 20
24.4576027618
 30
0.0
 10
342.7850184738
 20
24.4576027618
 30
0.0
 10
342.7850184738
 20
24.4576027618
 30
0.0
 10
342.7850184738
 20
24.4576027618
 30
0.0
 10
342.7850184738
 20
25.1448417828
 30
0.0
 10
342.7850184738
 20
25.1448417828
 30
0.0
 10
342.7850184738
 20
25.4253902331
 30
0.0
 10
342.7010109621
 20
25.645222974
 30
0.0
 10
342.3759725524
 20
25.645222974
 30
0.0
 10
342.2362217385
 20
25.645222974
 30
0.0
 10
342.0980411585
 20
25.5787497404
 30
0.0
 10
342.0286891629
 20
25.4557480878
 30
0.0
 10
342.0286891629
 20
25.4557480878
 30
0.0
 10
342.0239784613
 20
25.4557480878
 30
0.0
 10
342.0239784613
 20
25.4557480878
 30
0.0
 10
342.0239784613
 20
25.4557480878
 30
0.0
 10
342.0239784613
 20
26.5957378727
 30
0.0
 10
342.0239784613
 20
26.5957378727
 30
0.0
 10
342.0239784613
 20
26.5957378727
 30
0.0
 10
341.8025754865
 20
26.5957378727
 30
0.0
 10
341.8025754865
 20
26.5957378727
 30
0.0
  0
LWPOLYLINE
  5
257
330
22B
100
AcDbEntity
  8
0
  6
Continuous
 62
     7
100
AcDbPolyline
 90
        2
 70
     0
 43
0.2
 10
344.6248091507
 20
25.403406959
 10
344.8412397182
 20
25.403406959
  0
LWPOLYLINE
  5
258
330
22B
100
AcDbEntity
  8
0
  6
Continuous
 62
     7
100
AcDbPolyline
 90
        2
 70
     0
 43
0.2
 10
344.8412397182
 20
25.403406959
 10
344.8412397182
 20
25.6101544177
  0
LWPOLYLINE
  5
259
330
22B
100
AcDbEntity
  8
0
  6
Continuous
 62
     7
100
AcDbPolyline
 90
        2
 70
     0
 43
0.2
 10
344.8412397182
 20
25.6101544177
 10
344.6248091507
 20
25.6101544177
  0
LWPOLYLINE
  5
25A
330
22B
100
AcDbEntity
  8
0
  6
Continuous
 62
     7
100
AcDbPolyline
 90
        2
 70
     0
 43
0.2
 10
344.6248091507
 20
25.6101544177
 10
344.6248091507
 20
26.0508667221
  0
LWPOLYLINE
  5
25B
330
22B
100
AcDbEntity
  8
0
  6
Continuous
 62
     7
100
AcDbPolyline
 90
        2
 70
     0
 43
0.2
 10
344.6248091507
 20
26.0508667221
 10
344.4031444703
 20
26.0508667221
  0
LWPOLYLINE
  5
25C
330
22B
100
AcDbEntity
  8
0
  6
Continuous
 62
     7
100
AcDbPolyline
 90
        2
 70
     0
 43
0.2
 10
344.4031444703
 20
26.0508667221
 10
344.4031444703
 20
25.6101544177
  0
LWPOLYLINE
  5
25D
330
22B
100
AcDbEntity
  8
0
  6
Continuous
 62
     7
100
AcDbPolyline
 90
        2
 70
     0
 43
0.2
 10
344.4031444703
 20
25.6101544177
 10
344.2824981684
 20
25.6101544177
  0
LWPOLYLINE
  5
25E
330
22B
100
AcDbEntity
  8
0
  6
Continuous
 62
     7
100
AcDbPolyline
 90
        2
 70
     0
 43
0.2
 10
344.2824981684
 20
25.6101544177
 10
344.2824981684
 20
25.403406959
  0
LWPOLYLINE
  5
25F
330
22B
100
AcDbEntity
  8
0
  6
Continuous
 62
     7
100
AcDbPolyline
 90
        2
 70
     0
 43
0.2
 10
344.2824981684
 20
25.403406959
 10
344.4031444703
 20
25.403406959
  0
LWPOLYLINE
  5
260
330
22B
100
AcDbEntity
  8
0
  6
Continuous
 62
     7
100
AcDbPolyline
 90
        2
 70
     0
 43
0.2
 10
344.4031444703
 20
25.403406959
 10
344.4031444703
 20
24.4576027618
  0
LWPOLYLINE
  5
261
330
22B
100
AcDbEntity
  8
0
  6
Continuous
 62
     7
100
AcDbPolyline
 90
        2
 70
     0
 43
0.2
 10
344.4031444703
 20
24.4576027618
 10
344.6248091507
 20
24.4576027618
  0
LWPOLYLINE
  5
262
330
22B
100
AcDbEntity
  8
0
  6
Continuous
 62
     7
100
AcDbPolyline
 90
        2
 70
     0
 43
0.2
 10
344.6248091507
 20
24.4576027618
 10
344.6248091507
 20
25.403406959
  0
SPLINE
  5
263
330
22B
100
AcDbEntity
  8
0
  6
Continuous
 62
     7
100
AcDbSpline
 70
     3
 71
     3
 72
    20
 73
    16
 74
     0
 42
0.000000001
 43
0.0000001
 40
0.0
 40
0.0
 40
0.0
 40
0.0
 40
1.0
 40
1.0
 40
1.0
 40
2.0
 40
2.0
 40
2.0
 40
3.0
 40
3.0
 40
3.0
 40
4.0
 40
4.0
 40
4.0
 40
5.0
 40
5.0
 40
5.0
 40
5.0
 10
332.4068194579
 20
34.8185292052
 30
0.0
 10
332.4068194579
 20
34.8185292052
 30
0.0
 10
334.7231761124
 20
31.988967783
 30
0.0
 10
334.7231761124
 20
31.988967783
 30
0.0
 10
334.071529059
 20
31.3367973183
 30
0.0
 10
333.294655855
 20
30.6008810475
 30
0.0
 10
332.3234662104
 20
30.6008810475
 30
0.0
 10
331.3249283259
 20
30.6008810475
 30
0.0
 10
330.3816103324
 20
31.5304594948
 30
0.0
 10
330.3816103324
 20
32.5296516433
 30
0.0
 10
330.3816103324
 20
33.5288437919
 30
0.0
 10
331.5604634055
 20
34.2354490305
 30
0.0
 10
332.2819858658
 20
34.7353068104
 30
0.0
 10
332.2819858658
 20
34.7353068104
 30
0.0
 10
332.4068194579
 20
34.8185292052
 30
0.0
 10
332.4068194579
 20
34.8185292052
 30
0.0
  0
SPLINE
  5
264
330
22B
100
AcDbEntity
  8
0
  6
Continuous
 62
     7
100
AcDbSpline
 70
     3
 71
     3
 72
    23
 73
    19
 74
     0
 42
0.000000001
 43
0.0000001
 40
0.0
 40
0.0
 40
0.0
 40
0.0
 40
1.0
 40
1.0
 40
1.0
 40
2.0
 40
2.0
 40
2.0
 40
3.0
 40
3.0
 40
3.0
 40
4.0
 40
4.0
 40
4.0
 40
5.0
 40
5.0
 40
5.0
 40
6.0
 40
6.0
 40
6.0
 40
6.0
 10
332.6842274405
 20
36.4562831249
 30
0.0
 10
332.6842274405
 20
36.4562831249
 30
0.0
 10
332.3377291679
 20
36.8996124858
 30
0.0
 10
332.3377291679
 20
36.8996124858
 30
0.0
 10
332.031926123
 20
37.2877219557
 30
0.0
 10
331.7130377959
 20
37.6762239841
 30
0.0
 10
331.7130377959
 20
38.2031682982
 30
0.0
 10
331.7130377959
 20
38.8693400148
 30
0.0
 10
332.2543759204
 20
39.3130619341
 30
0.0
 10
332.8782821755
 20
39.3130619341
 30
0.0
 10
333.5720638376
 20
39.3130619341
 30
0.0
 10
334.0992698573
 20
38.9108203594
 30
0.0
 10
334.0992698573
 20
38.1758200584
 30
0.0
 10
334.0992698573
 20
37.4125555479
 30
0.0
 10
333.3780091026
 20
36.9824423221
 30
0.0
 10
332.8509339357
 20
36.5667229067
 30
0.0
 10
332.8509339357
 20
36.5667229067
 30
0.0
 10
332.6842274405
 20
36.4562831249
 30
0.0
 10
332.6842274405
 20
36.4562831249
 30
0.0
  0
SPLINE
  5
265
330
22B
100
AcDbEntity
  8
0
  6
Continuous
 62
     7
100
AcDbSpline
 70
     3
 71
     3
 72
    50
 73
    46
 74
     0
 42
0.000000001
 43
0.0000001
 40
0.0
 40
0.0
 40
0.0
 40
0.0
 40
1.0
 40
1.0
 40
1.0
 40
2.0
 40
2.0
 40
2.0
 40
3.0
 40
3.0
 40
3.0
 40
4.0
 40
4.0
 40
4.0
 40
5.0
 40
5.0
 40
5.0
 40
6.0
 40
6.0
 40
6.0
 40
7.0
 40
7.0
 40
7.0
 40
8.0
 40
8.0
 40
8.0
 40
9.0
 40
9.0
 40
9.0
 40
10.0
 40
10.0
 40
10.0
 40
11.0
 40
11.0
 40
11.0
 40
12.0
 40
12.0
 40
12.0
 40
13.0
 40
13.0
 40
13.0
 40
14.0
 40
14.0
 40
14.0
 40
15.0
 40
15.0
 40
15.0
 40
15.0
 10
336.6378146034
 20
29.6576939068
 30
0.0
 10
336.6378146034
 20
29.6576939068
 30
0.0
 10
338.247042608
 20
29.6576939068
 30
0.0
 10
338.247042608
 20
29.6576939068
 30
0.0
 10
338.247042608
 20
29.6576939068
 30
0.0
 10
336.3740153144
 20
31.9748356782
 30
0.0
 10
336.3740153144
 20
31.9748356782
 30
0.0
 10
336.3740153144
 20
31.9748356782
 30
0.0
 10
337.6503537398
 20
33.4723153728
 30
0.0
 10
337.6503537398
 20
33.4723153728
 30
0.0
 10
337.6503537398
 20
33.4723153728
 30
0.0
 10
336.8181297921
 20
34.3333269413
 30
0.0
 10
336.8181297921
 20
34.3333269413
 30
0.0
 10
336.8181297921
 20
34.3333269413
 30
0.0
 10
335.5975346688
 20
32.9180228189
 30
0.0
 10
335.5975346688
 20
32.9180228189
 30
0.0
 10
335.5975346688
 20
32.9180228189
 30
0.0
 10
333.4196203
 20
35.5533986534
 30
0.0
 10
333.4196203
 20
35.5533986534
 30
0.0
 10
334.2931937394
 20
36.1914370133
 30
0.0
 10
335.3198649806
 20
36.9824423221
 30
0.0
 10
335.3198649806
 20
38.1612953952
 30
0.0
 10
335.3198649806
 20
39.5349883202
 30
0.0
 10
334.1819688408
 20
40.3394714696
 30
0.0
 10
332.9066772379
 20
40.3394714696
 30
0.0
 10
331.5332460185
 20
40.3394714696
 30
0.0
 10
330.4923118197
 20
39.49324627
 30
0.0
 10
330.4923118197
 20
38.0505939078
 30
0.0
 10
330.4923118197
 20
37.1630192164
 30
0.0
 10
331.0476511962
 20
36.3861460124
 30
0.0
 10
331.6438166531
 20
35.7617163459
 30
0.0
 10
331.6438166531
 20
35.7617163459
 30
0.0
 10
330.991907894
 20
35.2901227756
 30
0.0
 10
330.991907894
 20
35.2901227756
 30
0.0
 10
329.9933700096
 20
34.5688620209
 30
0.0
 10
329.1604917978
 20
33.8476012662
 30
0.0
 10
329.1604917978
 20
32.5160429498
 30
0.0
 10
329.1604917978
 20
30.7123676518
 30
0.0
 10
330.6175379704
 20
29.4357675207
 30
0.0
 10
332.3650774077
 20
29.4357675207
 30
0.0
 10
333.5999354886
 20
29.4357675207
 30
0.0
 10
334.7093057133
 20
30.1439429932
 30
0.0
 10
335.5001801693
 20
31.0724746179
 30
0.0
 10
335.5001801693
 20
31.0724746179
 30
0.0
 10
336.6378146034
 20
29.6576939068
 30
0.0
 10
336.6378146034
 20
29.6576939068
 30
0.0
  0
LINE
  5
266
330
22B
100
AcDbEntity
  8
0
  6
Continuous
 62
     7
100
AcDbLine
 10
322.4406759784
 20
27.6315688114
 30
0.0
 11
344.8545867061
 21
27.6315688114
 31
0.0
  0
LINE
  5
267
330
22B
100
AcDbEntity
  8
0
  6
Continuous
 62
     7
100
AcDbLine
 10
344.8545867061
 20
27.6315688114
 30
0.0
 11
344.8545867061
 21
50.0454795391
 31
0.0
  0
LINE
  5
268
330
22B
100
AcDbEntity
  8
0
  6
Continuous
 62
     7
100
AcDbLine
 10
344.8545867061
 20
50.0454795391
 30
0.0
 11
322.4406759784
 21
50.0454795391
 31
0.0
  0
LINE
  5
269
330
22B
100
AcDbEntity
  8
0
  6
Continuous
 62
     7
100
AcDbLine
 10
322.4406759784
 20
50.0454795391
 30
0.0
 11
322.4406759784
 21
27.6315688114
 31
0.0
  0
ENDBLK
  5
26A
330
22B
100
AcDbEntity
  8
0
  6
ByBlock
 62
     0
100
AcDbBlockEnd
  0
ENDSEC
  0
SECTION
  2
ENTITIES
  0
LINE
  5
29E
330
224
100
AcDbEntity
 67
     1
  8
0
  6
Continuous
 62
     7
100
AcDbLine
 10
0.0
 20
0.0
 30
0.0
 11
420.0
 21
0.0
 31
0.0
  0
LINE
  5
29F
330
224
100
AcDbEntity
 67
     1
  8
0
  6
Continuous
 62
     7
100
AcDbLine
 10
420.0
 20
0.0
 30
0.0
 11
420.0
 21
297.0
 31
0.0
  0
LINE
  5
2A0
330
224
100
AcDbEntity
 67
     1
  8
0
  6
Continuous
 62
     7
100
AcDbLine
 10
0.0
 20
297.0
 30
0.0
 11
420.0
 21
297.0
 31
0.0
  0
LINE
  5
2A1
330
224
100
AcDbEntity
 67
     1
  8
0
  6
Continuous
 62
     7
100
AcDbLine
 10
0.0
 20
0.0
 30
0.0
 11
0.0
 21
297.0
 31
0.0
  0
VIEWPORT
  5
2A2
330
224
100
AcDbEntity
 67
     1
  8
0
100
AcDbViewport
 10
210.0
 20
148.5
 30
0.0
 40
420.0
 41
297.0
 68
     1
 69
     1
 12
210.0
 22
148.5
 13
0.0
 23
0.0
 14
10.0
 24
10.0
 15
10.0
 25
10.0
 16
0.0
 26
0.0
 36
1.0
 17
0.0
 27
0.0
 37
0.0
 42
50.0
 43
0.0
 44
0.0
 45
297.0
 50
0.0
 51
0.0
 72
   100
 90
    32864
  1

281
     0
 71
     1
 74
     0
110
0.0
120
0.0
130
0.0
111
1.0
121
0.0
131
0.0
112
0.0
122
1.0
132
0.0
 79
     0
146
0.0
170
     0
 61
     5
348
4F6
292
     1
282
     1
141
0.0
142
0.0
 63
   256
  0
LINE
  5
2A3
330
224
100
AcDbEntity
 67
     1
  8
7_ALL_FEATURES
  6
Continuous
 62
     7
100
AcDbLine
 10
129.0226446831
 20
213.7937489774
 30
0.0
 11
130.5226446831
 21
212.9277235736
 31
0.0
  0
LINE
  5
2A4
330
224
100
AcDbEntity
 67
     1
  8
7_ALL_FEATURES
  6
Continuous
 62
     7
100
AcDbLine
 10
130.5226446831
 20
212.9277235736
 30
0.0
 11
132.0226446831
 21
213.7937489774
 31
0.0
  0
LINE
  5
2A5
330
224
100
AcDbEntity
 67
     1
  8
7_ALL_FEATURES
  6
Continuous
 62
     7
100
AcDbLine
 10
132.0226446831
 20
213.7937489774
 30
0.0
 11
132.0226446831
 21
215.5257997849
 31
0.0
  0
LINE
  5
2A6
330
224
100
AcDbEntity
 67
     1
  8
7_ALL_FEATURES
  6
Continuous
 62
     7
100
AcDbLine
 10
132.0226446831
 20
215.5257997849
 30
0.0
 11
130.5226446831
 21
216.3918251887
 31
0.0
  0
LINE
  5
2A7
330
224
100
AcDbEntity
 67
     1
  8
7_ALL_FEATURES
  6
Continuous
 62
     7
100
AcDbLine
 10
130.5226446831
 20
216.3918251887
 30
0.0
 11
129.0226446831
 21
215.5257997849
 31
0.0
  0
LINE
  5
2A8
330
224
100
AcDbEntity
 67
     1
  8
7_ALL_FEATURES
  6
Continuous
 62
     7
100
AcDbLine
 10
129.0226446831
 20
215.5257997849
 30
0.0
 11
129.0226446831
 21
213.7937489774
 31
0.0
  0
ARC
  5
2A9
330
224
100
AcDbEntity
 67
     1
  8
3_ALL_AXES
  6
Continuous
 62
     7
100
AcDbCircle
 10
130.5226446831
 20
214.6597743811
 30
0.0
 40
4.75
100
AcDbArc
 50
90.0
 51
270.0
  0
ARC
  5
2AA
330
224
100
AcDbEntity
 67
     1
  8
3_ALL_AXES
  6
Continuous
 62
     7
100
AcDbCircle
 10
130.5226446831
 20
214.6597743811
 30
0.0
 40
4.75
100
AcDbArc
 50
270.0
 51
90.0
  0
ARC
  5
2AB
330
224
100
AcDbEntity
 67
     1
  8
3_ALL_AXES
  6
Continuous
 62
     7
100
AcDbCircle
 10
130.5226446831
 20
214.6597743811
 30
0.0
 40
2.25
100
AcDbArc
 50
90.0
 51
270.0
  0
ARC
  5
2AC
330
224
100
AcDbEntity
 67
     1
  8
3_ALL_AXES
  6
Continuous
 62
     7
100
AcDbCircle
 10
130.5226446831
 20
214.6597743811
 30
0.0
 40
2.25
100
AcDbArc
 50
270.0
 51
90.0
  0
ARC
  5
2AD
330
224
100
AcDbEntity
 67
     1
  8
3_ALL_AXES
  6
Continuous
 62
     7
100
AcDbCircle
 10
130.5226446831
 20
214.6597743811
 30
0.0
 40
5.0
100
AcDbArc
 50
270.0
 51
90.0
  0
ARC
  5
2AE
330
224
100
AcDbEntity
 67
     1
  8
3_ALL_AXES
  6
Continuous
 62
     7
100
AcDbCircle
 10
130.5226446831
 20
214.6597743811
 30
0.0
 40
5.0
100
AcDbArc
 50
90.0
 51
270.0
  0
LINE
  5
2AF
330
224
100
AcDbEntity
 67
     1
  8
7_ALL_FEATURES
  6
Continuous
 62
     7
100
AcDbLine
 10
170.9726446831
 20
223.6597743811
 30
0.0
 11
170.2726446831
 21
223.6597743811
 31
0.0
  0
LINE
  5
2B0
330
224
100
AcDbEntity
 67
     1
  8
7_ALL_FEATURES
  6
Continuous
 62
     7
100
AcDbLine
 10
174.4726446831
 20
220.1596244673
 30
0.0
 11
174.4726446831
 21
220.1363123508
 31
0.0
  0
LINE
  5
2B1
330
224
100
AcDbEntity
 67
     1
  8
7_ALL_FEATURES
  6
Continuous
 62
     7
100
AcDbLine
 10
174.4726446831
 20
220.1363123508
 30
0.0
 11
174.4726446831
 21
218.509601392
 31
0.0
  0
LINE
  5
2B2
330
224
100
AcDbEntity
 67
     1
  8
7_ALL_FEATURES
  6
Continuous
 62
     7
100
AcDbLine
 10
174.4726446831
 20
218.509601392
 30
0.0
 11
174.4726446831
 21
214.6597743811
 31
0.0
  0
ARC
  5
2B3
330
224
100
AcDbEntity
 67
     1
  8
7_ALL_FEATURES
  6
Continuous
 62
     7
100
AcDbCircle
 10
170.9726446831
 20
220.1597743811
 30
0.0
 40
3.5
100
AcDbArc
 50
0.0
 51
90.0
  0
LINE
  5
2B4
330
224
100
AcDbEntity
 67
     1
  8
7_ALL_FEATURES
  6
Continuous
 62
     7
100
AcDbLine
 10
174.4726446831
 20
220.1409890927
 30
0.0
 11
174.4726446831
 21
220.1597743811
 31
0.0
  0
LINE
  5
2B5
330
224
100
AcDbEntity
 67
     1
  8
7_ALL_FEATURES
  6
Continuous
 62
     7
100
AcDbLine
 10
174.4726446831
 20
214.6597743811
 30
0.0
 11
174.4726446831
 21
220.1409890927
 31
0.0
  0
LINE
  5
2B6
330
224
100
AcDbEntity
 67
     1
  8
7_ALL_FEATURES
  6
Continuous
 62
     7
100
AcDbLine
 10
170.9726446831
 20
205.6597743811
 30
0.0
 11
170.2726446831
 21
205.6597743811
 31
0.0
  0
LINE
  5
2B7
330
224
100
AcDbEntity
 67
     1
  8
7_ALL_FEATURES
  6
Continuous
 62
     7
100
AcDbLine
 10
174.4726446831
 20
209.159924295
 30
0.0
 11
174.4726446831
 21
210.8099473703
 31
0.0
  0
LINE
  5
2B8
330
224
100
AcDbEntity
 67
     1
  8
7_ALL_FEATURES
  6
Continuous
 62
     7
100
AcDbLine
 10
174.4726446831
 20
210.8099473703
 30
0.0
 11
174.4726446831
 21
214.6597743811
 31
0.0
  0
ARC
  5
2B9
330
224
100
AcDbEntity
 67
     1
  8
7_ALL_FEATURES
  6
Continuous
 62
     7
100
AcDbCircle
 10
170.9726446831
 20
209.1597743811
 30
0.0
 40
3.5
100
AcDbArc
 50
270.0
 51
360.0
  0
LINE
  5
2BA
330
224
100
AcDbEntity
 67
     1
  8
7_ALL_FEATURES
  6
Continuous
 62
     7
100
AcDbLine
 10
174.4726446831
 20
209.1597743811
 30
0.0
 11
174.4726446831
 21
210.8099473703
 31
0.0
  0
LINE
  5
2BB
330
224
100
AcDbEntity
 67
     1
  8
7_ALL_FEATURES
  6
Continuous
 62
     7
100
AcDbLine
 10
174.4726446831
 20
210.8099473703
 30
0.0
 11
174.4726446831
 21
214.6597743811
 31
0.0
  0
LINE
  5
2BC
330
224
100
AcDbEntity
 67
     1
  8
7_ALL_FEATURES
  6
Continuous
 62
     7
100
AcDbLine
 10
153.5226446831
 20
203.6901192665
 30
0.0
 11
153.5226446831
 21
206.8597743811
 31
0.0
  0
LINE
  5
2BD
330
224
100
AcDbEntity
 67
     1
  8
7_ALL_FEATURES
  6
Continuous
 62
     7
100
AcDbLine
 10
153.5226446831
 20
206.8597743811
 30
0.0
 11
153.5226446831
 21
209.1749468238
 31
0.0
  0
LINE
  5
2BE
330
224
100
AcDbEntity
 67
     1
  8
7_ALL_FEATURES
  6
Continuous
 62
     7
100
AcDbLine
 10
153.5226446831
 20
209.1749468238
 30
0.0
 11
153.5226446831
 21
220.1446019385
 31
0.0
  0
LINE
  5
2BF
330
224
100
AcDbEntity
 67
     1
  8
7_ALL_FEATURES
  6
Continuous
 62
     7
100
AcDbLine
 10
153.5226446831
 20
220.1446019385
 30
0.0
 11
153.5226446831
 21
222.4597743811
 31
0.0
  0
LINE
  5
2C0
330
224
100
AcDbEntity
 67
     1
  8
7_ALL_FEATURES
  6
Continuous
 62
     7
100
AcDbLine
 10
153.5226446831
 20
222.4597743811
 30
0.0
 11
153.5226446831
 21
225.6294294958
 31
0.0
  0
LINE
  5
2C1
330
224
100
AcDbEntity
 67
     1
  8
7_ALL_FEATURES
  6
Continuous
 62
     7
100
AcDbLine
 10
153.5226446831
 20
206.8597743811
 30
0.0
 11
159.2726446831
 21
206.8597743811
 31
0.0
  0
LINE
  5
2C2
330
224
100
AcDbEntity
 67
     1
  8
7_ALL_FEATURES
  6
Continuous
 62
     7
100
AcDbLine
 10
153.5226446831
 20
222.4597743811
 30
0.0
 11
159.2726446831
 21
222.4597743811
 31
0.0
  0
LINE
  5
2C3
330
224
100
AcDbEntity
 67
     1
  8
7_ALL_FEATURES
  6
Continuous
 62
     7
100
AcDbLine
 10
145.5226446831
 20
225.6294294958
 30
0.0
 11
153.5226446831
 21
225.6294294958
 31
0.0
  0
LINE
  5
2C4
330
224
100
AcDbEntity
 67
     1
  8
7_ALL_FEATURES
  6
Continuous
 62
     7
100
AcDbLine
 10
145.5226446831
 20
203.6901192665
 30
0.0
 11
153.5226446831
 21
203.6901192665
 31
0.0
  0
LINE
  5
2C5
330
224
100
AcDbEntity
 67
     1
  8
7_ALL_FEATURES
  6
Continuous
 62
     7
100
AcDbLine
 10
159.2726446831
 20
224.1597743811
 30
0.0
 11
159.2726446831
 21
214.6597743811
 31
0.0
  0
LINE
  5
2C6
330
224
100
AcDbEntity
 67
     1
  8
7_ALL_FEATURES
  6
Continuous
 62
     7
100
AcDbLine
 10
159.2726446831
 20
214.6597743811
 30
0.0
 11
159.2726446831
 21
205.1597743811
 31
0.0
  0
LINE
  5
2C7
330
224
100
AcDbEntity
 67
     1
  8
7_ALL_FEATURES
  6
Continuous
 62
     7
100
AcDbLine
 10
159.2726446831
 20
224.1597743811
 30
0.0
 11
170.2726446831
 21
224.1597743811
 31
0.0
  0
LINE
  5
2C8
330
224
100
AcDbEntity
 67
     1
  8
7_ALL_FEATURES
  6
Continuous
 62
     7
100
AcDbLine
 10
170.2726446831
 20
214.6597743811
 30
0.0
 11
170.2726446831
 21
205.1597743811
 31
0.0
  0
LINE
  5
2C9
330
224
100
AcDbEntity
 67
     1
  8
7_ALL_FEATURES
  6
Continuous
 62
     7
100
AcDbLine
 10
170.2726446831
 20
224.1597743811
 30
0.0
 11
170.2726446831
 21
214.6597743811
 31
0.0
  0
LINE
  5
2CA
330
224
100
AcDbEntity
 67
     1
  8
7_ALL_FEATURES
  6
Continuous
 62
     7
100
AcDbLine
 10
159.2726446831
 20
205.1597743811
 30
0.0
 11
170.2726446831
 21
205.1597743811
 31
0.0
  0
LINE
  5
2CB
330
224
100
AcDbEntity
 67
     1
  8
7_ALL_FEATURES
  6
Continuous
 62
     9
100
AcDbLine
 10
170.9726446831
 20
205.6597743811
 30
0.0
 11
170.9726446831
 21
214.6597743811
 31
0.0
  0
LINE
  5
2CC
330
224
100
AcDbEntity
 67
     1
  8
7_ALL_FEATURES
  6
Continuous
 62
     7
100
AcDbLine
 10
159.2726446831
 20
214.6597743811
 30
0.0
 11
170.2726446831
 21
214.6597743811
 31
0.0
  0
LINE
  5
2CD
330
224
100
AcDbEntity
 67
     1
  8
7_ALL_FEATURES
  6
Continuous
 62
     7
100
AcDbLine
 10
145.5226446831
 20
209.1749468238
 30
0.0
 11
153.5226446831
 21
209.1749468238
 31
0.0
  0
LINE
  5
2CE
330
224
100
AcDbEntity
 67
     1
  8
7_ALL_FEATURES
  6
Continuous
 62
     7
100
AcDbLine
 10
145.5226446831
 20
220.1446019385
 30
0.0
 11
153.5226446831
 21
220.1446019385
 31
0.0
  0
LINE
  5
2CF
330
224
100
AcDbEntity
 67
     1
  8
7_ALL_FEATURES
  6
Continuous
 62
     9
100
AcDbLine
 10
170.9726446831
 20
223.6597743811
 30
0.0
 11
170.9726446831
 21
214.6597743811
 31
0.0
  0
ARC
  5
2D0
330
224
100
AcDbEntity
 67
     1
  8
7_ALL_FEATURES
  6
Continuous
 62
     7
100
AcDbCircle
 10
136.0631314147
 20
168.7634105288
 30
0.0
 40
1.0
100
AcDbArc
 50
118.2535645231
 51
205.3431883943
  0
LINE
  5
2D1
330
224
100
AcDbEntity
 67
     1
  8
7_ALL_FEATURES
  6
Continuous
 62
     7
100
AcDbLine
 10
135.5897569459
 20
169.6442718188
 30
0.0
 11
146.8856013415
 21
175.714653616
 31
0.0
  0
ARC
  5
2D2
330
224
100
AcDbEntity
 67
     1
  8
7_ALL_FEATURES
  6
Continuous
 62
     7
100
AcDbCircle
 10
147.3589758104
 20
174.8337923259
 30
0.0
 40
1.0
100
AcDbArc
 50
31.3732434184
 51
118.2535645231
  0
ARC
  5
2D3
330
224
100
AcDbEntity
 67
     1
  8
7_ALL_FEATURES
  6
Continuous
 62
     7
100
AcDbCircle
 10
272.8666953855
 20
251.3636056476
 30
0.0
 40
146.0
100
AcDbArc
 50
211.3732434184
 51
218.0997808909
  0
ARC
  5
2D4
330
224
100
AcDbEntity
 67
     1
  8
7_ALL_FEATURES
  6
Continuous
 62
     7
100
AcDbCircle
 10
157.1869002889
 20
160.6597743811
 30
0.0
 40
1.0
100
AcDbArc
 50
270.0
 51
38.09978089090001
  0
LINE
  5
2D5
330
224
100
AcDbEntity
 67
     1
  8
7_ALL_FEATURES
  6
Continuous
 62
     7
100
AcDbLine
 10
157.1869002889
 20
159.6597743811
 30
0.0
 11
140.5515416295
 21
159.6597743811
 31
0.0
  0
ARC
  5
2D6
330
224
100
AcDbEntity
 67
     1
  8
7_ALL_FEATURES
  6
Continuous
 62
     7
100
AcDbCircle
 10
140.5515416295
 20
160.6597743811
 30
0.0
 40
1.0
100
AcDbArc
 50
212.6188511712
 51
270.0
  0
ARC
  5
2D7
330
224
100
AcDbEntity
 67
     1
  8
7_ALL_FEATURES
  6
Continuous
 62
     7
100
AcDbCircle
 10
202.0376230345
 20
200.0102736595
 30
0.0
 40
74.0
100
AcDbArc
 50
205.3431883943
 51
212.6188511712
  0
ARC
  5
2D8
330
224
100
AcDbEntity
 67
     1
  8
7_ALL_FEATURES
  6
Continuous
 62
     7
100
AcDbCircle
 10
142.9097074448
 20
182.6600301557
 30
0.0
 40
1.0
100
AcDbArc
 50
298.2535645231001
 51
27.8637943092
  0
LINE
  5
2D9
330
224
100
AcDbEntity
 67
     1
  8
7_ALL_FEATURES
  6
Continuous
 62
     7
100
AcDbLine
 10
143.3830819136
 20
181.7791688657
 30
0.0
 11
133.1747934499
 21
176.2932391468
 31
0.0
  0
ARC
  5
2DA
330
224
100
AcDbEntity
 67
     1
  8
7_ALL_FEATURES
  6
Continuous
 62
     7
100
AcDbCircle
 10
132.7014189811
 20
177.1741004368
 30
0.0
 40
1.0
100
AcDbArc
 50
198.2295180667
 51
298.2535645231001
  0
ARC
  5
2DB
330
224
100
AcDbEntity
 67
     1
  8
7_ALL_FEATURES
  6
Continuous
 62
     7
100
AcDbCircle
 10
202.0376230345
 20
200.0102736595
 30
0.0
 40
74.0
100
AcDbArc
 50
191.775364132
 51
198.2295180667
  0
ARC
  5
2DC
330
224
100
AcDbEntity
 67
     1
  8
7_ALL_FEATURES
  6
Continuous
 62
     7
100
AcDbCircle
 10
130.5738914728
 20
185.1127882587
 30
0.0
 40
1.0
100
AcDbArc
 50
118.2535645231
 51
191.775364132
  0
LINE
  5
2DD
330
224
100
AcDbEntity
 67
     1
  8
7_ALL_FEATURES
  6
Continuous
 62
     7
100
AcDbLine
 10
130.100517004
 20
185.9936495487
 30
0.0
 11
138.8892551884
 21
190.7167135735
 31
0.0
  0
ARC
  5
2DE
330
224
100
AcDbEntity
 67
     1
  8
7_ALL_FEATURES
  6
Continuous
 62
     7
100
AcDbCircle
 10
139.3626296573
 20
189.8358522835
 30
0.0
 40
1.0
100
AcDbArc
 50
24.7434644226
 51
118.2535645231
  0
ARC
  5
2DF
330
224
100
AcDbEntity
 67
     1
  8
7_ALL_FEATURES
  6
Continuous
 62
     7
100
AcDbCircle
 10
272.8666953855
 20
251.3636056476
 30
0.0
 40
146.0
100
AcDbArc
 50
204.7434644226
 51
207.8637943092
  0
ARC
  5
2E0
330
224
100
AcDbEntity
 67
     1
  8
7_ALL_FEATURES
  6
Continuous
 62
     7
100
AcDbCircle
 10
135.8337567241
 20
198.1567102128
 30
0.0
 40
1.0
100
AcDbArc
 50
298.2535645231001
 51
21.2201032077
  0
LINE
  5
2E1
330
224
100
AcDbEntity
 67
     1
  8
7_ALL_FEATURES
  6
Continuous
 62
     7
100
AcDbLine
 10
136.3071311929
 20
197.2758489227
 30
0.0
 11
129.7108778808
 21
193.7310253015
 31
0.0
  0
ARC
  5
2E2
330
224
100
AcDbEntity
 67
     1
  8
7_ALL_FEATURES
  6
Continuous
 62
     7
100
AcDbCircle
 10
129.237503412
 20
194.6118865916
 30
0.0
 40
1.0
100
AcDbArc
 50
184.2409233686
 51
298.2535645231001
  0
ARC
  5
2E3
330
224
100
AcDbEntity
 67
     1
  8
7_ALL_FEATURES
  6
Continuous
 62
     7
100
AcDbCircle
 10
202.0376230345
 20
200.0102736595
 30
0.0
 40
74.0
100
AcDbArc
 50
178.9701515115
 51
184.2409233686
  0
ARC
  5
2E4
330
224
100
AcDbEntity
 67
     1
  8
7_ALL_FEATURES
  6
Continuous
 62
     7
100
AcDbCircle
 10
129.0494149017
 20
201.3223230341
 30
0.0
 40
1.0
100
AcDbArc
 50
118.2535645231
 51
178.9701515115
  0
LINE
  5
2E5
330
224
100
AcDbEntity
 67
     1
  8
7_ALL_FEATURES
  6
Continuous
 62
     7
100
AcDbLine
 10
128.5760404329
 20
202.2031843241
 30
0.0
 11
133.2831493007
 21
204.732782554
 31
0.0
  0
ARC
  5
2E6
330
224
100
AcDbEntity
 67
     1
  8
7_ALL_FEATURES
  6
Continuous
 62
     7
100
AcDbCircle
 10
133.7565237695
 20
203.851921264
 30
0.0
 40
1.0
100
AcDbArc
 50
18.8570871463
 51
118.2535645231
  0
ARC
  5
2E7
330
224
100
AcDbEntity
 67
     1
  8
7_ALL_FEATURES
  6
Continuous
 62
     7
100
AcDbCircle
 10
272.8666953855
 20
251.3636056476
 30
0.0
 40
146.0
100
AcDbArc
 50
198.8570871463
 51
201.2201032077
  0
ARC
  5
2E8
330
224
100
AcDbEntity
 67
     1
  8
7_ALL_FEATURES
  6
Continuous
 62
     7
100
AcDbCircle
 10
167.5226446831
 20
154.6597743811
 30
0.0
 40
3.0
100
AcDbArc
 50
0.0
 51
42.5513394655
  0
ARC
  5
2E9
330
224
100
AcDbEntity
 67
     1
  8
7_ALL_FEATURES
  6
Continuous
 62
     7
100
AcDbCircle
 10
272.8666953855
 20
251.3636056476
 30
0.0
 40
140.0
100
AcDbArc
 50
194.4589277475
 51
222.5513394655
  0
ARC
  5
2EA
330
224
100
AcDbEntity
 67
     1
  8
7_ALL_FEATURES
  6
Continuous
 62
     7
100
AcDbCircle
 10
130.5226446831
 20
214.6597743811
 30
0.0
 40
7.0
100
AcDbArc
 50
14.4589277475
 51
168.423385196
  0
ARC
  5
2EB
330
224
100
AcDbEntity
 67
     1
  8
7_ALL_FEATURES
  6
Continuous
 62
     7
100
AcDbCircle
 10
202.0376230345
 20
200.0102736595
 30
0.0
 40
80.0
100
AcDbArc
 50
168.423385196
 51
213.1198091919
  0
ARC
  5
2EC
330
224
100
AcDbEntity
 67
     1
  8
7_ALL_FEATURES
  6
Continuous
 62
     7
100
AcDbCircle
 10
132.5226446831
 20
154.6597743811
 30
0.0
 40
3.0
100
AcDbArc
 50
0.0
 51
33.1198091919
  0
LINE
  5
2ED
330
224
100
AcDbEntity
 67
     1
  8
7_ALL_FEATURES
  6
Continuous
 62
     7
100
AcDbLine
 10
135.5226446831
 20
154.6597743811
 30
0.0
 11
135.5226446831
 21
153.6597743811
 31
0.0
  0
LINE
  5
2EE
330
224
100
AcDbEntity
 67
     1
  8
7_ALL_FEATURES
  6
Continuous
 62
     7
100
AcDbLine
 10
170.5226446831
 20
153.6597743811
 30
0.0
 11
170.5226446831
 21
154.6597743811
 31
0.0
  0
LINE
  5
2EF
330
224
100
AcDbEntity
 67
     1
  8
7_ALL_FEATURES
  6
Continuous
 62
     7
100
AcDbLine
 10
135.5226446831
 20
153.6597743811
 30
0.0
 11
135.5226446831
 21
151.6597743811
 31
0.0
  0
LINE
  5
2F0
330
224
100
AcDbEntity
 67
     1
  8
7_ALL_FEATURES
  6
Continuous
 62
     7
100
AcDbLine
 10
135.5226446831
 20
151.6597743811
 30
0.0
 11
135.5226446831
 21
149.6597743811
 31
0.0
  0
LINE
  5
2F1
330
224
100
AcDbEntity
 67
     1
  8
7_ALL_FEATURES
  6
Continuous
 62
     7
100
AcDbLine
 10
135.5226446831
 20
149.6597743811
 30
0.0
 11
170.5226446831
 21
149.6597743811
 31
0.0
  0
LINE
  5
2F2
330
224
100
AcDbEntity
 67
     1
  8
7_ALL_FEATURES
  6
Continuous
 62
     7
100
AcDbLine
 10
170.5226446831
 20
153.6597743811
 30
0.0
 11
170.5226446831
 21
151.6597743811
 31
0.0
  0
LINE
  5
2F3
330
224
100
AcDbEntity
 67
     1
  8
7_ALL_FEATURES
  6
Continuous
 62
     7
100
AcDbLine
 10
170.5226446831
 20
151.6597743811
 30
0.0
 11
170.5226446831
 21
149.6597743811
 31
0.0
  0
LINE
  5
2F4
330
224
100
AcDbEntity
 67
     1
  8
7_ALL_FEATURES
  6
Continuous
 62
     9
100
AcDbLine
 10
135.5226446831
 20
153.6597743811
 30
0.0
 11
170.5226446831
 21
153.6597743811
 31
0.0
  0
LINE
  5
2F5
330
224
100
AcDbEntity
 67
     1
  8
7_ALL_FEATURES
  6
Continuous
 62
     7
100
AcDbLine
 10
174.4726446831
 20
211.1597743812
 30
0.0
 11
192.5226446831
 21
211.1597743812
 31
0.0
  0
LINE
  5
2F6
330
224
100
AcDbEntity
 67
     1
  8
7_ALL_FEATURES
  6
Continuous
 62
     7
100
AcDbLine
 10
174.4726446831
 20
218.1597743811
 30
0.0
 11
192.5226446831
 21
218.1597743811
 31
0.0
  0
ARC
  5
2F7
330
224
100
AcDbEntity
 67
     1
  8
7_ALL_FEATURES
  6
Continuous
 62
     7
100
AcDbCircle
 10
192.5226446831
 20
204.6597743812
 30
0.0
 40
6.5
100
AcDbArc
 50
20.0
 51
90.0
  0
ARC
  5
2F8
330
224
100
AcDbEntity
 67
     1
  8
7_ALL_FEATURES
  6
Continuous
 62
     7
100
AcDbCircle
 10
192.5226446831
 20
204.6597743812
 30
0.0
 40
13.5
100
AcDbArc
 50
20.0
 51
90.0
  0
LINE
  5
2F9
330
224
100
AcDbEntity
 67
     1
  8
7_ALL_FEATURES
  6
Continuous
 62
     7
100
AcDbLine
 10
217.1792000801
 20
176.3878045885
 30
0.0
 11
215.7869337587
 21
175.8810610894
 31
0.0
  0
LINE
  5
2FA
330
224
100
AcDbEntity
 67
     1
  8
7_ALL_FEATURES
  6
Continuous
 62
     7
100
AcDbLine
 10
215.7869337587
 20
175.8810610894
 30
0.0
 11
215.7697886859
 21
175.8748207932
 31
0.0
  0
LINE
  5
2FB
330
224
100
AcDbEntity
 67
     1
  8
7_ALL_FEATURES
  6
Continuous
 62
     7
100
AcDbLine
 10
215.7697886859
 20
175.8748207932
 30
0.0
 11
214.0161708468
 21
175.2365560975
 31
0.0
  0
LINE
  5
2FC
330
224
100
AcDbEntity
 67
     1
  8
7_ALL_FEATURES
  6
Continuous
 62
     7
100
AcDbLine
 10
214.0161708468
 20
175.2365560975
 30
0.0
 11
213.890404522
 21
175.1907808988
 31
0.0
  0
LINE
  5
2FD
330
224
100
AcDbEntity
 67
     1
  8
7_ALL_FEATURES
  6
Continuous
 62
     7
100
AcDbLine
 10
213.890404522
 20
175.1907808988
 30
0.0
 11
212.0108906658
 21
174.5066938002
 31
0.0
  0
LINE
  5
2FE
330
224
100
AcDbEntity
 67
     1
  8
7_ALL_FEATURES
  6
Continuous
 62
     7
100
AcDbLine
 10
212.0108906658
 20
174.5066938002
 30
0.0
 11
211.0801552741
 21
174.1679338217
 31
0.0
  0
LINE
  5
2FF
330
224
100
AcDbEntity
 67
     1
  8
7_ALL_FEATURES
  6
Continuous
 62
     7
100
AcDbLine
 10
211.0801552741
 20
174.1679338217
 30
0.0
 11
211.0706858569
 21
174.1644872357
 31
0.0
  0
LINE
  5
300
330
224
100
AcDbEntity
 67
     1
  8
7_ALL_FEATURES
  6
Continuous
 62
     7
100
AcDbLine
 10
211.0706858569
 20
174.1644872357
 30
0.0
 11
210.6013517346
 21
173.9936635853
 31
0.0
  0
SPLINE
  5
301
330
224
100
AcDbEntity
 67
     1
  8
7_ALL_FEATURES
  6
Continuous
 62
     7
100
AcDbSpline
 70
     0
 71
     3
 72
    11
 73
     7
 74
     0
 42
0.000000001
 43
0.0000001
 40
0.0
 40
0.0
 40
0.0
 40
0.0
 40
0.2533271412
 40
0.5051268738
 40
0.7543570629
 40
1.0
 40
1.0
 40
1.0
 40
1.0
 10
215.769788686
 20
175.8748207932
 30
0.0
 10
216.8266227939
 20
173.1138849405
 30
0.0
 10
219.0363167187
 20
167.6472212304
 30
0.0
 10
222.6394368001
 20
159.6129103067
 30
0.0
 10
226.5058195479
 20
151.8018115448
 30
0.0
 10
229.2684358796
 20
146.7283071727
 30
0.0
 10
230.6902225576
 20
144.2391253017
 30
0.0
  0
SPLINE
  5
302
330
224
100
AcDbEntity
 67
     1
  8
7_ALL_FEATURES
  6
Continuous
 62
     7
100
AcDbSpline
 70
     0
 71
     3
 72
    17
 73
    13
 74
     0
 42
0.000000001
 43
0.0000001
 40
0.0
 40
0.0
 40
0.0
 40
0.0
 40
0.0320677067
 40
0.0656063812
 40
0.1018871264
 40
0.1418809997
 40
0.2353431166
 40
0.3490305391
 40
0.4834833778
 40
0.6379454167
 40
0.8108322355
 40
1.0
 40
1.0
 40
1.0
 40
1.0
 10
228.9535552863
 20
143.2471646824
 30
0.0
 10
228.9565425859
 20
143.2419345546
 30
0.0
 10
228.9639246183
 20
143.2319122173
 30
0.0
 10
228.978471527
 20
143.2192787502
 30
0.0
 10
228.9964316126
 20
143.2089196045
 30
0.0
 10
229.0263315752
 20
143.1975516004
 30
0.0
 10
229.072530622
 20
143.1899388772
 30
0.0
 10
229.1368464443
 20
143.1900592518
 30
0.0
 10
229.2120772766
 20
143.1989444686
 30
0.0
 10
229.2971002409
 20
143.2164955966
 30
0.0
 10
229.3906336903
 20
143.2424725528
 30
0.0
 10
229.4550819093
 20
143.264278062
 30
0.0
 10
229.4884697154
 20
143.2764302296
 30
0.0
  0
SPLINE
  5
303
330
224
100
AcDbEntity
 67
     1
  8
7_ALL_FEATURES
  6
Continuous
 62
     7
100
AcDbSpline
 70
     0
 71
     3
 72
    11
 73
     7
 74
     0
 42
0.000000001
 43
0.0000001
 40
0.0
 40
0.0
 40
0.0
 40
0.0
 40
0.2532690107
 40
0.5050371783
 40
0.754280242
 40
1.0
 40
1.0
 40
1.0
 40
1.0
 10
213.8960255297
 20
175.1753322448
 30
0.0
 10
214.9621834938
 20
172.3894634215
 30
0.0
 10
217.1915733026
 20
166.8731617092
 30
0.0
 10
220.8273052602
 20
158.765340283
 30
0.0
 10
224.7295619177
 20
150.881416949
 30
0.0
 10
227.5181885971
 20
145.7601211885
 30
0.0
 10
228.9535550869
 20
143.2471645685
 30
0.0
  0
LINE
  5
304
330
224
100
AcDbEntity
 67
     1
  8
7_ALL_FEATURES
  6
Continuous
 62
     7
100
AcDbLine
 10
198.6306467182
 20
206.8829053128
 30
0.0
 11
210.6013517346
 21
173.9936635853
 31
0.0
  0
LINE
  5
305
330
224
100
AcDbEntity
 67
     1
  8
7_ALL_FEATURES
  6
Continuous
 62
     7
100
AcDbLine
 10
205.2084950637
 20
209.277046316
 30
0.0
 11
217.1792000801
 21
176.3878045885
 31
0.0
  0
LINE
  5
306
330
224
100
AcDbEntity
 67
     1
  8
7_ALL_FEATURES
  6
Continuous
 62
     7
100
AcDbLine
 10
212.961316358
 20
174.8176455707
 30
0.0
 11
212.0108906658
 21
174.5066938002
 31
0.0
  0
LINE
  5
307
330
224
100
AcDbEntity
 67
     1
  8
7_ALL_FEATURES
  6
Continuous
 62
     7
100
AcDbLine
 10
218.9389931062
 20
139.4367347568
 30
0.0
 11
217.9391651268
 21
139.418187208
 31
0.0
  0
LINE
  5
308
330
224
100
AcDbEntity
 67
     1
  8
7_ALL_FEATURES
  6
Continuous
 62
     7
100
AcDbLine
 10
217.9391651268
 20
139.418187208
 30
0.0
 11
216.9393371474
 21
139.3996396592
 31
0.0
  0
ARC
  5
309
330
224
100
AcDbEntity
 67
     1
  8
7_ALL_FEATURES
  6
Continuous
 62
     7
100
AcDbCircle
 10
97.9598075963
 20
137.1924813515
 30
0.0
 40
119.0
100
AcDbArc
 50
1.0627572062
 51
18.1007652657
  0
ARC
  5
30A
330
224
100
AcDbEntity
 67
     1
  8
7_ALL_FEATURES
  6
Continuous
 62
     7
100
AcDbCircle
 10
97.9598075963
 20
137.1924813515
 30
0.0
 40
121.0
100
AcDbArc
 50
1.0627572062
 51
18.1165979488
  0
SPLINE
  5
30B
330
224
100
AcDbEntity
 67
     1
  8
7_ALL_FEATURES
  6
Continuous
 62
     7
100
AcDbSpline
 70
     0
 71
     3
 72
    16
 73
    12
 74
     0
 42
0.000000001
 43
0.0000001
 40
0.0
 40
0.0
 40
0.0
 40
0.0
 40
0.2278920975
 40
0.4275619664
 40
0.5981091519
 40
0.7388727795
 40
0.8493217442
 40
0.9291293517
 40
0.9783864561
 40
0.9920776893
 40
1.0
 40
1.0
 40
1.0
 40
1.0
 10
214.0161708468
 20
175.2365560975
 30
0.0
 10
214.0067394637
 20
175.2324036857
 30
0.0
 10
213.9890712093
 20
175.224552034
 30
0.0
 10
213.9644589076
 20
175.2133405803
 30
0.0
 10
213.9435485374
 20
175.2035029748
 30
0.0
 10
213.9264359708
 20
175.195094708
 30
0.0
 10
213.9131618386
 20
175.1881375745
 30
0.0
 10
213.9038128473
 20
175.182733237
 30
0.0
 10
213.8984542944
 20
175.1789917166
 30
0.0
 10
213.8962394335
 20
175.1767261507
 30
0.0
 10
213.8958975958
 20
175.1756668601
 30
0.0
 10
213.8960257056
 20
175.1753323122
 30
0.0
  0
SPLINE
  5
30C
330
224
100
AcDbEntity
 67
     1
  8
7_ALL_FEATURES
  6
Continuous
 62
     7
100
AcDbSpline
 70
     0
 71
     3
 72
    21
 73
    17
 74
     0
 42
0.000000001
 43
0.0000001
 40
0.0
 40
0.0
 40
0.0
 40
0.0
 40
0.1512453581
 40
0.3135937012
 40
0.4766722755
 40
0.6300446674
 40
0.7000646644
 40
0.7642021262
 40
0.8215768558
 40
0.8715247573
 40
0.9136914396
 40
0.9482104866
 40
0.9629003476
 40
0.9761635775
 40
0.9883672991
 40
1.0
 40
1.0
 40
1.0
 40
1.0
 10
229.4884697154
 20
143.2764302296
 30
0.0
 10
229.5647258942
 20
143.3041852089
 30
0.0
 10
229.7199300177
 20
143.3698270271
 30
0.0
 10
229.9472567977
 20
143.4874828722
 30
0.0
 10
230.1664268276
 20
143.621923965
 30
0.0
 10
230.3346575406
 20
143.7436294145
 30
0.0
 10
230.4528909133
 20
143.8428244266
 30
0.0
 10
230.5279143248
 20
143.9131482286
 30
0.0
 10
230.5907595221
 20
143.9804409466
 30
0.0
 10
230.6404295853
 20
144.0435970707
 30
0.0
 10
230.6761562487
 20
144.1015745349
 30
0.0
 10
230.6948989492
 20
144.1473363196
 30
0.0
 10
230.7011804724
 20
144.1803783699
 30
0.0
 10
230.7017407057
 20
144.202033649
 30
0.0
 10
230.6983381707
 20
144.221791573
 30
0.0
 10
230.6933179499
 20
144.2337054636
 30
0.0
 10
230.6902223582
 20
144.2391251879
 30
0.0
  0
SPLINE
  5
30D
330
224
100
AcDbEntity
 67
     1
  8
7_ALL_FEATURES
  6
Continuous
 62
     7
100
AcDbSpline
 70
     0
 71
     3
 72
    17
 73
    13
 74
     0
 42
0.000000001
 43
0.0000001
 40
0.0
 40
0.0
 40
0.0
 40
0.0
 40
0.0320677067
 40
0.0656063812
 40
0.1018871264
 40
0.1418809997
 40
0.2353431166
 40
0.3490305391
 40
0.4834833778
 40
0.6379454167
 40
0.8108322355
 40
1.0
 40
1.0
 40
1.0
 40
1.0
 10
230.6902223582
 20
144.2391251879
 30
0.0
 10
230.6872350586
 20
144.2443553157
 30
0.0
 10
230.6798530261
 20
144.2543776529
 30
0.0
 10
230.6653061175
 20
144.26701112
 30
0.0
 10
230.6473460319
 20
144.2773702658
 30
0.0
 10
230.6174460693
 20
144.2887382698
 30
0.0
 10
230.5712470225
 20
144.2963509931
 30
0.0
 10
230.5069312002
 20
144.2962306184
 30
0.0
 10
230.4317003679
 20
144.2873454016
 30
0.0
 10
230.3466774036
 20
144.2697942736
 30
0.0
 10
230.2531439542
 20
144.2438173174
 30
0.0
 10
230.1886957352
 20
144.2220118083
 30
0.0
 10
230.1553079291
 20
144.2098596406
 30
0.0
  0
LINE
  5
30E
330
224
100
AcDbEntity
 67
     1
  8
7_ALL_FEATURES
  6
Continuous
 62
     9
100
AcDbLine
 10
205.2084950637
 20
209.277046316
 30
0.0
 11
198.6306467182
 21
206.8829053128
 31
0.0
  0
LINE
  5
30F
330
224
100
AcDbEntity
 67
     1
  8
7_ALL_FEATURES
  6
Continuous
 62
     9
100
AcDbLine
 10
192.5226446831
 20
218.1597743811
 30
0.0
 11
192.5226446831
 21
211.1597743812
 31
0.0
  0
SPLINE
  5
310
330
224
100
AcDbEntity
 67
     1
  8
7_ALL_FEATURES
  6
Continuous
 62
     7
100
AcDbSpline
 70
     0
 71
     3
 72
    21
 73
    17
 74
     0
 42
0.000000001
 43
0.0000001
 40
0.0
 40
0.0
 40
0.0
 40
0.0
 40
0.1512453581
 40
0.3135937012
 40
0.4766722755
 40
0.6300446674
 40
0.7000646644
 40
0.7642021262
 40
0.8215768558
 40
0.8715247573
 40
0.9136914396
 40
0.9482104866
 40
0.9629003476
 40
0.9761635775
 40
0.9883672991
 40
1.0
 40
1.0
 40
1.0
 40
1.0
 10
230.1553079291
 20
144.2098596406
 30
0.0
 10
230.0790517502
 20
144.1821046614
 30
0.0
 10
229.9238476268
 20
144.1164628431
 30
0.0
 10
229.6965208467
 20
143.998806998
 30
0.0
 10
229.4773508169
 20
143.8643659052
 30
0.0
 10
229.3091201039
 20
143.7426604557
 30
0.0
 10
229.1908867312
 20
143.6434654436
 30
0.0
 10
229.1158633197
 20
143.5731416416
 30
0.0
 10
229.0530181224
 20
143.5058489236
 30
0.0
 10
229.0033480592
 20
143.4426927995
 30
0.0
 10
228.9676213958
 20
143.3847153354
 30
0.0
 10
228.9488786953
 20
143.3389535506
 30
0.0
 10
228.9425971721
 20
143.3059115004
 30
0.0
 10
228.9420369388
 20
143.2842562212
 30
0.0
 10
228.9454394738
 20
143.2644982972
 30
0.0
 10
228.9504596946
 20
143.2525844066
 30
0.0
 10
228.9535552863
 20
143.2471646824
 30
0.0
  0
LINE
  5
311
330
224
100
AcDbEntity
 67
     1
  8
3_ALL_AXES
  6
Continuous
 62
     7
100
AcDbLine
 10
145.5226446831
 20
193.4027148209
 30
0.0
 11
145.5226446831
 21
203.6901192665
 31
0.0
  0
LINE
  5
312
330
224
100
AcDbEntity
 67
     1
  8
3_ALL_AXES
  6
Continuous
 62
     7
100
AcDbLine
 10
145.5226446831
 20
203.6901192665
 30
0.0
 11
145.5226446831
 21
209.1749468238
 31
0.0
  0
LINE
  5
313
330
224
100
AcDbEntity
 67
     1
  8
3_ALL_AXES
  6
Continuous
 62
     7
100
AcDbLine
 10
145.5226446831
 20
209.1749468238
 30
0.0
 11
145.5226446831
 21
220.1446019385
 31
0.0
  0
LINE
  5
314
330
224
100
AcDbEntity
 67
     1
  8
3_ALL_AXES
  6
Continuous
 62
     7
100
AcDbLine
 10
145.5226446831
 20
220.1446019385
 30
0.0
 11
145.5226446831
 21
225.6294294958
 31
0.0
  0
LINE
  5
315
330
224
100
AcDbEntity
 67
     1
  8
3_ALL_AXES
  6
Continuous
 62
     7
100
AcDbLine
 10
145.5226446831
 20
225.6294294958
 30
0.0
 11
145.5226446831
 21
242.9097743811
 31
0.0
  0
LINE
  5
316
330
224
100
AcDbEntity
 67
     1
  8
3_ALL_AXES
  6
Continuous
 62
     7
100
AcDbLine
 10
145.5226446831
 20
242.9097743811
 30
0.0
 11
145.5226446831
 21
244.4097743811
 31
0.0
  0
LINE
  5
317
330
224
100
AcDbEntity
 67
     1
  8
7_ALL_FEATURES
  6
Continuous
 62
     7
100
AcDbLine
 10
50.5226446831
 20
185.9097743811
 30
0.0
 11
50.5226446831
 21
188.5597743811
 31
0.0
  0
LINE
  5
318
330
224
100
AcDbEntity
 67
     1
  8
7_ALL_FEATURES
  6
Continuous
 62
     7
100
AcDbLine
 10
50.5226446831
 20
188.5597743811
 30
0.0
 11
50.5226446831
 21
188.7569345184
 31
0.0
  0
LINE
  5
319
330
224
100
AcDbEntity
 67
     1
  8
7_ALL_FEATURES
  6
Continuous
 62
     7
100
AcDbLine
 10
50.5226446831
 20
188.7569345184
 30
0.0
 11
50.5226446831
 21
240.5626894494
 31
0.0
  0
LINE
  5
31A
330
224
100
AcDbEntity
 67
     1
  8
7_ALL_FEATURES
  6
Continuous
 62
     7
100
AcDbLine
 10
50.5226446831
 20
240.5626894494
 30
0.0
 11
50.5226446831
 21
240.7597743811
 31
0.0
  0
LINE
  5
31B
330
224
100
AcDbEntity
 67
     1
  8
7_ALL_FEATURES
  6
Continuous
 62
     7
100
AcDbLine
 10
50.5226446831
 20
240.7597743811
 30
0.0
 11
50.5226446831
 21
243.4097743811
 31
0.0
  0
LINE
  5
31C
330
224
100
AcDbEntity
 67
     1
  8
7_ALL_FEATURES
  6
Continuous
 62
     7
100
AcDbLine
 10
142.8720934898
 20
184.9097743811
 30
0.0
 11
129.5949362459
 21
184.9097743812
 31
0.0
  0
LINE
  5
31D
330
224
100
AcDbEntity
 67
     1
  8
7_ALL_FEATURES
  6
Continuous
 62
     7
100
AcDbLine
 10
123.4831606539
 20
184.9097743812
 30
0.0
 11
51.5226446831
 21
184.9097743811
 31
0.0
  0
LINE
  5
31E
330
224
100
AcDbEntity
 67
     1
  8
7_ALL_FEATURES
  6
Continuous
 62
     7
100
AcDbLine
 10
145.5226446831
 20
244.4097743811
 30
0.0
 11
51.5226446831
 21
244.4097743811
 31
0.0
  0
ARC
  5
31F
330
224
100
AcDbEntity
 67
     1
  8
7_ALL_FEATURES
  6
Continuous
 62
     7
100
AcDbCircle
 10
51.5226446831
 20
243.4097743811
 30
0.0
 40
1.0
100
AcDbArc
 50
90.0
 51
180.0
  0
ARC
  5
320
330
224
100
AcDbEntity
 67
     1
  8
7_ALL_FEATURES
  6
Continuous
 62
     7
100
AcDbCircle
 10
51.5226446831
 20
185.9097743811
 30
0.0
 40
1.0
100
AcDbArc
 50
180.0
 51
270.0
  0
LINE
  5
321
330
224
100
AcDbEntity
 67
     1
  8
7_ALL_FEATURES
  6
Continuous
 62
     9
100
AcDbLine
 10
51.5226446831
 20
184.9097743811
 30
0.0
 11
51.5226446831
 21
244.4097743811
 31
0.0
  0
SPLINE
  5
322
330
224
100
AcDbEntity
 67
     1
  8
0
  6
Continuous
 62
     2
100
AcDbSpline
 70
     0
 71
     3
 72
    13
 73
     9
 74
     0
 42
0.000000001
 43
0.0000001
 40
0.0
 40
0.0
 40
0.0
 40
0.0
 40
0.1666666667
 40
0.3333333333
 40
0.5
 40
0.6666666667
 40
0.8333333333
 40
1.0
 40
1.0
 40
1.0
 40
1.0
 10
128.0226446831
 20
115.5706609775
 30
0.0
 10
128.0226446831
 20
115.5706609775
 30
0.0
 10
128.0800375796
 20
115.5657557502
 30
0.0
 10
128.3324859977
 20
115.5456375576
 30
0.0
 10
128.7343940289
 20
115.518108217
 30
0.0
 10
129.2583826445
 20
115.4905396426
 30
0.0
 10
129.8688078638
 20
115.4703460581
 30
0.0
 10
130.3047708137
 20
115.4654328606
 30
0.0
 10
130.5226446831
 20
115.4654328606
 30
0.0
  0
SPLINE
  5
323
330
224
100
AcDbEntity
 67
     1
  8
0
  6
Continuous
 62
     2
100
AcDbSpline
 70
     0
 71
     3
 72
    13
 73
     9
 74
     0
 42
0.000000001
 43
0.0000001
 40
0.0
 40
0.0
 40
0.0
 40
0.0
 40
0.1666666667
 40
0.3333333333
 40
0.5
 40
0.6666666667
 40
0.8333333333
 40
1.0
 40
1.0
 40
1.0
 40
1.0
 10
130.5226446831
 20
115.4654328606
 30
0.0
 10
130.7405274112
 20
115.4654328606
 30
0.0
 10
131.1765021008
 20
115.4703464828
 30
0.0
 10
131.7869211183
 20
115.490540332
 30
0.0
 10
132.310898794
 20
115.5181084737
 30
0.0
 10
132.7128006297
 20
115.5456373585
 30
0.0
 10
132.965251816
 20
115.5657557459
 30
0.0
 10
133.0226446831
 20
115.5706609775
 30
0.0
 10
133.0226446831
 20
115.5706609775
 30
0.0
  0
SPLINE
  5
324
330
224
100
AcDbEntity
 67
     1
  8
0
  6
Continuous
 62
     2
100
AcDbSpline
 70
     0
 71
     3
 72
    13
 73
     9
 74
     0
 42
0.000000001
 43
0.0000001
 40
0.0
 40
0.0
 40
0.0
 40
0.0
 40
0.1666666667
 40
0.3333333333
 40
0.5
 40
0.6666666667
 40
0.8333333333
 40
1.0
 40
1.0
 40
1.0
 40
1.0
 10
130.5226446831
 20
56.1758890944
 30
0.0
 10
130.3047619552
 20
56.1758890944
 30
0.0
 10
129.8687872658
 20
56.1709754722
 30
0.0
 10
129.2583682481
 20
56.150781623
 30
0.0
 10
128.7343905723
 20
56.1232134812
 30
0.0
 10
128.3324887364
 20
56.0956845965
 30
0.0
 10
128.0800375502
 20
56.075566209
 30
0.0
 10
128.0226446831
 20
56.0706609775
 30
0.0
 10
128.0226446831
 20
56.0706609775
 30
0.0
  0
SPLINE
  5
325
330
224
100
AcDbEntity
 67
     1
  8
0
  6
Continuous
 62
     2
100
AcDbSpline
 70
     0
 71
     3
 72
    13
 73
     9
 74
     0
 42
0.000000001
 43
0.0000001
 40
0.0
 40
0.0
 40
0.0
 40
0.0
 40
0.1666666667
 40
0.3333333333
 40
0.5
 40
0.6666666667
 40
0.8333333333
 40
1.0
 40
1.0
 40
1.0
 40
1.0
 10
133.0226446831
 20
56.0706609775
 30
0.0
 10
133.0226446831
 20
56.0706609775
 30
0.0
 10
132.9652517867
 20
56.0755662048
 30
0.0
 10
132.7128033686
 20
56.0956843973
 30
0.0
 10
132.3108953373
 20
56.1232137379
 30
0.0
 10
131.7869067215
 20
56.1507823124
 30
0.0
 10
131.1764815021
 20
56.1709758968
 30
0.0
 10
130.7405185523
 20
56.1758890944
 30
0.0
 10
130.5226446831
 20
56.1758890944
 30
0.0
  0
LINE
  5
326
330
224
100
AcDbEntity
 67
     1
  8
3_ALL_AXES
  6
Continuous
 62
     7
100
AcDbLine
 10
125.5226446831
 20
119.5706609775
 30
0.0
 11
125.5226446831
 21
118.5706609775
 31
0.0
  0
LINE
  5
327
330
224
100
AcDbEntity
 67
     1
  8
3_ALL_AXES
  6
Continuous
 62
     7
100
AcDbLine
 10
130.5226446831
 20
119.5706609775
 30
0.0
 11
128.0226446831
 21
119.5706609775
 31
0.0
  0
LINE
  5
328
330
224
100
AcDbEntity
 67
     1
  8
3_ALL_AXES
  6
Continuous
 62
     7
100
AcDbLine
 10
128.0226446831
 20
119.5706609775
 30
0.0
 11
127.8726910014
 21
119.5706609775
 31
0.0
  0
LINE
  5
329
330
224
100
AcDbEntity
 67
     1
  8
3_ALL_AXES
  6
Continuous
 62
     7
100
AcDbLine
 10
127.8726910014
 20
119.5706609775
 30
0.0
 11
125.7726446831
 21
119.5706609775
 31
0.0
  0
LINE
  5
32A
330
224
100
AcDbEntity
 67
     1
  8
3_ALL_AXES
  6
Continuous
 62
     7
100
AcDbLine
 10
125.7726446831
 20
119.5706609775
 30
0.0
 11
125.5226446831
 21
119.5706609775
 31
0.0
  0
LINE
  5
32B
330
224
100
AcDbEntity
 67
     1
  8
3_ALL_AXES
  6
Continuous
 62
     7
100
AcDbLine
 10
135.5226446831
 20
119.5706609775
 30
0.0
 11
135.2726446831
 21
119.5706609775
 31
0.0
  0
LINE
  5
32C
330
224
100
AcDbEntity
 67
     1
  8
3_ALL_AXES
  6
Continuous
 62
     7
100
AcDbLine
 10
135.2726446831
 20
119.5706609775
 30
0.0
 11
133.1725983648
 21
119.5706609775
 31
0.0
  0
LINE
  5
32D
330
224
100
AcDbEntity
 67
     1
  8
3_ALL_AXES
  6
Continuous
 62
     7
100
AcDbLine
 10
133.1725983648
 20
119.5706609775
 30
0.0
 11
133.0226446831
 21
119.5706609775
 31
0.0
  0
LINE
  5
32E
330
224
100
AcDbEntity
 67
     1
  8
3_ALL_AXES
  6
Continuous
 62
     7
100
AcDbLine
 10
133.0226446831
 20
119.5706609775
 30
0.0
 11
130.5226446831
 21
119.5706609775
 31
0.0
  0
LINE
  5
32F
330
224
100
AcDbEntity
 67
     1
  8
3_ALL_AXES
  6
Continuous
 62
     7
100
AcDbLine
 10
135.5226446831
 20
119.5706609775
 30
0.0
 11
135.5226446831
 21
118.5706609775
 31
0.0
  0
LINE
  5
330
330
224
100
AcDbEntity
 67
     1
  8
3_ALL_AXES
  6
Continuous
 62
     7
100
AcDbLine
 10
130.5226446831
 20
52.0706609775
 30
0.0
 11
133.0226446831
 21
52.0706609775
 31
0.0
  0
LINE
  5
331
330
224
100
AcDbEntity
 67
     1
  8
3_ALL_AXES
  6
Continuous
 62
     7
100
AcDbLine
 10
133.0226446831
 20
52.0706609775
 30
0.0
 11
133.1725983648
 21
52.0706609775
 31
0.0
  0
LINE
  5
332
330
224
100
AcDbEntity
 67
     1
  8
3_ALL_AXES
  6
Continuous
 62
     7
100
AcDbLine
 10
133.1725983648
 20
52.0706609775
 30
0.0
 11
135.2726446831
 21
52.0706609775
 31
0.0
  0
LINE
  5
333
330
224
100
AcDbEntity
 67
     1
  8
3_ALL_AXES
  6
Continuous
 62
     7
100
AcDbLine
 10
135.2726446831
 20
52.0706609775
 30
0.0
 11
135.5226446831
 21
52.0706609775
 31
0.0
  0
LINE
  5
334
330
224
100
AcDbEntity
 67
     1
  8
3_ALL_AXES
  6
Continuous
 62
     7
100
AcDbLine
 10
125.5226446831
 20
52.0706609775
 30
0.0
 11
125.7726446831
 21
52.0706609775
 31
0.0
  0
LINE
  5
335
330
224
100
AcDbEntity
 67
     1
  8
3_ALL_AXES
  6
Continuous
 62
     7
100
AcDbLine
 10
125.7726446831
 20
52.0706609775
 30
0.0
 11
127.8726910014
 21
52.0706609775
 31
0.0
  0
LINE
  5
336
330
224
100
AcDbEntity
 67
     1
  8
3_ALL_AXES
  6
Continuous
 62
     7
100
AcDbLine
 10
127.8726910014
 20
52.0706609775
 30
0.0
 11
128.0226446831
 21
52.0706609775
 31
0.0
  0
LINE
  5
337
330
224
100
AcDbEntity
 67
     1
  8
3_ALL_AXES
  6
Continuous
 62
     7
100
AcDbLine
 10
128.0226446831
 20
52.0706609775
 30
0.0
 11
130.5226446831
 21
52.0706609775
 31
0.0
  0
LINE
  5
338
330
224
100
AcDbEntity
 67
     1
  8
3_ALL_AXES
  6
Continuous
 62
     7
100
AcDbLine
 10
125.5226446831
 20
52.0706609775
 30
0.0
 11
125.5226446831
 21
53.0706609775
 31
0.0
  0
LINE
  5
339
330
224
100
AcDbEntity
 67
     1
  8
3_ALL_AXES
  6
Continuous
 62
     7
100
AcDbLine
 10
135.5226446831
 20
52.0706609775
 30
0.0
 11
135.5226446831
 21
53.0706609775
 31
0.0
  0
LINE
  5
33A
330
224
100
AcDbEntity
 67
     1
  8
3_ALL_AXES
  6
Continuous
 62
     7
100
AcDbLine
 10
125.5226446831
 20
56.0706609775
 30
0.0
 11
125.5226446831
 21
55.0706609775
 31
0.0
  0
LINE
  5
33B
330
224
100
AcDbEntity
 67
     1
  8
3_ALL_AXES
  6
Continuous
 62
     7
100
AcDbLine
 10
130.5226446831
 20
56.0706609775
 30
0.0
 11
128.1226452335
 21
56.0706609775
 31
0.0
  0
LINE
  5
33C
330
224
100
AcDbEntity
 67
     1
  8
3_ALL_AXES
  6
Continuous
 62
     7
100
AcDbLine
 10
128.1226452335
 20
56.0706609775
 30
0.0
 11
128.0226446831
 21
56.0706609775
 31
0.0
  0
LINE
  5
33D
330
224
100
AcDbEntity
 67
     1
  8
3_ALL_AXES
  6
Continuous
 62
     7
100
AcDbLine
 10
128.0226446831
 20
56.0706609775
 30
0.0
 11
125.5226446831
 21
56.0706609775
 31
0.0
  0
LINE
  5
33E
330
224
100
AcDbEntity
 67
     1
  8
3_ALL_AXES
  6
Continuous
 62
     7
100
AcDbLine
 10
135.5226446831
 20
56.0706609775
 30
0.0
 11
133.0226446831
 21
56.0706609775
 31
0.0
  0
LINE
  5
33F
330
224
100
AcDbEntity
 67
     1
  8
3_ALL_AXES
  6
Continuous
 62
     7
100
AcDbLine
 10
133.0226446831
 20
56.0706609775
 30
0.0
 11
132.922644132
 21
56.0706609775
 31
0.0
  0
LINE
  5
340
330
224
100
AcDbEntity
 67
     1
  8
3_ALL_AXES
  6
Continuous
 62
     7
100
AcDbLine
 10
132.922644132
 20
56.0706609775
 30
0.0
 11
130.5226446831
 21
56.0706609775
 31
0.0
  0
LINE
  5
341
330
224
100
AcDbEntity
 67
     1
  8
3_ALL_AXES
  6
Continuous
 62
     7
100
AcDbLine
 10
135.5226446831
 20
56.0706609775
 30
0.0
 11
135.5226446831
 21
55.0706609775
 31
0.0
  0
LINE
  5
342
330
224
100
AcDbEntity
 67
     1
  8
3_ALL_AXES
  6
Continuous
 62
     7
100
AcDbLine
 10
130.5226446831
 20
115.5706609775
 30
0.0
 11
132.922644132
 21
115.5706609775
 31
0.0
  0
LINE
  5
343
330
224
100
AcDbEntity
 67
     1
  8
3_ALL_AXES
  6
Continuous
 62
     7
100
AcDbLine
 10
132.922644132
 20
115.5706609775
 30
0.0
 11
133.0226446831
 21
115.5706609775
 31
0.0
  0
LINE
  5
344
330
224
100
AcDbEntity
 67
     1
  8
3_ALL_AXES
  6
Continuous
 62
     7
100
AcDbLine
 10
133.0226446831
 20
115.5706609775
 30
0.0
 11
135.5226446831
 21
115.5706609775
 31
0.0
  0
LINE
  5
345
330
224
100
AcDbEntity
 67
     1
  8
3_ALL_AXES
  6
Continuous
 62
     7
100
AcDbLine
 10
125.5226446831
 20
115.5706609775
 30
0.0
 11
128.0226446831
 21
115.5706609775
 31
0.0
  0
LINE
  5
346
330
224
100
AcDbEntity
 67
     1
  8
3_ALL_AXES
  6
Continuous
 62
     7
100
AcDbLine
 10
128.0226446831
 20
115.5706609775
 30
0.0
 11
128.1226452335
 21
115.5706609775
 31
0.0
  0
LINE
  5
347
330
224
100
AcDbEntity
 67
     1
  8
3_ALL_AXES
  6
Continuous
 62
     7
100
AcDbLine
 10
128.1226452335
 20
115.5706609775
 30
0.0
 11
130.5226446831
 21
115.5706609775
 31
0.0
  0
LINE
  5
348
330
224
100
AcDbEntity
 67
     1
  8
3_ALL_AXES
  6
Continuous
 62
     7
100
AcDbLine
 10
125.5226446831
 20
115.5706609775
 30
0.0
 11
125.5226446831
 21
116.5706609775
 31
0.0
  0
LINE
  5
349
330
224
100
AcDbEntity
 67
     1
  8
3_ALL_AXES
  6
Continuous
 62
     7
100
AcDbLine
 10
135.5226446831
 20
115.5706609775
 30
0.0
 11
135.5226446831
 21
116.5706609775
 31
0.0
  0
LINE
  5
34A
330
224
100
AcDbEntity
 67
     1
  8
3_ALL_AXES
  6
Continuous
 62
     7
100
AcDbLine
 10
135.2726446831
 20
52.0706609775
 30
0.0
 11
135.2726446831
 21
51.5706609775
 31
0.0
  0
LINE
  5
34B
330
224
100
AcDbEntity
 67
     1
  8
3_ALL_AXES
  6
Continuous
 62
     7
100
AcDbLine
 10
130.5226446831
 20
49.3206609775
 30
0.0
 11
128.27268401
 21
49.3206609775
 31
0.0
  0
ARC
  5
34C
330
224
100
AcDbEntity
 67
     1
  8
3_ALL_AXES
  6
Continuous
 62
     7
100
AcDbCircle
 10
130.730966011
 20
54.1030817243
 30
0.0
 40
5.2
100
AcDbArc
 50
293.1182769911
 51
330.8561480005001
  0
LINE
  5
34D
330
224
100
AcDbEntity
 67
     1
  8
3_ALL_AXES
  6
Continuous
 62
     7
100
AcDbLine
 10
130.5226446831
 20
49.3206609775
 30
0.0
 11
132.7726053562
 21
49.3206609775
 31
0.0
  0
LINE
  5
34E
330
224
100
AcDbEntity
 67
     1
  8
3_ALL_AXES
  6
Continuous
 62
     7
100
AcDbLine
 10
125.7726446831
 20
52.0706609775
 30
0.0
 11
125.7726446831
 21
51.5706609775
 31
0.0
  0
ARC
  5
34F
330
224
100
AcDbEntity
 67
     1
  8
3_ALL_AXES
  6
Continuous
 62
     7
100
AcDbCircle
 10
130.3143233553
 20
54.1030817243
 30
0.0
 40
5.2
100
AcDbArc
 50
209.1438519995
 51
246.8817230089
  0
LINE
  5
350
330
224
100
AcDbEntity
 67
     1
  8
3_ALL_AXES
  6
Continuous
 62
     7
100
AcDbLine
 10
130.5226446831
 20
51.5706609775
 30
0.0
 11
135.2726446831
 21
51.5706609775
 31
0.0
  0
LINE
  5
351
330
224
100
AcDbEntity
 67
     1
  8
3_ALL_AXES
  6
Continuous
 62
     7
100
AcDbLine
 10
130.5226446831
 20
51.5706609775
 30
0.0
 11
125.7726446831
 21
51.5706609775
 31
0.0
  0
LINE
  5
352
330
224
100
AcDbEntity
 67
     1
  8
3_ALL_AXES
  6
Continuous
 62
     7
100
AcDbLine
 10
135.2726446831
 20
119.5706609775
 30
0.0
 11
135.2726446831
 21
120.0706609775
 31
0.0
  0
LINE
  5
353
330
224
100
AcDbEntity
 67
     1
  8
3_ALL_AXES
  6
Continuous
 62
     7
100
AcDbLine
 10
132.7726053562
 20
122.3206609775
 30
0.0
 11
130.5226446831
 21
122.3206609775
 31
0.0
  0
ARC
  5
354
330
224
100
AcDbEntity
 67
     1
  8
3_ALL_AXES
  6
Continuous
 62
     7
100
AcDbCircle
 10
130.730966011
 20
117.5382402306
 30
0.0
 40
5.2
100
AcDbArc
 50
29.1438519995
 51
66.8817230089
  0
LINE
  5
355
330
224
100
AcDbEntity
 67
     1
  8
3_ALL_AXES
  6
Continuous
 62
     7
100
AcDbLine
 10
125.7726446831
 20
119.5706609775
 30
0.0
 11
125.7726446831
 21
120.0706609775
 31
0.0
  0
LINE
  5
356
330
224
100
AcDbEntity
 67
     1
  8
3_ALL_AXES
  6
Continuous
 62
     7
100
AcDbLine
 10
128.27268401
 20
122.3206609775
 30
0.0
 11
130.5226446831
 21
122.3206609775
 31
0.0
  0
ARC
  5
357
330
224
100
AcDbEntity
 67
     1
  8
3_ALL_AXES
  6
Continuous
 62
     7
100
AcDbCircle
 10
130.3143233553
 20
117.5382402306
 30
0.0
 40
5.2
100
AcDbArc
 50
113.1182769911
 51
150.8561480005
  0
LINE
  5
358
330
224
100
AcDbEntity
 67
     1
  8
3_ALL_AXES
  6
Continuous
 62
     7
100
AcDbLine
 10
135.2726446831
 20
120.0706609775
 30
0.0
 11
130.5226446831
 21
120.0706609775
 31
0.0
  0
LINE
  5
359
330
224
100
AcDbEntity
 67
     1
  8
3_ALL_AXES
  6
Continuous
 62
     7
100
AcDbLine
 10
125.7726446831
 20
120.0706609775
 30
0.0
 11
130.5226446831
 21
120.0706609775
 31
0.0
  0
LINE
  5
35A
330
224
100
AcDbEntity
 67
     1
  8
02___PRT_ALL_AXES
  6
Continuous
 62
     7
100
AcDbLine
 10
153.5226446831
 20
93.6206609775
 30
0.0
 11
159.2726446831
 21
93.6206609775
 31
0.0
  0
LINE
  5
35B
330
224
100
AcDbEntity
 67
     1
  8
02___PRT_ALL_AXES
  6
Continuous
 62
     7
100
AcDbLine
 10
153.5226446831
 20
78.0206609775
 30
0.0
 11
159.2726446831
 21
78.0206609775
 31
0.0
  0
LINE
  5
35C
330
224
100
AcDbEntity
 67
     1
  8
7_ALL_FEATURES
  6
Continuous
 62
     7
100
AcDbLine
 10
170.9726446831
 20
76.8206609775
 30
0.0
 11
170.2726446831
 21
76.8206609775
 31
0.0
  0
LINE
  5
35D
330
224
100
AcDbEntity
 67
     1
  8
7_ALL_FEATURES
  6
Continuous
 62
     7
100
AcDbLine
 10
153.5226446831
 20
85.8206609775
 30
0.0
 11
153.5226446831
 21
95.3206609775
 31
0.0
  0
LINE
  5
35E
330
224
100
AcDbEntity
 67
     1
  8
7_ALL_FEATURES
  6
Continuous
 62
     7
100
AcDbLine
 10
170.9726446831
 20
94.8206609775
 30
0.0
 11
170.2726446831
 21
94.8206609775
 31
0.0
  0
ARC
  5
35F
330
224
100
AcDbEntity
 67
     1
  8
7_ALL_FEATURES
  6
Continuous
 62
     7
100
AcDbCircle
 10
170.9726446831
 20
80.3206609775
 30
0.0
 40
3.5
100
AcDbArc
 50
270.0
 51
360.0
  0
LINE
  5
360
330
224
100
AcDbEntity
 67
     1
  8
7_ALL_FEATURES
  6
Continuous
 62
     7
100
AcDbLine
 10
174.4726446831
 20
91.3206609775
 30
0.0
 11
174.4726446831
 21
89.6706609775
 31
0.0
  0
LINE
  5
361
330
224
100
AcDbEntity
 67
     1
  8
7_ALL_FEATURES
  6
Continuous
 62
     7
100
AcDbLine
 10
174.4726446831
 20
89.6706609775
 30
0.0
 11
174.4726446831
 21
81.9706609775
 31
0.0
  0
LINE
  5
362
330
224
100
AcDbEntity
 67
     1
  8
7_ALL_FEATURES
  6
Continuous
 62
     7
100
AcDbLine
 10
174.4726446831
 20
81.9706609775
 30
0.0
 11
174.4726446831
 21
80.3206609775
 31
0.0
  0
ARC
  5
363
330
224
100
AcDbEntity
 67
     1
  8
7_ALL_FEATURES
  6
Continuous
 62
     7
100
AcDbCircle
 10
170.9726446831
 20
91.3206609775
 30
0.0
 40
3.5
100
AcDbArc
 50
0.0
 51
90.0
  0
LINE
  5
364
330
224
100
AcDbEntity
 67
     1
  8
7_ALL_FEATURES
  6
Continuous
 62
     7
100
AcDbLine
 10
153.5226446831
 20
76.3206609775
 30
0.0
 11
153.5226446831
 21
85.8206609775
 31
0.0
  0
LINE
  5
365
330
224
100
AcDbEntity
 67
     1
  8
7_ALL_FEATURES
  6
Continuous
 62
     7
100
AcDbLine
 10
145.5226446831
 20
76.3206609775
 30
0.0
 11
153.5226446831
 21
76.3206609775
 31
0.0
  0
LINE
  5
366
330
224
100
AcDbEntity
 67
     1
  8
7_ALL_FEATURES
  6
Continuous
 62
     7
100
AcDbLine
 10
145.5226446831
 20
95.3206609775
 30
0.0
 11
153.5226446831
 21
95.3206609775
 31
0.0
  0
LINE
  5
367
330
224
100
AcDbEntity
 67
     1
  8
7_ALL_FEATURES
  6
Continuous
 62
     7
100
AcDbLine
 10
159.2726446831
 20
74.8510058629
 30
0.0
 11
170.2726446831
 21
74.8510058629
 31
0.0
  0
LINE
  5
368
330
224
100
AcDbEntity
 67
     1
  8
7_ALL_FEATURES
  6
Continuous
 62
     7
100
AcDbLine
 10
159.2726446831
 20
96.7903160921
 30
0.0
 11
170.2726446831
 21
96.7903160921
 31
0.0
  0
LINE
  5
369
330
224
100
AcDbEntity
 67
     1
  8
7_ALL_FEATURES
  6
Continuous
 62
     7
100
AcDbLine
 10
159.2726446831
 20
96.7903160921
 30
0.0
 11
159.2726446831
 21
93.6206609775
 31
0.0
  0
LINE
  5
36A
330
224
100
AcDbEntity
 67
     1
  8
7_ALL_FEATURES
  6
Continuous
 62
     7
100
AcDbLine
 10
159.2726446831
 20
93.6206609775
 30
0.0
 11
159.2726446831
 21
91.3054885348
 31
0.0
  0
LINE
  5
36B
330
224
100
AcDbEntity
 67
     1
  8
7_ALL_FEATURES
  6
Continuous
 62
     7
100
AcDbLine
 10
159.2726446831
 20
91.3054885348
 30
0.0
 11
159.2726446831
 21
80.3358334202
 31
0.0
  0
LINE
  5
36C
330
224
100
AcDbEntity
 67
     1
  8
7_ALL_FEATURES
  6
Continuous
 62
     7
100
AcDbLine
 10
159.2726446831
 20
80.3358334202
 30
0.0
 11
159.2726446831
 21
78.0206609775
 31
0.0
  0
LINE
  5
36D
330
224
100
AcDbEntity
 67
     1
  8
7_ALL_FEATURES
  6
Continuous
 62
     7
100
AcDbLine
 10
159.2726446831
 20
78.0206609775
 30
0.0
 11
159.2726446831
 21
74.8510058629
 31
0.0
  0
LINE
  5
36E
330
224
100
AcDbEntity
 67
     1
  8
7_ALL_FEATURES
  6
Continuous
 62
     7
100
AcDbLine
 10
170.2726446831
 20
96.7903160921
 30
0.0
 11
170.2726446831
 21
94.8206609775
 31
0.0
  0
LINE
  5
36F
330
224
100
AcDbEntity
 67
     1
  8
7_ALL_FEATURES
  6
Continuous
 62
     7
100
AcDbLine
 10
170.2726446831
 20
94.8206609775
 30
0.0
 11
170.2726446831
 21
91.3054885348
 31
0.0
  0
LINE
  5
370
330
224
100
AcDbEntity
 67
     1
  8
7_ALL_FEATURES
  6
Continuous
 62
     7
100
AcDbLine
 10
170.2726446831
 20
91.3054885348
 30
0.0
 11
170.2726446831
 21
80.3358334202
 31
0.0
  0
LINE
  5
371
330
224
100
AcDbEntity
 67
     1
  8
7_ALL_FEATURES
  6
Continuous
 62
     7
100
AcDbLine
 10
170.2726446831
 20
80.3358334202
 30
0.0
 11
170.2726446831
 21
76.8206609775
 31
0.0
  0
LINE
  5
372
330
224
100
AcDbEntity
 67
     1
  8
7_ALL_FEATURES
  6
Continuous
 62
     7
100
AcDbLine
 10
170.2726446831
 20
76.8206609775
 30
0.0
 11
170.2726446831
 21
74.8510058629
 31
0.0
  0
LINE
  5
373
330
224
100
AcDbEntity
 67
     1
  8
7_ALL_FEATURES
  6
Continuous
 62
     7
100
AcDbLine
 10
145.5226446831
 20
85.8206609775
 30
0.0
 11
153.5226446831
 21
85.8206609775
 31
0.0
  0
LINE
  5
374
330
224
100
AcDbEntity
 67
     1
  8
7_ALL_FEATURES
  6
Continuous
 62
     7
100
AcDbLine
 10
159.2726446831
 20
80.3358334202
 30
0.0
 11
170.2726446831
 21
80.3358334202
 31
0.0
  0
LINE
  5
375
330
224
100
AcDbEntity
 67
     1
  8
7_ALL_FEATURES
  6
Continuous
 62
     7
100
AcDbLine
 10
159.2726446831
 20
91.3054885348
 30
0.0
 11
170.2726446831
 21
91.3054885348
 31
0.0
  0
LINE
  5
376
330
224
100
AcDbEntity
 67
     1
  8
7_ALL_FEATURES
  6
Continuous
 62
     9
100
AcDbLine
 10
170.9726446831
 20
94.8206609775
 30
0.0
 11
170.9726446831
 21
76.8206609775
 31
0.0
  0
SPLINE
  5
377
330
224
100
AcDbEntity
 67
     1
  8
7_ALL_FEATURES
  6
Continuous
 62
     7
100
AcDbSpline
 70
     0
 71
     3
 72
    13
 73
     9
 74
     0
 42
0.000000001
 43
0.0000001
 40
0.0
 40
0.0
 40
0.0
 40
0.0
 40
0.1184105226
 40
0.237628839
 40
0.3583965797
 40
0.4813323562
 40
0.7347958233
 40
1.0
 40
1.0
 40
1.0
 40
1.0
 10
229.3134447955
 20
93.9825407995
 30
0.0
 10
229.343508231
 20
94.0002924881
 30
0.0
 10
229.406640271
 20
94.0313985047
 30
0.0
 10
229.5077067515
 20
94.0635017403
 30
0.0
 10
229.6137232675
 20
94.0806582126
 30
0.0
 10
229.7607177434
 20
94.0833170235
 30
0.0
 10
229.9487998403
 20
94.0472987185
 30
0.0
 10
230.0886832004
 20
93.9815318025
 30
0.0
 10
230.1553079291
 20
93.9405973478
 30
0.0
  0
SPLINE
  5
378
330
224
100
AcDbEntity
 67
     1
  8
7_ALL_FEATURES
  6
Continuous
 62
     7
100
AcDbSpline
 70
     0
 71
     3
 72
    15
 73
    11
 74
     0
 42
0.000000001
 43
0.0000001
 40
0.0
 40
0.0
 40
0.0
 40
0.0
 40
0.1021320415
 40
0.2104396598
 40
0.3251786301
 40
0.4465343087
 40
0.5746342742
 40
0.7095580638
 40
0.8513449568
 40
1.0
 40
1.0
 40
1.0
 40
1.0
 10
215.8023709893
 20
88.6639145533
 30
0.0
 10
216.2951564949
 20
88.7313394854
 30
0.0
 10
217.3055836397
 20
88.9082961607
 30
0.0
 10
218.8451548997
 20
89.2831288663
 30
0.0
 10
220.4494493841
 20
89.7753581411
 30
0.0
 10
222.1157639727
 20
90.3850374993
 30
0.0
 10
223.8414819167
 20
91.1119103637
 30
0.0
 10
225.6239313037
 20
91.9554307562
 30
0.0
 10
227.460422663
 20
92.9147925745
 30
0.0
 10
228.6900627803
 20
93.6144574026
 30
0.0
 10
229.3134447299
 20
93.9825409105
 30
0.0
  0
SPLINE
  5
379
330
224
100
AcDbEntity
 67
     1
  8
7_ALL_FEATURES
  6
Continuous
 62
     7
100
AcDbSpline
 70
     0
 71
     3
 72
    15
 73
    11
 74
     0
 42
0.000000001
 43
0.0000001
 40
0.0
 40
0.0
 40
0.0
 40
0.0
 40
0.1069936582
 40
0.2187351991
 40
0.3354803255
 40
0.4574350948
 40
0.5847607381
 40
0.7175784146
 40
0.8559733061
 40
1.0
 40
1.0
 40
1.0
 40
1.0
 10
217.0358703028
 20
86.835293813
 30
0.0
 10
217.5423428537
 20
86.926693522
 30
0.0
 10
218.5719591301
 20
87.1469155531
 30
0.0
 10
220.1288042823
 20
87.5743223439
 30
0.0
 10
221.7296340392
 20
88.1046006361
 30
0.0
 10
223.3735064509
 20
88.7367279456
 30
0.0
 10
225.0595059881
 20
89.4697601583
 30
0.0
 10
226.7865854897
 20
90.3027714035
 30
0.0
 10
228.553573986
 20
91.2348114165
 30
0.0
 10
229.7337771334
 20
91.9081072354
 30
0.0
 10
230.3303329146
 20
92.2603509036
 30
0.0
  0
SPLINE
  5
37A
330
224
100
AcDbEntity
 67
     1
  8
7_ALL_FEATURES
  6
Continuous
 62
     7
100
AcDbSpline
 70
     0
 71
     3
 72
    18
 73
    14
 74
     0
 42
0.000000001
 43
0.0000001
 40
0.0
 40
0.0
 40
0.0
 40
0.0
 40
0.1287202533
 40
0.2568766083
 40
0.383984318
 40
0.5097087654
 40
0.633918622
 40
0.6955558857
 40
0.7568708278
 40
0.8179103241
 40
0.878732526
 40
0.9394046016
 40
1.0
 40
1.0
 40
1.0
 40
1.0
 10
217.1792000801
 20
85.8206609775
 30
0.0
 10
217.1792000801
 20
85.5920829124
 30
0.0
 10
217.1370169335
 20
85.1348022377
 30
0.0
 10
216.9494212905
 20
84.4753396224
 30
0.0
 10
216.6444864611
 20
83.8667961726
 30
0.0
 10
216.2337717294
 20
83.3328738502
 30
0.0
 10
215.8144384066
 20
82.9658488153
 30
0.0
 10
215.4439202455
 20
82.7294138333
 30
0.0
 10
215.1515878382
 20
82.5821745962
 30
0.0
 10
214.8470920645
 20
82.4661615624
 30
0.0
 10
214.533332323
 20
82.3824723508
 30
0.0
 10
214.2133923807
 20
82.3319318454
 30
0.0
 10
213.9978796338
 20
82.3206609775
 30
0.0
 10
213.8902759074
 20
82.3206609775
 30
0.0
  0
SPLINE
  5
37B
330
224
100
AcDbEntity
 67
     1
  8
7_ALL_FEATURES
  6
Continuous
 62
     7
100
AcDbSpline
 70
     0
 71
     3
 72
    17
 73
    13
 74
     0
 42
0.000000001
 43
0.0000001
 40
0.0
 40
0.0
 40
0.0
 40
0.0
 40
0.05577231
 40
0.1119731349
 40
0.168991553
 40
0.2271438122
 40
0.3473416184
 40
0.4733660958
 40
0.6041104377
 40
0.737323389
 40
0.8701975982
 40
1.0
 40
1.0
 40
1.0
 40
1.0
 10
230.330332849
 20
79.3809709404
 30
0.0
 10
230.3622769567
 20
79.362108763
 30
0.0
 10
230.4234744854
 20
79.3189990389
 30
0.0
 10
230.5042339844
 20
79.2401786778
 30
0.0
 10
230.5727399669
 20
79.1484923713
 30
0.0
 10
230.6468669921
 20
79.0100285009
 30
0.0
 10
230.7022833364
 20
78.8123708243
 30
0.0
 10
230.7054646
 20
78.559154433
 30
0.0
 10
230.6471390818
 20
78.3040304495
 30
0.0
 10
230.5315547937
 20
78.0642928055
 30
0.0
 10
230.3668532312
 20
77.8561970325
 30
0.0
 10
230.2288713035
 20
77.7459221889
 30
0.0
 10
230.1553079291
 20
77.7007246072
 30
0.0
  0
SPLINE
  5
37C
330
224
100
AcDbEntity
 67
     1
  8
7_ALL_FEATURES
  6
Continuous
 62
     7
100
AcDbSpline
 70
     0
 71
     3
 72
    15
 73
    11
 74
     0
 42
0.000000001
 43
0.0000001
 40
0.0
 40
0.0
 40
0.0
 40
0.0
 40
0.1069936582
 40
0.2187351991
 40
0.3354803255
 40
0.4574350948
 40
0.5847607381
 40
0.7175784146
 40
0.8559733061
 40
1.0
 40
1.0
 40
1.0
 40
1.0
 10
217.0358703028
 20
84.806028142
 30
0.0
 10
217.5423428537
 20
84.7146284329
 30
0.0
 10
218.5719591301
 20
84.4944064019
 30
0.0
 10
220.1288042823
 20
84.066999611
 30
0.0
 10
221.7296340392
 20
83.5367213188
 30
0.0
 10
223.3735064509
 20
82.9045940094
 30
0.0
 10
225.0595059881
 20
82.1715617966
 30
0.0
 10
226.7865854897
 20
81.3385505515
 30
0.0
 10
228.553573986
 20
80.4065105385
 30
0.0
 10
229.7337771334
 20
79.7332147195
 30
0.0
 10
230.3303329146
 20
79.3809710514
 30
0.0
  0
SPLINE
  5
37D
330
224
100
AcDbEntity
 67
     1
  8
7_ALL_FEATURES
  6
Continuous
 62
     7
100
AcDbSpline
 70
     0
 71
     3
 72
    15
 73
    11
 74
     0
 42
0.000000001
 43
0.0000001
 40
0.0
 40
0.0
 40
0.0
 40
0.0
 40
0.1021320415
 40
0.2104396598
 40
0.3251786301
 40
0.4465343087
 40
0.5746342742
 40
0.7095580638
 40
0.8513449568
 40
1.0
 40
1.0
 40
1.0
 40
1.0
 10
215.8023709893
 20
82.9774074016
 30
0.0
 10
216.2951564949
 20
82.9099824696
 30
0.0
 10
217.3055836397
 20
82.7330257943
 30
0.0
 10
218.8451548997
 20
82.3581930887
 30
0.0
 10
220.4494493841
 20
81.8659638138
 30
0.0
 10
222.1157639727
 20
81.2562844557
 30
0.0
 10
223.8414819167
 20
80.5294115913
 30
0.0
 10
225.6239313037
 20
79.6858911988
 30
0.0
 10
227.460422663
 20
78.7265293805
 30
0.0
 10
228.6900627803
 20
78.0268645524
 30
0.0
 10
229.3134447299
 20
77.6587810444
 30
0.0
  0
LINE
  5
37E
330
224
100
AcDbEntity
 67
     1
  8
7_ALL_FEATURES
  6
Continuous
 62
     7
100
AcDbLine
 10
217.0406222314
 20
84.8206609775
 30
0.0
 11
217.9391651268
 21
84.8206609775
 31
0.0
  0
SPLINE
  5
37F
330
224
100
AcDbEntity
 67
     1
  8
7_ALL_FEATURES
  6
Continuous
 62
     7
100
AcDbSpline
 70
     0
 71
     3
 72
    15
 73
    11
 74
     0
 42
0.000000001
 43
0.0000001
 40
0.0
 40
0.0
 40
0.0
 40
0.0
 40
0.1249894542
 40
0.249980514
 40
0.3749745404
 40
0.499972443
 40
0.6249745409
 40
0.7499805146
 40
0.8749894546
 40
1.0
 40
1.0
 40
1.0
 40
1.0
 10
217.9391651268
 20
86.8206609775
 30
0.0
 10
218.0044987544
 20
86.8206609775
 30
0.0
 10
218.1355290558
 20
86.8077684114
 30
0.0
 10
218.3242383547
 20
86.7504950814
 30
0.0
 10
218.4982265537
 20
86.6574889552
 30
0.0
 10
218.6507090657
 20
86.5323226075
 30
0.0
 10
218.7758525502
 20
86.3798134241
 30
0.0
 10
218.8688410151
 20
86.2057960648
 30
0.0
 10
218.9261031533
 20
86.0170561264
 30
0.0
 10
218.9389931062
 20
85.8860056297
 30
0.0
 10
218.9389931062
 20
85.8206609775
 30
0.0
  0
LINE
  5
380
330
224
100
AcDbEntity
 67
     1
  8
7_ALL_FEATURES
  6
Continuous
 62
     7
100
AcDbLine
 10
217.0406222314
 20
86.8206609775
 30
0.0
 11
217.9391651268
 21
86.8206609775
 31
0.0
  0
SPLINE
  5
381
330
224
100
AcDbEntity
 67
     1
  8
7_ALL_FEATURES
  6
Continuous
 62
     7
100
AcDbSpline
 70
     0
 71
     3
 72
    15
 73
    11
 74
     0
 42
0.000000001
 43
0.0000001
 40
0.0
 40
0.0
 40
0.0
 40
0.0
 40
0.1250105454
 40
0.2500194854
 40
0.3750254591
 40
0.500027557
 40
0.6250254596
 40
0.750019486
 40
0.8750105458
 40
1.0
 40
1.0
 40
1.0
 40
1.0
 10
218.9389931062
 20
85.8206609775
 30
0.0
 10
218.9389931062
 20
85.7553163252
 30
0.0
 10
218.9261031533
 20
85.6242658285
 30
0.0
 10
218.8688410151
 20
85.4355258901
 30
0.0
 10
218.7758525502
 20
85.2615085308
 30
0.0
 10
218.6507090657
 20
85.1089993475
 30
0.0
 10
218.4982265537
 20
84.9838329998
 30
0.0
 10
218.3242383547
 20
84.8908268736
 30
0.0
 10
218.1355290558
 20
84.8335535436
 30
0.0
 10
218.0044987544
 20
84.8206609775
 30
0.0
 10
217.9391651268
 20
84.8206609775
 30
0.0
  0
SPLINE
  5
382
330
224
100
AcDbEntity
 67
     1
  8
7_ALL_FEATURES
  6
Continuous
 62
     7
100
AcDbSpline
 70
     0
 71
     3
 72
    13
 73
     9
 74
     0
 42
0.000000001
 43
0.0000001
 40
0.0
 40
0.0
 40
0.0
 40
0.0
 40
0.2652041767
 40
0.5186676438
 40
0.6416034203
 40
0.762371161
 40
0.8815894774
 40
1.0
 40
1.0
 40
1.0
 40
1.0
 10
230.1553079291
 20
77.7007246072
 30
0.0
 10
230.0886832004
 20
77.6597901525
 30
0.0
 10
229.9487998403
 20
77.5940232365
 30
0.0
 10
229.7607177434
 20
77.5580049315
 30
0.0
 10
229.6137232675
 20
77.5606637423
 30
0.0
 10
229.5077067515
 20
77.5778202146
 30
0.0
 10
229.406640271
 20
77.6099234503
 30
0.0
 10
229.343508231
 20
77.6410294668
 30
0.0
 10
229.3134447955
 20
77.6587811554
 30
0.0
  0
SPLINE
  5
383
330
224
100
AcDbEntity
 67
     1
  8
7_ALL_FEATURES
  6
Continuous
 62
     7
100
AcDbSpline
 70
     0
 71
     3
 72
    17
 73
    13
 74
     0
 42
0.000000001
 43
0.0000001
 40
0.0
 40
0.0
 40
0.0
 40
0.0
 40
0.1298024018
 40
0.262676611
 40
0.3958895623
 40
0.5266339042
 40
0.6526583816
 40
0.7728561878
 40
0.831008447
 40
0.8880268651
 40
0.94422769
 40
1.0
 40
1.0
 40
1.0
 40
1.0
 10
230.1553079291
 20
93.9405973478
 30
0.0
 10
230.2288713035
 20
93.8953997661
 30
0.0
 10
230.3668532312
 20
93.7851249224
 30
0.0
 10
230.5315547937
 20
93.5770291495
 30
0.0
 10
230.6471390818
 20
93.3372915055
 30
0.0
 10
230.7054646
 20
93.0821675219
 30
0.0
 10
230.7022833364
 20
92.8289511307
 30
0.0
 10
230.6468669921
 20
92.631293454
 30
0.0
 10
230.5727399669
 20
92.4928295836
 30
0.0
 10
230.5042339844
 20
92.4011432772
 30
0.0
 10
230.4234744854
 20
92.322322916
 30
0.0
 10
230.3622769567
 20
92.279213192
 30
0.0
 10
230.330332849
 20
92.2603510146
 30
0.0
  0
LINE
  5
384
330
224
100
AcDbEntity
 67
     1
  8
7_ALL_FEATURES
  6
Continuous
 62
     7
100
AcDbLine
 10
201.919570891
 20
82.3206609775
 30
0.0
 11
213.8902759074
 21
82.3206609775
 31
0.0
  0
LINE
  5
385
330
224
100
AcDbEntity
 67
     1
  8
7_ALL_FEATURES
  6
Continuous
 62
     7
100
AcDbLine
 10
174.4726446831
 20
89.3206609775
 30
0.0
 11
192.5226446831
 21
89.3206609775
 31
0.0
  0
LINE
  5
386
330
224
100
AcDbEntity
 67
     1
  8
7_ALL_FEATURES
  6
Continuous
 62
     7
100
AcDbLine
 10
174.4726446831
 20
82.3206609775
 30
0.0
 11
192.5226446831
 21
82.3206609775
 31
0.0
  0
SPLINE
  5
387
330
224
100
AcDbEntity
 67
     1
  8
7_ALL_FEATURES
  6
Continuous
 62
     7
100
AcDbSpline
 70
     0
 71
     3
 72
    18
 73
    14
 74
     0
 42
0.000000001
 43
0.0000001
 40
0.0
 40
0.0
 40
0.0
 40
0.0
 40
0.0605953984
 40
0.121267474
 40
0.1820896759
 40
0.2431291722
 40
0.3044441143
 40
0.366081378
 40
0.4902912346
 40
0.616015682
 40
0.7431233917
 40
0.8712797467
 40
1.0
 40
1.0
 40
1.0
 40
1.0
 10
213.8902759074
 20
89.3206609775
 30
0.0
 10
213.9978796338
 20
89.3206609775
 30
0.0
 10
214.2133923807
 20
89.3093901096
 30
0.0
 10
214.533332323
 20
89.2588496042
 30
0.0
 10
214.8470920645
 20
89.1751603926
 30
0.0
 10
215.1515878382
 20
89.0591473587
 30
0.0
 10
215.4439202455
 20
88.9119081217
 30
0.0
 10
215.8144384066
 20
88.6754731397
 30
0.0
 10
216.2337717294
 20
88.3084481048
 30
0.0
 10
216.6444864611
 20
87.7745257824
 30
0.0
 10
216.9494212905
 20
87.1659823326
 30
0.0
 10
217.1370169335
 20
86.5065197172
 30
0.0
 10
217.1792000801
 20
86.0492390426
 30
0.0
 10
217.1792000801
 20
85.8206609775
 30
0.0
  0
LINE
  5
388
330
224
100
AcDbEntity
 67
     1
  8
7_ALL_FEATURES
  6
Continuous
 62
     7
100
AcDbLine
 10
201.919570891
 20
89.3206609775
 30
0.0
 11
213.8902759074
 21
89.3206609775
 31
0.0
  0
LINE
  5
389
330
224
100
AcDbEntity
 67
     1
  8
7_ALL_FEATURES
  6
Continuous
 62
     7
100
AcDbLine
 10
192.5226446831
 20
89.3206609775
 30
0.0
 11
201.919570891
 21
89.3206609775
 31
0.0
  0
LINE
  5
38A
330
224
100
AcDbEntity
 67
     1
  8
7_ALL_FEATURES
  6
Continuous
 62
     7
100
AcDbLine
 10
192.5226446831
 20
82.3206609775
 30
0.0
 11
201.919570891
 21
82.3206609775
 31
0.0
  0
LINE
  5
38B
330
224
100
AcDbEntity
 67
     1
  8
7_ALL_FEATURES
  6
Continuous
 62
     9
100
AcDbLine
 10
192.5226446831
 20
85.8206609775
 30
0.0
 11
192.5226446831
 21
82.3206609775
 31
0.0
  0
SPLINE
  5
38C
330
224
100
AcDbEntity
 67
     1
  8
7_ALL_FEATURES
  6
Continuous
 62
     9
100
AcDbSpline
 70
     0
 71
     3
 72
    18
 73
    14
 74
     0
 42
0.000000001
 43
0.0000001
 40
0.0
 40
0.0
 40
0.0
 40
0.0
 40
0.1287202533
 40
0.2568766083
 40
0.383984318
 40
0.5097087654
 40
0.633918622
 40
0.6955558857
 40
0.7568708278
 40
0.8179103241
 40
0.878732526
 40
0.9394046016
 40
1.0
 40
1.0
 40
1.0
 40
1.0
 10
205.2084950637
 20
85.8206609775
 30
0.0
 10
205.2084950637
 20
85.5920829124
 30
0.0
 10
205.1663119171
 20
85.1348022377
 30
0.0
 10
204.9787162741
 20
84.4753396224
 30
0.0
 10
204.6737814447
 20
83.8667961726
 30
0.0
 10
204.263066713
 20
83.3328738502
 30
0.0
 10
203.8437333902
 20
82.9658488153
 30
0.0
 10
203.4732152291
 20
82.7294138333
 30
0.0
 10
203.1808828218
 20
82.5821745962
 30
0.0
 10
202.8763870481
 20
82.4661615624
 30
0.0
 10
202.5626273066
 20
82.3824723508
 30
0.0
 10
202.2426873643
 20
82.3319318454
 30
0.0
 10
202.0271746174
 20
82.3206609775
 30
0.0
 10
201.919570891
 20
82.3206609775
 30
0.0
  0
LINE
  5
38D
330
224
100
AcDbEntity
 67
     1
  8
7_ALL_FEATURES
  6
Continuous
 62
     9
100
AcDbLine
 10
192.5226446831
 20
89.3206609775
 30
0.0
 11
192.5226446831
 21
85.8206609775
 31
0.0
  0
SPLINE
  5
38E
330
224
100
AcDbEntity
 67
     1
  8
7_ALL_FEATURES
  6
Continuous
 62
     9
100
AcDbSpline
 70
     0
 71
     3
 72
    18
 73
    14
 74
     0
 42
0.000000001
 43
0.0000001
 40
0.0
 40
0.0
 40
0.0
 40
0.0
 40
0.0605953984
 40
0.121267474
 40
0.1820896759
 40
0.2431291722
 40
0.3044441143
 40
0.366081378
 40
0.4902912346
 40
0.616015682
 40
0.7431233917
 40
0.8712797467
 40
1.0
 40
1.0
 40
1.0
 40
1.0
 10
201.919570891
 20
89.3206609775
 30
0.0
 10
202.0271746174
 20
89.3206609775
 30
0.0
 10
202.2426873643
 20
89.3093901096
 30
0.0
 10
202.5626273066
 20
89.2588496042
 30
0.0
 10
202.8763870481
 20
89.1751603926
 30
0.0
 10
203.1808828218
 20
89.0591473587
 30
0.0
 10
203.4732152291
 20
88.9119081217
 30
0.0
 10
203.8437333902
 20
88.6754731397
 30
0.0
 10
204.263066713
 20
88.3084481048
 30
0.0
 10
204.6737814447
 20
87.7745257824
 30
0.0
 10
204.9787162741
 20
87.1659823326
 30
0.0
 10
205.1663119171
 20
86.5065197172
 30
0.0
 10
205.2084950637
 20
86.0492390426
 30
0.0
 10
205.2084950637
 20
85.8206609775
 30
0.0
  0
LINE
  5
38F
330
224
100
AcDbEntity
 67
     1
  8
7_ALL_FEATURES
  6
Continuous
 62
     7
100
AcDbLine
 10
122.0376230345
 20
55.0706609775
 30
0.0
 11
122.0376230345
 21
53.0706609775
 31
0.0
  0
LINE
  5
390
330
224
100
AcDbEntity
 67
     1
  8
7_ALL_FEATURES
  6
Continuous
 62
     7
100
AcDbLine
 10
122.0377060474
 20
118.5706609775
 30
0.0
 11
123.6650440193
 21
118.5706609775
 31
0.0
  0
LINE
  5
391
330
224
100
AcDbEntity
 67
     1
  8
7_ALL_FEATURES
  6
Continuous
 62
     7
100
AcDbLine
 10
122.0376230345
 20
116.5706609775
 30
0.0
 11
122.0376230345
 21
118.5706609775
 31
0.0
  0
LINE
  5
392
330
224
100
AcDbEntity
 67
     1
  8
7_ALL_FEATURES
  6
Continuous
 62
     7
100
AcDbLine
 10
170.5226446831
 20
53.0706609775
 30
0.0
 11
169.7326597328
 21
53.0706609775
 31
0.0
  0
LINE
  5
393
330
224
100
AcDbEntity
 67
     1
  8
7_ALL_FEATURES
  6
Continuous
 62
     7
100
AcDbLine
 10
169.7326597328
 20
53.0706609775
 30
0.0
 11
158.1868779879
 21
53.0706609775
 31
0.0
  0
LINE
  5
394
330
224
100
AcDbEntity
 67
     1
  8
7_ALL_FEATURES
  6
Continuous
 62
     7
100
AcDbLine
 10
158.1868779879
 20
53.0706609775
 30
0.0
 11
157.1869002889
 21
53.0706609775
 31
0.0
  0
LINE
  5
395
330
224
100
AcDbEntity
 67
     1
  8
7_ALL_FEATURES
  6
Continuous
 62
     7
100
AcDbLine
 10
157.1869002889
 20
53.0706609775
 30
0.0
 11
143.9094901296
 21
53.0706609775
 31
0.0
  0
LINE
  5
396
330
224
100
AcDbEntity
 67
     1
  8
7_ALL_FEATURES
  6
Continuous
 62
     7
100
AcDbLine
 10
143.9094901296
 20
53.0706609775
 30
0.0
 11
143.5098485908
 21
53.0706609775
 31
0.0
  0
LINE
  5
397
330
224
100
AcDbEntity
 67
     1
  8
7_ALL_FEATURES
  6
Continuous
 62
     7
100
AcDbLine
 10
143.5098485908
 20
53.0706609775
 30
0.0
 11
143.3830819136
 21
53.0706609775
 31
0.0
  0
LINE
  5
398
330
224
100
AcDbEntity
 67
     1
  8
7_ALL_FEATURES
  6
Continuous
 62
     7
100
AcDbLine
 10
143.3830819136
 20
53.0706609775
 30
0.0
 11
140.5515416295
 21
53.0706609775
 31
0.0
  0
LINE
  5
399
330
224
100
AcDbEntity
 67
     1
  8
7_ALL_FEATURES
  6
Continuous
 62
     7
100
AcDbLine
 10
140.5515416295
 20
53.0706609775
 30
0.0
 11
139.7092665418
 21
53.0706609775
 31
0.0
  0
LINE
  5
39A
330
224
100
AcDbEntity
 67
     1
  8
7_ALL_FEATURES
  6
Continuous
 62
     7
100
AcDbLine
 10
139.7092665418
 20
53.0706609775
 30
0.0
 11
137.3009328118
 21
53.0706609775
 31
0.0
  0
LINE
  5
39B
330
224
100
AcDbEntity
 67
     1
  8
7_ALL_FEATURES
  6
Continuous
 62
     7
100
AcDbLine
 10
137.3009328118
 20
53.0706609775
 30
0.0
 11
135.5226446831
 21
53.0706609775
 31
0.0
  0
LINE
  5
39C
330
224
100
AcDbEntity
 67
     1
  8
7_ALL_FEATURES
  6
Continuous
 62
     7
100
AcDbLine
 10
135.5226446831
 20
53.0706609775
 30
0.0
 11
130.5226446831
 21
53.0706609775
 31
0.0
  0
LINE
  5
39D
330
224
100
AcDbEntity
 67
     1
  8
7_ALL_FEATURES
  6
Continuous
 62
     7
100
AcDbLine
 10
130.5226446831
 20
53.0706609775
 30
0.0
 11
125.5226446831
 21
53.0706609775
 31
0.0
  0
LINE
  5
39E
330
224
100
AcDbEntity
 67
     1
  8
7_ALL_FEATURES
  6
Continuous
 62
     7
100
AcDbLine
 10
125.5226446831
 20
53.0706609775
 30
0.0
 11
123.6650440193
 21
53.0706609775
 31
0.0
  0
LINE
  5
39F
330
224
100
AcDbEntity
 67
     1
  8
7_ALL_FEATURES
  6
Continuous
 62
     7
100
AcDbLine
 10
123.6650440193
 20
53.0706609775
 30
0.0
 11
122.0376351689
 21
53.0706609775
 31
0.0
  0
LINE
  5
3A0
330
224
100
AcDbEntity
 67
     1
  8
7_ALL_FEATURES
  6
Continuous
 62
     7
100
AcDbLine
 10
169.7326597328
 20
118.5706609775
 30
0.0
 11
170.5226446831
 21
118.5706609775
 31
0.0
  0
LINE
  5
3A1
330
224
100
AcDbEntity
 67
     1
  8
7_ALL_FEATURES
  6
Continuous
 62
     7
100
AcDbLine
 10
137.3009328118
 20
118.5706609775
 30
0.0
 11
139.7092665418
 21
118.5706609775
 31
0.0
  0
LINE
  5
3A2
330
224
100
AcDbEntity
 67
     1
  8
7_ALL_FEATURES
  6
Continuous
 62
     7
100
AcDbLine
 10
139.7092665418
 20
118.5706609775
 30
0.0
 11
140.5515416295
 21
118.5706609775
 31
0.0
  0
LINE
  5
3A3
330
224
100
AcDbEntity
 67
     1
  8
7_ALL_FEATURES
  6
Continuous
 62
     7
100
AcDbLine
 10
140.5515416295
 20
118.5706609775
 30
0.0
 11
143.3830819136
 21
118.5706609775
 31
0.0
  0
LINE
  5
3A4
330
224
100
AcDbEntity
 67
     1
  8
7_ALL_FEATURES
  6
Continuous
 62
     7
100
AcDbLine
 10
143.3830819136
 20
118.5706609775
 30
0.0
 11
143.5098485908
 21
118.5706609775
 31
0.0
  0
LINE
  5
3A5
330
224
100
AcDbEntity
 67
     1
  8
7_ALL_FEATURES
  6
Continuous
 62
     7
100
AcDbLine
 10
143.5098485908
 20
118.5706609775
 30
0.0
 11
143.9094901296
 21
118.5706609775
 31
0.0
  0
LINE
  5
3A6
330
224
100
AcDbEntity
 67
     1
  8
7_ALL_FEATURES
  6
Continuous
 62
     7
100
AcDbLine
 10
143.9094901296
 20
118.5706609775
 30
0.0
 11
157.1869002889
 21
118.5706609775
 31
0.0
  0
LINE
  5
3A7
330
224
100
AcDbEntity
 67
     1
  8
7_ALL_FEATURES
  6
Continuous
 62
     7
100
AcDbLine
 10
157.1869002889
 20
118.5706609775
 30
0.0
 11
158.1868779879
 21
118.5706609775
 31
0.0
  0
LINE
  5
3A8
330
224
100
AcDbEntity
 67
     1
  8
7_ALL_FEATURES
  6
Continuous
 62
     7
100
AcDbLine
 10
158.1868779879
 20
118.5706609775
 30
0.0
 11
169.7326597328
 21
118.5706609775
 31
0.0
  0
LINE
  5
3A9
330
224
100
AcDbEntity
 67
     1
  8
7_ALL_FEATURES
  6
Continuous
 62
     7
100
AcDbLine
 10
123.6650440193
 20
118.5706609775
 30
0.0
 11
125.5226446831
 21
118.5706609775
 31
0.0
  0
LINE
  5
3AA
330
224
100
AcDbEntity
 67
     1
  8
7_ALL_FEATURES
  6
Continuous
 62
     7
100
AcDbLine
 10
125.5226446831
 20
118.5706609775
 30
0.0
 11
130.5226446831
 21
118.5706609775
 31
0.0
  0
LINE
  5
3AB
330
224
100
AcDbEntity
 67
     1
  8
7_ALL_FEATURES
  6
Continuous
 62
     7
100
AcDbLine
 10
130.5226446831
 20
118.5706609775
 30
0.0
 11
135.5226446831
 21
118.5706609775
 31
0.0
  0
LINE
  5
3AC
330
224
100
AcDbEntity
 67
     1
  8
7_ALL_FEATURES
  6
Continuous
 62
     7
100
AcDbLine
 10
135.5226446831
 20
118.5706609775
 30
0.0
 11
137.3009328118
 21
118.5706609775
 31
0.0
  0
LINE
  5
3AD
330
224
100
AcDbEntity
 67
     1
  8
7_ALL_FEATURES
  6
Continuous
 62
     7
100
AcDbLine
 10
170.5226446831
 20
116.5706609775
 30
0.0
 11
170.5226446831
 21
118.5706609775
 31
0.0
  0
LINE
  5
3AE
330
224
100
AcDbEntity
 67
     1
  8
7_ALL_FEATURES
  6
Continuous
 62
     7
100
AcDbLine
 10
170.5226446831
 20
53.0706609775
 30
0.0
 11
170.5226446831
 21
55.0706609775
 31
0.0
  0
LINE
  5
3AF
330
224
100
AcDbEntity
 67
     1
  8
7_ALL_FEATURES
  6
Continuous
 62
     9
100
AcDbLine
 10
137.3009328118
 20
116.5706609775
 30
0.0
 11
137.3009328118
 21
118.5706609775
 31
0.0
  0
LINE
  5
3B0
330
224
100
AcDbEntity
 67
     1
  8
7_ALL_FEATURES
  6
Continuous
 62
     9
100
AcDbLine
 10
123.6650440193
 20
53.0706609775
 30
0.0
 11
123.6650440193
 21
55.0706609775
 31
0.0
  0
LINE
  5
3B1
330
224
100
AcDbEntity
 67
     1
  8
7_ALL_FEATURES
  6
Continuous
 62
     9
100
AcDbLine
 10
169.7326597328
 20
116.5706609775
 30
0.0
 11
169.7326597328
 21
118.5706609775
 31
0.0
  0
LINE
  5
3B2
330
224
100
AcDbEntity
 67
     1
  8
7_ALL_FEATURES
  6
Continuous
 62
     9
100
AcDbLine
 10
137.3009328118
 20
53.0706609775
 30
0.0
 11
137.3009328118
 21
55.0706609775
 31
0.0
  0
LINE
  5
3B3
330
224
100
AcDbEntity
 67
     1
  8
7_ALL_FEATURES
  6
Continuous
 62
     9
100
AcDbLine
 10
169.7326597328
 20
53.0706609775
 30
0.0
 11
169.7326597328
 21
55.0706609775
 31
0.0
  0
LINE
  5
3B4
330
224
100
AcDbEntity
 67
     1
  8
7_ALL_FEATURES
  6
Continuous
 62
     9
100
AcDbLine
 10
123.6650440193
 20
116.5706609775
 30
0.0
 11
123.6650440193
 21
118.5706609775
 31
0.0
  0
LINE
  5
3B5
330
224
100
AcDbEntity
 67
     1
  8
3_ALL_AXES
  6
Continuous
 62
     7
100
AcDbLine
 10
145.5226446831
 20
85.8206609775
 30
0.0
 11
145.5226446831
 21
95.3206609775
 31
0.0
  0
LINE
  5
3B6
330
224
100
AcDbEntity
 67
     1
  8
3_ALL_AXES
  6
Continuous
 62
     7
100
AcDbLine
 10
145.5226446831
 20
95.3206609775
 30
0.0
 11
145.5226446831
 21
114.0703299667
 31
0.0
  0
LINE
  5
3B7
330
224
100
AcDbEntity
 67
     1
  8
3_ALL_AXES
  6
Continuous
 62
     7
100
AcDbLine
 10
145.5226446831
 20
114.0703299667
 30
0.0
 11
145.5226446831
 21
115.5706609775
 31
0.0
  0
LINE
  5
3B8
330
224
100
AcDbEntity
 67
     1
  8
3_ALL_AXES
  6
Continuous
 62
     7
100
AcDbLine
 10
145.5226446831
 20
56.0706609775
 30
0.0
 11
135.5226446831
 21
56.0706609775
 31
0.0
  0
LINE
  5
3B9
330
224
100
AcDbEntity
 67
     1
  8
3_ALL_AXES
  6
Continuous
 62
     7
100
AcDbLine
 10
145.5226446831
 20
56.0706609775
 30
0.0
 11
145.5226446831
 21
57.5709919882
 31
0.0
  0
LINE
  5
3BA
330
224
100
AcDbEntity
 67
     1
  8
3_ALL_AXES
  6
Continuous
 62
     7
100
AcDbLine
 10
145.5226446831
 20
57.5709919882
 30
0.0
 11
145.5226446831
 21
76.3206609775
 31
0.0
  0
LINE
  5
3BB
330
224
100
AcDbEntity
 67
     1
  8
3_ALL_AXES
  6
Continuous
 62
     7
100
AcDbLine
 10
145.5226446831
 20
76.3206609775
 30
0.0
 11
145.5226446831
 21
85.8206609775
 31
0.0
  0
LINE
  5
3BC
330
224
100
AcDbEntity
 67
     1
  8
3_ALL_AXES
  6
Continuous
 62
     7
100
AcDbLine
 10
125.5226446831
 20
56.0706609775
 30
0.0
 11
51.5226446831
 21
56.0706609775
 31
0.0
  0
LINE
  5
3BD
330
224
100
AcDbEntity
 67
     1
  8
3_ALL_AXES
  6
Continuous
 62
     7
100
AcDbLine
 10
145.5226446831
 20
115.5706609775
 30
0.0
 11
135.5226446831
 21
115.5706609775
 31
0.0
  0
LINE
  5
3BE
330
224
100
AcDbEntity
 67
     1
  8
3_ALL_AXES
  6
Continuous
 62
     7
100
AcDbLine
 10
125.5226446831
 20
115.5706609775
 30
0.0
 11
51.5226446831
 21
115.5706609775
 31
0.0
  0
ARC
  5
3BF
330
224
100
AcDbEntity
 67
     1
  8
7_ALL_FEATURES
  6
Continuous
 62
     7
100
AcDbCircle
 10
51.5226446831
 20
114.5706609775
 30
0.0
 40
1.0
100
AcDbArc
 50
90.0
 51
180.0
  0
LINE
  5
3C0
330
224
100
AcDbEntity
 67
     1
  8
7_ALL_FEATURES
  6
Continuous
 62
     7
100
AcDbLine
 10
50.5226446831
 20
114.2780274316
 30
0.0
 11
50.5226446831
 21
114.4902701464
 31
0.0
  0
LINE
  5
3C1
330
224
100
AcDbEntity
 67
     1
  8
7_ALL_FEATURES
  6
Continuous
 62
     7
100
AcDbLine
 10
50.5226446831
 20
85.8206609775
 30
0.0
 11
50.5226446831
 21
111.9206609775
 31
0.0
  0
LINE
  5
3C2
330
224
100
AcDbEntity
 67
     1
  8
7_ALL_FEATURES
  6
Continuous
 62
     7
100
AcDbLine
 10
50.5226446831
 20
111.9206609775
 30
0.0
 11
50.5226446831
 21
114.2780274316
 31
0.0
  0
LINE
  5
3C3
330
224
100
AcDbEntity
 67
     1
  8
7_ALL_FEATURES
  6
Continuous
 62
     7
100
AcDbLine
 10
50.5226446831
 20
114.2780274316
 30
0.0
 11
50.5226446831
 21
114.5703241065
 31
0.0
  0
LINE
  5
3C4
330
224
100
AcDbEntity
 67
     1
  8
7_ALL_FEATURES
  6
Continuous
 62
     7
100
AcDbLine
 10
50.5226446831
 20
85.8206609775
 30
0.0
 11
50.5226446831
 21
114.2780274316
 31
0.0
  0
LINE
  5
3C5
330
224
100
AcDbEntity
 67
     1
  8
7_ALL_FEATURES
  6
Continuous
 62
     7
100
AcDbLine
 10
50.5226446831
 20
57.0709978485
 30
0.0
 11
50.5226446831
 21
59.7206609775
 31
0.0
  0
LINE
  5
3C6
330
224
100
AcDbEntity
 67
     1
  8
7_ALL_FEATURES
  6
Continuous
 62
     7
100
AcDbLine
 10
50.5226446831
 20
59.7206609775
 30
0.0
 11
50.5226446831
 21
85.8206609775
 31
0.0
  0
ARC
  5
3C7
330
224
100
AcDbEntity
 67
     1
  8
7_ALL_FEATURES
  6
Continuous
 62
     7
100
AcDbCircle
 10
51.5226446831
 20
57.0706609775
 30
0.0
 40
1.0
100
AcDbArc
 50
180.0
 51
270.0
  0
LINE
  5
3C8
330
224
100
AcDbEntity
 67
     1
  8
7_ALL_FEATURES
  6
Continuous
 62
     7
100
AcDbLine
 10
50.5226446831
 20
57.1510518085
 30
0.0
 11
50.5226446831
 21
59.7206609775
 31
0.0
  0
LINE
  5
3C9
330
224
100
AcDbEntity
 67
     1
  8
7_ALL_FEATURES
  6
Continuous
 62
     7
100
AcDbLine
 10
50.5226446831
 20
59.7206609775
 30
0.0
 11
50.5226446831
 21
85.8206609775
 31
0.0
  0
LINE
  5
3CA
330
224
100
AcDbEntity
 67
     1
  8
7_ALL_FEATURES
  6
Continuous
 62
     9
100
AcDbLine
 10
51.5226446831
 20
56.0706609775
 30
0.0
 11
51.5226446831
 21
85.8206609775
 31
0.0
  0
LINE
  5
3CB
330
224
100
AcDbEntity
 67
     1
  8
7_ALL_FEATURES
  6
Continuous
 62
     9
100
AcDbLine
 10
51.5226446831
 20
85.8206609775
 30
0.0
 11
51.5226446831
 21
115.5706609775
 31
0.0
  0
LINE
  5
3CC
330
224
100
AcDbEntity
 67
     1
  8
7_ALL_FEATURES
  6
Continuous
 62
     3
100
AcDbLine
 10
123.6650440193
 20
116.5706609775
 30
0.0
 11
125.5226446831
 21
116.5706609775
 31
0.0
  0
LINE
  5
3CD
330
224
100
AcDbEntity
 67
     1
  8
7_ALL_FEATURES
  6
Continuous
 62
     3
100
AcDbLine
 10
125.5226446831
 20
116.5706609775
 30
0.0
 11
130.5226446831
 21
116.5706609775
 31
0.0
  0
LINE
  5
3CE
330
224
100
AcDbEntity
 67
     1
  8
7_ALL_FEATURES
  6
Continuous
 62
     3
100
AcDbLine
 10
130.5226446831
 20
116.5706609775
 30
0.0
 11
135.5226446831
 21
116.5706609775
 31
0.0
  0
LINE
  5
3CF
330
224
100
AcDbEntity
 67
     1
  8
7_ALL_FEATURES
  6
Continuous
 62
     3
100
AcDbLine
 10
135.5226446831
 20
116.5706609775
 30
0.0
 11
137.3009328118
 21
116.5706609775
 31
0.0
  0
LINE
  5
3D0
330
224
100
AcDbEntity
 67
     1
  8
7_ALL_FEATURES
  6
Continuous
 62
     3
100
AcDbLine
 10
137.3009328118
 20
116.5706609775
 30
0.0
 11
139.7092665418
 21
116.5706609775
 31
0.0
  0
LINE
  5
3D1
330
224
100
AcDbEntity
 67
     1
  8
7_ALL_FEATURES
  6
Continuous
 62
     3
100
AcDbLine
 10
139.7092665418
 20
116.5706609775
 30
0.0
 11
140.5515416295
 21
116.5706609775
 31
0.0
  0
LINE
  5
3D2
330
224
100
AcDbEntity
 67
     1
  8
7_ALL_FEATURES
  6
Continuous
 62
     3
100
AcDbLine
 10
140.5515416295
 20
116.5706609775
 30
0.0
 11
143.3830819136
 21
116.5706609775
 31
0.0
  0
LINE
  5
3D3
330
224
100
AcDbEntity
 67
     1
  8
7_ALL_FEATURES
  6
Continuous
 62
     3
100
AcDbLine
 10
143.3830819136
 20
116.5706609775
 30
0.0
 11
143.5098485908
 21
116.5706609775
 31
0.0
  0
LINE
  5
3D4
330
224
100
AcDbEntity
 67
     1
  8
7_ALL_FEATURES
  6
Continuous
 62
     3
100
AcDbLine
 10
143.5098485908
 20
116.5706609775
 30
0.0
 11
143.9094901296
 21
116.5706609775
 31
0.0
  0
LINE
  5
3D5
330
224
100
AcDbEntity
 67
     1
  8
7_ALL_FEATURES
  6
Continuous
 62
     3
100
AcDbLine
 10
143.9094901296
 20
116.5706609775
 30
0.0
 11
157.1869002889
 21
116.5706609775
 31
0.0
  0
LINE
  5
3D6
330
224
100
AcDbEntity
 67
     1
  8
7_ALL_FEATURES
  6
Continuous
 62
     3
100
AcDbLine
 10
157.1869002889
 20
116.5706609775
 30
0.0
 11
158.1868779879
 21
116.5706609775
 31
0.0
  0
LINE
  5
3D7
330
224
100
AcDbEntity
 67
     1
  8
7_ALL_FEATURES
  6
Continuous
 62
     3
100
AcDbLine
 10
158.1868779879
 20
116.5706609775
 30
0.0
 11
169.7326597328
 21
116.5706609775
 31
0.0
  0
LINE
  5
3D8
330
224
100
AcDbEntity
 67
     1
  8
7_ALL_FEATURES
  6
Continuous
 62
     3
100
AcDbLine
 10
169.7326597328
 20
116.5706609775
 30
0.0
 11
170.5226446831
 21
116.5706609775
 31
0.0
  0
LINE
  5
3D9
330
224
100
AcDbEntity
 67
     1
  8
7_ALL_FEATURES
  6
Continuous
 62
     3
100
AcDbLine
 10
122.0377060474
 20
116.5706609775
 30
0.0
 11
123.6650440193
 21
116.5706609775
 31
0.0
  0
LINE
  5
3DA
330
224
100
AcDbEntity
 67
     1
  8
7_ALL_FEATURES
  6
Continuous
 62
     3
100
AcDbLine
 10
170.5226446831
 20
55.0706609775
 30
0.0
 11
170.5226446831
 21
57.0706609775
 31
0.0
  0
LINE
  5
3DB
330
224
100
AcDbEntity
 67
     1
  8
7_ALL_FEATURES
  6
Continuous
 62
     3
100
AcDbLine
 10
170.5226446831
 20
114.5706609775
 30
0.0
 11
170.5226446831
 21
94.8206609775
 31
0.0
  0
LINE
  5
3DC
330
224
100
AcDbEntity
 67
     1
  8
7_ALL_FEATURES
  6
Continuous
 62
     3
100
AcDbLine
 10
170.5226446831
 20
76.8206609775
 30
0.0
 11
170.5226446831
 21
57.0706609775
 31
0.0
  0
ARC
  5
3DD
330
224
100
AcDbEntity
 67
     1
  8
7_ALL_FEATURES
  6
Continuous
 62
     3
100
AcDbCircle
 10
153.0226446831
 20
85.8206609775
 30
0.0
 40
17.25
100
AcDbArc
 50
60.0
 51
115.8366588933
  0
ARC
  5
3DE
330
224
100
AcDbEntity
 67
     1
  8
7_ALL_FEATURES
  6
Continuous
 62
     3
100
AcDbCircle
 10
163.0226446831
 20
103.1411690532
 30
0.0
 40
2.75
100
AcDbArc
 50
240.0
 51
60.0
  0
ARC
  5
3DF
330
224
100
AcDbEntity
 67
     1
  8
7_ALL_FEATURES
  6
Continuous
 62
     3
100
AcDbCircle
 10
153.0226446831
 20
85.8206609775
 30
0.0
 40
22.75
100
AcDbArc
 50
60.0
 51
109.2907769744
  0
ARC
  5
3E0
330
224
100
AcDbEntity
 67
     1
  8
7_ALL_FEATURES
  6
Continuous
 62
     3
100
AcDbCircle
 10
153.0226446831
 20
85.8206609775
 30
0.0
 40
22.75
100
AcDbArc
 50
250.7092230256
 51
300.0
  0
ARC
  5
3E1
330
224
100
AcDbEntity
 67
     1
  8
7_ALL_FEATURES
  6
Continuous
 62
     3
100
AcDbCircle
 10
163.0226446831
 20
68.5001529018
 30
0.0
 40
2.75
100
AcDbArc
 50
300.0
 51
120.0
  0
ARC
  5
3E2
330
224
100
AcDbEntity
 67
     1
  8
7_ALL_FEATURES
  6
Continuous
 62
     3
100
AcDbCircle
 10
153.0226446831
 20
85.8206609775
 30
0.0
 40
17.25
100
AcDbArc
 50
244.1633411067
 51
300.0
  0
LINE
  5
3E3
330
224
100
AcDbEntity
 67
     1
  8
7_ALL_FEATURES
  6
Continuous
 62
     3
100
AcDbLine
 10
170.5226446831
 20
114.5706609775
 30
0.0
 11
170.5226446831
 21
116.5706609775
 31
0.0
  0
LINE
  5
3E4
330
224
100
AcDbEntity
 67
     1
  8
7_ALL_FEATURES
  6
Continuous
 62
     3
100
AcDbLine
 10
170.5226446831
 20
55.0706609775
 30
0.0
 11
169.7326597328
 21
55.0706609775
 31
0.0
  0
LINE
  5
3E5
330
224
100
AcDbEntity
 67
     1
  8
7_ALL_FEATURES
  6
Continuous
 62
     3
100
AcDbLine
 10
169.7326597328
 20
55.0706609775
 30
0.0
 11
158.1868779879
 21
55.0706609775
 31
0.0
  0
LINE
  5
3E6
330
224
100
AcDbEntity
 67
     1
  8
7_ALL_FEATURES
  6
Continuous
 62
     3
100
AcDbLine
 10
158.1868779879
 20
55.0706609775
 30
0.0
 11
157.1869002889
 21
55.0706609775
 31
0.0
  0
LINE
  5
3E7
330
224
100
AcDbEntity
 67
     1
  8
7_ALL_FEATURES
  6
Continuous
 62
     3
100
AcDbLine
 10
157.1869002889
 20
55.0706609775
 30
0.0
 11
143.9094901296
 21
55.0706609775
 31
0.0
  0
LINE
  5
3E8
330
224
100
AcDbEntity
 67
     1
  8
7_ALL_FEATURES
  6
Continuous
 62
     3
100
AcDbLine
 10
143.9094901296
 20
55.0706609775
 30
0.0
 11
143.5098485908
 21
55.0706609775
 31
0.0
  0
LINE
  5
3E9
330
224
100
AcDbEntity
 67
     1
  8
7_ALL_FEATURES
  6
Continuous
 62
     3
100
AcDbLine
 10
143.5098485908
 20
55.0706609775
 30
0.0
 11
143.3830819136
 21
55.0706609775
 31
0.0
  0
LINE
  5
3EA
330
224
100
AcDbEntity
 67
     1
  8
7_ALL_FEATURES
  6
Continuous
 62
     3
100
AcDbLine
 10
143.3830819136
 20
55.0706609775
 30
0.0
 11
140.5515416295
 21
55.0706609775
 31
0.0
  0
LINE
  5
3EB
330
224
100
AcDbEntity
 67
     1
  8
7_ALL_FEATURES
  6
Continuous
 62
     3
100
AcDbLine
 10
140.5515416295
 20
55.0706609775
 30
0.0
 11
139.7092665418
 21
55.0706609775
 31
0.0
  0
LINE
  5
3EC
330
224
100
AcDbEntity
 67
     1
  8
7_ALL_FEATURES
  6
Continuous
 62
     3
100
AcDbLine
 10
139.7092665418
 20
55.0706609775
 30
0.0
 11
137.3009328118
 21
55.0706609775
 31
0.0
  0
LINE
  5
3ED
330
224
100
AcDbEntity
 67
     1
  8
7_ALL_FEATURES
  6
Continuous
 62
     3
100
AcDbLine
 10
137.3009328118
 20
55.0706609775
 30
0.0
 11
135.5226446831
 21
55.0706609775
 31
0.0
  0
LINE
  5
3EE
330
224
100
AcDbEntity
 67
     1
  8
7_ALL_FEATURES
  6
Continuous
 62
     3
100
AcDbLine
 10
135.5226446831
 20
55.0706609775
 30
0.0
 11
130.5226446831
 21
55.0706609775
 31
0.0
  0
LINE
  5
3EF
330
224
100
AcDbEntity
 67
     1
  8
7_ALL_FEATURES
  6
Continuous
 62
     3
100
AcDbLine
 10
130.5226446831
 20
55.0706609775
 30
0.0
 11
125.5226446831
 21
55.0706609775
 31
0.0
  0
LINE
  5
3F0
330
224
100
AcDbEntity
 67
     1
  8
7_ALL_FEATURES
  6
Continuous
 62
     3
100
AcDbLine
 10
125.5226446831
 20
55.0706609775
 30
0.0
 11
123.6650440193
 21
55.0706609775
 31
0.0
  0
LINE
  5
3F1
330
224
100
AcDbEntity
 67
     1
  8
7_ALL_FEATURES
  6
Continuous
 62
     3
100
AcDbLine
 10
123.6650440193
 20
55.0706609775
 30
0.0
 11
122.0376351689
 21
55.0706609775
 31
0.0
  0
LINE
  5
3F2
330
224
100
AcDbEntity
 67
     1
  8
7_ALL_FEATURES
  6
Continuous
 62
     9
100
AcDbLine
 10
145.5226446831
 20
114.5706609775
 30
0.0
 11
170.5226446831
 21
114.5706609775
 31
0.0
  0
LINE
  5
3F3
330
224
100
AcDbEntity
 67
     1
  8
7_ALL_FEATURES
  6
Continuous
 62
     9
100
AcDbLine
 10
145.5226446831
 20
57.0706609775
 30
0.0
 11
170.5226446831
 21
57.0706609775
 31
0.0
  0
LINE
  5
3F4
330
224
100
AcDbEntity
 67
     1
  8
0
  6
Continuous
 62
     2
100
AcDbLine
 10
286.3636188233
 20
216.8833338345
 30
0.0
 11
286.385637339
 21
217.1597743811
 31
0.0
  0
LINE
  5
3F5
330
224
100
AcDbEntity
 67
     1
  8
0
  6
Continuous
 62
     2
100
AcDbLine
 10
286.385637339
 20
212.1597743811
 30
0.0
 11
286.363612583
 21
212.4362982496
 31
0.0
  0
LINE
  5
3F6
330
224
100
AcDbEntity
 67
     1
  8
0
  6
Continuous
 62
     2
100
AcDbLine
 10
345.6751811051
 20
217.1597743811
 30
0.0
 11
345.6972058612
 21
216.8832505127
 31
0.0
  0
LINE
  5
3F7
330
224
100
AcDbEntity
 67
     1
  8
0
  6
Continuous
 62
     2
100
AcDbLine
 10
345.6971996208
 20
212.4362149278
 30
0.0
 11
345.6751811051
 21
212.1597743811
 31
0.0
  0
LINE
  5
3F8
330
224
100
AcDbEntity
 67
     1
  8
3_ALL_AXES
  6
Continuous
 62
     7
100
AcDbLine
 10
286.2804092221
 20
209.6597743812
 30
0.0
 11
285.2804092221
 21
209.6597743812
 31
0.0
  0
LINE
  5
3F9
330
224
100
AcDbEntity
 67
     1
  8
3_ALL_AXES
  6
Continuous
 62
     7
100
AcDbLine
 10
286.2804092221
 20
219.6597743812
 30
0.0
 11
285.2804092221
 21
219.6597743812
 31
0.0
  0
LINE
  5
3FA
330
224
100
AcDbEntity
 67
     1
  8
3_ALL_AXES
  6
Continuous
 62
     7
100
AcDbLine
 10
286.2804092221
 20
209.6597743812
 30
0.0
 11
286.2804092221
 21
212.0097743812
 31
0.0
  0
LINE
  5
3FB
330
224
100
AcDbEntity
 67
     1
  8
3_ALL_AXES
  6
Continuous
 62
     7
100
AcDbLine
 10
286.2804092221
 20
212.0097743812
 30
0.0
 11
286.2804092221
 21
214.6597743811
 31
0.0
  0
LINE
  5
3FC
330
224
100
AcDbEntity
 67
     1
  8
3_ALL_AXES
  6
Continuous
 62
     7
100
AcDbLine
 10
286.2804092221
 20
214.6597743811
 30
0.0
 11
286.2804092221
 21
217.3097743812
 31
0.0
  0
LINE
  5
3FD
330
224
100
AcDbEntity
 67
     1
  8
3_ALL_AXES
  6
Continuous
 62
     7
100
AcDbLine
 10
286.2804092221
 20
217.3097743812
 30
0.0
 11
286.2804092221
 21
219.6597743812
 31
0.0
  0
LINE
  5
3FE
330
224
100
AcDbEntity
 67
     1
  8
3_ALL_AXES
  6
Continuous
 62
     7
100
AcDbLine
 10
282.2804092221
 20
219.6597743811
 30
0.0
 11
283.2804092221
 21
219.6597743811
 31
0.0
  0
LINE
  5
3FF
330
224
100
AcDbEntity
 67
     1
  8
3_ALL_AXES
  6
Continuous
 62
     7
100
AcDbLine
 10
282.2804092221
 20
209.6597743811
 30
0.0
 11
283.2804092221
 21
209.6597743811
 31
0.0
  0
LINE
  5
400
330
224
100
AcDbEntity
 67
     1
  8
3_ALL_AXES
  6
Continuous
 62
     7
100
AcDbLine
 10
282.2804092221
 20
219.6597743811
 30
0.0
 11
282.2804092221
 21
219.4097743811
 31
0.0
  0
LINE
  5
401
330
224
100
AcDbEntity
 67
     1
  8
3_ALL_AXES
  6
Continuous
 62
     7
100
AcDbLine
 10
282.2804092221
 20
219.4097743811
 30
0.0
 11
282.2804092221
 21
217.3097743811
 31
0.0
  0
LINE
  5
402
330
224
100
AcDbEntity
 67
     1
  8
3_ALL_AXES
  6
Continuous
 62
     7
100
AcDbLine
 10
282.2804092221
 20
217.3097743811
 30
0.0
 11
282.2804092221
 21
217.1597743811
 31
0.0
  0
LINE
  5
403
330
224
100
AcDbEntity
 67
     1
  8
3_ALL_AXES
  6
Continuous
 62
     7
100
AcDbLine
 10
282.2804092221
 20
217.1597743811
 30
0.0
 11
282.2804092221
 21
212.1597743811
 31
0.0
  0
LINE
  5
404
330
224
100
AcDbEntity
 67
     1
  8
3_ALL_AXES
  6
Continuous
 62
     7
100
AcDbLine
 10
282.2804092221
 20
212.1597743811
 30
0.0
 11
282.2804092221
 21
212.0097743811
 31
0.0
  0
LINE
  5
405
330
224
100
AcDbEntity
 67
     1
  8
3_ALL_AXES
  6
Continuous
 62
     7
100
AcDbLine
 10
282.2804092221
 20
212.0097743811
 30
0.0
 11
282.2804092221
 21
209.9097743811
 31
0.0
  0
LINE
  5
406
330
224
100
AcDbEntity
 67
     1
  8
3_ALL_AXES
  6
Continuous
 62
     7
100
AcDbLine
 10
282.2804092221
 20
209.9097743811
 30
0.0
 11
282.2804092221
 21
209.6597743811
 31
0.0
  0
LINE
  5
407
330
224
100
AcDbEntity
 67
     1
  8
3_ALL_AXES
  6
Continuous
 62
     7
100
AcDbLine
 10
345.7804092221
 20
219.6597743811
 30
0.0
 11
346.7804092221
 21
219.6597743811
 31
0.0
  0
LINE
  5
408
330
224
100
AcDbEntity
 67
     1
  8
3_ALL_AXES
  6
Continuous
 62
     7
100
AcDbLine
 10
345.7804092221
 20
209.6597743811
 30
0.0
 11
346.7804092221
 21
209.6597743811
 31
0.0
  0
LINE
  5
409
330
224
100
AcDbEntity
 67
     1
  8
3_ALL_AXES
  6
Continuous
 62
     7
100
AcDbLine
 10
345.7804092221
 20
219.6597743811
 30
0.0
 11
345.7804092221
 21
217.3097743811
 31
0.0
  0
LINE
  5
40A
330
224
100
AcDbEntity
 67
     1
  8
3_ALL_AXES
  6
Continuous
 62
     7
100
AcDbLine
 10
345.7804092221
 20
217.3097743811
 30
0.0
 11
345.7804092221
 21
214.6597743812
 31
0.0
  0
LINE
  5
40B
330
224
100
AcDbEntity
 67
     1
  8
3_ALL_AXES
  6
Continuous
 62
     7
100
AcDbLine
 10
345.7804092221
 20
214.6597743812
 30
0.0
 11
345.7804092221
 21
212.0097743811
 31
0.0
  0
LINE
  5
40C
330
224
100
AcDbEntity
 67
     1
  8
3_ALL_AXES
  6
Continuous
 62
     7
100
AcDbLine
 10
345.7804092221
 20
212.0097743811
 30
0.0
 11
345.7804092221
 21
209.6597743811
 31
0.0
  0
LINE
  5
40D
330
224
100
AcDbEntity
 67
     1
  8
3_ALL_AXES
  6
Continuous
 62
     7
100
AcDbLine
 10
349.7804092221
 20
209.6597743811
 30
0.0
 11
348.7804092221
 21
209.6597743811
 31
0.0
  0
LINE
  5
40E
330
224
100
AcDbEntity
 67
     1
  8
3_ALL_AXES
  6
Continuous
 62
     7
100
AcDbLine
 10
349.7804092221
 20
219.6597743811
 30
0.0
 11
348.7804092221
 21
219.6597743811
 31
0.0
  0
LINE
  5
40F
330
224
100
AcDbEntity
 67
     1
  8
3_ALL_AXES
  6
Continuous
 62
     7
100
AcDbLine
 10
349.7804092221
 20
209.6597743811
 30
0.0
 11
349.7804092221
 21
209.9097743811
 31
0.0
  0
LINE
  5
410
330
224
100
AcDbEntity
 67
     1
  8
3_ALL_AXES
  6
Continuous
 62
     7
100
AcDbLine
 10
349.7804092221
 20
209.9097743811
 30
0.0
 11
349.7804092221
 21
212.0097743811
 31
0.0
  0
LINE
  5
411
330
224
100
AcDbEntity
 67
     1
  8
3_ALL_AXES
  6
Continuous
 62
     7
100
AcDbLine
 10
349.7804092221
 20
212.0097743811
 30
0.0
 11
349.7804092221
 21
212.1597743811
 31
0.0
  0
LINE
  5
412
330
224
100
AcDbEntity
 67
     1
  8
3_ALL_AXES
  6
Continuous
 62
     7
100
AcDbLine
 10
349.7804092221
 20
212.1597743811
 30
0.0
 11
349.7804092221
 21
217.1597743811
 31
0.0
  0
LINE
  5
413
330
224
100
AcDbEntity
 67
     1
  8
3_ALL_AXES
  6
Continuous
 62
     7
100
AcDbLine
 10
349.7804092221
 20
217.1597743811
 30
0.0
 11
349.7804092221
 21
217.3097743811
 31
0.0
  0
LINE
  5
414
330
224
100
AcDbEntity
 67
     1
  8
3_ALL_AXES
  6
Continuous
 62
     7
100
AcDbLine
 10
349.7804092221
 20
217.3097743811
 30
0.0
 11
349.7804092221
 21
219.4097743811
 31
0.0
  0
LINE
  5
415
330
224
100
AcDbEntity
 67
     1
  8
3_ALL_AXES
  6
Continuous
 62
     7
100
AcDbLine
 10
349.7804092221
 20
219.4097743811
 30
0.0
 11
349.7804092221
 21
219.6597743811
 31
0.0
  0
LINE
  5
416
330
224
100
AcDbEntity
 67
     1
  8
3_ALL_AXES
  6
Continuous
 62
     7
100
AcDbLine
 10
352.5304092221
 20
216.9097743811
 30
0.0
 11
352.5304092221
 21
216.3918251887
 31
0.0
  0
LINE
  5
417
330
224
100
AcDbEntity
 67
     1
  8
3_ALL_AXES
  6
Continuous
 62
     7
100
AcDbLine
 10
352.5304092221
 20
216.3918251887
 30
0.0
 11
352.5304092221
 21
215.5635890866
 31
0.0
  0
LINE
  5
418
330
224
100
AcDbEntity
 67
     1
  8
3_ALL_AXES
  6
Continuous
 62
     7
100
AcDbLine
 10
352.5304092221
 20
215.5635890866
 30
0.0
 11
352.5304092221
 21
215.5257997849
 31
0.0
  0
LINE
  5
419
330
224
100
AcDbEntity
 67
     1
  8
3_ALL_AXES
  6
Continuous
 62
     7
100
AcDbLine
 10
352.5304092221
 20
215.5257997849
 30
0.0
 11
352.5304092221
 21
213.7937489774
 31
0.0
  0
LINE
  5
41A
330
224
100
AcDbEntity
 67
     1
  8
3_ALL_AXES
  6
Continuous
 62
     7
100
AcDbLine
 10
352.5304092221
 20
213.7937489774
 30
0.0
 11
352.5304092221
 21
213.7559596757
 31
0.0
  0
LINE
  5
41B
330
224
100
AcDbEntity
 67
     1
  8
3_ALL_AXES
  6
Continuous
 62
     7
100
AcDbLine
 10
352.5304092221
 20
213.7559596757
 30
0.0
 11
352.5304092221
 21
212.9277235736
 31
0.0
  0
LINE
  5
41C
330
224
100
AcDbEntity
 67
     1
  8
3_ALL_AXES
  6
Continuous
 62
     7
100
AcDbLine
 10
352.5304092221
 20
212.9277235736
 30
0.0
 11
352.5304092221
 21
212.4097743811
 31
0.0
  0
ARC
  5
41D
330
224
100
AcDbEntity
 67
     1
  8
3_ALL_AXES
  6
Continuous
 62
     7
100
AcDbCircle
 10
347.7479884752
 20
214.868095709
 30
0.0
 40
5.2
100
AcDbArc
 50
23.1182769911
 51
60.85614800050001
  0
ARC
  5
41E
330
224
100
AcDbEntity
 67
     1
  8
3_ALL_AXES
  6
Continuous
 62
     7
100
AcDbCircle
 10
347.7479884752
 20
214.4514530533
 30
0.0
 40
5.2
100
AcDbArc
 50
299.1438519994999
 51
336.8817230089
  0
LINE
  5
41F
330
224
100
AcDbEntity
 67
     1
  8
3_ALL_AXES
  6
Continuous
 62
     7
100
AcDbLine
 10
350.2804092221
 20
219.4097743811
 30
0.0
 11
349.7804092221
 21
219.4097743811
 31
0.0
  0
LINE
  5
420
330
224
100
AcDbEntity
 67
     1
  8
3_ALL_AXES
  6
Continuous
 62
     7
100
AcDbLine
 10
350.2804092221
 20
209.9097743811
 30
0.0
 11
349.7804092221
 21
209.9097743811
 31
0.0
  0
LINE
  5
421
330
224
100
AcDbEntity
 67
     1
  8
7_ALL_FEATURES
  6
Continuous
 62
     7
100
AcDbLine
 10
345.7804092221
 20
212.1597743811
 30
0.0
 11
345.6751811051
 21
212.1597743811
 31
0.0
  0
LINE
  5
422
330
224
100
AcDbEntity
 67
     1
  8
7_ALL_FEATURES
  6
Continuous
 62
     7
100
AcDbLine
 10
345.7804092221
 20
217.1597743811
 30
0.0
 11
345.6751811051
 21
217.1597743811
 31
0.0
  0
LINE
  5
423
330
224
100
AcDbEntity
 67
     1
  8
3_ALL_AXES
  6
Continuous
 62
     7
100
AcDbLine
 10
350.2804092221
 20
219.4097743811
 30
0.0
 11
350.2804092221
 21
209.9097743811
 31
0.0
  0
LINE
  5
424
330
224
100
AcDbEntity
 67
     1
  8
3_ALL_AXES
  6
Continuous
 62
     7
100
AcDbLine
 10
279.5304092221
 20
212.4097743811
 30
0.0
 11
279.5304092221
 21
212.9277235736
 31
0.0
  0
LINE
  5
425
330
224
100
AcDbEntity
 67
     1
  8
3_ALL_AXES
  6
Continuous
 62
     7
100
AcDbLine
 10
279.5304092221
 20
212.9277235736
 30
0.0
 11
279.5304092221
 21
213.7559596757
 31
0.0
  0
LINE
  5
426
330
224
100
AcDbEntity
 67
     1
  8
3_ALL_AXES
  6
Continuous
 62
     7
100
AcDbLine
 10
279.5304092221
 20
213.7559596757
 30
0.0
 11
279.5304092221
 21
213.7937489774
 31
0.0
  0
LINE
  5
427
330
224
100
AcDbEntity
 67
     1
  8
3_ALL_AXES
  6
Continuous
 62
     7
100
AcDbLine
 10
279.5304092221
 20
213.7937489774
 30
0.0
 11
279.5304092221
 21
215.5257997849
 31
0.0
  0
LINE
  5
428
330
224
100
AcDbEntity
 67
     1
  8
3_ALL_AXES
  6
Continuous
 62
     7
100
AcDbLine
 10
279.5304092221
 20
215.5257997849
 30
0.0
 11
279.5304092221
 21
215.5635890866
 31
0.0
  0
LINE
  5
429
330
224
100
AcDbEntity
 67
     1
  8
3_ALL_AXES
  6
Continuous
 62
     7
100
AcDbLine
 10
279.5304092221
 20
215.5635890866
 30
0.0
 11
279.5304092221
 21
216.3918251887
 31
0.0
  0
LINE
  5
42A
330
224
100
AcDbEntity
 67
     1
  8
3_ALL_AXES
  6
Continuous
 62
     7
100
AcDbLine
 10
279.5304092221
 20
216.3918251887
 30
0.0
 11
279.5304092221
 21
216.9097743811
 31
0.0
  0
ARC
  5
42B
330
224
100
AcDbEntity
 67
     1
  8
3_ALL_AXES
  6
Continuous
 62
     7
100
AcDbCircle
 10
284.3128299689
 20
214.4514530533
 30
0.0
 40
5.2
100
AcDbArc
 50
203.1182769911
 51
240.8561480005
  0
ARC
  5
42C
330
224
100
AcDbEntity
 67
     1
  8
3_ALL_AXES
  6
Continuous
 62
     7
100
AcDbCircle
 10
284.3128299689
 20
214.868095709
 30
0.0
 40
5.2
100
AcDbArc
 50
119.1438519995
 51
156.8817230089
  0
LINE
  5
42D
330
224
100
AcDbEntity
 67
     1
  8
3_ALL_AXES
  6
Continuous
 62
     7
100
AcDbLine
 10
281.7804092221
 20
209.9097743811
 30
0.0
 11
282.2804092221
 21
209.9097743811
 31
0.0
  0
LINE
  5
42E
330
224
100
AcDbEntity
 67
     1
  8
3_ALL_AXES
  6
Continuous
 62
     7
100
AcDbLine
 10
281.7804092221
 20
219.4097743811
 30
0.0
 11
282.2804092221
 21
219.4097743811
 31
0.0
  0
LINE
  5
42F
330
224
100
AcDbEntity
 67
     1
  8
7_ALL_FEATURES
  6
Continuous
 62
     7
100
AcDbLine
 10
286.2804092221
 20
217.1597743811
 30
0.0
 11
286.385637339
 21
217.1597743811
 31
0.0
  0
LINE
  5
430
330
224
100
AcDbEntity
 67
     1
  8
7_ALL_FEATURES
  6
Continuous
 62
     7
100
AcDbLine
 10
286.2804092221
 20
212.1597743811
 30
0.0
 11
286.385637339
 21
212.1597743811
 31
0.0
  0
LINE
  5
431
330
224
100
AcDbEntity
 67
     1
  8
3_ALL_AXES
  6
Continuous
 62
     7
100
AcDbLine
 10
281.7804092221
 20
209.9097743811
 30
0.0
 11
281.7804092221
 21
219.4097743811
 31
0.0
  0
SPLINE
  5
432
330
224
100
AcDbEntity
 67
     1
  8
7_ALL_FEATURES
  6
Continuous
 62
     7
100
AcDbSpline
 70
     0
 71
     3
 72
    11
 73
     7
 74
     0
 42
0.000000001
 43
0.0000001
 40
0.0
 40
0.0
 40
0.0
 40
0.0
 40
0.2540816019
 40
0.5054703646
 40
0.7541165998
 40
1.0
 40
1.0
 40
1.0
 40
1.0
 10
313.2601223763
 20
174.4615314144
 30
0.0
 10
313.1824521934
 20
172.5089523612
 30
0.0
 10
312.931780708
 20
168.6275808772
 30
0.0
 10
312.2644398484
 20
162.8637622522
 30
0.0
 10
311.3096956343
 20
157.2044042666
 30
0.0
 10
310.4786711193
 20
153.490702204
 30
0.0
 10
310.0155879351
 20
151.6572068478
 30
0.0
  0
ARC
  5
433
330
224
100
AcDbEntity
 67
     1
  8
7_ALL_FEATURES
  6
Continuous
 62
     7
100
AcDbCircle
 10
211.7539973824
 20
176.4225585304
 30
0.0
 40
101.3338472549
100
AcDbArc
 50
341.3770530542
 51
344.6843202765
  0
SPLINE
  5
434
330
224
100
AcDbEntity
 67
     1
  8
7_ALL_FEATURES
  6
Continuous
 62
     7
100
AcDbSpline
 70
     0
 71
     3
 72
    10
 73
     6
 74
     0
 42
0.000000001
 43
0.0000001
 40
0.0
 40
0.0
 40
0.0
 40
0.0
 40
0.2334149524
 40
0.4741267257
 40
1.0
 40
1.0
 40
1.0
 40
1.0
 10
309.6771843121
 20
143.4235670812
 30
0.0
 10
309.6722372472
 20
143.4088990437
 30
0.0
 10
309.6590530931
 20
143.3800618157
 30
0.0
 10
309.6198494982
 20
143.3261508931
 30
0.0
 10
309.5787812649
 20
143.2942053945
 30
0.0
 10
309.5487757332
 20
143.2764302296
 30
0.0
  0
SPLINE
  5
435
330
224
100
AcDbEntity
 67
     1
  8
7_ALL_FEATURES
  6
Continuous
 62
     7
100
AcDbSpline
 70
     0
 71
     3
 72
     9
 73
     5
 74
     0
 42
0.000000001
 43
0.0000001
 40
0.0
 40
0.0
 40
0.0
 40
0.0
 40
0.5042937446
 40
1.0
 40
1.0
 40
1.0
 40
1.0
 10
315.0304332882
 20
170.356567017
 30
0.0
 10
314.7963075709
 20
167.1799578661
 30
0.0
 10
314.0767669206
 20
160.8967394433
 30
0.0
 10
312.8293101164
 20
154.6959045318
 30
0.0
 10
312.0770150894
 20
151.65664162
 30
0.0
  0
ARC
  5
436
330
224
100
AcDbEntity
 67
     1
  8
7_ALL_FEATURES
  6
Continuous
 62
     7
100
AcDbCircle
 10
211.5760080207
 20
176.4774620596
 30
0.0
 40
103.5200500553
100
AcDbArc
 50
341.3794361506999
 51
344.9805193323
  0
SPLINE
  5
437
330
224
100
AcDbEntity
 67
     1
  8
7_ALL_FEATURES
  6
Continuous
 62
     7
100
AcDbSpline
 70
     0
 71
     3
 72
     9
 73
     5
 74
     0
 42
0.000000001
 43
0.0000001
 40
0.0
 40
0.0
 40
0.0
 40
0.0
 40
0.5042937446
 40
1.0
 40
1.0
 40
1.0
 40
1.0
 10
317.0303851559
 20
170.356567017
 30
0.0
 10
317.2645108732
 20
167.1799578661
 30
0.0
 10
317.9840515235
 20
160.8967394433
 30
0.0
 10
319.2315083277
 20
154.6959045318
 30
0.0
 10
319.9838033547
 20
151.65664162
 30
0.0
  0
ARC
  5
438
330
224
100
AcDbEntity
 67
     1
  8
7_ALL_FEATURES
  6
Continuous
 62
     7
100
AcDbCircle
 10
420.4848104234
 20
176.4774620596
 30
0.0
 40
103.5200500554
100
AcDbArc
 50
195.0194806677
 51
198.6205638493
  0
SPLINE
  5
439
330
224
100
AcDbEntity
 67
     1
  8
7_ALL_FEATURES
  6
Continuous
 62
     7
100
AcDbSpline
 70
     0
 71
     3
 72
    22
 73
    18
 74
     0
 42
0.000000001
 43
0.0000001
 40
0.0
 40
0.0
 40
0.0
 40
0.0
 40
0.1746055885
 40
0.3433067647
 40
0.4236915935
 40
0.5005498464
 40
0.5732893628
 40
0.6413842988
 40
0.7043922557
 40
0.7619759813
 40
0.813934927
 40
0.8602512481
 40
0.9011610839
 40
0.9372594536
 40
0.9696302629
 40
0.9849499044
 40
1.0
 40
1.0
 40
1.0
 40
1.0
 10
316.0304092221
 20
173.9936635853
 30
0.0
 10
315.8026747904
 20
173.9936635853
 30
0.0
 10
315.3547735271
 20
174.0085046812
 30
0.0
 10
314.8044920382
 20
174.0645363321
 30
0.0
 10
314.3846674163
 20
174.1320870448
 30
0.0
 10
314.0906577932
 20
174.1920303167
 30
0.0
 10
313.8152323777
 20
174.2614643096
 30
0.0
 10
313.5610019916
 20
174.3397215656
 30
0.0
 10
313.3303581597
 20
174.4260467766
 30
0.0
 10
313.1254390585
 20
174.5196246235
 30
0.0
 10
312.9481000497
 20
174.6196089398
 30
0.0
 10
312.7998918289
 20
174.7251619674
 30
0.0
 10
312.6820920653
 20
174.8356008162
 30
0.0
 10
312.5958423238
 20
174.9503274568
 30
0.0
 10
312.5507179498
 20
175.0512441938
 30
0.0
 10
312.5332844937
 20
175.1314350964
 30
0.0
 10
312.5304092221
 20
175.1711045607
 30
0.0
 10
312.5304092221
 20
175.1907340869
 30
0.0
  0
SPLINE
  5
43A
330
224
100
AcDbEntity
 67
     1
  8
7_ALL_FEATURES
  6
Continuous
 62
     7
100
AcDbSpline
 70
     0
 71
     3
 72
    24
 73
    20
 74
     0
 42
0.000000001
 43
0.0000001
 40
0.0
 40
0.0
 40
0.0
 40
0.0
 40
0.0187433566
 40
0.0379486556
 40
0.0792256097
 40
0.1263549423
 40
0.1803965499
 40
0.2413864393
 40
0.3086565524
 40
0.381062179
 40
0.4571384596
 40
0.5352181624
 40
0.6135308755
 40
0.6902945566
 40
0.7638060753
 40
0.8325374918
 40
0.8952477838
 40
0.9511265396
 40
1.0
 40
1.0
 40
1.0
 40
1.0
 10
324.2787541712
 20
144.062722789
 30
0.0
 10
324.2831284387
 20
144.0497530944
 30
0.0
 10
324.2895940591
 20
144.0226211923
 30
0.0
 10
324.2928593817
 20
143.9645960536
 30
0.0
 10
324.27712536
 20
143.8862697286
 30
0.0
 10
324.230750914
 20
143.7922634407
 30
0.0
 10
324.1586653347
 20
143.6976007463
 30
0.0
 10
324.0628981015
 20
143.6045735898
 30
0.0
 10
323.9461068814
 20
143.5155860466
 30
0.0
 10
323.8115671628
 20
143.433142862
 30
0.0
 10
323.6631276505
 20
143.3596129461
 30
0.0
 10
323.5050763033
 20
143.2971353142
 30
0.0
 10
323.3420018874
 20
143.2475290489
 30
0.0
 10
323.1786445772
 20
143.2122321401
 30
0.0
 10
323.0197362227
 20
143.1922587419
 30
0.0
 10
322.8698549953
 20
143.1881630374
 30
0.0
 10
322.733204681
 20
143.2000794537
 30
0.0
 10
322.6136196124
 20
143.2276693553
 30
0.0
 10
322.5427493553
 20
143.2582397281
 30
0.0
 10
322.5120427109
 20
143.2764302296
 30
0.0
  0
SPLINE
  5
43B
330
224
100
AcDbEntity
 67
     1
  8
7_ALL_FEATURES
  6
Continuous
 62
     7
100
AcDbSpline
 70
     0
 71
     3
 72
    11
 73
     7
 74
     0
 42
0.000000001
 43
0.0000001
 40
0.0
 40
0.0
 40
0.0
 40
0.0
 40
0.2540816019
 40
0.5054703646
 40
0.7541165998
 40
1.0
 40
1.0
 40
1.0
 40
1.0
 10
318.8006960678
 20
174.4615314144
 30
0.0
 10
318.8783662507
 20
172.5089523612
 30
0.0
 10
319.1290377361
 20
168.6275808772
 30
0.0
 10
319.7963785957
 20
162.8637622522
 30
0.0
 10
320.7511228098
 20
157.2044042666
 30
0.0
 10
321.5821473248
 20
153.490702204
 30
0.0
 10
322.0452305091
 20
151.6572068478
 30
0.0
  0
ARC
  5
43C
330
224
100
AcDbEntity
 67
     1
  8
7_ALL_FEATURES
  6
Continuous
 62
     7
100
AcDbCircle
 10
420.3068210616
 20
176.4225585304
 30
0.0
 40
101.3338472547
100
AcDbArc
 50
195.3156797235
 51
198.6229469458
  0
SPLINE
  5
43D
330
224
100
AcDbEntity
 67
     1
  8
7_ALL_FEATURES
  6
Continuous
 62
     7
100
AcDbSpline
 70
     0
 71
     3
 72
    26
 73
    22
 74
     0
 42
0.000000001
 43
0.0000001
 40
0.0
 40
0.0
 40
0.0
 40
0.0
 40
0.0005454346
 40
0.0015561475
 40
0.0052760247
 40
0.0113471213
 40
0.0197790924
 40
0.0305612499
 40
0.0436706945
 40
0.0590789723
 40
0.0767493872
 40
0.1187059572
 40
0.1691409503
 40
0.2275711093
 40
0.2934352864
 40
0.366100261
 40
0.4448670362
 40
0.5289776766
 40
0.6176226685
 40
0.8050670799
 40
1.0
 40
1.0
 40
1.0
 40
1.0
 10
317.0304092221
 20
139.418187208
 30
0.0
 10
317.0304092221
 20
139.4180052493
 30
0.0
 10
317.0299882348
 20
139.417571931
 30
0.0
 10
317.0283897221
 20
139.4169455707
 30
0.0
 10
317.0248119473
 20
139.4161596822
 30
0.0
 10
317.0188176178
 20
139.4153300455
 30
0.0
 10
317.0104134223
 20
139.4144593434
 30
0.0
 10
316.999669285
 20
139.413595129
 30
0.0
 10
316.986585114
 20
139.4127315281
 30
0.0
 10
316.9712006474
 20
139.411878237
 30
0.0
 10
316.9461965489
 20
139.4106875192
 30
0.0
 10
316.9095057085
 20
139.409286871
 30
0.0
 10
316.8592140521
 20
139.407756867
 30
0.0
 10
316.8009413019
 20
139.4063191154
 30
0.0
 10
316.7352483793
 20
139.4049887227
 30
0.0
 10
316.6627677308
 20
139.4037808316
 30
0.0
 10
316.5841972952
 20
139.4027080042
 30
0.0
 10
316.5002936866
 20
139.4017812262
 30
0.0
 10
316.3801343315
 20
139.4007336813
 30
0.0
 10
316.2230017908
 20
139.3998685043
 30
0.0
 10
316.0954394379
 20
139.3996396592
 30
0.0
 10
316.0304092221
 20
139.3996396592
 30
0.0
  0
LINE
  5
43E
330
224
100
AcDbEntity
 67
     1
  8
7_ALL_FEATURES
  6
Continuous
 62
     7
100
AcDbLine
 10
317.0304092221
 20
174.0441017973
 30
0.0
 11
317.0304092221
 21
151.6597743811
 31
0.0
  0
LINE
  5
43F
330
224
100
AcDbEntity
 67
     1
  8
7_ALL_FEATURES
  6
Continuous
 62
     7
100
AcDbLine
 10
317.0304092221
 20
149.6597743811
 30
0.0
 11
317.0304092221
 21
139.418187208
 31
0.0
  0
LINE
  5
440
330
224
100
AcDbEntity
 67
     1
  8
7_ALL_FEATURES
  6
Continuous
 62
     7
100
AcDbLine
 10
315.0304092221
 20
174.0441017973
 30
0.0
 11
315.0304092221
 21
151.6597743811
 31
0.0
  0
LINE
  5
441
330
224
100
AcDbEntity
 67
     1
  8
7_ALL_FEATURES
  6
Continuous
 62
     7
100
AcDbLine
 10
315.0304092221
 20
149.6597743811
 30
0.0
 11
315.0304092221
 21
139.418187208
 31
0.0
  0
SPLINE
  5
442
330
224
100
AcDbEntity
 67
     1
  8
7_ALL_FEATURES
  6
Continuous
 62
     7
100
AcDbSpline
 70
     0
 71
     3
 72
    26
 73
    22
 74
     0
 42
0.000000001
 43
0.0000001
 40
0.0
 40
0.0
 40
0.0
 40
0.0
 40
0.1949329201
 40
0.3823773315
 40
0.4710223234
 40
0.5551329638
 40
0.633899739
 40
0.7065647136
 40
0.7724288907
 40
0.8308590497
 40
0.8812940428
 40
0.9232506128
 40
0.9409210277
 40
0.9563293055
 40
0.9694387501
 40
0.9802209076
 40
0.9886528787
 40
0.9947239753
 40
0.9984438525
 40
0.9994545654
 40
1.0
 40
1.0
 40
1.0
 40
1.0
 10
316.0304092221
 20
139.3996396592
 30
0.0
 10
315.9653790062
 20
139.3996396592
 30
0.0
 10
315.8378166533
 20
139.3998685043
 30
0.0
 10
315.6806841126
 20
139.4007336813
 30
0.0
 10
315.5605247575
 20
139.4017812262
 30
0.0
 10
315.4766211489
 20
139.4027080042
 30
0.0
 10
315.3980507134
 20
139.4037808316
 30
0.0
 10
315.3255700648
 20
139.4049887227
 30
0.0
 10
315.2598771422
 20
139.4063191154
 30
0.0
 10
315.201604392
 20
139.407756867
 30
0.0
 10
315.1513127356
 20
139.409286871
 30
0.0
 10
315.1146218952
 20
139.4106875192
 30
0.0
 10
315.0896177967
 20
139.411878237
 30
0.0
 10
315.0742333301
 20
139.4127315281
 30
0.0
 10
315.0611491591
 20
139.413595129
 30
0.0
 10
315.0504050218
 20
139.4144593434
 30
0.0
 10
315.0420008263
 20
139.4153300455
 30
0.0
 10
315.0360064968
 20
139.4161596822
 30
0.0
 10
315.032428722
 20
139.4169455707
 30
0.0
 10
315.0308302093
 20
139.417571931
 30
0.0
 10
315.0304092221
 20
139.4180052493
 30
0.0
 10
315.0304092221
 20
139.418187208
 30
0.0
  0
SPLINE
  5
443
330
224
100
AcDbEntity
 67
     1
  8
7_ALL_FEATURES
  6
Continuous
 62
     7
100
AcDbSpline
 70
     0
 71
     3
 72
    10
 73
     6
 74
     0
 42
0.000000001
 43
0.0000001
 40
0.0
 40
0.0
 40
0.0
 40
0.0
 40
0.5258732743
 40
0.7665850476
 40
1.0
 40
1.0
 40
1.0
 40
1.0
 10
322.5120427109
 20
143.2764302296
 30
0.0
 10
322.4820371792
 20
143.2942053945
 30
0.0
 10
322.4409689459
 20
143.3261508931
 30
0.0
 10
322.401765351
 20
143.3800618157
 30
0.0
 10
322.3885811969
 20
143.4088990437
 30
0.0
 10
322.383634132
 20
143.4235670812
 30
0.0
  0
SPLINE
  5
444
330
224
100
AcDbEntity
 67
     1
  8
7_ALL_FEATURES
  6
Continuous
 62
     7
100
AcDbSpline
 70
     0
 71
     3
 72
    24
 73
    20
 74
     0
 42
0.000000001
 43
0.0000001
 40
0.0
 40
0.0
 40
0.0
 40
0.0
 40
0.0488734604
 40
0.1047522162
 40
0.1674625082
 40
0.2361939247
 40
0.3097054434
 40
0.3864691245
 40
0.4647818376
 40
0.5428615404
 40
0.618937821
 40
0.6913434476
 40
0.7586135607
 40
0.8196034501
 40
0.8736450577
 40
0.9207743903
 40
0.9620513444
 40
0.9812566434
 40
1.0
 40
1.0
 40
1.0
 40
1.0
 10
309.5487757332
 20
143.2764302296
 30
0.0
 10
309.5180690888
 20
143.2582397281
 30
0.0
 10
309.4471988317
 20
143.2276693553
 30
0.0
 10
309.3276137631
 20
143.2000794537
 30
0.0
 10
309.1909634488
 20
143.1881630374
 30
0.0
 10
309.0410822214
 20
143.1922587419
 30
0.0
 10
308.8821738669
 20
143.2122321401
 30
0.0
 10
308.7188165567
 20
143.2475290489
 30
0.0
 10
308.5557421408
 20
143.2971353142
 30
0.0
 10
308.3976907936
 20
143.3596129461
 30
0.0
 10
308.2492512813
 20
143.433142862
 30
0.0
 10
308.1147115627
 20
143.5155860466
 30
0.0
 10
307.9979203426
 20
143.6045735898
 30
0.0
 10
307.9021531094
 20
143.6976007463
 30
0.0
 10
307.8300675301
 20
143.7922634407
 30
0.0
 10
307.7836930841
 20
143.8862697286
 30
0.0
 10
307.7679590624
 20
143.9645960536
 30
0.0
 10
307.771224385
 20
144.0226211923
 30
0.0
 10
307.7776900054
 20
144.0497530944
 30
0.0
 10
307.7820642729
 20
144.062722789
 30
0.0
  0
LINE
  5
445
330
224
100
AcDbEntity
 67
     1
  8
7_ALL_FEATURES
  6
Continuous
 62
     7
100
AcDbLine
 10
312.5304092221
 20
185.1720630438
 30
0.0
 11
312.5304092221
 21
175.1907340869
 31
0.0
  0
LINE
  5
446
330
224
100
AcDbEntity
 67
     1
  8
7_ALL_FEATURES
  6
Continuous
 62
     7
100
AcDbLine
 10
319.5304092221
 20
185.1720629785
 30
0.0
 11
319.5304092221
 21
175.1907340869
 31
0.0
  0
SPLINE
  5
447
330
224
100
AcDbEntity
 67
     1
  8
7_ALL_FEATURES
  6
Continuous
 62
     7
100
AcDbSpline
 70
     0
 71
     3
 72
    22
 73
    18
 74
     0
 42
0.000000001
 43
0.0000001
 40
0.0
 40
0.0
 40
0.0
 40
0.0
 40
0.0150500956
 40
0.0303697371
 40
0.0627405464
 40
0.0988389161
 40
0.1397487519
 40
0.186065073
 40
0.2380240187
 40
0.2956077443
 40
0.3586157012
 40
0.4267106372
 40
0.4994501536
 40
0.5763084065
 40
0.6566932353
 40
0.8253944115
 40
1.0
 40
1.0
 40
1.0
 40
1.0
 10
319.5304092221
 20
175.1907340869
 30
0.0
 10
319.5304092221
 20
175.1711045607
 30
0.0
 10
319.5275339504
 20
175.1314350964
 30
0.0
 10
319.5101004943
 20
175.0512441938
 30
0.0
 10
319.4649761203
 20
174.9503274568
 30
0.0
 10
319.3787263788
 20
174.8356008162
 30
0.0
 10
319.2609266152
 20
174.7251619674
 30
0.0
 10
319.1127183944
 20
174.6196089398
 30
0.0
 10
318.9353793856
 20
174.5196246235
 30
0.0
 10
318.7304602844
 20
174.4260467766
 30
0.0
 10
318.4998164525
 20
174.3397215656
 30
0.0
 10
318.2455860664
 20
174.2614643096
 30
0.0
 10
317.9701606509
 20
174.1920303167
 30
0.0
 10
317.6761510278
 20
174.1320870448
 30
0.0
 10
317.2563264059
 20
174.0645363321
 30
0.0
 10
316.706044917
 20
174.0085046812
 30
0.0
 10
316.2581436537
 20
173.9936635853
 30
0.0
 10
316.0304092221
 20
173.9936635853
 30
0.0
  0
ARC
  5
448
330
224
100
AcDbEntity
 67
     1
  8
7_ALL_FEATURES
  6
Continuous
 62
     7
100
AcDbCircle
 10
316.0304092221
 20
214.6597743811
 30
0.0
 40
25.45
100
AcDbArc
 50
270.0
 51
90.0
  0
ARC
  5
449
330
224
100
AcDbEntity
 67
     1
  8
7_ALL_FEATURES
  6
Continuous
 62
     7
100
AcDbCircle
 10
316.0304092221
 20
214.6597743811
 30
0.0
 40
25.45
100
AcDbArc
 50
90.0
 51
270.0
  0
ARC
  5
44A
330
224
100
AcDbEntity
 67
     1
  8
7_ALL_FEATURES
  6
Continuous
 62
     7
100
AcDbCircle
 10
316.0304092221
 20
214.6597743811
 30
0.0
 40
24.95
100
AcDbArc
 50
270.0
 51
90.0
  0
ARC
  5
44B
330
224
100
AcDbEntity
 67
     1
  8
7_ALL_FEATURES
  6
Continuous
 62
     7
100
AcDbCircle
 10
316.0304092221
 20
214.6597743811
 30
0.0
 40
24.95
100
AcDbArc
 50
90.0
 51
270.0
  0
LINE
  5
44C
330
224
100
AcDbEntity
 67
     1
  8
7_ALL_FEATURES
  6
Continuous
 62
     7
100
AcDbLine
 10
348.7804092221
 20
221.6597085382
 30
0.0
 11
348.7804092221
 21
219.6597743811
 31
0.0
  0
LINE
  5
44D
330
224
100
AcDbEntity
 67
     1
  8
7_ALL_FEATURES
  6
Continuous
 62
     7
100
AcDbLine
 10
348.7804092221
 20
219.6597743811
 30
0.0
 11
348.7804092221
 21
217.3097743811
 31
0.0
  0
LINE
  5
44E
330
224
100
AcDbEntity
 67
     1
  8
7_ALL_FEATURES
  6
Continuous
 62
     7
100
AcDbLine
 10
348.7804092221
 20
217.3097743811
 30
0.0
 11
348.7804092221
 21
217.2097743811
 31
0.0
  0
LINE
  5
44F
330
224
100
AcDbEntity
 67
     1
  8
7_ALL_FEATURES
  6
Continuous
 62
     7
100
AcDbLine
 10
348.7804092221
 20
217.2097743811
 30
0.0
 11
348.7804092221
 21
216.0645210257
 31
0.0
  0
LINE
  5
450
330
224
100
AcDbEntity
 67
     1
  8
7_ALL_FEATURES
  6
Continuous
 62
     7
100
AcDbLine
 10
346.7804092221
 20
221.6597743812
 30
0.0
 11
348.7804092221
 21
221.6597743812
 31
0.0
  0
LINE
  5
451
330
224
100
AcDbEntity
 67
     1
  8
7_ALL_FEATURES
  6
Continuous
 62
     7
100
AcDbLine
 10
285.2804092221
 20
221.6597743811
 30
0.0
 11
283.2804092221
 21
221.6597743811
 31
0.0
  0
LINE
  5
452
330
224
100
AcDbEntity
 67
     1
  8
7_ALL_FEATURES
  6
Continuous
 62
     7
100
AcDbLine
 10
344.7804092221
 20
149.6597743811
 30
0.0
 11
287.2804092221
 21
149.6597743811
 31
0.0
  0
LINE
  5
453
330
224
100
AcDbEntity
 67
     1
  8
7_ALL_FEATURES
  6
Continuous
 62
     7
100
AcDbLine
 10
283.2804092221
 20
216.0645210257
 30
0.0
 11
283.2804092221
 21
217.2097743811
 31
0.0
  0
LINE
  5
454
330
224
100
AcDbEntity
 67
     1
  8
7_ALL_FEATURES
  6
Continuous
 62
     7
100
AcDbLine
 10
283.2804092221
 20
217.2097743811
 30
0.0
 11
283.2804092221
 21
217.3097743811
 31
0.0
  0
LINE
  5
455
330
224
100
AcDbEntity
 67
     1
  8
7_ALL_FEATURES
  6
Continuous
 62
     7
100
AcDbLine
 10
283.2804092221
 20
217.3097743811
 30
0.0
 11
283.2804092221
 21
219.6597743811
 31
0.0
  0
LINE
  5
456
330
224
100
AcDbEntity
 67
     1
  8
7_ALL_FEATURES
  6
Continuous
 62
     7
100
AcDbLine
 10
283.2804092221
 20
219.6597743811
 30
0.0
 11
283.2804092221
 21
221.6595100648
 31
0.0
  0
LINE
  5
457
330
224
100
AcDbEntity
 67
     1
  8
7_ALL_FEATURES
  6
Continuous
 62
     7
100
AcDbLine
 10
283.2804092221
 20
156.2989490539
 30
0.0
 11
283.2804092221
 21
176.1742208188
 31
0.0
  0
LINE
  5
458
330
224
100
AcDbEntity
 67
     1
  8
7_ALL_FEATURES
  6
Continuous
 62
     7
100
AcDbLine
 10
283.2804092221
 20
176.1742208188
 30
0.0
 11
283.2804092221
 21
176.2932391468
 31
0.0
  0
LINE
  5
459
330
224
100
AcDbEntity
 67
     1
  8
7_ALL_FEATURES
  6
Continuous
 62
     7
100
AcDbLine
 10
283.2804092221
 20
176.2932391468
 30
0.0
 11
283.2804092221
 21
181.667811406
 31
0.0
  0
LINE
  5
45A
330
224
100
AcDbEntity
 67
     1
  8
7_ALL_FEATURES
  6
Continuous
 62
     7
100
AcDbLine
 10
283.2804092221
 20
181.667811406
 30
0.0
 11
283.2804092221
 21
181.7791688657
 31
0.0
  0
LINE
  5
45B
330
224
100
AcDbEntity
 67
     1
  8
7_ALL_FEATURES
  6
Continuous
 62
     7
100
AcDbLine
 10
283.2804092221
 20
181.7791688657
 30
0.0
 11
283.2804092221
 21
193.6119794267
 31
0.0
  0
LINE
  5
45C
330
224
100
AcDbEntity
 67
     1
  8
7_ALL_FEATURES
  6
Continuous
 62
     7
100
AcDbLine
 10
283.2804092221
 20
193.6119794267
 30
0.0
 11
283.2804092221
 21
193.7310253015
 31
0.0
  0
LINE
  5
45D
330
224
100
AcDbEntity
 67
     1
  8
7_ALL_FEATURES
  6
Continuous
 62
     7
100
AcDbLine
 10
283.2804092221
 20
193.7310253015
 30
0.0
 11
283.2804092221
 21
197.2758489227
 31
0.0
  0
LINE
  5
45E
330
224
100
AcDbEntity
 67
     1
  8
7_ALL_FEATURES
  6
Continuous
 62
     7
100
AcDbLine
 10
283.2804092221
 20
197.2758489227
 30
0.0
 11
283.2804092221
 21
198.5186618824
 31
0.0
  0
LINE
  5
45F
330
224
100
AcDbEntity
 67
     1
  8
7_ALL_FEATURES
  6
Continuous
 62
     7
100
AcDbLine
 10
283.2804092221
 20
198.5186618824
 30
0.0
 11
283.2804092221
 21
204.1751300013
 31
0.0
  0
LINE
  5
460
330
224
100
AcDbEntity
 67
     1
  8
7_ALL_FEATURES
  6
Continuous
 62
     7
100
AcDbLine
 10
283.2804092221
 20
204.1751300013
 30
0.0
 11
283.2804092221
 21
204.851808524
 31
0.0
  0
LINE
  5
461
330
224
100
AcDbEntity
 67
     1
  8
7_ALL_FEATURES
  6
Continuous
 62
     7
100
AcDbLine
 10
283.2804092221
 20
204.851808524
 30
0.0
 11
283.2804092221
 21
209.6597743811
 31
0.0
  0
LINE
  5
462
330
224
100
AcDbEntity
 67
     1
  8
7_ALL_FEATURES
  6
Continuous
 62
     7
100
AcDbLine
 10
283.2804092221
 20
209.6597743811
 30
0.0
 11
283.2804092221
 21
212.0097743811
 31
0.0
  0
LINE
  5
463
330
224
100
AcDbEntity
 67
     1
  8
7_ALL_FEATURES
  6
Continuous
 62
     7
100
AcDbLine
 10
283.2804092221
 20
212.0097743811
 30
0.0
 11
283.2804092221
 21
212.1097743811
 31
0.0
  0
LINE
  5
464
330
224
100
AcDbEntity
 67
     1
  8
7_ALL_FEATURES
  6
Continuous
 62
     7
100
AcDbLine
 10
283.2804092221
 20
212.1097743811
 30
0.0
 11
283.2804092221
 21
214.6597743811
 31
0.0
  0
LINE
  5
465
330
224
100
AcDbEntity
 67
     1
  8
7_ALL_FEATURES
  6
Continuous
 62
     7
100
AcDbLine
 10
283.2804092221
 20
214.6597743811
 30
0.0
 11
283.2804092221
 21
216.0645210257
 31
0.0
  0
LINE
  5
466
330
224
100
AcDbEntity
 67
     1
  8
7_ALL_FEATURES
  6
Continuous
 62
     7
100
AcDbLine
 10
283.2804092221
 20
154.6597743811
 30
0.0
 11
283.2804092221
 21
156.2989490539
 31
0.0
  0
LINE
  5
467
330
224
100
AcDbEntity
 67
     1
  8
7_ALL_FEATURES
  6
Continuous
 62
     7
100
AcDbLine
 10
283.2804092221
 20
153.6597743811
 30
0.0
 11
283.2804092221
 21
154.6597743811
 31
0.0
  0
LINE
  5
468
330
224
100
AcDbEntity
 67
     1
  8
7_ALL_FEATURES
  6
Continuous
 62
     7
100
AcDbLine
 10
348.7804092221
 20
216.0645210257
 30
0.0
 11
348.7804092221
 21
212.1097743811
 31
0.0
  0
LINE
  5
469
330
224
100
AcDbEntity
 67
     1
  8
7_ALL_FEATURES
  6
Continuous
 62
     7
100
AcDbLine
 10
348.7804092221
 20
212.1097743811
 30
0.0
 11
348.7804092221
 21
212.0097743811
 31
0.0
  0
LINE
  5
46A
330
224
100
AcDbEntity
 67
     1
  8
7_ALL_FEATURES
  6
Continuous
 62
     7
100
AcDbLine
 10
348.7804092221
 20
212.0097743811
 30
0.0
 11
348.7804092221
 21
209.6597743811
 31
0.0
  0
LINE
  5
46B
330
224
100
AcDbEntity
 67
     1
  8
7_ALL_FEATURES
  6
Continuous
 62
     7
100
AcDbLine
 10
348.7804092221
 20
209.6597743811
 30
0.0
 11
348.7804092221
 21
204.851808524
 31
0.0
  0
LINE
  5
46C
330
224
100
AcDbEntity
 67
     1
  8
7_ALL_FEATURES
  6
Continuous
 62
     7
100
AcDbLine
 10
348.7804092221
 20
204.851808524
 30
0.0
 11
348.7804092221
 21
204.1751300013
 31
0.0
  0
LINE
  5
46D
330
224
100
AcDbEntity
 67
     1
  8
7_ALL_FEATURES
  6
Continuous
 62
     7
100
AcDbLine
 10
348.7804092221
 20
204.1751300013
 30
0.0
 11
348.7804092221
 21
198.5186618824
 31
0.0
  0
LINE
  5
46E
330
224
100
AcDbEntity
 67
     1
  8
7_ALL_FEATURES
  6
Continuous
 62
     7
100
AcDbLine
 10
348.7804092221
 20
198.5186618824
 30
0.0
 11
348.7804092221
 21
197.2758489227
 31
0.0
  0
LINE
  5
46F
330
224
100
AcDbEntity
 67
     1
  8
7_ALL_FEATURES
  6
Continuous
 62
     7
100
AcDbLine
 10
348.7804092221
 20
197.2758489227
 30
0.0
 11
348.7804092221
 21
193.7310253015
 31
0.0
  0
LINE
  5
470
330
224
100
AcDbEntity
 67
     1
  8
7_ALL_FEATURES
  6
Continuous
 62
     7
100
AcDbLine
 10
348.7804092221
 20
193.7310253015
 30
0.0
 11
348.7804092221
 21
193.6121671706
 31
0.0
  0
LINE
  5
471
330
224
100
AcDbEntity
 67
     1
  8
7_ALL_FEATURES
  6
Continuous
 62
     7
100
AcDbLine
 10
348.7804092221
 20
193.6121671706
 30
0.0
 11
348.7804092221
 21
181.7791688657
 31
0.0
  0
LINE
  5
472
330
224
100
AcDbEntity
 67
     1
  8
7_ALL_FEATURES
  6
Continuous
 62
     7
100
AcDbLine
 10
348.7804092221
 20
181.7791688657
 30
0.0
 11
348.7804092221
 21
176.2932391468
 31
0.0
  0
LINE
  5
473
330
224
100
AcDbEntity
 67
     1
  8
7_ALL_FEATURES
  6
Continuous
 62
     7
100
AcDbLine
 10
348.7804092221
 20
176.2932391468
 30
0.0
 11
348.7804092221
 21
176.1742208188
 31
0.0
  0
LINE
  5
474
330
224
100
AcDbEntity
 67
     1
  8
7_ALL_FEATURES
  6
Continuous
 62
     7
100
AcDbLine
 10
348.7804092221
 20
176.1742208188
 30
0.0
 11
348.7804092221
 21
156.2989490539
 31
0.0
  0
LINE
  5
475
330
224
100
AcDbEntity
 67
     1
  8
7_ALL_FEATURES
  6
Continuous
 62
     7
100
AcDbLine
 10
348.7804092221
 20
156.2989490539
 30
0.0
 11
348.7804092221
 21
154.6597743811
 31
0.0
  0
LINE
  5
476
330
224
100
AcDbEntity
 67
     1
  8
7_ALL_FEATURES
  6
Continuous
 62
     7
100
AcDbLine
 10
348.7804092221
 20
154.6597743811
 30
0.0
 11
348.7804092221
 21
153.6597743811
 31
0.0
  0
ARC
  5
477
330
224
100
AcDbEntity
 67
     1
  8
7_ALL_FEATURES
  6
Continuous
 62
     7
100
AcDbCircle
 10
287.2804092221
 20
153.6597743811
 30
0.0
 40
4.0
100
AcDbArc
 50
180.0
 51
270.0
  0
ARC
  5
478
330
224
100
AcDbEntity
 67
     1
  8
7_ALL_FEATURES
  6
Continuous
 62
     7
100
AcDbCircle
 10
344.7804092221
 20
153.6597743811
 30
0.0
 40
4.0
100
AcDbArc
 50
270.0
 51
360.0
  0
LINE
  5
479
330
224
100
AcDbEntity
 67
     1
  8
7_ALL_FEATURES
  6
Continuous
 62
     9
100
AcDbLine
 10
285.2804092221
 20
216.0645210257
 30
0.0
 11
283.2804092221
 21
216.0645210257
 31
0.0
  0
LINE
  5
47A
330
224
100
AcDbEntity
 67
     1
  8
7_ALL_FEATURES
  6
Continuous
 62
     9
100
AcDbLine
 10
348.7804092221
 20
153.6597743811
 30
0.0
 11
346.7804092221
 21
153.6597743811
 31
0.0
  0
LINE
  5
47B
330
224
100
AcDbEntity
 67
     1
  8
7_ALL_FEATURES
  6
Continuous
 62
     9
100
AcDbLine
 10
287.2804092221
 20
149.6597743811
 30
0.0
 11
287.2804092221
 21
151.6597743811
 31
0.0
  0
LINE
  5
47C
330
224
100
AcDbEntity
 67
     1
  8
7_ALL_FEATURES
  6
Continuous
 62
     9
100
AcDbLine
 10
348.7804092221
 20
154.6597743811
 30
0.0
 11
346.7804092221
 21
154.6597743811
 31
0.0
  0
LINE
  5
47D
330
224
100
AcDbEntity
 67
     1
  8
7_ALL_FEATURES
  6
Continuous
 62
     9
100
AcDbLine
 10
344.7804092221
 20
149.6597743811
 30
0.0
 11
344.7804092221
 21
151.6597743811
 31
0.0
  0
LINE
  5
47E
330
224
100
AcDbEntity
 67
     1
  8
7_ALL_FEATURES
  6
Continuous
 62
     9
100
AcDbLine
 10
348.7804092221
 20
156.2989490539
 30
0.0
 11
346.7804092221
 21
156.2989490539
 31
0.0
  0
LINE
  5
47F
330
224
100
AcDbEntity
 67
     1
  8
7_ALL_FEATURES
  6
Continuous
 62
     9
100
AcDbLine
 10
348.7804092221
 20
216.0645210257
 30
0.0
 11
346.7804092221
 21
216.0645210257
 31
0.0
  0
LINE
  5
480
330
224
100
AcDbEntity
 67
     1
  8
7_ALL_FEATURES
  6
Continuous
 62
     9
100
AcDbLine
 10
285.2804092221
 20
154.6597743811
 30
0.0
 11
283.2804092221
 21
154.6597743811
 31
0.0
  0
LINE
  5
481
330
224
100
AcDbEntity
 67
     1
  8
7_ALL_FEATURES
  6
Continuous
 62
     9
100
AcDbLine
 10
285.2804092221
 20
156.2989490539
 30
0.0
 11
283.2804092221
 21
156.2989490539
 31
0.0
  0
LINE
  5
482
330
224
100
AcDbEntity
 67
     1
  8
7_ALL_FEATURES
  6
Continuous
 62
     9
100
AcDbLine
 10
283.2804092221
 20
153.6597743811
 30
0.0
 11
285.2804092221
 21
153.6597743811
 31
0.0
  0
ARC
  5
483
330
224
100
AcDbEntity
 67
     1
  8
7_ALL_FEATURES
  6
Continuous
 62
     7
100
AcDbCircle
 10
316.0304092221
 20
214.6597743811
 30
0.0
 40
29.75
100
AcDbArc
 50
270.0
 51
90.0
  0
ARC
  5
484
330
224
100
AcDbEntity
 67
     1
  8
7_ALL_FEATURES
  6
Continuous
 62
     7
100
AcDbCircle
 10
316.0304092221
 20
214.6597743811
 30
0.0
 40
29.75
100
AcDbArc
 50
90.0
 51
270.0
  0
ARC
  5
485
330
224
100
AcDbEntity
 67
     1
  8
7_ALL_FEATURES
  6
Continuous
 62
     7
100
AcDbCircle
 10
316.0304092221
 20
214.6597743811
 30
0.0
 40
25.8
100
AcDbArc
 50
270.0
 51
90.0
  0
ARC
  5
486
330
224
100
AcDbEntity
 67
     1
  8
7_ALL_FEATURES
  6
Continuous
 62
     7
100
AcDbCircle
 10
316.0304092221
 20
214.6597743811
 30
0.0
 40
25.8
100
AcDbArc
 50
90.0
 51
270.0
  0
ARC
  5
487
330
224
100
AcDbEntity
 67
     1
  8
7_ALL_FEATURES
  6
Continuous
 62
     7
100
AcDbCircle
 10
316.0304092221
 20
214.6597743811
 30
0.0
 40
26.1
100
AcDbArc
 50
270.0
 51
90.0
  0
ARC
  5
488
330
224
100
AcDbEntity
 67
     1
  8
7_ALL_FEATURES
  6
Continuous
 62
     7
100
AcDbCircle
 10
316.0304092221
 20
214.6597743811
 30
0.0
 40
26.1
100
AcDbArc
 50
90.0
 51
270.0
  0
ARC
  5
489
330
224
100
AcDbEntity
 67
     1
  8
7_ALL_FEATURES
  6
Continuous
 62
     9
100
AcDbCircle
 10
316.0304092221
 20
214.6597743811
 30
0.0
 40
28.75
100
AcDbArc
 50
270.0
 51
90.0
  0
ARC
  5
48A
330
224
100
AcDbEntity
 67
     1
  8
7_ALL_FEATURES
  6
Continuous
 62
     9
100
AcDbCircle
 10
316.0304092221
 20
214.6597743811
 30
0.0
 40
28.75
100
AcDbArc
 50
90.0
 51
270.0
  0
LINE
  5
48B
330
224
100
AcDbEntity
 67
     1
  8
7_ALL_FEATURES
  6
Continuous
 62
     3
100
AcDbLine
 10
285.2804092221
 20
153.6597743811
 30
0.0
 11
285.2804092221
 21
154.6597743811
 31
0.0
  0
LINE
  5
48C
330
224
100
AcDbEntity
 67
     1
  8
7_ALL_FEATURES
  6
Continuous
 62
     3
100
AcDbLine
 10
285.2804092221
 20
154.6597743811
 30
0.0
 11
285.2804092221
 21
156.2989490539
 31
0.0
  0
LINE
  5
48D
330
224
100
AcDbEntity
 67
     1
  8
7_ALL_FEATURES
  6
Continuous
 62
     3
100
AcDbLine
 10
285.2804092221
 20
156.2989490539
 30
0.0
 11
285.2804092221
 21
176.1742208188
 31
0.0
  0
LINE
  5
48E
330
224
100
AcDbEntity
 67
     1
  8
7_ALL_FEATURES
  6
Continuous
 62
     3
100
AcDbLine
 10
285.2804092221
 20
176.1742208188
 30
0.0
 11
285.2804092221
 21
176.2932391468
 31
0.0
  0
LINE
  5
48F
330
224
100
AcDbEntity
 67
     1
  8
7_ALL_FEATURES
  6
Continuous
 62
     3
100
AcDbLine
 10
285.2804092221
 20
176.2932391468
 30
0.0
 11
285.2804092221
 21
181.667811406
 31
0.0
  0
LINE
  5
490
330
224
100
AcDbEntity
 67
     1
  8
7_ALL_FEATURES
  6
Continuous
 62
     3
100
AcDbLine
 10
285.2804092221
 20
181.667811406
 30
0.0
 11
285.2804092221
 21
181.7791688657
 31
0.0
  0
LINE
  5
491
330
224
100
AcDbEntity
 67
     1
  8
7_ALL_FEATURES
  6
Continuous
 62
     3
100
AcDbLine
 10
285.2804092221
 20
181.7791688657
 30
0.0
 11
285.2804092221
 21
193.6119794267
 31
0.0
  0
LINE
  5
492
330
224
100
AcDbEntity
 67
     1
  8
7_ALL_FEATURES
  6
Continuous
 62
     3
100
AcDbLine
 10
285.2804092221
 20
193.6119794267
 30
0.0
 11
285.2804092221
 21
193.7310253015
 31
0.0
  0
LINE
  5
493
330
224
100
AcDbEntity
 67
     1
  8
7_ALL_FEATURES
  6
Continuous
 62
     3
100
AcDbLine
 10
285.2804092221
 20
193.7310253015
 30
0.0
 11
285.2804092221
 21
197.2758489227
 31
0.0
  0
LINE
  5
494
330
224
100
AcDbEntity
 67
     1
  8
7_ALL_FEATURES
  6
Continuous
 62
     3
100
AcDbLine
 10
285.2804092221
 20
197.2758489227
 30
0.0
 11
285.2804092221
 21
198.5186618824
 31
0.0
  0
LINE
  5
495
330
224
100
AcDbEntity
 67
     1
  8
7_ALL_FEATURES
  6
Continuous
 62
     3
100
AcDbLine
 10
285.2804092221
 20
198.5186618824
 30
0.0
 11
285.2804092221
 21
204.1751300013
 31
0.0
  0
LINE
  5
496
330
224
100
AcDbEntity
 67
     1
  8
7_ALL_FEATURES
  6
Continuous
 62
     3
100
AcDbLine
 10
285.2804092221
 20
204.1751300013
 30
0.0
 11
285.2804092221
 21
204.851808524
 31
0.0
  0
LINE
  5
497
330
224
100
AcDbEntity
 67
     1
  8
7_ALL_FEATURES
  6
Continuous
 62
     3
100
AcDbLine
 10
285.2804092221
 20
204.851808524
 30
0.0
 11
285.2804092221
 21
209.6597743812
 31
0.0
  0
LINE
  5
498
330
224
100
AcDbEntity
 67
     1
  8
7_ALL_FEATURES
  6
Continuous
 62
     3
100
AcDbLine
 10
285.2804092221
 20
209.6597743812
 30
0.0
 11
285.2804092221
 21
212.0097743812
 31
0.0
  0
LINE
  5
499
330
224
100
AcDbEntity
 67
     1
  8
7_ALL_FEATURES
  6
Continuous
 62
     3
100
AcDbLine
 10
285.2804092221
 20
212.0097743812
 30
0.0
 11
285.2804092221
 21
212.1097743811
 31
0.0
  0
LINE
  5
49A
330
224
100
AcDbEntity
 67
     1
  8
7_ALL_FEATURES
  6
Continuous
 62
     3
100
AcDbLine
 10
285.2804092221
 20
212.1097743811
 30
0.0
 11
285.2804092221
 21
214.6597743811
 31
0.0
  0
LINE
  5
49B
330
224
100
AcDbEntity
 67
     1
  8
7_ALL_FEATURES
  6
Continuous
 62
     3
100
AcDbLine
 10
285.2804092221
 20
214.6597743811
 30
0.0
 11
285.2804092221
 21
216.0645210257
 31
0.0
  0
LINE
  5
49C
330
224
100
AcDbEntity
 67
     1
  8
7_ALL_FEATURES
  6
Continuous
 62
     3
100
AcDbLine
 10
285.2804092221
 20
216.0645210257
 30
0.0
 11
285.2804092221
 21
217.2097743811
 31
0.0
  0
LINE
  5
49D
330
224
100
AcDbEntity
 67
     1
  8
7_ALL_FEATURES
  6
Continuous
 62
     3
100
AcDbLine
 10
285.2804092221
 20
217.2097743811
 30
0.0
 11
285.2804092221
 21
217.3097743812
 31
0.0
  0
LINE
  5
49E
330
224
100
AcDbEntity
 67
     1
  8
7_ALL_FEATURES
  6
Continuous
 62
     3
100
AcDbLine
 10
285.2804092221
 20
217.3097743812
 30
0.0
 11
285.2804092221
 21
219.6597743811
 31
0.0
  0
LINE
  5
49F
330
224
100
AcDbEntity
 67
     1
  8
7_ALL_FEATURES
  6
Continuous
 62
     3
100
AcDbLine
 10
285.2804092221
 20
219.6597743811
 30
0.0
 11
285.2804092221
 21
221.6595100648
 31
0.0
  0
LINE
  5
4A0
330
224
100
AcDbEntity
 67
     1
  8
7_ALL_FEATURES
  6
Continuous
 62
     3
100
AcDbLine
 10
346.7804092221
 20
221.6597085382
 30
0.0
 11
346.7804092221
 21
219.6597743811
 31
0.0
  0
LINE
  5
4A1
330
224
100
AcDbEntity
 67
     1
  8
7_ALL_FEATURES
  6
Continuous
 62
     3
100
AcDbLine
 10
346.7804092221
 20
219.6597743811
 30
0.0
 11
346.7804092221
 21
217.3097743811
 31
0.0
  0
LINE
  5
4A2
330
224
100
AcDbEntity
 67
     1
  8
7_ALL_FEATURES
  6
Continuous
 62
     3
100
AcDbLine
 10
346.7804092221
 20
217.3097743811
 30
0.0
 11
346.7804092221
 21
217.2097743811
 31
0.0
  0
LINE
  5
4A3
330
224
100
AcDbEntity
 67
     1
  8
7_ALL_FEATURES
  6
Continuous
 62
     3
100
AcDbLine
 10
346.7804092221
 20
217.2097743811
 30
0.0
 11
346.7804092221
 21
216.0645210257
 31
0.0
  0
LINE
  5
4A4
330
224
100
AcDbEntity
 67
     1
  8
7_ALL_FEATURES
  6
Continuous
 62
     3
100
AcDbLine
 10
344.7804092221
 20
151.6597743811
 30
0.0
 11
287.2804092221
 21
151.6597743811
 31
0.0
  0
ARC
  5
4A5
330
224
100
AcDbEntity
 67
     1
  8
7_ALL_FEATURES
  6
Continuous
 62
     3
100
AcDbCircle
 10
287.2804092221
 20
153.6597743811
 30
0.0
 40
2.0
100
AcDbArc
 50
180.0
 51
270.0
  0
ARC
  5
4A6
330
224
100
AcDbEntity
 67
     1
  8
7_ALL_FEATURES
  6
Continuous
 62
     3
100
AcDbCircle
 10
344.7804092221
 20
153.6597743811
 30
0.0
 40
2.0
100
AcDbArc
 50
270.0
 51
360.0
  0
LINE
  5
4A7
330
224
100
AcDbEntity
 67
     1
  8
7_ALL_FEATURES
  6
Continuous
 62
     3
100
AcDbLine
 10
346.7804092221
 20
216.0645210257
 30
0.0
 11
346.7804092221
 21
212.1097743811
 31
0.0
  0
LINE
  5
4A8
330
224
100
AcDbEntity
 67
     1
  8
7_ALL_FEATURES
  6
Continuous
 62
     3
100
AcDbLine
 10
346.7804092221
 20
212.1097743811
 30
0.0
 11
346.7804092221
 21
212.0097743811
 31
0.0
  0
LINE
  5
4A9
330
224
100
AcDbEntity
 67
     1
  8
7_ALL_FEATURES
  6
Continuous
 62
     3
100
AcDbLine
 10
346.7804092221
 20
212.0097743811
 30
0.0
 11
346.7804092221
 21
209.6597743811
 31
0.0
  0
LINE
  5
4AA
330
224
100
AcDbEntity
 67
     1
  8
7_ALL_FEATURES
  6
Continuous
 62
     3
100
AcDbLine
 10
346.7804092221
 20
209.6597743811
 30
0.0
 11
346.7804092221
 21
204.851808524
 31
0.0
  0
LINE
  5
4AB
330
224
100
AcDbEntity
 67
     1
  8
7_ALL_FEATURES
  6
Continuous
 62
     3
100
AcDbLine
 10
346.7804092221
 20
204.851808524
 30
0.0
 11
346.7804092221
 21
204.1751300013
 31
0.0
  0
LINE
  5
4AC
330
224
100
AcDbEntity
 67
     1
  8
7_ALL_FEATURES
  6
Continuous
 62
     3
100
AcDbLine
 10
346.7804092221
 20
204.1751300013
 30
0.0
 11
346.7804092221
 21
198.5186618824
 31
0.0
  0
LINE
  5
4AD
330
224
100
AcDbEntity
 67
     1
  8
7_ALL_FEATURES
  6
Continuous
 62
     3
100
AcDbLine
 10
346.7804092221
 20
198.5186618824
 30
0.0
 11
346.7804092221
 21
197.2758489227
 31
0.0
  0
LINE
  5
4AE
330
224
100
AcDbEntity
 67
     1
  8
7_ALL_FEATURES
  6
Continuous
 62
     3
100
AcDbLine
 10
346.7804092221
 20
197.2758489227
 30
0.0
 11
346.7804092221
 21
193.7310253015
 31
0.0
  0
LINE
  5
4AF
330
224
100
AcDbEntity
 67
     1
  8
7_ALL_FEATURES
  6
Continuous
 62
     3
100
AcDbLine
 10
346.7804092221
 20
193.7310253015
 30
0.0
 11
346.7804092221
 21
193.6121671706
 31
0.0
  0
LINE
  5
4B0
330
224
100
AcDbEntity
 67
     1
  8
7_ALL_FEATURES
  6
Continuous
 62
     3
100
AcDbLine
 10
346.7804092221
 20
193.6121671706
 30
0.0
 11
346.7804092221
 21
181.7791688657
 31
0.0
  0
LINE
  5
4B1
330
224
100
AcDbEntity
 67
     1
  8
7_ALL_FEATURES
  6
Continuous
 62
     3
100
AcDbLine
 10
346.7804092221
 20
181.7791688657
 30
0.0
 11
346.7804092221
 21
176.2932391468
 31
0.0
  0
LINE
  5
4B2
330
224
100
AcDbEntity
 67
     1
  8
7_ALL_FEATURES
  6
Continuous
 62
     3
100
AcDbLine
 10
346.7804092221
 20
176.2932391468
 30
0.0
 11
346.7804092221
 21
176.1742208188
 31
0.0
  0
LINE
  5
4B3
330
224
100
AcDbEntity
 67
     1
  8
7_ALL_FEATURES
  6
Continuous
 62
     3
100
AcDbLine
 10
346.7804092221
 20
176.1742208188
 30
0.0
 11
346.7804092221
 21
156.2989490539
 31
0.0
  0
LINE
  5
4B4
330
224
100
AcDbEntity
 67
     1
  8
7_ALL_FEATURES
  6
Continuous
 62
     3
100
AcDbLine
 10
346.7804092221
 20
156.2989490539
 30
0.0
 11
346.7804092221
 21
154.6597743811
 31
0.0
  0
LINE
  5
4B5
330
224
100
AcDbEntity
 67
     1
  8
7_ALL_FEATURES
  6
Continuous
 62
     3
100
AcDbLine
 10
346.7804092221
 20
154.6597743811
 30
0.0
 11
346.7804092221
 21
153.6597743811
 31
0.0
  0
DIMENSION
  5
4B6
330
224
100
AcDbEntity
 67
     1
  8
0
  6
Continuous
 62
     2
100
AcDbDimension
280
     0
  2
*D1
 10
31.1539678427
 20
184.9097743811
 30
0.0
 11
31.1539678427
 21
214.6597743811
 31
0.0
 70
   160
  1
%%c<>
 71
     2
 42
59.5
 73
     0
 74
     0
 75
     0
  3
DIMSTYLE_1
100
AcDbAlignedDimension
 13
47.9239061222
 23
244.4097743811
 33
0.0
 14
48.4082843202
 24
184.9097743811
 34
0.0
 50
270.0
100
AcDbRotatedDimension
  0
DIMENSION
  5
4B7
330
224
100
AcDbEntity
 67
     1
  8
0
  6
Continuous
 62
     2
100
AcDbDimension
280
     0
  2
*D2
 10
376.0936650209
 20
244.4097743811
 30
0.0
 11
376.0936650209
 21
197.0339835602
 31
0.0
 70
   160
 71
     2
 42
94.75
 73
     0
 74
     0
 75
     0
  3
DIMSTYLE_1
100
AcDbAlignedDimension
 13
351.4557468897
 23
149.6597743811
 33
0.0
 14
348.1204648394
 24
244.4097743811
 34
0.0
 50
90.0
100
AcDbRotatedDimension
  0
DIMENSION
  5
4B8
330
224
100
AcDbEntity
 67
     1
  8
0
  6
Continuous
 62
     2
100
AcDbDimension
280
     0
  2
*D3
 10
145.5226446831
 20
259.9658022028
 30
0.0
 11
98.0257511902
 21
259.9658022028
 31
0.0
 70
   160
 71
     2
 42
95.0
 73
     0
 74
     0
 75
     0
  3
DIMSTYLE_1
100
AcDbAlignedDimension
 13
50.5226446831
 23
247.1233405658
 33
0.0
 14
145.5226446831
 24
245.8629089751
 34
0.0
100
AcDbRotatedDimension
  0
DIMENSION
  5
4B9
330
224
100
AcDbEntity
 67
     1
  8
0
  6
Continuous
 62
     2
100
AcDbDimension
280
     0
  2
*D4
 10
174.4726446831
 20
276.2059000911
 30
0.0
 11
112.6337928772
 21
276.2059000911
 31
0.0
 70
   160
 71
     2
 42
123.95
 73
     0
 74
     0
 75
     0
  3
DIMSTYLE_2
100
AcDbAlignedDimension
 13
50.5226446831
 23
248.4150157605
 33
0.0
 14
174.4726446831
 24
243.7328466837
 34
0.0
100
AcDbRotatedDimension
  0
DIMENSION
  5
4BA
330
224
100
AcDbEntity
 67
     1
  8
0
  6
Continuous
 62
     2
100
AcDbDimension
280
     0
  2
*D5
 10
348.7804092221
 20
123.4855892155
 30
0.0
 11
316.0209429932
 21
123.4855892155
 31
0.0
 70
   160
 71
     2
 42
65.5
 73
     0
 74
     0
 75
     0
  3
DIMSTYLE_1
100
AcDbAlignedDimension
 13
283.2804092221
 23
146.2962163464
 33
0.0
 14
348.7804092221
 24
147.3708901084
 34
0.0
100
AcDbRotatedDimension
  0
LINE
  5
4BB
330
224
100
AcDbEntity
 67
     1
  8
0
  6
Continuous
 62
     2
100
AcDbLine
 10
319.8215188711
 20
50.4217920391
 30
0.0
 11
409.8215188711
 21
50.4217920391
 31
0.0
  0
LINE
  5
4BC
330
224
100
AcDbEntity
 67
     1
  8
0
  6
Continuous
 62
     2
100
AcDbLine
 10
319.8215188711
 20
50.4217920391
 30
0.0
 11
319.8215188711
 21
10.4217920391
 31
0.0
  0
LINE
  5
4BD
330
224
100
AcDbEntity
 67
     1
  8
0
  6
Continuous
 62
     2
100
AcDbLine
 10
349.8215188711
 20
44.4217920391
 30
0.0
 11
409.8215188711
 21
44.4217920391
 31
0.0
  0
LINE
  5
4BE
330
224
100
AcDbEntity
 67
     1
  8
0
  6
Continuous
 62
     2
100
AcDbLine
 10
349.8215188711
 20
38.4217920391
 30
0.0
 11
409.8215188711
 21
38.4217920391
 31
0.0
  0
LINE
  5
4BF
330
224
100
AcDbEntity
 67
     1
  8
0
  6
Continuous
 62
     2
100
AcDbLine
 10
349.8215188711
 20
28.4217920391
 30
0.0
 11
409.8215188711
 21
28.4217920391
 31
0.0
  0
LINE
  5
4C0
330
224
100
AcDbEntity
 67
     1
  8
0
  6
Continuous
 62
     2
100
AcDbLine
 10
319.8215188711
 20
23.4217920391
 30
0.0
 11
409.8215188711
 21
23.4217920391
 31
0.0
  0
LINE
  5
4C1
330
224
100
AcDbEntity
 67
     1
  8
0
  6
Continuous
 62
     2
100
AcDbLine
 10
319.8215188711
 20
10.4217920391
 30
0.0
 11
409.8215188711
 21
10.4217920391
 31
0.0
  0
LINE
  5
4C2
330
224
100
AcDbEntity
 67
     1
  8
0
  6
Continuous
 62
     2
100
AcDbLine
 10
349.8215188711
 20
50.4217920391
 30
0.0
 11
349.8215188711
 21
23.4217920391
 31
0.0
  0
LINE
  5
4C3
330
224
100
AcDbEntity
 67
     1
  8
0
  6
Continuous
 62
     2
100
AcDbLine
 10
389.8215188711
 20
50.4217920391
 30
0.0
 11
389.8215188711
 21
38.4217920391
 31
0.0
  0
LINE
  5
4C4
330
224
100
AcDbEntity
 67
     1
  8
0
  6
Continuous
 62
     2
100
AcDbLine
 10
409.8215188711
 20
50.4217920391
 30
0.0
 11
409.8215188711
 21
10.4217920391
 31
0.0
  0
INSERT
  5
4C5
330
224
100
AcDbEntity
 67
     1
  8
0
  6
Continuous
 62
     2
100
AcDbBlockReference
  2
LOGO2_BL0
 10
333.6475659158
 20
36.9217920391
 30
0.0
  0
MTEXT
  5
4C6
330
224
100
AcDbEntity
 67
     1
  8
9_SOLID
  6
Continuous
 62
     2
100
AcDbMText
 10
351.3090188711
 20
48.9217920391
 30
0.0
 40
3.0
 41
21.1071428571
 46
0.0
 71
     1
 72
     1
  1
167022
  7
TEXTSTYLE_3
 73
     1
 44
0.9
  0
MTEXT
  5
4C7
330
224
100
AcDbEntity
 67
     1
  8
0
  6
Continuous
 62
     2
100
AcDbMText
 10
391.3090188711
 20
49.1717920391
 30
0.0
 40
3.5
 41
22.75
 46
0.0
 71
     1
 72
     1
  1
Rev:00
  7
TEXTSTYLE_3
 73
     1
 44
0.9
  0
MTEXT
  5
4C8
330
224
100
AcDbEntity
 67
     1
  8
9_SOLID
  6
Continuous
 62
     2
100
AcDbMText
 10
351.3090188711
 20
42.6717920391
 30
0.0
 40
3.5
 41
28.375
 46
0.0
 71
     1
 72
     1
  1
Scale:1:1
  7
TEXTSTYLE_3
 73
     1
 44
0.9
  0
MTEXT
  5
4C9
330
224
100
AcDbEntity
 67
     1
  8
9_SOLID
  6
Continuous
 62
     2
100
AcDbMText
 10
391.3090188711
 20
43.1717920391
 30
0.0
 40
3.5
 41
9.25
 46
0.0
 71
     1
 72
     1
  1
A3
  7
TEXTSTYLE_3
 73
     1
 44
0.9
  0
MTEXT
  5
4CA
330
224
100
AcDbEntity
 67
     1
  8
0
  6
Continuous
 62
     2
100
AcDbMText
 10
351.3090188711
 20
35.1717920391
 30
0.0
 40
3.5
 41
37.375
 46
0.0
 71
     1
 72
     1
  1
SPOT 2.4 
  7
TEXTSTYLE_3
 73
     1
 44
0.9
  0
MTEXT
  5
4CB
330
224
100
AcDbEntity
 67
     1
  8
0
  6
Continuous
 62
     2
100
AcDbMText
 10
351.3090188711
 20
27.1717920391
 30
0.0
 40
2.5
 41
45.7142857143
 46
0.0
 71
     1
 72
     1
  1
DATE: 26/03/2019
  7
TEXTSTYLE_3
 73
     1
 44
0.9
  0
MTEXT
  5
4CC
330
224
100
AcDbEntity
 67
     1
  8
9_SOLID
  6
Continuous
 62
     2
100
AcDbMText
 10
321.3090188711
 20
23.1092920391
 30
0.0
 40
2.25
 41
134.5982142857
 46
0.0
 71
     1
 72
     1
  1
Any integral or partial reproductions are prohibited \Pwithout prior authorisation of L {\Ftxt.shx;\W0.190476;\H2.250000; }& L Luce & Light s.r.l., \Pin accordance with the law in force. \PAll rights reserved.
  7
TEXTSTYLE_3
 73
     1
 44
0.9
  0
ENDSEC
  0
SECTION
  2
OBJECTS
  0
DICTIONARY
  5
C
330
0
100
AcDbDictionary
281
     1
  3
ACAD_DETAILVIEWSTYLE
350
51B
  3
ACAD_GROUP
350
D
  3
ACAD_LAYOUT
350
1A
  3
ACAD_MATERIAL
350
50A
  3
ACAD_MLEADERSTYLE
350
510
  3
ACAD_MLINESTYLE
350
17
  3
ACAD_PLOTSETTINGS
350
19
  3
ACAD_PLOTSTYLENAME
350
E
  3
ACAD_SCALELIST
350
4CF
  3
ACAD_SECTIONVIEWSTYLE
350
51C
  3
ACAD_TABLESTYLE
350
50E
  3
ACAD_VISUALSTYLE
350
4F1
  3
ACDB_RECOMPOSE_DATA
350
517
  3
AcDbVariableDictionary
350
513
  3
APPDATA
350
512
  0
DICTIONARY
  5
51B
102
{ACAD_REACTORS
330
C
102
}
330
C
100
AcDbDictionary
281
     1
  0
DICTIONARY
  5
D
102
{ACAD_REACTORS
330
C
102
}
330
C
100
AcDbDictionary
281
     1
  0
DICTIONARY
  5
1A
102
{ACAD_REACTORS
330
C
102
}
330
C
100
AcDbDictionary
281
     1
  3
167022_1
350
4CE
  3
Model
350
4CD
  0
DICTIONARY
  5
50A
102
{ACAD_REACTORS
330
C
102
}
330
C
100
AcDbDictionary
281
     1
  3
ByBlock
350
50C
  3
ByLayer
350
50B
  3
Global
350
50D
  0
DICTIONARY
  5
510
102
{ACAD_REACTORS
330
C
102
}
330
C
100
AcDbDictionary
281
     1
  3
Standard
350
511
  0
DICTIONARY
  5
17
102
{ACAD_REACTORS
330
C
102
}
330
C
100
AcDbDictionary
281
     1
  3
Standard
350
18
  0
DICTIONARY
  5
19
102
{ACAD_REACTORS
330
C
102
}
330
C
100
AcDbDictionary
281
     1
  0
ACDBDICTIONARYWDFLT
  5
E
102
{ACAD_REACTORS
330
C
102
}
330
C
100
AcDbDictionary
281
     1
  3
Normal
350
F
100
AcDbDictionaryWithDefault
340
F
  0
DICTIONARY
  5
4CF
102
{ACAD_REACTORS
330
C
102
}
330
C
100
AcDbDictionary
281
     1
  3
A0
350
4D0
  3
A1
350
4D1
  3
A2
350
4D2
  3
A3
350
4D3
  3
A4
350
4D4
  3
A5
350
4D5
  3
A6
350
4D6
  3
A7
350
4D7
  3
A8
350
4D8
  3
A9
350
4D9
  3
B0
350
4DA
  3
B1
350
4DB
  3
B2
350
4DC
  3
B3
350
4DD
  3
B4
350
4DE
  3
B5
350
4DF
  3
B6
350
4E0
  3
B7
350
4E1
  3
B8
350
4E2
  3
B9
350
4E3
  3
C0
350
4E4
  3
C1
350
4E5
  3
C2
350
4E6
  3
C3
350
4E7
  3
C4
350
4E8
  3
C5
350
4E9
  3
C6
350
4EA
  3
C7
350
4EB
  3
C8
350
4EC
  3
C9
350
4ED
  3
D0
350
4EE
  3
D1
350
4EF
  3
D2
350
4F0
  0
DICTIONARY
  5
51C
102
{ACAD_REACTORS
330
C
102
}
330
C
100
AcDbDictionary
281
     1
  0
DICTIONARY
  5
50E
102
{ACAD_REACTORS
330
C
102
}
330
C
100
AcDbDictionary
281
     1
  3
Standard
350
50F
  0
DICTIONARY
  5
4F1
102
{ACAD_REACTORS
330
C
102
}
330
C
100
AcDbDictionary
281
     1
  3
2dWireframe
350
4F6
  3
Basic
350
4F9
  3
Brighten
350
4FD
  3
ColorChange
350
501
  3
Conceptual
350
4FB
  3
Dim
350
4FC
  3
EdgeColorOff
350
504
  3
Facepattern
350
500
  3
Flat
350
4F2
  3
FlatWithEdges
350
4F3
  3
Gouraud
350
4F4
  3
GouraudWithEdges
350
4F5
  3
Hidden
350
4F8
  3
JitterOff
350
502
  3
Linepattern
350
4FF
  3
OverhangOff
350
503
  3
Realistic
350
4FA
  3
Shaded
350
509
  3
Shaded with edges
350
508
  3
Shades of Gray
350
505
  3
Sketchy
350
506
  3
Thicken
350
4FE
  3
Wireframe
350
4F7
  3
X-Ray
350
507
  0
XRECORD
  5
517
102
{ACAD_REACTORS
330
C
102
}
330
C
100
AcDbXrecord
280
     1
 90
        1
330
50F
  0
DICTIONARY
  5
513
102
{ACAD_REACTORS
330
C
102
}
330
C
100
AcDbDictionary
281
     1
  3
CANNOSCALE
350
514
  3
CMLEADERSTYLE
350
519
  3
CTABLESTYLE
350
518
  3
MSLTSCALE
350
51A
  0
DICTIONARY
  5
512
102
{ACAD_REACTORS
330
C
102
}
330
C
100
AcDbDictionary
281
     1
  0
LAYOUT
  5
4CE
102
{ACAD_REACTORS
330
1A
102
}
330
1A
100
AcDbPlotSettings
  1

  2
none_device
  4
ISO_A3_(420.00_x_297.00_MM)
  6

 40
0.0
 41
0.0
 42
0.0
 43
0.0
 44
420.0
 45
297.0
 46
0.0
 47
0.0
 48
0.0
 49
0.0
140
0.0
141
0.0
142
1.0
143
1.0
 70
     0
 72
     1
 73
     0
 74
     0
  7

 75
     0
 76
     0
 77
     2
 78
   300
147
1.0
148
0.0
149
0.0
100
AcDbLayout
  1
167022_1
 70
     0
 71
     1
 10
0.0
 20
0.0
 11
420.0
 21
297.0
 12
0.0
 22
0.0
 32
0.0
 14
0.0
 24
0.0
 34
0.0
 15
420.0
 25
297.0
 35
0.0
146
0.0
 13
0.0
 23
0.0
 33
0.0
 16
1.0
 26
0.0
 36
0.0
 17
0.0
 27
1.0
 37
0.0
 76
     0
330
224
331
2A2
  0
LAYOUT
  5
4CD
102
{ACAD_REACTORS
330
1A
102
}
330
1A
100
AcDbPlotSettings
  1

  2
none_device
  4

  6

 40
0.0
 41
0.0
 42
0.0
 43
0.0
 44
420.0
 45
297.0
 46
0.0
 47
0.0
 48
0.0
 49
0.0
140
0.0
141
0.0
142
1.0
143
1.0
 70
  1024
 72
     1
 73
     0
 74
     0
  7

 75
     0
 76
     0
 77
     2
 78
   300
147
1.0
148
0.0
149
0.0
100
AcDbLayout
  1
Model
 70
     0
 71
     0
 10
0.0
 20
0.0
 11
420.0
 21
297.0
 12
0.0
 22
0.0
 32
0.0
 14
0.0
 24
0.0
 34
0.0
 15
0.0
 25
0.0
 35
0.0
146
0.0
 13
0.0
 23
0.0
 33
0.0
 16
1.0
 26
0.0
 36
0.0
 17
0.0
 27
1.0
 37
0.0
 76
     0
330
223
331
1F4
  0
MATERIAL
  5
50C
102
{ACAD_REACTORS
330
50A
102
}
330
50A
100
AcDbMaterial
  1
ByBlock
 72
     1
 94
      127
  0
MATERIAL
  5
50B
102
{ACAD_REACTORS
330
50A
102
}
330
50A
100
AcDbMaterial
  1
ByLayer
 72
     1
 94
      127
  0
MATERIAL
  5
50D
102
{ACAD_REACTORS
330
50A
102
}
330
50A
100
AcDbMaterial
  1
Global
 72
     1
 94
      127
  0
MLEADERSTYLE
  5
511
102
{ACAD_REACTORS
330
510
102
}
330
510
100
AcDbMLeaderStyle
179
     2
170
     2
171
     1
172
     0
 90
        2
 40
0.0
 41
0.0
173
     1
 91
-1056964608
340
14
 92
       -2
290
     1
 42
2.0
291
     1
 43
8.0
  3
Standard
341
0
 44
4.0
300

342
11
174
     1
178
     1
175
     1
176
     0
 93
-1056964608
 45
4.0
292
     0
297
     0
 46
4.0
343
0
 94
-1056964608
 47
1.0
 49
1.0
140
1.0
293
     1
141
0.0
294
     1
177
     0
142
1.0
295
     0
296
     0
143
3.75
271
     0
272
     9
273
     9
298
     0
  0
MLINESTYLE
  5
18
102
{ACAD_REACTORS
330
17
102
}
330
17
100
AcDbMlineStyle
  2
STANDARD
 70
     0
  3

 62
   256
 51
90.0
 52
90.0
 71
     2
 49
0.5
 62
   256
  6
BYLAYER
 49
-0.5
 62
   256
  6
BYLAYER
  0
ACDBPLACEHOLDER
  5
F
102
{ACAD_REACTORS
330
E
102
}
330
E
  0
SCALE
  5
4D0
102
{ACAD_REACTORS
330
4CF
102
}
330
4CF
100
AcDbScale
 70
     0
300
1:1
140
1.0
141
1.0
290
     1
  0
SCALE
  5
4D1
102
{ACAD_REACTORS
330
4CF
102
}
330
4CF
100
AcDbScale
 70
     0
300
1:2
140
1.0
141
2.0
290
     0
  0
SCALE
  5
4D2
102
{ACAD_REACTORS
330
4CF
102
}
330
4CF
100
AcDbScale
 70
     0
300
1:4
140
1.0
141
4.0
290
     0
  0
SCALE
  5
4D3
102
{ACAD_REACTORS
330
4CF
102
}
330
4CF
100
AcDbScale
 70
     0
300
1:5
140
1.0
141
5.0
290
     0
  0
SCALE
  5
4D4
102
{ACAD_REACTORS
330
4CF
102
}
330
4CF
100
AcDbScale
 70
     0
300
1:8
140
1.0
141
8.0
290
     0
  0
SCALE
  5
4D5
102
{ACAD_REACTORS
330
4CF
102
}
330
4CF
100
AcDbScale
 70
     0
300
1:10
140
1.0
141
10.0
290
     0
  0
SCALE
  5
4D6
102
{ACAD_REACTORS
330
4CF
102
}
330
4CF
100
AcDbScale
 70
     0
300
1:16
140
1.0
141
16.0
290
     0
  0
SCALE
  5
4D7
102
{ACAD_REACTORS
330
4CF
102
}
330
4CF
100
AcDbScale
 70
     0
300
1:20
140
1.0
141
20.0
290
     0
  0
SCALE
  5
4D8
102
{ACAD_REACTORS
330
4CF
102
}
330
4CF
100
AcDbScale
 70
     0
300
1:30
140
1.0
141
30.0
290
     0
  0
SCALE
  5
4D9
102
{ACAD_REACTORS
330
4CF
102
}
330
4CF
100
AcDbScale
 70
     0
300
1:40
140
1.0
141
40.0
290
     0
  0
SCALE
  5
4DA
102
{ACAD_REACTORS
330
4CF
102
}
330
4CF
100
AcDbScale
 70
     0
300
1:50
140
1.0
141
50.0
290
     0
  0
SCALE
  5
4DB
102
{ACAD_REACTORS
330
4CF
102
}
330
4CF
100
AcDbScale
 70
     0
300
1:100
140
1.0
141
100.0
290
     0
  0
SCALE
  5
4DC
102
{ACAD_REACTORS
330
4CF
102
}
330
4CF
100
AcDbScale
 70
     0
300
2:1
140
2.0
141
1.0
290
     0
  0
SCALE
  5
4DD
102
{ACAD_REACTORS
330
4CF
102
}
330
4CF
100
AcDbScale
 70
     0
300
4:1
140
4.0
141
1.0
290
     0
  0
SCALE
  5
4DE
102
{ACAD_REACTORS
330
4CF
102
}
330
4CF
100
AcDbScale
 70
     0
300
8:1
140
8.0
141
1.0
290
     0
  0
SCALE
  5
4DF
102
{ACAD_REACTORS
330
4CF
102
}
330
4CF
100
AcDbScale
 70
     0
300
10:1
140
10.0
141
1.0
290
     0
  0
SCALE
  5
4E0
102
{ACAD_REACTORS
330
4CF
102
}
330
4CF
100
AcDbScale
 70
     0
300
100:1
140
100.0
141
1.0
290
     0
  0
SCALE
  5
4E1
102
{ACAD_REACTORS
330
4CF
102
}
330
4CF
100
AcDbScale
 70
     0
300
1/128" = 1'-0"
140
0.0078125
141
12.0
290
     0
  0
SCALE
  5
4E2
102
{ACAD_REACTORS
330
4CF
102
}
330
4CF
100
AcDbScale
 70
     0
300
1/64" = 1'-0"
140
0.015625
141
12.0
290
     0
  0
SCALE
  5
4E3
102
{ACAD_REACTORS
330
4CF
102
}
330
4CF
100
AcDbScale
 70
     0
300
1/32" = 1'-0"
140
0.03125
141
12.0
290
     0
  0
SCALE
  5
4E4
102
{ACAD_REACTORS
330
4CF
102
}
330
4CF
100
AcDbScale
 70
     0
300
1/16" = 1'-0"
140
0.0625
141
12.0
290
     0
  0
SCALE
  5
4E5
102
{ACAD_REACTORS
330
4CF
102
}
330
4CF
100
AcDbScale
 70
     0
300
3/32" = 1'-0"
140
0.09375
141
12.0
290
     0
  0
SCALE
  5
4E6
102
{ACAD_REACTORS
330
4CF
102
}
330
4CF
100
AcDbScale
 70
     0
300
1/8" = 1'-0"
140
0.125
141
12.0
290
     0
  0
SCALE
  5
4E7
102
{ACAD_REACTORS
330
4CF
102
}
330
4CF
100
AcDbScale
 70
     0
300
3/16" = 1'-0"
140
0.1875
141
12.0
290
     0
  0
SCALE
  5
4E8
102
{ACAD_REACTORS
330
4CF
102
}
330
4CF
100
AcDbScale
 70
     0
300
1/4" = 1'-0"
140
0.25
141
12.0
290
     0
  0
SCALE
  5
4E9
102
{ACAD_REACTORS
330
4CF
102
}
330
4CF
100
AcDbScale
 70
     0
300
3/8" = 1'-0"
140
0.375
141
12.0
290
     0
  0
SCALE
  5
4EA
102
{ACAD_REACTORS
330
4CF
102
}
330
4CF
100
AcDbScale
 70
     0
300
1/2" = 1'-0"
140
0.5
141
12.0
290
     0
  0
SCALE
  5
4EB
102
{ACAD_REACTORS
330
4CF
102
}
330
4CF
100
AcDbScale
 70
     0
300
3/4" = 1'-0"
140
0.75
141
12.0
290
     0
  0
SCALE
  5
4EC
102
{ACAD_REACTORS
330
4CF
102
}
330
4CF
100
AcDbScale
 70
     0
300
1" = 1'-0"
140
1.0
141
12.0
290
     0
  0
SCALE
  5
4ED
102
{ACAD_REACTORS
330
4CF
102
}
330
4CF
100
AcDbScale
 70
     0
300
1-1/2" = 1'-0"
140
1.5
141
12.0
290
     0
  0
SCALE
  5
4EE
102
{ACAD_REACTORS
330
4CF
102
}
330
4CF
100
AcDbScale
 70
     0
300
3" = 1'-0"
140
3.0
141
12.0
290
     0
  0
SCALE
  5
4EF
102
{ACAD_REACTORS
330
4CF
102
}
330
4CF
100
AcDbScale
 70
     0
300
6" = 1'-0"
140
6.0
141
12.0
290
     0
  0
SCALE
  5
4F0
102
{ACAD_REACTORS
330
4CF
102
}
330
4CF
100
AcDbScale
 70
     0
300
1'-0" = 1'-0"
140
12.0
141
12.0
290
     0
  0
TABLESTYLE
  5
50F
102
{ACAD_REACTORS
330
50E
102
}
102
{ACAD_XDICTIONARY
360
515
102
}
330
50E
100
AcDbTableStyle
  3
Standard
 70
     0
 71
     0
 40
0.06
 41
0.06
280
     0
281
     0
  7
STANDARD
140
4.5
170
     2
 62
     0
 63
   257
283
     0
 90
        4
 91
        0
  1

274
    -2
284
     1
 64
     0
275
    -2
285
     1
 65
     0
276
    -2
286
     1
 66
     0
277
    -2
287
     1
 67
     0
278
    -2
288
     1
 68
     0
279
    -2
289
     1
 69
     0
  7
STANDARD
140
6.0
170
     5
 62
     0
 63
   257
283
     0
 90
        4
 91
        0
  1

274
    -2
284
     1
 64
     0
275
    -2
285
     1
 65
     0
276
    -2
286
     1
 66
     0
277
    -2
287
     1
 67
     0
278
    -2
288
     1
 68
     0
279
    -2
289
     1
 69
     0
  7
STANDARD
140
4.5
170
     5
 62
     0
 63
   257
283
     0
 90
        4
 91
        0
  1

274
    -2
284
     1
 64
     0
275
    -2
285
     1
 65
     0
276
    -2
286
     1
 66
     0
277
    -2
287
     1
 67
     0
278
    -2
288
     1
 68
     0
279
    -2
289
     1
 69
     0
  0
VISUALSTYLE
  5
4F6
102
{ACAD_REACTORS
330
4F1
102
}
330
4F1
100
AcDbVisualStyle
  2
2dWireframe
 70
     4
177
     3
291
     0
 70
    58
 90
        0
176
     1
 90
        2
176
     1
 90
        0
176
     1
 90
        0
176
     1
 40
0.6
176
     1
 40
30.0
176
     1
 62
     7
420
 16777215
176
     1
 90
        1
176
     1
 90
        4
176
     1
 62
     7
176
     1
 62
   257
176
     1
 90
        1
176
     1
 90
        1
176
     1
 40
1.0
176
     1
 90
        0
176
     1
 62
   257
176
     1
 40
1.0
176
     1
 90
        1
176
     1
 90
        6
176
     1
 90
        2
176
     1
 62
     7
176
     1
 90
        5
176
     1
 90
        0
176
     1
 90
        0
176
     1
290
     0
176
     1
 90
        1
176
     1
 40
0.0
176
     1
 90
        0
176
     1
290
     1
176
     1
290
     1
176
     1
290
     0
176
     1
290
     0
176
     1
290
     0
176
     1
290
     0
176
     1
290
     0
176
     1
290
     0
176
     1
290
     0
176
     1
 90
       50
176
     1
 40
0.0
176
     1
 40
1.0
176
     1
 90
        0
176
     1
 62
    18
420
        0
176
     1
 90
       50
176
     1
 90
        3
176
     1
 62
     5
420
      255
176
     1
290
     0
176
     1
 90
       50
176
     1
 90
       50
176
     1
 90
       50
176
     1
290
     0
176
     1
 90
       50
176
     1
 62
   256
176
     0
 40
1.0
176
     0
 90
        2
176
     1
  1
strokes_ogs.tif
176
     1
290
     0
176
     1
 40
1.0
176
     1
 40
1.0
176
     1
  0
VISUALSTYLE
  5
4F9
102
{ACAD_REACTORS
330
4F1
102
}
330
4F1
100
AcDbVisualStyle
  2
Basic
 70
     7
177
     3
291
     1
 70
    58
 90
        1
176
     1
 90
        0
176
     1
 90
        1
176
     1
 90
        0
176
     1
 40
0.6
176
     1
 40
30.0
176
     1
 62
     7
420
 16777215
176
     1
 90
        0
176
     1
 90
        4
176
     1
 62
     7
176
     1
 62
   257
176
     1
 90
        1
176
     1
 90
        1
176
     1
 40
1.0
176
     1
 90
        8
176
     1
 62
     7
176
     1
 40
1.0
176
     1
 90
        1
176
     1
 90
        6
176
     1
 90
        2
176
     1
 62
     7
176
     1
 90
        5
176
     1
 90
        0
176
     1
 90
        0
176
     1
290
     0
176
     1
 90
        1
176
     1
 40
0.0
176
     1
 90
        0
176
     1
290
     0
176
     1
290
     1
176
     1
290
     1
176
     1
290
     0
176
     1
290
     0
176
     1
290
     0
176
     1
290
     0
176
     1
290
     0
176
     1
290
     0
176
     1
 90
       50
176
     1
 40
0.0
176
     1
 40
1.0
176
     1
 90
        0
176
     1
 62
    18
420
        0
176
     1
 90
       50
176
     1
 90
        3
176
     1
 62
     5
420
      255
176
     1
290
     0
176
     1
 90
       50
176
     1
 90
       50
176
     1
 90
       50
176
     1
290
     0
176
     1
 90
       50
176
     1
 62
   256
176
     0
 40
1.0
176
     0
 90
        2
176
     1
  1
strokes_ogs.tif
176
     1
290
     0
176
     1
 40
1.0
176
     1
 40
1.0
176
     1
  0
VISUALSTYLE
  5
4FD
102
{ACAD_REACTORS
330
4F1
102
}
330
4F1
100
AcDbVisualStyle
  2
Brighten
 70
    12
177
     3
291
     1
 70
    58
 90
        2
176
     1
 90
        2
176
     1
 90
        0
176
     1
 90
        0
176
     1
 40
0.6
176
     1
 40
30.0
176
     1
 62
     7
420
 16777215
176
     1
 90
        1
176
     1
 90
        4
176
     1
 62
     7
176
     1
 62
   257
176
     1
 90
        1
176
     1
 90
        1
176
     1
 40
1.0
176
     1
 90
        8
176
     1
 62
     7
176
     1
 40
1.0
176
     1
 90
        1
176
     1
 90
        6
176
     1
 90
        2
176
     1
 62
     7
176
     1
 90
        5
176
     1
 90
        0
176
     1
 90
        0
176
     1
290
     0
176
     1
 90
        1
176
     1
 40
50.0
176
     1
 90
        0
176
     1
290
     0
176
     1
290
     1
176
     1
290
     1
176
     1
290
     0
176
     1
290
     0
176
     1
290
     0
176
     1
290
     0
176
     1
290
     0
176
     1
290
     0
176
     1
 90
       50
176
     1
 40
0.0
176
     1
 40
1.0
176
     1
 90
        0
176
     1
 62
    18
420
        0
176
     1
 90
       50
176
     1
 90
        3
176
     1
 62
     5
420
      255
176
     1
290
     0
176
     1
 90
       50
176
     1
 90
       50
176
     1
 90
       50
176
     1
290
     0
176
     1
 90
       50
176
     1
 62
   256
176
     0
 40
1.0
176
     0
 90
        2
176
     1
  1
strokes_ogs.tif
176
     1
290
     0
176
     1
 40
1.0
176
     1
 40
1.0
176
     1
  0
VISUALSTYLE
  5
501
102
{ACAD_REACTORS
330
4F1
102
}
330
4F1
100
AcDbVisualStyle
  2
ColorChange
 70
    16
177
     3
291
     1
 70
    58
 90
        2
176
     1
 90
        2
176
     1
 90
        3
176
     1
 90
        0
176
     1
 40
0.6
176
     1
 40
30.0
176
     1
 62
     8
420
  8421504
176
     1
 90
        1
176
     1
 90
        4
176
     1
 62
     7
176
     1
 62
   257
176
     1
 90
        1
176
     1
 90
        1
176
     1
 40
1.0
176
     1
 90
        8
176
     1
 62
     8
420
  8421504
176
     1
 40
1.0
176
     1
 90
        1
176
     1
 90
        6
176
     1
 90
        2
176
     1
 62
     7
176
     1
 90
        5
176
     1
 90
        0
176
     1
 90
        0
176
     1
290
     0
176
     1
 90
        1
176
     1
 40
0.0
176
     1
 90
        0
176
     1
290
     0
176
     1
290
     1
176
     1
290
     1
176
     1
290
     0
176
     1
290
     0
176
     1
290
     0
176
     1
290
     0
176
     1
290
     0
176
     1
290
     0
176
     1
 90
       50
176
     1
 40
0.0
176
     1
 40
1.0
176
     1
 90
        0
176
     1
 62
    18
420
        0
176
     1
 90
       50
176
     1
 90
        3
176
     1
 62
     5
420
      255
176
     1
290
     0
176
     1
 90
       50
176
     1
 90
       50
176
     1
 90
       50
176
     1
290
     0
176
     1
 90
       50
176
     1
 62
   256
176
     0
 40
1.0
176
     0
 90
        2
176
     1
  1
strokes_ogs.tif
176
     1
290
     0
176
     1
 40
1.0
176
     1
 40
1.0
176
     1
  0
VISUALSTYLE
  5
4FB
102
{ACAD_REACTORS
330
4F1
102
}
330
4F1
100
AcDbVisualStyle
  2
Conceptual
 70
     9
177
     3
291
     0
 70
    58
 90
        3
176
     1
 90
        2
176
     1
 90
        0
176
     1
 90
        0
176
     1
 40
0.6
176
     1
 40
30.0
176
     1
 62
     7
420
 16777215
176
     1
 90
        2
176
     1
 90
        2
176
     1
 62
     7
176
     1
 62
   257
176
     1
 90
        1
176
     1
 90
        1
176
     1
 40
179.0
176
     1
 90
        8
176
     1
 62
     7
176
     1
 40
1.0
176
     1
 90
        1
176
     1
 90
        6
176
     1
 90
        2
176
     1
 62
     7
176
     1
 90
        3
176
     1
 90
        0
176
     1
 90
        0
176
     1
290
     0
176
     1
 90
        1
176
     1
 40
0.0
176
     1
 90
        0
176
     1
290
     0
176
     1
290
     1
176
     1
290
     1
176
     1
290
     0
176
     1
290
     0
176
     1
290
     0
176
     1
290
     0
176
     1
290
     0
176
     1
290
     0
176
     1
 90
       50
176
     1
 40
0.0
176
     1
 40
1.0
176
     1
 90
        0
176
     1
 62
    18
420
        0
176
     1
 90
       50
176
     1
 90
        3
176
     1
 62
     5
420
      255
176
     1
290
     0
176
     1
 90
       50
176
     1
 90
       50
176
     1
 90
       50
176
     1
290
     0
176
     1
 90
       50
176
     1
 62
   256
176
     0
 40
1.0
176
     0
 90
        2
176
     1
  1
strokes_ogs.tif
176
     1
290
     0
176
     1
 40
1.0
176
     1
 40
1.0
176
     1
  0
VISUALSTYLE
  5
4FC
102
{ACAD_REACTORS
330
4F1
102
}
330
4F1
100
AcDbVisualStyle
  2
Dim
 70
    11
177
     3
291
     1
 70
    58
 90
        2
176
     1
 90
        2
176
     1
 90
        0
176
     1
 90
        0
176
     1
 40
0.6
176
     1
 40
30.0
176
     1
 62
     7
420
 16777215
176
     1
 90
        1
176
     1
 90
        4
176
     1
 62
     7
176
     1
 62
   257
176
     1
 90
        1
176
     1
 90
        1
176
     1
 40
1.0
176
     1
 90
        8
176
     1
 62
     7
176
     1
 40
1.0
176
     1
 90
        1
176
     1
 90
        6
176
     1
 90
        2
176
     1
 62
     7
176
     1
 90
        5
176
     1
 90
        0
176
     1
 90
        0
176
     1
290
     0
176
     1
 90
        1
176
     1
 40
-50.0
176
     1
 90
        0
176
     1
290
     0
176
     1
290
     1
176
     1
290
     1
176
     1
290
     0
176
     1
290
     0
176
     1
290
     0
176
     1
290
     0
176
     1
290
     0
176
     1
290
     0
176
     1
 90
       50
176
     1
 40
0.0
176
     1
 40
1.0
176
     1
 90
        0
176
     1
 62
    18
420
        0
176
     1
 90
       50
176
     1
 90
        3
176
     1
 62
     5
420
      255
176
     1
290
     0
176
     1
 90
       50
176
     1
 90
       50
176
     1
 90
       50
176
     1
290
     0
176
     1
 90
       50
176
     1
 62
   256
176
     0
 40
1.0
176
     0
 90
        2
176
     1
  1
strokes_ogs.tif
176
     1
290
     0
176
     1
 40
1.0
176
     1
 40
1.0
176
     1
  0
VISUALSTYLE
  5
504
102
{ACAD_REACTORS
330
4F1
102
}
330
4F1
100
AcDbVisualStyle
  2
EdgeColorOff
 70
    22
177
     3
291
     1
 70
    58
 90
        2
176
     0
 90
        2
176
     0
 90
        0
176
     0
 90
        0
176
     0
 40
0.6
176
     0
 40
30.0
176
     0
 62
     7
420
 16777215
176
     0
 90
        1
176
     0
 90
        4
176
     0
 62
     7
176
     0
 62
   257
176
     0
 90
        1
176
     0
 90
        1
176
     0
 40
1.0
176
     0
 90
        8
176
     2
 62
     7
176
     0
 40
1.0
176
     0
 90
        1
176
     0
 90
        6
176
     0
 90
        2
176
     0
 62
     7
176
     0
 90
        5
176
     0
 90
        0
176
     0
 90
        0
176
     0
290
     0
176
     0
 90
        1
176
     0
 40
0.0
176
     0
 90
        0
176
     0
290
     0
176
     0
290
     1
176
     0
290
     1
176
     0
290
     0
176
     0
290
     0
176
     0
290
     0
176
     0
290
     0
176
     0
290
     0
176
     0
290
     0
176
     0
 90
       50
176
     0
 40
0.0
176
     0
 40
1.0
176
     0
 90
        0
176
     0
 62
    18
420
        0
176
     0
 90
       50
176
     0
 90
        3
176
     0
 62
     5
420
      255
176
     0
290
     0
176
     0
 90
       50
176
     0
 90
       50
176
     0
 90
       50
176
     0
290
     0
176
     0
 90
       50
176
     0
 62
   256
176
     0
 40
1.0
176
     0
 90
        2
176
     0
  1
strokes_ogs.tif
176
     0
290
     0
176
     0
 40
1.0
176
     0
 40
1.0
176
     0
  0
VISUALSTYLE
  5
500
102
{ACAD_REACTORS
330
4F1
102
}
330
4F1
100
AcDbVisualStyle
  2
Facepattern
 70
    15
177
     3
291
     1
 70
    58
 90
        2
176
     1
 90
        2
176
     1
 90
        0
176
     1
 90
        0
176
     1
 40
0.6
176
     1
 40
30.0
176
     1
 62
     7
420
 16777215
176
     1
 90
        1
176
     1
 90
        4
176
     1
 62
     7
176
     1
 62
   257
176
     1
 90
        1
176
     1
 90
        1
176
     1
 40
1.0
176
     1
 90
        8
176
     1
 62
     7
176
     1
 40
1.0
176
     1
 90
        1
176
     1
 90
        6
176
     1
 90
        2
176
     1
 62
     7
176
     1
 90
        5
176
     1
 90
        0
176
     1
 90
        0
176
     1
290
     0
176
     1
 90
        1
176
     1
 40
0.0
176
     1
 90
        0
176
     1
290
     0
176
     1
290
     1
176
     1
290
     1
176
     1
290
     0
176
     1
290
     0
176
     1
290
     0
176
     1
290
     0
176
     1
290
     0
176
     1
290
     0
176
     1
 90
       50
176
     1
 40
0.0
176
     1
 40
1.0
176
     1
 90
        0
176
     1
 62
    18
420
        0
176
     1
 90
       50
176
     1
 90
        3
176
     1
 62
     5
420
      255
176
     1
290
     0
176
     1
 90
       50
176
     1
 90
       50
176
     1
 90
       50
176
     1
290
     0
176
     1
 90
       50
176
     1
 62
   256
176
     0
 40
1.0
176
     0
 90
        2
176
     1
  1
strokes_ogs.tif
176
     1
290
     0
176
     1
 40
1.0
176
     1
 40
1.0
176
     1
  0
VISUALSTYLE
  5
4F2
102
{ACAD_REACTORS
330
4F1
102
}
330
4F1
100
AcDbVisualStyle
  2
Flat
 70
     0
177
     3
291
     1
 70
    58
 90
        2
176
     1
 90
        1
176
     1
 90
        1
176
     1
 90
        2
176
     1
 40
0.6
176
     1
 40
30.0
176
     1
 62
     7
420
 16777215
176
     1
 90
        0
176
     1
 90
        0
176
     1
 62
     7
176
     1
 62
   257
176
     1
 90
        1
176
     1
 90
        1
176
     1
 40
1.0
176
     1
 90
        8
176
     1
 62
     7
176
     1
 40
1.0
176
     1
 90
        1
176
     1
 90
        6
176
     1
 90
        2
176
     1
 62
     7
176
     1
 90
        5
176
     1
 90
        0
176
     1
 90
        0
176
     1
290
     0
176
     1
 90
       13
176
     1
 40
0.0
176
     1
 90
        0
176
     1
290
     0
176
     1
290
     1
176
     1
290
     1
176
     1
290
     0
176
     1
290
     0
176
     1
290
     0
176
     1
290
     0
176
     1
290
     0
176
     1
290
     0
176
     1
 90
       50
176
     1
 40
0.0
176
     1
 40
1.0
176
     1
 90
        0
176
     1
 62
    18
420
        0
176
     1
 90
       50
176
     1
 90
        3
176
     1
 62
     5
420
      255
176
     1
290
     0
176
     1
 90
       50
176
     1
 90
       50
176
     1
 90
       50
176
     1
290
     0
176
     1
 90
       50
176
     1
 62
   256
176
     0
 40
1.0
176
     0
 90
        2
176
     1
  1
strokes_ogs.tif
176
     1
290
     0
176
     1
 40
1.0
176
     1
 40
1.0
176
     1
  0
VISUALSTYLE
  5
4F3
102
{ACAD_REACTORS
330
4F1
102
}
330
4F1
100
AcDbVisualStyle
  2
FlatWithEdges
 70
     1
177
     3
291
     1
 70
    58
 90
        2
176
     1
 90
        1
176
     1
 90
        1
176
     1
 90
        2
176
     1
 40
0.6
176
     1
 40
30.0
176
     1
 62
     7
420
 16777215
176
     1
 90
        1
176
     1
 90
        0
176
     1
 62
     7
176
     1
 62
   257
176
     1
 90
        1
176
     1
 90
        1
176
     1
 40
1.0
176
     1
 90
        0
176
     1
 62
   257
176
     1
 40
1.0
176
     1
 90
        1
176
     1
 90
        6
176
     1
 90
        2
176
     1
 62
     7
176
     1
 90
        5
176
     1
 90
        0
176
     1
 90
        0
176
     1
290
     0
176
     1
 90
       13
176
     1
 40
0.0
176
     1
 90
        0
176
     1
290
     0
176
     1
290
     1
176
     1
290
     1
176
     1
290
     0
176
     1
290
     0
176
     1
290
     0
176
     1
290
     0
176
     1
290
     0
176
     1
290
     0
176
     1
 90
       50
176
     1
 40
0.0
176
     1
 40
1.0
176
     1
 90
        0
176
     1
 62
    18
420
        0
176
     1
 90
       50
176
     1
 90
        3
176
     1
 62
     5
420
      255
176
     1
290
     0
176
     1
 90
       50
176
     1
 90
       50
176
     1
 90
       50
176
     1
290
     0
176
     1
 90
       50
176
     1
 62
   256
176
     0
 40
1.0
176
     0
 90
        2
176
     1
  1
strokes_ogs.tif
176
     1
290
     0
176
     1
 40
1.0
176
     1
 40
1.0
176
     1
  0
VISUALSTYLE
  5
4F4
102
{ACAD_REACTORS
330
4F1
102
}
330
4F1
100
AcDbVisualStyle
  2
Gouraud
 70
     2
177
     3
291
     1
 70
    58
 90
        2
176
     1
 90
        2
176
     1
 90
        1
176
     1
 90
        2
176
     1
 40
0.6
176
     1
 40
30.0
176
     1
 62
     7
420
 16777215
176
     1
 90
        0
176
     1
 90
        0
176
     1
 62
     7
176
     1
 62
   257
176
     1
 90
        1
176
     1
 90
        1
176
     1
 40
1.0
176
     1
 90
        0
176
     1
 62
     7
176
     1
 40
1.0
176
     1
 90
        1
176
     1
 90
        6
176
     1
 90
        2
176
     1
 62
     7
176
     1
 90
        5
176
     1
 90
        0
176
     1
 90
        0
176
     1
290
     0
176
     1
 90
       13
176
     1
 40
0.0
176
     1
 90
        0
176
     1
290
     0
176
     1
290
     1
176
     1
290
     1
176
     1
290
     0
176
     1
290
     0
176
     1
290
     0
176
     1
290
     0
176
     1
290
     0
176
     1
290
     0
176
     1
 90
       50
176
     1
 40
0.0
176
     1
 40
1.0
176
     1
 90
        0
176
     1
 62
    18
420
        0
176
     1
 90
       50
176
     1
 90
        3
176
     1
 62
     5
420
      255
176
     1
290
     0
176
     1
 90
       50
176
     1
 90
       50
176
     1
 90
       50
176
     1
290
     0
176
     1
 90
       50
176
     1
 62
   256
176
     0
 40
1.0
176
     0
 90
        2
176
     1
  1
strokes_ogs.tif
176
     1
290
     0
176
     1
 40
1.0
176
     1
 40
1.0
176
     1
  0
VISUALSTYLE
  5
4F5
102
{ACAD_REACTORS
330
4F1
102
}
330
4F1
100
AcDbVisualStyle
  2
GouraudWithEdges
 70
     3
177
     3
291
     1
 70
    58
 90
        2
176
     1
 90
        2
176
     1
 90
        1
176
     1
 90
        2
176
     1
 40
0.6
176
     1
 40
30.0
176
     1
 62
     7
420
 16777215
176
     1
 90
        1
176
     1
 90
        0
176
     1
 62
     7
176
     1
 62
   257
176
     1
 90
        1
176
     1
 90
        1
176
     1
 40
1.0
176
     1
 90
        0
176
     1
 62
   257
176
     1
 40
1.0
176
     1
 90
        1
176
     1
 90
        6
176
     1
 90
        2
176
     1
 62
     7
176
     1
 90
        5
176
     1
 90
        0
176
     1
 90
        0
176
     1
290
     0
176
     1
 90
       13
176
     1
 40
0.0
176
     1
 90
        0
176
     1
290
     0
176
     1
290
     1
176
     1
290
     1
176
     1
290
     0
176
     1
290
     0
176
     1
290
     0
176
     1
290
     0
176
     1
290
     0
176
     1
290
     0
176
     1
 90
       50
176
     1
 40
0.0
176
     1
 40
1.0
176
     1
 90
        0
176
     1
 62
    18
420
        0
176
     1
 90
       50
176
     1
 90
        3
176
     1
 62
     5
420
      255
176
     1
290
     0
176
     1
 90
       50
176
     1
 90
       50
176
     1
 90
       50
176
     1
290
     0
176
     1
 90
       50
176
     1
 62
   256
176
     0
 40
1.0
176
     0
 90
        2
176
     1
  1
strokes_ogs.tif
176
     1
290
     0
176
     1
 40
1.0
176
     1
 40
1.0
176
     1
  0
VISUALSTYLE
  5
4F8
102
{ACAD_REACTORS
330
4F1
102
}
330
4F1
100
AcDbVisualStyle
  2
Hidden
 70
     6
177
     3
291
     0
 70
    58
 90
        1
176
     1
 90
        2
176
     1
 90
        2
176
     1
 90
        0
176
     1
 40
0.6
176
     1
 40
30.0
176
     1
 62
     7
420
 16777215
176
     1
 90
        2
176
     1
 90
        2
176
     1
 62
     7
176
     1
 62
   257
176
     1
 90
        2
176
     1
 90
        1
176
     1
 40
40.0
176
     1
 90
        0
176
     1
 62
   257
176
     1
 40
1.0
176
     1
 90
        1
176
     1
 90
        6
176
     1
 90
        2
176
     1
 62
     7
176
     1
 90
        3
176
     1
 90
        0
176
     1
 90
        0
176
     1
290
     0
176
     1
 90
        1
176
     1
 40
0.0
176
     1
 90
        0
176
     1
290
     0
176
     1
290
     1
176
     1
290
     1
176
     1
290
     0
176
     1
290
     0
176
     1
290
     0
176
     1
290
     0
176
     1
290
     0
176
     1
290
     0
176
     1
 90
       50
176
     1
 40
0.0
176
     1
 40
1.0
176
     1
 90
        0
176
     1
 62
    18
420
        0
176
     1
 90
       50
176
     1
 90
        3
176
     1
 62
     5
420
      255
176
     1
290
     0
176
     1
 90
       50
176
     1
 90
       50
176
     1
 90
       50
176
     1
290
     0
176
     1
 90
       50
176
     1
 62
   256
176
     0
 40
1.0
176
     0
 90
        2
176
     1
  1
strokes_ogs.tif
176
     1
290
     0
176
     1
 40
1.0
176
     1
 40
1.0
176
     1
  0
VISUALSTYLE
  5
502
102
{ACAD_REACTORS
330
4F1
102
}
330
4F1
100
AcDbVisualStyle
  2
JitterOff
 70
    20
177
     3
291
     1
 70
    58
 90
        2
176
     0
 90
        2
176
     0
 90
        0
176
     0
 90
        0
176
     0
 40
0.6
176
     0
 40
30.0
176
     0
 62
     7
420
 16777215
176
     0
 90
        1
176
     0
 90
        4
176
     0
 62
     7
176
     0
 62
   257
176
     0
 90
        1
176
     0
 90
        1
176
     0
 40
1.0
176
     0
 90
       10
176
     2
 62
     7
176
     0
 40
1.0
176
     0
 90
        1
176
     0
 90
        6
176
     0
 90
        2
176
     0
 62
     7
176
     0
 90
        5
176
     0
 90
        0
176
     0
 90
        0
176
     0
290
     0
176
     0
 90
        1
176
     0
 40
0.0
176
     0
 90
        0
176
     0
290
     0
176
     0
290
     1
176
     0
290
     1
176
     0
290
     0
176
     0
290
     0
176
     0
290
     0
176
     0
290
     0
176
     0
290
     0
176
     0
290
     0
176
     0
 90
       50
176
     0
 40
0.0
176
     0
 40
1.0
176
     0
 90
        0
176
     0
 62
    18
420
        0
176
     0
 90
       50
176
     0
 90
        3
176
     0
 62
     5
420
      255
176
     0
290
     0
176
     0
 90
       50
176
     0
 90
       50
176
     0
 90
       50
176
     0
290
     0
176
     0
 90
       50
176
     0
 62
   256
176
     0
 40
1.0
176
     0
 90
        2
176
     0
  1
strokes_ogs.tif
176
     0
290
     0
176
     0
 40
1.0
176
     0
 40
1.0
176
     0
  0
VISUALSTYLE
  5
4FF
102
{ACAD_REACTORS
330
4F1
102
}
330
4F1
100
AcDbVisualStyle
  2
Linepattern
 70
    14
177
     3
291
     1
 70
    58
 90
        2
176
     1
 90
        2
176
     1
 90
        0
176
     1
 90
        0
176
     1
 40
0.6
176
     1
 40
30.0
176
     1
 62
     7
420
 16777215
176
     1
 90
        1
176
     1
 90
        4
176
     1
 62
     7
176
     1
 62
   257
176
     1
 90
        7
176
     1
 90
        7
176
     1
 40
1.0
176
     1
 90
        8
176
     1
 62
     7
176
     1
 40
1.0
176
     1
 90
        1
176
     1
 90
        6
176
     1
 90
        2
176
     1
 62
     7
176
     1
 90
        5
176
     1
 90
        0
176
     1
 90
        0
176
     1
290
     0
176
     1
 90
        1
176
     1
 40
0.0
176
     1
 90
        0
176
     1
290
     0
176
     1
290
     1
176
     1
290
     1
176
     1
290
     0
176
     1
290
     0
176
     1
290
     0
176
     1
290
     0
176
     1
290
     0
176
     1
290
     0
176
     1
 90
       50
176
     1
 40
0.0
176
     1
 40
1.0
176
     1
 90
        0
176
     1
 62
    18
420
        0
176
     1
 90
       50
176
     1
 90
        3
176
     1
 62
     5
420
      255
176
     1
290
     0
176
     1
 90
       50
176
     1
 90
       50
176
     1
 90
       50
176
     1
290
     0
176
     1
 90
       50
176
     1
 62
   256
176
     0
 40
1.0
176
     0
 90
        2
176
     1
  1
strokes_ogs.tif
176
     1
290
     0
176
     1
 40
1.0
176
     1
 40
1.0
176
     1
  0
VISUALSTYLE
  5
503
102
{ACAD_REACTORS
330
4F1
102
}
330
4F1
100
AcDbVisualStyle
  2
OverhangOff
 70
    21
177
     3
291
     1
 70
    58
 90
        2
176
     0
 90
        2
176
     0
 90
        0
176
     0
 90
        0
176
     0
 40
0.6
176
     0
 40
30.0
176
     0
 62
     7
420
 16777215
176
     0
 90
        1
176
     0
 90
        4
176
     0
 62
     7
176
     0
 62
   257
176
     0
 90
        1
176
     0
 90
        1
176
     0
 40
1.0
176
     0
 90
        9
176
     2
 62
     7
176
     0
 40
1.0
176
     0
 90
        1
176
     0
 90
        6
176
     0
 90
        2
176
     0
 62
     7
176
     0
 90
        5
176
     0
 90
        0
176
     0
 90
        0
176
     0
290
     0
176
     0
 90
        1
176
     0
 40
0.0
176
     0
 90
        0
176
     0
290
     0
176
     0
290
     1
176
     0
290
     1
176
     0
290
     0
176
     0
290
     0
176
     0
290
     0
176
     0
290
     0
176
     0
290
     0
176
     0
290
     0
176
     0
 90
       50
176
     0
 40
0.0
176
     0
 40
1.0
176
     0
 90
        0
176
     0
 62
    18
420
        0
176
     0
 90
       50
176
     0
 90
        3
176
     0
 62
     5
420
      255
176
     0
290
     0
176
     0
 90
       50
176
     0
 90
       50
176
     0
 90
       50
176
     0
290
     0
176
     0
 90
       50
176
     0
 62
   256
176
     0
 40
1.0
176
     0
 90
        2
176
     0
  1
strokes_ogs.tif
176
     0
290
     0
176
     0
 40
1.0
176
     0
 40
1.0
176
     0
  0
VISUALSTYLE
  5
4FA
102
{ACAD_REACTORS
330
4F1
102
}
330
4F1
100
AcDbVisualStyle
  2
Realistic
 70
     8
177
     3
291
     0
 70
    58
 90
        2
176
     1
 90
        3
176
     1
 90
        0
176
     1
 90
        2
176
     1
 40
0.6
176
     1
 40
30.0
176
     1
 62
     7
420
 16777215
176
     1
 90
        0
176
     1
 90
        0
176
     1
 62
     7
176
     1
 62
   257
176
     1
 90
        1
176
     1
 90
        1
176
     1
 40
1.0
176
     1
 90
        8
176
     1
 62
   257
176
     1
 40
1.0
176
     1
 90
        1
176
     1
 90
        6
176
     1
 90
        2
176
     1
 62
     7
176
     1
 90
        3
176
     1
 90
        0
176
     1
 90
        0
176
     1
290
     0
176
     1
 90
       13
176
     1
 40
0.0
176
     1
 90
        0
176
     1
290
     0
176
     1
290
     1
176
     1
290
     1
176
     1
290
     0
176
     1
290
     0
176
     1
290
     0
176
     1
290
     0
176
     1
290
     0
176
     1
290
     0
176
     1
 90
       50
176
     1
 40
0.0
176
     1
 40
1.0
176
     1
 90
        0
176
     1
 62
    18
420
        0
176
     1
 90
       50
176
     1
 90
        3
176
     1
 62
     5
420
      255
176
     1
290
     0
176
     1
 90
       50
176
     1
 90
       50
176
     1
 90
       50
176
     1
290
     0
176
     1
 90
       50
176
     1
 62
   256
176
     0
 40
1.0
176
     0
 90
        2
176
     1
  1
strokes_ogs.tif
176
     1
290
     0
176
     1
 40
1.0
176
     1
 40
1.0
176
     1
  0
VISUALSTYLE
  5
509
102
{ACAD_REACTORS
330
4F1
102
}
330
4F1
100
AcDbVisualStyle
  2
Shaded
 70
    27
177
     3
291
     0
 70
    58
 90
        2
176
     1
 90
        2
176
     1
 90
        1
176
     1
 90
        2
176
     1
 40
0.6
176
     1
 40
30.0
176
     1
 62
     7
420
 16777215
176
     1
 90
        0
176
     1
 90
        4
176
     1
 62
     7
176
     1
 62
   257
176
     1
 90
        1
176
     1
 90
        1
176
     1
 40
1.0
176
     1
 90
        8
176
     1
 62
   257
176
     1
 40
1.0
176
     1
 90
        1
176
     1
 90
        6
176
     1
 90
        2
176
     1
 62
     8
420
  7895160
176
     1
 90
        3
176
     1
 90
        0
176
     1
 90
        0
176
     1
290
     0
176
     1
 90
        5
176
     1
 40
0.0
176
     1
 90
        0
176
     1
290
     0
176
     1
290
     1
176
     1
290
     1
176
     1
290
     0
176
     1
290
     0
176
     1
290
     0
176
     1
290
     0
176
     1
290
     0
176
     1
290
     0
176
     1
 90
       50
176
     1
 40
0.0
176
     1
 40
1.0
176
     1
 90
        0
176
     1
 62
    18
420
        0
176
     1
 90
       50
176
     1
 90
        3
176
     1
 62
     5
420
      255
176
     1
290
     0
176
     1
 90
       50
176
     1
 90
       50
176
     1
 90
       50
176
     1
290
     0
176
     1
 90
       50
176
     1
 62
   256
176
     0
 40
1.0
176
     0
 90
        2
176
     1
  1
strokes_ogs.tif
176
     1
290
     0
176
     1
 40
1.0
176
     1
 40
1.0
176
     1
  0
VISUALSTYLE
  5
508
102
{ACAD_REACTORS
330
4F1
102
}
330
4F1
100
AcDbVisualStyle
  2
Shaded with edges
 70
    26
177
     3
291
     0
 70
    58
 90
        2
176
     1
 90
        2
176
     1
 90
        1
176
     1
 90
        2
176
     1
 40
0.6
176
     1
 40
30.0
176
     1
 62
     7
420
 16777215
176
     1
 90
        1
176
     1
 90
       10
176
     1
 62
     7
176
     1
 62
   257
176
     1
 90
        2
176
     1
 90
        1
176
     1
 40
1.0
176
     1
 90
        8
176
     1
 62
   257
176
     1
 40
1.0
176
     1
 90
        1
176
     1
 90
        6
176
     1
 90
        2
176
     1
 62
     7
176
     1
 90
        3
176
     1
 90
        0
176
     1
 90
        0
176
     1
290
     0
176
     1
 90
        5
176
     1
 40
0.0
176
     1
 90
        0
176
     1
290
     0
176
     1
290
     1
176
     1
290
     1
176
     1
290
     0
176
     1
290
     0
176
     1
290
     0
176
     1
290
     0
176
     1
290
     0
176
     1
290
     0
176
     1
 90
       50
176
     1
 40
0.0
176
     1
 40
1.0
176
     1
 90
        0
176
     1
 62
    18
420
        0
176
     1
 90
       50
176
     1
 90
        3
176
     1
 62
     5
420
      255
176
     1
290
     0
176
     1
 90
       50
176
     1
 90
       50
176
     1
 90
       50
176
     1
290
     0
176
     1
 90
       50
176
     1
 62
   256
176
     0
 40
1.0
176
     0
 90
        2
176
     1
  1
strokes_ogs.tif
176
     1
290
     0
176
     1
 40
1.0
176
     1
 40
1.0
176
     1
  0
VISUALSTYLE
  5
505
102
{ACAD_REACTORS
330
4F1
102
}
330
4F1
100
AcDbVisualStyle
  2
Shades of Gray
 70
    23
177
     3
291
     0
 70
    58
 90
        2
176
     1
 90
        2
176
     1
 90
        3
176
     1
 90
        0
176
     1
 40
0.6
176
     1
 40
30.0
176
     1
 62
     7
420
 16777215
176
     1
 90
        2
176
     1
 90
        2
176
     1
 62
     7
176
     1
 62
     7
176
     1
 90
        1
176
     1
 90
        1
176
     1
 40
40.0
176
     1
 90
        8
176
     1
 62
     7
176
     1
 40
1.0
176
     1
 90
        1
176
     1
 90
        6
176
     1
 90
        2
176
     1
 62
     7
176
     1
 90
        3
176
     1
 90
        0
176
     1
 90
        0
176
     1
290
     0
176
     1
 90
        1
176
     1
 40
0.0
176
     1
 90
        0
176
     1
290
     0
176
     1
290
     1
176
     1
290
     1
176
     1
290
     0
176
     1
290
     0
176
     1
290
     0
176
     1
290
     0
176
     1
290
     0
176
     1
290
     0
176
     1
 90
       50
176
     1
 40
0.0
176
     1
 40
1.0
176
     1
 90
        0
176
     1
 62
    18
420
        0
176
     1
 90
       50
176
     1
 90
        3
176
     1
 62
     5
420
      255
176
     1
290
     0
176
     1
 90
       50
176
     1
 90
       50
176
     1
 90
       50
176
     1
290
     0
176
     1
 90
       50
176
     1
 62
   256
176
     0
 40
1.0
176
     0
 90
        2
176
     1
  1
strokes_ogs.tif
176
     1
290
     0
176
     1
 40
1.0
176
     1
 40
1.0
176
     1
  0
VISUALSTYLE
  5
506
102
{ACAD_REACTORS
330
4F1
102
}
330
4F1
100
AcDbVisualStyle
  2
Sketchy
 70
    24
177
     3
291
     0
 70
    58
 90
        1
176
     1
 90
        2
176
     1
 90
        2
176
     1
 90
        0
176
     1
 40
0.6
176
     1
 40
30.0
176
     1
 62
     7
420
 16777215
176
     1
 90
        2
176
     1
 90
        2
176
     1
 62
     7
176
     1
 62
     7
176
     1
 90
        1
176
     1
 90
        1
176
     1
 40
40.0
176
     1
 90
       11
176
     1
 62
     7
176
     1
 40
1.0
176
     1
 90
        1
176
     1
 90
        6
176
     1
 90
        2
176
     1
 62
     7
176
     1
 90
        6
176
     1
 90
        0
176
     1
 90
        0
176
     1
290
     0
176
     1
 90
        1
176
     1
 40
0.0
176
     1
 90
        0
176
     1
290
     0
176
     1
290
     1
176
     1
290
     1
176
     1
290
     0
176
     1
290
     0
176
     1
290
     0
176
     1
290
     0
176
     1
290
     0
176
     1
290
     0
176
     1
 90
       50
176
     1
 40
0.0
176
     1
 40
1.0
176
     1
 90
        0
176
     1
 62
    18
420
        0
176
     1
 90
       50
176
     1
 90
        3
176
     1
 62
     5
420
      255
176
     1
290
     0
176
     1
 90
       50
176
     1
 90
       50
176
     1
 90
       50
176
     1
290
     0
176
     1
 90
       50
176
     1
 62
   256
176
     0
 40
1.0
176
     0
 90
        2
176
     1
  1
strokes_ogs.tif
176
     1
290
     0
176
     1
 40
1.0
176
     1
 40
1.0
176
     1
  0
VISUALSTYLE
  5
4FE
102
{ACAD_REACTORS
330
4F1
102
}
330
4F1
100
AcDbVisualStyle
  2
Thicken
 70
    13
177
     3
291
     1
 70
    58
 90
        2
176
     1
 90
        2
176
     1
 90
        0
176
     1
 90
        0
176
     1
 40
0.6
176
     1
 40
30.0
176
     1
 62
     7
420
 16777215
176
     1
 90
        1
176
     1
 90
        4
176
     1
 62
     7
176
     1
 62
   257
176
     1
 90
        1
176
     1
 90
        1
176
     1
 40
1.0
176
     1
 90
       12
176
     1
 62
     7
176
     1
 40
1.0
176
     1
 90
        1
176
     1
 90
        6
176
     1
 90
        2
176
     1
 62
     7
176
     1
 90
        5
176
     1
 90
        0
176
     1
 90
        0
176
     1
290
     0
176
     1
 90
        1
176
     1
 40
0.0
176
     1
 90
        0
176
     1
290
     0
176
     1
290
     1
176
     1
290
     1
176
     1
290
     0
176
     1
290
     0
176
     1
290
     0
176
     1
290
     0
176
     1
290
     0
176
     1
290
     0
176
     1
 90
       50
176
     1
 40
0.0
176
     1
 40
1.0
176
     1
 90
        0
176
     1
 62
    18
420
        0
176
     1
 90
       50
176
     1
 90
        3
176
     1
 62
     5
420
      255
176
     1
290
     0
176
     1
 90
       50
176
     1
 90
       50
176
     1
 90
       50
176
     1
290
     0
176
     1
 90
       50
176
     1
 62
   256
176
     0
 40
1.0
176
     0
 90
        2
176
     1
  1
strokes_ogs.tif
176
     1
290
     0
176
     1
 40
1.0
176
     1
 40
1.0
176
     1
  0
VISUALSTYLE
  5
4F7
102
{ACAD_REACTORS
330
4F1
102
}
330
4F1
100
AcDbVisualStyle
  2
Wireframe
 70
     5
177
     3
291
     0
 70
    58
 90
        0
176
     1
 90
        2
176
     1
 90
        0
176
     1
 90
        0
176
     1
 40
0.6
176
     1
 40
30.0
176
     1
 62
     7
420
 16777215
176
     1
 90
        1
176
     1
 90
        4
176
     1
 62
     7
176
     1
 62
   257
176
     1
 90
        1
176
     1
 90
        1
176
     1
 40
1.0
176
     1
 90
        0
176
     1
 62
   257
176
     1
 40
1.0
176
     1
 90
        1
176
     1
 90
        6
176
     1
 90
        2
176
     1
 62
     7
176
     1
 90
        3
176
     1
 90
        0
176
     1
 90
        0
176
     1
290
     0
176
     1
 90
        1
176
     1
 40
0.0
176
     1
 90
        0
176
     1
290
     0
176
     1
290
     1
176
     1
290
     1
176
     1
290
     0
176
     1
290
     0
176
     1
290
     0
176
     1
290
     0
176
     1
290
     0
176
     1
290
     0
176
     1
 90
       50
176
     1
 40
0.0
176
     1
 40
1.0
176
     1
 90
        0
176
     1
 62
    18
420
        0
176
     1
 90
       50
176
     1
 90
        3
176
     1
 62
     5
420
      255
176
     1
290
     0
176
     1
 90
       50
176
     1
 90
       50
176
     1
 90
       50
176
     1
290
     0
176
     1
 90
       50
176
     1
 62
   256
176
     0
 40
1.0
176
     0
 90
        2
176
     1
  1
strokes_ogs.tif
176
     1
290
     0
176
     1
 40
1.0
176
     1
 40
1.0
176
     1
  0
VISUALSTYLE
  5
507
102
{ACAD_REACTORS
330
4F1
102
}
330
4F1
100
AcDbVisualStyle
  2
X-Ray
 70
    25
177
     3
291
     0
 70
    58
 90
        2
176
     1
 90
        2
176
     1
 90
        1
176
     1
 90
        1
176
     1
 40
0.5
176
     1
 40
30.0
176
     1
 62
     7
420
 16777215
176
     1
 90
        1
176
     1
 90
        0
176
     1
 62
     7
176
     1
 62
   257
176
     1
 90
        1
176
     1
 90
        1
176
     1
 40
1.0
176
     1
 90
        8
176
     1
 62
     7
176
     1
 40
1.0
176
     1
 90
        1
176
     1
 90
        6
176
     1
 90
        2
176
     1
 62
     7
176
     1
 90
        3
176
     1
 90
        0
176
     1
 90
        0
176
     1
290
     0
176
     1
 90
       13
176
     1
 40
0.0
176
     1
 90
        0
176
     1
290
     0
176
     1
290
     1
176
     1
290
     1
176
     1
290
     0
176
     1
290
     0
176
     1
290
     0
176
     1
290
     0
176
     1
290
     0
176
     1
290
     0
176
     1
 90
       50
176
     1
 40
0.0
176
     1
 40
1.0
176
     1
 90
        0
176
     1
 62
    18
420
        0
176
     1
 90
       50
176
     1
 90
        3
176
     1
 62
     5
420
      255
176
     1
290
     0
176
     1
 90
       50
176
     1
 90
       50
176
     1
 90
       50
176
     1
290
     0
176
     1
 90
       50
176
     1
 62
   256
176
     0
 40
1.0
176
     0
 90
        2
176
     1
  1
strokes_ogs.tif
176
     1
290
     0
176
     1
 40
1.0
176
     1
 40
1.0
176
     1
  0
DICTIONARYVAR
  5
514
102
{ACAD_REACTORS
330
513
102
}
330
513
100
DictionaryVariables
280
     0
  1
1:1
  0
DICTIONARYVAR
  5
519
102
{ACAD_REACTORS
330
513
102
}
330
513
100
DictionaryVariables
280
     0
  1
Standard
  0
DICTIONARYVAR
  5
518
102
{ACAD_REACTORS
330
513
102
}
330
513
100
DictionaryVariables
280
     0
  1
Standard
  0
DICTIONARYVAR
  5
51A
102
{ACAD_REACTORS
330
513
102
}
330
513
100
DictionaryVariables
280
     0
  1
0
  0
DICTIONARY
  5
515
330
50F
100
AcDbDictionary
280
     1
281
     1
  3
ACAD_ROUNDTRIP_2008_TABLESTYLE_CELLSTYLEMAP
360
516
  0
CELLSTYLEMAP
  5
516
102
{ACAD_REACTORS
330
515
102
}
330
515
100
AcDbCellStyleMap
 90
        3
300
CELLSTYLE
  1
TABLEFORMAT_BEGIN
 90
        5
170
     1
 91
        0
 92
    32768
 62
   257
 93
        1
300
CONTENTFORMAT
  1
CONTENTFORMAT_BEGIN
 90
        0
 91
        0
 92
        4
 93
        0
300

 40
0.0
140
1.0
 94
        5
 62
     0
340
11
144
6.0
309
CONTENTFORMAT_END
171
     1
301
MARGIN
  1
CELLMARGIN_BEGIN
 40
1.5
 40
1.5
 40
1.5
 40
1.5
 40
1.5
 40
1.5
309
CELLMARGIN_END
 94
        6
 95
        1
302
GRIDFORMAT
  1
GRIDFORMAT_BEGIN
 90
        0
 91
        1
 62
     0
 92
       -2
340
14
 93
        0
 40
0.045
309
GRIDFORMAT_END
 95
        2
302
GRIDFORMAT
  1
GRIDFORMAT_BEGIN
 90
        0
 91
        1
 62
     0
 92
       -2
340
14
 93
        0
 40
0.045
309
GRIDFORMAT_END
 95
        4
302
GRIDFORMAT
  1
GRIDFORMAT_BEGIN
 90
        0
 91
        1
 62
     0
 92
       -2
340
14
 93
        0
 40
0.045
309
GRIDFORMAT_END
 95
        8
302
GRIDFORMAT
  1
GRIDFORMAT_BEGIN
 90
        0
 91
        1
 62
     0
 92
       -2
340
14
 93
        0
 40
0.045
309
GRIDFORMAT_END
 95
       16
302
GRIDFORMAT
  1
GRIDFORMAT_BEGIN
 90
        0
 91
        1
 62
     0
 92
       -2
340
14
 93
        0
 40
0.045
309
GRIDFORMAT_END
 95
       32
302
GRIDFORMAT
  1
GRIDFORMAT_BEGIN
 90
        0
 91
        1
 62
     0
 92
       -2
340
14
 93
        0
 40
0.045
309
GRIDFORMAT_END
309
TABLEFORMAT_END
  1
CELLSTYLE_BEGIN
 90
        1
 91
        1
300
_TITLE
309
CELLSTYLE_END
300
CELLSTYLE
  1
TABLEFORMAT_BEGIN
 90
        5
170
     1
 91
        0
 92
        0
 62
   257
 93
        1
300
CONTENTFORMAT
  1
CONTENTFORMAT_BEGIN
 90
        0
 91
        0
 92
        4
 93
        0
300

 40
0.0
140
1.0
 94
        5
 62
     0
340
11
144
4.5
309
CONTENTFORMAT_END
171
     1
301
MARGIN
  1
CELLMARGIN_BEGIN
 40
1.5
 40
1.5
 40
1.5
 40
1.5
 40
1.5
 40
1.5
309
CELLMARGIN_END
 94
        6
 95
        1
302
GRIDFORMAT
  1
GRIDFORMAT_BEGIN
 90
        0
 91
        1
 62
     0
 92
       -2
340
14
 93
        0
 40
0.045
309
GRIDFORMAT_END
 95
        2
302
GRIDFORMAT
  1
GRIDFORMAT_BEGIN
 90
        0
 91
        1
 62
     0
 92
       -2
340
14
 93
        0
 40
0.045
309
GRIDFORMAT_END
 95
        4
302
GRIDFORMAT
  1
GRIDFORMAT_BEGIN
 90
        0
 91
        1
 62
     0
 92
       -2
340
14
 93
        0
 40
0.045
309
GRIDFORMAT_END
 95
        8
302
GRIDFORMAT
  1
GRIDFORMAT_BEGIN
 90
        0
 91
        1
 62
     0
 92
       -2
340
14
 93
        0
 40
0.045
309
GRIDFORMAT_END
 95
       16
302
GRIDFORMAT
  1
GRIDFORMAT_BEGIN
 90
        0
 91
        1
 62
     0
 92
       -2
340
14
 93
        0
 40
0.045
309
GRIDFORMAT_END
 95
       32
302
GRIDFORMAT
  1
GRIDFORMAT_BEGIN
 90
        0
 91
        1
 62
     0
 92
       -2
340
14
 93
        0
 40
0.045
309
GRIDFORMAT_END
309
TABLEFORMAT_END
  1
CELLSTYLE_BEGIN
 90
        2
 91
        1
300
_HEADER
309
CELLSTYLE_END
300
CELLSTYLE
  1
TABLEFORMAT_BEGIN
 90
        5
170
     1
 91
        0
 92
        0
 62
   257
 93
        1
300
CONTENTFORMAT
  1
CONTENTFORMAT_BEGIN
 90
        0
 91
        0
 92
        4
 93
        0
300

 40
0.0
140
1.0
 94
        2
 62
     0
340
11
144
4.5
309
CONTENTFORMAT_END
171
     1
301
MARGIN
  1
CELLMARGIN_BEGIN
 40
1.5
 40
1.5
 40
1.5
 40
1.5
 40
1.5
 40
1.5
309
CELLMARGIN_END
 94
        6
 95
        1
302
GRIDFORMAT
  1
GRIDFORMAT_BEGIN
 90
        0
 91
        1
 62
     0
 92
       -2
340
14
 93
        0
 40
0.045
309
GRIDFORMAT_END
 95
        2
302
GRIDFORMAT
  1
GRIDFORMAT_BEGIN
 90
        0
 91
        1
 62
     0
 92
       -2
340
14
 93
        0
 40
0.045
309
GRIDFORMAT_END
 95
        4
302
GRIDFORMAT
  1
GRIDFORMAT_BEGIN
 90
        0
 91
        1
 62
     0
 92
       -2
340
14
 93
        0
 40
0.045
309
GRIDFORMAT_END
 95
        8
302
GRIDFORMAT
  1
GRIDFORMAT_BEGIN
 90
        0
 91
        1
 62
     0
 92
       -2
340
14
 93
        0
 40
0.045
309
GRIDFORMAT_END
 95
       16
302
GRIDFORMAT
  1
GRIDFORMAT_BEGIN
 90
        0
 91
        1
 62
     0
 92
       -2
340
14
 93
        0
 40
0.045
309
GRIDFORMAT_END
 95
       32
302
GRIDFORMAT
  1
GRIDFORMAT_BEGIN
 90
        0
 91
        1
 62
     0
 92
       -2
340
14
 93
        0
 40
0.045
309
GRIDFORMAT_END
309
TABLEFORMAT_END
  1
CELLSTYLE_BEGIN
 90
        3
 91
        2
300
_DATA
309
CELLSTYLE_END
  0
ENDSEC
  0
EOF
