  0
SECTION
  2
HEADER
  9
$ACADVER
  1
AC1027
  9
$ACADMAINTVER
 70
     8
  9
$DWGCODEPAGE
  3
ANSI_1252
  9
$REQUIREDVERSIONS
160
                 0
  9
$INSBASE
 10
0.0
 20
0.0
 30
0.0
  9
$EXTMIN
 10
0.0
 20
0.0
 30
0.0
  9
$EXTMAX
 10
1585.333333
 20
1121.333333
 30
0.0
  9
$LIMMIN
 10
0.0
 20
0.0
  9
$LIMMAX
 10
1585.333333
 20
1121.333333
  9
$ORTHOMODE
 70
     0
  9
$REGENMODE
 70
     1
  9
$FILLMODE
 70
     1
  9
$QTEXTMODE
 70
     0
  9
$MIRRTEXT
 70
     1
  9
$LTSCALE
 40
87.193333
  9
$ATTMODE
 70
     1
  9
$TEXTSIZE
 40
0.2
  9
$TRACEWID
 40
0.05
  9
$TEXTSTYLE
  7
STANDARD
  9
$CLAYER
  8
0
  9
$CELTYPE
  6
BYLAYER
  9
$CECOLOR
 62
   256
  9
$CELTSCALE
 40
1.0
  9
$DISPSILH
 70
     0
  9
$DIMSCALE
 40
1.0
  9
$DIMASZ
 40
3.333333
  9
$DIMEXO
 40
0.75
  9
$DIMDLI
 40
60.242667
  9
$DIMRND
 40
0.0
  9
$DIMDLE
 40
0.0
  9
$DIMEXE
 40
0.75
  9
$DIMTP
 40
0.01
  9
$DIMTM
 40
0.01
  9
$DIMTXT
 40
4.0
  9
$DIMCEN
 40
14.268
  9
$DIMTSZ
 40
0.0
  9
$DIMTOL
 70
     1
  9
$DIMLIM
 70
     0
  9
$DIMTIH
 70
     1
  9
$DIMTOH
 70
     1
  9
$DIMSE1
 70
     0
  9
$DIMSE2
 70
     0
  9
$DIMTAD
 70
     0
  9
$DIMZIN
 70
     0
  9
$DIMBLK
  1
CLOSED
  9
$DIMASO
 70
     1
  9
$DIMSHO
 70
     1
  9
$DIMPOST
  1

  9
$DIMAPOST
  1

  9
$DIMALT
 70
     0
  9
$DIMALTD
 70
     2
  9
$DIMALTF
 40
25.4
  9
$DIMLFAC
 40
1.0
  9
$DIMTOFL
 70
     0
  9
$DIMTVP
 40
0.0
  9
$DIMTIX
 70
     0
  9
$DIMSOXD
 70
     0
  9
$DIMSAH
 70
     0
  9
$DIMBLK1
  1

  9
$DIMBLK2
  1

  9
$DIMSTYLE
  2
STANDARD
  9
$DIMCLRD
 70
     0
  9
$DIMCLRE
 70
     0
  9
$DIMCLRT
 70
     0
  9
$DIMTFAC
 40
1.0
  9
$DIMGAP
 40
0.625
  9
$DIMJUST
 70
     0
  9
$DIMSD1
 70
     0
  9
$DIMSD2
 70
     0
  9
$DIMTOLJ
 70
     1
  9
$DIMTZIN
 70
     0
  9
$DIMALTZ
 70
     0
  9
$DIMALTTZ
 70
     0
  9
$DIMUPT
 70
     0
  9
$DIMDEC
 70
     4
  9
$DIMTDEC
 70
     4
  9
$DIMALTU
 70
     2
  9
$DIMALTTD
 70
     2
  9
$DIMTXSTY
  7
STANDARD
  9
$DIMAUNIT
 70
     0
  9
$DIMADEC
 70
     0
  9
$DIMALTRND
 40
0.0
  9
$DIMAZIN
 70
     0
  9
$DIMDSEP
 70
    44
  9
$DIMATFIT
 70
     3
  9
$DIMFRAC
 70
     0
  9
$DIMLDRBLK
  1

  9
$DIMLUNIT
 70
     2
  9
$DIMLWD
 70
    -2
  9
$DIMLWE
 70
    -2
  9
$DIMTMOVE
 70
     0
  9
$DIMFXL
 40
1.0
  9
$DIMFXLON
 70
     0
  9
$DIMJOGANG
 40
0.785398
  9
$DIMTFILL
 70
     0
  9
$DIMTFILLCLR
 70
     0
  9
$DIMARCSYM
 70
     0
  9
$DIMLTYPE
  6

  9
$DIMLTEX1
  6

  9
$DIMLTEX2
  6

  9
$DIMTXTDIRECTION
 70
     0
  9
$LUNITS
 70
     2
  9
$LUPREC
 70
     4
  9
$SKETCHINC
 40
0.1
  9
$FILLETRAD
 40
0.5
  9
$AUNITS
 70
     0
  9
$AUPREC
 70
     0
  9
$MENU
  1
.
  9
$ELEVATION
 40
0.0
  9
$PELEVATION
 40
0.0
  9
$THICKNESS
 40
0.0
  9
$LIMCHECK
 70
     0
  9
$CHAMFERA
 40
0.0
  9
$CHAMFERB
 40
0.0
  9
$CHAMFERC
 40
0.0
  9
$CHAMFERD
 40
0.0
  9
$SKPOLY
 70
     0
  9
$TDCREATE
 40
2447893.083333333
  9
$TDUCREATE
 40
0.0
  9
$TDUPDATE
 40
2460209.515076562
  9
$TDUUPDATE
 40
2460209.431743229
  9
$TDINDWG
 40
0.0
  9
$TDUSRTIMER
 40
0.0
  9
$USRTIMER
 70
     1
  9
$ANGBASE
 50
0.0
  9
$ANGDIR
 70
     0
  9
$PDMODE
 70
     3
  9
$PDSIZE
 40
0.3125
  9
$PLINEWID
 40
0.0
  9
$SPLFRAME
 70
     0
  9
$SPLINETYPE
 70
     6
  9
$SPLINESEGS
 70
     8
  9
$HANDSEED
  5
5CB
  9
$SURFTAB1
 70
     6
  9
$SURFTAB2
 70
     6
  9
$SURFTYPE
 70
     6
  9
$SURFU
 70
     6
  9
$SURFV
 70
     6
  9
$UCSBASE
  2

  9
$UCSNAME
  2

  9
$UCSORG
 10
0.0
 20
0.0
 30
0.0
  9
$UCSXDIR
 10
1.0
 20
0.0
 30
0.0
  9
$UCSYDIR
 10
0.0
 20
1.0
 30
0.0
  9
$UCSORTHOREF
  2

  9
$UCSORTHOVIEW
 70
     0
  9
$UCSORGTOP
 10
0.0
 20
0.0
 30
0.0
  9
$UCSORGBOTTOM
 10
0.0
 20
0.0
 30
0.0
  9
$UCSORGLEFT
 10
0.0
 20
0.0
 30
0.0
  9
$UCSORGRIGHT
 10
0.0
 20
0.0
 30
0.0
  9
$UCSORGFRONT
 10
0.0
 20
0.0
 30
0.0
  9
$UCSORGBACK
 10
0.0
 20
0.0
 30
0.0
  9
$PUCSBASE
  2

  9
$PUCSNAME
  2

  9
$PUCSORG
 10
0.0
 20
0.0
 30
0.0
  9
$PUCSXDIR
 10
1.0
 20
0.0
 30
0.0
  9
$PUCSYDIR
 10
0.0
 20
1.0
 30
0.0
  9
$PUCSORTHOREF
  2

  9
$PUCSORTHOVIEW
 70
     0
  9
$PUCSORGTOP
 10
0.0
 20
0.0
 30
0.0
  9
$PUCSORGBOTTOM
 10
0.0
 20
0.0
 30
0.0
  9
$PUCSORGLEFT
 10
0.0
 20
0.0
 30
0.0
  9
$PUCSORGRIGHT
 10
0.0
 20
0.0
 30
0.0
  9
$PUCSORGFRONT
 10
0.0
 20
0.0
 30
0.0
  9
$PUCSORGBACK
 10
0.0
 20
0.0
 30
0.0
  9
$USERI1
 70
     0
  9
$USERI2
 70
     0
  9
$USERI3
 70
     0
  9
$USERI4
 70
     0
  9
$USERI5
 70
     0
  9
$USERR1
 40
0.0
  9
$USERR2
 40
0.0
  9
$USERR3
 40
0.0
  9
$USERR4
 40
0.0
  9
$USERR5
 40
0.0
  9
$WORLDVIEW
 70
     1
  9
$SHADEDGE
 70
     3
  9
$SHADEDIF
 70
    70
  9
$TILEMODE
 70
     1
  9
$MAXACTVP
 70
    64
  9
$PINSBASE
 10
0.0
 20
0.0
 30
0.0
  9
$PLIMCHECK
 70
     0
  9
$PEXTMIN
 10
1.000000E+20
 20
1.000000E+20
 30
1.000000E+20
  9
$PEXTMAX
 10
-1.000000E+20
 20
-1.000000E+20
 30
-1.000000E+20
  9
$PLIMMIN
 10
0.0
 20
0.0
  9
$PLIMMAX
 10
12.0
 20
9.0
  9
$UNITMODE
 70
     0
  9
$VISRETAIN
 70
     1
  9
$PLINEGEN
 70
     0
  9
$PSLTSCALE
 70
     0
  9
$TREEDEPTH
 70
  3020
  9
$CMLSTYLE
  2

  9
$CMLJUST
 70
     0
  9
$CMLSCALE
 40
1.0
  9
$PROXYGRAPHICS
 70
     1
  9
$MEASUREMENT
 70
     1
  9
$CELWEIGHT
370
    -1
  9
$ENDCAPS
280
     0
  9
$JOINSTYLE
280
     0
  9
$LWDISPLAY
290
     0
  9
$INSUNITS
 70
     4
  9
$HYPERLINKBASE
  1

  9
$STYLESHEET
  1

  9
$XEDIT
290
     1
  9
$CEPSNTYPE
380
     0
  9
$PSTYLEMODE
290
     1
  9
$FINGERPRINTGUID
  2
{540891F7-1390-4960-8276-13FF70D17134}
  9
$VERSIONGUID
  2
{FAEB1C32-E019-11D5-929B-00C0DF256EC4}
  9
$EXTNAMES
290
     1
  9
$PSVPSCALE
 40
0.0
  9
$OLESTARTUP
290
     0
  9
$SORTENTS
280
   127
  9
$INDEXCTL
280
     0
  9
$HIDETEXT
280
     1
  9
$XCLIPFRAME
280
     2
  9
$HALOGAP
280
     0
  9
$OBSCOLOR
 70
   257
  9
$OBSLTYPE
280
     0
  9
$INTERSECTIONDISPLAY
280
     0
  9
$INTERSECTIONCOLOR
 70
   257
  9
$DIMASSOC
280
     2
  9
$PROJECTNAME
  1

  9
$CAMERADISPLAY
290
     0
  9
$LENSLENGTH
 40
50.0
  9
$CAMERAHEIGHT
 40
0.0
  9
$STEPSPERSEC
 40
2.0
  9
$STEPSIZE
 40
6.0
  9
$3DDWFPREC
 40
2.0
  9
$PSOLWIDTH
 40
0.25
  9
$PSOLHEIGHT
 40
4.0
  9
$LOFTANG1
 40
1.570796
  9
$LOFTANG2
 40
1.570796
  9
$LOFTMAG1
 40
0.0
  9
$LOFTMAG2
 40
0.0
  9
$LOFTPARAM
 70
     7
  9
$LOFTNORMALS
280
     1
  9
$LATITUDE
 40
37.795
  9
$LONGITUDE
 40
-122.394
  9
$NORTHDIRECTION
 40
0.0
  9
$TIMEZONE
 70
 -8000
  9
$LIGHTGLYPHDISPLAY
280
     1
  9
$TILEMODELIGHTSYNCH
280
     1
  9
$SOLIDHIST
280
     1
  9
$SHOWHIST
280
     1
  9
$DWFFRAME
280
     2
  9
$DGNFRAME
280
     2
  9
$REALWORLDSCALE
290
     1
  9
$INTERFERECOLOR
 62
   256
  9
$CSHADOW
280
     0
  9
$SHADOWPLANELOCATION
 40
0.0
  0
ENDSEC
  0
SECTION
  2
CLASSES
  0
CLASS
  1
ACDBDICTIONARYWDFLT
  2
AcDbDictionaryWithDefault
  3
ObjectDBX Classes
 90
        0
 91
        6
280
     0
281
     0
  0
CLASS
  1
ACDBPLACEHOLDER
  2
AcDbPlaceHolder
  3
ObjectDBX Classes
 90
        0
 91
        1
280
     0
281
     0
  0
CLASS
  1
LAYOUT
  2
AcDbLayout
  3
ObjectDBX Classes
 90
        0
 91
        1
280
     0
281
     0
  0
CLASS
  1
TABLESTYLE
  2
AcDbTableStyle
  3
ObjectDBX Classes
 90
     4095
 91
        5
280
     0
281
     0
  0
CLASS
  1
ACAD_TABLE
  2
AcDbTable
  3
ObjectDBX Classes
 90
     1025
 91
        5
280
     0
281
     1
  0
CLASS
  1
SCALE
  2
AcDbScale
  3
ObjectDBX Classes
 90
     1153
 91
        5
280
     0
281
     0
  0
CLASS
  1
TABLEGEOMETRY
  2
AcDbTableGeometry
  3
ObjectDBX Classes
 90
     1152
 91
        4
280
     0
281
     0
  0
CLASS
  1
VISUALSTYLE
  2
AcDbVisualStyle
  3
ObjectDBX Classes
 90
     4095
 91
        5
280
     0
281
     0
  0
CLASS
  1
MATERIAL
  2
AcDbMaterial
  3
ObjectDBX Classes
 90
     1153
 91
        5
280
     0
281
     0
  0
CLASS
  1
SUN
  2
AcDbSun
  3
SCENEOE
 90
     1153
 91
        5
280
     0
281
     0
  0
CLASS
  1
CSACDOCUMENTOPTIONS
  2
CDocDataContainer
  3
"DERU003_CSAPP"
 90
     4095
 91
        4
280
     0
281
     0
  0
CLASS
  1
TABLECONTENT
  2
AcDbTableContent
  3
ObjectDBX Classes
 90
     1152
 91
        4
280
     0
281
     0
  0
CLASS
  1
DICTIONARYVAR
  2
AcDbDictionaryVar
  3
ObjectDBX Classes
 90
        0
 91
        4
280
     0
281
     0
  0
CLASS
  1
CELLSTYLEMAP
  2
AcDbCellStyleMap
  3
ObjectDBX Classes
 90
     1152
 91
        4
280
     0
281
     0
  0
ENDSEC
  0
SECTION
  2
TABLES
  0
TABLE
  2
VPORT
  5
8
330
0
100
AcDbSymbolTable
 70
     1
  0
VPORT
  5
1F4
330
8
100
AcDbSymbolTableRecord
100
AcDbViewportTableRecord
  2
*ACTIVE
 70
     0
 10
0.0
 20
0.0
 11
1.0
 21
1.0
 12
792.666667
 22
560.666667
 13
0.0
 23
0.0
 14
1.0
 24
1.0
 15
0.0
 25
0.0
 16
0.0
 26
0.0
 36
1.0
 17
0.0
 27
0.0
 37
0.0
 40
1121.333333
 41
1.818286
 42
50.0
 43
0.0
 44
0.0
 50
0.0
 51
0.0
 71
    16
 72
   100
 73
     1
 74
     1
 75
     0
 76
     0
 77
     0
 78
     0
281
     0
 65
     1
110
0.0
120
0.0
130
0.0
111
1.0
121
0.0
131
0.0
112
0.0
122
1.0
132
0.0
 79
     0
146
0.0
 60
     3
 61
     5
292
     1
282
     1
141
0.0
142
0.0
 63
   256
361
5B6
  0
ENDTAB
  0
TABLE
  2
LTYPE
  5
5
330
0
100
AcDbSymbolTable
 70
     6
  0
LTYPE
  5
14
330
5
100
AcDbSymbolTableRecord
100
AcDbLinetypeTableRecord
  2
BYBLOCK
 70
     0
  3

 72
    65
 73
     0
 40
0.0
  0
LTYPE
  5
15
330
5
100
AcDbSymbolTableRecord
100
AcDbLinetypeTableRecord
  2
BYLAYER
 70
     0
  3

 72
    65
 73
     0
 40
0.0
  0
LTYPE
  5
16
330
5
100
AcDbSymbolTableRecord
100
AcDbLinetypeTableRecord
  2
CONTINUOUS
 70
     0
  3
Solid line
 72
    65
 73
     0
 40
0.0
  0
LTYPE
  5
1F5
330
5
100
AcDbSymbolTableRecord
100
AcDbLinetypeTableRecord
  2
CENTER
 70
     0
  3
____ _ ____ _ ____ _ ____ _ ____ _ ____ _ ____
 72
    65
 73
     4
 40
0.6
 49
0.375
 74
     0
 49
-0.075
 74
     0
 49
0.075
 74
     0
 49
-0.075
 74
     0
  0
LTYPE
  5
1F6
330
5
100
AcDbSymbolTableRecord
100
AcDbLinetypeTableRecord
  2
HIDDEN
 70
     0
  3
- - - - - - - - - - - - - - - - - - - -
 72
    65
 73
     2
 40
0.2
 49
0.1
 74
     0
 49
-0.1
 74
     0
  0
LTYPE
  5
1F7
330
5
100
AcDbSymbolTableRecord
100
AcDbLinetypeTableRecord
  2
PHANTOM
 70
     0
  3
_____ _ _ _____ _ _ _____ _ _ _____
 72
    65
 73
     6
 40
0.8
 49
0.45
 74
     0
 49
-0.05
 74
     0
 49
0.1
 74
     0
 49
-0.05
 74
     0
 49
0.1
 74
     0
 49
-0.05
 74
     0
  0
LTYPE
  5
1F8
330
5
100
AcDbSymbolTableRecord
100
AcDbLinetypeTableRecord
  2
DOT
 70
     0
  3
. . . . . . . . . . . . . . . . . . . .
 72
    65
 73
     2
 40
0.2
 49
0.1
 74
     0
 49
-0.1
 74
     0
  0
LTYPE
  5
1F9
330
5
100
AcDbSymbolTableRecord
100
AcDbLinetypeTableRecord
  2
DASHED
 70
     0
  3
- - - - - - - - - - - - - - - - - - - -
 72
    65
 73
     2
 40
0.2
 49
0.1
 74
     0
 49
-0.1
 74
     0
  0
ENDTAB
  0
TABLE
  2
LAYER
  5
2
330
0
100
AcDbSymbolTable
 70
    37
  0
LAYER
  5
10
330
2
100
AcDbSymbolTableRecord
100
AcDbLayerTableRecord
  2
0
 70
     0
 62
     7
  6
CONTINUOUS
370
    -3
390
F
347
5B0
348
0
  0
LAYER
  5
1FA
330
2
100
AcDbSymbolTableRecord
100
AcDbLayerTableRecord
  2
DEFAULT_1
 70
     0
 62
     7
  6
CENTER
370
    -3
390
F
347
5B0
348
0
  0
LAYER
  5
1FB
330
2
100
AcDbSymbolTableRecord
100
AcDbLayerTableRecord
  2
DEFAULT_2
 70
     0
 62
     8
  6
HIDDEN
370
    -3
390
F
347
5B0
348
0
  0
LAYER
  5
1FC
330
2
100
AcDbSymbolTableRecord
100
AcDbLayerTableRecord
  2
DEFAULT_3
 70
     0
 62
     7
  6
PHANTOM
370
    -3
390
F
347
5B0
348
0
  0
LAYER
  5
1FD
330
2
100
AcDbSymbolTableRecord
100
AcDbLayerTableRecord
  2
01_ALL_DTM_PLN
 70
     0
 62
     7
  6
CONTINUOUS
370
    -3
390
F
347
5B0
348
0
  0
LAYER
  5
1FE
330
2
100
AcDbSymbolTableRecord
100
AcDbLayerTableRecord
  2
01__ASM_ALL_DTM_PLN
 70
     0
 62
     7
  6
CONTINUOUS
370
    -3
390
F
347
5B0
348
0
  0
LAYER
  5
1FF
330
2
100
AcDbSymbolTableRecord
100
AcDbLayerTableRecord
  2
01__ASM_DEF_DTM_PLN
 70
     0
 62
     7
  6
CONTINUOUS
370
    -3
390
F
347
5B0
348
0
  0
LAYER
  5
200
330
2
100
AcDbSymbolTableRecord
100
AcDbLayerTableRecord
  2
01___PRT_ALL_DTM_PLN
 70
     0
 62
     7
  6
CONTINUOUS
370
    -3
390
F
347
5B0
348
0
  0
LAYER
  5
201
330
2
100
AcDbSymbolTableRecord
100
AcDbLayerTableRecord
  2
01___PRT_DEF_DTM_PLN
 70
     0
 62
     7
  6
CONTINUOUS
370
    -3
390
F
347
5B0
348
0
  0
LAYER
  5
202
330
2
100
AcDbSymbolTableRecord
100
AcDbLayerTableRecord
  2
02_ALL_AXES
 70
     0
 62
     7
  6
CONTINUOUS
370
    -3
390
F
347
5B0
348
0
  0
LAYER
  5
203
330
2
100
AcDbSymbolTableRecord
100
AcDbLayerTableRecord
  2
02__ASM_ALL_AXES
 70
     0
 62
     7
  6
CONTINUOUS
370
    -3
390
F
347
5B0
348
0
  0
LAYER
  5
204
330
2
100
AcDbSymbolTableRecord
100
AcDbLayerTableRecord
  2
02___PRT_ALL_AXES
 70
     0
 62
     7
  6
CONTINUOUS
370
    -3
390
F
347
5B0
348
0
  0
LAYER
  5
205
330
2
100
AcDbSymbolTableRecord
100
AcDbLayerTableRecord
  2
03_ALL_CURVES
 70
     0
 62
     7
  6
CONTINUOUS
370
    -3
390
F
347
5B0
348
0
  0
LAYER
  5
206
330
2
100
AcDbSymbolTableRecord
100
AcDbLayerTableRecord
  2
03__ASM_ALL_CURVES
 70
     0
 62
     7
  6
CONTINUOUS
370
    -3
390
F
347
5B0
348
0
  0
LAYER
  5
207
330
2
100
AcDbSymbolTableRecord
100
AcDbLayerTableRecord
  2
03___PRT_ALL_CURVES
 70
     0
 62
     7
  6
CONTINUOUS
370
    -3
390
F
347
5B0
348
0
  0
LAYER
  5
208
330
2
100
AcDbSymbolTableRecord
100
AcDbLayerTableRecord
  2
04_ALL_DTM_PNT
 70
     0
 62
     7
  6
CONTINUOUS
370
    -3
390
F
347
5B0
348
0
  0
LAYER
  5
209
330
2
100
AcDbSymbolTableRecord
100
AcDbLayerTableRecord
  2
04__ASM_ALL_DTM_PNT
 70
     0
 62
     7
  6
CONTINUOUS
370
    -3
390
F
347
5B0
348
0
  0
LAYER
  5
20A
330
2
100
AcDbSymbolTableRecord
100
AcDbLayerTableRecord
  2
04___PRT_ALL_DTM_PNT
 70
     0
 62
     7
  6
CONTINUOUS
370
    -3
390
F
347
5B0
348
0
  0
LAYER
  5
20B
330
2
100
AcDbSymbolTableRecord
100
AcDbLayerTableRecord
  2
05_ALL_DTM_CSYS
 70
     0
 62
     7
  6
CONTINUOUS
370
    -3
390
F
347
5B0
348
0
  0
LAYER
  5
20C
330
2
100
AcDbSymbolTableRecord
100
AcDbLayerTableRecord
  2
05__ASM_ALL_DTM_CSYS
 70
     0
 62
     7
  6
CONTINUOUS
370
    -3
390
F
347
5B0
348
0
  0
LAYER
  5
20D
330
2
100
AcDbSymbolTableRecord
100
AcDbLayerTableRecord
  2
05__ASM_DEF_DTM_CSYS
 70
     0
 62
     7
  6
CONTINUOUS
370
    -3
390
F
347
5B0
348
0
  0
LAYER
  5
20E
330
2
100
AcDbSymbolTableRecord
100
AcDbLayerTableRecord
  2
05___PRT_ALL_DTM_CSYS
 70
     0
 62
     7
  6
CONTINUOUS
370
    -3
390
F
347
5B0
348
0
  0
LAYER
  5
20F
330
2
100
AcDbSymbolTableRecord
100
AcDbLayerTableRecord
  2
05___PRT_DEF_DTM_CSYS
 70
     0
 62
     7
  6
CONTINUOUS
370
    -3
390
F
347
5B0
348
0
  0
LAYER
  5
210
330
2
100
AcDbSymbolTableRecord
100
AcDbLayerTableRecord
  2
06_ALL_SURFS
 70
     0
 62
     7
  6
CONTINUOUS
370
    -3
390
F
347
5B0
348
0
  0
LAYER
  5
211
330
2
100
AcDbSymbolTableRecord
100
AcDbLayerTableRecord
  2
06__ASM_ALL_SURFS
 70
     0
 62
     7
  6
CONTINUOUS
370
    -3
390
F
347
5B0
348
0
  0
LAYER
  5
212
330
2
100
AcDbSymbolTableRecord
100
AcDbLayerTableRecord
  2
06___PRT_ALL_SURFS
 70
     0
 62
     7
  6
CONTINUOUS
370
    -3
390
F
347
5B0
348
0
  0
LAYER
  5
213
330
2
100
AcDbSymbolTableRecord
100
AcDbLayerTableRecord
  2
07__ASM_ALL_SKELETONS
 70
     0
 62
     7
  6
CONTINUOUS
370
    -3
390
F
347
5B0
348
0
  0
LAYER
  5
214
330
2
100
AcDbSymbolTableRecord
100
AcDbLayerTableRecord
  2
1_ALL_PLANES
 70
     0
 62
     7
  6
CONTINUOUS
370
    -3
390
F
347
5B0
348
0
  0
LAYER
  5
215
330
2
100
AcDbSymbolTableRecord
100
AcDbLayerTableRecord
  2
2_ALL_CSYS
 70
     0
 62
     7
  6
CONTINUOUS
370
    -3
390
F
347
5B0
348
0
  0
LAYER
  5
216
330
2
100
AcDbSymbolTableRecord
100
AcDbLayerTableRecord
  2
3_ALL_AXES
 70
     0
 62
     7
  6
CONTINUOUS
370
    -3
390
F
347
5B0
348
0
  0
LAYER
  5
217
330
2
100
AcDbSymbolTableRecord
100
AcDbLayerTableRecord
  2
4_ALL_POINTS
 70
     0
 62
     7
  6
CONTINUOUS
370
    -3
390
F
347
5B0
348
0
  0
LAYER
  5
218
330
2
100
AcDbSymbolTableRecord
100
AcDbLayerTableRecord
  2
5_ALL_CURVES
 70
     0
 62
     7
  6
CONTINUOUS
370
    -3
390
F
347
5B0
348
0
  0
LAYER
  5
219
330
2
100
AcDbSymbolTableRecord
100
AcDbLayerTableRecord
  2
6_ALL_SURFS
 70
     0
 62
     7
  6
CONTINUOUS
370
    -3
390
F
347
5B0
348
0
  0
LAYER
  5
21A
330
2
100
AcDbSymbolTableRecord
100
AcDbLayerTableRecord
  2
7_ALL_FEATURES
 70
     0
 62
     7
  6
CONTINUOUS
370
    -3
390
F
347
5B0
348
0
  0
LAYER
  5
21B
330
2
100
AcDbSymbolTableRecord
100
AcDbLayerTableRecord
  2
8_ALL_NOTES_BALLOONS_SYMBOLS_GT
 70
     0
 62
     7
  6
CONTINUOUS
370
    -3
390
F
347
5B0
348
0
  0
LAYER
  5
21C
330
2
100
AcDbSymbolTableRecord
100
AcDbLayerTableRecord
  2
9_SOLID
 70
     0
 62
     7
  6
CONTINUOUS
370
    -3
390
F
347
5B0
348
0
  0
LAYER
  5
21D
330
2
100
AcDbSymbolTableRecord
100
AcDbLayerTableRecord
  2
INTFCLR_2
 70
     0
 62
     7
  6
CONTINUOUS
370
    -3
390
F
347
5B0
348
0
  0
ENDTAB
  0
TABLE
  2
STYLE
  5
3
330
0
100
AcDbSymbolTable
 70
     2
  0
STYLE
  5
11
330
3
100
AcDbSymbolTableRecord
100
AcDbTextStyleTableRecord
  2
STANDARD
 70
     0
 40
0.0
 41
0.85
 50
0.0
 71
     0
 42
0.2
  3
txt
  4

  0
STYLE
  5
21E
330
3
100
AcDbSymbolTableRecord
100
AcDbTextStyleTableRecord
  2
TEXTSTYLE_1
 70
     0
 40
0.0
 41
0.8
 50
0.0
 71
     0
 42
0.2
  3
gdt
  4

  0
ENDTAB
  0
TABLE
  2
VIEW
  5
6
330
0
100
AcDbSymbolTable
 70
     0
  0
ENDTAB
  0
TABLE
  2
UCS
  5
7
330
0
100
AcDbSymbolTable
 70
     0
  0
ENDTAB
  0
TABLE
  2
APPID
  5
9
330
0
100
AcDbSymbolTable
 70
     6
  0
APPID
  5
21F
330
9
100
AcDbSymbolTableRecord
100
AcDbRegAppTableRecord
  2
ACAD
 70
     0
  0
APPID
  5
5B1
330
9
100
AcDbSymbolTableRecord
100
AcDbRegAppTableRecord
  2
MCS_DIM1
 70
     0
  0
APPID
  5
5B2
330
9
100
AcDbSymbolTableRecord
100
AcDbRegAppTableRecord
  2
McsXdata5
 70
     0
  0
APPID
  5
5B5
330
9
100
AcDbSymbolTableRecord
100
AcDbRegAppTableRecord
  2
MCS_DOCUMENT_ID
 70
     0
  0
APPID
  5
5BB
330
9
100
AcDbSymbolTableRecord
100
AcDbRegAppTableRecord
  2
MCS_PARAMS_DATA
 70
     0
  0
APPID
  5
5BD
330
9
100
AcDbSymbolTableRecord
100
AcDbRegAppTableRecord
  2
MC_VERSION_DATA
 70
     0
  0
ENDTAB
  0
TABLE
  2
DIMSTYLE
  5
A
330
0
100
AcDbSymbolTable
 70
     6
100
AcDbDimStyleTable
  0
DIMSTYLE
105
22A
330
A
100
AcDbSymbolTableRecord
100
AcDbDimStyleTableRecord
  2
STANDARD
 70
     0
 41
3.333333
 42
0.75
 44
0.75
 47
0.01
 48
0.01
 71
     1
 73
     0
 74
     0
 77
     1
 78
     8
 79
     2
140
4.0
147
0.625
171
     1
178
     0
179
     2
271
     2
272
     2
278
    44
284
     8
340
11
341
222
342
222
343
222
344
222
  0
DIMSTYLE
105
22B
330
A
100
AcDbSymbolTableRecord
100
AcDbDimStyleTableRecord
  2
DIMSTYLE_1
 70
     0
 41
3.333333
 42
0.75
 44
0.75
 47
1.2
 48
1.2
 73
     0
 74
     0
 77
     1
 78
     8
 79
     2
140
10.666667
147
2.0
171
     1
178
     0
271
     0
272
     0
278
    44
284
     8
340
11
341
222
342
222
343
222
344
222
  0
DIMSTYLE
105
22C
330
A
100
AcDbSymbolTableRecord
100
AcDbDimStyleTableRecord
  2
DIMSTYLE_2
 70
     0
 41
3.333333
 42
0.75
 44
0.75
 47
0.3
 48
0.3
 73
     0
 74
     0
 77
     1
 78
     8
 79
     2
140
10.666667
147
2.0
171
     1
178
     0
271
     0
272
     0
278
    44
284
     8
340
11
341
222
342
222
343
222
344
222
  0
DIMSTYLE
105
22D
330
A
100
AcDbSymbolTableRecord
100
AcDbDimStyleTableRecord
  2
DIMSTYLE_3
 70
     0
 41
3.333333
 42
0.75
 44
0.75
 47
0.3
 48
0.3
 73
     0
 74
     0
 77
     1
 78
     8
 79
     2
140
10.666667
147
2.0
171
     1
178
     0
179
     2
271
     2
272
     2
278
    44
284
     8
340
11
341
222
342
222
343
222
344
222
  0
DIMSTYLE
105
22E
330
A
100
AcDbSymbolTableRecord
100
AcDbDimStyleTableRecord
  2
DIMSTYLE_4
 70
     0
 41
3.333333
 42
0.75
 44
0.75
 47
0.2
 48
0.2
 73
     0
 74
     0
 77
     1
 78
     8
 79
     2
140
10.666667
147
2.0
171
     1
178
     0
271
     0
272
     0
278
    44
284
     8
340
11
341
222
342
222
343
222
344
222
  0
DIMSTYLE
105
22F
330
A
100
AcDbSymbolTableRecord
100
AcDbDimStyleTableRecord
  2
DIMSTYLE_5
 70
     0
 41
3.333333
 42
0.75
 44
0.75
 47
0.2
 48
0.2
 73
     0
 74
     0
 77
     1
 78
     8
 79
     2
140
10.666667
147
2.0
171
     1
178
     0
179
     2
271
     2
272
     2
278
    44
284
     8
340
11
341
222
342
222
343
222
344
222
  0
ENDTAB
  0
TABLE
  2
BLOCK_RECORD
  5
1
330
0
100
AcDbSymbolTable
 70
     8
  0
BLOCK_RECORD
  5
220
330
1
100
AcDbSymbolTableRecord
100
AcDbBlockTableRecord
  2
*Model_Space
340
56B
 70
     0
280
     1
281
     0
  0
BLOCK_RECORD
  5
221
330
1
100
AcDbSymbolTableRecord
100
AcDbBlockTableRecord
  2
*Paper_Space
340
56C
 70
     0
280
     1
281
     0
  0
BLOCK_RECORD
  5
222
330
1
100
AcDbSymbolTableRecord
100
AcDbBlockTableRecord
  2
_CLOSED
340
0
102
{BLKREFS
331
278
331
279
331
281
331
282
331
28A
331
28B
331
293
331
294
331
29C
331
29D
102
}
 70
     0
280
     1
281
     0
  0
BLOCK_RECORD
  5
223
330
1
100
AcDbSymbolTableRecord
100
AcDbBlockTableRecord
  2
*D1
340
0
 70
     0
280
     1
281
     0
  0
BLOCK_RECORD
  5
224
330
1
100
AcDbSymbolTableRecord
100
AcDbBlockTableRecord
  2
*D2
340
0
 70
     0
280
     1
281
     0
  0
BLOCK_RECORD
  5
225
330
1
100
AcDbSymbolTableRecord
100
AcDbBlockTableRecord
  2
*D3
340
0
 70
     0
280
     1
281
     0
  0
BLOCK_RECORD
  5
226
330
1
100
AcDbSymbolTableRecord
100
AcDbBlockTableRecord
  2
*D4
340
0
 70
     0
280
     1
281
     0
  0
BLOCK_RECORD
  5
227
330
1
100
AcDbSymbolTableRecord
100
AcDbBlockTableRecord
  2
*D5
340
0
 70
     0
280
     1
281
     0
  0
BLOCK_RECORD
  5
228
330
1
100
AcDbSymbolTableRecord
100
AcDbBlockTableRecord
  2
LOGO2_BL0
340
0
102
{BLKREFS
331
568
102
}
 70
     0
280
     1
281
     0
  0
BLOCK_RECORD
  5
229
330
1
100
AcDbSymbolTableRecord
100
AcDbBlockTableRecord
  2
*T7
340
0
102
{BLKREFS
331
569
102
}
 70
     0
280
     1
281
     0
  0
ENDTAB
  0
ENDSEC
  0
SECTION
  2
BLOCKS
  0
BLOCK
  5
20
330
220
100
AcDbEntity
  8
0
100
AcDbBlockBegin
  2
*Model_Space
 70
     0
 10
0.0
 20
0.0
 30
0.0
  3
*Model_Space
  1
*Model_Space
  0
ENDBLK
  5
21
330
220
100
AcDbEntity
  8
0
100
AcDbBlockEnd
  0
BLOCK
  5
1C
330
221
100
AcDbEntity
 67
     1
  8
0
100
AcDbBlockBegin
  2
*Paper_Space
 70
     0
 10
0.0
 20
0.0
 30
0.0
  3
*Paper_Space
  1
*Paper_Space
  0
ENDBLK
  5
1D
330
221
100
AcDbEntity
 67
     1
  8
0
100
AcDbBlockEnd
  0
BLOCK
  5
26C
330
222
100
AcDbEntity
  8
0
100
AcDbBlockBegin
  2
_CLOSED
 70
     0
 10
0.0
 20
0.0
 30
0.0
  3
_CLOSED
  1
_CLOSED
  0
LINE
  5
26D
330
222
100
AcDbEntity
  8
0
  6
ByBlock
 62
     0
100
AcDbLine
 10
0.0
 20
0.0
 30
0.0
 11
-1.0
 21
0.2
 31
0.0
  0
LINE
  5
26E
330
222
100
AcDbEntity
  8
0
  6
ByBlock
 62
     0
100
AcDbLine
 10
-1.0
 20
0.2
 30
0.0
 11
-1.0
 21
-0.2
 31
0.0
  0
LINE
  5
26F
330
222
100
AcDbEntity
  8
0
  6
ByBlock
 62
     0
100
AcDbLine
 10
-1.0
 20
-0.2
 30
0.0
 11
0.0
 21
0.0
 31
0.0
  0
LINE
  5
270
330
222
100
AcDbEntity
  8
0
  6
ByBlock
 62
     0
100
AcDbLine
 10
-1.0
 20
0.0
 30
0.0
 11
0.0
 21
0.0
 31
0.0
  0
ENDBLK
  5
271
330
222
100
AcDbEntity
  8
0
  6
ByBlock
 62
     0
100
AcDbBlockEnd
  0
BLOCK
  5
272
330
223
100
AcDbEntity
  8
0
100
AcDbBlockBegin
  2
*D1
 70
     1
 10
0.0
 20
0.0
 30
0.0
  3
*D1
  1
*D1
  0
MTEXT
  5
273
330
223
100
AcDbEntity
  8
0
  6
Continuous
 62
     2
100
AcDbMText
 10
604.001799
 20
650.090012
 30
0.0
 40
10.666667
 41
45.714286
 46
0.0
 71
     2
 72
     1
  1
1063
 73
     1
 44
0.9
  0
LINE
  5
274
330
223
100
AcDbEntity
  8
0
  6
Continuous
 62
     2
100
AcDbLine
 10
1135.351799
 20
656.8932
 30
0.0
 11
1135.351799
 21
635.756678
 31
0.0
  0
LINE
  5
275
330
223
100
AcDbEntity
  8
0
  6
Continuous
 62
     2
100
AcDbLine
 10
72.651799
 20
656.8932
 30
0.0
 11
72.651799
 21
635.756678
 31
0.0
  0
LINE
  5
276
330
223
100
AcDbEntity
  8
0
  6
Continuous
 62
     2
100
AcDbLine
 10
1135.351799
 20
636.756678
 30
0.0
 11
604.001799
 21
636.756678
 31
0.0
  0
LINE
  5
277
330
223
100
AcDbEntity
  8
0
  6
Continuous
 62
     2
100
AcDbLine
 10
72.651799
 20
636.756678
 30
0.0
 11
604.001799
 21
636.756678
 31
0.0
  0
INSERT
  5
278
330
223
100
AcDbEntity
  8
0
  6
Continuous
 62
     2
100
AcDbBlockReference
  2
_CLOSED
 10
1135.351799
 20
636.756678
 30
0.0
 41
3.333333
 42
3.333333
 43
3.333333
  0
INSERT
  5
279
330
223
100
AcDbEntity
  8
0
  6
Continuous
 62
     2
100
AcDbBlockReference
  2
_CLOSED
 10
72.651799
 20
636.756678
 30
0.0
 41
3.333333
 42
3.333333
 43
3.333333
 50
180.0
  0
ENDBLK
  5
27A
330
223
100
AcDbEntity
  8
0
  6
ByBlock
 62
     0
100
AcDbBlockEnd
  0
BLOCK
  5
27B
330
224
100
AcDbEntity
  8
0
100
AcDbBlockBegin
  2
*D2
 70
     1
 10
0.0
 20
0.0
 30
0.0
  3
*D2
  1
*D2
  0
MTEXT
  5
27C
330
224
100
AcDbEntity
  8
0
  6
Continuous
 62
     2
100
AcDbMText
 10
1166.464289
 20
685.048345
 30
0.0
 40
10.666667
 41
24.0
 46
0.0
 71
     2
 72
     1
  1
43
 11
0.0
 21
1.0
 31
0.0
 73
     1
 44
0.9
  0
LINE
  5
27D
330
224
100
AcDbEntity
  8
0
  6
Continuous
 62
     2
100
AcDbLine
 10
1154.778683
 20
706.673345
 30
0.0
 11
1180.797622
 21
706.673345
 31
0.0
  0
LINE
  5
27E
330
224
100
AcDbEntity
  8
0
  6
Continuous
 62
     2
100
AcDbLine
 10
1155.09569
 20
663.423345
 30
0.0
 11
1180.797622
 21
663.423345
 31
0.0
  0
LINE
  5
27F
330
224
100
AcDbEntity
  8
0
  6
Continuous
 62
     2
100
AcDbLine
 10
1179.797622
 20
706.673345
 30
0.0
 11
1179.797622
 21
685.048345
 31
0.0
  0
LINE
  5
280
330
224
100
AcDbEntity
  8
0
  6
Continuous
 62
     2
100
AcDbLine
 10
1179.797622
 20
663.423345
 30
0.0
 11
1179.797622
 21
685.048345
 31
0.0
  0
INSERT
  5
281
330
224
100
AcDbEntity
  8
0
  6
Continuous
 62
     2
100
AcDbBlockReference
  2
_CLOSED
 10
1179.797622
 20
706.673345
 30
0.0
 41
3.333333
 42
3.333333
 43
3.333333
 50
90.0
  0
INSERT
  5
282
330
224
100
AcDbEntity
  8
0
  6
Continuous
 62
     2
100
AcDbBlockReference
  2
_CLOSED
 10
1179.797622
 20
663.423345
 30
0.0
 41
3.333333
 42
3.333333
 43
3.333333
 50
270.0
  0
ENDBLK
  5
283
330
224
100
AcDbEntity
  8
0
  6
ByBlock
 62
     0
100
AcDbBlockEnd
  0
BLOCK
  5
284
330
225
100
AcDbEntity
  8
0
100
AcDbBlockBegin
  2
*D3
 70
     1
 10
0.0
 20
0.0
 30
0.0
  3
*D3
  1
*D3
  0
MTEXT
  5
285
330
225
100
AcDbEntity
  8
0
  6
Continuous
 62
     2
100
AcDbMText
 10
1168.985214
 20
969.292901
 30
0.0
 40
10.666667
 41
25.142857
 46
0.0
 71
     2
 72
     1
  1
40
 11
0.0
 21
1.0
 31
0.0
 73
     1
 44
0.9
  0
LINE
  5
286
330
225
100
AcDbEntity
  8
0
  6
Continuous
 62
     2
100
AcDbLine
 10
1155.044044
 20
989.292901
 30
0.0
 11
1183.318547
 21
989.292901
 31
0.0
  0
LINE
  5
287
330
225
100
AcDbEntity
  8
0
  6
Continuous
 62
     2
100
AcDbLine
 10
1154.626411
 20
949.292901
 30
0.0
 11
1183.318547
 21
949.292901
 31
0.0
  0
LINE
  5
288
330
225
100
AcDbEntity
  8
0
  6
Continuous
 62
     2
100
AcDbLine
 10
1182.318547
 20
989.292901
 30
0.0
 11
1182.318547
 21
969.292901
 31
0.0
  0
LINE
  5
289
330
225
100
AcDbEntity
  8
0
  6
Continuous
 62
     2
100
AcDbLine
 10
1182.318547
 20
949.292901
 30
0.0
 11
1182.318547
 21
969.292901
 31
0.0
  0
INSERT
  5
28A
330
225
100
AcDbEntity
  8
0
  6
Continuous
 62
     2
100
AcDbBlockReference
  2
_CLOSED
 10
1182.318547
 20
989.292901
 30
0.0
 41
3.333333
 42
3.333333
 43
3.333333
 50
90.0
  0
INSERT
  5
28B
330
225
100
AcDbEntity
  8
0
  6
Continuous
 62
     2
100
AcDbBlockReference
  2
_CLOSED
 10
1182.318547
 20
949.292901
 30
0.0
 41
3.333333
 42
3.333333
 43
3.333333
 50
270.0
  0
ENDBLK
  5
28C
330
225
100
AcDbEntity
  8
0
  6
ByBlock
 62
     0
100
AcDbBlockEnd
  0
BLOCK
  5
28D
330
226
100
AcDbEntity
  8
0
100
AcDbBlockBegin
  2
*D4
 70
     1
 10
0.0
 20
0.0
 30
0.0
  3
*D4
  1
*D4
  0
MTEXT
  5
28E
330
226
100
AcDbEntity
  8
0
  6
Continuous
 62
     2
100
AcDbMText
 10
1350.925716
 20
1027.736775
 30
0.0
 40
10.666667
 41
25.142857
 46
0.0
 71
     2
 72
     1
  1
27
 73
     1
 44
0.9
  0
LINE
  5
28F
330
226
100
AcDbEntity
  8
0
  6
Continuous
 62
     2
100
AcDbLine
 10
1337.675716
 20
1001.326602
 30
0.0
 11
1337.675716
 21
1015.403442
 31
0.0
  0
LINE
  5
290
330
226
100
AcDbEntity
  8
0
  6
Continuous
 62
     2
100
AcDbLine
 10
1364.175716
 20
1000.795881
 30
0.0
 11
1364.175716
 21
1015.403442
 31
0.0
  0
LINE
  5
291
330
226
100
AcDbEntity
  8
0
  6
Continuous
 62
     2
100
AcDbLine
 10
1337.675716
 20
1014.403442
 30
0.0
 11
1350.925716
 21
1014.403442
 31
0.0
  0
LINE
  5
292
330
226
100
AcDbEntity
  8
0
  6
Continuous
 62
     2
100
AcDbLine
 10
1364.175716
 20
1014.403442
 30
0.0
 11
1350.925716
 21
1014.403442
 31
0.0
  0
INSERT
  5
293
330
226
100
AcDbEntity
  8
0
  6
Continuous
 62
     2
100
AcDbBlockReference
  2
_CLOSED
 10
1337.675716
 20
1014.403442
 30
0.0
 41
3.333333
 42
3.333333
 43
3.333333
 50
180.0
  0
INSERT
  5
294
330
226
100
AcDbEntity
  8
0
  6
Continuous
 62
     2
100
AcDbBlockReference
  2
_CLOSED
 10
1364.175716
 20
1014.403442
 30
0.0
 41
3.333333
 42
3.333333
 43
3.333333
  0
ENDBLK
  5
295
330
226
100
AcDbEntity
  8
0
  6
ByBlock
 62
     0
100
AcDbBlockEnd
  0
BLOCK
  5
296
330
227
100
AcDbEntity
  8
0
100
AcDbBlockBegin
  2
*D5
 70
     1
 10
0.0
 20
0.0
 30
0.0
  3
*D5
  1
*D5
  0
MTEXT
  5
297
330
227
100
AcDbEntity
  8
0
  6
Continuous
 62
     2
100
AcDbMText
 10
1380.21301
 20
977.542901
 30
0.0
 40
10.666667
 41
25.142857
 46
0.0
 71
     2
 72
     1
  1
26
 11
0.0
 21
1.0
 31
0.0
 73
     1
 44
0.9
  0
LINE
  5
298
330
227
100
AcDbEntity
  8
0
  6
Continuous
 62
     2
100
AcDbLine
 10
1376.55158
 20
964.542901
 30
0.0
 11
1394.546344
 21
964.542901
 31
0.0
  0
LINE
  5
299
330
227
100
AcDbEntity
  8
0
  6
Continuous
 62
     2
100
AcDbLine
 10
1377.082301
 20
990.542901
 30
0.0
 11
1394.546344
 21
990.542901
 31
0.0
  0
LINE
  5
29A
330
227
100
AcDbEntity
  8
0
  6
Continuous
 62
     2
100
AcDbLine
 10
1393.546344
 20
964.542901
 30
0.0
 11
1393.546344
 21
977.542901
 31
0.0
  0
LINE
  5
29B
330
227
100
AcDbEntity
  8
0
  6
Continuous
 62
     2
100
AcDbLine
 10
1393.546344
 20
990.542901
 30
0.0
 11
1393.546344
 21
977.542901
 31
0.0
  0
INSERT
  5
29C
330
227
100
AcDbEntity
  8
0
  6
Continuous
 62
     2
100
AcDbBlockReference
  2
_CLOSED
 10
1393.546344
 20
964.542901
 30
0.0
 41
3.333333
 42
3.333333
 43
3.333333
 50
270.0
  0
INSERT
  5
29D
330
227
100
AcDbEntity
  8
0
  6
Continuous
 62
     2
100
AcDbBlockReference
  2
_CLOSED
 10
1393.546344
 20
990.542901
 30
0.0
 41
3.333333
 42
3.333333
 43
3.333333
 50
90.0
  0
ENDBLK
  5
29E
330
227
100
AcDbEntity
  8
0
  6
ByBlock
 62
     0
100
AcDbBlockEnd
  0
BLOCK
  5
230
330
228
100
AcDbEntity
  8
0
100
AcDbBlockBegin
  2
LOGO2_BL0
 70
     0
 10
1470.408888
 20
48.692739
 30
0.0
  3
LOGO2_BL0
  1
LOGO2_BL0
  0
LINE
  5
231
330
228
100
AcDbEntity
  8
0
  6
Continuous
 62
     7
100
AcDbLine
 10
1459.399455
 20
52.953394
 30
0.0
 11
1457.660334
 21
52.953394
 31
0.0
  0
LINE
  5
232
330
228
100
AcDbEntity
  8
0
  6
Continuous
 62
     7
100
AcDbLine
 10
1457.660334
 20
52.953394
 30
0.0
 11
1457.660334
 21
39.007973
 31
0.0
  0
LINE
  5
233
330
228
100
AcDbEntity
  8
0
  6
Continuous
 62
     7
100
AcDbLine
 10
1457.660334
 20
39.007973
 30
0.0
 11
1463.635074
 21
39.007973
 31
0.0
  0
LINE
  5
234
330
228
100
AcDbEntity
  8
0
  6
Continuous
 62
     7
100
AcDbLine
 10
1463.635074
 20
39.007973
 30
0.0
 11
1463.635074
 21
40.598445
 31
0.0
  0
LINE
  5
235
330
228
100
AcDbEntity
  8
0
  6
Continuous
 62
     7
100
AcDbLine
 10
1463.635074
 20
40.598445
 30
0.0
 11
1459.399455
 21
40.598445
 31
0.0
  0
LINE
  5
236
330
228
100
AcDbEntity
  8
0
  6
Continuous
 62
     7
100
AcDbLine
 10
1459.399455
 20
40.598445
 30
0.0
 11
1459.399455
 21
52.953394
 31
0.0
  0
LINE
  5
237
330
228
100
AcDbEntity
  8
0
  6
Continuous
 62
     7
100
AcDbLine
 10
1479.314557
 20
52.953394
 30
0.0
 11
1477.576133
 21
52.953394
 31
0.0
  0
LINE
  5
238
330
228
100
AcDbEntity
  8
0
  6
Continuous
 62
     7
100
AcDbLine
 10
1477.576133
 20
52.953394
 30
0.0
 11
1477.576133
 21
39.007973
 31
0.0
  0
LINE
  5
239
330
228
100
AcDbEntity
  8
0
  6
Continuous
 62
     7
100
AcDbLine
 10
1477.576133
 20
39.007973
 30
0.0
 11
1483.551048
 21
39.007973
 31
0.0
  0
LINE
  5
23A
330
228
100
AcDbEntity
  8
0
  6
Continuous
 62
     7
100
AcDbLine
 10
1483.551048
 20
39.007973
 30
0.0
 11
1483.551048
 21
40.598445
 31
0.0
  0
LINE
  5
23B
330
228
100
AcDbEntity
  8
0
  6
Continuous
 62
     7
100
AcDbLine
 10
1483.551048
 20
40.598445
 30
0.0
 11
1479.314557
 21
40.598445
 31
0.0
  0
LINE
  5
23C
330
228
100
AcDbEntity
  8
0
  6
Continuous
 62
     7
100
AcDbLine
 10
1479.314557
 20
40.598445
 30
0.0
 11
1479.314557
 21
52.953394
 31
0.0
  0
LWPOLYLINE
  5
23D
330
228
100
AcDbEntity
  8
0
  6
Continuous
 62
     7
100
AcDbPolyline
 90
        2
 70
     0
 43
0.266667
 10
1455.466194
 20
34.549905
 10
1455.466194
 20
32.07382
  0
LWPOLYLINE
  5
23E
330
228
100
AcDbEntity
  8
0
  6
Continuous
 62
     7
100
AcDbPolyline
 90
        2
 70
     0
 43
0.266667
 10
1455.466194
 20
32.07382
 10
1456.527148
 20
32.07382
  0
LWPOLYLINE
  5
23F
330
228
100
AcDbEntity
  8
0
  6
Continuous
 62
     7
100
AcDbPolyline
 90
        2
 70
     0
 43
0.266667
 10
1456.527148
 20
32.07382
 10
1456.527148
 20
32.356462
  0
LWPOLYLINE
  5
240
330
228
100
AcDbEntity
  8
0
  6
Continuous
 62
     7
100
AcDbPolyline
 90
        2
 70
     0
 43
0.266667
 10
1456.527148
 20
32.356462
 10
1455.775006
 20
32.356462
  0
LWPOLYLINE
  5
241
330
228
100
AcDbEntity
  8
0
  6
Continuous
 62
     7
100
AcDbPolyline
 90
        2
 70
     0
 43
0.266667
 10
1455.775006
 20
32.356462
 10
1455.775006
 20
34.549905
  0
LWPOLYLINE
  5
242
330
228
100
AcDbEntity
  8
0
  6
Continuous
 62
     7
100
AcDbPolyline
 90
        2
 70
     0
 43
0.266667
 10
1455.775006
 20
34.549905
 10
1455.466194
 20
34.549905
  0
SPLINE
  5
243
330
228
100
AcDbEntity
  8
0
  6
Continuous
 62
     7
100
AcDbSpline
 70
     3
 71
     3
 72
    35
 73
    31
 74
     0
 42
0.000000001
 43
0.0000001
 40
0.0
 40
0.0
 40
0.0
 40
0.0
 40
1.0
 40
1.0
 40
1.0
 40
2.0
 40
2.0
 40
2.0
 40
3.0
 40
3.0
 40
3.0
 40
4.0
 40
4.0
 40
4.0
 40
5.0
 40
5.0
 40
5.0
 40
6.0
 40
6.0
 40
6.0
 40
7.0
 40
7.0
 40
7.0
 40
8.0
 40
8.0
 40
8.0
 40
9.0
 40
9.0
 40
9.0
 40
10.0
 40
10.0
 40
10.0
 40
10.0
 10
1458.3915393434
 20
33.6105557611
 30
0.0
 10
1458.3915393434
 20
33.6105557611
 30
0.0
 10
1458.3915393434
 20
32.7277353889
 30
0.0
 10
1458.3915393434
 20
32.7277353889
 30
0.0
 10
1458.3915393434
 20
32.3076105952
 30
0.0
 10
1458.5886909285
 20
32.0214790912
 30
0.0
 10
1459.0421395742
 20
32.0214790912
 30
0.0
 10
1459.4948903382
 20
32.0214790912
 30
0.0
 10
1459.6923908642
 20
32.3076105952
 30
0.0
 10
1459.6923908642
 20
32.7277353889
 30
0.0
 10
1459.6923908642
 20
32.7277353889
 30
0.0
 10
1459.6923908642
 20
33.6105557611
 30
0.0
 10
1459.6923908642
 20
33.6105557611
 30
0.0
 10
1459.6923908642
 20
33.6105557611
 30
0.0
 10
1459.3963145456
 20
33.6105557611
 30
0.0
 10
1459.3963145456
 20
33.6105557611
 30
0.0
 10
1459.3963145456
 20
33.6105557611
 30
0.0
 10
1459.3963145456
 20
32.7612337114
 30
0.0
 10
1459.3963145456
 20
32.7612337114
 30
0.0
 10
1459.3963145456
 20
32.5134857018
 30
0.0
 10
1459.3340286024
 20
32.2964444877
 30
0.0
 10
1459.0421395742
 20
32.2964444877
 30
0.0
 10
1458.7495526643
 20
32.2964444877
 30
0.0
 10
1458.687266721
 20
32.5134857018
 30
0.0
 10
1458.687266721
 20
32.7612337114
 30
0.0
 10
1458.687266721
 20
32.7612337114
 30
0.0
 10
1458.687266721
 20
33.6105557611
 30
0.0
 10
1458.687266721
 20
33.6105557611
 30
0.0
 10
1458.687266721
 20
33.6105557611
 30
0.0
 10
1458.3915393434
 20
33.6105557611
 30
0.0
 10
1458.3915393434
 20
33.6105557611
 30
0.0
  0
SPLINE
  5
244
330
228
100
AcDbEntity
  8
0
  6
Continuous
 62
     7
100
AcDbSpline
 70
     3
 71
     3
 72
    35
 73
    31
 74
     0
 42
0.000000001
 43
0.0000001
 40
0.0
 40
0.0
 40
0.0
 40
0.0
 40
1.0
 40
1.0
 40
1.0
 40
2.0
 40
2.0
 40
2.0
 40
3.0
 40
3.0
 40
3.0
 40
4.0
 40
4.0
 40
4.0
 40
5.0
 40
5.0
 40
5.0
 40
6.0
 40
6.0
 40
6.0
 40
7.0
 40
7.0
 40
7.0
 40
8.0
 40
8.0
 40
8.0
 40
9.0
 40
9.0
 40
9.0
 40
10.0
 40
10.0
 40
10.0
 40
10.0
 10
1462.9232342737
 20
33.5554231055
 30
0.0
 10
1462.8052922635
 20
33.6238155138
 30
0.0
 10
1462.6540264014
 20
33.6573138362
 30
0.0
 10
1462.5158458214
 20
33.6573138362
 30
0.0
 10
1462.0426820171
 20
33.6573138362
 30
0.0
 10
1461.6754217635
 20
33.3055814507
 30
0.0
 10
1461.6754217635
 20
32.8289282379
 30
0.0
 10
1461.6754217635
 20
32.3690241863
 30
0.0
 10
1462.046694837
 20
32.0221769729
 30
0.0
 10
1462.499445601
 20
32.0221769729
 30
0.0
 10
1462.6540264014
 20
32.0221769729
 30
0.0
 10
1462.7883686319
 20
32.051488005
 30
0.0
 10
1462.9232342737
 20
32.1233698219
 30
0.0
 10
1462.9232342737
 20
32.1233698219
 30
0.0
 10
1462.9232342737
 20
32.5002259491
 30
0.0
 10
1462.9232342737
 20
32.5002259491
 30
0.0
 10
1462.8113987286
 20
32.3760030035
 30
0.0
 10
1462.673392619
 20
32.2971423694
 30
0.0
 10
1462.5025860687
 20
32.2971423694
 30
0.0
 10
1462.190981882
 20
32.2971423694
 30
0.0
 10
1461.9706257298
 20
32.5267454544
 30
0.0
 10
1461.9706257298
 20
32.8421879906
 30
0.0
 10
1461.9706257298
 20
33.124830086
 30
0.0
 10
1462.1942968202
 20
33.3809526762
 30
0.0
 10
1462.4833943215
 20
33.3809526762
 30
0.0
 10
1462.6604818072
 20
33.3809526762
 30
0.0
 10
1462.8052922635
 20
33.3090708593
 30
0.0
 10
1462.9232342737
 20
33.1743796879
 30
0.0
 10
1462.9232342737
 20
33.1743796879
 30
0.0
 10
1462.9232342737
 20
33.5554231055
 30
0.0
 10
1462.9232342737
 20
33.5554231055
 30
0.0
  0
SPLINE
  5
245
330
228
100
AcDbEntity
  8
0
  6
Continuous
 62
     7
100
AcDbSpline
 70
     3
 71
     3
 72
    32
 73
    28
 74
     0
 42
0.000000001
 43
0.0000001
 40
0.0
 40
0.0
 40
0.0
 40
0.0
 40
1.0
 40
1.0
 40
1.0
 40
2.0
 40
2.0
 40
2.0
 40
3.0
 40
3.0
 40
3.0
 40
4.0
 40
4.0
 40
4.0
 40
5.0
 40
5.0
 40
5.0
 40
6.0
 40
6.0
 40
6.0
 40
7.0
 40
7.0
 40
7.0
 40
8.0
 40
8.0
 40
8.0
 40
9.0
 40
9.0
 40
9.0
 40
9.0
 10
1466.2990626101
 20
32.7933362703
 30
0.0
 10
1466.2990626101
 20
32.7933362703
 30
0.0
 10
1466.2990626101
 20
32.838698582
 30
0.0
 10
1466.2990626101
 20
32.838698582
 30
0.0
 10
1466.2990626101
 20
33.295113225
 30
0.0
 10
1466.068587173
 20
33.6573138362
 30
0.0
 10
1465.5797210301
 20
33.6573138362
 30
0.0
 10
1465.0842250109
 20
33.6573138362
 30
0.0
 10
1464.8312428885
 20
33.3020920422
 30
0.0
 10
1464.8312428885
 20
32.8289282379
 30
0.0
 10
1464.8312428885
 20
32.3760030035
 30
0.0
 10
1465.1166765108
 20
32.0214790912
 30
0.0
 10
1465.586176436
 20
32.0214790912
 30
0.0
 10
1465.8848698109
 20
32.0214790912
 30
0.0
 10
1466.1544266242
 20
32.1757109507
 30
0.0
 10
1466.2990626101
 20
32.4416038849
 30
0.0
 10
1466.2990626101
 20
32.4416038849
 30
0.0
 10
1466.0488720145
 20
32.5839717552
 30
0.0
 10
1466.0488720145
 20
32.5839717552
 30
0.0
 10
1465.9375598806
 20
32.3990331002
 30
0.0
 10
1465.8159539914
 20
32.2845804985
 30
0.0
 10
1465.589840315
 20
32.2845804985
 30
0.0
 10
1465.3071982196
 20
32.2845804985
 30
0.0
 10
1465.1299362634
 20
32.5309327447
 30
0.0
 10
1465.1267957957
 20
32.7933362703
 30
0.0
 10
1465.1267957957
 20
32.7933362703
 30
0.0
 10
1466.2990626101
 20
32.7933362703
 30
0.0
 10
1466.2990626101
 20
32.7933362703
 30
0.0
  0
SPLINE
  5
246
330
228
100
AcDbEntity
  8
0
  6
Continuous
 62
     7
100
AcDbSpline
 70
     3
 71
     3
 72
    14
 73
    10
 74
     0
 42
0.000000001
 43
0.0000001
 40
0.0
 40
0.0
 40
0.0
 40
0.0
 40
1.0
 40
1.0
 40
1.0
 40
2.0
 40
2.0
 40
2.0
 40
3.0
 40
3.0
 40
3.0
 40
3.0
 10
1465.1428470752
 20
33.0166584198
 30
0.0
 10
1465.1796603358
 20
33.2364911607
 30
0.0
 10
1465.3501179452
 20
33.4004933643
 30
0.0
 10
1465.5797210301
 20
33.4004933643
 30
0.0
 10
1465.8159539914
 20
33.4004933643
 30
0.0
 10
1465.9672198536
 20
33.2462615048
 30
0.0
 10
1466.0035097029
 20
33.0166584198
 30
0.0
 10
1466.0035097029
 20
33.0166584198
 30
0.0
 10
1465.1428470752
 20
33.0166584198
 30
0.0
 10
1465.1428470752
 20
33.0166584198
 30
0.0
  0
SPLINE
  5
247
330
228
100
AcDbEntity
  8
0
  6
Continuous
 62
     7
100
AcDbSpline
 70
     3
 71
     3
 72
    20
 73
    16
 74
     0
 42
0.000000001
 43
0.0000001
 40
0.0
 40
0.0
 40
0.0
 40
0.0
 40
1.0
 40
1.0
 40
1.0
 40
2.0
 40
2.0
 40
2.0
 40
3.0
 40
3.0
 40
3.0
 40
4.0
 40
4.0
 40
4.0
 40
5.0
 40
5.0
 40
5.0
 40
5.0
 10
1468.9977712103
 20
33.2958111067
 30
0.0
 10
1468.9977712103
 20
33.2958111067
 30
0.0
 10
1469.5459572992
 20
32.6258446582
 30
0.0
 10
1469.5459572992
 20
32.6258446582
 30
0.0
 10
1469.3912020284
 20
32.4716127987
 30
0.0
 10
1469.2074846663
 20
32.2978402512
 30
0.0
 10
1468.9782305223
 20
32.2978402512
 30
0.0
 10
1468.7416486201
 20
32.2978402512
 30
0.0
 10
1468.5183264706
 20
32.5169751104
 30
0.0
 10
1468.5183264706
 20
32.7528591308
 30
0.0
 10
1468.5183264706
 20
32.9901389146
 30
0.0
 10
1468.7980025688
 20
33.1583284084
 30
0.0
 10
1468.9681112374
 20
33.2755725369
 30
0.0
 10
1468.9681112374
 20
33.2755725369
 30
0.0
 10
1468.9977712103
 20
33.2958111067
 30
0.0
 10
1468.9977712103
 20
33.2958111067
 30
0.0
  0
SPLINE
  5
248
330
228
100
AcDbEntity
  8
0
  6
Continuous
 62
     7
100
AcDbSpline
 70
     3
 71
     3
 72
    23
 73
    19
 74
     0
 42
0.000000001
 43
0.0000001
 40
0.0
 40
0.0
 40
0.0
 40
0.0
 40
1.0
 40
1.0
 40
1.0
 40
2.0
 40
2.0
 40
2.0
 40
3.0
 40
3.0
 40
3.0
 40
4.0
 40
4.0
 40
4.0
 40
5.0
 40
5.0
 40
5.0
 40
6.0
 40
6.0
 40
6.0
 40
6.0
 10
1469.0635465622
 20
33.6838333414
 30
0.0
 10
1469.0635465622
 20
33.6838333414
 30
0.0
 10
1468.98137099
 20
33.788515599
 30
0.0
 10
1468.98137099
 20
33.788515599
 30
0.0
 10
1468.9094891731
 20
33.879938104
 30
0.0
 10
1468.8337690068
 20
33.9720584906
 30
0.0
 10
1468.8337690068
 20
34.096979318
 30
0.0
 10
1468.8337690068
 20
34.2553984678
 30
0.0
 10
1468.9616558315
 20
34.3586849619
 30
0.0
 10
1469.1096067555
 20
34.3586849619
 30
0.0
 10
1469.2739578999
 20
34.3586849619
 30
0.0
 10
1469.398355316
 20
34.2637730484
 30
0.0
 10
1469.398355316
 20
34.0900005008
 30
0.0
 10
1469.398355316
 20
33.9099470178
 30
0.0
 10
1469.2275487657
 20
33.8080562871
 30
0.0
 10
1469.1028024088
 20
33.709654965
 30
0.0
 10
1469.1028024088
 20
33.709654965
 30
0.0
 10
1469.0635465622
 20
33.6838333414
 30
0.0
 10
1469.0635465622
 20
33.6838333414
 30
0.0
  0
SPLINE
  5
249
330
228
100
AcDbEntity
  8
0
  6
Continuous
 62
     7
100
AcDbSpline
 70
     3
 71
     3
 72
    50
 73
    46
 74
     0
 42
0.000000001
 43
0.0000001
 40
0.0
 40
0.0
 40
0.0
 40
0.0
 40
1.0
 40
1.0
 40
1.0
 40
2.0
 40
2.0
 40
2.0
 40
3.0
 40
3.0
 40
3.0
 40
4.0
 40
4.0
 40
4.0
 40
5.0
 40
5.0
 40
5.0
 40
6.0
 40
6.0
 40
6.0
 40
7.0
 40
7.0
 40
7.0
 40
8.0
 40
8.0
 40
8.0
 40
9.0
 40
9.0
 40
9.0
 40
10.0
 40
10.0
 40
10.0
 40
11.0
 40
11.0
 40
11.0
 40
12.0
 40
12.0
 40
12.0
 40
13.0
 40
13.0
 40
13.0
 40
14.0
 40
14.0
 40
14.0
 40
15.0
 40
15.0
 40
15.0
 40
15.0
 10
1469.9997548857
 20
32.0745181017
 30
0.0
 10
1469.9997548857
 20
32.0745181017
 30
0.0
 10
1470.380274892
 20
32.0745181017
 30
0.0
 10
1470.380274892
 20
32.0745181017
 30
0.0
 10
1470.380274892
 20
32.0745181017
 30
0.0
 10
1469.9371200016
 20
32.6223552496
 30
0.0
 10
1469.9371200016
 20
32.6223552496
 30
0.0
 10
1469.9371200016
 20
32.6223552496
 30
0.0
 10
1470.2391283147
 20
32.976879162
 30
0.0
 10
1470.2391283147
 20
32.976879162
 30
0.0
 10
1470.2391283147
 20
32.976879162
 30
0.0
 10
1470.0414533184
 20
33.1806606234
 30
0.0
 10
1470.0414533184
 20
33.1806606234
 30
0.0
 10
1470.0414533184
 20
33.1806606234
 30
0.0
 10
1469.75357711
 20
32.8456773991
 30
0.0
 10
1469.75357711
 20
32.8456773991
 30
0.0
 10
1469.75357711
 20
32.8456773991
 30
0.0
 10
1469.2374935802
 20
33.4695836543
 30
0.0
 10
1469.2374935802
 20
33.4695836543
 30
0.0
 10
1469.4447644502
 20
33.6217218686
 30
0.0
 10
1469.6878017582
 20
33.8080562871
 30
0.0
 10
1469.6878017582
 20
34.087208974
 30
0.0
 10
1469.6878017582
 20
34.4124218542
 30
0.0
 10
1469.4184194154
 20
34.6036414447
 30
0.0
 10
1469.1164111023
 20
34.6036414447
 30
0.0
 10
1468.7908492812
 20
34.6036414447
 30
0.0
 10
1468.5450204463
 20
34.4026515101
 30
0.0
 10
1468.5450204463
 20
34.0606894687
 30
0.0
 10
1468.5450204463
 20
33.8506270718
 30
0.0
 10
1468.67657115
 20
33.6670841802
 30
0.0
 10
1468.8170198456
 20
33.5191332562
 30
0.0
 10
1468.8170198456
 20
33.5191332562
 30
0.0
 10
1468.6629624565
 20
33.4074721815
 30
0.0
 10
1468.6629624565
 20
33.4074721815
 30
0.0
 10
1468.4260316136
 20
33.2364911607
 30
0.0
 10
1468.2295779102
 20
33.0662080218
 30
0.0
 10
1468.2295779102
 20
32.7500676039
 30
0.0
 10
1468.2295779102
 20
32.322963993
 30
0.0
 10
1468.5743314785
 20
32.0214790912
 30
0.0
 10
1468.9881753367
 20
32.0214790912
 30
0.0
 10
1469.2800643649
 20
32.0214790912
 30
0.0
 10
1469.5429913019
 20
32.1882728216
 30
0.0
 10
1469.7300236021
 20
32.4095013259
 30
0.0
 10
1469.7300236021
 20
32.4095013259
 30
0.0
 10
1469.9997548857
 20
32.0745181017
 30
0.0
 10
1469.9997548857
 20
32.0745181017
 30
0.0
  0
LWPOLYLINE
  5
24A
330
228
100
AcDbEntity
  8
0
  6
Continuous
 62
     7
100
AcDbPolyline
 90
        2
 70
     0
 43
0.266667
 10
1472.580347
 20
34.549905
 10
1472.271883
 20
34.549905
  0
LWPOLYLINE
  5
24B
330
228
100
AcDbEntity
  8
0
  6
Continuous
 62
     7
100
AcDbPolyline
 90
        2
 70
     0
 43
0.266667
 10
1472.271883
 20
34.549905
 10
1472.271883
 20
32.07382
  0
LWPOLYLINE
  5
24C
330
228
100
AcDbEntity
  8
0
  6
Continuous
 62
     7
100
AcDbPolyline
 90
        2
 70
     0
 43
0.266667
 10
1472.271883
 20
32.07382
 10
1473.332315
 20
32.07382
  0
LWPOLYLINE
  5
24D
330
228
100
AcDbEntity
  8
0
  6
Continuous
 62
     7
100
AcDbPolyline
 90
        2
 70
     0
 43
0.266667
 10
1473.332315
 20
32.07382
 10
1473.332315
 20
32.356462
  0
LWPOLYLINE
  5
24E
330
228
100
AcDbEntity
  8
0
  6
Continuous
 62
     7
100
AcDbPolyline
 90
        2
 70
     0
 43
0.266667
 10
1473.332315
 20
32.356462
 10
1472.580347
 20
32.356462
  0
LWPOLYLINE
  5
24F
330
228
100
AcDbEntity
  8
0
  6
Continuous
 62
     7
100
AcDbPolyline
 90
        2
 70
     0
 43
0.266667
 10
1472.580347
 20
32.356462
 10
1472.580347
 20
34.549905
  0
LWPOLYLINE
  5
250
330
228
100
AcDbEntity
  8
0
  6
Continuous
 62
     7
100
AcDbPolyline
 90
        2
 70
     0
 43
0.266667
 10
1475.571119
 20
33.610556
 10
1475.276264
 20
33.610556
  0
LWPOLYLINE
  5
251
330
228
100
AcDbEntity
  8
0
  6
Continuous
 62
     7
100
AcDbPolyline
 90
        2
 70
     0
 43
0.266667
 10
1475.276264
 20
33.610556
 10
1475.276264
 20
32.074518
  0
LWPOLYLINE
  5
252
330
228
100
AcDbEntity
  8
0
  6
Continuous
 62
     7
100
AcDbPolyline
 90
        2
 70
     0
 43
0.266667
 10
1475.276264
 20
32.074518
 10
1475.571119
 20
32.074518
  0
LWPOLYLINE
  5
253
330
228
100
AcDbEntity
  8
0
  6
Continuous
 62
     7
100
AcDbPolyline
 90
        2
 70
     0
 43
0.266667
 10
1475.571119
 20
32.074518
 10
1475.571119
 20
33.610556
  0
LWPOLYLINE
  5
254
330
228
100
AcDbEntity
  8
0
  6
Continuous
 62
     7
100
AcDbPolyline
 90
        2
 70
     1
 43
0.266667
 10
1475.220421
 20
34.317161
 42
1.0
 10
1475.627311
 20
34.317161
 42
1.0
  0
SPLINE
  5
255
330
228
100
AcDbEntity
  8
0
  6
Continuous
 62
     7
100
AcDbSpline
 70
     3
 71
     3
 72
    17
 73
    13
 74
     0
 42
0.000000001
 43
0.0000001
 40
0.0
 40
0.0
 40
0.0
 40
0.0
 40
1.0
 40
1.0
 40
1.0
 40
2.0
 40
2.0
 40
2.0
 40
3.0
 40
3.0
 40
3.0
 40
4.0
 40
4.0
 40
4.0
 40
4.0
 10
1478.4114976931
 20
32.2845804985
 30
0.0
 10
1478.0995445655
 20
32.2845804985
 30
0.0
 10
1477.925772018
 20
32.5539628414
 30
0.0
 10
1477.925772018
 20
32.8421879906
 30
0.0
 10
1477.925772018
 20
33.1283194946
 30
0.0
 10
1478.1068723236
 20
33.3935145471
 30
0.0
 10
1478.4114976931
 20
33.3935145471
 30
0.0
 10
1478.7307785787
 20
33.3935145471
 30
0.0
 10
1478.9115299435
 20
33.1415792472
 30
0.0
 10
1478.9115299435
 20
32.8421879906
 30
0.0
 10
1478.9115299435
 20
32.5407030887
 30
0.0
 10
1478.7339190464
 20
32.2845804985
 30
0.0
 10
1478.4114976931
 20
32.2845804985
 30
0.0
  0
SPLINE
  5
256
330
228
100
AcDbEntity
  8
0
  6
Continuous
 62
     7
100
AcDbSpline
 70
     3
 71
     3
 72
    50
 73
    46
 74
     0
 42
0.000000001
 43
0.0000001
 40
0.0
 40
0.0
 40
0.0
 40
0.0
 40
1.0
 40
1.0
 40
1.0
 40
2.0
 40
2.0
 40
2.0
 40
3.0
 40
3.0
 40
3.0
 40
4.0
 40
4.0
 40
4.0
 40
5.0
 40
5.0
 40
5.0
 40
6.0
 40
6.0
 40
6.0
 40
7.0
 40
7.0
 40
7.0
 40
8.0
 40
8.0
 40
8.0
 40
9.0
 40
9.0
 40
9.0
 40
10.0
 40
10.0
 40
10.0
 40
11.0
 40
11.0
 40
11.0
 40
12.0
 40
12.0
 40
12.0
 40
13.0
 40
13.0
 40
13.0
 40
14.0
 40
14.0
 40
14.0
 40
15.0
 40
15.0
 40
15.0
 40
15.0
 10
1479.1903336895
 20
33.6112536429
 30
0.0
 10
1479.1903336895
 20
33.6112536429
 30
0.0
 10
1478.8947807822
 20
33.6112536429
 30
0.0
 10
1478.8947807822
 20
33.6112536429
 30
0.0
 10
1478.8947807822
 20
33.6112536429
 30
0.0
 10
1478.8947807822
 20
33.3481522355
 30
0.0
 10
1478.8947807822
 20
33.3481522355
 30
0.0
 10
1478.8947807822
 20
33.3481522355
 30
0.0
 10
1478.8884998468
 20
33.3481522355
 30
0.0
 10
1478.8884998468
 20
33.3481522355
 30
0.0
 10
1478.7667194871
 20
33.5386739443
 30
0.0
 10
1478.5828276547
 20
33.6566159545
 30
0.0
 10
1478.352526688
 20
33.6566159545
 30
0.0
 10
1477.9093717976
 20
33.6566159545
 30
0.0
 10
1477.6305680516
 20
33.27278101
 30
0.0
 10
1477.6305680516
 20
32.8519583346
 30
0.0
 10
1477.6305680516
 20
32.4122928528
 30
0.0
 10
1477.8933205181
 20
32.0214790912
 30
0.0
 10
1478.3664843224
 20
32.0214790912
 30
0.0
 10
1478.5828276547
 20
32.0214790912
 30
0.0
 10
1478.769511014
 20
32.1394211014
 30
0.0
 10
1478.8884998468
 20
32.3138915307
 30
0.0
 10
1478.8884998468
 20
32.3138915307
 30
0.0
 10
1478.8947807822
 20
32.3138915307
 30
0.0
 10
1478.8947807822
 20
32.3138915307
 30
0.0
 10
1478.8947807822
 20
32.3138915307
 30
0.0
 10
1478.8947807822
 20
32.0214790912
 30
0.0
 10
1478.8947807822
 20
32.0214790912
 30
0.0
 10
1478.8947807822
 20
31.706036555
 30
0.0
 10
1478.8194095568
 20
31.456892782
 30
0.0
 10
1478.4551153004
 20
31.456892782
 30
0.0
 10
1478.1853840168
 20
31.456892782
 30
0.0
 10
1477.9952112488
 20
31.6146140501
 30
0.0
 10
1477.9952112488
 20
31.8895794466
 30
0.0
 10
1477.9952112488
 20
31.8895794466
 30
0.0
 10
1477.6996583416
 20
31.8895794466
 30
0.0
 10
1477.6996583416
 20
31.8895794466
 30
0.0
 10
1477.7062882179
 20
31.456892782
 30
0.0
 10
1478.014402996
 20
31.1944892563
 30
0.0
 10
1478.4415066069
 20
31.1944892563
 30
0.0
 10
1479.0388933568
 20
31.1944892563
 30
0.0
 10
1479.1903336895
 20
31.5748347922
 30
0.0
 10
1479.1903336895
 20
32.1038291338
 30
0.0
 10
1479.1903336895
 20
32.1038291338
 30
0.0
 10
1479.1903336895
 20
33.6112536429
 30
0.0
 10
1479.1903336895
 20
33.6112536429
 30
0.0
  0
SPLINE
  5
257
330
228
100
AcDbEntity
  8
0
  6
Continuous
 62
     7
100
AcDbSpline
 70
     3
 71
     3
 72
    44
 73
    40
 74
     0
 42
0.000000001
 43
0.0000001
 40
0.0
 40
0.0
 40
0.0
 40
0.0
 40
1.0
 40
1.0
 40
1.0
 40
2.0
 40
2.0
 40
2.0
 40
3.0
 40
3.0
 40
3.0
 40
4.0
 40
4.0
 40
4.0
 40
5.0
 40
5.0
 40
5.0
 40
6.0
 40
6.0
 40
6.0
 40
7.0
 40
7.0
 40
7.0
 40
8.0
 40
8.0
 40
8.0
 40
9.0
 40
9.0
 40
9.0
 40
10.0
 40
10.0
 40
10.0
 40
11.0
 40
11.0
 40
11.0
 40
12.0
 40
12.0
 40
12.0
 40
13.0
 40
13.0
 40
13.0
 40
13.0
 10
1481.2822341366
 20
34.9246670346
 30
0.0
 10
1481.2822341366
 20
34.9246670346
 30
0.0
 10
1481.2822341366
 20
32.07382022
 30
0.0
 10
1481.2822341366
 20
32.07382022
 30
0.0
 10
1481.2822341366
 20
32.07382022
 30
0.0
 10
1481.577438103
 20
32.07382022
 30
0.0
 10
1481.577438103
 20
32.07382022
 30
0.0
 10
1481.577438103
 20
32.07382022
 30
0.0
 10
1481.577438103
 20
32.7800765177
 30
0.0
 10
1481.577438103
 20
32.7800765177
 30
0.0
 10
1481.577438103
 20
33.0599270863
 30
0.0
 10
1481.577438103
 20
33.3942124288
 30
0.0
 10
1481.9577836389
 20
33.3942124288
 30
0.0
 10
1482.2603153632
 20
33.3942124288
 30
0.0
 10
1482.2962562717
 20
33.2169504727
 30
0.0
 10
1482.2962562717
 20
32.9552448287
 30
0.0
 10
1482.2962562717
 20
32.9552448287
 30
0.0
 10
1482.2962562717
 20
32.07382022
 30
0.0
 10
1482.2962562717
 20
32.07382022
 30
0.0
 10
1482.2962562717
 20
32.07382022
 30
0.0
 10
1482.5921581198
 20
32.07382022
 30
0.0
 10
1482.5921581198
 20
32.07382022
 30
0.0
 10
1482.5921581198
 20
32.07382022
 30
0.0
 10
1482.5921581198
 20
32.9901389146
 30
0.0
 10
1482.5921581198
 20
32.9901389146
 30
0.0
 10
1482.5921581198
 20
33.364203515
 30
0.0
 10
1482.4801481042
 20
33.6573138362
 30
0.0
 10
1482.0467635578
 20
33.6573138362
 30
0.0
 10
1481.8604291393
 20
33.6573138362
 30
0.0
 10
1481.676188366
 20
33.5686828581
 30
0.0
 10
1481.5837190385
 20
33.4046806546
 30
0.0
 10
1481.5837190385
 20
33.4046806546
 30
0.0
 10
1481.577438103
 20
33.4046806546
 30
0.0
 10
1481.577438103
 20
33.4046806546
 30
0.0
 10
1481.577438103
 20
33.4046806546
 30
0.0
 10
1481.577438103
 20
34.9246670346
 30
0.0
 10
1481.577438103
 20
34.9246670346
 30
0.0
 10
1481.577438103
 20
34.9246670346
 30
0.0
 10
1481.2822341366
 20
34.9246670346
 30
0.0
 10
1481.2822341366
 20
34.9246670346
 30
0.0
  0
LWPOLYLINE
  5
258
330
228
100
AcDbEntity
  8
0
  6
Continuous
 62
     7
100
AcDbPolyline
 90
        2
 70
     0
 43
0.266667
 10
1485.045212
 20
33.334892
 10
1485.333786
 20
33.334892
  0
LWPOLYLINE
  5
259
330
228
100
AcDbEntity
  8
0
  6
Continuous
 62
     7
100
AcDbPolyline
 90
        2
 70
     0
 43
0.266667
 10
1485.333786
 20
33.334892
 10
1485.333786
 20
33.610556
  0
LWPOLYLINE
  5
25A
330
228
100
AcDbEntity
  8
0
  6
Continuous
 62
     7
100
AcDbPolyline
 90
        2
 70
     0
 43
0.266667
 10
1485.333786
 20
33.610556
 10
1485.045212
 20
33.610556
  0
LWPOLYLINE
  5
25B
330
228
100
AcDbEntity
  8
0
  6
Continuous
 62
     7
100
AcDbPolyline
 90
        2
 70
     0
 43
0.266667
 10
1485.045212
 20
33.610556
 10
1485.045212
 20
34.198172
  0
LWPOLYLINE
  5
25C
330
228
100
AcDbEntity
  8
0
  6
Continuous
 62
     7
100
AcDbPolyline
 90
        2
 70
     0
 43
0.266667
 10
1485.045212
 20
34.198172
 10
1484.749659
 20
34.198172
  0
LWPOLYLINE
  5
25D
330
228
100
AcDbEntity
  8
0
  6
Continuous
 62
     7
100
AcDbPolyline
 90
        2
 70
     0
 43
0.266667
 10
1484.749659
 20
34.198172
 10
1484.749659
 20
33.610556
  0
LWPOLYLINE
  5
25E
330
228
100
AcDbEntity
  8
0
  6
Continuous
 62
     7
100
AcDbPolyline
 90
        2
 70
     0
 43
0.266667
 10
1484.749659
 20
33.610556
 10
1484.588798
 20
33.610556
  0
LWPOLYLINE
  5
25F
330
228
100
AcDbEntity
  8
0
  6
Continuous
 62
     7
100
AcDbPolyline
 90
        2
 70
     0
 43
0.266667
 10
1484.588798
 20
33.610556
 10
1484.588798
 20
33.334892
  0
LWPOLYLINE
  5
260
330
228
100
AcDbEntity
  8
0
  6
Continuous
 62
     7
100
AcDbPolyline
 90
        2
 70
     0
 43
0.266667
 10
1484.588798
 20
33.334892
 10
1484.749659
 20
33.334892
  0
LWPOLYLINE
  5
261
330
228
100
AcDbEntity
  8
0
  6
Continuous
 62
     7
100
AcDbPolyline
 90
        2
 70
     0
 43
0.266667
 10
1484.749659
 20
33.334892
 10
1484.749659
 20
32.07382
  0
LWPOLYLINE
  5
262
330
228
100
AcDbEntity
  8
0
  6
Continuous
 62
     7
100
AcDbPolyline
 90
        2
 70
     0
 43
0.266667
 10
1484.749659
 20
32.07382
 10
1485.045212
 20
32.07382
  0
LWPOLYLINE
  5
263
330
228
100
AcDbEntity
  8
0
  6
Continuous
 62
     7
100
AcDbPolyline
 90
        2
 70
     0
 43
0.266667
 10
1485.045212
 20
32.07382
 10
1485.045212
 20
33.334892
  0
SPLINE
  5
264
330
228
100
AcDbEntity
  8
0
  6
Continuous
 62
     7
100
AcDbSpline
 70
     3
 71
     3
 72
    20
 73
    16
 74
     0
 42
0.000000001
 43
0.0000001
 40
0.0
 40
0.0
 40
0.0
 40
0.0
 40
1.0
 40
1.0
 40
1.0
 40
2.0
 40
2.0
 40
2.0
 40
3.0
 40
3.0
 40
3.0
 40
4.0
 40
4.0
 40
4.0
 40
5.0
 40
5.0
 40
5.0
 40
5.0
 10
1468.7545594319
 20
45.8883888111
 30
0.0
 10
1468.7545594319
 20
45.8883888111
 30
0.0
 10
1471.8430349712
 20
42.1156402482
 30
0.0
 10
1471.8430349712
 20
42.1156402482
 30
0.0
 10
1470.9741722333
 20
41.2460796286
 30
0.0
 10
1469.9383412946
 20
40.2648579343
 30
0.0
 10
1468.6434217684
 20
40.2648579343
 30
0.0
 10
1467.3120379225
 20
40.2648579343
 30
0.0
 10
1466.0542805978
 20
41.5042958639
 30
0.0
 10
1466.0542805978
 20
42.836552062
 30
0.0
 10
1466.0542805978
 20
44.1688082601
 30
0.0
 10
1467.6260846953
 20
45.1109485782
 30
0.0
 10
1468.5881146424
 20
45.7774256181
 30
0.0
 10
1468.5881146424
 20
45.7774256181
 30
0.0
 10
1468.7545594319
 20
45.8883888111
 30
0.0
 10
1468.7545594319
 20
45.8883888111
 30
0.0
  0
SPLINE
  5
265
330
228
100
AcDbEntity
  8
0
  6
Continuous
 62
     7
100
AcDbSpline
 70
     3
 71
     3
 72
    23
 73
    19
 74
     0
 42
0.000000001
 43
0.0000001
 40
0.0
 40
0.0
 40
0.0
 40
0.0
 40
1.0
 40
1.0
 40
1.0
 40
2.0
 40
2.0
 40
2.0
 40
3.0
 40
3.0
 40
3.0
 40
4.0
 40
4.0
 40
4.0
 40
5.0
 40
5.0
 40
5.0
 40
6.0
 40
6.0
 40
6.0
 40
6.0
 10
1469.124436742
 20
48.0720607041
 30
0.0
 10
1469.124436742
 20
48.0720607041
 30
0.0
 10
1468.6624390452
 20
48.6631665186
 30
0.0
 10
1468.6624390452
 20
48.6631665186
 30
0.0
 10
1468.254701652
 20
49.1806458118
 30
0.0
 10
1467.8295172158
 20
49.6986485164
 30
0.0
 10
1467.8295172158
 20
50.4012409352
 30
0.0
 10
1467.8295172158
 20
51.2894698907
 30
0.0
 10
1468.5513013818
 20
51.8810991164
 30
0.0
 10
1469.3831763886
 20
51.8810991164
 30
0.0
 10
1470.3082186047
 20
51.8810991164
 30
0.0
 10
1471.0111599643
 20
51.3447770168
 30
0.0
 10
1471.0111599643
 20
50.3647766154
 30
0.0
 10
1471.0111599643
 20
49.3470906014
 30
0.0
 10
1470.0494789581
 20
48.7736063003
 30
0.0
 10
1469.3467120689
 20
48.2193137465
 30
0.0
 10
1469.3467120689
 20
48.2193137465
 30
0.0
 10
1469.124436742
 20
48.0720607041
 30
0.0
 10
1469.124436742
 20
48.0720607041
 30
0.0
  0
SPLINE
  5
266
330
228
100
AcDbEntity
  8
0
  6
Continuous
 62
     7
100
AcDbSpline
 70
     3
 71
     3
 72
    50
 73
    46
 74
     0
 42
0.000000001
 43
0.0000001
 40
0.0
 40
0.0
 40
0.0
 40
0.0
 40
1.0
 40
1.0
 40
1.0
 40
2.0
 40
2.0
 40
2.0
 40
3.0
 40
3.0
 40
3.0
 40
4.0
 40
4.0
 40
4.0
 40
5.0
 40
5.0
 40
5.0
 40
6.0
 40
6.0
 40
6.0
 40
7.0
 40
7.0
 40
7.0
 40
8.0
 40
8.0
 40
8.0
 40
9.0
 40
9.0
 40
9.0
 40
10.0
 40
10.0
 40
10.0
 40
11.0
 40
11.0
 40
11.0
 40
12.0
 40
12.0
 40
12.0
 40
13.0
 40
13.0
 40
13.0
 40
14.0
 40
14.0
 40
14.0
 40
15.0
 40
15.0
 40
15.0
 40
15.0
 10
1474.3958862926
 20
39.0072750799
 30
0.0
 10
1474.3958862926
 20
39.0072750799
 30
0.0
 10
1476.541523632
 20
39.0072750799
 30
0.0
 10
1476.541523632
 20
39.0072750799
 30
0.0
 10
1476.541523632
 20
39.0072750799
 30
0.0
 10
1474.0441539071
 20
42.0967974418
 30
0.0
 10
1474.0441539071
 20
42.0967974418
 30
0.0
 10
1474.0441539071
 20
42.0967974418
 30
0.0
 10
1475.7459384744
 20
44.0934370346
 30
0.0
 10
1475.7459384744
 20
44.0934370346
 30
0.0
 10
1475.7459384744
 20
44.0934370346
 30
0.0
 10
1474.6363065441
 20
45.2414524593
 30
0.0
 10
1474.6363065441
 20
45.2414524593
 30
0.0
 10
1474.6363065441
 20
45.2414524593
 30
0.0
 10
1473.0088463797
 20
43.3543802961
 30
0.0
 10
1473.0088463797
 20
43.3543802961
 30
0.0
 10
1473.0088463797
 20
43.3543802961
 30
0.0
 10
1470.1049605546
 20
46.868214742
 30
0.0
 10
1470.1049605546
 20
46.868214742
 30
0.0
 10
1471.2697251406
 20
47.7189325553
 30
0.0
 10
1472.6386201288
 20
48.7736063003
 30
0.0
 10
1472.6386201288
 20
50.3454103978
 30
0.0
 10
1472.6386201288
 20
52.1770009645
 30
0.0
 10
1471.1214252757
 20
53.2496451637
 30
0.0
 10
1469.4210364718
 20
53.2496451637
 30
0.0
 10
1467.589794846
 20
53.2496451637
 30
0.0
 10
1466.201882581
 20
52.1213448975
 30
0.0
 10
1466.201882581
 20
50.1978084146
 30
0.0
 10
1466.201882581
 20
49.0143754927
 30
0.0
 10
1466.9423350829
 20
47.978544554
 30
0.0
 10
1467.7372223587
 20
47.1459716655
 30
0.0
 10
1467.7372223587
 20
47.1459716655
 30
0.0
 10
1466.86801068
 20
46.5171802383
 30
0.0
 10
1466.86801068
 20
46.5171802383
 30
0.0
 10
1465.5366268341
 20
45.5554992321
 30
0.0
 10
1464.4261225517
 20
44.5938182258
 30
0.0
 10
1464.4261225517
 20
42.8184071374
 30
0.0
 10
1464.4261225517
 20
40.41350674
 30
0.0
 10
1466.3688507818
 20
38.7113732319
 30
0.0
 10
1468.698903365
 20
38.7113732319
 30
0.0
 10
1470.3453808062
 20
38.7113732319
 30
0.0
 10
1471.8245411057
 20
39.6556071952
 30
0.0
 10
1472.8790403803
 20
40.8936493614
 30
0.0
 10
1472.8790403803
 20
40.8936493614
 30
0.0
 10
1474.3958862926
 20
39.0072750799
 30
0.0
 10
1474.3958862926
 20
39.0072750799
 30
0.0
  0
LINE
  5
267
330
228
100
AcDbEntity
  8
0
  6
Continuous
 62
     7
100
AcDbLine
 10
1455.466368
 20
36.305775
 30
0.0
 11
1485.351582
 21
36.305775
 31
0.0
  0
LINE
  5
268
330
228
100
AcDbEntity
  8
0
  6
Continuous
 62
     7
100
AcDbLine
 10
1485.351582
 20
36.305775
 30
0.0
 11
1485.351582
 21
66.190989
 31
0.0
  0
LINE
  5
269
330
228
100
AcDbEntity
  8
0
  6
Continuous
 62
     7
100
AcDbLine
 10
1485.351582
 20
66.190989
 30
0.0
 11
1455.466368
 21
66.190989
 31
0.0
  0
LINE
  5
26A
330
228
100
AcDbEntity
  8
0
  6
Continuous
 62
     7
100
AcDbLine
 10
1455.466368
 20
66.190989
 30
0.0
 11
1455.466368
 21
36.305775
 31
0.0
  0
ENDBLK
  5
26B
330
228
100
AcDbEntity
  8
0
  6
ByBlock
 62
     0
100
AcDbBlockEnd
  0
BLOCK
  5
29F
330
229
100
AcDbEntity
  8
0
100
AcDbBlockBegin
  2
*T7
 70
     1
 10
0.0
 20
0.0
 30
0.0
  3
*T7
  1
*T7
  0
LINE
  5
2A0
330
229
100
AcDbEntity
  8
0
  6
Continuous
 62
     2
100
AcDbLine
 10
0.0
 20
0.0
 30
0.0
 11
120.0
 21
0.0
 31
0.0
  0
LINE
  5
2A1
330
229
100
AcDbEntity
  8
0
  6
Continuous
 62
     2
100
AcDbLine
 10
0.0
 20
0.0
 30
0.0
 11
0.0
 21
-53.333333
 31
0.0
  0
LINE
  5
2A2
330
229
100
AcDbEntity
  8
0
  6
Continuous
 62
     2
100
AcDbLine
 10
40.0
 20
-8.0
 30
0.0
 11
120.0
 21
-8.0
 31
0.0
  0
LINE
  5
2A3
330
229
100
AcDbEntity
  8
0
  6
Continuous
 62
     2
100
AcDbLine
 10
40.0
 20
-16.0
 30
0.0
 11
120.0
 21
-16.0
 31
0.0
  0
LINE
  5
2A4
330
229
100
AcDbEntity
  8
0
  6
Continuous
 62
     2
100
AcDbLine
 10
40.0
 20
-29.333333
 30
0.0
 11
120.0
 21
-29.333333
 31
0.0
  0
LINE
  5
2A5
330
229
100
AcDbEntity
  8
0
  6
Continuous
 62
     2
100
AcDbLine
 10
0.0
 20
-36.0
 30
0.0
 11
120.0
 21
-36.0
 31
0.0
  0
LINE
  5
2A6
330
229
100
AcDbEntity
  8
0
  6
Continuous
 62
     2
100
AcDbLine
 10
0.0
 20
-53.333333
 30
0.0
 11
120.0
 21
-53.333333
 31
0.0
  0
LINE
  5
2A7
330
229
100
AcDbEntity
  8
0
  6
Continuous
 62
     2
100
AcDbLine
 10
40.0
 20
0.0
 30
0.0
 11
40.0
 21
-36.0
 31
0.0
  0
LINE
  5
2A8
330
229
100
AcDbEntity
  8
0
  6
Continuous
 62
     2
100
AcDbLine
 10
93.333333
 20
0.0
 30
0.0
 11
93.333333
 21
-16.0
 31
0.0
  0
LINE
  5
2A9
330
229
100
AcDbEntity
  8
0
  6
Continuous
 62
     2
100
AcDbLine
 10
120.0
 20
0.0
 30
0.0
 11
120.0
 21
-53.333333
 31
0.0
  0
MTEXT
  5
2AA
330
229
100
AcDbEntity
  8
9_SOLID
  6
Continuous
 62
     2
100
AcDbMText
 10
41.983333
 20
-2.0
 30
0.0
 40
4.0
 41
51.619048
 46
0.0
 71
     1
 72
     1
  1
SK3200_C
 73
     1
 44
0.9
  0
MTEXT
  5
2AB
330
229
100
AcDbEntity
  8
9_SOLID
  6
Continuous
 62
     2
100
AcDbMText
 10
95.316667
 20
-2.333333
 30
0.0
 40
4.666667
 41
40.444444
 46
0.0
 71
     1
 72
     1
  1
Rev:02
 73
     1
 44
0.9
  0
MTEXT
  5
2AC
330
229
100
AcDbEntity
  8
9_SOLID
  6
Continuous
 62
     2
100
AcDbMText
 10
41.983333
 20
-10.333333
 30
0.0
 40
4.666667
 41
50.444444
 46
0.0
 71
     1
 72
     1
  1
Scale:1:1
 73
     1
 44
0.9
  0
MTEXT
  5
2AD
330
229
100
AcDbEntity
  8
9_SOLID
  6
Continuous
 62
     2
100
AcDbMText
 10
95.316667
 20
-9.666667
 30
0.0
 40
4.666667
 41
17.111111
 46
0.0
 71
     1
 72
     1
  1
A0
 73
     1
 44
0.9
  0
MTEXT
  5
2AE
330
229
100
AcDbEntity
  8
9_SOLID
  6
Continuous
 62
     2
100
AcDbMText
 10
41.983333
 20
-20.333333
 30
0.0
 40
4.666667
 41
66.222222
 46
0.0
 71
     1
 72
     1
  1
SNACK 3.2
 73
     1
 44
0.9
  0
MTEXT
  5
2AF
330
229
100
AcDbEntity
  8
9_SOLID
  6
Continuous
 62
     2
100
AcDbMText
 10
41.983333
 20
-31.0
 30
0.0
 40
3.333333
 41
25.873016
 46
0.0
 71
     1
 72
     1
  1
DATE:
 73
     1
 44
0.9
  0
MTEXT
  5
2B0
330
229
100
AcDbEntity
  8
9_SOLID
  6
Continuous
 62
     2
100
AcDbMText
 10
1.983333
 20
-36.416667
 30
0.0
 40
3.0
 41
239.285714
 46
0.0
 71
     1
 72
     1
  1
Any integral or partial reproductions are prohibited \Pwithout prior authorisation of L {\Ftxt.shx;\W0.190476;\H3.000000; }& L Luce & Light s.r.l., \Pin accordance with the law in force. \PAll rights reserved.
 73
     1
 44
0.9
  0
ENDBLK
  5
2B1
330
229
100
AcDbEntity
  8
0
  6
ByBlock
 62
     0
100
AcDbBlockEnd
  0
ENDSEC
  0
SECTION
  2
ENTITIES
  0
LINE
  5
2B2
330
220
100
AcDbEntity
  8
0
  6
Continuous
 62
     7
100
AcDbLine
 10
1585.333333
 20
0.0
 30
0.0
 11
1585.333333
 21
1121.333333
 31
0.0
  0
LINE
  5
2B3
330
220
100
AcDbEntity
  8
0
  6
Continuous
 62
     7
100
AcDbLine
 10
0.0
 20
1121.333333
 30
0.0
 11
1585.333333
 21
1121.333333
 31
0.0
  0
LINE
  5
2B4
330
220
100
AcDbEntity
  8
0
  6
Continuous
 62
     7
100
AcDbLine
 10
0.0
 20
0.0
 30
0.0
 11
0.0
 21
1121.333333
 31
0.0
  0
LINE
  5
2B5
330
220
100
AcDbEntity
  8
0
  6
Continuous
 62
     7
100
AcDbLine
 10
0.0
 20
0.0
 30
0.0
 11
1585.333333
 21
0.0
 31
0.0
  0
LINE
  5
2B6
330
220
100
AcDbEntity
  8
02___PRT_ALL_AXES
  6
Continuous
 62
     7
100
AcDbLine
 10
1132.151799
 20
680.673345
 30
0.0
 11
1133.151799
 21
680.673345
 31
0.0
  0
LINE
  5
2B7
330
220
100
AcDbEntity
  8
02___PRT_ALL_AXES
  6
Continuous
 62
     7
100
AcDbLine
 10
1132.151799
 20
672.673345
 30
0.0
 11
1133.151799
 21
672.673345
 31
0.0
  0
LINE
  5
2B8
330
220
100
AcDbEntity
  8
02___PRT_ALL_AXES
  6
Continuous
 62
     7
100
AcDbLine
 10
1132.151799
 20
680.673345
 30
0.0
 11
1133.151799
 21
680.673345
 31
0.0
  0
LINE
  5
2B9
330
220
100
AcDbEntity
  8
02___PRT_ALL_AXES
  6
Continuous
 62
     7
100
AcDbLine
 10
1133.151799
 20
680.673345
 30
0.0
 11
1133.151799
 21
680.473345
 31
0.0
  0
LINE
  5
2BA
330
220
100
AcDbEntity
  8
02___PRT_ALL_AXES
  6
Continuous
 62
     7
100
AcDbLine
 10
1133.151799
 20
680.473345
 30
0.0
 11
1133.151799
 21
678.823345
 31
0.0
  0
LINE
  5
2BB
330
220
100
AcDbEntity
  8
02___PRT_ALL_AXES
  6
Continuous
 62
     7
100
AcDbLine
 10
1133.151799
 20
678.823345
 30
0.0
 11
1133.151799
 21
678.673345
 31
0.0
  0
LINE
  5
2BC
330
220
100
AcDbEntity
  8
02___PRT_ALL_AXES
  6
Continuous
 62
     7
100
AcDbLine
 10
1133.151799
 20
678.673345
 30
0.0
 11
1133.151799
 21
674.673345
 31
0.0
  0
LINE
  5
2BD
330
220
100
AcDbEntity
  8
02___PRT_ALL_AXES
  6
Continuous
 62
     7
100
AcDbLine
 10
1133.151799
 20
674.673345
 30
0.0
 11
1133.151799
 21
674.523345
 31
0.0
  0
LINE
  5
2BE
330
220
100
AcDbEntity
  8
02___PRT_ALL_AXES
  6
Continuous
 62
     7
100
AcDbLine
 10
1133.151799
 20
674.523345
 30
0.0
 11
1133.151799
 21
672.873345
 31
0.0
  0
LINE
  5
2BF
330
220
100
AcDbEntity
  8
02___PRT_ALL_AXES
  6
Continuous
 62
     7
100
AcDbLine
 10
1133.151799
 20
672.873345
 30
0.0
 11
1133.151799
 21
672.673345
 31
0.0
  0
LINE
  5
2C0
330
220
100
AcDbEntity
  8
02___PRT_ALL_AXES
  6
Continuous
 62
     7
100
AcDbLine
 10
1132.151799
 20
672.673345
 30
0.0
 11
1133.151799
 21
672.673345
 31
0.0
  0
LINE
  5
2C1
330
220
100
AcDbEntity
  8
02___PRT_ALL_AXES
  6
Continuous
 62
     7
100
AcDbLine
 10
78.851799
 20
672.673345
 30
0.0
 11
77.851799
 21
672.673345
 31
0.0
  0
LINE
  5
2C2
330
220
100
AcDbEntity
  8
02___PRT_ALL_AXES
  6
Continuous
 62
     7
100
AcDbLine
 10
78.851799
 20
680.673345
 30
0.0
 11
77.851799
 21
680.673345
 31
0.0
  0
LINE
  5
2C3
330
220
100
AcDbEntity
  8
02___PRT_ALL_AXES
  6
Continuous
 62
     7
100
AcDbLine
 10
78.851799
 20
672.673345
 30
0.0
 11
77.851799
 21
672.673345
 31
0.0
  0
LINE
  5
2C4
330
220
100
AcDbEntity
  8
02___PRT_ALL_AXES
  6
Continuous
 62
     7
100
AcDbLine
 10
78.851799
 20
680.673345
 30
0.0
 11
77.851799
 21
680.673345
 31
0.0
  0
LINE
  5
2C5
330
220
100
AcDbEntity
  8
02___PRT_ALL_AXES
  6
Continuous
 62
     7
100
AcDbLine
 10
1129.151799
 20
680.673345
 30
0.0
 11
1130.151799
 21
680.673345
 31
0.0
  0
LINE
  5
2C6
330
220
100
AcDbEntity
  8
02___PRT_ALL_AXES
  6
Continuous
 62
     7
100
AcDbLine
 10
1129.151799
 20
672.673345
 30
0.0
 11
1130.151799
 21
672.673345
 31
0.0
  0
LINE
  5
2C7
330
220
100
AcDbEntity
  8
02___PRT_ALL_AXES
  6
Continuous
 62
     7
100
AcDbLine
 10
1129.151799
 20
680.673345
 30
0.0
 11
1130.151799
 21
680.673345
 31
0.0
  0
LINE
  5
2C8
330
220
100
AcDbEntity
  8
02___PRT_ALL_AXES
  6
Continuous
 62
     7
100
AcDbLine
 10
1129.151799
 20
672.673345
 30
0.0
 11
1130.151799
 21
672.673345
 31
0.0
  0
LINE
  5
2C9
330
220
100
AcDbEntity
  8
3_ALL_AXES
  6
Continuous
 62
     7
100
AcDbLine
 10
1133.151799
 20
672.873345
 30
0.0
 11
1133.531799
 21
672.873345
 31
0.0
  0
ARC
  5
2CA
330
220
100
AcDbEntity
  8
3_ALL_AXES
  6
Continuous
 62
     7
100
AcDbCircle
 10
1131.679159
 20
676.530902
 30
0.0
 40
4.1
100
AcDbArc
 50
296.863303
 51
305.264018
  0
ARC
  5
2CB
330
220
100
AcDbEntity
  8
3_ALL_AXES
  6
Continuous
 62
     7
100
AcDbCircle
 10
1131.679159
 20
676.530902
 30
0.0
 40
4.1
100
AcDbArc
 50
305.264018
 51
307.884515
  0
ARC
  5
2CC
330
220
100
AcDbEntity
  8
3_ALL_AXES
  6
Continuous
 62
     7
100
AcDbCircle
 10
1131.679159
 20
676.530902
 30
0.0
 40
4.1
100
AcDbArc
 50
307.884515
 51
313.768039
  0
ARC
  5
2CD
330
220
100
AcDbEntity
  8
3_ALL_AXES
  6
Continuous
 62
     7
100
AcDbCircle
 10
1131.679159
 20
676.530902
 30
0.0
 40
4.1
100
AcDbArc
 50
313.768039
 51
316.702239
  0
ARC
  5
2CE
330
220
100
AcDbEntity
  8
3_ALL_AXES
  6
Continuous
 62
     7
100
AcDbCircle
 10
1131.679159
 20
676.530902
 30
0.0
 40
4.1
100
AcDbArc
 50
316.702239
 51
322.585763
  0
ARC
  5
2CF
330
220
100
AcDbEntity
  8
3_ALL_AXES
  6
Continuous
 62
     7
100
AcDbCircle
 10
1131.679159
 20
676.530902
 30
0.0
 40
4.1
100
AcDbArc
 50
322.585763
 51
325.206259
  0
ARC
  5
2D0
330
220
100
AcDbEntity
  8
3_ALL_AXES
  6
Continuous
 62
     7
100
AcDbCircle
 10
1131.679159
 20
676.530902
 30
0.0
 40
4.1
100
AcDbArc
 50
325.206259
 51
333.606974
  0
ARC
  5
2D1
330
220
100
AcDbEntity
  8
3_ALL_AXES
  6
Continuous
 62
     7
100
AcDbCircle
 10
1131.679159
 20
676.815788
 30
0.0
 40
4.1
100
AcDbArc
 50
26.393026
 51
34.789417
  0
ARC
  5
2D2
330
220
100
AcDbEntity
  8
3_ALL_AXES
  6
Continuous
 62
     7
100
AcDbCircle
 10
1131.679159
 20
676.815788
 30
0.0
 40
4.1
100
AcDbArc
 50
34.789417
 51
37.418017
  0
ARC
  5
2D3
330
220
100
AcDbEntity
  8
3_ALL_AXES
  6
Continuous
 62
     7
100
AcDbCircle
 10
1131.679159
 20
676.815788
 30
0.0
 40
4.1
100
AcDbArc
 50
37.418017
 51
43.292467
  0
ARC
  5
2D4
330
220
100
AcDbEntity
  8
3_ALL_AXES
  6
Continuous
 62
     7
100
AcDbCircle
 10
1131.679159
 20
676.815788
 30
0.0
 40
4.1
100
AcDbArc
 50
43.292467
 51
46.237256
  0
ARC
  5
2D5
330
220
100
AcDbEntity
  8
3_ALL_AXES
  6
Continuous
 62
     7
100
AcDbCircle
 10
1131.679159
 20
676.815788
 30
0.0
 40
4.1
100
AcDbArc
 50
46.237256
 51
52.111705
  0
ARC
  5
2D6
330
220
100
AcDbEntity
  8
3_ALL_AXES
  6
Continuous
 62
     7
100
AcDbCircle
 10
1131.679159
 20
676.815788
 30
0.0
 40
4.1
100
AcDbArc
 50
52.111705
 51
54.740306
  0
ARC
  5
2D7
330
220
100
AcDbEntity
  8
3_ALL_AXES
  6
Continuous
 62
     7
100
AcDbCircle
 10
1131.679159
 20
676.815788
 30
0.0
 40
4.1
100
AcDbArc
 50
54.740306
 51
63.136697
  0
ARC
  5
2D8
330
220
100
AcDbEntity
  8
3_ALL_AXES
  6
Continuous
 62
     7
100
AcDbCircle
 10
1131.679159
 20
676.530902
 30
0.0
 40
4.1
100
AcDbArc
 50
325.210583
 51
333.606974
  0
ARC
  5
2D9
330
220
100
AcDbEntity
  8
3_ALL_AXES
  6
Continuous
 62
     7
100
AcDbCircle
 10
1131.679159
 20
676.530902
 30
0.0
 40
4.1
100
AcDbArc
 50
322.581983
 51
325.210583
  0
ARC
  5
2DA
330
220
100
AcDbEntity
  8
3_ALL_AXES
  6
Continuous
 62
     7
100
AcDbCircle
 10
1131.679159
 20
676.530902
 30
0.0
 40
4.1
100
AcDbArc
 50
316.707533
 51
322.581983
  0
ARC
  5
2DB
330
220
100
AcDbEntity
  8
3_ALL_AXES
  6
Continuous
 62
     7
100
AcDbCircle
 10
1131.679159
 20
676.530902
 30
0.0
 40
4.1
100
AcDbArc
 50
313.762744
 51
316.707533
  0
ARC
  5
2DC
330
220
100
AcDbEntity
  8
3_ALL_AXES
  6
Continuous
 62
     7
100
AcDbCircle
 10
1131.679159
 20
676.530902
 30
0.0
 40
4.1
100
AcDbArc
 50
307.888295
 51
313.762744
  0
ARC
  5
2DD
330
220
100
AcDbEntity
  8
3_ALL_AXES
  6
Continuous
 62
     7
100
AcDbCircle
 10
1131.679159
 20
676.530902
 30
0.0
 40
4.1
100
AcDbArc
 50
305.259694
 51
307.888295
  0
ARC
  5
2DE
330
220
100
AcDbEntity
  8
3_ALL_AXES
  6
Continuous
 62
     7
100
AcDbCircle
 10
1131.679159
 20
676.530902
 30
0.0
 40
4.1
100
AcDbArc
 50
296.863303
 51
305.259694
  0
LINE
  5
2DF
330
220
100
AcDbEntity
  8
3_ALL_AXES
  6
Continuous
 62
     7
100
AcDbLine
 10
1133.531799
 20
680.473345
 30
0.0
 11
1133.151799
 21
680.473345
 31
0.0
  0
LINE
  5
2E0
330
220
100
AcDbEntity
  8
3_ALL_AXES
  6
Continuous
 62
     7
100
AcDbLine
 10
1133.531799
 20
672.873345
 30
0.0
 11
1133.151799
 21
672.873345
 31
0.0
  0
LINE
  5
2E1
330
220
100
AcDbEntity
  8
3_ALL_AXES
  6
Continuous
 62
     7
100
AcDbLine
 10
1133.151799
 20
680.473345
 30
0.0
 11
1133.531799
 21
680.473345
 31
0.0
  0
LINE
  5
2E2
330
220
100
AcDbEntity
  8
3_ALL_AXES
  6
Continuous
 62
     7
100
AcDbLine
 10
1135.351799
 20
678.638345
 30
0.0
 11
1135.351799
 21
678.125497
 31
0.0
  0
LINE
  5
2E3
330
220
100
AcDbEntity
  8
3_ALL_AXES
  6
Continuous
 62
     7
100
AcDbLine
 10
1135.351799
 20
678.125497
 30
0.0
 11
1135.351799
 21
678.116721
 31
0.0
  0
LINE
  5
2E4
330
220
100
AcDbEntity
  8
3_ALL_AXES
  6
Continuous
 62
     7
100
AcDbLine
 10
1135.351799
 20
678.116721
 30
0.0
 11
1135.351799
 21
677.395033
 31
0.0
  0
LINE
  5
2E5
330
220
100
AcDbEntity
  8
3_ALL_AXES
  6
Continuous
 62
     7
100
AcDbLine
 10
1135.351799
 20
677.395033
 30
0.0
 11
1135.351799
 21
675.951657
 31
0.0
  0
LINE
  5
2E6
330
220
100
AcDbEntity
  8
3_ALL_AXES
  6
Continuous
 62
     7
100
AcDbLine
 10
1135.351799
 20
675.951657
 30
0.0
 11
1135.351799
 21
675.229969
 31
0.0
  0
LINE
  5
2E7
330
220
100
AcDbEntity
  8
3_ALL_AXES
  6
Continuous
 62
     7
100
AcDbLine
 10
1135.351799
 20
675.229969
 30
0.0
 11
1135.351799
 21
675.221192
 31
0.0
  0
LINE
  5
2E8
330
220
100
AcDbEntity
  8
3_ALL_AXES
  6
Continuous
 62
     7
100
AcDbLine
 10
1135.351799
 20
675.221192
 30
0.0
 11
1135.351799
 21
674.708345
 31
0.0
  0
ARC
  5
2E9
330
220
100
AcDbEntity
  8
3_ALL_AXES
  6
Continuous
 62
     7
100
AcDbCircle
 10
1131.679159
 20
676.815788
 30
0.0
 40
4.1
100
AcDbArc
 50
54.735982
 51
63.136697
  0
ARC
  5
2EA
330
220
100
AcDbEntity
  8
3_ALL_AXES
  6
Continuous
 62
     7
100
AcDbCircle
 10
1131.679159
 20
676.815788
 30
0.0
 40
4.1
100
AcDbArc
 50
52.115485
 51
54.735982
  0
ARC
  5
2EB
330
220
100
AcDbEntity
  8
3_ALL_AXES
  6
Continuous
 62
     7
100
AcDbCircle
 10
1131.679159
 20
676.815788
 30
0.0
 40
4.1
100
AcDbArc
 50
46.231961
 51
52.115485
  0
ARC
  5
2EC
330
220
100
AcDbEntity
  8
3_ALL_AXES
  6
Continuous
 62
     7
100
AcDbCircle
 10
1131.679159
 20
676.815788
 30
0.0
 40
4.1
100
AcDbArc
 50
43.297761
 51
46.231961
  0
ARC
  5
2ED
330
220
100
AcDbEntity
  8
3_ALL_AXES
  6
Continuous
 62
     7
100
AcDbCircle
 10
1131.679159
 20
676.815788
 30
0.0
 40
4.1
100
AcDbArc
 50
37.414237
 51
43.297761
  0
ARC
  5
2EE
330
220
100
AcDbEntity
  8
3_ALL_AXES
  6
Continuous
 62
     7
100
AcDbCircle
 10
1131.679159
 20
676.815788
 30
0.0
 40
4.1
100
AcDbArc
 50
34.793741
 51
37.414237
  0
ARC
  5
2EF
330
220
100
AcDbEntity
  8
3_ALL_AXES
  6
Continuous
 62
     7
100
AcDbCircle
 10
1131.679159
 20
676.815788
 30
0.0
 40
4.1
100
AcDbArc
 50
26.393026
 51
34.793741
  0
LINE
  5
2F0
330
220
100
AcDbEntity
  8
3_ALL_AXES
  6
Continuous
 62
     7
100
AcDbLine
 10
1133.531799
 20
680.473345
 30
0.0
 11
1133.531799
 21
672.873345
 31
0.0
  0
LINE
  5
2F1
330
220
100
AcDbEntity
  8
7_ALL_FEATURES
  6
Continuous
 62
     7
100
AcDbLine
 10
79.342977
 20
689.879553
 30
0.0
 11
81.851799
 21
689.923345
 31
0.0
  0
LINE
  5
2F2
330
220
100
AcDbEntity
  8
7_ALL_FEATURES
  6
Continuous
 62
     7
100
AcDbLine
 10
81.851799
 20
689.923345
 30
0.0
 11
81.851799
 21
689.623345
 31
0.0
  0
LINE
  5
2F3
330
220
100
AcDbEntity
  8
7_ALL_FEATURES
  6
Continuous
 62
     7
100
AcDbLine
 10
82.501799
 20
665.989694
 30
0.0
 11
82.251753
 21
665.980963
 31
0.0
  0
LINE
  5
2F4
330
220
100
AcDbEntity
  8
7_ALL_FEATURES
  6
Continuous
 62
     7
100
AcDbLine
 10
81.851799
 20
689.423345
 30
0.0
 11
82.251799
 21
689.409377
 31
0.0
  0
LINE
  5
2F5
330
220
100
AcDbEntity
  8
7_ALL_FEATURES
  6
Continuous
 62
     7
100
AcDbLine
 10
79.343073
 20
663.467135
 30
0.0
 11
81.851799
 21
663.423345
 31
0.0
  0
LINE
  5
2F6
330
220
100
AcDbEntity
  8
7_ALL_FEATURES
  6
Continuous
 62
     7
100
AcDbLine
 10
79.343073
 20
689.879555
 30
0.0
 11
81.851799
 21
689.923345
 31
0.0
  0
ARC
  5
2F7
330
220
100
AcDbEntity
  8
7_ALL_FEATURES
  6
Continuous
 62
     7
100
AcDbCircle
 10
79.351799
 20
689.379631
 30
0.0
 40
0.5
100
AcDbArc
 50
168.723365
 51
180.0
  0
ARC
  5
2F8
330
220
100
AcDbEntity
  8
7_ALL_FEATURES
  6
Continuous
 62
     7
100
AcDbCircle
 10
79.351799
 20
663.967059
 30
0.0
 40
0.5
100
AcDbArc
 50
180.0
 51
191.269686
  0
ARC
  5
2F9
330
220
100
AcDbEntity
  8
7_ALL_FEATURES
  6
Continuous
 62
     7
100
AcDbCircle
 10
79.351799
 20
663.967059
 30
0.0
 40
0.5
100
AcDbArc
 50
180.0
 51
269.002686
  0
ARC
  5
2FA
330
220
100
AcDbEntity
  8
7_ALL_FEATURES
  6
Continuous
 62
     7
100
AcDbCircle
 10
79.351799
 20
689.379631
 30
0.0
 40
0.5
100
AcDbArc
 50
91.011013
 51
180.0
  0
LINE
  5
2FB
330
220
100
AcDbEntity
  8
7_ALL_FEATURES
  6
Continuous
 62
     7
100
AcDbLine
 10
82.501799
 20
687.356995
 30
0.0
 11
82.251753
 21
687.365727
 31
0.0
  0
LINE
  5
2FC
330
220
100
AcDbEntity
  8
7_ALL_FEATURES
  6
Continuous
 62
     7
100
AcDbLine
 10
82.501799
 20
665.989694
 30
0.0
 11
82.251753
 21
665.980963
 31
0.0
  0
LINE
  5
2FD
330
220
100
AcDbEntity
  8
7_ALL_FEATURES
  6
Continuous
 62
     7
100
AcDbLine
 10
81.851799
 20
663.923345
 30
0.0
 11
82.251799
 21
663.937313
 31
0.0
  0
LINE
  5
2FE
330
220
100
AcDbEntity
  8
7_ALL_FEATURES
  6
Continuous
 62
     7
100
AcDbLine
 10
81.851799
 20
689.423345
 30
0.0
 11
82.251799
 21
689.409377
 31
0.0
  0
LINE
  5
2FF
330
220
100
AcDbEntity
  8
7_ALL_FEATURES
  6
Continuous
 62
     7
100
AcDbLine
 10
78.851799
 20
663.967059
 30
0.0
 11
78.851799
 21
665.274203
 31
0.0
  0
LINE
  5
300
330
220
100
AcDbEntity
  8
7_ALL_FEATURES
  6
Continuous
 62
     7
100
AcDbLine
 10
78.851799
 20
665.274203
 30
0.0
 11
78.851799
 21
672.072569
 31
0.0
  0
LINE
  5
301
330
220
100
AcDbEntity
  8
7_ALL_FEATURES
  6
Continuous
 62
     7
100
AcDbLine
 10
78.851799
 20
672.072569
 30
0.0
 11
78.851799
 21
689.379631
 31
0.0
  0
LINE
  5
302
330
220
100
AcDbEntity
  8
7_ALL_FEATURES
  6
Continuous
 62
     7
100
AcDbLine
 10
82.251799
 20
665.277231
 30
0.0
 11
82.251799
 21
665.423345
 31
0.0
  0
LINE
  5
303
330
220
100
AcDbEntity
  8
7_ALL_FEATURES
  6
Continuous
 62
     7
100
AcDbLine
 10
82.251799
 20
665.423345
 30
0.0
 11
82.251799
 21
687.923345
 31
0.0
  0
LINE
  5
304
330
220
100
AcDbEntity
  8
7_ALL_FEATURES
  6
Continuous
 62
     7
100
AcDbLine
 10
82.251799
 20
687.923345
 30
0.0
 11
82.251799
 21
688.069459
 31
0.0
  0
LINE
  5
305
330
220
100
AcDbEntity
  8
7_ALL_FEATURES
  6
Continuous
 62
     7
100
AcDbLine
 10
81.851799
 20
663.723345
 30
0.0
 11
81.851799
 21
663.423345
 31
0.0
  0
LINE
  5
306
330
220
100
AcDbEntity
  8
7_ALL_FEATURES
  6
Continuous
 62
     7
100
AcDbLine
 10
81.851799
 20
663.723345
 30
0.0
 11
81.851799
 21
663.923345
 31
0.0
  0
LINE
  5
307
330
220
100
AcDbEntity
  8
7_ALL_FEATURES
  6
Continuous
 62
     7
100
AcDbLine
 10
81.851799
 20
663.923345
 30
0.0
 11
81.851799
 21
664.91018
 31
0.0
  0
LINE
  5
308
330
220
100
AcDbEntity
  8
7_ALL_FEATURES
  6
Continuous
 62
     7
100
AcDbLine
 10
81.851799
 20
664.91018
 30
0.0
 11
81.851799
 21
670.229168
 31
0.0
  0
LINE
  5
309
330
220
100
AcDbEntity
  8
7_ALL_FEATURES
  6
Continuous
 62
     7
100
AcDbLine
 10
81.851799
 20
670.229168
 30
0.0
 11
81.851799
 21
671.117521
 31
0.0
  0
LINE
  5
30A
330
220
100
AcDbEntity
  8
7_ALL_FEATURES
  6
Continuous
 62
     7
100
AcDbLine
 10
81.851799
 20
671.117521
 30
0.0
 11
81.851799
 21
682.229168
 31
0.0
  0
LINE
  5
30B
330
220
100
AcDbEntity
  8
7_ALL_FEATURES
  6
Continuous
 62
     7
100
AcDbLine
 10
81.851799
 20
682.229168
 30
0.0
 11
81.851799
 21
683.117521
 31
0.0
  0
LINE
  5
30C
330
220
100
AcDbEntity
  8
7_ALL_FEATURES
  6
Continuous
 62
     7
100
AcDbLine
 10
81.851799
 20
683.117521
 30
0.0
 11
81.851799
 21
688.43651
 31
0.0
  0
LINE
  5
30D
330
220
100
AcDbEntity
  8
7_ALL_FEATURES
  6
Continuous
 62
     7
100
AcDbLine
 10
81.851799
 20
688.43651
 30
0.0
 11
81.851799
 21
689.423345
 31
0.0
  0
LINE
  5
30E
330
220
100
AcDbEntity
  8
7_ALL_FEATURES
  6
Continuous
 62
     7
100
AcDbLine
 10
81.851799
 20
689.423345
 30
0.0
 11
81.851799
 21
689.623345
 31
0.0
  0
LINE
  5
30F
330
220
100
AcDbEntity
  8
7_ALL_FEATURES
  6
Continuous
 62
     9
100
AcDbLine
 10
79.343096
 20
663.467134
 30
0.0
 11
79.342977
 21
663.723345
 31
0.0
  0
LINE
  5
310
330
220
100
AcDbEntity
  8
7_ALL_FEATURES
  6
Continuous
 62
     9
100
AcDbLine
 10
79.343073
 20
663.723345
 30
0.0
 11
79.343073
 21
689.623345
 31
0.0
  0
LINE
  5
311
330
220
100
AcDbEntity
  8
7_ALL_FEATURES
  6
Continuous
 62
     9
100
AcDbLine
 10
79.343073
 20
689.623345
 30
0.0
 11
81.851799
 21
689.623345
 31
0.0
  0
LINE
  5
312
330
220
100
AcDbEntity
  8
7_ALL_FEATURES
  6
Continuous
 62
     9
100
AcDbLine
 10
79.343073
 20
663.723345
 30
0.0
 11
81.851799
 21
663.723345
 31
0.0
  0
LINE
  5
313
330
220
100
AcDbEntity
  8
7_ALL_FEATURES
  6
Continuous
 62
     9
100
AcDbLine
 10
79.343096
 20
689.623345
 30
0.0
 11
79.342977
 21
689.879553
 31
0.0
  0
SPLINE
  5
314
330
220
100
AcDbEntity
  8
7_ALL_FEATURES
  6
Continuous
 62
     9
100
AcDbSpline
 70
     0
 71
     3
 72
    13
 73
     9
 74
     0
 42
0.000000001
 43
0.0000001
 40
0.0
 40
0.0
 40
0.0
 40
0.0
 40
0.1713476579
 40
0.3350960535
 40
0.5544574145
 40
0.7343252617
 40
0.8772459992
 40
1.0
 40
1.0
 40
1.0
 40
1.0
 10
79.3429768975
 20
663.723344935
 30
0.0
 10
79.3090124658
 20
663.7233528593
 30
0.0
 10
79.242529956
 20
663.726443477
 30
0.0
 10
79.1336582311
 20
663.7424643952
 30
0.0
 10
79.0257176021
 20
663.7732916731
 30
0.0
 10
78.9299765889
 20
663.8242767334
 30
0.0
 10
78.8667680429
 20
663.889318534
 30
0.0
 10
78.8518128508
 20
663.9427265139
 30
0.0
 10
78.8517991905
 20
663.9670587364
 30
0.0
  0
SPLINE
  5
315
330
220
100
AcDbEntity
  8
7_ALL_FEATURES
  6
Continuous
 62
     9
100
AcDbSpline
 70
     0
 71
     3
 72
    12
 73
     8
 74
     0
 42
0.000000001
 43
0.0000001
 40
0.0
 40
0.0
 40
0.0
 40
0.0
 40
0.0814380156
 40
0.1681159928
 40
0.3223313989
 40
0.5158844834
 40
1.0
 40
1.0
 40
1.0
 40
1.0
 10
78.8517991905
 20
689.3796310837
 30
0.0
 10
78.8518082483
 20
689.3957652156
 30
0.0
 10
78.8576484765
 20
689.4293801964
 30
0.0
 10
78.8901826161
 20
689.4855603381
 30
0.0
 10
78.9584849163
 20
689.5411011086
 30
0.0
 10
79.1106016577
 20
689.6070428912
 30
0.0
 10
79.2471856318
 20
689.6233388673
 30
0.0
 10
79.3430964266
 20
689.6233449121
 30
0.0
  0
LINE
  5
316
330
220
100
AcDbEntity
  8
7_ALL_FEATURES
  6
Continuous
 62
     9
100
AcDbLine
 10
82.501799
 20
685.173345
 30
0.0
 11
82.251799
 21
685.173345
 31
0.0
  0
LINE
  5
317
330
220
100
AcDbEntity
  8
7_ALL_FEATURES
  6
Continuous
 62
     9
100
AcDbLine
 10
82.501799
 20
668.173345
 30
0.0
 11
82.251799
 21
668.173345
 31
0.0
  0
LINE
  5
318
330
220
100
AcDbEntity
  8
7_ALL_FEATURES
  6
Continuous
 62
     9
100
AcDbLine
 10
81.851799
 20
664.923345
 30
0.0
 11
82.251799
 21
664.923345
 31
0.0
  0
LINE
  5
319
330
220
100
AcDbEntity
  8
7_ALL_FEATURES
  6
Continuous
 62
     9
100
AcDbLine
 10
81.851799
 20
688.423345
 30
0.0
 11
82.251799
 21
688.423345
 31
0.0
  0
LINE
  5
31A
330
220
100
AcDbEntity
  8
7_ALL_FEATURES
  6
Continuous
 62
     7
100
AcDbLine
 10
1128.660621
 20
663.467137
 30
0.0
 11
1126.151799
 21
663.423345
 31
0.0
  0
LINE
  5
31B
330
220
100
AcDbEntity
  8
7_ALL_FEATURES
  6
Continuous
 62
     7
100
AcDbLine
 10
1126.151799
 20
663.423345
 30
0.0
 11
1126.151799
 21
663.723345
 31
0.0
  0
LINE
  5
31C
330
220
100
AcDbEntity
  8
7_ALL_FEATURES
  6
Continuous
 62
     7
100
AcDbLine
 10
1125.501799
 20
687.356995
 30
0.0
 11
1125.751845
 21
687.365727
 31
0.0
  0
LINE
  5
31D
330
220
100
AcDbEntity
  8
7_ALL_FEATURES
  6
Continuous
 62
     7
100
AcDbLine
 10
1126.151799
 20
663.923345
 30
0.0
 11
1125.751799
 21
663.937313
 31
0.0
  0
LINE
  5
31E
330
220
100
AcDbEntity
  8
7_ALL_FEATURES
  6
Continuous
 62
     7
100
AcDbLine
 10
1128.660525
 20
689.879555
 30
0.0
 11
1126.151799
 21
689.923345
 31
0.0
  0
LINE
  5
31F
330
220
100
AcDbEntity
  8
7_ALL_FEATURES
  6
Continuous
 62
     7
100
AcDbLine
 10
1128.660525
 20
663.467135
 30
0.0
 11
1126.151799
 21
663.423345
 31
0.0
  0
ARC
  5
320
330
220
100
AcDbEntity
  8
7_ALL_FEATURES
  6
Continuous
 62
     7
100
AcDbCircle
 10
1128.651799
 20
663.967059
 30
0.0
 40
0.5
100
AcDbArc
 50
348.723365
 51
360.0
  0
ARC
  5
321
330
220
100
AcDbEntity
  8
7_ALL_FEATURES
  6
Continuous
 62
     7
100
AcDbCircle
 10
1128.651799
 20
689.379631
 30
0.0
 40
0.5
100
AcDbArc
 50
0.0
 51
11.269686
  0
ARC
  5
322
330
220
100
AcDbEntity
  8
7_ALL_FEATURES
  6
Continuous
 62
     7
100
AcDbCircle
 10
1128.651799
 20
689.379631
 30
0.0
 40
0.5
100
AcDbArc
 50
0.0
 51
89.002686
  0
ARC
  5
323
330
220
100
AcDbEntity
  8
7_ALL_FEATURES
  6
Continuous
 62
     7
100
AcDbCircle
 10
1128.651799
 20
663.967059
 30
0.0
 40
0.5
100
AcDbArc
 50
271.011013
 51
360.0
  0
LINE
  5
324
330
220
100
AcDbEntity
  8
7_ALL_FEATURES
  6
Continuous
 62
     7
100
AcDbLine
 10
1125.501799
 20
665.989694
 30
0.0
 11
1125.751845
 21
665.980963
 31
0.0
  0
LINE
  5
325
330
220
100
AcDbEntity
  8
7_ALL_FEATURES
  6
Continuous
 62
     7
100
AcDbLine
 10
1125.501799
 20
687.356995
 30
0.0
 11
1125.751845
 21
687.365727
 31
0.0
  0
LINE
  5
326
330
220
100
AcDbEntity
  8
7_ALL_FEATURES
  6
Continuous
 62
     7
100
AcDbLine
 10
1126.151799
 20
689.423345
 30
0.0
 11
1125.751799
 21
689.409377
 31
0.0
  0
LINE
  5
327
330
220
100
AcDbEntity
  8
7_ALL_FEATURES
  6
Continuous
 62
     7
100
AcDbLine
 10
1126.151799
 20
663.923345
 30
0.0
 11
1125.751799
 21
663.937313
 31
0.0
  0
LINE
  5
328
330
220
100
AcDbEntity
  8
7_ALL_FEATURES
  6
Continuous
 62
     7
100
AcDbLine
 10
1129.151799
 20
689.379631
 30
0.0
 11
1129.151799
 21
688.072487
 31
0.0
  0
LINE
  5
329
330
220
100
AcDbEntity
  8
7_ALL_FEATURES
  6
Continuous
 62
     7
100
AcDbLine
 10
1129.151799
 20
688.072487
 30
0.0
 11
1129.151799
 21
681.274121
 31
0.0
  0
LINE
  5
32A
330
220
100
AcDbEntity
  8
7_ALL_FEATURES
  6
Continuous
 62
     7
100
AcDbLine
 10
1129.151799
 20
681.274121
 30
0.0
 11
1129.151799
 21
663.967059
 31
0.0
  0
LINE
  5
32B
330
220
100
AcDbEntity
  8
7_ALL_FEATURES
  6
Continuous
 62
     7
100
AcDbLine
 10
1125.751799
 20
688.069459
 30
0.0
 11
1125.751799
 21
687.923345
 31
0.0
  0
LINE
  5
32C
330
220
100
AcDbEntity
  8
7_ALL_FEATURES
  6
Continuous
 62
     7
100
AcDbLine
 10
1125.751799
 20
687.923345
 30
0.0
 11
1125.751799
 21
665.423345
 31
0.0
  0
LINE
  5
32D
330
220
100
AcDbEntity
  8
7_ALL_FEATURES
  6
Continuous
 62
     7
100
AcDbLine
 10
1125.751799
 20
665.423345
 30
0.0
 11
1125.751799
 21
665.277231
 31
0.0
  0
LINE
  5
32E
330
220
100
AcDbEntity
  8
7_ALL_FEATURES
  6
Continuous
 62
     7
100
AcDbLine
 10
1126.151799
 20
689.623345
 30
0.0
 11
1126.151799
 21
689.923345
 31
0.0
  0
LINE
  5
32F
330
220
100
AcDbEntity
  8
7_ALL_FEATURES
  6
Continuous
 62
     7
100
AcDbLine
 10
1126.151799
 20
689.623345
 30
0.0
 11
1126.151799
 21
689.423345
 31
0.0
  0
LINE
  5
330
330
220
100
AcDbEntity
  8
7_ALL_FEATURES
  6
Continuous
 62
     7
100
AcDbLine
 10
1126.151799
 20
689.423345
 30
0.0
 11
1126.151799
 21
688.43651
 31
0.0
  0
LINE
  5
331
330
220
100
AcDbEntity
  8
7_ALL_FEATURES
  6
Continuous
 62
     7
100
AcDbLine
 10
1126.151799
 20
688.43651
 30
0.0
 11
1126.151799
 21
683.117521
 31
0.0
  0
LINE
  5
332
330
220
100
AcDbEntity
  8
7_ALL_FEATURES
  6
Continuous
 62
     7
100
AcDbLine
 10
1126.151799
 20
683.117521
 30
0.0
 11
1126.151799
 21
682.229168
 31
0.0
  0
LINE
  5
333
330
220
100
AcDbEntity
  8
7_ALL_FEATURES
  6
Continuous
 62
     7
100
AcDbLine
 10
1126.151799
 20
682.229168
 30
0.0
 11
1126.151799
 21
671.117521
 31
0.0
  0
LINE
  5
334
330
220
100
AcDbEntity
  8
7_ALL_FEATURES
  6
Continuous
 62
     7
100
AcDbLine
 10
1126.151799
 20
671.117521
 30
0.0
 11
1126.151799
 21
670.229168
 31
0.0
  0
LINE
  5
335
330
220
100
AcDbEntity
  8
7_ALL_FEATURES
  6
Continuous
 62
     7
100
AcDbLine
 10
1126.151799
 20
670.229168
 30
0.0
 11
1126.151799
 21
664.91018
 31
0.0
  0
LINE
  5
336
330
220
100
AcDbEntity
  8
7_ALL_FEATURES
  6
Continuous
 62
     7
100
AcDbLine
 10
1126.151799
 20
664.91018
 30
0.0
 11
1126.151799
 21
663.923345
 31
0.0
  0
LINE
  5
337
330
220
100
AcDbEntity
  8
7_ALL_FEATURES
  6
Continuous
 62
     7
100
AcDbLine
 10
1126.151799
 20
663.923345
 30
0.0
 11
1126.151799
 21
663.723345
 31
0.0
  0
LINE
  5
338
330
220
100
AcDbEntity
  8
7_ALL_FEATURES
  6
Continuous
 62
     9
100
AcDbLine
 10
1128.660502
 20
689.879555
 30
0.0
 11
1128.660621
 21
689.623345
 31
0.0
  0
LINE
  5
339
330
220
100
AcDbEntity
  8
7_ALL_FEATURES
  6
Continuous
 62
     9
100
AcDbLine
 10
1128.660525
 20
689.623345
 30
0.0
 11
1128.660525
 21
663.723345
 31
0.0
  0
LINE
  5
33A
330
220
100
AcDbEntity
  8
7_ALL_FEATURES
  6
Continuous
 62
     9
100
AcDbLine
 10
1128.660525
 20
663.723345
 30
0.0
 11
1126.151799
 21
663.723345
 31
0.0
  0
LINE
  5
33B
330
220
100
AcDbEntity
  8
7_ALL_FEATURES
  6
Continuous
 62
     9
100
AcDbLine
 10
1128.660525
 20
689.623345
 30
0.0
 11
1126.151799
 21
689.623345
 31
0.0
  0
LINE
  5
33C
330
220
100
AcDbEntity
  8
7_ALL_FEATURES
  6
Continuous
 62
     9
100
AcDbLine
 10
1128.660502
 20
663.723345
 30
0.0
 11
1128.660621
 21
663.467137
 31
0.0
  0
SPLINE
  5
33D
330
220
100
AcDbEntity
  8
7_ALL_FEATURES
  6
Continuous
 62
     9
100
AcDbSpline
 70
     0
 71
     3
 72
    13
 73
     9
 74
     0
 42
0.000000001
 43
0.0000001
 40
0.0
 40
0.0
 40
0.0
 40
0.0
 40
0.1713476579
 40
0.3350960535
 40
0.5544574145
 40
0.7343252617
 40
0.8772459992
 40
1.0
 40
1.0
 40
1.0
 40
1.0
 10
1128.6606214835
 20
689.623344885
 30
0.0
 10
1128.6945859151
 20
689.6233369607
 30
0.0
 10
1128.761068425
 20
689.620246343
 30
0.0
 10
1128.8699401498
 20
689.6042254248
 30
0.0
 10
1128.9778807789
 20
689.5733981469
 30
0.0
 10
1129.0736217921
 20
689.5224130866
 30
0.0
 10
1129.136830338
 20
689.4573712861
 30
0.0
 10
1129.1517855301
 20
689.4039633061
 30
0.0
 10
1129.1517991905
 20
689.3796310837
 30
0.0
  0
SPLINE
  5
33E
330
220
100
AcDbEntity
  8
7_ALL_FEATURES
  6
Continuous
 62
     9
100
AcDbSpline
 70
     0
 71
     3
 72
    12
 73
     8
 74
     0
 42
0.000000001
 43
0.0000001
 40
0.0
 40
0.0
 40
0.0
 40
0.0
 40
0.0814380156
 40
0.1681159928
 40
0.3223313989
 40
0.5158844834
 40
1.0
 40
1.0
 40
1.0
 40
1.0
 10
1129.1517991905
 20
663.9670587364
 30
0.0
 10
1129.1517901326
 20
663.9509246045
 30
0.0
 10
1129.1459499044
 20
663.9173096237
 30
0.0
 10
1129.1134157648
 20
663.8611294819
 30
0.0
 10
1129.0451134646
 20
663.8055887114
 30
0.0
 10
1128.8929967232
 20
663.7396469289
 30
0.0
 10
1128.7564127491
 20
663.7233509527
 30
0.0
 10
1128.6605019543
 20
663.723344908
 30
0.0
  0
LINE
  5
33F
330
220
100
AcDbEntity
  8
7_ALL_FEATURES
  6
Continuous
 62
     9
100
AcDbLine
 10
1125.501799
 20
668.173345
 30
0.0
 11
1125.751799
 21
668.173345
 31
0.0
  0
LINE
  5
340
330
220
100
AcDbEntity
  8
7_ALL_FEATURES
  6
Continuous
 62
     9
100
AcDbLine
 10
1125.501799
 20
685.173345
 30
0.0
 11
1125.751799
 21
685.173345
 31
0.0
  0
LINE
  5
341
330
220
100
AcDbEntity
  8
7_ALL_FEATURES
  6
Continuous
 62
     9
100
AcDbLine
 10
1126.151799
 20
688.423345
 30
0.0
 11
1125.751799
 21
688.423345
 31
0.0
  0
LINE
  5
342
330
220
100
AcDbEntity
  8
7_ALL_FEATURES
  6
Continuous
 62
     9
100
AcDbLine
 10
1126.151799
 20
664.923345
 30
0.0
 11
1125.751799
 21
664.923345
 31
0.0
  0
LINE
  5
343
330
220
100
AcDbEntity
  8
0
  6
Continuous
 62
     7
100
AcDbLine
 10
77.851799
 20
706.673345
 30
0.0
 11
77.851799
 21
686.673345
 31
0.0
  0
LINE
  5
344
330
220
100
AcDbEntity
  8
0
  6
Continuous
 62
     7
100
AcDbLine
 10
77.851799
 20
686.673345
 30
0.0
 11
77.851799
 21
680.673345
 31
0.0
  0
LINE
  5
345
330
220
100
AcDbEntity
  8
0
  6
Continuous
 62
     7
100
AcDbLine
 10
77.851799
 20
680.673345
 30
0.0
 11
77.851799
 21
679.744498
 31
0.0
  0
LINE
  5
346
330
220
100
AcDbEntity
  8
0
  6
Continuous
 62
     7
100
AcDbLine
 10
75.851799
 20
706.673345
 30
0.0
 11
77.851799
 21
706.673345
 31
0.0
  0
LINE
  5
347
330
220
100
AcDbEntity
  8
0
  6
Continuous
 62
     7
100
AcDbLine
 10
75.851799
 20
666.673345
 30
0.0
 11
77.851799
 21
666.673345
 31
0.0
  0
ARC
  5
348
330
220
100
AcDbEntity
  8
0
  6
Continuous
 62
     7
100
AcDbCircle
 10
89.851799
 20
696.673345
 30
0.0
 40
2.5
100
AcDbArc
 50
270.0
 51
90.0
  0
LINE
  5
349
330
220
100
AcDbEntity
  8
0
  6
Continuous
 62
     7
100
AcDbLine
 10
84.851799
 20
694.173345
 30
0.0
 11
89.851799
 21
694.173345
 31
0.0
  0
ARC
  5
34A
330
220
100
AcDbEntity
  8
0
  6
Continuous
 62
     7
100
AcDbCircle
 10
84.851799
 20
696.673345
 30
0.0
 40
2.5
100
AcDbArc
 50
90.0
 51
270.0
  0
LINE
  5
34B
330
220
100
AcDbEntity
  8
0
  6
Continuous
 62
     7
100
AcDbLine
 10
89.851799
 20
699.173345
 30
0.0
 11
84.851799
 21
699.173345
 31
0.0
  0
LINE
  5
34C
330
220
100
AcDbEntity
  8
0
  6
Continuous
 62
     7
100
AcDbLine
 10
94.351799
 20
706.673345
 30
0.0
 11
79.851799
 21
706.673345
 31
0.0
  0
LINE
  5
34D
330
220
100
AcDbEntity
  8
0
  6
Continuous
 62
     7
100
AcDbLine
 10
77.851799
 20
679.261535
 30
0.0
 11
77.851799
 21
678.923345
 31
0.0
  0
LINE
  5
34E
330
220
100
AcDbEntity
  8
0
  6
Continuous
 62
     7
100
AcDbLine
 10
77.851799
 20
678.923345
 30
0.0
 11
77.851799
 21
678.823345
 31
0.0
  0
LINE
  5
34F
330
220
100
AcDbEntity
  8
0
  6
Continuous
 62
     7
100
AcDbLine
 10
77.851799
 20
678.823345
 30
0.0
 11
77.851799
 21
674.523345
 31
0.0
  0
LINE
  5
350
330
220
100
AcDbEntity
  8
0
  6
Continuous
 62
     7
100
AcDbLine
 10
77.851799
 20
674.523345
 30
0.0
 11
77.851799
 21
674.423345
 31
0.0
  0
LINE
  5
351
330
220
100
AcDbEntity
  8
0
  6
Continuous
 62
     7
100
AcDbLine
 10
77.851799
 20
674.423345
 30
0.0
 11
77.851799
 21
672.673345
 31
0.0
  0
LINE
  5
352
330
220
100
AcDbEntity
  8
0
  6
Continuous
 62
     7
100
AcDbLine
 10
77.851799
 20
672.673345
 30
0.0
 11
77.851799
 21
666.673562
 31
0.0
  0
LINE
  5
353
330
220
100
AcDbEntity
  8
0
  6
Continuous
 62
     7
100
AcDbLine
 10
77.851799
 20
679.744498
 30
0.0
 11
77.851799
 21
679.261535
 31
0.0
  0
LINE
  5
354
330
220
100
AcDbEntity
  8
0
  6
Continuous
 62
     7
100
AcDbLine
 10
95.851799
 20
689.873345
 30
0.0
 11
95.851799
 21
705.173345
 31
0.0
  0
ARC
  5
355
330
220
100
AcDbEntity
  8
0
  6
Continuous
 62
     7
100
AcDbCircle
 10
94.351799
 20
705.173345
 30
0.0
 40
1.5
100
AcDbArc
 50
0.0
 51
90.0
  0
LINE
  5
356
330
220
100
AcDbEntity
  8
7_ALL_FEATURES
  6
Continuous
 62
     7
100
AcDbLine
 10
79.851799
 20
706.673345
 30
0.0
 11
77.851799
 21
706.673345
 31
0.0
  0
LINE
  5
357
330
220
100
AcDbEntity
  8
0
  6
Continuous
 62
     7
100
AcDbLine
 10
75.851799
 20
706.673345
 30
0.0
 11
77.851799
 21
706.673345
 31
0.0
  0
LINE
  5
358
330
220
100
AcDbEntity
  8
7_ALL_FEATURES
  6
Continuous
 62
     7
100
AcDbLine
 10
78.851799
 20
686.673345
 30
0.0
 11
77.851799
 21
686.673345
 31
0.0
  0
LINE
  5
359
330
220
100
AcDbEntity
  8
7_ALL_FEATURES
  6
Continuous
 62
     9
100
AcDbLine
 10
79.851799
 20
706.673345
 30
0.0
 11
79.851799
 21
689.888435
 31
0.0
  0
LINE
  5
35A
330
220
100
AcDbEntity
  8
0
  6
Continuous
 62
     9
100
AcDbLine
 10
75.851799
 20
679.261535
 30
0.0
 11
77.851799
 21
679.261535
 31
0.0
  0
LINE
  5
35B
330
220
100
AcDbEntity
  8
0
  6
Continuous
 62
     9
100
AcDbLine
 10
75.851799
 20
679.744498
 30
0.0
 11
77.851799
 21
679.744498
 31
0.0
  0
LINE
  5
35C
330
220
100
AcDbEntity
  8
7_ALL_FEATURES
  6
Continuous
 62
     7
100
AcDbLine
 10
1130.151799
 20
706.673345
 30
0.0
 11
1132.151799
 21
706.673345
 31
0.0
  0
LINE
  5
35D
330
220
100
AcDbEntity
  8
7_ALL_FEATURES
  6
Continuous
 62
     7
100
AcDbLine
 10
1130.151799
 20
666.673345
 30
0.0
 11
1132.151799
 21
666.673345
 31
0.0
  0
LINE
  5
35E
330
220
100
AcDbEntity
  8
7_ALL_FEATURES
  6
Continuous
 62
     7
100
AcDbLine
 10
1129.151799
 20
686.673345
 30
0.0
 11
1130.151799
 21
686.673345
 31
0.0
  0
LINE
  5
35F
330
220
100
AcDbEntity
  8
7_ALL_FEATURES
  6
Continuous
 62
     7
100
AcDbLine
 10
1128.151799
 20
706.673345
 30
0.0
 11
1130.151799
 21
706.673345
 31
0.0
  0
LINE
  5
360
330
220
100
AcDbEntity
  8
7_ALL_FEATURES
  6
Continuous
 62
     7
100
AcDbLine
 10
1130.151799
 20
706.673345
 30
0.0
 11
1130.151799
 21
686.673345
 31
0.0
  0
LINE
  5
361
330
220
100
AcDbEntity
  8
7_ALL_FEATURES
  6
Continuous
 62
     7
100
AcDbLine
 10
1130.151799
 20
686.673345
 30
0.0
 11
1130.151799
 21
680.673345
 31
0.0
  0
LINE
  5
362
330
220
100
AcDbEntity
  8
7_ALL_FEATURES
  6
Continuous
 62
     7
100
AcDbLine
 10
1130.151799
 20
680.673345
 30
0.0
 11
1130.151799
 21
679.744498
 31
0.0
  0
LINE
  5
363
330
220
100
AcDbEntity
  8
7_ALL_FEATURES
  6
Continuous
 62
     7
100
AcDbLine
 10
1130.151799
 20
679.744498
 30
0.0
 11
1130.151799
 21
679.261535
 31
0.0
  0
LINE
  5
364
330
220
100
AcDbEntity
  8
7_ALL_FEATURES
  6
Continuous
 62
     7
100
AcDbLine
 10
1130.151799
 20
679.261535
 30
0.0
 11
1130.151799
 21
678.923345
 31
0.0
  0
LINE
  5
365
330
220
100
AcDbEntity
  8
7_ALL_FEATURES
  6
Continuous
 62
     7
100
AcDbLine
 10
1130.151799
 20
678.923345
 30
0.0
 11
1130.151799
 21
678.823345
 31
0.0
  0
LINE
  5
366
330
220
100
AcDbEntity
  8
7_ALL_FEATURES
  6
Continuous
 62
     7
100
AcDbLine
 10
1130.151799
 20
678.823345
 30
0.0
 11
1130.151799
 21
674.523345
 31
0.0
  0
LINE
  5
367
330
220
100
AcDbEntity
  8
7_ALL_FEATURES
  6
Continuous
 62
     7
100
AcDbLine
 10
1130.151799
 20
674.523345
 30
0.0
 11
1130.151799
 21
674.423345
 31
0.0
  0
LINE
  5
368
330
220
100
AcDbEntity
  8
7_ALL_FEATURES
  6
Continuous
 62
     7
100
AcDbLine
 10
1130.151799
 20
674.423345
 30
0.0
 11
1130.151799
 21
672.673345
 31
0.0
  0
LINE
  5
369
330
220
100
AcDbEntity
  8
7_ALL_FEATURES
  6
Continuous
 62
     7
100
AcDbLine
 10
1130.151799
 20
672.673345
 30
0.0
 11
1130.151799
 21
666.673562
 31
0.0
  0
LINE
  5
36A
330
220
100
AcDbEntity
  8
7_ALL_FEATURES
  6
Continuous
 62
     7
100
AcDbLine
 10
1112.151799
 20
689.873345
 30
0.0
 11
1112.151799
 21
705.173345
 31
0.0
  0
LINE
  5
36B
330
220
100
AcDbEntity
  8
7_ALL_FEATURES
  6
Continuous
 62
     7
100
AcDbLine
 10
1113.651799
 20
706.673345
 30
0.0
 11
1128.151799
 21
706.673345
 31
0.0
  0
LINE
  5
36C
330
220
100
AcDbEntity
  8
7_ALL_FEATURES
  6
Continuous
 62
     7
100
AcDbLine
 10
1132.151799
 20
706.673345
 30
0.0
 11
1130.151799
 21
706.673345
 31
0.0
  0
ARC
  5
36D
330
220
100
AcDbEntity
  8
7_ALL_FEATURES
  6
Continuous
 62
     7
100
AcDbCircle
 10
1113.651799
 20
705.173345
 30
0.0
 40
1.5
100
AcDbArc
 50
90.0
 51
180.0
  0
ARC
  5
36E
330
220
100
AcDbEntity
  8
02___PRT_ALL_AXES
  6
Continuous
 62
     7
100
AcDbCircle
 10
1123.151799
 20
696.673345
 30
0.0
 40
2.5
100
AcDbArc
 50
270.0
 51
90.0
  0
LINE
  5
36F
330
220
100
AcDbEntity
  8
02___PRT_ALL_AXES
  6
Continuous
 62
     7
100
AcDbLine
 10
1123.151799
 20
694.173345
 30
0.0
 11
1118.151799
 21
694.173345
 31
0.0
  0
ARC
  5
370
330
220
100
AcDbEntity
  8
02___PRT_ALL_AXES
  6
Continuous
 62
     7
100
AcDbCircle
 10
1118.151799
 20
696.673345
 30
0.0
 40
2.5
100
AcDbArc
 50
90.0
 51
270.0
  0
LINE
  5
371
330
220
100
AcDbEntity
  8
02___PRT_ALL_AXES
  6
Continuous
 62
     7
100
AcDbLine
 10
1118.151799
 20
699.173345
 30
0.0
 11
1123.151799
 21
699.173345
 31
0.0
  0
LINE
  5
372
330
220
100
AcDbEntity
  8
7_ALL_FEATURES
  6
Continuous
 62
     9
100
AcDbLine
 10
1128.151799
 20
706.673345
 30
0.0
 11
1128.151799
 21
689.888435
 31
0.0
  0
LINE
  5
373
330
220
100
AcDbEntity
  8
7_ALL_FEATURES
  6
Continuous
 62
     9
100
AcDbLine
 10
1132.151799
 20
679.261535
 30
0.0
 11
1130.151799
 21
679.261535
 31
0.0
  0
LINE
  5
374
330
220
100
AcDbEntity
  8
7_ALL_FEATURES
  6
Continuous
 62
     9
100
AcDbLine
 10
1132.151799
 20
679.744498
 30
0.0
 11
1130.151799
 21
679.744498
 31
0.0
  0
LINE
  5
375
330
220
100
AcDbEntity
  8
7_ALL_FEATURES
  6
Continuous
 62
     7
100
AcDbLine
 10
82.501799
 20
688.173345
 30
0.0
 11
82.501799
 21
687.016484
 31
0.0
  0
LINE
  5
376
330
220
100
AcDbEntity
  8
7_ALL_FEATURES
  6
Continuous
 62
     7
100
AcDbLine
 10
82.501799
 20
687.016484
 30
0.0
 11
82.501799
 21
666.342038
 31
0.0
  0
LINE
  5
377
330
220
100
AcDbEntity
  8
7_ALL_FEATURES
  6
Continuous
 62
     7
100
AcDbLine
 10
82.501799
 20
666.342038
 30
0.0
 11
82.501799
 21
665.173345
 31
0.0
  0
LINE
  5
378
330
220
100
AcDbEntity
  8
7_ALL_FEATURES
  6
Continuous
 62
     7
100
AcDbLine
 10
82.501799
 20
665.173345
 30
0.0
 11
82.501799
 21
665.080095
 31
0.0
  0
LINE
  5
379
330
220
100
AcDbEntity
  8
7_ALL_FEATURES
  6
Continuous
 62
     7
100
AcDbLine
 10
82.501799
 20
665.080095
 30
0.0
 11
82.501799
 21
665.006511
 31
0.0
  0
LINE
  5
37A
330
220
100
AcDbEntity
  8
7_ALL_FEATURES
  6
Continuous
 62
     7
100
AcDbLine
 10
1125.501799
 20
665.173345
 30
0.0
 11
1096.001799
 21
665.173345
 31
0.0
  0
LINE
  5
37B
330
220
100
AcDbEntity
  8
7_ALL_FEATURES
  6
Continuous
 62
     7
100
AcDbLine
 10
1096.001799
 20
688.173345
 30
0.0
 11
1096.001799
 21
687.016484
 31
0.0
  0
LINE
  5
37C
330
220
100
AcDbEntity
  8
7_ALL_FEATURES
  6
Continuous
 62
     7
100
AcDbLine
 10
1096.001799
 20
687.016484
 30
0.0
 11
1096.001799
 21
666.342038
 31
0.0
  0
LINE
  5
37D
330
220
100
AcDbEntity
  8
7_ALL_FEATURES
  6
Continuous
 62
     7
100
AcDbLine
 10
1096.001799
 20
666.342038
 30
0.0
 11
1096.001799
 21
665.173345
 31
0.0
  0
LINE
  5
37E
330
220
100
AcDbEntity
  8
7_ALL_FEATURES
  6
Continuous
 62
     7
100
AcDbLine
 10
1125.501799
 20
688.173345
 30
0.0
 11
1096.001799
 21
688.173345
 31
0.0
  0
LINE
  5
37F
330
220
100
AcDbEntity
  8
7_ALL_FEATURES
  6
Continuous
 62
     7
100
AcDbLine
 10
82.501799
 20
688.340178
 30
0.0
 11
82.501799
 21
688.275533
 31
0.0
  0
LINE
  5
380
330
220
100
AcDbEntity
  8
7_ALL_FEATURES
  6
Continuous
 62
     7
100
AcDbLine
 10
82.501799
 20
688.275533
 30
0.0
 11
82.501799
 21
688.173345
 31
0.0
  0
LINE
  5
381
330
220
100
AcDbEntity
  8
7_ALL_FEATURES
  6
Continuous
 62
     7
100
AcDbLine
 10
1125.501799
 20
688.173345
 30
0.0
 11
1125.501799
 21
666.342038
 31
0.0
  0
LINE
  5
382
330
220
100
AcDbEntity
  8
7_ALL_FEATURES
  6
Continuous
 62
     7
100
AcDbLine
 10
1125.501799
 20
666.342038
 30
0.0
 11
1125.501799
 21
665.173345
 31
0.0
  0
LINE
  5
383
330
220
100
AcDbEntity
  8
7_ALL_FEATURES
  6
Continuous
 62
     7
100
AcDbLine
 10
112.001799
 20
688.173345
 30
0.0
 11
82.501799
 21
688.173345
 31
0.0
  0
LINE
  5
384
330
220
100
AcDbEntity
  8
7_ALL_FEATURES
  6
Continuous
 62
     7
100
AcDbLine
 10
1125.501799
 20
688.340178
 30
0.0
 11
1125.501799
 21
688.173345
 31
0.0
  0
LINE
  5
385
330
220
100
AcDbEntity
  8
7_ALL_FEATURES
  6
Continuous
 62
     7
100
AcDbLine
 10
112.001799
 20
665.173345
 30
0.0
 11
112.001799
 21
666.342038
 31
0.0
  0
LINE
  5
386
330
220
100
AcDbEntity
  8
7_ALL_FEATURES
  6
Continuous
 62
     7
100
AcDbLine
 10
112.001799
 20
666.342038
 30
0.0
 11
112.001799
 21
687.016484
 31
0.0
  0
LINE
  5
387
330
220
100
AcDbEntity
  8
7_ALL_FEATURES
  6
Continuous
 62
     7
100
AcDbLine
 10
112.001799
 20
687.016484
 30
0.0
 11
112.001799
 21
688.173345
 31
0.0
  0
LINE
  5
388
330
220
100
AcDbEntity
  8
7_ALL_FEATURES
  6
Continuous
 62
     7
100
AcDbLine
 10
82.501799
 20
665.173345
 30
0.0
 11
112.001799
 21
665.173345
 31
0.0
  0
LINE
  5
389
330
220
100
AcDbEntity
  8
7_ALL_FEATURES
  6
Continuous
 62
     7
100
AcDbLine
 10
232.001799
 20
665.173345
 30
0.0
 11
232.001799
 21
666.342038
 31
0.0
  0
LINE
  5
38A
330
220
100
AcDbEntity
  8
7_ALL_FEATURES
  6
Continuous
 62
     7
100
AcDbLine
 10
232.001799
 20
666.342038
 30
0.0
 11
232.001799
 21
687.016484
 31
0.0
  0
LINE
  5
38B
330
220
100
AcDbEntity
  8
7_ALL_FEATURES
  6
Continuous
 62
     7
100
AcDbLine
 10
232.001799
 20
687.016484
 30
0.0
 11
232.001799
 21
688.173345
 31
0.0
  0
LINE
  5
38C
330
220
100
AcDbEntity
  8
7_ALL_FEATURES
  6
Continuous
 62
     7
100
AcDbLine
 10
136.001799
 20
665.173345
 30
0.0
 11
232.001799
 21
665.173345
 31
0.0
  0
LINE
  5
38D
330
220
100
AcDbEntity
  8
7_ALL_FEATURES
  6
Continuous
 62
     7
100
AcDbLine
 10
136.001799
 20
688.173345
 30
0.0
 11
136.001799
 21
687.016484
 31
0.0
  0
LINE
  5
38E
330
220
100
AcDbEntity
  8
7_ALL_FEATURES
  6
Continuous
 62
     7
100
AcDbLine
 10
136.001799
 20
687.016484
 30
0.0
 11
136.001799
 21
666.342038
 31
0.0
  0
LINE
  5
38F
330
220
100
AcDbEntity
  8
7_ALL_FEATURES
  6
Continuous
 62
     7
100
AcDbLine
 10
136.001799
 20
666.342038
 30
0.0
 11
136.001799
 21
665.173345
 31
0.0
  0
LINE
  5
390
330
220
100
AcDbEntity
  8
7_ALL_FEATURES
  6
Continuous
 62
     7
100
AcDbLine
 10
232.001799
 20
688.173345
 30
0.0
 11
136.001799
 21
688.173345
 31
0.0
  0
LINE
  5
391
330
220
100
AcDbEntity
  8
7_ALL_FEATURES
  6
Continuous
 62
     7
100
AcDbLine
 10
352.001799
 20
688.173345
 30
0.0
 11
256.001799
 21
688.173345
 31
0.0
  0
LINE
  5
392
330
220
100
AcDbEntity
  8
7_ALL_FEATURES
  6
Continuous
 62
     7
100
AcDbLine
 10
352.001799
 20
665.173345
 30
0.0
 11
352.001799
 21
666.342038
 31
0.0
  0
LINE
  5
393
330
220
100
AcDbEntity
  8
7_ALL_FEATURES
  6
Continuous
 62
     7
100
AcDbLine
 10
352.001799
 20
666.342038
 30
0.0
 11
352.001799
 21
687.016484
 31
0.0
  0
LINE
  5
394
330
220
100
AcDbEntity
  8
7_ALL_FEATURES
  6
Continuous
 62
     7
100
AcDbLine
 10
352.001799
 20
687.016484
 30
0.0
 11
352.001799
 21
688.173345
 31
0.0
  0
LINE
  5
395
330
220
100
AcDbEntity
  8
7_ALL_FEATURES
  6
Continuous
 62
     7
100
AcDbLine
 10
256.001799
 20
665.173345
 30
0.0
 11
352.001799
 21
665.173345
 31
0.0
  0
LINE
  5
396
330
220
100
AcDbEntity
  8
7_ALL_FEATURES
  6
Continuous
 62
     7
100
AcDbLine
 10
256.001799
 20
688.173345
 30
0.0
 11
256.001799
 21
687.016484
 31
0.0
  0
LINE
  5
397
330
220
100
AcDbEntity
  8
7_ALL_FEATURES
  6
Continuous
 62
     7
100
AcDbLine
 10
256.001799
 20
687.016484
 30
0.0
 11
256.001799
 21
666.342038
 31
0.0
  0
LINE
  5
398
330
220
100
AcDbEntity
  8
7_ALL_FEATURES
  6
Continuous
 62
     7
100
AcDbLine
 10
256.001799
 20
666.342038
 30
0.0
 11
256.001799
 21
665.173345
 31
0.0
  0
LINE
  5
399
330
220
100
AcDbEntity
  8
7_ALL_FEATURES
  6
Continuous
 62
     7
100
AcDbLine
 10
472.001799
 20
665.173345
 30
0.0
 11
472.001799
 21
666.342038
 31
0.0
  0
LINE
  5
39A
330
220
100
AcDbEntity
  8
7_ALL_FEATURES
  6
Continuous
 62
     7
100
AcDbLine
 10
472.001799
 20
666.342038
 30
0.0
 11
472.001799
 21
687.016484
 31
0.0
  0
LINE
  5
39B
330
220
100
AcDbEntity
  8
7_ALL_FEATURES
  6
Continuous
 62
     7
100
AcDbLine
 10
472.001799
 20
687.016484
 30
0.0
 11
472.001799
 21
688.173345
 31
0.0
  0
LINE
  5
39C
330
220
100
AcDbEntity
  8
7_ALL_FEATURES
  6
Continuous
 62
     7
100
AcDbLine
 10
376.001799
 20
665.173345
 30
0.0
 11
472.001799
 21
665.173345
 31
0.0
  0
LINE
  5
39D
330
220
100
AcDbEntity
  8
7_ALL_FEATURES
  6
Continuous
 62
     7
100
AcDbLine
 10
1125.501799
 20
665.006511
 30
0.0
 11
1125.501799
 21
664.804822
 31
0.0
  0
LINE
  5
39E
330
220
100
AcDbEntity
  8
7_ALL_FEATURES
  6
Continuous
 62
     7
100
AcDbLine
 10
1125.501799
 20
665.173345
 30
0.0
 11
1125.501799
 21
665.080095
 31
0.0
  0
LINE
  5
39F
330
220
100
AcDbEntity
  8
7_ALL_FEATURES
  6
Continuous
 62
     7
100
AcDbLine
 10
1125.501799
 20
665.080095
 30
0.0
 11
1125.501799
 21
665.006511
 31
0.0
  0
LINE
  5
3A0
330
220
100
AcDbEntity
  8
7_ALL_FEATURES
  6
Continuous
 62
     7
100
AcDbLine
 10
376.001799
 20
688.173345
 30
0.0
 11
376.001799
 21
687.016484
 31
0.0
  0
LINE
  5
3A1
330
220
100
AcDbEntity
  8
7_ALL_FEATURES
  6
Continuous
 62
     7
100
AcDbLine
 10
376.001799
 20
687.016484
 30
0.0
 11
376.001799
 21
666.342038
 31
0.0
  0
LINE
  5
3A2
330
220
100
AcDbEntity
  8
7_ALL_FEATURES
  6
Continuous
 62
     7
100
AcDbLine
 10
376.001799
 20
666.342038
 30
0.0
 11
376.001799
 21
665.173345
 31
0.0
  0
LINE
  5
3A3
330
220
100
AcDbEntity
  8
7_ALL_FEATURES
  6
Continuous
 62
     7
100
AcDbLine
 10
376.001799
 20
688.173345
 30
0.0
 11
472.001799
 21
688.173345
 31
0.0
  0
LINE
  5
3A4
330
220
100
AcDbEntity
  8
7_ALL_FEATURES
  6
Continuous
 62
     7
100
AcDbLine
 10
592.001799
 20
688.173345
 30
0.0
 11
496.001799
 21
688.173345
 31
0.0
  0
LINE
  5
3A5
330
220
100
AcDbEntity
  8
7_ALL_FEATURES
  6
Continuous
 62
     7
100
AcDbLine
 10
592.001799
 20
665.173345
 30
0.0
 11
592.001799
 21
666.342038
 31
0.0
  0
LINE
  5
3A6
330
220
100
AcDbEntity
  8
7_ALL_FEATURES
  6
Continuous
 62
     7
100
AcDbLine
 10
592.001799
 20
666.342038
 30
0.0
 11
592.001799
 21
687.016484
 31
0.0
  0
LINE
  5
3A7
330
220
100
AcDbEntity
  8
7_ALL_FEATURES
  6
Continuous
 62
     7
100
AcDbLine
 10
592.001799
 20
687.016484
 30
0.0
 11
592.001799
 21
688.173345
 31
0.0
  0
LINE
  5
3A8
330
220
100
AcDbEntity
  8
7_ALL_FEATURES
  6
Continuous
 62
     7
100
AcDbLine
 10
496.001799
 20
665.173345
 30
0.0
 11
592.001799
 21
665.173345
 31
0.0
  0
LINE
  5
3A9
330
220
100
AcDbEntity
  8
7_ALL_FEATURES
  6
Continuous
 62
     7
100
AcDbLine
 10
496.001799
 20
688.173345
 30
0.0
 11
496.001799
 21
687.016484
 31
0.0
  0
LINE
  5
3AA
330
220
100
AcDbEntity
  8
7_ALL_FEATURES
  6
Continuous
 62
     7
100
AcDbLine
 10
496.001799
 20
687.016484
 30
0.0
 11
496.001799
 21
666.342038
 31
0.0
  0
LINE
  5
3AB
330
220
100
AcDbEntity
  8
7_ALL_FEATURES
  6
Continuous
 62
     7
100
AcDbLine
 10
496.001799
 20
666.342038
 30
0.0
 11
496.001799
 21
665.173345
 31
0.0
  0
LINE
  5
3AC
330
220
100
AcDbEntity
  8
7_ALL_FEATURES
  6
Continuous
 62
     7
100
AcDbLine
 10
712.001799
 20
665.173345
 30
0.0
 11
712.001799
 21
666.342038
 31
0.0
  0
LINE
  5
3AD
330
220
100
AcDbEntity
  8
7_ALL_FEATURES
  6
Continuous
 62
     7
100
AcDbLine
 10
712.001799
 20
666.342038
 30
0.0
 11
712.001799
 21
687.016484
 31
0.0
  0
LINE
  5
3AE
330
220
100
AcDbEntity
  8
7_ALL_FEATURES
  6
Continuous
 62
     7
100
AcDbLine
 10
712.001799
 20
687.016484
 30
0.0
 11
712.001799
 21
688.173345
 31
0.0
  0
LINE
  5
3AF
330
220
100
AcDbEntity
  8
7_ALL_FEATURES
  6
Continuous
 62
     7
100
AcDbLine
 10
976.001799
 20
688.173345
 30
0.0
 11
976.001799
 21
687.016484
 31
0.0
  0
LINE
  5
3B0
330
220
100
AcDbEntity
  8
7_ALL_FEATURES
  6
Continuous
 62
     7
100
AcDbLine
 10
976.001799
 20
687.016484
 30
0.0
 11
976.001799
 21
666.342038
 31
0.0
  0
LINE
  5
3B1
330
220
100
AcDbEntity
  8
7_ALL_FEATURES
  6
Continuous
 62
     7
100
AcDbLine
 10
976.001799
 20
666.342038
 30
0.0
 11
976.001799
 21
665.173345
 31
0.0
  0
LINE
  5
3B2
330
220
100
AcDbEntity
  8
7_ALL_FEATURES
  6
Continuous
 62
     7
100
AcDbLine
 10
976.001799
 20
665.173345
 30
0.0
 11
1072.001799
 21
665.173345
 31
0.0
  0
LINE
  5
3B3
330
220
100
AcDbEntity
  8
7_ALL_FEATURES
  6
Continuous
 62
     7
100
AcDbLine
 10
1072.001799
 20
665.173345
 30
0.0
 11
1072.001799
 21
666.342038
 31
0.0
  0
LINE
  5
3B4
330
220
100
AcDbEntity
  8
7_ALL_FEATURES
  6
Continuous
 62
     7
100
AcDbLine
 10
1072.001799
 20
666.342038
 30
0.0
 11
1072.001799
 21
687.016484
 31
0.0
  0
LINE
  5
3B5
330
220
100
AcDbEntity
  8
7_ALL_FEATURES
  6
Continuous
 62
     7
100
AcDbLine
 10
1072.001799
 20
687.016484
 30
0.0
 11
1072.001799
 21
688.173345
 31
0.0
  0
LINE
  5
3B6
330
220
100
AcDbEntity
  8
7_ALL_FEATURES
  6
Continuous
 62
     7
100
AcDbLine
 10
1072.001799
 20
688.173345
 30
0.0
 11
976.001799
 21
688.173345
 31
0.0
  0
LINE
  5
3B7
330
220
100
AcDbEntity
  8
7_ALL_FEATURES
  6
Continuous
 62
     7
100
AcDbLine
 10
952.001799
 20
688.173345
 30
0.0
 11
856.001799
 21
688.173345
 31
0.0
  0
LINE
  5
3B8
330
220
100
AcDbEntity
  8
7_ALL_FEATURES
  6
Continuous
 62
     7
100
AcDbLine
 10
856.001799
 20
688.173345
 30
0.0
 11
856.001799
 21
687.016484
 31
0.0
  0
LINE
  5
3B9
330
220
100
AcDbEntity
  8
7_ALL_FEATURES
  6
Continuous
 62
     7
100
AcDbLine
 10
856.001799
 20
687.016484
 30
0.0
 11
856.001799
 21
666.342038
 31
0.0
  0
LINE
  5
3BA
330
220
100
AcDbEntity
  8
7_ALL_FEATURES
  6
Continuous
 62
     7
100
AcDbLine
 10
856.001799
 20
666.342038
 30
0.0
 11
856.001799
 21
665.173345
 31
0.0
  0
LINE
  5
3BB
330
220
100
AcDbEntity
  8
7_ALL_FEATURES
  6
Continuous
 62
     7
100
AcDbLine
 10
856.001799
 20
665.173345
 30
0.0
 11
952.001799
 21
665.173345
 31
0.0
  0
LINE
  5
3BC
330
220
100
AcDbEntity
  8
7_ALL_FEATURES
  6
Continuous
 62
     7
100
AcDbLine
 10
952.001799
 20
665.173345
 30
0.0
 11
952.001799
 21
666.342038
 31
0.0
  0
LINE
  5
3BD
330
220
100
AcDbEntity
  8
7_ALL_FEATURES
  6
Continuous
 62
     7
100
AcDbLine
 10
952.001799
 20
666.342038
 30
0.0
 11
952.001799
 21
687.016484
 31
0.0
  0
LINE
  5
3BE
330
220
100
AcDbEntity
  8
7_ALL_FEATURES
  6
Continuous
 62
     7
100
AcDbLine
 10
952.001799
 20
687.016484
 30
0.0
 11
952.001799
 21
688.173345
 31
0.0
  0
LINE
  5
3BF
330
220
100
AcDbEntity
  8
7_ALL_FEATURES
  6
Continuous
 62
     7
100
AcDbLine
 10
736.001799
 20
688.173345
 30
0.0
 11
736.001799
 21
687.016484
 31
0.0
  0
LINE
  5
3C0
330
220
100
AcDbEntity
  8
7_ALL_FEATURES
  6
Continuous
 62
     7
100
AcDbLine
 10
736.001799
 20
687.016484
 30
0.0
 11
736.001799
 21
666.342038
 31
0.0
  0
LINE
  5
3C1
330
220
100
AcDbEntity
  8
7_ALL_FEATURES
  6
Continuous
 62
     7
100
AcDbLine
 10
736.001799
 20
666.342038
 30
0.0
 11
736.001799
 21
665.173345
 31
0.0
  0
LINE
  5
3C2
330
220
100
AcDbEntity
  8
7_ALL_FEATURES
  6
Continuous
 62
     7
100
AcDbLine
 10
736.001799
 20
665.173345
 30
0.0
 11
832.001799
 21
665.173345
 31
0.0
  0
LINE
  5
3C3
330
220
100
AcDbEntity
  8
7_ALL_FEATURES
  6
Continuous
 62
     7
100
AcDbLine
 10
832.001799
 20
665.173345
 30
0.0
 11
832.001799
 21
666.342038
 31
0.0
  0
LINE
  5
3C4
330
220
100
AcDbEntity
  8
7_ALL_FEATURES
  6
Continuous
 62
     7
100
AcDbLine
 10
832.001799
 20
666.342038
 30
0.0
 11
832.001799
 21
687.016484
 31
0.0
  0
LINE
  5
3C5
330
220
100
AcDbEntity
  8
7_ALL_FEATURES
  6
Continuous
 62
     7
100
AcDbLine
 10
832.001799
 20
687.016484
 30
0.0
 11
832.001799
 21
688.173345
 31
0.0
  0
LINE
  5
3C6
330
220
100
AcDbEntity
  8
7_ALL_FEATURES
  6
Continuous
 62
     7
100
AcDbLine
 10
832.001799
 20
688.173345
 30
0.0
 11
736.001799
 21
688.173345
 31
0.0
  0
LINE
  5
3C7
330
220
100
AcDbEntity
  8
7_ALL_FEATURES
  6
Continuous
 62
     7
100
AcDbLine
 10
712.001799
 20
688.173345
 30
0.0
 11
616.001799
 21
688.173345
 31
0.0
  0
LINE
  5
3C8
330
220
100
AcDbEntity
  8
7_ALL_FEATURES
  6
Continuous
 62
     7
100
AcDbLine
 10
616.001799
 20
688.173345
 30
0.0
 11
616.001799
 21
687.016484
 31
0.0
  0
LINE
  5
3C9
330
220
100
AcDbEntity
  8
7_ALL_FEATURES
  6
Continuous
 62
     7
100
AcDbLine
 10
616.001799
 20
687.016484
 30
0.0
 11
616.001799
 21
666.342038
 31
0.0
  0
LINE
  5
3CA
330
220
100
AcDbEntity
  8
7_ALL_FEATURES
  6
Continuous
 62
     7
100
AcDbLine
 10
616.001799
 20
666.342038
 30
0.0
 11
616.001799
 21
665.173345
 31
0.0
  0
LINE
  5
3CB
330
220
100
AcDbEntity
  8
7_ALL_FEATURES
  6
Continuous
 62
     7
100
AcDbLine
 10
616.001799
 20
665.173345
 30
0.0
 11
712.001799
 21
665.173345
 31
0.0
  0
LINE
  5
3CC
330
220
100
AcDbEntity
  8
7_ALL_FEATURES
  6
Continuous
 62
     9
100
AcDbLine
 10
82.501799
 20
665.006511
 30
0.0
 11
1125.501799
 21
665.006511
 31
0.0
  0
LINE
  5
3CD
330
220
100
AcDbEntity
  8
7_ALL_FEATURES
  6
Continuous
 62
     9
100
AcDbLine
 10
82.501799
 20
688.340178
 30
0.0
 11
1125.501799
 21
688.340178
 31
0.0
  0
LINE
  5
3CE
330
220
100
AcDbEntity
  8
7_ALL_FEATURES
  6
Continuous
 62
     7
100
AcDbLine
 10
82.251799
 20
665.423345
 30
0.0
 11
82.251799
 21
665.277231
 31
0.0
  0
LINE
  5
3CF
330
220
100
AcDbEntity
  8
7_ALL_FEATURES
  6
Continuous
 62
     7
100
AcDbLine
 10
82.251799
 20
665.277231
 30
0.0
 11
82.251799
 21
665.149084
 31
0.0
  0
LINE
  5
3D0
330
220
100
AcDbEntity
  8
7_ALL_FEATURES
  6
Continuous
 62
     7
100
AcDbLine
 10
82.251799
 20
687.673345
 30
0.0
 11
82.501799
 21
687.673345
 31
0.0
  0
LINE
  5
3D1
330
220
100
AcDbEntity
  8
7_ALL_FEATURES
  6
Continuous
 62
     7
100
AcDbLine
 10
1125.501799
 20
687.673345
 30
0.0
 11
1125.751799
 21
687.673345
 31
0.0
  0
LINE
  5
3D2
330
220
100
AcDbEntity
  8
7_ALL_FEATURES
  6
Continuous
 62
     7
100
AcDbLine
 10
82.251799
 20
689.873345
 30
0.0
 11
82.251799
 21
689.409377
 31
0.0
  0
LINE
  5
3D3
330
220
100
AcDbEntity
  8
7_ALL_FEATURES
  6
Continuous
 62
     7
100
AcDbLine
 10
82.251799
 20
689.409377
 30
0.0
 11
82.251799
 21
688.423345
 31
0.0
  0
LINE
  5
3D4
330
220
100
AcDbEntity
  8
7_ALL_FEATURES
  6
Continuous
 62
     7
100
AcDbLine
 10
82.251799
 20
688.423345
 30
0.0
 11
82.251799
 21
688.197606
 31
0.0
  0
LINE
  5
3D5
330
220
100
AcDbEntity
  8
7_ALL_FEATURES
  6
Continuous
 62
     7
100
AcDbLine
 10
82.251799
 20
688.197606
 30
0.0
 11
82.251799
 21
688.069459
 31
0.0
  0
LINE
  5
3D6
330
220
100
AcDbEntity
  8
7_ALL_FEATURES
  6
Continuous
 62
     7
100
AcDbLine
 10
82.251799
 20
688.069459
 30
0.0
 11
82.251799
 21
687.923345
 31
0.0
  0
LINE
  5
3D7
330
220
100
AcDbEntity
  8
7_ALL_FEATURES
  6
Continuous
 62
     7
100
AcDbLine
 10
82.251799
 20
665.673345
 30
0.0
 11
82.501799
 21
665.673345
 31
0.0
  0
LINE
  5
3D8
330
220
100
AcDbEntity
  8
7_ALL_FEATURES
  6
Continuous
 62
     7
100
AcDbLine
 10
1125.501799
 20
665.673345
 30
0.0
 11
1125.751799
 21
665.673345
 31
0.0
  0
LINE
  5
3D9
330
220
100
AcDbEntity
  8
7_ALL_FEATURES
  6
Continuous
 62
     7
100
AcDbLine
 10
1125.751799
 20
665.423345
 30
0.0
 11
1125.501799
 21
665.423345
 31
0.0
  0
LINE
  5
3DA
330
220
100
AcDbEntity
  8
7_ALL_FEATURES
  6
Continuous
 62
     7
100
AcDbLine
 10
82.501799
 20
665.423345
 30
0.0
 11
82.251799
 21
665.423345
 31
0.0
  0
LINE
  5
3DB
330
220
100
AcDbEntity
  8
7_ALL_FEATURES
  6
Continuous
 62
     7
100
AcDbLine
 10
1125.751799
 20
663.473345
 30
0.0
 11
82.251799
 21
663.473345
 31
0.0
  0
LINE
  5
3DC
330
220
100
AcDbEntity
  8
7_ALL_FEATURES
  6
Continuous
 62
     7
100
AcDbLine
 10
82.251799
 20
663.473345
 30
0.0
 11
82.251799
 21
663.937313
 31
0.0
  0
LINE
  5
3DD
330
220
100
AcDbEntity
  8
7_ALL_FEATURES
  6
Continuous
 62
     7
100
AcDbLine
 10
82.251799
 20
663.937313
 30
0.0
 11
82.251799
 21
664.923345
 31
0.0
  0
LINE
  5
3DE
330
220
100
AcDbEntity
  8
7_ALL_FEATURES
  6
Continuous
 62
     7
100
AcDbLine
 10
82.251799
 20
664.923345
 30
0.0
 11
82.251799
 21
665.149084
 31
0.0
  0
LINE
  5
3DF
330
220
100
AcDbEntity
  8
7_ALL_FEATURES
  6
Continuous
 62
     7
100
AcDbLine
 10
1125.751799
 20
689.873345
 30
0.0
 11
82.251799
 21
689.873345
 31
0.0
  0
LINE
  5
3E0
330
220
100
AcDbEntity
  8
7_ALL_FEATURES
  6
Continuous
 62
     7
100
AcDbLine
 10
1125.751799
 20
689.873345
 30
0.0
 11
1125.751799
 21
689.409377
 31
0.0
  0
LINE
  5
3E1
330
220
100
AcDbEntity
  8
7_ALL_FEATURES
  6
Continuous
 62
     7
100
AcDbLine
 10
1125.751799
 20
689.409377
 30
0.0
 11
1125.751799
 21
688.423345
 31
0.0
  0
LINE
  5
3E2
330
220
100
AcDbEntity
  8
7_ALL_FEATURES
  6
Continuous
 62
     7
100
AcDbLine
 10
1125.751799
 20
688.423345
 30
0.0
 11
1125.751799
 21
688.197606
 31
0.0
  0
LINE
  5
3E3
330
220
100
AcDbEntity
  8
7_ALL_FEATURES
  6
Continuous
 62
     7
100
AcDbLine
 10
1125.751799
 20
687.923345
 30
0.0
 11
1125.751799
 21
688.069459
 31
0.0
  0
LINE
  5
3E4
330
220
100
AcDbEntity
  8
7_ALL_FEATURES
  6
Continuous
 62
     7
100
AcDbLine
 10
1125.751799
 20
688.069459
 30
0.0
 11
1125.751799
 21
688.197606
 31
0.0
  0
LINE
  5
3E5
330
220
100
AcDbEntity
  8
7_ALL_FEATURES
  6
Continuous
 62
     7
100
AcDbLine
 10
1125.751799
 20
687.923345
 30
0.0
 11
1125.501799
 21
687.923345
 31
0.0
  0
LINE
  5
3E6
330
220
100
AcDbEntity
  8
7_ALL_FEATURES
  6
Continuous
 62
     7
100
AcDbLine
 10
82.501799
 20
687.923345
 30
0.0
 11
82.251799
 21
687.923345
 31
0.0
  0
LINE
  5
3E7
330
220
100
AcDbEntity
  8
7_ALL_FEATURES
  6
Continuous
 62
     7
100
AcDbLine
 10
1125.751799
 20
663.473345
 30
0.0
 11
1125.751799
 21
663.937313
 31
0.0
  0
LINE
  5
3E8
330
220
100
AcDbEntity
  8
7_ALL_FEATURES
  6
Continuous
 62
     7
100
AcDbLine
 10
1125.751799
 20
663.937313
 30
0.0
 11
1125.751799
 21
664.923345
 31
0.0
  0
LINE
  5
3E9
330
220
100
AcDbEntity
  8
7_ALL_FEATURES
  6
Continuous
 62
     7
100
AcDbLine
 10
1125.751799
 20
664.923345
 30
0.0
 11
1125.751799
 21
665.149084
 31
0.0
  0
LINE
  5
3EA
330
220
100
AcDbEntity
  8
7_ALL_FEATURES
  6
Continuous
 62
     7
100
AcDbLine
 10
1125.751799
 20
665.149084
 30
0.0
 11
1125.751799
 21
665.277231
 31
0.0
  0
LINE
  5
3EB
330
220
100
AcDbEntity
  8
7_ALL_FEATURES
  6
Continuous
 62
     7
100
AcDbLine
 10
1125.751799
 20
665.277231
 30
0.0
 11
1125.751799
 21
665.423345
 31
0.0
  0
LINE
  5
3EC
330
220
100
AcDbEntity
  8
7_ALL_FEATURES
  6
Continuous
 62
     7
100
AcDbLine
 10
1125.751799
 20
665.149084
 30
0.0
 11
1125.501799
 21
665.149084
 31
0.0
  0
LINE
  5
3ED
330
220
100
AcDbEntity
  8
7_ALL_FEATURES
  6
Continuous
 62
     7
100
AcDbLine
 10
1125.501799
 20
665.149084
 30
0.0
 11
1096.001799
 21
665.149084
 31
0.0
  0
LINE
  5
3EE
330
220
100
AcDbEntity
  8
7_ALL_FEATURES
  6
Continuous
 62
     7
100
AcDbLine
 10
1096.001799
 20
665.149084
 30
0.0
 11
1072.001799
 21
665.149084
 31
0.0
  0
LINE
  5
3EF
330
220
100
AcDbEntity
  8
7_ALL_FEATURES
  6
Continuous
 62
     7
100
AcDbLine
 10
1072.001799
 20
665.149084
 30
0.0
 11
976.001799
 21
665.149084
 31
0.0
  0
LINE
  5
3F0
330
220
100
AcDbEntity
  8
7_ALL_FEATURES
  6
Continuous
 62
     7
100
AcDbLine
 10
976.001799
 20
665.149084
 30
0.0
 11
952.001799
 21
665.149084
 31
0.0
  0
LINE
  5
3F1
330
220
100
AcDbEntity
  8
7_ALL_FEATURES
  6
Continuous
 62
     7
100
AcDbLine
 10
952.001799
 20
665.149084
 30
0.0
 11
856.001799
 21
665.149084
 31
0.0
  0
LINE
  5
3F2
330
220
100
AcDbEntity
  8
7_ALL_FEATURES
  6
Continuous
 62
     7
100
AcDbLine
 10
856.001799
 20
665.149084
 30
0.0
 11
832.001799
 21
665.149084
 31
0.0
  0
LINE
  5
3F3
330
220
100
AcDbEntity
  8
7_ALL_FEATURES
  6
Continuous
 62
     7
100
AcDbLine
 10
832.001799
 20
665.149084
 30
0.0
 11
736.001799
 21
665.149084
 31
0.0
  0
LINE
  5
3F4
330
220
100
AcDbEntity
  8
7_ALL_FEATURES
  6
Continuous
 62
     7
100
AcDbLine
 10
736.001799
 20
665.149084
 30
0.0
 11
712.001799
 21
665.149084
 31
0.0
  0
LINE
  5
3F5
330
220
100
AcDbEntity
  8
7_ALL_FEATURES
  6
Continuous
 62
     7
100
AcDbLine
 10
712.001799
 20
665.149084
 30
0.0
 11
616.001799
 21
665.149084
 31
0.0
  0
LINE
  5
3F6
330
220
100
AcDbEntity
  8
7_ALL_FEATURES
  6
Continuous
 62
     7
100
AcDbLine
 10
616.001799
 20
665.149084
 30
0.0
 11
592.001799
 21
665.149084
 31
0.0
  0
LINE
  5
3F7
330
220
100
AcDbEntity
  8
7_ALL_FEATURES
  6
Continuous
 62
     7
100
AcDbLine
 10
592.001799
 20
665.149084
 30
0.0
 11
496.001799
 21
665.149084
 31
0.0
  0
LINE
  5
3F8
330
220
100
AcDbEntity
  8
7_ALL_FEATURES
  6
Continuous
 62
     7
100
AcDbLine
 10
496.001799
 20
665.149084
 30
0.0
 11
472.001799
 21
665.149084
 31
0.0
  0
LINE
  5
3F9
330
220
100
AcDbEntity
  8
7_ALL_FEATURES
  6
Continuous
 62
     7
100
AcDbLine
 10
472.001799
 20
665.149084
 30
0.0
 11
376.001799
 21
665.149084
 31
0.0
  0
LINE
  5
3FA
330
220
100
AcDbEntity
  8
7_ALL_FEATURES
  6
Continuous
 62
     7
100
AcDbLine
 10
376.001799
 20
665.149084
 30
0.0
 11
352.001799
 21
665.149084
 31
0.0
  0
LINE
  5
3FB
330
220
100
AcDbEntity
  8
7_ALL_FEATURES
  6
Continuous
 62
     7
100
AcDbLine
 10
352.001799
 20
665.149084
 30
0.0
 11
256.001799
 21
665.149084
 31
0.0
  0
LINE
  5
3FC
330
220
100
AcDbEntity
  8
7_ALL_FEATURES
  6
Continuous
 62
     7
100
AcDbLine
 10
256.001799
 20
665.149084
 30
0.0
 11
232.001799
 21
665.149084
 31
0.0
  0
LINE
  5
3FD
330
220
100
AcDbEntity
  8
7_ALL_FEATURES
  6
Continuous
 62
     7
100
AcDbLine
 10
232.001799
 20
665.149084
 30
0.0
 11
136.001799
 21
665.149084
 31
0.0
  0
LINE
  5
3FE
330
220
100
AcDbEntity
  8
7_ALL_FEATURES
  6
Continuous
 62
     7
100
AcDbLine
 10
136.001799
 20
665.149084
 30
0.0
 11
112.001799
 21
665.149084
 31
0.0
  0
LINE
  5
3FF
330
220
100
AcDbEntity
  8
7_ALL_FEATURES
  6
Continuous
 62
     7
100
AcDbLine
 10
112.001799
 20
665.149084
 30
0.0
 11
82.501799
 21
665.149084
 31
0.0
  0
LINE
  5
400
330
220
100
AcDbEntity
  8
7_ALL_FEATURES
  6
Continuous
 62
     7
100
AcDbLine
 10
82.501799
 20
665.149084
 30
0.0
 11
82.251799
 21
665.149084
 31
0.0
  0
LINE
  5
401
330
220
100
AcDbEntity
  8
7_ALL_FEATURES
  6
Continuous
 62
     7
100
AcDbLine
 10
1125.751799
 20
688.197606
 30
0.0
 11
1125.501799
 21
688.197606
 31
0.0
  0
LINE
  5
402
330
220
100
AcDbEntity
  8
7_ALL_FEATURES
  6
Continuous
 62
     7
100
AcDbLine
 10
1125.501799
 20
688.197606
 30
0.0
 11
1096.001799
 21
688.197606
 31
0.0
  0
LINE
  5
403
330
220
100
AcDbEntity
  8
7_ALL_FEATURES
  6
Continuous
 62
     7
100
AcDbLine
 10
1096.001799
 20
688.197606
 30
0.0
 11
1072.001799
 21
688.197606
 31
0.0
  0
LINE
  5
404
330
220
100
AcDbEntity
  8
7_ALL_FEATURES
  6
Continuous
 62
     7
100
AcDbLine
 10
1072.001799
 20
688.197606
 30
0.0
 11
976.001799
 21
688.197606
 31
0.0
  0
LINE
  5
405
330
220
100
AcDbEntity
  8
7_ALL_FEATURES
  6
Continuous
 62
     7
100
AcDbLine
 10
976.001799
 20
688.197606
 30
0.0
 11
952.001799
 21
688.197606
 31
0.0
  0
LINE
  5
406
330
220
100
AcDbEntity
  8
7_ALL_FEATURES
  6
Continuous
 62
     7
100
AcDbLine
 10
952.001799
 20
688.197606
 30
0.0
 11
856.001799
 21
688.197606
 31
0.0
  0
LINE
  5
407
330
220
100
AcDbEntity
  8
7_ALL_FEATURES
  6
Continuous
 62
     7
100
AcDbLine
 10
856.001799
 20
688.197606
 30
0.0
 11
832.001799
 21
688.197606
 31
0.0
  0
LINE
  5
408
330
220
100
AcDbEntity
  8
7_ALL_FEATURES
  6
Continuous
 62
     7
100
AcDbLine
 10
832.001799
 20
688.197606
 30
0.0
 11
736.001799
 21
688.197606
 31
0.0
  0
LINE
  5
409
330
220
100
AcDbEntity
  8
7_ALL_FEATURES
  6
Continuous
 62
     7
100
AcDbLine
 10
736.001799
 20
688.197606
 30
0.0
 11
712.001799
 21
688.197606
 31
0.0
  0
LINE
  5
40A
330
220
100
AcDbEntity
  8
7_ALL_FEATURES
  6
Continuous
 62
     7
100
AcDbLine
 10
712.001799
 20
688.197606
 30
0.0
 11
616.001799
 21
688.197606
 31
0.0
  0
LINE
  5
40B
330
220
100
AcDbEntity
  8
7_ALL_FEATURES
  6
Continuous
 62
     7
100
AcDbLine
 10
616.001799
 20
688.197606
 30
0.0
 11
592.001799
 21
688.197606
 31
0.0
  0
LINE
  5
40C
330
220
100
AcDbEntity
  8
7_ALL_FEATURES
  6
Continuous
 62
     7
100
AcDbLine
 10
592.001799
 20
688.197606
 30
0.0
 11
496.001799
 21
688.197606
 31
0.0
  0
LINE
  5
40D
330
220
100
AcDbEntity
  8
7_ALL_FEATURES
  6
Continuous
 62
     7
100
AcDbLine
 10
496.001799
 20
688.197606
 30
0.0
 11
472.001799
 21
688.197606
 31
0.0
  0
LINE
  5
40E
330
220
100
AcDbEntity
  8
7_ALL_FEATURES
  6
Continuous
 62
     7
100
AcDbLine
 10
472.001799
 20
688.197606
 30
0.0
 11
376.001799
 21
688.197606
 31
0.0
  0
LINE
  5
40F
330
220
100
AcDbEntity
  8
7_ALL_FEATURES
  6
Continuous
 62
     7
100
AcDbLine
 10
376.001799
 20
688.197606
 30
0.0
 11
352.001799
 21
688.197606
 31
0.0
  0
LINE
  5
410
330
220
100
AcDbEntity
  8
7_ALL_FEATURES
  6
Continuous
 62
     7
100
AcDbLine
 10
352.001799
 20
688.197606
 30
0.0
 11
256.001799
 21
688.197606
 31
0.0
  0
LINE
  5
411
330
220
100
AcDbEntity
  8
7_ALL_FEATURES
  6
Continuous
 62
     7
100
AcDbLine
 10
256.001799
 20
688.197606
 30
0.0
 11
232.001799
 21
688.197606
 31
0.0
  0
LINE
  5
412
330
220
100
AcDbEntity
  8
7_ALL_FEATURES
  6
Continuous
 62
     7
100
AcDbLine
 10
232.001799
 20
688.197606
 30
0.0
 11
136.001799
 21
688.197606
 31
0.0
  0
LINE
  5
413
330
220
100
AcDbEntity
  8
7_ALL_FEATURES
  6
Continuous
 62
     7
100
AcDbLine
 10
136.001799
 20
688.197606
 30
0.0
 11
112.001799
 21
688.197606
 31
0.0
  0
LINE
  5
414
330
220
100
AcDbEntity
  8
7_ALL_FEATURES
  6
Continuous
 62
     7
100
AcDbLine
 10
112.001799
 20
688.197606
 30
0.0
 11
82.501799
 21
688.197606
 31
0.0
  0
LINE
  5
415
330
220
100
AcDbEntity
  8
7_ALL_FEATURES
  6
Continuous
 62
     7
100
AcDbLine
 10
82.501799
 20
688.197606
 30
0.0
 11
82.251799
 21
688.197606
 31
0.0
  0
LINE
  5
416
330
220
100
AcDbEntity
  8
0
  6
Continuous
 62
     3
100
AcDbLine
 10
75.851799
 20
706.673345
 30
0.0
 11
75.851799
 21
686.673345
 31
0.0
  0
LINE
  5
417
330
220
100
AcDbEntity
  8
0
  6
Continuous
 62
     3
100
AcDbLine
 10
75.851799
 20
686.673345
 30
0.0
 11
75.851799
 21
679.744498
 31
0.0
  0
LINE
  5
418
330
220
100
AcDbEntity
  8
0
  6
Continuous
 62
     3
100
AcDbLine
 10
75.851799
 20
679.744498
 30
0.0
 11
75.851799
 21
679.261535
 31
0.0
  0
LINE
  5
419
330
220
100
AcDbEntity
  8
0
  6
Continuous
 62
     3
100
AcDbLine
 10
75.851799
 20
679.261535
 30
0.0
 11
75.851799
 21
678.923345
 31
0.0
  0
LINE
  5
41A
330
220
100
AcDbEntity
  8
0
  6
Continuous
 62
     3
100
AcDbLine
 10
75.851799
 20
678.923345
 30
0.0
 11
75.851799
 21
674.423345
 31
0.0
  0
LINE
  5
41B
330
220
100
AcDbEntity
  8
0
  6
Continuous
 62
     3
100
AcDbLine
 10
75.851799
 20
674.423345
 30
0.0
 11
75.851799
 21
666.673562
 31
0.0
  0
LINE
  5
41C
330
220
100
AcDbEntity
  8
7_ALL_FEATURES
  6
Continuous
 62
     3
100
AcDbLine
 10
1132.151799
 20
679.261535
 30
0.0
 11
1132.151799
 21
678.923345
 31
0.0
  0
LINE
  5
41D
330
220
100
AcDbEntity
  8
7_ALL_FEATURES
  6
Continuous
 62
     3
100
AcDbLine
 10
1132.151799
 20
678.923345
 30
0.0
 11
1132.151799
 21
678.823345
 31
0.0
  0
LINE
  5
41E
330
220
100
AcDbEntity
  8
7_ALL_FEATURES
  6
Continuous
 62
     3
100
AcDbLine
 10
1132.151799
 20
678.823345
 30
0.0
 11
1132.151799
 21
674.523345
 31
0.0
  0
LINE
  5
41F
330
220
100
AcDbEntity
  8
7_ALL_FEATURES
  6
Continuous
 62
     3
100
AcDbLine
 10
1132.151799
 20
674.523345
 30
0.0
 11
1132.151799
 21
674.423345
 31
0.0
  0
LINE
  5
420
330
220
100
AcDbEntity
  8
7_ALL_FEATURES
  6
Continuous
 62
     3
100
AcDbLine
 10
1132.151799
 20
674.423345
 30
0.0
 11
1132.151799
 21
672.673345
 31
0.0
  0
LINE
  5
421
330
220
100
AcDbEntity
  8
7_ALL_FEATURES
  6
Continuous
 62
     3
100
AcDbLine
 10
1132.151799
 20
672.673345
 30
0.0
 11
1132.151799
 21
666.673562
 31
0.0
  0
LINE
  5
422
330
220
100
AcDbEntity
  8
7_ALL_FEATURES
  6
Continuous
 62
     3
100
AcDbLine
 10
1132.151799
 20
679.744498
 30
0.0
 11
1132.151799
 21
679.261535
 31
0.0
  0
LINE
  5
423
330
220
100
AcDbEntity
  8
7_ALL_FEATURES
  6
Continuous
 62
     3
100
AcDbLine
 10
1132.151799
 20
706.673345
 30
0.0
 11
1132.151799
 21
686.673345
 31
0.0
  0
LINE
  5
424
330
220
100
AcDbEntity
  8
7_ALL_FEATURES
  6
Continuous
 62
     3
100
AcDbLine
 10
1132.151799
 20
686.673345
 30
0.0
 11
1132.151799
 21
680.673345
 31
0.0
  0
LINE
  5
425
330
220
100
AcDbEntity
  8
7_ALL_FEATURES
  6
Continuous
 62
     3
100
AcDbLine
 10
1132.151799
 20
680.673345
 30
0.0
 11
1132.151799
 21
679.744498
 31
0.0
  0
LINE
  5
426
330
220
100
AcDbEntity
  8
02___PRT_ALL_AXES
  6
Continuous
 62
     7
100
AcDbLine
 10
1129.151799
 20
983.292901
 30
0.0
 11
1130.151799
 21
983.292901
 31
0.0
  0
LINE
  5
427
330
220
100
AcDbEntity
  8
02___PRT_ALL_AXES
  6
Continuous
 62
     7
100
AcDbLine
 10
1129.151799
 20
975.292901
 30
0.0
 11
1130.151799
 21
975.292901
 31
0.0
  0
LINE
  5
428
330
220
100
AcDbEntity
  8
02___PRT_ALL_AXES
  6
Continuous
 62
     7
100
AcDbLine
 10
1133.151799
 20
979.292901
 30
0.0
 11
1133.151799
 21
977.292901
 31
0.0
  0
LINE
  5
429
330
220
100
AcDbEntity
  8
02___PRT_ALL_AXES
  6
Continuous
 62
     7
100
AcDbLine
 10
1133.151799
 20
977.292901
 30
0.0
 11
1133.151799
 21
977.142939
 31
0.0
  0
LINE
  5
42A
330
220
100
AcDbEntity
  8
02___PRT_ALL_AXES
  6
Continuous
 62
     7
100
AcDbLine
 10
1133.151799
 20
977.142939
 30
0.0
 11
1133.151799
 21
975.492901
 31
0.0
  0
LINE
  5
42B
330
220
100
AcDbEntity
  8
02___PRT_ALL_AXES
  6
Continuous
 62
     7
100
AcDbLine
 10
1133.151799
 20
975.492901
 30
0.0
 11
1133.151799
 21
975.292901
 31
0.0
  0
LINE
  5
42C
330
220
100
AcDbEntity
  8
02___PRT_ALL_AXES
  6
Continuous
 62
     7
100
AcDbLine
 10
1132.151799
 20
983.292901
 30
0.0
 11
1133.151799
 21
983.292901
 31
0.0
  0
LINE
  5
42D
330
220
100
AcDbEntity
  8
02___PRT_ALL_AXES
  6
Continuous
 62
     7
100
AcDbLine
 10
1133.151799
 20
983.292901
 30
0.0
 11
1133.151799
 21
983.092901
 31
0.0
  0
LINE
  5
42E
330
220
100
AcDbEntity
  8
02___PRT_ALL_AXES
  6
Continuous
 62
     7
100
AcDbLine
 10
1133.151799
 20
983.092901
 30
0.0
 11
1133.151799
 21
981.442864
 31
0.0
  0
LINE
  5
42F
330
220
100
AcDbEntity
  8
02___PRT_ALL_AXES
  6
Continuous
 62
     7
100
AcDbLine
 10
1133.151799
 20
981.442864
 30
0.0
 11
1133.151799
 21
981.292901
 31
0.0
  0
LINE
  5
430
330
220
100
AcDbEntity
  8
02___PRT_ALL_AXES
  6
Continuous
 62
     7
100
AcDbLine
 10
1133.151799
 20
981.292901
 30
0.0
 11
1133.151799
 21
979.292901
 31
0.0
  0
LINE
  5
431
330
220
100
AcDbEntity
  8
02___PRT_ALL_AXES
  6
Continuous
 62
     7
100
AcDbLine
 10
1132.151799
 20
975.292901
 30
0.0
 11
1133.151799
 21
975.292901
 31
0.0
  0
LINE
  5
432
330
220
100
AcDbEntity
  8
02___PRT_ALL_AXES
  6
Continuous
 62
     7
100
AcDbLine
 10
78.851799
 20
983.292901
 30
0.0
 11
77.851799
 21
983.292901
 31
0.0
  0
LINE
  5
433
330
220
100
AcDbEntity
  8
02___PRT_ALL_AXES
  6
Continuous
 62
     7
100
AcDbLine
 10
78.851799
 20
975.292901
 30
0.0
 11
77.851799
 21
975.292901
 31
0.0
  0
LINE
  5
434
330
220
100
AcDbEntity
  8
3_ALL_AXES
  6
Continuous
 62
     7
100
AcDbLine
 10
1133.151799
 20
975.492901
 30
0.0
 11
1133.531799
 21
975.492901
 31
0.0
  0
LINE
  5
435
330
220
100
AcDbEntity
  8
3_ALL_AXES
  6
Continuous
 62
     7
100
AcDbLine
 10
1135.351799
 20
977.327955
 30
0.0
 11
1135.351799
 21
979.292901
 31
0.0
  0
ARC
  5
436
330
220
100
AcDbEntity
  8
3_ALL_AXES
  6
Continuous
 62
     7
100
AcDbCircle
 10
1131.679159
 20
979.150459
 30
0.0
 40
4.1
100
AcDbArc
 50
296.863303
 51
333.606974
  0
LINE
  5
437
330
220
100
AcDbEntity
  8
3_ALL_AXES
  6
Continuous
 62
     7
100
AcDbLine
 10
1133.151799
 20
983.092901
 30
0.0
 11
1133.531799
 21
983.092901
 31
0.0
  0
LINE
  5
438
330
220
100
AcDbEntity
  8
3_ALL_AXES
  6
Continuous
 62
     7
100
AcDbLine
 10
1135.351799
 20
981.257848
 30
0.0
 11
1135.351799
 21
979.292901
 31
0.0
  0
ARC
  5
439
330
220
100
AcDbEntity
  8
3_ALL_AXES
  6
Continuous
 62
     7
100
AcDbCircle
 10
1131.679159
 20
979.435344
 30
0.0
 40
4.1
100
AcDbArc
 50
26.393026
 51
63.136697
  0
LINE
  5
43A
330
220
100
AcDbEntity
  8
3_ALL_AXES
  6
Continuous
 62
     7
100
AcDbLine
 10
1133.531799
 20
975.492901
 30
0.0
 11
1133.531799
 21
979.292901
 31
0.0
  0
LINE
  5
43B
330
220
100
AcDbEntity
  8
3_ALL_AXES
  6
Continuous
 62
     7
100
AcDbLine
 10
1133.531799
 20
983.092901
 30
0.0
 11
1133.531799
 21
979.292901
 31
0.0
  0
LINE
  5
43C
330
220
100
AcDbEntity
  8
02___PRT_ALL_AXES
  6
Continuous
 62
     7
100
AcDbLine
 10
1114.601799
 20
962.342901
 30
0.0
 11
1114.601799
 21
964.342901
 31
0.0
  0
LINE
  5
43D
330
220
100
AcDbEntity
  8
7_ALL_FEATURES
  6
Continuous
 62
     7
100
AcDbLine
 10
1122.804615
 20
964.342901
 30
0.0
 11
1122.804615
 21
964.542901
 31
0.0
  0
LINE
  5
43E
330
220
100
AcDbEntity
  8
7_ALL_FEATURES
  6
Continuous
 62
     7
100
AcDbLine
 10
1122.804615
 20
964.342901
 30
0.0
 11
1123.321197
 21
964.342901
 31
0.0
  0
LINE
  5
43F
330
220
100
AcDbEntity
  8
02___PRT_ALL_AXES
  6
Continuous
 62
     7
100
AcDbLine
 10
1119.251799
 20
962.342901
 30
0.0
 11
1116.051799
 21
962.342901
 31
0.0
  0
LINE
  5
440
330
220
100
AcDbEntity
  8
02___PRT_ALL_AXES
  6
Continuous
 62
     7
100
AcDbLine
 10
1116.051799
 20
962.342901
 30
0.0
 11
1114.601799
 21
962.342901
 31
0.0
  0
LINE
  5
441
330
220
100
AcDbEntity
  8
02___PRT_ALL_AXES
  6
Continuous
 62
     7
100
AcDbLine
 10
1119.251799
 20
962.342901
 30
0.0
 11
1122.451799
 21
962.342901
 31
0.0
  0
LINE
  5
442
330
220
100
AcDbEntity
  8
02___PRT_ALL_AXES
  6
Continuous
 62
     7
100
AcDbLine
 10
1122.451799
 20
962.342901
 30
0.0
 11
1123.901799
 21
962.342901
 31
0.0
  0
LINE
  5
443
330
220
100
AcDbEntity
  8
02___PRT_ALL_AXES
  6
Continuous
 62
     7
100
AcDbLine
 10
1123.901799
 20
962.342901
 30
0.0
 11
1123.901799
 21
964.342901
 31
0.0
  0
LINE
  5
444
330
220
100
AcDbEntity
  8
7_ALL_FEATURES
  6
Continuous
 62
     7
100
AcDbLine
 10
1115.182401
 20
964.342901
 30
0.0
 11
1115.698983
 21
964.342901
 31
0.0
  0
LINE
  5
445
330
220
100
AcDbEntity
  8
7_ALL_FEATURES
  6
Continuous
 62
     7
100
AcDbLine
 10
1115.698983
 20
964.342901
 30
0.0
 11
1115.698983
 21
964.542901
 31
0.0
  0
LINE
  5
446
330
220
100
AcDbEntity
  8
7_ALL_FEATURES
  6
Continuous
 62
     7
100
AcDbLine
 10
1114.471799
 20
964.542901
 30
0.0
 11
1114.501799
 21
964.342901
 31
0.0
  0
LINE
  5
447
330
220
100
AcDbEntity
  8
7_ALL_FEATURES
  6
Continuous
 62
     7
100
AcDbLine
 10
1124.001799
 20
964.342901
 30
0.0
 11
1124.031799
 21
964.542901
 31
0.0
  0
LINE
  5
448
330
220
100
AcDbEntity
  8
7_ALL_FEATURES
  6
Continuous
 62
     7
100
AcDbLine
 10
1123.321197
 20
964.342901
 30
0.0
 11
1123.901799
 21
964.342901
 31
0.0
  0
LINE
  5
449
330
220
100
AcDbEntity
  8
7_ALL_FEATURES
  6
Continuous
 62
     7
100
AcDbLine
 10
1123.901799
 20
964.342901
 30
0.0
 11
1124.001799
 21
964.342901
 31
0.0
  0
LINE
  5
44A
330
220
100
AcDbEntity
  8
7_ALL_FEATURES
  6
Continuous
 62
     7
100
AcDbLine
 10
1114.501799
 20
964.342901
 30
0.0
 11
1114.601799
 21
964.342901
 31
0.0
  0
LINE
  5
44B
330
220
100
AcDbEntity
  8
7_ALL_FEATURES
  6
Continuous
 62
     7
100
AcDbLine
 10
1114.601799
 20
964.342901
 30
0.0
 11
1115.182401
 21
964.342901
 31
0.0
  0
LINE
  5
44C
330
220
100
AcDbEntity
  8
7_ALL_FEATURES
  6
Continuous
 62
     7
100
AcDbLine
 10
78.851799
 20
965.086615
 30
0.0
 11
78.851799
 21
989.999188
 31
0.0
  0
LINE
  5
44D
330
220
100
AcDbEntity
  8
7_ALL_FEATURES
  6
Continuous
 62
     7
100
AcDbLine
 10
81.851799
 20
990.042901
 30
0.0
 11
82.251799
 21
990.028933
 31
0.0
  0
LINE
  5
44E
330
220
100
AcDbEntity
  8
7_ALL_FEATURES
  6
Continuous
 62
     7
100
AcDbLine
 10
81.851799
 20
990.542901
 30
0.0
 11
81.851799
 21
990.242901
 31
0.0
  0
LINE
  5
44F
330
220
100
AcDbEntity
  8
7_ALL_FEATURES
  6
Continuous
 62
     7
100
AcDbLine
 10
79.342977
 20
990.49911
 30
0.0
 11
81.851799
 21
990.542901
 31
0.0
  0
ARC
  5
450
330
220
100
AcDbEntity
  8
7_ALL_FEATURES
  6
Continuous
 62
     7
100
AcDbCircle
 10
79.051799
 20
964.930909
 30
0.0
 40
0.2
100
AcDbArc
 50
191.167982
 51
252.15795
  0
ARC
  5
451
330
220
100
AcDbEntity
  8
7_ALL_FEATURES
  6
Continuous
 62
     7
100
AcDbCircle
 10
79.051799
 20
964.930909
 30
0.0
 40
0.2
100
AcDbArc
 50
180.0
 51
191.167982
  0
LINE
  5
452
330
220
100
AcDbEntity
  8
7_ALL_FEATURES
  6
Continuous
 62
     7
100
AcDbLine
 10
78.851799
 20
964.944185
 30
0.0
 11
78.851799
 21
964.930909
 31
0.0
  0
LINE
  5
453
330
220
100
AcDbEntity
  8
7_ALL_FEATURES
  6
Continuous
 62
     7
100
AcDbLine
 10
78.851799
 20
964.930909
 30
0.0
 11
78.851799
 21
965.086615
 31
0.0
  0
LINE
  5
454
330
220
100
AcDbEntity
  8
7_ALL_FEATURES
  6
Continuous
 62
     7
100
AcDbLine
 10
81.851799
 20
964.842901
 30
0.0
 11
81.851799
 21
966.027063
 31
0.0
  0
LINE
  5
455
330
220
100
AcDbEntity
  8
7_ALL_FEATURES
  6
Continuous
 62
     7
100
AcDbLine
 10
81.851799
 20
966.027063
 30
0.0
 11
81.851799
 21
975.598725
 31
0.0
  0
LINE
  5
456
330
220
100
AcDbEntity
  8
7_ALL_FEATURES
  6
Continuous
 62
     7
100
AcDbLine
 10
81.851799
 20
975.598725
 30
0.0
 11
81.851799
 21
976.487078
 31
0.0
  0
LINE
  5
457
330
220
100
AcDbEntity
  8
7_ALL_FEATURES
  6
Continuous
 62
     7
100
AcDbLine
 10
81.851799
 20
976.487078
 30
0.0
 11
81.851799
 21
983.598725
 31
0.0
  0
LINE
  5
458
330
220
100
AcDbEntity
  8
7_ALL_FEATURES
  6
Continuous
 62
     7
100
AcDbLine
 10
81.851799
 20
983.598725
 30
0.0
 11
81.851799
 21
984.487078
 31
0.0
  0
LINE
  5
459
330
220
100
AcDbEntity
  8
7_ALL_FEATURES
  6
Continuous
 62
     7
100
AcDbLine
 10
81.851799
 20
984.487078
 30
0.0
 11
81.851799
 21
989.056067
 31
0.0
  0
LINE
  5
45A
330
220
100
AcDbEntity
  8
7_ALL_FEATURES
  6
Continuous
 62
     7
100
AcDbLine
 10
81.851799
 20
989.056067
 30
0.0
 11
81.851799
 21
990.042901
 31
0.0
  0
LINE
  5
45B
330
220
100
AcDbEntity
  8
7_ALL_FEATURES
  6
Continuous
 62
     7
100
AcDbLine
 10
81.851799
 20
990.042901
 30
0.0
 11
81.851799
 21
990.242901
 31
0.0
  0
LINE
  5
45C
330
220
100
AcDbEntity
  8
7_ALL_FEATURES
  6
Continuous
 62
     7
100
AcDbLine
 10
81.851799
 20
964.842901
 30
0.0
 11
81.851799
 21
964.542901
 31
0.0
  0
LINE
  5
45D
330
220
100
AcDbEntity
  8
7_ALL_FEATURES
  6
Continuous
 62
     7
100
AcDbLine
 10
79.343073
 20
964.586691
 30
0.0
 11
81.851799
 21
964.542901
 31
0.0
  0
LINE
  5
45E
330
220
100
AcDbEntity
  8
7_ALL_FEATURES
  6
Continuous
 62
     7
100
AcDbLine
 10
79.343073
 20
990.499111
 30
0.0
 11
81.851799
 21
990.542901
 31
0.0
  0
ARC
  5
45F
330
220
100
AcDbEntity
  8
7_ALL_FEATURES
  6
Continuous
 62
     7
100
AcDbCircle
 10
79.351799
 20
965.086615
 30
0.0
 40
0.5
100
AcDbArc
 50
180.0
 51
269.002686
  0
ARC
  5
460
330
220
100
AcDbEntity
  8
7_ALL_FEATURES
  6
Continuous
 62
     7
100
AcDbCircle
 10
79.351799
 20
989.999188
 30
0.0
 40
0.5
100
AcDbArc
 50
91.011013
 51
180.0
  0
ARC
  5
461
330
220
100
AcDbEntity
  8
7_ALL_FEATURES
  6
Continuous
 62
     7
100
AcDbCircle
 10
79.351799
 20
989.999188
 30
0.0
 40
0.5
100
AcDbArc
 50
168.723365
 51
180.0
  0
LINE
  5
462
330
220
100
AcDbEntity
  8
7_ALL_FEATURES
  6
Continuous
 62
     7
100
AcDbLine
 10
81.851799
 20
990.042901
 30
0.0
 11
82.251799
 21
990.028933
 31
0.0
  0
LINE
  5
463
330
220
100
AcDbEntity
  8
7_ALL_FEATURES
  6
Continuous
 62
     7
100
AcDbLine
 10
81.851799
 20
965.042901
 30
0.0
 11
82.251799
 21
965.05687
 31
0.0
  0
LINE
  5
464
330
220
100
AcDbEntity
  8
7_ALL_FEATURES
  6
Continuous
 62
     9
100
AcDbLine
 10
79.343096
 20
964.586691
 30
0.0
 11
79.342977
 21
964.842901
 31
0.0
  0
LINE
  5
465
330
220
100
AcDbEntity
  8
7_ALL_FEATURES
  6
Continuous
 62
     9
100
AcDbLine
 10
79.343073
 20
964.842901
 30
0.0
 11
79.343073
 21
990.242901
 31
0.0
  0
LINE
  5
466
330
220
100
AcDbEntity
  8
7_ALL_FEATURES
  6
Continuous
 62
     9
100
AcDbLine
 10
79.343073
 20
990.242901
 30
0.0
 11
81.851799
 21
990.242901
 31
0.0
  0
LINE
  5
467
330
220
100
AcDbEntity
  8
7_ALL_FEATURES
  6
Continuous
 62
     9
100
AcDbLine
 10
79.343073
 20
964.842901
 30
0.0
 11
81.851799
 21
964.842901
 31
0.0
  0
LINE
  5
468
330
220
100
AcDbEntity
  8
7_ALL_FEATURES
  6
Continuous
 62
     9
100
AcDbLine
 10
79.343096
 20
990.242901
 30
0.0
 11
79.342977
 21
990.49911
 31
0.0
  0
SPLINE
  5
469
330
220
100
AcDbEntity
  8
7_ALL_FEATURES
  6
Continuous
 62
     9
100
AcDbSpline
 70
     0
 71
     3
 72
    13
 73
     9
 74
     0
 42
0.000000001
 43
0.0000001
 40
0.0
 40
0.0
 40
0.0
 40
0.0
 40
0.1713476579
 40
0.3350960535
 40
0.5544574145
 40
0.7343252617
 40
0.8772459992
 40
1.0
 40
1.0
 40
1.0
 40
1.0
 10
79.3429768975
 20
964.8429015022
 30
0.0
 10
79.3090124658
 20
964.8429094266
 30
0.0
 10
79.242529956
 20
964.8460000442
 30
0.0
 10
79.1336582311
 20
964.8620209624
 30
0.0
 10
79.0257176021
 20
964.8928482403
 30
0.0
 10
78.9299765889
 20
964.9438333007
 30
0.0
 10
78.8667680429
 20
965.0088751012
 30
0.0
 10
78.8518128508
 20
965.0622830812
 30
0.0
 10
78.8517991905
 20
965.0866153036
 30
0.0
  0
SPLINE
  5
46A
330
220
100
AcDbEntity
  8
7_ALL_FEATURES
  6
Continuous
 62
     9
100
AcDbSpline
 70
     0
 71
     3
 72
    12
 73
     8
 74
     0
 42
0.000000001
 43
0.0000001
 40
0.0
 40
0.0
 40
0.0
 40
0.0
 40
0.0814380156
 40
0.1681159928
 40
0.3223313989
 40
0.5158844834
 40
1.0
 40
1.0
 40
1.0
 40
1.0
 10
78.8517991905
 20
989.9991876509
 30
0.0
 10
78.8518082483
 20
990.0153217828
 30
0.0
 10
78.8576484765
 20
990.0489367636
 30
0.0
 10
78.8901826161
 20
990.1051169053
 30
0.0
 10
78.9584849163
 20
990.1606576759
 30
0.0
 10
79.1106016577
 20
990.2265994584
 30
0.0
 10
79.2471856318
 20
990.2428954345
 30
0.0
 10
79.3430964266
 20
990.2429014793
 30
0.0
  0
LINE
  5
46B
330
220
100
AcDbEntity
  8
7_ALL_FEATURES
  6
Continuous
 62
     9
100
AcDbLine
 10
81.851799
 20
989.042901
 30
0.0
 11
82.251799
 21
989.042901
 31
0.0
  0
LINE
  5
46C
330
220
100
AcDbEntity
  8
7_ALL_FEATURES
  6
Continuous
 62
     9
100
AcDbLine
 10
81.851799
 20
966.042901
 30
0.0
 11
82.251799
 21
966.042901
 31
0.0
  0
LINE
  5
46D
330
220
100
AcDbEntity
  8
7_ALL_FEATURES
  6
Continuous
 62
     7
100
AcDbLine
 10
1129.151799
 20
989.999188
 30
0.0
 11
1129.151799
 21
965.086615
 31
0.0
  0
LINE
  5
46E
330
220
100
AcDbEntity
  8
7_ALL_FEATURES
  6
Continuous
 62
     7
100
AcDbLine
 10
1126.151799
 20
965.042901
 30
0.0
 11
1125.751799
 21
965.05687
 31
0.0
  0
ARC
  5
46F
330
220
100
AcDbEntity
  8
7_ALL_FEATURES
  6
Continuous
 62
     7
100
AcDbCircle
 10
1128.951799
 20
964.930909
 30
0.0
 40
0.2
100
AcDbArc
 50
287.84205
 51
348.832018
  0
ARC
  5
470
330
220
100
AcDbEntity
  8
7_ALL_FEATURES
  6
Continuous
 62
     7
100
AcDbCircle
 10
1128.951799
 20
964.930909
 30
0.0
 40
0.2
100
AcDbArc
 50
348.832018
 51
360.0
  0
LINE
  5
471
330
220
100
AcDbEntity
  8
7_ALL_FEATURES
  6
Continuous
 62
     7
100
AcDbLine
 10
1129.151799
 20
964.944185
 30
0.0
 11
1129.151799
 21
964.930909
 31
0.0
  0
LINE
  5
472
330
220
100
AcDbEntity
  8
7_ALL_FEATURES
  6
Continuous
 62
     7
100
AcDbLine
 10
1129.151799
 20
965.086615
 30
0.0
 11
1129.151799
 21
964.944185
 31
0.0
  0
LINE
  5
473
330
220
100
AcDbEntity
  8
7_ALL_FEATURES
  6
Continuous
 62
     7
100
AcDbLine
 10
1126.151799
 20
990.242901
 30
0.0
 11
1126.151799
 21
990.542901
 31
0.0
  0
LINE
  5
474
330
220
100
AcDbEntity
  8
7_ALL_FEATURES
  6
Continuous
 62
     7
100
AcDbLine
 10
1126.151799
 20
990.242901
 30
0.0
 11
1126.151799
 21
989.056067
 31
0.0
  0
LINE
  5
475
330
220
100
AcDbEntity
  8
7_ALL_FEATURES
  6
Continuous
 62
     7
100
AcDbLine
 10
1126.151799
 20
989.056067
 30
0.0
 11
1126.151799
 21
984.487078
 31
0.0
  0
LINE
  5
476
330
220
100
AcDbEntity
  8
7_ALL_FEATURES
  6
Continuous
 62
     7
100
AcDbLine
 10
1126.151799
 20
984.487078
 30
0.0
 11
1126.151799
 21
983.598725
 31
0.0
  0
LINE
  5
477
330
220
100
AcDbEntity
  8
7_ALL_FEATURES
  6
Continuous
 62
     7
100
AcDbLine
 10
1126.151799
 20
983.598725
 30
0.0
 11
1126.151799
 21
976.487078
 31
0.0
  0
LINE
  5
478
330
220
100
AcDbEntity
  8
7_ALL_FEATURES
  6
Continuous
 62
     7
100
AcDbLine
 10
1126.151799
 20
976.487078
 30
0.0
 11
1126.151799
 21
975.598725
 31
0.0
  0
LINE
  5
479
330
220
100
AcDbEntity
  8
7_ALL_FEATURES
  6
Continuous
 62
     7
100
AcDbLine
 10
1126.151799
 20
975.598725
 30
0.0
 11
1126.151799
 21
966.027063
 31
0.0
  0
LINE
  5
47A
330
220
100
AcDbEntity
  8
7_ALL_FEATURES
  6
Continuous
 62
     7
100
AcDbLine
 10
1126.151799
 20
966.027063
 30
0.0
 11
1126.151799
 21
965.042901
 31
0.0
  0
LINE
  5
47B
330
220
100
AcDbEntity
  8
7_ALL_FEATURES
  6
Continuous
 62
     7
100
AcDbLine
 10
1126.151799
 20
965.042901
 30
0.0
 11
1126.151799
 21
964.842901
 31
0.0
  0
LINE
  5
47C
330
220
100
AcDbEntity
  8
7_ALL_FEATURES
  6
Continuous
 62
     7
100
AcDbLine
 10
1126.151799
 20
964.542901
 30
0.0
 11
1126.151799
 21
964.842901
 31
0.0
  0
LINE
  5
47D
330
220
100
AcDbEntity
  8
7_ALL_FEATURES
  6
Continuous
 62
     7
100
AcDbLine
 10
1128.660525
 20
964.586691
 30
0.0
 11
1126.151799
 21
964.542901
 31
0.0
  0
LINE
  5
47E
330
220
100
AcDbEntity
  8
7_ALL_FEATURES
  6
Continuous
 62
     7
100
AcDbLine
 10
1128.660525
 20
990.499111
 30
0.0
 11
1126.151799
 21
990.542901
 31
0.0
  0
ARC
  5
47F
330
220
100
AcDbEntity
  8
7_ALL_FEATURES
  6
Continuous
 62
     7
100
AcDbCircle
 10
1128.651799
 20
965.086615
 30
0.0
 40
0.5
100
AcDbArc
 50
271.011013
 51
360.0
  0
ARC
  5
480
330
220
100
AcDbEntity
  8
7_ALL_FEATURES
  6
Continuous
 62
     7
100
AcDbCircle
 10
1128.651799
 20
989.999188
 30
0.0
 40
0.5
100
AcDbArc
 50
0.0
 51
11.269686
  0
ARC
  5
481
330
220
100
AcDbEntity
  8
7_ALL_FEATURES
  6
Continuous
 62
     7
100
AcDbCircle
 10
1128.651799
 20
989.999188
 30
0.0
 40
0.5
100
AcDbArc
 50
0.0
 51
89.002686
  0
LINE
  5
482
330
220
100
AcDbEntity
  8
7_ALL_FEATURES
  6
Continuous
 62
     7
100
AcDbLine
 10
1126.151799
 20
990.042901
 30
0.0
 11
1125.751799
 21
990.028933
 31
0.0
  0
LINE
  5
483
330
220
100
AcDbEntity
  8
7_ALL_FEATURES
  6
Continuous
 62
     7
100
AcDbLine
 10
1126.151799
 20
965.042901
 30
0.0
 11
1125.751799
 21
965.05687
 31
0.0
  0
LINE
  5
484
330
220
100
AcDbEntity
  8
7_ALL_FEATURES
  6
Continuous
 62
     9
100
AcDbLine
 10
1128.660502
 20
990.499112
 30
0.0
 11
1128.660621
 21
990.242901
 31
0.0
  0
LINE
  5
485
330
220
100
AcDbEntity
  8
7_ALL_FEATURES
  6
Continuous
 62
     9
100
AcDbLine
 10
1128.660525
 20
990.242901
 30
0.0
 11
1128.660525
 21
964.842901
 31
0.0
  0
LINE
  5
486
330
220
100
AcDbEntity
  8
7_ALL_FEATURES
  6
Continuous
 62
     9
100
AcDbLine
 10
1128.660525
 20
964.842901
 30
0.0
 11
1126.151799
 21
964.842901
 31
0.0
  0
LINE
  5
487
330
220
100
AcDbEntity
  8
7_ALL_FEATURES
  6
Continuous
 62
     9
100
AcDbLine
 10
1128.660525
 20
990.242901
 30
0.0
 11
1126.151799
 21
990.242901
 31
0.0
  0
LINE
  5
488
330
220
100
AcDbEntity
  8
7_ALL_FEATURES
  6
Continuous
 62
     9
100
AcDbLine
 10
1128.660502
 20
964.842901
 30
0.0
 11
1128.660621
 21
964.586693
 31
0.0
  0
SPLINE
  5
489
330
220
100
AcDbEntity
  8
7_ALL_FEATURES
  6
Continuous
 62
     9
100
AcDbSpline
 70
     0
 71
     3
 72
    12
 73
     8
 74
     0
 42
0.000000001
 43
0.0000001
 40
0.0
 40
0.0
 40
0.0
 40
0.0
 40
0.0814380156
 40
0.1681159928
 40
0.3223313989
 40
0.5158844834
 40
1.0
 40
1.0
 40
1.0
 40
1.0
 10
1129.1517991905
 20
965.0866153036
 30
0.0
 10
1129.1517901326
 20
965.0704811717
 30
0.0
 10
1129.1459499044
 20
965.0368661909
 30
0.0
 10
1129.1134157648
 20
964.9806860492
 30
0.0
 10
1129.0451134646
 20
964.9251452786
 30
0.0
 10
1128.8929967232
 20
964.8592034961
 30
0.0
 10
1128.7564127491
 20
964.84290752
 30
0.0
 10
1128.6605019543
 20
964.8429014752
 30
0.0
  0
SPLINE
  5
48A
330
220
100
AcDbEntity
  8
7_ALL_FEATURES
  6
Continuous
 62
     9
100
AcDbSpline
 70
     0
 71
     3
 72
    13
 73
     9
 74
     0
 42
0.000000001
 43
0.0000001
 40
0.0
 40
0.0
 40
0.0
 40
0.0
 40
0.1713476579
 40
0.3350960535
 40
0.5544574145
 40
0.7343252617
 40
0.8772459992
 40
1.0
 40
1.0
 40
1.0
 40
1.0
 10
1128.6606214835
 20
990.2429014523
 30
0.0
 10
1128.6945859151
 20
990.2428935279
 30
0.0
 10
1128.761068425
 20
990.2398029103
 30
0.0
 10
1128.8699401498
 20
990.2237819921
 30
0.0
 10
1128.9778807789
 20
990.1929547142
 30
0.0
 10
1129.0736217921
 20
990.1419696538
 30
0.0
 10
1129.136830338
 20
990.0769278533
 30
0.0
 10
1129.1517855301
 20
990.0235198733
 30
0.0
 10
1129.1517991905
 20
989.9991876509
 30
0.0
  0
LINE
  5
48B
330
220
100
AcDbEntity
  8
7_ALL_FEATURES
  6
Continuous
 62
     9
100
AcDbLine
 10
1126.151799
 20
966.042901
 30
0.0
 11
1125.751799
 21
966.042901
 31
0.0
  0
LINE
  5
48C
330
220
100
AcDbEntity
  8
7_ALL_FEATURES
  6
Continuous
 62
     9
100
AcDbLine
 10
1126.151799
 20
989.042901
 30
0.0
 11
1125.751799
 21
989.042901
 31
0.0
  0
LINE
  5
48D
330
220
100
AcDbEntity
  8
0
  6
Continuous
 62
     7
100
AcDbLine
 10
77.851799
 20
989.292685
 30
0.0
 11
77.851799
 21
983.292901
 31
0.0
  0
LINE
  5
48E
330
220
100
AcDbEntity
  8
0
  6
Continuous
 62
     7
100
AcDbLine
 10
77.851799
 20
983.292901
 30
0.0
 11
77.851799
 21
981.542722
 31
0.0
  0
LINE
  5
48F
330
220
100
AcDbEntity
  8
0
  6
Continuous
 62
     7
100
AcDbLine
 10
77.851799
 20
981.542722
 30
0.0
 11
77.851799
 21
981.442864
 31
0.0
  0
LINE
  5
490
330
220
100
AcDbEntity
  8
0
  6
Continuous
 62
     7
100
AcDbLine
 10
77.851799
 20
981.442864
 30
0.0
 11
77.851799
 21
979.292901
 31
0.0
  0
LINE
  5
491
330
220
100
AcDbEntity
  8
0
  6
Continuous
 62
     7
100
AcDbLine
 10
77.851799
 20
979.292901
 30
0.0
 11
77.851799
 21
977.142939
 31
0.0
  0
LINE
  5
492
330
220
100
AcDbEntity
  8
0
  6
Continuous
 62
     7
100
AcDbLine
 10
77.851799
 20
977.142939
 30
0.0
 11
77.851799
 21
977.04308
 31
0.0
  0
LINE
  5
493
330
220
100
AcDbEntity
  8
0
  6
Continuous
 62
     7
100
AcDbLine
 10
77.851799
 20
977.04308
 30
0.0
 11
77.851799
 21
975.292901
 31
0.0
  0
LINE
  5
494
330
220
100
AcDbEntity
  8
0
  6
Continuous
 62
     7
100
AcDbLine
 10
77.851799
 20
975.292901
 30
0.0
 11
77.851799
 21
969.633643
 31
0.0
  0
LINE
  5
495
330
220
100
AcDbEntity
  8
0
  6
Continuous
 62
     7
100
AcDbLine
 10
77.851799
 20
953.728394
 30
0.0
 11
77.851799
 21
953.292901
 31
0.0
  0
LINE
  5
496
330
220
100
AcDbEntity
  8
0
  6
Continuous
 62
     7
100
AcDbLine
 10
77.851799
 20
969.504234
 30
0.0
 11
77.851799
 21
953.728394
 31
0.0
  0
LINE
  5
497
330
220
100
AcDbEntity
  8
0
  6
Continuous
 62
     7
100
AcDbLine
 10
77.851799
 20
969.633643
 30
0.0
 11
77.851799
 21
969.504234
 31
0.0
  0
LINE
  5
498
330
220
100
AcDbEntity
  8
0
  6
Continuous
 62
     7
100
AcDbLine
 10
75.851799
 20
989.292901
 30
0.0
 11
77.851799
 21
989.292901
 31
0.0
  0
LINE
  5
499
330
220
100
AcDbEntity
  8
0
  6
Continuous
 62
     7
100
AcDbLine
 10
79.851799
 20
951.292901
 30
0.0
 11
94.351799
 21
951.292901
 31
0.0
  0
LINE
  5
49A
330
220
100
AcDbEntity
  8
0
  6
Continuous
 62
     7
100
AcDbLine
 10
95.851799
 20
951.292901
 30
0.0
 11
94.351799
 21
951.292901
 31
0.0
  0
LINE
  5
49B
330
220
100
AcDbEntity
  8
0
  6
Continuous
 62
     7
100
AcDbLine
 10
95.851799
 20
951.292901
 30
0.0
 11
95.851799
 21
949.292901
 31
0.0
  0
ARC
  5
49C
330
220
100
AcDbEntity
  8
7_ALL_FEATURES
  6
Continuous
 62
     7
100
AcDbCircle
 10
79.851799
 20
953.292901
 30
0.0
 40
2.0
100
AcDbArc
 50
180.0
 51
270.0
  0
LINE
  5
49D
330
220
100
AcDbEntity
  8
0
  6
Continuous
 62
     9
100
AcDbLine
 10
75.851799
 20
969.504234
 30
0.0
 11
77.851799
 21
969.504234
 31
0.0
  0
LINE
  5
49E
330
220
100
AcDbEntity
  8
0
  6
Continuous
 62
     9
100
AcDbLine
 10
77.851799
 20
969.633643
 30
0.0
 11
75.851799
 21
969.633643
 31
0.0
  0
LINE
  5
49F
330
220
100
AcDbEntity
  8
0
  6
Continuous
 62
     9
100
AcDbLine
 10
94.351799
 20
951.292901
 30
0.0
 11
94.351799
 21
949.292901
 31
0.0
  0
LINE
  5
4A0
330
220
100
AcDbEntity
  8
7_ALL_FEATURES
  6
Continuous
 62
     9
100
AcDbLine
 10
75.851799
 20
953.292901
 30
0.0
 11
77.851799
 21
953.292901
 31
0.0
  0
LINE
  5
4A1
330
220
100
AcDbEntity
  8
7_ALL_FEATURES
  6
Continuous
 62
     9
100
AcDbLine
 10
79.851799
 20
949.292901
 30
0.0
 11
79.851799
 21
951.292901
 31
0.0
  0
LINE
  5
4A2
330
220
100
AcDbEntity
  8
0
  6
Continuous
 62
     9
100
AcDbLine
 10
75.851799
 20
953.728394
 30
0.0
 11
77.851799
 21
953.728394
 31
0.0
  0
LINE
  5
4A3
330
220
100
AcDbEntity
  8
7_ALL_FEATURES
  6
Continuous
 62
     7
100
AcDbLine
 10
1130.151799
 20
989.292685
 30
0.0
 11
1130.151799
 21
983.292901
 31
0.0
  0
LINE
  5
4A4
330
220
100
AcDbEntity
  8
7_ALL_FEATURES
  6
Continuous
 62
     7
100
AcDbLine
 10
1130.151799
 20
983.292901
 30
0.0
 11
1130.151799
 21
981.542722
 31
0.0
  0
LINE
  5
4A5
330
220
100
AcDbEntity
  8
7_ALL_FEATURES
  6
Continuous
 62
     7
100
AcDbLine
 10
1130.151799
 20
981.542722
 30
0.0
 11
1130.151799
 21
981.442864
 31
0.0
  0
LINE
  5
4A6
330
220
100
AcDbEntity
  8
7_ALL_FEATURES
  6
Continuous
 62
     7
100
AcDbLine
 10
1130.151799
 20
981.442864
 30
0.0
 11
1130.151799
 21
979.292901
 31
0.0
  0
LINE
  5
4A7
330
220
100
AcDbEntity
  8
7_ALL_FEATURES
  6
Continuous
 62
     7
100
AcDbLine
 10
1130.151799
 20
979.292901
 30
0.0
 11
1130.151799
 21
977.142939
 31
0.0
  0
LINE
  5
4A8
330
220
100
AcDbEntity
  8
7_ALL_FEATURES
  6
Continuous
 62
     7
100
AcDbLine
 10
1130.151799
 20
977.142939
 30
0.0
 11
1130.151799
 21
977.04308
 31
0.0
  0
LINE
  5
4A9
330
220
100
AcDbEntity
  8
7_ALL_FEATURES
  6
Continuous
 62
     7
100
AcDbLine
 10
1130.151799
 20
977.04308
 30
0.0
 11
1130.151799
 21
975.292901
 31
0.0
  0
LINE
  5
4AA
330
220
100
AcDbEntity
  8
7_ALL_FEATURES
  6
Continuous
 62
     7
100
AcDbLine
 10
1130.151799
 20
975.292901
 30
0.0
 11
1130.151799
 21
969.633643
 31
0.0
  0
LINE
  5
4AB
330
220
100
AcDbEntity
  8
7_ALL_FEATURES
  6
Continuous
 62
     7
100
AcDbLine
 10
1130.151799
 20
989.292901
 30
0.0
 11
1132.151799
 21
989.292901
 31
0.0
  0
ARC
  5
4AC
330
220
100
AcDbEntity
  8
7_ALL_FEATURES
  6
Continuous
 62
     7
100
AcDbCircle
 10
1128.151799
 20
953.292901
 30
0.0
 40
2.0
100
AcDbArc
 50
270.0
 51
360.0
  0
LINE
  5
4AD
330
220
100
AcDbEntity
  8
7_ALL_FEATURES
  6
Continuous
 62
     7
100
AcDbLine
 10
1130.151799
 20
969.633643
 30
0.0
 11
1130.151799
 21
969.504234
 31
0.0
  0
LINE
  5
4AE
330
220
100
AcDbEntity
  8
7_ALL_FEATURES
  6
Continuous
 62
     7
100
AcDbLine
 10
1130.151799
 20
969.504234
 30
0.0
 11
1130.151799
 21
953.728394
 31
0.0
  0
LINE
  5
4AF
330
220
100
AcDbEntity
  8
7_ALL_FEATURES
  6
Continuous
 62
     7
100
AcDbLine
 10
1130.151799
 20
953.728394
 30
0.0
 11
1130.151799
 21
953.292901
 31
0.0
  0
LINE
  5
4B0
330
220
100
AcDbEntity
  8
7_ALL_FEATURES
  6
Continuous
 62
     7
100
AcDbLine
 10
1112.151799
 20
951.292901
 30
0.0
 11
1112.151799
 21
949.292901
 31
0.0
  0
LINE
  5
4B1
330
220
100
AcDbEntity
  8
7_ALL_FEATURES
  6
Continuous
 62
     7
100
AcDbLine
 10
1112.151799
 20
951.292901
 30
0.0
 11
1113.651799
 21
951.292901
 31
0.0
  0
LINE
  5
4B2
330
220
100
AcDbEntity
  8
7_ALL_FEATURES
  6
Continuous
 62
     7
100
AcDbLine
 10
1128.151799
 20
951.292901
 30
0.0
 11
1113.651799
 21
951.292901
 31
0.0
  0
LINE
  5
4B3
330
220
100
AcDbEntity
  8
7_ALL_FEATURES
  6
Continuous
 62
     9
100
AcDbLine
 10
1132.151799
 20
953.292901
 30
0.0
 11
1130.151799
 21
953.292901
 31
0.0
  0
LINE
  5
4B4
330
220
100
AcDbEntity
  8
7_ALL_FEATURES
  6
Continuous
 62
     9
100
AcDbLine
 10
1113.651799
 20
951.292901
 30
0.0
 11
1113.651799
 21
949.292901
 31
0.0
  0
LINE
  5
4B5
330
220
100
AcDbEntity
  8
7_ALL_FEATURES
  6
Continuous
 62
     9
100
AcDbLine
 10
1132.151799
 20
969.633643
 30
0.0
 11
1130.151799
 21
969.633643
 31
0.0
  0
LINE
  5
4B6
330
220
100
AcDbEntity
  8
7_ALL_FEATURES
  6
Continuous
 62
     9
100
AcDbLine
 10
1132.151799
 20
969.504234
 30
0.0
 11
1130.151799
 21
969.504234
 31
0.0
  0
LINE
  5
4B7
330
220
100
AcDbEntity
  8
7_ALL_FEATURES
  6
Continuous
 62
     9
100
AcDbLine
 10
1132.151799
 20
953.728394
 30
0.0
 11
1130.151799
 21
953.728394
 31
0.0
  0
LINE
  5
4B8
330
220
100
AcDbEntity
  8
7_ALL_FEATURES
  6
Continuous
 62
     9
100
AcDbLine
 10
1128.151799
 20
949.292901
 30
0.0
 11
1128.151799
 21
951.292901
 31
0.0
  0
LINE
  5
4B9
330
220
100
AcDbEntity
  8
7_ALL_FEATURES
  6
Continuous
 62
     7
100
AcDbLine
 10
1125.751799
 20
990.542901
 30
0.0
 11
82.251799
 21
990.542901
 31
0.0
  0
LINE
  5
4BA
330
220
100
AcDbEntity
  8
7_ALL_FEATURES
  6
Continuous
 62
     7
100
AcDbLine
 10
1125.751799
 20
964.542901
 30
0.0
 11
82.251799
 21
964.542901
 31
0.0
  0
LINE
  5
4BB
330
220
100
AcDbEntity
  8
7_ALL_FEATURES
  6
Continuous
 62
     7
100
AcDbLine
 10
82.251799
 20
964.542901
 30
0.0
 11
82.251799
 21
965.05687
 31
0.0
  0
LINE
  5
4BC
330
220
100
AcDbEntity
  8
7_ALL_FEATURES
  6
Continuous
 62
     7
100
AcDbLine
 10
82.251799
 20
965.05687
 30
0.0
 11
82.251799
 21
966.042901
 31
0.0
  0
LINE
  5
4BD
330
220
100
AcDbEntity
  8
7_ALL_FEATURES
  6
Continuous
 62
     7
100
AcDbLine
 10
82.251799
 20
966.042901
 30
0.0
 11
82.251799
 21
989.042901
 31
0.0
  0
LINE
  5
4BE
330
220
100
AcDbEntity
  8
7_ALL_FEATURES
  6
Continuous
 62
     7
100
AcDbLine
 10
82.251799
 20
989.042901
 30
0.0
 11
82.251799
 21
990.028933
 31
0.0
  0
LINE
  5
4BF
330
220
100
AcDbEntity
  8
7_ALL_FEATURES
  6
Continuous
 62
     7
100
AcDbLine
 10
82.251799
 20
990.028933
 30
0.0
 11
82.251799
 21
990.542901
 31
0.0
  0
LINE
  5
4C0
330
220
100
AcDbEntity
  8
7_ALL_FEATURES
  6
Continuous
 62
     7
100
AcDbLine
 10
1125.751799
 20
964.542901
 30
0.0
 11
1125.751799
 21
965.05687
 31
0.0
  0
LINE
  5
4C1
330
220
100
AcDbEntity
  8
7_ALL_FEATURES
  6
Continuous
 62
     7
100
AcDbLine
 10
1125.751799
 20
965.05687
 30
0.0
 11
1125.751799
 21
966.042901
 31
0.0
  0
LINE
  5
4C2
330
220
100
AcDbEntity
  8
7_ALL_FEATURES
  6
Continuous
 62
     7
100
AcDbLine
 10
1125.751799
 20
966.042901
 30
0.0
 11
1125.751799
 21
989.042901
 31
0.0
  0
LINE
  5
4C3
330
220
100
AcDbEntity
  8
7_ALL_FEATURES
  6
Continuous
 62
     7
100
AcDbLine
 10
1125.751799
 20
989.042901
 30
0.0
 11
1125.751799
 21
990.028933
 31
0.0
  0
LINE
  5
4C4
330
220
100
AcDbEntity
  8
7_ALL_FEATURES
  6
Continuous
 62
     7
100
AcDbLine
 10
1125.751799
 20
990.028933
 30
0.0
 11
1125.751799
 21
990.542901
 31
0.0
  0
LINE
  5
4C5
330
220
100
AcDbEntity
  8
0
  6
Continuous
 62
     3
100
AcDbLine
 10
75.851799
 20
969.633643
 30
0.0
 11
75.851799
 21
969.504234
 31
0.0
  0
LINE
  5
4C6
330
220
100
AcDbEntity
  8
0
  6
Continuous
 62
     3
100
AcDbLine
 10
75.851799
 20
969.504234
 30
0.0
 11
75.851799
 21
953.728394
 31
0.0
  0
LINE
  5
4C7
330
220
100
AcDbEntity
  8
0
  6
Continuous
 62
     3
100
AcDbLine
 10
75.851799
 20
953.728394
 30
0.0
 11
75.851799
 21
953.292901
 31
0.0
  0
LINE
  5
4C8
330
220
100
AcDbEntity
  8
0
  6
Continuous
 62
     3
100
AcDbLine
 10
75.851799
 20
989.292685
 30
0.0
 11
75.851799
 21
981.542722
 31
0.0
  0
LINE
  5
4C9
330
220
100
AcDbEntity
  8
0
  6
Continuous
 62
     3
100
AcDbLine
 10
75.851799
 20
981.542722
 30
0.0
 11
75.851799
 21
979.292901
 31
0.0
  0
LINE
  5
4CA
330
220
100
AcDbEntity
  8
0
  6
Continuous
 62
     3
100
AcDbLine
 10
75.851799
 20
979.292901
 30
0.0
 11
75.851799
 21
977.04308
 31
0.0
  0
LINE
  5
4CB
330
220
100
AcDbEntity
  8
0
  6
Continuous
 62
     3
100
AcDbLine
 10
75.851799
 20
977.04308
 30
0.0
 11
75.851799
 21
969.633643
 31
0.0
  0
LINE
  5
4CC
330
220
100
AcDbEntity
  8
0
  6
Continuous
 62
     3
100
AcDbLine
 10
79.851799
 20
949.292901
 30
0.0
 11
94.351799
 21
949.292901
 31
0.0
  0
LINE
  5
4CD
330
220
100
AcDbEntity
  8
0
  6
Continuous
 62
     3
100
AcDbLine
 10
94.351799
 20
949.292901
 30
0.0
 11
95.851799
 21
949.292901
 31
0.0
  0
ARC
  5
4CE
330
220
100
AcDbEntity
  8
7_ALL_FEATURES
  6
Continuous
 62
     3
100
AcDbCircle
 10
79.851799
 20
953.292901
 30
0.0
 40
4.0
100
AcDbArc
 50
180.0
 51
270.0
  0
LINE
  5
4CF
330
220
100
AcDbEntity
  8
7_ALL_FEATURES
  6
Continuous
 62
     3
100
AcDbLine
 10
1132.151799
 20
953.728394
 30
0.0
 11
1132.151799
 21
953.292901
 31
0.0
  0
LINE
  5
4D0
330
220
100
AcDbEntity
  8
7_ALL_FEATURES
  6
Continuous
 62
     3
100
AcDbLine
 10
1132.151799
 20
969.504234
 30
0.0
 11
1132.151799
 21
953.728394
 31
0.0
  0
LINE
  5
4D1
330
220
100
AcDbEntity
  8
7_ALL_FEATURES
  6
Continuous
 62
     3
100
AcDbLine
 10
1132.151799
 20
969.633643
 30
0.0
 11
1132.151799
 21
969.504234
 31
0.0
  0
LINE
  5
4D2
330
220
100
AcDbEntity
  8
7_ALL_FEATURES
  6
Continuous
 62
     3
100
AcDbLine
 10
1132.151799
 20
989.292685
 30
0.0
 11
1132.151799
 21
983.292901
 31
0.0
  0
LINE
  5
4D3
330
220
100
AcDbEntity
  8
7_ALL_FEATURES
  6
Continuous
 62
     3
100
AcDbLine
 10
1132.151799
 20
983.292901
 30
0.0
 11
1132.151799
 21
981.542722
 31
0.0
  0
LINE
  5
4D4
330
220
100
AcDbEntity
  8
7_ALL_FEATURES
  6
Continuous
 62
     3
100
AcDbLine
 10
1132.151799
 20
981.542722
 30
0.0
 11
1132.151799
 21
981.442864
 31
0.0
  0
LINE
  5
4D5
330
220
100
AcDbEntity
  8
7_ALL_FEATURES
  6
Continuous
 62
     3
100
AcDbLine
 10
1132.151799
 20
981.442864
 30
0.0
 11
1132.151799
 21
979.292901
 31
0.0
  0
LINE
  5
4D6
330
220
100
AcDbEntity
  8
7_ALL_FEATURES
  6
Continuous
 62
     3
100
AcDbLine
 10
1132.151799
 20
979.292901
 30
0.0
 11
1132.151799
 21
977.142939
 31
0.0
  0
LINE
  5
4D7
330
220
100
AcDbEntity
  8
7_ALL_FEATURES
  6
Continuous
 62
     3
100
AcDbLine
 10
1132.151799
 20
977.142939
 30
0.0
 11
1132.151799
 21
977.04308
 31
0.0
  0
LINE
  5
4D8
330
220
100
AcDbEntity
  8
7_ALL_FEATURES
  6
Continuous
 62
     3
100
AcDbLine
 10
1132.151799
 20
977.04308
 30
0.0
 11
1132.151799
 21
975.292901
 31
0.0
  0
LINE
  5
4D9
330
220
100
AcDbEntity
  8
7_ALL_FEATURES
  6
Continuous
 62
     3
100
AcDbLine
 10
1132.151799
 20
975.292901
 30
0.0
 11
1132.151799
 21
969.633643
 31
0.0
  0
ARC
  5
4DA
330
220
100
AcDbEntity
  8
7_ALL_FEATURES
  6
Continuous
 62
     3
100
AcDbCircle
 10
1128.151799
 20
953.292901
 30
0.0
 40
4.0
100
AcDbArc
 50
270.0
 51
360.0
  0
LINE
  5
4DB
330
220
100
AcDbEntity
  8
7_ALL_FEATURES
  6
Continuous
 62
     3
100
AcDbLine
 10
1113.651799
 20
949.292901
 30
0.0
 11
1112.151799
 21
949.292901
 31
0.0
  0
LINE
  5
4DC
330
220
100
AcDbEntity
  8
7_ALL_FEATURES
  6
Continuous
 62
     3
100
AcDbLine
 10
1128.151799
 20
949.292901
 30
0.0
 11
1113.651799
 21
949.292901
 31
0.0
  0
LINE
  5
4DD
330
220
100
AcDbEntity
  8
7_ALL_FEATURES
  6
Continuous
 62
     7
100
AcDbLine
 10
1359.300716
 20
966.792901
 30
0.0
 11
1359.300716
 21
967.667901
 31
0.0
  0
LINE
  5
4DE
330
220
100
AcDbEntity
  8
7_ALL_FEATURES
  6
Continuous
 62
     7
100
AcDbLine
 10
1359.300716
 20
967.667901
 30
0.0
 11
1360.175716
 21
967.667901
 31
0.0
  0
LINE
  5
4DF
330
220
100
AcDbEntity
  8
7_ALL_FEATURES
  6
Continuous
 62
     7
100
AcDbLine
 10
1360.175716
 20
968.417901
 30
0.0
 11
1359.300716
 21
968.417901
 31
0.0
  0
LINE
  5
4E0
330
220
100
AcDbEntity
  8
7_ALL_FEATURES
  6
Continuous
 62
     7
100
AcDbLine
 10
1359.300716
 20
968.417901
 30
0.0
 11
1359.300716
 21
969.292901
 31
0.0
  0
LINE
  5
4E1
330
220
100
AcDbEntity
  8
7_ALL_FEATURES
  6
Continuous
 62
     7
100
AcDbLine
 10
1358.550716
 20
969.292901
 30
0.0
 11
1358.550716
 21
968.417901
 31
0.0
  0
LINE
  5
4E2
330
220
100
AcDbEntity
  8
7_ALL_FEATURES
  6
Continuous
 62
     7
100
AcDbLine
 10
1358.550716
 20
968.417901
 30
0.0
 11
1357.675716
 21
968.417901
 31
0.0
  0
LINE
  5
4E3
330
220
100
AcDbEntity
  8
7_ALL_FEATURES
  6
Continuous
 62
     7
100
AcDbLine
 10
1357.675716
 20
967.667901
 30
0.0
 11
1358.550716
 21
967.667901
 31
0.0
  0
LINE
  5
4E4
330
220
100
AcDbEntity
  8
7_ALL_FEATURES
  6
Continuous
 62
     7
100
AcDbLine
 10
1358.550716
 20
967.667901
 30
0.0
 11
1358.550716
 21
966.792901
 31
0.0
  0
ARC
  5
4E5
330
220
100
AcDbEntity
  8
3_ALL_AXES
  6
Continuous
 62
     7
100
AcDbCircle
 10
1358.925716
 20
968.042901
 30
0.0
 40
2.75
100
AcDbArc
 50
0.0
 51
180.0
  0
ARC
  5
4E6
330
220
100
AcDbEntity
  8
3_ALL_AXES
  6
Continuous
 62
     7
100
AcDbCircle
 10
1358.925716
 20
968.042901
 30
0.0
 40
2.75
100
AcDbArc
 50
180.0
 51
360.0
  0
LINE
  5
4E7
330
220
100
AcDbEntity
  8
7_ALL_FEATURES
  6
Continuous
 62
     7
100
AcDbLine
 10
1357.675716
 20
967.667901
 30
0.0
 11
1357.675716
 21
968.417901
 31
0.0
  0
LINE
  5
4E8
330
220
100
AcDbEntity
  8
7_ALL_FEATURES
  6
Continuous
 62
     7
100
AcDbLine
 10
1359.300716
 20
966.792901
 30
0.0
 11
1358.550716
 21
966.792901
 31
0.0
  0
LINE
  5
4E9
330
220
100
AcDbEntity
  8
7_ALL_FEATURES
  6
Continuous
 62
     7
100
AcDbLine
 10
1360.175716
 20
968.417901
 30
0.0
 11
1360.175716
 21
967.667901
 31
0.0
  0
LINE
  5
4EA
330
220
100
AcDbEntity
  8
7_ALL_FEATURES
  6
Continuous
 62
     7
100
AcDbLine
 10
1358.550716
 20
969.292901
 30
0.0
 11
1359.300716
 21
969.292901
 31
0.0
  0
LINE
  5
4EB
330
220
100
AcDbEntity
  8
02___PRT_ALL_AXES
  6
Continuous
 62
     7
100
AcDbLine
 10
1346.275716
 20
962.342901
 30
0.0
 11
1346.275716
 21
964.542901
 31
0.0
  0
LINE
  5
4EC
330
220
100
AcDbEntity
  8
02___PRT_ALL_AXES
  6
Continuous
 62
     7
100
AcDbLine
 10
1355.575716
 20
962.342901
 30
0.0
 11
1355.575716
 21
964.542901
 31
0.0
  0
LINE
  5
4ED
330
220
100
AcDbEntity
  8
7_ALL_FEATURES
  6
Continuous
 62
     7
100
AcDbLine
 10
1348.675716
 20
964.342901
 30
0.0
 11
1348.675716
 21
964.542901
 31
0.0
  0
LINE
  5
4EE
330
220
100
AcDbEntity
  8
02___PRT_ALL_AXES
  6
Continuous
 62
     7
100
AcDbLine
 10
1355.575716
 20
962.342901
 30
0.0
 11
1354.125716
 21
962.342901
 31
0.0
  0
LINE
  5
4EF
330
220
100
AcDbEntity
  8
02___PRT_ALL_AXES
  6
Continuous
 62
     7
100
AcDbLine
 10
1354.125716
 20
962.342901
 30
0.0
 11
1347.725716
 21
962.342901
 31
0.0
  0
LINE
  5
4F0
330
220
100
AcDbEntity
  8
02___PRT_ALL_AXES
  6
Continuous
 62
     7
100
AcDbLine
 10
1347.725716
 20
962.342901
 30
0.0
 11
1346.275716
 21
962.342901
 31
0.0
  0
LINE
  5
4F1
330
220
100
AcDbEntity
  8
7_ALL_FEATURES
  6
Continuous
 62
     7
100
AcDbLine
 10
1350.425716
 20
964.342901
 30
0.0
 11
1350.425716
 21
964.542901
 31
0.0
  0
LINE
  5
4F2
330
220
100
AcDbEntity
  8
7_ALL_FEATURES
  6
Continuous
 62
     7
100
AcDbLine
 10
1353.175716
 20
964.542901
 30
0.0
 11
1353.175716
 21
964.342901
 31
0.0
  0
LINE
  5
4F3
330
220
100
AcDbEntity
  8
7_ALL_FEATURES
  6
Continuous
 62
     7
100
AcDbLine
 10
1351.425716
 20
964.542901
 30
0.0
 11
1351.425716
 21
964.342901
 31
0.0
  0
LINE
  5
4F4
330
220
100
AcDbEntity
  8
7_ALL_FEATURES
  6
Continuous
 62
     7
100
AcDbLine
 10
1350.425716
 20
964.342901
 30
0.0
 11
1348.675716
 21
964.342901
 31
0.0
  0
LINE
  5
4F5
330
220
100
AcDbEntity
  8
7_ALL_FEATURES
  6
Continuous
 62
     7
100
AcDbLine
 10
1353.175716
 20
964.342901
 30
0.0
 11
1351.425716
 21
964.342901
 31
0.0
  0
LINE
  5
4F6
330
220
100
AcDbEntity
  8
7_ALL_FEATURES
  6
Continuous
 62
     7
100
AcDbLine
 10
1350.425716
 20
964.342901
 30
0.0
 11
1351.425716
 21
964.342901
 31
0.0
  0
LINE
  5
4F7
330
220
100
AcDbEntity
  8
7_ALL_FEATURES
  6
Continuous
 62
     7
100
AcDbLine
 10
1353.175716
 20
964.342901
 30
0.0
 11
1353.925716
 21
964.342901
 31
0.0
  0
LINE
  5
4F8
330
220
100
AcDbEntity
  8
7_ALL_FEATURES
  6
Continuous
 62
     7
100
AcDbLine
 10
1353.925716
 20
964.342901
 30
0.0
 11
1353.925716
 21
964.542901
 31
0.0
  0
LINE
  5
4F9
330
220
100
AcDbEntity
  8
02___PRT_ALL_AXES
  6
Continuous
 62
     7
100
AcDbLine
 10
1355.575716
 20
964.542901
 30
0.0
 11
1355.575716
 21
962.342901
 31
0.0
  0
LINE
  5
4FA
330
220
100
AcDbEntity
  8
02___PRT_ALL_AXES
  6
Continuous
 62
     7
100
AcDbLine
 10
1346.275716
 20
964.542901
 30
0.0
 11
1346.275716
 21
962.342901
 31
0.0
  0
LINE
  5
4FB
330
220
100
AcDbEntity
  8
7_ALL_FEATURES
  6
Continuous
 62
     7
100
AcDbLine
 10
1347.925716
 20
964.342901
 30
0.0
 11
1348.675716
 21
964.342901
 31
0.0
  0
LINE
  5
4FC
330
220
100
AcDbEntity
  8
7_ALL_FEATURES
  6
Continuous
 62
     7
100
AcDbLine
 10
1347.925716
 20
964.342901
 30
0.0
 11
1347.925716
 21
964.542901
 31
0.0
  0
ARC
  5
4FD
330
220
100
AcDbEntity
  8
3_ALL_AXES
  6
Continuous
 62
     7
100
AcDbCircle
 10
1350.925716
 20
979.292901
 30
0.0
 40
1.5
100
AcDbArc
 50
180.0
 51
360.0
  0
ARC
  5
4FE
330
220
100
AcDbEntity
  8
3_ALL_AXES
  6
Continuous
 62
     7
100
AcDbCircle
 10
1350.925716
 20
979.292901
 30
0.0
 40
1.5
100
AcDbArc
 50
0.0
 51
180.0
  0
ARC
  5
4FF
330
220
100
AcDbEntity
  8
02___PRT_ALL_AXES
  6
Continuous
 62
     7
100
AcDbCircle
 10
1350.925716
 20
979.292901
 30
0.0
 40
2.15
100
AcDbArc
 50
0.0
 51
180.0
  0
ARC
  5
500
330
220
100
AcDbEntity
  8
02___PRT_ALL_AXES
  6
Continuous
 62
     7
100
AcDbCircle
 10
1350.925716
 20
979.292901
 30
0.0
 40
2.15
100
AcDbArc
 50
180.0
 51
360.0
  0
LINE
  5
501
330
220
100
AcDbEntity
  8
7_ALL_FEATURES
  6
Continuous
 62
     7
100
AcDbLine
 10
1352.265427
 20
978.630125
 30
0.0
 11
1352.327878
 21
979.821752
 31
0.0
  0
LINE
  5
502
330
220
100
AcDbEntity
  8
7_ALL_FEATURES
  6
Continuous
 62
     7
100
AcDbLine
 10
1349.523555
 20
979.821752
 30
0.0
 11
1349.586005
 21
978.630125
 31
0.0
  0
LINE
  5
503
330
220
100
AcDbEntity
  8
7_ALL_FEATURES
  6
Continuous
 62
     9
100
AcDbLine
 10
1349.990667
 20
980.462367
 30
0.0
 11
1350.117915
 21
978.034336
 31
0.0
  0
LINE
  5
504
330
220
100
AcDbEntity
  8
7_ALL_FEATURES
  6
Continuous
 62
     9
100
AcDbLine
 10
1351.733517
 20
978.034336
 30
0.0
 11
1351.860765
 21
980.462367
 31
0.0
  0
LINE
  5
505
330
220
100
AcDbEntity
  8
7_ALL_FEATURES
  6
Continuous
 62
     7
100
AcDbLine
 10
1361.011666
 20
982.798372
 30
0.0
 11
1361.011666
 21
985.692266
 31
0.0
  0
LINE
  5
506
330
220
100
AcDbEntity
  8
7_ALL_FEATURES
  6
Continuous
 62
     7
100
AcDbLine
 10
1361.011666
 20
985.692266
 30
0.0
 11
1360.604476
 21
985.692266
 31
0.0
  0
LINE
  5
507
330
220
100
AcDbEntity
  8
7_ALL_FEATURES
  6
Continuous
 62
     7
100
AcDbLine
 10
1360.604476
 20
985.692266
 30
0.0
 11
1360.604476
 21
982.425836
 31
0.0
  0
LINE
  5
508
330
220
100
AcDbEntity
  8
7_ALL_FEATURES
  6
Continuous
 62
     7
100
AcDbLine
 10
1360.604476
 20
982.425836
 30
0.0
 11
1362.003978
 21
982.425836
 31
0.0
  0
LINE
  5
509
330
220
100
AcDbEntity
  8
7_ALL_FEATURES
  6
Continuous
 62
     7
100
AcDbLine
 10
1362.003978
 20
982.425836
 30
0.0
 11
1362.003978
 21
982.798372
 31
0.0
  0
LINE
  5
50A
330
220
100
AcDbEntity
  8
7_ALL_FEATURES
  6
Continuous
 62
     7
100
AcDbLine
 10
1362.003978
 20
982.798372
 30
0.0
 11
1361.011666
 21
982.798372
 31
0.0
  0
LINE
  5
50B
330
220
100
AcDbEntity
  8
7_ALL_FEATURES
  6
Continuous
 62
     7
100
AcDbLine
 10
1362.324858
 20
988.692125
 30
0.0
 11
1362.324858
 21
981.893595
 31
0.0
  0
LINE
  5
50C
330
220
100
AcDbEntity
  8
7_ALL_FEATURES
  6
Continuous
 62
     7
100
AcDbLine
 10
1362.324858
 20
981.893595
 30
0.0
 11
1360.580424
 21
981.893595
 31
0.0
  0
LINE
  5
50D
330
220
100
AcDbEntity
  8
7_ALL_FEATURES
  6
Continuous
 62
     7
100
AcDbLine
 10
1355.526492
 20
988.139708
 30
0.0
 11
1355.526492
 21
988.692125
 31
0.0
  0
LINE
  5
50E
330
220
100
AcDbEntity
  8
7_ALL_FEATURES
  6
Continuous
 62
     7
100
AcDbLine
 10
1355.526492
 20
988.692125
 30
0.0
 11
1362.324858
 21
988.692125
 31
0.0
  0
LINE
  5
50F
330
220
100
AcDbEntity
  8
7_ALL_FEATURES
  6
Continuous
 62
     7
100
AcDbLine
 10
1362.724858
 20
989.092125
 30
0.0
 11
1355.126492
 21
989.092125
 31
0.0
  0
LINE
  5
510
330
220
100
AcDbEntity
  8
7_ALL_FEATURES
  6
Continuous
 62
     7
100
AcDbLine
 10
1355.126492
 20
989.092125
 30
0.0
 11
1355.126492
 21
989.042901
 31
0.0
  0
LINE
  5
511
330
220
100
AcDbEntity
  8
7_ALL_FEATURES
  6
Continuous
 62
     7
100
AcDbLine
 10
1355.126492
 20
989.042901
 30
0.0
 11
1355.126492
 21
988.365227
 31
0.0
  0
LINE
  5
512
330
220
100
AcDbEntity
  8
7_ALL_FEATURES
  6
Continuous
 62
     7
100
AcDbLine
 10
1360.653301
 20
981.493595
 30
0.0
 11
1362.675716
 21
981.493595
 31
0.0
  0
LINE
  5
513
330
220
100
AcDbEntity
  8
7_ALL_FEATURES
  6
Continuous
 62
     7
100
AcDbLine
 10
1362.675716
 20
981.493595
 30
0.0
 11
1362.724858
 21
981.493595
 31
0.0
  0
LINE
  5
514
330
220
100
AcDbEntity
  8
7_ALL_FEATURES
  6
Continuous
 62
     7
100
AcDbLine
 10
1362.724858
 20
981.493595
 30
0.0
 11
1362.724858
 21
989.092125
 31
0.0
  0
LINE
  5
515
330
220
100
AcDbEntity
  8
7_ALL_FEATURES
  6
Continuous
 62
     7
100
AcDbLine
 10
1360.019778
 20
983.433958
 30
0.0
 11
1360.175791
 21
983.617002
 31
0.0
  0
LINE
  5
516
330
220
100
AcDbEntity
  8
7_ALL_FEATURES
  6
Continuous
 62
     7
100
AcDbLine
 10
1360.175791
 20
983.617002
 30
0.0
 11
1359.915882
 21
983.885901
 31
0.0
  0
LINE
  5
517
330
220
100
AcDbEntity
  8
7_ALL_FEATURES
  6
Continuous
 62
     7
100
AcDbLine
 10
1359.915882
 20
983.885901
 30
0.0
 11
1359.832699
 21
983.789449
 31
0.0
  0
SPLINE
  5
518
330
220
100
AcDbEntity
  8
7_ALL_FEATURES
  6
Continuous
 62
     7
100
AcDbSpline
 70
     0
 71
     3
 72
    11
 73
     7
 74
     0
 42
0.000000001
 43
0.0000001
 40
0.0
 40
0.0
 40
0.0
 40
0.0
 40
0.0154993679
 40
0.5879903258
 40
0.9518623597
 40
1.0
 40
1.0
 40
1.0
 40
1.0
 10
1358.5185404301
 20
985.7458853391
 30
0.0
 10
1358.523145137
 20
985.746785496
 30
0.0
 10
1358.6980578521
 20
985.7796189568
 30
0.0
 10
1358.9926713733
 20
985.7524592203
 30
0.0
 10
1359.2368217086
 20
985.5795523249
 30
0.0
 10
1359.3131724631
 20
985.482117654
 30
0.0
 10
1359.32172107
 20
985.4704268705
 30
0.0
  0
SPLINE
  5
519
330
220
100
AcDbEntity
  8
7_ALL_FEATURES
  6
Continuous
 62
     7
100
AcDbSpline
 70
     0
 71
     3
 72
     9
 73
     5
 74
     0
 42
0.000000001
 43
0.0000001
 40
0.0
 40
0.0
 40
0.0
 40
0.0
 40
0.7017685103
 40
1.0
 40
1.0
 40
1.0
 40
1.0
 10
1358.7812659889
 20
985.4334703346
 30
0.0
 10
1358.8406624716
 20
985.422046619
 30
0.0
 10
1358.9256188887
 20
985.3899223717
 30
0.0
 10
1358.9842521227
 20
985.3226665627
 30
0.0
 10
1358.9992818034
 20
985.3007777215
 30
0.0
  0
ARC
  5
51A
330
220
100
AcDbEntity
  8
02___PRT_ALL_AXES
  6
Continuous
 62
     7
100
AcDbCircle
 10
1350.925716
 20
979.292901
 30
0.0
 40
2.1
100
AcDbArc
 50
0.0
 51
180.0
  0
ARC
  5
51B
330
220
100
AcDbEntity
  8
02___PRT_ALL_AXES
  6
Continuous
 62
     7
100
AcDbCircle
 10
1350.925716
 20
979.292901
 30
0.0
 40
2.1
100
AcDbArc
 50
180.0
 51
360.0
  0
ARC
  5
51C
330
220
100
AcDbEntity
  8
7_ALL_FEATURES
  6
Continuous
 62
     7
100
AcDbCircle
 10
1363.875716
 20
964.842901
 30
0.0
 40
0.3
100
AcDbArc
 50
327.053773
 51
360.0
  0
ARC
  5
51D
330
220
100
AcDbEntity
  8
7_ALL_FEATURES
  6
Continuous
 62
     7
100
AcDbCircle
 10
1363.875716
 20
964.842901
 30
0.0
 40
0.3
100
AcDbArc
 50
288.0
 51
327.053773
  0
ARC
  5
51E
330
220
100
AcDbEntity
  8
7_ALL_FEATURES
  6
Continuous
 62
     7
100
AcDbCircle
 10
1363.875716
 20
964.842901
 30
0.0
 40
0.3
100
AcDbArc
 50
270.0
 51
288.0
  0
LINE
  5
51F
330
220
100
AcDbEntity
  8
7_ALL_FEATURES
  6
Continuous
 62
     7
100
AcDbLine
 10
1345.091079
 20
964.542901
 30
0.0
 11
1348.675716
 21
964.542901
 31
0.0
  0
LINE
  5
520
330
220
100
AcDbEntity
  8
7_ALL_FEATURES
  6
Continuous
 62
     7
100
AcDbLine
 10
1348.675716
 20
964.542901
 30
0.0
 11
1353.175716
 21
964.542901
 31
0.0
  0
LINE
  5
521
330
220
100
AcDbEntity
  8
7_ALL_FEATURES
  6
Continuous
 62
     7
100
AcDbLine
 10
1353.175716
 20
964.542901
 30
0.0
 11
1363.875716
 21
964.542901
 31
0.0
  0
LINE
  5
522
330
220
100
AcDbEntity
  8
7_ALL_FEATURES
  6
Continuous
 62
     7
100
AcDbLine
 10
1337.675716
 20
990.242901
 30
0.0
 11
1337.675716
 21
984.258106
 31
0.0
  0
ARC
  5
523
330
220
100
AcDbEntity
  8
7_ALL_FEATURES
  6
Continuous
 62
     7
100
AcDbCircle
 10
1337.975716
 20
990.242901
 30
0.0
 40
0.3
100
AcDbArc
 50
147.053773
 51
180.0
  0
ARC
  5
524
330
220
100
AcDbEntity
  8
7_ALL_FEATURES
  6
Continuous
 62
     7
100
AcDbCircle
 10
1337.975716
 20
990.242901
 30
0.0
 40
0.3
100
AcDbArc
 50
108.0
 51
147.053773
  0
ARC
  5
525
330
220
100
AcDbEntity
  8
7_ALL_FEATURES
  6
Continuous
 62
     7
100
AcDbCircle
 10
1337.975716
 20
990.242901
 30
0.0
 40
0.3
100
AcDbArc
 50
90.0
 51
108.0
  0
LINE
  5
526
330
220
100
AcDbEntity
  8
7_ALL_FEATURES
  6
Continuous
 62
     7
100
AcDbLine
 10
1363.875716
 20
990.542901
 30
0.0
 11
1362.449977
 21
990.542901
 31
0.0
  0
LINE
  5
527
330
220
100
AcDbEntity
  8
7_ALL_FEATURES
  6
Continuous
 62
     7
100
AcDbLine
 10
1362.449977
 20
990.542901
 30
0.0
 11
1339.401455
 21
990.542901
 31
0.0
  0
LINE
  5
528
330
220
100
AcDbEntity
  8
7_ALL_FEATURES
  6
Continuous
 62
     7
100
AcDbLine
 10
1339.401455
 20
990.542901
 30
0.0
 11
1337.975716
 21
990.542901
 31
0.0
  0
ARC
  5
529
330
220
100
AcDbEntity
  8
7_ALL_FEATURES
  6
Continuous
 62
     7
100
AcDbCircle
 10
1363.875716
 20
990.242901
 30
0.0
 40
0.3
100
AcDbArc
 50
32.946227
 51
90.0
  0
ARC
  5
52A
330
220
100
AcDbEntity
  8
7_ALL_FEATURES
  6
Continuous
 62
     7
100
AcDbCircle
 10
1363.875716
 20
990.242901
 30
0.0
 40
0.3
100
AcDbArc
 50
18.0
 51
32.946227
  0
ARC
  5
52B
330
220
100
AcDbEntity
  8
7_ALL_FEATURES
  6
Continuous
 62
     7
100
AcDbCircle
 10
1363.875716
 20
990.242901
 30
0.0
 40
0.3
100
AcDbArc
 50
0.0
 51
18.0
  0
LINE
  5
52C
330
220
100
AcDbEntity
  8
7_ALL_FEATURES
  6
Continuous
 62
     7
100
AcDbLine
 10
1364.175716
 20
964.842901
 30
0.0
 11
1364.175716
 21
990.242901
 31
0.0
  0
SPLINE
  5
52D
330
220
100
AcDbEntity
  8
7_ALL_FEATURES
  6
Continuous
 62
     7
100
AcDbSpline
 70
     0
 71
     3
 72
    10
 73
     6
 74
     0
 42
0.000000001
 43
0.0000001
 40
0.0
 40
0.0
 40
0.0
 40
0.0
 40
0.498932758
 40
0.9218959672
 40
1.0
 40
1.0
 40
1.0
 40
1.0
 10
1359.32172107
 20
985.4704268705
 30
0.0
 10
1359.4035476637
 20
985.3585236085
 30
0.0
 10
1359.4917775328
 20
985.099802069
 30
0.0
 10
1359.3983016545
 20
984.8299630646
 30
0.0
 10
1359.3236476453
 20
984.7150383764
 30
0.0
 10
1359.3114341625
 20
984.6975641231
 30
0.0
  0
SPLINE
  5
52E
330
220
100
AcDbEntity
  8
7_ALL_FEATURES
  6
Continuous
 62
     7
100
AcDbSpline
 70
     0
 71
     3
 72
     9
 73
     5
 74
     0
 42
0.000000001
 43
0.0000001
 40
0.0
 40
0.0
 40
0.0
 40
0.0
 40
0.327249702
 40
1.0
 40
1.0
 40
1.0
 40
1.0
 10
1358.9992818034
 20
985.3007777215
 30
0.0
 10
1359.013442569
 20
985.280154346
 30
0.0
 10
1359.0500507201
 20
985.2121670585
 30
0.0
 10
1359.065394568
 20
985.1391050981
 30
0.0
 10
1359.0659555503
 20
985.0912549536
 30
0.0
  0
ARC
  5
52F
330
220
100
AcDbEntity
  8
7_ALL_FEATURES
  6
Continuous
 62
     9
100
AcDbCircle
 10
1358.925716
 20
968.042901
 30
0.0
 40
3.1119921479
100
AcDbArc
 50
0.000001
 51
180.000001
  0
ARC
  5
530
330
220
100
AcDbEntity
  8
7_ALL_FEATURES
  6
Continuous
 62
     9
100
AcDbCircle
 10
1358.925716
 20
968.042901
 30
0.0
 40
3.1119921479
100
AcDbArc
 50
180.000001
 51
251.798857
  0
LINE
  5
531
330
220
100
AcDbEntity
  8
7_ALL_FEATURES
  6
Continuous
 62
     9
100
AcDbLine
 10
1345.583872
 20
965.086615
 30
0.0
 11
1357.953673
 21
965.086615
 31
0.0
  0
ARC
  5
532
330
220
100
AcDbEntity
  8
7_ALL_FEATURES
  6
Continuous
 62
     9
100
AcDbCircle
 10
1358.925716
 20
968.042901
 30
0.0
 40
2.9587832593
100
AcDbArc
 50
0.0
 51
180.0
  0
ARC
  5
533
330
220
100
AcDbEntity
  8
7_ALL_FEATURES
  6
Continuous
 62
     9
100
AcDbCircle
 10
1358.925716
 20
968.042901
 30
0.0
 40
2.9587832593
100
AcDbArc
 50
180.0
 51
0.0
  0
LINE
  5
534
330
220
100
AcDbEntity
  8
7_ALL_FEATURES
  6
Continuous
 62
     9
100
AcDbLine
 10
1338.21943
 20
989.999188
 30
0.0
 11
1338.21943
 21
984.598456
 31
0.0
  0
LINE
  5
535
330
220
100
AcDbEntity
  8
7_ALL_FEATURES
  6
Continuous
 62
     9
100
AcDbLine
 10
1363.632002
 20
989.999188
 30
0.0
 11
1338.21943
 21
989.999188
 31
0.0
  0
LINE
  5
536
330
220
100
AcDbEntity
  8
7_ALL_FEATURES
  6
Continuous
 62
     9
100
AcDbLine
 10
1363.632002
 20
965.086615
 30
0.0
 11
1363.632002
 21
989.999188
 31
0.0
  0
LINE
  5
537
330
220
100
AcDbEntity
  8
7_ALL_FEATURES
  6
Continuous
 62
     9
100
AcDbLine
 10
1359.897759
 20
965.086615
 30
0.0
 11
1363.632002
 21
965.086615
 31
0.0
  0
ARC
  5
538
330
220
100
AcDbEntity
  8
7_ALL_FEATURES
  6
Continuous
 62
     9
100
AcDbCircle
 10
1358.925716
 20
968.042901
 30
0.0
 40
3.1119921479
100
AcDbArc
 50
288.201143
 51
0.000001
  0
SPLINE
  5
539
330
220
100
AcDbEntity
  8
7_ALL_FEATURES
  6
Continuous
 62
     9
100
AcDbSpline
 70
     0
 71
     3
 72
    15
 73
    11
 74
     0
 42
0.000000001
 43
0.0000001
 40
0.0
 40
0.0
 40
0.0
 40
0.0
 40
0.023807132
 40
0.0509341254
 40
0.0876166251
 40
0.1870846576
 40
0.3162142489
 40
0.468337114
 40
0.6369297907
 40
1.0
 40
1.0
 40
1.0
 40
1.0
 10
1337.7195079101
 20
990.2429014523
 30
0.0
 10
1337.7239221719
 20
990.2428427724
 30
0.0
 10
1337.7322761734
 20
990.2370828954
 30
0.0
 10
1337.7473042207
 20
990.2315126757
 30
0.0
 10
1337.7748301644
 20
990.2185713942
 30
0.0
 10
1337.8195829317
 20
990.1983791832
 30
0.0
 10
1337.8834287504
 20
990.1681436782
 30
0.0
 10
1337.9586415516
 20
990.1321011219
 30
0.0
 10
1338.0723908346
 20
990.0760676447
 30
0.0
 10
1338.1602229872
 20
990.031238431
 30
0.0
 10
1338.2194300712
 20
989.9991876509
 30
0.0
  0
SPLINE
  5
53A
330
220
100
AcDbEntity
  8
7_ALL_FEATURES
  6
Continuous
 62
     9
100
AcDbSpline
 70
     0
 71
     3
 72
    16
 73
    12
 74
     0
 42
0.000000001
 43
0.0000001
 40
0.0
 40
0.0
 40
0.0
 40
0.0
 40
0.3631189228
 40
0.5317379564
 40
0.6838708435
 40
0.8129949063
 40
0.9124573078
 40
0.9491294365
 40
0.9762224184
 40
0.9932727605
 40
1.0
 40
1.0
 40
1.0
 40
1.0
 10
1338.2194300712
 20
989.9991876509
 30
0.0
 10
1338.1873745692
 20
990.0584034576
 30
0.0
 10
1338.142508623
 20
990.1462384346
 30
0.0
 10
1338.086525422
 20
990.260021745
 30
0.0
 10
1338.0503816407
 20
990.3352177435
 30
0.0
 10
1338.0203847537
 20
990.3991082726
 30
0.0
 10
1337.9996871158
 20
990.4437749671
 30
0.0
 10
1337.9874395503
 20
990.4713951454
 30
0.0
 10
1337.9811002362
 20
990.4850819006
 30
0.0
 10
1337.9780009624
 20
990.4938290177
 30
0.0
 10
1337.9757207531
 20
990.4978644399
 30
0.0
 10
1337.9757162428
 20
990.4991119071
 30
0.0
  0
SPLINE
  5
53B
330
220
100
AcDbEntity
  8
7_ALL_FEATURES
  6
Continuous
 62
     9
100
AcDbSpline
 70
     0
 71
     3
 72
    15
 73
    11
 74
     0
 42
0.000000001
 43
0.0000001
 40
0.0
 40
0.0
 40
0.0
 40
0.0
 40
0.023807132
 40
0.0509341254
 40
0.0876166251
 40
0.1870846576
 40
0.3162142489
 40
0.468337114
 40
0.6369297907
 40
1.0
 40
1.0
 40
1.0
 40
1.0
 10
1363.8757162199
 20
990.499109812
 30
0.0
 10
1363.87565754
 20
990.4946955502
 30
0.0
 10
1363.869897663
 20
990.4863415487
 30
0.0
 10
1363.8643274433
 20
990.4713135014
 30
0.0
 10
1363.8513861618
 20
990.4437875577
 30
0.0
 10
1363.8311939507
 20
990.3990347904
 30
0.0
 10
1363.8009584458
 20
990.3351889717
 30
0.0
 10
1363.7649158894
 20
990.2599761705
 30
0.0
 10
1363.7088824122
 20
990.1462268875
 30
0.0
 10
1363.6640531986
 20
990.0583947349
 30
0.0
 10
1363.6320024185
 20
989.9991876509
 30
0.0
  0
SPLINE
  5
53C
330
220
100
AcDbEntity
  8
7_ALL_FEATURES
  6
Continuous
 62
     9
100
AcDbSpline
 70
     0
 71
     3
 72
    16
 73
    12
 74
     0
 42
0.000000001
 43
0.0000001
 40
0.0
 40
0.0
 40
0.0
 40
0.0
 40
0.3631189228
 40
0.5317379564
 40
0.6838708435
 40
0.8129949063
 40
0.9124573078
 40
0.9491294365
 40
0.9762224184
 40
0.9932727605
 40
1.0
 40
1.0
 40
1.0
 40
1.0
 10
1363.6320024185
 20
989.9991876509
 30
0.0
 10
1363.6912182252
 20
990.0312431529
 30
0.0
 10
1363.7790532022
 20
990.0761090991
 30
0.0
 10
1363.8928365126
 20
990.1320923001
 30
0.0
 10
1363.9680325111
 20
990.1682360814
 30
0.0
 10
1364.0319230402
 20
990.1982329684
 30
0.0
 10
1364.0765897347
 20
990.2189306063
 30
0.0
 10
1364.104209913
 20
990.2311781718
 30
0.0
 10
1364.1178966682
 20
990.2375174859
 30
0.0
 10
1364.1266437853
 20
990.2406167597
 30
0.0
 10
1364.1306792075
 20
990.242896969
 30
0.0
 10
1364.1319266747
 20
990.2429014793
 30
0.0
  0
SPLINE
  5
53D
330
220
100
AcDbEntity
  8
7_ALL_FEATURES
  6
Continuous
 62
     9
100
AcDbSpline
 70
     0
 71
     3
 72
    15
 73
    11
 74
     0
 42
0.000000001
 43
0.0000001
 40
0.0
 40
0.0
 40
0.0
 40
0.0
 40
0.023807132
 40
0.0509341254
 40
0.0876166251
 40
0.1870846576
 40
0.3162142489
 40
0.468337114
 40
0.6369297907
 40
1.0
 40
1.0
 40
1.0
 40
1.0
 10
1364.1319245796
 20
964.8429015022
 30
0.0
 10
1364.1275103178
 20
964.8429601821
 30
0.0
 10
1364.1191563163
 20
964.8487200591
 30
0.0
 10
1364.104128269
 20
964.8542902788
 30
0.0
 10
1364.0766023252
 20
964.8672315603
 30
0.0
 10
1364.031849558
 20
964.8874237714
 30
0.0
 10
1363.9680037392
 20
964.9176592763
 30
0.0
 10
1363.8927909381
 20
964.9537018327
 30
0.0
 10
1363.7790416551
 20
965.0097353099
 30
0.0
 10
1363.6912095025
 20
965.0545645235
 30
0.0
 10
1363.6320024185
 20
965.0866153036
 30
0.0
  0
SPLINE
  5
53E
330
220
100
AcDbEntity
  8
7_ALL_FEATURES
  6
Continuous
 62
     9
100
AcDbSpline
 70
     0
 71
     3
 72
    16
 73
    12
 74
     0
 42
0.000000001
 43
0.0000001
 40
0.0
 40
0.0
 40
0.0
 40
0.0
 40
0.3631189228
 40
0.5317379564
 40
0.6838708435
 40
0.8129949063
 40
0.9124573078
 40
0.9491294365
 40
0.9762224184
 40
0.9932727605
 40
1.0
 40
1.0
 40
1.0
 40
1.0
 10
1363.6320024185
 20
965.0866153036
 30
0.0
 10
1363.6640579205
 20
965.0273994969
 30
0.0
 10
1363.7089238667
 20
964.9395645199
 30
0.0
 10
1363.7649070677
 20
964.8257812095
 30
0.0
 10
1363.801050849
 20
964.750585211
 30
0.0
 10
1363.831047736
 20
964.6866946819
 30
0.0
 10
1363.8517453739
 20
964.6420279874
 30
0.0
 10
1363.8639929394
 20
964.6144078091
 30
0.0
 10
1363.8703322535
 20
964.6007210539
 30
0.0
 10
1363.8734315273
 20
964.5919739368
 30
0.0
 10
1363.8757117366
 20
964.5879385146
 30
0.0
 10
1363.8757162469
 20
964.5866910474
 30
0.0
  0
LINE
  5
53F
330
220
100
AcDbEntity
  8
7_ALL_FEATURES
  6
Continuous
 62
     9
100
AcDbLine
 10
1363.875716
 20
964.586691
 30
0.0
 11
1345.130768
 21
964.586691
 31
0.0
  0
SPLINE
  5
540
330
220
100
AcDbEntity
  8
7_ALL_FEATURES
  6
Continuous
 62
     7
100
AcDbSpline
 70
     0
 71
     3
 72
    15
 73
    11
 74
     0
 42
0.000000001
 43
0.0000001
 40
0.0
 40
0.0
 40
0.0
 40
0.0
 40
0.1254369626
 40
0.2490923813
 40
0.3738610844
 40
0.5000131282
 40
0.6261667234
 40
0.7509309152
 40
0.874579064
 40
1.0
 40
1.0
 40
1.0
 40
1.0
 10
1357.9536734536
 20
965.0866153036
 30
0.0
 10
1358.016883471
 20
965.024431827
 30
0.0
 10
1358.1537073118
 20
964.9105849706
 30
0.0
 10
1358.3979450846
 20
964.8018581419
 30
0.0
 10
1358.6590367499
 20
964.7502626503
 30
0.0
 10
1358.9257443381
 20
964.7353487208
 30
0.0
 10
1359.1924511956
 20
964.7502501811
 30
0.0
 10
1359.453530094
 20
964.8018788646
 30
0.0
 10
1359.6977399333
 20
964.910611737
 30
0.0
 10
1359.8345570948
 20
965.024439772
 30
0.0
 10
1359.8977590361
 20
965.0866153036
 30
0.0
  0
LINE
  5
541
330
220
100
AcDbEntity
  8
7_ALL_FEATURES
  6
Continuous
 62
     9
100
AcDbLine
 10
1337.719506
 20
990.242901
 30
0.0
 11
1337.675716
 21
990.242901
 31
0.0
  0
LINE
  5
542
330
220
100
AcDbEntity
  8
7_ALL_FEATURES
  6
Continuous
 62
     9
100
AcDbLine
 10
1337.719506
 20
990.242901
 30
0.0
 11
1337.719506
 21
984.285517
 31
0.0
  0
ARC
  5
543
330
220
100
AcDbEntity
  8
7_ALL_FEATURES
  6
Continuous
 62
     9
100
AcDbCircle
 10
1337.975747
 20
990.242873
 30
0.0
 40
0.2562386351
100
AcDbArc
 50
90.006773
 51
179.993694
  0
LINE
  5
544
330
220
100
AcDbEntity
  8
7_ALL_FEATURES
  6
Continuous
 62
     9
100
AcDbLine
 10
1363.875716
 20
990.499111
 30
0.0
 11
1363.875716
 21
990.542901
 31
0.0
  0
LINE
  5
545
330
220
100
AcDbEntity
  8
7_ALL_FEATURES
  6
Continuous
 62
     9
100
AcDbLine
 10
1337.975716
 20
990.499111
 30
0.0
 11
1337.975716
 21
990.542901
 31
0.0
  0
LINE
  5
546
330
220
100
AcDbEntity
  8
7_ALL_FEATURES
  6
Continuous
 62
     9
100
AcDbLine
 10
1363.875716
 20
990.499111
 30
0.0
 11
1337.975716
 21
990.499111
 31
0.0
  0
ARC
  5
547
330
220
100
AcDbEntity
  8
7_ALL_FEATURES
  6
Continuous
 62
     9
100
AcDbCircle
 10
1363.875688
 20
990.242871
 30
0.0
 40
0.2562386351
100
AcDbArc
 50
0.006773
 51
89.993694
  0
LINE
  5
548
330
220
100
AcDbEntity
  8
7_ALL_FEATURES
  6
Continuous
 62
     9
100
AcDbLine
 10
1364.131926
 20
964.842901
 30
0.0
 11
1364.175716
 21
964.842901
 31
0.0
  0
LINE
  5
549
330
220
100
AcDbEntity
  8
7_ALL_FEATURES
  6
Continuous
 62
     9
100
AcDbLine
 10
1364.131926
 20
990.242901
 30
0.0
 11
1364.175716
 21
990.242901
 31
0.0
  0
LINE
  5
54A
330
220
100
AcDbEntity
  8
7_ALL_FEATURES
  6
Continuous
 62
     9
100
AcDbLine
 10
1364.131926
 20
964.842901
 30
0.0
 11
1364.131926
 21
990.242901
 31
0.0
  0
ARC
  5
54B
330
220
100
AcDbEntity
  8
7_ALL_FEATURES
  6
Continuous
 62
     9
100
AcDbCircle
 10
1363.875686
 20
964.84293
 30
0.0
 40
0.2562386351
100
AcDbArc
 50
270.006773
 51
359.993694
  0
LINE
  5
54C
330
220
100
AcDbEntity
  8
7_ALL_FEATURES
  6
Continuous
 62
     9
100
AcDbLine
 10
1363.875716
 20
964.586691
 30
0.0
 11
1363.875716
 21
964.542901
 31
0.0
  0
LINE
  5
54D
330
220
100
AcDbEntity
  8
7_ALL_FEATURES
  6
Continuous
 62
     7
100
AcDbLine
 10
1337.725716
 20
990.40492
 30
0.0
 11
1337.725716
 21
990.542901
 31
0.0
  0
LINE
  5
54E
330
220
100
AcDbEntity
  8
7_ALL_FEATURES
  6
Continuous
 62
     7
100
AcDbLine
 10
1337.725716
 20
990.542901
 30
0.0
 11
1337.975716
 21
990.542901
 31
0.0
  0
LINE
  5
54F
330
220
100
AcDbEntity
  8
7_ALL_FEATURES
  6
Continuous
 62
     7
100
AcDbLine
 10
1364.125716
 20
990.542901
 30
0.0
 11
1363.875716
 21
990.542901
 31
0.0
  0
LINE
  5
550
330
220
100
AcDbEntity
  8
7_ALL_FEATURES
  6
Continuous
 62
     7
100
AcDbLine
 10
1364.125716
 20
964.542901
 30
0.0
 11
1364.125716
 21
964.680883
 31
0.0
  0
LINE
  5
551
330
220
100
AcDbEntity
  8
7_ALL_FEATURES
  6
Continuous
 62
     7
100
AcDbLine
 10
1364.125716
 20
990.40492
 30
0.0
 11
1364.125716
 21
990.542901
 31
0.0
  0
LINE
  5
552
330
220
100
AcDbEntity
  8
7_ALL_FEATURES
  6
Continuous
 62
     7
100
AcDbLine
 10
1363.875716
 20
964.542901
 30
0.0
 11
1364.125716
 21
964.542901
 31
0.0
  0
LINE
  5
553
330
220
100
AcDbEntity
  8
0
  6
Continuous
 62
     3
100
AcDbLine
 10
1320.925716
 20
953.292901
 30
0.0
 11
1320.925716
 21
953.728394
 31
0.0
  0
ARC
  5
554
330
220
100
AcDbEntity
  8
0
  6
Continuous
 62
     3
100
AcDbCircle
 10
1357.258067
 20
953.728394
 30
0.0
 40
36.3323510378
100
AcDbArc
 50
105.0
 51
180.0
  0
LINE
  5
555
330
220
100
AcDbEntity
  8
0
  6
Continuous
 62
     3
100
AcDbLine
 10
1347.854563
 20
988.82275
 30
0.0
 11
1348.337526
 21
988.95216
 31
0.0
  0
ARC
  5
556
330
220
100
AcDbEntity
  8
0
  6
Continuous
 62
     3
100
AcDbCircle
 10
1350.925716
 20
979.292901
 30
0.0
 40
10.0
100
AcDbArc
 50
285.0
 51
105.0
  0
LINE
  5
557
330
220
100
AcDbEntity
  8
0
  6
Continuous
 62
     3
100
AcDbLine
 10
1353.513907
 20
969.633643
 30
0.0
 11
1353.030944
 21
969.504234
 31
0.0
  0
ARC
  5
558
330
220
100
AcDbEntity
  8
0
  6
Continuous
 62
     3
100
AcDbCircle
 10
1357.258067
 20
953.728394
 30
0.0
 40
16.3323510378
100
AcDbArc
 50
105.0
 51
180.0
  0
LINE
  5
559
330
220
100
AcDbEntity
  8
0
  6
Continuous
 62
     3
100
AcDbLine
 10
1340.925716
 20
953.728394
 30
0.0
 11
1340.925716
 21
953.292901
 31
0.0
  0
ARC
  5
55A
330
220
100
AcDbEntity
  8
0
  6
Continuous
 62
     3
100
AcDbCircle
 10
1350.925716
 20
979.292901
 30
0.0
 40
2.25
100
AcDbArc
 50
0.0
 51
180.0
  0
ARC
  5
55B
330
220
100
AcDbEntity
  8
0
  6
Continuous
 62
     3
100
AcDbCircle
 10
1350.925716
 20
979.292901
 30
0.0
 40
2.25
100
AcDbArc
 50
180.0
 51
360.0
  0
LINE
  5
55C
330
220
100
AcDbEntity
  8
7_ALL_FEATURES
  6
Continuous
 62
     3
100
AcDbLine
 10
1320.925716
 20
949.292901
 30
0.0
 11
1320.925716
 21
951.292901
 31
0.0
  0
LINE
  5
55D
330
220
100
AcDbEntity
  8
7_ALL_FEATURES
  6
Continuous
 62
     3
100
AcDbLine
 10
1320.925716
 20
951.292901
 30
0.0
 11
1320.925716
 21
953.292901
 31
0.0
  0
LINE
  5
55E
330
220
100
AcDbEntity
  8
7_ALL_FEATURES
  6
Continuous
 62
     3
100
AcDbLine
 10
1340.925716
 20
949.292901
 30
0.0
 11
1340.925716
 21
951.292901
 31
0.0
  0
LINE
  5
55F
330
220
100
AcDbEntity
  8
7_ALL_FEATURES
  6
Continuous
 62
     3
100
AcDbLine
 10
1340.925716
 20
951.292901
 30
0.0
 11
1340.925716
 21
953.292901
 31
0.0
  0
LINE
  5
560
330
220
100
AcDbEntity
  8
7_ALL_FEATURES
  6
Continuous
 62
     3
100
AcDbLine
 10
1340.925716
 20
949.292901
 30
0.0
 11
1320.925716
 21
949.292901
 31
0.0
  0
LINE
  5
561
330
220
100
AcDbEntity
  8
7_ALL_FEATURES
  6
Continuous
 62
     3
100
AcDbLine
 10
1320.925716
 20
949.292901
 30
0.0
 11
1340.925716
 21
949.292901
 31
0.0
  0
LINE
  5
562
330
220
100
AcDbEntity
  8
7_ALL_FEATURES
  6
Continuous
 62
     9
100
AcDbLine
 10
1320.925716
 20
953.292901
 30
0.0
 11
1340.925716
 21
953.292901
 31
0.0
  0
DIMENSION
  5
563
330
220
100
AcDbEntity
  8
0
  6
Continuous
 62
     2
100
AcDbDimension
280
     0
  2
*D1
 10
72.651799
 20
636.756678
 30
0.0
 11
602.477998
 21
636.756678
 31
0.0
 70
   160
 71
     2
 42
1062.7
 73
     0
 74
     0
 75
     0
  3
DIMSTYLE_1
100
AcDbAlignedDimension
 13
1135.351799
 23
657.6432
 33
0.0
 14
72.651799
 24
657.6432
 34
0.0
 50
180.0
100
AcDbRotatedDimension
  0
DIMENSION
  5
564
330
220
100
AcDbEntity
  8
0
  6
Continuous
 62
     2
100
AcDbDimension
280
     0
  2
*D2
 10
1179.797622
 20
663.423345
 30
0.0
 11
1179.797622
 21
683.524557
 31
0.0
 70
   160
 71
     2
 42
43.25
 73
     0
 74
     0
 75
     0
  3
DIMSTYLE_2
100
AcDbAlignedDimension
 13
1154.028683
 23
706.673345
 33
0.0
 14
1154.34569
 24
663.423345
 34
0.0
 50
270.0
100
AcDbRotatedDimension
  0
DIMENSION
  5
565
330
220
100
AcDbEntity
  8
0
  6
Continuous
 62
     2
100
AcDbDimension
280
     0
  2
*D3
 10
1182.318547
 20
949.292901
 30
0.0
 11
1182.318547
 21
967.7691
 31
0.0
 70
   160
 71
     2
 42
40.0
 73
     0
 74
     0
 75
     0
  3
DIMSTYLE_3
100
AcDbAlignedDimension
 13
1154.294044
 23
989.292901
 33
0.0
 14
1153.876411
 24
949.292901
 34
0.0
 50
270.0
100
AcDbRotatedDimension
  0
DIMENSION
  5
566
330
220
100
AcDbEntity
  8
0
  6
Continuous
 62
     2
100
AcDbDimension
280
     0
  2
*D4
 10
1364.175716
 20
1014.403442
 30
0.0
 11
1349.401886
 21
1014.403442
 31
0.0
 70
   160
 71
     2
 42
26.5
 73
     0
 74
     0
 75
     0
  3
DIMSTYLE_4
100
AcDbAlignedDimension
 13
1337.675716
 23
1000.576602
 33
0.0
 14
1364.175716
 24
1000.045881
 34
0.0
100
AcDbRotatedDimension
  0
DIMENSION
  5
567
330
220
100
AcDbEntity
  8
0
  6
Continuous
 62
     2
100
AcDbDimension
280
     0
  2
*D5
 10
1393.546344
 20
990.542901
 30
0.0
 11
1393.546344
 21
976.019069
 31
0.0
 70
   160
 71
     2
 42
26.0
 73
     0
 74
     0
 75
     0
  3
DIMSTYLE_5
100
AcDbAlignedDimension
 13
1375.80158
 23
964.542901
 33
0.0
 14
1376.332301
 24
990.542901
 34
0.0
 50
90.0
100
AcDbRotatedDimension
  0
INSERT
  5
568
330
220
100
AcDbEntity
  8
0
  6
Continuous
 62
     2
100
AcDbBlockReference
  2
LOGO2_BL0
 10
1470.408888
 20
48.692739
 30
0.0
  0
ACAD_TABLE
  5
569
102
{ACAD_XDICTIONARY
360
5C0
102
}
330
220
100
AcDbEntity
  8
0
  6
Continuous
 62
     2
160
              3524
310
C40D000019000000880000001D000000000000000000F03F000000000000000000000000000000002751D889E5AF96400000000000000000000000000000F03F0000000000000000B09D08D755AC504000000000000000000000000000000000000000000000F03F0000000000000000000000000000000000000000000000
310
000000000000000000000000000000F03F5400000020000000020000000000000000000000000000000000000000000000000000000000000000005E400000000000000000000000000000000000000000000000000000000000000000000000000000F03F5400000020000000020000000000000000000000000000000000
310
0000000000000000000000000000000000005798AAAAAAAA4AC0000000000000000000000000000000000000000000000000000000000000F03F540000002000000002000000000000000000444000000000000020C000000000000000000000000000005E4000000000000020C00000000000000000000000000000000000
310
00000000000000000000000000F03F540000002000000002000000000000000000444000000000000030C000000000000000000000000000005E4000000000000030C0000000000000000000000000000000000000000000000000000000000000F03F5400000020000000020000000000000000004440AF30555555553DC0
310
00000000000000000000000000005E40AF30555555553DC0000000000000000000000000000000000000000000000000000000000000F03F540000002000000002000000000000000000000000000000000042C000000000000000000000000000005E4000000000000042C000000000000000000000000000000000000000
310
0000000000000000000000F03F54000000200000000200000000000000000000005798AAAAAAAA4AC000000000000000000000000000005E405798AAAAAAAA4AC0000000000000000000000000000000000000000000000000000000000000F03F540000002000000002000000000000000000444000000000000000000000
310
000000000000000000000000444000000000000042C0000000000000000000000000000000000000000000000000000000000000F03F5400000020000000020000002C4C555555555740000000000000000000000000000000002C4C55555555574000000000000030C0000000000000000000000000000000000000000000
310
000000000000000000F03F5400000020000000020000000000000000005E40000000000000000000000000000000000000000000005E405798AAAAAAAA4AC0000000000000000000000000000000000000000000000000000000000000F03F0C0000001000000023000000C0000000260000008BCBDDDDDDFD444000000000
310
000018C0000000000000000000000000000000000000000000000000000000000000F03F000000000000F03F0000000000000000000000000000000053004B0033003200300030005F0043000000000010000000010000000000000000001040333333333333EB3F0000000000000000000000000000F03F00000000000000
310
000000000000000000000000000000000000000000000000000000000000000000740078007400000000000000BC000000260000006E4D444444D457400000000000001CC0000000000000000000000000000000000000000000000000000000000000F03F000000000000F03F000000000000000000000000000000005200
310
650076003A0030003200000000000C00000001000000453DABAAAAAA1240333333333333EB3F0000000000000000000000000000F03F00000000000000000000000000000000000000000000000000000000000000000000000000000000740078007400000000000000C0000000260000008BCBDDDDDDFD44400000000000
310
002EC0000000000000000000000000000000000000000000000000000000000000F03F000000000000F03F000000000000000000000000000000005300630061006C0065003A0031003A00310000001200000001000000453DABAAAAAA1240333333333333EB3F0000000000000000000000000000F03F0000000000000000
310
0000000000000000000000000000000000000000000000000000000000000000740078007400000000000000B4000000260000006E4D444444D45740443DABAAAAAA2CC0000000000000000000000000000000000000000000000000000000000000F03F000000000000F03F00000000000000000000000000000000410030
310
00000000000400000001000000453DABAAAAAA1240333333333333EB3F0000000000000000000000000000F03F00000000000000000000000000000000000000000000000000000000000000000000000000000000740078007400000000000000C0000000260000008BCBDDDDDDFD444000000000000039C0000000000000
310
000000000000000000000000000000000000000000000000F03F000000000000F03F0000000000000000000000000000000053004E00410043004B00200033002E00320000001200000001000000453DABAAAAAA1240333333333333EB3F0000000000000000000000000000F03F0000000000000000000000000000000000
310
0000000000000000000000000000000000000000000000740078007400000000000000B8000000260000008BCBDDDDDDFD44405798AAAAAA2A41C0000000000000000000000000000000000000000000000000000000000000F03F000000000000F03F0000000000000000000000000000000044004100540045003A000000
310
0A000000010000007785A9AAAAAA0A40333333333333EB3F0000000000000000000000000000F03F0000000000000000000000000000000000000000000000000000000000000000000000000000000074007800740000000000000018010000260000005471B9BBBBBBFF3FA967555555B543C00000000000000000000000
310
00000000000000000000000000000000000000F03F000000000000F03F0000000000000000000000000000000041006E007900200069006E00740065006700720061006C0020006F00720020007000610072007400690061006C00200072006500700072006F00640075006300740069006F006E0073002000610072006500
310
2000700072006F0068006900620069007400650064000000000068000000010000000000000000000840333333333333EB3F0000000000000000000000000000F03F00000000000000000000000000000000000000000000000000000000000000000000000000000000740078007400000000000000F00000002600000054
310
71B9BBBBBBFF3FA967555555F545C0000000000000000000000000000000000000000000000000000000000000F03F000000000000F03F0000000000000000000000000000000077006900740068006F007500740020007000720069006F007200200061007500740068006F007200690073006100740069006F006E002000
310
6F00660020004C002000000042000000010000000000000000000840333333333333EB3F0000000000000000000000000000F03F00000000000000000000000000000000000000000000000000000000000000000000000000000000740078007400000000000000B8000000260000002C4C555555D55340A967555555F545
310
C0000000000000000000000000000000000000000000000000000000000000F03F000000000000F03F0000000000000000000000000000000020000000020000000100000000000000000008407521567F8461C83F0000000000000000000000000000F03F0000000000000000000000000000000000000000000000000000
310
00000000000000000000000000007400780074002E00730068007800000000000000E0000000260000005E4D149CE7F95340A967555555F545C0000000000000000000000000000000000000000000000000000000000000F03F000000000000F03F00000000000000000000000000000000260020004C0020004C00750063
310
0065002000260020004C006900670068007400200073002E0072002E006C002E002C000000000030000000010000000000000000000840333333333333EB3F0000000000000000000000000000F03F000000000000000000000000000000000000000000000000000000000000000000000000000000007400780074000000
310
00000000F8000000260000005471B9BBBBBBFF3FA9675555553548C0000000000000000000000000000000000000000000000000000000000000F03F000000000000F03F0000000000000000000000000000000069006E0020006100630063006F007200640061006E00630065002000770069007400680020007400680065
310
0020006C0061007700200069006E00200066006F007200630065002E000000000048000000010000000000000000000840333333333333EB3F0000000000000000000000000000F03F00000000000000000000000000000000000000000000000000000000000000000000000000000000740078007400000000000000D800
310
0000260000005471B9BBBBBBFF3FA967555555754AC0000000000000000000000000000000000000000000000000000000000000F03F000000000000F03F0000000000000000000000000000000041006C006C0020007200690067006800740073002000720065007300650072007600650064002E00000000002800000001
310
0000000000000000000840333333333333EB3F0000000000000000000000000000F03F00000000000000000000000000000000000000000000000000000000000000000000000000000000740078007400000000000000080000001F000000
100
AcDbBlockReference
  2
*T7
 10
1451.974159
 20
66.692739
 30
0.0
100
AcDbTable
342
592
343
229
 11
1.0
 21
0.0
 31
0.0
 90
       22
 91
        5
 92
        5
 93
        0
 94
        0
 95
        0
 96
        0
141
8.0
141
8.0
141
13.333333
141
6.666667
141
17.333333
142
13.333333
142
13.333333
142
13.333333
142
53.333333
142
26.666667
171
     1
172
     0
173
     0
174
     0
175
     3
176
     4
 91
       32
178
     0
145
0.0
140
4.666667
 92
        0
301
CELL_VALUE
 93
        2
 90
        4
  1
 
 94
        0
300

302
 
304
ACVALUE_END
171
     1
172
     0
173
     1
174
     0
175
     1
176
     1
 91
        0
178
     0
145
0.0
 92
        0
301
CELL_VALUE
 93
        3
 90
        0
 91
        0
 94
        0
300

302

304
ACVALUE_END
171
     1
172
     0
173
     1
174
     0
175
     1
176
     1
 91
        0
178
     0
145
0.0
 92
        0
301
CELL_VALUE
 93
        3
 90
        0
 91
        0
 94
        0
300

302

304
ACVALUE_END
171
     1
172
     0
173
     0
174
     0
175
     1
176
     1
 91
       33
178
     0
145
0.0
170
     4
140
4.0
 92
        0
301
CELL_VALUE
 93
        2
 90
        4
  1
SK3200_C
 94
        0
300

302
SK3200_C
304
ACVALUE_END
171
     1
172
     0
173
     0
174
     0
175
     1
176
     1
 91
       33
178
     0
145
0.0
170
     1
140
4.666667
 92
        0
301
CELL_VALUE
 93
        2
 90
        4
  1
Rev:02
 94
        0
300

302
Rev:02
304
ACVALUE_END
171
     1
172
     0
173
     1
174
     0
175
     1
176
     1
 91
        0
178
     0
145
0.0
 92
        0
301
CELL_VALUE
 93
        3
 90
        0
 91
        0
 94
        0
300

302

304
ACVALUE_END
171
     1
172
     0
173
     1
174
     0
175
     1
176
     1
 91
        0
178
     0
145
0.0
 92
        0
301
CELL_VALUE
 93
        3
 90
        0
 91
        0
 94
        0
300

302

304
ACVALUE_END
171
     1
172
     0
173
     1
174
     0
175
     1
176
     1
 91
        0
178
     0
145
0.0
 92
        0
301
CELL_VALUE
 93
        3
 90
        0
 91
        0
 94
        0
300

302

304
ACVALUE_END
171
     1
172
     0
173
     0
174
     0
175
     1
176
     1
 91
       33
178
     0
145
0.0
170
     1
140
4.666667
 92
        0
301
CELL_VALUE
 93
        2
 90
        4
  1
Scale:1:1
 94
        0
300

302
Scale:1:1
304
ACVALUE_END
171
     1
172
     0
173
     0
174
     0
175
     1
176
     1
 91
       33
178
     0
145
0.0
170
     4
140
4.666667
 92
        0
301
CELL_VALUE
 93
        2
 90
        4
  1
A0
 94
        0
300

302
A0
304
ACVALUE_END
171
     1
172
     0
173
     1
174
     0
175
     1
176
     1
 91
        0
178
     0
145
0.0
 92
        0
301
CELL_VALUE
 93
        3
 90
        0
 91
        0
 94
        0
300

302

304
ACVALUE_END
171
     1
172
     0
173
     1
174
     0
175
     1
176
     1
 91
        0
178
     0
145
0.0
 92
        0
301
CELL_VALUE
 93
        3
 90
        0
 91
        0
 94
        0
300

302

304
ACVALUE_END
171
     1
172
     0
173
     1
174
     0
175
     1
176
     1
 91
        0
178
     0
145
0.0
 92
        0
301
CELL_VALUE
 93
        3
 90
        0
 91
        0
 94
        0
300

302

304
ACVALUE_END
171
     1
172
     0
173
     0
174
     0
175
     2
176
     1
 91
       33
178
     0
145
0.0
170
     4
140
4.666667
 92
        0
301
CELL_VALUE
 93
        2
 90
        4
  1
SNACK 3.2
 94
        0
300

302
SNACK 3.2
304
ACVALUE_END
171
     1
172
     0
173
     1
174
     0
175
     1
176
     1
 91
        0
178
     0
145
0.0
 92
        0
301
CELL_VALUE
 93
        3
 90
        0
 91
        0
 94
        0
300

302

304
ACVALUE_END
171
     1
172
     0
173
     1
174
     0
175
     1
176
     1
 91
        0
178
     0
145
0.0
 92
        0
301
CELL_VALUE
 93
        3
 90
        0
 91
        0
 94
        0
300

302

304
ACVALUE_END
171
     1
172
     0
173
     1
174
     0
175
     1
176
     1
 91
        0
178
     0
145
0.0
 92
        0
301
CELL_VALUE
 93
        3
 90
        0
 91
        0
 94
        0
300

302

304
ACVALUE_END
171
     1
172
     0
173
     1
174
     0
175
     1
176
     1
 91
        0
178
     0
145
0.0
 92
        0
301
CELL_VALUE
 93
        3
 90
        0
 91
        0
 94
        0
300

302

304
ACVALUE_END
171
     1
172
     0
173
     0
174
     0
175
     2
176
     1
 91
       33
178
     0
145
0.0
170
     4
140
3.333333
 92
        0
301
CELL_VALUE
 93
        2
 90
        4
  1
DATE:
 94
        0
300

302
DATE:
304
ACVALUE_END
171
     1
172
     0
173
     1
174
     0
175
     1
176
     1
 91
        0
178
     0
145
0.0
 92
        0
301
CELL_VALUE
 93
        3
 90
        0
 91
        0
 94
        0
300

302

304
ACVALUE_END
171
     1
172
     0
173
     0
174
     0
175
     5
176
     1
 91
       33
178
     0
145
0.0
170
     4
140
3.0
 92
        0
301
CELL_VALUE
 93
        2
 90
        4
  1
Any integral or partial reproductions are prohibited \Pwithout prior authorisation of L {\Ftxt.shx;\W0.190476;\H3.000000; }& L Luce & Light s.r.l., \Pin accordance with the law in force. \PAll rights reserved.
 94
        0
300

302
Any integral or partial reproductions are prohibited \Pwithout prior authorisation of L {\Ftxt.shx;\W0.190476;\H3.000000; }& L Luce & Light s.r.l., \Pin accordance with the law in force. \PAll rights reserved.
304
ACVALUE_END
171
     1
172
     0
173
     1
174
     0
175
     1
176
     1
 91
        0
178
     0
145
0.0
 92
        0
301
CELL_VALUE
 93
        3
 90
        0
 91
        0
 94
        0
300

302

304
ACVALUE_END
171
     1
172
     0
173
     1
174
     0
175
     1
176
     1
 91
        0
178
     0
145
0.0
 92
        0
301
CELL_VALUE
 93
        3
 90
        0
 91
        0
 94
        0
300

302

304
ACVALUE_END
171
     1
172
     0
173
     1
174
     0
175
     1
176
     1
 91
        0
178
     0
145
0.0
 92
        0
301
CELL_VALUE
 93
        3
 90
        0
 91
        0
 94
        0
300

302

304
ACVALUE_END
171
     1
172
     0
173
     1
174
     0
175
     1
176
     1
 91
        0
178
     0
145
0.0
 92
        0
301
CELL_VALUE
 93
        3
 90
        0
 91
        0
 94
        0
300

302

304
ACVALUE_END
  0
ENDSEC
  0
SECTION
  2
OBJECTS
  0
DICTIONARY
  5
C
330
0
100
AcDbDictionary
281
     1
  3
ACAD_DETAILVIEWSTYLE
350
5C9
  3
ACAD_GROUP
350
D
  3
ACAD_IMAGE_DICT
350
5B9
  3
ACAD_LAYOUT
350
1A
  3
ACAD_MATERIAL
350
5AD
  3
ACAD_MLEADERSTYLE
350
5C8
  3
ACAD_MLINESTYLE
350
17
  3
ACAD_PLOTSETTINGS
350
19
  3
ACAD_PLOTSTYLENAME
350
E
  3
ACAD_SCALELIST
350
56F
  3
ACAD_SECTIONVIEWSTYLE
350
5CA
  3
ACAD_TABLESTYLE
350
591
  3
ACAD_VISUALSTYLE
350
594
  3
ACDB_RECOMPOSE_DATA
350
5C6
  3
AcDbVariableDictionary
350
5C2
  3
HOST_DOC_SETTINGS
350
5B7
  3
MCS_STREAM_DICT
350
5B3
  0
SUN
  5
5B6
330
1F4
100
AcDbSun
 90
        1
290
     0
 63
     7
421
 16777215
 40
1.0
291
     1
 91
  2455826
 92
 54000000
292
     0
 70
     2
 71
   256
280
     1
  0
DICTIONARY
  5
5C0
330
569
100
AcDbDictionary
280
     1
281
     1
  3
ACAD_XREC_ROUNDTRIP
360
5C1
  0
DICTIONARY
  5
5C9
102
{ACAD_REACTORS
330
C
102
}
330
C
100
AcDbDictionary
281
     1
  0
DICTIONARY
  5
D
102
{ACAD_REACTORS
330
C
102
}
330
C
100
AcDbDictionary
281
     1
  0
DICTIONARY
  5
5B9
102
{ACAD_REACTORS
330
C
102
}
330
C
100
AcDbDictionary
281
     1
  0
DICTIONARY
  5
1A
102
{ACAD_REACTORS
330
C
102
}
330
C
100
AcDbDictionary
281
     1
  3
Layout1
350
56C
  3
Model
350
56B
  0
DICTIONARY
  5
5AD
102
{ACAD_REACTORS
330
C
102
}
330
C
100
AcDbDictionary
281
     1
  3
ByBlock
350
5AF
  3
ByLayer
350
5AE
  3
Global
350
5B0
  0
DICTIONARY
  5
5C8
102
{ACAD_REACTORS
330
C
102
}
330
C
100
AcDbDictionary
281
     1
  0
DICTIONARY
  5
17
102
{ACAD_REACTORS
330
C
102
}
330
C
100
AcDbDictionary
281
     1
  3
Standard
350
18
  0
DICTIONARY
  5
19
102
{ACAD_REACTORS
330
C
102
}
330
C
100
AcDbDictionary
281
     1
  0
ACDBDICTIONARYWDFLT
  5
E
102
{ACAD_REACTORS
330
C
102
}
330
C
100
AcDbDictionary
281
     1
  3
Normal
350
F
100
AcDbDictionaryWithDefault
340
F
  0
DICTIONARY
  5
56F
102
{ACAD_REACTORS
330
C
102
}
330
C
100
AcDbDictionary
281
     1
  3
A0
350
570
  3
A1
350
571
  3
A2
350
572
  3
A3
350
573
  3
A4
350
574
  3
A5
350
575
  3
A6
350
576
  3
A7
350
577
  3
A8
350
578
  3
A9
350
579
  3
B0
350
57A
  3
B1
350
57B
  3
B2
350
57C
  3
B3
350
57D
  3
B4
350
57E
  3
B5
350
57F
  3
B6
350
580
  3
B7
350
581
  3
B8
350
582
  3
B9
350
583
  3
C0
350
584
  3
C1
350
585
  3
C2
350
586
  3
C3
350
587
  3
C4
350
588
  3
C5
350
589
  3
C6
350
58A
  3
C7
350
58B
  3
C8
350
58C
  3
C9
350
58D
  3
D0
350
58E
  3
D1
350
58F
  3
D2
350
590
  0
DICTIONARY
  5
5CA
102
{ACAD_REACTORS
330
C
102
}
330
C
100
AcDbDictionary
281
     1
  0
DICTIONARY
  5
591
102
{ACAD_REACTORS
330
C
102
}
330
C
100
AcDbDictionary
281
     1
  3
Standard
350
592
  0
DICTIONARY
  5
594
102
{ACAD_REACTORS
330
C
102
}
330
C
100
AcDbDictionary
281
     1
  3
2dWireframe
350
599
  3
Basic
350
59C
  3
Brighten
350
5A0
  3
ColorChange
350
5A4
  3
Conceptual
350
59E
  3
Dim
350
59F
  3
EdgeColorOff
350
5A7
  3
Facepattern
350
5A3
  3
Flat
350
595
  3
FlatWithEdges
350
596
  3
Gouraud
350
597
  3
GouraudWithEdges
350
598
  3
Hidden
350
59B
  3
JitterOff
350
5A5
  3
Linepattern
350
5A2
  3
OverhangOff
350
5A6
  3
Realistic
350
59D
  3
Shaded
350
5AC
  3
Shaded with edges
350
5AB
  3
Shades of Gray
350
5A8
  3
Sketchy
350
5A9
  3
Thicken
350
5A1
  3
Wireframe
350
59A
  3
X-Ray
350
5AA
  0
XRECORD
  5
5C6
102
{ACAD_REACTORS
330
C
102
}
330
C
100
AcDbXrecord
280
     1
 90
        1
330
569
330
592
  0
DICTIONARY
  5
5C2
102
{ACAD_REACTORS
330
C
102
}
330
C
100
AcDbDictionary
281
     1
  3
CANNOSCALE
350
5C3
  3
CTABLESTYLE
350
5C7
  0
DICTIONARY
  5
5B7
102
{ACAD_REACTORS
330
C
102
}
330
C
100
AcDbDictionary
281
     1
  3
NCDocParameters
350
5B8
  0
DICTIONARY
  5
5B3
102
{ACAD_REACTORS
330
C
102
}
330
C
100
AcDbDictionary
281
     1
  3
MC_VERSION_DATA
350
5BC
  3
MCS_DOCUMENT_ID
350
5B4
  3
MCS_PARAMS_DATA
350
5BA
  0
XRECORD
  5
5C1
102
{ACAD_REACTORS
330
5C0
102
}
330
5C0
100
AcDbXrecord
280
     1
102
ACAD_ROUNDTRIP_2008_TABLE_ENTITY
360
5BE
 70
     2
 90
        1
 10
0.0
 20
0.0
 30
0.0
 90
        0
 90
        4
361
5BF
  0
LAYOUT
  5
56C
102
{ACAD_REACTORS
330
1A
102
}
330
1A
100
AcDbPlotSettings
  1

  2
none_device
  4
ISO_A0_(1189.00_x_841.00_MM)
  6

 40
0.0
 41
0.0
 42
0.0
 43
0.0
 44
1189.0
 45
841.0
 46
0.0
 47
0.0
 48
0.0
 49
0.0
140
0.0
141
0.0
142
1.0
143
1.0
 70
     0
 72
     1
 73
     0
 74
     0
  7

 75
     0
 76
     0
 77
     2
 78
   300
147
1.0
148
0.0
149
0.0
100
AcDbLayout
  1
Layout1
 70
     0
 71
     1
 10
0.0
 20
0.0
 11
1189.0
 21
841.0
 12
0.0
 22
0.0
 32
0.0
 14
0.0
 24
0.0
 34
0.0
 15
0.0
 25
0.0
 35
0.0
146
0.0
 13
0.0
 23
0.0
 33
0.0
 16
1.0
 26
0.0
 36
0.0
 17
0.0
 27
1.0
 37
0.0
 76
     0
330
221
  0
LAYOUT
  5
56B
102
{ACAD_REACTORS
330
1A
102
}
330
1A
100
AcDbPlotSettings
  1

  2
none_device
  4
ISO_A0_(1189.00_x_841.00_MM)
  6

 40
0.0
 41
0.0
 42
0.0
 43
0.0
 44
1189.0
 45
841.0
 46
0.0
 47
0.0
 48
0.0
 49
0.0
140
0.0
141
0.0
142
1.0
143
1.0
 70
  1024
 72
     1
 73
     0
 74
     0
  7

 75
     0
 76
     0
 77
     2
 78
   300
147
1.0
148
0.0
149
0.0
100
AcDbLayout
  1
Model
 70
     0
 71
     0
 10
0.0
 20
0.0
 11
1189.0
 21
841.0
 12
0.0
 22
0.0
 32
0.0
 14
0.0
 24
0.0
 34
0.0
 15
0.0
 25
0.0
 35
0.0
146
0.0
 13
0.0
 23
0.0
 33
0.0
 16
1.0
 26
0.0
 36
0.0
 17
0.0
 27
1.0
 37
0.0
 76
     0
330
220
331
1F4
  0
MATERIAL
  5
5AF
102
{ACAD_REACTORS
330
5AD
102
}
330
5AD
100
AcDbMaterial
  1
ByBlock
 72
     1
 94
      127
  0
MATERIAL
  5
5AE
102
{ACAD_REACTORS
330
5AD
102
}
330
5AD
100
AcDbMaterial
  1
ByLayer
 72
     1
 94
      127
  0
MATERIAL
  5
5B0
102
{ACAD_REACTORS
330
5AD
102
}
330
5AD
100
AcDbMaterial
  1
Global
 72
     1
 94
      127
  0
MLINESTYLE
  5
18
102
{ACAD_REACTORS
330
17
102
}
330
17
100
AcDbMlineStyle
  2
STANDARD
 70
     0
  3

 62
   256
 51
90.0
 52
90.0
 71
     2
 49
0.5
 62
   256
  6
BYLAYER
 49
-0.5
 62
   256
  6
BYLAYER
  0
ACDBPLACEHOLDER
  5
F
102
{ACAD_REACTORS
330
E
102
}
330
E
  0
SCALE
  5
570
102
{ACAD_REACTORS
330
56F
102
}
330
56F
100
AcDbScale
 70
     0
300
1:1
140
1.0
141
1.0
290
     1
  0
SCALE
  5
571
102
{ACAD_REACTORS
330
56F
102
}
330
56F
100
AcDbScale
 70
     0
300
1:2
140
1.0
141
2.0
290
     0
  0
SCALE
  5
572
102
{ACAD_REACTORS
330
56F
102
}
330
56F
100
AcDbScale
 70
     0
300
1:4
140
1.0
141
4.0
290
     0
  0
SCALE
  5
573
102
{ACAD_REACTORS
330
56F
102
}
330
56F
100
AcDbScale
 70
     0
300
1:5
140
1.0
141
5.0
290
     0
  0
SCALE
  5
574
102
{ACAD_REACTORS
330
56F
102
}
330
56F
100
AcDbScale
 70
     0
300
1:8
140
1.0
141
8.0
290
     0
  0
SCALE
  5
575
102
{ACAD_REACTORS
330
56F
102
}
330
56F
100
AcDbScale
 70
     0
300
1:10
140
1.0
141
10.0
290
     0
  0
SCALE
  5
576
102
{ACAD_REACTORS
330
56F
102
}
330
56F
100
AcDbScale
 70
     0
300
1:16
140
1.0
141
16.0
290
     0
  0
SCALE
  5
577
102
{ACAD_REACTORS
330
56F
102
}
330
56F
100
AcDbScale
 70
     0
300
1:20
140
1.0
141
20.0
290
     0
  0
SCALE
  5
578
102
{ACAD_REACTORS
330
56F
102
}
330
56F
100
AcDbScale
 70
     0
300
1:30
140
1.0
141
30.0
290
     0
  0
SCALE
  5
579
102
{ACAD_REACTORS
330
56F
102
}
330
56F
100
AcDbScale
 70
     0
300
1:40
140
1.0
141
40.0
290
     0
  0
SCALE
  5
57A
102
{ACAD_REACTORS
330
56F
102
}
330
56F
100
AcDbScale
 70
     0
300
1:50
140
1.0
141
50.0
290
     0
  0
SCALE
  5
57B
102
{ACAD_REACTORS
330
56F
102
}
330
56F
100
AcDbScale
 70
     0
300
1:100
140
1.0
141
100.0
290
     0
  0
SCALE
  5
57C
102
{ACAD_REACTORS
330
56F
102
}
330
56F
100
AcDbScale
 70
     0
300
2:1
140
2.0
141
1.0
290
     0
  0
SCALE
  5
57D
102
{ACAD_REACTORS
330
56F
102
}
330
56F
100
AcDbScale
 70
     0
300
4:1
140
4.0
141
1.0
290
     0
  0
SCALE
  5
57E
102
{ACAD_REACTORS
330
56F
102
}
330
56F
100
AcDbScale
 70
     0
300
8:1
140
8.0
141
1.0
290
     0
  0
SCALE
  5
57F
102
{ACAD_REACTORS
330
56F
102
}
330
56F
100
AcDbScale
 70
     0
300
10:1
140
10.0
141
1.0
290
     0
  0
SCALE
  5
580
102
{ACAD_REACTORS
330
56F
102
}
330
56F
100
AcDbScale
 70
     0
300
100:1
140
100.0
141
1.0
290
     0
  0
SCALE
  5
581
102
{ACAD_REACTORS
330
56F
102
}
330
56F
100
AcDbScale
 70
     0
300
1/128" = 1'-0"
140
0.007812
141
12.0
290
     0
  0
SCALE
  5
582
102
{ACAD_REACTORS
330
56F
102
}
330
56F
100
AcDbScale
 70
     0
300
1/64" = 1'-0"
140
0.015625
141
12.0
290
     0
  0
SCALE
  5
583
102
{ACAD_REACTORS
330
56F
102
}
330
56F
100
AcDbScale
 70
     0
300
1/32" = 1'-0"
140
0.03125
141
12.0
290
     0
  0
SCALE
  5
584
102
{ACAD_REACTORS
330
56F
102
}
330
56F
100
AcDbScale
 70
     0
300
1/16" = 1'-0"
140
0.0625
141
12.0
290
     0
  0
SCALE
  5
585
102
{ACAD_REACTORS
330
56F
102
}
330
56F
100
AcDbScale
 70
     0
300
3/32" = 1'-0"
140
0.09375
141
12.0
290
     0
  0
SCALE
  5
586
102
{ACAD_REACTORS
330
56F
102
}
330
56F
100
AcDbScale
 70
     0
300
1/8" = 1'-0"
140
0.125
141
12.0
290
     0
  0
SCALE
  5
587
102
{ACAD_REACTORS
330
56F
102
}
330
56F
100
AcDbScale
 70
     0
300
3/16" = 1'-0"
140
0.1875
141
12.0
290
     0
  0
SCALE
  5
588
102
{ACAD_REACTORS
330
56F
102
}
330
56F
100
AcDbScale
 70
     0
300
1/4" = 1'-0"
140
0.25
141
12.0
290
     0
  0
SCALE
  5
589
102
{ACAD_REACTORS
330
56F
102
}
330
56F
100
AcDbScale
 70
     0
300
3/8" = 1'-0"
140
0.375
141
12.0
290
     0
  0
SCALE
  5
58A
102
{ACAD_REACTORS
330
56F
102
}
330
56F
100
AcDbScale
 70
     0
300
1/2" = 1'-0"
140
0.5
141
12.0
290
     0
  0
SCALE
  5
58B
102
{ACAD_REACTORS
330
56F
102
}
330
56F
100
AcDbScale
 70
     0
300
3/4" = 1'-0"
140
0.75
141
12.0
290
     0
  0
SCALE
  5
58C
102
{ACAD_REACTORS
330
56F
102
}
330
56F
100
AcDbScale
 70
     0
300
1" = 1'-0"
140
1.0
141
12.0
290
     0
  0
SCALE
  5
58D
102
{ACAD_REACTORS
330
56F
102
}
330
56F
100
AcDbScale
 70
     0
300
1-1/2" = 1'-0"
140
1.5
141
12.0
290
     0
  0
SCALE
  5
58E
102
{ACAD_REACTORS
330
56F
102
}
330
56F
100
AcDbScale
 70
     0
300
3" = 1'-0"
140
3.0
141
12.0
290
     0
  0
SCALE
  5
58F
102
{ACAD_REACTORS
330
56F
102
}
330
56F
100
AcDbScale
 70
     0
300
6" = 1'-0"
140
6.0
141
12.0
290
     0
  0
SCALE
  5
590
102
{ACAD_REACTORS
330
56F
102
}
330
56F
100
AcDbScale
 70
     0
300
1'-0" = 1'-0"
140
12.0
141
12.0
290
     0
  0
TABLESTYLE
  5
592
102
{ACAD_REACTORS
330
591
102
}
102
{ACAD_XDICTIONARY
360
5C4
102
}
330
591
100
AcDbTableStyle
  3
Standard
 70
     0
 71
     0
 40
0.06
 41
0.06
280
     0
281
     0
  7
STANDARD
140
4.5
170
     2
 62
     0
 63
   257
283
     0
 90
        4
 91
        0
  1

274
    -2
284
     1
 64
     0
275
    -2
285
     1
 65
     0
276
    -2
286
     1
 66
     0
277
    -2
287
     1
 67
     0
278
    -2
288
     1
 68
     0
279
    -2
289
     1
 69
     0
  7
STANDARD
140
6.0
170
     5
 62
     0
 63
   257
283
     0
 90
        4
 91
        0
  1

274
    -2
284
     1
 64
     0
275
    -2
285
     1
 65
     0
276
    -2
286
     1
 66
     0
277
    -2
287
     1
 67
     0
278
    -2
288
     1
 68
     0
279
    -2
289
     1
 69
     0
  7
STANDARD
140
4.5
170
     5
 62
     0
 63
   257
283
     0
 90
        4
 91
        0
  1

274
    -2
284
     1
 64
     0
275
    -2
285
     1
 65
     0
276
    -2
286
     1
 66
     0
277
    -2
287
     1
 67
     0
278
    -2
288
     1
 68
     0
279
    -2
289
     1
 69
     0
  0
VISUALSTYLE
  5
599
102
{ACAD_REACTORS
330
594
102
}
330
594
100
AcDbVisualStyle
  2
2dWireframe
 70
     4
177
     3
291
     0
 70
    58
 90
        0
176
     1
 90
        2
176
     1
 90
        0
176
     1
 90
        0
176
     1
 40
0.6
176
     1
 40
30.0
176
     1
 62
     7
420
 16777215
176
     1
 90
        1
176
     1
 90
        4
176
     1
 62
     7
176
     1
 62
   257
176
     1
 90
        1
176
     1
 90
        1
176
     1
 40
1.0
176
     1
 90
        0
176
     1
 62
   257
176
     1
 40
1.0
176
     1
 90
        1
176
     1
 90
        6
176
     1
 90
        2
176
     1
 62
     7
176
     1
 90
        5
176
     1
 90
        0
176
     1
 90
        0
176
     1
290
     0
176
     1
 90
        1
176
     1
 40
0.0
176
     1
 90
        0
176
     1
290
     1
176
     1
290
     1
176
     1
290
     0
176
     1
290
     0
176
     1
290
     0
176
     1
290
     0
176
     1
290
     0
176
     1
290
     0
176
     1
290
     0
176
     1
 90
       50
176
     1
 40
0.0
176
     1
 40
1.0
176
     1
 90
        0
176
     1
 62
    18
420
        0
176
     1
 90
       50
176
     1
 90
        3
176
     1
 62
     5
420
      255
176
     1
290
     0
176
     1
 90
       50
176
     1
 90
       50
176
     1
 90
       50
176
     1
290
     0
176
     1
 90
       50
176
     1
 62
   256
176
     0
 40
1.0
176
     0
 90
        2
176
     1
  1
strokes_ogs.tif
176
     1
290
     0
176
     1
 40
1.0
176
     1
 40
1.0
176
     1
  0
VISUALSTYLE
  5
59C
102
{ACAD_REACTORS
330
594
102
}
330
594
100
AcDbVisualStyle
  2
Basic
 70
     7
177
     3
291
     1
 70
    58
 90
        1
176
     1
 90
        0
176
     1
 90
        1
176
     1
 90
        0
176
     1
 40
0.6
176
     1
 40
30.0
176
     1
 62
     7
420
 16777215
176
     1
 90
        0
176
     1
 90
        4
176
     1
 62
     7
176
     1
 62
   257
176
     1
 90
        1
176
     1
 90
        1
176
     1
 40
1.0
176
     1
 90
        8
176
     1
 62
     7
176
     1
 40
1.0
176
     1
 90
        1
176
     1
 90
        6
176
     1
 90
        2
176
     1
 62
     7
176
     1
 90
        5
176
     1
 90
        0
176
     1
 90
        0
176
     1
290
     0
176
     1
 90
        1
176
     1
 40
0.0
176
     1
 90
        0
176
     1
290
     0
176
     1
290
     1
176
     1
290
     1
176
     1
290
     0
176
     1
290
     0
176
     1
290
     0
176
     1
290
     0
176
     1
290
     0
176
     1
290
     0
176
     1
 90
       50
176
     1
 40
0.0
176
     1
 40
1.0
176
     1
 90
        0
176
     1
 62
    18
420
        0
176
     1
 90
       50
176
     1
 90
        3
176
     1
 62
     5
420
      255
176
     1
290
     0
176
     1
 90
       50
176
     1
 90
       50
176
     1
 90
       50
176
     1
290
     0
176
     1
 90
       50
176
     1
 62
   256
176
     0
 40
1.0
176
     0
 90
        2
176
     1
  1
strokes_ogs.tif
176
     1
290
     0
176
     1
 40
1.0
176
     1
 40
1.0
176
     1
  0
VISUALSTYLE
  5
5A0
102
{ACAD_REACTORS
330
594
102
}
330
594
100
AcDbVisualStyle
  2
Brighten
 70
    12
177
     3
291
     1
 70
    58
 90
        2
176
     1
 90
        2
176
     1
 90
        0
176
     1
 90
        0
176
     1
 40
0.6
176
     1
 40
30.0
176
     1
 62
     7
420
 16777215
176
     1
 90
        1
176
     1
 90
        4
176
     1
 62
     7
176
     1
 62
   257
176
     1
 90
        1
176
     1
 90
        1
176
     1
 40
1.0
176
     1
 90
        8
176
     1
 62
     7
176
     1
 40
1.0
176
     1
 90
        1
176
     1
 90
        6
176
     1
 90
        2
176
     1
 62
     7
176
     1
 90
        5
176
     1
 90
        0
176
     1
 90
        0
176
     1
290
     0
176
     1
 90
        1
176
     1
 40
50.0
176
     1
 90
        0
176
     1
290
     0
176
     1
290
     1
176
     1
290
     1
176
     1
290
     0
176
     1
290
     0
176
     1
290
     0
176
     1
290
     0
176
     1
290
     0
176
     1
290
     0
176
     1
 90
       50
176
     1
 40
0.0
176
     1
 40
1.0
176
     1
 90
        0
176
     1
 62
    18
420
        0
176
     1
 90
       50
176
     1
 90
        3
176
     1
 62
     5
420
      255
176
     1
290
     0
176
     1
 90
       50
176
     1
 90
       50
176
     1
 90
       50
176
     1
290
     0
176
     1
 90
       50
176
     1
 62
   256
176
     0
 40
1.0
176
     0
 90
        2
176
     1
  1
strokes_ogs.tif
176
     1
290
     0
176
     1
 40
1.0
176
     1
 40
1.0
176
     1
  0
VISUALSTYLE
  5
5A4
102
{ACAD_REACTORS
330
594
102
}
330
594
100
AcDbVisualStyle
  2
ColorChange
 70
    16
177
     3
291
     1
 70
    58
 90
        2
176
     1
 90
        2
176
     1
 90
        3
176
     1
 90
        0
176
     1
 40
0.6
176
     1
 40
30.0
176
     1
 62
     8
420
  8421504
176
     1
 90
        1
176
     1
 90
        4
176
     1
 62
     7
176
     1
 62
   257
176
     1
 90
        1
176
     1
 90
        1
176
     1
 40
1.0
176
     1
 90
        8
176
     1
 62
     8
420
  8421504
176
     1
 40
1.0
176
     1
 90
        1
176
     1
 90
        6
176
     1
 90
        2
176
     1
 62
     7
176
     1
 90
        5
176
     1
 90
        0
176
     1
 90
        0
176
     1
290
     0
176
     1
 90
        1
176
     1
 40
0.0
176
     1
 90
        0
176
     1
290
     0
176
     1
290
     1
176
     1
290
     1
176
     1
290
     0
176
     1
290
     0
176
     1
290
     0
176
     1
290
     0
176
     1
290
     0
176
     1
290
     0
176
     1
 90
       50
176
     1
 40
0.0
176
     1
 40
1.0
176
     1
 90
        0
176
     1
 62
    18
420
        0
176
     1
 90
       50
176
     1
 90
        3
176
     1
 62
     5
420
      255
176
     1
290
     0
176
     1
 90
       50
176
     1
 90
       50
176
     1
 90
       50
176
     1
290
     0
176
     1
 90
       50
176
     1
 62
   256
176
     0
 40
1.0
176
     0
 90
        2
176
     1
  1
strokes_ogs.tif
176
     1
290
     0
176
     1
 40
1.0
176
     1
 40
1.0
176
     1
  0
VISUALSTYLE
  5
59E
102
{ACAD_REACTORS
330
594
102
}
330
594
100
AcDbVisualStyle
  2
Conceptual
 70
     9
177
     3
291
     0
 70
    58
 90
        3
176
     1
 90
        2
176
     1
 90
        0
176
     1
 90
        0
176
     1
 40
0.6
176
     1
 40
30.0
176
     1
 62
     7
420
 16777215
176
     1
 90
        2
176
     1
 90
        2
176
     1
 62
     7
176
     1
 62
   257
176
     1
 90
        1
176
     1
 90
        1
176
     1
 40
179.0
176
     1
 90
        8
176
     1
 62
     7
176
     1
 40
1.0
176
     1
 90
        1
176
     1
 90
        6
176
     1
 90
        2
176
     1
 62
     7
176
     1
 90
        3
176
     1
 90
        0
176
     1
 90
        0
176
     1
290
     0
176
     1
 90
        1
176
     1
 40
0.0
176
     1
 90
        0
176
     1
290
     0
176
     1
290
     1
176
     1
290
     1
176
     1
290
     0
176
     1
290
     0
176
     1
290
     0
176
     1
290
     0
176
     1
290
     0
176
     1
290
     0
176
     1
 90
       50
176
     1
 40
0.0
176
     1
 40
1.0
176
     1
 90
        0
176
     1
 62
    18
420
        0
176
     1
 90
       50
176
     1
 90
        3
176
     1
 62
     5
420
      255
176
     1
290
     0
176
     1
 90
       50
176
     1
 90
       50
176
     1
 90
       50
176
     1
290
     0
176
     1
 90
       50
176
     1
 62
   256
176
     0
 40
1.0
176
     0
 90
        2
176
     1
  1
strokes_ogs.tif
176
     1
290
     0
176
     1
 40
1.0
176
     1
 40
1.0
176
     1
  0
VISUALSTYLE
  5
59F
102
{ACAD_REACTORS
330
594
102
}
330
594
100
AcDbVisualStyle
  2
Dim
 70
    11
177
     3
291
     1
 70
    58
 90
        2
176
     1
 90
        2
176
     1
 90
        0
176
     1
 90
        0
176
     1
 40
0.6
176
     1
 40
30.0
176
     1
 62
     7
420
 16777215
176
     1
 90
        1
176
     1
 90
        4
176
     1
 62
     7
176
     1
 62
   257
176
     1
 90
        1
176
     1
 90
        1
176
     1
 40
1.0
176
     1
 90
        8
176
     1
 62
     7
176
     1
 40
1.0
176
     1
 90
        1
176
     1
 90
        6
176
     1
 90
        2
176
     1
 62
     7
176
     1
 90
        5
176
     1
 90
        0
176
     1
 90
        0
176
     1
290
     0
176
     1
 90
        1
176
     1
 40
-50.0
176
     1
 90
        0
176
     1
290
     0
176
     1
290
     1
176
     1
290
     1
176
     1
290
     0
176
     1
290
     0
176
     1
290
     0
176
     1
290
     0
176
     1
290
     0
176
     1
290
     0
176
     1
 90
       50
176
     1
 40
0.0
176
     1
 40
1.0
176
     1
 90
        0
176
     1
 62
    18
420
        0
176
     1
 90
       50
176
     1
 90
        3
176
     1
 62
     5
420
      255
176
     1
290
     0
176
     1
 90
       50
176
     1
 90
       50
176
     1
 90
       50
176
     1
290
     0
176
     1
 90
       50
176
     1
 62
   256
176
     0
 40
1.0
176
     0
 90
        2
176
     1
  1
strokes_ogs.tif
176
     1
290
     0
176
     1
 40
1.0
176
     1
 40
1.0
176
     1
  0
VISUALSTYLE
  5
5A7
102
{ACAD_REACTORS
330
594
102
}
330
594
100
AcDbVisualStyle
  2
EdgeColorOff
 70
    22
177
     3
291
     1
 70
    58
 90
        2
176
     0
 90
        2
176
     0
 90
        0
176
     0
 90
        0
176
     0
 40
0.6
176
     0
 40
30.0
176
     0
 62
     7
420
 16777215
176
     0
 90
        1
176
     0
 90
        4
176
     0
 62
     7
176
     0
 62
   257
176
     0
 90
        1
176
     0
 90
        1
176
     0
 40
1.0
176
     0
 90
        8
176
     2
 62
     7
176
     0
 40
1.0
176
     0
 90
        1
176
     0
 90
        6
176
     0
 90
        2
176
     0
 62
     7
176
     0
 90
        5
176
     0
 90
        0
176
     0
 90
        0
176
     0
290
     0
176
     0
 90
        1
176
     0
 40
0.0
176
     0
 90
        0
176
     0
290
     0
176
     0
290
     1
176
     0
290
     1
176
     0
290
     0
176
     0
290
     0
176
     0
290
     0
176
     0
290
     0
176
     0
290
     0
176
     0
290
     0
176
     0
 90
       50
176
     0
 40
0.0
176
     0
 40
1.0
176
     0
 90
        0
176
     0
 62
    18
420
        0
176
     0
 90
       50
176
     0
 90
        3
176
     0
 62
     5
420
      255
176
     0
290
     0
176
     0
 90
       50
176
     0
 90
       50
176
     0
 90
       50
176
     0
290
     0
176
     0
 90
       50
176
     0
 62
   256
176
     0
 40
1.0
176
     0
 90
        2
176
     0
  1
strokes_ogs.tif
176
     0
290
     0
176
     0
 40
1.0
176
     0
 40
1.0
176
     0
  0
VISUALSTYLE
  5
5A3
102
{ACAD_REACTORS
330
594
102
}
330
594
100
AcDbVisualStyle
  2
Facepattern
 70
    15
177
     3
291
     1
 70
    58
 90
        2
176
     1
 90
        2
176
     1
 90
        0
176
     1
 90
        0
176
     1
 40
0.6
176
     1
 40
30.0
176
     1
 62
     7
420
 16777215
176
     1
 90
        1
176
     1
 90
        4
176
     1
 62
     7
176
     1
 62
   257
176
     1
 90
        1
176
     1
 90
        1
176
     1
 40
1.0
176
     1
 90
        8
176
     1
 62
     7
176
     1
 40
1.0
176
     1
 90
        1
176
     1
 90
        6
176
     1
 90
        2
176
     1
 62
     7
176
     1
 90
        5
176
     1
 90
        0
176
     1
 90
        0
176
     1
290
     0
176
     1
 90
        1
176
     1
 40
0.0
176
     1
 90
        0
176
     1
290
     0
176
     1
290
     1
176
     1
290
     1
176
     1
290
     0
176
     1
290
     0
176
     1
290
     0
176
     1
290
     0
176
     1
290
     0
176
     1
290
     0
176
     1
 90
       50
176
     1
 40
0.0
176
     1
 40
1.0
176
     1
 90
        0
176
     1
 62
    18
420
        0
176
     1
 90
       50
176
     1
 90
        3
176
     1
 62
     5
420
      255
176
     1
290
     0
176
     1
 90
       50
176
     1
 90
       50
176
     1
 90
       50
176
     1
290
     0
176
     1
 90
       50
176
     1
 62
   256
176
     0
 40
1.0
176
     0
 90
        2
176
     1
  1
strokes_ogs.tif
176
     1
290
     0
176
     1
 40
1.0
176
     1
 40
1.0
176
     1
  0
VISUALSTYLE
  5
595
102
{ACAD_REACTORS
330
594
102
}
330
594
100
AcDbVisualStyle
  2
Flat
 70
     0
177
     3
291
     1
 70
    58
 90
        2
176
     1
 90
        1
176
     1
 90
        1
176
     1
 90
        2
176
     1
 40
0.6
176
     1
 40
30.0
176
     1
 62
     7
420
 16777215
176
     1
 90
        0
176
     1
 90
        0
176
     1
 62
     7
176
     1
 62
   257
176
     1
 90
        1
176
     1
 90
        1
176
     1
 40
1.0
176
     1
 90
        8
176
     1
 62
     7
176
     1
 40
1.0
176
     1
 90
        1
176
     1
 90
        6
176
     1
 90
        2
176
     1
 62
     7
176
     1
 90
        5
176
     1
 90
        0
176
     1
 90
        0
176
     1
290
     0
176
     1
 90
       13
176
     1
 40
0.0
176
     1
 90
        0
176
     1
290
     0
176
     1
290
     1
176
     1
290
     1
176
     1
290
     0
176
     1
290
     0
176
     1
290
     0
176
     1
290
     0
176
     1
290
     0
176
     1
290
     0
176
     1
 90
       50
176
     1
 40
0.0
176
     1
 40
1.0
176
     1
 90
        0
176
     1
 62
    18
420
        0
176
     1
 90
       50
176
     1
 90
        3
176
     1
 62
     5
420
      255
176
     1
290
     0
176
     1
 90
       50
176
     1
 90
       50
176
     1
 90
       50
176
     1
290
     0
176
     1
 90
       50
176
     1
 62
   256
176
     0
 40
1.0
176
     0
 90
        2
176
     1
  1
strokes_ogs.tif
176
     1
290
     0
176
     1
 40
1.0
176
     1
 40
1.0
176
     1
  0
VISUALSTYLE
  5
596
102
{ACAD_REACTORS
330
594
102
}
330
594
100
AcDbVisualStyle
  2
FlatWithEdges
 70
     1
177
     3
291
     1
 70
    58
 90
        2
176
     1
 90
        1
176
     1
 90
        1
176
     1
 90
        2
176
     1
 40
0.6
176
     1
 40
30.0
176
     1
 62
     7
420
 16777215
176
     1
 90
        1
176
     1
 90
        0
176
     1
 62
     7
176
     1
 62
   257
176
     1
 90
        1
176
     1
 90
        1
176
     1
 40
1.0
176
     1
 90
        0
176
     1
 62
   257
176
     1
 40
1.0
176
     1
 90
        1
176
     1
 90
        6
176
     1
 90
        2
176
     1
 62
     7
176
     1
 90
        5
176
     1
 90
        0
176
     1
 90
        0
176
     1
290
     0
176
     1
 90
       13
176
     1
 40
0.0
176
     1
 90
        0
176
     1
290
     0
176
     1
290
     1
176
     1
290
     1
176
     1
290
     0
176
     1
290
     0
176
     1
290
     0
176
     1
290
     0
176
     1
290
     0
176
     1
290
     0
176
     1
 90
       50
176
     1
 40
0.0
176
     1
 40
1.0
176
     1
 90
        0
176
     1
 62
    18
420
        0
176
     1
 90
       50
176
     1
 90
        3
176
     1
 62
     5
420
      255
176
     1
290
     0
176
     1
 90
       50
176
     1
 90
       50
176
     1
 90
       50
176
     1
290
     0
176
     1
 90
       50
176
     1
 62
   256
176
     0
 40
1.0
176
     0
 90
        2
176
     1
  1
strokes_ogs.tif
176
     1
290
     0
176
     1
 40
1.0
176
     1
 40
1.0
176
     1
  0
VISUALSTYLE
  5
597
102
{ACAD_REACTORS
330
594
102
}
330
594
100
AcDbVisualStyle
  2
Gouraud
 70
     2
177
     3
291
     1
 70
    58
 90
        2
176
     1
 90
        2
176
     1
 90
        1
176
     1
 90
        2
176
     1
 40
0.6
176
     1
 40
30.0
176
     1
 62
     7
420
 16777215
176
     1
 90
        0
176
     1
 90
        0
176
     1
 62
     7
176
     1
 62
   257
176
     1
 90
        1
176
     1
 90
        1
176
     1
 40
1.0
176
     1
 90
        0
176
     1
 62
     7
176
     1
 40
1.0
176
     1
 90
        1
176
     1
 90
        6
176
     1
 90
        2
176
     1
 62
     7
176
     1
 90
        5
176
     1
 90
        0
176
     1
 90
        0
176
     1
290
     0
176
     1
 90
       13
176
     1
 40
0.0
176
     1
 90
        0
176
     1
290
     0
176
     1
290
     1
176
     1
290
     1
176
     1
290
     0
176
     1
290
     0
176
     1
290
     0
176
     1
290
     0
176
     1
290
     0
176
     1
290
     0
176
     1
 90
       50
176
     1
 40
0.0
176
     1
 40
1.0
176
     1
 90
        0
176
     1
 62
    18
420
        0
176
     1
 90
       50
176
     1
 90
        3
176
     1
 62
     5
420
      255
176
     1
290
     0
176
     1
 90
       50
176
     1
 90
       50
176
     1
 90
       50
176
     1
290
     0
176
     1
 90
       50
176
     1
 62
   256
176
     0
 40
1.0
176
     0
 90
        2
176
     1
  1
strokes_ogs.tif
176
     1
290
     0
176
     1
 40
1.0
176
     1
 40
1.0
176
     1
  0
VISUALSTYLE
  5
598
102
{ACAD_REACTORS
330
594
102
}
330
594
100
AcDbVisualStyle
  2
GouraudWithEdges
 70
     3
177
     3
291
     1
 70
    58
 90
        2
176
     1
 90
        2
176
     1
 90
        1
176
     1
 90
        2
176
     1
 40
0.6
176
     1
 40
30.0
176
     1
 62
     7
420
 16777215
176
     1
 90
        1
176
     1
 90
        0
176
     1
 62
     7
176
     1
 62
   257
176
     1
 90
        1
176
     1
 90
        1
176
     1
 40
1.0
176
     1
 90
        0
176
     1
 62
   257
176
     1
 40
1.0
176
     1
 90
        1
176
     1
 90
        6
176
     1
 90
        2
176
     1
 62
     7
176
     1
 90
        5
176
     1
 90
        0
176
     1
 90
        0
176
     1
290
     0
176
     1
 90
       13
176
     1
 40
0.0
176
     1
 90
        0
176
     1
290
     0
176
     1
290
     1
176
     1
290
     1
176
     1
290
     0
176
     1
290
     0
176
     1
290
     0
176
     1
290
     0
176
     1
290
     0
176
     1
290
     0
176
     1
 90
       50
176
     1
 40
0.0
176
     1
 40
1.0
176
     1
 90
        0
176
     1
 62
    18
420
        0
176
     1
 90
       50
176
     1
 90
        3
176
     1
 62
     5
420
      255
176
     1
290
     0
176
     1
 90
       50
176
     1
 90
       50
176
     1
 90
       50
176
     1
290
     0
176
     1
 90
       50
176
     1
 62
   256
176
     0
 40
1.0
176
     0
 90
        2
176
     1
  1
strokes_ogs.tif
176
     1
290
     0
176
     1
 40
1.0
176
     1
 40
1.0
176
     1
  0
VISUALSTYLE
  5
59B
102
{ACAD_REACTORS
330
594
102
}
330
594
100
AcDbVisualStyle
  2
Hidden
 70
     6
177
     3
291
     0
 70
    58
 90
        1
176
     1
 90
        2
176
     1
 90
        2
176
     1
 90
        0
176
     1
 40
0.6
176
     1
 40
30.0
176
     1
 62
     7
420
 16777215
176
     1
 90
        2
176
     1
 90
        2
176
     1
 62
     7
176
     1
 62
   257
176
     1
 90
        2
176
     1
 90
        1
176
     1
 40
40.0
176
     1
 90
        0
176
     1
 62
   257
176
     1
 40
1.0
176
     1
 90
        1
176
     1
 90
        6
176
     1
 90
        2
176
     1
 62
     7
176
     1
 90
        3
176
     1
 90
        0
176
     1
 90
        0
176
     1
290
     0
176
     1
 90
        1
176
     1
 40
0.0
176
     1
 90
        0
176
     1
290
     0
176
     1
290
     1
176
     1
290
     1
176
     1
290
     0
176
     1
290
     0
176
     1
290
     0
176
     1
290
     0
176
     1
290
     0
176
     1
290
     0
176
     1
 90
       50
176
     1
 40
0.0
176
     1
 40
1.0
176
     1
 90
        0
176
     1
 62
    18
420
        0
176
     1
 90
       50
176
     1
 90
        3
176
     1
 62
     5
420
      255
176
     1
290
     0
176
     1
 90
       50
176
     1
 90
       50
176
     1
 90
       50
176
     1
290
     0
176
     1
 90
       50
176
     1
 62
   256
176
     0
 40
1.0
176
     0
 90
        2
176
     1
  1
strokes_ogs.tif
176
     1
290
     0
176
     1
 40
1.0
176
     1
 40
1.0
176
     1
  0
VISUALSTYLE
  5
5A5
102
{ACAD_REACTORS
330
594
102
}
330
594
100
AcDbVisualStyle
  2
JitterOff
 70
    20
177
     3
291
     1
 70
    58
 90
        2
176
     0
 90
        2
176
     0
 90
        0
176
     0
 90
        0
176
     0
 40
0.6
176
     0
 40
30.0
176
     0
 62
     7
420
 16777215
176
     0
 90
        1
176
     0
 90
        4
176
     0
 62
     7
176
     0
 62
   257
176
     0
 90
        1
176
     0
 90
        1
176
     0
 40
1.0
176
     0
 90
       10
176
     2
 62
     7
176
     0
 40
1.0
176
     0
 90
        1
176
     0
 90
        6
176
     0
 90
        2
176
     0
 62
     7
176
     0
 90
        5
176
     0
 90
        0
176
     0
 90
        0
176
     0
290
     0
176
     0
 90
        1
176
     0
 40
0.0
176
     0
 90
        0
176
     0
290
     0
176
     0
290
     1
176
     0
290
     1
176
     0
290
     0
176
     0
290
     0
176
     0
290
     0
176
     0
290
     0
176
     0
290
     0
176
     0
290
     0
176
     0
 90
       50
176
     0
 40
0.0
176
     0
 40
1.0
176
     0
 90
        0
176
     0
 62
    18
420
        0
176
     0
 90
       50
176
     0
 90
        3
176
     0
 62
     5
420
      255
176
     0
290
     0
176
     0
 90
       50
176
     0
 90
       50
176
     0
 90
       50
176
     0
290
     0
176
     0
 90
       50
176
     0
 62
   256
176
     0
 40
1.0
176
     0
 90
        2
176
     0
  1
strokes_ogs.tif
176
     0
290
     0
176
     0
 40
1.0
176
     0
 40
1.0
176
     0
  0
VISUALSTYLE
  5
5A2
102
{ACAD_REACTORS
330
594
102
}
330
594
100
AcDbVisualStyle
  2
Linepattern
 70
    14
177
     3
291
     1
 70
    58
 90
        2
176
     1
 90
        2
176
     1
 90
        0
176
     1
 90
        0
176
     1
 40
0.6
176
     1
 40
30.0
176
     1
 62
     7
420
 16777215
176
     1
 90
        1
176
     1
 90
        4
176
     1
 62
     7
176
     1
 62
   257
176
     1
 90
        7
176
     1
 90
        7
176
     1
 40
1.0
176
     1
 90
        8
176
     1
 62
     7
176
     1
 40
1.0
176
     1
 90
        1
176
     1
 90
        6
176
     1
 90
        2
176
     1
 62
     7
176
     1
 90
        5
176
     1
 90
        0
176
     1
 90
        0
176
     1
290
     0
176
     1
 90
        1
176
     1
 40
0.0
176
     1
 90
        0
176
     1
290
     0
176
     1
290
     1
176
     1
290
     1
176
     1
290
     0
176
     1
290
     0
176
     1
290
     0
176
     1
290
     0
176
     1
290
     0
176
     1
290
     0
176
     1
 90
       50
176
     1
 40
0.0
176
     1
 40
1.0
176
     1
 90
        0
176
     1
 62
    18
420
        0
176
     1
 90
       50
176
     1
 90
        3
176
     1
 62
     5
420
      255
176
     1
290
     0
176
     1
 90
       50
176
     1
 90
       50
176
     1
 90
       50
176
     1
290
     0
176
     1
 90
       50
176
     1
 62
   256
176
     0
 40
1.0
176
     0
 90
        2
176
     1
  1
strokes_ogs.tif
176
     1
290
     0
176
     1
 40
1.0
176
     1
 40
1.0
176
     1
  0
VISUALSTYLE
  5
5A6
102
{ACAD_REACTORS
330
594
102
}
330
594
100
AcDbVisualStyle
  2
OverhangOff
 70
    21
177
     3
291
     1
 70
    58
 90
        2
176
     0
 90
        2
176
     0
 90
        0
176
     0
 90
        0
176
     0
 40
0.6
176
     0
 40
30.0
176
     0
 62
     7
420
 16777215
176
     0
 90
        1
176
     0
 90
        4
176
     0
 62
     7
176
     0
 62
   257
176
     0
 90
        1
176
     0
 90
        1
176
     0
 40
1.0
176
     0
 90
        9
176
     2
 62
     7
176
     0
 40
1.0
176
     0
 90
        1
176
     0
 90
        6
176
     0
 90
        2
176
     0
 62
     7
176
     0
 90
        5
176
     0
 90
        0
176
     0
 90
        0
176
     0
290
     0
176
     0
 90
        1
176
     0
 40
0.0
176
     0
 90
        0
176
     0
290
     0
176
     0
290
     1
176
     0
290
     1
176
     0
290
     0
176
     0
290
     0
176
     0
290
     0
176
     0
290
     0
176
     0
290
     0
176
     0
290
     0
176
     0
 90
       50
176
     0
 40
0.0
176
     0
 40
1.0
176
     0
 90
        0
176
     0
 62
    18
420
        0
176
     0
 90
       50
176
     0
 90
        3
176
     0
 62
     5
420
      255
176
     0
290
     0
176
     0
 90
       50
176
     0
 90
       50
176
     0
 90
       50
176
     0
290
     0
176
     0
 90
       50
176
     0
 62
   256
176
     0
 40
1.0
176
     0
 90
        2
176
     0
  1
strokes_ogs.tif
176
     0
290
     0
176
     0
 40
1.0
176
     0
 40
1.0
176
     0
  0
VISUALSTYLE
  5
59D
102
{ACAD_REACTORS
330
594
102
}
330
594
100
AcDbVisualStyle
  2
Realistic
 70
     8
177
     3
291
     0
 70
    58
 90
        2
176
     1
 90
        3
176
     1
 90
        0
176
     1
 90
        2
176
     1
 40
0.6
176
     1
 40
30.0
176
     1
 62
     7
420
 16777215
176
     1
 90
        0
176
     1
 90
        0
176
     1
 62
     7
176
     1
 62
   257
176
     1
 90
        1
176
     1
 90
        1
176
     1
 40
1.0
176
     1
 90
        8
176
     1
 62
   257
176
     1
 40
1.0
176
     1
 90
        1
176
     1
 90
        6
176
     1
 90
        2
176
     1
 62
     7
176
     1
 90
        3
176
     1
 90
        0
176
     1
 90
        0
176
     1
290
     0
176
     1
 90
       13
176
     1
 40
0.0
176
     1
 90
        0
176
     1
290
     0
176
     1
290
     1
176
     1
290
     1
176
     1
290
     0
176
     1
290
     0
176
     1
290
     0
176
     1
290
     0
176
     1
290
     0
176
     1
290
     0
176
     1
 90
       50
176
     1
 40
0.0
176
     1
 40
1.0
176
     1
 90
        0
176
     1
 62
    18
420
        0
176
     1
 90
       50
176
     1
 90
        3
176
     1
 62
     5
420
      255
176
     1
290
     0
176
     1
 90
       50
176
     1
 90
       50
176
     1
 90
       50
176
     1
290
     0
176
     1
 90
       50
176
     1
 62
   256
176
     0
 40
1.0
176
     0
 90
        2
176
     1
  1
strokes_ogs.tif
176
     1
290
     0
176
     1
 40
1.0
176
     1
 40
1.0
176
     1
  0
VISUALSTYLE
  5
5AC
102
{ACAD_REACTORS
330
594
102
}
330
594
100
AcDbVisualStyle
  2
Shaded
 70
    27
177
     3
291
     0
 70
    58
 90
        2
176
     1
 90
        2
176
     1
 90
        1
176
     1
 90
        2
176
     1
 40
0.6
176
     1
 40
30.0
176
     1
 62
     7
420
 16777215
176
     1
 90
        0
176
     1
 90
        4
176
     1
 62
     7
176
     1
 62
   257
176
     1
 90
        1
176
     1
 90
        1
176
     1
 40
1.0
176
     1
 90
        8
176
     1
 62
   257
176
     1
 40
1.0
176
     1
 90
        1
176
     1
 90
        6
176
     1
 90
        2
176
     1
 62
     8
420
  7895160
176
     1
 90
        3
176
     1
 90
        0
176
     1
 90
        0
176
     1
290
     0
176
     1
 90
        5
176
     1
 40
0.0
176
     1
 90
        0
176
     1
290
     0
176
     1
290
     1
176
     1
290
     1
176
     1
290
     0
176
     1
290
     0
176
     1
290
     0
176
     1
290
     0
176
     1
290
     0
176
     1
290
     0
176
     1
 90
       50
176
     1
 40
0.0
176
     1
 40
1.0
176
     1
 90
        0
176
     1
 62
    18
420
        0
176
     1
 90
       50
176
     1
 90
        3
176
     1
 62
     5
420
      255
176
     1
290
     0
176
     1
 90
       50
176
     1
 90
       50
176
     1
 90
       50
176
     1
290
     0
176
     1
 90
       50
176
     1
 62
   256
176
     0
 40
1.0
176
     0
 90
        2
176
     1
  1
strokes_ogs.tif
176
     1
290
     0
176
     1
 40
1.0
176
     1
 40
1.0
176
     1
  0
VISUALSTYLE
  5
5AB
102
{ACAD_REACTORS
330
594
102
}
330
594
100
AcDbVisualStyle
  2
Shaded with edges
 70
    26
177
     3
291
     0
 70
    58
 90
        2
176
     1
 90
        2
176
     1
 90
        1
176
     1
 90
        2
176
     1
 40
0.6
176
     1
 40
30.0
176
     1
 62
     7
420
 16777215
176
     1
 90
        1
176
     1
 90
       10
176
     1
 62
     7
176
     1
 62
   257
176
     1
 90
        2
176
     1
 90
        1
176
     1
 40
1.0
176
     1
 90
        8
176
     1
 62
   257
176
     1
 40
1.0
176
     1
 90
        1
176
     1
 90
        6
176
     1
 90
        2
176
     1
 62
     7
176
     1
 90
        3
176
     1
 90
        0
176
     1
 90
        0
176
     1
290
     0
176
     1
 90
        5
176
     1
 40
0.0
176
     1
 90
        0
176
     1
290
     0
176
     1
290
     1
176
     1
290
     1
176
     1
290
     0
176
     1
290
     0
176
     1
290
     0
176
     1
290
     0
176
     1
290
     0
176
     1
290
     0
176
     1
 90
       50
176
     1
 40
0.0
176
     1
 40
1.0
176
     1
 90
        0
176
     1
 62
    18
420
        0
176
     1
 90
       50
176
     1
 90
        3
176
     1
 62
     5
420
      255
176
     1
290
     0
176
     1
 90
       50
176
     1
 90
       50
176
     1
 90
       50
176
     1
290
     0
176
     1
 90
       50
176
     1
 62
   256
176
     0
 40
1.0
176
     0
 90
        2
176
     1
  1
strokes_ogs.tif
176
     1
290
     0
176
     1
 40
1.0
176
     1
 40
1.0
176
     1
  0
VISUALSTYLE
  5
5A8
102
{ACAD_REACTORS
330
594
102
}
330
594
100
AcDbVisualStyle
  2
Shades of Gray
 70
    23
177
     3
291
     0
 70
    58
 90
        2
176
     1
 90
        2
176
     1
 90
        3
176
     1
 90
        0
176
     1
 40
0.6
176
     1
 40
30.0
176
     1
 62
     7
420
 16777215
176
     1
 90
        2
176
     1
 90
        2
176
     1
 62
     7
176
     1
 62
     7
176
     1
 90
        1
176
     1
 90
        1
176
     1
 40
40.0
176
     1
 90
        8
176
     1
 62
     7
176
     1
 40
1.0
176
     1
 90
        1
176
     1
 90
        6
176
     1
 90
        2
176
     1
 62
     7
176
     1
 90
        3
176
     1
 90
        0
176
     1
 90
        0
176
     1
290
     0
176
     1
 90
        1
176
     1
 40
0.0
176
     1
 90
        0
176
     1
290
     0
176
     1
290
     1
176
     1
290
     1
176
     1
290
     0
176
     1
290
     0
176
     1
290
     0
176
     1
290
     0
176
     1
290
     0
176
     1
290
     0
176
     1
 90
       50
176
     1
 40
0.0
176
     1
 40
1.0
176
     1
 90
        0
176
     1
 62
    18
420
        0
176
     1
 90
       50
176
     1
 90
        3
176
     1
 62
     5
420
      255
176
     1
290
     0
176
     1
 90
       50
176
     1
 90
       50
176
     1
 90
       50
176
     1
290
     0
176
     1
 90
       50
176
     1
 62
   256
176
     0
 40
1.0
176
     0
 90
        2
176
     1
  1
strokes_ogs.tif
176
     1
290
     0
176
     1
 40
1.0
176
     1
 40
1.0
176
     1
  0
VISUALSTYLE
  5
5A9
102
{ACAD_REACTORS
330
594
102
}
330
594
100
AcDbVisualStyle
  2
Sketchy
 70
    24
177
     3
291
     0
 70
    58
 90
        1
176
     1
 90
        2
176
     1
 90
        2
176
     1
 90
        0
176
     1
 40
0.6
176
     1
 40
30.0
176
     1
 62
     7
420
 16777215
176
     1
 90
        2
176
     1
 90
        2
176
     1
 62
     7
176
     1
 62
     7
176
     1
 90
        1
176
     1
 90
        1
176
     1
 40
40.0
176
     1
 90
       11
176
     1
 62
     7
176
     1
 40
1.0
176
     1
 90
        1
176
     1
 90
        6
176
     1
 90
        2
176
     1
 62
     7
176
     1
 90
        6
176
     1
 90
        0
176
     1
 90
        0
176
     1
290
     0
176
     1
 90
        1
176
     1
 40
0.0
176
     1
 90
        0
176
     1
290
     0
176
     1
290
     1
176
     1
290
     1
176
     1
290
     0
176
     1
290
     0
176
     1
290
     0
176
     1
290
     0
176
     1
290
     0
176
     1
290
     0
176
     1
 90
       50
176
     1
 40
0.0
176
     1
 40
1.0
176
     1
 90
        0
176
     1
 62
    18
420
        0
176
     1
 90
       50
176
     1
 90
        3
176
     1
 62
     5
420
      255
176
     1
290
     0
176
     1
 90
       50
176
     1
 90
       50
176
     1
 90
       50
176
     1
290
     0
176
     1
 90
       50
176
     1
 62
   256
176
     0
 40
1.0
176
     0
 90
        2
176
     1
  1
strokes_ogs.tif
176
     1
290
     0
176
     1
 40
1.0
176
     1
 40
1.0
176
     1
  0
VISUALSTYLE
  5
5A1
102
{ACAD_REACTORS
330
594
102
}
330
594
100
AcDbVisualStyle
  2
Thicken
 70
    13
177
     3
291
     1
 70
    58
 90
        2
176
     1
 90
        2
176
     1
 90
        0
176
     1
 90
        0
176
     1
 40
0.6
176
     1
 40
30.0
176
     1
 62
     7
420
 16777215
176
     1
 90
        1
176
     1
 90
        4
176
     1
 62
     7
176
     1
 62
   257
176
     1
 90
        1
176
     1
 90
        1
176
     1
 40
1.0
176
     1
 90
       12
176
     1
 62
     7
176
     1
 40
1.0
176
     1
 90
        1
176
     1
 90
        6
176
     1
 90
        2
176
     1
 62
     7
176
     1
 90
        5
176
     1
 90
        0
176
     1
 90
        0
176
     1
290
     0
176
     1
 90
        1
176
     1
 40
0.0
176
     1
 90
        0
176
     1
290
     0
176
     1
290
     1
176
     1
290
     1
176
     1
290
     0
176
     1
290
     0
176
     1
290
     0
176
     1
290
     0
176
     1
290
     0
176
     1
290
     0
176
     1
 90
       50
176
     1
 40
0.0
176
     1
 40
1.0
176
     1
 90
        0
176
     1
 62
    18
420
        0
176
     1
 90
       50
176
     1
 90
        3
176
     1
 62
     5
420
      255
176
     1
290
     0
176
     1
 90
       50
176
     1
 90
       50
176
     1
 90
       50
176
     1
290
     0
176
     1
 90
       50
176
     1
 62
   256
176
     0
 40
1.0
176
     0
 90
        2
176
     1
  1
strokes_ogs.tif
176
     1
290
     0
176
     1
 40
1.0
176
     1
 40
1.0
176
     1
  0
VISUALSTYLE
  5
59A
102
{ACAD_REACTORS
330
594
102
}
330
594
100
AcDbVisualStyle
  2
Wireframe
 70
     5
177
     3
291
     0
 70
    58
 90
        0
176
     1
 90
        2
176
     1
 90
        0
176
     1
 90
        0
176
     1
 40
0.6
176
     1
 40
30.0
176
     1
 62
     7
420
 16777215
176
     1
 90
        1
176
     1
 90
        4
176
     1
 62
     7
176
     1
 62
   257
176
     1
 90
        1
176
     1
 90
        1
176
     1
 40
1.0
176
     1
 90
        0
176
     1
 62
   257
176
     1
 40
1.0
176
     1
 90
        1
176
     1
 90
        6
176
     1
 90
        2
176
     1
 62
     7
176
     1
 90
        3
176
     1
 90
        0
176
     1
 90
        0
176
     1
290
     0
176
     1
 90
        1
176
     1
 40
0.0
176
     1
 90
        0
176
     1
290
     0
176
     1
290
     1
176
     1
290
     1
176
     1
290
     0
176
     1
290
     0
176
     1
290
     0
176
     1
290
     0
176
     1
290
     0
176
     1
290
     0
176
     1
 90
       50
176
     1
 40
0.0
176
     1
 40
1.0
176
     1
 90
        0
176
     1
 62
    18
420
        0
176
     1
 90
       50
176
     1
 90
        3
176
     1
 62
     5
420
      255
176
     1
290
     0
176
     1
 90
       50
176
     1
 90
       50
176
     1
 90
       50
176
     1
290
     0
176
     1
 90
       50
176
     1
 62
   256
176
     0
 40
1.0
176
     0
 90
        2
176
     1
  1
strokes_ogs.tif
176
     1
290
     0
176
     1
 40
1.0
176
     1
 40
1.0
176
     1
  0
VISUALSTYLE
  5
5AA
102
{ACAD_REACTORS
330
594
102
}
330
594
100
AcDbVisualStyle
  2
X-Ray
 70
    25
177
     3
291
     0
 70
    58
 90
        2
176
     1
 90
        2
176
     1
 90
        1
176
     1
 90
        1
176
     1
 40
0.5
176
     1
 40
30.0
176
     1
 62
     7
420
 16777215
176
     1
 90
        1
176
     1
 90
        0
176
     1
 62
     7
176
     1
 62
   257
176
     1
 90
        1
176
     1
 90
        1
176
     1
 40
1.0
176
     1
 90
        8
176
     1
 62
     7
176
     1
 40
1.0
176
     1
 90
        1
176
     1
 90
        6
176
     1
 90
        2
176
     1
 62
     7
176
     1
 90
        3
176
     1
 90
        0
176
     1
 90
        0
176
     1
290
     0
176
     1
 90
       13
176
     1
 40
0.0
176
     1
 90
        0
176
     1
290
     0
176
     1
290
     1
176
     1
290
     1
176
     1
290
     0
176
     1
290
     0
176
     1
290
     0
176
     1
290
     0
176
     1
290
     0
176
     1
290
     0
176
     1
 90
       50
176
     1
 40
0.0
176
     1
 40
1.0
176
     1
 90
        0
176
     1
 62
    18
420
        0
176
     1
 90
       50
176
     1
 90
        3
176
     1
 62
     5
420
      255
176
     1
290
     0
176
     1
 90
       50
176
     1
 90
       50
176
     1
 90
       50
176
     1
290
     0
176
     1
 90
       50
176
     1
 62
   256
176
     0
 40
1.0
176
     0
 90
        2
176
     1
  1
strokes_ogs.tif
176
     1
290
     0
176
     1
 40
1.0
176
     1
 40
1.0
176
     1
  0
DICTIONARYVAR
  5
5C3
102
{ACAD_REACTORS
330
5C2
102
}
330
5C2
100
DictionaryVariables
280
     0
  1
1:1
  0
DICTIONARYVAR
  5
5C7
102
{ACAD_REACTORS
330
5C2
102
}
330
5C2
100
DictionaryVariables
280
     0
  1
Standard
  0
CSACDOCUMENTOPTIONS
  5
5B8
102
{ACAD_REACTORS
330
5B7
102
}
330
5B7
  0
XRECORD
  5
5BC
102
{ACAD_REACTORS
330
5B3
102
}
330
5B3
100
AcDbXrecord
280
     1
300
MC_VERSION_DATA
 90
       95
310
0600000002000000570000001C000000E404000000000000000000007801936764E5D8CF7A8393818115C460606066E0646662626666706006F214793899F8DE3171E725E6E53B3BBA2878E6951050AF75FEFFFFFF520032DE0F3057000000
  0
XRECORD
  5
5B4
102
{ACAD_REACTORS
330
5B3
102
}
330
5B3
100
AcDbXrecord
280
     1
300
MCS_DOCUMENT_ID
 90
       60
310
0600000002000000150000001C000000E404000000000000000000007801E3CD763F35B9474ACF63CA8683811B9FB57BFE0702006A720BF215000000
  0
XRECORD
  5
5BA
102
{ACAD_REACTORS
330
5B3
102
}
330
5B3
100
AcDbXrecord
280
     1
300
MCS_PARAMS_DATA
 90
     3313
310
0600000002000000F64B00001C000000E404000000000000000000007801C55C5B905C45199EE99EBDCCE67E5DA218172C303B91307B4B8C459531245054850D55591F78B236BB49B9BAC9E6B22A082A9655BE5865596569A965F9209288CF16503EC8834088C10B092404211702988430422E9084CDAEFFD7A7FBF4DFA7CF
310
D9D99D9D39930798FF3F7DCEF7DFFAFBBBFBCC6CDBFC46297252EECB48F9CDF5ED5234493921A5206D76815820B252E4F3225F128D7D5F59BF69E3162948D9A2D485B3131313747328BF06593E960915079422437734AA3BDAA5CCD053F5ED4FD2557D257BAB94DF007A03479F859BB2B22193C9108EC1CDCADC0464C27506
310
28605703E48886E0B986E10F03BF91E33707F8E3140E7A9091C8268236920C1C662240B94888A1C8E07600AE99C32D5131CA8B3925D172EFE62D7D6D9DABBA8ADDD6F17CE16D13F0457AE8AC9268DE32DABF73B07FCFA013F9BF8491D7C17E2550D8E8FFCA8DFE4E98B3929B331718B291824FFF72EB941D9E8E2211D5A93C
310
784A44C557923911258BD0C8640531AEEC61A924855B11378280384364A422680C0A928DB9C10CD89D581114199665B722B26E4590C82B0222AB08FAA8A60626C028E0044F81BA246F5360E167F2D27C56A10E05C058C13C59DEC6207679103AFC5DEADF992F2B284F67B31C8EE359B64A9665A62453228F64269D98455E3B
310
A4B35817F7EC92C86FB8EFFE8DBD5BEEDBDCAB0CD3B5FC8E99065A7E55D536E39DE7826237F1C8BBBCB3CFADFC93302087C80397EE69C2FF69CA32234F0763E41851010DA578E8294D435524988818E84710A7B2643B4F7C034F6CE5C9368F203BE8094C6268541D70D35EE4B585DAE170F4942EB8D2D422560A9917F34B62
310
CE86919D9F1F6DDBB36DD770FFC0B6BC682E898607BEB5737424F8D83B323AF07529CFC0B69BB96D9FD3CFF9B410ED79B1A42416161FEA29AEEDEEEC5ADF532C76DEF3C5AEEEB5CAECF97A60330D2C1C3579EAD0DA7621F20269BD6768746FDBF0D0DE51F3B0EE356B3ABBD6F474F7740D76770EACED08FCFC92BEAF13F701
310
B5AF7FEBF0B6B691ED6D7D23C3DBF6F4EF840FDA9AD583C58E81E240FFEAADDD5BD70EAC0E669D2A25F27FB610851F9335859F059541B9E5971EC7A5A7E83F2CE53DB9A4040555A2661A4DDBF2C560B2E54E7D5483931EF871F7C88E5DFDA3435B878687461F6EDB313248FE3596847C70DBDEBC682809D13B22E56A5856E4
310
E9998738519B6E2A89DCE6EDDBDB542AF4E4380F8F61A4965F57116093E5A052A06AF588670205D9A715FB49B140D81A90855F902680EBB8B3A3187EEA96F2B224E392BAF898328CB1AD47DA34C1601A1B421AD816D190715CC3F276A5DE067C546F03AED6DB808FEB6DC0B57A1BB00853B49EB3E0937A47E07ABD0D188301
310
71CB797197D3603B1D06BFCB6DB024827C0C834324E60945463B3712E196397079076E990B47228783C8E09631B8F129C211385B3E540C97413DC70673C524DEAD70BD23917B079179B782793791AE77D944EFDCDC5529988B13E1069D6092C472A7F777A6F648E4C184C88239C8822913E16AE29D48176E29E0727C316496
310
EF2A967C95165E504B0C2B218EEE82DD5C63513CD614C5091F6D6FA7551865CC5C5030A1E0A3E84BEC86CFD04EC5DD01AA74CBDB05AB8C403295A124BB2908C4B032B4682A032283FB103E391B4E03172C7199C4E0F88E871E8855ADA1482D3238FA1846E0B807A77785BFF935FE1D74369F5647D0D171CA5F4F09337C2559
310
105132935A503D6DBC7A94B54D2B6DF1E0339960F436A97441791E5EC104D40283580888C4FDED577B1FD8B4B9AF6FE30605D8AAD7F1F34A62F6DD5BBEC62E92057A31FEA25A9DB3F5FBD3C1729D9CD723B0BF0DE8402BB05A67160DDE4416E59079C0D9EAA575B7321F67115FC018C76AB5B3A33D06B68CBD9BFBDC93C073
310
800CC384FD360C544F539B6F02B1820953BE9D01DE01C0D85A6C50369A5AC4065C7760793B965800321749E4B50891C0C2AB0CAE9808178444974C70F875952A9381563C01BE9D08EAFA481283ABD8C7EF7870DAABE068E68833DFAC8EA0A3E3F87C0B07AA507B2311F0889285BDC333294C4E2DB27C67BA70ABD2857B688A
310
70552AA7873DB8489E55063D5D2DCBE9BB9E49F1E554A5083C922EDCA3E9C27D2F5DB8EF7B705EE9D87E1E920E88313AAE6AECF4FBD668D3D30DB4E51ADA9BEDB0D7AFCEB4DDED85F7C4ECF6551B3BCE2AFF6E835E49458EC94883D6E73C45753FAE614C3C0A0362777435D915EC025C33F7578776011DE6F3D066954C59D6
310
D76F86AC9CD58A53F4122CF0552BAE070AEA3B5AF15752304F1F47569D50AB71F41A31FA5A51C904CD43C6B0F51D2ACEFC112ACC4CC1B0FF086CE7AD5A4D096A005126387AAD451EE384D9C035A925859E39C1AA865EE9A9B8DA21CEE289167F7CF1D4C4BC7A125EC5AED5D8BB0B5A9D9144D134CFA71BF85A8D44BE568348
310
F6AA55A2F3CAEA4F6982FD21118CC249D3CBF852A586F244BA70FBD285DB9F085793EDE56E143F0AD06C6B4CB2242BDD3DD1419166C2865E81F9CE1648F3CBD84597B22E28992A3DDCE24C77F3F311A01C8A722828EC3CF15F7D987933F818F8E59BC138E5CD4CE8AC24C94E68BA32F5C3CBAB808B6B06B9936E642F9F804C
310
903AF2F3709D37832318A078E4B37AEBDCFAA66859945B9EBB25776BAE2DD3995995E9CA1433DDFA4DAC7ECE6FE93696E96BB06712968ED2661884A9EE40230F60D0D73DE8C858453B9E8E4212D5A9B0784A762662599FEDD18C9299F4094C728A91F536658E91CDA6DFC8E89F363B15B4CB31404FD2581CF722BBF229B517
310
430944E56AB2E2A8E3461950730F2B7ECA7BC570E389706E8BA9D241C744225C40C29385944F707279EA277D998065D9EAD604B1263E66D38513E9C2490F4EE7CC6E8AA89C3D9DA588701CA708AB6414C194931EE3FC0D4515D71A4FBFE712F8CB4A26532A6E8DCF01CA61A3745BE3F3C09F6E6B442F0CD7BAD36A8D2F002E
310
AE359E3BE646F6B8926D6BBC0CD9926FBEF08C5220B9BAE91D0E14769FF44B52301E3C00E8FA74C117BD24F396E22C7F1005F2DA2902EB76053DE720B0D3EE397F2F036AE8B24A3DE750225C4DF8F8A544B81AF69C7F2482D6C4C77F067093EF36FE359541FF8E0E8A50399BA22F63681CEF0EBDEBB2C3834A9E09EF1E0654
310
1D79F708F0A7CBBB956F495E015C1CEFEE3EEC46B65FC996771F856C09285F58A7148C77872F6104D6DC9A8897D30896D457015D1FDE3DEA25B91CEFF2EBD6EB0A68F718A0D3A6DDD7CA805699768F27C2D584925E4F84AB9476A39B03E744D09CD6610FF59F44E89A78FA46BA70DDDE0ADC144A4DBCEBF1E0221D416DC23D
310
1D715254A766A8A7AC60C1FF26021ED7783E889CD89C52F24C1ACF0940D5B1F19C047E7A8DE714E0E21ACFD5436EE339AB64DB78E44B91C6730003ECCB897CE1D28548E3798246B0C6731AD0536D3CB3E90740046E0B5FD5161351555C247A084506FA9607AAEBD39C44F1E2B63A5BDCA18E17B755B2E2664A322602C34C3A
310
0393625B51C09BC60D77315EF1E1C8DB80730A9C37D5B8CD0EBF3EA3A6FB4EA2A7C18B1B2746D53A5F7BB70C687C78291FE10E3A386EE3054657F9CB297E9CF703B0E71DFC4DA3397B4068C3CF33A1A81F02C2C920DB8E7ABF712005813923946BAE06DE453454B45CC32AF6311810C751E3F85A979E7874424F9299B34AB2
310
210DC430A45A3473162283FB2F3218C7FE178FBB1CF59692CDAD957C0DECAC3739580882F7E26636C4FC0874E66F42CE013F2EB274A4C323CBB88082C5B980AE4CFD4DC879C0C5B1FFF5E7DDC89E57324556799F2F34BC006EC70CD18A8318C0D9FF0AB6807CDBB19F46B0A4BE07E8B4D9FF8207EA504E3D7E65FA3E4C7226
310
B329B0E8D703AAFEBAA304E869379E693123CD68457958A4FF2F11AE86ECFF4119D078F6E7138AD87FF2370F86D6E1E38789702D76FED2134932CCA824CB8C811832A3160D33426421BD980847AF6F0C11D33DEECB1CFE9B7175D1F926045DE5BD8DBFBDBE94081764D0049324E6DDB40A8607F372225C4D16463974B5B836
310
F393232E193EA2E499B49986C93A780A6DA631A981D7A6CD34012EAECDFCFC5937B23F52B26D33BF83CCDBCC56A5C0ECD07DE7A7A7226D661D8D6033A419D0536D33E07F56B8C4CA7C0D48229F9610695A461A0883CE7B494E8DD95B004DF38E8247AB09FE45AC1A52EDAC32A0861DD8DA85D8A76276989D08579353913989
310
700119397510D9BB4CAB9DF096393711B4263ECE4B176E7EBA700B3C389DB3F0B5335AA6A7234288EA142D784A9083AFB414616018456CF24C3293C4CD2F49D3E5A5F0410CEE7E0F2E6A6FEA11580893E29AEE529C2FC11C4DF48D4AA628982DB44A422820F8563073C8F989CF2240392BED74F7768B819FDEDE6E09E0E29A
310
EE72FA030B3CB273954C91D5916E87CC9BEEFB4FAB1E6B73B10CFB6CBEB73B4423589D2D05F4CC9AAE2E4C768646F0614DBB4BD40606DDEA2539B5A67B13A0D36EBACBCA809A9055A7E9E24B8E0D79912B896C91FE0C1655C17843E129FA335B3277F4E8510807513CB9CC44868E210AF7FE19028691B0917E39482B125CF8
310
D4FF01F0B312DAF64B0000
  0
TABLECONTENT
  5
5BE
330
5C1
100
AcDbLinkedData
  1

300

100
AcDbLinkedTableData
 90
        5
300
COLUMN
  1
LINKEDTABLEDATACOLUMN_BEGIN
300

 91
        0
301
CUSTOMDATA
  1
DATAMAP_BEGIN
 90
        0
309
DATAMAP_END
309
LINKEDTABLEDATACOLUMN_END
  1
FORMATTEDTABLEDATACOLUMN_BEGIN
300
COLUMNTABLEFORMAT
  1
TABLEFORMAT_BEGIN
 90
        3
170
     0
309
TABLEFORMAT_END
309
FORMATTEDTABLEDATACOLUMN_END
  1
TABLECOLUMN_BEGIN
 90
        0
 40
13.333333
309
TABLECOLUMN_END
300
COLUMN
  1
LINKEDTABLEDATACOLUMN_BEGIN
300

 91
        0
301
CUSTOMDATA
  1
DATAMAP_BEGIN
 90
        0
309
DATAMAP_END
309
LINKEDTABLEDATACOLUMN_END
  1
FORMATTEDTABLEDATACOLUMN_BEGIN
300
COLUMNTABLEFORMAT
  1
TABLEFORMAT_BEGIN
 90
        3
170
     0
309
TABLEFORMAT_END
309
FORMATTEDTABLEDATACOLUMN_END
  1
TABLECOLUMN_BEGIN
 90
        0
 40
13.333333
309
TABLECOLUMN_END
300
COLUMN
  1
LINKEDTABLEDATACOLUMN_BEGIN
300

 91
        0
301
CUSTOMDATA
  1
DATAMAP_BEGIN
 90
        0
309
DATAMAP_END
309
LINKEDTABLEDATACOLUMN_END
  1
FORMATTEDTABLEDATACOLUMN_BEGIN
300
COLUMNTABLEFORMAT
  1
TABLEFORMAT_BEGIN
 90
        3
170
     0
309
TABLEFORMAT_END
309
FORMATTEDTABLEDATACOLUMN_END
  1
TABLECOLUMN_BEGIN
 90
        0
 40
13.333333
309
TABLECOLUMN_END
300
COLUMN
  1
LINKEDTABLEDATACOLUMN_BEGIN
300

 91
        0
301
CUSTOMDATA
  1
DATAMAP_BEGIN
 90
        0
309
DATAMAP_END
309
LINKEDTABLEDATACOLUMN_END
  1
FORMATTEDTABLEDATACOLUMN_BEGIN
300
COLUMNTABLEFORMAT
  1
TABLEFORMAT_BEGIN
 90
        3
170
     0
309
TABLEFORMAT_END
309
FORMATTEDTABLEDATACOLUMN_END
  1
TABLECOLUMN_BEGIN
 90
        0
 40
53.333333
309
TABLECOLUMN_END
300
COLUMN
  1
LINKEDTABLEDATACOLUMN_BEGIN
300

 91
        0
301
CUSTOMDATA
  1
DATAMAP_BEGIN
 90
        0
309
DATAMAP_END
309
LINKEDTABLEDATACOLUMN_END
  1
FORMATTEDTABLEDATACOLUMN_BEGIN
300
COLUMNTABLEFORMAT
  1
TABLEFORMAT_BEGIN
 90
        3
170
     0
309
TABLEFORMAT_END
309
FORMATTEDTABLEDATACOLUMN_END
  1
TABLECOLUMN_BEGIN
 90
        0
 40
26.666667
309
TABLECOLUMN_END
 91
        5
301
ROW
  1
LINKEDTABLEDATAROW_BEGIN
 90
        5
300
CELL
  1
LINKEDTABLEDATACELL_BEGIN
 90
        0
300

 91
        0
301
CUSTOMDATA
  1
DATAMAP_BEGIN
 90
        1
300
ACAD_ROUNDTRIP_2008_CELL_CHECKSUM
301
DATAMAP_VALUE
 93
        2
 90
        2
140
32.0
 94
        0
300

302

304
ACVALUE_END
309
DATAMAP_END
 92
        0
 95
        1
302
CONTENT
  1
CELLCONTENT_BEGIN
 90
        1
300
VALUE
 93
        2
 90
        4
  1
 
 94
        0
300

302
 
304
ACVALUE_END
 91
        0
309
CELLCONTENT_END
  1
FORMATTEDCELLCONTENT_BEGIN
170
     1
300
CONTENTFORMAT
  1
CONTENTFORMAT_BEGIN
 90
      132
 91
        0
 92
      512
 93
        0
300

 40
0.0
140
1.0
 94
        1
 62
     0
340
0
144
4.666667
309
CONTENTFORMAT_END
309
FORMATTEDCELLCONTENT_END
309
LINKEDTABLEDATACELL_END
  1
FORMATTEDTABLEDATACELL_BEGIN
300
CELLTABLEFORMAT
  1
TABLEFORMAT_BEGIN
 90
        1
170
     1
 91
        0
 92
        0
 62
   257
 93
        1
300
CONTENTFORMAT
  1
CONTENTFORMAT_BEGIN
 90
        0
 91
        0
 92
      512
 93
        0
300

 40
0.0
140
1.0
 94
        1
 62
     0
340
0
144
0.18
309
CONTENTFORMAT_END
171
     0
 94
        0
309
TABLEFORMAT_END
309
FORMATTEDTABLEDATACELL_END
  1
TABLECELL_BEGIN
 90
        0
 91
        0
309
TABLECELL_END
300
CELL
  1
LINKEDTABLEDATACELL_BEGIN
 90
        0
300

 91
        0
301
CUSTOMDATA
  1
DATAMAP_BEGIN
 90
        0
309
DATAMAP_END
 92
        0
 95
        0
309
LINKEDTABLEDATACELL_END
  1
FORMATTEDTABLEDATACELL_BEGIN
300
CELLTABLEFORMAT
  1
TABLEFORMAT_BEGIN
 90
        1
170
     1
 91
        0
 92
        0
 62
   257
 93
        1
300
CONTENTFORMAT
  1
CONTENTFORMAT_BEGIN
 90
        0
 91
        0
 92
      512
 93
        0
300

 40
0.0
140
1.0
 94
        1
 62
     0
340
0
144
0.18
309
CONTENTFORMAT_END
171
     0
 94
        0
309
TABLEFORMAT_END
309
FORMATTEDTABLEDATACELL_END
  1
TABLECELL_BEGIN
 90
        0
 91
        0
309
TABLECELL_END
300
CELL
  1
LINKEDTABLEDATACELL_BEGIN
 90
        0
300

 91
        0
301
CUSTOMDATA
  1
DATAMAP_BEGIN
 90
        0
309
DATAMAP_END
 92
        0
 95
        0
309
LINKEDTABLEDATACELL_END
  1
FORMATTEDTABLEDATACELL_BEGIN
300
CELLTABLEFORMAT
  1
TABLEFORMAT_BEGIN
 90
        1
170
     1
 91
        0
 92
        0
 62
   257
 93
        1
300
CONTENTFORMAT
  1
CONTENTFORMAT_BEGIN
 90
        0
 91
        0
 92
      512
 93
        0
300

 40
0.0
140
1.0
 94
        1
 62
     0
340
0
144
0.18
309
CONTENTFORMAT_END
171
     0
 94
        0
309
TABLEFORMAT_END
309
FORMATTEDTABLEDATACELL_END
  1
TABLECELL_BEGIN
 90
        0
 91
        0
309
TABLECELL_END
300
CELL
  1
LINKEDTABLEDATACELL_BEGIN
 90
        0
300

 91
        0
301
CUSTOMDATA
  1
DATAMAP_BEGIN
 90
        1
300
ACAD_ROUNDTRIP_2008_CELL_CHECKSUM
301
DATAMAP_VALUE
 93
        2
 90
        2
140
2315.0
 94
        0
300

302

304
ACVALUE_END
309
DATAMAP_END
 92
        0
 95
        1
302
CONTENT
  1
CELLCONTENT_BEGIN
 90
        1
300
VALUE
 93
        2
 90
        4
  1
SK3200_C
 94
        0
300

302
SK3200_C
304
ACVALUE_END
 91
        0
309
CELLCONTENT_END
  1
FORMATTEDCELLCONTENT_BEGIN
170
     1
300
CONTENTFORMAT
  1
CONTENTFORMAT_BEGIN
 90
      132
 91
        0
 92
      512
 93
        0
300

 40
0.0
140
1.0
 94
        1
 62
     0
340
0
144
4.0
309
CONTENTFORMAT_END
309
FORMATTEDCELLCONTENT_END
309
LINKEDTABLEDATACELL_END
  1
FORMATTEDTABLEDATACELL_BEGIN
300
CELLTABLEFORMAT
  1
TABLEFORMAT_BEGIN
 90
        1
170
     1
 91
       16
 92
        0
 62
   257
 93
        1
300
CONTENTFORMAT
  1
CONTENTFORMAT_BEGIN
 90
       16
 91
        0
 92
      512
 93
        0
300

 40
0.0
140
1.0
 94
        4
 62
     0
340
0
144
0.18
309
CONTENTFORMAT_END
171
     0
 94
        4
 95
        1
302
GRIDFORMAT
  1
GRIDFORMAT_BEGIN
 90
       26
 91
        1
 62
     0
 92
       -2
340
0
 93
        0
 40
0.045
309
GRIDFORMAT_END
 95
        4
302
GRIDFORMAT
  1
GRIDFORMAT_BEGIN
 90
       26
 91
        1
 62
     0
 92
       -2
340
0
 93
        0
 40
0.045
309
GRIDFORMAT_END
 95
        8
302
GRIDFORMAT
  1
GRIDFORMAT_BEGIN
 90
       26
 91
        1
 62
     0
 92
       -2
340
0
 93
        0
 40
0.045
309
GRIDFORMAT_END
 95
       32
302
GRIDFORMAT
  1
GRIDFORMAT_BEGIN
 90
       26
 91
        1
 62
     0
 92
       -2
340
0
 93
        0
 40
0.045
309
GRIDFORMAT_END
309
TABLEFORMAT_END
309
FORMATTEDTABLEDATACELL_END
  1
TABLECELL_BEGIN
 90
        0
 91
        0
309
TABLECELL_END
300
CELL
  1
LINKEDTABLEDATACELL_BEGIN
 90
        0
300

 91
        0
301
CUSTOMDATA
  1
DATAMAP_BEGIN
 90
        1
300
ACAD_ROUNDTRIP_2008_CELL_CHECKSUM
301
DATAMAP_VALUE
 93
        2
 90
        2
140
1410.0
 94
        0
300

302

304
ACVALUE_END
309
DATAMAP_END
 92
        0
 95
        1
302
CONTENT
  1
CELLCONTENT_BEGIN
 90
        1
300
VALUE
 93
        2
 90
        4
  1
Rev:02
 94
        0
300

302
Rev:02
304
ACVALUE_END
 91
        0
309
CELLCONTENT_END
  1
FORMATTEDCELLCONTENT_BEGIN
170
     1
300
CONTENTFORMAT
  1
CONTENTFORMAT_BEGIN
 90
      132
 91
        0
 92
      512
 93
        0
300

 40
0.0
140
1.0
 94
        1
 62
     0
340
0
144
4.666667
309
CONTENTFORMAT_END
309
FORMATTEDCELLCONTENT_END
309
LINKEDTABLEDATACELL_END
  1
FORMATTEDTABLEDATACELL_BEGIN
300
CELLTABLEFORMAT
  1
TABLEFORMAT_BEGIN
 90
        1
170
     1
 91
       16
 92
        0
 62
   257
 93
        1
300
CONTENTFORMAT
  1
CONTENTFORMAT_BEGIN
 90
       16
 91
        0
 92
      512
 93
        0
300

 40
0.0
140
1.0
 94
        1
 62
     0
340
0
144
0.18
309
CONTENTFORMAT_END
171
     0
 94
        4
 95
        1
302
GRIDFORMAT
  1
GRIDFORMAT_BEGIN
 90
       26
 91
        1
 62
     0
 92
       -2
340
0
 93
        0
 40
0.045
309
GRIDFORMAT_END
 95
        4
302
GRIDFORMAT
  1
GRIDFORMAT_BEGIN
 90
       26
 91
        1
 62
     0
 92
       -2
340
0
 93
        0
 40
0.045
309
GRIDFORMAT_END
 95
        8
302
GRIDFORMAT
  1
GRIDFORMAT_BEGIN
 90
       26
 91
        1
 62
     0
 92
       -2
340
0
 93
        0
 40
0.045
309
GRIDFORMAT_END
 95
       32
302
GRIDFORMAT
  1
GRIDFORMAT_BEGIN
 90
       26
 91
        1
 62
     0
 92
       -2
340
0
 93
        0
 40
0.045
309
GRIDFORMAT_END
309
TABLEFORMAT_END
309
FORMATTEDTABLEDATACELL_END
  1
TABLECELL_BEGIN
 90
        0
 91
        0
309
TABLECELL_END
 91
        0
301
CUSTOMDATA
  1
DATAMAP_BEGIN
 90
        0
309
DATAMAP_END
309
LINKEDTABLEDATAROW_END
  1
FORMATTEDTABLEDATAROW_BEGIN
300
ROWTABLEFORMAT
  1
TABLEFORMAT_BEGIN
 90
        2
170
     0
309
TABLEFORMAT_END
309
FORMATTEDTABLEDATAROW_END
  1
TABLEROW_BEGIN
 90
        1
 40
8.0
309
TABLEROW_END
301
ROW
  1
LINKEDTABLEDATAROW_BEGIN
 90
        5
300
CELL
  1
LINKEDTABLEDATACELL_BEGIN
 90
        0
300

 91
        0
301
CUSTOMDATA
  1
DATAMAP_BEGIN
 90
        0
309
DATAMAP_END
 92
        0
 95
        0
309
LINKEDTABLEDATACELL_END
  1
FORMATTEDTABLEDATACELL_BEGIN
300
CELLTABLEFORMAT
  1
TABLEFORMAT_BEGIN
 90
        1
170
     1
 91
        0
 92
        0
 62
   257
 93
        1
300
CONTENTFORMAT
  1
CONTENTFORMAT_BEGIN
 90
        0
 91
        0
 92
      512
 93
        0
300

 40
0.0
140
1.0
 94
        1
 62
     0
340
0
144
0.18
309
CONTENTFORMAT_END
171
     0
 94
        0
309
TABLEFORMAT_END
309
FORMATTEDTABLEDATACELL_END
  1
TABLECELL_BEGIN
 90
        0
 91
        0
309
TABLECELL_END
300
CELL
  1
LINKEDTABLEDATACELL_BEGIN
 90
        0
300

 91
        0
301
CUSTOMDATA
  1
DATAMAP_BEGIN
 90
        0
309
DATAMAP_END
 92
        0
 95
        0
309
LINKEDTABLEDATACELL_END
  1
FORMATTEDTABLEDATACELL_BEGIN
300
CELLTABLEFORMAT
  1
TABLEFORMAT_BEGIN
 90
        1
170
     1
 91
        0
 92
        0
 62
   257
 93
        1
300
CONTENTFORMAT
  1
CONTENTFORMAT_BEGIN
 90
        0
 91
        0
 92
      512
 93
        0
300

 40
0.0
140
1.0
 94
        1
 62
     0
340
0
144
0.18
309
CONTENTFORMAT_END
171
     0
 94
        0
309
TABLEFORMAT_END
309
FORMATTEDTABLEDATACELL_END
  1
TABLECELL_BEGIN
 90
        0
 91
        0
309
TABLECELL_END
300
CELL
  1
LINKEDTABLEDATACELL_BEGIN
 90
        0
300

 91
        0
301
CUSTOMDATA
  1
DATAMAP_BEGIN
 90
        0
309
DATAMAP_END
 92
        0
 95
        0
309
LINKEDTABLEDATACELL_END
  1
FORMATTEDTABLEDATACELL_BEGIN
300
CELLTABLEFORMAT
  1
TABLEFORMAT_BEGIN
 90
        1
170
     1
 91
        0
 92
        0
 62
   257
 93
        1
300
CONTENTFORMAT
  1
CONTENTFORMAT_BEGIN
 90
        0
 91
        0
 92
      512
 93
        0
300

 40
0.0
140
1.0
 94
        1
 62
     0
340
0
144
0.18
309
CONTENTFORMAT_END
171
     0
 94
        0
309
TABLEFORMAT_END
309
FORMATTEDTABLEDATACELL_END
  1
TABLECELL_BEGIN
 90
        0
 91
        0
309
TABLECELL_END
300
CELL
  1
LINKEDTABLEDATACELL_BEGIN
 90
        0
300

 91
        0
301
CUSTOMDATA
  1
DATAMAP_BEGIN
 90
        1
300
ACAD_ROUNDTRIP_2008_CELL_CHECKSUM
301
DATAMAP_VALUE
 93
        2
 90
        2
140
3105.0
 94
        0
300

302

304
ACVALUE_END
309
DATAMAP_END
 92
        0
 95
        1
302
CONTENT
  1
CELLCONTENT_BEGIN
 90
        1
300
VALUE
 93
        2
 90
        4
  1
Scale:1:1
 94
        0
300

302
Scale:1:1
304
ACVALUE_END
 91
        0
309
CELLCONTENT_END
  1
FORMATTEDCELLCONTENT_BEGIN
170
     1
300
CONTENTFORMAT
  1
CONTENTFORMAT_BEGIN
 90
      132
 91
        0
 92
      512
 93
        0
300

 40
0.0
140
1.0
 94
        1
 62
     0
340
0
144
4.666667
309
CONTENTFORMAT_END
309
FORMATTEDCELLCONTENT_END
309
LINKEDTABLEDATACELL_END
  1
FORMATTEDTABLEDATACELL_BEGIN
300
CELLTABLEFORMAT
  1
TABLEFORMAT_BEGIN
 90
        1
170
     1
 91
       16
 92
        0
 62
   257
 93
        1
300
CONTENTFORMAT
  1
CONTENTFORMAT_BEGIN
 90
       16
 91
        0
 92
      512
 93
        0
300

 40
0.0
140
1.0
 94
        1
 62
     0
340
0
144
0.18
309
CONTENTFORMAT_END
171
     0
 94
        4
 95
        1
302
GRIDFORMAT
  1
GRIDFORMAT_BEGIN
 90
       26
 91
        1
 62
     0
 92
       -2
340
0
 93
        0
 40
0.045
309
GRIDFORMAT_END
 95
        4
302
GRIDFORMAT
  1
GRIDFORMAT_BEGIN
 90
       26
 91
        1
 62
     0
 92
       -2
340
0
 93
        0
 40
0.045
309
GRIDFORMAT_END
 95
        8
302
GRIDFORMAT
  1
GRIDFORMAT_BEGIN
 90
       26
 91
        1
 62
     0
 92
       -2
340
0
 93
        0
 40
0.045
309
GRIDFORMAT_END
 95
       32
302
GRIDFORMAT
  1
GRIDFORMAT_BEGIN
 90
       26
 91
        1
 62
     0
 92
       -2
340
0
 93
        0
 40
0.045
309
GRIDFORMAT_END
309
TABLEFORMAT_END
309
FORMATTEDTABLEDATACELL_END
  1
TABLECELL_BEGIN
 90
        0
 91
        0
309
TABLECELL_END
300
CELL
  1
LINKEDTABLEDATACELL_BEGIN
 90
        0
300

 91
        0
301
CUSTOMDATA
  1
DATAMAP_BEGIN
 90
        1
300
ACAD_ROUNDTRIP_2008_CELL_CHECKSUM
301
DATAMAP_VALUE
 93
        2
 90
        2
140
161.0
 94
        0
300

302

304
ACVALUE_END
309
DATAMAP_END
 92
        0
 95
        1
302
CONTENT
  1
CELLCONTENT_BEGIN
 90
        1
300
VALUE
 93
        2
 90
        4
  1
A0
 94
        0
300

302
A0
304
ACVALUE_END
 91
        0
309
CELLCONTENT_END
  1
FORMATTEDCELLCONTENT_BEGIN
170
     1
300
CONTENTFORMAT
  1
CONTENTFORMAT_BEGIN
 90
      132
 91
        0
 92
      512
 93
        0
300

 40
0.0
140
1.0
 94
        1
 62
     0
340
0
144
4.666667
309
CONTENTFORMAT_END
309
FORMATTEDCELLCONTENT_END
309
LINKEDTABLEDATACELL_END
  1
FORMATTEDTABLEDATACELL_BEGIN
300
CELLTABLEFORMAT
  1
TABLEFORMAT_BEGIN
 90
        1
170
     1
 91
       16
 92
        0
 62
   257
 93
        1
300
CONTENTFORMAT
  1
CONTENTFORMAT_BEGIN
 90
       16
 91
        0
 92
      512
 93
        0
300

 40
0.0
140
1.0
 94
        4
 62
     0
340
0
144
0.18
309
CONTENTFORMAT_END
171
     0
 94
        4
 95
        1
302
GRIDFORMAT
  1
GRIDFORMAT_BEGIN
 90
       26
 91
        1
 62
     0
 92
       -2
340
0
 93
        0
 40
0.045
309
GRIDFORMAT_END
 95
        4
302
GRIDFORMAT
  1
GRIDFORMAT_BEGIN
 90
       26
 91
        1
 62
     0
 92
       -2
340
0
 93
        0
 40
0.045
309
GRIDFORMAT_END
 95
        8
302
GRIDFORMAT
  1
GRIDFORMAT_BEGIN
 90
       26
 91
        1
 62
     0
 92
       -2
340
0
 93
        0
 40
0.045
309
GRIDFORMAT_END
 95
       32
302
GRIDFORMAT
  1
GRIDFORMAT_BEGIN
 90
       26
 91
        1
 62
     0
 92
       -2
340
0
 93
        0
 40
0.045
309
GRIDFORMAT_END
309
TABLEFORMAT_END
309
FORMATTEDTABLEDATACELL_END
  1
TABLECELL_BEGIN
 90
        0
 91
        0
309
TABLECELL_END
 91
        0
301
CUSTOMDATA
  1
DATAMAP_BEGIN
 90
        0
309
DATAMAP_END
309
LINKEDTABLEDATAROW_END
  1
FORMATTEDTABLEDATAROW_BEGIN
300
ROWTABLEFORMAT
  1
TABLEFORMAT_BEGIN
 90
        2
170
     0
309
TABLEFORMAT_END
309
FORMATTEDTABLEDATAROW_END
  1
TABLEROW_BEGIN
 90
        2
 40
8.0
309
TABLEROW_END
301
ROW
  1
LINKEDTABLEDATAROW_BEGIN
 90
        5
300
CELL
  1
LINKEDTABLEDATACELL_BEGIN
 90
        0
300

 91
        0
301
CUSTOMDATA
  1
DATAMAP_BEGIN
 90
        0
309
DATAMAP_END
 92
        0
 95
        0
309
LINKEDTABLEDATACELL_END
  1
FORMATTEDTABLEDATACELL_BEGIN
300
CELLTABLEFORMAT
  1
TABLEFORMAT_BEGIN
 90
        1
170
     1
 91
        0
 92
        0
 62
   257
 93
        1
300
CONTENTFORMAT
  1
CONTENTFORMAT_BEGIN
 90
        0
 91
        0
 92
      512
 93
        0
300

 40
0.0
140
1.0
 94
        1
 62
     0
340
0
144
0.18
309
CONTENTFORMAT_END
171
     0
 94
        0
309
TABLEFORMAT_END
309
FORMATTEDTABLEDATACELL_END
  1
TABLECELL_BEGIN
 90
        0
 91
        0
309
TABLECELL_END
300
CELL
  1
LINKEDTABLEDATACELL_BEGIN
 90
        0
300

 91
        0
301
CUSTOMDATA
  1
DATAMAP_BEGIN
 90
        0
309
DATAMAP_END
 92
        0
 95
        0
309
LINKEDTABLEDATACELL_END
  1
FORMATTEDTABLEDATACELL_BEGIN
300
CELLTABLEFORMAT
  1
TABLEFORMAT_BEGIN
 90
        1
170
     1
 91
        0
 92
        0
 62
   257
 93
        1
300
CONTENTFORMAT
  1
CONTENTFORMAT_BEGIN
 90
        0
 91
        0
 92
      512
 93
        0
300

 40
0.0
140
1.0
 94
        1
 62
     0
340
0
144
0.18
309
CONTENTFORMAT_END
171
     0
 94
        0
309
TABLEFORMAT_END
309
FORMATTEDTABLEDATACELL_END
  1
TABLECELL_BEGIN
 90
        0
 91
        0
309
TABLECELL_END
300
CELL
  1
LINKEDTABLEDATACELL_BEGIN
 90
        0
300

 91
        0
301
CUSTOMDATA
  1
DATAMAP_BEGIN
 90
        0
309
DATAMAP_END
 92
        0
 95
        0
309
LINKEDTABLEDATACELL_END
  1
FORMATTEDTABLEDATACELL_BEGIN
300
CELLTABLEFORMAT
  1
TABLEFORMAT_BEGIN
 90
        1
170
     1
 91
        0
 92
        0
 62
   257
 93
        1
300
CONTENTFORMAT
  1
CONTENTFORMAT_BEGIN
 90
        0
 91
        0
 92
      512
 93
        0
300

 40
0.0
140
1.0
 94
        1
 62
     0
340
0
144
0.18
309
CONTENTFORMAT_END
171
     0
 94
        0
309
TABLEFORMAT_END
309
FORMATTEDTABLEDATACELL_END
  1
TABLECELL_BEGIN
 90
        0
 91
        0
309
TABLECELL_END
300
CELL
  1
LINKEDTABLEDATACELL_BEGIN
 90
        0
300

 91
        0
301
CUSTOMDATA
  1
DATAMAP_BEGIN
 90
        1
300
ACAD_ROUNDTRIP_2008_CELL_CHECKSUM
301
DATAMAP_VALUE
 93
        2
 90
        2
140
2444.0
 94
        0
300

302

304
ACVALUE_END
309
DATAMAP_END
 92
        0
 95
        1
302
CONTENT
  1
CELLCONTENT_BEGIN
 90
        1
300
VALUE
 93
        2
 90
        4
  1
SNACK 3.2
 94
        0
300

302
SNACK 3.2
304
ACVALUE_END
 91
        0
309
CELLCONTENT_END
  1
FORMATTEDCELLCONTENT_BEGIN
170
     1
300
CONTENTFORMAT
  1
CONTENTFORMAT_BEGIN
 90
      132
 91
        0
 92
      512
 93
        0
300

 40
0.0
140
1.0
 94
        1
 62
     0
340
0
144
4.666667
309
CONTENTFORMAT_END
309
FORMATTEDCELLCONTENT_END
309
LINKEDTABLEDATACELL_END
  1
FORMATTEDTABLEDATACELL_BEGIN
300
CELLTABLEFORMAT
  1
TABLEFORMAT_BEGIN
 90
        1
170
     1
 91
       16
 92
        0
 62
   257
 93
        1
300
CONTENTFORMAT
  1
CONTENTFORMAT_BEGIN
 90
       16
 91
        0
 92
      512
 93
        0
300

 40
0.0
140
1.0
 94
        4
 62
     0
340
0
144
0.18
309
CONTENTFORMAT_END
171
     0
 94
        4
 95
        1
302
GRIDFORMAT
  1
GRIDFORMAT_BEGIN
 90
       26
 91
        1
 62
     0
 92
       -2
340
0
 93
        0
 40
0.045
309
GRIDFORMAT_END
 95
        4
302
GRIDFORMAT
  1
GRIDFORMAT_BEGIN
 90
       26
 91
        1
 62
     0
 92
       -2
340
0
 93
        0
 40
0.045
309
GRIDFORMAT_END
 95
        8
302
GRIDFORMAT
  1
GRIDFORMAT_BEGIN
 90
       26
 91
        1
 62
     0
 92
       -2
340
0
 93
        0
 40
0.045
309
GRIDFORMAT_END
 95
       32
302
GRIDFORMAT
  1
GRIDFORMAT_BEGIN
 90
       26
 91
        1
 62
     0
 92
       -2
340
0
 93
        0
 40
0.045
309
GRIDFORMAT_END
309
TABLEFORMAT_END
309
FORMATTEDTABLEDATACELL_END
  1
TABLECELL_BEGIN
 90
        0
 91
        0
309
TABLECELL_END
300
CELL
  1
LINKEDTABLEDATACELL_BEGIN
 90
        0
300

 91
        0
301
CUSTOMDATA
  1
DATAMAP_BEGIN
 90
        0
309
DATAMAP_END
 92
        0
 95
        0
309
LINKEDTABLEDATACELL_END
  1
FORMATTEDTABLEDATACELL_BEGIN
300
CELLTABLEFORMAT
  1
TABLEFORMAT_BEGIN
 90
        1
170
     1
 91
        0
 92
        0
 62
   257
 93
        1
300
CONTENTFORMAT
  1
CONTENTFORMAT_BEGIN
 90
        0
 91
        0
 92
      512
 93
        0
300

 40
0.0
140
1.0
 94
        1
 62
     0
340
0
144
0.18
309
CONTENTFORMAT_END
171
     0
 94
        0
309
TABLEFORMAT_END
309
FORMATTEDTABLEDATACELL_END
  1
TABLECELL_BEGIN
 90
        0
 91
        0
309
TABLECELL_END
 91
        0
301
CUSTOMDATA
  1
DATAMAP_BEGIN
 90
        0
309
DATAMAP_END
309
LINKEDTABLEDATAROW_END
  1
FORMATTEDTABLEDATAROW_BEGIN
300
ROWTABLEFORMAT
  1
TABLEFORMAT_BEGIN
 90
        2
170
     0
309
TABLEFORMAT_END
309
FORMATTEDTABLEDATAROW_END
  1
TABLEROW_BEGIN
 90
        3
 40
13.333333
309
TABLEROW_END
301
ROW
  1
LINKEDTABLEDATAROW_BEGIN
 90
        5
300
CELL
  1
LINKEDTABLEDATACELL_BEGIN
 90
        0
300

 91
        0
301
CUSTOMDATA
  1
DATAMAP_BEGIN
 90
        0
309
DATAMAP_END
 92
        0
 95
        0
309
LINKEDTABLEDATACELL_END
  1
FORMATTEDTABLEDATACELL_BEGIN
300
CELLTABLEFORMAT
  1
TABLEFORMAT_BEGIN
 90
        1
170
     1
 91
        0
 92
        0
 62
   257
 93
        1
300
CONTENTFORMAT
  1
CONTENTFORMAT_BEGIN
 90
        0
 91
        0
 92
      512
 93
        0
300

 40
0.0
140
1.0
 94
        1
 62
     0
340
0
144
0.18
309
CONTENTFORMAT_END
171
     0
 94
        0
309
TABLEFORMAT_END
309
FORMATTEDTABLEDATACELL_END
  1
TABLECELL_BEGIN
 90
        0
 91
        0
309
TABLECELL_END
300
CELL
  1
LINKEDTABLEDATACELL_BEGIN
 90
        0
300

 91
        0
301
CUSTOMDATA
  1
DATAMAP_BEGIN
 90
        0
309
DATAMAP_END
 92
        0
 95
        0
309
LINKEDTABLEDATACELL_END
  1
FORMATTEDTABLEDATACELL_BEGIN
300
CELLTABLEFORMAT
  1
TABLEFORMAT_BEGIN
 90
        1
170
     1
 91
        0
 92
        0
 62
   257
 93
        1
300
CONTENTFORMAT
  1
CONTENTFORMAT_BEGIN
 90
        0
 91
        0
 92
      512
 93
        0
300

 40
0.0
140
1.0
 94
        1
 62
     0
340
0
144
0.18
309
CONTENTFORMAT_END
171
     0
 94
        0
309
TABLEFORMAT_END
309
FORMATTEDTABLEDATACELL_END
  1
TABLECELL_BEGIN
 90
        0
 91
        0
309
TABLECELL_END
300
CELL
  1
LINKEDTABLEDATACELL_BEGIN
 90
        0
300

 91
        0
301
CUSTOMDATA
  1
DATAMAP_BEGIN
 90
        0
309
DATAMAP_END
 92
        0
 95
        0
309
LINKEDTABLEDATACELL_END
  1
FORMATTEDTABLEDATACELL_BEGIN
300
CELLTABLEFORMAT
  1
TABLEFORMAT_BEGIN
 90
        1
170
     1
 91
        0
 92
        0
 62
   257
 93
        1
300
CONTENTFORMAT
  1
CONTENTFORMAT_BEGIN
 90
        0
 91
        0
 92
      512
 93
        0
300

 40
0.0
140
1.0
 94
        1
 62
     0
340
0
144
0.18
309
CONTENTFORMAT_END
171
     0
 94
        0
309
TABLEFORMAT_END
309
FORMATTEDTABLEDATACELL_END
  1
TABLECELL_BEGIN
 90
        0
 91
        0
309
TABLECELL_END
300
CELL
  1
LINKEDTABLEDATACELL_BEGIN
 90
        0
300

 91
        0
301
CUSTOMDATA
  1
DATAMAP_BEGIN
 90
        1
300
ACAD_ROUNDTRIP_2008_CELL_CHECKSUM
301
DATAMAP_VALUE
 93
        2
 90
        2
140
1016.0
 94
        0
300

302

304
ACVALUE_END
309
DATAMAP_END
 92
        0
 95
        1
302
CONTENT
  1
CELLCONTENT_BEGIN
 90
        1
300
VALUE
 93
        2
 90
        4
  1
DATE:
 94
        0
300

302
DATE:
304
ACVALUE_END
 91
        0
309
CELLCONTENT_END
  1
FORMATTEDCELLCONTENT_BEGIN
170
     1
300
CONTENTFORMAT
  1
CONTENTFORMAT_BEGIN
 90
      132
 91
        0
 92
      512
 93
        0
300

 40
0.0
140
1.0
 94
        1
 62
     0
340
0
144
3.333333
309
CONTENTFORMAT_END
309
FORMATTEDCELLCONTENT_END
309
LINKEDTABLEDATACELL_END
  1
FORMATTEDTABLEDATACELL_BEGIN
300
CELLTABLEFORMAT
  1
TABLEFORMAT_BEGIN
 90
        1
170
     1
 91
       16
 92
        0
 62
   257
 93
        1
300
CONTENTFORMAT
  1
CONTENTFORMAT_BEGIN
 90
       16
 91
        0
 92
      512
 93
        0
300

 40
0.0
140
1.0
 94
        4
 62
     0
340
0
144
0.18
309
CONTENTFORMAT_END
171
     0
 94
        4
 95
        1
302
GRIDFORMAT
  1
GRIDFORMAT_BEGIN
 90
       26
 91
        1
 62
     0
 92
       -2
340
0
 93
        0
 40
0.045
309
GRIDFORMAT_END
 95
        4
302
GRIDFORMAT
  1
GRIDFORMAT_BEGIN
 90
       26
 91
        1
 62
     0
 92
       -2
340
0
 93
        0
 40
0.045
309
GRIDFORMAT_END
 95
        8
302
GRIDFORMAT
  1
GRIDFORMAT_BEGIN
 90
       26
 91
        1
 62
     0
 92
       -2
340
0
 93
        0
 40
0.045
309
GRIDFORMAT_END
 95
       32
302
GRIDFORMAT
  1
GRIDFORMAT_BEGIN
 90
       26
 91
        1
 62
     0
 92
       -2
340
0
 93
        0
 40
0.045
309
GRIDFORMAT_END
309
TABLEFORMAT_END
309
FORMATTEDTABLEDATACELL_END
  1
TABLECELL_BEGIN
 90
        0
 91
        0
309
TABLECELL_END
300
CELL
  1
LINKEDTABLEDATACELL_BEGIN
 90
        0
300

 91
        0
301
CUSTOMDATA
  1
DATAMAP_BEGIN
 90
        0
309
DATAMAP_END
 92
        0
 95
        0
309
LINKEDTABLEDATACELL_END
  1
FORMATTEDTABLEDATACELL_BEGIN
300
CELLTABLEFORMAT
  1
TABLEFORMAT_BEGIN
 90
        1
170
     1
 91
        0
 92
        0
 62
   257
 93
        1
300
CONTENTFORMAT
  1
CONTENTFORMAT_BEGIN
 90
        0
 91
        0
 92
      512
 93
        0
300

 40
0.0
140
1.0
 94
        1
 62
     0
340
0
144
0.18
309
CONTENTFORMAT_END
171
     0
 94
        0
309
TABLEFORMAT_END
309
FORMATTEDTABLEDATACELL_END
  1
TABLECELL_BEGIN
 90
        0
 91
        0
309
TABLECELL_END
 91
        0
301
CUSTOMDATA
  1
DATAMAP_BEGIN
 90
        0
309
DATAMAP_END
309
LINKEDTABLEDATAROW_END
  1
FORMATTEDTABLEDATAROW_BEGIN
300
ROWTABLEFORMAT
  1
TABLEFORMAT_BEGIN
 90
        2
170
     0
309
TABLEFORMAT_END
309
FORMATTEDTABLEDATAROW_END
  1
TABLEROW_BEGIN
 90
        3
 40
6.666667
309
TABLEROW_END
301
ROW
  1
LINKEDTABLEDATAROW_BEGIN
 90
        5
300
CELL
  1
LINKEDTABLEDATACELL_BEGIN
 90
        0
300

 91
        0
301
CUSTOMDATA
  1
DATAMAP_BEGIN
 90
        1
300
ACAD_ROUNDTRIP_2008_CELL_CHECKSUM
301
DATAMAP_VALUE
 93
        2
 90
        2
140
1877690.0
 94
        0
300

302

304
ACVALUE_END
309
DATAMAP_END
 92
        0
 95
        1
302
CONTENT
  1
CELLCONTENT_BEGIN
 90
        1
300
VALUE
 93
        2
 90
        4
  1
Any integral or partial reproductions are prohibited \Pwithout prior authorisation of L {\Ftxt.shx;\W0.190476;\H3.000000; }& L Luce & Light s.r.l., \Pin accordance with the law in force. \PAll rights reserved.
 94
        0
300

302
Any integral or partial reproductions are prohibited \Pwithout prior authorisation of L {\Ftxt.shx;\W0.190476;\H3.000000; }& L Luce & Light s.r.l., \Pin accordance with the law in force. \PAll rights reserved.
304
ACVALUE_END
 91
        0
309
CELLCONTENT_END
  1
FORMATTEDCELLCONTENT_BEGIN
170
     1
300
CONTENTFORMAT
  1
CONTENTFORMAT_BEGIN
 90
      132
 91
        0
 92
      512
 93
        0
300

 40
0.0
140
1.0
 94
        1
 62
     0
340
0
144
3.0
309
CONTENTFORMAT_END
309
FORMATTEDCELLCONTENT_END
309
LINKEDTABLEDATACELL_END
  1
FORMATTEDTABLEDATACELL_BEGIN
300
CELLTABLEFORMAT
  1
TABLEFORMAT_BEGIN
 90
        1
170
     1
 91
       16
 92
        0
 62
   257
 93
        1
300
CONTENTFORMAT
  1
CONTENTFORMAT_BEGIN
 90
       16
 91
        0
 92
      512
 93
        0
300

 40
0.0
140
1.0
 94
        4
 62
     0
340
0
144
0.18
309
CONTENTFORMAT_END
171
     0
 94
        4
 95
        1
302
GRIDFORMAT
  1
GRIDFORMAT_BEGIN
 90
       26
 91
        1
 62
     0
 92
       -2
340
0
 93
        0
 40
0.045
309
GRIDFORMAT_END
 95
        4
302
GRIDFORMAT
  1
GRIDFORMAT_BEGIN
 90
       26
 91
        1
 62
     0
 92
       -2
340
0
 93
        0
 40
0.045
309
GRIDFORMAT_END
 95
        8
302
GRIDFORMAT
  1
GRIDFORMAT_BEGIN
 90
       26
 91
        1
 62
     0
 92
       -2
340
0
 93
        0
 40
0.045
309
GRIDFORMAT_END
 95
       32
302
GRIDFORMAT
  1
GRIDFORMAT_BEGIN
 90
       26
 91
        1
 62
     0
 92
       -2
340
0
 93
        0
 40
0.045
309
GRIDFORMAT_END
309
TABLEFORMAT_END
309
FORMATTEDTABLEDATACELL_END
  1
TABLECELL_BEGIN
 90
        0
 91
        0
309
TABLECELL_END
300
CELL
  1
LINKEDTABLEDATACELL_BEGIN
 90
        0
300

 91
        0
301
CUSTOMDATA
  1
DATAMAP_BEGIN
 90
        0
309
DATAMAP_END
 92
        0
 95
        0
309
LINKEDTABLEDATACELL_END
  1
FORMATTEDTABLEDATACELL_BEGIN
300
CELLTABLEFORMAT
  1
TABLEFORMAT_BEGIN
 90
        1
170
     1
 91
        0
 92
        0
 62
   257
 93
        1
300
CONTENTFORMAT
  1
CONTENTFORMAT_BEGIN
 90
        0
 91
        0
 92
      512
 93
        0
300

 40
0.0
140
1.0
 94
        1
 62
     0
340
0
144
0.18
309
CONTENTFORMAT_END
171
     0
 94
        0
309
TABLEFORMAT_END
309
FORMATTEDTABLEDATACELL_END
  1
TABLECELL_BEGIN
 90
        0
 91
        0
309
TABLECELL_END
300
CELL
  1
LINKEDTABLEDATACELL_BEGIN
 90
        0
300

 91
        0
301
CUSTOMDATA
  1
DATAMAP_BEGIN
 90
        0
309
DATAMAP_END
 92
        0
 95
        0
309
LINKEDTABLEDATACELL_END
  1
FORMATTEDTABLEDATACELL_BEGIN
300
CELLTABLEFORMAT
  1
TABLEFORMAT_BEGIN
 90
        1
170
     1
 91
        0
 92
        0
 62
   257
 93
        1
300
CONTENTFORMAT
  1
CONTENTFORMAT_BEGIN
 90
        0
 91
        0
 92
      512
 93
        0
300

 40
0.0
140
1.0
 94
        1
 62
     0
340
0
144
0.18
309
CONTENTFORMAT_END
171
     0
 94
        0
309
TABLEFORMAT_END
309
FORMATTEDTABLEDATACELL_END
  1
TABLECELL_BEGIN
 90
        0
 91
        0
309
TABLECELL_END
300
CELL
  1
LINKEDTABLEDATACELL_BEGIN
 90
        0
300

 91
        0
301
CUSTOMDATA
  1
DATAMAP_BEGIN
 90
        0
309
DATAMAP_END
 92
        0
 95
        0
309
LINKEDTABLEDATACELL_END
  1
FORMATTEDTABLEDATACELL_BEGIN
300
CELLTABLEFORMAT
  1
TABLEFORMAT_BEGIN
 90
        1
170
     1
 91
        0
 92
        0
 62
   257
 93
        1
300
CONTENTFORMAT
  1
CONTENTFORMAT_BEGIN
 90
        0
 91
        0
 92
      512
 93
        0
300

 40
0.0
140
1.0
 94
        1
 62
     0
340
0
144
0.18
309
CONTENTFORMAT_END
171
     0
 94
        0
309
TABLEFORMAT_END
309
FORMATTEDTABLEDATACELL_END
  1
TABLECELL_BEGIN
 90
        0
 91
        0
309
TABLECELL_END
300
CELL
  1
LINKEDTABLEDATACELL_BEGIN
 90
        0
300

 91
        0
301
CUSTOMDATA
  1
DATAMAP_BEGIN
 90
        0
309
DATAMAP_END
 92
        0
 95
        0
309
LINKEDTABLEDATACELL_END
  1
FORMATTEDTABLEDATACELL_BEGIN
300
CELLTABLEFORMAT
  1
TABLEFORMAT_BEGIN
 90
        1
170
     1
 91
        0
 92
        0
 62
   257
 93
        1
300
CONTENTFORMAT
  1
CONTENTFORMAT_BEGIN
 90
        0
 91
        0
 92
      512
 93
        0
300

 40
0.0
140
1.0
 94
        1
 62
     0
340
0
144
0.18
309
CONTENTFORMAT_END
171
     0
 94
        0
309
TABLEFORMAT_END
309
FORMATTEDTABLEDATACELL_END
  1
TABLECELL_BEGIN
 90
        0
 91
        0
309
TABLECELL_END
 91
        0
301
CUSTOMDATA
  1
DATAMAP_BEGIN
 90
        0
309
DATAMAP_END
309
LINKEDTABLEDATAROW_END
  1
FORMATTEDTABLEDATAROW_BEGIN
300
ROWTABLEFORMAT
  1
TABLEFORMAT_BEGIN
 90
        2
170
     0
309
TABLEFORMAT_END
309
FORMATTEDTABLEDATAROW_END
  1
TABLEROW_BEGIN
 90
        3
 40
17.333333
309
TABLEROW_END
100
AcDbFormattedTableData
300
TABLEFORMAT
  1
TABLEFORMAT_BEGIN
 90
        4
170
     1
 91
    15360
 92
        0
 62
   257
 93
        1
300
CONTENTFORMAT
  1
CONTENTFORMAT_BEGIN
 90
        0
 91
        0
 92
      512
 93
        0
300

 40
0.0
140
1.0
 94
        1
 62
     0
340
0
144
0.18
309
CONTENTFORMAT_END
171
     1
301
MARGIN
  1
CELLMARGIN_BEGIN
 40
0.06
 40
0.06
 40
0.06
 40
0.06
 40
0.06
 40
0.06
309
CELLMARGIN_END
 94
        0
309
TABLEFORMAT_END
 90
        4
 91
        0
 92
        0
 93
        3
 94
        2
 91
        2
 92
        3
 93
        2
 94
        4
 91
        3
 92
        3
 93
        3
 94
        4
 91
        4
 92
        0
 93
        4
 94
        4
100
AcDbTableContent
340
592
  0
TABLEGEOMETRY
  5
5BF
330
5C1
100
AcDbTableGeometry
 90
        5
 91
        5
 92
       25
 93
        0
 40
0.0
 41
0.0
330
0
 94
        0
 93
        0
 40
0.0
 41
0.0
330
0
 94
        0
 93
        0
 40
0.0
 41
0.0
330
0
 94
        0
 93
        0
 40
0.0
 41
0.0
330
0
 94
        0
 93
        0
 40
0.0
 41
0.0
330
0
 94
        0
 93
        0
 40
0.0
 41
0.0
330
0
 94
        0
 93
        0
 40
0.0
 41
0.0
330
0
 94
        0
 93
        0
 40
0.0
 41
0.0
330
0
 94
        0
 93
        0
 40
0.0
 41
0.0
330
0
 94
        0
 93
        0
 40
0.0
 41
0.0
330
0
 94
        0
 93
        0
 40
0.0
 41
0.0
330
0
 94
        0
 93
        0
 40
0.0
 41
0.0
330
0
 94
        0
 93
        0
 40
0.0
 41
0.0
330
0
 94
        0
 93
        0
 40
0.0
 41
0.0
330
0
 94
        0
 93
        0
 40
0.0
 41
0.0
330
0
 94
        0
 93
        0
 40
0.0
 41
0.0
330
0
 94
        0
 93
        0
 40
0.0
 41
0.0
330
0
 94
        0
 93
        0
 40
0.0
 41
0.0
330
0
 94
        0
 93
        0
 40
0.0
 41
0.0
330
0
 94
        0
 93
        0
 40
0.0
 41
0.0
330
0
 94
        0
 93
        0
 40
0.0
 41
0.0
330
0
 94
        0
 93
        0
 40
0.0
 41
0.0
330
0
 94
        0
 93
        0
 40
0.0
 41
0.0
330
0
 94
        0
 93
        0
 40
0.0
 41
0.0
330
0
 94
        0
 93
        0
 40
0.0
 41
0.0
330
0
 94
        0
  0
DICTIONARY
  5
5C4
330
592
100
AcDbDictionary
280
     1
281
     1
  3
ACAD_ROUNDTRIP_2008_TABLESTYLE_CELLSTYLEMAP
360
5C5
  0
CELLSTYLEMAP
  5
5C5
102
{ACAD_REACTORS
330
5C4
102
}
330
5C4
100
AcDbCellStyleMap
 90
        3
300
CELLSTYLE
  1
TABLEFORMAT_BEGIN
 90
        5
170
     1
 91
        0
 92
        0
 62
   257
 93
        1
300
CONTENTFORMAT
  1
CONTENTFORMAT_BEGIN
 90
        0
 91
        0
 92
        4
 93
        0
300

 40
0.0
140
1.0
 94
        5
 62
     0
340
11
144
6.0
309
CONTENTFORMAT_END
171
     1
301
MARGIN
  1
CELLMARGIN_BEGIN
 40
1.5
 40
1.5
 40
1.5
 40
1.5
 40
1.5
 40
1.5
309
CELLMARGIN_END
 94
        6
 95
        1
302
GRIDFORMAT
  1
GRIDFORMAT_BEGIN
 90
        0
 91
        1
 62
     0
 92
       -2
340
14
 93
        0
 40
0.045
309
GRIDFORMAT_END
 95
        2
302
GRIDFORMAT
  1
GRIDFORMAT_BEGIN
 90
        0
 91
        1
 62
     0
 92
       -2
340
14
 93
        0
 40
0.045
309
GRIDFORMAT_END
 95
        4
302
GRIDFORMAT
  1
GRIDFORMAT_BEGIN
 90
        0
 91
        1
 62
     0
 92
       -2
340
14
 93
        0
 40
0.045
309
GRIDFORMAT_END
 95
        8
302
GRIDFORMAT
  1
GRIDFORMAT_BEGIN
 90
        0
 91
        1
 62
     0
 92
       -2
340
14
 93
        0
 40
0.045
309
GRIDFORMAT_END
 95
       16
302
GRIDFORMAT
  1
GRIDFORMAT_BEGIN
 90
        0
 91
        1
 62
     0
 92
       -2
340
14
 93
        0
 40
0.045
309
GRIDFORMAT_END
 95
       32
302
GRIDFORMAT
  1
GRIDFORMAT_BEGIN
 90
        0
 91
        1
 62
     0
 92
       -2
340
14
 93
        0
 40
0.045
309
GRIDFORMAT_END
309
TABLEFORMAT_END
  1
CELLSTYLE_BEGIN
 90
        1
 91
        1
300
_TITLE
309
CELLSTYLE_END
300
CELLSTYLE
  1
TABLEFORMAT_BEGIN
 90
        5
170
     1
 91
        0
 92
        0
 62
   257
 93
        1
300
CONTENTFORMAT
  1
CONTENTFORMAT_BEGIN
 90
        0
 91
        0
 92
        4
 93
        0
300

 40
0.0
140
1.0
 94
        5
 62
     0
340
11
144
4.5
309
CONTENTFORMAT_END
171
     1
301
MARGIN
  1
CELLMARGIN_BEGIN
 40
1.5
 40
1.5
 40
1.5
 40
1.5
 40
1.5
 40
1.5
309
CELLMARGIN_END
 94
        6
 95
        1
302
GRIDFORMAT
  1
GRIDFORMAT_BEGIN
 90
        0
 91
        1
 62
     0
 92
       -2
340
14
 93
        0
 40
0.045
309
GRIDFORMAT_END
 95
        2
302
GRIDFORMAT
  1
GRIDFORMAT_BEGIN
 90
        0
 91
        1
 62
     0
 92
       -2
340
14
 93
        0
 40
0.045
309
GRIDFORMAT_END
 95
        4
302
GRIDFORMAT
  1
GRIDFORMAT_BEGIN
 90
        0
 91
        1
 62
     0
 92
       -2
340
14
 93
        0
 40
0.045
309
GRIDFORMAT_END
 95
        8
302
GRIDFORMAT
  1
GRIDFORMAT_BEGIN
 90
        0
 91
        1
 62
     0
 92
       -2
340
14
 93
        0
 40
0.045
309
GRIDFORMAT_END
 95
       16
302
GRIDFORMAT
  1
GRIDFORMAT_BEGIN
 90
        0
 91
        1
 62
     0
 92
       -2
340
14
 93
        0
 40
0.045
309
GRIDFORMAT_END
 95
       32
302
GRIDFORMAT
  1
GRIDFORMAT_BEGIN
 90
        0
 91
        1
 62
     0
 92
       -2
340
14
 93
        0
 40
0.045
309
GRIDFORMAT_END
309
TABLEFORMAT_END
  1
CELLSTYLE_BEGIN
 90
        2
 91
        1
300
_HEADER
309
CELLSTYLE_END
300
CELLSTYLE
  1
TABLEFORMAT_BEGIN
 90
        5
170
     1
 91
        0
 92
        0
 62
   257
 93
        1
300
CONTENTFORMAT
  1
CONTENTFORMAT_BEGIN
 90
        0
 91
        0
 92
        4
 93
        0
300

 40
0.0
140
1.0
 94
        2
 62
     0
340
11
144
4.5
309
CONTENTFORMAT_END
171
     1
301
MARGIN
  1
CELLMARGIN_BEGIN
 40
1.5
 40
1.5
 40
1.5
 40
1.5
 40
1.5
 40
1.5
309
CELLMARGIN_END
 94
        6
 95
        1
302
GRIDFORMAT
  1
GRIDFORMAT_BEGIN
 90
        0
 91
        1
 62
     0
 92
       -2
340
14
 93
        0
 40
0.045
309
GRIDFORMAT_END
 95
        2
302
GRIDFORMAT
  1
GRIDFORMAT_BEGIN
 90
        0
 91
        1
 62
     0
 92
       -2
340
14
 93
        0
 40
0.045
309
GRIDFORMAT_END
 95
        4
302
GRIDFORMAT
  1
GRIDFORMAT_BEGIN
 90
        0
 91
        1
 62
     0
 92
       -2
340
14
 93
        0
 40
0.045
309
GRIDFORMAT_END
 95
        8
302
GRIDFORMAT
  1
GRIDFORMAT_BEGIN
 90
        0
 91
        1
 62
     0
 92
       -2
340
14
 93
        0
 40
0.045
309
GRIDFORMAT_END
 95
       16
302
GRIDFORMAT
  1
GRIDFORMAT_BEGIN
 90
        0
 91
        1
 62
     0
 92
       -2
340
14
 93
        0
 40
0.045
309
GRIDFORMAT_END
 95
       32
302
GRIDFORMAT
  1
GRIDFORMAT_BEGIN
 90
        0
 91
        1
 62
     0
 92
       -2
340
14
 93
        0
 40
0.045
309
GRIDFORMAT_END
309
TABLEFORMAT_END
  1
CELLSTYLE_BEGIN
 90
        3
 91
        2
300
_DATA
309
CELLSTYLE_END
  0
ENDSEC
  0
EOF
