999
DXF file: 2j6_c_001.dxf
999
Pro/ENGINEER 2016360 by Parametric Technology Corporation
  0
SECTION
  2
HEADER
  9
$ACADVER
  1
AC1014
  9
$DWGCODEPAGE
  3
ANSI_1252
  9
$EXTMAX
 10
420.0
 20
297.0
 30
0.0
  9
$EXTMIN
 10
0.0
 20
0.0
 30
0.0
  9
$LIMMIN
 10
0.0
 20
0.0
  9
$LIMMAX
 10
420.0
 20
297.0
  9
$VIEWCTR
 10
210.0
 20
148.5
  9
$VIEWSIZE
 40
297.0
  9
$CLAYER
  8
0
  9
$LTSCALE
 40
23.1
  9
$CELTYPE
  6
BYLAYER
  9
$DIMSCALE
 40
1.0
  9
$DIMASZ
 40
2.5
  9
$DIMEXO
 40
0.75
  9
$DIMDLI
 40
15.96
  9
$DIMEXE
 40
0.75
  9
$DIMCEN
 40
3.78
  9
$DIMLFAC
 40
1.0
  9
$DIMBLK
  1
_CLOSED
  9
$DIMALT
 70
0
  9
$DIMALTF
 40
25.4
  9
$DIMTXT
 40
3.0
  9
$DIMTOL
 70
1
  9
$DIMLIM
 70
0
  9
$DIMTFAC
 40
1.0
  9
$DIMTP
 40
0.01
  9
$DIMTM
 40
0.01
  9
$DIMGAP
 40
0.625
  9
$AUNITS
 70
0
  9
$PDMODE
 70
3
  9
$PDSIZE
 40
0.3125
  9
$HANDSEED
  5
45D
  9
$TILEMODE
 70
1
  9
$MEASUREMENT
 70
1
  0
ENDSEC
  0
SECTION
  2
CLASSES
  0
ENDSEC
  0
SECTION
  2
TABLES
  0
TABLE
  2
VPORT
  5
8
100
AcDbSymbolTable
 70
2
  0
VPORT
  5
1F4
100
AcDbSymbolTableRecord
100
AcDbViewportTableRecord
  2
*ACTIVE
 70
0
 10
0.0
 20
0.0
 11
1.0
 21
1.0
 12
210.0
 22
148.5
 13
0.0
 23
0.0
 14
1.0
 24
1.0
 15
0.0
 25
0.0
 16
0.0
 26
0.0
 36
1.0
 17
0.0
 27
0.0
 37
0.0
 40
297.0
 41
1.4141414141
 42
50.0
 43
0.0
 44
0.0
 50
0.0
 51
0.0
 71
0
 72
100
 73
1
 74
1
 75
0
 76
0
 77
0
 78
0
  0
ENDTAB
  0
TABLE
  2
LTYPE
  5
5
100
AcDbSymbolTable
 70
6
  0
LTYPE
  5
14
100
AcDbSymbolTableRecord
100
AcDbLinetypeTableRecord
  2
BYBLOCK
 70
0
  3

 72
65
 73
0
 40
0.0
  0
LTYPE
  5
15
100
AcDbSymbolTableRecord
100
AcDbLinetypeTableRecord
  2
BYLAYER
 70
0
  3

 72
65
 73
0
 40
0.0
  0
LTYPE
  5
16
100
AcDbSymbolTableRecord
100
AcDbLinetypeTableRecord
  2
CONTINUOUS
 70
64
  3
Solid line
 72
65
 73
0
 40
0.0
  0
LTYPE
  5
1F5
100
AcDbSymbolTableRecord
100
AcDbLinetypeTableRecord
  2
CENTER
 70
64
  3
____ _ ____ _ ____ _ ____ _ ____ _ ____ _ ____
 72
65
 73
4
 40
0.6
 49
0.375
 74
0
 49
-0.075
 74
0
 49
0.075
 74
0
 49
-0.075
 74
0
  0
LTYPE
  5
1F6
100
AcDbSymbolTableRecord
100
AcDbLinetypeTableRecord
  2
HIDDEN
 70
64
  3
- - - - - - - - - - - - - - - - - - - -
 72
65
 73
2
 40
0.2
 49
0.1
 74
0
 49
-0.1
 74
0
  0
LTYPE
  5
1F7
100
AcDbSymbolTableRecord
100
AcDbLinetypeTableRecord
  2
PHANTOM
 70
64
  3
_____ _ _ _____ _ _ _____ _ _ _____
 72
65
 73
6
 40
0.8
 49
0.45
 74
0
 49
-0.05
 74
0
 49
0.1
 74
0
 49
-0.05
 74
0
 49
0.1
 74
0
 49
-0.05
 74
0
  0
LTYPE
  5
1F8
100
AcDbSymbolTableRecord
100
AcDbLinetypeTableRecord
  2
DOT
 70
64
  3
. . . . . . . . . . . . . . . . . . . .
 72
65
 73
2
 40
0.2
 49
0.1
 74
0
 49
-0.1
 74
0
  0
LTYPE
  5
1F9
100
AcDbSymbolTableRecord
100
AcDbLinetypeTableRecord
  2
DASHED
 70
64
  3
- - - - - - - - - - - - - - - - - - - -
 72
65
 73
2
 40
0.2
 49
0.1
 74
0
 49
-0.1
 74
0
  0
ENDTAB
  0
TABLE
  2
LAYER
  5
2
100
AcDbSymbolTable
 70
36
  0
LAYER
  5
10
100
AcDbSymbolTableRecord
100
AcDbLayerTableRecord
  2
0
 70
0
 62
7
  6
CONTINUOUS
  0
LAYER
  5
1FA
100
AcDbSymbolTableRecord
100
AcDbLayerTableRecord
  2
DEFAULT_1
 70
0
 62
7
  6
CENTER
  0
LAYER
  5
1FB
100
AcDbSymbolTableRecord
100
AcDbLayerTableRecord
  2
DEFAULT_2
 70
0
 62
8
  6
HIDDEN
  0
LAYER
  5
1FC
100
AcDbSymbolTableRecord
100
AcDbLayerTableRecord
  2
DEFAULT_3
 70
0
 62
7
  6
PHANTOM
  0
LAYER
  5
1FD
100
AcDbSymbolTableRecord
100
AcDbLayerTableRecord
  2
01_ALL_DTM_PLN
 70
0
 62
7
  6
CONTINUOUS
  0
LAYER
  5
1FE
100
AcDbSymbolTableRecord
100
AcDbLayerTableRecord
  2
01__ASM_ALL_DTM_PLN
 70
0
 62
7
  6
CONTINUOUS
  0
LAYER
  5
1FF
100
AcDbSymbolTableRecord
100
AcDbLayerTableRecord
  2
01__ASM_DEF_DTM_PLN
 70
0
 62
7
  6
CONTINUOUS
  0
LAYER
  5
200
100
AcDbSymbolTableRecord
100
AcDbLayerTableRecord
  2
01___PRT_ALL_DTM_PLN
 70
0
 62
7
  6
CONTINUOUS
  0
LAYER
  5
201
100
AcDbSymbolTableRecord
100
AcDbLayerTableRecord
  2
01___PRT_DEF_DTM_PLN
 70
0
 62
7
  6
CONTINUOUS
  0
LAYER
  5
202
100
AcDbSymbolTableRecord
100
AcDbLayerTableRecord
  2
02_ALL_AXES
 70
0
 62
7
  6
CONTINUOUS
  0
LAYER
  5
203
100
AcDbSymbolTableRecord
100
AcDbLayerTableRecord
  2
02__ASM_ALL_AXES
 70
0
 62
7
  6
CONTINUOUS
  0
LAYER
  5
204
100
AcDbSymbolTableRecord
100
AcDbLayerTableRecord
  2
02___PRT_ALL_AXES
 70
0
 62
7
  6
CONTINUOUS
  0
LAYER
  5
205
100
AcDbSymbolTableRecord
100
AcDbLayerTableRecord
  2
03_ALL_CURVES
 70
0
 62
7
  6
CONTINUOUS
  0
LAYER
  5
206
100
AcDbSymbolTableRecord
100
AcDbLayerTableRecord
  2
03__ASM_ALL_CURVES
 70
0
 62
7
  6
CONTINUOUS
  0
LAYER
  5
207
100
AcDbSymbolTableRecord
100
AcDbLayerTableRecord
  2
03___PRT_ALL_CURVES
 70
0
 62
7
  6
CONTINUOUS
  0
LAYER
  5
208
100
AcDbSymbolTableRecord
100
AcDbLayerTableRecord
  2
04_ALL_DTM_PNT
 70
0
 62
7
  6
CONTINUOUS
  0
LAYER
  5
209
100
AcDbSymbolTableRecord
100
AcDbLayerTableRecord
  2
04__ASM_ALL_DTM_PNT
 70
0
 62
7
  6
CONTINUOUS
  0
LAYER
  5
20A
100
AcDbSymbolTableRecord
100
AcDbLayerTableRecord
  2
04___PRT_ALL_DTM_PNT
 70
0
 62
7
  6
CONTINUOUS
  0
LAYER
  5
20B
100
AcDbSymbolTableRecord
100
AcDbLayerTableRecord
  2
05_ALL_DTM_CSYS
 70
0
 62
7
  6
CONTINUOUS
  0
LAYER
  5
20C
100
AcDbSymbolTableRecord
100
AcDbLayerTableRecord
  2
05__ASM_ALL_DTM_CSYS
 70
0
 62
7
  6
CONTINUOUS
  0
LAYER
  5
20D
100
AcDbSymbolTableRecord
100
AcDbLayerTableRecord
  2
05__ASM_DEF_DTM_CSYS
 70
0
 62
7
  6
CONTINUOUS
  0
LAYER
  5
20E
100
AcDbSymbolTableRecord
100
AcDbLayerTableRecord
  2
05___PRT_ALL_DTM_CSYS
 70
0
 62
7
  6
CONTINUOUS
  0
LAYER
  5
20F
100
AcDbSymbolTableRecord
100
AcDbLayerTableRecord
  2
05___PRT_DEF_DTM_CSYS
 70
0
 62
7
  6
CONTINUOUS
  0
LAYER
  5
210
100
AcDbSymbolTableRecord
100
AcDbLayerTableRecord
  2
06_ALL_SURFS
 70
0
 62
7
  6
CONTINUOUS
  0
LAYER
  5
211
100
AcDbSymbolTableRecord
100
AcDbLayerTableRecord
  2
06__ASM_ALL_SURFS
 70
0
 62
7
  6
CONTINUOUS
  0
LAYER
  5
212
100
AcDbSymbolTableRecord
100
AcDbLayerTableRecord
  2
06___PRT_ALL_SURFS
 70
0
 62
7
  6
CONTINUOUS
  0
LAYER
  5
213
100
AcDbSymbolTableRecord
100
AcDbLayerTableRecord
  2
07__ASM_ALL_SKELETONS
 70
0
 62
7
  6
CONTINUOUS
  0
LAYER
  5
214
100
AcDbSymbolTableRecord
100
AcDbLayerTableRecord
  2
1_ALL_PLANES
 70
0
 62
7
  6
CONTINUOUS
  0
LAYER
  5
215
100
AcDbSymbolTableRecord
100
AcDbLayerTableRecord
  2
2_ALL_CSYS
 70
0
 62
7
  6
CONTINUOUS
  0
LAYER
  5
216
100
AcDbSymbolTableRecord
100
AcDbLayerTableRecord
  2
3_ALL_AXES
 70
0
 62
7
  6
CONTINUOUS
  0
LAYER
  5
217
100
AcDbSymbolTableRecord
100
AcDbLayerTableRecord
  2
4_ALL_POINTS
 70
0
 62
7
  6
CONTINUOUS
  0
LAYER
  5
218
100
AcDbSymbolTableRecord
100
AcDbLayerTableRecord
  2
5_ALL_CURVES
 70
0
 62
7
  6
CONTINUOUS
  0
LAYER
  5
219
100
AcDbSymbolTableRecord
100
AcDbLayerTableRecord
  2
5__COSTRUZIONE
 70
0
 62
7
  6
CONTINUOUS
  0
LAYER
  5
21A
100
AcDbSymbolTableRecord
100
AcDbLayerTableRecord
  2
6_ALL_SURFS
 70
0
 62
7
  6
CONTINUOUS
  0
LAYER
  5
21B
100
AcDbSymbolTableRecord
100
AcDbLayerTableRecord
  2
7_ALL_FEATURES
 70
0
 62
7
  6
CONTINUOUS
  0
LAYER
  5
21C
100
AcDbSymbolTableRecord
100
AcDbLayerTableRecord
  2
9_SOLID
 70
0
 62
7
  6
CONTINUOUS
  0
LAYER
  5
21D
100
AcDbSymbolTableRecord
100
AcDbLayerTableRecord
  2
CLOSED_SHELL
 70
0
 62
7
  6
CONTINUOUS
  0
LAYER
  5
21E
100
AcDbSymbolTableRecord
100
AcDbLayerTableRecord
  2
F15255
 70
0
 62
7
  6
CONTINUOUS
  0
LAYER
  5
21F
100
AcDbSymbolTableRecord
100
AcDbLayerTableRecord
  2
F15340_001
 70
0
 62
7
  6
CONTINUOUS
  0
LAYER
  5
220
100
AcDbSymbolTableRecord
100
AcDbLayerTableRecord
  2
FP_001
 70
0
 62
7
  6
CONTINUOUS
  0
LAYER
  5
221
100
AcDbSymbolTableRecord
100
AcDbLayerTableRecord
  2
FP_HEKLA-PIC-X_001
 70
0
 62
7
  6
CONTINUOUS
  0
LAYER
  5
222
100
AcDbSymbolTableRecord
100
AcDbLayerTableRecord
  2
INTFCLR_3
 70
0
 62
7
  6
CONTINUOUS
  0
LAYER
  5
223
100
AcDbSymbolTableRecord
100
AcDbLayerTableRecord
  2
INTF_CYAN
 70
0
 62
7
  6
CONTINUOUS
  0
LAYER
  5
224
100
AcDbSymbolTableRecord
100
AcDbLayerTableRecord
  2
XXX_SOLIDO
 70
0
 62
7
  6
CONTINUOUS
  0
ENDTAB
  0
TABLE
  2
STYLE
  5
3
100
AcDbSymbolTable
 70
1
  0
STYLE
  5
11
100
AcDbSymbolTableRecord
100
AcDbTextStyleTableRecord
  2
STANDARD
 70
0
 40
0.0
 41
1.0
 50
0.0
 71
0
 42
0.2
  3
arial.ttf
  4

  0
STYLE
  5
225
100
AcDbSymbolTableRecord
100
AcDbTextStyleTableRecord
  2
TEXTSTYLE_1
 70
0
 40
0.0
 41
0.8
 50
0.0
 71
0
 42
0.2
  3
gdt
  4

  0
STYLE
  5
226
100
AcDbSymbolTableRecord
100
AcDbTextStyleTableRecord
  2
TEXTSTYLE_2
 70
0
 40
0.0
 41
0.85
 50
0.0
 71
0
 42
0.2
  3
gdt
  4

  0
STYLE
  5
227
100
AcDbSymbolTableRecord
100
AcDbTextStyleTableRecord
  2
TEXTSTYLE_3
 70
0
 40
0.0
 41
0.85
 50
0.0
 71
0
 42
0.2
  3
txt
  4

  0
ENDTAB
  0
TABLE
  2
VIEW
  5
6
100
AcDbSymbolTable
 70
0
  0
ENDTAB
  0
TABLE
  2
UCS
  5
7
100
AcDbSymbolTable
 70
0
  0
ENDTAB
  0
TABLE
  2
APPID
  5
9
100
AcDbSymbolTable
 70
1
  0
APPID
  5
228
100
AcDbSymbolTableRecord
100
AcDbRegAppTableRecord
  2
ACAD
 70
0
  0
ENDTAB
  0
TABLE
  2
BLOCK_RECORD
  5
1
100
AcDbSymbolTable
 70
0
  0
BLOCK_RECORD
  5
1F
100
AcDbSymbolTableRecord
100
AcDbBlockTableRecord
  2
*MODEL_SPACE
  0
BLOCK_RECORD
  5
1B
100
AcDbSymbolTableRecord
100
AcDbBlockTableRecord
  2
*PAPER_SPACE
  0
BLOCK_RECORD
  5
229
100
AcDbSymbolTableRecord
100
AcDbBlockTableRecord
  2
_CLOSED
  0
BLOCK_RECORD
  5
22A
100
AcDbSymbolTableRecord
100
AcDbBlockTableRecord
  2
*D0
  0
BLOCK_RECORD
  5
22B
100
AcDbSymbolTableRecord
100
AcDbBlockTableRecord
  2
*D1
  0
BLOCK_RECORD
  5
22C
100
AcDbSymbolTableRecord
100
AcDbBlockTableRecord
  2
*D2
  0
BLOCK_RECORD
  5
22D
100
AcDbSymbolTableRecord
100
AcDbBlockTableRecord
  2
*D3
  0
BLOCK_RECORD
  5
22E
100
AcDbSymbolTableRecord
100
AcDbBlockTableRecord
  2
LOGO2_BL0
  0
ENDTAB
  0
TABLE
  2
DIMSTYLE
  5
A
100
AcDbSymbolTable
 70
1
  0
DIMSTYLE
105
22F
100
AcDbSymbolTableRecord
100
AcDbDimStyleTableRecord
  2
STANDARD
 70
0
  3

  4

  5
_CLOSED
  6
_CLOSED
  7
_CLOSED
 40
1.0
 41
2.5
 42
0.75
 43
0.38
 44
0.75
 45
0.0
 46
0.0
 47
0.01
 48
0.01
140
3.0
141
0.09
142
0.0
143
25.4
144
1.0
145
0.0
146
1.0
147
0.625
 71
1.0
 72
0.0
 73
0
 74
0
 75
0
 76
0
 77
1
 78
8
 79
2
170
0
171
1
172
0
173
0
174
0
175
0
176
0
177
0
178
0
270
2
179
2
271
2
272
2
273
2
274
2
275
0
280
0
281
0
282
0
283
1
284
8
285
0
286
0
287
3
288
0
340
11
  0
DIMSTYLE
105
230
100
AcDbSymbolTableRecord
100
AcDbDimStyleTableRecord
  2
DIMSTYLE_1
 70
0
  3
<>
  4

  5
_CLOSED
  6
_CLOSED
  7
_CLOSED
 40
1.0
 41
2.5
 42
0.75
 43
0.38
 44
0.75
 45
0.0
 46
0.0
 47
0.3
 48
0.3
140
3.0
141
0.09
142
0.0
143
25.4
144
1.0
145
0.0
146
1.0
147
0.625
 71
0.0
 72
0.0
 73
0
 74
0
 75
0
 76
0
 77
1
 78
8
 79
2
170
0
171
1
172
1
173
0
174
0
175
0
176
0
177
0
178
0
270
2
179
2
271
2
272
2
273
2
274
2
275
0
280
0
281
0
282
0
283
1
284
8
285
0
286
0
287
3
288
1
340
11
  0
DIMSTYLE
105
231
100
AcDbSymbolTableRecord
100
AcDbDimStyleTableRecord
  2
DIMSTYLE_2
 70
0
  3

  4

  5
_CLOSED
  6
_CLOSED
  7
_CLOSED
 40
1.0
 41
2.5
 42
0.75
 43
0.38
 44
0.75
 45
0.0
 46
0.0
 47
0.3
 48
0.3
140
3.0
141
0.09
142
0.0
143
25.4
144
1.0
145
0.0
146
1.0
147
0.75
 71
0.0
 72
0.0
 73
0
 74
0
 75
0
 76
0
 77
1
 78
8
 79
2
170
0
171
1
172
0
173
0
174
0
175
0
176
0
177
0
178
0
270
2
179
2
271
2
272
2
273
2
274
2
275
0
280
0
281
0
282
0
283
1
284
8
285
0
286
0
287
3
288
0
340
11
  0
DIMSTYLE
105
232
100
AcDbSymbolTableRecord
100
AcDbDimStyleTableRecord
  2
DIMSTYLE_3
 70
0
  3

  4

  5
_CLOSED
  6
_CLOSED
  7
_CLOSED
 40
1.0
 41
2.5
 42
0.75
 43
0.38
 44
0.75
 45
0.0
 46
0.0
 47
0.1
 48
0.1
140
3.0
141
0.09
142
0.0
143
25.4
144
1.0
145
0.0
146
1.0
147
0.75
 71
0.0
 72
0.0
 73
0
 74
0
 75
0
 76
0
 77
1
 78
8
 79
2
170
0
171
1
172
0
173
0
174
0
175
0
176
0
177
0
178
0
270
2
179
2
271
2
272
2
273
2
274
2
275
0
280
0
281
0
282
0
283
1
284
8
285
0
286
0
287
3
288
0
340
11
  0
ENDTAB
  0
ENDSEC
  0
SECTION
  2
BLOCKS
  0
BLOCK
  5
20
100
AcDbEntity
  8
0
100
AcDbBlockBegin
  2
*MODEL_SPACE
 70
0
 10
0.0
 20
0.0
 30
0.0
  3
*MODEL_SPACE
  1

  0
ENDBLK
  5
21
100
AcDbEntity
  8
0
100
AcDbBlockEnd
  0
BLOCK
  5
1C
100
AcDbEntity
  8
0
100
AcDbBlockBegin
  2
*PAPER_SPACE
 70
0
 10
0.0
 20
0.0
 30
0.0
  3
*PAPER_SPACE
  1

  0
ENDBLK
  5
1D
100
AcDbEntity
  8
0
100
AcDbBlockEnd
  0
BLOCK
  5
233
100
AcDbEntity
  8
0
100
AcDbBlockBegin
 62
2
  6
CONTINUOUS
  2
LOGO2_BL0
 70
64
 10
333.6475659158
 20
36.9217920391
  3
LOGO2_BL0
  1

  0
LINE
  5
234
100
AcDbEntity
  8
0
100
AcDbLine
 62
7
  6
CONTINUOUS
 10
325.390491144
 20
40.1172833779
 11
324.0861502147
 21
40.1172833779
  0
LINE
  5
235
100
AcDbEntity
  8
0
100
AcDbLine
 62
7
  6
CONTINUOUS
 10
324.0861502147
 20
40.1172833779
 11
324.0861502147
 21
29.6582173181
  0
LINE
  5
236
100
AcDbEntity
  8
0
100
AcDbLine
 62
7
  6
CONTINUOUS
 10
324.0861502147
 20
29.6582173181
 11
328.567205103
 21
29.6582173181
  0
LINE
  5
237
100
AcDbEntity
  8
0
100
AcDbLine
 62
7
  6
CONTINUOUS
 10
328.567205103
 20
29.6582173181
 11
328.567205103
 21
30.8510716431
  0
LINE
  5
238
100
AcDbEntity
  8
0
100
AcDbLine
 62
7
  6
CONTINUOUS
 10
328.567205103
 20
30.8510716431
 11
325.390491144
 21
30.8510716431
  0
LINE
  5
239
100
AcDbEntity
  8
0
100
AcDbLine
 62
7
  6
CONTINUOUS
 10
325.390491144
 20
30.8510716431
 11
325.390491144
 21
40.1172833779
  0
LINE
  5
23A
100
AcDbEntity
  8
0
100
AcDbLine
 62
7
  6
CONTINUOUS
 10
340.3268173604
 20
40.1172833779
 11
339.0229998423
 21
40.1172833779
  0
LINE
  5
23B
100
AcDbEntity
  8
0
100
AcDbLine
 62
7
  6
CONTINUOUS
 10
339.0229998423
 20
40.1172833779
 11
339.0229998423
 21
29.6582173181
  0
LINE
  5
23C
100
AcDbEntity
  8
0
100
AcDbLine
 62
7
  6
CONTINUOUS
 10
339.0229998423
 20
29.6582173181
 11
343.5041855834
 21
29.6582173181
  0
LINE
  5
23D
100
AcDbEntity
  8
0
100
AcDbLine
 62
7
  6
CONTINUOUS
 10
343.5041855834
 20
29.6582173181
 11
343.5041855834
 21
30.8510716431
  0
LINE
  5
23E
100
AcDbEntity
  8
0
100
AcDbLine
 62
7
  6
CONTINUOUS
 10
343.5041855834
 20
30.8510716431
 11
340.3268173604
 21
30.8510716431
  0
LINE
  5
23F
100
AcDbEntity
  8
0
100
AcDbLine
 62
7
  6
CONTINUOUS
 10
340.3268173604
 20
30.8510716431
 11
340.3268173604
 21
40.1172833779
  0
LWPOLYLINE
  5
240
100
AcDbEntity
  8
0
100
AcDbPolyline
 62
7
  6
CONTINUOUS
 90
2
 70
0
 43
0.2
 10
322.4405451256
 20
26.3146660112
 10
322.4405451256
 20
24.4576027618
  0
LWPOLYLINE
  5
241
100
AcDbEntity
  8
0
100
AcDbPolyline
 62
7
  6
CONTINUOUS
 90
2
 70
0
 43
0.2
 10
322.4405451256
 20
24.4576027618
 10
323.236261136
 20
24.4576027618
  0
LWPOLYLINE
  5
242
100
AcDbEntity
  8
0
100
AcDbPolyline
 62
7
  6
CONTINUOUS
 90
2
 70
0
 43
0.2
 10
323.236261136
 20
24.4576027618
 10
323.236261136
 20
24.6695843334
  0
LWPOLYLINE
  5
243
100
AcDbEntity
  8
0
100
AcDbPolyline
 62
7
  6
CONTINUOUS
 90
2
 70
0
 43
0.2
 10
323.236261136
 20
24.6695843334
 10
322.6721546205
 20
24.6695843334
  0
LWPOLYLINE
  5
244
100
AcDbEntity
  8
0
100
AcDbPolyline
 62
7
  6
CONTINUOUS
 90
2
 70
0
 43
0.2
 10
322.6721546205
 20
24.6695843334
 10
322.6721546205
 20
26.3146660112
  0
LWPOLYLINE
  5
245
100
AcDbEntity
  8
0
100
AcDbPolyline
 62
7
  6
CONTINUOUS
 90
2
 70
0
 43
0.2
 10
322.6721546205
 20
26.3146660112
 10
322.4405451256
 20
26.3146660112
  0
SPLINE
  5
246
100
AcDbEntity
  8
0
100
AcDbSpline
 62
7
  6
CONTINUOUS
 70
2
 71
3
 72
35
 73
31
 74
0
 42
0.0000001
 43
0.0000001
 44
0.0000000001
 40
0.0
 40
0.0
 40
0.0
 40
0.0
 40
1.0
 40
1.0
 40
1.0
 40
2.0
 40
2.0
 40
2.0
 40
3.0
 40
3.0
 40
3.0
 40
4.0
 40
4.0
 40
4.0
 40
5.0
 40
5.0
 40
5.0
 40
6.0
 40
6.0
 40
6.0
 40
7.0
 40
7.0
 40
7.0
 40
8.0
 40
8.0
 40
8.0
 40
9.0
 40
9.0
 40
9.0
 40
10.0
 40
10.0
 40
10.0
 40
10.0
 10
324.6345543915
 20
25.6101544177
 30
0.0
 10
324.6345543915
 20
25.6101544177
 30
0.0
 10
324.6345543915
 20
24.9480391385
 30
0.0
 10
324.6345543915
 20
24.9480391385
 30
0.0
 10
324.6345543915
 20
24.6329455432
 30
0.0
 10
324.7824180804
 20
24.4183469152
 30
0.0
 10
325.1225045647
 20
24.4183469152
 30
0.0
 10
325.4620676377
 20
24.4183469152
 30
0.0
 10
325.6101930321
 20
24.6329455432
 30
0.0
 10
325.6101930321
 20
24.9480391385
 30
0.0
 10
325.6101930321
 20
24.9480391385
 30
0.0
 10
325.6101930321
 20
25.6101544177
 30
0.0
 10
325.6101930321
 20
25.6101544177
 30
0.0
 10
325.6101930321
 20
25.6101544177
 30
0.0
 10
325.3881357933
 20
25.6101544177
 30
0.0
 10
325.3881357933
 20
25.6101544177
 30
0.0
 10
325.3881357933
 20
25.6101544177
 30
0.0
 10
325.3881357933
 20
24.9731628803
 30
0.0
 10
325.3881357933
 20
24.9731628803
 30
0.0
 10
325.3881357933
 20
24.7873518732
 30
0.0
 10
325.3414213358
 20
24.6245709626
 30
0.0
 10
325.1225045647
 20
24.6245709626
 30
0.0
 10
324.9030643822
 20
24.6245709626
 30
0.0
 10
324.8563499248
 20
24.7873518732
 30
0.0
 10
324.8563499248
 20
24.9731628803
 30
0.0
 10
324.8563499248
 20
24.9731628803
 30
0.0
 10
324.8563499248
 20
25.6101544177
 30
0.0
 10
324.8563499248
 20
25.6101544177
 30
0.0
 10
324.8563499248
 20
25.6101544177
 30
0.0
 10
324.6345543915
 20
25.6101544177
 30
0.0
 10
324.6345543915
 20
25.6101544177
 30
0.0
  0
SPLINE
  5
247
100
AcDbEntity
  8
0
100
AcDbSpline
 62
7
  6
CONTINUOUS
 70
2
 71
3
 72
35
 73
31
 74
0
 42
0.0000001
 43
0.0000001
 44
0.0000000001
 40
0.0
 40
0.0
 40
0.0
 40
0.0
 40
1.0
 40
1.0
 40
1.0
 40
2.0
 40
2.0
 40
2.0
 40
3.0
 40
3.0
 40
3.0
 40
4.0
 40
4.0
 40
4.0
 40
5.0
 40
5.0
 40
5.0
 40
6.0
 40
6.0
 40
6.0
 40
7.0
 40
7.0
 40
7.0
 40
8.0
 40
8.0
 40
8.0
 40
9.0
 40
9.0
 40
9.0
 40
10.0
 40
10.0
 40
10.0
 40
10.0
 10
328.0333255893
 20
25.5688049259
 30
0.0
 10
327.9448690817
 20
25.6200992322
 30
0.0
 10
327.831419685
 20
25.645222974
 30
0.0
 10
327.72778425
 20
25.645222974
 30
0.0
 10
327.3729113969
 20
25.645222974
 30
0.0
 10
327.0974662066
 20
25.3814236849
 30
0.0
 10
327.0974662066
 20
25.0239337753
 30
0.0
 10
327.0974662066
 20
24.6790057366
 30
0.0
 10
327.3759210118
 20
24.4188703265
 30
0.0
 10
327.7154840848
 20
24.4188703265
 30
0.0
 10
327.831419685
 20
24.4188703265
 30
0.0
 10
327.9321763579
 20
24.4408536006
 30
0.0
 10
328.0333255893
 20
24.4947649632
 30
0.0
 10
328.0333255893
 20
24.4947649632
 30
0.0
 10
328.0333255893
 20
24.7774070587
 30
0.0
 10
328.0333255893
 20
24.7774070587
 30
0.0
 10
327.9494489304
 20
24.6842398494
 30
0.0
 10
327.8459443483
 20
24.6250943739
 30
0.0
 10
327.7178394356
 20
24.6250943739
 30
0.0
 10
327.4841362955
 20
24.6250943739
 30
0.0
 10
327.3188691814
 20
24.7972966876
 30
0.0
 10
327.3188691814
 20
25.0338785897
 30
0.0
 10
327.3188691814
 20
25.2458601613
 30
0.0
 10
327.4866224991
 20
25.437952104
 30
0.0
 10
327.7034456251
 20
25.437952104
 30
0.0
 10
327.8362612394
 20
25.437952104
 30
0.0
 10
327.9448690817
 20
25.3840407413
 30
0.0
 10
328.0333255893
 20
25.2830223628
 30
0.0
 10
328.0333255893
 20
25.2830223628
 30
0.0
 10
328.0333255893
 20
25.5688049259
 30
0.0
 10
328.0333255893
 20
25.5688049259
 30
0.0
  0
SPLINE
  5
248
100
AcDbEntity
  8
0
100
AcDbSpline
 62
7
  6
CONTINUOUS
 70
2
 71
3
 72
32
 73
28
 74
0
 42
0.0000001
 43
0.0000001
 44
0.0000000001
 40
0.0
 40
0.0
 40
0.0
 40
0.0
 40
1.0
 40
1.0
 40
1.0
 40
2.0
 40
2.0
 40
2.0
 40
3.0
 40
3.0
 40
3.0
 40
4.0
 40
4.0
 40
4.0
 40
5.0
 40
5.0
 40
5.0
 40
6.0
 40
6.0
 40
6.0
 40
7.0
 40
7.0
 40
7.0
 40
8.0
 40
8.0
 40
8.0
 40
9.0
 40
9.0
 40
9.0
 40
9.0
 10
330.5651968416
 20
24.9972397996
 30
0.0
 10
330.5651968416
 20
24.9972397996
 30
0.0
 10
330.5651968416
 20
25.0312615333
 30
0.0
 10
330.5651968416
 20
25.0312615333
 30
0.0
 10
330.5651968416
 20
25.3735725156
 30
0.0
 10
330.3923402638
 20
25.645222974
 30
0.0
 10
330.0256906566
 20
25.645222974
 30
0.0
 10
329.6540686422
 20
25.645222974
 30
0.0
 10
329.4643320504
 20
25.3788066284
 30
0.0
 10
329.4643320504
 20
25.0239337753
 30
0.0
 10
329.4643320504
 20
24.6842398494
 30
0.0
 10
329.6784072671
 20
24.4183469152
 30
0.0
 10
330.030532211
 20
24.4183469152
 30
0.0
 10
330.2545522422
 20
24.4183469152
 30
0.0
 10
330.4567198522
 20
24.5340208098
 30
0.0
 10
330.5651968416
 20
24.7334405105
 30
0.0
 10
330.5651968416
 20
24.7334405105
 30
0.0
 10
330.3775538949
 20
24.8402164132
 30
0.0
 10
330.3775538949
 20
24.8402164132
 30
0.0
 10
330.2940697945
 20
24.7015124219
 30
0.0
 10
330.2028653775
 20
24.6156729707
 30
0.0
 10
330.0332801203
 20
24.6156729707
 30
0.0
 10
329.8212985487
 20
24.6156729707
 30
0.0
 10
329.6883520816
 20
24.8004371554
 30
0.0
 10
329.6859967308
 20
24.9972397996
 30
0.0
 10
329.6859967308
 20
24.9972397996
 30
0.0
 10
330.5651968416
 20
24.9972397996
 30
0.0
 10
330.5651968416
 20
24.9972397996
 30
0.0
  0
SPLINE
  5
249
100
AcDbEntity
  8
0
100
AcDbSpline
 62
7
  6
CONTINUOUS
 70
2
 71
3
 72
14
 73
10
 74
0
 42
0.0000001
 43
0.0000001
 44
0.0000000001
 40
0.0
 40
0.0
 40
0.0
 40
0.0
 40
1.0
 40
1.0
 40
1.0
 40
2.0
 40
2.0
 40
2.0
 40
3.0
 40
3.0
 40
3.0
 40
3.0
 10
329.6980351904
 20
25.1647314117
 30
0.0
 10
329.7256451358
 20
25.3296059674
 30
0.0
 10
329.8534883429
 20
25.45260762
 30
0.0
 10
330.0256906566
 20
25.45260762
 30
0.0
 10
330.2028653775
 20
25.45260762
 30
0.0
 10
330.3163147742
 20
25.3369337254
 30
0.0
 10
330.3435321612
 20
25.1647314117
 30
0.0
 10
330.3435321612
 20
25.1647314117
 30
0.0
 10
329.6980351904
 20
25.1647314117
 30
0.0
 10
329.6980351904
 20
25.1647314117
 30
0.0
  0
SPLINE
  5
24A
100
AcDbEntity
  8
0
100
AcDbSpline
 62
7
  6
CONTINUOUS
 70
2
 71
3
 72
20
 73
16
 74
0
 42
0.0000001
 43
0.0000001
 44
0.0000000001
 40
0.0
 40
0.0
 40
0.0
 40
0.0
 40
1.0
 40
1.0
 40
1.0
 40
2.0
 40
2.0
 40
2.0
 40
3.0
 40
3.0
 40
3.0
 40
4.0
 40
4.0
 40
4.0
 40
5.0
 40
5.0
 40
5.0
 40
5.0
 10
332.5892282918
 20
25.3740959269
 30
0.0
 10
332.5892282918
 20
25.3740959269
 30
0.0
 10
333.0003678584
 20
24.8716210905
 30
0.0
 10
333.0003678584
 20
24.8716210905
 30
0.0
 10
332.8843014053
 20
24.7559471959
 30
0.0
 10
332.7465133838
 20
24.6256177852
 30
0.0
 10
332.5745727757
 20
24.6256177852
 30
0.0
 10
332.3971363491
 20
24.6256177852
 30
0.0
 10
332.229644737
 20
24.7899689296
 30
0.0
 10
332.229644737
 20
24.9668819449
 30
0.0
 10
332.229644737
 20
25.1448417828
 30
0.0
 10
332.4394018106
 20
25.2709839031
 30
0.0
 10
332.566983312
 20
25.3589169995
 30
0.0
 10
332.566983312
 20
25.3589169995
 30
0.0
 10
332.5892282918
 20
25.3740959269
 30
0.0
 10
332.5892282918
 20
25.3740959269
 30
0.0
  0
SPLINE
  5
24B
100
AcDbEntity
  8
0
100
AcDbSpline
 62
7
  6
CONTINUOUS
 70
2
 71
3
 72
23
 73
19
 74
0
 42
0.0000001
 43
0.0000001
 44
0.0000000001
 40
0.0
 40
0.0
 40
0.0
 40
0.0
 40
1.0
 40
1.0
 40
1.0
 40
2.0
 40
2.0
 40
2.0
 40
3.0
 40
3.0
 40
3.0
 40
4.0
 40
4.0
 40
4.0
 40
5.0
 40
5.0
 40
5.0
 40
6.0
 40
6.0
 40
6.0
 40
6.0
 10
332.6385598056
 20
25.6651126029
 30
0.0
 10
332.6385598056
 20
25.6651126029
 30
0.0
 10
332.5769281265
 20
25.7436242961
 30
0.0
 10
332.5769281265
 20
25.7436242961
 30
0.0
 10
332.5230167639
 20
25.8121911748
 30
0.0
 10
332.4662266391
 20
25.8812814648
 30
0.0
 10
332.4662266391
 20
25.9749720853
 30
0.0
 10
332.4662266391
 20
26.0937864477
 30
0.0
 10
332.5621417576
 20
26.1712513183
 30
0.0
 10
332.6731049506
 20
26.1712513183
 30
0.0
 10
332.7963683089
 20
26.1712513183
 30
0.0
 10
332.889666371
 20
26.1000673831
 30
0.0
 10
332.889666371
 20
25.9697379725
 30
0.0
 10
332.889666371
 20
25.8346978602
 30
0.0
 10
332.7615614583
 20
25.7582798122
 30
0.0
 10
332.6680016906
 20
25.6844788206
 30
0.0
 10
332.6680016906
 20
25.6844788206
 30
0.0
 10
332.6385598056
 20
25.6651126029
 30
0.0
 10
332.6385598056
 20
25.6651126029
 30
0.0
  0
SPLINE
  5
24C
100
AcDbEntity
  8
0
100
AcDbSpline
 62
7
  6
CONTINUOUS
 70
2
 71
3
 72
50
 73
46
 74
0
 42
0.0000001
 43
0.0000001
 44
0.0000000001
 40
0.0
 40
0.0
 40
0.0
 40
0.0
 40
1.0
 40
1.0
 40
1.0
 40
2.0
 40
2.0
 40
2.0
 40
3.0
 40
3.0
 40
3.0
 40
4.0
 40
4.0
 40
4.0
 40
5.0
 40
5.0
 40
5.0
 40
6.0
 40
6.0
 40
6.0
 40
7.0
 40
7.0
 40
7.0
 40
8.0
 40
8.0
 40
8.0
 40
9.0
 40
9.0
 40
9.0
 40
10.0
 40
10.0
 40
10.0
 40
11.0
 40
11.0
 40
11.0
 40
12.0
 40
12.0
 40
12.0
 40
13.0
 40
13.0
 40
13.0
 40
14.0
 40
14.0
 40
14.0
 40
15.0
 40
15.0
 40
15.0
 40
15.0
 10
333.3407160483
 20
24.4581261731
 30
0.0
 10
333.3407160483
 20
24.4581261731
 30
0.0
 10
333.626106053
 20
24.4581261731
 30
0.0
 10
333.626106053
 20
24.4581261731
 30
0.0
 10
333.626106053
 20
24.4581261731
 30
0.0
 10
333.2937398852
 20
24.8690040341
 30
0.0
 10
333.2937398852
 20
24.8690040341
 30
0.0
 10
333.2937398852
 20
24.8690040341
 30
0.0
 10
333.5202461201
 20
25.1348969683
 30
0.0
 10
333.5202461201
 20
25.1348969683
 30
0.0
 10
333.5202461201
 20
25.1348969683
 30
0.0
 10
333.3719898728
 20
25.2877330644
 30
0.0
 10
333.3719898728
 20
25.2877330644
 30
0.0
 10
333.3719898728
 20
25.2877330644
 30
0.0
 10
333.1560827165
 20
25.0364956462
 30
0.0
 10
333.1560827165
 20
25.0364956462
 30
0.0
 10
333.1560827165
 20
25.0364956462
 30
0.0
 10
332.7690200692
 20
25.5044253375
 30
0.0
 10
332.7690200692
 20
25.5044253375
 30
0.0
 10
332.9244732216
 20
25.6185289983
 30
0.0
 10
333.1067512026
 20
25.7582798122
 30
0.0
 10
333.1067512026
 20
25.9676443273
 30
0.0
 10
333.1067512026
 20
26.2115539874
 30
0.0
 10
332.9047144455
 20
26.3549686803
 30
0.0
 10
332.6782082107
 20
26.3549686803
 30
0.0
 10
332.4340368449
 20
26.3549686803
 30
0.0
 10
332.2496652188
 20
26.2042262294
 30
0.0
 10
332.2496652188
 20
25.9477546984
 30
0.0
 10
332.2496652188
 20
25.7902079007
 30
0.0
 10
332.3483282465
 20
25.652550732
 30
0.0
 10
332.4536647682
 20
25.541587539
 30
0.0
 10
332.4536647682
 20
25.541587539
 30
0.0
 10
332.3381217264
 20
25.4578417329
 30
0.0
 10
332.3381217264
 20
25.4578417329
 30
0.0
 10
332.1604235942
 20
25.3296059674
 30
0.0
 10
332.0130833166
 20
25.2018936131
 30
0.0
 10
332.0130833166
 20
24.9647882997
 30
0.0
 10
332.0130833166
 20
24.6444605916
 30
0.0
 10
332.2716484929
 20
24.4183469152
 30
0.0
 10
332.5820313866
 20
24.4183469152
 30
0.0
 10
332.8009481577
 20
24.4183469152
 30
0.0
 10
332.9981433604
 20
24.543442213
 30
0.0
 10
333.1384175856
 20
24.7093635913
 30
0.0
 10
333.1384175856
 20
24.7093635913
 30
0.0
 10
333.3407160483
 20
24.4581261731
 30
0.0
 10
333.3407160483
 20
24.4581261731
 30
0.0
  0
LWPOLYLINE
  5
24D
100
AcDbEntity
  8
0
100
AcDbPolyline
 62
7
  6
CONTINUOUS
 90
2
 70
0
 43
0.2
 10
335.276160138
 20
26.3146660112
 10
335.0448123488
 20
26.3146660112
  0
LWPOLYLINE
  5
24E
100
AcDbEntity
  8
0
100
AcDbPolyline
 62
7
  6
CONTINUOUS
 90
2
 70
0
 43
0.2
 10
335.0448123488
 20
26.3146660112
 10
335.0448123488
 20
24.4576027618
  0
LWPOLYLINE
  5
24F
100
AcDbEntity
  8
0
100
AcDbPolyline
 62
7
  6
CONTINUOUS
 90
2
 70
0
 43
0.2
 10
335.0448123488
 20
24.4576027618
 10
335.8401358007
 20
24.4576027618
  0
LWPOLYLINE
  5
250
100
AcDbEntity
  8
0
100
AcDbPolyline
 62
7
  6
CONTINUOUS
 90
2
 70
0
 43
0.2
 10
335.8401358007
 20
24.4576027618
 10
335.8401358007
 20
24.6695843334
  0
LWPOLYLINE
  5
251
100
AcDbEntity
  8
0
100
AcDbPolyline
 62
7
  6
CONTINUOUS
 90
2
 70
0
 43
0.2
 10
335.8401358007
 20
24.6695843334
 10
335.276160138
 20
24.6695843334
  0
LWPOLYLINE
  5
252
100
AcDbEntity
  8
0
100
AcDbPolyline
 62
7
  6
CONTINUOUS
 90
2
 70
0
 43
0.2
 10
335.276160138
 20
24.6695843334
 10
335.276160138
 20
26.3146660112
  0
LWPOLYLINE
  5
253
100
AcDbEntity
  8
0
100
AcDbPolyline
 62
7
  6
CONTINUOUS
 90
2
 70
0
 43
0.2
 10
337.5192392122
 20
25.6101544177
 10
337.2980979431
 20
25.6101544177
  0
LWPOLYLINE
  5
254
100
AcDbEntity
  8
0
100
AcDbPolyline
 62
7
  6
CONTINUOUS
 90
2
 70
0
 43
0.2
 10
337.2980979431
 20
25.6101544177
 10
337.2980979431
 20
24.4581261731
  0
LWPOLYLINE
  5
255
100
AcDbEntity
  8
0
100
AcDbPolyline
 62
7
  6
CONTINUOUS
 90
2
 70
0
 43
0.2
 10
337.2980979431
 20
24.4581261731
 10
337.5192392122
 20
24.4581261731
  0
LWPOLYLINE
  5
256
100
AcDbEntity
  8
0
100
AcDbPolyline
 62
7
  6
CONTINUOUS
 90
2
 70
0
 43
0.2
 10
337.5192392122
 20
24.4581261731
 10
337.5192392122
 20
25.6101544177
  0
LWPOLYLINE
  5
257
100
AcDbEntity
  8
0
100
AcDbPolyline
 62
7
  6
CONTINUOUS
 90
2
 70
1
 43
0.2
 10
337.256215935
 20
26.1401083467
 42
1.0
 10
337.5613829259
 20
26.1401083467
 42
1.0
  0
SPLINE
  5
258
100
AcDbEntity
  8
0
100
AcDbSpline
 62
7
  6
CONTINUOUS
 70
2
 71
3
 72
17
 73
13
 74
0
 42
0.0000001
 43
0.0000001
 44
0.0000000001
 40
0.0
 40
0.0
 40
0.0
 40
0.0
 40
1.0
 40
1.0
 40
1.0
 40
2.0
 40
2.0
 40
2.0
 40
3.0
 40
3.0
 40
3.0
 40
4.0
 40
4.0
 40
4.0
 40
4.0
 10
339.6495231538
 20
24.6156729707
 30
0.0
 10
339.4155583082
 20
24.6156729707
 30
0.0
 10
339.2852288975
 20
24.8177097279
 30
0.0
 10
339.2852288975
 20
25.0338785897
 30
0.0
 10
339.2852288975
 20
25.2484772178
 30
0.0
 10
339.4210541267
 20
25.4473735072
 30
0.0
 10
339.6495231538
 20
25.4473735072
 30
0.0
 10
339.888983818
 20
25.4473735072
 30
0.0
 10
340.0245473416
 20
25.2584220322
 30
0.0
 10
340.0245473416
 20
25.0338785897
 30
0.0
 10
340.0245473416
 20
24.8077649134
 30
0.0
 10
339.8913391688
 20
24.6156729707
 30
0.0
 10
339.6495231538
 20
24.6156729707
 30
0.0
  0
SPLINE
  5
259
100
AcDbEntity
  8
0
100
AcDbSpline
 62
7
  6
CONTINUOUS
 70
2
 71
3
 72
50
 73
46
 74
0
 42
0.0000001
 43
0.0000001
 44
0.0000000001
 40
0.0
 40
0.0
 40
0.0
 40
0.0
 40
1.0
 40
1.0
 40
1.0
 40
2.0
 40
2.0
 40
2.0
 40
3.0
 40
3.0
 40
3.0
 40
4.0
 40
4.0
 40
4.0
 40
5.0
 40
5.0
 40
5.0
 40
6.0
 40
6.0
 40
6.0
 40
7.0
 40
7.0
 40
7.0
 40
8.0
 40
8.0
 40
8.0
 40
9.0
 40
9.0
 40
9.0
 40
10.0
 40
10.0
 40
10.0
 40
11.0
 40
11.0
 40
11.0
 40
12.0
 40
12.0
 40
12.0
 40
13.0
 40
13.0
 40
13.0
 40
14.0
 40
14.0
 40
14.0
 40
15.0
 40
15.0
 40
15.0
 40
15.0
 10
340.2336501511
 20
25.610677829
 30
0.0
 10
340.2336501511
 20
25.610677829
 30
0.0
 10
340.0119854707
 20
25.610677829
 30
0.0
 10
340.0119854707
 20
25.610677829
 30
0.0
 10
340.0119854707
 20
25.610677829
 30
0.0
 10
340.0119854707
 20
25.4133517734
 30
0.0
 10
340.0119854707
 20
25.4133517734
 30
0.0
 10
340.0119854707
 20
25.4133517734
 30
0.0
 10
340.0072747691
 20
25.4133517734
 30
0.0
 10
340.0072747691
 20
25.4133517734
 30
0.0
 10
339.9159394994
 20
25.556243055
 30
0.0
 10
339.778020625
 20
25.6446995627
 30
0.0
 10
339.6052949
 20
25.6446995627
 30
0.0
 10
339.2729287322
 20
25.6446995627
 30
0.0
 10
339.0638259227
 20
25.3568233544
 30
0.0
 10
339.0638259227
 20
25.0412063478
 30
0.0
 10
339.0638259227
 20
24.7114572364
 30
0.0
 10
339.2608902726
 20
24.4183469152
 30
0.0
 10
339.6157631258
 20
24.4183469152
 30
0.0
 10
339.778020625
 20
24.4183469152
 30
0.0
 10
339.9180331445
 20
24.5068034229
 30
0.0
 10
340.0072747691
 20
24.6376562448
 30
0.0
 10
340.0072747691
 20
24.6376562448
 30
0.0
 10
340.0119854707
 20
24.6376562448
 30
0.0
 10
340.0119854707
 20
24.6376562448
 30
0.0
 10
340.0119854707
 20
24.6376562448
 30
0.0
 10
340.0119854707
 20
24.4183469152
 30
0.0
 10
340.0119854707
 20
24.4183469152
 30
0.0
 10
340.0119854707
 20
24.1817650131
 30
0.0
 10
339.9554570516
 20
23.9949071833
 30
0.0
 10
339.6822363593
 20
23.9949071833
 30
0.0
 10
339.4799378966
 20
23.9949071833
 30
0.0
 10
339.3373083206
 20
24.1131981344
 30
0.0
 10
339.3373083206
 20
24.3194221818
 30
0.0
 10
339.3373083206
 20
24.3194221818
 30
0.0
 10
339.1156436402
 20
24.3194221818
 30
0.0
 10
339.1156436402
 20
24.3194221818
 30
0.0
 10
339.1206160475
 20
23.9949071833
 30
0.0
 10
339.351702131
 20
23.7981045391
 30
0.0
 10
339.6720298392
 20
23.7981045391
 30
0.0
 10
340.1200699016
 20
23.7981045391
 30
0.0
 10
340.2336501511
 20
24.083363691
 30
0.0
 10
340.2336501511
 20
24.4801094472
 30
0.0
 10
340.2336501511
 20
24.4801094472
 30
0.0
 10
340.2336501511
 20
25.610677829
 30
0.0
 10
340.2336501511
 20
25.610677829
 30
0.0
  0
SPLINE
  5
25A
100
AcDbEntity
  8
0
100
AcDbSpline
 62
7
  6
CONTINUOUS
 70
2
 71
3
 72
44
 73
40
 74
0
 42
0.0000001
 43
0.0000001
 44
0.0000000001
 40
0.0
 40
0.0
 40
0.0
 40
0.0
 40
1.0
 40
1.0
 40
1.0
 40
2.0
 40
2.0
 40
2.0
 40
3.0
 40
3.0
 40
3.0
 40
4.0
 40
4.0
 40
4.0
 40
5.0
 40
5.0
 40
5.0
 40
6.0
 40
6.0
 40
6.0
 40
7.0
 40
7.0
 40
7.0
 40
8.0
 40
8.0
 40
8.0
 40
9.0
 40
9.0
 40
9.0
 40
10.0
 40
10.0
 40
10.0
 40
11.0
 40
11.0
 40
11.0
 40
12.0
 40
12.0
 40
12.0
 40
13.0
 40
13.0
 40
13.0
 40
13.0
 10
341.8025754865
 20
26.5957378727
 30
0.0
 10
341.8025754865
 20
26.5957378727
 30
0.0
 10
341.8025754865
 20
24.4576027618
 30
0.0
 10
341.8025754865
 20
24.4576027618
 30
0.0
 10
341.8025754865
 20
24.4576027618
 30
0.0
 10
342.0239784613
 20
24.4576027618
 30
0.0
 10
342.0239784613
 20
24.4576027618
 30
0.0
 10
342.0239784613
 20
24.4576027618
 30
0.0
 10
342.0239784613
 20
24.9872949851
 30
0.0
 10
342.0239784613
 20
24.9872949851
 30
0.0
 10
342.0239784613
 20
25.1971829116
 30
0.0
 10
342.0239784613
 20
25.4478969184
 30
0.0
 10
342.3092376132
 20
25.4478969184
 30
0.0
 10
342.5361364065
 20
25.4478969184
 30
0.0
 10
342.5630920878
 20
25.3149504513
 30
0.0
 10
342.5630920878
 20
25.1186712184
 30
0.0
 10
342.5630920878
 20
25.1186712184
 30
0.0
 10
342.5630920878
 20
24.4576027618
 30
0.0
 10
342.5630920878
 20
24.4576027618
 30
0.0
 10
342.5630920878
 20
24.4576027618
 30
0.0
 10
342.7850184738
 20
24.4576027618
 30
0.0
 10
342.7850184738
 20
24.4576027618
 30
0.0
 10
342.7850184738
 20
24.4576027618
 30
0.0
 10
342.7850184738
 20
25.1448417828
 30
0.0
 10
342.7850184738
 20
25.1448417828
 30
0.0
 10
342.7850184738
 20
25.4253902331
 30
0.0
 10
342.7010109621
 20
25.645222974
 30
0.0
 10
342.3759725524
 20
25.645222974
 30
0.0
 10
342.2362217385
 20
25.645222974
 30
0.0
 10
342.0980411585
 20
25.5787497404
 30
0.0
 10
342.0286891629
 20
25.4557480878
 30
0.0
 10
342.0286891629
 20
25.4557480878
 30
0.0
 10
342.0239784613
 20
25.4557480878
 30
0.0
 10
342.0239784613
 20
25.4557480878
 30
0.0
 10
342.0239784613
 20
25.4557480878
 30
0.0
 10
342.0239784613
 20
26.5957378727
 30
0.0
 10
342.0239784613
 20
26.5957378727
 30
0.0
 10
342.0239784613
 20
26.5957378727
 30
0.0
 10
341.8025754865
 20
26.5957378727
 30
0.0
 10
341.8025754865
 20
26.5957378727
 30
0.0
  0
LWPOLYLINE
  5
25B
100
AcDbEntity
  8
0
100
AcDbPolyline
 62
7
  6
CONTINUOUS
 90
2
 70
0
 43
0.2
 10
344.6248091507
 20
25.403406959
 10
344.8412397182
 20
25.403406959
  0
LWPOLYLINE
  5
25C
100
AcDbEntity
  8
0
100
AcDbPolyline
 62
7
  6
CONTINUOUS
 90
2
 70
0
 43
0.2
 10
344.8412397182
 20
25.403406959
 10
344.8412397182
 20
25.6101544177
  0
LWPOLYLINE
  5
25D
100
AcDbEntity
  8
0
100
AcDbPolyline
 62
7
  6
CONTINUOUS
 90
2
 70
0
 43
0.2
 10
344.8412397182
 20
25.6101544177
 10
344.6248091507
 20
25.6101544177
  0
LWPOLYLINE
  5
25E
100
AcDbEntity
  8
0
100
AcDbPolyline
 62
7
  6
CONTINUOUS
 90
2
 70
0
 43
0.2
 10
344.6248091507
 20
25.6101544177
 10
344.6248091507
 20
26.0508667221
  0
LWPOLYLINE
  5
25F
100
AcDbEntity
  8
0
100
AcDbPolyline
 62
7
  6
CONTINUOUS
 90
2
 70
0
 43
0.2
 10
344.6248091507
 20
26.0508667221
 10
344.4031444703
 20
26.0508667221
  0
LWPOLYLINE
  5
260
100
AcDbEntity
  8
0
100
AcDbPolyline
 62
7
  6
CONTINUOUS
 90
2
 70
0
 43
0.2
 10
344.4031444703
 20
26.0508667221
 10
344.4031444703
 20
25.6101544177
  0
LWPOLYLINE
  5
261
100
AcDbEntity
  8
0
100
AcDbPolyline
 62
7
  6
CONTINUOUS
 90
2
 70
0
 43
0.2
 10
344.4031444703
 20
25.6101544177
 10
344.2824981684
 20
25.6101544177
  0
LWPOLYLINE
  5
262
100
AcDbEntity
  8
0
100
AcDbPolyline
 62
7
  6
CONTINUOUS
 90
2
 70
0
 43
0.2
 10
344.2824981684
 20
25.6101544177
 10
344.2824981684
 20
25.403406959
  0
LWPOLYLINE
  5
263
100
AcDbEntity
  8
0
100
AcDbPolyline
 62
7
  6
CONTINUOUS
 90
2
 70
0
 43
0.2
 10
344.2824981684
 20
25.403406959
 10
344.4031444703
 20
25.403406959
  0
LWPOLYLINE
  5
264
100
AcDbEntity
  8
0
100
AcDbPolyline
 62
7
  6
CONTINUOUS
 90
2
 70
0
 43
0.2
 10
344.4031444703
 20
25.403406959
 10
344.4031444703
 20
24.4576027618
  0
LWPOLYLINE
  5
265
100
AcDbEntity
  8
0
100
AcDbPolyline
 62
7
  6
CONTINUOUS
 90
2
 70
0
 43
0.2
 10
344.4031444703
 20
24.4576027618
 10
344.6248091507
 20
24.4576027618
  0
LWPOLYLINE
  5
266
100
AcDbEntity
  8
0
100
AcDbPolyline
 62
7
  6
CONTINUOUS
 90
2
 70
0
 43
0.2
 10
344.6248091507
 20
24.4576027618
 10
344.6248091507
 20
25.403406959
  0
SPLINE
  5
267
100
AcDbEntity
  8
0
100
AcDbSpline
 62
7
  6
CONTINUOUS
 70
2
 71
3
 72
20
 73
16
 74
0
 42
0.0000001
 43
0.0000001
 44
0.0000000001
 40
0.0
 40
0.0
 40
0.0
 40
0.0
 40
1.0
 40
1.0
 40
1.0
 40
2.0
 40
2.0
 40
2.0
 40
3.0
 40
3.0
 40
3.0
 40
4.0
 40
4.0
 40
4.0
 40
5.0
 40
5.0
 40
5.0
 40
5.0
 10
332.4068194579
 20
34.8185292052
 30
0.0
 10
332.4068194579
 20
34.8185292052
 30
0.0
 10
334.7231761124
 20
31.988967783
 30
0.0
 10
334.7231761124
 20
31.988967783
 30
0.0
 10
334.071529059
 20
31.3367973183
 30
0.0
 10
333.294655855
 20
30.6008810475
 30
0.0
 10
332.3234662104
 20
30.6008810475
 30
0.0
 10
331.3249283259
 20
30.6008810475
 30
0.0
 10
330.3816103324
 20
31.5304594948
 30
0.0
 10
330.3816103324
 20
32.5296516433
 30
0.0
 10
330.3816103324
 20
33.5288437919
 30
0.0
 10
331.5604634055
 20
34.2354490305
 30
0.0
 10
332.2819858658
 20
34.7353068104
 30
0.0
 10
332.2819858658
 20
34.7353068104
 30
0.0
 10
332.4068194579
 20
34.8185292052
 30
0.0
 10
332.4068194579
 20
34.8185292052
 30
0.0
  0
SPLINE
  5
268
100
AcDbEntity
  8
0
100
AcDbSpline
 62
7
  6
CONTINUOUS
 70
2
 71
3
 72
23
 73
19
 74
0
 42
0.0000001
 43
0.0000001
 44
0.0000000001
 40
0.0
 40
0.0
 40
0.0
 40
0.0
 40
1.0
 40
1.0
 40
1.0
 40
2.0
 40
2.0
 40
2.0
 40
3.0
 40
3.0
 40
3.0
 40
4.0
 40
4.0
 40
4.0
 40
5.0
 40
5.0
 40
5.0
 40
6.0
 40
6.0
 40
6.0
 40
6.0
 10
332.6842274405
 20
36.4562831249
 30
0.0
 10
332.6842274405
 20
36.4562831249
 30
0.0
 10
332.3377291679
 20
36.8996124858
 30
0.0
 10
332.3377291679
 20
36.8996124858
 30
0.0
 10
332.031926123
 20
37.2877219557
 30
0.0
 10
331.7130377959
 20
37.6762239841
 30
0.0
 10
331.7130377959
 20
38.2031682982
 30
0.0
 10
331.7130377959
 20
38.8693400148
 30
0.0
 10
332.2543759204
 20
39.3130619341
 30
0.0
 10
332.8782821755
 20
39.3130619341
 30
0.0
 10
333.5720638376
 20
39.3130619341
 30
0.0
 10
334.0992698573
 20
38.9108203594
 30
0.0
 10
334.0992698573
 20
38.1758200584
 30
0.0
 10
334.0992698573
 20
37.4125555479
 30
0.0
 10
333.3780091026
 20
36.9824423221
 30
0.0
 10
332.8509339357
 20
36.5667229067
 30
0.0
 10
332.8509339357
 20
36.5667229067
 30
0.0
 10
332.6842274405
 20
36.4562831249
 30
0.0
 10
332.6842274405
 20
36.4562831249
 30
0.0
  0
SPLINE
  5
269
100
AcDbEntity
  8
0
100
AcDbSpline
 62
7
  6
CONTINUOUS
 70
2
 71
3
 72
50
 73
46
 74
0
 42
0.0000001
 43
0.0000001
 44
0.0000000001
 40
0.0
 40
0.0
 40
0.0
 40
0.0
 40
1.0
 40
1.0
 40
1.0
 40
2.0
 40
2.0
 40
2.0
 40
3.0
 40
3.0
 40
3.0
 40
4.0
 40
4.0
 40
4.0
 40
5.0
 40
5.0
 40
5.0
 40
6.0
 40
6.0
 40
6.0
 40
7.0
 40
7.0
 40
7.0
 40
8.0
 40
8.0
 40
8.0
 40
9.0
 40
9.0
 40
9.0
 40
10.0
 40
10.0
 40
10.0
 40
11.0
 40
11.0
 40
11.0
 40
12.0
 40
12.0
 40
12.0
 40
13.0
 40
13.0
 40
13.0
 40
14.0
 40
14.0
 40
14.0
 40
15.0
 40
15.0
 40
15.0
 40
15.0
 10
336.6378146034
 20
29.6576939068
 30
0.0
 10
336.6378146034
 20
29.6576939068
 30
0.0
 10
338.247042608
 20
29.6576939068
 30
0.0
 10
338.247042608
 20
29.6576939068
 30
0.0
 10
338.247042608
 20
29.6576939068
 30
0.0
 10
336.3740153144
 20
31.9748356782
 30
0.0
 10
336.3740153144
 20
31.9748356782
 30
0.0
 10
336.3740153144
 20
31.9748356782
 30
0.0
 10
337.6503537398
 20
33.4723153728
 30
0.0
 10
337.6503537398
 20
33.4723153728
 30
0.0
 10
337.6503537398
 20
33.4723153728
 30
0.0
 10
336.8181297921
 20
34.3333269413
 30
0.0
 10
336.8181297921
 20
34.3333269413
 30
0.0
 10
336.8181297921
 20
34.3333269413
 30
0.0
 10
335.5975346688
 20
32.9180228189
 30
0.0
 10
335.5975346688
 20
32.9180228189
 30
0.0
 10
335.5975346688
 20
32.9180228189
 30
0.0
 10
333.4196203
 20
35.5533986534
 30
0.0
 10
333.4196203
 20
35.5533986534
 30
0.0
 10
334.2931937394
 20
36.1914370133
 30
0.0
 10
335.3198649806
 20
36.9824423221
 30
0.0
 10
335.3198649806
 20
38.1612953952
 30
0.0
 10
335.3198649806
 20
39.5349883202
 30
0.0
 10
334.1819688408
 20
40.3394714696
 30
0.0
 10
332.9066772379
 20
40.3394714696
 30
0.0
 10
331.5332460185
 20
40.3394714696
 30
0.0
 10
330.4923118197
 20
39.49324627
 30
0.0
 10
330.4923118197
 20
38.0505939078
 30
0.0
 10
330.4923118197
 20
37.1630192164
 30
0.0
 10
331.0476511962
 20
36.3861460124
 30
0.0
 10
331.6438166531
 20
35.7617163459
 30
0.0
 10
331.6438166531
 20
35.7617163459
 30
0.0
 10
330.991907894
 20
35.2901227756
 30
0.0
 10
330.991907894
 20
35.2901227756
 30
0.0
 10
329.9933700096
 20
34.5688620209
 30
0.0
 10
329.1604917978
 20
33.8476012662
 30
0.0
 10
329.1604917978
 20
32.5160429498
 30
0.0
 10
329.1604917978
 20
30.7123676518
 30
0.0
 10
330.6175379704
 20
29.4357675207
 30
0.0
 10
332.3650774077
 20
29.4357675207
 30
0.0
 10
333.5999354886
 20
29.4357675207
 30
0.0
 10
334.7093057133
 20
30.1439429932
 30
0.0
 10
335.5001801693
 20
31.0724746179
 30
0.0
 10
335.5001801693
 20
31.0724746179
 30
0.0
 10
336.6378146034
 20
29.6576939068
 30
0.0
 10
336.6378146034
 20
29.6576939068
 30
0.0
  0
LINE
  5
26A
100
AcDbEntity
  8
0
100
AcDbLine
 62
7
  6
CONTINUOUS
 10
322.4406759784
 20
27.6315688114
 11
344.8545867061
 21
27.6315688114
  0
LINE
  5
26B
100
AcDbEntity
  8
0
100
AcDbLine
 62
7
  6
CONTINUOUS
 10
344.8545867061
 20
27.6315688114
 11
344.8545867061
 21
50.0454795391
  0
LINE
  5
26C
100
AcDbEntity
  8
0
100
AcDbLine
 62
7
  6
CONTINUOUS
 10
344.8545867061
 20
50.0454795391
 11
322.4406759784
 21
50.0454795391
  0
LINE
  5
26D
100
AcDbEntity
  8
0
100
AcDbLine
 62
7
  6
CONTINUOUS
 10
322.4406759784
 20
50.0454795391
 11
322.4406759784
 21
27.6315688114
  0
ENDBLK
  5
26E
100
AcDbEntity
  8
0
  6
BYBLOCK
 62
0
100
AcDbBlockEnd
  0
BLOCK
  5
26F
100
AcDbEntity
  8
0
100
AcDbBlockBegin
  2
_CLOSED
 70
64
 10
0.0
 20
0.0
  3
_CLOSED
  1

  0
LINE
  5
270
100
AcDbEntity
  8
0
  6
BYBLOCK
 62
0
100
AcDbLine
 10
0.0
 20
0.0
 11
-1.0
 21
0.2
  0
LINE
  5
271
100
AcDbEntity
  8
0
  6
BYBLOCK
 62
0
100
AcDbLine
 10
-1.0
 20
0.2
 11
-1.0
 21
-0.2
  0
LINE
  5
272
100
AcDbEntity
  8
0
  6
BYBLOCK
 62
0
100
AcDbLine
 10
-1.0
 20
-0.2
 11
0.0
 21
0.0
  0
LINE
  5
273
100
AcDbEntity
  8
0
  6
BYBLOCK
 62
0
100
AcDbLine
 10
-1.0
 20
0.0
 11
0.0
 21
0.0
  0
ENDBLK
  5
274
100
AcDbEntity
  8
0
  6
BYBLOCK
 62
0
100
AcDbBlockEnd
  0
BLOCK
  5
275
100
AcDbEntity
  8
0
100
AcDbBlockBegin
 62
2
  6
CONTINUOUS
  2
*D0
 70
65
 10
0.0
 20
0.0
  3
*D0
  1

  0
MTEXT
  5
276
100
AcDbEntity
  8
0
100
AcDbMText
 62
2
  6
CONTINUOUS
  7
TEXTSTYLE_2
 71
1
 72
1
 10
176.4947966153
 20
114.3678664164
 30
0.0
 11
0.9030286239
 21
0.4295803819
 31
0.0
  1
{\Fgdt;n}\Farial.ttf;109
 40
3.0
 41
10.9925650558
  0
LINE
  5
277
100
AcDbEntity
  8
0
100
AcDbLine
 62
2
  6
CONTINUOUS
 10
168.2869780167
 20
106.3106269715
 11
188.0323239423
 21
115.7036993714
  0
INSERT
  5
278
100
AcDbEntity
  8
0
100
AcDbBlockReference
 62
2
  6
CONTINUOUS
  2
_CLOSED
 10
168.2869780167
 20
106.3106269715
 41
2.5
 42
2.5
 43
2.5
 50
205.440933073
  0
ENDBLK
  5
279
100
AcDbEntity
  8
0
  6
BYBLOCK
 62
0
100
AcDbBlockEnd
  0
BLOCK
  5
27A
100
AcDbEntity
  8
0
100
AcDbBlockBegin
 62
2
  6
CONTINUOUS
  2
*D1
 70
65
 10
0.0
 20
0.0
  3
*D1
  1

  0
MTEXT
  5
27B
100
AcDbEntity
  8
0
100
AcDbMText
 62
2
  6
CONTINUOUS
  7
STANDARD
 71
2
 72
1
 10
42.7686269162
 20
215.8706072074
 30
0.0
 11
0.0
 21
1.0
 31
0.0
  1
72
 40
3.0
 41
4.6617100372
  0
LINE
  5
27C
100
AcDbEntity
  8
0
100
AcDbLine
 62
2
  6
CONTINUOUS
 10
60.4039717273
 20
251.8706072074
 11
45.7686269162
 21
251.8706072074
  0
LINE
  5
27D
100
AcDbEntity
  8
0
100
AcDbLine
 62
2
  6
CONTINUOUS
 10
61.4840773603
 20
179.8706072074
 11
45.7686269162
 21
179.8706072074
  0
LINE
  5
27E
100
AcDbEntity
  8
0
100
AcDbLine
 62
2
  6
CONTINUOUS
 10
46.5186269162
 20
251.8706072074
 11
46.5186269162
 21
215.8706072074
  0
LINE
  5
27F
100
AcDbEntity
  8
0
100
AcDbLine
 62
2
  6
CONTINUOUS
 10
46.5186269162
 20
179.8706072074
 11
46.5186269162
 21
215.8706072074
  0
INSERT
  5
280
100
AcDbEntity
  8
0
100
AcDbBlockReference
 62
2
  6
CONTINUOUS
  2
_CLOSED
 10
46.5186269162
 20
251.8706072074
 41
2.5
 42
2.5
 43
2.5
 50
90.0
  0
INSERT
  5
281
100
AcDbEntity
  8
0
100
AcDbBlockReference
 62
2
  6
CONTINUOUS
  2
_CLOSED
 10
46.5186269162
 20
179.8706072074
 41
2.5
 42
2.5
 43
2.5
 50
270.0
  0
ENDBLK
  5
282
100
AcDbEntity
  8
0
  6
BYBLOCK
 62
0
100
AcDbBlockEnd
  0
BLOCK
  5
283
100
AcDbEntity
  8
0
100
AcDbBlockBegin
 62
2
  6
CONTINUOUS
  2
*D2
 70
65
 10
0.0
 20
0.0
  3
*D2
  1

  0
MTEXT
  5
284
100
AcDbEntity
  8
0
100
AcDbMText
 62
2
  6
CONTINUOUS
  7
STANDARD
 71
1
 72
1
 10
186.0139995277
 20
256.0266558815
 30
0.0
 11
0.0
 21
1.0
 31
0.0
  1
3
 40
3.0
 41
2.3308550186
  0
LINE
  5
285
100
AcDbEntity
  8
0
100
AcDbLine
 62
2
  6
CONTINUOUS
 10
178.0741427107
 20
251.8706072074
 11
190.5139995277
 21
251.8706072074
  0
LINE
  5
286
100
AcDbEntity
  8
0
100
AcDbLine
 62
2
  6
CONTINUOUS
 10
178.0448045571
 20
248.8706072074
 11
190.5139995277
 21
248.8706072074
  0
LINE
  5
287
100
AcDbEntity
  8
0
100
AcDbLine
 62
2
  6
CONTINUOUS
 10
189.7639995277
 20
251.8706072074
 11
189.7639995277
 21
258.3575109001
  0
LINE
  5
288
100
AcDbEntity
  8
0
100
AcDbLine
 62
2
  6
CONTINUOUS
 10
189.7639995277
 20
258.3575109001
 11
189.7639995277
 21
250.3706072074
  0
LINE
  5
289
100
AcDbEntity
  8
0
100
AcDbLine
 62
2
  6
CONTINUOUS
 10
189.7639995277
 20
248.8706072074
 11
189.7639995277
 21
247.8706072074
  0
LINE
  5
28A
100
AcDbEntity
  8
0
100
AcDbLine
 62
2
  6
CONTINUOUS
 10
189.7639995277
 20
247.8706072074
 11
189.7639995277
 21
250.3706072074
  0
INSERT
  5
28B
100
AcDbEntity
  8
0
100
AcDbBlockReference
 62
2
  6
CONTINUOUS
  2
_CLOSED
 10
189.7639995277
 20
251.8706072074
 41
2.5
 42
2.5
 43
2.5
 50
270.0
  0
INSERT
  5
28C
100
AcDbEntity
  8
0
100
AcDbBlockReference
 62
2
  6
CONTINUOUS
  2
_CLOSED
 10
189.7639995277
 20
248.8706072074
 41
2.5
 42
2.5
 43
2.5
 50
90.0
  0
ENDBLK
  5
28D
100
AcDbEntity
  8
0
  6
BYBLOCK
 62
0
100
AcDbBlockEnd
  0
BLOCK
  5
28E
100
AcDbEntity
  8
0
100
AcDbBlockBegin
 62
2
  6
CONTINUOUS
  2
*D3
 70
65
 10
0.0
 20
0.0
  3
*D3
  1

  0
MTEXT
  5
28F
100
AcDbEntity
  8
0
100
AcDbMText
 62
2
  6
CONTINUOUS
  7
TEXTSTYLE_2
 71
2
 72
1
 10
285.0171150454
 20
168.058780437
 30
0.0
 11
1.0
 21
0.0
 31
0.0
  1
{\Fgdt;n}\Farial.ttf;56
 40
3.0
 41
8.6617100372
  0
LINE
  5
290
100
AcDbEntity
  8
0
100
AcDbLine
 62
2
  6
CONTINUOUS
 10
257.0171150454
 20
175.9159353498
 11
257.0171150454
 21
163.558780437
  0
LINE
  5
291
100
AcDbEntity
  8
0
100
AcDbLine
 62
2
  6
CONTINUOUS
 10
313.0171150454
 20
176.196246807
 11
313.0171150454
 21
163.558780437
  0
LINE
  5
292
100
AcDbEntity
  8
0
100
AcDbLine
 62
2
  6
CONTINUOUS
 10
257.0171150454
 20
164.308780437
 11
285.0171150454
 21
164.308780437
  0
LINE
  5
293
100
AcDbEntity
  8
0
100
AcDbLine
 62
2
  6
CONTINUOUS
 10
313.0171150454
 20
164.308780437
 11
285.0171150454
 21
164.308780437
  0
INSERT
  5
294
100
AcDbEntity
  8
0
100
AcDbBlockReference
 62
2
  6
CONTINUOUS
  2
_CLOSED
 10
257.0171150454
 20
164.308780437
 41
2.5
 42
2.5
 43
2.5
 50
180.0
  0
INSERT
  5
295
100
AcDbEntity
  8
0
100
AcDbBlockReference
 62
2
  6
CONTINUOUS
  2
_CLOSED
 10
313.0171150454
 20
164.308780437
 41
2.5
 42
2.5
 43
2.5
  0
ENDBLK
  5
296
100
AcDbEntity
  8
0
  6
BYBLOCK
 62
0
100
AcDbBlockEnd
  0
ENDSEC
  0
SECTION
  2
ENTITIES
  0
DIMENSION
  5
297
100
AcDbEntity
  8
0
100
AcDbDimension
 62
2
  6
CONTINUOUS
  2
*D0
 10
168.2869780167
 20
106.3106269715
 11
182.1024676355
 21
115.3744186279
 70
163
  1
%%c<>
  3
DIMSTYLE_1
100
AcDbDiametricDimension
 15
69.8568580164
 25
59.4863653464
  0
DIMENSION
  5
298
100
AcDbEntity
  8
0
100
AcDbDimension
 62
2
  6
CONTINUOUS
  2
*D1
 10
46.5186269162
 20
179.8706072074
 11
46.5186269162
 21
215.8569852579
 70
160
  3
DIMSTYLE_2
100
AcDbAlignedDimension
 13
61.1539717273
 23
251.8706072074
 14
62.2340773603
 24
179.8706072074
 50
270.0
100
AcDbRotatedDimension
  0
DIMENSION
  5
299
100
AcDbEntity
  8
0
100
AcDbDimension
 62
2
  6
CONTINUOUS
  2
*D2
 10
189.7639995277
 20
248.8706072074
 11
189.7639995277
 21
257.1920862855
 70
160
  3
DIMSTYLE_3
100
AcDbAlignedDimension
 13
177.3241427107
 23
251.8706072074
 14
177.2948045571
 24
248.8706072074
 50
270.0
100
AcDbRotatedDimension
  0
DIMENSION
  5
29A
100
AcDbEntity
  8
0
100
AcDbDimension
 62
2
  6
CONTINUOUS
  2
*D3
 10
313.0171150454
 20
164.308780437
 11
285.0171150454
 21
164.308780437
 70
160
  1
%%c<>
  3
DIMSTYLE_2
100
AcDbAlignedDimension
 13
257.0171150454
 23
176.6659353498
 14
313.0171150454
 24
176.946246807
100
AcDbRotatedDimension
  0
LINE
  5
29B
100
AcDbEntity
  8
0
100
AcDbLine
 62
2
  6
CONTINUOUS
 10
319.8215188711
 20
50.4217920391
 11
409.8215188711
 21
50.4217920391
  0
LINE
  5
29C
100
AcDbEntity
  8
0
100
AcDbLine
 62
2
  6
CONTINUOUS
 10
319.8215188711
 20
50.4217920391
 11
319.8215188711
 21
10.4217920391
  0
LINE
  5
29D
100
AcDbEntity
  8
0
100
AcDbLine
 62
2
  6
CONTINUOUS
 10
349.8215188711
 20
44.4217920391
 11
409.8215188711
 21
44.4217920391
  0
LINE
  5
29E
100
AcDbEntity
  8
0
100
AcDbLine
 62
2
  6
CONTINUOUS
 10
349.8215188711
 20
38.4217920391
 11
409.8215188711
 21
38.4217920391
  0
LINE
  5
29F
100
AcDbEntity
  8
0
100
AcDbLine
 62
2
  6
CONTINUOUS
 10
349.8215188711
 20
28.4217920391
 11
409.8215188711
 21
28.4217920391
  0
LINE
  5
2A0
100
AcDbEntity
  8
0
100
AcDbLine
 62
2
  6
CONTINUOUS
 10
319.8215188711
 20
23.4217920391
 11
409.8215188711
 21
23.4217920391
  0
LINE
  5
2A1
100
AcDbEntity
  8
0
100
AcDbLine
 62
2
  6
CONTINUOUS
 10
319.8215188711
 20
10.4217920391
 11
409.8215188711
 21
10.4217920391
  0
LINE
  5
2A2
100
AcDbEntity
  8
0
100
AcDbLine
 62
2
  6
CONTINUOUS
 10
349.8215188711
 20
50.4217920391
 11
349.8215188711
 21
23.4217920391
  0
LINE
  5
2A3
100
AcDbEntity
  8
0
100
AcDbLine
 62
2
  6
CONTINUOUS
 10
389.8215188711
 20
50.4217920391
 11
389.8215188711
 21
38.4217920391
  0
LINE
  5
2A4
100
AcDbEntity
  8
0
100
AcDbLine
 62
2
  6
CONTINUOUS
 10
409.8215188711
 20
50.4217920391
 11
409.8215188711
 21
10.4217920391
  0
INSERT
  5
2A5
100
AcDbEntity
  8
0
100
AcDbBlockReference
 62
2
  6
CONTINUOUS
  2
LOGO2_BL0
 10
333.6475659158
 20
36.9217920391
  0
MTEXT
  5
2A6
100
AcDbEntity
  8
9_SOLID
100
AcDbMText
 62
2
  6
CONTINUOUS
  7
TEXTSTYLE_3
 71
1
 72
1
 10
351.3090188711
 20
48.9217920391
 30
0.0
 11
1.0
 21
0.0
 31
0.0
  1
2J6_C_001
 40
3.0
 41
31.2857142857
  0
MTEXT
  5
2A7
100
AcDbEntity
  8
0
100
AcDbMText
 62
2
  6
CONTINUOUS
  7
TEXTSTYLE_3
 71
1
 72
1
 10
391.3090188711
 20
49.1717920391
 30
0.0
 11
1.0
 21
0.0
 31
0.0
  1
Rev:00
 40
3.5
 41
22.75
  0
MTEXT
  5
2A8
100
AcDbEntity
  8
9_SOLID
100
AcDbMText
 62
2
  6
CONTINUOUS
  7
TEXTSTYLE_3
 71
1
 72
1
 10
351.3090188711
 20
42.6717920391
 30
0.0
 11
1.0
 21
0.0
 31
0.0
  1
Scale:1:1
 40
3.5
 41
28.375
  0
MTEXT
  5
2A9
100
AcDbEntity
  8
9_SOLID
100
AcDbMText
 62
2
  6
CONTINUOUS
  7
TEXTSTYLE_3
 71
1
 72
1
 10
391.3090188711
 20
43.1717920391
 30
0.0
 11
1.0
 21
0.0
 31
0.0
  1
A3
 40
3.5
 41
9.25
  0
MTEXT
  5
2AA
100
AcDbEntity
  8
0
100
AcDbMText
 62
2
  6
CONTINUOUS
  7
TEXTSTYLE_3
 71
1
 72
1
 10
351.3090188711
 20
35.1717920391
 30
0.0
 11
1.0
 21
0.0
 31
0.0
  1
SMOOTHY 5.4
 40
3.5
 41
46.0
  0
MTEXT
  5
2AB
100
AcDbEntity
  8
0
100
AcDbMText
 62
2
  6
CONTINUOUS
  7
TEXTSTYLE_3
 71
1
 72
1
 10
351.3090188711
 20
27.1717920391
 30
0.0
 11
1.0
 21
0.0
 31
0.0
  1
DATE:06/07/2018
 40
2.5
 41
43.0357142857
  0
MTEXT
  5
2AC
100
AcDbEntity
  8
9_SOLID
100
AcDbMText
 62
2
  6
CONTINUOUS
  7
TEXTSTYLE_3
 71
1
 72
1
 10
321.3090188711
 20
23.1092920391
 30
0.0
 11
1.0
 21
0.0
 31
0.0
  1
Any integral or partial reproductions are prohibited \Pwithout prior authorisation of L {\Ftxt.shx;\W0.190476;\H2.250000; }& L Luce & Light s.r.l., \Pin accordance with the law in force. \PAll rights reserved.
 40
2.25
 41
134.5982142857
  0
LINE
  5
2AD
100
AcDbEntity
  8
0
100
AcDbLine
 62
7
  6
CONTINUOUS
 10
0.0
 20
0.0
 11
0.0
 21
297.0
  0
LINE
  5
2AE
100
AcDbEntity
  8
0
100
AcDbLine
 62
7
  6
CONTINUOUS
 10
0.0
 20
0.0
 11
420.0
 21
0.0
  0
LINE
  5
2AF
100
AcDbEntity
  8
0
100
AcDbLine
 62
7
  6
CONTINUOUS
 10
0.0
 20
297.0
 11
420.0
 21
297.0
  0
LINE
  5
2B0
100
AcDbEntity
  8
0
100
AcDbLine
 62
7
  6
CONTINUOUS
 10
420.0
 20
0.0
 11
420.0
 21
297.0
  0
LINE
  5
2B1
100
AcDbEntity
  8
02___PRT_ALL_AXES
100
AcDbLine
 62
7
  6
CONTINUOUS
 10
64.5719180165
 20
248.8706072074
 11
64.5719180165
 21
249.8706072074
  0
LINE
  5
2B2
100
AcDbEntity
  8
7_ALL_FEATURES
100
AcDbLine
 62
7
  6
CONTINUOUS
 10
71.3219180168
 20
241.8706072076
 11
71.8219180168
 21
242.3706072076
  0
LINE
  5
2B3
100
AcDbEntity
  8
7_ALL_FEATURES
100
AcDbLine
 62
7
  6
CONTINUOUS
 10
71.3219180165
 20
248.5706072074
 11
71.3219180165
 21
242.8706072074
  0
LINE
  5
2B4
100
AcDbEntity
  8
7_ALL_FEATURES
100
AcDbLine
 62
7
  6
CONTINUOUS
 10
71.3219180165
 20
238.8706072074
 11
71.3219180165
 21
241.8706072074
  0
LINE
  5
2B5
100
AcDbEntity
  8
7_ALL_FEATURES
100
AcDbLine
 62
7
  6
CONTINUOUS
 10
92.0719180165
 20
179.8706072074
 11
91.0719180165
 21
180.8706072074
  0
LINE
  5
2B6
100
AcDbEntity
  8
7_ALL_FEATURES
100
AcDbLine
 62
7
  6
CONTINUOUS
 10
83.9519180165
 20
189.8706072074
 11
82.9519180165
 21
190.8706072074
  0
LINE
  5
2B7
100
AcDbEntity
  8
7_ALL_FEATURES
100
AcDbLine
 62
3
  6
CONTINUOUS
 10
82.563702486
 20
189.9626837328
 11
77.9309938405
 21
198.8620342402
  0
LINE
  5
2B8
100
AcDbEntity
  8
7_ALL_FEATURES
100
AcDbLine
 62
7
  6
CONTINUOUS
 10
83.0072079026
 20
190.1935580395
 11
78.3744992571
 21
199.0929085469
  0
LINE
  5
2B9
100
AcDbEntity
  8
7_ALL_FEATURES
100
AcDbLine
 62
7
  6
CONTINUOUS
 10
82.9519180165
 20
237.3706072074
 11
82.9519180165
 21
224.8706072074
  0
LINE
  5
2BA
100
AcDbEntity
  8
7_ALL_FEATURES
100
AcDbLine
 62
7
  6
CONTINUOUS
 10
82.9519180165
 20
222.3706072074
 11
82.9519180165
 21
219.8706072074
  0
LINE
  5
2BB
100
AcDbEntity
  8
7_ALL_FEATURES
100
AcDbLine
 62
7
  6
CONTINUOUS
 10
82.9519180165
 20
217.3706072074
 11
82.9519180165
 21
214.8706072074
  0
LINE
  5
2BC
100
AcDbEntity
  8
7_ALL_FEATURES
100
AcDbLine
 62
7
  6
CONTINUOUS
 10
82.9519180165
 20
212.3706072074
 11
82.9519180165
 21
209.8706072074
  0
LINE
  5
2BD
100
AcDbEntity
  8
7_ALL_FEATURES
100
AcDbLine
 62
7
  6
CONTINUOUS
 10
82.9519180165
 20
207.3706072074
 11
82.9519180165
 21
204.8706072074
  0
LINE
  5
2BE
100
AcDbEntity
  8
7_ALL_FEATURES
100
AcDbLine
 62
7
  6
CONTINUOUS
 10
82.9519180165
 20
202.3706072074
 11
82.9519180165
 21
199.8706072074
  0
LINE
  5
2BF
100
AcDbEntity
  8
7_ALL_FEATURES
100
AcDbLine
 62
7
  6
CONTINUOUS
 10
82.9519180165
 20
197.3706072074
 11
82.9519180165
 21
194.8706072074
  0
LINE
  5
2C0
100
AcDbEntity
  8
7_ALL_FEATURES
100
AcDbLine
 62
7
  6
CONTINUOUS
 10
82.9519180165
 20
192.3706072074
 11
82.9519180165
 21
190.8706072074
  0
LINE
  5
2C1
100
AcDbEntity
  8
3_ALL_AXES
100
AcDbLine
 62
7
  6
CONTINUOUS
 10
83.2719180165
 20
189.3706072074
 11
83.2719180165
 21
188.9906072074
  0
LINE
  5
2C2
100
AcDbEntity
  8
7_ALL_FEATURES
100
AcDbLine
 62
9
  6
CONTINUOUS
 10
83.5394144025
 20
189.3706072074
 11
83.5394144025
 21
189.8706072074
  0
LINE
  5
2C3
100
AcDbEntity
  8
7_ALL_FEATURES
100
AcDbLine
 62
7
  6
CONTINUOUS
 10
84.5719180165
 20
202.3706072074
 11
84.5719180165
 21
204.8706072074
  0
LINE
  5
2C4
100
AcDbEntity
  8
7_ALL_FEATURES
100
AcDbLine
 62
7
  6
CONTINUOUS
 10
84.5719180165
 20
207.3706072074
 11
84.5719180165
 21
209.8706072074
  0
LINE
  5
2C5
100
AcDbEntity
  8
7_ALL_FEATURES
100
AcDbLine
 62
7
  6
CONTINUOUS
 10
84.5719180165
 20
212.3706072074
 11
84.5719180165
 21
214.8706072074
  0
LINE
  5
2C6
100
AcDbEntity
  8
7_ALL_FEATURES
100
AcDbLine
 62
7
  6
CONTINUOUS
 10
84.5719180165
 20
217.3706072074
 11
84.5719180165
 21
219.8706072074
  0
LINE
  5
2C7
100
AcDbEntity
  8
7_ALL_FEATURES
100
AcDbLine
 62
7
  6
CONTINUOUS
 10
84.5719180165
 20
222.3706072074
 11
84.5719180165
 21
224.8706072074
  0
LINE
  5
2C8
100
AcDbEntity
  8
7_ALL_FEATURES
100
AcDbLine
 62
7
  6
CONTINUOUS
 10
146.0719180165
 20
179.8706072074
 11
92.0719180165
 21
179.8706072074
  0
LINE
  5
2C9
100
AcDbEntity
  8
7_ALL_FEATURES
100
AcDbLine
 62
7
  6
CONTINUOUS
 10
147.0719180165
 20
180.8706072074
 11
91.0719180165
 21
180.8706072074
  0
LINE
  5
2CA
100
AcDbEntity
  8
7_ALL_FEATURES
100
AcDbLine
 62
7
  6
CONTINUOUS
 10
78.7021302619
 20
203.3124426597
 11
78.3449927753
 21
203.6695801463
  0
LINE
  5
2CB
100
AcDbEntity
  8
7_ALL_FEATURES
100
AcDbLine
 62
7
  6
CONTINUOUS
 10
80.0843926934
 20
204.7586073529
 11
79.7308393028
 21
205.1121607435
  0
LINE
  5
2CC
100
AcDbEntity
  8
0
100
AcDbLine
 62
2
  6
CONTINUOUS
 10
85.0719180165
 20
194.8706072074
 11
85.0719180165
 21
192.3706072074
  0
LINE
  5
2CD
100
AcDbEntity
  8
3_ALL_AXES
100
AcDbLine
 62
7
  6
CONTINUOUS
 10
85.0719180165
 20
194.8706072074
 11
85.0719180165
 21
192.3706072074
  0
LINE
  5
2CE
100
AcDbEntity
  8
0
100
AcDbLine
 62
2
  6
CONTINUOUS
 10
89.0719180165
 20
194.8706072074
 11
89.0719180165
 21
192.3706072074
  0
LINE
  5
2CF
100
AcDbEntity
  8
3_ALL_AXES
100
AcDbLine
 62
7
  6
CONTINUOUS
 10
89.0719180165
 20
194.8706072074
 11
89.0719180165
 21
192.3706072074
  0
LINE
  5
2D0
100
AcDbEntity
  8
7_ALL_FEATURES
100
AcDbLine
 62
7
  6
CONTINUOUS
 10
91.0719180165
 20
182.6206072074
 11
147.0719180165
 21
182.6206072074
  0
LINE
  5
2D1
100
AcDbEntity
  8
7_ALL_FEATURES
100
AcDbLine
 62
7
  6
CONTINUOUS
 10
147.0719180165
 20
185.1206072074
 11
91.0719180165
 21
185.1206072074
  0
LINE
  5
2D2
100
AcDbEntity
  8
7_ALL_FEATURES
100
AcDbLine
 62
7
  6
CONTINUOUS
 10
89.5719180165
 20
192.3706072074
 11
89.5719180165
 21
194.8706072074
  0
LINE
  5
2D3
100
AcDbEntity
  8
7_ALL_FEATURES
100
AcDbLine
 62
7
  6
CONTINUOUS
 10
89.5719180165
 20
197.3706072074
 11
89.5719180165
 21
199.8706072074
  0
LINE
  5
2D4
100
AcDbEntity
  8
3_ALL_AXES
100
AcDbLine
 62
7
  6
CONTINUOUS
 10
90.8719180165
 20
189.3706072074
 11
90.8719180165
 21
188.9906072074
  0
LINE
  5
2D5
100
AcDbEntity
  8
7_ALL_FEATURES
100
AcDbLine
 62
7
  6
CONTINUOUS
 10
90.8719180165
 20
189.3706072074
 11
90.8719180165
 21
189.8706072074
  0
LINE
  5
2D6
100
AcDbEntity
  8
02___PRT_ALL_AXES
100
AcDbLine
 62
7
  6
CONTINUOUS
 10
91.0719180165
 20
187.3706072074
 11
91.0719180165
 21
185.1206072074
  0
LINE
  5
2D7
100
AcDbEntity
  8
02___PRT_ALL_AXES
100
AcDbLine
 62
7
  6
CONTINUOUS
 10
91.0719180165
 20
182.6206072074
 11
91.0719180165
 21
180.8706072074
  0
LINE
  5
2D8
100
AcDbEntity
  8
7_ALL_FEATURES
100
AcDbLine
 62
7
  6
CONTINUOUS
 10
93.0719180165
 20
182.6206072074
 11
93.0719180165
 21
185.1206072074
  0
LINE
  5
2D9
100
AcDbEntity
  8
7_ALL_FEATURES
100
AcDbLine
 62
7
  6
CONTINUOUS
 10
93.0719180165
 20
187.3706072074
 11
93.0719180165
 21
189.8706072074
  0
LINE
  5
2DA
100
AcDbEntity
  8
3_ALL_AXES
100
AcDbLine
 62
7
  6
CONTINUOUS
 10
85.106952362
 20
187.1706072074
 11
89.0368836711
 21
187.1706072074
  0
LINE
  5
2DB
100
AcDbEntity
  8
3_ALL_AXES
100
AcDbLine
 62
7
  6
CONTINUOUS
 10
117.1069180165
 20
187.1706072074
 11
121.0369180165
 21
187.1706072074
  0
LINE
  5
2DC
100
AcDbEntity
  8
3_ALL_AXES
100
AcDbLine
 62
7
  6
CONTINUOUS
 10
149.106952362
 20
187.1706072074
 11
153.0368836711
 21
187.1706072074
  0
LINE
  5
2DD
100
AcDbEntity
  8
7_ALL_FEATURES
100
AcDbLine
 62
7
  6
CONTINUOUS
 10
91.0719180165
 20
187.3706072074
 11
116.7614469245
 21
187.3706072074
  0
LINE
  5
2DE
100
AcDbEntity
  8
7_ALL_FEATURES
100
AcDbLine
 62
7
  6
CONTINUOUS
 10
121.3823891086
 20
187.3706072074
 11
147.0719180165
 21
187.3706072074
  0
LINE
  5
2DF
100
AcDbEntity
  8
3_ALL_AXES
100
AcDbLine
 62
7
  6
CONTINUOUS
 10
83.2719180165
 20
188.9906072074
 11
90.8719180165
 21
188.9906072074
  0
LINE
  5
2E0
100
AcDbEntity
  8
3_ALL_AXES
100
AcDbLine
 62
7
  6
CONTINUOUS
 10
115.2719180165
 20
188.9906072074
 11
122.8719180165
 21
188.9906072074
  0
LINE
  5
2E1
100
AcDbEntity
  8
3_ALL_AXES
100
AcDbLine
 62
7
  6
CONTINUOUS
 10
147.2719180165
 20
188.9906072074
 11
154.8719180165
 21
188.9906072074
  0
LINE
  5
2E2
100
AcDbEntity
  8
7_ALL_FEATURES
100
AcDbLine
 62
3
  6
CONTINUOUS
 10
154.6044216306
 20
189.3706072074
 11
147.2719180165
 21
189.3706072074
  0
LINE
  5
2E3
100
AcDbEntity
  8
7_ALL_FEATURES
100
AcDbLine
 62
3
  6
CONTINUOUS
 10
90.8719180165
 20
189.3706072074
 11
83.5394144025
 21
189.3706072074
  0
LINE
  5
2E4
100
AcDbEntity
  8
3_ALL_AXES
100
AcDbLine
 62
7
  6
CONTINUOUS
 10
83.2719489699
 20
189.3706072074
 11
83.5394144025
 21
189.3706072074
  0
LINE
  5
2E5
100
AcDbEntity
  8
7_ALL_FEATURES
100
AcDbLine
 62
3
  6
CONTINUOUS
 10
113.5719180165
 20
189.3706072074
 11
117.6886660638
 21
189.3706072074
  0
LINE
  5
2E6
100
AcDbEntity
  8
3_ALL_AXES
100
AcDbLine
 62
7
  6
CONTINUOUS
 10
117.6886660638
 20
189.3706072074
 11
120.4551699693
 21
189.3706072074
  0
LINE
  5
2E7
100
AcDbEntity
  8
7_ALL_FEATURES
100
AcDbLine
 62
3
  6
CONTINUOUS
 10
120.4551699693
 20
189.3706072074
 11
124.5719180165
 21
189.3706072074
  0
LINE
  5
2E8
100
AcDbEntity
  8
3_ALL_AXES
100
AcDbLine
 62
7
  6
CONTINUOUS
 10
154.6044216306
 20
189.3706072074
 11
154.8718870632
 21
189.3706072074
  0
LINE
  5
2E9
100
AcDbEntity
  8
7_ALL_FEATURES
100
AcDbLine
 62
7
  6
CONTINUOUS
 10
154.6044216306
 20
189.8706072074
 11
124.5719180165
 21
189.8706072074
  0
LINE
  5
2EA
100
AcDbEntity
  8
7_ALL_FEATURES
100
AcDbLine
 62
7
  6
CONTINUOUS
 10
113.5719180165
 20
189.8706072074
 11
83.5394144025
 21
189.8706072074
  0
LINE
  5
2EB
100
AcDbEntity
  8
7_ALL_FEATURES
100
AcDbLine
 62
9
  6
CONTINUOUS
 10
113.5719180165
 20
189.9626837328
 11
124.5719180165
 21
189.9626837328
  0
LINE
  5
2EC
100
AcDbEntity
  8
7_ALL_FEATURES
100
AcDbLine
 62
7
  6
CONTINUOUS
 10
82.9519180165
 20
190.8706072074
 11
113.5719180165
 21
190.8706072074
  0
LINE
  5
2ED
100
AcDbEntity
  8
7_ALL_FEATURES
100
AcDbLine
 62
7
  6
CONTINUOUS
 10
124.5719180165
 20
190.8706072074
 11
155.1919180165
 21
190.8706072074
  0
LINE
  5
2EE
100
AcDbEntity
  8
7_ALL_FEATURES
100
AcDbLine
 62
4
  6
CONTINUOUS
 10
116.0719180165
 20
191.751326487
 11
122.0719180165
 21
191.751326487
  0
LINE
  5
2EF
100
AcDbEntity
  8
7_ALL_FEATURES
100
AcDbLine
 62
7
  6
CONTINUOUS
 10
82.9519180165
 20
192.3706072074
 11
113.5719180165
 21
192.3706072074
  0
LINE
  5
2F0
100
AcDbEntity
  8
7_ALL_FEATURES
100
AcDbLine
 62
7
  6
CONTINUOUS
 10
124.5719180165
 20
192.3706072074
 11
155.1919180165
 21
192.3706072074
  0
LINE
  5
2F1
100
AcDbEntity
  8
7_ALL_FEATURES
100
AcDbLine
 62
7
  6
CONTINUOUS
 10
121.6985846832
 20
192.4118538874
 11
120.6885846832
 21
192.4118538874
  0
LINE
  5
2F2
100
AcDbEntity
  8
7_ALL_FEATURES
100
AcDbLine
 62
7
  6
CONTINUOUS
 10
117.6985846832
 20
192.4118538874
 11
116.6885846832
 21
192.4118538874
  0
LINE
  5
2F3
100
AcDbEntity
  8
7_ALL_FEATURES
100
AcDbLine
 62
3
  6
CONTINUOUS
 10
78.7405620745
 20
204.1218835151
 11
79.7308393028
 21
205.1121607435
  0
LINE
  5
2F4
100
AcDbEntity
  8
7_ALL_FEATURES
100
AcDbLine
 62
7
  6
CONTINUOUS
 10
80.0843926934
 20
204.7586073529
 11
79.0941154651
 21
203.7683301245
  0
LINE
  5
2F5
100
AcDbEntity
  8
7_ALL_FEATURES
100
AcDbLine
 62
7
  6
CONTINUOUS
 10
82.9519180165
 20
194.8706072074
 11
113.5719180165
 21
194.8706072074
  0
LINE
  5
2F6
100
AcDbEntity
  8
7_ALL_FEATURES
100
AcDbLine
 62
7
  6
CONTINUOUS
 10
124.5719180165
 20
194.8706072074
 11
155.1919180165
 21
194.8706072074
  0
LINE
  5
2F7
100
AcDbEntity
  8
7_ALL_FEATURES
100
AcDbLine
 62
4
  6
CONTINUOUS
 10
122.0719180165
 20
197.0733914861
 11
116.0719180165
 21
197.0733914861
  0
LINE
  5
2F8
100
AcDbEntity
  8
7_ALL_FEATURES
100
AcDbLine
 62
7
  6
CONTINUOUS
 10
82.9519180165
 20
197.3706072074
 11
113.5719180165
 21
197.3706072074
  0
LINE
  5
2F9
100
AcDbEntity
  8
7_ALL_FEATURES
100
AcDbLine
 62
7
  6
CONTINUOUS
 10
124.5719180165
 20
197.3706072074
 11
155.1919180165
 21
197.3706072074
  0
LINE
  5
2FA
100
AcDbEntity
  8
7_ALL_FEATURES
100
AcDbLine
 62
9
  6
CONTINUOUS
 10
113.5719180165
 20
198.8620342402
 11
124.5719180165
 21
198.8620342402
  0
LINE
  5
2FB
100
AcDbEntity
  8
7_ALL_FEATURES
100
AcDbLine
 62
7
  6
CONTINUOUS
 10
71.3219180167
 20
238.8706072072
 11
71.8219180167
 21
238.3706072072
  0
LINE
  5
2FC
100
AcDbEntity
  8
7_ALL_FEATURES
100
AcDbLine
 62
7
  6
CONTINUOUS
 10
82.9519180165
 20
199.8706072074
 11
113.5719180165
 21
199.8706072074
  0
LINE
  5
2FD
100
AcDbEntity
  8
7_ALL_FEATURES
100
AcDbLine
 62
7
  6
CONTINUOUS
 10
124.5719180165
 20
199.8706072074
 11
155.1919180165
 21
199.8706072074
  0
LINE
  5
2FE
100
AcDbEntity
  8
7_ALL_FEATURES
100
AcDbLine
 62
7
  6
CONTINUOUS
 10
82.9519180165
 20
202.3706072074
 11
113.5719180165
 21
202.3706072074
  0
LINE
  5
2FF
100
AcDbEntity
  8
7_ALL_FEATURES
100
AcDbLine
 62
7
  6
CONTINUOUS
 10
124.5719180165
 20
202.3706072074
 11
155.1919180165
 21
202.3706072074
  0
LINE
  5
300
100
AcDbEntity
  8
03___PRT_ALL_CURVES
100
AcDbLine
 62
40
  6
CONTINUOUS
 10
124.5719180165
 20
189.9626837328
 11
113.5719180165
 21
198.8620342402
  0
LINE
  5
301
100
AcDbEntity
  8
7_ALL_FEATURES
100
AcDbLine
 62
7
  6
CONTINUOUS
 10
71.8219180168
 20
242.3706072071
 11
71.3219180168
 21
242.8706072071
  0
LINE
  5
302
100
AcDbEntity
  8
7_ALL_FEATURES
100
AcDbLine
 62
4
  6
CONTINUOUS
 10
120.0901515602
 20
192.2492352347
 11
118.4108258217
 21
194.0749902216
  0
LINE
  5
303
100
AcDbEntity
  8
7_ALL_FEATURES
100
AcDbLine
 62
7
  6
CONTINUOUS
 10
108.9924537451
 20
237.3706072074
 11
108.9924537451
 21
224.8706072074
  0
LINE
  5
304
100
AcDbEntity
  8
7_ALL_FEATURES
100
AcDbLine
 62
7
  6
CONTINUOUS
 10
108.9924537451
 20
222.3706072074
 11
108.9924537451
 21
219.8706072074
  0
LINE
  5
305
100
AcDbEntity
  8
7_ALL_FEATURES
100
AcDbLine
 62
7
  6
CONTINUOUS
 10
108.9924537451
 20
217.3706072074
 11
108.9924537451
 21
214.8706072074
  0
LINE
  5
306
100
AcDbEntity
  8
7_ALL_FEATURES
100
AcDbLine
 62
7
  6
CONTINUOUS
 10
108.9924537451
 20
212.3706072074
 11
108.9924537451
 21
209.8706072074
  0
LINE
  5
307
100
AcDbEntity
  8
7_ALL_FEATURES
100
AcDbLine
 62
7
  6
CONTINUOUS
 10
108.9924537451
 20
207.3706072074
 11
108.9924537451
 21
204.8706072074
  0
LINE
  5
308
100
AcDbEntity
  8
7_ALL_FEATURES
100
AcDbLine
 62
7
  6
CONTINUOUS
 10
108.9924537451
 20
202.3706072074
 11
108.9924537451
 21
199.8706072074
  0
LINE
  5
309
100
AcDbEntity
  8
7_ALL_FEATURES
100
AcDbLine
 62
7
  6
CONTINUOUS
 10
108.9924537451
 20
197.3706072074
 11
108.9924537451
 21
194.8706072074
  0
LINE
  5
30A
100
AcDbEntity
  8
7_ALL_FEATURES
100
AcDbLine
 62
7
  6
CONTINUOUS
 10
108.9924537451
 20
192.3706072074
 11
108.9924537451
 21
190.8706072074
  0
LINE
  5
30B
100
AcDbEntity
  8
7_ALL_FEATURES
100
AcDbLine
 62
9
  6
CONTINUOUS
 10
114.1714545297
 20
204.1218835151
 11
123.9723815034
 21
204.1218835151
  0
LINE
  5
30C
100
AcDbEntity
  8
7_ALL_FEATURES
100
AcDbLine
 62
7
  6
CONTINUOUS
 10
82.9519180165
 20
204.8706072074
 11
115.2303097298
 21
204.8706072074
  0
LINE
  5
30D
100
AcDbEntity
  8
7_ALL_FEATURES
100
AcDbLine
 62
7
  6
CONTINUOUS
 10
122.9135263033
 20
204.8706072074
 11
155.1919180165
 21
204.8706072074
  0
LINE
  5
30E
100
AcDbEntity
  8
7_ALL_FEATURES
100
AcDbLine
 62
3
  6
CONTINUOUS
 10
122.5719180165
 20
205.1121607435
 11
115.5719180165
 21
205.1121607435
  0
LINE
  5
30F
100
AcDbEntity
  8
7_ALL_FEATURES
100
AcDbLine
 62
7
  6
CONTINUOUS
 10
82.9519180165
 20
207.3706072074
 11
155.1919180165
 21
207.3706072074
  0
LINE
  5
310
100
AcDbEntity
  8
7_ALL_FEATURES
100
AcDbLine
 62
7
  6
CONTINUOUS
 10
82.9519180165
 20
237.3706072074
 11
81.9519180165
 21
238.3706072074
  0
LINE
  5
311
100
AcDbEntity
  8
7_ALL_FEATURES
100
AcDbLine
 62
3
  6
CONTINUOUS
 10
113.5719180165
 20
203.6695801463
 11
113.5719180165
 21
189.3706072074
  0
LINE
  5
312
100
AcDbEntity
  8
3_ALL_AXES
100
AcDbLine
 62
7
  6
CONTINUOUS
 10
115.2719180165
 20
188.9906072074
 11
115.2719180165
 21
189.3706072074
  0
LINE
  5
313
100
AcDbEntity
  8
7_ALL_FEATURES
100
AcDbLine
 62
9
  6
CONTINUOUS
 10
77.9309938405
 20
198.8620342402
 11
78.3744992571
 21
199.0929085469
  0
LINE
  5
314
100
AcDbEntity
  8
7_ALL_FEATURES
100
AcDbLine
 62
7
  6
CONTINUOUS
 10
82.9519180165
 20
209.8706072074
 11
155.1919180165
 21
209.8706072074
  0
LINE
  5
315
100
AcDbEntity
  8
7_ALL_FEATURES
100
AcDbLine
 62
9
  6
CONTINUOUS
 10
155.5801335471
 20
189.9626837328
 11
155.1366281305
 21
190.1935580395
  0
LINE
  5
316
100
AcDbEntity
  8
7_ALL_FEATURES
100
AcDbLine
 62
3
  6
CONTINUOUS
 10
123.9723815034
 20
204.1218835151
 11
122.5719180165
 21
205.1121607435
  0
LINE
  5
317
100
AcDbEntity
  8
7_ALL_FEATURES
100
AcDbLine
 62
4
  6
CONTINUOUS
 10
116.0719180165
 20
197.0733914861
 11
116.0719180165
 21
191.751326487
  0
LINE
  5
318
100
AcDbEntity
  8
7_ALL_FEATURES
100
AcDbLine
 62
7
  6
CONTINUOUS
 10
116.6885846832
 20
194.7210387565
 11
116.6885846832
 21
192.4118538874
  0
LINE
  5
319
100
AcDbEntity
  8
7_ALL_FEATURES
100
AcDbLine
 62
7
  6
CONTINUOUS
 10
82.9519180165
 20
212.3706072074
 11
155.1919180165
 21
212.3706072074
  0
LINE
  5
31A
100
AcDbEntity
  8
7_ALL_FEATURES
100
AcDbLine
 62
7
  6
CONTINUOUS
 10
82.9519180165
 20
214.8706072074
 11
155.1919180165
 21
214.8706072074
  0
LINE
  5
31B
100
AcDbEntity
  8
7_ALL_FEATURES
100
AcDbLine
 62
7
  6
CONTINUOUS
 10
120.6885846832
 20
194.7210387565
 11
120.6885846832
 21
192.4118538874
  0
LINE
  5
31C
100
AcDbEntity
  8
7_ALL_FEATURES
100
AcDbLine
 62
4
  6
CONTINUOUS
 10
122.0719180165
 20
191.751326487
 11
122.0719180165
 21
197.0733914861
  0
LINE
  5
31D
100
AcDbEntity
  8
3_ALL_AXES
100
AcDbLine
 62
7
  6
CONTINUOUS
 10
122.8719180165
 20
188.9906072074
 11
122.8719180165
 21
189.3706072074
  0
LINE
  5
31E
100
AcDbEntity
  8
7_ALL_FEATURES
100
AcDbLine
 62
7
  6
CONTINUOUS
 10
82.9519180165
 20
217.3706072074
 11
155.1919180165
 21
217.3706072074
  0
LINE
  5
31F
100
AcDbEntity
  8
7_ALL_FEATURES
100
AcDbLine
 62
7
  6
CONTINUOUS
 10
82.9519180165
 20
219.8706072074
 11
155.1919180165
 21
219.8706072074
  0
LINE
  5
320
100
AcDbEntity
  8
7_ALL_FEATURES
100
AcDbLine
 62
9
  6
CONTINUOUS
 10
160.2128421926
 20
198.8620342402
 11
159.769336776
 21
199.0929085469
  0
LINE
  5
321
100
AcDbEntity
  8
7_ALL_FEATURES
100
AcDbLine
 62
3
  6
CONTINUOUS
 10
124.5719180165
 20
189.3706072074
 11
124.5719180165
 21
203.6695801463
  0
LINE
  5
322
100
AcDbEntity
  8
7_ALL_FEATURES
100
AcDbLine
 62
3
  6
CONTINUOUS
 10
115.5719180165
 20
205.1121607435
 11
114.1714545297
 21
204.1218835151
  0
LINE
  5
323
100
AcDbEntity
  8
7_ALL_FEATURES
100
AcDbLine
 62
9
  6
CONTINUOUS
 10
82.563702486
 20
189.9626837328
 11
83.0072079026
 21
190.1935580395
  0
LINE
  5
324
100
AcDbEntity
  8
7_ALL_FEATURES
100
AcDbLine
 62
7
  6
CONTINUOUS
 10
82.9519180165
 20
222.3706072074
 11
155.1919180165
 21
222.3706072074
  0
LINE
  5
325
100
AcDbEntity
  8
7_ALL_FEATURES
100
AcDbLine
 62
7
  6
CONTINUOUS
 10
82.9519180165
 20
224.8706072074
 11
155.1919180165
 21
224.8706072074
  0
LINE
  5
326
100
AcDbEntity
  8
7_ALL_FEATURES
100
AcDbLine
 62
7
  6
CONTINUOUS
 10
129.151382288
 20
237.3706072074
 11
129.151382288
 21
224.8706072074
  0
LINE
  5
327
100
AcDbEntity
  8
7_ALL_FEATURES
100
AcDbLine
 62
7
  6
CONTINUOUS
 10
129.151382288
 20
222.3706072074
 11
129.151382288
 21
219.8706072074
  0
LINE
  5
328
100
AcDbEntity
  8
7_ALL_FEATURES
100
AcDbLine
 62
7
  6
CONTINUOUS
 10
129.151382288
 20
217.3706072074
 11
129.151382288
 21
214.8706072074
  0
LINE
  5
329
100
AcDbEntity
  8
7_ALL_FEATURES
100
AcDbLine
 62
7
  6
CONTINUOUS
 10
129.151382288
 20
212.3706072074
 11
129.151382288
 21
209.8706072074
  0
LINE
  5
32A
100
AcDbEntity
  8
7_ALL_FEATURES
100
AcDbLine
 62
7
  6
CONTINUOUS
 10
129.151382288
 20
207.3706072074
 11
129.151382288
 21
204.8706072074
  0
LINE
  5
32B
100
AcDbEntity
  8
7_ALL_FEATURES
100
AcDbLine
 62
7
  6
CONTINUOUS
 10
129.151382288
 20
202.3706072074
 11
129.151382288
 21
199.8706072074
  0
LINE
  5
32C
100
AcDbEntity
  8
7_ALL_FEATURES
100
AcDbLine
 62
7
  6
CONTINUOUS
 10
129.151382288
 20
197.3706072074
 11
129.151382288
 21
194.8706072074
  0
LINE
  5
32D
100
AcDbEntity
  8
7_ALL_FEATURES
100
AcDbLine
 62
7
  6
CONTINUOUS
 10
129.151382288
 20
192.3706072074
 11
129.151382288
 21
190.8706072074
  0
LINE
  5
32E
100
AcDbEntity
  8
7_ALL_FEATURES
100
AcDbLine
 62
7
  6
CONTINUOUS
 10
155.1919180165
 20
237.3706072074
 11
156.1919180165
 21
238.3706072074
  0
LINE
  5
32F
100
AcDbEntity
  8
7_ALL_FEATURES
100
AcDbLine
 62
4
  6
CONTINUOUS
 10
119.484614711
 20
192.7154902734
 11
119.9785170223
 21
193.2284356053
  0
LINE
  5
330
100
AcDbEntity
  8
7_ALL_FEATURES
100
AcDbLine
 62
7
  6
CONTINUOUS
 10
166.3219180163
 20
242.3706072071
 11
166.8219180163
 21
242.8706072071
  0
LINE
  5
331
100
AcDbEntity
  8
7_ALL_FEATURES
100
AcDbLine
 62
7
  6
CONTINUOUS
 10
166.8219180163
 20
238.8706072072
 11
166.3219180164
 21
238.3706072072
  0
LINE
  5
332
100
AcDbEntity
  8
7_ALL_FEATURES
100
AcDbLine
 62
4
  6
CONTINUOUS
 10
118.2887833997
 20
193.3604938937
 11
119.1944796627
 21
194.0159337888
  0
LINE
  5
333
100
AcDbEntity
  8
7_ALL_FEATURES
100
AcDbLine
 62
7
  6
CONTINUOUS
 10
155.1919180165
 20
237.3706072074
 11
82.9519180165
 21
237.3706072074
  0
LINE
  5
334
100
AcDbEntity
  8
7_ALL_FEATURES
100
AcDbLine
 62
7
  6
CONTINUOUS
 10
159.049720568
 20
203.7683301245
 11
158.0594433397
 21
204.7586073529
  0
LINE
  5
335
100
AcDbEntity
  8
7_ALL_FEATURES
100
AcDbLine
 62
3
  6
CONTINUOUS
 10
158.4129967303
 20
205.1121607435
 11
159.4032739586
 21
204.1218835151
  0
LINE
  5
336
100
AcDbEntity
  8
7_ALL_FEATURES
100
AcDbLine
 62
7
  6
CONTINUOUS
 10
145.0719180165
 20
182.6206072074
 11
145.0719180165
 21
185.1206072074
  0
LINE
  5
337
100
AcDbEntity
  8
7_ALL_FEATURES
100
AcDbLine
 62
7
  6
CONTINUOUS
 10
145.0719180165
 20
187.3706072074
 11
145.0719180165
 21
189.8706072074
  0
LINE
  5
338
100
AcDbEntity
  8
7_ALL_FEATURES
100
AcDbLine
 62
7
  6
CONTINUOUS
 10
71.8219180165
 20
238.3706072074
 11
166.3219180165
 21
238.3706072074
  0
LINE
  5
339
100
AcDbEntity
  8
7_ALL_FEATURES
100
AcDbLine
 62
7
  6
CONTINUOUS
 10
71.3219180165
 20
238.8706072074
 11
166.8219180165
 21
238.8706072074
  0
LINE
  5
33A
100
AcDbEntity
  8
7_ALL_FEATURES
100
AcDbLine
 62
7
  6
CONTINUOUS
 10
166.8219180165
 20
241.8706072074
 11
71.3219180165
 21
241.8706072074
  0
LINE
  5
33B
100
AcDbEntity
  8
7_ALL_FEATURES
100
AcDbLine
 62
7
  6
CONTINUOUS
 10
166.3219180165
 20
242.3706072074
 11
71.8219180165
 21
242.3706072074
  0
LINE
  5
33C
100
AcDbEntity
  8
02___PRT_ALL_AXES
100
AcDbLine
 62
7
  6
CONTINUOUS
 10
147.0719180165
 20
187.3706072074
 11
147.0719180165
 21
185.1206072074
  0
LINE
  5
33D
100
AcDbEntity
  8
02___PRT_ALL_AXES
100
AcDbLine
 62
7
  6
CONTINUOUS
 10
147.0719180165
 20
182.6206072074
 11
147.0719180165
 21
180.8706072074
  0
LINE
  5
33E
100
AcDbEntity
  8
3_ALL_AXES
100
AcDbLine
 62
7
  6
CONTINUOUS
 10
147.2719180165
 20
189.3706072074
 11
147.2719180165
 21
188.9906072074
  0
LINE
  5
33F
100
AcDbEntity
  8
7_ALL_FEATURES
100
AcDbLine
 62
7
  6
CONTINUOUS
 10
147.2719180165
 20
189.3706072074
 11
147.2719180165
 21
189.8706072074
  0
LINE
  5
340
100
AcDbEntity
  8
7_ALL_FEATURES
100
AcDbLine
 62
7
  6
CONTINUOUS
 10
148.5719180165
 20
192.3706072074
 11
148.5719180165
 21
194.8706072074
  0
LINE
  5
341
100
AcDbEntity
  8
7_ALL_FEATURES
100
AcDbLine
 62
7
  6
CONTINUOUS
 10
148.5719180165
 20
197.3706072074
 11
148.5719180165
 21
199.8706072074
  0
LINE
  5
342
100
AcDbEntity
  8
0
100
AcDbLine
 62
2
  6
CONTINUOUS
 10
149.0719180165
 20
194.8706072074
 11
149.0719180165
 21
192.3706072074
  0
LINE
  5
343
100
AcDbEntity
  8
3_ALL_AXES
100
AcDbLine
 62
7
  6
CONTINUOUS
 10
149.0719180165
 20
194.8706072074
 11
149.0719180165
 21
192.3706072074
  0
LINE
  5
344
100
AcDbEntity
  8
7_ALL_FEATURES
100
AcDbLine
 62
7
  6
CONTINUOUS
 10
166.8219180165
 20
242.8706072074
 11
71.3219180165
 21
242.8706072074
  0
LINE
  5
345
100
AcDbEntity
  8
0
100
AcDbLine
 62
2
  6
CONTINUOUS
 10
153.0719180165
 20
194.8706072074
 11
153.0719180165
 21
192.3706072074
  0
LINE
  5
346
100
AcDbEntity
  8
3_ALL_AXES
100
AcDbLine
 62
7
  6
CONTINUOUS
 10
153.0719180165
 20
194.8706072074
 11
153.0719180165
 21
192.3706072074
  0
LINE
  5
347
100
AcDbEntity
  8
7_ALL_FEATURES
100
AcDbLine
 62
7
  6
CONTINUOUS
 10
153.5719180165
 20
202.3706072074
 11
153.5719180165
 21
204.8706072074
  0
LINE
  5
348
100
AcDbEntity
  8
7_ALL_FEATURES
100
AcDbLine
 62
7
  6
CONTINUOUS
 10
153.5719180165
 20
207.3706072074
 11
153.5719180165
 21
209.8706072074
  0
LINE
  5
349
100
AcDbEntity
  8
7_ALL_FEATURES
100
AcDbLine
 62
7
  6
CONTINUOUS
 10
153.5719180165
 20
212.3706072074
 11
153.5719180165
 21
214.8706072074
  0
LINE
  5
34A
100
AcDbEntity
  8
7_ALL_FEATURES
100
AcDbLine
 62
7
  6
CONTINUOUS
 10
153.5719180165
 20
217.3706072074
 11
153.5719180165
 21
219.8706072074
  0
LINE
  5
34B
100
AcDbEntity
  8
7_ALL_FEATURES
100
AcDbLine
 62
7
  6
CONTINUOUS
 10
153.5719180165
 20
222.3706072074
 11
153.5719180165
 21
224.8706072074
  0
LINE
  5
34C
100
AcDbEntity
  8
7_ALL_FEATURES
100
AcDbLine
 62
9
  6
CONTINUOUS
 10
166.8219180165
 20
248.5706072074
 11
71.3219180165
 21
248.5706072074
  0
LINE
  5
34D
100
AcDbEntity
  8
02___PRT_ALL_AXES
100
AcDbLine
 62
7
  6
CONTINUOUS
 10
64.5719180165
 20
248.8706072074
 11
173.5719180165
 21
248.8706072074
  0
LINE
  5
34E
100
AcDbEntity
  8
7_ALL_FEATURES
100
AcDbLine
 62
7
  6
CONTINUOUS
 10
64.5719180165
 20
249.8706072074
 11
173.5719180165
 21
249.8706072074
  0
LINE
  5
34F
100
AcDbEntity
  8
7_ALL_FEATURES
100
AcDbLine
 62
9
  6
CONTINUOUS
 10
154.6044216306
 20
189.3706072074
 11
154.6044216306
 21
189.8706072074
  0
LINE
  5
350
100
AcDbEntity
  8
3_ALL_AXES
100
AcDbLine
 62
7
  6
CONTINUOUS
 10
154.8719180165
 20
189.3706072074
 11
154.8719180165
 21
188.9906072074
  0
LINE
  5
351
100
AcDbEntity
  8
7_ALL_FEATURES
100
AcDbLine
 62
7
  6
CONTINUOUS
 10
155.1919180165
 20
237.3706072074
 11
155.1919180165
 21
224.8706072074
  0
LINE
  5
352
100
AcDbEntity
  8
7_ALL_FEATURES
100
AcDbLine
 62
7
  6
CONTINUOUS
 10
155.1919180165
 20
222.3706072074
 11
155.1919180165
 21
219.8706072074
  0
LINE
  5
353
100
AcDbEntity
  8
7_ALL_FEATURES
100
AcDbLine
 62
7
  6
CONTINUOUS
 10
155.1919180165
 20
217.3706072074
 11
155.1919180165
 21
214.8706072074
  0
LINE
  5
354
100
AcDbEntity
  8
7_ALL_FEATURES
100
AcDbLine
 62
7
  6
CONTINUOUS
 10
155.1919180165
 20
212.3706072074
 11
155.1919180165
 21
209.8706072074
  0
LINE
  5
355
100
AcDbEntity
  8
7_ALL_FEATURES
100
AcDbLine
 62
7
  6
CONTINUOUS
 10
155.1919180165
 20
207.3706072074
 11
155.1919180165
 21
204.8706072074
  0
LINE
  5
356
100
AcDbEntity
  8
7_ALL_FEATURES
100
AcDbLine
 62
7
  6
CONTINUOUS
 10
155.1919180165
 20
202.3706072074
 11
155.1919180165
 21
199.8706072074
  0
LINE
  5
357
100
AcDbEntity
  8
7_ALL_FEATURES
100
AcDbLine
 62
7
  6
CONTINUOUS
 10
155.1919180165
 20
197.3706072074
 11
155.1919180165
 21
194.8706072074
  0
LINE
  5
358
100
AcDbEntity
  8
7_ALL_FEATURES
100
AcDbLine
 62
7
  6
CONTINUOUS
 10
155.1919180165
 20
192.3706072074
 11
155.1919180165
 21
190.8706072074
  0
LINE
  5
359
100
AcDbEntity
  8
7_ALL_FEATURES
100
AcDbLine
 62
7
  6
CONTINUOUS
 10
158.0594433397
 20
204.7586073529
 11
158.4129967303
 21
205.1121607435
  0
LINE
  5
35A
100
AcDbEntity
  8
7_ALL_FEATURES
100
AcDbLine
 62
7
  6
CONTINUOUS
 10
159.4417057712
 20
203.3124426597
 11
159.7988432578
 21
203.6695801463
  0
LINE
  5
35B
100
AcDbEntity
  8
7_ALL_FEATURES
100
AcDbLine
 62
7
  6
CONTINUOUS
 10
84.9694959208
 20
251.8706072074
 11
64.5719180165
 21
249.8706072074
  0
LINE
  5
35C
100
AcDbEntity
  8
7_ALL_FEATURES
100
AcDbLine
 62
7
  6
CONTINUOUS
 10
84.9698918342
 20
251.8706072074
 11
153.1739441989
 21
251.8706072074
  0
LINE
  5
35D
100
AcDbEntity
  8
7_ALL_FEATURES
100
AcDbLine
 62
7
  6
CONTINUOUS
 10
153.1743401123
 20
251.8706072074
 11
173.5719180165
 21
249.8706072074
  0
LINE
  5
35E
100
AcDbEntity
  8
7_ALL_FEATURES
100
AcDbLine
 62
7
  6
CONTINUOUS
 10
159.769336776
 20
199.0929085469
 11
155.1366281305
 21
190.1935580395
  0
LINE
  5
35F
100
AcDbEntity
  8
7_ALL_FEATURES
100
AcDbLine
 62
7
  6
CONTINUOUS
 10
154.1919180165
 20
189.8706072074
 11
155.1919180165
 21
190.8706072074
  0
LINE
  5
360
100
AcDbEntity
  8
7_ALL_FEATURES
100
AcDbLine
 62
7
  6
CONTINUOUS
 10
166.8219180165
 20
248.5706072074
 11
166.8219180165
 21
242.8706072074
  0
LINE
  5
361
100
AcDbEntity
  8
7_ALL_FEATURES
100
AcDbLine
 62
7
  6
CONTINUOUS
 10
166.8219180165
 20
238.8706072074
 11
166.8219180165
 21
241.8706072074
  0
LINE
  5
362
100
AcDbEntity
  8
7_ALL_FEATURES
100
AcDbLine
 62
3
  6
CONTINUOUS
 10
160.2128421926
 20
198.8620342402
 11
155.5801335471
 21
189.9626837328
  0
LINE
  5
363
100
AcDbEntity
  8
7_ALL_FEATURES
100
AcDbLine
 62
7
  6
CONTINUOUS
 10
146.0719180165
 20
179.8706072074
 11
147.0719180165
 21
180.8706072074
  0
LINE
  5
364
100
AcDbEntity
  8
7_ALL_FEATURES
100
AcDbLine
 62
7
  6
CONTINUOUS
 10
166.8219180163
 20
241.8706072076
 11
166.3219180163
 21
242.3706072076
  0
LINE
  5
365
100
AcDbEntity
  8
02___PRT_ALL_AXES
100
AcDbLine
 62
7
  6
CONTINUOUS
 10
173.5719180165
 20
248.8706072074
 11
173.5719180165
 21
249.8706072074
  0
LINE
  5
366
100
AcDbEntity
  8
7_ALL_FEATURES
100
AcDbLine
 62
7
  6
CONTINUOUS
 10
230.5171150454
 20
248.8706072074
 11
230.5171150454
 21
249.8706072074
  0
LINE
  5
367
100
AcDbEntity
  8
7_ALL_FEATURES
100
AcDbLine
 62
7
  6
CONTINUOUS
 10
237.7671150454
 20
242.3706072074
 11
237.2671150454
 21
241.8706072074
  0
LINE
  5
368
100
AcDbEntity
  8
02___PRT_ALL_AXES
100
AcDbLine
 62
7
  6
CONTINUOUS
 10
237.2671150454
 20
248.5706072074
 11
237.2671150454
 21
242.8706072074
  0
LINE
  5
369
100
AcDbEntity
  8
02___PRT_ALL_AXES
100
AcDbLine
 62
7
  6
CONTINUOUS
 10
237.2671150454
 20
241.8706072074
 11
237.2671150454
 21
238.8706072074
  0
LINE
  5
36A
100
AcDbEntity
  8
7_ALL_FEATURES
100
AcDbLine
 62
7
  6
CONTINUOUS
 10
258.017115046
 20
179.8706072067
 11
257.017115046
 21
180.8706072067
  0
LINE
  5
36B
100
AcDbEntity
  8
7_ALL_FEATURES
100
AcDbLine
 62
7
  6
CONTINUOUS
 10
249.8971150454
 20
189.8706072074
 11
248.8971150454
 21
190.8706072074
  0
LINE
  5
36C
100
AcDbEntity
  8
7_ALL_FEATURES
100
AcDbLine
 62
3
  6
CONTINUOUS
 10
248.5088995148
 20
189.9626837328
 11
243.8761908694
 21
198.8620342402
  0
LINE
  5
36D
100
AcDbEntity
  8
7_ALL_FEATURES
100
AcDbLine
 62
7
  6
CONTINUOUS
 10
248.9524049314
 20
190.1935580395
 11
244.3196962859
 21
199.0929085469
  0
LINE
  5
36E
100
AcDbEntity
  8
7_ALL_FEATURES
100
AcDbLine
 62
7
  6
CONTINUOUS
 10
248.8971150454
 20
237.3706072074
 11
248.8971150454
 21
224.8706072074
  0
LINE
  5
36F
100
AcDbEntity
  8
7_ALL_FEATURES
100
AcDbLine
 62
7
  6
CONTINUOUS
 10
248.8971150454
 20
222.3706072074
 11
248.8971150454
 21
219.8706072074
  0
LINE
  5
370
100
AcDbEntity
  8
7_ALL_FEATURES
100
AcDbLine
 62
7
  6
CONTINUOUS
 10
248.8971150454
 20
217.3706072074
 11
248.8971150454
 21
214.8706072074
  0
LINE
  5
371
100
AcDbEntity
  8
7_ALL_FEATURES
100
AcDbLine
 62
7
  6
CONTINUOUS
 10
248.8971150454
 20
212.3706072074
 11
248.8971150454
 21
209.8706072074
  0
LINE
  5
372
100
AcDbEntity
  8
7_ALL_FEATURES
100
AcDbLine
 62
7
  6
CONTINUOUS
 10
248.8971150454
 20
207.3706072074
 11
248.8971150454
 21
204.8706072074
  0
LINE
  5
373
100
AcDbEntity
  8
7_ALL_FEATURES
100
AcDbLine
 62
7
  6
CONTINUOUS
 10
248.8971150454
 20
202.3706072074
 11
248.8971150454
 21
199.8706072074
  0
LINE
  5
374
100
AcDbEntity
  8
7_ALL_FEATURES
100
AcDbLine
 62
7
  6
CONTINUOUS
 10
248.8971150454
 20
197.3706072074
 11
248.8971150454
 21
194.8706072074
  0
LINE
  5
375
100
AcDbEntity
  8
7_ALL_FEATURES
100
AcDbLine
 62
7
  6
CONTINUOUS
 10
248.8971150454
 20
192.3706072074
 11
248.8971150454
 21
190.8706072074
  0
LINE
  5
376
100
AcDbEntity
  8
3_ALL_AXES
100
AcDbLine
 62
7
  6
CONTINUOUS
 10
249.2171150454
 20
189.3706072074
 11
249.2171150454
 21
188.9906072074
  0
LINE
  5
377
100
AcDbEntity
  8
7_ALL_FEATURES
100
AcDbLine
 62
9
  6
CONTINUOUS
 10
249.4846114313
 20
189.3706072074
 11
249.4846114313
 21
189.8706072074
  0
LINE
  5
378
100
AcDbEntity
  8
7_ALL_FEATURES
100
AcDbLine
 62
7
  6
CONTINUOUS
 10
250.5171150454
 20
202.3706072074
 11
250.5171150454
 21
204.8706072074
  0
LINE
  5
379
100
AcDbEntity
  8
7_ALL_FEATURES
100
AcDbLine
 62
7
  6
CONTINUOUS
 10
250.5171150454
 20
207.3706072074
 11
250.5171150454
 21
209.8706072074
  0
LINE
  5
37A
100
AcDbEntity
  8
7_ALL_FEATURES
100
AcDbLine
 62
7
  6
CONTINUOUS
 10
250.5171150454
 20
212.3706072074
 11
250.5171150454
 21
214.8706072074
  0
LINE
  5
37B
100
AcDbEntity
  8
7_ALL_FEATURES
100
AcDbLine
 62
7
  6
CONTINUOUS
 10
250.5171150454
 20
217.3706072074
 11
250.5171150454
 21
219.8706072074
  0
LINE
  5
37C
100
AcDbEntity
  8
7_ALL_FEATURES
100
AcDbLine
 62
7
  6
CONTINUOUS
 10
250.5171150454
 20
222.3706072074
 11
250.5171150454
 21
224.8706072074
  0
LINE
  5
37D
100
AcDbEntity
  8
7_ALL_FEATURES
100
AcDbLine
 62
7
  6
CONTINUOUS
 10
312.0171150454
 20
179.8706072074
 11
258.0171150454
 21
179.8706072074
  0
LINE
  5
37E
100
AcDbEntity
  8
7_ALL_FEATURES
100
AcDbLine
 62
7
  6
CONTINUOUS
 10
313.0171150454
 20
180.8706072074
 11
257.0171150454
 21
180.8706072074
  0
LINE
  5
37F
100
AcDbEntity
  8
7_ALL_FEATURES
100
AcDbLine
 62
7
  6
CONTINUOUS
 10
244.6473272907
 20
203.3124426597
 11
244.2901898041
 21
203.6695801463
  0
LINE
  5
380
100
AcDbEntity
  8
7_ALL_FEATURES
100
AcDbLine
 62
7
  6
CONTINUOUS
 10
246.0295897222
 20
204.7586073529
 11
245.6760363316
 21
205.1121607435
  0
LINE
  5
381
100
AcDbEntity
  8
0
100
AcDbLine
 62
2
  6
CONTINUOUS
 10
251.0171150454
 20
194.8706072074
 11
251.0171150454
 21
192.3706072074
  0
LINE
  5
382
100
AcDbEntity
  8
3_ALL_AXES
100
AcDbLine
 62
7
  6
CONTINUOUS
 10
251.0171150454
 20
194.8706072074
 11
251.0171150454
 21
192.3706072074
  0
LINE
  5
383
100
AcDbEntity
  8
0
100
AcDbLine
 62
2
  6
CONTINUOUS
 10
255.0171150454
 20
194.8706072074
 11
255.0171150454
 21
192.3706072074
  0
LINE
  5
384
100
AcDbEntity
  8
3_ALL_AXES
100
AcDbLine
 62
7
  6
CONTINUOUS
 10
255.0171150454
 20
194.8706072074
 11
255.0171150454
 21
192.3706072074
  0
LINE
  5
385
100
AcDbEntity
  8
7_ALL_FEATURES
100
AcDbLine
 62
7
  6
CONTINUOUS
 10
257.0171150454
 20
182.6206072074
 11
313.0171150454
 21
182.6206072074
  0
LINE
  5
386
100
AcDbEntity
  8
7_ALL_FEATURES
100
AcDbLine
 62
7
  6
CONTINUOUS
 10
313.0171150454
 20
185.1206072074
 11
257.0171150454
 21
185.1206072074
  0
LINE
  5
387
100
AcDbEntity
  8
7_ALL_FEATURES
100
AcDbLine
 62
7
  6
CONTINUOUS
 10
255.5171150454
 20
192.3706072074
 11
255.5171150454
 21
194.8706072074
  0
LINE
  5
388
100
AcDbEntity
  8
7_ALL_FEATURES
100
AcDbLine
 62
7
  6
CONTINUOUS
 10
255.5171150454
 20
197.3706072074
 11
255.5171150454
 21
199.8706072074
  0
LINE
  5
389
100
AcDbEntity
  8
3_ALL_AXES
100
AcDbLine
 62
7
  6
CONTINUOUS
 10
256.8171150454
 20
189.3706072074
 11
256.8171150454
 21
188.9906072074
  0
LINE
  5
38A
100
AcDbEntity
  8
7_ALL_FEATURES
100
AcDbLine
 62
7
  6
CONTINUOUS
 10
256.8171150454
 20
189.3706072074
 11
256.8171150454
 21
189.8706072074
  0
LINE
  5
38B
100
AcDbEntity
  8
7_ALL_FEATURES
100
AcDbLine
 62
7
  6
CONTINUOUS
 10
257.0171150454
 20
180.8706072074
 11
257.0171150454
 21
182.6206072074
  0
LINE
  5
38C
100
AcDbEntity
  8
7_ALL_FEATURES
100
AcDbLine
 62
7
  6
CONTINUOUS
 10
257.0171150454
 20
185.1206072074
 11
257.0171150454
 21
187.3706072074
  0
LINE
  5
38D
100
AcDbEntity
  8
7_ALL_FEATURES
100
AcDbLine
 62
7
  6
CONTINUOUS
 10
259.0171150454
 20
182.6206072074
 11
259.0171150454
 21
185.1206072074
  0
LINE
  5
38E
100
AcDbEntity
  8
7_ALL_FEATURES
100
AcDbLine
 62
7
  6
CONTINUOUS
 10
259.0171150454
 20
187.3706072074
 11
259.0171150454
 21
189.8706072074
  0
LINE
  5
38F
100
AcDbEntity
  8
3_ALL_AXES
100
AcDbLine
 62
7
  6
CONTINUOUS
 10
251.0521493908
 20
187.1706072074
 11
254.9820806999
 21
187.1706072074
  0
LINE
  5
390
100
AcDbEntity
  8
3_ALL_AXES
100
AcDbLine
 62
7
  6
CONTINUOUS
 10
283.0521150454
 20
187.1706072074
 11
286.9821150454
 21
187.1706072074
  0
LINE
  5
391
100
AcDbEntity
  8
3_ALL_AXES
100
AcDbLine
 62
7
  6
CONTINUOUS
 10
315.0521493908
 20
187.1706072074
 11
318.9820806999
 21
187.1706072074
  0
LINE
  5
392
100
AcDbEntity
  8
7_ALL_FEATURES
100
AcDbLine
 62
7
  6
CONTINUOUS
 10
257.0171150454
 20
187.3706072074
 11
282.7066439533
 21
187.3706072074
  0
LINE
  5
393
100
AcDbEntity
  8
7_ALL_FEATURES
100
AcDbLine
 62
7
  6
CONTINUOUS
 10
287.3275861374
 20
187.3706072074
 11
313.0171150454
 21
187.3706072074
  0
LINE
  5
394
100
AcDbEntity
  8
3_ALL_AXES
100
AcDbLine
 62
7
  6
CONTINUOUS
 10
249.2171150454
 20
188.9906072074
 11
256.8171150454
 21
188.9906072074
  0
LINE
  5
395
100
AcDbEntity
  8
3_ALL_AXES
100
AcDbLine
 62
7
  6
CONTINUOUS
 10
281.2171150454
 20
188.9906072074
 11
288.8171150454
 21
188.9906072074
  0
LINE
  5
396
100
AcDbEntity
  8
3_ALL_AXES
100
AcDbLine
 62
7
  6
CONTINUOUS
 10
313.2171150454
 20
188.9906072074
 11
320.8171150454
 21
188.9906072074
  0
LINE
  5
397
100
AcDbEntity
  8
7_ALL_FEATURES
100
AcDbLine
 62
3
  6
CONTINUOUS
 10
320.5496186594
 20
189.3706072074
 11
313.2171150454
 21
189.3706072074
  0
LINE
  5
398
100
AcDbEntity
  8
7_ALL_FEATURES
100
AcDbLine
 62
3
  6
CONTINUOUS
 10
256.8171150454
 20
189.3706072074
 11
249.4846114313
 21
189.3706072074
  0
LINE
  5
399
100
AcDbEntity
  8
3_ALL_AXES
100
AcDbLine
 62
7
  6
CONTINUOUS
 10
249.2171459987
 20
189.3706072074
 11
249.4846114313
 21
189.3706072074
  0
LINE
  5
39A
100
AcDbEntity
  8
7_ALL_FEATURES
100
AcDbLine
 62
3
  6
CONTINUOUS
 10
279.5171150454
 20
189.3706072074
 11
283.6338630926
 21
189.3706072074
  0
LINE
  5
39B
100
AcDbEntity
  8
3_ALL_AXES
100
AcDbLine
 62
7
  6
CONTINUOUS
 10
283.6338630926
 20
189.3706072074
 11
286.4003669981
 21
189.3706072074
  0
LINE
  5
39C
100
AcDbEntity
  8
7_ALL_FEATURES
100
AcDbLine
 62
3
  6
CONTINUOUS
 10
286.4003669981
 20
189.3706072074
 11
290.5171150454
 21
189.3706072074
  0
LINE
  5
39D
100
AcDbEntity
  8
3_ALL_AXES
100
AcDbLine
 62
7
  6
CONTINUOUS
 10
320.5496186594
 20
189.3706072074
 11
320.817084092
 21
189.3706072074
  0
LINE
  5
39E
100
AcDbEntity
  8
7_ALL_FEATURES
100
AcDbLine
 62
7
  6
CONTINUOUS
 10
320.5496186594
 20
189.8706072074
 11
290.5171150454
 21
189.8706072074
  0
LINE
  5
39F
100
AcDbEntity
  8
7_ALL_FEATURES
100
AcDbLine
 62
7
  6
CONTINUOUS
 10
279.5171150454
 20
189.8706072074
 11
249.4846114313
 21
189.8706072074
  0
LINE
  5
3A0
100
AcDbEntity
  8
7_ALL_FEATURES
100
AcDbLine
 62
9
  6
CONTINUOUS
 10
279.5171150454
 20
189.9626837328
 11
290.5171150454
 21
189.9626837328
  0
LINE
  5
3A1
100
AcDbEntity
  8
7_ALL_FEATURES
100
AcDbLine
 62
7
  6
CONTINUOUS
 10
248.8971150454
 20
190.8706072074
 11
279.5171150454
 21
190.8706072074
  0
LINE
  5
3A2
100
AcDbEntity
  8
7_ALL_FEATURES
100
AcDbLine
 62
7
  6
CONTINUOUS
 10
290.5171150454
 20
190.8706072074
 11
321.1371150454
 21
190.8706072074
  0
LINE
  5
3A3
100
AcDbEntity
  8
7_ALL_FEATURES
100
AcDbLine
 62
4
  6
CONTINUOUS
 10
282.0171150454
 20
191.751326487
 11
288.0171150454
 21
191.751326487
  0
LINE
  5
3A4
100
AcDbEntity
  8
7_ALL_FEATURES
100
AcDbLine
 62
7
  6
CONTINUOUS
 10
248.8971150454
 20
192.3706072074
 11
279.5171150454
 21
192.3706072074
  0
LINE
  5
3A5
100
AcDbEntity
  8
7_ALL_FEATURES
100
AcDbLine
 62
7
  6
CONTINUOUS
 10
290.5171150454
 20
192.3706072074
 11
321.1371150454
 21
192.3706072074
  0
LINE
  5
3A6
100
AcDbEntity
  8
7_ALL_FEATURES
100
AcDbLine
 62
7
  6
CONTINUOUS
 10
287.643781712
 20
192.4118538874
 11
286.633781712
 21
192.4118538874
  0
LINE
  5
3A7
100
AcDbEntity
  8
7_ALL_FEATURES
100
AcDbLine
 62
7
  6
CONTINUOUS
 10
283.643781712
 20
192.4118538874
 11
282.633781712
 21
192.4118538874
  0
LINE
  5
3A8
100
AcDbEntity
  8
7_ALL_FEATURES
100
AcDbLine
 62
3
  6
CONTINUOUS
 10
244.6857591033
 20
204.1218835151
 11
245.6760363316
 21
205.1121607435
  0
LINE
  5
3A9
100
AcDbEntity
  8
7_ALL_FEATURES
100
AcDbLine
 62
7
  6
CONTINUOUS
 10
246.0295897222
 20
204.7586073529
 11
245.0393124939
 21
203.7683301245
  0
LINE
  5
3AA
100
AcDbEntity
  8
7_ALL_FEATURES
100
AcDbLine
 62
7
  6
CONTINUOUS
 10
248.8971150454
 20
194.8706072074
 11
279.5171150454
 21
194.8706072074
  0
LINE
  5
3AB
100
AcDbEntity
  8
7_ALL_FEATURES
100
AcDbLine
 62
7
  6
CONTINUOUS
 10
290.5171150454
 20
194.8706072074
 11
321.1371150454
 21
194.8706072074
  0
LINE
  5
3AC
100
AcDbEntity
  8
7_ALL_FEATURES
100
AcDbLine
 62
4
  6
CONTINUOUS
 10
288.0171150454
 20
197.0733914861
 11
282.0171150454
 21
197.0733914861
  0
LINE
  5
3AD
100
AcDbEntity
  8
7_ALL_FEATURES
100
AcDbLine
 62
7
  6
CONTINUOUS
 10
248.8971150454
 20
197.3706072074
 11
279.5171150454
 21
197.3706072074
  0
LINE
  5
3AE
100
AcDbEntity
  8
7_ALL_FEATURES
100
AcDbLine
 62
7
  6
CONTINUOUS
 10
290.5171150454
 20
197.3706072074
 11
321.1371150454
 21
197.3706072074
  0
LINE
  5
3AF
100
AcDbEntity
  8
7_ALL_FEATURES
100
AcDbLine
 62
9
  6
CONTINUOUS
 10
279.5171150454
 20
198.8620342402
 11
290.5171150454
 21
198.8620342402
  0
LINE
  5
3B0
100
AcDbEntity
  8
7_ALL_FEATURES
100
AcDbLine
 62
7
  6
CONTINUOUS
 10
237.7671150454
 20
238.3706072074
 11
237.2671150454
 21
238.8706072074
  0
LINE
  5
3B1
100
AcDbEntity
  8
7_ALL_FEATURES
100
AcDbLine
 62
7
  6
CONTINUOUS
 10
248.8971150454
 20
199.8706072074
 11
279.5171150454
 21
199.8706072074
  0
LINE
  5
3B2
100
AcDbEntity
  8
7_ALL_FEATURES
100
AcDbLine
 62
7
  6
CONTINUOUS
 10
290.5171150454
 20
199.8706072074
 11
321.1371150454
 21
199.8706072074
  0
LINE
  5
3B3
100
AcDbEntity
  8
7_ALL_FEATURES
100
AcDbLine
 62
7
  6
CONTINUOUS
 10
248.8971150454
 20
202.3706072074
 11
279.5171150454
 21
202.3706072074
  0
LINE
  5
3B4
100
AcDbEntity
  8
7_ALL_FEATURES
100
AcDbLine
 62
7
  6
CONTINUOUS
 10
290.5171150454
 20
202.3706072074
 11
321.1371150454
 21
202.3706072074
  0
LINE
  5
3B5
100
AcDbEntity
  8
03___PRT_ALL_CURVES
100
AcDbLine
 62
40
  6
CONTINUOUS
 10
290.5171150454
 20
189.9626837328
 11
279.5171150454
 21
198.8620342402
  0
LINE
  5
3B6
100
AcDbEntity
  8
7_ALL_FEATURES
100
AcDbLine
 62
7
  6
CONTINUOUS
 10
237.7671150454
 20
242.3706072074
 11
237.2671150454
 21
242.8706072074
  0
LINE
  5
3B7
100
AcDbEntity
  8
7_ALL_FEATURES
100
AcDbLine
 62
4
  6
CONTINUOUS
 10
286.035348589
 20
192.2492352347
 11
284.3560228505
 21
194.0749902216
  0
LINE
  5
3B8
100
AcDbEntity
  8
7_ALL_FEATURES
100
AcDbLine
 62
7
  6
CONTINUOUS
 10
274.9376507739
 20
237.3706072074
 11
274.9376507739
 21
224.8706072074
  0
LINE
  5
3B9
100
AcDbEntity
  8
7_ALL_FEATURES
100
AcDbLine
 62
7
  6
CONTINUOUS
 10
274.9376507739
 20
222.3706072074
 11
274.9376507739
 21
219.8706072074
  0
LINE
  5
3BA
100
AcDbEntity
  8
7_ALL_FEATURES
100
AcDbLine
 62
7
  6
CONTINUOUS
 10
274.9376507739
 20
217.3706072074
 11
274.9376507739
 21
214.8706072074
  0
LINE
  5
3BB
100
AcDbEntity
  8
7_ALL_FEATURES
100
AcDbLine
 62
7
  6
CONTINUOUS
 10
274.9376507739
 20
212.3706072074
 11
274.9376507739
 21
209.8706072074
  0
LINE
  5
3BC
100
AcDbEntity
  8
7_ALL_FEATURES
100
AcDbLine
 62
7
  6
CONTINUOUS
 10
274.9376507739
 20
207.3706072074
 11
274.9376507739
 21
204.8706072074
  0
LINE
  5
3BD
100
AcDbEntity
  8
7_ALL_FEATURES
100
AcDbLine
 62
7
  6
CONTINUOUS
 10
274.9376507739
 20
202.3706072074
 11
274.9376507739
 21
199.8706072074
  0
LINE
  5
3BE
100
AcDbEntity
  8
7_ALL_FEATURES
100
AcDbLine
 62
7
  6
CONTINUOUS
 10
274.9376507739
 20
197.3706072074
 11
274.9376507739
 21
194.8706072074
  0
LINE
  5
3BF
100
AcDbEntity
  8
7_ALL_FEATURES
100
AcDbLine
 62
7
  6
CONTINUOUS
 10
274.9376507739
 20
192.3706072074
 11
274.9376507739
 21
190.8706072074
  0
LINE
  5
3C0
100
AcDbEntity
  8
7_ALL_FEATURES
100
AcDbLine
 62
9
  6
CONTINUOUS
 10
280.1166515585
 20
204.1218835151
 11
289.9175785322
 21
204.1218835151
  0
LINE
  5
3C1
100
AcDbEntity
  8
7_ALL_FEATURES
100
AcDbLine
 62
7
  6
CONTINUOUS
 10
248.8971150454
 20
204.8706072074
 11
281.1755067586
 21
204.8706072074
  0
LINE
  5
3C2
100
AcDbEntity
  8
7_ALL_FEATURES
100
AcDbLine
 62
7
  6
CONTINUOUS
 10
288.8587233321
 20
204.8706072074
 11
321.1371150454
 21
204.8706072074
  0
LINE
  5
3C3
100
AcDbEntity
  8
7_ALL_FEATURES
100
AcDbLine
 62
3
  6
CONTINUOUS
 10
288.5171150454
 20
205.1121607435
 11
281.5171150454
 21
205.1121607435
  0
LINE
  5
3C4
100
AcDbEntity
  8
7_ALL_FEATURES
100
AcDbLine
 62
7
  6
CONTINUOUS
 10
248.8971150454
 20
207.3706072074
 11
321.1371150454
 21
207.3706072074
  0
LINE
  5
3C5
100
AcDbEntity
  8
7_ALL_FEATURES
100
AcDbLine
 62
7
  6
CONTINUOUS
 10
248.8971150454
 20
237.3706072074
 11
247.8971150454
 21
238.3706072074
  0
LINE
  5
3C6
100
AcDbEntity
  8
7_ALL_FEATURES
100
AcDbLine
 62
3
  6
CONTINUOUS
 10
279.5171150454
 20
203.6695801463
 11
279.5171150454
 21
189.3706072074
  0
LINE
  5
3C7
100
AcDbEntity
  8
3_ALL_AXES
100
AcDbLine
 62
7
  6
CONTINUOUS
 10
281.2171150454
 20
188.9906072074
 11
281.2171150454
 21
189.3706072074
  0
LINE
  5
3C8
100
AcDbEntity
  8
7_ALL_FEATURES
100
AcDbLine
 62
9
  6
CONTINUOUS
 10
243.8761908694
 20
198.8620342402
 11
244.3196962859
 21
199.0929085469
  0
LINE
  5
3C9
100
AcDbEntity
  8
7_ALL_FEATURES
100
AcDbLine
 62
7
  6
CONTINUOUS
 10
248.8971150454
 20
209.8706072074
 11
321.1371150454
 21
209.8706072074
  0
LINE
  5
3CA
100
AcDbEntity
  8
7_ALL_FEATURES
100
AcDbLine
 62
9
  6
CONTINUOUS
 10
321.5253305759
 20
189.9626837328
 11
321.0818251593
 21
190.1935580395
  0
LINE
  5
3CB
100
AcDbEntity
  8
7_ALL_FEATURES
100
AcDbLine
 62
3
  6
CONTINUOUS
 10
289.9175785322
 20
204.1218835151
 11
288.5171150454
 21
205.1121607435
  0
LINE
  5
3CC
100
AcDbEntity
  8
7_ALL_FEATURES
100
AcDbLine
 62
4
  6
CONTINUOUS
 10
282.0171150454
 20
197.0733914861
 11
282.0171150454
 21
191.751326487
  0
LINE
  5
3CD
100
AcDbEntity
  8
7_ALL_FEATURES
100
AcDbLine
 62
7
  6
CONTINUOUS
 10
282.633781712
 20
194.7210387565
 11
282.633781712
 21
192.4118538874
  0
LINE
  5
3CE
100
AcDbEntity
  8
7_ALL_FEATURES
100
AcDbLine
 62
7
  6
CONTINUOUS
 10
248.8971150454
 20
212.3706072074
 11
321.1371150454
 21
212.3706072074
  0
LINE
  5
3CF
100
AcDbEntity
  8
7_ALL_FEATURES
100
AcDbLine
 62
7
  6
CONTINUOUS
 10
248.8971150454
 20
214.8706072074
 11
321.1371150454
 21
214.8706072074
  0
LINE
  5
3D0
100
AcDbEntity
  8
7_ALL_FEATURES
100
AcDbLine
 62
7
  6
CONTINUOUS
 10
286.633781712
 20
194.7210387565
 11
286.633781712
 21
192.4118538874
  0
LINE
  5
3D1
100
AcDbEntity
  8
7_ALL_FEATURES
100
AcDbLine
 62
4
  6
CONTINUOUS
 10
288.0171150454
 20
191.751326487
 11
288.0171150454
 21
197.0733914861
  0
LINE
  5
3D2
100
AcDbEntity
  8
3_ALL_AXES
100
AcDbLine
 62
7
  6
CONTINUOUS
 10
288.8171150454
 20
188.9906072074
 11
288.8171150454
 21
189.3706072074
  0
LINE
  5
3D3
100
AcDbEntity
  8
7_ALL_FEATURES
100
AcDbLine
 62
7
  6
CONTINUOUS
 10
248.8971150454
 20
217.3706072074
 11
321.1371150454
 21
217.3706072074
  0
LINE
  5
3D4
100
AcDbEntity
  8
7_ALL_FEATURES
100
AcDbLine
 62
7
  6
CONTINUOUS
 10
248.8971150454
 20
219.8706072074
 11
321.1371150454
 21
219.8706072074
  0
LINE
  5
3D5
100
AcDbEntity
  8
7_ALL_FEATURES
100
AcDbLine
 62
9
  6
CONTINUOUS
 10
326.1580392214
 20
198.8620342402
 11
325.7145338048
 21
199.0929085469
  0
LINE
  5
3D6
100
AcDbEntity
  8
7_ALL_FEATURES
100
AcDbLine
 62
3
  6
CONTINUOUS
 10
290.5171150454
 20
189.3706072074
 11
290.5171150454
 21
203.6695801463
  0
LINE
  5
3D7
100
AcDbEntity
  8
7_ALL_FEATURES
100
AcDbLine
 62
3
  6
CONTINUOUS
 10
281.5171150454
 20
205.1121607435
 11
280.1166515585
 21
204.1218835151
  0
LINE
  5
3D8
100
AcDbEntity
  8
7_ALL_FEATURES
100
AcDbLine
 62
9
  6
CONTINUOUS
 10
248.5088995148
 20
189.9626837328
 11
248.9524049314
 21
190.1935580395
  0
LINE
  5
3D9
100
AcDbEntity
  8
7_ALL_FEATURES
100
AcDbLine
 62
7
  6
CONTINUOUS
 10
248.8971150454
 20
222.3706072074
 11
321.1371150454
 21
222.3706072074
  0
LINE
  5
3DA
100
AcDbEntity
  8
7_ALL_FEATURES
100
AcDbLine
 62
7
  6
CONTINUOUS
 10
248.8971150454
 20
224.8706072074
 11
321.1371150454
 21
224.8706072074
  0
LINE
  5
3DB
100
AcDbEntity
  8
7_ALL_FEATURES
100
AcDbLine
 62
7
  6
CONTINUOUS
 10
295.0965793168
 20
237.3706072074
 11
295.0965793168
 21
224.8706072074
  0
LINE
  5
3DC
100
AcDbEntity
  8
7_ALL_FEATURES
100
AcDbLine
 62
7
  6
CONTINUOUS
 10
295.0965793168
 20
222.3706072074
 11
295.0965793168
 21
219.8706072074
  0
LINE
  5
3DD
100
AcDbEntity
  8
7_ALL_FEATURES
100
AcDbLine
 62
7
  6
CONTINUOUS
 10
295.0965793168
 20
217.3706072074
 11
295.0965793168
 21
214.8706072074
  0
LINE
  5
3DE
100
AcDbEntity
  8
7_ALL_FEATURES
100
AcDbLine
 62
7
  6
CONTINUOUS
 10
295.0965793168
 20
212.3706072074
 11
295.0965793168
 21
209.8706072074
  0
LINE
  5
3DF
100
AcDbEntity
  8
7_ALL_FEATURES
100
AcDbLine
 62
7
  6
CONTINUOUS
 10
295.0965793168
 20
207.3706072074
 11
295.0965793168
 21
204.8706072074
  0
LINE
  5
3E0
100
AcDbEntity
  8
7_ALL_FEATURES
100
AcDbLine
 62
7
  6
CONTINUOUS
 10
295.0965793168
 20
202.3706072074
 11
295.0965793168
 21
199.8706072074
  0
LINE
  5
3E1
100
AcDbEntity
  8
7_ALL_FEATURES
100
AcDbLine
 62
7
  6
CONTINUOUS
 10
295.0965793168
 20
197.3706072074
 11
295.0965793168
 21
194.8706072074
  0
LINE
  5
3E2
100
AcDbEntity
  8
7_ALL_FEATURES
100
AcDbLine
 62
7
  6
CONTINUOUS
 10
295.0965793168
 20
192.3706072074
 11
295.0965793168
 21
190.8706072074
  0
LINE
  5
3E3
100
AcDbEntity
  8
7_ALL_FEATURES
100
AcDbLine
 62
7
  6
CONTINUOUS
 10
321.1371150454
 20
237.3706072074
 11
322.1371150454
 21
238.3706072074
  0
LINE
  5
3E4
100
AcDbEntity
  8
7_ALL_FEATURES
100
AcDbLine
 62
4
  6
CONTINUOUS
 10
285.4298117399
 20
192.7154902734
 11
285.9237140511
 21
193.2284356053
  0
LINE
  5
3E5
100
AcDbEntity
  8
7_ALL_FEATURES
100
AcDbLine
 62
7
  6
CONTINUOUS
 10
332.2671150454
 20
242.3706072074
 11
332.7671150454
 21
242.8706072074
  0
LINE
  5
3E6
100
AcDbEntity
  8
7_ALL_FEATURES
100
AcDbLine
 62
7
  6
CONTINUOUS
 10
332.2671150454
 20
238.3706072074
 11
332.7671150454
 21
238.8706072074
  0
LINE
  5
3E7
100
AcDbEntity
  8
7_ALL_FEATURES
100
AcDbLine
 62
4
  6
CONTINUOUS
 10
284.2339804286
 20
193.3604938937
 11
285.1396766915
 21
194.0159337888
  0
LINE
  5
3E8
100
AcDbEntity
  8
7_ALL_FEATURES
100
AcDbLine
 62
7
  6
CONTINUOUS
 10
321.1371150454
 20
237.3706072074
 11
248.8971150454
 21
237.3706072074
  0
LINE
  5
3E9
100
AcDbEntity
  8
7_ALL_FEATURES
100
AcDbLine
 62
7
  6
CONTINUOUS
 10
324.9949175968
 20
203.7683301245
 11
324.0046403685
 21
204.7586073529
  0
LINE
  5
3EA
100
AcDbEntity
  8
7_ALL_FEATURES
100
AcDbLine
 62
3
  6
CONTINUOUS
 10
324.3581937591
 20
205.1121607435
 11
325.3484709874
 21
204.1218835151
  0
LINE
  5
3EB
100
AcDbEntity
  8
7_ALL_FEATURES
100
AcDbLine
 62
7
  6
CONTINUOUS
 10
311.0171150454
 20
182.6206072074
 11
311.0171150454
 21
185.1206072074
  0
LINE
  5
3EC
100
AcDbEntity
  8
7_ALL_FEATURES
100
AcDbLine
 62
7
  6
CONTINUOUS
 10
311.0171150454
 20
187.3706072074
 11
311.0171150454
 21
189.8706072074
  0
LINE
  5
3ED
100
AcDbEntity
  8
7_ALL_FEATURES
100
AcDbLine
 62
7
  6
CONTINUOUS
 10
237.7675000067
 20
238.3706072074
 11
332.266730084
 21
238.3706072074
  0
LINE
  5
3EE
100
AcDbEntity
  8
7_ALL_FEATURES
100
AcDbLine
 62
7
  6
CONTINUOUS
 10
237.2671150454
 20
238.8706072074
 11
332.7671150454
 21
238.8706072074
  0
LINE
  5
3EF
100
AcDbEntity
  8
7_ALL_FEATURES
100
AcDbLine
 62
7
  6
CONTINUOUS
 10
332.7671150454
 20
241.8706072074
 11
237.2671150454
 21
241.8706072074
  0
LINE
  5
3F0
100
AcDbEntity
  8
7_ALL_FEATURES
100
AcDbLine
 62
7
  6
CONTINUOUS
 10
332.2671150454
 20
242.3706072074
 11
237.7671150454
 21
242.3706072074
  0
LINE
  5
3F1
100
AcDbEntity
  8
7_ALL_FEATURES
100
AcDbLine
 62
7
  6
CONTINUOUS
 10
313.0171150454
 20
180.8706072074
 11
313.0171150454
 21
182.6206072074
  0
LINE
  5
3F2
100
AcDbEntity
  8
7_ALL_FEATURES
100
AcDbLine
 62
7
  6
CONTINUOUS
 10
313.0171150454
 20
185.1206072074
 11
313.0171150454
 21
187.3706072074
  0
LINE
  5
3F3
100
AcDbEntity
  8
3_ALL_AXES
100
AcDbLine
 62
7
  6
CONTINUOUS
 10
313.2171150454
 20
189.3706072074
 11
313.2171150454
 21
188.9906072074
  0
LINE
  5
3F4
100
AcDbEntity
  8
7_ALL_FEATURES
100
AcDbLine
 62
7
  6
CONTINUOUS
 10
313.2171150454
 20
189.3706072074
 11
313.2171150454
 21
189.8706072074
  0
LINE
  5
3F5
100
AcDbEntity
  8
7_ALL_FEATURES
100
AcDbLine
 62
7
  6
CONTINUOUS
 10
314.5171150454
 20
192.3706072074
 11
314.5171150454
 21
194.8706072074
  0
LINE
  5
3F6
100
AcDbEntity
  8
7_ALL_FEATURES
100
AcDbLine
 62
7
  6
CONTINUOUS
 10
314.5171150454
 20
197.3706072074
 11
314.5171150454
 21
199.8706072074
  0
LINE
  5
3F7
100
AcDbEntity
  8
0
100
AcDbLine
 62
2
  6
CONTINUOUS
 10
315.0171150454
 20
194.8706072074
 11
315.0171150454
 21
192.3706072074
  0
LINE
  5
3F8
100
AcDbEntity
  8
3_ALL_AXES
100
AcDbLine
 62
7
  6
CONTINUOUS
 10
315.0171150454
 20
194.8706072074
 11
315.0171150454
 21
192.3706072074
  0
LINE
  5
3F9
100
AcDbEntity
  8
7_ALL_FEATURES
100
AcDbLine
 62
7
  6
CONTINUOUS
 10
332.7671150454
 20
242.8706072074
 11
237.2671150454
 21
242.8706072074
  0
LINE
  5
3FA
100
AcDbEntity
  8
0
100
AcDbLine
 62
2
  6
CONTINUOUS
 10
319.0171150454
 20
194.8706072074
 11
319.0171150454
 21
192.3706072074
  0
LINE
  5
3FB
100
AcDbEntity
  8
3_ALL_AXES
100
AcDbLine
 62
7
  6
CONTINUOUS
 10
319.0171150454
 20
194.8706072074
 11
319.0171150454
 21
192.3706072074
  0
LINE
  5
3FC
100
AcDbEntity
  8
7_ALL_FEATURES
100
AcDbLine
 62
7
  6
CONTINUOUS
 10
319.5171150454
 20
202.3706072074
 11
319.5171150454
 21
204.8706072074
  0
LINE
  5
3FD
100
AcDbEntity
  8
7_ALL_FEATURES
100
AcDbLine
 62
7
  6
CONTINUOUS
 10
319.5171150454
 20
207.3706072074
 11
319.5171150454
 21
209.8706072074
  0
LINE
  5
3FE
100
AcDbEntity
  8
7_ALL_FEATURES
100
AcDbLine
 62
7
  6
CONTINUOUS
 10
319.5171150454
 20
212.3706072074
 11
319.5171150454
 21
214.8706072074
  0
LINE
  5
3FF
100
AcDbEntity
  8
7_ALL_FEATURES
100
AcDbLine
 62
7
  6
CONTINUOUS
 10
319.5171150454
 20
217.3706072074
 11
319.5171150454
 21
219.8706072074
  0
LINE
  5
400
100
AcDbEntity
  8
7_ALL_FEATURES
100
AcDbLine
 62
7
  6
CONTINUOUS
 10
319.5171150454
 20
222.3706072074
 11
319.5171150454
 21
224.8706072074
  0
LINE
  5
401
100
AcDbEntity
  8
7_ALL_FEATURES
100
AcDbLine
 62
9
  6
CONTINUOUS
 10
332.7671150454
 20
248.5706072074
 11
237.2671150454
 21
248.5706072074
  0
LINE
  5
402
100
AcDbEntity
  8
02___PRT_ALL_AXES
100
AcDbLine
 62
7
  6
CONTINUOUS
 10
230.5171150454
 20
248.8706072074
 11
339.5171150454
 21
248.8706072074
  0
LINE
  5
403
100
AcDbEntity
  8
7_ALL_FEATURES
100
AcDbLine
 62
7
  6
CONTINUOUS
 10
230.5171150454
 20
249.8706072074
 11
339.5171150454
 21
249.8706072074
  0
LINE
  5
404
100
AcDbEntity
  8
7_ALL_FEATURES
100
AcDbLine
 62
9
  6
CONTINUOUS
 10
320.5496186594
 20
189.3706072074
 11
320.5496186594
 21
189.8706072074
  0
LINE
  5
405
100
AcDbEntity
  8
3_ALL_AXES
100
AcDbLine
 62
7
  6
CONTINUOUS
 10
320.8171150454
 20
189.3706072074
 11
320.8171150454
 21
188.9906072074
  0
LINE
  5
406
100
AcDbEntity
  8
7_ALL_FEATURES
100
AcDbLine
 62
7
  6
CONTINUOUS
 10
321.1371150454
 20
237.3706072074
 11
321.1371150454
 21
224.8706072074
  0
LINE
  5
407
100
AcDbEntity
  8
7_ALL_FEATURES
100
AcDbLine
 62
7
  6
CONTINUOUS
 10
321.1371150454
 20
222.3706072074
 11
321.1371150454
 21
219.8706072074
  0
LINE
  5
408
100
AcDbEntity
  8
7_ALL_FEATURES
100
AcDbLine
 62
7
  6
CONTINUOUS
 10
321.1371150454
 20
217.3706072074
 11
321.1371150454
 21
214.8706072074
  0
LINE
  5
409
100
AcDbEntity
  8
7_ALL_FEATURES
100
AcDbLine
 62
7
  6
CONTINUOUS
 10
321.1371150454
 20
212.3706072074
 11
321.1371150454
 21
209.8706072074
  0
LINE
  5
40A
100
AcDbEntity
  8
7_ALL_FEATURES
100
AcDbLine
 62
7
  6
CONTINUOUS
 10
321.1371150454
 20
207.3706072074
 11
321.1371150454
 21
204.8706072074
  0
LINE
  5
40B
100
AcDbEntity
  8
7_ALL_FEATURES
100
AcDbLine
 62
7
  6
CONTINUOUS
 10
321.1371150454
 20
202.3706072074
 11
321.1371150454
 21
199.8706072074
  0
LINE
  5
40C
100
AcDbEntity
  8
7_ALL_FEATURES
100
AcDbLine
 62
7
  6
CONTINUOUS
 10
321.1371150454
 20
197.3706072074
 11
321.1371150454
 21
194.8706072074
  0
LINE
  5
40D
100
AcDbEntity
  8
7_ALL_FEATURES
100
AcDbLine
 62
7
  6
CONTINUOUS
 10
321.1371150454
 20
192.3706072074
 11
321.1371150454
 21
190.8706072074
  0
LINE
  5
40E
100
AcDbEntity
  8
7_ALL_FEATURES
100
AcDbLine
 62
7
  6
CONTINUOUS
 10
324.0046403685
 20
204.7586073529
 11
324.3581937591
 21
205.1121607435
  0
LINE
  5
40F
100
AcDbEntity
  8
7_ALL_FEATURES
100
AcDbLine
 62
7
  6
CONTINUOUS
 10
325.3869028001
 20
203.3124426597
 11
325.7440402867
 21
203.6695801463
  0
LINE
  5
410
100
AcDbEntity
  8
7_ALL_FEATURES
100
AcDbLine
 62
7
  6
CONTINUOUS
 10
250.9146929497
 20
251.8706072074
 11
230.5171150454
 21
249.8706072074
  0
LINE
  5
411
100
AcDbEntity
  8
7_ALL_FEATURES
100
AcDbLine
 62
7
  6
CONTINUOUS
 10
250.9146929497
 20
251.8706072074
 11
319.1195371411
 21
251.8706072074
  0
LINE
  5
412
100
AcDbEntity
  8
7_ALL_FEATURES
100
AcDbLine
 62
7
  6
CONTINUOUS
 10
319.1195371411
 20
251.8706072074
 11
339.5171150454
 21
249.8706072074
  0
LINE
  5
413
100
AcDbEntity
  8
7_ALL_FEATURES
100
AcDbLine
 62
7
  6
CONTINUOUS
 10
325.7145338048
 20
199.0929085469
 11
321.0818251593
 21
190.1935580395
  0
LINE
  5
414
100
AcDbEntity
  8
7_ALL_FEATURES
100
AcDbLine
 62
7
  6
CONTINUOUS
 10
320.1371150454
 20
189.8706072074
 11
321.1371150454
 21
190.8706072074
  0
LINE
  5
415
100
AcDbEntity
  8
02___PRT_ALL_AXES
100
AcDbLine
 62
7
  6
CONTINUOUS
 10
332.7671150454
 20
248.5706072074
 11
332.7671150454
 21
242.8706072074
  0
LINE
  5
416
100
AcDbEntity
  8
02___PRT_ALL_AXES
100
AcDbLine
 62
7
  6
CONTINUOUS
 10
332.7671150454
 20
241.8706072074
 11
332.7671150454
 21
238.8706072074
  0
LINE
  5
417
100
AcDbEntity
  8
7_ALL_FEATURES
100
AcDbLine
 62
3
  6
CONTINUOUS
 10
326.1580392214
 20
198.8620342402
 11
321.5253305759
 21
189.9626837328
  0
LINE
  5
418
100
AcDbEntity
  8
7_ALL_FEATURES
100
AcDbLine
 62
7
  6
CONTINUOUS
 10
312.0171150447
 20
179.8706072067
 11
313.0171150447
 21
180.8706072067
  0
LINE
  5
419
100
AcDbEntity
  8
7_ALL_FEATURES
100
AcDbLine
 62
7
  6
CONTINUOUS
 10
332.2671150454
 20
242.3706072074
 11
332.7671150454
 21
241.8706072074
  0
LINE
  5
41A
100
AcDbEntity
  8
7_ALL_FEATURES
100
AcDbLine
 62
7
  6
CONTINUOUS
 10
339.5171150454
 20
248.8706072074
 11
339.5171150454
 21
249.8706072074
  0
CIRCLE
  5
41B
100
AcDbEntity
  8
7_ALL_FEATURES
100
AcDbCircle
 62
7
  6
CONTINUOUS
 10
119.0719180165
 20
82.8984961589
 40
54.5
  0
CIRCLE
  5
41C
100
AcDbEntity
  8
7_ALL_FEATURES
100
AcDbCircle
 62
7
  6
CONTINUOUS
 10
119.0719180165
 20
82.8984961589
 40
34.1024220957
  0
CIRCLE
  5
41D
100
AcDbEntity
  8
7_ALL_FEATURES
100
AcDbCircle
 62
7
  6
CONTINUOUS
 10
119.0719180165
 20
82.8984961589
 40
31.7000055126
  0
CIRCLE
  5
41E
100
AcDbEntity
  8
7_ALL_FEATURES
100
AcDbCircle
 62
7
  6
CONTINUOUS
 10
119.0719180165
 20
82.8984961589
 40
31.2
  0
CIRCLE
  5
41F
100
AcDbEntity
  8
7_ALL_FEATURES
100
AcDbCircle
 62
7
  6
CONTINUOUS
 10
119.0719180165
 20
82.8984961589
 40
31.0
  0
CIRCLE
  5
420
100
AcDbEntity
  8
7_ALL_FEATURES
100
AcDbCircle
 62
7
  6
CONTINUOUS
 10
119.0719180165
 20
82.8984961589
 40
30.5000002653
  0
ARC
  5
421
100
AcDbEntity
  8
7_ALL_FEATURES
100
AcDbCircle
 62
3
  6
CONTINUOUS
 10
156.2212934433
 20
200.9399029998
 40
4.5
100
AcDbArc
 50
332.5
 51
45.0
  0
ARC
  5
422
100
AcDbEntity
  8
7_ALL_FEATURES
100
AcDbCircle
 62
3
  6
CONTINUOUS
 10
81.9225425898
 20
200.9399029998
 40
4.5
100
AcDbArc
 50
135.0
 51
207.5
  0
ARC
  5
423
100
AcDbEntity
  8
3_ALL_AXES
100
AcDbCircle
 62
7
  6
CONTINUOUS
 10
151.2143608139
 20
190.8432472991
 40
4.1
100
AcDbArc
 50
296.3930257743
 51
333.1366968699
  0
ARC
  5
424
100
AcDbEntity
  8
3_ALL_AXES
100
AcDbCircle
 62
7
  6
CONTINUOUS
 10
150.9294752192
 20
190.8432472991
 40
4.1
100
AcDbArc
 50
206.8633031301
 51
243.6069742257
  0
ARC
  5
425
100
AcDbEntity
  8
3_ALL_AXES
100
AcDbCircle
 62
7
  6
CONTINUOUS
 10
86.9294752192
 20
190.8432472991
 40
4.1
100
AcDbArc
 50
206.8633031301
 51
243.6069742257
  0
ARC
  5
426
100
AcDbEntity
  8
3_ALL_AXES
100
AcDbCircle
 62
7
  6
CONTINUOUS
 10
87.2143608139
 20
190.8432472991
 40
4.1
100
AcDbArc
 50
296.3930257743
 51
333.1366968699
  0
ARC
  5
427
100
AcDbEntity
  8
3_ALL_AXES
100
AcDbCircle
 62
7
  6
CONTINUOUS
 10
118.9294752192
 20
190.8432472991
 40
4.1
100
AcDbArc
 50
206.8633031301
 51
243.6069742257
  0
ARC
  5
428
100
AcDbEntity
  8
3_ALL_AXES
100
AcDbCircle
 62
7
  6
CONTINUOUS
 10
119.2143608139
 20
190.8432472991
 40
4.1
100
AcDbArc
 50
296.3930257743
 51
333.1366968699
  0
ARC
  5
429
100
AcDbEntity
  8
7_ALL_FEATURES
100
AcDbCircle
 62
7
  6
CONTINUOUS
 10
156.2212934433
 20
200.9399029998
 40
4.0
100
AcDbArc
 50
332.5
 51
45.0
  0
ARC
  5
42A
100
AcDbEntity
  8
7_ALL_FEATURES
100
AcDbCircle
 62
7
  6
CONTINUOUS
 10
81.9225425898
 20
200.9399029998
 40
4.0
100
AcDbArc
 50
135.0
 51
207.5
  0
ARC
  5
42B
100
AcDbEntity
  8
7_ALL_FEATURES
100
AcDbCircle
 62
3
  6
CONTINUOUS
 10
154.6044216306
 20
190.4706072074
 40
1.1
100
AcDbArc
 50
270.0
 51
332.5
  0
ARC
  5
42C
100
AcDbEntity
  8
7_ALL_FEATURES
100
AcDbCircle
 62
3
  6
CONTINUOUS
 10
83.5394144025
 20
190.4706072074
 40
1.1
100
AcDbArc
 50
207.5
 51
270.0
  0
ARC
  5
42D
100
AcDbEntity
  8
7_ALL_FEATURES
100
AcDbCircle
 62
7
  6
CONTINUOUS
 10
154.6044216306
 20
190.4706072074
 40
0.6
100
AcDbArc
 50
270.0
 51
332.5
  0
ARC
  5
42E
100
AcDbEntity
  8
7_ALL_FEATURES
100
AcDbCircle
 62
7
  6
CONTINUOUS
 10
83.5394144025
 20
190.4706072074
 40
0.6
100
AcDbArc
 50
207.5
 51
270.0
  0
ARC
  5
42F
100
AcDbEntity
  8
7_ALL_FEATURES
100
AcDbCircle
 62
7
  6
CONTINUOUS
 10
167.1219180165
 20
248.5706072074
 40
0.3
100
AcDbArc
 50
90.0
 51
180.0
  0
ARC
  5
430
100
AcDbEntity
  8
7_ALL_FEATURES
100
AcDbCircle
 62
7
  6
CONTINUOUS
 10
71.0219180165
 20
248.5706072074
 40
0.3
100
AcDbArc
 50
0.0
 51
90.0
  0
ARC
  5
431
100
AcDbEntity
  8
7_ALL_FEATURES
100
AcDbCircle
 62
3
  6
CONTINUOUS
 10
247.8677396187
 20
200.9399029998
 40
4.5
100
AcDbArc
 50
135.0
 51
207.5
  0
ARC
  5
432
100
AcDbEntity
  8
7_ALL_FEATURES
100
AcDbCircle
 62
3
  6
CONTINUOUS
 10
322.1664904721
 20
200.9399029998
 40
4.5
100
AcDbArc
 50
332.5
 51
45.0
  0
ARC
  5
433
100
AcDbEntity
  8
3_ALL_AXES
100
AcDbCircle
 62
7
  6
CONTINUOUS
 10
317.1595578427
 20
190.8432472991
 40
4.1
100
AcDbArc
 50
296.3930257743
 51
333.1366968699
  0
ARC
  5
434
100
AcDbEntity
  8
3_ALL_AXES
100
AcDbCircle
 62
7
  6
CONTINUOUS
 10
316.874672248
 20
190.8432472991
 40
4.1
100
AcDbArc
 50
206.8633031301
 51
243.6069742257
  0
ARC
  5
435
100
AcDbEntity
  8
3_ALL_AXES
100
AcDbCircle
 62
7
  6
CONTINUOUS
 10
252.874672248
 20
190.8432472991
 40
4.1
100
AcDbArc
 50
206.8633031301
 51
243.6069742257
  0
ARC
  5
436
100
AcDbEntity
  8
3_ALL_AXES
100
AcDbCircle
 62
7
  6
CONTINUOUS
 10
253.1595578427
 20
190.8432472991
 40
4.1
100
AcDbArc
 50
296.3930257743
 51
333.1366968699
  0
ARC
  5
437
100
AcDbEntity
  8
3_ALL_AXES
100
AcDbCircle
 62
7
  6
CONTINUOUS
 10
284.874672248
 20
190.8432472991
 40
4.1
100
AcDbArc
 50
206.8633031301
 51
243.6069742257
  0
ARC
  5
438
100
AcDbEntity
  8
3_ALL_AXES
100
AcDbCircle
 62
7
  6
CONTINUOUS
 10
285.1595578427
 20
190.8432472991
 40
4.1
100
AcDbArc
 50
296.3930257743
 51
333.1366968699
  0
ARC
  5
439
100
AcDbEntity
  8
7_ALL_FEATURES
100
AcDbCircle
 62
7
  6
CONTINUOUS
 10
247.8677396187
 20
200.9399029998
 40
4.0
100
AcDbArc
 50
135.0
 51
207.5
  0
ARC
  5
43A
100
AcDbEntity
  8
7_ALL_FEATURES
100
AcDbCircle
 62
7
  6
CONTINUOUS
 10
322.1664904721
 20
200.9399029998
 40
4.0
100
AcDbArc
 50
332.5
 51
45.0
  0
ARC
  5
43B
100
AcDbEntity
  8
7_ALL_FEATURES
100
AcDbCircle
 62
3
  6
CONTINUOUS
 10
249.4846114313
 20
190.4706072074
 40
1.1
100
AcDbArc
 50
207.5
 51
270.0
  0
ARC
  5
43C
100
AcDbEntity
  8
7_ALL_FEATURES
100
AcDbCircle
 62
3
  6
CONTINUOUS
 10
320.5496186594
 20
190.4706072074
 40
1.1
100
AcDbArc
 50
270.0
 51
332.5
  0
ARC
  5
43D
100
AcDbEntity
  8
7_ALL_FEATURES
100
AcDbCircle
 62
7
  6
CONTINUOUS
 10
249.4846114313
 20
190.4706072074
 40
0.6
100
AcDbArc
 50
207.5
 51
270.0
  0
ARC
  5
43E
100
AcDbEntity
  8
7_ALL_FEATURES
100
AcDbCircle
 62
7
  6
CONTINUOUS
 10
320.5496186594
 20
190.4706072074
 40
0.6
100
AcDbArc
 50
270.0
 51
332.5
  0
ARC
  5
43F
100
AcDbEntity
  8
7_ALL_FEATURES
100
AcDbCircle
 62
7
  6
CONTINUOUS
 10
236.9671150454
 20
248.5706072074
 40
0.3
100
AcDbArc
 50
0.0
 51
90.0
  0
ARC
  5
440
100
AcDbEntity
  8
7_ALL_FEATURES
100
AcDbCircle
 62
7
  6
CONTINUOUS
 10
333.0671150454
 20
248.5706072074
 40
0.3
100
AcDbArc
 50
90.0
 51
180.0
  0
SPLINE
  5
441
100
AcDbEntity
  8
7_ALL_FEATURES
100
AcDbSpline
 62
4
  6
CONTINUOUS
 70
0
 71
3
 72
130
 73
126
 74
0
 42
0.0000001
 43
0.0000001
 44
0.0000000001
 40
0.0
 40
0.0
 40
0.0
 40
0.0
 40
0.03125
 40
0.0625
 40
0.078125
 40
0.09375
 40
0.109375
 40
0.125
 40
0.140625
 40
0.1484375
 40
0.15234375
 40
0.15625
 40
0.16015625
 40
0.1640625
 40
0.1650390625
 40
0.166015625
 40
0.1669921875
 40
0.16796875
 40
0.169921875
 40
0.171875
 40
0.17578125
 40
0.1796875
 40
0.1875
 40
0.1953125
 40
0.203125
 40
0.21875
 40
0.25
 40
0.28125
 40
0.296875
 40
0.3046875
 40
0.3125
 40
0.3203125
 40
0.32421875
 40
0.328125
 40
0.330078125
 40
0.33203125
 40
0.3330078125
 40
0.3334960938
 40
0.333984375
 40
0.3349609375
 40
0.3359375
 40
0.33984375
 40
0.34375
 40
0.34765625
 40
0.3515625
 40
0.359375
 40
0.375
 40
0.390625
 40
0.40625
 40
0.421875
 40
0.4375
 40
0.453125
 40
0.4609375
 40
0.46875
 40
0.4765625
 40
0.484375
 40
0.48828125
 40
0.4921875
 40
0.494140625
 40
0.49609375
 40
0.498046875
 40
0.4990234375
 40
0.5
 40
0.5009765625
 40
0.501953125
 40
0.50390625
 40
0.505859375
 40
0.5078125
 40
0.51171875
 40
0.515625
 40
0.5234375
 40
0.53125
 40
0.5390625
 40
0.546875
 40
0.5625
 40
0.578125
 40
0.59375
 40
0.609375
 40
0.625
 40
0.640625
 40
0.6484375
 40
0.65234375
 40
0.65625
 40
0.66015625
 40
0.6640625
 40
0.6650390625
 40
0.666015625
 40
0.6665039062
 40
0.6669921875
 40
0.66796875
 40
0.669921875
 40
0.671875
 40
0.67578125
 40
0.6796875
 40
0.6875
 40
0.6953125
 40
0.703125
 40
0.71875
 40
0.75
 40
0.78125
 40
0.796875
 40
0.8046875
 40
0.8125
 40
0.8203125
 40
0.82421875
 40
0.828125
 40
0.830078125
 40
0.83203125
 40
0.8330078125
 40
0.8334960938
 40
0.833984375
 40
0.8349609375
 40
0.8359375
 40
0.83984375
 40
0.84375
 40
0.84765625
 40
0.8515625
 40
0.859375
 40
0.875
 40
0.890625
 40
0.90625
 40
0.921875
 40
0.9375
 40
0.96875
 40
1.0
 40
1.0
 40
1.0
 40
1.0
 10
118.2887833997
 20
193.3604938937
 30
0.0
 10
118.2826412039
 20
193.3550247396
 30
0.0
 10
118.2703568122
 20
193.3440864314
 30
0.0
 10
118.2550013225
 20
193.3304135463
 30
0.0
 10
118.2427169311
 20
193.319475238
 30
0.0
 10
118.2335036366
 20
193.3112715073
 30
0.0
 10
118.2242903453
 20
193.3030677744
 30
0.0
 10
118.2150770425
 20
193.2948640498
 30
0.0
 10
118.2073993259
 20
193.288027587
 30
0.0
 10
118.2020248542
 20
193.2832421133
 30
0.0
 10
118.1989538369
 20
193.2805074783
 30
0.0
 10
118.1966502658
 20
193.2784567234
 30
0.0
 10
118.1943478727
 20
193.2764051226
 30
0.0
 10
118.1926177748
 20
193.2748687937
 30
0.0
 10
118.1914695132
 20
193.273840886
 30
0.0
 10
118.1908862095
 20
193.2733335185
 30
0.0
 10
118.1903385697
 20
193.2728005432
 30
0.0
 10
118.1897780785
 20
193.2719680632
 30
0.0
 10
118.1890193611
 20
193.2709691831
 30
0.0
 10
118.1878378841
 20
193.26934766
 30
0.0
 10
118.1863499198
 20
193.2673287391
 30
0.0
 10
118.1839753909
 20
193.2640940041
 30
0.0
 10
118.1810050977
 20
193.260052116
 30
0.0
 10
118.1774416584
 20
193.2552011951
 30
0.0
 10
118.1726900877
 20
193.2487335292
 30
0.0
 10
118.1643749877
 20
193.2374150071
 30
0.0
 10
118.1524961925
 20
193.2212457474
 30
0.0
 10
118.1406174373
 20
193.2050764609
 30
0.0
 10
118.1323022813
 20
193.1937579763
 30
0.0
 10
118.1275507985
 20
193.1872902516
 30
0.0
 10
118.1239870895
 20
193.1824395111
 30
0.0
 10
118.1210176403
 20
193.1783970584
 30
0.0
 10
118.1186413896
 20
193.1751634754
 30
0.0
 10
118.1171578072
 20
193.1731416224
 30
0.0
 10
118.1159673357
 20
193.1715261179
 30
0.0
 10
118.1152315179
 20
193.1705119148
 30
0.0
 10
118.1146999577
 20
193.1698110168
 30
0.0
 10
118.1144220056
 20
193.1693963532
 30
0.0
 10
118.1142412161
 20
193.168928392
 30
0.0
 10
118.1139820186
 20
193.1683616578
 30
0.0
 10
118.1133872786
 20
193.1669865021
 30
0.0
 10
118.112483688
 20
193.1649300661
 30
0.0
 10
118.1112854623
 20
193.162184552
 30
0.0
 10
118.1100854814
 20
193.1594400007
 30
0.0
 10
118.108486119
 20
193.1557802632
 30
0.0
 10
118.1056869497
 20
193.1493758789
 30
0.0
 10
118.1016882855
 20
193.1402266768
 30
0.0
 10
118.0968898245
 20
193.1292476693
 30
0.0
 10
118.0920913806
 20
193.1182686524
 30
0.0
 10
118.0872929323
 20
193.107289638
 30
0.0
 10
118.0824944846
 20
193.0963106231
 30
0.0
 10
118.0784957796
 20
193.0871614438
 30
0.0
 10
118.075296812
 20
193.079842101
 30
0.0
 10
118.0728975965
 20
193.0743525921
 30
0.0
 10
118.0704983418
 20
193.0688630898
 30
0.0
 10
118.0684990849
 20
193.0642884842
 30
0.0
 10
118.0668994061
 20
193.0606288453
 30
0.0
 10
118.0659002291
 20
193.0583414673
 30
0.0
 10
118.0650994626
 20
193.0565118024
 30
0.0
 10
118.0645027889
 20
193.0551389032
 30
0.0
 10
118.0639931504
 20
193.05399689
 30
0.0
 10
118.0636132741
 20
193.0530786381
 30
0.0
 10
118.0632523098
 20
193.0524026316
 30
0.0
 10
118.0631816566
 20
193.051678216
 30
0.0
 10
118.0629860429
 20
193.0507292385
 30
0.0
 10
118.0627763188
 20
193.0495372149
 30
0.0
 10
118.0625097573
 20
193.0481092699
 30
0.0
 10
118.0621595437
 20
193.0462044758
 30
0.0
 10
118.0617199957
 20
193.0438237802
 30
0.0
 10
118.0610177143
 20
193.0400145013
 30
0.0
 10
118.0601395209
 20
193.0352529596
 30
0.0
 10
118.0590858352
 20
193.0295390852
 30
0.0
 10
118.0580321105
 20
193.0238252173
 30
0.0
 10
118.0566271577
 20
193.0162067245
 30
0.0
 10
118.0548709622
 20
193.0066836092
 30
0.0
 10
118.0527635292
 20
192.9952558707
 30
0.0
 10
118.0506560971
 20
192.983828132
 30
0.0
 10
118.0485486598
 20
192.972400394
 30
0.0
 10
118.0464412424
 20
192.9609726535
 30
0.0
 10
118.0446849992
 20
192.9514495441
 30
0.0
 10
118.0434557505
 20
192.9447833524
 30
0.0
 10
118.0427531329
 20
192.9409741236
 30
0.0
 10
118.0422267044
 20
192.9381171358
 30
0.0
 10
118.0416982319
 20
192.9352604007
 30
0.0
 10
118.0413076085
 20
192.933117141
 30
0.0
 10
118.04103828
 20
192.9316894028
 30
0.0
 10
118.0409393227
 20
192.9310928726
 30
0.0
 10
118.0408292173
 20
192.9306194727
 30
0.0
 10
118.0408322595
 20
192.930132087
 30
0.0
 10
118.0408901544
 20
192.9292726637
 30
0.0
 10
118.0409454325
 20
192.9280483066
 30
0.0
 10
118.0410492061
 20
192.9260874406
 30
0.0
 10
118.0411736745
 20
192.9236370068
 30
0.0
 10
118.0413757573
 20
192.9197159501
 30
0.0
 10
118.0416273544
 20
192.9148147537
 30
0.0
 10
118.0419297017
 20
192.9089332647
 30
0.0
 10
118.0423326811
 20
192.901091298
 30
0.0
 10
118.0430379656
 20
192.8873678476
 30
0.0
 10
118.0440454745
 20
192.8677629225
 30
0.0
 10
118.0450530104
 20
192.8481579979
 30
0.0
 10
118.0457582572
 20
192.8344345469
 30
0.0
 10
118.0461612958
 20
192.8265925811
 30
0.0
 10
118.0464634616
 20
192.8207110892
 30
0.0
 10
118.0467156266
 20
192.815809902
 30
0.0
 10
118.0469165509
 20
192.8118888265
 30
0.0
 10
118.0470439677
 20
192.8094384407
 30
0.0
 10
118.047141689
 20
192.8074774761
 30
0.0
 10
118.0472123758
 20
192.8062533701
 30
0.0
 10
118.047242595
 20
192.8053934958
 30
0.0
 10
118.0472899996
 20
192.804906833
 30
0.0
 10
118.047450913
 20
192.80443785
 30
0.0
 10
118.0476132569
 20
192.8038455782
 30
0.0
 10
118.0480348147
 20
192.8024290995
 30
0.0
 10
118.0486537395
 20
192.8003022925
 30
0.0
 10
118.0494866382
 20
192.7974677437
 30
0.0
 10
118.0503174864
 20
192.7946328756
 30
0.0
 10
118.0514259992
 20
192.7908531629
 30
0.0
 10
118.0533655634
 20
192.7842386137
 30
0.0
 10
118.0561365437
 20
192.7747892849
 30
0.0
 10
118.0594616452
 20
192.7634500786
 30
0.0
 10
118.0627867668
 20
192.7521108755
 30
0.0
 10
118.0661118831
 20
192.7407716715
 30
0.0
 10
118.0705453733
 20
192.7256527332
 30
0.0
 10
118.0760872354
 20
192.7067540602
 30
0.0
 10
118.0805207253
 20
192.6916351218
 30
0.0
 10
118.0827374702
 20
192.6840756526
 30
0.0
  0
SPLINE
  5
442
100
AcDbEntity
  8
7_ALL_FEATURES
100
AcDbSpline
 62
4
  6
CONTINUOUS
 70
0
 71
3
 72
195
 73
191
 74
0
 42
0.0000001
 43
0.0000001
 44
0.0000000001
 40
0.0
 40
0.0
 40
0.0
 40
0.0
 40
0.03125
 40
0.046875
 40
0.0625
 40
0.078125
 40
0.0859375
 40
0.09375
 40
0.1015625
 40
0.109375
 40
0.11328125
 40
0.1171875
 40
0.119140625
 40
0.12109375
 40
0.123046875
 40
0.1240234375
 40
0.1245117188
 40
0.125
 40
0.1254882812
 40
0.1259765625
 40
0.126953125
 40
0.12890625
 40
0.130859375
 40
0.1328125
 40
0.13671875
 40
0.140625
 40
0.1484375
 40
0.15625
 40
0.1640625
 40
0.171875
 40
0.1875
 40
0.203125
 40
0.2109375
 40
0.21875
 40
0.2265625
 40
0.234375
 40
0.23828125
 40
0.2421875
 40
0.244140625
 40
0.24609375
 40
0.248046875
 40
0.2490234375
 40
0.2495117188
 40
0.25
 40
0.2504882812
 40
0.2509765625
 40
0.251953125
 40
0.25390625
 40
0.255859375
 40
0.2578125
 40
0.26171875
 40
0.265625
 40
0.2734375
 40
0.28125
 40
0.2890625
 40
0.296875
 40
0.3125
 40
0.328125
 40
0.3359375
 40
0.34375
 40
0.3515625
 40
0.359375
 40
0.36328125
 40
0.3671875
 40
0.369140625
 40
0.37109375
 40
0.373046875
 40
0.3740234375
 40
0.3745117188
 40
0.375
 40
0.3754882812
 40
0.3759765625
 40
0.376953125
 40
0.37890625
 40
0.380859375
 40
0.3828125
 40
0.38671875
 40
0.390625
 40
0.3984375
 40
0.40625
 40
0.4140625
 40
0.421875
 40
0.4375
 40
0.453125
 40
0.4609375
 40
0.46875
 40
0.4765625
 40
0.484375
 40
0.48828125
 40
0.4921875
 40
0.494140625
 40
0.49609375
 40
0.498046875
 40
0.4990234375
 40
0.4995117188
 40
0.5
 40
0.5004882812
 40
0.5009765625
 40
0.501953125
 40
0.50390625
 40
0.505859375
 40
0.5078125
 40
0.51171875
 40
0.515625
 40
0.5234375
 40
0.53125
 40
0.5390625
 40
0.546875
 40
0.5625
 40
0.578125
 40
0.5859375
 40
0.59375
 40
0.6015625
 40
0.609375
 40
0.61328125
 40
0.6171875
 40
0.619140625
 40
0.62109375
 40
0.623046875
 40
0.6240234375
 40
0.6245117188
 40
0.625
 40
0.6254882812
 40
0.6259765625
 40
0.626953125
 40
0.62890625
 40
0.630859375
 40
0.6328125
 40
0.63671875
 40
0.640625
 40
0.6484375
 40
0.65625
 40
0.6640625
 40
0.671875
 40
0.6875
 40
0.703125
 40
0.7109375
 40
0.71875
 40
0.7265625
 40
0.734375
 40
0.73828125
 40
0.7421875
 40
0.744140625
 40
0.74609375
 40
0.748046875
 40
0.7490234375
 40
0.7495117188
 40
0.75
 40
0.7504882812
 40
0.7509765625
 40
0.751953125
 40
0.75390625
 40
0.755859375
 40
0.7578125
 40
0.76171875
 40
0.765625
 40
0.7734375
 40
0.78125
 40
0.7890625
 40
0.796875
 40
0.8125
 40
0.828125
 40
0.8359375
 40
0.84375
 40
0.8515625
 40
0.859375
 40
0.86328125
 40
0.8671875
 40
0.869140625
 40
0.87109375
 40
0.873046875
 40
0.8740234375
 40
0.8745117188
 40
0.875
 40
0.8754882812
 40
0.8759765625
 40
0.876953125
 40
0.87890625
 40
0.880859375
 40
0.8828125
 40
0.88671875
 40
0.890625
 40
0.8984375
 40
0.90625
 40
0.9140625
 40
0.921875
 40
0.9375
 40
0.953125
 40
0.96875
 40
1.0
 40
1.0
 40
1.0
 40
1.0
 10
118.0827374668
 20
192.6840756607
 30
0.0
 10
118.0877179127
 20
192.6751957086
 30
0.0
 10
118.0951885816
 20
192.6618757803
 30
0.0
 10
118.1051494734
 20
192.644115876
 30
0.0
 10
118.1126201425
 20
192.6307959478
 30
0.0
 10
118.1188456993
 20
192.6196960073
 30
0.0
 10
118.1238261464
 20
192.6108160557
 30
0.0
 10
118.1275614774
 20
192.60415609
 30
0.0
 10
118.1312968245
 20
192.5974961318
 30
0.0
 10
118.1344095638
 20
192.5919461432
 30
0.0
 10
118.1368998672
 20
192.5875062047
 30
0.0
 10
118.1384560519
 20
192.5847311239
 30
0.0
 10
118.1397015835
 20
192.5825113324
 30
0.0
 10
118.1406341335
 20
192.5808457409
 30
0.0
 10
118.1414163443
 20
192.5794601272
 30
0.0
 10
118.1419539111
 20
192.5784855285
 30
0.0
 10
118.1422766762
 20
192.5779359053
 30
0.0
 10
118.1424748494
 20
192.577503151
 30
0.0
 10
118.1428408333
 20
192.5771488989
 30
0.0
 10
118.1432702775
 20
192.5766491802
 30
0.0
 10
118.144049077
 20
192.5757874306
 30
0.0
 10
118.1451473896
 20
192.5745496897
 30
0.0
 10
118.1464714676
 20
192.5730672556
 30
0.0
 10
118.1482347734
 20
192.5710896796
 30
0.0
 10
118.1504396355
 20
192.568618051
 30
0.0
 10
118.1539670068
 20
192.5646632544
 30
0.0
 10
118.158376361
 20
192.5597198242
 30
0.0
 10
118.1636675261
 20
192.5537876799
 30
0.0
 10
118.1689587072
 20
192.5478555431
 30
0.0
 10
118.1760136097
 20
192.5399460247
 30
0.0
 10
118.1848322399
 20
192.5300591278
 30
0.0
 10
118.1936508689
 20
192.52017223
 30
0.0
 10
118.2007057734
 20
192.512262713
 30
0.0
 10
118.2059969484
 20
192.5063305722
 30
0.0
 10
118.2112881365
 20
192.5003984428
 30
0.0
 10
118.215697419
 20
192.4954549661
 30
0.0
 10
118.2192249367
 20
192.4915002643
 30
0.0
 10
118.2214294263
 20
192.4890283946
 30
0.0
 10
118.2231934965
 20
192.4870513136
 30
0.0
 10
118.2245152392
 20
192.485567367
 30
0.0
 10
118.2256208586
 20
192.4843343583
 30
0.0
 10
118.2263866141
 20
192.4834641609
 30
0.0
 10
118.2268369582
 20
192.4829779778
 30
0.0
 10
118.2271387444
 20
192.4825821489
 30
0.0
 10
118.2275780331
 20
192.4823055498
 30
0.0
 10
118.228115789
 20
192.4818951624
 30
0.0
 10
118.2290792085
 20
192.4811963614
 30
0.0
 10
118.2304438388
 20
192.4801879437
 30
0.0
 10
118.232086396
 20
192.4789821786
 30
0.0
 10
118.2342747257
 20
192.4773729773
 30
0.0
 10
118.2370107357
 20
192.4753619942
 30
0.0
 10
118.2413880176
 20
192.4721441315
 30
0.0
 10
118.2468597346
 20
192.4681219026
 30
0.0
 10
118.2534257458
 20
192.4632951852
 30
0.0
 10
118.2599917702
 20
192.4584684793
 30
0.0
 10
118.2687464648
 20
192.4520328674
 30
0.0
 10
118.2796898348
 20
192.443988354
 30
0.0
 10
118.2906332037
 20
192.4359438395
 30
0.0
 10
118.2993878999
 20
192.4295082293
 30
0.0
 10
118.3059539194
 20
192.4246815181
 30
0.0
 10
118.3125199491
 20
192.4198548205
 30
0.0
 10
118.3179916087
 20
192.4158325302
 30
0.0
 10
118.3223690076
 20
192.4126147927
 30
0.0
 10
118.32510472
 20
192.410603491
 30
0.0
 10
118.3272936606
 20
192.4089949437
 30
0.0
 10
118.328934351
 20
192.4077871806
 30
0.0
 10
118.3303048222
 20
192.4067850143
 30
0.0
 10
118.3312578148
 20
192.4060750534
 30
0.0
 10
118.3318122771
 20
192.4056825469
 30
0.0
 10
118.3322002492
 20
192.4053510232
 30
0.0
 10
118.3326947721
 20
192.4051614821
 30
0.0
 10
118.3333169699
 20
192.4048592356
 30
0.0
 10
118.3344231323
 20
192.4043533787
 30
0.0
 10
118.3359943112
 20
192.4036186624
 30
0.0
 10
118.337883601
 20
192.4027421664
 30
0.0
 10
118.3404013005
 20
192.4015717016
 30
0.0
 10
118.3435488884
 20
192.4001092382
 30
0.0
 10
118.3485847699
 20
192.3977689514
 30
0.0
 10
118.3548797107
 20
192.3948437115
 30
0.0
 10
118.3624336015
 20
192.3913333728
 30
0.0
 10
118.3699875025
 20
192.3878230476
 30
0.0
 10
118.380059367
 20
192.3831426094
 30
0.0
 10
118.3926491989
 20
192.3772920633
 30
0.0
 10
118.4052390301
 20
192.371441516
 30
0.0
 10
118.4153108958
 20
192.3667610798
 30
0.0
 10
118.4228647932
 20
192.3632507486
 30
0.0
 10
118.4304186975
 20
192.3597404326
 30
0.0
 10
118.4367135965
 20
192.356815122
 30
0.0
 10
118.4417495631
 20
192.3544749793
 30
0.0
 10
118.4448969345
 20
192.3530121493
 30
0.0
 10
118.4474150784
 20
192.3518424369
 30
0.0
 10
118.4493030105
 20
192.3509636423
 30
0.0
 10
118.4508784372
 20
192.3502361179
 30
0.0
 10
118.4519770166
 20
192.3497174222
 30
0.0
 10
118.4526113644
 20
192.3494357468
 30
0.0
 10
118.4530685662
 20
192.3491830175
 30
0.0
 10
118.4535967102
 20
192.3490888182
 30
0.0
 10
118.4542761569
 20
192.3489079221
 30
0.0
 10
118.4554767178
 20
192.3486171179
 30
0.0
 10
118.4571857772
 20
192.3481882135
 30
0.0
 10
118.4592392284
 20
192.3476792938
 30
0.0
 10
118.4619762623
 20
192.3469987204
 30
0.0
 10
118.4653978632
 20
192.3461486932
 30
0.0
 10
118.4708722523
 20
192.3447882642
 30
0.0
 10
118.4777152977
 20
192.3430878603
 30
0.0
 10
118.4859269269
 20
192.3410473188
 30
0.0
 10
118.4941385628
 20
192.3390067926
 30
0.0
 10
118.5050874084
 20
192.3362860856
 30
0.0
 10
118.5187734661
 20
192.3328852038
 30
0.0
 10
118.5324595235
 20
192.3294843207
 30
0.0
 10
118.5434083698
 20
192.3267636159
 30
0.0
 10
118.5516200036
 20
192.324723083
 30
0.0
 10
118.5598316406
 20
192.3226825663
 30
0.0
 10
118.5666746618
 20
192.3209820855
 30
0.0
 10
118.5721491002
 20
192.3196218132
 30
0.0
 10
118.5755705753
 20
192.3187713875
 30
0.0
 10
118.5783078675
 20
192.318091632
 30
0.0
 10
118.5803605296
 20
192.3175802134
 30
0.0
 10
118.5820720582
 20
192.3171591273
 30
0.0
 10
118.5832682111
 20
192.3168543662
 30
0.0
 10
118.5839547205
 20
192.3166958325
 30
0.0
 10
118.58446117
 20
192.3165329431
 30
0.0
 10
118.5849998528
 20
192.3165382025
 30
0.0
 10
118.5857068531
 20
192.3164865629
 30
0.0
 10
118.5869493423
 20
192.3164235208
 30
0.0
 10
118.588721588
 20
192.3163191737
 30
0.0
 10
118.5908494551
 20
192.3162000724
 30
0.0
 10
118.5936862019
 20
192.3160391347
 30
0.0
 10
118.5972322755
 20
192.315838694
 30
0.0
 10
118.6029059149
 20
192.3155175801
 30
0.0
 10
118.6099979911
 20
192.3151163279
 30
0.0
 10
118.618508471
 20
192.3146347652
 30
0.0
 10
118.6270189539
 20
192.3141532186
 30
0.0
 10
118.6383662635
 20
192.3135111508
 30
0.0
 10
118.6525504007
 20
192.3127085682
 30
0.0
 10
118.6667345379
 20
192.3119059842
 30
0.0
 10
118.6780818476
 20
192.3112639187
 30
0.0
 10
118.6865923301
 20
192.3107823653
 30
0.0
 10
118.6951028118
 20
192.3103008281
 30
0.0
 10
118.7021948823
 20
192.3098994964
 30
0.0
 10
118.7078685334
 20
192.3095785448
 30
0.0
 10
118.7114145773
 20
192.3093776911
 30
0.0
 10
118.714251385
 20
192.3092176011
 30
0.0
 10
118.7163790659
 20
192.30909591
 30
0.0
 10
118.7181518943
 20
192.3089996657
 30
0.0
 10
118.7193933432
 20
192.3089221587
 30
0.0
 10
118.7201020103
 20
192.3088936954
 30
0.0
 10
118.7206355733
 20
192.3088277649
 30
0.0
 10
118.7211612518
 20
192.3089322532
 30
0.0
 10
118.7218649066
 20
192.309012127
 30
0.0
 10
118.7230950212
 20
192.3091796023
 30
0.0
 10
118.7248529976
 20
192.3094043728
 30
0.0
 10
118.7269622826
 20
192.3096802952
 30
0.0
 10
118.7297747627
 20
192.3100460271
 30
0.0
 10
118.7332903286
 20
192.3105039331
 30
0.0
 10
118.7389152532
 20
192.3112361684
 30
0.0
 10
118.7459464023
 20
192.3121516047
 30
0.0
 10
118.7543837841
 20
192.3132500673
 30
0.0
 10
118.7628211652
 20
192.3143485463
 30
0.0
 10
118.7740710068
 20
192.3158131792
 30
0.0
 10
118.7881333087
 20
192.3176439724
 30
0.0
 10
118.8021956109
 20
192.3194747642
 30
0.0
 10
118.8134454522
 20
192.3209393994
 30
0.0
 10
118.8218828341
 20
192.3220378715
 30
0.0
 10
118.8303202127
 20
192.3231363599
 30
0.0
 10
118.8373513719
 20
192.324051716
 30
0.0
 10
118.8429762759
 20
192.3247841149
 30
0.0
 10
118.8464918942
 20
192.3252416047
 30
0.0
 10
118.8493042668
 20
192.3256081908
 30
0.0
 10
118.8514138803
 20
192.3258815032
 30
0.0
 10
118.8531708288
 20
192.3261144399
 30
0.0
 10
118.8544027783
 20
192.3262673372
 30
0.0
 10
118.8551034932
 20
192.3263705685
 30
0.0
 10
118.8556382024
 20
192.3264033103
 30
0.0
 10
118.8561378473
 20
192.326606848
 30
0.0
 10
118.8568162713
 20
192.3268186561
 30
0.0
 10
118.8579978148
 20
192.3272170776
 30
0.0
 10
118.8596887133
 20
192.3277717394
 30
0.0
 10
118.8617165163
 20
192.3284435451
 30
0.0
 10
118.864420699
 20
192.3293371164
 30
0.0
 10
118.8678007749
 20
192.3304548234
 30
0.0
 10
118.8732089816
 20
192.3322427395
 30
0.0
 10
118.8799692107
 20
192.334477777
 30
0.0
 10
118.8880814982
 20
192.3371597609
 30
0.0
 10
118.8961937823
 20
192.3398417612
 30
0.0
 10
118.9070101623
 20
192.3434177559
 30
0.0
 10
118.9205306369
 20
192.3478877512
 30
0.0
 10
118.9367552065
 20
192.3532517447
 30
0.0
 10
118.958387966
 20
192.3604037364
 30
0.0
 10
118.9746125357
 20
192.36576773
 30
0.0
 10
118.9854289154
 20
192.3693437258
 30
0.0
  0
SPLINE
  5
443
100
AcDbEntity
  8
7_ALL_FEATURES
100
AcDbSpline
 62
4
  6
CONTINUOUS
 70
0
 71
3
 72
179
 73
175
 74
0
 42
0.0000001
 43
0.0000001
 44
0.0000000001
 40
0.0
 40
0.0
 40
0.0
 40
0.0
 40
0.03125
 40
0.046875
 40
0.0625
 40
0.078125
 40
0.0859375
 40
0.09375
 40
0.1015625
 40
0.109375
 40
0.11328125
 40
0.1171875
 40
0.12109375
 40
0.123046875
 40
0.1240234375
 40
0.125
 40
0.1259765625
 40
0.126953125
 40
0.12890625
 40
0.1328125
 40
0.13671875
 40
0.140625
 40
0.1484375
 40
0.15625
 40
0.1640625
 40
0.171875
 40
0.1875
 40
0.203125
 40
0.2109375
 40
0.21875
 40
0.2265625
 40
0.234375
 40
0.23828125
 40
0.2421875
 40
0.244140625
 40
0.24609375
 40
0.248046875
 40
0.2490234375
 40
0.25
 40
0.2509765625
 40
0.251953125
 40
0.25390625
 40
0.255859375
 40
0.2578125
 40
0.26171875
 40
0.265625
 40
0.2734375
 40
0.28125
 40
0.2890625
 40
0.296875
 40
0.3125
 40
0.328125
 40
0.3359375
 40
0.34375
 40
0.3515625
 40
0.359375
 40
0.36328125
 40
0.3671875
 40
0.369140625
 40
0.37109375
 40
0.373046875
 40
0.3740234375
 40
0.375
 40
0.3759765625
 40
0.376953125
 40
0.37890625
 40
0.380859375
 40
0.3828125
 40
0.38671875
 40
0.390625
 40
0.3984375
 40
0.40625
 40
0.4140625
 40
0.421875
 40
0.4375
 40
0.453125
 40
0.4609375
 40
0.46875
 40
0.4765625
 40
0.484375
 40
0.48828125
 40
0.4921875
 40
0.494140625
 40
0.49609375
 40
0.498046875
 40
0.4990234375
 40
0.5
 40
0.5009765625
 40
0.501953125
 40
0.50390625
 40
0.505859375
 40
0.5078125
 40
0.51171875
 40
0.515625
 40
0.5234375
 40
0.53125
 40
0.5390625
 40
0.546875
 40
0.5625
 40
0.578125
 40
0.5859375
 40
0.59375
 40
0.6015625
 40
0.609375
 40
0.61328125
 40
0.6171875
 40
0.619140625
 40
0.62109375
 40
0.623046875
 40
0.6240234375
 40
0.625
 40
0.6259765625
 40
0.626953125
 40
0.62890625
 40
0.630859375
 40
0.6328125
 40
0.63671875
 40
0.640625
 40
0.6484375
 40
0.65625
 40
0.6640625
 40
0.671875
 40
0.6875
 40
0.703125
 40
0.7109375
 40
0.71875
 40
0.7265625
 40
0.734375
 40
0.73828125
 40
0.7421875
 40
0.744140625
 40
0.74609375
 40
0.748046875
 40
0.7490234375
 40
0.75
 40
0.7509765625
 40
0.751953125
 40
0.75390625
 40
0.755859375
 40
0.7578125
 40
0.76171875
 40
0.765625
 40
0.7734375
 40
0.78125
 40
0.7890625
 40
0.796875
 40
0.8125
 40
0.828125
 40
0.8359375
 40
0.84375
 40
0.8515625
 40
0.859375
 40
0.86328125
 40
0.8671875
 40
0.869140625
 40
0.87109375
 40
0.873046875
 40
0.8740234375
 40
0.875
 40
0.8759765625
 40
0.876953125
 40
0.87890625
 40
0.880859375
 40
0.8828125
 40
0.88671875
 40
0.890625
 40
0.8984375
 40
0.90625
 40
0.9140625
 40
0.921875
 40
0.9375
 40
0.953125
 40
0.96875
 40
1.0
 40
1.0
 40
1.0
 40
1.0
 10
118.5500698272
 20
194.7006017439
 30
0.0
 10
118.5431600275
 20
194.6963650412
 30
0.0
 10
118.5327953281
 20
194.690009987
 30
0.0
 10
118.5189757285
 20
194.6815365819
 30
0.0
 10
118.5086110299
 20
194.6751815266
 30
0.0
 10
118.4999737773
 20
194.6698856518
 30
0.0
 10
118.4930639838
 20
194.6656489418
 30
0.0
 10
118.4878816153
 20
194.6624714371
 30
0.0
 10
118.4826993361
 20
194.6592938261
 30
0.0
 10
118.4783804916
 20
194.656646148
 30
0.0
 10
118.4749260399
 20
194.6545272642
 30
0.0
 10
118.4723334965
 20
194.6529401267
 30
0.0
 10
118.4701784658
 20
194.6516110697
 30
0.0
 10
118.4686593035
 20
194.6506933728
 30
0.0
 10
118.4678078255
 20
194.6501492336
 30
0.0
 10
118.4671224131
 20
194.64979674
 30
0.0
 10
118.4666159091
 20
194.6492316733
 30
0.0
 10
118.4658781652
 20
194.6485523989
 30
0.0
 10
118.4646161892
 20
194.6473291218
 30
0.0
 10
118.4627981652
 20
194.6455996446
 30
0.0
 10
118.460623043
 20
194.6435165409
 30
0.0
 10
118.4577206072
 20
194.64074177
 30
0.0
 10
118.4540933424
 20
194.6372723796
 30
0.0
 10
118.4497402903
 20
194.6331095085
 30
0.0
 10
118.4453873276
 20
194.628946531
 30
0.0
 10
118.4395833461
 20
194.6233959315
 30
0.0
 10
118.4323283797
 20
194.6164576696
 30
0.0
 10
118.4250734108
 20
194.6095194114
 30
0.0
 10
118.4192694333
 20
194.6039688059
 30
0.0
 10
118.4149164587
 20
194.5998058463
 30
0.0
 10
118.4105634513
 20
194.5956429082
 30
0.0
 10
118.4069360474
 20
194.5921737259
 30
0.0
 10
118.4040338951
 20
194.5893985307
 30
0.0
 10
118.4022205718
 20
194.5876636906
 30
0.0
 10
118.400768718
 20
194.5862766044
 30
0.0
 10
118.3996831
 20
194.5852341382
 30
0.0
 10
118.3987680083
 20
194.5843722605
 30
0.0
 10
118.398059283
 20
194.5836674081
 30
0.0
 10
118.397463941
 20
194.5831807131
 30
0.0
 10
118.3971121166
 20
194.5825339163
 30
0.0
 10
118.3965579536
 20
194.5817274462
 30
0.0
 10
118.3958944348
 20
194.5807001708
 30
0.0
 10
118.3950857202
 20
194.5794756533
 30
0.0
 10
118.3940117972
 20
194.5778400947
 30
0.0
 10
118.3926678995
 20
194.5757966286
 30
0.0
 10
118.3905184982
 20
194.5725265339
 30
0.0
 10
118.38783146
 20
194.568439104
 30
0.0
 10
118.3846071371
 20
194.5635341073
 30
0.0
 10
118.3813827812
 20
194.5586291322
 30
0.0
 10
118.3770836517
 20
194.5520891578
 30
0.0
 10
118.3717097353
 20
194.5439141926
 30
0.0
 10
118.366335822
 20
194.5357392258
 30
0.0
 10
118.3620366875
 20
194.529199254
 30
0.0
 10
118.3588123465
 20
194.5242942713
 30
0.0
 10
118.355587968
 20
194.5193893032
 30
0.0
 10
118.3529011024
 20
194.515301784
 30
0.0
 10
118.3507513492
 20
194.5120318714
 30
0.0
 10
118.3494083471
 20
194.5099879421
 30
0.0
 10
118.3483325858
 20
194.5083533343
 30
0.0
 10
118.3475294875
 20
194.507125912
 30
0.0
 10
118.3468483964
 20
194.506107725
 30
0.0
 10
118.3463300843
 20
194.5052827127
 30
0.0
 10
118.3458687734
 20
194.5046925429
 30
0.0
 10
118.3456844893
 20
194.5039932467
 30
0.0
 10
118.3453420081
 20
194.503098971
 30
0.0
 10
118.3449471076
 20
194.5019680478
 30
0.0
 10
118.344459016
 20
194.5006165381
 30
0.0
 10
118.3438131907
 20
194.4988125698
 30
0.0
 10
118.3430042096
 20
194.496558279
 30
0.0
 10
118.3417107896
 20
194.4929510395
 30
0.0
 10
118.3400936888
 20
194.4884421185
 30
0.0
 10
118.3381533075
 20
194.4830313583
 30
0.0
 10
118.3362128888
 20
194.4776206128
 30
0.0
 10
118.333625677
 20
194.4704062803
 30
0.0
 10
118.3303916573
 20
194.4613883666
 30
0.0
 10
118.327157641
 20
194.4523704519
 30
0.0
 10
118.3245704237
 20
194.4451561209
 30
0.0
 10
118.3226300213
 20
194.4397453708
 30
0.0
 10
118.3206895788
 20
194.4343346279
 30
0.0
 10
118.3190726683
 20
194.4298256532
 30
0.0
 10
118.3177788602
 20
194.4262185232
 30
0.0
 10
118.316970867
 20
194.4239639536
 30
0.0
 10
118.3163230138
 20
194.4221605575
 30
0.0
 10
118.3158411177
 20
194.4208072997
 30
0.0
 10
118.3154268329
 20
194.419681846
 30
0.0
 10
118.3151238994
 20
194.4187764116
 30
0.0
 10
118.3148188392
 20
194.4181111934
 30
0.0
 10
118.3148109718
 20
194.4173930804
 30
0.0
 10
118.3146966685
 20
194.4164540732
 30
0.0
 10
118.3145894073
 20
194.415273975
 30
0.0
 10
118.3144454482
 20
194.4138605704
 30
0.0
 10
118.3142588278
 20
194.4119750834
 30
0.0
 10
118.314023729
 20
194.409618549
 30
0.0
 10
118.3136485899
 20
194.4058479127
 30
0.0
 10
118.3131793164
 20
194.4011346795
 30
0.0
 10
118.3126163381
 20
194.395478773
 30
0.0
 10
118.3120533197
 20
194.3898228737
 30
0.0
 10
118.3113026425
 20
194.382281672
 30
0.0
 10
118.3103642908
 20
194.3728551709
 30
0.0
 10
118.3094259426
 20
194.3634286694
 30
0.0
 10
118.3086752598
 20
194.3558874682
 30
0.0
 10
118.3081122584
 20
194.3502315675
 30
0.0
 10
118.3075492162
 20
194.344575666
 30
0.0
 10
118.3070801416
 20
194.3398624173
 30
0.0
 10
118.3067045968
 20
194.3360918127
 30
0.0
 10
118.3064705307
 20
194.3337351975
 30
0.0
 10
118.3062817905
 20
194.3318498764
 30
0.0
 10
118.3061443076
 20
194.3304359647
 30
0.0
 10
118.3060167839
 20
194.3292574534
 30
0.0
 10
118.3059438201
 20
194.3283152085
 30
0.0
 10
118.3058097044
 20
194.3276069832
 30
0.0
 10
118.3059786325
 20
194.3269046424
 30
0.0
 10
118.3060980128
 20
194.3259661324
 30
0.0
 10
118.3062835572
 20
194.3247937001
 30
0.0
 10
118.3064906648
 20
194.3233864796
 30
0.0
 10
118.306772238
 20
194.3215102909
 30
0.0
 10
118.3071223454
 20
194.319165019
 30
0.0
 10
118.3076835564
 20
194.3154126041
 30
0.0
 10
118.3083847135
 20
194.3107220786
 30
0.0
 10
118.3092262548
 20
194.3050934509
 30
0.0
 10
118.3100677553
 20
194.2994648225
 30
0.0
 10
118.3111897703
 20
194.2919599848
 30
0.0
 10
118.3125922836
 20
194.2825789375
 30
0.0
 10
118.3139948005
 20
194.2731978907
 30
0.0
 10
118.3151168098
 20
194.2656930523
 30
0.0
 10
118.3159583272
 20
194.2600644259
 30
0.0
 10
118.316799805
 20
194.2544357907
 30
0.0
 10
118.3175011601
 20
194.2497452885
 30
0.0
 10
118.3180619672
 20
194.2459928261
 30
0.0
 10
118.3184131023
 20
194.2436476751
 30
0.0
 10
118.318692566
 20
194.2417712383
 30
0.0
 10
118.3189061186
 20
194.2403647758
 30
0.0
 10
118.3190714982
 20
194.2391899716
 30
0.0
 10
118.3192320186
 20
194.2382563009
 30
0.0
 10
118.3192753072
 20
194.2375391812
 30
0.0
 10
118.3196128942
 20
194.2368864418
 30
0.0
 10
118.3199602079
 20
194.2359936337
 30
0.0
 10
118.3204296209
 20
194.2348853394
 30
0.0
 10
118.3209778195
 20
194.2335520836
 30
0.0
 10
118.321714024
 20
194.2317755628
 30
0.0
 10
118.3226324742
 20
194.2295545168
 30
0.0
 10
118.3241030036
 20
194.226001064
 30
0.0
 10
118.325940819
 20
194.2215591722
 30
0.0
 10
118.328146346
 20
194.2162289345
 30
0.0
 10
118.3303518332
 20
194.2108986881
 30
0.0
 10
118.3332924968
 20
194.203791696
 30
0.0
 10
118.3369683211
 20
194.1949079546
 30
0.0
 10
118.3406441488
 20
194.1860242143
 30
0.0
 10
118.3435848069
 20
194.1789172205
 30
0.0
 10
118.3457903105
 20
194.173586979
 30
0.0
 10
118.3479957761
 20
194.168256723
 30
0.0
 10
118.3498337826
 20
194.1638148883
 30
0.0
 10
118.3513039222
 20
194.1602613189
 30
0.0
 10
118.3522233642
 20
194.1580405695
 30
0.0
 10
118.3529575329
 20
194.15626344
 30
0.0
 10
118.3535119514
 20
194.154932044
 30
0.0
 10
118.3539619038
 20
194.1538179308
 30
0.0
 10
118.3543489211
 20
194.1529369943
 30
0.0
 10
118.3545652556
 20
194.1522479998
 30
0.0
 10
118.3550637761
 20
194.1516669969
 30
0.0
 10
118.3556298989
 20
194.1508546035
 30
0.0
 10
118.3563713717
 20
194.1498520542
 30
0.0
 10
118.3572466633
 20
194.1486434553
 30
0.0
 10
118.3584187749
 20
194.147033925
 30
0.0
 10
118.3598821832
 20
194.1450213496
 30
0.0
 10
118.3622246039
 20
194.1418015992
 30
0.0
 10
118.3651522979
 20
194.1377767842
 30
0.0
 10
118.368665673
 20
194.1329470607
 30
0.0
 10
118.37217901
 20
194.1281173226
 30
0.0
 10
118.3768634726
 20
194.1216776769
 30
0.0
 10
118.3827190463
 20
194.1136281181
 30
0.0
 10
118.3897457367
 20
194.1039686482
 30
0.0
 10
118.3991146566
 20
194.0910893547
 30
0.0
 10
118.4061413467
 20
194.0814298847
 30
0.0
 10
118.4108258067
 20
194.074990238
 30
0.0
  0
SPLINE
  5
444
100
AcDbEntity
  8
7_ALL_FEATURES
100
AcDbSpline
 62
4
  6
CONTINUOUS
 70
0
 71
3
 72
105
 73
101
 74
0
 42
0.0000001
 43
0.0000001
 44
0.0000000001
 40
0.0
 40
0.0
 40
0.0
 40
0.0
 40
0.0625
 40
0.09375
 40
0.109375
 40
0.125
 40
0.140625
 40
0.1484375
 40
0.15625
 40
0.16015625
 40
0.1640625
 40
0.166015625
 40
0.1669921875
 40
0.16796875
 40
0.169921875
 40
0.171875
 40
0.1796875
 40
0.1875
 40
0.1953125
 40
0.203125
 40
0.21875
 40
0.25
 40
0.28125
 40
0.296875
 40
0.3046875
 40
0.3125
 40
0.3203125
 40
0.328125
 40
0.330078125
 40
0.33203125
 40
0.3330078125
 40
0.333984375
 40
0.3359375
 40
0.33984375
 40
0.34375
 40
0.3515625
 40
0.359375
 40
0.375
 40
0.390625
 40
0.40625
 40
0.421875
 40
0.4375
 40
0.453125
 40
0.46875
 40
0.4765625
 40
0.484375
 40
0.48828125
 40
0.4921875
 40
0.49609375
 40
0.498046875
 40
0.5
 40
0.501953125
 40
0.50390625
 40
0.5078125
 40
0.51171875
 40
0.515625
 40
0.5234375
 40
0.53125
 40
0.546875
 40
0.5625
 40
0.578125
 40
0.59375
 40
0.609375
 40
0.625
 40
0.640625
 40
0.6484375
 40
0.65625
 40
0.66015625
 40
0.6640625
 40
0.666015625
 40
0.6669921875
 40
0.66796875
 40
0.669921875
 40
0.671875
 40
0.6796875
 40
0.6875
 40
0.6953125
 40
0.703125
 40
0.71875
 40
0.75
 40
0.78125
 40
0.796875
 40
0.8046875
 40
0.8125
 40
0.8203125
 40
0.828125
 40
0.830078125
 40
0.83203125
 40
0.8330078125
 40
0.833984375
 40
0.8359375
 40
0.83984375
 40
0.84375
 40
0.8515625
 40
0.859375
 40
0.875
 40
0.890625
 40
0.90625
 40
0.9375
 40
1.0
 40
1.0
 40
1.0
 40
1.0
 10
119.1218148134
 20
194.7006017439
 30
0.0
 10
119.1105652766
 20
194.7049932184
 30
0.0
 10
119.0936909685
 20
194.7115804226
 30
0.0
 10
119.074004286
 20
194.7192655204
 30
0.0
 10
119.0627547385
 20
194.7236569673
 30
0.0
 10
119.0543176188
 20
194.7269506577
 30
0.0
 10
119.0472865552
 20
194.7296950645
 30
0.0
 10
119.0416619972
 20
194.7318913419
 30
0.0
 10
119.0381459816
 20
194.7332623029
 30
0.0
 10
119.0353346963
 20
194.7343629935
 30
0.0
 10
119.0335741586
 20
194.7350419767
 30
0.0
 10
119.0323487652
 20
194.7355351988
 30
0.0
 10
119.0316376148
 20
194.7357889808
 30
0.0
 10
119.0308853132
 20
194.7359370786
 30
0.0
 10
119.0299590018
 20
194.7361583242
 30
0.0
 10
119.0277242778
 20
194.7366595824
 30
0.0
 10
119.024377054
 20
194.7374239571
 30
0.0
 10
119.01991131
 20
194.7384359861
 30
0.0
 10
119.0154463093
 20
194.7394499243
 30
0.0
 10
119.0094927157
 20
194.7408011758
 30
0.0
 10
118.9990740485
 20
194.7431661783
 30
0.0
 10
118.9841901692
 20
194.7465445741
 30
0.0
 10
118.9693063342
 20
194.7499230915
 30
0.0
 10
118.958887605
 20
194.7522879238
 30
0.0
 10
118.9529341088
 20
194.7536394426
 30
0.0
 10
118.9484688093
 20
194.7546525608
 30
0.0
 10
118.9440041876
 20
194.7556676696
 30
0.0
 10
118.9406538208
 20
194.7564234201
 30
0.0
 10
118.9384231987
 20
194.7569359335
 30
0.0
 10
118.9374893745
 20
194.7571365648
 30
0.0
 10
118.9367525756
 20
194.7573272
 30
0.0
 10
118.9359782536
 20
194.7574076475
 30
0.0
 10
118.934605756
 20
194.7574972347
 30
0.0
 10
118.9326541414
 20
194.7576519278
 30
0.0
 10
118.9295264747
 20
194.7578845093
 30
0.0
 10
118.9256186318
 20
194.7581803473
 30
0.0
 10
118.9193651104
 20
194.7586508315
 30
0.0
 10
118.9115485424
 20
194.7592399169
 30
0.0
 10
118.9021685177
 20
194.7599463994
 30
0.0
 10
118.8927885315
 20
194.7606529937
 30
0.0
 10
118.8834085346
 20
194.7613595607
 30
0.0
 10
118.8740285419
 20
194.7620661251
 30
0.0
 10
118.8646485429
 20
194.7627727273
 30
0.0
 10
118.8568318947
 20
194.7633614387
 30
0.0
 10
118.850578537
 20
194.7638326858
 30
0.0
 10
118.8466702774
 20
194.7641265823
 30
0.0
 10
118.8435434661
 20
194.7643631491
 30
0.0
 10
118.8411989149
 20
194.7645366052
 30
0.0
 10
118.8392433495
 20
194.7646937778
 30
0.0
 10
118.8376828732
 20
194.7647911984
 30
0.0
 10
118.8365016515
 20
194.7649416407
 30
0.0
 10
118.8353618997
 20
194.7647967345
 30
0.0
 10
118.8338277445
 20
194.7647066953
 30
0.0
 10
118.8319150207
 20
194.7645587495
 30
0.0
 10
118.8296176247
 20
194.7643963655
 30
0.0
 10
118.8265551731
 20
194.7641745616
 30
0.0
 10
118.8227268542
 20
194.7638991187
 30
0.0
 10
118.8166016862
 20
194.7634573974
 30
0.0
 10
118.8089451774
 20
194.762905593
 30
0.0
 10
118.7997573877
 20
194.7622432795
 30
0.0
 10
118.7905695925
 20
194.7615810036
 30
0.0
 10
118.7813817984
 20
194.7609187255
 30
0.0
 10
118.7721940053
 20
194.7602564187
 30
0.0
 10
118.7630062072
 20
194.7595942287
 30
0.0
 10
118.7553497245
 20
194.7590420383
 30
0.0
 10
118.7492245031
 20
194.7586011046
 30
0.0
 10
118.7453963201
 20
194.7583236573
 30
0.0
 10
118.7423335895
 20
194.7581059677
 30
0.0
 10
118.7404198033
 20
194.7579601729
 30
0.0
 10
118.7390793104
 20
194.7578776345
 30
0.0
 10
118.7383146326
 20
194.7577999319
 30
0.0
 10
118.7375549193
 20
194.7576072086
 30
0.0
 10
118.7366035808
 20
194.7574056191
 30
0.0
 10
118.734321765
 20
194.7568894467
 30
0.0
 10
118.7308984547
 20
194.7561287786
 30
0.0
 10
118.7263343762
 20
194.7551067867
 30
0.0
 10
118.7217702081
 20
194.7540868727
 30
0.0
 10
118.7156846819
 20
194.7527262623
 30
0.0
 10
118.7050349956
 20
194.7503455339
 30
0.0
 10
118.689821173
 20
194.7469443003
 30
0.0
 10
118.6746073199
 20
194.7435431917
 30
0.0
 10
118.6639576764
 20
194.7411622883
 30
0.0
 10
118.657872083
 20
194.7398019529
 30
0.0
 10
118.653308121
 20
194.7387811951
 30
0.0
 10
118.6487432684
 20
194.7377623721
 30
0.0
 10
118.6453221258
 20
194.73699283
 30
0.0
 10
118.643037481
 20
194.7364882388
 30
0.0
 10
118.6420913239
 20
194.7362654379
 30
0.0
 10
118.6413209188
 20
194.7361164845
 30
0.0
 10
118.6405998088
 20
194.7358604255
 30
0.0
 10
118.63936077
 20
194.7353625586
 30
0.0
 10
118.6375787647
 20
194.7346772843
 30
0.0
 10
118.6347342343
 20
194.7335663355
 30
0.0
 10
118.6311762847
 20
194.7321826177
 30
0.0
 10
118.6254848434
 20
194.7299658925
 30
0.0
 10
118.6183701033
 20
194.7271959387
 30
0.0
 10
118.6098326027
 20
194.7238715864
 30
0.0
 10
118.5984492033
 20
194.7194392588
 30
0.0
 10
118.5785282849
 20
194.711682619
 30
0.0
 10
118.5614532014
 20
194.7050340934
 30
0.0
 10
118.5500698148
 20
194.700601738
 30
0.0
  0
SPLINE
  5
445
100
AcDbEntity
  8
7_ALL_FEATURES
100
AcDbSpline
 62
4
  6
CONTINUOUS
 70
0
 71
3
 72
164
 73
160
 74
0
 42
0.0000001
 43
0.0000001
 44
0.0000000001
 40
0.0
 40
0.0
 40
0.0
 40
0.0
 40
0.03125
 40
0.046875
 40
0.0625
 40
0.0703125
 40
0.078125
 40
0.0859375
 40
0.09375
 40
0.09765625
 40
0.1015625
 40
0.10546875
 40
0.107421875
 40
0.109375
 40
0.1103515625
 40
0.111328125
 40
0.1123046875
 40
0.11328125
 40
0.115234375
 40
0.1171875
 40
0.125
 40
0.1328125
 40
0.140625
 40
0.15625
 40
0.171875
 40
0.1875
 40
0.1953125
 40
0.203125
 40
0.2109375
 40
0.21484375
 40
0.21875
 40
0.220703125
 40
0.22265625
 40
0.2236328125
 40
0.224609375
 40
0.2265625
 40
0.23046875
 40
0.234375
 40
0.2421875
 40
0.25
 40
0.265625
 40
0.28125
 40
0.296875
 40
0.3046875
 40
0.3125
 40
0.3203125
 40
0.32421875
 40
0.328125
 40
0.330078125
 40
0.33203125
 40
0.3330078125
 40
0.3334960938
 40
0.333984375
 40
0.3349609375
 40
0.3359375
 40
0.33984375
 40
0.34375
 40
0.34765625
 40
0.3515625
 40
0.359375
 40
0.375
 40
0.390625
 40
0.40625
 40
0.4140625
 40
0.421875
 40
0.4296875
 40
0.43359375
 40
0.4375
 40
0.44140625
 40
0.443359375
 40
0.4438476562
 40
0.4443359375
 40
0.4453125
 40
0.447265625
 40
0.44921875
 40
0.453125
 40
0.45703125
 40
0.4609375
 40
0.46875
 40
0.484375
 40
0.5
 40
0.515625
 40
0.53125
 40
0.5390625
 40
0.54296875
 40
0.546875
 40
0.55078125
 40
0.552734375
 40
0.5546875
 40
0.5556640625
 40
0.556640625
 40
0.55859375
 40
0.5625
 40
0.56640625
 40
0.5703125
 40
0.578125
 40
0.5859375
 40
0.59375
 40
0.609375
 40
0.625
 40
0.640625
 40
0.6484375
 40
0.65234375
 40
0.65625
 40
0.66015625
 40
0.6640625
 40
0.6650390625
 40
0.666015625
 40
0.6665039062
 40
0.6669921875
 40
0.66796875
 40
0.669921875
 40
0.671875
 40
0.67578125
 40
0.6796875
 40
0.6875
 40
0.6953125
 40
0.703125
 40
0.71875
 40
0.734375
 40
0.75
 40
0.7578125
 40
0.765625
 40
0.76953125
 40
0.7734375
 40
0.775390625
 40
0.7763671875
 40
0.77734375
 40
0.779296875
 40
0.78125
 40
0.78515625
 40
0.7890625
 40
0.796875
 40
0.8046875
 40
0.8125
 40
0.828125
 40
0.84375
 40
0.859375
 40
0.8671875
 40
0.875
 40
0.8828125
 40
0.884765625
 40
0.88671875
 40
0.8876953125
 40
0.888671875
 40
0.8896484375
 40
0.890625
 40
0.892578125
 40
0.89453125
 40
0.8984375
 40
0.90234375
 40
0.90625
 40
0.9140625
 40
0.921875
 40
0.9296875
 40
0.9375
 40
0.953125
 40
0.96875
 40
1.0
 40
1.0
 40
1.0
 40
1.0
 10
119.1944796627
 20
194.0159337888
 30
0.0
 10
119.201113795
 20
194.0219031623
 30
0.0
 10
119.2110649934
 20
194.0308572226
 30
0.0
 10
119.224333258
 20
194.0427959697
 30
0.0
 10
119.2326259234
 20
194.0502576866
 30
0.0
 10
119.2392600556
 20
194.0562270603
 30
0.0
 10
119.2442356552
 20
194.0607040901
 30
0.0
 10
119.249211253
 20
194.0651811213
 30
0.0
 10
119.2533575902
 20
194.0689119766
 30
0.0
 10
119.2566746471
 20
194.0718966699
 30
0.0
 10
119.259162475
 20
194.0741351651
 30
0.0
 10
119.2612355529
 20
194.0760006565
 30
0.0
 10
119.2628942664
 20
194.077492873
 30
0.0
 10
119.2639303903
 20
194.0784259105
 30
0.0
 10
119.2647605997
 20
194.0791714195
 30
0.0
 10
119.265379669
 20
194.0797330728
 30
0.0
 10
119.2658124496
 20
194.0804256467
 30
0.0
 10
119.2664545518
 20
194.0813033545
 30
0.0
 10
119.2672349412
 20
194.082416118
 30
0.0
 10
119.269126179
 20
194.0850738873
 30
0.0
 10
119.2719553495
 20
194.0890659428
 30
0.0
 10
119.2757319634
 20
194.0943856008
 30
0.0
 10
119.2807659166
 20
194.1014795548
 30
0.0
 10
119.2870588808
 20
194.1103466294
 30
0.0
 10
119.2946102271
 20
194.1209872698
 30
0.0
 10
119.3009030214
 20
194.1298544575
 30
0.0
 10
119.3059373485
 20
194.1369481626
 30
0.0
 10
119.3097128154
 20
194.1422685843
 30
0.0
 10
119.3128599277
 20
194.1467018115
 30
0.0
 10
119.3153756211
 20
194.1502494199
 30
0.0
 10
119.3169524756
 20
194.1524643375
 30
0.0
 10
119.3182035477
 20
194.1542416252
 30
0.0
 10
119.3190092234
 20
194.1553402146
 30
0.0
 10
119.3193744622
 20
194.1563627061
 30
0.0
 10
119.3197884125
 20
194.1573601496
 30
0.0
 10
119.320490133
 20
194.1591173444
 30
0.0
 10
119.3215044306
 20
194.1616215346
 30
0.0
 10
119.3231206901
 20
194.1656316413
 30
0.0
 10
119.3251432801
 20
194.1706431097
 30
0.0
 10
119.3283781576
 20
194.1786621102
 30
0.0
 10
119.3324221906
 20
194.1886856372
 30
0.0
 10
119.3372748366
 20
194.2007139665
 30
0.0
 10
119.3413187719
 20
194.2107375494
 30
0.0
 10
119.3445538644
 20
194.218756427
 30
0.0
 10
119.346980313
 20
194.2247705661
 30
0.0
 10
119.3490019457
 20
194.2297824078
 30
0.0
 10
119.350620166
 20
194.2337917487
 30
0.0
 10
119.3516294724
 20
194.2362978884
 30
0.0
 10
119.352441684
 20
194.2383021094
 30
0.0
 10
119.3529384407
 20
194.2395563236
 30
0.0
 10
119.3533079663
 20
194.2404311149
 30
0.0
 10
119.3534850221
 20
194.2409359375
 30
0.0
 10
119.3535336347
 20
194.2414593733
 30
0.0
 10
119.3536383029
 20
194.242107306
 30
0.0
 10
119.3538533728
 20
194.2436675808
 30
0.0
 10
119.3541911542
 20
194.2460057936
 30
0.0
 10
119.3546328551
 20
194.2491246676
 30
0.0
 10
119.3550768764
 20
194.2522432055
 30
0.0
 10
119.3556680953
 20
194.2564013732
 30
0.0
 10
119.3567031058
 20
194.2636781121
 30
0.0
 10
119.3581814937
 20
194.274073482
 30
0.0
 10
119.3599556497
 20
194.2865479132
 30
0.0
 10
119.3614340758
 20
194.2969432767
 30
0.0
 10
119.3626168609
 20
194.3052595638
 30
0.0
 10
119.3635038393
 20
194.3114967879
 30
0.0
 10
119.3642433375
 20
194.3166944469
 30
0.0
 10
119.3648341525
 20
194.3208526362
 30
0.0
 10
119.3652794047
 20
194.3239711086
 30
0.0
 10
119.3656436381
 20
194.3265703749
 30
0.0
 10
119.3658927998
 20
194.3282589153
 30
0.0
 10
119.3659947552
 20
194.3290392744
 30
0.0
 10
119.3660949592
 20
194.3295569614
 30
0.0
 10
119.3659409919
 20
194.3304889911
 30
0.0
 10
119.3658337623
 20
194.3318115361
 30
0.0
 10
119.3655991937
 20
194.3339325969
 30
0.0
 10
119.3653275982
 20
194.3365822112
 30
0.0
 10
119.3649924324
 20
194.339762481
 30
0.0
 10
119.3645487717
 20
194.3440025852
 30
0.0
 10
119.3637708615
 20
194.3514228865
 30
0.0
 10
119.3626603505
 20
194.3620232554
 30
0.0
 10
119.3613273859
 20
194.3747437213
 30
0.0
 10
119.3599945643
 20
194.3874641931
 30
0.0
 10
119.3588836957
 20
194.3980645471
 30
0.0
 10
119.3581064115
 20
194.4054848746
 30
0.0
 10
119.3576617491
 20
194.409724937
 30
0.0
 10
119.3573296598
 20
194.4129053351
 30
0.0
 10
119.3570484354
 20
194.4155545476
 30
0.0
 10
119.356833512
 20
194.4176764284
 30
0.0
 10
119.3566762861
 20
194.4189968864
 30
0.0
 10
119.3566029486
 20
194.4200663471
 30
0.0
 10
119.356171342
 20
194.4210463535
 30
0.0
 10
119.3555829547
 20
194.4228030432
 30
0.0
 10
119.3546551314
 20
194.4252908099
 30
0.0
 10
119.3535790981
 20
194.4282854569
 30
0.0
 10
119.3521313385
 20
194.4322750615
 30
0.0
 10
119.3503261159
 20
194.437263185
 30
0.0
 10
119.3481579327
 20
194.4432484549
 30
0.0
 10
119.3452676904
 20
194.4512289815
 30
0.0
 10
119.3416546625
 20
194.4612045843
 30
0.0
 10
119.3373191065
 20
194.4731753239
 30
0.0
 10
119.3337061848
 20
194.48315096
 30
0.0
 10
119.3311770183
 20
194.4901338567
 30
0.0
 10
119.3297319757
 20
194.4941241607
 30
0.0
 10
119.3286476423
 20
194.4971166708
 30
0.0
 10
119.3275654169
 20
194.5001100137
 30
0.0
 10
119.3267478375
 20
194.5023526857
 30
0.0
 10
119.3262119764
 20
194.5038514322
 30
0.0
 10
119.325975023
 20
194.5044705056
 30
0.0
 10
119.3258173682
 20
194.5049783714
 30
0.0
 10
119.3255430238
 20
194.5054401322
 30
0.0
 10
119.3250087045
 20
194.5062267921
 30
0.0
 10
119.3242736786
 20
194.5073617687
 30
0.0
 10
119.3230818289
 20
194.5091714852
 30
0.0
 10
119.3215974295
 20
194.5114357694
 30
0.0
 10
119.3192193652
 20
194.5150574288
 30
0.0
 10
119.3162478229
 20
194.5195849133
 30
0.0
 10
119.3126815276
 20
194.525017719
 30
0.0
 10
119.3079266239
 20
194.532261522
 30
0.0
 10
119.3019829301
 20
194.5413162487
 30
0.0
 10
119.2948505704
 20
194.5521819577
 30
0.0
 10
119.2889067801
 20
194.561236628
 30
0.0
 10
119.2841520886
 20
194.5684805551
 30
0.0
 10
119.2811796331
 20
194.573007576
 30
0.0
 10
119.2788034396
 20
194.5766301856
 30
0.0
 10
119.2773142782
 20
194.578892051
 30
0.0
 10
119.2762799628
 20
194.5804798973
 30
0.0
 10
119.2756762559
 20
194.5813801341
 30
0.0
 10
119.2751201421
 20
194.582307057
 30
0.0
 10
119.2740838891
 20
194.5832744445
 30
0.0
 10
119.2724630206
 20
194.5848430876
 30
0.0
 10
119.2704242194
 20
194.5867967616
 30
0.0
 10
119.2671692443
 20
194.5899266249
 30
0.0
 10
119.2630980872
 20
194.5938375869
 30
0.0
 10
119.258213742
 20
194.5985313262
 30
0.0
 10
119.2517009188
 20
194.6047894425
 30
0.0
 10
119.2435600036
 20
194.612612146
 30
0.0
 10
119.2337909034
 20
194.6219994154
 30
0.0
 10
119.2256498414
 20
194.6298219784
 30
0.0
 10
119.2191373413
 20
194.6360804038
 30
0.0
 10
119.2142520046
 20
194.6407731947
 30
0.0
 10
119.2105907559
 20
194.6442957317
 30
0.0
 10
119.2081456343
 20
194.6466395047
 30
0.0
 10
119.2071332172
 20
194.6476229007
 30
0.0
 10
119.2063083918
 20
194.6483936986
 30
0.0
 10
119.205730618
 20
194.6490154593
 30
0.0
 10
119.2049969088
 20
194.6494705303
 30
0.0
 10
119.2040146256
 20
194.6500730112
 30
0.0
 10
119.2027881427
 20
194.6508275779
 30
0.0
 10
119.2008250038
 20
194.6520340655
 30
0.0
 10
119.198371343
 20
194.6535424561
 30
0.0
 10
119.1954268375
 20
194.6553524044
 30
0.0
 10
119.1915008695
 20
194.657765711
 30
0.0
 10
119.1865933961
 20
194.6607823297
 30
0.0
 10
119.1807044337
 20
194.6644022784
 30
0.0
 10
119.1748154697
 20
194.6680222254
 30
0.0
 10
119.1669635183
 20
194.672848822
 30
0.0
 10
119.1571485789
 20
194.6788820675
 30
0.0
 10
119.141444676
 20
194.6885352605
 30
0.0
 10
119.1296667488
 20
194.6957751552
 30
0.0
 10
119.1218147973
 20
194.7006017517
 30
0.0
  0
SPLINE
  5
446
100
AcDbEntity
  8
7_ALL_FEATURES
100
AcDbSpline
 62
4
  6
CONTINUOUS
 70
0
 71
3
 72
78
 73
74
 74
0
 42
0.0000001
 43
0.0000001
 44
0.0000000001
 40
0.0
 40
0.0
 40
0.0
 40
0.0
 40
0.0625
 40
0.09375
 40
0.109375
 40
0.125
 40
0.140625
 40
0.15625
 40
0.16015625
 40
0.1640625
 40
0.16796875
 40
0.171875
 40
0.1796875
 40
0.1875
 40
0.203125
 40
0.21875
 40
0.25
 40
0.28125
 40
0.296875
 40
0.3125
 40
0.3203125
 40
0.328125
 40
0.33203125
 40
0.3359375
 40
0.33984375
 40
0.34375
 40
0.359375
 40
0.375
 40
0.390625
 40
0.40625
 40
0.4375
 40
0.453125
 40
0.46875
 40
0.484375
 40
0.4921875
 40
0.49609375
 40
0.5
 40
0.50390625
 40
0.5078125
 40
0.515625
 40
0.53125
 40
0.546875
 40
0.5625
 40
0.59375
 40
0.609375
 40
0.625
 40
0.640625
 40
0.65625
 40
0.66015625
 40
0.6640625
 40
0.66796875
 40
0.671875
 40
0.6796875
 40
0.6875
 40
0.703125
 40
0.71875
 40
0.75
 40
0.78125
 40
0.796875
 40
0.8125
 40
0.8203125
 40
0.828125
 40
0.83203125
 40
0.833984375
 40
0.8359375
 40
0.83984375
 40
0.84375
 40
0.859375
 40
0.875
 40
0.890625
 40
0.90625
 40
0.9375
 40
1.0
 40
1.0
 40
1.0
 40
1.0
 10
118.9854289309
 20
192.3693437327
 30
0.0
 10
118.9970280695
 20
192.3749144352
 30
0.0
 10
119.0144267634
 20
192.3832705101
 30
0.0
 10
119.0347252886
 20
192.39301919
 30
0.0
 10
119.046324376
 20
192.3985899702
 30
0.0
 10
119.0550238873
 20
192.4027677585
 30
0.0
 10
119.0637226502
 20
192.4069466813
 30
0.0
 10
119.0702488207
 20
192.4100776926
 30
0.0
 10
119.0745963378
 20
192.4121699803
 30
0.0
 10
119.0767759234
 20
192.4132072907
 30
0.0
 10
119.0789328533
 20
192.4142789454
 30
0.0
 10
119.08170096
 20
192.4158712347
 30
0.0
 10
119.0851980039
 20
192.4178056427
 30
0.0
 10
119.0907726462
 20
192.4209319656
 30
0.0
 10
119.0977480156
 20
192.4248291579
 30
0.0
 10
119.1089046375
 20
192.4310706779
 30
0.0
 10
119.1228519169
 20
192.438870331
 30
0.0
 10
119.1367981495
 20
192.4466714565
 30
0.0
 10
119.1479564463
 20
192.4529106204
 30
0.0
 10
119.1549276285
 20
192.456813703
 30
0.0
 10
119.1605108546
 20
192.4599279509
 30
0.0
 10
119.1639860467
 20
192.4618930988
 30
0.0
 10
119.1667990084
 20
192.4634222885
 30
0.0
 10
119.1688189001
 20
192.4646867207
 30
0.0
 10
119.1708136198
 20
192.4659840899
 30
0.0
 10
119.1748160079
 20
192.4685618854
 30
0.0
 10
119.1808141519
 20
192.4724356945
 30
0.0
 10
119.1888147834
 20
192.4775967083
 30
0.0
 10
119.1968145912
 20
192.4827588013
 30
0.0
 10
119.2074812534
 20
192.4896412559
 30
0.0
 10
119.2181480519
 20
192.4965235694
 30
0.0
 10
119.2288142528
 20
192.5034065581
 30
0.0
 10
119.2368155599
 20
192.5085669151
 30
0.0
 10
119.2434780433
 20
192.5128732129
 30
0.0
 10
119.2481521294
 20
192.5158758452
 30
0.0
 10
119.2508068786
 20
192.5176100228
 30
0.0
 10
119.2528434553
 20
192.5188588575
 30
0.0
 10
119.2547060512
 20
192.5203056922
 30
0.0
 10
119.2572501988
 20
192.5221657406
 30
0.0
 10
119.2616741823
 20
192.5254530037
 30
0.0
 10
119.268008941
 20
192.5301322706
 30
0.0
 10
119.2756043245
 20
192.5357545914
 30
0.0
 10
119.2857337102
 20
192.5432485059
 30
0.0
 10
119.2958625037
 20
192.5507430992
 30
0.0
 10
119.3059914181
 20
192.558237541
 30
0.0
 10
119.3135883335
 20
192.5638581482
 30
0.0
 10
119.3211842701
 20
192.5694797276
 30
0.0
 10
119.3268839867
 20
192.5736931637
 30
0.0
 10
119.3306794968
 20
192.576506398
 30
0.0
 10
119.3325849323
 20
192.5779053776
 30
0.0
 10
119.334460506
 20
192.5793340519
 30
0.0
 10
119.3368191829
 20
192.5813802432
 30
0.0
 10
119.3398161797
 20
192.5838896041
 30
0.0
 10
119.3445841862
 20
192.5879316179
 30
0.0
 10
119.3505535044
 20
192.5929748755
 30
0.0
 10
119.360099206
 20
192.6010492766
 30
0.0
 10
119.3720331489
 20
192.6111403989
 30
0.0
 10
119.3839663374
 20
192.6212325517
 30
0.0
 10
119.3935132461
 20
192.6293053041
 30
0.0
 10
119.3994795466
 20
192.6343526836
 30
0.0
 10
119.4042537393
 20
192.6383862474
 30
0.0
 10
119.4072349876
 20
192.6409171199
 30
0.0
 10
119.4093271159
 20
192.6426689001
 30
0.0
 10
119.4105143968
 20
192.643700944
 30
0.0
 10
119.411670714
 20
192.6448498494
 30
0.0
 10
119.413126694
 20
192.6462460375
 30
0.0
 10
119.4166123352
 20
192.6496297643
 30
0.0
 10
119.4218444557
 20
192.6546915464
 30
0.0
 10
119.4288185252
 20
192.6614484813
 30
0.0
 10
119.4357931542
 20
192.6682033051
 30
0.0
 10
119.4450924642
 20
192.6772104734
 30
0.0
 10
119.4613663483
 20
192.6929726727
 30
0.0
 10
119.4753153604
 20
192.7064832475
 30
0.0
 10
119.4846147088
 20
192.7154902712
 30
0.0
  0
SPLINE
  5
447
100
AcDbEntity
  8
7_ALL_FEATURES
100
AcDbSpline
 62
7
  6
CONTINUOUS
 70
0
 71
3
 72
8
 73
4
 74
0
 42
0.0000001
 43
0.0000001
 44
0.0000000001
 40
0.0
 40
0.0
 40
0.0
 40
0.0
 40
1.0
 40
1.0
 40
1.0
 40
1.0
 10
109.1303084889
 20
189.8706072074
 30
0.0
 10
109.0840174066
 20
190.2038935627
 30
0.0
 10
109.0381241707
 20
190.5372352362
 30
0.0
 10
108.9924537451
 20
190.8706072074
 30
0.0
  0
SPLINE
  5
448
100
AcDbEntity
  8
7_ALL_FEATURES
100
AcDbSpline
 62
7
  6
CONTINUOUS
 70
0
 71
3
 72
8
 73
4
 74
0
 42
0.0000001
 43
0.0000001
 44
0.0000000001
 40
0.0
 40
0.0
 40
0.0
 40
0.0
 40
1.0
 40
1.0
 40
1.0
 40
1.0
 10
129.0135275442
 20
189.8706072074
 30
0.0
 10
129.0598503402
 20
190.2038891564
 30
0.0
 10
129.1056797219
 20
190.5372396409
 30
0.0
 10
129.151382288
 20
190.8706072074
 30
0.0
  0
SPLINE
  5
449
100
AcDbEntity
  8
7_ALL_FEATURES
100
AcDbSpline
 62
7
  6
CONTINUOUS
 70
0
 71
3
 72
9
 73
5
 74
0
 42
0.0000001
 43
0.0000001
 44
0.0000000001
 40
0.0
 40
0.0
 40
0.0
 40
0.0
 40
0.4999616248
 40
1.0
 40
1.0
 40
1.0
 40
1.0
 10
108.9924537451
 20
237.3706072074
 30
0.0
 10
108.9696984088
 20
237.5372487497
 30
0.0
 10
108.9257482052
 20
237.8707697984
 30
0.0
 10
108.8789189231
 20
238.2038995208
 30
0.0
 10
108.8564591429
 20
238.3706072074
 30
0.0
  0
SPLINE
  5
44A
100
AcDbEntity
  8
7_ALL_FEATURES
100
AcDbSpline
 62
7
  6
CONTINUOUS
 70
0
 71
3
 72
9
 73
5
 74
0
 42
0.0000001
 43
0.0000001
 44
0.0000000001
 40
0.0
 40
0.0
 40
0.0
 40
0.0
 40
0.499961309
 40
1.0
 40
1.0
 40
1.0
 40
1.0
 10
129.151382288
 20
237.3706072074
 30
0.0
 10
129.1741374495
 20
237.5372486682
 30
0.0
 10
129.2180784213
 20
237.8707709702
 30
0.0
 10
129.2649172583
 20
238.2038993917
 30
0.0
 10
129.2873768902
 20
238.3706072074
 30
0.0
  0
SPLINE
  5
44B
100
AcDbEntity
  8
7_ALL_FEATURES
100
AcDbSpline
 62
4
  6
CONTINUOUS
 70
0
 71
3
 72
130
 73
126
 74
0
 42
0.0000001
 43
0.0000001
 44
0.0000000001
 40
0.0
 40
0.0
 40
0.0
 40
0.0
 40
0.03125
 40
0.0625
 40
0.078125
 40
0.09375
 40
0.109375
 40
0.125
 40
0.140625
 40
0.1484375
 40
0.15234375
 40
0.15625
 40
0.16015625
 40
0.1640625
 40
0.1650390625
 40
0.166015625
 40
0.1669921875
 40
0.16796875
 40
0.169921875
 40
0.171875
 40
0.17578125
 40
0.1796875
 40
0.1875
 40
0.1953125
 40
0.203125
 40
0.21875
 40
0.25
 40
0.28125
 40
0.296875
 40
0.3046875
 40
0.3125
 40
0.3203125
 40
0.32421875
 40
0.328125
 40
0.330078125
 40
0.33203125
 40
0.3330078125
 40
0.3334960938
 40
0.333984375
 40
0.3349609375
 40
0.3359375
 40
0.33984375
 40
0.34375
 40
0.34765625
 40
0.3515625
 40
0.359375
 40
0.375
 40
0.390625
 40
0.40625
 40
0.421875
 40
0.4375
 40
0.453125
 40
0.4609375
 40
0.46875
 40
0.4765625
 40
0.484375
 40
0.48828125
 40
0.4921875
 40
0.494140625
 40
0.49609375
 40
0.498046875
 40
0.4990234375
 40
0.5
 40
0.5009765625
 40
0.501953125
 40
0.50390625
 40
0.505859375
 40
0.5078125
 40
0.51171875
 40
0.515625
 40
0.5234375
 40
0.53125
 40
0.5390625
 40
0.546875
 40
0.5625
 40
0.578125
 40
0.59375
 40
0.609375
 40
0.625
 40
0.640625
 40
0.6484375
 40
0.65234375
 40
0.65625
 40
0.66015625
 40
0.6640625
 40
0.6650390625
 40
0.666015625
 40
0.6665039062
 40
0.6669921875
 40
0.66796875
 40
0.669921875
 40
0.671875
 40
0.67578125
 40
0.6796875
 40
0.6875
 40
0.6953125
 40
0.703125
 40
0.71875
 40
0.75
 40
0.78125
 40
0.796875
 40
0.8046875
 40
0.8125
 40
0.8203125
 40
0.82421875
 40
0.828125
 40
0.830078125
 40
0.83203125
 40
0.8330078125
 40
0.8334960938
 40
0.833984375
 40
0.8349609375
 40
0.8359375
 40
0.83984375
 40
0.84375
 40
0.84765625
 40
0.8515625
 40
0.859375
 40
0.875
 40
0.890625
 40
0.90625
 40
0.921875
 40
0.9375
 40
0.96875
 40
1.0
 40
1.0
 40
1.0
 40
1.0
 10
284.2339804286
 20
193.3604938937
 30
0.0
 10
284.2278382327
 20
193.3550247396
 30
0.0
 10
284.2155538411
 20
193.3440864314
 30
0.0
 10
284.2001983513
 20
193.3304135463
 30
0.0
 10
284.1879139599
 20
193.319475238
 30
0.0
 10
284.1787006655
 20
193.3112715073
 30
0.0
 10
284.1694873741
 20
193.3030677744
 30
0.0
 10
284.1602740713
 20
193.2948640498
 30
0.0
 10
284.1525963547
 20
193.288027587
 30
0.0
 10
284.147221883
 20
193.2832421133
 30
0.0
 10
284.1441508657
 20
193.2805074783
 30
0.0
 10
284.1418472946
 20
193.2784567234
 30
0.0
 10
284.1395449015
 20
193.2764051226
 30
0.0
 10
284.1378148036
 20
193.2748687937
 30
0.0
 10
284.136666542
 20
193.273840886
 30
0.0
 10
284.1360832383
 20
193.2733335185
 30
0.0
 10
284.1355355986
 20
193.2728005432
 30
0.0
 10
284.1349751073
 20
193.2719680632
 30
0.0
 10
284.1342163899
 20
193.2709691831
 30
0.0
 10
284.1330349129
 20
193.26934766
 30
0.0
 10
284.1315469486
 20
193.2673287391
 30
0.0
 10
284.1291724197
 20
193.2640940041
 30
0.0
 10
284.1262021266
 20
193.260052116
 30
0.0
 10
284.1226386873
 20
193.2552011951
 30
0.0
 10
284.1178871165
 20
193.2487335292
 30
0.0
 10
284.1095720165
 20
193.2374150071
 30
0.0
 10
284.0976932213
 20
193.2212457474
 30
0.0
 10
284.0858144661
 20
193.2050764609
 30
0.0
 10
284.0774993101
 20
193.1937579763
 30
0.0
 10
284.0727478273
 20
193.1872902516
 30
0.0
 10
284.0691841184
 20
193.1824395111
 30
0.0
 10
284.0662146691
 20
193.1783970584
 30
0.0
 10
284.0638384184
 20
193.1751634754
 30
0.0
 10
284.062354836
 20
193.1731416224
 30
0.0
 10
284.0611643645
 20
193.1715261179
 30
0.0
 10
284.0604285467
 20
193.1705119148
 30
0.0
 10
284.0598969865
 20
193.1698110168
 30
0.0
 10
284.0596190344
 20
193.1693963532
 30
0.0
 10
284.0594382449
 20
193.168928392
 30
0.0
 10
284.0591790475
 20
193.1683616578
 30
0.0
 10
284.0585843074
 20
193.1669865021
 30
0.0
 10
284.0576807168
 20
193.1649300661
 30
0.0
 10
284.0564824911
 20
193.162184552
 30
0.0
 10
284.0552825102
 20
193.1594400007
 30
0.0
 10
284.0536831478
 20
193.1557802632
 30
0.0
 10
284.0508839785
 20
193.1493758789
 30
0.0
 10
284.0468853143
 20
193.1402266768
 30
0.0
 10
284.0420868533
 20
193.1292476693
 30
0.0
 10
284.0372884094
 20
193.1182686524
 30
0.0
 10
284.0324899611
 20
193.107289638
 30
0.0
 10
284.0276915134
 20
193.0963106231
 30
0.0
 10
284.0236928085
 20
193.0871614438
 30
0.0
 10
284.0204938408
 20
193.079842101
 30
0.0
 10
284.0180946253
 20
193.0743525921
 30
0.0
 10
284.0156953706
 20
193.0688630898
 30
0.0
 10
284.0136961137
 20
193.0642884842
 30
0.0
 10
284.012096435
 20
193.0606288453
 30
0.0
 10
284.0110972579
 20
193.0583414673
 30
0.0
 10
284.0102964914
 20
193.0565118024
 30
0.0
 10
284.0096998177
 20
193.0551389032
 30
0.0
 10
284.0091901793
 20
193.05399689
 30
0.0
 10
284.0088103029
 20
193.0530786381
 30
0.0
 10
284.0084493386
 20
193.0524026316
 30
0.0
 10
284.0083786854
 20
193.051678216
 30
0.0
 10
284.0081830717
 20
193.0507292385
 30
0.0
 10
284.0079733476
 20
193.0495372149
 30
0.0
 10
284.0077067862
 20
193.0481092699
 30
0.0
 10
284.0073565726
 20
193.0462044758
 30
0.0
 10
284.0069170245
 20
193.0438237802
 30
0.0
 10
284.0062147431
 20
193.0400145013
 30
0.0
 10
284.0053365497
 20
193.0352529596
 30
0.0
 10
284.0042828641
 20
193.0295390852
 30
0.0
 10
284.0032291393
 20
193.0238252173
 30
0.0
 10
284.0018241865
 20
193.0162067245
 30
0.0
 10
284.000067991
 20
193.0066836092
 30
0.0
 10
283.997960558
 20
192.9952558707
 30
0.0
 10
283.9958531259
 20
192.983828132
 30
0.0
 10
283.9937456886
 20
192.972400394
 30
0.0
 10
283.9916382712
 20
192.9609726535
 30
0.0
 10
283.989882028
 20
192.9514495441
 30
0.0
 10
283.9886527793
 20
192.9447833524
 30
0.0
 10
283.9879501617
 20
192.9409741236
 30
0.0
 10
283.9874237332
 20
192.9381171358
 30
0.0
 10
283.9868952607
 20
192.9352604007
 30
0.0
 10
283.9865046373
 20
192.933117141
 30
0.0
 10
283.9862353088
 20
192.9316894028
 30
0.0
 10
283.9861363515
 20
192.9310928726
 30
0.0
 10
283.9860262461
 20
192.9306194727
 30
0.0
 10
283.9860292883
 20
192.930132087
 30
0.0
 10
283.9860871832
 20
192.9292726637
 30
0.0
 10
283.9861424614
 20
192.9280483066
 30
0.0
 10
283.9862462349
 20
192.9260874406
 30
0.0
 10
283.9863707033
 20
192.9236370068
 30
0.0
 10
283.9865727861
 20
192.9197159501
 30
0.0
 10
283.9868243832
 20
192.9148147537
 30
0.0
 10
283.9871267305
 20
192.9089332647
 30
0.0
 10
283.98752971
 20
192.901091298
 30
0.0
 10
283.9882349944
 20
192.8873678476
 30
0.0
 10
283.9892425034
 20
192.8677629225
 30
0.0
 10
283.9902500392
 20
192.8481579979
 30
0.0
 10
283.990955286
 20
192.8344345469
 30
0.0
 10
283.9913583246
 20
192.8265925811
 30
0.0
 10
283.9916604904
 20
192.8207110892
 30
0.0
 10
283.9919126554
 20
192.815809902
 30
0.0
 10
283.9921135797
 20
192.8118888265
 30
0.0
 10
283.9922409966
 20
192.8094384407
 30
0.0
 10
283.9923387179
 20
192.8074774761
 30
0.0
 10
283.9924094046
 20
192.8062533701
 30
0.0
 10
283.9924396238
 20
192.8053934958
 30
0.0
 10
283.9924870284
 20
192.804906833
 30
0.0
 10
283.9926479418
 20
192.80443785
 30
0.0
 10
283.9928102857
 20
192.8038455782
 30
0.0
 10
283.9932318435
 20
192.8024290995
 30
0.0
 10
283.9938507683
 20
192.8003022925
 30
0.0
 10
283.994683667
 20
192.7974677437
 30
0.0
 10
283.9955145152
 20
192.7946328756
 30
0.0
 10
283.996623028
 20
192.7908531629
 30
0.0
 10
283.9985625922
 20
192.7842386137
 30
0.0
 10
284.0013335725
 20
192.7747892849
 30
0.0
 10
284.0046586741
 20
192.7634500786
 30
0.0
 10
284.0079837957
 20
192.7521108755
 30
0.0
 10
284.0113089119
 20
192.7407716715
 30
0.0
 10
284.0157424021
 20
192.7256527332
 30
0.0
 10
284.0212842642
 20
192.7067540602
 30
0.0
 10
284.0257177541
 20
192.6916351218
 30
0.0
 10
284.027934499
 20
192.6840756526
 30
0.0
  0
SPLINE
  5
44C
100
AcDbEntity
  8
7_ALL_FEATURES
100
AcDbSpline
 62
4
  6
CONTINUOUS
 70
0
 71
3
 72
195
 73
191
 74
0
 42
0.0000001
 43
0.0000001
 44
0.0000000001
 40
0.0
 40
0.0
 40
0.0
 40
0.0
 40
0.03125
 40
0.046875
 40
0.0625
 40
0.078125
 40
0.0859375
 40
0.09375
 40
0.1015625
 40
0.109375
 40
0.11328125
 40
0.1171875
 40
0.119140625
 40
0.12109375
 40
0.123046875
 40
0.1240234375
 40
0.1245117188
 40
0.125
 40
0.1254882812
 40
0.1259765625
 40
0.126953125
 40
0.12890625
 40
0.130859375
 40
0.1328125
 40
0.13671875
 40
0.140625
 40
0.1484375
 40
0.15625
 40
0.1640625
 40
0.171875
 40
0.1875
 40
0.203125
 40
0.2109375
 40
0.21875
 40
0.2265625
 40
0.234375
 40
0.23828125
 40
0.2421875
 40
0.244140625
 40
0.24609375
 40
0.248046875
 40
0.2490234375
 40
0.2495117188
 40
0.25
 40
0.2504882812
 40
0.2509765625
 40
0.251953125
 40
0.25390625
 40
0.255859375
 40
0.2578125
 40
0.26171875
 40
0.265625
 40
0.2734375
 40
0.28125
 40
0.2890625
 40
0.296875
 40
0.3125
 40
0.328125
 40
0.3359375
 40
0.34375
 40
0.3515625
 40
0.359375
 40
0.36328125
 40
0.3671875
 40
0.369140625
 40
0.37109375
 40
0.373046875
 40
0.3740234375
 40
0.3745117188
 40
0.375
 40
0.3754882812
 40
0.3759765625
 40
0.376953125
 40
0.37890625
 40
0.380859375
 40
0.3828125
 40
0.38671875
 40
0.390625
 40
0.3984375
 40
0.40625
 40
0.4140625
 40
0.421875
 40
0.4375
 40
0.453125
 40
0.4609375
 40
0.46875
 40
0.4765625
 40
0.484375
 40
0.48828125
 40
0.4921875
 40
0.494140625
 40
0.49609375
 40
0.498046875
 40
0.4990234375
 40
0.4995117188
 40
0.5
 40
0.5004882812
 40
0.5009765625
 40
0.501953125
 40
0.50390625
 40
0.505859375
 40
0.5078125
 40
0.51171875
 40
0.515625
 40
0.5234375
 40
0.53125
 40
0.5390625
 40
0.546875
 40
0.5625
 40
0.578125
 40
0.5859375
 40
0.59375
 40
0.6015625
 40
0.609375
 40
0.61328125
 40
0.6171875
 40
0.619140625
 40
0.62109375
 40
0.623046875
 40
0.6240234375
 40
0.6245117188
 40
0.625
 40
0.6254882812
 40
0.6259765625
 40
0.626953125
 40
0.62890625
 40
0.630859375
 40
0.6328125
 40
0.63671875
 40
0.640625
 40
0.6484375
 40
0.65625
 40
0.6640625
 40
0.671875
 40
0.6875
 40
0.703125
 40
0.7109375
 40
0.71875
 40
0.7265625
 40
0.734375
 40
0.73828125
 40
0.7421875
 40
0.744140625
 40
0.74609375
 40
0.748046875
 40
0.7490234375
 40
0.7495117188
 40
0.75
 40
0.7504882812
 40
0.7509765625
 40
0.751953125
 40
0.75390625
 40
0.755859375
 40
0.7578125
 40
0.76171875
 40
0.765625
 40
0.7734375
 40
0.78125
 40
0.7890625
 40
0.796875
 40
0.8125
 40
0.828125
 40
0.8359375
 40
0.84375
 40
0.8515625
 40
0.859375
 40
0.86328125
 40
0.8671875
 40
0.869140625
 40
0.87109375
 40
0.873046875
 40
0.8740234375
 40
0.8745117188
 40
0.875
 40
0.8754882812
 40
0.8759765625
 40
0.876953125
 40
0.87890625
 40
0.880859375
 40
0.8828125
 40
0.88671875
 40
0.890625
 40
0.8984375
 40
0.90625
 40
0.9140625
 40
0.921875
 40
0.9375
 40
0.953125
 40
0.96875
 40
1.0
 40
1.0
 40
1.0
 40
1.0
 10
284.0279344956
 20
192.6840756607
 30
0.0
 10
284.0329149415
 20
192.6751957086
 30
0.0
 10
284.0403856104
 20
192.6618757803
 30
0.0
 10
284.0503465022
 20
192.644115876
 30
0.0
 10
284.0578171713
 20
192.6307959478
 30
0.0
 10
284.0640427281
 20
192.6196960073
 30
0.0
 10
284.0690231752
 20
192.6108160557
 30
0.0
 10
284.0727585062
 20
192.60415609
 30
0.0
 10
284.0764938534
 20
192.5974961318
 30
0.0
 10
284.0796065926
 20
192.5919461432
 30
0.0
 10
284.082096896
 20
192.5875062047
 30
0.0
 10
284.0836530807
 20
192.5847311239
 30
0.0
 10
284.0848986123
 20
192.5825113324
 30
0.0
 10
284.0858311623
 20
192.5808457409
 30
0.0
 10
284.0866133731
 20
192.5794601272
 30
0.0
 10
284.0871509399
 20
192.5784855285
 30
0.0
 10
284.0874737051
 20
192.5779359053
 30
0.0
 10
284.0876718782
 20
192.577503151
 30
0.0
 10
284.0880378621
 20
192.5771488989
 30
0.0
 10
284.0884673063
 20
192.5766491802
 30
0.0
 10
284.0892461058
 20
192.5757874306
 30
0.0
 10
284.0903444184
 20
192.5745496897
 30
0.0
 10
284.0916684964
 20
192.5730672556
 30
0.0
 10
284.0934318022
 20
192.5710896796
 30
0.0
 10
284.0956366643
 20
192.568618051
 30
0.0
 10
284.0991640357
 20
192.5646632544
 30
0.0
 10
284.1035733899
 20
192.5597198242
 30
0.0
 10
284.1088645549
 20
192.5537876799
 30
0.0
 10
284.114155736
 20
192.5478555431
 30
0.0
 10
284.1212106385
 20
192.5399460247
 30
0.0
 10
284.1300292687
 20
192.5300591278
 30
0.0
 10
284.1388478977
 20
192.52017223
 30
0.0
 10
284.1459028022
 20
192.512262713
 30
0.0
 10
284.1511939772
 20
192.5063305722
 30
0.0
 10
284.1564851653
 20
192.5003984428
 30
0.0
 10
284.1608944478
 20
192.4954549661
 30
0.0
 10
284.1644219655
 20
192.4915002643
 30
0.0
 10
284.1666264552
 20
192.4890283946
 30
0.0
 10
284.1683905253
 20
192.4870513136
 30
0.0
 10
284.169712268
 20
192.485567367
 30
0.0
 10
284.1708178875
 20
192.4843343583
 30
0.0
 10
284.171583643
 20
192.4834641609
 30
0.0
 10
284.172033987
 20
192.4829779778
 30
0.0
 10
284.1723357732
 20
192.4825821489
 30
0.0
 10
284.172775062
 20
192.4823055498
 30
0.0
 10
284.1733128179
 20
192.4818951624
 30
0.0
 10
284.1742762373
 20
192.4811963614
 30
0.0
 10
284.1756408677
 20
192.4801879437
 30
0.0
 10
284.1772834249
 20
192.4789821786
 30
0.0
 10
284.1794717545
 20
192.4773729773
 30
0.0
 10
284.1822077645
 20
192.4753619942
 30
0.0
 10
284.1865850464
 20
192.4721441315
 30
0.0
 10
284.1920567634
 20
192.4681219026
 30
0.0
 10
284.1986227746
 20
192.4632951852
 30
0.0
 10
284.2051887991
 20
192.4584684793
 30
0.0
 10
284.2139434936
 20
192.4520328674
 30
0.0
 10
284.2248868636
 20
192.443988354
 30
0.0
 10
284.2358302325
 20
192.4359438395
 30
0.0
 10
284.2445849287
 20
192.4295082293
 30
0.0
 10
284.2511509482
 20
192.4246815181
 30
0.0
 10
284.2577169779
 20
192.4198548205
 30
0.0
 10
284.2631886376
 20
192.4158325302
 30
0.0
 10
284.2675660364
 20
192.4126147927
 30
0.0
 10
284.2703017488
 20
192.410603491
 30
0.0
 10
284.2724906894
 20
192.4089949437
 30
0.0
 10
284.2741313798
 20
192.4077871806
 30
0.0
 10
284.275501851
 20
192.4067850143
 30
0.0
 10
284.2764548436
 20
192.4060750534
 30
0.0
 10
284.2770093059
 20
192.4056825469
 30
0.0
 10
284.277397278
 20
192.4053510232
 30
0.0
 10
284.2778918009
 20
192.4051614821
 30
0.0
 10
284.2785139987
 20
192.4048592356
 30
0.0
 10
284.2796201612
 20
192.4043533787
 30
0.0
 10
284.2811913401
 20
192.4036186624
 30
0.0
 10
284.2830806298
 20
192.4027421664
 30
0.0
 10
284.2855983293
 20
192.4015717016
 30
0.0
 10
284.2887459172
 20
192.4001092382
 30
0.0
 10
284.2937817987
 20
192.3977689514
 30
0.0
 10
284.3000767395
 20
192.3948437115
 30
0.0
 10
284.3076306303
 20
192.3913333728
 30
0.0
 10
284.3151845314
 20
192.3878230476
 30
0.0
 10
284.3252563958
 20
192.3831426094
 30
0.0
 10
284.3378462277
 20
192.3772920633
 30
0.0
 10
284.3504360589
 20
192.371441516
 30
0.0
 10
284.3605079246
 20
192.3667610798
 30
0.0
 10
284.368061822
 20
192.3632507486
 30
0.0
 10
284.3756157263
 20
192.3597404326
 30
0.0
 10
284.3819106253
 20
192.356815122
 30
0.0
 10
284.3869465919
 20
192.3544749793
 30
0.0
 10
284.3900939633
 20
192.3530121493
 30
0.0
 10
284.3926121072
 20
192.3518424369
 30
0.0
 10
284.3945000393
 20
192.3509636423
 30
0.0
 10
284.396075466
 20
192.3502361179
 30
0.0
 10
284.3971740454
 20
192.3497174222
 30
0.0
 10
284.3978083932
 20
192.3494357468
 30
0.0
 10
284.398265595
 20
192.3491830175
 30
0.0
 10
284.3987937391
 20
192.3490888182
 30
0.0
 10
284.3994731857
 20
192.3489079221
 30
0.0
 10
284.4006737466
 20
192.3486171179
 30
0.0
 10
284.402382806
 20
192.3481882135
 30
0.0
 10
284.4044362573
 20
192.3476792938
 30
0.0
 10
284.4071732911
 20
192.3469987204
 30
0.0
 10
284.4105948921
 20
192.3461486932
 30
0.0
 10
284.4160692811
 20
192.3447882642
 30
0.0
 10
284.4229123265
 20
192.3430878603
 30
0.0
 10
284.4311239557
 20
192.3410473188
 30
0.0
 10
284.4393355916
 20
192.3390067926
 30
0.0
 10
284.4502844372
 20
192.3362860856
 30
0.0
 10
284.463970495
 20
192.3328852038
 30
0.0
 10
284.4776565523
 20
192.3294843207
 30
0.0
 10
284.4886053986
 20
192.3267636159
 30
0.0
 10
284.4968170324
 20
192.324723083
 30
0.0
 10
284.5050286694
 20
192.3226825663
 30
0.0
 10
284.5118716906
 20
192.3209820855
 30
0.0
 10
284.517346129
 20
192.3196218132
 30
0.0
 10
284.5207676041
 20
192.3187713875
 30
0.0
 10
284.5235048963
 20
192.318091632
 30
0.0
 10
284.5255575584
 20
192.3175802134
 30
0.0
 10
284.527269087
 20
192.3171591273
 30
0.0
 10
284.5284652399
 20
192.3168543662
 30
0.0
 10
284.5291517493
 20
192.3166958325
 30
0.0
 10
284.5296581988
 20
192.3165329431
 30
0.0
 10
284.5301968816
 20
192.3165382025
 30
0.0
 10
284.530903882
 20
192.3164865629
 30
0.0
 10
284.5321463711
 20
192.3164235208
 30
0.0
 10
284.5339186168
 20
192.3163191737
 30
0.0
 10
284.5360464839
 20
192.3162000724
 30
0.0
 10
284.5388832307
 20
192.3160391347
 30
0.0
 10
284.5424293043
 20
192.315838694
 30
0.0
 10
284.5481029437
 20
192.3155175801
 30
0.0
 10
284.5551950199
 20
192.3151163279
 30
0.0
 10
284.5637054998
 20
192.3146347652
 30
0.0
 10
284.5722159827
 20
192.3141532186
 30
0.0
 10
284.5835632923
 20
192.3135111508
 30
0.0
 10
284.5977474296
 20
192.3127085682
 30
0.0
 10
284.6119315667
 20
192.3119059842
 30
0.0
 10
284.6232788764
 20
192.3112639187
 30
0.0
 10
284.6317893589
 20
192.3107823653
 30
0.0
 10
284.6402998406
 20
192.3103008281
 30
0.0
 10
284.6473919111
 20
192.3098994964
 30
0.0
 10
284.6530655622
 20
192.3095785448
 30
0.0
 10
284.6566116061
 20
192.3093776911
 30
0.0
 10
284.6594484138
 20
192.3092176011
 30
0.0
 10
284.6615760947
 20
192.30909591
 30
0.0
 10
284.6633489231
 20
192.3089996657
 30
0.0
 10
284.664590372
 20
192.3089221587
 30
0.0
 10
284.6652990391
 20
192.3088936954
 30
0.0
 10
284.6658326021
 20
192.3088277649
 30
0.0
 10
284.6663582806
 20
192.3089322532
 30
0.0
 10
284.6670619354
 20
192.309012127
 30
0.0
 10
284.66829205
 20
192.3091796023
 30
0.0
 10
284.6700500264
 20
192.3094043728
 30
0.0
 10
284.6721593114
 20
192.3096802952
 30
0.0
 10
284.6749717916
 20
192.3100460271
 30
0.0
 10
284.6784873574
 20
192.3105039331
 30
0.0
 10
284.684112282
 20
192.3112361684
 30
0.0
 10
284.6911434312
 20
192.3121516047
 30
0.0
 10
284.699580813
 20
192.3132500673
 30
0.0
 10
284.708018194
 20
192.3143485463
 30
0.0
 10
284.7192680356
 20
192.3158131792
 30
0.0
 10
284.7333303376
 20
192.3176439724
 30
0.0
 10
284.7473926397
 20
192.3194747642
 30
0.0
 10
284.758642481
 20
192.3209393994
 30
0.0
 10
284.7670798629
 20
192.3220378715
 30
0.0
 10
284.7755172415
 20
192.3231363599
 30
0.0
 10
284.7825484007
 20
192.324051716
 30
0.0
 10
284.7881733047
 20
192.3247841149
 30
0.0
 10
284.791688923
 20
192.3252416047
 30
0.0
 10
284.7945012956
 20
192.3256081908
 30
0.0
 10
284.7966109091
 20
192.3258815032
 30
0.0
 10
284.7983678577
 20
192.3261144399
 30
0.0
 10
284.7995998072
 20
192.3262673372
 30
0.0
 10
284.800300522
 20
192.3263705685
 30
0.0
 10
284.8008352312
 20
192.3264033103
 30
0.0
 10
284.8013348761
 20
192.326606848
 30
0.0
 10
284.8020133001
 20
192.3268186561
 30
0.0
 10
284.8031948436
 20
192.3272170776
 30
0.0
 10
284.8048857421
 20
192.3277717394
 30
0.0
 10
284.8069135451
 20
192.3284435451
 30
0.0
 10
284.8096177278
 20
192.3293371164
 30
0.0
 10
284.8129978037
 20
192.3304548234
 30
0.0
 10
284.8184060104
 20
192.3322427395
 30
0.0
 10
284.8251662395
 20
192.334477777
 30
0.0
 10
284.833278527
 20
192.3371597609
 30
0.0
 10
284.8413908111
 20
192.3398417612
 30
0.0
 10
284.8522071911
 20
192.3434177559
 30
0.0
 10
284.8657276657
 20
192.3478877512
 30
0.0
 10
284.8819522354
 20
192.3532517447
 30
0.0
 10
284.9035849949
 20
192.3604037364
 30
0.0
 10
284.9198095645
 20
192.36576773
 30
0.0
 10
284.9306259443
 20
192.3693437258
 30
0.0
  0
SPLINE
  5
44D
100
AcDbEntity
  8
7_ALL_FEATURES
100
AcDbSpline
 62
4
  6
CONTINUOUS
 70
0
 71
3
 72
179
 73
175
 74
0
 42
0.0000001
 43
0.0000001
 44
0.0000000001
 40
0.0
 40
0.0
 40
0.0
 40
0.0
 40
0.03125
 40
0.046875
 40
0.0625
 40
0.078125
 40
0.0859375
 40
0.09375
 40
0.1015625
 40
0.109375
 40
0.11328125
 40
0.1171875
 40
0.12109375
 40
0.123046875
 40
0.1240234375
 40
0.125
 40
0.1259765625
 40
0.126953125
 40
0.12890625
 40
0.1328125
 40
0.13671875
 40
0.140625
 40
0.1484375
 40
0.15625
 40
0.1640625
 40
0.171875
 40
0.1875
 40
0.203125
 40
0.2109375
 40
0.21875
 40
0.2265625
 40
0.234375
 40
0.23828125
 40
0.2421875
 40
0.244140625
 40
0.24609375
 40
0.248046875
 40
0.2490234375
 40
0.25
 40
0.2509765625
 40
0.251953125
 40
0.25390625
 40
0.255859375
 40
0.2578125
 40
0.26171875
 40
0.265625
 40
0.2734375
 40
0.28125
 40
0.2890625
 40
0.296875
 40
0.3125
 40
0.328125
 40
0.3359375
 40
0.34375
 40
0.3515625
 40
0.359375
 40
0.36328125
 40
0.3671875
 40
0.369140625
 40
0.37109375
 40
0.373046875
 40
0.3740234375
 40
0.375
 40
0.3759765625
 40
0.376953125
 40
0.37890625
 40
0.380859375
 40
0.3828125
 40
0.38671875
 40
0.390625
 40
0.3984375
 40
0.40625
 40
0.4140625
 40
0.421875
 40
0.4375
 40
0.453125
 40
0.4609375
 40
0.46875
 40
0.4765625
 40
0.484375
 40
0.48828125
 40
0.4921875
 40
0.494140625
 40
0.49609375
 40
0.498046875
 40
0.4990234375
 40
0.5
 40
0.5009765625
 40
0.501953125
 40
0.50390625
 40
0.505859375
 40
0.5078125
 40
0.51171875
 40
0.515625
 40
0.5234375
 40
0.53125
 40
0.5390625
 40
0.546875
 40
0.5625
 40
0.578125
 40
0.5859375
 40
0.59375
 40
0.6015625
 40
0.609375
 40
0.61328125
 40
0.6171875
 40
0.619140625
 40
0.62109375
 40
0.623046875
 40
0.6240234375
 40
0.625
 40
0.6259765625
 40
0.626953125
 40
0.62890625
 40
0.630859375
 40
0.6328125
 40
0.63671875
 40
0.640625
 40
0.6484375
 40
0.65625
 40
0.6640625
 40
0.671875
 40
0.6875
 40
0.703125
 40
0.7109375
 40
0.71875
 40
0.7265625
 40
0.734375
 40
0.73828125
 40
0.7421875
 40
0.744140625
 40
0.74609375
 40
0.748046875
 40
0.7490234375
 40
0.75
 40
0.7509765625
 40
0.751953125
 40
0.75390625
 40
0.755859375
 40
0.7578125
 40
0.76171875
 40
0.765625
 40
0.7734375
 40
0.78125
 40
0.7890625
 40
0.796875
 40
0.8125
 40
0.828125
 40
0.8359375
 40
0.84375
 40
0.8515625
 40
0.859375
 40
0.86328125
 40
0.8671875
 40
0.869140625
 40
0.87109375
 40
0.873046875
 40
0.8740234375
 40
0.875
 40
0.8759765625
 40
0.876953125
 40
0.87890625
 40
0.880859375
 40
0.8828125
 40
0.88671875
 40
0.890625
 40
0.8984375
 40
0.90625
 40
0.9140625
 40
0.921875
 40
0.9375
 40
0.953125
 40
0.96875
 40
1.0
 40
1.0
 40
1.0
 40
1.0
 10
284.495266856
 20
194.7006017439
 30
0.0
 10
284.4883570563
 20
194.6963650412
 30
0.0
 10
284.477992357
 20
194.690009987
 30
0.0
 10
284.4641727573
 20
194.6815365819
 30
0.0
 10
284.4538080588
 20
194.6751815266
 30
0.0
 10
284.4451708061
 20
194.6698856518
 30
0.0
 10
284.4382610126
 20
194.6656489418
 30
0.0
 10
284.4330786441
 20
194.6624714371
 30
0.0
 10
284.4278963649
 20
194.6592938261
 30
0.0
 10
284.4235775204
 20
194.656646148
 30
0.0
 10
284.4201230687
 20
194.6545272642
 30
0.0
 10
284.4175305253
 20
194.6529401267
 30
0.0
 10
284.4153754946
 20
194.6516110697
 30
0.0
 10
284.4138563323
 20
194.6506933728
 30
0.0
 10
284.4130048543
 20
194.6501492336
 30
0.0
 10
284.4123194419
 20
194.64979674
 30
0.0
 10
284.4118129379
 20
194.6492316733
 30
0.0
 10
284.4110751941
 20
194.6485523989
 30
0.0
 10
284.4098132181
 20
194.6473291218
 30
0.0
 10
284.407995194
 20
194.6455996446
 30
0.0
 10
284.4058200718
 20
194.6435165409
 30
0.0
 10
284.402917636
 20
194.64074177
 30
0.0
 10
284.3992903712
 20
194.6372723796
 30
0.0
 10
284.3949373191
 20
194.6331095085
 30
0.0
 10
284.3905843564
 20
194.628946531
 30
0.0
 10
284.384780375
 20
194.6233959315
 30
0.0
 10
284.3775254085
 20
194.6164576696
 30
0.0
 10
284.3702704396
 20
194.6095194114
 30
0.0
 10
284.3644664621
 20
194.6039688059
 30
0.0
 10
284.3601134875
 20
194.5998058463
 30
0.0
 10
284.3557604801
 20
194.5956429082
 30
0.0
 10
284.3521330763
 20
194.5921737259
 30
0.0
 10
284.349230924
 20
194.5893985307
 30
0.0
 10
284.3474176006
 20
194.5876636906
 30
0.0
 10
284.3459657468
 20
194.5862766044
 30
0.0
 10
284.3448801289
 20
194.5852341382
 30
0.0
 10
284.3439650372
 20
194.5843722605
 30
0.0
 10
284.3432563118
 20
194.5836674081
 30
0.0
 10
284.3426609698
 20
194.5831807131
 30
0.0
 10
284.3423091455
 20
194.5825339163
 30
0.0
 10
284.3417549825
 20
194.5817274462
 30
0.0
 10
284.3410914637
 20
194.5807001708
 30
0.0
 10
284.340282749
 20
194.5794756533
 30
0.0
 10
284.339208826
 20
194.5778400947
 30
0.0
 10
284.3378649283
 20
194.5757966286
 30
0.0
 10
284.335715527
 20
194.5725265339
 30
0.0
 10
284.3330284889
 20
194.568439104
 30
0.0
 10
284.3298041659
 20
194.5635341073
 30
0.0
 10
284.3265798101
 20
194.5586291322
 30
0.0
 10
284.3222806805
 20
194.5520891578
 30
0.0
 10
284.3169067641
 20
194.5439141926
 30
0.0
 10
284.3115328508
 20
194.5357392258
 30
0.0
 10
284.3072337163
 20
194.529199254
 30
0.0
 10
284.3040093753
 20
194.5242942713
 30
0.0
 10
284.3007849968
 20
194.5193893032
 30
0.0
 10
284.2980981312
 20
194.515301784
 30
0.0
 10
284.295948378
 20
194.5120318714
 30
0.0
 10
284.2946053759
 20
194.5099879421
 30
0.0
 10
284.2935296146
 20
194.5083533343
 30
0.0
 10
284.2927265163
 20
194.507125912
 30
0.0
 10
284.2920454252
 20
194.506107725
 30
0.0
 10
284.2915271131
 20
194.5052827127
 30
0.0
 10
284.2910658022
 20
194.5046925429
 30
0.0
 10
284.2908815181
 20
194.5039932467
 30
0.0
 10
284.290539037
 20
194.503098971
 30
0.0
 10
284.2901441365
 20
194.5019680478
 30
0.0
 10
284.2896560448
 20
194.5006165381
 30
0.0
 10
284.2890102195
 20
194.4988125698
 30
0.0
 10
284.2882012384
 20
194.496558279
 30
0.0
 10
284.2869078185
 20
194.4929510395
 30
0.0
 10
284.2852907176
 20
194.4884421185
 30
0.0
 10
284.2833503363
 20
194.4830313583
 30
0.0
 10
284.2814099176
 20
194.4776206128
 30
0.0
 10
284.2788227058
 20
194.4704062803
 30
0.0
 10
284.2755886861
 20
194.4613883666
 30
0.0
 10
284.2723546698
 20
194.4523704519
 30
0.0
 10
284.2697674525
 20
194.4451561209
 30
0.0
 10
284.2678270501
 20
194.4397453708
 30
0.0
 10
284.2658866077
 20
194.4343346279
 30
0.0
 10
284.2642696972
 20
194.4298256532
 30
0.0
 10
284.262975889
 20
194.4262185232
 30
0.0
 10
284.2621678958
 20
194.4239639536
 30
0.0
 10
284.2615200427
 20
194.4221605575
 30
0.0
 10
284.2610381465
 20
194.4208072997
 30
0.0
 10
284.2606238617
 20
194.419681846
 30
0.0
 10
284.2603209282
 20
194.4187764116
 30
0.0
 10
284.2600158681
 20
194.4181111934
 30
0.0
 10
284.2600080006
 20
194.4173930804
 30
0.0
 10
284.2598936973
 20
194.4164540732
 30
0.0
 10
284.2597864361
 20
194.415273975
 30
0.0
 10
284.2596424771
 20
194.4138605704
 30
0.0
 10
284.2594558566
 20
194.4119750834
 30
0.0
 10
284.2592207578
 20
194.409618549
 30
0.0
 10
284.2588456188
 20
194.4058479127
 30
0.0
 10
284.2583763452
 20
194.4011346795
 30
0.0
 10
284.2578133669
 20
194.395478773
 30
0.0
 10
284.2572503485
 20
194.3898228737
 30
0.0
 10
284.2564996714
 20
194.382281672
 30
0.0
 10
284.2555613196
 20
194.3728551709
 30
0.0
 10
284.2546229715
 20
194.3634286694
 30
0.0
 10
284.2538722886
 20
194.3558874682
 30
0.0
 10
284.2533092872
 20
194.3502315675
 30
0.0
 10
284.252746245
 20
194.344575666
 30
0.0
 10
284.2522771705
 20
194.3398624173
 30
0.0
 10
284.2519016256
 20
194.3360918127
 30
0.0
 10
284.2516675595
 20
194.3337351975
 30
0.0
 10
284.2514788193
 20
194.3318498764
 30
0.0
 10
284.2513413365
 20
194.3304359647
 30
0.0
 10
284.2512138127
 20
194.3292574534
 30
0.0
 10
284.2511408489
 20
194.3283152085
 30
0.0
 10
284.2510067332
 20
194.3276069832
 30
0.0
 10
284.2511756613
 20
194.3269046424
 30
0.0
 10
284.2512950416
 20
194.3259661324
 30
0.0
 10
284.251480586
 20
194.3247937001
 30
0.0
 10
284.2516876936
 20
194.3233864796
 30
0.0
 10
284.2519692669
 20
194.3215102909
 30
0.0
 10
284.2523193742
 20
194.319165019
 30
0.0
 10
284.2528805852
 20
194.3154126041
 30
0.0
 10
284.2535817423
 20
194.3107220786
 30
0.0
 10
284.2544232836
 20
194.3050934509
 30
0.0
 10
284.2552647841
 20
194.2994648225
 30
0.0
 10
284.2563867991
 20
194.2919599848
 30
0.0
 10
284.2577893124
 20
194.2825789375
 30
0.0
 10
284.2591918293
 20
194.2731978907
 30
0.0
 10
284.2603138386
 20
194.2656930523
 30
0.0
 10
284.2611553561
 20
194.2600644259
 30
0.0
 10
284.2619968338
 20
194.2544357907
 30
0.0
 10
284.2626981889
 20
194.2497452885
 30
0.0
 10
284.263258996
 20
194.2459928261
 30
0.0
 10
284.2636101311
 20
194.2436476751
 30
0.0
 10
284.2638895948
 20
194.2417712383
 30
0.0
 10
284.2641031474
 20
194.2403647758
 30
0.0
 10
284.264268527
 20
194.2391899716
 30
0.0
 10
284.2644290474
 20
194.2382563009
 30
0.0
 10
284.264472336
 20
194.2375391812
 30
0.0
 10
284.264809923
 20
194.2368864418
 30
0.0
 10
284.2651572367
 20
194.2359936337
 30
0.0
 10
284.2656266497
 20
194.2348853394
 30
0.0
 10
284.2661748483
 20
194.2335520836
 30
0.0
 10
284.2669110529
 20
194.2317755628
 30
0.0
 10
284.267829503
 20
194.2295545168
 30
0.0
 10
284.2693000324
 20
194.226001064
 30
0.0
 10
284.2711378478
 20
194.2215591722
 30
0.0
 10
284.2733433748
 20
194.2162289345
 30
0.0
 10
284.275548862
 20
194.2108986881
 30
0.0
 10
284.2784895256
 20
194.203791696
 30
0.0
 10
284.2821653499
 20
194.1949079546
 30
0.0
 10
284.2858411776
 20
194.1860242143
 30
0.0
 10
284.2887818357
 20
194.1789172205
 30
0.0
 10
284.2909873393
 20
194.173586979
 30
0.0
 10
284.2931928049
 20
194.168256723
 30
0.0
 10
284.2950308114
 20
194.1638148883
 30
0.0
 10
284.2965009511
 20
194.1602613189
 30
0.0
 10
284.2974203931
 20
194.1580405695
 30
0.0
 10
284.2981545617
 20
194.15626344
 30
0.0
 10
284.2987089802
 20
194.154932044
 30
0.0
 10
284.2991589326
 20
194.1538179308
 30
0.0
 10
284.2995459499
 20
194.1529369943
 30
0.0
 10
284.2997622844
 20
194.1522479998
 30
0.0
 10
284.3002608049
 20
194.1516669969
 30
0.0
 10
284.3008269277
 20
194.1508546035
 30
0.0
 10
284.3015684005
 20
194.1498520542
 30
0.0
 10
284.3024436922
 20
194.1486434553
 30
0.0
 10
284.3036158037
 20
194.147033925
 30
0.0
 10
284.305079212
 20
194.1450213496
 30
0.0
 10
284.3074216328
 20
194.1418015992
 30
0.0
 10
284.3103493267
 20
194.1377767842
 30
0.0
 10
284.3138627018
 20
194.1329470607
 30
0.0
 10
284.3173760388
 20
194.1281173226
 30
0.0
 10
284.3220605014
 20
194.1216776769
 30
0.0
 10
284.3279160751
 20
194.1136281181
 30
0.0
 10
284.3349427655
 20
194.1039686482
 30
0.0
 10
284.3443116854
 20
194.0910893547
 30
0.0
 10
284.3513383755
 20
194.0814298847
 30
0.0
 10
284.3560228355
 20
194.074990238
 30
0.0
  0
SPLINE
  5
44E
100
AcDbEntity
  8
7_ALL_FEATURES
100
AcDbSpline
 62
4
  6
CONTINUOUS
 70
0
 71
3
 72
105
 73
101
 74
0
 42
0.0000001
 43
0.0000001
 44
0.0000000001
 40
0.0
 40
0.0
 40
0.0
 40
0.0
 40
0.0625
 40
0.09375
 40
0.109375
 40
0.125
 40
0.140625
 40
0.1484375
 40
0.15625
 40
0.16015625
 40
0.1640625
 40
0.166015625
 40
0.1669921875
 40
0.16796875
 40
0.169921875
 40
0.171875
 40
0.1796875
 40
0.1875
 40
0.1953125
 40
0.203125
 40
0.21875
 40
0.25
 40
0.28125
 40
0.296875
 40
0.3046875
 40
0.3125
 40
0.3203125
 40
0.328125
 40
0.330078125
 40
0.33203125
 40
0.3330078125
 40
0.333984375
 40
0.3359375
 40
0.33984375
 40
0.34375
 40
0.3515625
 40
0.359375
 40
0.375
 40
0.390625
 40
0.40625
 40
0.421875
 40
0.4375
 40
0.453125
 40
0.46875
 40
0.4765625
 40
0.484375
 40
0.48828125
 40
0.4921875
 40
0.49609375
 40
0.498046875
 40
0.5
 40
0.501953125
 40
0.50390625
 40
0.5078125
 40
0.51171875
 40
0.515625
 40
0.5234375
 40
0.53125
 40
0.546875
 40
0.5625
 40
0.578125
 40
0.59375
 40
0.609375
 40
0.625
 40
0.640625
 40
0.6484375
 40
0.65625
 40
0.66015625
 40
0.6640625
 40
0.666015625
 40
0.6669921875
 40
0.66796875
 40
0.669921875
 40
0.671875
 40
0.6796875
 40
0.6875
 40
0.6953125
 40
0.703125
 40
0.71875
 40
0.75
 40
0.78125
 40
0.796875
 40
0.8046875
 40
0.8125
 40
0.8203125
 40
0.828125
 40
0.830078125
 40
0.83203125
 40
0.8330078125
 40
0.833984375
 40
0.8359375
 40
0.83984375
 40
0.84375
 40
0.8515625
 40
0.859375
 40
0.875
 40
0.890625
 40
0.90625
 40
0.9375
 40
1.0
 40
1.0
 40
1.0
 40
1.0
 10
285.0670118422
 20
194.7006017439
 30
0.0
 10
285.0557623054
 20
194.7049932184
 30
0.0
 10
285.0388879973
 20
194.7115804226
 30
0.0
 10
285.0192013148
 20
194.7192655204
 30
0.0
 10
285.0079517673
 20
194.7236569673
 30
0.0
 10
284.9995146476
 20
194.7269506577
 30
0.0
 10
284.992483584
 20
194.7296950645
 30
0.0
 10
284.986859026
 20
194.7318913419
 30
0.0
 10
284.9833430104
 20
194.7332623029
 30
0.0
 10
284.9805317251
 20
194.7343629935
 30
0.0
 10
284.9787711874
 20
194.7350419767
 30
0.0
 10
284.9775457941
 20
194.7355351988
 30
0.0
 10
284.9768346437
 20
194.7357889808
 30
0.0
 10
284.976082342
 20
194.7359370786
 30
0.0
 10
284.9751560306
 20
194.7361583242
 30
0.0
 10
284.9729213066
 20
194.7366595824
 30
0.0
 10
284.9695740829
 20
194.7374239571
 30
0.0
 10
284.9651083388
 20
194.7384359861
 30
0.0
 10
284.9606433381
 20
194.7394499243
 30
0.0
 10
284.9546897446
 20
194.7408011758
 30
0.0
 10
284.9442710773
 20
194.7431661783
 30
0.0
 10
284.929387198
 20
194.7465445741
 30
0.0
 10
284.914503363
 20
194.7499230915
 30
0.0
 10
284.9040846338
 20
194.7522879238
 30
0.0
 10
284.8981311376
 20
194.7536394426
 30
0.0
 10
284.8936658381
 20
194.7546525608
 30
0.0
 10
284.8892012165
 20
194.7556676696
 30
0.0
 10
284.8858508497
 20
194.7564234201
 30
0.0
 10
284.8836202276
 20
194.7569359335
 30
0.0
 10
284.8826864033
 20
194.7571365648
 30
0.0
 10
284.8819496044
 20
194.7573272
 30
0.0
 10
284.8811752824
 20
194.7574076475
 30
0.0
 10
284.8798027848
 20
194.7574972347
 30
0.0
 10
284.8778511702
 20
194.7576519278
 30
0.0
 10
284.8747235035
 20
194.7578845093
 30
0.0
 10
284.8708156606
 20
194.7581803473
 30
0.0
 10
284.8645621392
 20
194.7586508315
 30
0.0
 10
284.8567455712
 20
194.7592399169
 30
0.0
 10
284.8473655465
 20
194.7599463994
 30
0.0
 10
284.8379855603
 20
194.7606529937
 30
0.0
 10
284.8286055634
 20
194.7613595607
 30
0.0
 10
284.8192255707
 20
194.7620661251
 30
0.0
 10
284.8098455717
 20
194.7627727273
 30
0.0
 10
284.8020289235
 20
194.7633614387
 30
0.0
 10
284.7957755659
 20
194.7638326858
 30
0.0
 10
284.7918673062
 20
194.7641265823
 30
0.0
 10
284.7887404949
 20
194.7643631491
 30
0.0
 10
284.7863959438
 20
194.7645366052
 30
0.0
 10
284.7844403783
 20
194.7646937778
 30
0.0
 10
284.782879902
 20
194.7647911984
 30
0.0
 10
284.7816986804
 20
194.7649416407
 30
0.0
 10
284.7805589285
 20
194.7647967345
 30
0.0
 10
284.7790247734
 20
194.7647066953
 30
0.0
 10
284.7771120495
 20
194.7645587495
 30
0.0
 10
284.7748146535
 20
194.7643963655
 30
0.0
 10
284.771752202
 20
194.7641745616
 30
0.0
 10
284.7679238831
 20
194.7638991187
 30
0.0
 10
284.761798715
 20
194.7634573974
 30
0.0
 10
284.7541422062
 20
194.762905593
 30
0.0
 10
284.7449544165
 20
194.7622432795
 30
0.0
 10
284.7357666213
 20
194.7615810036
 30
0.0
 10
284.7265788272
 20
194.7609187255
 30
0.0
 10
284.7173910341
 20
194.7602564187
 30
0.0
 10
284.708203236
 20
194.7595942287
 30
0.0
 10
284.7005467534
 20
194.7590420383
 30
0.0
 10
284.6944215319
 20
194.7586011046
 30
0.0
 10
284.6905933489
 20
194.7583236573
 30
0.0
 10
284.6875306183
 20
194.7581059677
 30
0.0
 10
284.6856168321
 20
194.7579601729
 30
0.0
 10
284.6842763392
 20
194.7578776345
 30
0.0
 10
284.6835116614
 20
194.7577999319
 30
0.0
 10
284.6827519481
 20
194.7576072086
 30
0.0
 10
284.6818006096
 20
194.7574056191
 30
0.0
 10
284.6795187938
 20
194.7568894467
 30
0.0
 10
284.6760954835
 20
194.7561287786
 30
0.0
 10
284.671531405
 20
194.7551067867
 30
0.0
 10
284.6669672369
 20
194.7540868727
 30
0.0
 10
284.6608817107
 20
194.7527262623
 30
0.0
 10
284.6502320244
 20
194.7503455339
 30
0.0
 10
284.6350182018
 20
194.7469443003
 30
0.0
 10
284.6198043487
 20
194.7435431917
 30
0.0
 10
284.6091547052
 20
194.7411622883
 30
0.0
 10
284.6030691118
 20
194.7398019529
 30
0.0
 10
284.5985051498
 20
194.7387811951
 30
0.0
 10
284.5939402972
 20
194.7377623721
 30
0.0
 10
284.5905191546
 20
194.73699283
 30
0.0
 10
284.5882345098
 20
194.7364882388
 30
0.0
 10
284.5872883527
 20
194.7362654379
 30
0.0
 10
284.5865179476
 20
194.7361164845
 30
0.0
 10
284.5857968376
 20
194.7358604255
 30
0.0
 10
284.5845577989
 20
194.7353625586
 30
0.0
 10
284.5827757935
 20
194.7346772843
 30
0.0
 10
284.5799312631
 20
194.7335663355
 30
0.0
 10
284.5763733135
 20
194.7321826177
 30
0.0
 10
284.5706818722
 20
194.7299658925
 30
0.0
 10
284.5635671321
 20
194.7271959387
 30
0.0
 10
284.5550296316
 20
194.7238715864
 30
0.0
 10
284.5436462321
 20
194.7194392588
 30
0.0
 10
284.5237253137
 20
194.711682619
 30
0.0
 10
284.5066502302
 20
194.7050340934
 30
0.0
 10
284.4952668436
 20
194.700601738
 30
0.0
  0
SPLINE
  5
44F
100
AcDbEntity
  8
7_ALL_FEATURES
100
AcDbSpline
 62
4
  6
CONTINUOUS
 70
0
 71
3
 72
164
 73
160
 74
0
 42
0.0000001
 43
0.0000001
 44
0.0000000001
 40
0.0
 40
0.0
 40
0.0
 40
0.0
 40
0.03125
 40
0.046875
 40
0.0625
 40
0.0703125
 40
0.078125
 40
0.0859375
 40
0.09375
 40
0.09765625
 40
0.1015625
 40
0.10546875
 40
0.107421875
 40
0.109375
 40
0.1103515625
 40
0.111328125
 40
0.1123046875
 40
0.11328125
 40
0.115234375
 40
0.1171875
 40
0.125
 40
0.1328125
 40
0.140625
 40
0.15625
 40
0.171875
 40
0.1875
 40
0.1953125
 40
0.203125
 40
0.2109375
 40
0.21484375
 40
0.21875
 40
0.220703125
 40
0.22265625
 40
0.2236328125
 40
0.224609375
 40
0.2265625
 40
0.23046875
 40
0.234375
 40
0.2421875
 40
0.25
 40
0.265625
 40
0.28125
 40
0.296875
 40
0.3046875
 40
0.3125
 40
0.3203125
 40
0.32421875
 40
0.328125
 40
0.330078125
 40
0.33203125
 40
0.3330078125
 40
0.3334960938
 40
0.333984375
 40
0.3349609375
 40
0.3359375
 40
0.33984375
 40
0.34375
 40
0.34765625
 40
0.3515625
 40
0.359375
 40
0.375
 40
0.390625
 40
0.40625
 40
0.4140625
 40
0.421875
 40
0.4296875
 40
0.43359375
 40
0.4375
 40
0.44140625
 40
0.443359375
 40
0.4438476562
 40
0.4443359375
 40
0.4453125
 40
0.447265625
 40
0.44921875
 40
0.453125
 40
0.45703125
 40
0.4609375
 40
0.46875
 40
0.484375
 40
0.5
 40
0.515625
 40
0.53125
 40
0.5390625
 40
0.54296875
 40
0.546875
 40
0.55078125
 40
0.552734375
 40
0.5546875
 40
0.5556640625
 40
0.556640625
 40
0.55859375
 40
0.5625
 40
0.56640625
 40
0.5703125
 40
0.578125
 40
0.5859375
 40
0.59375
 40
0.609375
 40
0.625
 40
0.640625
 40
0.6484375
 40
0.65234375
 40
0.65625
 40
0.66015625
 40
0.6640625
 40
0.6650390625
 40
0.666015625
 40
0.6665039062
 40
0.6669921875
 40
0.66796875
 40
0.669921875
 40
0.671875
 40
0.67578125
 40
0.6796875
 40
0.6875
 40
0.6953125
 40
0.703125
 40
0.71875
 40
0.734375
 40
0.75
 40
0.7578125
 40
0.765625
 40
0.76953125
 40
0.7734375
 40
0.775390625
 40
0.7763671875
 40
0.77734375
 40
0.779296875
 40
0.78125
 40
0.78515625
 40
0.7890625
 40
0.796875
 40
0.8046875
 40
0.8125
 40
0.828125
 40
0.84375
 40
0.859375
 40
0.8671875
 40
0.875
 40
0.8828125
 40
0.884765625
 40
0.88671875
 40
0.8876953125
 40
0.888671875
 40
0.8896484375
 40
0.890625
 40
0.892578125
 40
0.89453125
 40
0.8984375
 40
0.90234375
 40
0.90625
 40
0.9140625
 40
0.921875
 40
0.9296875
 40
0.9375
 40
0.953125
 40
0.96875
 40
1.0
 40
1.0
 40
1.0
 40
1.0
 10
285.1396766915
 20
194.0159337888
 30
0.0
 10
285.1463108238
 20
194.0219031623
 30
0.0
 10
285.1562620222
 20
194.0308572226
 30
0.0
 10
285.1695302868
 20
194.0427959697
 30
0.0
 10
285.1778229523
 20
194.0502576866
 30
0.0
 10
285.1844570844
 20
194.0562270603
 30
0.0
 10
285.189432684
 20
194.0607040901
 30
0.0
 10
285.1944082818
 20
194.0651811213
 30
0.0
 10
285.198554619
 20
194.0689119766
 30
0.0
 10
285.2018716759
 20
194.0718966699
 30
0.0
 10
285.2043595038
 20
194.0741351651
 30
0.0
 10
285.2064325817
 20
194.0760006565
 30
0.0
 10
285.2080912953
 20
194.077492873
 30
0.0
 10
285.2091274191
 20
194.0784259105
 30
0.0
 10
285.2099576285
 20
194.0791714195
 30
0.0
 10
285.2105766978
 20
194.0797330728
 30
0.0
 10
285.2110094784
 20
194.0804256467
 30
0.0
 10
285.2116515806
 20
194.0813033545
 30
0.0
 10
285.2124319701
 20
194.082416118
 30
0.0
 10
285.2143232078
 20
194.0850738873
 30
0.0
 10
285.2171523783
 20
194.0890659428
 30
0.0
 10
285.2209289922
 20
194.0943856008
 30
0.0
 10
285.2259629455
 20
194.1014795548
 30
0.0
 10
285.2322559097
 20
194.1103466294
 30
0.0
 10
285.239807256
 20
194.1209872698
 30
0.0
 10
285.2461000503
 20
194.1298544575
 30
0.0
 10
285.2511343773
 20
194.1369481626
 30
0.0
 10
285.2549098443
 20
194.1422685843
 30
0.0
 10
285.2580569565
 20
194.1467018115
 30
0.0
 10
285.2605726499
 20
194.1502494199
 30
0.0
 10
285.2621495044
 20
194.1524643375
 30
0.0
 10
285.2634005765
 20
194.1542416252
 30
0.0
 10
285.2642062522
 20
194.1553402146
 30
0.0
 10
285.264571491
 20
194.1563627061
 30
0.0
 10
285.2649854413
 20
194.1573601496
 30
0.0
 10
285.2656871618
 20
194.1591173444
 30
0.0
 10
285.2667014594
 20
194.1616215346
 30
0.0
 10
285.2683177189
 20
194.1656316413
 30
0.0
 10
285.2703403089
 20
194.1706431097
 30
0.0
 10
285.2735751864
 20
194.1786621102
 30
0.0
 10
285.2776192194
 20
194.1886856372
 30
0.0
 10
285.2824718655
 20
194.2007139665
 30
0.0
 10
285.2865158008
 20
194.2107375494
 30
0.0
 10
285.2897508932
 20
194.218756427
 30
0.0
 10
285.2921773418
 20
194.2247705661
 30
0.0
 10
285.2941989745
 20
194.2297824078
 30
0.0
 10
285.2958171948
 20
194.2337917487
 30
0.0
 10
285.2968265012
 20
194.2362978884
 30
0.0
 10
285.2976387128
 20
194.2383021094
 30
0.0
 10
285.2981354695
 20
194.2395563236
 30
0.0
 10
285.2985049951
 20
194.2404311149
 30
0.0
 10
285.2986820509
 20
194.2409359375
 30
0.0
 10
285.2987306635
 20
194.2414593733
 30
0.0
 10
285.2988353317
 20
194.242107306
 30
0.0
 10
285.2990504016
 20
194.2436675808
 30
0.0
 10
285.299388183
 20
194.2460057936
 30
0.0
 10
285.2998298839
 20
194.2491246676
 30
0.0
 10
285.3002739052
 20
194.2522432055
 30
0.0
 10
285.3008651241
 20
194.2564013732
 30
0.0
 10
285.3019001346
 20
194.2636781121
 30
0.0
 10
285.3033785225
 20
194.274073482
 30
0.0
 10
285.3051526785
 20
194.2865479132
 30
0.0
 10
285.3066311046
 20
194.2969432767
 30
0.0
 10
285.3078138897
 20
194.3052595638
 30
0.0
 10
285.3087008681
 20
194.3114967879
 30
0.0
 10
285.3094403663
 20
194.3166944469
 30
0.0
 10
285.3100311813
 20
194.3208526362
 30
0.0
 10
285.3104764335
 20
194.3239711086
 30
0.0
 10
285.3108406669
 20
194.3265703749
 30
0.0
 10
285.3110898286
 20
194.3282589153
 30
0.0
 10
285.311191784
 20
194.3290392744
 30
0.0
 10
285.311291988
 20
194.3295569614
 30
0.0
 10
285.3111380207
 20
194.3304889911
 30
0.0
 10
285.3110307912
 20
194.3318115361
 30
0.0
 10
285.3107962225
 20
194.3339325969
 30
0.0
 10
285.310524627
 20
194.3365822112
 30
0.0
 10
285.3101894612
 20
194.339762481
 30
0.0
 10
285.3097458005
 20
194.3440025852
 30
0.0
 10
285.3089678903
 20
194.3514228865
 30
0.0
 10
285.3078573793
 20
194.3620232554
 30
0.0
 10
285.3065244147
 20
194.3747437213
 30
0.0
 10
285.3051915931
 20
194.3874641931
 30
0.0
 10
285.3040807245
 20
194.3980645471
 30
0.0
 10
285.3033034403
 20
194.4054848746
 30
0.0
 10
285.3028587779
 20
194.409724937
 30
0.0
 10
285.3025266886
 20
194.4129053351
 30
0.0
 10
285.3022454642
 20
194.4155545476
 30
0.0
 10
285.3020305409
 20
194.4176764284
 30
0.0
 10
285.301873315
 20
194.4189968864
 30
0.0
 10
285.3017999774
 20
194.4200663471
 30
0.0
 10
285.3013683708
 20
194.4210463535
 30
0.0
 10
285.3007799835
 20
194.4228030432
 30
0.0
 10
285.2998521602
 20
194.4252908099
 30
0.0
 10
285.2987761269
 20
194.4282854569
 30
0.0
 10
285.2973283674
 20
194.4322750615
 30
0.0
 10
285.2955231448
 20
194.437263185
 30
0.0
 10
285.2933549615
 20
194.4432484549
 30
0.0
 10
285.2904647193
 20
194.4512289815
 30
0.0
 10
285.2868516913
 20
194.4612045843
 30
0.0
 10
285.2825161353
 20
194.4731753239
 30
0.0
 10
285.2789032136
 20
194.48315096
 30
0.0
 10
285.2763740471
 20
194.4901338567
 30
0.0
 10
285.2749290045
 20
194.4941241607
 30
0.0
 10
285.2738446711
 20
194.4971166708
 30
0.0
 10
285.2727624457
 20
194.5001100137
 30
0.0
 10
285.2719448663
 20
194.5023526857
 30
0.0
 10
285.2714090052
 20
194.5038514322
 30
0.0
 10
285.2711720518
 20
194.5044705056
 30
0.0
 10
285.271014397
 20
194.5049783714
 30
0.0
 10
285.2707400527
 20
194.5054401322
 30
0.0
 10
285.2702057333
 20
194.5062267921
 30
0.0
 10
285.2694707074
 20
194.5073617687
 30
0.0
 10
285.2682788577
 20
194.5091714852
 30
0.0
 10
285.2667944583
 20
194.5114357694
 30
0.0
 10
285.2644163941
 20
194.5150574288
 30
0.0
 10
285.2614448518
 20
194.5195849133
 30
0.0
 10
285.2578785564
 20
194.525017719
 30
0.0
 10
285.2531236527
 20
194.532261522
 30
0.0
 10
285.2471799589
 20
194.5413162487
 30
0.0
 10
285.2400475992
 20
194.5521819577
 30
0.0
 10
285.2341038089
 20
194.561236628
 30
0.0
 10
285.2293491175
 20
194.5684805551
 30
0.0
 10
285.226376662
 20
194.573007576
 30
0.0
 10
285.2240004684
 20
194.5766301856
 30
0.0
 10
285.222511307
 20
194.578892051
 30
0.0
 10
285.2214769916
 20
194.5804798973
 30
0.0
 10
285.2208732847
 20
194.5813801341
 30
0.0
 10
285.2203171709
 20
194.582307057
 30
0.0
 10
285.2192809179
 20
194.5832744445
 30
0.0
 10
285.2176600494
 20
194.5848430876
 30
0.0
 10
285.2156212482
 20
194.5867967616
 30
0.0
 10
285.2123662731
 20
194.5899266249
 30
0.0
 10
285.208295116
 20
194.5938375869
 30
0.0
 10
285.2034107708
 20
194.5985313262
 30
0.0
 10
285.1968979476
 20
194.6047894425
 30
0.0
 10
285.1887570324
 20
194.612612146
 30
0.0
 10
285.1789879322
 20
194.6219994154
 30
0.0
 10
285.1708468702
 20
194.6298219784
 30
0.0
 10
285.1643343701
 20
194.6360804038
 30
0.0
 10
285.1594490334
 20
194.6407731947
 30
0.0
 10
285.1557877847
 20
194.6442957317
 30
0.0
 10
285.1533426631
 20
194.6466395047
 30
0.0
 10
285.1523302461
 20
194.6476229007
 30
0.0
 10
285.1515054206
 20
194.6483936986
 30
0.0
 10
285.1509276468
 20
194.6490154593
 30
0.0
 10
285.1501939377
 20
194.6494705303
 30
0.0
 10
285.1492116545
 20
194.6500730112
 30
0.0
 10
285.1479851716
 20
194.6508275779
 30
0.0
 10
285.1460220326
 20
194.6520340655
 30
0.0
 10
285.1435683718
 20
194.6535424561
 30
0.0
 10
285.1406238663
 20
194.6553524044
 30
0.0
 10
285.1366978983
 20
194.657765711
 30
0.0
 10
285.1317904249
 20
194.6607823297
 30
0.0
 10
285.1259014625
 20
194.6644022784
 30
0.0
 10
285.1200124985
 20
194.6680222254
 30
0.0
 10
285.1121605472
 20
194.672848822
 30
0.0
 10
285.1023456078
 20
194.6788820675
 30
0.0
 10
285.0866417048
 20
194.6885352605
 30
0.0
 10
285.0748637776
 20
194.6957751552
 30
0.0
 10
285.0670118261
 20
194.7006017517
 30
0.0
  0
SPLINE
  5
450
100
AcDbEntity
  8
7_ALL_FEATURES
100
AcDbSpline
 62
4
  6
CONTINUOUS
 70
0
 71
3
 72
78
 73
74
 74
0
 42
0.0000001
 43
0.0000001
 44
0.0000000001
 40
0.0
 40
0.0
 40
0.0
 40
0.0
 40
0.0625
 40
0.09375
 40
0.109375
 40
0.125
 40
0.140625
 40
0.15625
 40
0.16015625
 40
0.1640625
 40
0.16796875
 40
0.171875
 40
0.1796875
 40
0.1875
 40
0.203125
 40
0.21875
 40
0.25
 40
0.28125
 40
0.296875
 40
0.3125
 40
0.3203125
 40
0.328125
 40
0.33203125
 40
0.3359375
 40
0.33984375
 40
0.34375
 40
0.359375
 40
0.375
 40
0.390625
 40
0.40625
 40
0.4375
 40
0.453125
 40
0.46875
 40
0.484375
 40
0.4921875
 40
0.49609375
 40
0.5
 40
0.50390625
 40
0.5078125
 40
0.515625
 40
0.53125
 40
0.546875
 40
0.5625
 40
0.59375
 40
0.609375
 40
0.625
 40
0.640625
 40
0.65625
 40
0.66015625
 40
0.6640625
 40
0.66796875
 40
0.671875
 40
0.6796875
 40
0.6875
 40
0.703125
 40
0.71875
 40
0.75
 40
0.78125
 40
0.796875
 40
0.8125
 40
0.8203125
 40
0.828125
 40
0.83203125
 40
0.833984375
 40
0.8359375
 40
0.83984375
 40
0.84375
 40
0.859375
 40
0.875
 40
0.890625
 40
0.90625
 40
0.9375
 40
1.0
 40
1.0
 40
1.0
 40
1.0
 10
284.9306259597
 20
192.3693437327
 30
0.0
 10
284.9422250983
 20
192.3749144352
 30
0.0
 10
284.9596237922
 20
192.3832705101
 30
0.0
 10
284.9799223174
 20
192.39301919
 30
0.0
 10
284.9915214048
 20
192.3985899702
 30
0.0
 10
285.0002209161
 20
192.4027677585
 30
0.0
 10
285.0089196791
 20
192.4069466813
 30
0.0
 10
285.0154458495
 20
192.4100776926
 30
0.0
 10
285.0197933666
 20
192.4121699803
 30
0.0
 10
285.0219729522
 20
192.4132072907
 30
0.0
 10
285.0241298822
 20
192.4142789454
 30
0.0
 10
285.0268979888
 20
192.4158712347
 30
0.0
 10
285.0303950327
 20
192.4178056427
 30
0.0
 10
285.0359696751
 20
192.4209319656
 30
0.0
 10
285.0429450444
 20
192.4248291579
 30
0.0
 10
285.0541016663
 20
192.4310706779
 30
0.0
 10
285.0680489457
 20
192.438870331
 30
0.0
 10
285.0819951784
 20
192.4466714565
 30
0.0
 10
285.0931534752
 20
192.4529106204
 30
0.0
 10
285.1001246573
 20
192.456813703
 30
0.0
 10
285.1057078834
 20
192.4599279509
 30
0.0
 10
285.1091830755
 20
192.4618930988
 30
0.0
 10
285.1119960372
 20
192.4634222885
 30
0.0
 10
285.1140159289
 20
192.4646867207
 30
0.0
 10
285.1160106487
 20
192.4659840899
 30
0.0
 10
285.1200130367
 20
192.4685618854
 30
0.0
 10
285.1260111807
 20
192.4724356945
 30
0.0
 10
285.1340118122
 20
192.4775967083
 30
0.0
 10
285.14201162
 20
192.4827588013
 30
0.0
 10
285.1526782822
 20
192.4896412559
 30
0.0
 10
285.1633450807
 20
192.4965235694
 30
0.0
 10
285.1740112816
 20
192.5034065581
 30
0.0
 10
285.1820125887
 20
192.5085669151
 30
0.0
 10
285.1886750721
 20
192.5128732129
 30
0.0
 10
285.1933491582
 20
192.5158758452
 30
0.0
 10
285.1960039074
 20
192.5176100228
 30
0.0
 10
285.1980404841
 20
192.5188588575
 30
0.0
 10
285.19990308
 20
192.5203056922
 30
0.0
 10
285.2024472276
 20
192.5221657406
 30
0.0
 10
285.2068712111
 20
192.5254530037
 30
0.0
 10
285.2132059698
 20
192.5301322706
 30
0.0
 10
285.2208013533
 20
192.5357545914
 30
0.0
 10
285.230930739
 20
192.5432485059
 30
0.0
 10
285.2410595326
 20
192.5507430992
 30
0.0
 10
285.251188447
 20
192.558237541
 30
0.0
 10
285.2587853623
 20
192.5638581482
 30
0.0
 10
285.2663812989
 20
192.5694797276
 30
0.0
 10
285.2720810155
 20
192.5736931637
 30
0.0
 10
285.2758765256
 20
192.576506398
 30
0.0
 10
285.2777819611
 20
192.5779053776
 30
0.0
 10
285.2796575349
 20
192.5793340519
 30
0.0
 10
285.2820162117
 20
192.5813802432
 30
0.0
 10
285.2850132085
 20
192.5838896041
 30
0.0
 10
285.289781215
 20
192.5879316179
 30
0.0
 10
285.2957505332
 20
192.5929748755
 30
0.0
 10
285.3052962348
 20
192.6010492766
 30
0.0
 10
285.3172301777
 20
192.6111403989
 30
0.0
 10
285.3291633662
 20
192.6212325517
 30
0.0
 10
285.3387102749
 20
192.6293053041
 30
0.0
 10
285.3446765754
 20
192.6343526836
 30
0.0
 10
285.3494507681
 20
192.6383862474
 30
0.0
 10
285.3524320165
 20
192.6409171199
 30
0.0
 10
285.3545241447
 20
192.6426689001
 30
0.0
 10
285.3557114256
 20
192.643700944
 30
0.0
 10
285.3568677428
 20
192.6448498494
 30
0.0
 10
285.3583237228
 20
192.6462460375
 30
0.0
 10
285.361809364
 20
192.6496297643
 30
0.0
 10
285.3670414845
 20
192.6546915464
 30
0.0
 10
285.3740155541
 20
192.6614484813
 30
0.0
 10
285.380990183
 20
192.6682033051
 30
0.0
 10
285.390289493
 20
192.6772104734
 30
0.0
 10
285.4065633771
 20
192.6929726727
 30
0.0
 10
285.4205123892
 20
192.7064832475
 30
0.0
 10
285.4298117376
 20
192.7154902712
 30
0.0
  0
SPLINE
  5
451
100
AcDbEntity
  8
7_ALL_FEATURES
100
AcDbSpline
 62
7
  6
CONTINUOUS
 70
0
 71
3
 72
9
 73
5
 74
0
 42
0.0000001
 43
0.0000001
 44
0.0000000001
 40
0.0
 40
0.0
 40
0.0
 40
0.0
 40
0.4999651986
 40
1.0
 40
1.0
 40
1.0
 40
1.0
 10
295.0965793168
 20
237.3706072074
 30
0.0
 10
295.1193348045
 20
237.5372499228
 30
0.0
 10
295.1633912501
 20
237.8707565428
 30
0.0
 10
295.2101143119
 20
238.2039007301
 30
0.0
 10
295.2325739191
 20
238.3706072074
 30
0.0
  0
SPLINE
  5
452
100
AcDbEntity
  8
7_ALL_FEATURES
100
AcDbSpline
 62
7
  6
CONTINUOUS
 70
0
 71
3
 72
9
 73
5
 74
0
 42
0.0000001
 43
0.0000001
 44
0.0000000001
 40
0.0
 40
0.0
 40
0.0
 40
0.0
 40
0.4999652328
 40
1.0
 40
1.0
 40
1.0
 40
1.0
 10
274.9376507739
 20
237.3706072074
 30
0.0
 10
274.9148954457
 20
237.5372499561
 30
0.0
 10
274.8708378251
 20
237.8707564161
 30
0.0
 10
274.824115614
 20
238.2039007197
 30
0.0
 10
274.8016561717
 20
238.3706072074
 30
0.0
  0
SPLINE
  5
453
100
AcDbEntity
  8
7_ALL_FEATURES
100
AcDbSpline
 62
7
  6
CONTINUOUS
 70
0
 71
3
 72
8
 73
4
 74
0
 42
0.0000001
 43
0.0000001
 44
0.0000000001
 40
0.0
 40
0.0
 40
0.0
 40
0.0
 40
1.0
 40
1.0
 40
1.0
 40
1.0
 10
275.0755055177
 20
189.8706072074
 30
0.0
 10
275.0292140339
 20
190.2038935069
 30
0.0
 10
274.9833215928
 20
190.5372352901
 30
0.0
 10
274.9376507739
 20
190.8706072074
 30
0.0
  0
SPLINE
  5
454
100
AcDbEntity
  8
7_ALL_FEATURES
100
AcDbSpline
 62
7
  6
CONTINUOUS
 70
0
 71
3
 72
8
 73
4
 74
0
 42
0.0000001
 43
0.0000001
 44
0.0000000001
 40
0.0
 40
0.0
 40
0.0
 40
0.0
 40
1.0
 40
1.0
 40
1.0
 40
1.0
 10
294.958724573
 20
189.8706072074
 30
0.0
 10
295.005015643
 20
190.2038935644
 30
0.0
 10
295.0509089171
 20
190.5372352327
 30
0.0
 10
295.0965793168
 20
190.8706072074
 30
0.0
  0
ELLIPSE
  5
455
100
AcDbEntity
  8
7_ALL_FEATURES
100
AcDbEllipse
 62
3
  6
CONTINUOUS
 10
114.1714545297
 20
200.9399029998
 30
0.0
 11
4.1574578963
 21
4.1574578963
 31
0.0
 40
0.4142135624
 41
1.1780972451
 42
1.3117249102
  0
ELLIPSE
  5
456
100
AcDbEntity
  8
7_ALL_FEATURES
100
AcDbEllipse
 62
3
  6
CONTINUOUS
 10
123.9723815034
 20
200.9399029998
 30
0.0
 11
4.1574578963
 21
-4.1574578963
 31
0.0
 40
0.4142135624
 41
1.8298677433
 42
1.9634954085
  0
ELLIPSE
  5
457
100
AcDbEntity
  8
7_ALL_FEATURES
100
AcDbEllipse
 62
3
  6
CONTINUOUS
 10
280.1166515585
 20
200.9399029998
 30
0.0
 11
4.1574578963
 21
4.1574578963
 31
0.0
 40
0.4142135624
 41
1.1780972451
 42
1.3117249102
  0
ELLIPSE
  5
458
100
AcDbEntity
  8
7_ALL_FEATURES
100
AcDbEllipse
 62
3
  6
CONTINUOUS
 10
289.9175785322
 20
200.9399029998
 30
0.0
 11
4.1574578963
 21
-4.1574578963
 31
0.0
 40
0.4142135624
 41
1.8298677433
 42
1.9634954085
  0
ENDSEC
  0
SECTION
  2
OBJECTS
  0
DICTIONARY
  5
459
100
AcDbDictionary
  3
ACAD_GROUP
350
45A
  3
ACAD_MLINESTYLE
350
45B
  0
DICTIONARY
  5
45A
102
{ACAD_REACTORS
330
459
102
}
100
AcDbDictionary
  0
DICTIONARY
  5
45B
102
{ACAD_REACTORS
330
459
102
}
100
AcDbDictionary
  3
STANDARD
350
45C
  0
MLINESTYLE
  5
45C
102
{ACAD_REACTORS
330
45B
102
}
100
AcDbMlineStyle
  2
STANDARD
 70
0
  3

 62
256
 51
90.0
 52
90.0
 71
2
 49
0.5
 62
256
  6
BYLAYER
 49
-0.5
 62
256
  6
BYLAYER
  0
ENDSEC
  0
EOF
