  0
SECTION
  2
HEADER
  9
$ACADVER
  1
AC1015
  9
$ACADMAINTVER
 70
     6
  9
$DWGCODEPAGE
  3
ANSI_1252
  9
$INSBASE
 10
0.0
 20
0.0
 30
0.0
  9
$EXTMIN
 10
0.0
 20
0.0
 30
0.0
  9
$EXTMAX
 10
420.0
 20
297.0
 30
0.0
  9
$LIMMIN
 10
0.0
 20
0.0
  9
$LIMMAX
 10
420.0
 20
297.0
  9
$ORTHOMODE
 70
     0
  9
$REGENMODE
 70
     1
  9
$FILLMODE
 70
     1
  9
$QTEXTMODE
 70
     0
  9
$MIRRTEXT
 70
     1
  9
$LTSCALE
 40
23.1
  9
$ATTMODE
 70
     1
  9
$TEXTSIZE
 40
0.2
  9
$TRACEWID
 40
0.05
  9
$TEXTSTYLE
  7
STANDARD
  9
$CLAYER
  8
0
  9
$CELTYPE
  6
BYLAYER
  9
$CECOLOR
 62
   256
  9
$CELTSCALE
 40
1.0
  9
$DISPSILH
 70
     0
  9
$DIMSCALE
 40
1.0
  9
$DIMASZ
 40
2.5
  9
$DIMEXO
 40
2.625
  9
$DIMDLI
 40
15.96
  9
$DIMRND
 40
0.0
  9
$DIMDLE
 40
0.0
  9
$DIMEXE
 40
7.56
  9
$DIMTP
 40
0.01
  9
$DIMTM
 40
0.01
  9
$DIMTXT
 40
3.0
  9
$DIMCEN
 40
3.78
  9
$DIMTSZ
 40
0.0
  9
$DIMTOL
 70
     1
  9
$DIMLIM
 70
     0
  9
$DIMTIH
 70
     1
  9
$DIMTOH
 70
     1
  9
$DIMSE1
 70
     0
  9
$DIMSE2
 70
     0
  9
$DIMTAD
 70
     0
  9
$DIMZIN
 70
     0
  9
$DIMBLK
  1
CLOSED
  9
$DIMASO
 70
     1
  9
$DIMSHO
 70
     1
  9
$DIMPOST
  1

  9
$DIMAPOST
  1

  9
$DIMALT
 70
     0
  9
$DIMALTD
 70
     2
  9
$DIMALTF
 40
25.4
  9
$DIMLFAC
 40
1.0
  9
$DIMTOFL
 70
     0
  9
$DIMTVP
 40
0.0
  9
$DIMTIX
 70
     0
  9
$DIMSOXD
 70
     0
  9
$DIMSAH
 70
     0
  9
$DIMBLK1
  1

  9
$DIMBLK2
  1

  9
$DIMSTYLE
  2
STANDARD
  9
$DIMCLRD
 70
     0
  9
$DIMCLRE
 70
     0
  9
$DIMCLRT
 70
     0
  9
$DIMTFAC
 40
1.0
  9
$DIMGAP
 40
0.09
  9
$DIMJUST
 70
     0
  9
$DIMSD1
 70
     0
  9
$DIMSD2
 70
     0
  9
$DIMTOLJ
 70
     1
  9
$DIMTZIN
 70
     0
  9
$DIMALTZ
 70
     0
  9
$DIMALTTZ
 70
     0
  9
$DIMUPT
 70
     0
  9
$DIMDEC
 70
     4
  9
$DIMTDEC
 70
     4
  9
$DIMALTU
 70
     2
  9
$DIMALTTD
 70
     2
  9
$DIMTXSTY
  7
STANDARD
  9
$DIMAUNIT
 70
     0
  9
$DIMADEC
 70
     0
  9
$DIMALTRND
 40
0.0
  9
$DIMAZIN
 70
     0
  9
$DIMDSEP
 70
    46
  9
$DIMATFIT
 70
     3
  9
$DIMFRAC
 70
     0
  9
$DIMLDRBLK
  1

  9
$DIMLUNIT
 70
     2
  9
$DIMLWD
 70
    -2
  9
$DIMLWE
 70
    -2
  9
$DIMTMOVE
 70
     0
  9
$LUNITS
 70
     2
  9
$LUPREC
 70
     4
  9
$SKETCHINC
 40
0.1
  9
$FILLETRAD
 40
0.5
  9
$AUNITS
 70
     0
  9
$AUPREC
 70
     0
  9
$MENU
  1
.
  9
$ELEVATION
 40
0.0
  9
$PELEVATION
 40
0.0
  9
$THICKNESS
 40
0.0
  9
$LIMCHECK
 70
     0
  9
$CHAMFERA
 40
0.0
  9
$CHAMFERB
 40
0.0
  9
$CHAMFERC
 40
0.0
  9
$CHAMFERD
 40
0.0
  9
$SKPOLY
 70
     0
  9
$TDCREATE
 40
2447893.041666667
  9
$TDUCREATE
 40
0.0
  9
$TDUPDATE
 40
2456742.439073715
  9
$TDUUPDATE
 40
2456742.397407048
  9
$TDINDWG
 40
0.0002924769
  9
$TDUSRTIMER
 40
2456742.397114734
  9
$USRTIMER
 70
     1
  9
$ANGBASE
 50
0.0
  9
$ANGDIR
 70
     0
  9
$PDMODE
 70
     3
  9
$PDSIZE
 40
0.3125
  9
$PLINEWID
 40
0.0
  9
$SPLFRAME
 70
     0
  9
$SPLINETYPE
 70
     6
  9
$SPLINESEGS
 70
     8
  9
$HANDSEED
  5
563
  9
$SURFTAB1
 70
     6
  9
$SURFTAB2
 70
     6
  9
$SURFTYPE
 70
     6
  9
$SURFU
 70
     6
  9
$SURFV
 70
     6
  9
$UCSBASE
  2

  9
$UCSNAME
  2

  9
$UCSORG
 10
0.0
 20
0.0
 30
0.0
  9
$UCSXDIR
 10
1.0
 20
0.0
 30
0.0
  9
$UCSYDIR
 10
0.0
 20
1.0
 30
0.0
  9
$UCSORTHOREF
  2

  9
$UCSORTHOVIEW
 70
     0
  9
$UCSORGTOP
 10
0.0
 20
0.0
 30
0.0
  9
$UCSORGBOTTOM
 10
0.0
 20
0.0
 30
0.0
  9
$UCSORGLEFT
 10
0.0
 20
0.0
 30
0.0
  9
$UCSORGRIGHT
 10
0.0
 20
0.0
 30
0.0
  9
$UCSORGFRONT
 10
0.0
 20
0.0
 30
0.0
  9
$UCSORGBACK
 10
0.0
 20
0.0
 30
0.0
  9
$PUCSBASE
  2

  9
$PUCSNAME
  2

  9
$PUCSORG
 10
0.0
 20
0.0
 30
0.0
  9
$PUCSXDIR
 10
1.0
 20
0.0
 30
0.0
  9
$PUCSYDIR
 10
0.0
 20
1.0
 30
0.0
  9
$PUCSORTHOREF
  2

  9
$PUCSORTHOVIEW
 70
     0
  9
$PUCSORGTOP
 10
0.0
 20
0.0
 30
0.0
  9
$PUCSORGBOTTOM
 10
0.0
 20
0.0
 30
0.0
  9
$PUCSORGLEFT
 10
0.0
 20
0.0
 30
0.0
  9
$PUCSORGRIGHT
 10
0.0
 20
0.0
 30
0.0
  9
$PUCSORGFRONT
 10
0.0
 20
0.0
 30
0.0
  9
$PUCSORGBACK
 10
0.0
 20
0.0
 30
0.0
  9
$USERI1
 70
     0
  9
$USERI2
 70
     0
  9
$USERI3
 70
     0
  9
$USERI4
 70
     0
  9
$USERI5
 70
     0
  9
$USERR1
 40
0.0
  9
$USERR2
 40
0.0
  9
$USERR3
 40
0.0
  9
$USERR4
 40
0.0
  9
$USERR5
 40
0.0
  9
$WORLDVIEW
 70
     1
  9
$SHADEDGE
 70
     3
  9
$SHADEDIF
 70
    70
  9
$TILEMODE
 70
     1
  9
$MAXACTVP
 70
    64
  9
$PINSBASE
 10
0.0
 20
0.0
 30
0.0
  9
$PLIMCHECK
 70
     0
  9
$PEXTMIN
 10
1.000000000000000E+20
 20
1.000000000000000E+20
 30
1.000000000000000E+20
  9
$PEXTMAX
 10
-1.000000000000000E+20
 20
-1.000000000000000E+20
 30
-1.000000000000000E+20
  9
$PLIMMIN
 10
0.0
 20
0.0
  9
$PLIMMAX
 10
420.0
 20
297.0
  9
$UNITMODE
 70
     0
  9
$VISRETAIN
 70
     1
  9
$PLINEGEN
 70
     0
  9
$PSLTSCALE
 70
     1
  9
$TREEDEPTH
 70
  3020
  9
$CMLSTYLE
  2

  9
$CMLJUST
 70
     0
  9
$CMLSCALE
 40
1.0
  9
$PROXYGRAPHICS
 70
     1
  9
$MEASUREMENT
 70
     1
  9
$CELWEIGHT
370
    -1
  9
$ENDCAPS
280
     0
  9
$JOINSTYLE
280
     0
  9
$LWDISPLAY
290
     0
  9
$INSUNITS
 70
     4
  9
$HYPERLINKBASE
  1

  9
$STYLESHEET
  1

  9
$XEDIT
290
     1
  9
$CEPSNTYPE
380
     0
  9
$PSTYLEMODE
290
     1
  9
$FINGERPRINTGUID
  2
{926E3D88-0BA4-4A3E-B982-B341EA729F06}
  9
$VERSIONGUID
  2
{FAEB1C32-E019-11D5-929B-00C0DF256EC4}
  9
$EXTNAMES
290
     1
  9
$PSVPSCALE
 40
0.0
  9
$OLESTARTUP
290
     0
  0
ENDSEC
  0
SECTION
  2
CLASSES
  0
CLASS
  1
ACDBDICTIONARYWDFLT
  2
AcDbDictionaryWithDefault
  3
ObjectDBX Classes
 90
        0
280
     0
281
     0
  0
CLASS
  1
ACDBPLACEHOLDER
  2
AcDbPlaceHolder
  3
ObjectDBX Classes
 90
        0
280
     0
281
     0
  0
CLASS
  1
LAYOUT
  2
AcDbLayout
  3
ObjectDBX Classes
 90
        0
280
     0
281
     0
  0
CLASS
  1
TABLESTYLE
  2
AcDbTableStyle
  3
ObjectDBX Classes
 90
     4095
280
     0
281
     0
  0
CLASS
  1
ACAD_TABLE
  2
AcDbTable
  3
ObjectDBX Classes
 90
     1025
280
     0
281
     1
  0
CLASS
  1
SCALE
  2
AcDbScale
  3
ObjectDBX Classes
 90
     1153
280
     0
281
     0
  0
CLASS
  1
TABLEGEOMETRY
  2
AcDbTableGeometry
  3
ObjectDBX Classes
 90
     1152
280
     0
281
     0
  0
CLASS
  1
VISUALSTYLE
  2
AcDbVisualStyle
  3
ObjectDBX Classes
 90
     4095
280
     0
281
     0
  0
CLASS
  1
MATERIAL
  2
AcDbMaterial
  3
ObjectDBX Classes
 90
     1153
280
     0
281
     0
  0
CLASS
  1
SUN
  2
AcDbSun
  3
SCENEOE
 90
     1153
280
     0
281
     0
  0
CLASS
  1
RASTERVARIABLES
  2
AcDbRasterVariables
  3
ISM
 90
        0
280
     0
281
     0
  0
ENDSEC
  0
SECTION
  2
TABLES
  0
TABLE
  2
VPORT
  5
8
330
0
100
AcDbSymbolTable
 70
     1
  0
VPORT
  5
1F4
330
8
100
AcDbSymbolTableRecord
100
AcDbViewportTableRecord
  2
*ACTIVE
 70
     0
 10
0.0
 20
0.0
 11
1.0
 21
1.0
 12
210.0
 22
148.5
 13
0.0
 23
0.0
 14
1.0
 24
1.0
 15
0.0
 25
0.0
 16
0.0
 26
0.0
 36
1.0
 17
0.0
 27
0.0
 37
0.0
 40
297.0
 41
1.4141414141
 42
50.0
 43
0.0
 44
0.0
 50
0.0
 51
0.0
 71
     0
 72
   100
 73
     1
 74
     1
 75
     0
 76
     0
 77
     0
 78
     0
281
     0
 65
     1
110
0.0
120
0.0
130
0.0
111
1.0
121
0.0
131
0.0
112
0.0
122
1.0
132
0.0
 79
     0
146
0.0
  0
ENDTAB
  0
TABLE
  2
LTYPE
  5
5
330
0
100
AcDbSymbolTable
 70
     6
  0
LTYPE
  5
14
330
5
100
AcDbSymbolTableRecord
100
AcDbLinetypeTableRecord
  2
BYBLOCK
 70
     0
  3

 72
    65
 73
     0
 40
0.0
  0
LTYPE
  5
15
330
5
100
AcDbSymbolTableRecord
100
AcDbLinetypeTableRecord
  2
BYLAYER
 70
     0
  3

 72
    65
 73
     0
 40
0.0
  0
LTYPE
  5
16
330
5
100
AcDbSymbolTableRecord
100
AcDbLinetypeTableRecord
  2
CONTINUOUS
 70
     0
  3
Solid line
 72
    65
 73
     0
 40
0.0
  0
LTYPE
  5
1F5
330
5
100
AcDbSymbolTableRecord
100
AcDbLinetypeTableRecord
  2
CENTER
 70
     0
  3
____ _ ____ _ ____ _ ____ _ ____ _ ____ _ ____
 72
    65
 73
     4
 40
0.6
 49
0.375
 74
     0
 49
-0.075
 74
     0
 49
0.075
 74
     0
 49
-0.075
 74
     0
  0
LTYPE
  5
1F6
330
5
100
AcDbSymbolTableRecord
100
AcDbLinetypeTableRecord
  2
HIDDEN
 70
     0
  3
- - - - - - - - - - - - - - - - - - - -
 72
    65
 73
     2
 40
0.2
 49
0.1
 74
     0
 49
-0.1
 74
     0
  0
LTYPE
  5
1F7
330
5
100
AcDbSymbolTableRecord
100
AcDbLinetypeTableRecord
  2
PHANTOM
 70
     0
  3
_____ _ _ _____ _ _ _____ _ _ _____
 72
    65
 73
     6
 40
0.8
 49
0.45
 74
     0
 49
-0.05
 74
     0
 49
0.1
 74
     0
 49
-0.05
 74
     0
 49
0.1
 74
     0
 49
-0.05
 74
     0
  0
LTYPE
  5
1F8
330
5
100
AcDbSymbolTableRecord
100
AcDbLinetypeTableRecord
  2
DOT
 70
     0
  3
. . . . . . . . . . . . . . . . . . . .
 72
    65
 73
     2
 40
0.2
 49
0.1
 74
     0
 49
-0.1
 74
     0
  0
LTYPE
  5
1F9
330
5
100
AcDbSymbolTableRecord
100
AcDbLinetypeTableRecord
  2
DASHED
 70
     0
  3
- - - - - - - - - - - - - - - - - - - -
 72
    65
 73
     2
 40
0.2
 49
0.1
 74
     0
 49
-0.1
 74
     0
  0
ENDTAB
  0
TABLE
  2
LAYER
  5
2
330
0
100
AcDbSymbolTable
 70
    42
  0
LAYER
  5
10
330
2
100
AcDbSymbolTableRecord
100
AcDbLayerTableRecord
  2
0
 70
     0
 62
     7
  6
CONTINUOUS
370
    -3
390
F
  0
LAYER
  5
1FA
330
2
100
AcDbSymbolTableRecord
100
AcDbLayerTableRecord
  2
DEFAULT_1
 70
     0
 62
     7
  6
CENTER
370
    -3
390
F
  0
LAYER
  5
1FB
330
2
100
AcDbSymbolTableRecord
100
AcDbLayerTableRecord
  2
DEFAULT_2
 70
     0
 62
     8
  6
HIDDEN
370
    -3
390
F
  0
LAYER
  5
1FC
330
2
100
AcDbSymbolTableRecord
100
AcDbLayerTableRecord
  2
DEFAULT_3
 70
     0
 62
     7
  6
PHANTOM
370
    -3
390
F
  0
LAYER
  5
1FD
330
2
100
AcDbSymbolTableRecord
100
AcDbLayerTableRecord
  2
01_ALL_DTM_PLN
 70
     0
 62
     7
  6
CONTINUOUS
370
    -3
390
F
  0
LAYER
  5
1FE
330
2
100
AcDbSymbolTableRecord
100
AcDbLayerTableRecord
  2
01__ASM_ALL_DTM_PLN
 70
     0
 62
     7
  6
CONTINUOUS
370
    -3
390
F
  0
LAYER
  5
1FF
330
2
100
AcDbSymbolTableRecord
100
AcDbLayerTableRecord
  2
01__ASM_DEF_DTM_PLN
 70
     0
 62
     7
  6
CONTINUOUS
370
    -3
390
F
  0
LAYER
  5
200
330
2
100
AcDbSymbolTableRecord
100
AcDbLayerTableRecord
  2
01___PRT_ALL_DTM_PLN
 70
     0
 62
     7
  6
CONTINUOUS
370
    -3
390
F
  0
LAYER
  5
201
330
2
100
AcDbSymbolTableRecord
100
AcDbLayerTableRecord
  2
01___PRT_DEF_DTM_PLN
 70
     0
 62
     7
  6
CONTINUOUS
370
    -3
390
F
  0
LAYER
  5
202
330
2
100
AcDbSymbolTableRecord
100
AcDbLayerTableRecord
  2
02_ALL_AXES
 70
     0
 62
     7
  6
CONTINUOUS
370
    -3
390
F
  0
LAYER
  5
203
330
2
100
AcDbSymbolTableRecord
100
AcDbLayerTableRecord
  2
02__ASM_ALL_AXES
 70
     0
 62
     7
  6
CONTINUOUS
370
    -3
390
F
  0
LAYER
  5
204
330
2
100
AcDbSymbolTableRecord
100
AcDbLayerTableRecord
  2
02___PRT_ALL_AXES
 70
     0
 62
     7
  6
CONTINUOUS
370
    -3
390
F
  0
LAYER
  5
205
330
2
100
AcDbSymbolTableRecord
100
AcDbLayerTableRecord
  2
03_ALL_CURVES
 70
     0
 62
     7
  6
CONTINUOUS
370
    -3
390
F
  0
LAYER
  5
206
330
2
100
AcDbSymbolTableRecord
100
AcDbLayerTableRecord
  2
03__ASM_ALL_CURVES
 70
     0
 62
     7
  6
CONTINUOUS
370
    -3
390
F
  0
LAYER
  5
207
330
2
100
AcDbSymbolTableRecord
100
AcDbLayerTableRecord
  2
03___PRT_ALL_CURVES
 70
     0
 62
     7
  6
CONTINUOUS
370
    -3
390
F
  0
LAYER
  5
208
330
2
100
AcDbSymbolTableRecord
100
AcDbLayerTableRecord
  2
04_ALL_DTM_PNT
 70
     0
 62
     7
  6
CONTINUOUS
370
    -3
390
F
  0
LAYER
  5
209
330
2
100
AcDbSymbolTableRecord
100
AcDbLayerTableRecord
  2
04__ASM_ALL_DTM_PNT
 70
     0
 62
     7
  6
CONTINUOUS
370
    -3
390
F
  0
LAYER
  5
20A
330
2
100
AcDbSymbolTableRecord
100
AcDbLayerTableRecord
  2
04___PRT_ALL_DTM_PNT
 70
     0
 62
     7
  6
CONTINUOUS
370
    -3
390
F
  0
LAYER
  5
20B
330
2
100
AcDbSymbolTableRecord
100
AcDbLayerTableRecord
  2
05_ALL_DTM_CSYS
 70
     0
 62
     7
  6
CONTINUOUS
370
    -3
390
F
  0
LAYER
  5
20C
330
2
100
AcDbSymbolTableRecord
100
AcDbLayerTableRecord
  2
05__ASM_ALL_DTM_CSYS
 70
     0
 62
     7
  6
CONTINUOUS
370
    -3
390
F
  0
LAYER
  5
20D
330
2
100
AcDbSymbolTableRecord
100
AcDbLayerTableRecord
  2
05__ASM_DEF_DTM_CSYS
 70
     0
 62
     7
  6
CONTINUOUS
370
    -3
390
F
  0
LAYER
  5
20E
330
2
100
AcDbSymbolTableRecord
100
AcDbLayerTableRecord
  2
05___PRT_ALL_DTM_CSYS
 70
     0
 62
     7
  6
CONTINUOUS
370
    -3
390
F
  0
LAYER
  5
20F
330
2
100
AcDbSymbolTableRecord
100
AcDbLayerTableRecord
  2
05___PRT_DEF_DTM_CSYS
 70
     0
 62
     7
  6
CONTINUOUS
370
    -3
390
F
  0
LAYER
  5
210
330
2
100
AcDbSymbolTableRecord
100
AcDbLayerTableRecord
  2
06_ALL_SURFS
 70
     0
 62
     7
  6
CONTINUOUS
370
    -3
390
F
  0
LAYER
  5
211
330
2
100
AcDbSymbolTableRecord
100
AcDbLayerTableRecord
  2
06__ASM_ALL_SURFS
 70
     0
 62
     7
  6
CONTINUOUS
370
    -3
390
F
  0
LAYER
  5
212
330
2
100
AcDbSymbolTableRecord
100
AcDbLayerTableRecord
  2
06___PRT_ALL_SURFS
 70
     0
 62
     7
  6
CONTINUOUS
370
    -3
390
F
  0
LAYER
  5
213
330
2
100
AcDbSymbolTableRecord
100
AcDbLayerTableRecord
  2
07__ASM_ALL_SKELETONS
 70
     0
 62
     7
  6
CONTINUOUS
370
    -3
390
F
  0
LAYER
  5
214
330
2
100
AcDbSymbolTableRecord
100
AcDbLayerTableRecord
  2
1_ALL_PLANES
 70
     0
 62
     7
  6
CONTINUOUS
370
    -3
390
F
  0
LAYER
  5
215
330
2
100
AcDbSymbolTableRecord
100
AcDbLayerTableRecord
  2
2_ALL_CSYS
 70
     0
 62
     7
  6
CONTINUOUS
370
    -3
390
F
  0
LAYER
  5
216
330
2
100
AcDbSymbolTableRecord
100
AcDbLayerTableRecord
  2
3_ALL_AXES
 70
     0
 62
     7
  6
CONTINUOUS
370
    -3
390
F
  0
LAYER
  5
217
330
2
100
AcDbSymbolTableRecord
100
AcDbLayerTableRecord
  2
4_ALL_POINTS
 70
     0
 62
     7
  6
CONTINUOUS
370
    -3
390
F
  0
LAYER
  5
218
330
2
100
AcDbSymbolTableRecord
100
AcDbLayerTableRecord
  2
5_ALL_CURVES
 70
     0
 62
     7
  6
CONTINUOUS
370
    -3
390
F
  0
LAYER
  5
219
330
2
100
AcDbSymbolTableRecord
100
AcDbLayerTableRecord
  2
6_ALL_SURFS
 70
     0
 62
     7
  6
CONTINUOUS
370
    -3
390
F
  0
LAYER
  5
21A
330
2
100
AcDbSymbolTableRecord
100
AcDbLayerTableRecord
  2
6__APPOGGIO
 70
     0
 62
     7
  6
CONTINUOUS
370
    -3
390
F
  0
LAYER
  5
21B
330
2
100
AcDbSymbolTableRecord
100
AcDbLayerTableRecord
  2
7_ALL_FEATURES
 70
     0
 62
     7
  6
CONTINUOUS
370
    -3
390
F
  0
LAYER
  5
21C
330
2
100
AcDbSymbolTableRecord
100
AcDbLayerTableRecord
  2
8_ALL_NOTES_BALLOONS_SYMBOLS_GT
 70
     0
 62
     7
  6
CONTINUOUS
370
    -3
390
F
  0
LAYER
  5
21D
330
2
100
AcDbSymbolTableRecord
100
AcDbLayerTableRecord
  2
INTFCLR_2
 70
     0
 62
     7
  6
CONTINUOUS
370
    -3
390
F
  0
LAYER
  5
21E
330
2
100
AcDbSymbolTableRecord
100
AcDbLayerTableRecord
  2
INTFCLR_3
 70
     0
 62
     7
  6
CONTINUOUS
370
    -3
390
F
  0
LAYER
  5
21F
330
2
100
AcDbSymbolTableRecord
100
AcDbLayerTableRecord
  2
INTF_CYAN
 70
     0
 62
     7
  6
CONTINUOUS
370
    -3
390
F
  0
LAYER
  5
220
330
2
100
AcDbSymbolTableRecord
100
AcDbLayerTableRecord
  2
RGB
 70
     0
 62
     7
  6
CONTINUOUS
370
    -3
390
F
  0
LAYER
  5
221
330
2
100
AcDbSymbolTableRecord
100
AcDbLayerTableRecord
  2
XXX_SOLIDO
 70
     0
 62
     7
  6
CONTINUOUS
370
    -3
390
F
  0
LAYER
  5
542
330
2
100
AcDbSymbolTableRecord
100
AcDbLayerTableRecord
  2
Defpoints
 70
     0
 62
     7
  6
CONTINUOUS
290
     0
370
    -3
390
F
  0
ENDTAB
  0
TABLE
  2
STYLE
  5
3
330
0
100
AcDbSymbolTable
 70
     6
  0
STYLE
  5
11
330
3
100
AcDbSymbolTableRecord
100
AcDbTextStyleTableRecord
  2
STANDARD
 70
     0
 40
0.0
 41
0.85
 50
0.0
 71
     0
 42
0.2
  3
txt
  4

  0
STYLE
  5
222
330
3
100
AcDbSymbolTableRecord
100
AcDbTextStyleTableRecord
  2
TEXTSTYLE_1
 70
     0
 40
0.0
 41
0.8
 50
0.0
 71
     0
 42
0.2
  3
gdt
  4

  0
STYLE
  5
223
330
3
100
AcDbSymbolTableRecord
100
AcDbTextStyleTableRecord
  2
TEXTSTYLE_2
 70
     0
 40
0.0
 41
0.9
 50
0.0
 71
     0
 42
0.2
  3
txt
  4

  0
STYLE
  5
224
330
3
100
AcDbSymbolTableRecord
100
AcDbTextStyleTableRecord
  2
TEXTSTYLE_3
 70
     0
 40
0.0
 41
0.9
 50
0.0
 71
     0
 42
0.2
  3
txt
  4

  0
STYLE
  5
225
330
3
100
AcDbSymbolTableRecord
100
AcDbTextStyleTableRecord
  2
TEXTSTYLE_4
 70
     0
 40
0.0
 41
0.85
 50
0.0
 71
     0
 42
0.2
  3
gdt
  4

  0
STYLE
  5
226
330
3
100
AcDbSymbolTableRecord
100
AcDbTextStyleTableRecord
  2
TEXTSTYLE_5
 70
     0
 40
0.0
 41
0.85
 50
0.0
 71
     0
 42
0.2
  3
txt
  4

  0
ENDTAB
  0
TABLE
  2
VIEW
  5
6
330
0
100
AcDbSymbolTable
 70
     0
  0
ENDTAB
  0
TABLE
  2
UCS
  5
7
330
0
100
AcDbSymbolTable
 70
     0
  0
ENDTAB
  0
TABLE
  2
APPID
  5
9
330
0
100
AcDbSymbolTable
 70
     1
  0
APPID
  5
227
330
9
100
AcDbSymbolTableRecord
100
AcDbRegAppTableRecord
  2
ACAD
 70
     0
  0
ENDTAB
  0
TABLE
  2
DIMSTYLE
  5
A
330
0
100
AcDbSymbolTable
 70
     4
100
AcDbDimStyleTable
  0
DIMSTYLE
105
230
330
A
100
AcDbSymbolTableRecord
100
AcDbDimStyleTableRecord
  2
STANDARD
 70
     0
 41
2.5
 47
0.01
 48
0.01
 71
     1
 73
     0
 74
     0
 77
     1
 78
     8
140
3.0
178
     0
271
     2
272
     2
284
     8
340
11
341
22A
342
22A
343
22A
344
22A
  0
DIMSTYLE
105
231
330
A
100
AcDbSymbolTableRecord
100
AcDbDimStyleTableRecord
  2
DIMSTYLE_1
 70
     0
 41
2.5
 47
0.3
 48
0.3
 73
     0
 74
     0
 77
     1
 78
     8
140
3.0
178
     0
271
     0
272
     0
284
     8
340
11
341
22A
342
22A
343
22A
344
22A
  0
DIMSTYLE
105
232
330
A
100
AcDbSymbolTableRecord
100
AcDbDimStyleTableRecord
  2
DIMSTYLE_2
 70
     0
 41
2.5
 47
0.3
 48
0.3
 73
     0
 74
     0
 77
     1
 78
     8
140
3.0
178
     0
271
     0
272
     0
284
     8
340
11
341
22A
342
22A
343
22A
344
22A
  0
DIMSTYLE
105
233
330
A
100
AcDbSymbolTableRecord
100
AcDbDimStyleTableRecord
  2
DIMSTYLE_3
 70
     0
 41
2.5
 47
0.1
 48
0.1
 73
     0
 74
     0
 77
     1
 78
     8
140
3.0
178
     0
271
     0
272
     0
284
     8
340
11
341
22A
342
22A
343
22A
344
22A
  0
ENDTAB
  0
TABLE
  2
BLOCK_RECORD
  5
1
330
0
100
AcDbSymbolTable
 70
     6
  0
BLOCK_RECORD
  5
228
330
1
100
AcDbSymbolTableRecord
100
AcDbBlockTableRecord
  2
*Model_Space
340
4F9
  0
BLOCK_RECORD
  5
229
330
1
100
AcDbSymbolTableRecord
100
AcDbBlockTableRecord
  2
*Paper_Space
340
4FA
  0
BLOCK_RECORD
  5
22A
330
1
100
AcDbSymbolTableRecord
100
AcDbBlockTableRecord
  2
_CLOSED
340
0
102
{BLKREFS
331
279
331
0
331
0
331
0
331
0
331
280
331
27F
331
28B
331
28A
102
}
  0
BLOCK_RECORD
  5
22B
330
1
100
AcDbSymbolTableRecord
100
AcDbBlockTableRecord
  2
*D1
340
0
  0
BLOCK_RECORD
  5
22C
330
1
100
AcDbSymbolTableRecord
100
AcDbBlockTableRecord
  2
*D2
340
0
  0
BLOCK_RECORD
  5
22D
330
1
100
AcDbSymbolTableRecord
100
AcDbBlockTableRecord
  2
*D3
340
0
  0
BLOCK_RECORD
  5
22E
330
1
100
AcDbSymbolTableRecord
100
AcDbBlockTableRecord
  2
LOGO2_BL0
340
0
102
{BLKREFS
331
2B3
102
}
  0
BLOCK_RECORD
  5
22F
330
1
100
AcDbSymbolTableRecord
100
AcDbBlockTableRecord
  2
*T5
340
0
102
{BLKREFS
331
2B4
331
2B4
102
}
  0
ENDTAB
  0
ENDSEC
  0
SECTION
  2
BLOCKS
  0
BLOCK
  5
20
330
228
100
AcDbEntity
  8
0
100
AcDbBlockBegin
  2
*Model_Space
 70
     0
 10
0.0
 20
0.0
 30
0.0
  3
*Model_Space
  1
*Model_Space
  0
ENDBLK
  5
21
330
228
100
AcDbEntity
  8
0
100
AcDbBlockEnd
  0
BLOCK
  5
1C
330
229
100
AcDbEntity
 67
     1
  8
0
100
AcDbBlockBegin
  2
*Paper_Space
 70
     0
 10
0.0
 20
0.0
 30
0.0
  3
*Paper_Space
  1
*Paper_Space
  0
ENDBLK
  5
1D
330
229
100
AcDbEntity
 67
     1
  8
0
100
AcDbBlockEnd
  0
BLOCK
  5
270
330
22A
100
AcDbEntity
  8
0
100
AcDbBlockBegin
  2
_CLOSED
 70
     0
 10
0.0
 20
0.0
 30
0.0
  3
_CLOSED
  1
_CLOSED
  0
LINE
  5
271
330
22A
100
AcDbEntity
  8
0
  6
ByBlock
 62
     0
100
AcDbLine
 10
0.0
 20
0.0
 30
0.0
 11
-1.0
 21
0.2
 31
0.0
  0
LINE
  5
272
330
22A
100
AcDbEntity
  8
0
  6
ByBlock
 62
     0
100
AcDbLine
 10
-1.0
 20
0.2
 30
0.0
 11
-1.0
 21
-0.2
 31
0.0
  0
LINE
  5
273
330
22A
100
AcDbEntity
  8
0
  6
ByBlock
 62
     0
100
AcDbLine
 10
-1.0
 20
-0.2
 30
0.0
 11
0.0
 21
0.0
 31
0.0
  0
LINE
  5
274
330
22A
100
AcDbEntity
  8
0
  6
ByBlock
 62
     0
100
AcDbLine
 10
-1.0
 20
0.0
 30
0.0
 11
0.0
 21
0.0
 31
0.0
  0
ENDBLK
  5
275
330
22A
100
AcDbEntity
  8
0
  6
ByBlock
 62
     0
100
AcDbBlockEnd
  0
BLOCK
  5
276
330
22B
100
AcDbEntity
  8
0
100
AcDbBlockBegin
  2
*D1
 70
     1
 10
0.0
 20
0.0
 30
0.0
  3
*D1
  1
*D1
  0
MTEXT
  5
277
330
22B
100
AcDbEntity
  8
0
  6
Continuous
 62
     2
100
AcDbMText
 10
109.2011271361
 20
112.2531416238
 30
0.0
 40
3.0
 41
8.7142857143
 71
     1
 72
     1
  1
{\Fgdt;n}\Ftxt;84
  7
TEXTSTYLE_4
 11
0.7644644506
 21
0.6446658853
 31
0.0
 73
     1
 44
0.9
  0
LINE
  5
278
330
22B
100
AcDbEntity
  8
0
  6
Continuous
 62
     2
100
AcDbLine
 10
104.7689023564
 20
103.6100920928
 30
0.0
 11
118.2803858473
 21
115.004202649
 31
0.0
  0
INSERT
  5
279
330
22B
100
AcDbEntity
  8
0
  6
Continuous
 62
     2
100
AcDbBlockReference
  2
_CLOSED
 10
104.7689023564
 20
103.6100920928
 30
0.0
 41
2.5
 42
2.5
 43
2.5
 50
220.1406293211
  0
ENDBLK
  5
27A
330
22B
100
AcDbEntity
  8
0
  6
ByBlock
 62
     0
100
AcDbBlockEnd
  0
BLOCK
  5
27B
330
22C
100
AcDbEntity
  8
0
100
AcDbBlockBegin
  2
*D2
 70
     1
 10
0.0
 20
0.0
 30
0.0
  3
*D2
  1
*D2
  0
LINE
  5
27C
330
22C
100
AcDbEntity
  8
0
  6
Continuous
 62
     0
370
    -2
100
AcDbLine
 10
116.8847934327
 20
251.004813525
 30
0.0
 11
128.6240153985
 21
251.004813525
 31
0.0
  0
LINE
  5
27D
330
22C
100
AcDbEntity
  8
0
  6
Continuous
 62
     0
370
    -2
100
AcDbLine
 10
116.8847934327
 20
184.104813525
 30
0.0
 11
128.6240153985
 21
184.104813525
 31
0.0
  0
LINE
  5
27E
330
22C
100
AcDbEntity
  8
0
  6
Continuous
 62
     0
370
    -2
100
AcDbLine
 10
128.4440153985
 20
248.504813525
 30
0.0
 11
128.4440153985
 21
186.604813525
 31
0.0
  0
INSERT
  5
27F
330
22C
100
AcDbEntity
  8
0
 62
     0
370
    -2
100
AcDbBlockReference
  2
_CLOSED
 10
128.4440153985
 20
251.004813525
 30
0.0
 41
2.5
 42
2.5
 43
2.5
 50
90.0
  0
INSERT
  5
280
330
22C
100
AcDbEntity
  8
0
 62
     0
370
    -2
100
AcDbBlockReference
  2
_CLOSED
 10
128.4440153985
 20
184.104813525
 30
0.0
 41
2.5
 42
2.5
 43
2.5
 50
270.0
  0
MTEXT
  5
281
330
22C
100
AcDbEntity
  8
0
 62
     0
100
AcDbMText
 10
123.4440153985
 20
217.554813525
 30
0.0
 40
3.0
 41
0.0
 71
     2
 72
     1
  1
\A1;67
 11
0.0
 21
1.0
 31
0.0
 73
     1
 44
1.0
  0
POINT
  5
282
330
22C
100
AcDbEntity
  8
Defpoints
 62
     0
100
AcDbPoint
 10
116.8222934327
 20
251.004813525
 30
0.0
  0
POINT
  5
543
330
22C
100
AcDbEntity
  8
Defpoints
 62
     0
100
AcDbPoint
 10
116.8222934327
 20
184.104813525
 30
0.0
  0
POINT
  5
544
330
22C
100
AcDbEntity
  8
Defpoints
 62
     0
100
AcDbPoint
 10
128.4440153985
 20
184.104813525
 30
0.0
  0
ENDBLK
  5
283
330
22C
100
AcDbEntity
  8
0
  6
ByBlock
 62
     0
100
AcDbBlockEnd
  0
BLOCK
  5
284
330
22D
100
AcDbEntity
  8
0
100
AcDbBlockBegin
  2
*D3
 70
     1
 10
0.0
 20
0.0
 30
0.0
  3
*D3
  1
*D3
  0
LINE
  5
285
330
22D
100
AcDbEntity
  8
0
  6
Continuous
 62
     0
370
    -2
100
AcDbLine
 10
249.4228530072
 20
251.004813525
 30
0.0
 11
260.0973147093
 21
251.004813525
 31
0.0
  0
LINE
  5
286
330
22D
100
AcDbEntity
  8
0
  6
Continuous
 62
     0
370
    -2
100
AcDbLine
 10
249.5772700285
 20
249.104813525
 30
0.0
 11
260.0973147093
 21
249.104813525
 31
0.0
  0
LINE
  5
287
330
22D
100
AcDbEntity
  8
0
  6
Continuous
 62
     0
370
    -2
100
AcDbLine
 10
259.9173147093
 20
251.004813525
 30
0.0
 11
259.9173147093
 21
261.7048135250001
 31
0.0
  0
LINE
  5
288
330
22D
100
AcDbEntity
  8
0
  6
Continuous
 62
     0
370
    -2
100
AcDbLine
 10
259.9173147093
 20
253.504813525
 30
0.0
 11
259.9173147093
 21
256.004813525
 31
0.0
  0
LINE
  5
289
330
22D
100
AcDbEntity
  8
0
  6
Continuous
 62
     0
370
    -2
100
AcDbLine
 10
259.9173147093
 20
246.604813525
 30
0.0
 11
259.9173147093
 21
244.104813525
 31
0.0
  0
INSERT
  5
28A
330
22D
100
AcDbEntity
  8
0
 62
     0
370
    -2
100
AcDbBlockReference
  2
_CLOSED
 10
259.9173147093
 20
251.004813525
 30
0.0
 41
2.5
 42
2.5
 43
2.5
 50
270.0
  0
INSERT
  5
28B
330
22D
100
AcDbEntity
  8
0
 62
     0
370
    -2
100
AcDbBlockReference
  2
_CLOSED
 10
259.9173147093
 20
249.104813525
 30
0.0
 41
2.5
 42
2.5
 43
2.5
 50
90.0
  0
MTEXT
  5
28C
330
22D
100
AcDbEntity
  8
0
 62
     0
100
AcDbMText
 10
254.9173147093
 20
258.004813525
 30
0.0
 40
3.0
 41
0.0
 71
     1
 72
     1
  1
\A1;2
 11
0.0
 21
1.0
 31
0.0
 73
     1
 44
1.0
  0
POINT
  5
28D
330
22D
100
AcDbEntity
  8
Defpoints
 62
     0
100
AcDbPoint
 10
249.3603530072
 20
251.004813525
 30
0.0
  0
POINT
  5
545
330
22D
100
AcDbEntity
  8
Defpoints
 62
     0
100
AcDbPoint
 10
249.5147700285
 20
249.104813525
 30
0.0
  0
POINT
  5
546
330
22D
100
AcDbEntity
  8
Defpoints
 62
     0
100
AcDbPoint
 10
262.1673147093
 20
249.104813525
 30
0.0
  0
ENDBLK
  5
28E
330
22D
100
AcDbEntity
  8
0
  6
ByBlock
 62
     0
100
AcDbBlockEnd
  0
BLOCK
  5
234
330
22E
100
AcDbEntity
  8
0
100
AcDbBlockBegin
  2
LOGO2_BL0
 70
     0
 10
333.1473869546
 20
37.5239270671
 30
0.0
  3
LOGO2_BL0
  1
LOGO2_BL0
  0
LINE
  5
235
330
22E
100
AcDbEntity
  8
0
  6
Continuous
 62
     7
100
AcDbLine
 10
324.8903121828
 20
40.7194184059
 30
0.0
 11
323.5859712535
 21
40.7194184059
 31
0.0
  0
LINE
  5
236
330
22E
100
AcDbEntity
  8
0
  6
Continuous
 62
     7
100
AcDbLine
 10
323.5859712535
 20
40.7194184059
 30
0.0
 11
323.5859712535
 21
30.260352346
 31
0.0
  0
LINE
  5
237
330
22E
100
AcDbEntity
  8
0
  6
Continuous
 62
     7
100
AcDbLine
 10
323.5859712535
 20
30.260352346
 30
0.0
 11
328.0670261417
 21
30.260352346
 31
0.0
  0
LINE
  5
238
330
22E
100
AcDbEntity
  8
0
  6
Continuous
 62
     7
100
AcDbLine
 10
328.0670261417
 20
30.260352346
 30
0.0
 11
328.0670261417
 21
31.4532066711
 31
0.0
  0
LINE
  5
239
330
22E
100
AcDbEntity
  8
0
  6
Continuous
 62
     7
100
AcDbLine
 10
328.0670261417
 20
31.4532066711
 30
0.0
 11
324.8903121828
 21
31.4532066711
 31
0.0
  0
LINE
  5
23A
330
22E
100
AcDbEntity
  8
0
  6
Continuous
 62
     7
100
AcDbLine
 10
324.8903121828
 20
31.4532066711
 30
0.0
 11
324.8903121828
 21
40.7194184059
 31
0.0
  0
LINE
  5
23B
330
22E
100
AcDbEntity
  8
0
  6
Continuous
 62
     7
100
AcDbLine
 10
339.8266383991
 20
40.7194184059
 30
0.0
 11
338.522820881
 21
40.7194184059
 31
0.0
  0
LINE
  5
23C
330
22E
100
AcDbEntity
  8
0
  6
Continuous
 62
     7
100
AcDbLine
 10
338.522820881
 20
40.7194184059
 30
0.0
 11
338.522820881
 21
30.260352346
 31
0.0
  0
LINE
  5
23D
330
22E
100
AcDbEntity
  8
0
  6
Continuous
 62
     7
100
AcDbLine
 10
338.522820881
 20
30.260352346
 30
0.0
 11
343.0040066221
 21
30.260352346
 31
0.0
  0
LINE
  5
23E
330
22E
100
AcDbEntity
  8
0
  6
Continuous
 62
     7
100
AcDbLine
 10
343.0040066221
 20
30.260352346
 30
0.0
 11
343.0040066221
 21
31.4532066711
 31
0.0
  0
LINE
  5
23F
330
22E
100
AcDbEntity
  8
0
  6
Continuous
 62
     7
100
AcDbLine
 10
343.0040066221
 20
31.4532066711
 30
0.0
 11
339.8266383991
 21
31.4532066711
 31
0.0
  0
LINE
  5
240
330
22E
100
AcDbEntity
  8
0
  6
Continuous
 62
     7
100
AcDbLine
 10
339.8266383991
 20
31.4532066711
 30
0.0
 11
339.8266383991
 21
40.7194184059
 31
0.0
  0
LWPOLYLINE
  5
241
330
22E
100
AcDbEntity
  8
0
  6
Continuous
 62
     7
100
AcDbPolyline
 90
        2
 70
     0
 43
0.2
 10
321.9403661644
 20
26.9168010391
 10
321.9403661644
 20
25.0597377898
  0
LWPOLYLINE
  5
242
330
22E
100
AcDbEntity
  8
0
  6
Continuous
 62
     7
100
AcDbPolyline
 90
        2
 70
     0
 43
0.2
 10
321.9403661644
 20
25.0597377898
 10
322.7360821748
 20
25.0597377898
  0
LWPOLYLINE
  5
243
330
22E
100
AcDbEntity
  8
0
  6
Continuous
 62
     7
100
AcDbPolyline
 90
        2
 70
     0
 43
0.2
 10
322.7360821748
 20
25.0597377898
 10
322.7360821748
 20
25.2717193614
  0
LWPOLYLINE
  5
244
330
22E
100
AcDbEntity
  8
0
  6
Continuous
 62
     7
100
AcDbPolyline
 90
        2
 70
     0
 43
0.2
 10
322.7360821748
 20
25.2717193614
 10
322.1719756593
 20
25.2717193614
  0
LWPOLYLINE
  5
245
330
22E
100
AcDbEntity
  8
0
  6
Continuous
 62
     7
100
AcDbPolyline
 90
        2
 70
     0
 43
0.2
 10
322.1719756593
 20
25.2717193614
 10
322.1719756593
 20
26.9168010391
  0
LWPOLYLINE
  5
246
330
22E
100
AcDbEntity
  8
0
  6
Continuous
 62
     7
100
AcDbPolyline
 90
        2
 70
     0
 43
0.2
 10
322.1719756593
 20
26.9168010391
 10
321.9403661644
 20
26.9168010391
  0
SPLINE
  5
247
330
22E
100
AcDbEntity
  8
0
  6
Continuous
 62
     7
100
AcDbSpline
 70
     3
 71
     3
 72
    35
 73
    31
 74
     0
 42
0.000000001
 43
0.0000001
 40
0.0
 40
0.0
 40
0.0
 40
0.0
 40
1.0
 40
1.0
 40
1.0
 40
2.0
 40
2.0
 40
2.0
 40
3.0
 40
3.0
 40
3.0
 40
4.0
 40
4.0
 40
4.0
 40
5.0
 40
5.0
 40
5.0
 40
6.0
 40
6.0
 40
6.0
 40
7.0
 40
7.0
 40
7.0
 40
8.0
 40
8.0
 40
8.0
 40
9.0
 40
9.0
 40
9.0
 40
10.0
 40
10.0
 40
10.0
 40
10.0
 10
324.1343754303
 20
26.2122894457
 30
0.0
 10
324.1343754303
 20
26.2122894457
 30
0.0
 10
324.1343754303
 20
25.5501741665
 30
0.0
 10
324.1343754303
 20
25.5501741665
 30
0.0
 10
324.1343754303
 20
25.2350805712
 30
0.0
 10
324.2822391191
 20
25.0204819432
 30
0.0
 10
324.6223256034
 20
25.0204819432
 30
0.0
 10
324.9618886764
 20
25.0204819432
 30
0.0
 10
325.1100140709
 20
25.2350805712
 30
0.0
 10
325.1100140709
 20
25.5501741665
 30
0.0
 10
325.1100140709
 20
25.5501741665
 30
0.0
 10
325.1100140709
 20
26.2122894457
 30
0.0
 10
325.1100140709
 20
26.2122894457
 30
0.0
 10
325.1100140709
 20
26.2122894457
 30
0.0
 10
324.887956832
 20
26.2122894457
 30
0.0
 10
324.887956832
 20
26.2122894457
 30
0.0
 10
324.887956832
 20
26.2122894457
 30
0.0
 10
324.887956832
 20
25.5752979083
 30
0.0
 10
324.887956832
 20
25.5752979083
 30
0.0
 10
324.887956832
 20
25.3894869011
 30
0.0
 10
324.8412423746
 20
25.2267059906
 30
0.0
 10
324.6223256034
 20
25.2267059906
 30
0.0
 10
324.402885421
 20
25.2267059906
 30
0.0
 10
324.3561709636
 20
25.3894869011
 30
0.0
 10
324.3561709636
 20
25.5752979083
 30
0.0
 10
324.3561709636
 20
25.5752979083
 30
0.0
 10
324.3561709636
 20
26.2122894457
 30
0.0
 10
324.3561709636
 20
26.2122894457
 30
0.0
 10
324.3561709636
 20
26.2122894457
 30
0.0
 10
324.1343754303
 20
26.2122894457
 30
0.0
 10
324.1343754303
 20
26.2122894457
 30
0.0
  0
SPLINE
  5
248
330
22E
100
AcDbEntity
  8
0
  6
Continuous
 62
     7
100
AcDbSpline
 70
     3
 71
     3
 72
    35
 73
    31
 74
     0
 42
0.000000001
 43
0.0000001
 40
0.0
 40
0.0
 40
0.0
 40
0.0
 40
1.0
 40
1.0
 40
1.0
 40
2.0
 40
2.0
 40
2.0
 40
3.0
 40
3.0
 40
3.0
 40
4.0
 40
4.0
 40
4.0
 40
5.0
 40
5.0
 40
5.0
 40
6.0
 40
6.0
 40
6.0
 40
7.0
 40
7.0
 40
7.0
 40
8.0
 40
8.0
 40
8.0
 40
9.0
 40
9.0
 40
9.0
 40
10.0
 40
10.0
 40
10.0
 40
10.0
 10
327.5331466281
 20
26.1709399539
 30
0.0
 10
327.4446901205
 20
26.2222342601
 30
0.0
 10
327.3312407238
 20
26.2473580019
 30
0.0
 10
327.2276052888
 20
26.2473580019
 30
0.0
 10
326.8727324356
 20
26.2473580019
 30
0.0
 10
326.5972872454
 20
25.9835587129
 30
0.0
 10
326.5972872454
 20
25.6260688032
 30
0.0
 10
326.5972872454
 20
25.2811407645
 30
0.0
 10
326.8757420505
 20
25.0210053545
 30
0.0
 10
327.2153051235
 20
25.0210053545
 30
0.0
 10
327.3312407238
 20
25.0210053545
 30
0.0
 10
327.4319973967
 20
25.0429886286
 30
0.0
 10
327.5331466281
 20
25.0968999912
 30
0.0
 10
327.5331466281
 20
25.0968999912
 30
0.0
 10
327.5331466281
 20
25.3795420867
 30
0.0
 10
327.5331466281
 20
25.3795420867
 30
0.0
 10
327.4492699692
 20
25.2863748774
 30
0.0
 10
327.345765387
 20
25.2272294019
 30
0.0
 10
327.2176604743
 20
25.2272294019
 30
0.0
 10
326.9839573343
 20
25.2272294019
 30
0.0
 10
326.8186902202
 20
25.3994317156
 30
0.0
 10
326.8186902202
 20
25.6360136177
 30
0.0
 10
326.8186902202
 20
25.8479951893
 30
0.0
 10
326.9864435379
 20
26.040087132
 30
0.0
 10
327.2032666639
 20
26.040087132
 30
0.0
 10
327.3360822782
 20
26.040087132
 30
0.0
 10
327.4446901205
 20
25.9861757693
 30
0.0
 10
327.5331466281
 20
25.8851573907
 30
0.0
 10
327.5331466281
 20
25.8851573907
 30
0.0
 10
327.5331466281
 20
26.1709399539
 30
0.0
 10
327.5331466281
 20
26.1709399539
 30
0.0
  0
SPLINE
  5
249
330
22E
100
AcDbEntity
  8
0
  6
Continuous
 62
     7
100
AcDbSpline
 70
     3
 71
     3
 72
    32
 73
    28
 74
     0
 42
0.000000001
 43
0.0000001
 40
0.0
 40
0.0
 40
0.0
 40
0.0
 40
1.0
 40
1.0
 40
1.0
 40
2.0
 40
2.0
 40
2.0
 40
3.0
 40
3.0
 40
3.0
 40
4.0
 40
4.0
 40
4.0
 40
5.0
 40
5.0
 40
5.0
 40
6.0
 40
6.0
 40
6.0
 40
7.0
 40
7.0
 40
7.0
 40
8.0
 40
8.0
 40
8.0
 40
9.0
 40
9.0
 40
9.0
 40
9.0
 10
330.0650178804
 20
25.5993748276
 30
0.0
 10
330.0650178804
 20
25.5993748276
 30
0.0
 10
330.0650178804
 20
25.6333965613
 30
0.0
 10
330.0650178804
 20
25.6333965613
 30
0.0
 10
330.0650178804
 20
25.9757075435
 30
0.0
 10
329.8921613025
 20
26.2473580019
 30
0.0
 10
329.5255116954
 20
26.2473580019
 30
0.0
 10
329.153889681
 20
26.2473580019
 30
0.0
 10
328.9641530891
 20
25.9809416564
 30
0.0
 10
328.9641530891
 20
25.6260688032
 30
0.0
 10
328.9641530891
 20
25.2863748774
 30
0.0
 10
329.1782283059
 20
25.0204819432
 30
0.0
 10
329.5303532498
 20
25.0204819432
 30
0.0
 10
329.754373281
 20
25.0204819432
 30
0.0
 10
329.9565408909
 20
25.1361558378
 30
0.0
 10
330.0650178804
 20
25.3355755385
 30
0.0
 10
330.0650178804
 20
25.3355755385
 30
0.0
 10
329.8773749337
 20
25.4423514412
 30
0.0
 10
329.8773749337
 20
25.4423514412
 30
0.0
 10
329.7938908332
 20
25.3036474499
 30
0.0
 10
329.7026864163
 20
25.2178079987
 30
0.0
 10
329.5331011591
 20
25.2178079987
 30
0.0
 10
329.3211195875
 20
25.2178079987
 30
0.0
 10
329.1881731204
 20
25.4025721833
 30
0.0
 10
329.1858177696
 20
25.5993748276
 30
0.0
 10
329.1858177696
 20
25.5993748276
 30
0.0
 10
330.0650178804
 20
25.5993748276
 30
0.0
 10
330.0650178804
 20
25.5993748276
 30
0.0
  0
SPLINE
  5
24A
330
22E
100
AcDbEntity
  8
0
  6
Continuous
 62
     7
100
AcDbSpline
 70
     3
 71
     3
 72
    14
 73
    10
 74
     0
 42
0.000000001
 43
0.0000001
 40
0.0
 40
0.0
 40
0.0
 40
0.0
 40
1.0
 40
1.0
 40
1.0
 40
2.0
 40
2.0
 40
2.0
 40
3.0
 40
3.0
 40
3.0
 40
3.0
 10
329.1978562292
 20
25.7668664397
 30
0.0
 10
329.2254661746
 20
25.9317409954
 30
0.0
 10
329.3533093817
 20
26.054742648
 30
0.0
 10
329.5255116954
 20
26.054742648
 30
0.0
 10
329.7026864163
 20
26.054742648
 30
0.0
 10
329.816135813
 20
25.9390687534
 30
0.0
 10
329.8433531999
 20
25.7668664397
 30
0.0
 10
329.8433531999
 20
25.7668664397
 30
0.0
 10
329.1978562292
 20
25.7668664397
 30
0.0
 10
329.1978562292
 20
25.7668664397
 30
0.0
  0
SPLINE
  5
24B
330
22E
100
AcDbEntity
  8
0
  6
Continuous
 62
     7
100
AcDbSpline
 70
     3
 71
     3
 72
    20
 73
    16
 74
     0
 42
0.000000001
 43
0.0000001
 40
0.0
 40
0.0
 40
0.0
 40
0.0
 40
1.0
 40
1.0
 40
1.0
 40
2.0
 40
2.0
 40
2.0
 40
3.0
 40
3.0
 40
3.0
 40
4.0
 40
4.0
 40
4.0
 40
5.0
 40
5.0
 40
5.0
 40
5.0
 10
332.0890493306
 20
25.9762309548
 30
0.0
 10
332.0890493306
 20
25.9762309548
 30
0.0
 10
332.5001888972
 20
25.4737561185
 30
0.0
 10
332.5001888972
 20
25.4737561185
 30
0.0
 10
332.3841224441
 20
25.3580822239
 30
0.0
 10
332.2463344226
 20
25.2277528132
 30
0.0
 10
332.0743938145
 20
25.2277528132
 30
0.0
 10
331.8969573879
 20
25.2277528132
 30
0.0
 10
331.7294657758
 20
25.3921039576
 30
0.0
 10
331.7294657758
 20
25.5690169729
 30
0.0
 10
331.7294657758
 20
25.7469768107
 30
0.0
 10
331.9392228494
 20
25.8731189311
 30
0.0
 10
332.0668043508
 20
25.9610520275
 30
0.0
 10
332.0668043508
 20
25.9610520275
 30
0.0
 10
332.0890493306
 20
25.9762309548
 30
0.0
 10
332.0890493306
 20
25.9762309548
 30
0.0
  0
SPLINE
  5
24C
330
22E
100
AcDbEntity
  8
0
  6
Continuous
 62
     7
100
AcDbSpline
 70
     3
 71
     3
 72
    23
 73
    19
 74
     0
 42
0.000000001
 43
0.0000001
 40
0.0
 40
0.0
 40
0.0
 40
0.0
 40
1.0
 40
1.0
 40
1.0
 40
2.0
 40
2.0
 40
2.0
 40
3.0
 40
3.0
 40
3.0
 40
4.0
 40
4.0
 40
4.0
 40
5.0
 40
5.0
 40
5.0
 40
6.0
 40
6.0
 40
6.0
 40
6.0
 10
332.1383808444
 20
26.2672476309
 30
0.0
 10
332.1383808444
 20
26.2672476309
 30
0.0
 10
332.0767491653
 20
26.3457593241
 30
0.0
 10
332.0767491653
 20
26.3457593241
 30
0.0
 10
332.0228378026
 20
26.4143262028
 30
0.0
 10
331.9660476779
 20
26.4834164928
 30
0.0
 10
331.9660476779
 20
26.5771071133
 30
0.0
 10
331.9660476779
 20
26.6959214757
 30
0.0
 10
332.0619627964
 20
26.7733863463
 30
0.0
 10
332.1729259894
 20
26.7733863463
 30
0.0
 10
332.2961893477
 20
26.7733863463
 30
0.0
 10
332.3894874098
 20
26.7022024111
 30
0.0
 10
332.3894874098
 20
26.5718730004
 30
0.0
 10
332.3894874098
 20
26.4368328882
 30
0.0
 10
332.2613824971
 20
26.3604148401
 30
0.0
 10
332.1678227294
 20
26.2866138485
 30
0.0
 10
332.1678227294
 20
26.2866138485
 30
0.0
 10
332.1383808444
 20
26.2672476309
 30
0.0
 10
332.1383808444
 20
26.2672476309
 30
0.0
  0
SPLINE
  5
24D
330
22E
100
AcDbEntity
  8
0
  6
Continuous
 62
     7
100
AcDbSpline
 70
     3
 71
     3
 72
    50
 73
    46
 74
     0
 42
0.000000001
 43
0.0000001
 40
0.0
 40
0.0
 40
0.0
 40
0.0
 40
1.0
 40
1.0
 40
1.0
 40
2.0
 40
2.0
 40
2.0
 40
3.0
 40
3.0
 40
3.0
 40
4.0
 40
4.0
 40
4.0
 40
5.0
 40
5.0
 40
5.0
 40
6.0
 40
6.0
 40
6.0
 40
7.0
 40
7.0
 40
7.0
 40
8.0
 40
8.0
 40
8.0
 40
9.0
 40
9.0
 40
9.0
 40
10.0
 40
10.0
 40
10.0
 40
11.0
 40
11.0
 40
11.0
 40
12.0
 40
12.0
 40
12.0
 40
13.0
 40
13.0
 40
13.0
 40
14.0
 40
14.0
 40
14.0
 40
15.0
 40
15.0
 40
15.0
 40
15.0
 10
332.8405370871
 20
25.0602612011
 30
0.0
 10
332.8405370871
 20
25.0602612011
 30
0.0
 10
333.1259270918
 20
25.0602612011
 30
0.0
 10
333.1259270918
 20
25.0602612011
 30
0.0
 10
333.1259270918
 20
25.0602612011
 30
0.0
 10
332.793560924
 20
25.471139062
 30
0.0
 10
332.793560924
 20
25.471139062
 30
0.0
 10
332.793560924
 20
25.471139062
 30
0.0
 10
333.0200671588
 20
25.7370319963
 30
0.0
 10
333.0200671588
 20
25.7370319963
 30
0.0
 10
333.0200671588
 20
25.7370319963
 30
0.0
 10
332.8718109116
 20
25.8898680923
 30
0.0
 10
332.8718109116
 20
25.8898680923
 30
0.0
 10
332.8718109116
 20
25.8898680923
 30
0.0
 10
332.6559037553
 20
25.6386306742
 30
0.0
 10
332.6559037553
 20
25.6386306742
 30
0.0
 10
332.6559037553
 20
25.6386306742
 30
0.0
 10
332.2688411079
 20
26.1065603655
 30
0.0
 10
332.2688411079
 20
26.1065603655
 30
0.0
 10
332.4242942604
 20
26.2206640263
 30
0.0
 10
332.6065722414
 20
26.3604148401
 30
0.0
 10
332.6065722414
 20
26.5697793553
 30
0.0
 10
332.6065722414
 20
26.8136890154
 30
0.0
 10
332.4045354843
 20
26.9571037083
 30
0.0
 10
332.1780292495
 20
26.9571037083
 30
0.0
 10
331.9338578837
 20
26.9571037083
 30
0.0
 10
331.7494862575
 20
26.8063612574
 30
0.0
 10
331.7494862575
 20
26.5498897263
 30
0.0
 10
331.7494862575
 20
26.3923429287
 30
0.0
 10
331.8481492853
 20
26.25468576
 30
0.0
 10
331.953485807
 20
26.1437225669
 30
0.0
 10
331.953485807
 20
26.1437225669
 30
0.0
 10
331.8379427652
 20
26.0599767609
 30
0.0
 10
331.8379427652
 20
26.0599767609
 30
0.0
 10
331.660244633
 20
25.9317409954
 30
0.0
 10
331.5129043554
 20
25.8040286411
 30
0.0
 10
331.5129043554
 20
25.5669233277
 30
0.0
 10
331.5129043554
 20
25.2465956195
 30
0.0
 10
331.7714695316
 20
25.0204819432
 30
0.0
 10
332.0818524253
 20
25.0204819432
 30
0.0
 10
332.3007691965
 20
25.0204819432
 30
0.0
 10
332.4979643992
 20
25.145577241
 30
0.0
 10
332.6382386243
 20
25.3114986192
 30
0.0
 10
332.6382386243
 20
25.3114986192
 30
0.0
 10
332.8405370871
 20
25.0602612011
 30
0.0
 10
332.8405370871
 20
25.0602612011
 30
0.0
  0
LWPOLYLINE
  5
24E
330
22E
100
AcDbEntity
  8
0
  6
Continuous
 62
     7
100
AcDbPolyline
 90
        2
 70
     0
 43
0.2
 10
334.7759811768
 20
26.9168010391
 10
334.5446333876
 20
26.9168010391
  0
LWPOLYLINE
  5
24F
330
22E
100
AcDbEntity
  8
0
  6
Continuous
 62
     7
100
AcDbPolyline
 90
        2
 70
     0
 43
0.2
 10
334.5446333876
 20
26.9168010391
 10
334.5446333876
 20
25.0597377898
  0
LWPOLYLINE
  5
250
330
22E
100
AcDbEntity
  8
0
  6
Continuous
 62
     7
100
AcDbPolyline
 90
        2
 70
     0
 43
0.2
 10
334.5446333876
 20
25.0597377898
 10
335.3399568395
 20
25.0597377898
  0
LWPOLYLINE
  5
251
330
22E
100
AcDbEntity
  8
0
  6
Continuous
 62
     7
100
AcDbPolyline
 90
        2
 70
     0
 43
0.2
 10
335.3399568395
 20
25.0597377898
 10
335.3399568395
 20
25.2717193614
  0
LWPOLYLINE
  5
252
330
22E
100
AcDbEntity
  8
0
  6
Continuous
 62
     7
100
AcDbPolyline
 90
        2
 70
     0
 43
0.2
 10
335.3399568395
 20
25.2717193614
 10
334.7759811768
 20
25.2717193614
  0
LWPOLYLINE
  5
253
330
22E
100
AcDbEntity
  8
0
  6
Continuous
 62
     7
100
AcDbPolyline
 90
        2
 70
     0
 43
0.2
 10
334.7759811768
 20
25.2717193614
 10
334.7759811768
 20
26.9168010391
  0
LWPOLYLINE
  5
254
330
22E
100
AcDbEntity
  8
0
  6
Continuous
 62
     7
100
AcDbPolyline
 90
        2
 70
     0
 43
0.2
 10
337.019060251
 20
26.2122894457
 10
336.7979189819
 20
26.2122894457
  0
LWPOLYLINE
  5
255
330
22E
100
AcDbEntity
  8
0
  6
Continuous
 62
     7
100
AcDbPolyline
 90
        2
 70
     0
 43
0.2
 10
336.7979189819
 20
26.2122894457
 10
336.7979189819
 20
25.0602612011
  0
LWPOLYLINE
  5
256
330
22E
100
AcDbEntity
  8
0
  6
Continuous
 62
     7
100
AcDbPolyline
 90
        2
 70
     0
 43
0.2
 10
336.7979189819
 20
25.0602612011
 10
337.019060251
 20
25.0602612011
  0
LWPOLYLINE
  5
257
330
22E
100
AcDbEntity
  8
0
  6
Continuous
 62
     7
100
AcDbPolyline
 90
        2
 70
     0
 43
0.2
 10
337.019060251
 20
25.0602612011
 10
337.019060251
 20
26.2122894457
  0
SPLINE
  5
258
330
22E
100
AcDbEntity
  8
0
  6
Continuous
 62
     7
100
AcDbSpline
 70
     3
 71
     3
 72
    17
 73
    13
 74
     0
 42
0.000000001
 43
0.0000001
 40
0.0
 40
0.0
 40
0.0
 40
0.0
 40
1.0
 40
1.0
 40
1.0
 40
2.0
 40
2.0
 40
2.0
 40
3.0
 40
3.0
 40
3.0
 40
4.0
 40
4.0
 40
4.0
 40
4.0
 10
336.9086204693
 20
26.894817765
 30
0.0
 10
336.8246129576
 20
26.894817765
 30
0.0
 10
336.7560460788
 20
26.825727475
 30
0.0
 10
336.7560460788
 20
26.7398880238
 30
0.0
 10
336.7560460788
 20
26.6556188065
 30
0.0
 10
336.8246129576
 20
26.5896689842
 30
0.0
 10
336.9086204693
 20
26.5896689842
 30
0.0
 10
336.9923662753
 20
26.5896689842
 30
0.0
 10
337.0611948597
 20
26.6556188065
 30
0.0
 10
337.0611948597
 20
26.7398880238
 30
0.0
 10
337.0611948597
 20
26.825727475
 30
0.0
 10
336.9923662753
 20
26.894817765
 30
0.0
 10
336.9086204693
 20
26.894817765
 30
0.0
  0
SPLINE
  5
259
330
22E
100
AcDbEntity
  8
0
  6
Continuous
 62
     7
100
AcDbSpline
 70
     3
 71
     3
 72
    17
 73
    13
 74
     0
 42
0.000000001
 43
0.0000001
 40
0.0
 40
0.0
 40
0.0
 40
0.0
 40
1.0
 40
1.0
 40
1.0
 40
2.0
 40
2.0
 40
2.0
 40
3.0
 40
3.0
 40
3.0
 40
4.0
 40
4.0
 40
4.0
 40
4.0
 10
339.1493441926
 20
25.2178079987
 30
0.0
 10
338.915379347
 20
25.2178079987
 30
0.0
 10
338.7850499363
 20
25.4198447558
 30
0.0
 10
338.7850499363
 20
25.6360136177
 30
0.0
 10
338.7850499363
 20
25.8506122457
 30
0.0
 10
338.9208751655
 20
26.0495085351
 30
0.0
 10
339.1493441926
 20
26.0495085351
 30
0.0
 10
339.3888048568
 20
26.0495085351
 30
0.0
 10
339.5243683804
 20
25.8605570602
 30
0.0
 10
339.5243683804
 20
25.6360136177
 30
0.0
 10
339.5243683804
 20
25.4098999414
 30
0.0
 10
339.3911602076
 20
25.2178079987
 30
0.0
 10
339.1493441926
 20
25.2178079987
 30
0.0
  0
SPLINE
  5
25A
330
22E
100
AcDbEntity
  8
0
  6
Continuous
 62
     7
100
AcDbSpline
 70
     3
 71
     3
 72
    50
 73
    46
 74
     0
 42
0.000000001
 43
0.0000001
 40
0.0
 40
0.0
 40
0.0
 40
0.0
 40
1.0
 40
1.0
 40
1.0
 40
2.0
 40
2.0
 40
2.0
 40
3.0
 40
3.0
 40
3.0
 40
4.0
 40
4.0
 40
4.0
 40
5.0
 40
5.0
 40
5.0
 40
6.0
 40
6.0
 40
6.0
 40
7.0
 40
7.0
 40
7.0
 40
8.0
 40
8.0
 40
8.0
 40
9.0
 40
9.0
 40
9.0
 40
10.0
 40
10.0
 40
10.0
 40
11.0
 40
11.0
 40
11.0
 40
12.0
 40
12.0
 40
12.0
 40
13.0
 40
13.0
 40
13.0
 40
14.0
 40
14.0
 40
14.0
 40
15.0
 40
15.0
 40
15.0
 40
15.0
 10
339.7334711899
 20
26.2128128569
 30
0.0
 10
339.7334711899
 20
26.2128128569
 30
0.0
 10
339.5118065095
 20
26.2128128569
 30
0.0
 10
339.5118065095
 20
26.2128128569
 30
0.0
 10
339.5118065095
 20
26.2128128569
 30
0.0
 10
339.5118065095
 20
26.0154868014
 30
0.0
 10
339.5118065095
 20
26.0154868014
 30
0.0
 10
339.5118065095
 20
26.0154868014
 30
0.0
 10
339.5070958079
 20
26.0154868014
 30
0.0
 10
339.5070958079
 20
26.0154868014
 30
0.0
 10
339.4157605382
 20
26.158378083
 30
0.0
 10
339.2778416638
 20
26.2468345907
 30
0.0
 10
339.1051159388
 20
26.2468345907
 30
0.0
 10
338.772749771
 20
26.2468345907
 30
0.0
 10
338.5636469615
 20
25.9589583823
 30
0.0
 10
338.5636469615
 20
25.6433413757
 30
0.0
 10
338.5636469615
 20
25.3135922644
 30
0.0
 10
338.7607113114
 20
25.0204819432
 30
0.0
 10
339.1155841646
 20
25.0204819432
 30
0.0
 10
339.2778416638
 20
25.0204819432
 30
0.0
 10
339.4178541833
 20
25.1089384508
 30
0.0
 10
339.5070958079
 20
25.2397912728
 30
0.0
 10
339.5070958079
 20
25.2397912728
 30
0.0
 10
339.5118065095
 20
25.2397912728
 30
0.0
 10
339.5118065095
 20
25.2397912728
 30
0.0
 10
339.5118065095
 20
25.2397912728
 30
0.0
 10
339.5118065095
 20
25.0204819432
 30
0.0
 10
339.5118065095
 20
25.0204819432
 30
0.0
 10
339.5118065095
 20
24.7839000411
 30
0.0
 10
339.4552780904
 20
24.5970422113
 30
0.0
 10
339.1820573981
 20
24.5970422113
 30
0.0
 10
338.9797589354
 20
24.5970422113
 30
0.0
 10
338.8371293594
 20
24.7153331624
 30
0.0
 10
338.8371293594
 20
24.9215572098
 30
0.0
 10
338.8371293594
 20
24.9215572098
 30
0.0
 10
338.615464679
 20
24.9215572098
 30
0.0
 10
338.615464679
 20
24.9215572098
 30
0.0
 10
338.6204370862
 20
24.5970422113
 30
0.0
 10
338.8515231698
 20
24.4002395671
 30
0.0
 10
339.171850878
 20
24.4002395671
 30
0.0
 10
339.6198909404
 20
24.4002395671
 30
0.0
 10
339.7334711899
 20
24.6854987189
 30
0.0
 10
339.7334711899
 20
25.0822444751
 30
0.0
 10
339.7334711899
 20
25.0822444751
 30
0.0
 10
339.7334711899
 20
26.2128128569
 30
0.0
 10
339.7334711899
 20
26.2128128569
 30
0.0
  0
SPLINE
  5
25B
330
22E
100
AcDbEntity
  8
0
  6
Continuous
 62
     7
100
AcDbSpline
 70
     3
 71
     3
 72
    44
 73
    40
 74
     0
 42
0.000000001
 43
0.0000001
 40
0.0
 40
0.0
 40
0.0
 40
0.0
 40
1.0
 40
1.0
 40
1.0
 40
2.0
 40
2.0
 40
2.0
 40
3.0
 40
3.0
 40
3.0
 40
4.0
 40
4.0
 40
4.0
 40
5.0
 40
5.0
 40
5.0
 40
6.0
 40
6.0
 40
6.0
 40
7.0
 40
7.0
 40
7.0
 40
8.0
 40
8.0
 40
8.0
 40
9.0
 40
9.0
 40
9.0
 40
10.0
 40
10.0
 40
10.0
 40
11.0
 40
11.0
 40
11.0
 40
12.0
 40
12.0
 40
12.0
 40
13.0
 40
13.0
 40
13.0
 40
13.0
 10
341.3023965253
 20
27.1978729007
 30
0.0
 10
341.3023965253
 20
27.1978729007
 30
0.0
 10
341.3023965253
 20
25.0597377898
 30
0.0
 10
341.3023965253
 20
25.0597377898
 30
0.0
 10
341.3023965253
 20
25.0597377898
 30
0.0
 10
341.5237995001
 20
25.0597377898
 30
0.0
 10
341.5237995001
 20
25.0597377898
 30
0.0
 10
341.5237995001
 20
25.0597377898
 30
0.0
 10
341.5237995001
 20
25.5894300131
 30
0.0
 10
341.5237995001
 20
25.5894300131
 30
0.0
 10
341.5237995001
 20
25.7993179395
 30
0.0
 10
341.5237995001
 20
26.0500319464
 30
0.0
 10
341.8090586519
 20
26.0500319464
 30
0.0
 10
342.0359574452
 20
26.0500319464
 30
0.0
 10
342.0629131266
 20
25.9170854793
 30
0.0
 10
342.0629131266
 20
25.7208062464
 30
0.0
 10
342.0629131266
 20
25.7208062464
 30
0.0
 10
342.0629131266
 20
25.0597377898
 30
0.0
 10
342.0629131266
 20
25.0597377898
 30
0.0
 10
342.0629131266
 20
25.0597377898
 30
0.0
 10
342.2848395126
 20
25.0597377898
 30
0.0
 10
342.2848395126
 20
25.0597377898
 30
0.0
 10
342.2848395126
 20
25.0597377898
 30
0.0
 10
342.2848395126
 20
25.7469768107
 30
0.0
 10
342.2848395126
 20
25.7469768107
 30
0.0
 10
342.2848395126
 20
26.027525261
 30
0.0
 10
342.2008320009
 20
26.2473580019
 30
0.0
 10
341.8757935911
 20
26.2473580019
 30
0.0
 10
341.7360427773
 20
26.2473580019
 30
0.0
 10
341.5978621973
 20
26.1808847684
 30
0.0
 10
341.5285102016
 20
26.0578831157
 30
0.0
 10
341.5285102016
 20
26.0578831157
 30
0.0
 10
341.5237995001
 20
26.0578831157
 30
0.0
 10
341.5237995001
 20
26.0578831157
 30
0.0
 10
341.5237995001
 20
26.0578831157
 30
0.0
 10
341.5237995001
 20
27.1978729007
 30
0.0
 10
341.5237995001
 20
27.1978729007
 30
0.0
 10
341.5237995001
 20
27.1978729007
 30
0.0
 10
341.3023965253
 20
27.1978729007
 30
0.0
 10
341.3023965253
 20
27.1978729007
 30
0.0
  0
LWPOLYLINE
  5
25C
330
22E
100
AcDbEntity
  8
0
  6
Continuous
 62
     7
100
AcDbPolyline
 90
        2
 70
     0
 43
0.2
 10
344.1246301895
 20
26.005541987
 10
344.341060757
 20
26.005541987
  0
LWPOLYLINE
  5
25D
330
22E
100
AcDbEntity
  8
0
  6
Continuous
 62
     7
100
AcDbPolyline
 90
        2
 70
     0
 43
0.2
 10
344.341060757
 20
26.005541987
 10
344.341060757
 20
26.2122894457
  0
LWPOLYLINE
  5
25E
330
22E
100
AcDbEntity
  8
0
  6
Continuous
 62
     7
100
AcDbPolyline
 90
        2
 70
     0
 43
0.2
 10
344.341060757
 20
26.2122894457
 10
344.1246301895
 20
26.2122894457
  0
LWPOLYLINE
  5
25F
330
22E
100
AcDbEntity
  8
0
  6
Continuous
 62
     7
100
AcDbPolyline
 90
        2
 70
     0
 43
0.2
 10
344.1246301895
 20
26.2122894457
 10
344.1246301895
 20
26.65300175
  0
LWPOLYLINE
  5
260
330
22E
100
AcDbEntity
  8
0
  6
Continuous
 62
     7
100
AcDbPolyline
 90
        2
 70
     0
 43
0.2
 10
344.1246301895
 20
26.65300175
 10
343.9029655091
 20
26.65300175
  0
LWPOLYLINE
  5
261
330
22E
100
AcDbEntity
  8
0
  6
Continuous
 62
     7
100
AcDbPolyline
 90
        2
 70
     0
 43
0.2
 10
343.9029655091
 20
26.65300175
 10
343.9029655091
 20
26.2122894457
  0
LWPOLYLINE
  5
262
330
22E
100
AcDbEntity
  8
0
  6
Continuous
 62
     7
100
AcDbPolyline
 90
        2
 70
     0
 43
0.2
 10
343.9029655091
 20
26.2122894457
 10
343.7823192072
 20
26.2122894457
  0
LWPOLYLINE
  5
263
330
22E
100
AcDbEntity
  8
0
  6
Continuous
 62
     7
100
AcDbPolyline
 90
        2
 70
     0
 43
0.2
 10
343.7823192072
 20
26.2122894457
 10
343.7823192072
 20
26.005541987
  0
LWPOLYLINE
  5
264
330
22E
100
AcDbEntity
  8
0
  6
Continuous
 62
     7
100
AcDbPolyline
 90
        2
 70
     0
 43
0.2
 10
343.7823192072
 20
26.005541987
 10
343.9029655091
 20
26.005541987
  0
LWPOLYLINE
  5
265
330
22E
100
AcDbEntity
  8
0
  6
Continuous
 62
     7
100
AcDbPolyline
 90
        2
 70
     0
 43
0.2
 10
343.9029655091
 20
26.005541987
 10
343.9029655091
 20
25.0597377898
  0
LWPOLYLINE
  5
266
330
22E
100
AcDbEntity
  8
0
  6
Continuous
 62
     7
100
AcDbPolyline
 90
        2
 70
     0
 43
0.2
 10
343.9029655091
 20
25.0597377898
 10
344.1246301895
 20
25.0597377898
  0
LWPOLYLINE
  5
267
330
22E
100
AcDbEntity
  8
0
  6
Continuous
 62
     7
100
AcDbPolyline
 90
        2
 70
     0
 43
0.2
 10
344.1246301895
 20
25.0597377898
 10
344.1246301895
 20
26.005541987
  0
SPLINE
  5
268
330
22E
100
AcDbEntity
  8
0
  6
Continuous
 62
     7
100
AcDbSpline
 70
     3
 71
     3
 72
    20
 73
    16
 74
     0
 42
0.000000001
 43
0.0000001
 40
0.0
 40
0.0
 40
0.0
 40
0.0
 40
1.0
 40
1.0
 40
1.0
 40
2.0
 40
2.0
 40
2.0
 40
3.0
 40
3.0
 40
3.0
 40
4.0
 40
4.0
 40
4.0
 40
5.0
 40
5.0
 40
5.0
 40
5.0
 10
331.9066404967
 20
35.4206642332
 30
0.0
 10
331.9066404967
 20
35.4206642332
 30
0.0
 10
334.2229971512
 20
32.5911028109
 30
0.0
 10
334.2229971512
 20
32.5911028109
 30
0.0
 10
333.5713500978
 20
31.9389323462
 30
0.0
 10
332.7944768938
 20
31.2030160755
 30
0.0
 10
331.8232872491
 20
31.2030160755
 30
0.0
 10
330.8247493647
 20
31.2030160755
 30
0.0
 10
329.8814313711
 20
32.1325945228
 30
0.0
 10
329.8814313711
 20
33.1317866713
 30
0.0
 10
329.8814313711
 20
34.1309788198
 30
0.0
 10
331.0602844442
 20
34.8375840585
 30
0.0
 10
331.7818069046
 20
35.3374418384
 30
0.0
 10
331.7818069046
 20
35.3374418384
 30
0.0
 10
331.9066404967
 20
35.4206642332
 30
0.0
 10
331.9066404967
 20
35.4206642332
 30
0.0
  0
SPLINE
  5
269
330
22E
100
AcDbEntity
  8
0
  6
Continuous
 62
     7
100
AcDbSpline
 70
     3
 71
     3
 72
    23
 73
    19
 74
     0
 42
0.000000001
 43
0.0000001
 40
0.0
 40
0.0
 40
0.0
 40
0.0
 40
1.0
 40
1.0
 40
1.0
 40
2.0
 40
2.0
 40
2.0
 40
3.0
 40
3.0
 40
3.0
 40
4.0
 40
4.0
 40
4.0
 40
5.0
 40
5.0
 40
5.0
 40
6.0
 40
6.0
 40
6.0
 40
6.0
 10
332.1840484793
 20
37.0584181529
 30
0.0
 10
332.1840484793
 20
37.0584181529
 30
0.0
 10
331.8375502067
 20
37.5017475137
 30
0.0
 10
331.8375502067
 20
37.5017475137
 30
0.0
 10
331.5317471618
 20
37.8898569837
 30
0.0
 10
331.2128588347
 20
38.2783590121
 30
0.0
 10
331.2128588347
 20
38.8053033262
 30
0.0
 10
331.2128588347
 20
39.4714750428
 30
0.0
 10
331.7541969591
 20
39.9151969621
 30
0.0
 10
332.3781032143
 20
39.9151969621
 30
0.0
 10
333.0718848763
 20
39.9151969621
 30
0.0
 10
333.5990908961
 20
39.5129553874
 30
0.0
 10
333.5990908961
 20
38.7779550864
 30
0.0
 10
333.5990908961
 20
38.0146905758
 30
0.0
 10
332.8778301414
 20
37.58457735
 30
0.0
 10
332.3507549745
 20
37.1688579346
 30
0.0
 10
332.3507549745
 20
37.1688579346
 30
0.0
 10
332.1840484793
 20
37.0584181529
 30
0.0
 10
332.1840484793
 20
37.0584181529
 30
0.0
  0
SPLINE
  5
26A
330
22E
100
AcDbEntity
  8
0
  6
Continuous
 62
     7
100
AcDbSpline
 70
     3
 71
     3
 72
    50
 73
    46
 74
     0
 42
0.000000001
 43
0.0000001
 40
0.0
 40
0.0
 40
0.0
 40
0.0
 40
1.0
 40
1.0
 40
1.0
 40
2.0
 40
2.0
 40
2.0
 40
3.0
 40
3.0
 40
3.0
 40
4.0
 40
4.0
 40
4.0
 40
5.0
 40
5.0
 40
5.0
 40
6.0
 40
6.0
 40
6.0
 40
7.0
 40
7.0
 40
7.0
 40
8.0
 40
8.0
 40
8.0
 40
9.0
 40
9.0
 40
9.0
 40
10.0
 40
10.0
 40
10.0
 40
11.0
 40
11.0
 40
11.0
 40
12.0
 40
12.0
 40
12.0
 40
13.0
 40
13.0
 40
13.0
 40
14.0
 40
14.0
 40
14.0
 40
15.0
 40
15.0
 40
15.0
 40
15.0
 10
336.1376356422
 20
30.2598289348
 30
0.0
 10
336.1376356422
 20
30.2598289348
 30
0.0
 10
337.7468636468
 20
30.2598289348
 30
0.0
 10
337.7468636468
 20
30.2598289348
 30
0.0
 10
337.7468636468
 20
30.2598289348
 30
0.0
 10
335.8738363531
 20
32.5769707062
 30
0.0
 10
335.8738363531
 20
32.5769707062
 30
0.0
 10
335.8738363531
 20
32.5769707062
 30
0.0
 10
337.1501747786
 20
34.0744504008
 30
0.0
 10
337.1501747786
 20
34.0744504008
 30
0.0
 10
337.1501747786
 20
34.0744504008
 30
0.0
 10
336.3179508309
 20
34.9354619693
 30
0.0
 10
336.3179508309
 20
34.9354619693
 30
0.0
 10
336.3179508309
 20
34.9354619693
 30
0.0
 10
335.0973557076
 20
33.5201578469
 30
0.0
 10
335.0973557076
 20
33.5201578469
 30
0.0
 10
335.0973557076
 20
33.5201578469
 30
0.0
 10
332.9194413388
 20
36.1555336813
 30
0.0
 10
332.9194413388
 20
36.1555336813
 30
0.0
 10
333.7930147782
 20
36.7935720412
 30
0.0
 10
334.8196860194
 20
37.58457735
 30
0.0
 10
334.8196860194
 20
38.7634304231
 30
0.0
 10
334.8196860194
 20
40.1371233482
 30
0.0
 10
333.6817898795
 20
40.9416064976
 30
0.0
 10
332.4064982766
 20
40.9416064976
 30
0.0
 10
331.0330670573
 20
40.9416064976
 30
0.0
 10
329.9921328585
 20
40.0953812979
 30
0.0
 10
329.9921328585
 20
38.6527289358
 30
0.0
 10
329.9921328585
 20
37.7651542444
 30
0.0
 10
330.547472235
 20
36.9882810403
 30
0.0
 10
331.1436376918
 20
36.3638513739
 30
0.0
 10
331.1436376918
 20
36.3638513739
 30
0.0
 10
330.4917289328
 20
35.8922578035
 30
0.0
 10
330.4917289328
 20
35.8922578035
 30
0.0
 10
329.4931910484
 20
35.1709970488
 30
0.0
 10
328.6603128365
 20
34.4497362942
 30
0.0
 10
328.6603128365
 20
33.1181779778
 30
0.0
 10
328.6603128365
 20
31.3145026798
 30
0.0
 10
330.1173590091
 20
30.0379025487
 30
0.0
 10
331.8648984465
 20
30.0379025487
 30
0.0
 10
333.0997565274
 20
30.0379025487
 30
0.0
 10
334.2091267521
 20
30.7460780212
 30
0.0
 10
335.000001208
 20
31.6746096459
 30
0.0
 10
335.000001208
 20
31.6746096459
 30
0.0
 10
336.1376356422
 20
30.2598289348
 30
0.0
 10
336.1376356422
 20
30.2598289348
 30
0.0
  0
LINE
  5
26B
330
22E
100
AcDbEntity
  8
0
  6
Continuous
 62
     7
100
AcDbLine
 10
321.9404970172
 20
28.2337038394
 30
0.0
 11
344.3544077449
 21
28.2337038394
 31
0.0
  0
LINE
  5
26C
330
22E
100
AcDbEntity
  8
0
  6
Continuous
 62
     7
100
AcDbLine
 10
344.3544077449
 20
28.2337038394
 30
0.0
 11
344.3544077449
 21
50.6476145671
 31
0.0
  0
LINE
  5
26D
330
22E
100
AcDbEntity
  8
0
  6
Continuous
 62
     7
100
AcDbLine
 10
344.3544077449
 20
50.6476145671
 30
0.0
 11
321.9404970172
 21
50.6476145671
 31
0.0
  0
LINE
  5
26E
330
22E
100
AcDbEntity
  8
0
  6
Continuous
 62
     7
100
AcDbLine
 10
321.9404970172
 20
50.6476145671
 30
0.0
 11
321.9404970172
 21
28.2337038394
 31
0.0
  0
ENDBLK
  5
26F
330
22E
100
AcDbEntity
  8
0
  6
ByBlock
 62
     0
100
AcDbBlockEnd
  0
BLOCK
  5
28F
330
22F
100
AcDbEntity
  8
0
100
AcDbBlockBegin
  2
*T5
 70
     1
 10
0.0
 20
0.0
 30
0.0
  3
*T5
  1
*T5
  0
MTEXT
  5
290
330
22F
100
AcDbEntity
  8
0
  6
Continuous
 62
     0
100
AcDbMText
 10
30.06
 20
-3.0
 30
0.0
 40
3.0
 41
39.88
 71
     4
 72
     5
  1
2G2_C_030
 73
     1
 44
1.0
  0
MTEXT
  5
291
330
22F
100
AcDbEntity
  8
0
  6
Continuous
 62
     0
100
AcDbMText
 10
70.06
 20
-0.06
 30
0.0
 40
3.5
 41
19.88
 71
     1
 72
     5
  1
Rev:00
 73
     1
 44
1.0
  0
MTEXT
  5
292
330
22F
100
AcDbEntity
  8
0
  6
Continuous
 62
     0
100
AcDbMText
 10
30.06
 20
-6.06
 30
0.0
 40
3.5
 41
39.88
 71
     1
 72
     5
  1
Scale:1:1
 73
     1
 44
1.0
  0
MTEXT
  5
293
330
22F
100
AcDbEntity
  8
0
  6
Continuous
 62
     0
100
AcDbMText
 10
70.06
 20
-9.0
 30
0.0
 40
3.5
 41
19.88
 71
     4
 72
     5
  1
A3
 73
     1
 44
1.0
  0
MTEXT
  5
294
330
22F
100
AcDbEntity
  8
0
  6
Continuous
 62
     0
100
AcDbMText
 10
30.06
 20
-17.0
 30
0.0
 40
3.5
 41
59.88
 71
     4
 72
     5
  1
SMOOTHY 2.0 
 73
     1
 44
1.0
  0
MTEXT
  5
295
330
22F
100
AcDbEntity
  8
0
  6
Continuous
 62
     0
100
AcDbMText
 10
30.06
 20
-24.5
 30
0.0
 40
2.5
 41
59.88
 71
     4
 72
     5
  1
DATE:25/03/2014
 73
     1
 44
1.0
  0
MTEXT
  5
296
330
22F
100
AcDbEntity
  8
0
  6
Continuous
 62
     0
100
AcDbMText
 10
0.06
 20
-27.06
 30
0.0
 40
1.85
 41
89.88
 71
     1
 72
     5
  1
Any integral or partial reproductions are prohibited \Pwithout prior authorisation of L & L Luce & Light s.r.l., \Pin accordance with the law in force. \PAll rights reserved.
 73
     1
 44
1.0
  0
LINE
  5
297
330
22F
100
AcDbEntity
  8
0
  6
Continuous
 62
     0
370
    -2
100
AcDbLine
 10
0.0
 20
0.0
 30
0.0
 11
10.0
 21
0.0
 31
0.0
  0
LINE
  5
298
330
22F
100
AcDbEntity
  8
0
  6
Continuous
 62
     0
370
    -2
100
AcDbLine
 10
10.0
 20
0.0
 30
0.0
 11
20.0
 21
0.0
 31
0.0
  0
LINE
  5
299
330
22F
100
AcDbEntity
  8
0
  6
Continuous
 62
     0
370
    -2
100
AcDbLine
 10
20.0
 20
0.0
 30
0.0
 11
30.0
 21
0.0
 31
0.0
  0
LINE
  5
29A
330
22F
100
AcDbEntity
  8
0
  6
Continuous
 62
     0
370
    -2
100
AcDbLine
 10
0.0
 20
0.0
 30
0.0
 11
0.0
 21
-6.0
 31
0.0
  0
LINE
  5
29B
330
22F
100
AcDbEntity
  8
0
  6
Continuous
 62
     0
370
    -2
100
AcDbLine
 10
0.0
 20
-6.0
 30
0.0
 11
0.0
 21
-12.0
 31
0.0
  0
LINE
  5
29C
330
22F
100
AcDbEntity
  8
0
  6
Continuous
 62
     0
370
    -2
100
AcDbLine
 10
0.0
 20
-12.0
 30
0.0
 11
0.0
 21
-22.0
 31
0.0
  0
LINE
  5
29D
330
22F
100
AcDbEntity
  8
0
  6
Continuous
 62
     0
370
    -2
100
AcDbLine
 10
0.0
 20
-22.0
 30
0.0
 11
0.0
 21
-27.0
 31
0.0
  0
LINE
  5
29E
330
22F
100
AcDbEntity
  8
0
  6
Continuous
 62
     0
370
    -2
100
AcDbLine
 10
30.0
 20
0.0
 30
0.0
 11
70.0
 21
0.0
 31
0.0
  0
LINE
  5
29F
330
22F
100
AcDbEntity
  8
0
  6
Continuous
 62
     0
370
    -2
100
AcDbLine
 10
30.0
 20
0.0
 30
0.0
 11
30.0
 21
-6.0
 31
0.0
  0
LINE
  5
2A0
330
22F
100
AcDbEntity
  8
0
  6
Continuous
 62
     0
370
    -2
100
AcDbLine
 10
70.0
 20
0.0
 30
0.0
 11
90.0
 21
0.0
 31
0.0
  0
LINE
  5
547
330
22F
100
AcDbEntity
  8
0
  6
Continuous
 62
     0
370
    -2
100
AcDbLine
 10
70.0
 20
0.0
 30
0.0
 11
70.0
 21
-6.0
 31
0.0
  0
LINE
  5
548
330
22F
100
AcDbEntity
  8
0
  6
Continuous
 62
     0
370
    -2
100
AcDbLine
 10
90.0
 20
0.0
 30
0.0
 11
90.0
 21
-6.0
 31
0.0
  0
LINE
  5
549
330
22F
100
AcDbEntity
  8
0
  6
Continuous
 62
     0
370
    -2
100
AcDbLine
 10
30.0
 20
-6.0
 30
0.0
 11
70.0
 21
-6.0
 31
0.0
  0
LINE
  5
54A
330
22F
100
AcDbEntity
  8
0
  6
Continuous
 62
     0
370
    -2
100
AcDbLine
 10
30.0
 20
-6.0
 30
0.0
 11
30.0
 21
-12.0
 31
0.0
  0
LINE
  5
54B
330
22F
100
AcDbEntity
  8
0
  6
Continuous
 62
     0
370
    -2
100
AcDbLine
 10
70.0
 20
-6.0
 30
0.0
 11
90.0
 21
-6.0
 31
0.0
  0
LINE
  5
54C
330
22F
100
AcDbEntity
  8
0
  6
Continuous
 62
     0
370
    -2
100
AcDbLine
 10
70.0
 20
-6.0
 30
0.0
 11
70.0
 21
-12.0
 31
0.0
  0
LINE
  5
54D
330
22F
100
AcDbEntity
  8
0
  6
Continuous
 62
     0
370
    -2
100
AcDbLine
 10
90.0
 20
-6.0
 30
0.0
 11
90.0
 21
-12.0
 31
0.0
  0
LINE
  5
54E
330
22F
100
AcDbEntity
  8
0
  6
Continuous
 62
     0
370
    -2
100
AcDbLine
 10
30.0
 20
-12.0
 30
0.0
 11
70.0
 21
-12.0
 31
0.0
  0
LINE
  5
54F
330
22F
100
AcDbEntity
  8
0
  6
Continuous
 62
     0
370
    -2
100
AcDbLine
 10
70.0
 20
-12.0
 30
0.0
 11
90.0
 21
-12.0
 31
0.0
  0
LINE
  5
550
330
22F
100
AcDbEntity
  8
0
  6
Continuous
 62
     0
370
    -2
100
AcDbLine
 10
30.0
 20
-12.0
 30
0.0
 11
30.0
 21
-22.0
 31
0.0
  0
LINE
  5
551
330
22F
100
AcDbEntity
  8
0
  6
Continuous
 62
     0
370
    -2
100
AcDbLine
 10
90.0
 20
-12.0
 30
0.0
 11
90.0
 21
-22.0
 31
0.0
  0
LINE
  5
552
330
22F
100
AcDbEntity
  8
0
  6
Continuous
 62
     0
370
    -2
100
AcDbLine
 10
30.0
 20
-22.0
 30
0.0
 11
70.0
 21
-22.0
 31
0.0
  0
LINE
  5
553
330
22F
100
AcDbEntity
  8
0
  6
Continuous
 62
     0
370
    -2
100
AcDbLine
 10
70.0
 20
-22.0
 30
0.0
 11
90.0
 21
-22.0
 31
0.0
  0
LINE
  5
554
330
22F
100
AcDbEntity
  8
0
  6
Continuous
 62
     0
370
    -2
100
AcDbLine
 10
30.0
 20
-22.0
 30
0.0
 11
30.0
 21
-27.0
 31
0.0
  0
LINE
  5
555
330
22F
100
AcDbEntity
  8
0
  6
Continuous
 62
     0
370
    -2
100
AcDbLine
 10
90.0
 20
-22.0
 30
0.0
 11
90.0
 21
-27.0
 31
0.0
  0
LINE
  5
556
330
22F
100
AcDbEntity
  8
0
  6
Continuous
 62
     0
370
    -2
100
AcDbLine
 10
0.0
 20
-27.0
 30
0.0
 11
10.0
 21
-27.0
 31
0.0
  0
LINE
  5
557
330
22F
100
AcDbEntity
  8
0
  6
Continuous
 62
     0
370
    -2
100
AcDbLine
 10
10.0
 20
-27.0
 30
0.0
 11
20.0
 21
-27.0
 31
0.0
  0
LINE
  5
558
330
22F
100
AcDbEntity
  8
0
  6
Continuous
 62
     0
370
    -2
100
AcDbLine
 10
20.0
 20
-27.0
 30
0.0
 11
30.0
 21
-27.0
 31
0.0
  0
LINE
  5
559
330
22F
100
AcDbEntity
  8
0
  6
Continuous
 62
     0
370
    -2
100
AcDbLine
 10
30.0
 20
-27.0
 30
0.0
 11
70.0
 21
-27.0
 31
0.0
  0
LINE
  5
55A
330
22F
100
AcDbEntity
  8
0
  6
Continuous
 62
     0
370
    -2
100
AcDbLine
 10
70.0
 20
-27.0
 30
0.0
 11
90.0
 21
-27.0
 31
0.0
  0
LINE
  5
55B
330
22F
100
AcDbEntity
  8
0
  6
Continuous
 62
     0
370
    -2
100
AcDbLine
 10
0.0
 20
-27.0
 30
0.0
 11
0.0
 21
-40.0
 31
0.0
  0
LINE
  5
55C
330
22F
100
AcDbEntity
  8
0
  6
Continuous
 62
     0
370
    -2
100
AcDbLine
 10
90.0
 20
-27.0
 30
0.0
 11
90.0
 21
-40.0
 31
0.0
  0
LINE
  5
55D
330
22F
100
AcDbEntity
  8
0
  6
Continuous
 62
     0
370
    -2
100
AcDbLine
 10
0.0
 20
-40.0
 30
0.0
 11
10.0
 21
-40.0
 31
0.0
  0
LINE
  5
55E
330
22F
100
AcDbEntity
  8
0
  6
Continuous
 62
     0
370
    -2
100
AcDbLine
 10
10.0
 20
-40.0
 30
0.0
 11
20.0
 21
-40.0
 31
0.0
  0
LINE
  5
55F
330
22F
100
AcDbEntity
  8
0
  6
Continuous
 62
     0
370
    -2
100
AcDbLine
 10
20.0
 20
-40.0
 30
0.0
 11
30.0
 21
-40.0
 31
0.0
  0
LINE
  5
560
330
22F
100
AcDbEntity
  8
0
  6
Continuous
 62
     0
370
    -2
100
AcDbLine
 10
30.0
 20
-40.0
 30
0.0
 11
70.0
 21
-40.0
 31
0.0
  0
LINE
  5
561
330
22F
100
AcDbEntity
  8
0
  6
Continuous
 62
     0
370
    -2
100
AcDbLine
 10
70.0
 20
-40.0
 30
0.0
 11
90.0
 21
-40.0
 31
0.0
  0
ENDBLK
  5
2A1
330
22F
100
AcDbEntity
  8
0
100
AcDbBlockEnd
  0
ENDSEC
  0
SECTION
  2
ENTITIES
  0
MTEXT
  5
2A2
330
228
100
AcDbEntity
  8
0
  6
Continuous
 62
     2
100
AcDbMText
 10
1.6467220993
 20
53.595027386
 30
0.0
 40
4.0
 41
2.2857142857
 71
     1
 72
     1
  1
1
  7
TEXTSTYLE_2
 73
     1
 44
0.9
  0
MTEXT
  5
2A3
330
228
100
AcDbEntity
  8
0
  6
Continuous
 62
     2
100
AcDbMText
 10
1.6467220993
 20
153.595027386
 30
0.0
 40
4.0
 41
3.1428571429
 71
     1
 72
     1
  1
2
  7
TEXTSTYLE_2
 73
     1
 44
0.9
  0
MTEXT
  5
2A4
330
228
100
AcDbEntity
  8
0
  6
Continuous
 62
     2
100
AcDbMText
 10
1.6467220993
 20
253.595027386
 30
0.0
 40
4.0
 41
2.8571428571
 71
     1
 72
     1
  1
3
  7
TEXTSTYLE_2
 73
     1
 44
0.9
  0
MTEXT
  5
2A5
330
228
100
AcDbEntity
  8
0
  6
Continuous
 62
     2
100
AcDbMText
 10
414.6467220993
 20
60.6268709614
 30
0.0
 40
4.0
 41
2.2857142857
 71
     1
 72
     1
  1
1
  7
TEXTSTYLE_2
 73
     1
 44
0.9
  0
MTEXT
  5
2A6
330
228
100
AcDbEntity
  8
0
  6
Continuous
 62
     2
100
AcDbMText
 10
414.6467220993
 20
160.6268709614
 30
0.0
 40
4.0
 41
3.1428571429
 71
     1
 72
     1
  1
2
  7
TEXTSTYLE_2
 73
     1
 44
0.9
  0
MTEXT
  5
2A7
330
228
100
AcDbEntity
  8
0
  6
Continuous
 62
     2
100
AcDbMText
 10
414.6467220993
 20
260.6268709614
 30
0.0
 40
4.0
 41
2.8571428571
 71
     1
 72
     1
  1
3
  7
TEXTSTYLE_2
 73
     1
 44
0.9
  0
MTEXT
  5
2A8
330
228
100
AcDbEntity
  8
0
  6
Continuous
 62
     2
100
AcDbMText
 10
362.154890719
 20
5.35876025
 30
0.0
 40
4.0
 41
3.6
 71
     1
 72
     1
  1
A
  7
TEXTSTYLE_3
 73
     1
 44
0.9
  0
MTEXT
  5
2A9
330
228
100
AcDbEntity
  8
0
  6
Continuous
 62
     2
100
AcDbMText
 10
262.154890719
 20
5.35876025
 30
0.0
 40
4.0
 41
3.6
 71
     1
 72
     1
  1
B
  7
TEXTSTYLE_3
 73
     1
 44
0.9
  0
MTEXT
  5
2AA
330
228
100
AcDbEntity
  8
0
  6
Continuous
 62
     2
100
AcDbMText
 10
162.154890719
 20
5.35876025
 30
0.0
 40
4.0
 41
3.6
 71
     1
 72
     1
  1
C
  7
TEXTSTYLE_3
 73
     1
 44
0.9
  0
MTEXT
  5
2AB
330
228
100
AcDbEntity
  8
0
  6
Continuous
 62
     2
100
AcDbMText
 10
55.7978688212
 20
5.5353441916
 30
0.0
 40
4.0
 41
3.6
 71
     1
 72
     1
  1
D
  7
TEXTSTYLE_3
 73
     1
 44
0.9
  0
MTEXT
  5
2AC
330
228
100
AcDbEntity
  8
0
  6
Continuous
 62
     2
100
AcDbMText
 10
362.154890719
 20
295.35876025
 30
0.0
 40
4.0
 41
3.6
 71
     1
 72
     1
  1
A
  7
TEXTSTYLE_3
 73
     1
 44
0.9
  0
MTEXT
  5
2AD
330
228
100
AcDbEntity
  8
0
  6
Continuous
 62
     2
100
AcDbMText
 10
262.154890719
 20
295.35876025
 30
0.0
 40
4.0
 41
3.6
 71
     1
 72
     1
  1
B
  7
TEXTSTYLE_3
 73
     1
 44
0.9
  0
MTEXT
  5
2AE
330
228
100
AcDbEntity
  8
0
  6
Continuous
 62
     2
100
AcDbMText
 10
162.154890719
 20
295.35876025
 30
0.0
 40
4.0
 41
3.6
 71
     1
 72
     1
  1
C
  7
TEXTSTYLE_3
 73
     1
 44
0.9
  0
MTEXT
  5
2AF
330
228
100
AcDbEntity
  8
0
  6
Continuous
 62
     2
100
AcDbMText
 10
53.9878834197
 20
295.579490177
 30
0.0
 40
4.0
 41
3.6
 71
     1
 72
     1
  1
D
  7
TEXTSTYLE_3
 73
     1
 44
0.9
  0
DIMENSION
  5
2B0
330
228
100
AcDbEntity
  8
0
  6
Continuous
 62
     2
100
AcDbDimension
  2
*D1
 10
104.7689023564
 20
103.6100920928
 30
0.0
 11
113.4990067847
 21
113.9153463054
 31
0.0
 70
   163
  1
<>
 71
     1
 42
83.8
  3
DIMSTYLE_1
100
AcDbDiametricDimension
 15
40.7067813931
 25
49.5870909018
 35
0.0
 40
0.0
  0
DIMENSION
  5
2B1
330
228
100
AcDbEntity
  8
0
  6
Continuous
 62
     2
100
AcDbDimension
  2
*D2
 10
128.4440153985
 20
184.104813525
 30
0.0
 11
128.4440153985
 21
217.554813525
 31
0.0
 70
   160
 71
     2
 42
66.9
  3
DIMSTYLE_2
100
AcDbAlignedDimension
 13
116.8222934327
 23
251.004813525
 33
0.0
 14
116.8222934327
 24
184.104813525
 34
0.0
 50
270.0
100
AcDbRotatedDimension
1001
ACAD
1000
DSTYLE
1002
{
1070
   147
1040
2.0
1002
}
  0
DIMENSION
  5
2B2
330
228
100
AcDbEntity
  8
0
  6
Continuous
 62
     2
100
AcDbDimension
  2
*D3
 10
259.9173147093
 20
249.104813525
 30
0.0
 11
259.9173147093
 21
258.8548135250001
 31
0.0
 70
   160
 71
     1
 42
1.900000000000006
  3
DIMSTYLE_3
100
AcDbAlignedDimension
 13
249.3603530072
 23
251.004813525
 33
0.0
 14
249.5147700285
 24
249.104813525
 34
0.0
 50
270.0
100
AcDbRotatedDimension
1001
ACAD
1000
DSTYLE
1002
{
1070
   147
1040
2.0
1002
}
  0
INSERT
  5
2B3
330
228
100
AcDbEntity
  8
0
  6
Continuous
 62
     2
100
AcDbBlockReference
  2
LOGO2_BL0
 10
333.1473869546
 20
37.5239270671
 30
0.0
  0
INSERT
  5
2B4
330
228
100
AcDbEntity
  8
0
  6
Continuous
 62
     2
100
AcDbBlockReference
  2
*T5
 10
319.3213399098
 20
51.0239270671
 30
0.0
  0
LINE
  5
2B5
330
228
100
AcDbEntity
  8
0
  6
Continuous
 62
     7
100
AcDbLine
 10
0.0
 20
0.0
 30
0.0
 11
0.0
 21
297.0
 31
0.0
  0
LWPOLYLINE
  5
2B6
330
228
100
AcDbEntity
  8
0
  6
Continuous
 62
     7
100
AcDbPolyline
 90
        2
 70
     0
 43
0.1000000003
 10
7.0536312849
 20
0.0
 10
7.0536312849
 20
297.0
  0
LWPOLYLINE
  5
2B7
330
228
100
AcDbEntity
  8
0
  6
Continuous
 62
     7
100
AcDbPolyline
 90
        2
 70
     0
 43
0.4999999952
 10
10.0536312849
 20
10.0318435754
 10
10.0536312849
 20
287.0
  0
LINE
  5
2B8
330
228
100
AcDbEntity
  8
0
  6
Continuous
 62
     7
100
AcDbLine
 10
0.0
 20
0.0
 30
0.0
 11
420.0
 21
0.0
 31
0.0
  0
LWPOLYLINE
  5
2B9
330
228
100
AcDbEntity
  8
0
  6
Continuous
 62
     7
100
AcDbPolyline
 90
        2
 70
     0
 43
0.1000000003
 10
0.0
 20
7.0318435754
 10
420.0
 20
7.0318435754
  0
LWPOLYLINE
  5
2BA
330
228
100
AcDbEntity
  8
0
  6
Continuous
 62
     7
100
AcDbPolyline
 90
        2
 70
     0
 43
0.4999999952
 10
10.0536312849
 20
10.0318435754
 10
410.0
 20
10.0318435754
  0
LINE
  5
2BB
330
228
100
AcDbEntity
  8
0
  6
Continuous
 62
     7
100
AcDbLine
 10
113.0
 20
297.0
 30
0.0
 11
113.0
 21
290.0
 31
0.0
  0
LINE
  5
2BC
330
228
100
AcDbEntity
  8
0
  6
Continuous
 62
     7
100
AcDbLine
 10
113.0
 20
7.0
 30
0.0
 11
113.0
 21
0.0
 31
0.0
  0
LWPOLYLINE
  5
2BD
330
228
100
AcDbEntity
  8
0
  6
Continuous
 62
     7
100
AcDbPolyline
 90
        2
 70
     0
 43
0.1000000003
 10
123.0
 20
10.0
 10
123.0
 20
0.0
  0
LWPOLYLINE
  5
2BE
330
228
100
AcDbEntity
  8
0
  6
Continuous
 62
     7
100
AcDbPolyline
 90
        2
 70
     0
 43
0.1000000003
 10
123.0
 20
287.0
 10
123.0
 20
297.0
  0
LINE
  5
2BF
330
228
100
AcDbEntity
  8
0
  6
Continuous
 62
     7
100
AcDbLine
 10
0.0
 20
99.9681564246
 30
0.0
 11
7.0
 21
99.9681564246
 31
0.0
  0
LINE
  5
2C0
330
228
100
AcDbEntity
  8
0
  6
Continuous
 62
     7
100
AcDbLine
 10
413.0
 20
107.0
 30
0.0
 11
420.0
 21
107.0
 31
0.0
  0
LWPOLYLINE
  5
2C1
330
228
100
AcDbEntity
  8
0
  6
Continuous
 62
     7
100
AcDbPolyline
 90
        2
 70
     0
 43
0.1000000003
 10
210.0
 20
10.0
 10
210.0
 20
0.0
  0
LWPOLYLINE
  5
2C2
330
228
100
AcDbEntity
  8
0
  6
Continuous
 62
     7
100
AcDbPolyline
 90
        2
 70
     0
 43
0.1000000003
 10
210.0
 20
287.0
 10
210.0
 20
297.0
  0
LWPOLYLINE
  5
2C3
330
228
100
AcDbEntity
  8
0
  6
Continuous
 62
     7
100
AcDbPolyline
 90
        2
 70
     0
 43
0.1000000003
 10
10.0
 20
148.5
 10
0.0
 20
148.5
  0
LWPOLYLINE
  5
2C4
330
228
100
AcDbEntity
  8
0
  6
Continuous
 62
     7
100
AcDbPolyline
 90
        2
 70
     0
 43
0.1000000003
 10
410.0
 20
148.5
 10
420.0
 20
148.5
  0
LINE
  5
2C5
330
228
100
AcDbEntity
  8
0
  6
Continuous
 62
     7
100
AcDbLine
 10
0.0
 20
199.9681564246
 30
0.0
 11
7.0
 21
199.9681564246
 31
0.0
  0
LWPOLYLINE
  5
2C6
330
228
100
AcDbEntity
  8
0
  6
Continuous
 62
     7
100
AcDbPolyline
 90
        2
 70
     0
 43
0.1000000003
 10
10.0
 20
202.9681564246
 10
0.0
 20
202.9681564246
  0
LWPOLYLINE
  5
2C7
330
228
100
AcDbEntity
  8
0
  6
Continuous
 62
     7
100
AcDbPolyline
 90
        2
 70
     0
 43
0.1000000003
 10
410.0
 20
210.0
 10
420.0
 20
210.0
  0
LINE
  5
2C8
330
228
100
AcDbEntity
  8
0
  6
Continuous
 62
     7
100
AcDbLine
 10
313.0
 20
297.0
 30
0.0
 11
313.0
 21
290.0
 31
0.0
  0
LINE
  5
2C9
330
228
100
AcDbEntity
  8
0
  6
Continuous
 62
     7
100
AcDbLine
 10
313.0
 20
7.0
 30
0.0
 11
313.0
 21
0.0
 31
0.0
  0
LWPOLYLINE
  5
2CA
330
228
100
AcDbEntity
  8
0
  6
Continuous
 62
     7
100
AcDbPolyline
 90
        2
 70
     0
 43
0.4999999952
 10
10.0536312849
 20
287.0
 10
410.0
 20
287.0
  0
LWPOLYLINE
  5
2CB
330
228
100
AcDbEntity
  8
0
  6
Continuous
 62
     7
100
AcDbPolyline
 90
        2
 70
     0
 43
0.1000000003
 10
0.0
 20
290.0
 10
420.0
 20
290.0
  0
LINE
  5
2CC
330
228
100
AcDbEntity
  8
0
  6
Continuous
 62
     7
100
AcDbLine
 10
0.0
 20
297.0
 30
0.0
 11
420.0
 21
297.0
 31
0.0
  0
LWPOLYLINE
  5
2CD
330
228
100
AcDbEntity
  8
0
  6
Continuous
 62
     7
100
AcDbPolyline
 90
        2
 70
     0
 43
0.4999999952
 10
410.0
 20
10.0318435754
 10
410.0
 20
287.0
  0
LWPOLYLINE
  5
2CE
330
228
100
AcDbEntity
  8
0
  6
Continuous
 62
     7
100
AcDbPolyline
 90
        2
 70
     0
 43
0.1000000003
 10
413.0
 20
0.0
 10
413.0
 20
297.0
  0
LINE
  5
2CF
330
228
100
AcDbEntity
  8
0
  6
Continuous
 62
     7
100
AcDbLine
 10
420.0
 20
0.0
 30
0.0
 11
420.0
 21
297.0
 31
0.0
  0
LINE
  5
2D0
330
228
100
AcDbEntity
  8
7_ALL_FEATURES
  6
Continuous
 62
     7
100
AcDbLine
 10
30.8378418748
 20
250.104813525
 30
0.0
 11
30.8378418748
 21
249.104813525
 31
0.0
  0
LINE
  5
2D1
330
228
100
AcDbEntity
  8
02___PRT_ALL_AXES
  6
Continuous
 62
     7
100
AcDbLine
 10
30.8378418748
 20
249.104813525
 30
0.0
 11
30.8378418748
 21
250.104813525
 31
0.0
  0
LINE
  5
2D2
330
228
100
AcDbEntity
  8
7_ALL_FEATURES
  6
Continuous
 62
     7
100
AcDbLine
 10
36.8378418748
 20
248.804813525
 30
0.0
 11
36.8378418748
 21
247.104813525
 31
0.0
  0
LINE
  5
2D3
330
228
100
AcDbEntity
  8
02___PRT_ALL_AXES
  6
Continuous
 62
     7
100
AcDbLine
 10
36.8378418748
 20
247.104813525
 30
0.0
 11
36.8378418748
 21
248.804813525
 31
0.0
  0
LINE
  5
2D4
330
228
100
AcDbEntity
  8
7_ALL_FEATURES
  6
Continuous
 62
     7
100
AcDbLine
 10
45.3633418748
 20
192.604813525
 30
0.0
 11
44.6133418748
 21
193.354813525
 31
0.0
  0
LINE
  5
2D5
330
228
100
AcDbEntity
  8
7_ALL_FEATURES
  6
Continuous
 62
     7
100
AcDbLine
 10
44.2296263442
 20
192.6968900504
 30
0.0
 11
39.5969176988
 21
201.5962405578
 31
0.0
  0
LINE
  5
2D6
330
228
100
AcDbEntity
  8
7_ALL_FEATURES
  6
Continuous
 62
     7
100
AcDbLine
 10
44.6731317608
 20
192.927764357
 30
0.0
 11
40.0404231154
 21
201.8271148644
 31
0.0
  0
LINE
  5
2D7
330
228
100
AcDbEntity
  8
7_ALL_FEATURES
  6
Continuous
 62
     7
100
AcDbLine
 10
38.0378418748
 20
239.604813525
 30
0.0
 11
38.0378418748
 21
247.104813525
 31
0.0
  0
LINE
  5
2D8
330
228
100
AcDbEntity
  8
02___PRT_ALL_AXES
  6
Continuous
 62
     7
100
AcDbLine
 10
69.2378418748
 20
184.104813525
 30
0.0
 11
76.2378418748
 21
184.104813525
 31
0.0
  0
LINE
  5
2D9
330
228
100
AcDbEntity
  8
7_ALL_FEATURES
  6
Continuous
 62
     7
100
AcDbLine
 10
69.2378418748
 20
184.104813525
 30
0.0
 11
76.2378418748
 21
184.104813525
 31
0.0
  0
LINE
  5
2DA
330
228
100
AcDbEntity
  8
02___PRT_ALL_AXES
  6
Continuous
 62
     7
100
AcDbLine
 10
43.7378418748
 20
238.104813525
 30
0.0
 11
43.7378418748
 21
222.854813525
 31
0.0
  0
LINE
  5
2DB
330
228
100
AcDbEntity
  8
02___PRT_ALL_AXES
  6
Continuous
 62
     7
100
AcDbLine
 10
43.7378418748
 20
220.354813525
 30
0.0
 11
43.7378418748
 21
217.854813525
 31
0.0
  0
LINE
  5
2DC
330
228
100
AcDbEntity
  8
02___PRT_ALL_AXES
  6
Continuous
 62
     7
100
AcDbLine
 10
43.7378418748
 20
215.354813525
 30
0.0
 11
43.7378418748
 21
212.854813525
 31
0.0
  0
LINE
  5
2DD
330
228
100
AcDbEntity
  8
7_ALL_FEATURES
  6
Continuous
 62
     7
100
AcDbLine
 10
44.6133418748
 20
210.354813525
 30
0.0
 11
44.6133418748
 21
207.854813525
 31
0.0
  0
LINE
  5
2DE
330
228
100
AcDbEntity
  8
7_ALL_FEATURES
  6
Continuous
 62
     7
100
AcDbLine
 10
44.6133418748
 20
205.354813525
 30
0.0
 11
44.6133418748
 21
202.854813525
 31
0.0
  0
LINE
  5
2DF
330
228
100
AcDbEntity
  8
7_ALL_FEATURES
  6
Continuous
 62
     7
100
AcDbLine
 10
44.6133418748
 20
200.354813525
 30
0.0
 11
44.6133418748
 21
197.854813525
 31
0.0
  0
LINE
  5
2E0
330
228
100
AcDbEntity
  8
7_ALL_FEATURES
  6
Continuous
 62
     7
100
AcDbLine
 10
44.6133418748
 20
195.354813525
 30
0.0
 11
44.6133418748
 21
193.354813525
 31
0.0
  0
LINE
  5
2E1
330
228
100
AcDbEntity
  8
02___PRT_ALL_AXES
  6
Continuous
 62
     9
100
AcDbLine
 10
79.6660451051
 20
187.604813525
 30
0.0
 11
77.0679688937
 21
187.604813525
 31
0.0
  0
LINE
  5
2E2
330
228
100
AcDbEntity
  8
02___PRT_ALL_AXES
  6
Continuous
 62
     9
100
AcDbLine
 10
65.8096386445
 20
187.604813525
 30
0.0
 11
68.4077148559
 21
187.604813525
 31
0.0
  0
LINE
  5
2E3
330
228
100
AcDbEntity
  8
02___PRT_ALL_AXES
  6
Continuous
 62
     9
100
AcDbLine
 10
70.1397656634
 20
187.604813525
 30
0.0
 11
75.3359180861
 21
187.604813525
 31
0.0
  0
LINE
  5
2E4
330
228
100
AcDbEntity
  8
02___PRT_ALL_AXES
  6
Continuous
 62
     7
100
AcDbLine
 10
79.6660451051
 20
188.104813525
 30
0.0
 11
77.0679688937
 21
188.104813525
 31
0.0
  0
LINE
  5
2E5
330
228
100
AcDbEntity
  8
02___PRT_ALL_AXES
  6
Continuous
 62
     7
100
AcDbLine
 10
65.8096386445
 20
188.104813525
 30
0.0
 11
68.4077148559
 21
188.104813525
 31
0.0
  0
LINE
  5
2E6
330
228
100
AcDbEntity
  8
02___PRT_ALL_AXES
  6
Continuous
 62
     7
100
AcDbLine
 10
70.1397656634
 20
188.104813525
 30
0.0
 11
75.3359180861
 21
188.104813525
 31
0.0
  0
LINE
  5
2E7
330
228
100
AcDbEntity
  8
7_ALL_FEATURES
  6
Continuous
 62
     7
100
AcDbLine
 10
40.3680541201
 20
206.0466489773
 30
0.0
 11
40.0109166335
 21
206.4037864639
 31
0.0
  0
LINE
  5
2E8
330
228
100
AcDbEntity
  8
7_ALL_FEATURES
  6
Continuous
 62
     7
100
AcDbLine
 10
50.4878418748
 20
197.854813525
 30
0.0
 11
50.7378418748
 21
197.604813525
 31
0.0
  0
LINE
  5
2E9
330
228
100
AcDbEntity
  8
7_ALL_FEATURES
  6
Continuous
 62
     7
100
AcDbLine
 10
41.7503165517
 20
207.4928136704
 30
0.0
 11
41.3967631611
 21
207.846367061
 31
0.0
  0
LINE
  5
2EA
330
228
100
AcDbEntity
  8
02___PRT_ALL_AXES
  6
Continuous
 62
     7
100
AcDbLine
 10
44.9378418748
 20
192.104813525
 30
0.0
 11
44.9378418748
 21
191.724813525
 31
0.0
  0
LINE
  5
2EB
330
228
100
AcDbEntity
  8
7_ALL_FEATURES
  6
Continuous
 62
     9
100
AcDbLine
 10
45.2053382607
 20
192.104813525
 30
0.0
 11
45.2053382607
 21
192.604813525
 31
0.0
  0
LINE
  5
2EC
330
228
100
AcDbEntity
  8
7_ALL_FEATURES
  6
Continuous
 62
     7
100
AcDbLine
 10
45.3378418748
 20
222.854813525
 30
0.0
 11
45.3378418748
 21
220.354813525
 31
0.0
  0
LINE
  5
2ED
330
228
100
AcDbEntity
  8
7_ALL_FEATURES
  6
Continuous
 62
     7
100
AcDbLine
 10
45.3378418748
 20
217.854813525
 30
0.0
 11
45.3378418748
 21
215.354813525
 31
0.0
  0
LINE
  5
2EE
330
228
100
AcDbEntity
  8
7_ALL_FEATURES
  6
Continuous
 62
     7
100
AcDbLine
 10
45.3378418748
 20
212.854813525
 30
0.0
 11
45.3378418748
 21
210.354813525
 31
0.0
  0
LINE
  5
2EF
330
228
100
AcDbEntity
  8
02___PRT_ALL_AXES
  6
Continuous
 62
     7
100
AcDbLine
 10
46.7378418748
 20
197.604813525
 30
0.0
 11
46.7378418748
 21
195.354813525
 31
0.0
  0
LINE
  5
2F0
330
228
100
AcDbEntity
  8
7_ALL_FEATURES
  6
Continuous
 62
     7
100
AcDbLine
 10
46.7378418748
 20
195.354813525
 30
0.0
 11
46.7378418748
 21
197.604813525
 31
0.0
  0
LINE
  5
2F1
330
228
100
AcDbEntity
  8
02___PRT_ALL_AXES
  6
Continuous
 62
     7
100
AcDbLine
 10
98.7028418748
 20
189.904813525
 30
0.0
 11
94.7728418748
 21
189.904813525
 31
0.0
  0
LINE
  5
2F2
330
228
100
AcDbEntity
  8
02___PRT_ALL_AXES
  6
Continuous
 62
     7
100
AcDbLine
 10
50.7028418748
 20
189.904813525
 30
0.0
 11
46.7728418748
 21
189.904813525
 31
0.0
  0
LINE
  5
2F3
330
228
100
AcDbEntity
  8
02___PRT_ALL_AXES
  6
Continuous
 62
     7
100
AcDbLine
 10
100.5378418748
 20
191.724813525
 30
0.0
 11
92.9378418748
 21
191.724813525
 31
0.0
  0
LINE
  5
2F4
330
228
100
AcDbEntity
  8
02___PRT_ALL_AXES
  6
Continuous
 62
     7
100
AcDbLine
 10
52.5378418748
 20
191.724813525
 30
0.0
 11
44.9378418748
 21
191.724813525
 31
0.0
  0
LINE
  5
2F5
330
228
100
AcDbEntity
  8
02___PRT_ALL_AXES
  6
Continuous
 62
     7
100
AcDbLine
 10
100.5378418748
 20
192.104813525
 30
0.0
 11
100.2703454888
 21
192.104813525
 31
0.0
  0
LINE
  5
2F6
330
228
100
AcDbEntity
  8
7_ALL_FEATURES
  6
Continuous
 62
     7
100
AcDbLine
 10
100.2703454888
 20
192.104813525
 30
0.0
 11
92.9378418748
 21
192.104813525
 31
0.0
  0
LINE
  5
2F7
330
228
100
AcDbEntity
  8
7_ALL_FEATURES
  6
Continuous
 62
     7
100
AcDbLine
 10
52.5378418748
 20
192.104813525
 30
0.0
 11
45.2053382607
 21
192.104813525
 31
0.0
  0
LINE
  5
2F8
330
228
100
AcDbEntity
  8
02___PRT_ALL_AXES
  6
Continuous
 62
     7
100
AcDbLine
 10
45.2053382607
 20
192.104813525
 30
0.0
 11
44.9378418748
 21
192.104813525
 31
0.0
  0
LINE
  5
2F9
330
228
100
AcDbEntity
  8
7_ALL_FEATURES
  6
Continuous
 62
     7
100
AcDbLine
 10
100.2703454888
 20
192.604813525
 30
0.0
 11
45.2053382607
 21
192.604813525
 31
0.0
  0
LINE
  5
2FA
330
228
100
AcDbEntity
  8
7_ALL_FEATURES
  6
Continuous
 62
     7
100
AcDbLine
 10
48.7378418748
 20
207.854813525
 30
0.0
 11
48.7378418748
 21
205.354813525
 31
0.0
  0
LINE
  5
2FB
330
228
100
AcDbEntity
  8
7_ALL_FEATURES
  6
Continuous
 62
     7
100
AcDbLine
 10
50.7378418748
 20
202.854813525
 30
0.0
 11
50.7378418748
 21
200.354813525
 31
0.0
  0
LINE
  5
2FC
330
228
100
AcDbEntity
  8
02___PRT_ALL_AXES
  6
Continuous
 62
     7
100
AcDbLine
 10
50.7378418748
 20
197.604813525
 30
0.0
 11
50.7378418748
 21
195.354813525
 31
0.0
  0
LINE
  5
2FD
330
228
100
AcDbEntity
  8
7_ALL_FEATURES
  6
Continuous
 62
     7
100
AcDbLine
 10
50.7378418748
 20
195.354813525
 30
0.0
 11
50.7378418748
 21
197.604813525
 31
0.0
  0
LINE
  5
2FE
330
228
100
AcDbEntity
  8
7_ALL_FEATURES
  6
Continuous
 62
     7
100
AcDbLine
 10
51.7378418748
 20
197.854813525
 30
0.0
 11
51.7378418748
 21
195.354813525
 31
0.0
  0
LINE
  5
2FF
330
228
100
AcDbEntity
  8
7_ALL_FEATURES
  6
Continuous
 62
     7
100
AcDbLine
 10
44.6133418748
 20
193.354813525
 30
0.0
 11
100.8623418748
 21
193.354813525
 31
0.0
  0
LINE
  5
300
330
228
100
AcDbEntity
  8
7_ALL_FEATURES
  6
Continuous
 62
     7
100
AcDbLine
 10
44.6133418748
 20
195.354813525
 30
0.0
 11
100.8623418748
 21
195.354813525
 31
0.0
  0
LINE
  5
301
330
228
100
AcDbEntity
  8
02___PRT_ALL_AXES
  6
Continuous
 62
     7
100
AcDbLine
 10
52.5378418748
 20
192.104813525
 30
0.0
 11
52.5378418748
 21
191.724813525
 31
0.0
  0
LINE
  5
302
330
228
100
AcDbEntity
  8
7_ALL_FEATURES
  6
Continuous
 62
     7
100
AcDbLine
 10
52.5378418748
 20
192.104813525
 30
0.0
 11
52.5378418748
 21
192.604813525
 31
0.0
  0
LINE
  5
303
330
228
100
AcDbEntity
  8
7_ALL_FEATURES
  6
Continuous
 62
     7
100
AcDbLine
 10
98.7378418748
 20
197.604813525
 30
0.0
 11
94.7378418748
 21
197.604813525
 31
0.0
  0
LINE
  5
304
330
228
100
AcDbEntity
  8
7_ALL_FEATURES
  6
Continuous
 62
     7
100
AcDbLine
 10
50.7378418748
 20
197.604813525
 30
0.0
 11
46.7378418748
 21
197.604813525
 31
0.0
  0
LINE
  5
305
330
228
100
AcDbEntity
  8
7_ALL_FEATURES
  6
Continuous
 62
     7
100
AcDbLine
 10
100.8623418748
 20
197.854813525
 30
0.0
 11
44.6133418748
 21
197.854813525
 31
0.0
  0
LINE
  5
306
330
228
100
AcDbEntity
  8
7_ALL_FEATURES
  6
Continuous
 62
     7
100
AcDbLine
 10
40.4064859327
 20
206.8560898327
 30
0.0
 11
41.3967631611
 21
207.846367061
 31
0.0
  0
LINE
  5
307
330
228
100
AcDbEntity
  8
7_ALL_FEATURES
  6
Continuous
 62
     7
100
AcDbLine
 10
41.7503165517
 20
207.4928136704
 30
0.0
 11
40.7600393233
 21
206.5025364421
 31
0.0
  0
LINE
  5
308
330
228
100
AcDbEntity
  8
7_ALL_FEATURES
  6
Continuous
 62
     7
100
AcDbLine
 10
44.6133418748
 20
200.354813525
 30
0.0
 11
100.8623418748
 21
200.354813525
 31
0.0
  0
LINE
  5
309
330
228
100
AcDbEntity
  8
7_ALL_FEATURES
  6
Continuous
 62
     7
100
AcDbLine
 10
100.8623418748
 20
202.854813525
 30
0.0
 11
44.6133418748
 21
202.854813525
 31
0.0
  0
LINE
  5
30A
330
228
100
AcDbEntity
  8
7_ALL_FEATURES
  6
Continuous
 62
     7
100
AcDbLine
 10
44.6133418748
 20
205.354813525
 30
0.0
 11
100.8623418748
 21
205.354813525
 31
0.0
  0
LINE
  5
30B
330
228
100
AcDbEntity
  8
02___PRT_ALL_AXES
  6
Continuous
 62
     7
100
AcDbLine
 10
65.8096386445
 20
186.8996514234
 30
0.0
 11
65.8096386445
 21
192.604813525
 31
0.0
  0
LINE
  5
30C
330
228
100
AcDbEntity
  8
7_ALL_FEATURES
  6
Continuous
 62
     7
100
AcDbLine
 10
100.8623418748
 20
207.854813525
 30
0.0
 11
44.6133418748
 21
207.854813525
 31
0.0
  0
LINE
  5
30D
330
228
100
AcDbEntity
  8
7_ALL_FEATURES
  6
Continuous
 62
     7
100
AcDbLine
 10
44.6133418748
 20
210.354813525
 30
0.0
 11
100.8623418748
 21
210.354813525
 31
0.0
  0
LINE
  5
30E
330
228
100
AcDbEntity
  8
7_ALL_FEATURES
  6
Continuous
 62
     9
100
AcDbLine
 10
101.2460574053
 20
192.6968900504
 30
0.0
 11
100.8025519887
 21
192.927764357
 31
0.0
  0
LINE
  5
30F
330
228
100
AcDbEntity
  8
7_ALL_FEATURES
  6
Continuous
 62
     7
100
AcDbLine
 10
38.5378418748
 20
239.104813525
 30
0.0
 11
38.0378418748
 21
239.604813525
 31
0.0
  0
LINE
  5
310
330
228
100
AcDbEntity
  8
7_ALL_FEATURES
  6
Continuous
 62
     7
100
AcDbLine
 10
40.2378418748
 20
238.604813525
 30
0.0
 11
39.7378418748
 21
239.104813525
 31
0.0
  0
LINE
  5
311
330
228
100
AcDbEntity
  8
02___PRT_ALL_AXES
  6
Continuous
 62
     7
100
AcDbLine
 10
68.4077148559
 20
187.604813525
 30
0.0
 11
68.4077148559
 21
188.104813525
 31
0.0
  0
LINE
  5
312
330
228
100
AcDbEntity
  8
7_ALL_FEATURES
  6
Continuous
 62
     7
100
AcDbLine
 10
46.9878418748
 20
197.854813525
 30
0.0
 11
46.7378418748
 21
197.604813525
 31
0.0
  0
LINE
  5
313
330
228
100
AcDbEntity
  8
7_ALL_FEATURES
  6
Continuous
 62
     7
100
AcDbLine
 10
101.7378418748
 20
212.854813525
 30
0.0
 11
43.7378418748
 21
212.854813525
 31
0.0
  0
LINE
  5
314
330
228
100
AcDbEntity
  8
7_ALL_FEATURES
  6
Continuous
 62
     7
100
AcDbLine
 10
43.7378418748
 20
238.104813525
 30
0.0
 11
43.2378418748
 21
238.604813525
 31
0.0
  0
LINE
  5
315
330
228
100
AcDbEntity
  8
02___PRT_ALL_AXES
  6
Continuous
 62
     7
100
AcDbLine
 10
70.1397656634
 20
187.604813525
 30
0.0
 11
70.1397656634
 21
188.104813525
 31
0.0
  0
LINE
  5
316
330
228
100
AcDbEntity
  8
02___PRT_ALL_AXES
  6
Continuous
 62
     7
100
AcDbLine
 10
72.7378418748
 20
192.604813525
 30
0.0
 11
72.7378418748
 21
189.104813525
 31
0.0
  0
LINE
  5
317
330
228
100
AcDbEntity
  8
7_ALL_FEATURES
  6
Continuous
 62
     9
100
AcDbLine
 10
39.5969176988
 20
201.5962405578
 30
0.0
 11
40.0404231154
 21
201.8271148644
 31
0.0
  0
LINE
  5
318
330
228
100
AcDbEntity
  8
7_ALL_FEATURES
  6
Continuous
 62
     7
100
AcDbLine
 10
101.7378418748
 20
215.354813525
 30
0.0
 11
43.7378418748
 21
215.354813525
 31
0.0
  0
LINE
  5
319
330
228
100
AcDbEntity
  8
7_ALL_FEATURES
  6
Continuous
 62
     7
100
AcDbLine
 10
101.7378418748
 20
217.854813525
 30
0.0
 11
43.7378418748
 21
217.854813525
 31
0.0
  0
LINE
  5
31A
330
228
100
AcDbEntity
  8
02___PRT_ALL_AXES
  6
Continuous
 62
     7
100
AcDbLine
 10
75.3359180861
 20
187.604813525
 30
0.0
 11
75.3359180861
 21
188.104813525
 31
0.0
  0
LINE
  5
31B
330
228
100
AcDbEntity
  8
7_ALL_FEATURES
  6
Continuous
 62
     7
100
AcDbLine
 10
101.7378418748
 20
220.354813525
 30
0.0
 11
43.7378418748
 21
220.354813525
 31
0.0
  0
LINE
  5
31C
330
228
100
AcDbEntity
  8
7_ALL_FEATURES
  6
Continuous
 62
     9
100
AcDbLine
 10
105.8787660508
 20
201.5962405578
 30
0.0
 11
105.4352606342
 21
201.8271148644
 31
0.0
  0
LINE
  5
31D
330
228
100
AcDbEntity
  8
02___PRT_ALL_AXES
  6
Continuous
 62
     7
100
AcDbLine
 10
77.0679688937
 20
187.604813525
 30
0.0
 11
77.0679688937
 21
188.104813525
 31
0.0
  0
LINE
  5
31E
330
228
100
AcDbEntity
  8
02___PRT_ALL_AXES
  6
Continuous
 62
     7
100
AcDbLine
 10
79.6660451051
 20
186.8996514234
 30
0.0
 11
79.6660451051
 21
192.604813525
 31
0.0
  0
LINE
  5
31F
330
228
100
AcDbEntity
  8
7_ALL_FEATURES
  6
Continuous
 62
     7
100
AcDbLine
 10
101.7378418748
 20
238.104813525
 30
0.0
 11
102.2378418748
 21
238.604813525
 31
0.0
  0
LINE
  5
320
330
228
100
AcDbEntity
  8
7_ALL_FEATURES
  6
Continuous
 62
     7
100
AcDbLine
 10
101.7378418748
 20
222.854813525
 30
0.0
 11
43.7378418748
 21
222.854813525
 31
0.0
  0
LINE
  5
321
330
228
100
AcDbEntity
  8
7_ALL_FEATURES
  6
Continuous
 62
     7
100
AcDbLine
 10
98.4878418748
 20
197.854813525
 30
0.0
 11
98.7378418748
 21
197.604813525
 31
0.0
  0
LINE
  5
322
330
228
100
AcDbEntity
  8
7_ALL_FEATURES
  6
Continuous
 62
     7
100
AcDbLine
 10
105.2378418748
 20
238.604813525
 30
0.0
 11
105.7378418748
 21
239.104813525
 31
0.0
  0
LINE
  5
323
330
228
100
AcDbEntity
  8
7_ALL_FEATURES
  6
Continuous
 62
     7
100
AcDbLine
 10
107.4378418748
 20
239.604813525
 30
0.0
 11
106.9378418748
 21
239.104813525
 31
0.0
  0
LINE
  5
324
330
228
100
AcDbEntity
  8
7_ALL_FEATURES
  6
Continuous
 62
     9
100
AcDbLine
 10
44.2296263442
 20
192.6968900504
 30
0.0
 11
44.6731317608
 21
192.927764357
 31
0.0
  0
LINE
  5
325
330
228
100
AcDbEntity
  8
7_ALL_FEATURES
  6
Continuous
 62
     7
100
AcDbLine
 10
104.7156444262
 20
206.5025364421
 30
0.0
 11
103.7253671979
 21
207.4928136704
 31
0.0
  0
LINE
  5
326
330
228
100
AcDbEntity
  8
7_ALL_FEATURES
  6
Continuous
 62
     7
100
AcDbLine
 10
104.0789205885
 20
207.846367061
 30
0.0
 11
105.0691978168
 21
206.8560898327
 31
0.0
  0
LINE
  5
327
330
228
100
AcDbEntity
  8
02___PRT_ALL_AXES
  6
Continuous
 62
     7
100
AcDbLine
 10
92.9378418748
 20
192.104813525
 30
0.0
 11
92.9378418748
 21
191.724813525
 31
0.0
  0
LINE
  5
328
330
228
100
AcDbEntity
  8
7_ALL_FEATURES
  6
Continuous
 62
     7
100
AcDbLine
 10
92.9378418748
 20
192.104813525
 30
0.0
 11
92.9378418748
 21
192.604813525
 31
0.0
  0
LINE
  5
329
330
228
100
AcDbEntity
  8
7_ALL_FEATURES
  6
Continuous
 62
     7
100
AcDbLine
 10
93.7378418748
 20
197.854813525
 30
0.0
 11
93.7378418748
 21
195.354813525
 31
0.0
  0
LINE
  5
32A
330
228
100
AcDbEntity
  8
7_ALL_FEATURES
  6
Continuous
 62
     7
100
AcDbLine
 10
101.7378418748
 20
238.104813525
 30
0.0
 11
43.7378418748
 21
238.104813525
 31
0.0
  0
LINE
  5
32B
330
228
100
AcDbEntity
  8
7_ALL_FEATURES
  6
Continuous
 62
     7
100
AcDbLine
 10
40.2378418748
 20
238.604813525
 30
0.0
 11
105.2378418748
 21
238.604813525
 31
0.0
  0
LINE
  5
32C
330
228
100
AcDbEntity
  8
7_ALL_FEATURES
  6
Continuous
 62
     7
100
AcDbLine
 10
106.9378418748
 20
239.104813525
 30
0.0
 11
38.5378418748
 21
239.104813525
 31
0.0
  0
LINE
  5
32D
330
228
100
AcDbEntity
  8
7_ALL_FEATURES
  6
Continuous
 62
     7
100
AcDbLine
 10
94.7378418748
 20
202.854813525
 30
0.0
 11
94.7378418748
 21
200.354813525
 31
0.0
  0
LINE
  5
32E
330
228
100
AcDbEntity
  8
02___PRT_ALL_AXES
  6
Continuous
 62
     7
100
AcDbLine
 10
94.7378418748
 20
197.604813525
 30
0.0
 11
94.7378418748
 21
195.354813525
 31
0.0
  0
LINE
  5
32F
330
228
100
AcDbEntity
  8
7_ALL_FEATURES
  6
Continuous
 62
     7
100
AcDbLine
 10
94.7378418748
 20
195.354813525
 30
0.0
 11
94.7378418748
 21
197.604813525
 31
0.0
  0
LINE
  5
330
330
228
100
AcDbEntity
  8
7_ALL_FEATURES
  6
Continuous
 62
     7
100
AcDbLine
 10
96.7378418748
 20
207.854813525
 30
0.0
 11
96.7378418748
 21
205.354813525
 31
0.0
  0
LINE
  5
331
330
228
100
AcDbEntity
  8
7_ALL_FEATURES
  6
Continuous
 62
     7
100
AcDbLine
 10
38.0378418748
 20
239.604813525
 30
0.0
 11
107.4378418748
 21
239.604813525
 31
0.0
  0
LINE
  5
332
330
228
100
AcDbEntity
  8
02___PRT_ALL_AXES
  6
Continuous
 62
     7
100
AcDbLine
 10
98.7378418748
 20
197.604813525
 30
0.0
 11
98.7378418748
 21
195.354813525
 31
0.0
  0
LINE
  5
333
330
228
100
AcDbEntity
  8
7_ALL_FEATURES
  6
Continuous
 62
     7
100
AcDbLine
 10
98.7378418748
 20
195.354813525
 30
0.0
 11
98.7378418748
 21
197.604813525
 31
0.0
  0
LINE
  5
334
330
228
100
AcDbEntity
  8
7_ALL_FEATURES
  6
Continuous
 62
     7
100
AcDbLine
 10
100.1378418748
 20
222.854813525
 30
0.0
 11
100.1378418748
 21
220.354813525
 31
0.0
  0
LINE
  5
335
330
228
100
AcDbEntity
  8
7_ALL_FEATURES
  6
Continuous
 62
     7
100
AcDbLine
 10
100.1378418748
 20
217.854813525
 30
0.0
 11
100.1378418748
 21
215.354813525
 31
0.0
  0
LINE
  5
336
330
228
100
AcDbEntity
  8
7_ALL_FEATURES
  6
Continuous
 62
     7
100
AcDbLine
 10
100.1378418748
 20
212.854813525
 30
0.0
 11
100.1378418748
 21
210.354813525
 31
0.0
  0
LINE
  5
337
330
228
100
AcDbEntity
  8
7_ALL_FEATURES
  6
Continuous
 62
     9
100
AcDbLine
 10
100.2703454888
 20
192.104813525
 30
0.0
 11
100.2703454888
 21
192.604813525
 31
0.0
  0
LINE
  5
338
330
228
100
AcDbEntity
  8
02___PRT_ALL_AXES
  6
Continuous
 62
     7
100
AcDbLine
 10
100.5378418748
 20
192.104813525
 30
0.0
 11
100.5378418748
 21
191.724813525
 31
0.0
  0
LINE
  5
339
330
228
100
AcDbEntity
  8
7_ALL_FEATURES
  6
Continuous
 62
     7
100
AcDbLine
 10
100.8623418748
 20
210.354813525
 30
0.0
 11
100.8623418748
 21
207.854813525
 31
0.0
  0
LINE
  5
33A
330
228
100
AcDbEntity
  8
7_ALL_FEATURES
  6
Continuous
 62
     7
100
AcDbLine
 10
100.8623418748
 20
205.354813525
 30
0.0
 11
100.8623418748
 21
202.854813525
 31
0.0
  0
LINE
  5
33B
330
228
100
AcDbEntity
  8
7_ALL_FEATURES
  6
Continuous
 62
     7
100
AcDbLine
 10
100.8623418748
 20
200.354813525
 30
0.0
 11
100.8623418748
 21
197.854813525
 31
0.0
  0
LINE
  5
33C
330
228
100
AcDbEntity
  8
7_ALL_FEATURES
  6
Continuous
 62
     7
100
AcDbLine
 10
100.8623418748
 20
195.354813525
 30
0.0
 11
100.8623418748
 21
193.354813525
 31
0.0
  0
LINE
  5
33D
330
228
100
AcDbEntity
  8
02___PRT_ALL_AXES
  6
Continuous
 62
     7
100
AcDbLine
 10
101.7378418748
 20
238.104813525
 30
0.0
 11
101.7378418748
 21
222.854813525
 31
0.0
  0
LINE
  5
33E
330
228
100
AcDbEntity
  8
02___PRT_ALL_AXES
  6
Continuous
 62
     7
100
AcDbLine
 10
101.7378418748
 20
220.354813525
 30
0.0
 11
101.7378418748
 21
217.854813525
 31
0.0
  0
LINE
  5
33F
330
228
100
AcDbEntity
  8
02___PRT_ALL_AXES
  6
Continuous
 62
     7
100
AcDbLine
 10
101.7378418748
 20
215.354813525
 30
0.0
 11
101.7378418748
 21
212.854813525
 31
0.0
  0
LINE
  5
340
330
228
100
AcDbEntity
  8
7_ALL_FEATURES
  6
Continuous
 62
     7
100
AcDbLine
 10
103.7253671979
 20
207.4928136704
 30
0.0
 11
104.0789205885
 21
207.846367061
 31
0.0
  0
LINE
  5
341
330
228
100
AcDbEntity
  8
7_ALL_FEATURES
  6
Continuous
 62
     7
100
AcDbLine
 10
94.9878418748
 20
197.854813525
 30
0.0
 11
94.7378418748
 21
197.604813525
 31
0.0
  0
LINE
  5
342
330
228
100
AcDbEntity
  8
7_ALL_FEATURES
  6
Continuous
 62
     7
100
AcDbLine
 10
105.1076296295
 20
206.0466489773
 30
0.0
 11
105.4647671161
 21
206.4037864639
 31
0.0
  0
LINE
  5
343
330
228
100
AcDbEntity
  8
7_ALL_FEATURES
  6
Continuous
 62
     7
100
AcDbLine
 10
36.8378418748
 20
247.104813525
 30
0.0
 11
38.0378418748
 21
247.104813525
 31
0.0
  0
LINE
  5
344
330
228
100
AcDbEntity
  8
7_ALL_FEATURES
  6
Continuous
 62
     7
100
AcDbLine
 10
107.4378418748
 20
247.104813525
 30
0.0
 11
108.6378418927
 21
247.104813525
 31
0.0
  0
LINE
  5
345
330
228
100
AcDbEntity
  8
7_ALL_FEATURES
  6
Continuous
 62
     9
100
AcDbLine
 10
36.8378418748
 20
248.804813525
 30
0.0
 11
108.6378418748
 21
248.804813525
 31
0.0
  0
LINE
  5
346
330
228
100
AcDbEntity
  8
02___PRT_ALL_AXES
  6
Continuous
 62
     7
100
AcDbLine
 10
30.8378418748
 20
249.104813525
 30
0.0
 11
114.6378418748
 21
249.104813525
 31
0.0
  0
LINE
  5
347
330
228
100
AcDbEntity
  8
7_ALL_FEATURES
  6
Continuous
 62
     7
100
AcDbLine
 10
114.6378418748
 20
250.104813525
 30
0.0
 11
30.8378418748
 21
250.104813525
 31
0.0
  0
LINE
  5
348
330
228
100
AcDbEntity
  8
7_ALL_FEATURES
  6
Continuous
 62
     7
100
AcDbLine
 10
107.4378418748
 20
239.604813525
 30
0.0
 11
107.4378418748
 21
247.104813525
 31
0.0
  0
LINE
  5
349
330
228
100
AcDbEntity
  8
02___PRT_ALL_AXES
  6
Continuous
 62
     7
100
AcDbLine
 10
108.6378418748
 20
247.104813525
 30
0.0
 11
108.6378418748
 21
248.804813525
 31
0.0
  0
LINE
  5
34A
330
228
100
AcDbEntity
  8
7_ALL_FEATURES
  6
Continuous
 62
     7
100
AcDbLine
 10
43.0935098828
 20
251.004813525
 30
0.0
 11
30.8378418748
 21
250.104813525
 31
0.0
  0
LINE
  5
34B
330
228
100
AcDbEntity
  8
7_ALL_FEATURES
  6
Continuous
 62
     7
100
AcDbLine
 10
102.3821738668
 20
251.004813525
 30
0.0
 11
43.0935098828
 21
251.004813525
 31
0.0
  0
LINE
  5
34C
330
228
100
AcDbEntity
  8
7_ALL_FEATURES
  6
Continuous
 62
     7
100
AcDbLine
 10
102.3821738668
 20
251.004813525
 30
0.0
 11
114.6378418748
 21
250.104813525
 31
0.0
  0
LINE
  5
34D
330
228
100
AcDbEntity
  8
7_ALL_FEATURES
  6
Continuous
 62
     7
100
AcDbLine
 10
105.4352606342
 20
201.8271148644
 30
0.0
 11
100.8025519887
 21
192.927764357
 31
0.0
  0
LINE
  5
34E
330
228
100
AcDbEntity
  8
7_ALL_FEATURES
  6
Continuous
 62
     7
100
AcDbLine
 10
105.8787660508
 20
201.5962405578
 30
0.0
 11
101.2460574053
 21
192.6968900504
 31
0.0
  0
LINE
  5
34F
330
228
100
AcDbEntity
  8
7_ALL_FEATURES
  6
Continuous
 62
     7
100
AcDbLine
 10
100.8623418748
 20
193.354813525
 30
0.0
 11
100.1123418748
 21
192.604813525
 31
0.0
  0
LINE
  5
350
330
228
100
AcDbEntity
  8
7_ALL_FEATURES
  6
Continuous
 62
     7
100
AcDbLine
 10
114.6378418748
 20
250.104813525
 30
0.0
 11
114.6378418748
 21
249.104813525
 31
0.0
  0
LINE
  5
351
330
228
100
AcDbEntity
  8
02___PRT_ALL_AXES
  6
Continuous
 62
     7
100
AcDbLine
 10
114.6378418748
 20
249.104813525
 30
0.0
 11
114.6378418748
 21
250.104813525
 31
0.0
  0
LINE
  5
352
330
228
100
AcDbEntity
  8
02___PRT_ALL_AXES
  6
Continuous
 62
     7
100
AcDbLine
 10
162.7278257979
 20
249.104813525
 30
0.0
 11
162.7278257979
 21
250.104813525
 31
0.0
  0
LINE
  5
353
330
228
100
AcDbEntity
  8
02___PRT_ALL_AXES
  6
Continuous
 62
     7
100
AcDbLine
 10
168.7278257979
 20
239.6048172841
 30
0.0
 11
168.7278257979
 21
248.804813525
 31
0.0
  0
LINE
  5
354
330
228
100
AcDbEntity
  8
7_ALL_FEATURES
  6
Continuous
 62
     7
100
AcDbLine
 10
176.377870146
 20
192.604813525
 30
0.0
 11
175.6278257979
 21
193.3548520973
 31
0.0
  0
LINE
  5
355
330
228
100
AcDbEntity
  8
02___PRT_ALL_AXES
  6
Continuous
 62
     7
100
AcDbLine
 10
208.1278257979
 20
184.104813525
 30
0.0
 11
215.1278257979
 21
184.104813525
 31
0.0
  0
LINE
  5
356
330
228
100
AcDbEntity
  8
7_ALL_FEATURES
  6
Continuous
 62
     7
100
AcDbLine
 10
208.1278257979
 20
184.104813525
 30
0.0
 11
215.1278257979
 21
184.104813525
 31
0.0
  0
LINE
  5
357
330
228
100
AcDbEntity
  8
02___PRT_ALL_AXES
  6
Continuous
 62
     7
100
AcDbLine
 10
175.6278257979
 20
238.104813525
 30
0.0
 11
175.6278257979
 21
222.854813525
 31
0.0
  0
LINE
  5
358
330
228
100
AcDbEntity
  8
02___PRT_ALL_AXES
  6
Continuous
 62
     7
100
AcDbLine
 10
175.6278257979
 20
220.354813525
 30
0.0
 11
175.6278257979
 21
217.854813525
 31
0.0
  0
LINE
  5
359
330
228
100
AcDbEntity
  8
02___PRT_ALL_AXES
  6
Continuous
 62
     7
100
AcDbLine
 10
175.6278257979
 20
215.354813525
 30
0.0
 11
175.6278257979
 21
212.854813525
 31
0.0
  0
LINE
  5
35A
330
228
100
AcDbEntity
  8
02___PRT_ALL_AXES
  6
Continuous
 62
     7
100
AcDbLine
 10
175.6278257979
 20
210.354813525
 30
0.0
 11
175.6278257979
 21
207.854813525
 31
0.0
  0
LINE
  5
35B
330
228
100
AcDbEntity
  8
02___PRT_ALL_AXES
  6
Continuous
 62
     7
100
AcDbLine
 10
175.6278257979
 20
205.354813525
 30
0.0
 11
175.6278257979
 21
202.854813525
 31
0.0
  0
LINE
  5
35C
330
228
100
AcDbEntity
  8
02___PRT_ALL_AXES
  6
Continuous
 62
     7
100
AcDbLine
 10
175.6278257979
 20
200.354813525
 30
0.0
 11
175.6278257979
 21
197.854813525
 31
0.0
  0
LINE
  5
35D
330
228
100
AcDbEntity
  8
02___PRT_ALL_AXES
  6
Continuous
 62
     7
100
AcDbLine
 10
175.6278257979
 20
195.354813525
 30
0.0
 11
175.6278257979
 21
193.3548520974
 31
0.0
  0
LINE
  5
35E
330
228
100
AcDbEntity
  8
02___PRT_ALL_AXES
  6
Continuous
 62
     9
100
AcDbLine
 10
204.6278257979
 20
187.604813525
 30
0.0
 11
205.1278257979
 21
187.604813525
 31
0.0
  0
LINE
  5
35F
330
228
100
AcDbEntity
  8
02___PRT_ALL_AXES
  6
Continuous
 62
     9
100
AcDbLine
 10
206.1278257979
 20
187.604813525
 30
0.0
 11
210.6278257979
 21
187.604813525
 31
0.0
  0
LINE
  5
360
330
228
100
AcDbEntity
  8
02___PRT_ALL_AXES
  6
Continuous
 62
     9
100
AcDbLine
 10
212.6278257979
 20
187.604813525
 30
0.0
 11
217.1278257979
 21
187.604813525
 31
0.0
  0
LINE
  5
361
330
228
100
AcDbEntity
  8
02___PRT_ALL_AXES
  6
Continuous
 62
     9
100
AcDbLine
 10
218.1278257979
 20
187.604813525
 30
0.0
 11
218.6278257979
 21
187.604813525
 31
0.0
  0
LINE
  5
362
330
228
100
AcDbEntity
  8
02___PRT_ALL_AXES
  6
Continuous
 62
     7
100
AcDbLine
 10
204.6278257979
 20
188.104813525
 30
0.0
 11
205.1278257979
 21
188.104813525
 31
0.0
  0
LINE
  5
363
330
228
100
AcDbEntity
  8
02___PRT_ALL_AXES
  6
Continuous
 62
     7
100
AcDbLine
 10
206.1278257979
 20
188.104813525
 30
0.0
 11
210.6278257979
 21
188.104813525
 31
0.0
  0
LINE
  5
364
330
228
100
AcDbEntity
  8
02___PRT_ALL_AXES
  6
Continuous
 62
     7
100
AcDbLine
 10
212.6278257979
 20
188.104813525
 30
0.0
 11
217.1278257979
 21
188.104813525
 31
0.0
  0
LINE
  5
365
330
228
100
AcDbEntity
  8
02___PRT_ALL_AXES
  6
Continuous
 62
     7
100
AcDbLine
 10
218.1278257979
 20
188.104813525
 30
0.0
 11
218.6278257979
 21
188.104813525
 31
0.0
  0
LINE
  5
366
330
228
100
AcDbEntity
  8
7_ALL_FEATURES
  6
Continuous
 62
     7
100
AcDbLine
 10
177.2278257979
 20
222.854813525
 30
0.0
 11
177.2278257979
 21
220.354813525
 31
0.0
  0
LINE
  5
367
330
228
100
AcDbEntity
  8
7_ALL_FEATURES
  6
Continuous
 62
     7
100
AcDbLine
 10
177.2278257979
 20
217.854813525
 30
0.0
 11
177.2278257979
 21
215.354813525
 31
0.0
  0
LINE
  5
368
330
228
100
AcDbEntity
  8
7_ALL_FEATURES
  6
Continuous
 62
     7
100
AcDbLine
 10
177.2278257979
 20
212.854813525
 30
0.0
 11
177.2278257979
 21
210.354813525
 31
0.0
  0
LINE
  5
369
330
228
100
AcDbEntity
  8
02___PRT_ALL_AXES
  6
Continuous
 62
     7
100
AcDbLine
 10
202.6628601433
 20
189.904813525
 30
0.0
 11
206.5927914524
 21
189.904813525
 31
0.0
  0
LINE
  5
36A
330
228
100
AcDbEntity
  8
02___PRT_ALL_AXES
  6
Continuous
 62
     7
100
AcDbLine
 10
200.8278257979
 20
191.724813525
 30
0.0
 11
208.4278257979
 21
191.724813525
 31
0.0
  0
LINE
  5
36B
330
228
100
AcDbEntity
  8
7_ALL_FEATURES
  6
Continuous
 62
     7
100
AcDbLine
 10
199.1278257979
 20
192.104813525
 30
0.0
 11
203.2464302356
 21
192.104813525
 31
0.0
  0
LINE
  5
36C
330
228
100
AcDbEntity
  8
02___PRT_ALL_AXES
  6
Continuous
 62
     7
100
AcDbLine
 10
203.2464302356
 20
192.104813525
 30
0.0
 11
206.0092213602
 21
192.104813525
 31
0.0
  0
LINE
  5
36D
330
228
100
AcDbEntity
  8
7_ALL_FEATURES
  6
Continuous
 62
     7
100
AcDbLine
 10
206.0092213602
 20
192.104813525
 30
0.0
 11
210.1278257979
 21
192.104813525
 31
0.0
  0
LINE
  5
36E
330
228
100
AcDbEntity
  8
7_ALL_FEATURES
  6
Continuous
 62
     7
100
AcDbLine
 10
232.8777561011
 20
192.604813525
 30
0.0
 11
210.1278257979
 21
192.604813525
 31
0.0
  0
LINE
  5
36F
330
228
100
AcDbEntity
  8
7_ALL_FEATURES
  6
Continuous
 62
     7
100
AcDbLine
 10
199.1278257979
 20
192.604813525
 30
0.0
 11
176.3778702042
 21
192.604813525
 31
0.0
  0
LINE
  5
370
330
228
100
AcDbEntity
  8
7_ALL_FEATURES
  6
Continuous
 62
     9
100
AcDbLine
 10
199.1278257979
 20
192.6968900504
 30
0.0
 11
210.1278257979
 21
192.6968900504
 31
0.0
  0
LINE
  5
371
330
228
100
AcDbEntity
  8
7_ALL_FEATURES
  6
Continuous
 62
     7
100
AcDbLine
 10
180.6278257979
 20
207.854813525
 30
0.0
 11
180.6278257979
 21
205.354813525
 31
0.0
  0
LINE
  5
372
330
228
100
AcDbEntity
  8
7_ALL_FEATURES
  6
Continuous
 62
     7
100
AcDbLine
 10
182.6278257979
 20
202.854813525
 30
0.0
 11
182.6278257979
 21
200.354813525
 31
0.0
  0
LINE
  5
373
330
228
100
AcDbEntity
  8
7_ALL_FEATURES
  6
Continuous
 62
     7
100
AcDbLine
 10
183.6278257979
 20
197.854813525
 30
0.0
 11
183.6278257979
 21
195.354813525
 31
0.0
  0
LINE
  5
374
330
228
100
AcDbEntity
  8
7_ALL_FEATURES
  6
Continuous
 62
     7
100
AcDbLine
 10
233.6278257977
 20
193.3548775527
 30
0.0
 11
210.1278257979
 21
193.354813525
 31
0.0
  0
LINE
  5
375
330
228
100
AcDbEntity
  8
7_ALL_FEATURES
  6
Continuous
 62
     7
100
AcDbLine
 10
199.1278257979
 20
193.354813525
 30
0.0
 11
175.6278257979
 21
193.3548520974
 31
0.0
  0
LINE
  5
376
330
228
100
AcDbEntity
  8
7_ALL_FEATURES
  6
Continuous
 62
     7
100
AcDbLine
 10
175.6278257979
 20
195.354813525
 30
0.0
 11
199.1278257979
 21
195.354813525
 31
0.0
  0
LINE
  5
377
330
228
100
AcDbEntity
  8
7_ALL_FEATURES
  6
Continuous
 62
     7
100
AcDbLine
 10
210.1278257979
 20
195.354813525
 30
0.0
 11
233.6278257979
 21
195.354813525
 31
0.0
  0
LINE
  5
378
330
228
100
AcDbEntity
  8
7_ALL_FEATURES
  6
Continuous
 62
     7
100
AcDbLine
 10
175.6278257979
 20
197.854813525
 30
0.0
 11
199.1278257979
 21
197.854813525
 31
0.0
  0
LINE
  5
379
330
228
100
AcDbEntity
  8
7_ALL_FEATURES
  6
Continuous
 62
     7
100
AcDbLine
 10
210.1278257979
 20
197.854813525
 30
0.0
 11
233.6278257979
 21
197.854813525
 31
0.0
  0
LINE
  5
37A
330
228
100
AcDbEntity
  8
02___PRT_ALL_AXES
  6
Continuous
 62
     7
100
AcDbLine
 10
204.6278257979
 20
188.104813525
 30
0.0
 11
203.6278257979
 21
189.104813525
 31
0.0
  0
LINE
  5
37B
330
228
100
AcDbEntity
  8
7_ALL_FEATURES
  6
Continuous
 62
     7
100
AcDbLine
 10
175.6278257979
 20
200.354813525
 30
0.0
 11
199.1278257979
 21
200.354813525
 31
0.0
  0
LINE
  5
37C
330
228
100
AcDbEntity
  8
7_ALL_FEATURES
  6
Continuous
 62
     7
100
AcDbLine
 10
210.1278257979
 20
200.354813525
 30
0.0
 11
233.6278257979
 21
200.354813525
 31
0.0
  0
LINE
  5
37D
330
228
100
AcDbEntity
  8
7_ALL_FEATURES
  6
Continuous
 62
     9
100
AcDbLine
 10
199.1278257979
 20
201.5962405578
 30
0.0
 11
210.1278257979
 21
201.5962405578
 31
0.0
  0
LINE
  5
37E
330
228
100
AcDbEntity
  8
7_ALL_FEATURES
  6
Continuous
 62
     7
100
AcDbLine
 10
175.6278257979
 20
202.854813525
 30
0.0
 11
199.1278257979
 21
202.854813525
 31
0.0
  0
LINE
  5
37F
330
228
100
AcDbEntity
  8
7_ALL_FEATURES
  6
Continuous
 62
     7
100
AcDbLine
 10
210.1278257979
 20
202.854813525
 30
0.0
 11
233.6278257979
 21
202.854813525
 31
0.0
  0
LINE
  5
380
330
228
100
AcDbEntity
  8
7_ALL_FEATURES
  6
Continuous
 62
     7
100
AcDbLine
 10
175.6278257979
 20
205.354813525
 30
0.0
 11
199.1278257979
 21
205.354813525
 31
0.0
  0
LINE
  5
381
330
228
100
AcDbEntity
  8
7_ALL_FEATURES
  6
Continuous
 62
     7
100
AcDbLine
 10
210.1278257979
 20
205.354813525
 30
0.0
 11
233.6278257979
 21
205.354813525
 31
0.0
  0
LINE
  5
382
330
228
100
AcDbEntity
  8
7_ALL_FEATURES
  6
Continuous
 62
     9
100
AcDbLine
 10
199.7273623111
 20
206.8560898327
 30
0.0
 11
209.5282892847
 21
206.8560898327
 31
0.0
  0
LINE
  5
383
330
228
100
AcDbEntity
  8
7_ALL_FEATURES
  6
Continuous
 62
     7
100
AcDbLine
 10
195.4234789987
 20
239.604813525
 30
0.0
 11
195.4234789987
 21
247.104813525
 31
0.0
  0
LINE
  5
384
330
228
100
AcDbEntity
  8
7_ALL_FEATURES
  6
Continuous
 62
     7
100
AcDbLine
 10
197.5558741754
 20
210.354813525
 30
0.0
 11
197.5558741754
 21
207.854813525
 31
0.0
  0
LINE
  5
385
330
228
100
AcDbEntity
  8
7_ALL_FEATURES
  6
Continuous
 62
     7
100
AcDbLine
 10
197.5558741754
 20
205.354813525
 30
0.0
 11
197.5558741754
 21
202.854813525
 31
0.0
  0
LINE
  5
386
330
228
100
AcDbEntity
  8
7_ALL_FEATURES
  6
Continuous
 62
     7
100
AcDbLine
 10
197.5558741754
 20
200.354813525
 30
0.0
 11
197.5558741754
 21
197.854813525
 31
0.0
  0
LINE
  5
387
330
228
100
AcDbEntity
  8
7_ALL_FEATURES
  6
Continuous
 62
     7
100
AcDbLine
 10
197.5558741754
 20
195.354813525
 30
0.0
 11
197.5558741754
 21
193.354813525
 31
0.0
  0
LINE
  5
388
330
228
100
AcDbEntity
  8
7_ALL_FEATURES
  6
Continuous
 62
     7
100
AcDbLine
 10
208.1278257979
 20
207.846367061
 30
0.0
 11
201.1278257979
 21
207.846367061
 31
0.0
  0
LINE
  5
389
330
228
100
AcDbEntity
  8
7_ALL_FEATURES
  6
Continuous
 62
     7
100
AcDbLine
 10
175.6278257979
 20
207.854813525
 30
0.0
 11
233.6278257979
 21
207.854813525
 31
0.0
  0
LINE
  5
38A
330
228
100
AcDbEntity
  8
7_ALL_FEATURES
  6
Continuous
 62
     7
100
AcDbLine
 10
175.6278257979
 20
210.354813525
 30
0.0
 11
233.6278257979
 21
210.354813525
 31
0.0
  0
LINE
  5
38B
330
228
100
AcDbEntity
  8
7_ALL_FEATURES
  6
Continuous
 62
     7
100
AcDbLine
 10
169.2278295783
 20
239.104813525
 30
0.0
 11
168.7278257898
 21
239.6048172841
 31
0.0
  0
LINE
  5
38C
330
228
100
AcDbEntity
  8
7_ALL_FEATURES
  6
Continuous
 62
     7
100
AcDbLine
 10
172.127825798
 20
238.6048135248
 30
0.0
 11
171.627825798
 21
239.1048135248
 31
0.0
  0
LINE
  5
38D
330
228
100
AcDbEntity
  8
7_ALL_FEATURES
  6
Continuous
 62
     7
100
AcDbLine
 10
199.1278257979
 20
206.4037864639
 30
0.0
 11
199.1278257979
 21
192.104813525
 31
0.0
  0
LINE
  5
38E
330
228
100
AcDbEntity
  8
02___PRT_ALL_AXES
  6
Continuous
 62
     7
100
AcDbLine
 10
200.8278257979
 20
192.104813525
 30
0.0
 11
200.8278257979
 21
191.724813525
 31
0.0
  0
LINE
  5
38F
330
228
100
AcDbEntity
  8
7_ALL_FEATURES
  6
Continuous
 62
     7
100
AcDbLine
 10
233.6278257979
 20
212.854813525
 30
0.0
 11
175.6278257979
 21
212.854813525
 31
0.0
  0
LINE
  5
390
330
228
100
AcDbEntity
  8
7_ALL_FEATURES
  6
Continuous
 62
     7
100
AcDbLine
 10
209.5282892847
 20
206.8560898327
 30
0.0
 11
208.1278257979
 21
207.846367061
 31
0.0
  0
LINE
  5
391
330
228
100
AcDbEntity
  8
7_ALL_FEATURES
  6
Continuous
 62
     7
100
AcDbLine
 10
175.6278257979
 20
238.104813525
 30
0.0
 11
175.1278257979
 21
238.604813525
 31
0.0
  0
LINE
  5
392
330
228
100
AcDbEntity
  8
02___PRT_ALL_AXES
  6
Continuous
 62
     7
100
AcDbLine
 10
203.6278257979
 20
189.904813525
 30
0.0
 11
203.6278257979
 21
189.104813525
 31
0.0
  0
LINE
  5
393
330
228
100
AcDbEntity
  8
02___PRT_ALL_AXES
  6
Continuous
 62
     7
100
AcDbLine
 10
204.6278257979
 20
187.604813525
 30
0.0
 11
204.6278257979
 21
188.104813525
 31
0.0
  0
LINE
  5
394
330
228
100
AcDbEntity
  8
7_ALL_FEATURES
  6
Continuous
 62
     7
100
AcDbLine
 10
233.6278257979
 20
215.354813525
 30
0.0
 11
175.6278257979
 21
215.354813525
 31
0.0
  0
LINE
  5
395
330
228
100
AcDbEntity
  8
7_ALL_FEATURES
  6
Continuous
 62
     7
100
AcDbLine
 10
233.6278257979
 20
217.854813525
 30
0.0
 11
175.6278257979
 21
217.854813525
 31
0.0
  0
LINE
  5
396
330
228
100
AcDbEntity
  8
02___PRT_ALL_AXES
  6
Continuous
 62
     7
100
AcDbLine
 10
205.1278257979
 20
187.604813525
 30
0.0
 11
205.1278257979
 21
188.104813525
 31
0.0
  0
LINE
  5
397
330
228
100
AcDbEntity
  8
02___PRT_ALL_AXES
  6
Continuous
 62
     7
100
AcDbLine
 10
206.1278257979
 20
187.604813525
 30
0.0
 11
206.1278257979
 21
188.104813525
 31
0.0
  0
LINE
  5
398
330
228
100
AcDbEntity
  8
02___PRT_ALL_AXES
  6
Continuous
 62
     7
100
AcDbLine
 10
207.6278257979
 20
190.6488968656
 30
0.0
 11
207.6278257979
 21
189.104813525
 31
0.0
  0
LINE
  5
399
330
228
100
AcDbEntity
  8
02___PRT_ALL_AXES
  6
Continuous
 62
     7
100
AcDbLine
 10
208.4278257979
 20
192.104813525
 30
0.0
 11
208.4278257979
 21
191.724813525
 31
0.0
  0
LINE
  5
39A
330
228
100
AcDbEntity
  8
7_ALL_FEATURES
  6
Continuous
 62
     7
100
AcDbLine
 10
233.6278257979
 20
220.354813525
 30
0.0
 11
175.6278257979
 21
220.354813525
 31
0.0
  0
LINE
  5
39B
330
228
100
AcDbEntity
  8
7_ALL_FEATURES
  6
Continuous
 62
     7
100
AcDbLine
 10
210.1278257979
 20
192.104813525
 30
0.0
 11
210.1278257979
 21
206.4037864639
 31
0.0
  0
LINE
  5
39C
330
228
100
AcDbEntity
  8
02___PRT_ALL_AXES
  6
Continuous
 62
     7
100
AcDbLine
 10
210.6278257979
 20
187.604813525
 30
0.0
 11
210.6278257979
 21
188.104813525
 31
0.0
  0
LINE
  5
39D
330
228
100
AcDbEntity
  8
7_ALL_FEATURES
  6
Continuous
 62
     7
100
AcDbLine
 10
211.6997774203
 20
210.354813525
 30
0.0
 11
211.6997774203
 21
207.854813525
 31
0.0
  0
LINE
  5
39E
330
228
100
AcDbEntity
  8
7_ALL_FEATURES
  6
Continuous
 62
     7
100
AcDbLine
 10
211.6997774203
 20
205.354813525
 30
0.0
 11
211.6997774203
 21
202.854813525
 31
0.0
  0
LINE
  5
39F
330
228
100
AcDbEntity
  8
7_ALL_FEATURES
  6
Continuous
 62
     7
100
AcDbLine
 10
211.6997774203
 20
200.354813525
 30
0.0
 11
211.6997774203
 21
197.854813525
 31
0.0
  0
LINE
  5
3A0
330
228
100
AcDbEntity
  8
7_ALL_FEATURES
  6
Continuous
 62
     7
100
AcDbLine
 10
211.6997774203
 20
195.354813525
 30
0.0
 11
211.6997774203
 21
193.354813525
 31
0.0
  0
LINE
  5
3A1
330
228
100
AcDbEntity
  8
7_ALL_FEATURES
  6
Continuous
 62
     7
100
AcDbLine
 10
233.6278257979
 20
238.104813525
 30
0.0
 11
234.1278257979
 21
238.604813525
 31
0.0
  0
LINE
  5
3A2
330
228
100
AcDbEntity
  8
7_ALL_FEATURES
  6
Continuous
 62
     7
100
AcDbLine
 10
201.1278257979
 20
207.846367061
 30
0.0
 11
199.7273623111
 21
206.8560898327
 31
0.0
  0
LINE
  5
3A3
330
228
100
AcDbEntity
  8
7_ALL_FEATURES
  6
Continuous
 62
     7
100
AcDbLine
 10
233.6278257979
 20
222.854813525
 30
0.0
 11
175.6278257979
 21
222.854813525
 31
0.0
  0
LINE
  5
3A4
330
228
100
AcDbEntity
  8
02___PRT_ALL_AXES
  6
Continuous
 62
     7
100
AcDbLine
 10
212.6278257979
 20
187.604813525
 30
0.0
 11
212.6278257979
 21
188.104813525
 31
0.0
  0
LINE
  5
3A5
330
228
100
AcDbEntity
  8
7_ALL_FEATURES
  6
Continuous
 62
     7
100
AcDbLine
 10
213.8321725971
 20
239.604813525
 30
0.0
 11
213.8321725971
 21
247.104813525
 31
0.0
  0
LINE
  5
3A6
330
228
100
AcDbEntity
  8
02___PRT_ALL_AXES
  6
Continuous
 62
     7
100
AcDbLine
 10
215.6278257979
 20
192.604813525
 30
0.0
 11
215.6278257979
 21
189.104813525
 31
0.0
  0
LINE
  5
3A7
330
228
100
AcDbEntity
  8
7_ALL_FEATURES
  6
Continuous
 62
     7
100
AcDbLine
 10
237.1278257977
 20
238.6048135248
 30
0.0
 11
237.6278257977
 21
239.1048135248
 31
0.0
  0
LINE
  5
3A8
330
228
100
AcDbEntity
  8
7_ALL_FEATURES
  6
Continuous
 62
     7
100
AcDbLine
 10
240.0278284739
 20
239.104813525
 30
0.0
 11
240.5278257871
 21
239.6048108016
 31
0.0
  0
LINE
  5
3A9
330
228
100
AcDbEntity
  8
02___PRT_ALL_AXES
  6
Continuous
 62
     7
100
AcDbLine
 10
217.1278257979
 20
187.604813525
 30
0.0
 11
217.1278257979
 21
188.104813525
 31
0.0
  0
LINE
  5
3AA
330
228
100
AcDbEntity
  8
02___PRT_ALL_AXES
  6
Continuous
 62
     7
100
AcDbLine
 10
218.1278257979
 20
187.604813525
 30
0.0
 11
218.1278257979
 21
188.104813525
 31
0.0
  0
LINE
  5
3AB
330
228
100
AcDbEntity
  8
02___PRT_ALL_AXES
  6
Continuous
 62
     7
100
AcDbLine
 10
218.6278257979
 20
187.604813525
 30
0.0
 11
218.6278257979
 21
188.104813525
 31
0.0
  0
LINE
  5
3AC
330
228
100
AcDbEntity
  8
02___PRT_ALL_AXES
  6
Continuous
 62
     7
100
AcDbLine
 10
219.6278257979
 20
192.604813525
 30
0.0
 11
219.6278257979
 21
189.104813525
 31
0.0
  0
LINE
  5
3AD
330
228
100
AcDbEntity
  8
7_ALL_FEATURES
  6
Continuous
 62
     7
100
AcDbLine
 10
225.6278257979
 20
197.854813525
 30
0.0
 11
225.6278257979
 21
195.354813525
 31
0.0
  0
LINE
  5
3AE
330
228
100
AcDbEntity
  8
7_ALL_FEATURES
  6
Continuous
 62
     7
100
AcDbLine
 10
233.6278257979
 20
238.104813525
 30
0.0
 11
175.6278257979
 21
238.104813525
 31
0.0
  0
LINE
  5
3AF
330
228
100
AcDbEntity
  8
7_ALL_FEATURES
  6
Continuous
 62
     7
100
AcDbLine
 10
172.1278257979
 20
238.604813525
 30
0.0
 11
237.1278257978
 21
238.604813525
 31
0.0
  0
LINE
  5
3B0
330
228
100
AcDbEntity
  8
7_ALL_FEATURES
  6
Continuous
 62
     7
100
AcDbLine
 10
240.0275291571
 20
239.104813525
 30
0.0
 11
169.2281288916
 21
239.104813525
 31
0.0
  0
LINE
  5
3B1
330
228
100
AcDbEntity
  8
7_ALL_FEATURES
  6
Continuous
 62
     7
100
AcDbLine
 10
226.6278257979
 20
202.854813525
 30
0.0
 11
226.6278257979
 21
200.354813525
 31
0.0
  0
LINE
  5
3B2
330
228
100
AcDbEntity
  8
7_ALL_FEATURES
  6
Continuous
 62
     7
100
AcDbLine
 10
228.6278257979
 20
207.854813525
 30
0.0
 11
228.6278257979
 21
205.354813525
 31
0.0
  0
LINE
  5
3B3
330
228
100
AcDbEntity
  8
7_ALL_FEATURES
  6
Continuous
 62
     7
100
AcDbLine
 10
168.7278257979
 20
239.604817276
 30
0.0
 11
240.5278257979
 21
239.6048108124
 31
0.0
  0
LINE
  5
3B4
330
228
100
AcDbEntity
  8
7_ALL_FEATURES
  6
Continuous
 62
     7
100
AcDbLine
 10
232.0278257979
 20
222.854813525
 30
0.0
 11
232.0278257979
 21
220.354813525
 31
0.0
  0
LINE
  5
3B5
330
228
100
AcDbEntity
  8
7_ALL_FEATURES
  6
Continuous
 62
     7
100
AcDbLine
 10
232.0278257979
 20
217.854813525
 30
0.0
 11
232.0278257979
 21
215.354813525
 31
0.0
  0
LINE
  5
3B6
330
228
100
AcDbEntity
  8
7_ALL_FEATURES
  6
Continuous
 62
     7
100
AcDbLine
 10
232.0278257979
 20
212.854813525
 30
0.0
 11
232.0278257979
 21
210.354813525
 31
0.0
  0
LINE
  5
3B7
330
228
100
AcDbEntity
  8
02___PRT_ALL_AXES
  6
Continuous
 62
     7
100
AcDbLine
 10
233.6278257979
 20
238.104813525
 30
0.0
 11
233.6278257979
 21
222.854813525
 31
0.0
  0
LINE
  5
3B8
330
228
100
AcDbEntity
  8
02___PRT_ALL_AXES
  6
Continuous
 62
     7
100
AcDbLine
 10
233.6278257979
 20
220.354813525
 30
0.0
 11
233.6278257979
 21
217.854813525
 31
0.0
  0
LINE
  5
3B9
330
228
100
AcDbEntity
  8
02___PRT_ALL_AXES
  6
Continuous
 62
     7
100
AcDbLine
 10
233.6278257979
 20
215.354813525
 30
0.0
 11
233.6278257979
 21
212.854813525
 31
0.0
  0
LINE
  5
3BA
330
228
100
AcDbEntity
  8
02___PRT_ALL_AXES
  6
Continuous
 62
     7
100
AcDbLine
 10
233.6278257979
 20
210.354813525
 30
0.0
 11
233.6278257979
 21
207.854813525
 31
0.0
  0
LINE
  5
3BB
330
228
100
AcDbEntity
  8
02___PRT_ALL_AXES
  6
Continuous
 62
     7
100
AcDbLine
 10
233.6278257979
 20
205.354813525
 30
0.0
 11
233.6278257979
 21
202.854813525
 31
0.0
  0
LINE
  5
3BC
330
228
100
AcDbEntity
  8
02___PRT_ALL_AXES
  6
Continuous
 62
     7
100
AcDbLine
 10
233.6278257979
 20
200.354813525
 30
0.0
 11
233.6278257979
 21
197.854813525
 31
0.0
  0
LINE
  5
3BD
330
228
100
AcDbEntity
  8
02___PRT_ALL_AXES
  6
Continuous
 62
     7
100
AcDbLine
 10
233.6278257979
 20
195.354813525
 30
0.0
 11
233.6278257979
 21
193.354877553
 31
0.0
  0
LINE
  5
3BE
330
228
100
AcDbEntity
  8
7_ALL_FEATURES
  6
Continuous
 62
     7
100
AcDbLine
 10
233.6278257979
 20
212.854813525
 30
0.0
 11
233.6278257979
 21
215.354813525
 31
0.0
  0
LINE
  5
3BF
330
228
100
AcDbEntity
  8
7_ALL_FEATURES
  6
Continuous
 62
     7
100
AcDbLine
 10
233.6278257979
 20
217.854813525
 30
0.0
 11
233.6278257979
 21
220.354813525
 31
0.0
  0
LINE
  5
3C0
330
228
100
AcDbEntity
  8
7_ALL_FEATURES
  6
Continuous
 62
     7
100
AcDbLine
 10
233.6278257979
 20
222.854813525
 30
0.0
 11
233.6278257979
 21
238.104813525
 31
0.0
  0
LINE
  5
3C1
330
228
100
AcDbEntity
  8
02___PRT_ALL_AXES
  6
Continuous
 62
     7
100
AcDbLine
 10
218.6278257979
 20
188.104813525
 30
0.0
 11
219.6278257979
 21
189.104813525
 31
0.0
  0
LINE
  5
3C2
330
228
100
AcDbEntity
  8
7_ALL_FEATURES
  6
Continuous
 62
     7
100
AcDbLine
 10
195.4234789987
 20
247.104813525
 30
0.0
 11
213.8321725971
 21
247.104813525
 31
0.0
  0
LINE
  5
3C3
330
228
100
AcDbEntity
  8
7_ALL_FEATURES
  6
Continuous
 62
     9
100
AcDbLine
 10
168.7278257979
 20
248.804813525
 30
0.0
 11
240.5278257979
 21
248.804813525
 31
0.0
  0
LINE
  5
3C4
330
228
100
AcDbEntity
  8
02___PRT_ALL_AXES
  6
Continuous
 62
     7
100
AcDbLine
 10
162.727889501
 20
249.104813525
 30
0.0
 11
246.5277620947
 21
249.104813525
 31
0.0
  0
LINE
  5
3C5
330
228
100
AcDbEntity
  8
7_ALL_FEATURES
  6
Continuous
 62
     7
100
AcDbLine
 10
246.5278257979
 20
250.104813525
 30
0.0
 11
162.7278257979
 21
250.104813525
 31
0.0
  0
LINE
  5
3C6
330
228
100
AcDbEntity
  8
02___PRT_ALL_AXES
  6
Continuous
 62
     7
100
AcDbLine
 10
240.5278257979
 20
239.6048108016
 30
0.0
 11
240.5278257979
 21
248.804813525
 31
0.0
  0
LINE
  5
3C7
330
228
100
AcDbEntity
  8
7_ALL_FEATURES
  6
Continuous
 62
     7
100
AcDbLine
 10
174.9834938059
 20
251.004813525
 30
0.0
 11
162.7278257979
 21
250.104813525
 31
0.0
  0
LINE
  5
3C8
330
228
100
AcDbEntity
  8
7_ALL_FEATURES
  6
Continuous
 62
     7
100
AcDbLine
 10
234.2718136328
 20
251.004813525
 30
0.0
 11
174.9838379629
 21
251.004813525
 31
0.0
  0
LINE
  5
3C9
330
228
100
AcDbEntity
  8
7_ALL_FEATURES
  6
Continuous
 62
     7
100
AcDbLine
 10
234.2721577899
 20
251.004813525
 30
0.0
 11
246.5278257979
 21
250.104813525
 31
0.0
  0
LINE
  5
3CA
330
228
100
AcDbEntity
  8
7_ALL_FEATURES
  6
Continuous
 62
     7
100
AcDbLine
 10
232.8777561672
 20
192.604813525
 30
0.0
 11
233.6278257977
 21
193.3548775526
 31
0.0
  0
LINE
  5
3CB
330
228
100
AcDbEntity
  8
02___PRT_ALL_AXES
  6
Continuous
 62
     7
100
AcDbLine
 10
246.5278257979
 20
249.104813525
 30
0.0
 11
246.5278257979
 21
250.104813525
 31
0.0
  0
LINE
  5
3CC
330
228
100
AcDbEntity
  8
02___PRT_ALL_AXES
  6
Continuous
 62
     7
100
AcDbLine
 10
290.293572715
 20
151.0763919178
 30
0.0
 11
290.2696345106
 21
152.0373718141
 31
0.0
  0
LINE
  5
3CD
330
228
100
AcDbEntity
  8
7_ALL_FEATURES
  6
Continuous
 62
     7
100
AcDbLine
 10
306.5385308591
 20
94.259779456
 30
0.0
 11
312.0952266625
 21
91.7710130654
 31
0.0
  0
LINE
  5
3CE
330
228
100
AcDbEntity
  8
7_ALL_FEATURES
  6
Continuous
 62
     9
100
AcDbLine
 10
306.1585814195
 20
94.6202994572
 30
0.0
 11
311.7152772229
 21
92.1315330667
 31
0.0
  0
LINE
  5
3CF
330
228
100
AcDbEntity
  8
7_ALL_FEATURES
  6
Continuous
 62
     9
100
AcDbLine
 10
312.1083037427
 20
92.4002928238
 30
0.0
 11
312.5592251802
 21
92.198331414
 31
0.0
  0
LINE
  5
3D0
330
228
100
AcDbEntity
  8
7_ALL_FEATURES
  6
Continuous
 62
     7
100
AcDbLine
 10
313.4424431186
 20
91.8889473213
 30
0.0
 11
312.0429129932
 21
92.5157773048
 31
0.0
  0
LINE
  5
3D1
330
228
100
AcDbEntity
  8
7_ALL_FEATURES
  6
Continuous
 62
     7
100
AcDbLine
 10
312.8246358875
 20
92.46919524
 30
0.0
 11
311.8274088897
 21
92.9158392752
 31
0.0
  0
LINE
  5
3D2
330
228
100
AcDbEntity
  8
7_ALL_FEATURES
  6
Continuous
 62
     7
100
AcDbLine
 10
301.9489227781
 20
102.4351127417
 30
0.0
 11
306.1585814195
 21
94.6202994572
 31
0.0
  0
LINE
  5
3D3
330
228
100
AcDbEntity
  8
02___PRT_ALL_AXES
  6
Continuous
 62
     7
100
AcDbLine
 10
296.5191250521
 20
142.0964943792
 30
0.0
 11
296.4396251471
 21
145.2879539103
 31
0.0
  0
LINE
  5
3D4
330
228
100
AcDbEntity
  8
7_ALL_FEATURES
  6
Continuous
 62
     7
100
AcDbLine
 10
297.822789437
 20
139.5505783312
 30
0.0
 11
297.6924420651
 21
144.7832683892
 31
0.0
  0
LINE
  5
3D5
330
228
100
AcDbEntity
  8
7_ALL_FEATURES
  6
Continuous
 62
     7
100
AcDbLine
 10
310.4781033843
 20
95.4206909714
 30
0.0
 11
312.7767594788
 21
94.3911550325
 31
0.0
  0
LINE
  5
3D6
330
228
100
AcDbEntity
  8
7_ALL_FEATURES
  6
Continuous
 62
     7
100
AcDbLine
 10
308.7914715025
 20
98.5517555918
 30
0.0
 11
312.7169139679
 21
96.7936047731
 31
0.0
  0
LINE
  5
3D7
330
228
100
AcDbEntity
  8
7_ALL_FEATURES
  6
Continuous
 62
     7
100
AcDbLine
 10
311.7152772229
 20
92.1315330667
 30
0.0
 11
307.5056185815
 21
99.9463463512
 31
0.0
  0
LINE
  5
3D8
330
228
100
AcDbEntity
  8
7_ALL_FEATURES
  6
Continuous
 62
     7
100
AcDbLine
 10
313.4682428129
 20
91.8833259298
 30
0.0
 11
312.5711942824
 21
91.7178414658
 31
0.0
  0
LINE
  5
3D9
330
228
100
AcDbEntity
  8
7_ALL_FEATURES
  6
Continuous
 62
     9
100
AcDbLine
 10
301.9489227781
 20
102.4351127417
 30
0.0
 11
307.5056185815
 21
99.9463463512
 31
0.0
  0
LINE
  5
3DA
330
228
100
AcDbEntity
  8
7_ALL_FEATURES
  6
Continuous
 62
     7
100
AcDbLine
 10
307.4897472558
 20
101.5104254618
 30
0.0
 11
312.657068457
 21
99.1960545137
 31
0.0
  0
LINE
  5
3DB
330
228
100
AcDbEntity
  8
7_ALL_FEATURES
  6
Continuous
 62
     7
100
AcDbLine
 10
307.7852661555
 20
103.7537124494
 30
0.0
 11
312.5972229461
 21
101.5985042543
 31
0.0
  0
LINE
  5
3DC
330
228
100
AcDbEntity
  8
7_ALL_FEATURES
  6
Continuous
 62
     7
100
AcDbLine
 10
308.0643409258
 20
104.3458237466
 30
0.0
 11
307.7476902327
 21
104.6321881808
 31
0.0
  0
LINE
  5
3DD
330
228
100
AcDbEntity
  8
7_ALL_FEATURES
  6
Continuous
 62
     7
100
AcDbLine
 10
308.2118877604
 20
106.4080454275
 30
0.0
 11
307.8984148532
 21
106.6915360171
 31
0.0
  0
LINE
  5
3DE
330
228
100
AcDbEntity
  8
7_ALL_FEATURES
  6
Continuous
 62
     7
100
AcDbLine
 10
312.0923613296
 20
92.423981378
 30
0.0
 11
307.8827026881
 21
100.2387946625
 31
0.0
  0
LINE
  5
3DF
330
228
100
AcDbEntity
  8
02___PRT_ALL_AXES
  6
Continuous
 62
     7
100
AcDbLine
 10
303.5536646175
 20
136.7814389692
 30
0.0
 11
303.8179500984
 21
126.1719116082
 31
0.0
  0
LINE
  5
3E0
330
228
100
AcDbEntity
  8
02___PRT_ALL_AXES
  6
Continuous
 62
     7
100
AcDbLine
 10
303.8777956093
 20
123.7694618675
 30
0.0
 11
303.9376411202
 21
121.3670121269
 31
0.0
  0
LINE
  5
3E1
330
228
100
AcDbEntity
  8
02___PRT_ALL_AXES
  6
Continuous
 62
     7
100
AcDbLine
 10
303.9974866311
 20
118.9645623863
 30
0.0
 11
304.057332142
 21
116.5621126457
 31
0.0
  0
LINE
  5
3E2
330
228
100
AcDbEntity
  8
02___PRT_ALL_AXES
  6
Continuous
 62
     7
100
AcDbLine
 10
304.1171776529
 20
114.1596629051
 30
0.0
 11
304.1770231637
 21
111.7572131645
 31
0.0
  0
LINE
  5
3E3
330
228
100
AcDbEntity
  8
02___PRT_ALL_AXES
  6
Continuous
 62
     7
100
AcDbLine
 10
304.2368686746
 20
109.3547634239
 30
0.0
 11
304.2650074608
 21
108.2251545603
 31
0.0
  0
LINE
  5
3E4
330
228
100
AcDbEntity
  8
7_ALL_FEATURES
  6
Continuous
 62
     7
100
AcDbLine
 10
305.2728347949
 20
112.0059326604
 30
0.0
 11
305.3326803058
 21
109.6034829198
 31
0.0
  0
LINE
  5
3E5
330
228
100
AcDbEntity
  8
7_ALL_FEATURES
  6
Continuous
 62
     7
100
AcDbLine
 10
312.695534435
 20
92.223477282
 30
0.0
 11
312.5592251802
 21
92.198331414
 31
0.0
  0
LINE
  5
3E6
330
228
100
AcDbEntity
  8
7_ALL_FEATURES
  6
Continuous
 62
     9
100
AcDbLine
 10
302.82428194
 20
107.4829168209
 30
0.0
 11
307.7752610113
 21
105.2654424893
 31
0.0
  0
LINE
  5
3E7
330
228
100
AcDbEntity
  8
7_ALL_FEATURES
  6
Continuous
 62
     7
100
AcDbLine
 10
308.1728306953
 20
105.9557734813
 30
0.0
 11
312.5373774353
 21
104.0009539949
 31
0.0
  0
LINE
  5
3E8
330
228
100
AcDbEntity
  8
7_ALL_FEATURES
  6
Continuous
 62
     7
100
AcDbLine
 10
307.8984148532
 20
106.6915360171
 30
0.0
 11
304.3623357056
 21
108.2752964474
 31
0.0
  0
LINE
  5
3E9
330
228
100
AcDbEntity
  8
3_ALL_AXES
  6
Continuous
 62
     7
100
AcDbLine
 10
305.374852547
 20
152.0159408212
 30
0.0
 11
305.350588853
 21
152.9899872362
 31
0.0
  0
LINE
  5
3EA
330
228
100
AcDbEntity
  8
7_ALL_FEATURES
  6
Continuous
 62
     7
100
AcDbLine
 10
307.1220176611
 20
135.3855839747
 30
0.0
 11
306.9489490207
 21
142.3332848781
 31
0.0
  0
LINE
  5
3EB
330
228
100
AcDbEntity
  8
02___PRT_ALL_AXES
  6
Continuous
 62
     7
100
AcDbLine
 10
309.048837296
 20
93.1354482867
 30
0.0
 11
309.050601849
 21
93.0646117311
 31
0.0
  0
LINE
  5
3EC
330
228
100
AcDbEntity
  8
7_ALL_FEATURES
  6
Continuous
 62
     7
100
AcDbLine
 10
307.7752610113
 20
105.2654424893
 30
0.0
 11
307.8984148532
 21
106.6915360171
 31
0.0
  0
LINE
  5
3ED
330
228
100
AcDbEntity
  8
7_ALL_FEATURES
  6
Continuous
 62
     7
100
AcDbLine
 10
305.3326803058
 20
109.6034829198
 30
0.0
 11
312.4775319244
 21
106.4034037355
 31
0.0
  0
LINE
  5
3EE
330
228
100
AcDbEntity
  8
7_ALL_FEATURES
  6
Continuous
 62
     7
100
AcDbLine
 10
305.2728347949
 20
112.0059326604
 30
0.0
 11
312.4176864135
 21
108.8058534761
 31
0.0
  0
LINE
  5
3EF
330
228
100
AcDbEntity
  8
02___PRT_ALL_AXES
  6
Continuous
 62
     7
100
AcDbLine
 10
310.7361712434
 20
97.6807517568
 30
0.0
 11
310.7631479606
 21
96.597793215
 31
0.0
  0
LINE
  5
3F0
330
228
100
AcDbEntity
  8
7_ALL_FEATURES
  6
Continuous
 62
     9
100
AcDbLine
 10
312.5711942824
 20
91.7178414658
 30
0.0
 11
312.5592251802
 21
92.198331414
 31
0.0
  0
LINE
  5
3F1
330
228
100
AcDbEntity
  8
7_ALL_FEATURES
  6
Continuous
 62
     7
100
AcDbLine
 10
312.4176864135
 20
108.8058534761
 30
0.0
 11
312.4775319244
 21
106.4034037355
 31
0.0
  0
LINE
  5
3F2
330
228
100
AcDbEntity
  8
7_ALL_FEATURES
  6
Continuous
 62
     7
100
AcDbLine
 10
312.5373774353
 20
104.0009539949
 30
0.0
 11
312.5972229461
 21
101.5985042543
 31
0.0
  0
LINE
  5
3F3
330
228
100
AcDbEntity
  8
7_ALL_FEATURES
  6
Continuous
 62
     7
100
AcDbLine
 10
312.657068457
 20
99.1960545137
 30
0.0
 11
312.7169139679
 21
96.7936047731
 31
0.0
  0
LINE
  5
3F4
330
228
100
AcDbEntity
  8
7_ALL_FEATURES
  6
Continuous
 62
     7
100
AcDbLine
 10
312.7767594788
 20
94.3911550325
 30
0.0
 11
312.8246358875
 21
92.46919524
 31
0.0
  0
LINE
  5
3F5
330
228
100
AcDbEntity
  8
7_ALL_FEATURES
  6
Continuous
 62
     7
100
AcDbLine
 10
308.2118877604
 20
106.4080454275
 30
0.0
 11
308.0887339184
 21
104.9819518997
 31
0.0
  0
LINE
  5
3F6
330
228
100
AcDbEntity
  8
7_ALL_FEATURES
  6
Continuous
 62
     9
100
AcDbLine
 10
364.6867748888
 20
110.4949317124
 30
0.0
 11
364.2986373494
 21
110.6462145355
 31
0.0
  0
LINE
  5
3F7
330
228
100
AcDbEntity
  8
7_ALL_FEATURES
  6
Continuous
 62
     7
100
AcDbLine
 10
307.5322915934
 20
134.9994675515
 30
0.0
 11
298.299150896
 21
139.1348622285
 31
0.0
  0
LINE
  5
3F8
330
228
100
AcDbEntity
  8
7_ALL_FEATURES
  6
Continuous
 62
     7
100
AcDbLine
 10
307.1220176611
 20
135.3855839747
 30
0.0
 11
297.822789437
 21
139.5505783312
 31
0.0
  0
LINE
  5
3F9
330
228
100
AcDbEntity
  8
7_ALL_FEATURES
  6
Continuous
 62
     9
100
AcDbLine
 10
364.2986373494
 20
110.6462145355
 30
0.0
 11
361.9882627054
 21
111.680999049
 31
0.0
  0
LINE
  5
3FA
330
228
100
AcDbEntity
  8
02___PRT_ALL_AXES
  6
Continuous
 62
     7
100
AcDbLine
 10
336.2316176342
 20
89.5022699465
 30
0.0
 11
336.2196485321
 21
89.9827598947
 31
0.0
  0
LINE
  5
3FB
330
228
100
AcDbEntity
  8
7_ALL_FEATURES
  6
Continuous
 62
     7
100
AcDbLine
 10
304.3623357056
 20
108.2752964474
 30
0.0
 11
302.82428194
 21
107.4829168209
 31
0.0
  0
LINE
  5
3FC
330
228
100
AcDbEntity
  8
7_ALL_FEATURES
  6
Continuous
 62
     9
100
AcDbLine
 10
363.2630469927
 20
115.1603216424
 30
0.0
 11
362.0760686836
 21
115.691952638
 31
0.0
  0
LINE
  5
3FD
330
228
100
AcDbEntity
  8
7_ALL_FEATURES
  6
Continuous
 62
     7
100
AcDbLine
 10
361.706768041
 20
116.7869867898
 30
0.0
 11
361.9741283503
 21
116.6672398438
 31
0.0
  0
LINE
  5
3FE
330
228
100
AcDbEntity
  8
02___PRT_ALL_AXES
  6
Continuous
 62
     7
100
AcDbLine
 10
338.2310069534
 20
89.5516698791
 30
0.0
 11
338.2190378512
 21
90.0321598272
 31
0.0
  0
LINE
  5
3FF
330
228
100
AcDbEntity
  8
7_ALL_FEATURES
  6
Continuous
 62
     9
100
AcDbLine
 10
307.5056185815
 20
99.9463463512
 30
0.0
 11
307.8827026881
 21
100.2387946625
 31
0.0
  0
LINE
  5
400
330
228
100
AcDbEntity
  8
02___PRT_ALL_AXES
  6
Continuous
 62
     7
100
AcDbLine
 10
342.713712419
 20
90.3786241471
 30
0.0
 11
342.7059421979
 21
90.6905534053
 31
0.0
  0
LINE
  5
401
330
228
100
AcDbEntity
  8
7_ALL_FEATURES
  6
Continuous
 62
     7
100
AcDbLine
 10
363.2630469927
 20
115.1603216424
 30
0.0
 11
361.980070829
 21
116.0592692853
 31
0.0
  0
LINE
  5
402
330
228
100
AcDbEntity
  8
7_ALL_FEATURES
  6
Continuous
 62
     7
100
AcDbLine
 10
361.9741283503
 20
116.6672398438
 30
0.0
 11
363.5595930332
 21
115.5563464541
 31
0.0
  0
LINE
  5
403
330
228
100
AcDbEntity
  8
7_ALL_FEATURES
  6
Continuous
 62
     7
100
AcDbLine
 10
366.3932059463
 20
140.5586846793
 30
0.0
 11
366.8610871696
 21
141.0116156733
 31
0.0
  0
LINE
  5
404
330
228
100
AcDbEntity
  8
7_ALL_FEATURES
  6
Continuous
 62
     9
100
AcDbLine
 10
311.7152772229
 20
92.1315330667
 30
0.0
 11
312.0923613296
 21
92.423981378
 31
0.0
  0
LINE
  5
405
330
228
100
AcDbEntity
  8
3_ALL_AXES
  6
Continuous
 62
     7
100
AcDbLine
 10
358.9583096728
 20
153.3475310659
 30
0.0
 11
358.9339667002
 21
154.3247600591
 31
0.0
  0
LINE
  5
406
330
228
100
AcDbEntity
  8
02___PRT_ALL_AXES
  6
Continuous
 62
     7
100
AcDbLine
 10
361.5494314267
 20
137.6736608573
 30
0.0
 11
361.7999634405
 21
127.6162553344
 31
0.0
  0
LINE
  5
407
330
228
100
AcDbEntity
  8
02___PRT_ALL_AXES
  6
Continuous
 62
     7
100
AcDbLine
 10
361.8598089514
 20
125.2138055938
 30
0.0
 11
361.9196544623
 21
122.8113558532
 31
0.0
  0
LINE
  5
408
330
228
100
AcDbEntity
  8
02___PRT_ALL_AXES
  6
Continuous
 62
     7
100
AcDbLine
 10
361.9794999732
 20
120.4089061126
 30
0.0
 11
362.039345484
 21
118.006456372
 31
0.0
  0
LINE
  5
409
330
228
100
AcDbEntity
  8
02___PRT_ALL_AXES
  6
Continuous
 62
     7
100
AcDbLine
 10
362.0991909949
 20
115.6040066314
 30
0.0
 11
362.1590365058
 21
113.2015568908
 31
0.0
  0
LINE
  5
40A
330
228
100
AcDbEntity
  8
02___PRT_ALL_AXES
  6
Continuous
 62
     7
100
AcDbLine
 10
362.2188820167
 20
110.7991071502
 30
0.0
 11
362.2787275276
 21
108.3966574096
 31
0.0
  0
LINE
  5
40B
330
228
100
AcDbEntity
  8
02___PRT_ALL_AXES
  6
Continuous
 62
     7
100
AcDbLine
 10
362.3385730385
 20
105.994207669
 30
0.0
 11
362.3984185493
 21
103.5917579284
 31
0.0
  0
LINE
  5
40C
330
228
100
AcDbEntity
  8
02___PRT_ALL_AXES
  6
Continuous
 62
     7
100
AcDbLine
 10
362.4582640602
 20
101.1893081878
 30
0.0
 11
362.5061371939
 21
99.2674798686
 31
0.0
  0
LINE
  5
40D
330
228
100
AcDbEntity
  8
7_ALL_FEATURES
  6
Continuous
 62
     7
100
AcDbLine
 10
361.8607497743
 20
116.5158275063
 30
0.0
 11
361.9741283503
 21
116.6672398438
 31
0.0
  0
LINE
  5
40E
330
228
100
AcDbEntity
  8
7_ALL_FEATURES
  6
Continuous
 62
     7
100
AcDbLine
 10
363.914982972
 20
114.6489603593
 30
0.0
 11
364.2145352049
 21
115.0489998148
 31
0.0
  0
LINE
  5
40F
330
228
100
AcDbEntity
  8
02___PRT_ALL_AXES
  6
Continuous
 62
     7
100
AcDbLine
 10
368.2968586562
 20
143.8844984772
 30
0.0
 11
368.2174323347
 21
147.0730040604
 31
0.0
  0
LINE
  5
410
330
228
100
AcDbEntity
  8
7_ALL_FEATURES
  6
Continuous
 62
     7
100
AcDbLine
 10
364.2986373494
 20
110.6462145355
 30
0.0
 11
362.3423359344
 21
105.8431492463
 31
0.0
  0
LINE
  5
411
330
228
100
AcDbEntity
  8
7_ALL_FEATURES
  6
Continuous
 62
     7
100
AcDbLine
 10
364.6867748888
 20
110.4949317124
 30
0.0
 11
362.3682571865
 21
104.8025615014
 31
0.0
  0
LINE
  5
412
330
228
100
AcDbEntity
  8
7_ALL_FEATURES
  6
Continuous
 62
     7
100
AcDbLine
 10
360.6443488168
 20
96.2672193941
 30
0.0
 11
361.3462902155
 21
96.9467261679
 31
0.0
  0
LINE
  5
413
330
228
100
AcDbEntity
  8
02___PRT_ALL_AXES
  6
Continuous
 62
     7
100
AcDbLine
 10
374.0675850954
 20
153.1632195775
 30
0.0
 11
374.0436468911
 21
154.1241994737
 31
0.0
  0
CIRCLE
  5
414
330
228
100
AcDbEntity
  8
7_ALL_FEATURES
  6
Continuous
 62
     7
100
AcDbCircle
 10
72.7378418748
 20
76.5985914973
 30
0.0
 40
41.9
  0
CIRCLE
  5
415
330
228
100
AcDbEntity
  8
7_ALL_FEATURES
  6
Continuous
 62
     7
100
AcDbCircle
 10
72.7378418748
 20
76.5985914973
 30
0.0
 40
29.644331992
  0
CIRCLE
  5
416
330
228
100
AcDbEntity
  8
7_ALL_FEATURES
  6
Continuous
 62
     7
100
AcDbCircle
 10
72.7378418748
 20
76.5985914973
 30
0.0
 40
27.5
  0
CIRCLE
  5
417
330
228
100
AcDbEntity
  8
7_ALL_FEATURES
  6
Continuous
 62
     7
100
AcDbCircle
 10
72.7378418748
 20
76.5985914973
 30
0.0
 40
27.0
  0
CIRCLE
  5
418
330
228
100
AcDbEntity
  8
7_ALL_FEATURES
  6
Continuous
 62
     7
100
AcDbCircle
 10
72.7378418748
 20
76.5985914973
 30
0.0
 40
26.8
  0
CIRCLE
  5
419
330
228
100
AcDbEntity
  8
7_ALL_FEATURES
  6
Continuous
 62
     7
100
AcDbCircle
 10
72.7378418748
 20
76.5985914973
 30
0.0
 40
26.499996933
  0
ARC
  5
41A
330
228
100
AcDbEntity
  8
7_ALL_FEATURES
  6
Continuous
 62
     7
100
AcDbCircle
 10
43.5884664481
 20
203.6741093174
 30
0.0
 40
4.5
100
AcDbArc
 50
135.0
 51
207.5
  0
ARC
  5
41B
330
228
100
AcDbEntity
  8
02___PRT_ALL_AXES
  6
Continuous
 62
     7
100
AcDbCircle
 10
48.8802846721
 20
193.5774536166
 30
0.0
 40
4.1
100
AcDbArc
 50
296.3930257743
 51
333.1366968699
  0
ARC
  5
41C
330
228
100
AcDbEntity
  8
02___PRT_ALL_AXES
  6
Continuous
 62
     7
100
AcDbCircle
 10
48.5953990774
 20
193.5774536166
 30
0.0
 40
4.1
100
AcDbArc
 50
206.8633031301
 51
243.6069742257
  0
ARC
  5
41D
330
228
100
AcDbEntity
  8
7_ALL_FEATURES
  6
Continuous
 62
     7
100
AcDbCircle
 10
43.5884664481
 20
203.6741093174
 30
0.0
 40
4.0
100
AcDbArc
 50
135.0
 51
207.5
  0
ARC
  5
41E
330
228
100
AcDbEntity
  8
02___PRT_ALL_AXES
  6
Continuous
 62
     7
100
AcDbCircle
 10
69.2378418748
 20
187.604813525
 30
0.0
 40
3.5
100
AcDbArc
 50
191.5683651059
 51
270.0
  0
ARC
  5
41F
330
228
100
AcDbEntity
  8
7_ALL_FEATURES
  6
Continuous
 62
     7
100
AcDbCircle
 10
45.2053382607
 20
193.204813525
 30
0.0
 40
1.1
100
AcDbArc
 50
207.5
 51
270.0
  0
ARC
  5
420
330
228
100
AcDbEntity
  8
7_ALL_FEATURES
  6
Continuous
 62
     7
100
AcDbCircle
 10
45.2053382607
 20
193.204813525
 30
0.0
 40
0.6
100
AcDbArc
 50
207.5
 51
270.0
  0
ARC
  5
421
330
228
100
AcDbEntity
  8
7_ALL_FEATURES
  6
Continuous
 62
     7
100
AcDbCircle
 10
36.5378418748
 20
248.804813525
 30
0.0
 40
0.3
100
AcDbArc
 50
0.0
 51
90.0
  0
ARC
  5
422
330
228
100
AcDbEntity
  8
7_ALL_FEATURES
  6
Continuous
 62
     7
100
AcDbCircle
 10
101.8872173015
 20
203.6741093174
 30
0.0
 40
4.5
100
AcDbArc
 50
332.5
 51
45.0
  0
ARC
  5
423
330
228
100
AcDbEntity
  8
02___PRT_ALL_AXES
  6
Continuous
 62
     7
100
AcDbCircle
 10
96.8802846721
 20
193.5774536166
 30
0.0
 40
4.1
100
AcDbArc
 50
296.3930257743
 51
333.1366968699
  0
ARC
  5
424
330
228
100
AcDbEntity
  8
02___PRT_ALL_AXES
  6
Continuous
 62
     7
100
AcDbCircle
 10
96.5953990774
 20
193.5774536166
 30
0.0
 40
4.1
100
AcDbArc
 50
206.8633031301
 51
243.6069742257
  0
ARC
  5
425
330
228
100
AcDbEntity
  8
7_ALL_FEATURES
  6
Continuous
 62
     7
100
AcDbCircle
 10
101.8872173015
 20
203.6741093174
 30
0.0
 40
4.0
100
AcDbArc
 50
332.5
 51
45.0
  0
ARC
  5
426
330
228
100
AcDbEntity
  8
02___PRT_ALL_AXES
  6
Continuous
 62
     7
100
AcDbCircle
 10
76.2378418748
 20
187.604813525
 30
0.0
 40
3.5
100
AcDbArc
 50
270.0
 51
348.4316348940999
  0
ARC
  5
427
330
228
100
AcDbEntity
  8
7_ALL_FEATURES
  6
Continuous
 62
     7
100
AcDbCircle
 10
100.2703454888
 20
193.204813525
 30
0.0
 40
1.1
100
AcDbArc
 50
270.0
 51
332.5
  0
ARC
  5
428
330
228
100
AcDbEntity
  8
7_ALL_FEATURES
  6
Continuous
 62
     7
100
AcDbCircle
 10
100.2703454888
 20
193.204813525
 30
0.0
 40
0.6
100
AcDbArc
 50
270.0
 51
332.5
  0
ARC
  5
429
330
228
100
AcDbEntity
  8
7_ALL_FEATURES
  6
Continuous
 62
     7
100
AcDbCircle
 10
108.9378418748
 20
248.804813525
 30
0.0
 40
0.3
100
AcDbArc
 50
90.0
 51
180.0
  0
ARC
  5
42A
330
228
100
AcDbEntity
  8
02___PRT_ALL_AXES
  6
Continuous
 62
     7
100
AcDbCircle
 10
204.4853830005
 20
193.5774536166
 30
0.0
 40
4.1
100
AcDbArc
 50
206.8633031301
 51
243.6069742257
  0
ARC
  5
42B
330
228
100
AcDbEntity
  8
02___PRT_ALL_AXES
  6
Continuous
 62
     7
100
AcDbCircle
 10
204.7702685952
 20
193.5774536166
 30
0.0
 40
4.1
100
AcDbArc
 50
296.3930257743
 51
333.1366968699
  0
ARC
  5
42C
330
228
100
AcDbEntity
  8
02___PRT_ALL_AXES
  6
Continuous
 62
     7
100
AcDbCircle
 10
215.1278257979
 20
187.604813525
 30
0.0
 40
3.5
100
AcDbArc
 50
270.0
 51
360.0
  0
ARC
  5
42D
330
228
100
AcDbEntity
  8
02___PRT_ALL_AXES
  6
Continuous
 62
     7
100
AcDbCircle
 10
208.1278257979
 20
187.604813525
 30
0.0
 40
3.5
100
AcDbArc
 50
180.0
 51
270.0
  0
ARC
  5
42E
330
228
100
AcDbEntity
  8
7_ALL_FEATURES
  6
Continuous
 62
     7
100
AcDbCircle
 10
208.1278257979
 20
187.604813525
 30
0.0
 40
3.5
100
AcDbArc
 50
180.0
 51
270.0
  0
ARC
  5
42F
330
228
100
AcDbEntity
  8
7_ALL_FEATURES
  6
Continuous
 62
     7
100
AcDbCircle
 10
215.1278257979
 20
187.604813525
 30
0.0
 40
3.5
100
AcDbArc
 50
270.0
 51
360.0
  0
ARC
  5
430
330
228
100
AcDbEntity
  8
7_ALL_FEATURES
  6
Continuous
 62
     7
100
AcDbCircle
 10
240.8278257979
 20
248.804813525
 30
0.0
 40
0.3
100
AcDbArc
 50
90.0
 51
180.0
  0
ARC
  5
431
330
228
100
AcDbEntity
  8
7_ALL_FEATURES
  6
Continuous
 62
     7
100
AcDbCircle
 10
168.4278257979
 20
248.804813525
 30
0.0
 40
0.3
100
AcDbArc
 50
0.0
 51
90.0
  0
ARC
  5
432
330
228
100
AcDbEntity
  8
7_ALL_FEATURES
  6
Continuous
 62
     7
100
AcDbCircle
 10
330.6352400265
 20
213.8945211831
 30
0.0
 40
104.6321638804
100
AcDbArc
 50
270.3799304471
 51
270.6403341538
  0
ARC
  5
433
330
228
100
AcDbEntity
  8
7_ALL_FEATURES
  6
Continuous
 62
     7
100
AcDbCircle
 10
332.7072291181
 20
174.8744994471
 30
0.0
 40
71.3611021747
100
AcDbArc
 50
277.4527548345001
 51
277.7533156982
  0
ARC
  5
434
330
228
100
AcDbEntity
  8
7_ALL_FEATURES
  6
Continuous
 62
     7
100
AcDbCircle
 10
333.7689699712
 20
167.5806958987
 30
0.0
 40
63.9907764576
100
AcDbArc
 50
277.6923942527
 51
280.4282625418001
  0
ARC
  5
435
330
228
100
AcDbEntity
  8
7_ALL_FEATURES
  6
Continuous
 62
     7
100
AcDbCircle
 10
319.7246354434
 20
185.6519107487
 30
0.0
 40
51.8220955029
100
AcDbArc
 50
255.9251037396
 51
256.4323924175
  0
ARC
  5
436
330
228
100
AcDbEntity
  8
7_ALL_FEATURES
  6
Continuous
 62
     7
100
AcDbCircle
 10
324.8698748237
 20
142.101316591
 30
0.0
 40
49.2213927965
100
AcDbArc
 50
257.7433869128
 51
258.1437591639
  0
ARC
  5
437
330
228
100
AcDbEntity
  8
7_ALL_FEATURES
  6
Continuous
 62
     7
100
AcDbCircle
 10
324.5461204783
 20
140.6094726431
 30
0.0
 40
47.6948230703
100
AcDbArc
 50
257.4203390952
 51
257.7429912577
  0
ARC
  5
438
330
228
100
AcDbEntity
  8
7_ALL_FEATURES
  6
Continuous
 62
     7
100
AcDbCircle
 10
323.6786607794
 20
144.7274503916
 30
0.0
 40
44.5298131522
100
AcDbArc
 50
255.5902709506
 51
257.6899268176001
  0
ARC
  5
439
330
228
100
AcDbEntity
  8
7_ALL_FEATURES
  6
Continuous
 62
     7
100
AcDbCircle
 10
323.7983518011
 20
139.9225509105
 30
0.0
 40
44.5298131523
100
AcDbArc
 50
255.5902709506
 51
257.6899268176001
  0
ARC
  5
43A
330
228
100
AcDbEntity
  8
7_ALL_FEATURES
  6
Continuous
 62
     7
100
AcDbCircle
 10
323.4279921214
 20
135.7309076516
 30
0.0
 40
42.6898571492
100
AcDbArc
 50
255.5519162482
 51
257.4589268595
  0
ARC
  5
43B
330
228
100
AcDbEntity
  8
7_ALL_FEATURES
  6
Continuous
 62
     7
100
AcDbCircle
 10
318.4408125129
 20
119.4707195722
 30
0.0
 40
14.4779373713
100
AcDbArc
 50
245.3933772471
 51
245.8744882952
  0
ARC
  5
43C
330
228
100
AcDbEntity
  8
02___PRT_ALL_AXES
  6
Continuous
 62
     7
100
AcDbCircle
 10
337.1280485186
 20
98.0054973263
 30
0.0
 40
8.0740018846
100
AcDbArc
 50
258.0106617816999
 51
263.5400162079
  0
ARC
  5
43D
330
228
100
AcDbEntity
  8
7_ALL_FEATURES
  6
Continuous
 62
     7
100
AcDbCircle
 10
355.4941457702
 20
130.6659880234
 30
0.0
 40
7.4386116363
100
AcDbArc
 50
309.8808684028
 51
311.2173321982
  0
ARC
  5
43E
330
228
100
AcDbEntity
  8
7_ALL_FEATURES
  6
Continuous
 62
     7
100
AcDbCircle
 10
355.6138367917
 20
125.8610885424
 30
0.0
 40
7.4386116366
100
AcDbArc
 50
309.8808684028
 51
311.2173321982
  0
ARC
  5
43F
330
228
100
AcDbEntity
  8
7_ALL_FEATURES
  6
Continuous
 62
     7
100
AcDbCircle
 10
355.7335278136
 20
121.056189061
 30
0.0
 40
7.4386116364
100
AcDbArc
 50
309.8808684028
 51
311.2173321982
  0
ARC
  5
440
330
228
100
AcDbEntity
  8
7_ALL_FEATURES
  6
Continuous
 62
     7
100
AcDbCircle
 10
309.3169289005
 20
154.1631284336
 30
0.0
 40
4.5727414906
100
AcDbArc
 50
221.2654300783
 51
225.0339490606
  0
ARC
  5
441
330
228
100
AcDbEntity
  8
7_ALL_FEATURES
  6
Continuous
 62
     7
100
AcDbCircle
 10
309.7720163603
 20
152.1591804893
 30
0.0
 40
4.4660103608
100
AcDbArc
 50
138.4740411582
 51
140.9427400904
  0
ARC
  5
442
330
228
100
AcDbEntity
  8
7_ALL_FEATURES
  6
Continuous
 62
     7
100
AcDbCircle
 10
355.0117435835
 20
155.2165778221
 30
0.0
 40
4.4450719724
100
AcDbArc
 50
317.8393677213
 51
321.6748954128
  0
ARC
  5
443
330
228
100
AcDbEntity
  8
02___PRT_ALL_AXES
  6
Continuous
 62
     7
100
AcDbCircle
 10
312.7251072267
 20
95.0134172847
 30
0.0
 40
4.2056090199
100
AcDbArc
 50
245.8768066317
 51
250.1540987082
  0
ARC
  5
444
330
228
100
AcDbEntity
  8
02___PRT_ALL_AXES
  6
Continuous
 62
     7
100
AcDbCircle
 10
312.8936131838
 20
94.9916139469
 30
0.0
 40
4.177141722
100
AcDbArc
 50
292.6795807511
 51
303.4163497933
  0
ARC
  5
445
330
228
100
AcDbEntity
  8
7_ALL_FEATURES
  6
Continuous
 62
     7
100
AcDbCircle
 10
307.2013804034
 20
109.6875536656
 30
0.0
 40
3.0189696923
100
AcDbArc
 50
206.7199945871
 51
210.7457803404
  0
ARC
  5
446
330
228
100
AcDbEntity
  8
7_ALL_FEATURES
  6
Continuous
 62
     7
100
AcDbCircle
 10
307.6015799918
 20
151.4215574541
 30
0.0
 40
2.422516909
100
AcDbArc
 50
160.3124825379
 51
163.1009683294
  0
ARC
  5
447
330
228
100
AcDbEntity
  8
7_ALL_FEATURES
  6
Continuous
 62
     7
100
AcDbCircle
 10
356.7674136429
 20
152.6475076783
 30
0.0
 40
2.4187246803
100
AcDbArc
 50
19.645822749
 51
22.4643314183
  0
ARC
  5
448
330
228
100
AcDbEntity
  8
7_ALL_FEATURES
  6
Continuous
 62
     7
100
AcDbCircle
 10
306.7516318053
 20
97.8796302253
 30
0.0
 40
2.2282284988
100
AcDbArc
 50
181.4555529144
 51
189.9761317359
  0
ARC
  5
449
330
228
100
AcDbEntity
  8
7_ALL_FEATURES
  6
Continuous
 62
     7
100
AcDbCircle
 10
356.9299558629
 20
154.0575292877
 30
0.0
 40
2.2122113466
100
AcDbArc
 50
13.2221342324
 51
16.5094635278
  0
ARC
  5
44A
330
228
100
AcDbEntity
  8
7_ALL_FEATURES
  6
Continuous
 62
     7
100
AcDbCircle
 10
357.0410312854
 20
154.0825779456
 30
0.0
 40
2.0983514104
100
AcDbArc
 50
1.5010113564
 51
13.2500212591
  0
SPLINE
  5
44B
330
228
100
AcDbEntity
  8
02___PRT_ALL_AXES
  6
Continuous
 62
     7
100
AcDbSpline
 70
     0
 71
     3
 72
    11
 73
     7
 74
     0
 42
0.000000001
 43
0.0000001
 40
0.0
 40
0.0
 40
0.0
 40
0.0
 40
0.2528641712
 40
0.5038317346
 40
0.7528115376
 40
1.0
 40
1.0
 40
1.0
 40
1.0
 10
72.7378418748
 20
189.104813525
 30
0.0
 10
72.9420881717
 20
188.9868918704
 30
0.0
 10
73.3559154352
 20
188.7634809927
 30
0.0
 10
73.9968269597
 20
188.4748919905
 30
0.0
 10
74.656185892
 20
188.2462025971
 30
0.0
 10
75.1084425738
 20
188.142337253
 30
0.0
 10
75.3359180861
 20
188.104813525
 30
0.0
  0
SPLINE
  5
44C
330
228
100
AcDbEntity
  8
02___PRT_ALL_AXES
  6
Continuous
 62
     7
100
AcDbSpline
 70
     0
 71
     3
 72
    11
 73
     7
 74
     0
 42
0.000000001
 43
0.0000001
 40
0.0
 40
0.0
 40
0.0
 40
0.0
 40
0.2528641712
 40
0.5038317346
 40
0.7528115376
 40
1.0
 40
1.0
 40
1.0
 40
1.0
 10
65.8096386445
 20
189.104813525
 30
0.0
 10
66.0138849414
 20
188.9868918704
 30
0.0
 10
66.427712205
 20
188.7634809927
 30
0.0
 10
67.0686237295
 20
188.4748919905
 30
0.0
 10
67.7279826617
 20
188.2462025971
 30
0.0
 10
68.1802393435
 20
188.142337253
 30
0.0
 10
68.4077148559
 20
188.104813525
 30
0.0
  0
SPLINE
  5
44D
330
228
100
AcDbEntity
  8
02___PRT_ALL_AXES
  6
Continuous
 62
     7
100
AcDbSpline
 70
     0
 71
     3
 72
    11
 73
     7
 74
     0
 42
0.000000001
 43
0.0000001
 40
0.0
 40
0.0
 40
0.0
 40
0.0
 40
0.2471884812
 40
0.4961682871
 40
0.7471358372
 40
1.0
 40
1.0
 40
1.0
 40
1.0
 10
70.1397656634
 20
188.104813525
 30
0.0
 10
70.367241193
 20
188.1423372559
 30
0.0
 10
70.8194978943
 20
188.2462026062
 30
0.0
 10
71.4788568313
 20
188.4748920095
 30
0.0
 10
72.1197683378
 20
188.7634810083
 30
0.0
 10
72.5335955846
 20
188.9868918744
 30
0.0
 10
72.7378418748
 20
189.104813525
 30
0.0
  0
SPLINE
  5
44E
330
228
100
AcDbEntity
  8
02___PRT_ALL_AXES
  6
Continuous
 62
     7
100
AcDbSpline
 70
     0
 71
     3
 72
    19
 73
    15
 74
     0
 42
0.000000001
 43
0.0000001
 40
0.0
 40
0.0
 40
0.0
 40
0.0
 40
0.067939647
 40
0.1343369129
 40
0.1986396402
 40
0.2610648807
 40
0.3817414899
 40
0.5000607139
 40
0.6183763092
 40
0.739024176
 40
0.8014382043
 40
0.865725454
 40
0.9320917545
 40
1.0
 40
1.0
 40
1.0
 40
1.0
 10
68.4077148559
 20
187.604813525
 30
0.0
 10
68.4077148559
 20
187.5489278744
 30
0.0
 10
68.4241016927
 20
187.4377829096
 30
0.0
 10
68.492276473
 20
187.2873230223
 30
0.0
 10
68.5916895078
 20
187.1616362587
 30
0.0
 10
68.7491333894
 20
187.0308944251
 30
0.0
 10
68.979124604
 20
186.9262541202
 30
0.0
 10
69.273889825
 20
186.8862756358
 30
0.0
 10
69.5686185487
 20
186.9263400605
 30
0.0
 10
69.7985493616
 20
187.0310194637
 30
0.0
 10
69.9559284507
 20
187.1617693518
 30
0.0
 10
70.0552713767
 20
187.2874503425
 30
0.0
 10
70.1233923848
 20
187.4378607338
 30
0.0
 10
70.1397656634
 20
187.5489537046
 30
0.0
 10
70.1397656634
 20
187.604813525
 30
0.0
  0
SPLINE
  5
44F
330
228
100
AcDbEntity
  8
02___PRT_ALL_AXES
  6
Continuous
 62
     7
100
AcDbSpline
 70
     0
 71
     3
 72
    11
 73
     7
 74
     0
 42
0.000000001
 43
0.0000001
 40
0.0
 40
0.0
 40
0.0
 40
0.0
 40
0.2471884812
 40
0.4961682871
 40
0.7471358372
 40
1.0
 40
1.0
 40
1.0
 40
1.0
 10
77.0679688937
 20
188.104813525
 30
0.0
 10
77.2954444233
 20
188.1423372559
 30
0.0
 10
77.7477011246
 20
188.2462026062
 30
0.0
 10
78.4070600616
 20
188.4748920095
 30
0.0
 10
79.0479715681
 20
188.7634810083
 30
0.0
 10
79.4617988149
 20
188.9868918744
 30
0.0
 10
79.6660451051
 20
189.104813525
 30
0.0
  0
SPLINE
  5
450
330
228
100
AcDbEntity
  8
02___PRT_ALL_AXES
  6
Continuous
 62
     7
100
AcDbSpline
 70
     0
 71
     3
 72
    19
 73
    15
 74
     0
 42
0.000000001
 43
0.0000001
 40
0.0
 40
0.0
 40
0.0
 40
0.0
 40
0.0679313718
 40
0.134330414
 40
0.1986328954
 40
0.2610542132
 40
0.3817238737
 40
0.5000536105
 40
0.6183773004
 40
0.7390372629
 40
0.8014553941
 40
0.8657396837
 40
0.9320963707
 40
1.0
 40
1.0
 40
1.0
 40
1.0
 10
75.3359180861
 20
187.604813525
 30
0.0
 10
75.3359180861
 20
187.5489346735
 30
0.0
 10
75.3523038268
 20
187.4377956615
 30
0.0
 10
75.4204691285
 20
187.2873375853
 30
0.0
 10
75.5198786911
 20
187.1616500987
 30
0.0
 10
75.6773130187
 20
187.0309117486
 30
0.0
 10
75.9072976848
 20
186.926258603
 30
0.0
 10
76.2020733548
 20
186.886274896
 30
0.0
 10
76.4968277017
 20
186.9263387107
 30
0.0
 10
76.726777294
 20
187.0310294932
 30
0.0
 10
76.8841582986
 20
187.1617951036
 30
0.0
 10
76.9834870314
 20
187.287477994
 30
0.0
 10
77.0515992203
 20
187.437875981
 30
0.0
 10
77.0679688937
 20
187.5489574938
 30
0.0
 10
77.0679688937
 20
187.604813525
 30
0.0
  0
SPLINE
  5
451
330
228
100
AcDbEntity
  8
02___PRT_ALL_AXES
  6
Continuous
 62
     7
100
AcDbSpline
 70
     0
 71
     3
 72
    19
 73
    15
 74
     0
 42
0.000000001
 43
0.0000001
 40
0.0
 40
0.0
 40
0.0
 40
0.0
 40
0.1683075029
 40
0.2404576968
 40
0.3036660769
 40
0.4090527407
 40
0.4554823394
 40
0.5000445236
 40
0.5446094138
 40
0.5910415449
 40
0.6964181475
 40
0.7596236278
 40
0.8317654351
 40
1.0
 40
1.0
 40
1.0
 40
1.0
 10
217.1278257979
 20
187.604813525
 30
0.0
 10
217.1278257979
 20
187.4982031926
 30
0.0
 10
217.1520007248
 20
187.3438719953
 30
0.0
 10
217.2308238271
 20
187.1674740737
 30
0.0
 10
217.3167754346
 20
187.0409387529
 30
0.0
 10
217.4242198212
 20
186.9499573551
 30
0.0
 10
217.5418538391
 20
186.906487075
 30
0.0
 10
217.6279146469
 20
186.8961128964
 30
0.0
 10
217.7139753983
 20
186.906519027
 30
0.0
 10
217.8315767276
 20
186.9500676824
 30
0.0
 10
217.9389898133
 20
187.0410618338
 30
0.0
 10
218.0249050904
 20
187.1676079305
 30
0.0
 10
218.1036639351
 20
187.3439744674
 30
0.0
 10
218.1278257979
 20
187.4982493935
 30
0.0
 10
218.1278257979
 20
187.604813525
 30
0.0
  0
SPLINE
  5
452
330
228
100
AcDbEntity
  8
02___PRT_ALL_AXES
  6
Continuous
 62
     7
100
AcDbSpline
 70
     0
 71
     3
 72
    11
 73
     7
 74
     0
 42
0.000000001
 43
0.0000001
 40
0.0
 40
0.0
 40
0.0
 40
0.0
 40
0.2699449571
 40
0.5270499909
 40
0.7701654741
 40
1.0
 40
1.0
 40
1.0
 40
1.0
 10
203.6278257979
 20
189.104813525
 30
0.0
 10
203.7436517628
 20
188.98898756
 30
0.0
 10
203.9771863774
 20
188.7699872486
 30
0.0
 10
204.3456969788
 20
188.481228603
 30
0.0
 10
204.7256977494
 20
188.2510416029
 30
0.0
 10
204.9937281746
 20
188.1431271316
 30
0.0
 10
205.1278257979
 20
188.104813525
 30
0.0
  0
SPLINE
  5
453
330
228
100
AcDbEntity
  8
02___PRT_ALL_AXES
  6
Continuous
 62
     7
100
AcDbSpline
 70
     0
 71
     3
 72
    11
 73
     7
 74
     0
 42
0.000000001
 43
0.0000001
 40
0.0
 40
0.0
 40
0.0
 40
0.0
 40
0.2500103617
 40
0.5000189242
 40
0.7500124732
 40
1.0
 40
1.0
 40
1.0
 40
1.0
 10
207.6278257979
 20
189.104813525
 30
0.0
 10
207.8644984756
 20
188.9864771861
 30
0.0
 10
208.344265988
 20
188.7622924506
 30
0.0
 10
209.0845567051
 20
188.4738554527
 30
0.0
 10
209.8457739747
 20
188.2455050496
 30
0.0
 10
210.3659010707
 20
188.1422313431
 30
0.0
 10
210.6278257979
 20
188.104813525
 30
0.0
  0
SPLINE
  5
454
330
228
100
AcDbEntity
  8
02___PRT_ALL_AXES
  6
Continuous
 62
     7
100
AcDbSpline
 70
     0
 71
     3
 72
    11
 73
     7
 74
     0
 42
0.000000001
 43
0.0000001
 40
0.0
 40
0.0
 40
0.0
 40
0.0
 40
0.2499875457
 40
0.4999810974
 40
0.7499896465
 40
1.0
 40
1.0
 40
1.0
 40
1.0
 10
212.6278257979
 20
188.104813525
 30
0.0
 10
212.8897505448
 20
188.142231346
 30
0.0
 10
213.4098776631
 20
188.2455050586
 30
0.0
 10
214.1710949388
 20
188.4738554717
 30
0.0
 10
214.9113856353
 20
188.7622924664
 30
0.0
 10
215.391153128
 20
188.98647719
 30
0.0
 10
215.6278257979
 20
189.104813525
 30
0.0
  0
SPLINE
  5
455
330
228
100
AcDbEntity
  8
02___PRT_ALL_AXES
  6
Continuous
 62
     7
100
AcDbSpline
 70
     0
 71
     3
 72
    19
 73
    15
 74
     0
 42
0.000000001
 43
0.0000001
 40
0.0
 40
0.0
 40
0.0
 40
0.0
 40
0.062499569
 40
0.1250450196
 40
0.1876243679
 40
0.2502137548
 40
0.3750836247
 40
0.5000591496
 40
0.6250261711
 40
0.7498800617
 40
0.8124624827
 40
0.8750225901
 40
0.9375286272
 40
1.0
 40
1.0
 40
1.0
 40
1.0
 10
210.6278257979
 20
187.604813525
 30
0.0
 10
210.6278257979
 20
187.5487399132
 30
0.0
 10
210.6473349129
 20
187.4357508193
 30
0.0
 10
210.727118883
 20
187.2850284361
 30
0.0
 10
210.8421783375
 20
187.1599787272
 30
0.0
 10
211.0256220372
 20
187.0288128612
 30
0.0
 10
211.2910219746
 20
186.9256821099
 30
0.0
 10
211.6279796857
 20
186.8864256874
 30
0.0
 10
211.9649115188
 20
186.9257633994
 30
0.0
 10
212.2302657055
 20
187.0289317172
 30
0.0
 10
212.4136473328
 20
187.1601228735
 30
0.0
 10
212.5286181028
 20
187.2851729027
 30
0.0
 10
212.6083358785
 20
187.435837006
 30
0.0
 10
212.6278257979
 20
187.5487652104
 30
0.0
 10
212.6278257979
 20
187.604813525
 30
0.0
  0
SPLINE
  5
456
330
228
100
AcDbEntity
  8
02___PRT_ALL_AXES
  6
Continuous
 62
     7
100
AcDbSpline
 70
     0
 71
     3
 72
    11
 73
     7
 74
     0
 42
0.000000001
 43
0.0000001
 40
0.0
 40
0.0
 40
0.0
 40
0.0
 40
0.2699449571
 40
0.5270499909
 40
0.7701654741
 40
1.0
 40
1.0
 40
1.0
 40
1.0
 10
215.6278257979
 20
189.104813525
 30
0.0
 10
215.7436517628
 20
188.98898756
 30
0.0
 10
215.9771863774
 20
188.7699872486
 30
0.0
 10
216.3456969788
 20
188.481228603
 30
0.0
 10
216.7256977494
 20
188.2510416029
 30
0.0
 10
216.9937281746
 20
188.1431271316
 30
0.0
 10
217.1278257979
 20
188.104813525
 30
0.0
  0
SPLINE
  5
457
330
228
100
AcDbEntity
  8
02___PRT_ALL_AXES
  6
Continuous
 62
     7
100
AcDbSpline
 70
     0
 71
     3
 72
    11
 73
     7
 74
     0
 42
0.000000001
 43
0.0000001
 40
0.0
 40
0.0
 40
0.0
 40
0.0
 40
0.2298345438
 40
0.4729500311
 40
0.7300550521
 40
1.0
 40
1.0
 40
1.0
 40
1.0
 10
206.1278257979
 20
188.104813525
 30
0.0
 10
206.2619234315
 20
188.1431271346
 30
0.0
 10
206.5299538687
 20
188.2510416127
 30
0.0
 10
206.9099546403
 20
188.4812286219
 30
0.0
 10
207.2784652307
 20
188.7699872632
 30
0.0
 10
207.5119998369
 20
188.988987564
 30
0.0
 10
207.6278257979
 20
189.104813525
 30
0.0
  0
SPLINE
  5
458
330
228
100
AcDbEntity
  8
02___PRT_ALL_AXES
  6
Continuous
 62
     7
100
AcDbSpline
 70
     0
 71
     3
 72
    19
 73
    15
 74
     0
 42
0.000000001
 43
0.0000001
 40
0.0
 40
0.0
 40
0.0
 40
0.0
 40
0.1683000113
 40
0.2404505744
 40
0.3036556532
 40
0.4090388234
 40
0.4554737865
 40
0.5000393211
 40
0.5446067335
 40
0.591042408
 40
0.696430429
 40
0.7596418824
 40
0.8317824151
 40
1.0
 40
1.0
 40
1.0
 40
1.0
 10
205.1278257979
 20
187.604813525
 30
0.0
 10
205.1278257979
 20
187.4982078497
 30
0.0
 10
205.1519986626
 20
187.3438814231
 30
0.0
 10
205.2308157391
 20
187.1674877002
 30
0.0
 10
205.3167634924
 20
187.0409548364
 30
0.0
 10
205.424200363
 20
186.9499671799
 30
0.0
 10
205.5418359243
 20
186.9064894785
 30
0.0
 10
205.6279037344
 20
186.8961133993
 30
0.0
 10
205.7139710199
 20
186.906516487
 30
0.0
 10
205.8315830631
 20
186.9500694969
 30
0.0
 10
205.9390058519
 20
187.0410746323
 30
0.0
 10
206.0249200767
 20
187.1676342518
 30
0.0
 10
206.103666201
 20
187.3439977691
 30
0.0
 10
206.1278257979
 20
187.4982600608
 30
0.0
 10
206.1278257979
 20
187.604813525
 30
0.0
  0
SPLINE
  5
459
330
228
100
AcDbEntity
  8
02___PRT_ALL_AXES
  6
Continuous
 62
     7
100
AcDbSpline
 70
     0
 71
     3
 72
    11
 73
     7
 74
     0
 42
0.000000001
 43
0.0000001
 40
0.0
 40
0.0
 40
0.0
 40
0.0
 40
0.2298345438
 40
0.4729500311
 40
0.7300550521
 40
1.0
 40
1.0
 40
1.0
 40
1.0
 10
218.1278257979
 20
188.104813525
 30
0.0
 10
218.2619234315
 20
188.1431271346
 30
0.0
 10
218.5299538687
 20
188.2510416127
 30
0.0
 10
218.9099546403
 20
188.4812286219
 30
0.0
 10
219.2784652307
 20
188.7699872632
 30
0.0
 10
219.5119998369
 20
188.988987564
 30
0.0
 10
219.6278257979
 20
189.104813525
 30
0.0
  0
LINE
  5
45A
330
228
100
AcDbEntity
  8
7_ALL_FEATURES
  6
Continuous
 62
     7
100
AcDbLine
 10
213.7667535249
 20
239.104813525
 30
0.0
 11
213.8321725971
 21
239.604813525
 31
0.0
  0
LINE
  5
45B
330
228
100
AcDbEntity
  8
7_ALL_FEATURES
  6
Continuous
 62
     7
100
AcDbLine
 10
195.4234789987
 20
239.604813525
 30
0.0
 11
195.4888980708
 21
239.104813525
 31
0.0
  0
SPLINE
  5
45C
330
228
100
AcDbEntity
  8
7_ALL_FEATURES
  6
Continuous
 62
     7
100
AcDbSpline
 70
     0
 71
     3
 72
     8
 73
     4
 74
     0
 42
0.000000001
 43
0.0000001
 40
0.0
 40
0.0
 40
0.0
 40
0.0
 40
1.0
 40
1.0
 40
1.0
 40
1.0
 10
197.5558741754
 20
193.354813525
 30
0.0
 10
197.5868350647
 20
193.1047893347
 30
0.0
 10
197.6179720429
 20
192.8547868425
 30
0.0
 10
197.6493410232
 20
192.604813525
 30
0.0
  0
SPLINE
  5
45D
330
228
100
AcDbEntity
  8
7_ALL_FEATURES
  6
Continuous
 62
     7
100
AcDbSpline
 70
     0
 71
     3
 72
     8
 73
     4
 74
     0
 42
0.000000001
 43
0.0000001
 40
0.0
 40
0.0
 40
0.0
 40
0.0
 40
1.0
 40
1.0
 40
1.0
 40
1.0
 10
211.6063105725
 20
192.604813525
 30
0.0
 10
211.6376793144
 20
192.8547868724
 30
0.0
 10
211.6688167723
 20
193.1047893048
 30
0.0
 10
211.6997774203
 20
193.354813525
 30
0.0
  0
SPLINE
  5
45E
330
228
100
AcDbEntity
  8
0
  6
Continuous
 62
     2
100
AcDbSpline
 70
     0
 71
     3
 72
   120
 73
   116
 74
     0
 42
0.000000001
 43
0.0000001
 40
0.0
 40
0.0
 40
0.0
 40
0.0
 40
0.03125
 40
0.046875
 40
0.0625
 40
0.0703125
 40
0.078125
 40
0.0859375
 40
0.09375
 40
0.09765625
 40
0.099609375
 40
0.1015625
 40
0.103515625
 40
0.10546875
 40
0.109375
 40
0.1171875
 40
0.125
 40
0.140625
 40
0.15625
 40
0.171875
 40
0.1875
 40
0.1953125
 40
0.197265625
 40
0.19921875
 40
0.203125
 40
0.20703125
 40
0.2109375
 40
0.21875
 40
0.2265625
 40
0.234375
 40
0.25
 40
0.265625
 40
0.2734375
 40
0.28125
 40
0.2890625
 40
0.29296875
 40
0.296875
 40
0.30078125
 40
0.302734375
 40
0.3046875
 40
0.3125
 40
0.328125
 40
0.34375
 40
0.359375
 40
0.375
 40
0.390625
 40
0.39453125
 40
0.3984375
 40
0.40625
 40
0.4140625
 40
0.421875
 40
0.4375
 40
0.453125
 40
0.46875
 40
0.484375
 40
0.4921875
 40
0.49609375
 40
0.5
 40
0.50390625
 40
0.5078125
 40
0.515625
 40
0.53125
 40
0.546875
 40
0.5625
 40
0.578125
 40
0.5859375
 40
0.59375
 40
0.6015625
 40
0.60546875
 40
0.609375
 40
0.6171875
 40
0.625
 40
0.640625
 40
0.65625
 40
0.671875
 40
0.6875
 40
0.6953125
 40
0.697265625
 40
0.69921875
 40
0.703125
 40
0.70703125
 40
0.7109375
 40
0.71875
 40
0.734375
 40
0.75
 40
0.765625
 40
0.7734375
 40
0.78125
 40
0.7890625
 40
0.79296875
 40
0.796875
 40
0.80078125
 40
0.802734375
 40
0.8046875
 40
0.80859375
 40
0.8125
 40
0.828125
 40
0.84375
 40
0.859375
 40
0.875
 40
0.8828125
 40
0.890625
 40
0.89453125
 40
0.896484375
 40
0.8984375
 40
0.900390625
 40
0.90234375
 40
0.90625
 40
0.9140625
 40
0.921875
 40
0.9296875
 40
0.9375
 40
0.953125
 40
0.96875
 40
1.0
 40
1.0
 40
1.0
 40
1.0
 10
314.3631243678
 20
101.2111223362
 30
0.0
 10
314.3376315184
 20
101.201049628
 30
0.0
 10
314.2993925584
 20
101.1859405056
 30
0.0
 10
314.2484060217
 20
101.1657952498
 30
0.0
 10
314.2165420545
 20
101.1532039633
 30
0.0
 10
314.1910449112
 20
101.1431320779
 30
0.0
 10
314.1719383913
 20
101.1355750334
 30
0.0
 10
314.1527695058
 20
101.1280299388
 30
0.0
 10
314.1369897054
 20
101.1217051356
 30
0.0
 10
314.1255631613
 20
101.1173507164
 30
0.0
 10
314.119628027
 20
101.1147485989
 30
0.0
 10
314.1135024847
 20
101.1131178039
 30
0.0
 10
314.1073982387
 20
101.1114829283
 30
0.0
 10
314.0992518159
 20
101.1093045174
 30
0.0
 10
314.0849990335
 20
101.1054916365
 30
0.0
 10
314.0646361355
 20
101.1000449988
 30
0.0
 10
314.0320563554
 20
101.0913302514
 30
0.0
 10
313.9913323262
 20
101.0804364297
 30
0.0
 10
313.942458866
 20
101.0673658945
 30
0.0
 10
313.8936027932
 20
101.054287776
 30
0.0
 10
313.8528352953
 20
101.0434129124
 30
0.0
 10
313.8264348605
 20
101.0363013731
 30
0.0
 10
313.8141466057
 20
101.0330641797
 30
0.0
 10
313.8062100799
 20
101.0307946982
 30
0.0
 10
313.7944238119
 20
101.0287704629
 30
0.0
 10
313.7805217201
 20
101.0262362193
 30
0.0
 10
313.761901263
 20
101.0228939621
 30
0.0
 10
313.7386546273
 20
101.0187035368
 30
0.0
 10
313.7107462754
 20
101.013680423
 30
0.0
 10
313.6735394851
 20
101.0069810442
 30
0.0
 10
313.6270293783
 20
100.9986075328
 30
0.0
 10
313.580520315
 20
100.9902335401
 30
0.0
 10
313.5433118552
 20
100.9835349312
 30
0.0
 10
313.5154085116
 20
100.9785095077
 30
0.0
 10
313.492146225
 20
100.9743263003
 30
0.0
 10
313.4735576958
 20
100.9709693186
 30
0.0
 10
313.4595580989
 20
100.9684800424
 30
0.0
 10
313.448076893
 20
100.9663151184
 30
0.0
 10
313.4375186268
 20
100.9652547317
 30
0.0
 10
313.4220340718
 20
100.9634916071
 30
0.0
 10
313.3882779607
 20
100.959772394
 30
0.0
 10
313.3364850316
 20
100.9539819565
 30
0.0
 10
313.2742728858
 20
100.9470645587
 30
0.0
 10
313.2120799843
 20
100.9401323661
 30
0.0
 10
313.1498707364
 20
100.9332282253
 30
0.0
 10
313.1032484067
 20
100.9279770604
 30
0.0
 10
313.0721142847
 20
100.9245892832
 30
0.0
 10
313.0514830065
 20
100.9220619041
 30
0.0
 10
313.0247841694
 20
100.9208626376
 30
0.0
 10
312.9928633178
 20
100.9191698209
 30
0.0
 10
312.9502610138
 20
100.9170014754
 30
0.0
 10
312.8970225145
 20
100.9142597095
 30
0.0
 10
312.8331290412
 20
100.910986879
 30
0.0
 10
312.7692416551
 20
100.9076950287
 30
0.0
 10
312.715987938
 20
100.9050008121
 30
0.0
 10
312.6787375532
 20
100.9030202984
 30
0.0
 10
312.6574092295
 20
100.9020359852
 30
0.0
 10
312.641532379
 20
100.9008825414
 30
0.0
 10
312.6251991544
 20
100.9013162285
 30
0.0
 10
312.6035807074
 20
100.9013408663
 30
0.0
 10
312.5656742829
 20
100.9016419478
 30
0.0
 10
312.5115608067
 20
100.9019369749
 30
0.0
 10
312.4466090212
 20
100.9023498013
 30
0.0
 10
312.3816579976
 20
100.9027435951
 30
0.0
 10
312.3275426168
 20
100.9030862037
 30
0.0
 10
312.2842247978
 20
100.9033351338
 30
0.0
 10
312.2518066935
 20
100.9035886334
 30
0.0
 10
312.2245680376
 20
100.9035876918
 30
0.0
 10
312.2044319635
 20
100.905157363
 30
0.0
 10
312.1840068891
 20
100.9064527776
 30
0.0
 10
312.158574485
 20
100.9081659394
 30
0.0
 10
312.1178274297
 20
100.9108545927
 30
0.0
 10
312.0669119208
 20
100.9142328778
 30
0.0
 10
312.005808234
 20
100.9182815791
 30
0.0
 10
311.9446955555
 20
100.9223232944
 30
0.0
 10
311.8938025257
 20
100.9257190444
 30
0.0
 10
311.8606590149
 20
100.9278751948
 30
0.0
 10
311.8454283371
 20
100.9289241027
 30
0.0
 10
311.8351106109
 20
100.9294904899
 30
0.0
 10
311.8234098465
 20
100.9311682286
 30
0.0
 10
311.80921412
 20
100.9330560322
 30
0.0
 10
311.7903404834
 20
100.9356168733
 30
0.0
 10
311.7572864655
 20
100.9400779538
 30
0.0
 10
311.710079549
 20
100.9464615742
 30
0.0
 10
311.6534258198
 20
100.9541174156
 30
0.0
 10
311.6062149981
 20
100.9604980961
 30
0.0
 10
311.5684475691
 20
100.9656029418
 30
0.0
 10
311.5401179409
 20
100.9694301844
 30
0.0
 10
311.5165229271
 20
100.9726240665
 30
0.0
 10
311.4976177209
 20
100.9751690363
 30
0.0
 10
311.4835185958
 20
100.9771054634
 30
0.0
 10
311.4715155577
 20
100.9786310432
 30
0.0
 10
311.463791469
 20
100.9805036787
 30
0.0
 10
311.4557393748
 20
100.9822624287
 30
0.0
 10
311.4457863707
 20
100.9844997928
 30
0.0
 10
311.421806886
 20
100.9898374282
 30
0.0
 10
311.3858764183
 20
100.9978573387
 30
0.0
 10
311.3379469612
 20
101.0085428564
 30
0.0
 10
311.2900234851
 20
101.0192304499
 30
0.0
 10
311.2500857908
 20
101.0281362723
 30
0.0
 10
311.218136159
 20
101.0352611055
 30
0.0
 10
311.198167062
 20
101.0397139408
 30
0.0
 10
311.1841897915
 20
101.0428312766
 30
0.0
 10
311.1762010717
 20
101.0446120651
 30
0.0
 10
311.1702143423
 20
101.045949195
 30
0.0
 10
311.1642092254
 20
101.0472804439
 30
0.0
 10
311.1581297513
 20
101.0496718859
 30
0.0
 10
311.1465926758
 20
101.0535696944
 30
0.0
 10
311.1305806902
 20
101.0592881733
 30
0.0
 10
311.1111650253
 20
101.06608597
 30
0.0
 10
311.0918032075
 20
101.0729009891
 30
0.0
 10
311.0659686424
 20
101.0819816657
 30
0.0
 10
311.0336818787
 20
101.0933345721
 30
0.0
 10
310.9820194397
 20
101.1114980655
 30
0.0
 10
310.9432734243
 20
101.1251209458
 30
0.0
 10
310.9174425666
 20
101.1342028081
 30
0.0
  0
SPLINE
  5
45F
330
228
100
AcDbEntity
  8
0
  6
Continuous
 62
     2
100
AcDbSpline
 70
     0
 71
     3
 72
   120
 73
   116
 74
     0
 42
0.000000001
 43
0.0000001
 40
0.0
 40
0.0
 40
0.0
 40
0.0
 40
0.03125
 40
0.046875
 40
0.0625
 40
0.0703125
 40
0.078125
 40
0.0859375
 40
0.09375
 40
0.09765625
 40
0.099609375
 40
0.1015625
 40
0.103515625
 40
0.10546875
 40
0.109375
 40
0.1171875
 40
0.125
 40
0.140625
 40
0.15625
 40
0.171875
 40
0.1875
 40
0.1953125
 40
0.197265625
 40
0.19921875
 40
0.203125
 40
0.20703125
 40
0.2109375
 40
0.21875
 40
0.2265625
 40
0.234375
 40
0.25
 40
0.265625
 40
0.2734375
 40
0.28125
 40
0.2890625
 40
0.29296875
 40
0.296875
 40
0.30078125
 40
0.302734375
 40
0.3046875
 40
0.3125
 40
0.328125
 40
0.34375
 40
0.359375
 40
0.375
 40
0.390625
 40
0.39453125
 40
0.3984375
 40
0.40625
 40
0.4140625
 40
0.421875
 40
0.4375
 40
0.453125
 40
0.46875
 40
0.484375
 40
0.4921875
 40
0.49609375
 40
0.5
 40
0.50390625
 40
0.5078125
 40
0.515625
 40
0.53125
 40
0.546875
 40
0.5625
 40
0.578125
 40
0.5859375
 40
0.59375
 40
0.6015625
 40
0.60546875
 40
0.609375
 40
0.6171875
 40
0.625
 40
0.640625
 40
0.65625
 40
0.671875
 40
0.6875
 40
0.6953125
 40
0.697265625
 40
0.69921875
 40
0.703125
 40
0.70703125
 40
0.7109375
 40
0.71875
 40
0.734375
 40
0.75
 40
0.765625
 40
0.7734375
 40
0.78125
 40
0.7890625
 40
0.79296875
 40
0.796875
 40
0.80078125
 40
0.802734375
 40
0.8046875
 40
0.80859375
 40
0.8125
 40
0.828125
 40
0.84375
 40
0.859375
 40
0.875
 40
0.8828125
 40
0.890625
 40
0.89453125
 40
0.896484375
 40
0.8984375
 40
0.900390625
 40
0.90234375
 40
0.90625
 40
0.9140625
 40
0.921875
 40
0.9296875
 40
0.9375
 40
0.953125
 40
0.96875
 40
1.0
 40
1.0
 40
1.0
 40
1.0
 10
314.4828153896
 20
96.406222855
 30
0.0
 10
314.4573225402
 20
96.3961501468
 30
0.0
 10
314.4190835802
 20
96.3810410244
 30
0.0
 10
314.3680970435
 20
96.3608957686
 30
0.0
 10
314.3362330763
 20
96.3483044821
 30
0.0
 10
314.310735933
 20
96.3382325967
 30
0.0
 10
314.2916294131
 20
96.3306755522
 30
0.0
 10
314.2724605276
 20
96.3231304576
 30
0.0
 10
314.2566807271
 20
96.3168056544
 30
0.0
 10
314.2452541831
 20
96.3124512352
 30
0.0
 10
314.2393190488
 20
96.3098491177
 30
0.0
 10
314.2331935065
 20
96.3082183227
 30
0.0
 10
314.2270892604
 20
96.3065834471
 30
0.0
 10
314.2189428376
 20
96.3044050361
 30
0.0
 10
314.2046900553
 20
96.3005921553
 30
0.0
 10
314.1843271573
 20
96.2951455175
 30
0.0
 10
314.1517473772
 20
96.2864307702
 30
0.0
 10
314.111023348
 20
96.2755369485
 30
0.0
 10
314.0621498877
 20
96.2624664133
 30
0.0
 10
314.0132938149
 20
96.2493882947
 30
0.0
 10
313.9725263171
 20
96.2385134312
 30
0.0
 10
313.9461258823
 20
96.2314018919
 30
0.0
 10
313.9338376275
 20
96.2281646985
 30
0.0
 10
313.9259011016
 20
96.225895217
 30
0.0
 10
313.9141148336
 20
96.2238709817
 30
0.0
 10
313.9002127418
 20
96.2213367381
 30
0.0
 10
313.8815922848
 20
96.2179944808
 30
0.0
 10
313.8583456491
 20
96.2138040556
 30
0.0
 10
313.8304372972
 20
96.2087809418
 30
0.0
 10
313.7932305068
 20
96.202081563
 30
0.0
 10
313.7467204001
 20
96.1937080515
 30
0.0
 10
313.7002113368
 20
96.1853340589
 30
0.0
 10
313.663002877
 20
96.17863545
 30
0.0
 10
313.6350995334
 20
96.1736100265
 30
0.0
 10
313.6118372468
 20
96.1694268191
 30
0.0
 10
313.5932487175
 20
96.1660698374
 30
0.0
 10
313.5792491207
 20
96.1635805612
 30
0.0
 10
313.5677679147
 20
96.1614156372
 30
0.0
 10
313.5572096486
 20
96.1603552505
 30
0.0
 10
313.5417250935
 20
96.1585921259
 30
0.0
 10
313.5079689825
 20
96.1548729128
 30
0.0
 10
313.4561760534
 20
96.1490824753
 30
0.0
 10
313.3939639076
 20
96.1421650775
 30
0.0
 10
313.3317710061
 20
96.1352328849
 30
0.0
 10
313.2695617581
 20
96.1283287441
 30
0.0
 10
313.2229394285
 20
96.1230775792
 30
0.0
 10
313.1918053065
 20
96.119689802
 30
0.0
 10
313.1711740283
 20
96.1171624229
 30
0.0
 10
313.1444751912
 20
96.1159631564
 30
0.0
 10
313.1125543395
 20
96.1142703397
 30
0.0
 10
313.0699520356
 20
96.1121019942
 30
0.0
 10
313.0167135362
 20
96.1093602283
 30
0.0
 10
312.952820063
 20
96.1060873978
 30
0.0
 10
312.8889326769
 20
96.1027955475
 30
0.0
 10
312.8356789597
 20
96.1001013309
 30
0.0
 10
312.798428575
 20
96.0981208172
 30
0.0
 10
312.7771002513
 20
96.097136504
 30
0.0
 10
312.7612234007
 20
96.0959830602
 30
0.0
 10
312.7448901761
 20
96.0964167473
 30
0.0
 10
312.7232717292
 20
96.096441385
 30
0.0
 10
312.6853653047
 20
96.0967424666
 30
0.0
 10
312.6312518284
 20
96.0970374937
 30
0.0
 10
312.566300043
 20
96.0974503201
 30
0.0
 10
312.5013490193
 20
96.0978441139
 30
0.0
 10
312.4472336386
 20
96.0981867225
 30
0.0
 10
312.4039158196
 20
96.0984356526
 30
0.0
 10
312.3714977153
 20
96.0986891522
 30
0.0
 10
312.3442590594
 20
96.0986882106
 30
0.0
 10
312.3241229853
 20
96.1002578818
 30
0.0
 10
312.3036979108
 20
96.1015532964
 30
0.0
 10
312.2782655068
 20
96.1032664582
 30
0.0
 10
312.2375184515
 20
96.1059551114
 30
0.0
 10
312.1866029426
 20
96.1093333966
 30
0.0
 10
312.1254992558
 20
96.1133820979
 30
0.0
 10
312.0643865773
 20
96.1174238132
 30
0.0
 10
312.0134935475
 20
96.1208195632
 30
0.0
 10
311.9803500366
 20
96.1229757136
 30
0.0
 10
311.9651193588
 20
96.1240246215
 30
0.0
 10
311.9548016327
 20
96.1245910087
 30
0.0
 10
311.9431008682
 20
96.1262687474
 30
0.0
 10
311.9289051418
 20
96.128156551
 30
0.0
 10
311.9100315052
 20
96.1307173921
 30
0.0
 10
311.8769774872
 20
96.1351784726
 30
0.0
 10
311.8297705708
 20
96.141562093
 30
0.0
 10
311.7731168416
 20
96.1492179344
 30
0.0
 10
311.7259060199
 20
96.1555986149
 30
0.0
 10
311.6881385909
 20
96.1607034606
 30
0.0
 10
311.6598089626
 20
96.1645307032
 30
0.0
 10
311.6362139488
 20
96.1677245853
 30
0.0
 10
311.6173087427
 20
96.1702695551
 30
0.0
 10
311.6032096176
 20
96.1722059822
 30
0.0
 10
311.5912065795
 20
96.173731562
 30
0.0
 10
311.5834824907
 20
96.1756041975
 30
0.0
 10
311.5754303965
 20
96.1773629475
 30
0.0
 10
311.5654773924
 20
96.1796003116
 30
0.0
 10
311.5414979078
 20
96.184937947
 30
0.0
 10
311.5055674401
 20
96.1929578575
 30
0.0
 10
311.457637983
 20
96.2036433752
 30
0.0
 10
311.4097145069
 20
96.2143309687
 30
0.0
 10
311.3697768125
 20
96.2232367911
 30
0.0
 10
311.3378271807
 20
96.2303616243
 30
0.0
 10
311.3178580838
 20
96.2348144596
 30
0.0
 10
311.3038808132
 20
96.2379317954
 30
0.0
 10
311.2958920935
 20
96.2397125839
 30
0.0
 10
311.2899053641
 20
96.2410497138
 30
0.0
 10
311.2839002472
 20
96.2423809627
 30
0.0
 10
311.2778207731
 20
96.2447724047
 30
0.0
 10
311.2662836976
 20
96.2486702131
 30
0.0
 10
311.250271712
 20
96.2543886921
 30
0.0
 10
311.2308560471
 20
96.2611864888
 30
0.0
 10
311.2114942293
 20
96.2680015079
 30
0.0
 10
311.1856596642
 20
96.2770821845
 30
0.0
 10
311.1533729004
 20
96.2884350909
 30
0.0
 10
311.1017104615
 20
96.3065985842
 30
0.0
 10
311.0629644461
 20
96.3202214645
 30
0.0
 10
311.0371335883
 20
96.3293033269
 30
0.0
  0
SPLINE
  5
460
330
228
100
AcDbEntity
  8
0
  6
Continuous
 62
     2
100
AcDbSpline
 70
     0
 71
     3
 72
   144
 73
   140
 74
     0
 42
0.000000001
 43
0.0000001
 40
0.0
 40
0.0
 40
0.0
 40
0.0
 40
0.03125
 40
0.046875
 40
0.0625
 40
0.078125
 40
0.09375
 40
0.1015625
 40
0.109375
 40
0.11328125
 40
0.1171875
 40
0.12109375
 40
0.123046875
 40
0.1240234375
 40
0.125
 40
0.1259765625
 40
0.126953125
 40
0.12890625
 40
0.1328125
 40
0.13671875
 40
0.140625
 40
0.1484375
 40
0.15625
 40
0.171875
 40
0.1875
 40
0.203125
 40
0.21875
 40
0.2265625
 40
0.234375
 40
0.23828125
 40
0.2421875
 40
0.24609375
 40
0.248046875
 40
0.2490234375
 40
0.25
 40
0.2509765625
 40
0.251953125
 40
0.25390625
 40
0.2578125
 40
0.26171875
 40
0.265625
 40
0.2734375
 40
0.28125
 40
0.296875
 40
0.3125
 40
0.328125
 40
0.34375
 40
0.3515625
 40
0.359375
 40
0.36328125
 40
0.3671875
 40
0.37109375
 40
0.373046875
 40
0.3740234375
 40
0.375
 40
0.3759765625
 40
0.376953125
 40
0.37890625
 40
0.3828125
 40
0.38671875
 40
0.390625
 40
0.3984375
 40
0.40625
 40
0.421875
 40
0.4375
 40
0.453125
 40
0.46875
 40
0.4765625
 40
0.484375
 40
0.48828125
 40
0.4921875
 40
0.49609375
 40
0.498046875
 40
0.4990234375
 40
0.5
 40
0.5009765625
 40
0.501953125
 40
0.50390625
 40
0.5078125
 40
0.51171875
 40
0.515625
 40
0.5234375
 40
0.53125
 40
0.546875
 40
0.5625
 40
0.578125
 40
0.59375
 40
0.6015625
 40
0.609375
 40
0.61328125
 40
0.6171875
 40
0.62109375
 40
0.623046875
 40
0.6240234375
 40
0.625
 40
0.6259765625
 40
0.626953125
 40
0.62890625
 40
0.6328125
 40
0.63671875
 40
0.640625
 40
0.6484375
 40
0.65625
 40
0.671875
 40
0.6875
 40
0.703125
 40
0.71875
 40
0.7265625
 40
0.734375
 40
0.7421875
 40
0.74609375
 40
0.748046875
 40
0.75
 40
0.751953125
 40
0.75390625
 40
0.7578125
 40
0.765625
 40
0.7734375
 40
0.78125
 40
0.796875
 40
0.8125
 40
0.828125
 40
0.84375
 40
0.8515625
 40
0.859375
 40
0.8671875
 40
0.87109375
 40
0.873046875
 40
0.875
 40
0.876953125
 40
0.87890625
 40
0.8828125
 40
0.890625
 40
0.8984375
 40
0.90625
 40
0.921875
 40
0.9375
 40
0.96875
 40
1.0
 40
1.0
 40
1.0
 40
1.0
 10
310.917442571
 20
101.1342028061
 30
0.0
 10
310.9030799951
 20
101.1426224866
 30
0.0
 10
310.8815361284
 20
101.155252007
 30
0.0
 10
310.8528109841
 20
101.1720913688
 30
0.0
 10
310.8312670976
 20
101.184720887
 30
0.0
 10
310.8097233182
 20
101.1973504173
 30
0.0
 10
310.7917698355
 20
101.2078749879
 30
0.0
 10
310.7774077955
 20
101.2162947297
 30
0.0
 10
310.7684298216
 20
101.2215568738
 30
0.0
 10
310.7612513334
 20
101.2257670346
 30
0.0
 10
310.7558568139
 20
101.2289234356
 30
0.0
 10
310.7513952709
 20
101.2315576495
 30
0.0
 10
310.7482056828
 20
101.2333939852
 30
0.0
 10
310.7464869078
 20
101.2344552086
 30
0.0
 10
310.7449052885
 20
101.2352176356
 30
0.0
 10
310.7444418979
 20
101.2361080803
 30
0.0
 10
310.7434339932
 20
101.2372506859
 30
0.0
 10
310.7418518917
 20
101.2392710508
 30
0.0
 10
310.7394967353
 20
101.2421464092
 30
0.0
 10
310.7367112155
 20
101.2456014951
 30
0.0
 10
310.7329829847
 20
101.2502066501
 30
0.0
 10
310.7283275599
 20
101.2559636506
 30
0.0
 10
310.720876161
 20
101.2651745403
 30
0.0
 10
310.711562852
 20
101.2766882596
 30
0.0
 10
310.7003864501
 20
101.2905046747
 30
0.0
 10
310.6892102689
 20
101.3043211106
 30
0.0
 10
310.6798964082
 20
101.3158347779
 30
0.0
 10
310.6724461125
 20
101.3250457717
 30
0.0
 10
310.6677878838
 20
101.3308025076
 30
0.0
 10
310.664065408
 20
101.3354082057
 30
0.0
 10
310.661262306
 20
101.3388616322
 30
0.0
 10
310.65896216
 20
101.3417421825
 30
0.0
 10
310.6572818558
 20
101.3437532791
 30
0.0
 10
310.6564312966
 20
101.3449107349
 30
0.0
 10
310.6554845908
 20
101.3457555644
 30
0.0
 10
310.6557182234
 20
101.3466893146
 30
0.0
 10
310.6556180183
 20
101.3479032983
 30
0.0
 10
310.6556344852
 20
101.3500422209
 30
0.0
 10
310.6555577206
 20
101.3530902695
 30
0.0
 10
310.6555085298
 20
101.3567511617
 30
0.0
 10
310.6554279486
 20
101.3616312217
 30
0.0
 10
310.6553323561
 20
101.3677316835
 30
0.0
 10
310.6551765378
 20
101.3774922062
 30
0.0
 10
310.6549827564
 20
101.3896929337
 30
0.0
 10
310.6547497653
 20
101.4043337756
 30
0.0
 10
310.6545170011
 20
101.418974623
 30
0.0
 10
310.6543226527
 20
101.4311753367
 30
0.0
 10
310.6541679683
 20
101.4409358869
 30
0.0
 10
310.6540694937
 20
101.4470362789
 30
0.0
 10
310.6539948279
 20
101.4519164822
 30
0.0
 10
310.6539275651
 20
101.4555769366
 30
0.0
 10
310.6539073433
 20
101.458626355
 30
0.0
 10
310.6538228718
 20
101.4607628323
 30
0.0
 10
310.6538843953
 20
101.4619807341
 30
0.0
 10
310.6536212496
 20
101.4629024492
 30
0.0
 10
310.6545403607
 20
101.4637924804
 30
0.0
 10
310.6553534577
 20
101.4649902404
 30
0.0
 10
310.656968515
 20
101.4670811711
 30
0.0
 10
310.6591752881
 20
101.4700709071
 30
0.0
 10
310.6618664123
 20
101.4736574381
 30
0.0
 10
310.6654395602
 20
101.4784398818
 30
0.0
 10
310.6699111372
 20
101.4844177986
 30
0.0
 10
310.6770627856
 20
101.4939825426
 30
0.0
 10
310.6860033387
 20
101.5059384457
 30
0.0
 10
310.69673155
 20
101.5202855428
 30
0.0
 10
310.7074599826
 20
101.5346326297
 30
0.0
 10
310.7163999828
 20
101.5465885581
 30
0.0
 10
310.7235527369
 20
101.5561532515
 30
0.0
 10
310.7280215037
 20
101.562131297
 30
0.0
 10
310.7316004193
 20
101.5669134767
 30
0.0
 10
310.7342739222
 20
101.5705008142
 30
0.0
 10
310.7365358284
 20
101.5734880267
 30
0.0
 10
310.7380524638
 20
101.5755834623
 30
0.0
 10
310.7390232575
 20
101.5767740043
 30
0.0
 10
310.739457975
 20
101.5776862068
 30
0.0
 10
310.7410141308
 20
101.5785246503
 30
0.0
 10
310.742697835
 20
101.579668303
 30
0.0
 10
310.7458265708
 20
101.5816577079
 30
0.0
 10
310.7502009092
 20
101.5845059821
 30
0.0
 10
310.7554909
 20
101.5879212286
 30
0.0
 10
310.7625299757
 20
101.5924758275
 30
0.0
 10
310.7713336981
 20
101.5981687553
 30
0.0
 10
310.7854169269
 20
101.6072776192
 30
0.0
 10
310.8030219047
 20
101.6186636369
 30
0.0
 10
310.8241474483
 20
101.6323268876
 30
0.0
 10
310.8452732037
 20
101.64599012
 30
0.0
 10
310.862877652
 20
101.6573761835
 30
0.0
 10
310.8769619397
 20
101.6664849557
 30
0.0
 10
310.8857629709
 20
101.6721781167
 30
0.0
 10
310.8928075703
 20
101.676732237
 30
0.0
 10
310.8980806855
 20
101.6801489458
 30
0.0
 10
310.9025078235
 20
101.6829926446
 30
0.0
 10
310.9055423031
 20
101.6849902174
 30
0.0
 10
310.9073770295
 20
101.6861207831
 30
0.0
 10
310.9084692935
 20
101.6869994257
 30
0.0
 10
310.9106463117
 20
101.687760647
 30
0.0
 10
310.9131706282
 20
101.6888165665
 30
0.0
 10
310.9177644738
 20
101.6906453427
 30
0.0
 10
310.924234943
 20
101.693267857
 30
0.0
 10
310.9320389567
 20
101.6964106037
 30
0.0
 10
310.9424305288
 20
101.7006024243
 30
0.0
 10
310.9554247132
 20
101.7058416889
 30
0.0
 10
310.976212764
 20
101.7142247998
 30
0.0
 10
311.0021987821
 20
101.7247035771
 30
0.0
 10
311.0333813883
 20
101.7372782127
 30
0.0
 10
311.0645649293
 20
101.7498526152
 30
0.0
 10
311.0905486105
 20
101.7603319751
 30
0.0
 10
311.111341335
 20
101.7687139209
 30
0.0
 10
311.1269201015
 20
101.7750045918
 30
0.0
 10
311.1399525885
 20
101.7802334215
 30
0.0
 10
311.1489768505
 20
101.7839198915
 30
0.0
 10
311.1542873381
 20
101.7859853975
 30
0.0
 10
311.1578370411
 20
101.7876501605
 30
0.0
 10
311.163042512
 20
101.7888729135
 30
0.0
 10
311.1694055896
 20
101.7906574289
 30
0.0
 10
311.1808100667
 20
101.7937084964
 30
0.0
 10
311.1969614925
 20
101.7981047202
 30
0.0
 10
311.2164034226
 20
101.8033641132
 30
0.0
 10
311.2423049543
 20
101.8103822545
 30
0.0
 10
311.274689134
 20
101.8191529902
 30
0.0
 10
311.3135468398
 20
101.8296787634
 30
0.0
 10
311.3524061609
 20
101.8402040803
 30
0.0
 10
311.3847863023
 20
101.8489759571
 30
0.0
 10
311.4106959107
 20
101.8559918161
 30
0.0
 10
311.4301132067
 20
101.8612581699
 30
0.0
 10
311.4463416979
 20
101.8656326172
 30
0.0
 10
311.4576086016
 20
101.8687225592
 30
0.0
 10
311.4641921063
 20
101.870444788
 30
0.0
 10
311.4687204956
 20
101.8718588655
 30
0.0
 10
311.4748132049
 20
101.8728050452
 30
0.0
 10
311.482391165
 20
101.8742298261
 30
0.0
 10
311.4959068247
 20
101.8766471511
 30
0.0
 10
311.5150819959
 20
101.8801402279
 30
0.0
 10
311.5381490927
 20
101.8843149035
 30
0.0
 10
311.5688853508
 20
101.8898870812
 30
0.0
 10
311.6073124775
 20
101.8968502681
 30
0.0
 10
311.6687920762
 20
101.907992505
 30
0.0
 10
311.7456428885
 20
101.9219199082
 30
0.0
 10
311.8071231379
 20
101.9330619505
 30
0.0
 10
311.8378633127
 20
101.9386329567
 30
0.0
  0
SPLINE
  5
461
330
228
100
AcDbEntity
  8
0
  6
Continuous
 62
     2
100
AcDbSpline
 70
     0
 71
     3
 72
    50
 73
    46
 74
     0
 42
0.000000001
 43
0.0000001
 40
0.0
 40
0.0
 40
0.0
 40
0.0
 40
0.0625
 40
0.125
 40
0.140625
 40
0.15625
 40
0.1640625
 40
0.171875
 40
0.1875
 40
0.21875
 40
0.25
 40
0.28125
 40
0.3125
 40
0.328125
 40
0.3359375
 40
0.34375
 40
0.359375
 40
0.375
 40
0.4375
 40
0.46875
 40
0.484375
 40
0.4921875
 40
0.5
 40
0.5078125
 40
0.515625
 40
0.53125
 40
0.5625
 40
0.625
 40
0.640625
 40
0.65625
 40
0.6640625
 40
0.671875
 40
0.6875
 40
0.71875
 40
0.75
 40
0.78125
 40
0.8125
 40
0.828125
 40
0.8359375
 40
0.84375
 40
0.859375
 40
0.875
 40
0.90625
 40
0.9375
 40
1.0
 40
1.0
 40
1.0
 40
1.0
 10
311.0371335928
 20
96.3293033249
 30
0.0
 10
311.0273224401
 20
96.3341759222
 30
0.0
 10
311.0076924155
 20
96.3439183118
 30
0.0
 10
310.9856433738
 20
96.3548911225
 30
0.0
 10
310.9708933561
 20
96.3621879219
 30
0.0
 10
310.9648222941
 20
96.3652554283
 30
0.0
 10
310.9597910411
 20
96.3676460583
 30
0.0
 10
310.955397579
 20
96.3702684502
 30
0.0
 10
310.9480055916
 20
96.3749653591
 30
0.0
 10
310.9372891165
 20
96.3816187216
 30
0.0
 10
310.9245026362
 20
96.3896277677
 30
0.0
 10
310.9116733855
 20
96.3976271811
 30
0.0
 10
310.9010638366
 20
96.4043046252
 30
0.0
 10
310.8934847283
 20
96.4089593912
 30
0.0
 10
310.8893906596
 20
96.4116492117
 30
0.0
 10
310.8861883097
 20
96.4144517351
 30
0.0
 10
310.8818803691
 20
96.4179163452
 30
0.0
 10
310.8717941857
 20
96.4262633245
 30
0.0
 10
310.8599234726
 20
96.4359888693
 30
0.0
 10
310.8481419921
 20
96.4457242817
 30
0.0
 10
310.8421795024
 20
96.4505847452
 30
0.0
 10
310.838882617
 20
96.4533731592
 30
0.0
 10
310.8360996981
 20
96.4554335202
 30
0.0
 10
310.8345026727
 20
96.4576121762
 30
0.0
 10
310.8319596297
 20
96.4604757873
 30
0.0
 10
310.8277022726
 20
96.4655063409
 30
0.0
 10
310.8190437391
 20
96.4755532728
 30
0.0
 10
310.8104762486
 20
96.4856083199
 30
0.0
 10
310.8030403211
 20
96.4942196672
 30
0.0
 10
310.8000526046
 20
96.4978159716
 30
0.0
 10
310.7974062599
 20
96.5006739584
 30
0.0
 10
310.7956961319
 20
96.5036015776
 30
0.0
 10
310.7931386401
 20
96.5087572974
 30
0.0
 10
310.789255997
 20
96.5161054507
 30
0.0
 10
310.7847016094
 20
96.52493158
 30
0.0
 10
310.7800946187
 20
96.5337517853
 30
0.0
 10
310.7763434831
 20
96.5411147487
 30
0.0
 10
310.7735558532
 20
96.5462445508
 30
0.0
 10
310.7722139463
 20
96.5492136382
 30
0.0
 10
310.7718171013
 20
96.5523249633
 30
0.0
 10
310.7709974571
 20
96.5561654176
 30
0.0
 10
310.7698668661
 20
96.562337362
 30
0.0
 10
310.768391681
 20
96.5700429692
 30
0.0
 10
310.7660661617
 20
96.5823771749
 30
0.0
 10
310.7643141975
 20
96.5916266514
 30
0.0
 10
310.7631479602
 20
96.5977932309
 30
0.0
  0
SPLINE
  5
462
330
228
100
AcDbEntity
  8
02___PRT_ALL_AXES
  6
Continuous
 62
     7
100
AcDbSpline
 70
     0
 71
     3
 72
    19
 73
    15
 74
     0
 42
0.000000001
 43
0.0000001
 40
0.0
 40
0.0
 40
0.0
 40
0.0
 40
0.047614309
 40
0.1008553845
 40
0.1591610837
 40
0.2218507121
 40
0.3571919938
 40
0.4999927644
 40
0.6427938533
 40
0.7781360268
 40
0.8408268989
 40
0.8991342314
 40
0.9523735926
 40
1.0
 40
1.0
 40
1.0
 40
1.0
 10
314.5042234531
 20
91.1374674501
 30
0.0
 10
314.4565566106
 20
91.1175247726
 30
0.0
 10
314.3536847737
 20
91.0797965765
 30
0.0
 10
314.1878974294
 20
91.0310457171
 30
0.0
 10
314.0038105455
 20
90.987524866
 30
0.0
 10
313.7303655829
 20
90.9360373216
 30
0.0
 10
313.3629921353
 20
90.8900215686
 30
0.0
 10
312.9066265273
 20
90.8639156078
 30
0.0
 10
312.4495261562
 20
90.8672632191
 30
0.0
 10
312.0803143133
 20
90.8949277436
 30
0.0
 10
311.8046408189
 20
90.9327367256
 30
0.0
 10
311.6186134824
 20
90.9670337954
 30
0.0
 10
311.4505899713
 20
91.007466501
 30
0.0
 10
311.3459586769
 20
91.0400362864
 30
0.0
 10
311.297345442
 20
91.0575847502
 30
0.0
  0
SPLINE
  5
463
330
228
100
AcDbEntity
  8
02___PRT_ALL_AXES
  6
Continuous
 62
     7
100
AcDbSpline
 70
     0
 71
     3
 72
    11
 73
     7
 74
     0
 42
0.000000001
 43
0.0000001
 40
0.0
 40
0.0
 40
0.0
 40
0.0
 40
0.2499384922
 40
0.4999251056
 40
0.7499437136
 40
1.0
 40
1.0
 40
1.0
 40
1.0
 10
311.006275061
 20
91.1750891051
 30
0.0
 10
310.8066670368
 20
91.2644907494
 30
0.0
 10
310.4207696235
 20
91.4750626544
 30
0.0
 10
309.8994565501
 20
91.8780771235
 30
0.0
 10
309.4484512327
 20
92.3586304818
 30
0.0
 10
309.2022896328
 20
92.7230821745
 30
0.0
 10
309.0946534482
 20
92.9135961352
 30
0.0
  0
SPLINE
  5
464
330
228
100
AcDbEntity
  8
02___PRT_ALL_AXES
  6
Continuous
 62
     7
100
AcDbSpline
 70
     0
 71
     3
 72
     9
 73
     5
 74
     0
 42
0.000000001
 43
0.0000001
 40
0.0
 40
0.0
 40
0.0
 40
0.0
 40
0.4851023963
 40
1.0
 40
1.0
 40
1.0
 40
1.0
 10
309.0506027546
 20
93.0646117537
 30
0.0
 10
309.0512426879
 20
93.038986871
 30
0.0
 10
309.0597952257
 20
92.9861365755
 30
0.0
 10
309.0812710174
 20
92.9372833133
 30
0.0
 10
309.0946561031
 20
92.9135963089
 30
0.0
  0
SPLINE
  5
465
330
228
100
AcDbEntity
  8
02___PRT_ALL_AXES
  6
Continuous
 62
     7
100
AcDbSpline
 70
     0
 71
     3
 72
    11
 73
     7
 74
     0
 42
0.000000001
 43
0.0000001
 40
0.0
 40
0.0
 40
0.0
 40
0.0
 40
0.1961622197
 40
0.4253803458
 40
0.6926992602
 40
1.0
 40
1.0
 40
1.0
 40
1.0
 10
309.0946561031
 20
92.9135963089
 30
0.0
 10
309.1141258605
 20
92.8791415256
 30
0.0
 10
309.1672445027
 20
92.8105109074
 30
0.0
 10
309.2734737216
 20
92.7188368608
 30
0.0
 10
309.4105448163
 20
92.631375074
 30
0.0
 10
309.5145932623
 20
92.5798229081
 30
0.0
 10
309.5711745502
 20
92.55448094
 30
0.0
  0
SPLINE
  5
466
330
228
100
AcDbEntity
  8
02___PRT_ALL_AXES
  6
Continuous
 62
     7
100
AcDbSpline
 70
     0
 71
     3
 72
    12
 73
     8
 74
     0
 42
0.000000001
 43
0.0000001
 40
0.0
 40
0.0
 40
0.0
 40
0.0
 40
0.2924712198
 40
0.5594884985
 40
0.7964575718
 40
0.902593208
 40
1.0
 40
1.0
 40
1.0
 40
1.0
 10
311.1735252012
 20
92.1806015059
 30
0.0
 10
311.0135789464
 20
92.1985988659
 30
0.0
 10
310.7083296129
 20
92.2402354513
 30
0.0
 10
310.2778677634
 20
92.3240935168
 30
0.0
 10
309.9531159897
 20
92.4110502988
 30
0.0
 10
309.7239023623
 20
92.4902579422
 30
0.0
 10
309.6200975095
 20
92.5325690303
 30
0.0
 10
309.5711745502
 20
92.55448094
 30
0.0
  0
SPLINE
  5
467
330
228
100
AcDbEntity
  8
7_ALL_FEATURES
  6
Continuous
 62
     7
100
AcDbSpline
 70
     0
 71
     3
 72
    14
 73
    10
 74
     0
 42
0.000000001
 43
0.0000001
 40
0.0
 40
0.0
 40
0.0
 40
0.0
 40
0.1155615449
 40
0.2339828887
 40
0.3554685226
 40
0.4799802461
 40
0.6072570447
 40
0.7368474064
 40
1.0
 40
1.0
 40
1.0
 40
1.0
 10
363.914982972
 20
114.6489603593
 30
0.0
 10
364.0146681125
 20
114.5214286509
 30
0.0
 10
364.1963509573
 20
114.2468304131
 30
0.0
 10
364.4069787005
 20
113.7938354982
 30
0.0
 10
364.5551871156
 20
113.303650541
 30
0.0
 10
364.6382215336
 20
112.785943028
 30
0.0
 10
364.6546200654
 20
112.2504841177
 30
0.0
 10
364.5872848631
 20
111.5239373377
 30
0.0
 10
364.4376788874
 20
110.9875860539
 30
0.0
 10
364.2986373494
 20
110.6462145355
 30
0.0
  0
SPLINE
  5
468
330
228
100
AcDbEntity
  8
7_ALL_FEATURES
  6
Continuous
 62
     7
100
AcDbSpline
 70
     0
 71
     3
 72
    12
 73
     8
 74
     0
 42
0.000000001
 43
0.0000001
 40
0.0
 40
0.0
 40
0.0
 40
0.0
 40
0.2598342253
 40
0.5160957942
 40
0.7635962346
 40
0.8833072928
 40
1.0
 40
1.0
 40
1.0
 40
1.0
 10
308.0643409258
 20
104.3458237466
 30
0.0
 10
307.8815867777
 20
104.0236497217
 30
0.0
 10
307.59192115
 20
103.3388444487
 30
0.0
 10
307.4079913397
 20
102.2564781326
 30
0.0
 10
307.4761414424
 20
101.3593994781
 30
0.0
 10
307.6661107711
 20
100.6944019148
 30
0.0
 10
307.8038128366
 20
100.3852458388
 30
0.0
 10
307.8827026881
 20
100.2387946625
 30
0.0
  0
SPLINE
  5
469
330
228
100
AcDbEntity
  8
7_ALL_FEATURES
  6
Continuous
 62
     7
100
AcDbSpline
 70
     0
 71
     3
 72
     9
 73
     5
 74
     0
 42
0.000000001
 43
0.0000001
 40
0.0
 40
0.0
 40
0.0
 40
0.0
 40
0.5080453047
 40
1.0
 40
1.0
 40
1.0
 40
1.0
 10
312.0923613296
 20
92.423981378
 30
0.0
 10
312.1156182834
 20
92.3808071526
 30
0.0
 10
312.1744582285
 20
92.3019829543
 30
0.0
 10
312.2562304304
 20
92.246764245
 30
0.0
 10
312.2995679078
 20
92.2273518527
 30
0.0
  0
SPLINE
  5
46A
330
228
100
AcDbEntity
  8
7_ALL_FEATURES
  6
Continuous
 62
     7
100
AcDbSpline
 70
     0
 71
     3
 72
     9
 73
     5
 74
     0
 42
0.000000001
 43
0.0000001
 40
0.0
 40
0.0
 40
0.0
 40
0.0
 40
0.4931395036
 40
1.0
 40
1.0
 40
1.0
 40
1.0
 10
312.2995679078
 20
92.2273518527
 30
0.0
 10
312.339218956
 20
92.2095907427
 30
0.0
 10
312.4258618916
 20
92.1862167798
 30
0.0
 10
312.5153100744
 20
92.1902301045
 30
0.0
 10
312.5592251802
 20
92.198331414
 30
0.0
  0
SPLINE
  5
46B
330
228
100
AcDbEntity
  8
02___PRT_ALL_AXES
  6
Continuous
 62
     7
100
AcDbSpline
 70
     0
 71
     3
 72
    15
 73
    11
 74
     0
 42
0.000000001
 43
0.0000001
 40
0.0
 40
0.0
 40
0.0
 40
0.0
 40
0.1251042912
 40
0.245500612
 40
0.3638963524
 40
0.4840526131
 40
0.6083656678
 40
0.7366857699
 40
0.8676356191
 40
1.0
 40
1.0
 40
1.0
 40
1.0
 10
339.5918514287
 20
87.201978602
 30
0.0
 10
339.8467417203
 20
87.2489998967
 30
0.0
 10
340.3442113312
 20
87.3573019676
 30
0.0
 10
341.066892437
 20
87.5753194761
 30
0.0
 10
341.7553735434
 20
87.8605539002
 30
0.0
 10
342.4097003175
 20
88.2359197534
 30
0.0
 10
343.0131413227
 20
88.7241664001
 30
0.0
 10
343.5312135969
 20
89.3336292361
 30
0.0
 10
343.9237169532
 20
90.0502590574
 30
0.0
 10
344.0795682971
 20
90.578358133
 30
0.0
 10
344.1281678685
 20
90.8482499948
 30
0.0
  0
SPLINE
  5
46C
330
228
100
AcDbEntity
  8
02___PRT_ALL_AXES
  6
Continuous
 62
     7
100
AcDbSpline
 70
     0
 71
     3
 72
    20
 73
    16
 74
     0
 42
0.000000001
 43
0.0000001
 40
0.0
 40
0.0
 40
0.0
 40
0.0
 40
0.0641634127
 40
0.1275995108
 40
0.1898710272
 40
0.2505284543
 40
0.3094555274
 40
0.3672145015
 40
0.4249359483
 40
0.4837959781
 40
0.5445993094
 40
0.6075592078
 40
0.7386132989
 40
0.8716215013
 40
1.0
 40
1.0
 40
1.0
 40
1.0
 10
330.4303328428
 20
90.0300036447
 30
0.0
 10
330.5078155946
 20
89.8230266369
 30
0.0
 10
330.6983108738
 20
89.4240586417
 30
0.0
 10
331.0776823615
 20
88.8878065982
 30
0.0
 10
331.5300039495
 20
88.4285647297
 30
0.0
 10
332.0328697149
 20
88.0515892528
 30
0.0
 10
332.56713422
 20
87.7523240203
 30
0.0
 10
333.1218156869
 20
87.5189849773
 30
0.0
 10
333.6951466408
 20
87.3381006121
 30
0.0
 10
334.2904882003
 20
87.1986509069
 30
0.0
 10
334.9110965481
 20
87.0938922504
 30
0.0
 10
335.7835120143
 20
86.9948195038
 30
0.0
 10
336.9106451135
 20
86.9486523242
 30
0.0
 10
338.2624866512
 20
87.0060175005
 30
0.0
 10
339.1570015484
 20
87.1217589741
 30
0.0
 10
339.5918514287
 20
87.201978602
 30
0.0
  0
SPLINE
  5
46D
330
228
100
AcDbEntity
  8
02___PRT_ALL_AXES
  6
Continuous
 62
     7
100
AcDbSpline
 70
     0
 71
     3
 72
     9
 73
     5
 74
     0
 42
0.000000001
 43
0.0000001
 40
0.0
 40
0.0
 40
0.0
 40
0.0
 40
0.2503150137
 40
1.0
 40
1.0
 40
1.0
 40
1.0
 10
338.2190378512
 20
90.0321598272
 30
0.0
 10
338.3305828296
 20
90.050295754
 30
0.0
 10
338.7745748841
 20
90.132645736
 30
0.0
 10
339.2112596161
 20
90.2526913518
 30
0.0
 10
339.5324216292
 20
90.3595103557
 30
0.0
  0
SPLINE
  5
46E
330
228
100
AcDbEntity
  8
02___PRT_ALL_AXES
  6
Continuous
 62
     7
100
AcDbSpline
 70
     0
 71
     3
 72
    19
 73
    15
 74
     0
 42
0.000000001
 43
0.0000001
 40
0.0
 40
0.0
 40
0.0
 40
0.0
 40
0.061026116
 40
0.1225492874
 40
0.184701143
 40
0.2473703451
 40
0.3733887619
 40
0.500096303
 40
0.6267924878
 40
0.7527597171
 40
0.8154030712
 40
0.8775241216
 40
0.9390064973
 40
1.0
 40
1.0
 40
1.0
 40
1.0
 10
336.2316176342
 20
89.5022699465
 30
0.0
 10
336.232961629
 20
89.4483163622
 30
0.0
 10
336.2553796484
 20
89.3396489443
 30
0.0
 10
336.3390550633
 20
89.1967699585
 30
0.0
 10
336.457098908
 20
89.0796614117
 30
0.0
 10
336.6440123218
 20
88.9580810039
 30
0.0
 10
336.911678007
 20
88.8659181813
 30
0.0
 10
337.2486710487
 20
88.8366487899
 30
0.0
 10
337.5837508689
 20
88.882600712
 30
0.0
 10
337.8464395279
 20
88.9879056771
 30
0.0
 10
338.026999764
 20
89.1185759545
 30
0.0
 10
338.1389921154
 20
89.2413685656
 30
0.0
 10
338.2153889968
 20
89.3881618049
 30
0.0
 10
338.2323502299
 20
89.4977451285
 30
0.0
 10
338.2310069534
 20
89.5516698791
 30
0.0
  0
SPLINE
  5
46F
330
228
100
AcDbEntity
  8
02___PRT_ALL_AXES
  6
Continuous
 62
     7
100
AcDbSpline
 70
     0
 71
     3
 72
    18
 73
    14
 74
     0
 42
0.000000001
 43
0.0000001
 40
0.0
 40
0.0
 40
0.0
 40
0.0
 40
0.1598536906
 40
0.2976487456
 40
0.4165457171
 40
0.5207407083
 40
0.56947572
 40
0.6174366006
 40
0.6663152785
 40
0.7181920019
 40
0.839903185
 40
0.9147314542
 40
1.0
 40
1.0
 40
1.0
 40
1.0
 10
330.8610916392
 20
90.0230381372
 30
0.0
 10
330.8940508347
 20
89.9647524026
 30
0.0
 10
330.9646623493
 20
89.8610297444
 30
0.0
 10
331.0886200263
 20
89.7366849958
 30
0.0
 10
331.2166629811
 20
89.6538995809
 30
0.0
 10
331.3274183917
 20
89.6194534727
 30
0.0
 10
331.4120416476
 20
89.6172766285
 30
0.0
 10
331.4725082916
 20
89.6282265241
 30
0.0
 10
331.5303166982
 20
89.6528776698
 30
0.0
 10
331.6059592897
 20
89.7086569761
 30
0.0
 10
331.6646606749
 20
89.7988935903
 30
0.0
 10
331.7011454043
 20
89.911370799
 30
0.0
 10
331.7114142656
 20
89.9780235723
 30
0.0
 10
331.7144183713
 20
90.0136141378
 30
0.0
  0
SPLINE
  5
470
330
228
100
AcDbEntity
  8
02___PRT_ALL_AXES
  6
Continuous
 62
     7
100
AcDbSpline
 70
     0
 71
     3
 72
     9
 73
     5
 74
     0
 42
0.000000001
 43
0.0000001
 40
0.0
 40
0.0
 40
0.0
 40
0.0
 40
0.2430091999
 40
1.0
 40
1.0
 40
1.0
 40
1.0
 10
334.43449539
 20
90.0778722223
 30
0.0
 10
334.5786832978
 20
90.064256136
 30
0.0
 10
335.172625457
 20
90.014669505
 30
0.0
 10
335.768545924
 20
89.9895526993
 30
0.0
 10
336.2196485321
 20
89.9827598947
 30
0.0
  0
SPLINE
  5
471
330
228
100
AcDbEntity
  8
02___PRT_ALL_AXES
  6
Continuous
 62
     7
100
AcDbSpline
 70
     0
 71
     3
 72
    11
 73
     7
 74
     0
 42
0.000000001
 43
0.0000001
 40
0.0
 40
0.0
 40
0.0
 40
0.0
 40
0.2710071375
 40
0.5313180292
 40
0.7758532133
 40
1.0
 40
1.0
 40
1.0
 40
1.0
 10
338.2190378512
 20
90.0321598272
 30
0.0
 10
338.5538130212
 20
90.0537674465
 30
0.0
 10
339.209381706
 20
90.1094404811
 30
0.0
 10
340.1622429185
 20
90.232180374
 30
0.0
 10
341.0510415179
 20
90.3903020725
 30
0.0
 10
341.6161778386
 20
90.5234634397
 30
0.0
 10
341.8838030266
 20
90.5966988528
 30
0.0
  0
SPLINE
  5
472
330
228
100
AcDbEntity
  8
02___PRT_ALL_AXES
  6
Continuous
 62
     9
100
AcDbSpline
 70
     0
 71
     3
 72
    11
 73
     7
 74
     0
 42
0.000000001
 43
0.0000001
 40
0.0
 40
0.0
 40
0.0
 40
0.0
 40
0.2154768609
 40
0.4582062757
 40
0.7220517516
 40
1.0
 40
1.0
 40
1.0
 40
1.0
 10
332.0333873235
 20
90.0122952747
 30
0.0
 10
332.3267764634
 20
89.9309157808
 30
0.0
 10
332.9594827264
 20
89.7893704237
 30
0.0
 10
333.9690258462
 20
89.6378539069
 30
0.0
 10
335.0735885299
 20
89.5378441469
 30
0.0
 10
335.8389243359
 20
89.5081832107
 30
0.0
 10
336.2316176342
 20
89.5022699465
 30
0.0
  0
SPLINE
  5
473
330
228
100
AcDbEntity
  8
02___PRT_ALL_AXES
  6
Continuous
 62
     9
100
AcDbSpline
 70
     0
 71
     3
 72
     9
 73
     5
 74
     0
 42
0.000000001
 43
0.0000001
 40
0.0
 40
0.0
 40
0.0
 40
0.0
 40
0.5150755244
 40
1.0
 40
1.0
 40
1.0
 40
1.0
 10
338.2310069534
 20
89.5516698791
 30
0.0
 10
338.6615758776
 20
89.5794603791
 30
0.0
 10
339.4962699033
 20
89.6551405453
 30
0.0
 10
340.3254690433
 20
89.7783288199
 30
0.0
 10
340.7249367682
 20
89.8520212681
 30
0.0
  0
SPLINE
  5
474
330
228
100
AcDbEntity
  8
02___PRT_ALL_AXES
  6
Continuous
 62
     7
100
AcDbSpline
 70
     0
 71
     3
 72
    19
 73
    15
 74
     0
 42
0.000000001
 43
0.0000001
 40
0.0
 40
0.0
 40
0.0
 40
0.0
 40
0.0813146404
 40
0.1512652328
 40
0.209686856
 40
0.259368154
 40
0.3039722618
 40
0.3468731854
 40
0.3906816261
 40
0.4372215404
 40
0.5427951728
 40
0.6707072065
 40
0.8249774922
 40
1.0
 40
1.0
 40
1.0
 40
1.0
 10
342.713712419
 20
90.3786241471
 30
0.0
 10
342.7149505193
 20
90.32892161
 30
0.0
 10
342.7246456156
 20
90.2363396554
 30
0.0
 10
342.7630242271
 20
90.1129992955
 30
0.0
 10
342.819310258
 20
90.0184234299
 30
0.0
 10
342.8880500671
 20
89.9533000629
 30
0.0
 10
342.9645316916
 20
89.9158091649
 30
0.0
 10
343.0449155324
 20
89.9031434451
 30
0.0
 10
343.1267015721
 20
89.9122309999
 30
0.0
 10
343.2405903242
 20
89.9519064383
 30
0.0
 10
343.3822961946
 20
90.0537476743
 30
0.0
 10
343.5321718267
 20
90.2401943395
 30
0.0
 10
343.6535338501
 20
90.4945593242
 30
0.0
 10
343.6954823244
 20
90.6945686113
 30
0.0
 10
343.7014829889
 20
90.801413701
 30
0.0
  0
SPLINE
  5
475
330
228
100
AcDbEntity
  8
02___PRT_ALL_AXES
  6
Continuous
 62
     9
100
AcDbSpline
 70
     0
 71
     3
 72
    10
 73
     6
 74
     0
 42
0.000000001
 43
0.0000001
 40
0.0
 40
0.0
 40
0.0
 40
0.0
 40
0.2221902913
 40
0.4640985378
 40
1.0
 40
1.0
 40
1.0
 40
1.0
 10
342.713712419
 20
90.3786241471
 30
0.0
 10
342.5710129178
 20
90.3247259852
 30
0.0
 10
342.2693579938
 20
90.2215356682
 30
0.0
 10
341.6092921054
 20
90.0321160956
 30
0.0
 10
341.0867412738
 20
89.9187657335
 30
0.0
 10
340.7249367682
 20
89.8520212681
 30
0.0
  0
SPLINE
  5
476
330
228
100
AcDbEntity
  8
7_ALL_FEATURES
  6
Continuous
 62
     7
100
AcDbSpline
 70
     0
 71
     3
 72
    14
 73
    10
 74
     0
 42
0.000000001
 43
0.0000001
 40
0.0
 40
0.0
 40
0.0
 40
0.0
 40
0.3198535344
 40
0.4643071889
 40
0.5970806267
 40
0.7173830613
 40
0.82468148
 40
0.9187860029
 40
1.0
 40
1.0
 40
1.0
 40
1.0
 10
318.7485109724
 20
159.9413320368
 30
0.0
 10
317.3844287936
 20
159.6896907937
 30
0.0
 10
315.4140178153
 20
159.2624742321
 30
0.0
 10
312.9240324455
 20
158.5493154664
 30
0.0
 10
311.291614631
 20
157.9923125574
 30
0.0
 10
309.8441720187
 20
157.4001179911
 30
0.0
 10
308.5936880751
 20
156.7777399814
 30
0.0
 10
307.5505575299
 20
156.1306259308
 30
0.0
 10
306.9561306647
 20
155.6512855202
 30
0.0
 10
306.7030812491
 20
155.4063169709
 30
0.0
  0
SPLINE
  5
477
330
228
100
AcDbEntity
  8
7_ALL_FEATURES
  6
Continuous
 62
     7
100
AcDbSpline
 70
     0
 71
     3
 72
    11
 73
     7
 74
     0
 42
0.000000001
 43
0.0000001
 40
0.0
 40
0.0
 40
0.0
 40
0.0
 40
0.2195873154
 40
0.4525986604
 40
0.7101181853
 40
1.0
 40
1.0
 40
1.0
 40
1.0
 10
358.9339485321
 20
154.3247463043
 30
0.0
 10
358.9294699131
 20
154.5050361999
 30
0.0
 10
358.869365473
 20
154.8769691993
 30
0.0
 10
358.6331021252
 20
155.4156599861
 30
0.0
 10
358.2565883258
 20
155.9389423456
 30
0.0
 10
357.9357578716
 20
156.2565178028
 30
0.0
 10
357.7566738744
 20
156.4133935626
 30
0.0
  0
SPLINE
  5
478
330
228
100
AcDbEntity
  8
7_ALL_FEATURES
  6
Continuous
 62
     7
100
AcDbSpline
 70
     0
 71
     3
 72
    19
 73
    15
 74
     0
 42
0.000000001
 43
0.0000001
 40
0.0
 40
0.0
 40
0.0
 40
0.0
 40
0.032255869
 40
0.0705609743
 40
0.1149982931
 40
0.1653667462
 40
0.2212754224
 40
0.2821955812
 40
0.3474933955
 40
0.4164532637
 40
0.5621751748
 40
0.712666585
 40
0.8609012467
 40
1.0
 40
1.0
 40
1.0
 40
1.0
 10
357.4624453669
 20
156.6711157456
 30
0.0
 10
357.1424001082
 20
156.9514300354
 30
0.0
 10
356.3755764773
 20
157.4883947126
 30
0.0
 10
355.0232053536
 20
158.181153485
 30
0.0
 10
353.3861287509
 20
158.8221847975
 30
0.0
 10
351.4835365127
 20
159.4032412654
 30
0.0
 10
349.3377677351
 20
159.9171171681
 30
0.0
 10
346.9752946378
 20
160.3569975485
 30
0.0
 10
344.4255212148
 20
160.7171785791
 30
0.0
 10
340.7509219625
 20
161.0914263713
 30
0.0
 10
335.9360760338
 20
161.3232241233
 30
0.0
 10
330.0709190264
 20
161.2413236427
 30
0.0
 10
324.308965072
 20
160.8072249694
 30
0.0
 10
320.5527453356
 20
160.2741710611
 30
0.0
 10
318.7485109724
 20
159.9413320368
 30
0.0
  0
SPLINE
  5
479
330
228
100
AcDbEntity
  8
7_ALL_FEATURES
  6
Continuous
 62
     7
100
AcDbSpline
 70
     0
 71
     3
 72
    11
 73
     7
 74
     0
 42
0.000000001
 43
0.0000001
 40
0.0
 40
0.0
 40
0.0
 40
0.0
 40
0.2898864816
 40
0.5474014901
 40
0.7804134418
 40
1.0
 40
1.0
 40
1.0
 40
1.0
 10
306.4224495626
 20
155.1346519946
 30
0.0
 10
306.2513879152
 20
154.969060815
 30
0.0
 10
305.9467478815
 20
154.6359192689
 30
0.0
 10
305.5967938984
 20
154.0945216593
 30
0.0
 10
305.3875992254
 20
153.5447542014
 30
0.0
 10
305.3461284292
 20
153.1702897925
 30
0.0
 10
305.3506070177
 20
152.9900011248
 30
0.0
  0
SPLINE
  5
47A
330
228
100
AcDbEntity
  8
7_ALL_FEATURES
  6
Continuous
 62
     7
100
AcDbSpline
 70
     0
 71
     3
 72
    11
 73
     7
 74
     0
 42
0.000000001
 43
0.0000001
 40
0.0
 40
0.0
 40
0.0
 40
0.0
 40
0.2195898827
 40
0.4526026919
 40
0.7101214944
 40
1.0
 40
1.0
 40
1.0
 40
1.0
 10
305.3506070177
 20
152.9900011248
 30
0.0
 10
305.3550853751
 20
152.8097217638
 30
0.0
 10
305.4151830883
 20
152.4378116166
 30
0.0
 10
305.6514192162
 20
151.8991514197
 30
0.0
 10
306.0278904092
 20
151.375896899
 30
0.0
 10
306.3486863699
 20
151.0583363322
 30
0.0
 10
306.5277510539
 20
150.9014679851
 30
0.0
  0
SPLINE
  5
47B
330
228
100
AcDbEntity
  8
7_ALL_FEATURES
  6
Continuous
 62
     7
100
AcDbSpline
 70
     0
 71
     3
 72
     9
 73
     5
 74
     0
 42
0.000000001
 43
0.0000001
 40
0.0
 40
0.0
 40
0.0
 40
0.0
 40
0.4637311123
 40
1.0
 40
1.0
 40
1.0
 40
1.0
 10
306.5277510539
 20
150.9014679851
 30
0.0
 10
306.7914331583
 20
150.6704711466
 30
0.0
 10
307.4047532912
 20
150.2231630831
 30
0.0
 10
308.0664119877
 20
149.8547858329
 30
0.0
 10
308.4288110188
 20
149.6731095881
 30
0.0
  0
SPLINE
  5
47C
330
228
100
AcDbEntity
  8
7_ALL_FEATURES
  6
Continuous
 62
     7
100
AcDbSpline
 70
     0
 71
     3
 72
     9
 73
     5
 74
     0
 42
0.000000001
 43
0.0000001
 40
0.0
 40
0.0
 40
0.0
 40
0.0
 40
0.4679876286
 40
1.0
 40
1.0
 40
1.0
 40
1.0
 10
308.4288110188
 20
149.6731095881
 30
0.0
 10
308.909990095
 20
149.4318870678
 30
0.0
 10
309.9679500811
 20
148.975487559
 30
0.0
 10
311.0584239546
 20
148.6067615674
 30
0.0
 10
311.6437648331
 20
148.4284553842
 30
0.0
  0
SPLINE
  5
47D
330
228
100
AcDbEntity
  8
7_ALL_FEATURES
  6
Continuous
 62
     7
100
AcDbSpline
 70
     0
 71
     3
 72
    21
 73
    17
 74
     0
 42
0.000000001
 43
0.0000001
 40
0.0
 40
0.0
 40
0.0
 40
0.0
 40
0.205895064
 40
0.389092221
 40
0.4710402167
 40
0.5460673057
 40
0.6139564154
 40
0.6746291476
 40
0.7282051255
 40
0.7750870691
 40
0.8160877086
 40
0.8526088693
 40
0.8867400501
 40
0.9210774091
 40
0.9581681229
 40
1.0
 40
1.0
 40
1.0
 40
1.0
 10
345.5216816615
 20
147.9500030643
 30
0.0
 10
346.7007475159
 20
148.1675131248
 30
0.0
 10
348.9183162705
 20
148.6395864553
 30
0.0
 10
351.5586175094
 20
149.3949952192
 30
0.0
 10
353.4206377795
 20
150.0731307735
 30
0.0
 10
354.6255303235
 20
150.5877484909
 30
0.0
 10
355.6840350138
 20
151.1239082774
 30
0.0
 10
356.5897866099
 20
151.6784778373
 30
0.0
 10
357.3376575933
 20
152.2485061689
 30
0.0
 10
357.9236303992
 20
152.8318353515
 30
0.0
 10
358.3436126473
 20
153.4278737619
 30
0.0
 10
358.5912552419
 20
154.0367041766
 30
0.0
 10
358.6557788463
 20
154.6537985768
 30
0.0
 10
358.5318103875
 20
155.2649611145
 30
0.0
 10
358.2273269268
 20
155.8573731847
 30
0.0
 10
357.9313939491
 20
156.2131777694
 30
0.0
 10
357.7616145083
 20
156.3878572593
 30
0.0
  0
SPLINE
  5
47E
330
228
100
AcDbEntity
  8
7_ALL_FEATURES
  6
Continuous
 62
     7
100
AcDbSpline
 70
     0
 71
     3
 72
     9
 73
     5
 74
     0
 42
0.000000001
 43
0.0000001
 40
0.0
 40
0.0
 40
0.0
 40
0.0
 40
0.2435785225
 40
1.0
 40
1.0
 40
1.0
 40
1.0
 10
357.7616145083
 20
156.3878572593
 30
0.0
 10
357.7382964658
 20
156.41184829
 30
0.0
 10
357.6414989422
 20
156.5093030768
 30
0.0
 10
357.540601717
 20
156.6026618592
 30
0.0
 10
357.4624453669
 20
156.6711157456
 30
0.0
  0
SPLINE
  5
47F
330
228
100
AcDbEntity
  8
7_ALL_FEATURES
  6
Continuous
 62
     7
100
AcDbSpline
 70
     0
 71
     3
 72
     9
 73
     5
 74
     0
 42
0.000000001
 43
0.0000001
 40
0.0
 40
0.0
 40
0.0
 40
0.0
 40
0.2562937799
 40
1.0
 40
1.0
 40
1.0
 40
1.0
 10
306.7030812491
 20
155.4063169709
 30
0.0
 10
306.6787268756
 20
155.3827403286
 30
0.0
 10
306.5845262102
 20
155.2899044124
 30
0.0
 10
306.4937091667
 20
155.1936139389
 30
0.0
 10
306.4285134422
 20
155.1199636254
 30
0.0
  0
SPLINE
  5
480
330
228
100
AcDbEntity
  8
7_ALL_FEATURES
  6
Continuous
 62
     7
100
AcDbSpline
 70
     0
 71
     3
 72
    29
 73
    25
 74
     0
 42
0.000000001
 43
0.0000001
 40
0.0
 40
0.0
 40
0.0
 40
0.0
 40
0.0145833822
 40
0.0277181365
 40
0.0399875505
 40
0.0521208294
 40
0.0648731389
 40
0.0788879327
 40
0.094633074
 40
0.1124092525
 40
0.132390567
 40
0.154659981
 40
0.1792356982
 40
0.2060895766
 40
0.2663314446
 40
0.3345816832
 40
0.4097051434
 40
0.4903448917
 40
0.5749838286
 40
0.6619961903
 40
0.7496930719
 40
0.8363685569
 40
0.9203385642
 40
1.0
 40
1.0
 40
1.0
 40
1.0
 10
306.3040849692
 20
154.9731990409
 30
0.0
 10
306.1698446449
 20
154.8075753165
 30
0.0
 10
305.9375548432
 20
154.4724879597
 30
0.0
 10
305.7060095693
 20
153.9305082997
 30
0.0
 10
305.6189419921
 20
153.3823275039
 30
0.0
 10
305.6807084741
 20
152.8361269623
 30
0.0
 10
305.8888100164
 20
152.3010221286
 30
0.0
 10
306.2364928167
 20
151.7811582566
 30
0.0
 10
306.7188593966
 20
151.2771619724
 30
0.0
 10
307.3326585241
 20
150.7893897499
 30
0.0
 10
308.075050188
 20
150.3190529238
 30
0.0
 10
308.9426647004
 20
149.8679511399
 30
0.0
 10
309.9313767417
 20
149.4380774347
 30
0.0
 10
311.4643199628
 20
148.8745346414
 30
0.0
 10
313.6515594813
 20
148.2520009549
 30
0.0
 10
316.5676042675
 20
147.6453909404
 30
0.0
 10
319.8090117552
 20
147.167225146
 30
0.0
 10
323.3082970832
 20
146.828010735
 30
0.0
 10
326.9926207174
 20
146.6353888701
 30
0.0
 10
330.7848234607
 20
146.5936657018
 30
0.0
 10
334.6054095042
 20
146.703867455
 30
0.0
 10
338.3742329639
 20
146.9636366225
 30
0.0
 10
342.0121733597
 20
147.3674162913
 30
0.0
 10
344.3764378696
 20
147.7387323812
 30
0.0
 10
345.5216816615
 20
147.9500030643
 30
0.0
  0
SPLINE
  5
481
330
228
100
AcDbEntity
  8
7_ALL_FEATURES
  6
Continuous
 62
     7
100
AcDbSpline
 70
     0
 71
     3
 72
    11
 73
     7
 74
     0
 42
0.000000001
 43
0.0000001
 40
0.0
 40
0.0
 40
0.0
 40
0.0
 40
0.3022436427
 40
0.5699334481
 40
0.8022772002
 40
1.0
 40
1.0
 40
1.0
 40
1.0
 10
352.6894873444
 20
149.3892303764
 30
0.0
 10
353.2557702405
 20
149.5888538396
 30
0.0
 10
354.3131659452
 20
149.9963431797
 30
0.0
 10
355.7542654235
 20
150.6819224763
 30
0.0
 10
356.9435266756
 20
151.3987262765
 30
0.0
 10
357.6138328946
 20
151.9357371671
 30
0.0
 10
357.8939192992
 20
152.2111292815
 30
0.0
  0
SPLINE
  5
482
330
228
100
AcDbEntity
  8
7_ALL_FEATURES
  6
Continuous
 62
     7
100
AcDbSpline
 70
     0
 71
     3
 72
    11
 73
     7
 74
     0
 42
0.000000001
 43
0.0000001
 40
0.0
 40
0.0
 40
0.0
 40
0.0
 40
0.2890454779
 40
0.5463624958
 40
0.7797277184
 40
1.0
 40
1.0
 40
1.0
 40
1.0
 10
357.8939192992
 20
152.2111292815
 30
0.0
 10
358.0601497183
 20
152.3745736539
 30
0.0
 10
358.3561614309
 20
152.7034448614
 30
0.0
 10
358.6956467644
 20
153.2370800811
 30
0.0
 10
358.8983256867
 20
153.7786233827
 30
0.0
 10
358.9383603614
 20
154.1471450765
 30
0.0
 10
358.9339485321
 20
154.3247463043
 30
0.0
  0
SPLINE
  5
483
330
228
100
AcDbEntity
  8
7_ALL_FEATURES
  6
Continuous
 62
     7
100
AcDbSpline
 70
     0
 71
     3
 72
     9
 73
     5
 74
     0
 42
0.000000001
 43
0.0000001
 40
0.0
 40
0.0
 40
0.0
 40
0.0
 40
0.543910285
 40
1.0
 40
1.0
 40
1.0
 40
1.0
 10
308.4109269169
 20
149.5691134162
 30
0.0
 10
307.9146361368
 20
149.7913951173
 30
0.0
 10
307.0203638242
 20
150.2430042302
 30
0.0
 10
306.1945503164
 20
150.8172970564
 30
0.0
 10
305.8515456325
 20
151.1177599143
 30
0.0
  0
SPLINE
  5
484
330
228
100
AcDbEntity
  8
7_ALL_FEATURES
  6
Continuous
 62
     7
100
AcDbSpline
 70
     0
 71
     3
 72
    15
 73
    11
 74
     0
 42
0.000000001
 43
0.0000001
 40
0.0
 40
0.0
 40
0.0
 40
0.0
 40
0.1721276531
 40
0.3290008988
 40
0.4707656105
 40
0.598110314
 40
0.7122802877
 40
0.8152453031
 40
0.9098707494
 40
1.0
 40
1.0
 40
1.0
 40
1.0
 10
368.3036478958
 20
159.7490626704
 30
0.0
 10
368.7448625294
 20
159.5514488024
 30
0.0
 10
369.5779587536
 20
159.1500151096
 30
0.0
 10
370.7275160895
 20
158.4942240515
 30
0.0
 10
371.7144170533
 20
157.8147808429
 30
0.0
 10
372.5347789245
 20
157.114053182
 30
0.0
 10
373.1852756218
 20
156.3933734802
 30
0.0
 10
373.6625102507
 20
155.653582439
 30
0.0
 10
373.9610087654
 20
154.8963037274
 30
0.0
 10
374.0373171255
 20
154.3772625101
 30
0.0
 10
374.0436369054
 20
154.1241992206
 30
0.0
  0
SPLINE
  5
485
330
228
100
AcDbEntity
  8
02___PRT_ALL_AXES
  6
Continuous
 62
     7
100
AcDbSpline
 70
     0
 71
     3
 72
    15
 73
    11
 74
     0
 42
0.000000001
 43
0.0000001
 40
0.0
 40
0.0
 40
0.0
 40
0.0
 40
0.1721708261
 40
0.3290087398
 40
0.4707559719
 40
0.5981089351
 40
0.712285519
 40
0.8152457677
 40
0.9098706839
 40
1.0
 40
1.0
 40
1.0
 40
1.0
 10
296.0335717102
 20
145.4515287212
 30
0.0
 10
295.5922387696
 20
145.6491955773
 30
0.0
 10
294.7590785752
 20
146.0505886827
 30
0.0
 10
293.6095742428
 20
146.7064643739
 30
0.0
 10
292.6227559932
 20
147.3858438241
 30
0.0
 10
291.8024096477
 20
148.0866001928
 30
0.0
 10
291.1518189917
 20
148.8072636458
 30
0.0
 10
290.6746656197
 20
149.5471296156
 30
0.0
 10
290.3761428564
 20
150.3043944925
 30
0.0
 10
290.299870495
 20
150.8234541689
 30
0.0
 10
290.2935717751
 20
151.0765225522
 30
0.0
  0
SPLINE
  5
486
330
228
100
AcDbEntity
  8
02___PRT_ALL_AXES
  6
Continuous
 62
     7
100
AcDbSpline
 70
     0
 71
     3
 72
    11
 73
     7
 74
     0
 42
0.000000001
 43
0.0000001
 40
0.0
 40
0.0
 40
0.0
 40
0.0
 40
0.2140012563
 40
0.4529780635
 40
0.7155836243
 40
1.0
 40
1.0
 40
1.0
 40
1.0
 10
296.0335717102
 20
145.4515287212
 30
0.0
 10
296.7693960696
 20
145.1219632745
 30
0.0
 10
298.3593320779
 20
144.4960565661
 30
0.0
 10
300.9309301905
 20
143.6816292055
 30
0.0
 10
303.8008337072
 20
142.9464067002
 30
0.0
 10
305.8199060323
 20
142.5294509016
 30
0.0
 10
306.8733789698
 20
142.3334622147
 30
0.0
  0
SPLINE
  5
487
330
228
100
AcDbEntity
  8
02___PRT_ALL_AXES
  6
Continuous
 62
     7
100
AcDbSpline
 70
     0
 71
     3
 72
    28
 73
    24
 74
     0
 42
0.000000001
 43
0.0000001
 40
0.0
 40
0.0
 40
0.0
 40
0.0
 40
0.0693766281
 40
0.1438856126
 40
0.2222475606
 40
0.3030859463
 40
0.3849637456
 40
0.466419154
 40
0.546000414
 40
0.6223009995
 40
0.6939957563
 40
0.7598798987
 40
0.8189138926
 40
0.8456035996
 40
0.8702994335
 40
0.8929511453
 40
0.9135391352
 40
0.9320837603
 40
0.9486595324
 40
0.963416232
 40
0.9766079087
 40
0.988623828
 40
1.0
 40
1.0
 40
1.0
 40
1.0
 10
306.8733789698
 20
142.3334622147
 30
0.0
 10
308.4903550399
 20
142.0326390938
 30
0.0
 10
311.8631129353
 20
141.5096539757
 30
0.0
 10
317.1046051262
 20
140.9572124248
 30
0.0
 10
322.6363043297
 20
140.6159455261
 30
0.0
 10
328.3516905648
 20
140.4928589959
 30
0.0
 10
334.1408807645
 20
140.5905179146
 30
0.0
 10
339.8923995894
 20
140.9070976463
 30
0.0
 10
345.4955736229
 20
141.4363490647
 30
0.0
 10
350.8426599762
 20
142.1677863401
 30
0.0
 10
355.8313244153
 20
143.0867496134
 30
0.0
 10
360.3660661692
 20
144.1749920574
 30
0.0
 10
363.8036021699
 20
145.237153544
 30
0.0
 10
366.2508404015
 20
146.168745313
 30
0.0
 10
367.8597886625
 20
146.872221536
 30
0.0
 10
369.2973388033
 20
147.600671775
 30
0.0
 10
370.5569783797
 20
148.35082776
 30
0.0
 10
371.6332071876
 20
149.1194928117
 30
0.0
 10
372.5214723385
 20
149.9039265294
 30
0.0
 10
373.2178422504
 20
150.7020731493
 30
0.0
 10
373.7180457348
 20
151.5130909758
 30
0.0
 10
374.0157924798
 20
152.3350674758
 30
0.0
 10
374.0742965378
 20
152.8934760608
 30
0.0
 10
374.0675860353
 20
153.1630889432
 30
0.0
  0
SPLINE
  5
488
330
228
100
AcDbEntity
  8
7_ALL_FEATURES
  6
Continuous
 62
     7
100
AcDbSpline
 70
     0
 71
     3
 72
    11
 73
     7
 74
     0
 42
0.000000001
 43
0.0000001
 40
0.0
 40
0.0
 40
0.0
 40
0.0
 40
0.2898782236
 40
0.5474046259
 40
0.7804153882
 40
1.0
 40
1.0
 40
1.0
 40
1.0
 10
366.861086965
 20
141.0116157566
 30
0.0
 10
367.090224238
 20
141.2334271505
 30
0.0
 10
367.4982306121
 20
141.6797425291
 30
0.0
 10
367.9671387657
 20
142.4049035707
 30
0.0
 10
368.2471862891
 20
143.1414088378
 30
0.0
 10
368.3028759222
 20
143.6429969266
 30
0.0
 10
368.2968624864
 20
143.8844991472
 30
0.0
  0
SPLINE
  5
489
330
228
100
AcDbEntity
  8
7_ALL_FEATURES
  6
Continuous
 62
     7
100
AcDbSpline
 70
     0
 71
     3
 72
    23
 73
    19
 74
     0
 42
0.000000001
 43
0.0000001
 40
0.0
 40
0.0
 40
0.0
 40
0.0
 40
0.0155585734
 40
0.0328139732
 40
0.0518232214
 40
0.0726010016
 40
0.1193739401
 40
0.1727885162
 40
0.2322311335
 40
0.2969109161
 40
0.3659045226
 40
0.4381892343
 40
0.5881841938
 40
0.7377573917
 40
0.8095236954
 40
0.8778058713
 40
0.941600087
 40
1.0
 40
1.0
 40
1.0
 40
1.0
 10
366.3932387148
 20
140.5587165104
 30
0.0
 10
366.1681073192
 20
140.3407790812
 30
0.0
 10
365.6649686491
 20
139.9100554304
 30
0.0
 10
364.8112447192
 20
139.3077895551
 30
0.0
 10
363.8236962719
 20
138.7189660659
 30
0.0
 10
362.2716251337
 20
137.9231890979
 30
0.0
 10
360.01552627
 20
136.9933870142
 30
0.0
 10
356.9540698417
 20
136.0048570971
 30
0.0
 10
353.48756151
 20
135.1207726962
 30
0.0
 10
349.6727563983
 20
134.3562208088
 30
0.0
 10
345.5720318466
 20
133.7243173416
 30
0.0
 10
339.7418135553
 20
133.0654824625
 30
0.0
 10
332.2580684536
 20
132.6435980319
 30
0.0
 10
324.773389426
 20
132.7399201648
 30
0.0
 10
318.9535033021
 20
133.1467035302
 30
0.0
 10
314.8721074696
 20
133.6009654715
 30
0.0
 10
311.0817637542
 20
134.2003136615
 30
0.0
 10
308.6733785294
 20
134.7145012801
 30
0.0
 10
307.5322915934
 20
134.9994675515
 30
0.0
  0
LINE
  5
48A
330
228
100
AcDbEntity
  8
7_ALL_FEATURES
  6
Continuous
 62
     7
100
AcDbLine
 10
297.822789437
 20
139.5505783312
 30
0.0
 11
298.2991537905
 21
139.1348609321
 31
0.0
  0
SPLINE
  5
48B
330
228
100
AcDbEntity
  8
7_ALL_FEATURES
  6
Continuous
 62
     7
100
AcDbSpline
 70
     0
 71
     3
 72
    25
 73
    21
 74
     0
 42
0.000000001
 43
0.0000001
 40
0.0
 40
0.0
 40
0.0
 40
0.0
 40
0.0160557303
 40
0.0340828366
 40
0.054141386
 40
0.0762406636
 40
0.1263861647
 40
0.1839565404
 40
0.2480448569
 40
0.317519947
 40
0.3910881424
 40
0.4673413746
 40
0.5447996952
 40
0.6219515624
 40
0.6972934548
 40
0.7693695131
 40
0.8368128
 40
0.8983886225
 40
0.9530489246
 40
1.0
 40
1.0
 40
1.0
 40
1.0
 10
358.5268407658
 20
152.4299381525
 30
0.0
 10
358.3285558426
 20
152.2379832555
 30
0.0
 10
357.8793190392
 20
151.859443137
 30
0.0
 10
357.108992341
 20
151.3352663682
 30
0.0
 10
356.2081180885
 20
150.8247123889
 30
0.0
 10
354.7774291245
 20
150.136742057
 30
0.0
 10
352.6872149168
 20
149.3446125012
 30
0.0
 10
349.8488791577
 20
148.5217219399
 30
0.0
 10
346.63984977
 20
147.808847723
 30
0.0
 10
343.1268798602
 20
147.2215093147
 30
0.0
 10
339.3830336974
 20
146.772662317
 30
0.0
 10
335.486864034
 20
146.4720930972
 30
0.0
 10
331.5202418241
 20
146.3263256728
 30
0.0
 10
327.5666129164
 20
146.3384688188
 30
0.0
 10
323.7091408897
 20
146.5081633643
 30
0.0
 10
320.0288244448
 20
146.8315704276
 30
0.0
 10
316.6028158483
 20
147.3014350413
 30
0.0
 10
313.5020307266
 20
147.9072278092
 30
0.0
 10
310.7908081104
 20
148.6353022731
 30
0.0
 10
309.1474556274
 20
149.2392324966
 30
0.0
 10
308.4109269169
 20
149.5691134162
 30
0.0
  0
LINE
  5
48C
330
228
100
AcDbEntity
  8
7_ALL_FEATURES
  6
Continuous
 62
     7
100
AcDbLine
 10
305.8797719046
 20
151.147184713
 30
0.0
 11
305.8689309391
 21
151.1596221552
 31
0.0
  0
SPLINE
  5
48D
330
228
100
AcDbEntity
  8
7_ALL_FEATURES
  6
Continuous
 62
     7
100
AcDbSpline
 70
     0
 71
     3
 72
    10
 73
     6
 74
     0
 42
0.000000001
 43
0.0000001
 40
0.0
 40
0.0
 40
0.0
 40
0.0
 40
0.5306112909
 40
0.7695624958
 40
1.0
 40
1.0
 40
1.0
 40
1.0
 10
305.8689309391
 20
151.1596221552
 30
0.0
 10
305.6586080126
 20
151.4018885213
 30
0.0
 10
305.3901281392
 20
151.7940582722
 30
0.0
 10
305.1954111101
 20
152.3697034464
 30
0.0
 10
305.1589368486
 20
152.6535248726
 30
0.0
 10
305.1554681649
 20
152.7928117966
 30
0.0
  0
SPLINE
  5
48E
330
228
100
AcDbEntity
  8
7_ALL_FEATURES
  6
Continuous
 62
     7
100
AcDbSpline
 70
     0
 71
     3
 72
    11
 73
     7
 74
     0
 42
0.000000001
 43
0.0000001
 40
0.0
 40
0.0
 40
0.0
 40
0.0
 40
0.2239097632
 40
0.4592023733
 40
0.7155650262
 40
1.0
 40
1.0
 40
1.0
 40
1.0
 10
296.5191212225
 20
142.0964936866
 30
0.0
 10
296.5245647808
 20
141.8778779927
 30
0.0
 10
296.5909895642
 20
141.4292735995
 30
0.0
 10
296.8510158247
 20
140.7750110871
 30
0.0
 10
297.2665782864
 20
140.1362990629
 30
0.0
 10
297.6235470801
 20
139.7441579462
 30
0.0
 10
297.822789437
 20
139.5505783312
 30
0.0
  0
SPLINE
  5
48F
330
228
100
AcDbEntity
  8
7_ALL_FEATURES
  6
Continuous
 62
     7
100
AcDbSpline
 70
     0
 71
     3
 72
    30
 73
    26
 74
     0
 42
0.000000001
 43
0.0000001
 40
0.0
 40
0.0
 40
0.0
 40
0.0
 40
0.0115778296
 40
0.0240410665
 40
0.0380893615
 40
0.0541814283
 40
0.0725803437
 40
0.0934110107
 40
0.1167038767
 40
0.1424258921
 40
0.1704940655
 40
0.2007904535
 40
0.2674422111
 40
0.3409484291
 40
0.4195912079
 40
0.5014694627
 40
0.5845724943
 40
0.6668489534
 40
0.7462747041
 40
0.8209217174
 40
0.8890311922
 40
0.9201555039
 40
0.9491063717
 40
0.9757582862
 40
1.0
 40
1.0
 40
1.0
 40
1.0
 10
290.2696444963
 20
152.0373720673
 30
0.0
 10
290.2617034985
 20
152.3553538704
 30
0.0
 10
290.3478668094
 20
153.0215736537
 30
0.0
 10
290.7689338779
 20
153.991118337
 30
0.0
 10
291.4664389053
 20
154.9403811101
 30
0.0
 10
292.4301624205
 20
155.8689232683
 30
0.0
 10
293.6538927399
 20
156.775693644
 30
0.0
 10
295.1308442667
 20
157.6569791114
 30
0.0
 10
296.8524345423
 20
158.5080729436
 30
0.0
 10
298.8081626105
 20
159.3234892493
 30
0.0
 10
300.9855488549
 20
160.0980944901
 30
0.0
 10
304.2713679388
 20
161.1013224817
 30
0.0
 10
308.8286344523
 20
162.1976584423
 30
0.0
 10
314.7514057875
 20
163.2417421076
 30
0.0
 10
321.1360183157
 20
164.0229425408
 30
0.0
 10
327.8130439937
 20
164.5197726304
 30
0.0
 10
334.6053958094
 20
164.7184487441
 30
0.0
 10
341.3324854532
 20
164.6136434091
 30
0.0
 10
347.8157837082
 20
164.2086151378
 30
0.0
 10
353.8831322629
 20
163.5148223699
 30
0.0
 10
358.5926389109
 20
162.6903062928
 30
0.0
 10
362.02192597
 20
161.8852733586
 30
0.0
 10
364.31690694
 20
161.2414989394
 30
0.0
 10
366.397664353
 20
160.5440150403
 30
0.0
 10
367.695828849
 20
160.0212963266
 30
0.0
 10
368.3036478958
 20
159.7490626704
 30
0.0
  0
SPLINE
  5
490
330
228
100
AcDbEntity
  8
7_ALL_FEATURES
  6
Continuous
 62
     7
100
AcDbSpline
 70
     0
 71
     3
 72
    10
 73
     6
 74
     0
 42
0.000000001
 43
0.0000001
 40
0.0
 40
0.0
 40
0.0
 40
0.0
 40
0.230219985
 40
0.469048134
 40
1.0
 40
1.0
 40
1.0
 40
1.0
 10
359.1386626732
 20
154.1375434083
 30
0.0
 10
359.1421541168
 20
153.997342549
 30
0.0
 10
359.1195013297
 20
153.7101091844
 30
0.0
 10
358.9513213041
 20
153.1213710251
 30
0.0
 10
358.6993871638
 20
152.7139170311
 30
0.0
 10
358.49892359
 20
152.4600872194
 30
0.0
  0
SPLINE
  5
491
330
228
100
AcDbEntity
  8
7_ALL_FEATURES
  6
Continuous
 62
     7
100
AcDbSpline
 70
     0
 71
     3
 72
    15
 73
    11
 74
     0
 42
0.000000001
 43
0.0000001
 40
0.0
 40
0.0
 40
0.0
 40
0.0
 40
0.1808463678
 40
0.3394624911
 40
0.4766769246
 40
0.5949158017
 40
0.6986396303
 40
0.7948529441
 40
0.8924659761
 40
1.0
 40
1.0
 40
1.0
 40
1.0
 10
357.7091746416
 20
158.6634865956
 30
0.0
 10
358.1291900384
 20
158.4753675694
 30
0.0
 10
358.9050823114
 20
158.0925804915
 30
0.0
 10
359.9355564816
 20
157.447698076
 30
0.0
 10
360.749808024
 20
156.7723913712
 30
0.0
 10
361.3418377563
 20
156.0674593735
 30
0.0
 10
361.7024509005
 20
155.3307831914
 30
0.0
 10
361.8121790035
 20
154.5674376568
 30
0.0
 10
361.6618027833
 20
153.8023124424
 30
0.0
 10
361.4141631885
 20
153.335158107
 30
0.0
 10
361.2617746052
 20
153.1078611729
 30
0.0
  0
SPLINE
  5
492
330
228
100
AcDbEntity
  8
7_ALL_FEATURES
  6
Continuous
 62
     7
100
AcDbSpline
 70
     0
 71
     3
 72
    27
 73
    23
 74
     0
 42
0.000000001
 43
0.0000001
 40
0.0
 40
0.0
 40
0.0
 40
0.0
 40
0.0139797162
 40
0.029846776
 40
0.0477845963
 40
0.0678794672
 40
0.0901512804
 40
0.1145703467
 40
0.1695484338
 40
0.2319985259
 40
0.3007752377
 40
0.3745144973
 40
0.4516973101
 40
0.530703155
 40
0.6098593298
 40
0.6874888626
 40
0.761958375
 40
0.8317269147
 40
0.8953986659
 40
0.9517831926
 40
0.9769614372
 40
1.0
 40
1.0
 40
1.0
 40
1.0
 10
361.2617746052
 20
153.1078611729
 30
0.0
 10
361.1148131334
 20
152.888659109
 30
0.0
 10
360.7537696124
 20
152.4519026628
 30
0.0
 10
360.0821110591
 20
151.8465040572
 30
0.0
 10
359.2525938705
 20
151.2541599457
 30
0.0
 10
358.2695895045
 20
150.677624763
 30
0.0
 10
357.1380116744
 20
150.1196086276
 30
0.0
 10
355.3681514221
 20
149.3747843654
 30
0.0
 10
352.823629417
 20
148.5282831378
 30
0.0
 10
349.4135089973
 20
147.6663208029
 30
0.0
 10
345.6103248851
 20
146.9430885537
 30
0.0
 10
341.5003142015
 20
146.3756813
 30
0.0
 10
337.1766483059
 20
145.9777017712
 30
0.0
 10
332.7379510599
 20
145.758550679
 30
0.0
 10
328.2855597552
 20
145.723362
 30
0.0
 10
323.9211417914
 20
145.8728455868
 30
0.0
 10
319.7443013276
 20
146.2033138543
 30
0.0
 10
315.8498548824
 20
146.7065842558
 30
0.0
 10
312.3262896011
 20
147.3706192266
 30
0.0
 10
309.67095894
 20
148.0677946633
 30
0.0
 10
307.8019637217
 20
148.7073766384
 30
0.0
 10
306.9579438653
 20
149.0500709544
 30
0.0
 10
306.5610179922
 20
149.2278485055
 30
0.0
  0
SPLINE
  5
493
330
228
100
AcDbEntity
  8
7_ALL_FEATURES
  6
Continuous
 62
     7
100
AcDbSpline
 70
     0
 71
     3
 72
    15
 73
    11
 74
     0
 42
0.000000001
 43
0.0000001
 40
0.0
 40
0.0
 40
0.0
 40
0.0
 40
0.1808146205
 40
0.3383374212
 40
0.4735906118
 40
0.5894552268
 40
0.6912487931
 40
0.7871989154
 40
0.8872116994
 40
1.0
 40
1.0
 40
1.0
 40
1.0
 10
355.859265717
 20
158.3222216848
 30
0.0
 10
356.2655165252
 20
158.1402676282
 30
0.0
 10
357.0131838221
 20
157.7700081065
 30
0.0
 10
357.9993975691
 20
157.1429076238
 30
0.0
 10
358.7663776749
 20
156.4848739103
 30
0.0
 10
359.3077574333
 20
155.795839157
 30
0.0
 10
359.611467137
 20
155.0728141432
 30
0.0
 10
359.6547324742
 20
154.3258164116
 30
0.0
 10
359.434216567
 20
153.5851302976
 30
0.0
 10
359.1470446533
 20
153.1398707375
 30
0.0
 10
358.974952028
 20
152.9219645938
 30
0.0
  0
SPLINE
  5
494
330
228
100
AcDbEntity
  8
7_ALL_FEATURES
  6
Continuous
 62
     7
100
AcDbSpline
 70
     0
 71
     3
 72
     9
 73
     5
 74
     0
 42
0.000000001
 43
0.0000001
 40
0.0
 40
0.0
 40
0.0
 40
0.0
 40
0.2398804773
 40
1.0
 40
1.0
 40
1.0
 40
1.0
 10
358.974952028
 20
152.9219645938
 30
0.0
 10
358.9419571643
 20
152.8801860254
 30
0.0
 10
358.8011338861
 20
152.7086159446
 30
0.0
 10
358.6480431882
 20
152.5472713221
 30
0.0
 10
358.5268407658
 20
152.4299381525
 30
0.0
  0
SPLINE
  5
495
330
228
100
AcDbEntity
  8
7_ALL_FEATURES
  6
Continuous
 62
     7
100
AcDbSpline
 70
     0
 71
     3
 72
    15
 73
    11
 74
     0
 42
0.000000001
 43
0.0000001
 40
0.0
 40
0.0
 40
0.0
 40
0.0
 40
0.1056554438
 40
0.2221728835
 40
0.3471463896
 40
0.4778705849
 40
0.6114706326
 40
0.7449836559
 40
0.8754497196
 40
1.0
 40
1.0
 40
1.0
 40
1.0
 10
307.5675567116
 20
135.275973844
 30
0.0
 10
308.9900531245
 20
134.9326104245
 30
0.0
 10
312.0108087492
 20
134.3310891664
 30
0.0
 10
316.7766413264
 20
133.67906952
 30
0.0
 10
321.915635169
 20
133.2442197878
 30
0.0
 10
327.3052939754
 20
133.0378115411
 30
0.0
 10
332.8170209098
 20
133.0651677981
 30
0.0
 10
338.3191142242
 20
133.3257878771
 30
0.0
 10
343.6798576158
 20
133.8132960425
 30
0.0
 10
347.1804742369
 20
134.296063473
 30
0.0
 10
348.8823742004
 20
134.5777138501
 30
0.0
  0
SPLINE
  5
496
330
228
100
AcDbEntity
  8
7_ALL_FEATURES
  6
Continuous
 62
     7
100
AcDbSpline
 70
     0
 71
     3
 72
    14
 73
    10
 74
     0
 42
0.000000001
 43
0.0000001
 40
0.0
 40
0.0
 40
0.0
 40
0.0
 40
0.3153993377
 40
0.4589784703
 40
0.5916798556
 40
0.7126267459
 40
0.8211679089
 40
0.9169424055
 40
1.0
 40
1.0
 40
1.0
 40
1.0
 10
348.8823742004
 20
134.5777138501
 30
0.0
 10
350.8232144238
 20
134.8989068652
 30
0.0
 10
353.6355283261
 20
135.452050341
 30
0.0
 10
357.2066956824
 20
136.3866088584
 30
0.0
 10
359.5728046535
 20
137.1252287426
 30
0.0
 10
361.6901811078
 20
137.9165109524
 30
0.0
 10
363.5404988773
 20
138.7533633603
 30
0.0
 10
365.1076508776
 20
139.6280339526
 30
0.0
 10
366.019230864
 20
140.277466742
 30
0.0
 10
366.4157936512
 20
140.6108111276
 30
0.0
  0
SPLINE
  5
497
330
228
100
AcDbEntity
  8
7_ALL_FEATURES
  6
Continuous
 62
     7
100
AcDbSpline
 70
     0
 71
     3
 72
     9
 73
     5
 74
     0
 42
0.000000001
 43
0.0000001
 40
0.0
 40
0.0
 40
0.0
 40
0.0
 40
0.2564682004
 40
1.0
 40
1.0
 40
1.0
 40
1.0
 10
366.4157936512
 20
140.6108111276
 30
0.0
 10
366.4550042115
 20
140.6437709024
 30
0.0
 10
366.606843946
 20
140.7735214612
 30
0.0
 10
366.754388311
 20
140.9083284264
 30
0.0
 10
366.861086965
 20
141.0116157566
 30
0.0
  0
LINE
  5
498
330
228
100
AcDbEntity
  8
7_ALL_FEATURES
  6
Continuous
 62
     7
100
AcDbLine
 10
307.5322885811
 20
134.9994689007
 30
0.0
 11
307.1220176611
 21
135.3855839747
 31
0.0
  0
SPLINE
  5
499
330
228
100
AcDbEntity
  8
7_ALL_FEATURES
  6
Continuous
 62
     7
100
AcDbSpline
 70
     0
 71
     3
 72
     9
 73
     5
 74
     0
 42
0.000000001
 43
0.0000001
 40
0.0
 40
0.0
 40
0.0
 40
0.0
 40
0.2566557765
 40
1.0
 40
1.0
 40
1.0
 40
1.0
 10
357.7903577155
 20
156.3788957211
 30
0.0
 10
357.8196700846
 20
156.3549727881
 30
0.0
 10
357.9330489023
 20
156.2607536364
 30
0.0
 10
358.0430193651
 20
156.1624059286
 30
0.0
 10
358.122353227
 20
156.0868130735
 30
0.0
  0
SPLINE
  5
49A
330
228
100
AcDbEntity
  8
7_ALL_FEATURES
  6
Continuous
 62
     7
100
AcDbSpline
 70
     0
 71
     3
 72
     9
 73
     5
 74
     0
 42
0.000000001
 43
0.0000001
 40
0.0
 40
0.0
 40
0.0
 40
0.0
 40
0.5360781889
 40
1.0
 40
1.0
 40
1.0
 40
1.0
 10
358.122353227
 20
156.0868130735
 30
0.0
 10
358.3416063554
 20
155.8778988777
 30
0.0
 10
358.7195062164
 20
155.4516699148
 30
0.0
 10
358.9765290062
 20
154.9374739606
 30
0.0
 10
359.0509639543
 20
154.6861815907
 30
0.0
  0
SPLINE
  5
49B
330
228
100
AcDbEntity
  8
7_ALL_FEATURES
  6
Continuous
 62
     7
100
AcDbSpline
 70
     0
 71
     3
 72
     9
 73
     5
 74
     0
 42
0.000000001
 43
0.0000001
 40
0.0
 40
0.0
 40
0.0
 40
0.0
 40
0.2607020543
 40
1.0
 40
1.0
 40
1.0
 40
1.0
 10
305.8515456325
 20
151.1177599143
 30
0.0
 10
305.8071132562
 20
151.1566814784
 30
0.0
 10
305.6389420945
 20
151.3085133262
 30
0.0
 10
305.4801421724
 20
151.4709260739
 30
0.0
 10
305.3703297223
 20
151.597416626
 30
0.0
  0
SPLINE
  5
49C
330
228
100
AcDbEntity
  8
7_ALL_FEATURES
  6
Continuous
 62
     7
100
AcDbSpline
 70
     0
 71
     3
 72
    31
 73
    27
 74
     0
 42
0.000000001
 43
0.0000001
 40
0.0
 40
0.0
 40
0.0
 40
0.0
 40
0.0141662038
 40
0.026779303
 40
0.0388093426
 40
0.0513822371
 40
0.0654789013
 40
0.0817698773
 40
0.1006363995
 40
0.1222605318
 40
0.146689773
 40
0.1738823777
 40
0.2037343854
 40
0.2360914287
 40
0.3075194226
 40
0.386323378
 40
0.4703093863
 40
0.5570697383
 40
0.6440869812
 40
0.7288335158
 40
0.8088710441
 40
0.8819544257
 40
0.9152722911
 40
0.946157938
 40
0.9744483424
 40
1.0
 40
1.0
 40
1.0
 40
1.0
 10
305.3703297223
 20
151.597416626
 30
0.0
 10
305.1971630871
 20
151.7968834739
 30
0.0
 10
304.9028496616
 20
152.2065439175
 30
0.0
 10
304.6464393947
 20
152.8945572488
 30
0.0
 10
304.6244650343
 20
153.6011188833
 30
0.0
 10
304.8381604694
 20
154.3018150134
 30
0.0
 10
305.2706947341
 20
154.9845570597
 30
0.0
 10
305.9102738345
 20
155.6498361542
 30
0.0
 10
306.7509496298
 20
156.2981206975
 30
0.0
 10
307.7875378255
 20
156.9269566436
 30
0.0
 10
309.0131578619
 20
157.5325928689
 30
0.0
 10
310.41911473
 20
158.1106510266
 30
0.0
 10
311.9949702844
 20
158.6566332125
 30
0.0
 10
314.3864614958
 20
159.3593315978
 30
0.0
 10
317.7102120215
 20
160.1125651272
 30
0.0
 10
322.0246668148
 20
160.8044277479
 30
0.0
 10
326.6548412704
 20
161.287987001
 30
0.0
 10
331.4560639972
 20
161.5475879439
 30
0.0
 10
336.2783926745
 20
161.5747230144
 30
0.0
 10
340.9711450378
 20
161.3688158176
 30
0.0
 10
345.3876117504
 20
160.9368042012
 30
0.0
 10
348.8232412727
 20
160.3855227985
 30
0.0
 10
351.322844815
 20
159.8301005143
 30
0.0
 10
352.9886628076
 20
159.3806790492
 30
0.0
 10
354.490937281
 20
158.8892094591
 30
0.0
 10
355.424443245
 20
158.5169725952
 30
0.0
 10
355.859265717
 20
158.3222216848
 30
0.0
  0
SPLINE
  5
49D
330
228
100
AcDbEntity
  8
7_ALL_FEATURES
  6
Continuous
 62
     7
100
AcDbSpline
 70
     0
 71
     3
 72
    11
 73
     7
 74
     0
 42
0.000000001
 43
0.0000001
 40
0.0
 40
0.0
 40
0.0
 40
0.0
 40
0.2258610485
 40
0.4621637741
 40
0.7179122385
 40
1.0
 40
1.0
 40
1.0
 40
1.0
 10
305.1554681649
 20
152.7928117966
 30
0.0
 10
305.1515675124
 20
152.9494446706
 30
0.0
 10
305.1810225575
 20
153.2719707946
 30
0.0
 10
305.3352287251
 20
153.7491100253
 30
0.0
 10
305.5961629324
 20
154.2215821498
 30
0.0
 10
305.8269632111
 20
154.5165965485
 30
0.0
 10
305.9567297366
 20
154.6630676424
 30
0.0
  0
SPLINE
  5
49E
330
228
100
AcDbEntity
  8
7_ALL_FEATURES
  6
Continuous
 62
     7
100
AcDbSpline
 70
     0
 71
     3
 72
    11
 73
     7
 74
     0
 42
0.000000001
 43
0.0000001
 40
0.0
 40
0.0
 40
0.0
 40
0.0
 40
0.2993204578
 40
0.5648081673
 40
0.7973830144
 40
1.0
 40
1.0
 40
1.0
 40
1.0
 10
306.5610179922
 20
149.2278485055
 30
0.0
 10
306.1713977247
 20
149.402353978
 30
0.0
 10
305.4471396741
 20
149.7573361968
 30
0.0
 10
304.4741983777
 20
150.350245489
 30
0.0
 10
303.6858715046
 20
150.96870247
 30
0.0
 10
303.2599301696
 20
151.4258316557
 30
0.0
 10
303.0871662413
 20
151.6574929496
 30
0.0
  0
SPLINE
  5
49F
330
228
100
AcDbEntity
  8
7_ALL_FEATURES
  6
Continuous
 62
     7
100
AcDbSpline
 70
     0
 71
     3
 72
    31
 73
    27
 74
     0
 42
0.000000001
 43
0.0000001
 40
0.0
 40
0.0
 40
0.0
 40
0.0
 40
0.0134636182
 40
0.0256903544
 40
0.03770353
 40
0.0505842723
 40
0.0651988429
 40
0.0821078308
 40
0.1016174205
 40
0.1238617424
 40
0.1488619192
 40
0.176558338
 40
0.2068377574
 40
0.2395408873
 40
0.3114110789
 40
0.3903354495
 40
0.4741561173
 40
0.5605185624
 40
0.6469700597
 40
0.7310544555
 40
0.810406735
 40
0.8828522087
 40
0.9158886359
 40
0.9465275346
 40
0.9746110794
 40
1.0
 40
1.0
 40
1.0
 40
1.0
 10
303.0871662413
 20
151.6574929496
 30
0.0
 10
302.9262175837
 20
151.8733110006
 30
0.0
 10
302.6591634626
 20
152.3195072447
 30
0.0
 10
302.4677361386
 20
153.0612239485
 30
0.0
 10
302.5262191712
 20
153.8145298427
 30
0.0
 10
302.8282532343
 20
154.5555715872
 30
0.0
 10
303.3560526964
 20
155.2776148389
 30
0.0
 10
304.1002092502
 20
155.9818514802
 30
0.0
 10
305.055112003
 20
156.6677049227
 30
0.0
 10
306.2148962646
 20
157.3321639857
 30
0.0
 10
307.5719178448
 20
157.9708911995
 30
0.0
 10
309.1165493089
 20
158.5793863892
 30
0.0
 10
310.837493162
 20
159.1529155389
 30
0.0
 10
313.4326416842
 20
159.8882850556
 30
0.0
 10
317.0202579095
 20
160.674428893
 30
0.0
 10
321.6587806961
 20
161.3927917239
 30
0.0
 10
326.6174585254
 20
161.8895861879
 30
0.0
 10
331.7446579366
 20
162.1490881112
 30
0.0
 10
336.8836706972
 20
162.1629994339
 30
0.0
 10
341.877384814
 20
161.9312098739
 30
0.0
 10
346.5730582829
 20
161.461343218
 30
0.0
 10
350.2245770346
 20
160.8681800708
 30
0.0
 10
352.8814348334
 20
160.2732783506
 30
0.0
 10
354.6530144287
 20
159.7927334089
 30
0.0
 10
356.2518124977
 20
159.267912888
 30
0.0
 10
357.2458368462
 20
158.8710091186
 30
0.0
 10
357.7091746416
 20
158.6634865956
 30
0.0
  0
SPLINE
  5
4A0
330
228
100
AcDbEntity
  8
7_ALL_FEATURES
  6
Continuous
 62
     7
100
AcDbSpline
 70
     0
 71
     3
 72
    13
 73
     9
 74
     0
 42
0.000000001
 43
0.0000001
 40
0.0
 40
0.0
 40
0.0
 40
0.0
 40
0.3177565783
 40
0.58662914
 40
0.7038921861
 40
0.8108314651
 40
0.9088815769
 40
1.0
 40
1.0
 40
1.0
 40
1.0
 10
296.0096335059
 20
146.4125086175
 30
0.0
 10
295.2855604251
 20
146.7368108308
 30
0.0
 10
293.974392391
 20
147.3961516688
 30
0.0
 10
292.5140415489
 20
148.3895756318
 30
0.0
 10
291.6080877972
 20
149.2264557994
 30
0.0
 10
291.0830282807
 20
149.8390554803
 30
0.0
 10
290.6828380709
 20
150.463829755
 30
0.0
 10
290.4958192354
 20
150.9007495243
 30
0.0
 10
290.4268168393
 20
151.1175393235
 30
0.0
  0
SPLINE
  5
4A1
330
228
100
AcDbEntity
  8
7_ALL_FEATURES
  6
Continuous
 62
     7
100
AcDbSpline
 70
     0
 71
     3
 72
     9
 73
     5
 74
     0
 42
0.000000001
 43
0.0000001
 40
0.0
 40
0.0
 40
0.0
 40
0.0
 40
0.2544555
 40
1.0
 40
1.0
 40
1.0
 40
1.0
 10
290.4268168393
 20
151.1175393235
 30
0.0
 10
290.4027657418
 20
151.1931023894
 30
0.0
 10
290.3181208236
 20
151.4930923068
 30
0.0
 10
290.2754449696
 20
151.8051033984
 30
0.0
 10
290.2696444963
 20
152.0373720673
 30
0.0
  0
SPLINE
  5
4A2
330
228
100
AcDbEntity
  8
7_ALL_FEATURES
  6
Continuous
 62
     7
100
AcDbSpline
 70
     0
 71
     3
 72
     9
 73
     5
 74
     0
 42
0.000000001
 43
0.0000001
 40
0.0
 40
0.0
 40
0.0
 40
0.0
 40
0.2475178469
 40
1.0
 40
1.0
 40
1.0
 40
1.0
 10
374.0436369054
 20
154.1241992206
 30
0.0
 10
374.0454927087
 20
154.0498871884
 30
0.0
 10
374.0425218672
 20
153.7494499054
 30
0.0
 10
373.9966493581
 20
153.4497453467
 30
0.0
 10
373.9409978022
 20
153.2307174837
 30
0.0
  0
SPLINE
  5
4A3
330
228
100
AcDbEntity
  8
7_ALL_FEATURES
  6
Continuous
 62
     7
100
AcDbSpline
 70
     0
 71
     3
 72
    16
 73
    12
 74
     0
 42
0.000000001
 43
0.0000001
 40
0.0
 40
0.0
 40
0.0
 40
0.0
 40
0.0702867971
 40
0.1098267632
 40
0.1529676263
 40
0.2513057973
 40
0.3669953206
 40
0.5003765727
 40
0.6510270288
 40
0.8180075541
 40
1.0
 40
1.0
 40
1.0
 40
1.0
 10
373.9409978022
 20
153.2307174837
 30
0.0
 10
373.831525986
 20
152.7998691892
 30
0.0
 10
373.5303080062
 20
152.1573357077
 30
0.0
 10
372.9547175501
 20
151.3789459692
 30
0.0
 10
372.1721747804
 20
150.5397354632
 30
0.0
 10
370.893088961
 20
149.522254063
 30
0.0
 10
369.004259151
 20
148.3917627768
 30
0.0
 10
366.7147846503
 20
147.311906281
 30
0.0
 10
364.047895196
 20
146.2938555588
 30
0.0
 10
361.0309691019
 20
145.3487024524
 30
0.0
 10
358.8931118785
 20
144.7963425901
 30
0.0
 10
357.7728863583
 20
144.5318087171
 30
0.0
  0
SPLINE
  5
4A4
330
228
100
AcDbEntity
  8
7_ALL_FEATURES
  6
Continuous
 62
     7
100
AcDbSpline
 70
     0
 71
     3
 72
     9
 73
     5
 74
     0
 42
0.000000001
 43
0.0000001
 40
0.0
 40
0.0
 40
0.0
 40
0.0
 40
0.4824737472
 40
1.0
 40
1.0
 40
1.0
 40
1.0
 10
357.7728863583
 20
144.5318087171
 30
0.0
 10
356.1861041565
 20
144.1571005591
 30
0.0
 10
352.8739410535
 20
143.4777335542
 30
0.0
 10
349.5334873923
 20
142.9587508706
 30
0.0
 10
347.8001096311
 20
142.726427926
 30
0.0
  0
SPLINE
  5
4A5
330
228
100
AcDbEntity
  8
7_ALL_FEATURES
  6
Continuous
 62
     7
100
AcDbSpline
 70
     0
 71
     3
 72
    15
 73
    11
 74
     0
 42
0.000000001
 43
0.0000001
 40
0.0
 40
0.0
 40
0.0
 40
0.0
 40
0.1270597492
 40
0.2580952295
 40
0.390818917
 40
0.5229036187
 40
0.6520370814
 40
0.7759770711
 40
0.8926072825
 40
1.0
 40
1.0
 40
1.0
 40
1.0
 10
347.8001096311
 20
142.726427926
 30
0.0
 10
345.9749690288
 20
142.4818060965
 30
0.0
 10
342.2562600029
 20
142.0665795008
 30
0.0
 10
336.6053150622
 20
141.6619444548
 30
0.0
 10
330.8702133799
 20
141.4702484036
 30
0.0
 10
325.1595362015
 20
141.495154115
 30
0.0
 10
319.581224287
 20
141.7360578024
 30
0.0
 10
314.2405334972
 20
142.1881075452
 30
0.0
 10
309.2383519804
 20
142.8422148204
 30
0.0
 10
306.0433152707
 20
143.4315374179
 30
0.0
 10
304.5229267635
 20
143.7645391817
 30
0.0
  0
SPLINE
  5
4A6
330
228
100
AcDbEntity
  8
7_ALL_FEATURES
  6
Continuous
 62
     7
100
AcDbSpline
 70
     0
 71
     3
 72
     9
 73
     5
 74
     0
 42
0.000000001
 43
0.0000001
 40
0.0
 40
0.0
 40
0.0
 40
0.0
 40
0.2588092329
 40
1.0
 40
1.0
 40
1.0
 40
1.0
 10
304.5229267635
 20
143.7645391817
 30
0.0
 10
304.2360829942
 20
143.8273648875
 30
0.0
 10
303.129332214
 20
144.0771702981
 30
0.0
 10
302.0290158585
 20
144.3559339693
 30
0.0
 10
301.219014673
 20
144.5819776247
 30
0.0
  0
SPLINE
  5
4A7
330
228
100
AcDbEntity
  8
7_ALL_FEATURES
  6
Continuous
 62
     7
100
AcDbSpline
 70
     0
 71
     3
 72
     9
 73
     5
 74
     0
 42
0.000000001
 43
0.0000001
 40
0.0
 40
0.0
 40
0.0
 40
0.0
 40
0.5292494296
 40
1.0
 40
1.0
 40
1.0
 40
1.0
 10
301.219014673
 20
144.5819776247
 30
0.0
 10
300.2801230906
 20
144.843990186
 30
0.0
 10
298.5192772151
 20
145.3883184418
 30
0.0
 10
296.8009152419
 20
146.0581045867
 30
0.0
 10
296.0096335059
 20
146.4125086175
 30
0.0
  0
SPLINE
  5
4A8
330
228
100
AcDbEntity
  8
7_ALL_FEATURES
  6
Continuous
 62
     7
100
AcDbSpline
 70
     0
 71
     3
 72
    11
 73
     7
 74
     0
 42
0.000000001
 43
0.0000001
 40
0.0
 40
0.0
 40
0.0
 40
0.0
 40
0.2357144738
 40
0.4840493383
 40
0.7404110207
 40
1.0
 40
1.0
 40
1.0
 40
1.0
 10
347.6978095674
 20
110.7229912975
 30
0.0
 10
346.466517141
 20
110.4958466557
 30
0.0
 10
343.9255137449
 20
110.0955569485
 30
0.0
 10
340.0159879379
 20
109.6571712391
 30
0.0
 10
335.965301771
 20
109.3708555257
 30
0.0
 10
333.2251824857
 20
109.2853269632
 30
0.0
 10
331.8463896284
 20
109.2693672207
 30
0.0
  0
LINE
  5
4A9
330
228
100
AcDbEntity
  8
7_ALL_FEATURES
  6
Continuous
 62
     7
100
AcDbLine
 10
331.8463896284
 20
109.2693672207
 30
0.0
 11
331.8045783962
 21
109.2688915981
 31
0.0
  0
SPLINE
  5
4AA
330
228
100
AcDbEntity
  8
7_ALL_FEATURES
  6
Continuous
 62
     7
100
AcDbSpline
 70
     0
 71
     3
 72
    18
 73
    14
 74
     0
 42
0.000000001
 43
0.0000001
 40
0.0
 40
0.0
 40
0.0
 40
0.0
 40
0.1604592407
 40
0.3162073649
 40
0.4641297965
 40
0.5342481095
 40
0.6013494716
 40
0.7252750593
 40
0.8338125364
 40
0.8818414695
 40
0.9255457734
 40
0.9649055311
 40
1.0
 40
1.0
 40
1.0
 40
1.0
 10
331.3290547161
 20
109.2646576667
 30
0.0
 10
329.9095982944
 20
109.2552459437
 30
0.0
 10
327.1116003965
 20
109.2933203049
 30
0.0
 10
323.0109433148
 20
109.5227363618
 30
0.0
 10
319.7198337244
 20
109.8581840969
 30
0.0
 10
317.2221733881
 20
110.2133240718
 30
0.0
 10
314.9448931358
 20
110.6034894596
 30
0.0
 10
312.3538705504
 20
111.1686498398
 30
0.0
 10
309.9732883637
 20
111.8822729259
 30
0.0
 10
308.3222021467
 20
112.52726408
 30
0.0
 10
307.2699542498
 20
113.0171028541
 30
0.0
 10
306.3578997372
 20
113.5300124596
 30
0.0
 10
305.8159432045
 20
113.9070865853
 30
0.0
 10
305.5730111538
 20
114.1003982132
 30
0.0
  0
SPLINE
  5
4AB
330
228
100
AcDbEntity
  8
7_ALL_FEATURES
  6
Continuous
 62
     7
100
AcDbSpline
 70
     0
 71
     3
 72
    11
 73
     7
 74
     0
 42
0.000000001
 43
0.0000001
 40
0.0
 40
0.0
 40
0.0
 40
0.0
 40
0.2952094836
 40
0.5540213802
 40
0.7848041919
 40
1.0
 40
1.0
 40
1.0
 40
1.0
 10
305.5730111538
 20
114.1003982132
 30
0.0
 10
305.3435493832
 20
114.2829909517
 30
0.0
 10
304.9326166968
 20
114.6524906946
 30
0.0
 10
304.4465047309
 20
115.268080055
 30
0.0
 10
304.1403216203
 20
115.9052817838
 30
0.0
 10
304.0626600844
 20
116.3486961664
 30
0.0
 10
304.0573504003
 20
116.562394218
 30
0.0
  0
SPLINE
  5
4AC
330
228
100
AcDbEntity
  8
7_ALL_FEATURES
  6
Continuous
 62
     7
100
AcDbSpline
 70
     0
 71
     3
 72
     9
 73
     5
 74
     0
 42
0.000000001
 43
0.0000001
 40
0.0
 40
0.0
 40
0.0
 40
0.0
 40
0.2405667378
 40
1.0
 40
1.0
 40
1.0
 40
1.0
 10
347.5781185457
 20
115.5278907787
 30
0.0
 10
347.0524504744
 20
115.4309173196
 30
0.0
 10
344.8627895817
 20
115.0525738537
 30
0.0
 10
342.6574261075
 20
114.767135229
 30
0.0
 10
340.9788020249
 20
114.5947111244
 30
0.0
  0
SPLINE
  5
4AD
330
228
100
AcDbEntity
  8
7_ALL_FEATURES
  6
Continuous
 62
     7
100
AcDbSpline
 70
     0
 71
     3
 72
    11
 73
     7
 74
     0
 42
0.000000001
 43
0.0000001
 40
0.0
 40
0.0
 40
0.0
 40
0.0
 40
0.2575219536
 40
0.5178275521
 40
0.7690782799
 40
1.0
 40
1.0
 40
1.0
 40
1.0
 10
340.9788020249
 20
114.5947111244
 30
0.0
 10
338.8703387273
 20
114.3781350011
 30
0.0
 10
334.6152492103
 20
114.083128067
 30
0.0
 10
328.2817832631
 20
114.026411305
 30
0.0
 10
322.1754552615
 20
114.349081561
 30
0.0
 10
318.2314281151
 20
114.8314227022
 30
0.0
 10
316.3573983737
 20
115.1482429533
 30
0.0
  0
LINE
  5
4AE
330
228
100
AcDbEntity
  8
7_ALL_FEATURES
  6
Continuous
 62
     7
100
AcDbLine
 10
316.3573983737
 20
115.1482429533
 30
0.0
 11
316.2568890411
 21
115.1653222334
 31
0.0
  0
SPLINE
  5
4AF
330
228
100
AcDbEntity
  8
7_ALL_FEATURES
  6
Continuous
 62
     7
100
AcDbSpline
 70
     0
 71
     3
 72
    14
 73
    10
 74
     0
 42
0.000000001
 43
0.0000001
 40
0.0
 40
0.0
 40
0.0
 40
0.0
 40
0.3126403535
 40
0.4545675696
 40
0.5860139217
 40
0.7064856343
 40
0.8156588725
 40
0.9134329109
 40
1.0
 40
1.0
 40
1.0
 40
1.0
 10
316.2568890411
 20
115.1653222334
 30
0.0
 10
315.072494325
 20
115.3676156596
 30
0.0
 10
313.3577835608
 20
115.7122669223
 30
0.0
 10
311.1803390479
 20
116.2898572286
 30
0.0
 10
309.7360275046
 20
116.7448212824
 30
0.0
 10
308.4360171095
 20
117.2326533903
 30
0.0
 10
307.2879301651
 20
117.7504780035
 30
0.0
 10
306.2985750998
 20
118.2950468208
 30
0.0
 10
305.7136521291
 20
118.6981401704
 30
0.0
 10
305.453320132
 20
118.9052976944
 30
0.0
  0
SPLINE
  5
4B0
330
228
100
AcDbEntity
  8
7_ALL_FEATURES
  6
Continuous
 62
     7
100
AcDbSpline
 70
     0
 71
     3
 72
    11
 73
     7
 74
     0
 42
0.000000001
 43
0.0000001
 40
0.0
 40
0.0
 40
0.0
 40
0.0
 40
0.2952094836
 40
0.5540213802
 40
0.7848041919
 40
1.0
 40
1.0
 40
1.0
 40
1.0
 10
305.453320132
 20
118.9052976944
 30
0.0
 10
305.2238583614
 20
119.0878904329
 30
0.0
 10
304.812925675
 20
119.4573901759
 30
0.0
 10
304.3268137092
 20
120.0729795363
 30
0.0
 10
304.0206305986
 20
120.710181265
 30
0.0
 10
303.9429690626
 20
121.1535956476
 30
0.0
 10
303.9376593785
 20
121.3672936992
 30
0.0
  0
SPLINE
  5
4B1
330
228
100
AcDbEntity
  8
7_ALL_FEATURES
  6
Continuous
 62
     7
100
AcDbSpline
 70
     0
 71
     3
 72
    19
 73
    15
 74
     0
 42
0.000000001
 43
0.0000001
 40
0.0
 40
0.0
 40
0.0
 40
0.0
 40
0.1379206303
 40
0.2848621481
 40
0.4342166663
 40
0.5792177721
 40
0.6480450182
 40
0.7133933537
 40
0.7745645661
 40
0.8309354051
 40
0.8819775778
 40
0.9272858926
 40
0.9666236161
 40
1.0
 40
1.0
 40
1.0
 40
1.0
 10
347.4584275239
 20
120.3327902599
 30
0.0
 10
345.5148807008
 20
119.9742513479
 30
0.0
 10
341.4696380714
 20
119.3976011886
 30
0.0
 10
335.2621277553
 20
118.920883065
 30
0.0
 10
328.9356286204
 20
118.8181029341
 30
0.0
 10
323.7325842619
 20
119.0511663184
 30
0.0
 10
319.750087077
 20
119.4380170925
 30
0.0
 10
316.9754064189
 20
119.8136243037
 30
0.0
 10
314.3946551097
 20
120.2747148586
 30
0.0
 10
312.0390422382
 20
120.815477621
 30
0.0
 10
309.9368613241
 20
121.4289642923
 30
0.0
 10
308.1123581911
 20
122.1077151482
 30
0.0
 10
306.5865840888
 20
122.8431972534
 30
0.0
 10
305.7078699934
 20
123.412397383
 30
0.0
 10
305.3336291102
 20
123.7101971757
 30
0.0
  0
SPLINE
  5
4B2
330
228
100
AcDbEntity
  8
7_ALL_FEATURES
  6
Continuous
 62
     7
100
AcDbSpline
 70
     0
 71
     3
 72
    11
 73
     7
 74
     0
 42
0.000000001
 43
0.0000001
 40
0.0
 40
0.0
 40
0.0
 40
0.0
 40
0.2952094836
 40
0.5540213802
 40
0.7848041919
 40
1.0
 40
1.0
 40
1.0
 40
1.0
 10
305.3336291102
 20
123.7101971757
 30
0.0
 10
305.1041673396
 20
123.8927899141
 30
0.0
 10
304.6932346532
 20
124.2622896571
 30
0.0
 10
304.2071226874
 20
124.8778790175
 30
0.0
 10
303.9009395768
 20
125.5150807462
 30
0.0
 10
303.8232780408
 20
125.9584951288
 30
0.0
 10
303.8179683568
 20
126.1721931804
 30
0.0
  0
SPLINE
  5
4B3
330
228
100
AcDbEntity
  8
7_ALL_FEATURES
  6
Continuous
 62
     7
100
AcDbSpline
 70
     0
 71
     3
 72
     9
 73
     5
 74
     0
 42
0.000000001
 43
0.0000001
 40
0.0
 40
0.0
 40
0.0
 40
0.0
 40
0.5162096403
 40
1.0
 40
1.0
 40
1.0
 40
1.0
 10
304.5433721336
 20
110.5773208511
 30
0.0
 10
304.4416516978
 20
110.3838023913
 30
0.0
 10
304.2822228132
 20
109.9866017412
 30
0.0
 10
304.2317854115
 20
109.5599347395
 30
0.0
 10
304.2368560161
 20
109.3551036614
 30
0.0
  0
SPLINE
  5
4B4
330
228
100
AcDbEntity
  8
7_ALL_FEATURES
  6
Continuous
 62
     7
100
AcDbSpline
 70
     0
 71
     3
 72
    11
 73
     7
 74
     0
 42
0.000000001
 43
0.0000001
 40
0.0
 40
0.0
 40
0.0
 40
0.0
 40
0.2869756396
 40
0.5439272757
 40
0.7781456005
 40
1.0
 40
1.0
 40
1.0
 40
1.0
 10
305.3326803058
 20
109.6034829198
 30
0.0
 10
305.1564606225
 20
109.7662775608
 30
0.0
 10
304.8407302617
 20
110.0960667431
 30
0.0
 10
304.4716426394
 20
110.6361218402
 30
0.0
 10
304.2404684647
 20
111.1907060749
 30
0.0
 10
304.1816003413
 20
111.5721433427
 30
0.0
 10
304.1770105052
 20
111.757553402
 30
0.0
  0
SPLINE
  5
4B5
330
228
100
AcDbEntity
  8
7_ALL_FEATURES
  6
Continuous
 62
     7
100
AcDbSpline
 70
     0
 71
     3
 72
     9
 73
     5
 74
     0
 42
0.000000001
 43
0.0000001
 40
0.0
 40
0.0
 40
0.0
 40
0.0
 40
0.5170810287
 40
1.0
 40
1.0
 40
1.0
 40
1.0
 10
304.4426384617
 20
115.4177429972
 30
0.0
 10
304.3350480168
 20
115.2191283743
 30
0.0
 10
304.1659409723
 20
114.811120685
 30
0.0
 10
304.1119442608
 20
114.3708988003
 30
0.0
 10
304.1171649943
 20
114.1600031426
 30
0.0
  0
SPLINE
  5
4B6
330
228
100
AcDbEntity
  8
7_ALL_FEATURES
  6
Continuous
 62
     7
100
AcDbSpline
 70
     0
 71
     3
 72
     9
 73
     5
 74
     0
 42
0.000000001
 43
0.0000001
 40
0.0
 40
0.0
 40
0.0
 40
0.0
 40
0.515694284
 40
1.0
 40
1.0
 40
1.0
 40
1.0
 10
361.6246158903
 20
121.5939823892
 30
0.0
 10
361.7323275319
 20
121.4085825643
 30
0.0
 10
361.9055143579
 20
121.0258451235
 30
0.0
 10
361.9744799676
 20
120.6099291055
 30
0.0
 10
361.9794817148
 20
120.4086245404
 30
0.0
  0
SPLINE
  5
4B7
330
228
100
AcDbEntity
  8
7_ALL_FEATURES
  6
Continuous
 62
     7
100
AcDbSpline
 70
     0
 71
     3
 72
     9
 73
     5
 74
     0
 42
0.000000001
 43
0.0000001
 40
0.0
 40
0.0
 40
0.0
 40
0.0
 40
0.515694284
 40
1.0
 40
1.0
 40
1.0
 40
1.0
 10
361.5049248686
 20
126.3988818705
 30
0.0
 10
361.6126365101
 20
126.2134820455
 30
0.0
 10
361.7858233361
 20
125.8307446048
 30
0.0
 10
361.8547889458
 20
125.4148285867
 30
0.0
 10
361.8597906931
 20
125.2135240216
 30
0.0
  0
SPLINE
  5
4B8
330
228
100
AcDbEntity
  8
02___PRT_ALL_AXES
  6
Continuous
 62
     7
100
AcDbSpline
 70
     0
 71
     3
 72
     9
 73
     5
 74
     0
 42
0.000000001
 43
0.0000001
 40
0.0
 40
0.0
 40
0.0
 40
0.0
 40
0.5547837933
 40
1.0
 40
1.0
 40
1.0
 40
1.0
 10
311.2193865452
 20
101.1899044042
 30
0.0
 10
311.1834954848
 20
101.2059795085
 30
0.0
 10
311.1203475457
 20
101.2385934358
 30
0.0
 10
311.0636336293
 20
101.2825319287
 30
0.0
 10
311.0422209611
 20
101.3057162536
 30
0.0
  0
SPLINE
  5
4B9
330
228
100
AcDbEntity
  8
02___PRT_ALL_AXES
  6
Continuous
 62
     7
100
AcDbSpline
 70
     0
 71
     3
 72
     9
 73
     5
 74
     0
 42
0.000000001
 43
0.0000001
 40
0.0
 40
0.0
 40
0.0
 40
0.0
 40
0.2821075083
 40
1.0
 40
1.0
 40
1.0
 40
1.0
 10
311.0422209611
 20
101.3057162536
 30
0.0
 10
311.0346938937
 20
101.3138661009
 30
0.0
 10
311.0097591989
 20
101.3441104036
 30
0.0
 10
310.994011264
 20
101.383349625
 30
0.0
 10
310.9933419231
 20
101.411573113
 30
0.0
  0
SPLINE
  5
4BA
330
228
100
AcDbEntity
  8
7_ALL_FEATURES
  6
Continuous
 62
     7
100
AcDbSpline
 70
     0
 71
     3
 72
    11
 73
     7
 74
     0
 42
0.000000001
 43
0.0000001
 40
0.0
 40
0.0
 40
0.0
 40
0.0
 40
0.2898807343
 40
0.5474055924
 40
0.7804150486
 40
1.0
 40
1.0
 40
1.0
 40
1.0
 10
361.3462842517
 20
96.9467275668
 30
0.0
 10
361.5313789365
 20
97.1259201457
 30
0.0
 10
361.860993555
 20
97.4864430118
 30
0.0
 10
362.2397715882
 20
98.07225121
 30
0.0
 10
362.4660021105
 20
98.6672056398
 30
0.0
 10
362.5110010589
 20
99.0723959591
 30
0.0
 10
362.5061412581
 20
99.2674857294
 30
0.0
  0
SPLINE
  5
4BB
330
228
100
AcDbEntity
  8
7_ALL_FEATURES
  6
Continuous
 62
     7
100
AcDbSpline
 70
     0
 71
     3
 72
    22
 73
    18
 74
     0
 42
0.000000001
 43
0.0000001
 40
0.0
 40
0.0
 40
0.0
 40
0.0
 40
0.0155745425
 40
0.032857529
 40
0.0727116945
 40
0.1196131473
 40
0.1731884974
 40
0.2328129404
 40
0.2976825199
 40
0.3668595285
 40
0.4393061539
 40
0.5894988323
 40
0.7390063201
 40
0.8106112748
 40
0.8786331291
 40
0.9420669473
 40
1.0
 40
1.0
 40
1.0
 40
1.0
 10
360.6439608919
 20
96.2668519401
 30
0.0
 10
360.463230763
 20
96.0919148879
 30
0.0
 10
360.0590863167
 20
95.7461821412
 30
0.0
 10
359.0977684163
 20
95.0696329744
 30
0.0
 10
357.6140430491
 20
94.2695841719
 30
0.0
 10
355.515487623
 20
93.4072148646
 30
0.0
 10
353.0516182517
 20
92.6157171105
 30
0.0
 10
350.2625580397
 20
91.9086696862
 30
0.0
 10
347.193659307
 20
91.2983968317
 30
0.0
 10
343.8959170393
 20
90.79545191
 30
0.0
 10
339.2110076208
 20
90.2737536008
 30
0.0
 10
333.2043270169
 20
89.945792332
 30
0.0
 10
327.2028219258
 20
90.0358698283
 30
0.0
 10
322.5445117291
 20
90.3742292011
 30
0.0
 10
319.2853041746
 20
90.7476727885
 30
0.0
 10
316.2650234079
 20
91.2375979622
 30
0.0
 10
314.3488117389
 20
91.6568423899
 30
0.0
 10
313.4424431186
 20
91.8889473213
 30
0.0
  0
SPLINE
  5
4BC
330
228
100
AcDbEntity
  8
7_ALL_FEATURES
  6
Continuous
 62
     7
100
AcDbSpline
 70
     0
 71
     3
 72
     9
 73
     5
 74
     0
 42
0.000000001
 43
0.0000001
 40
0.0
 40
0.0
 40
0.0
 40
0.0
 40
0.4837826052
 40
1.0
 40
1.0
 40
1.0
 40
1.0
 10
303.8778138677
 20
123.7697434398
 30
0.0
 10
303.8727223537
 20
123.9746608342
 30
0.0
 10
303.9231010605
 20
124.4015377868
 30
0.0
 10
304.0827435533
 20
124.7988663295
 30
0.0
 10
304.184542136
 20
124.9924560233
 30
0.0
  0
SPLINE
  5
4BD
330
228
100
AcDbEntity
  8
7_ALL_FEATURES
  6
Continuous
 62
     7
100
AcDbSpline
 70
     0
 71
     3
 72
     9
 73
     5
 74
     0
 42
0.000000001
 43
0.0000001
 40
0.0
 40
0.0
 40
0.0
 40
0.0
 40
0.4837826052
 40
1.0
 40
1.0
 40
1.0
 40
1.0
 10
303.9975048894
 20
118.9648439586
 30
0.0
 10
303.9924133754
 20
119.169761353
 30
0.0
 10
304.0427920822
 20
119.5966383055
 30
0.0
 10
304.2024345751
 20
119.9939668483
 30
0.0
 10
304.3042331578
 20
120.1875565421
 30
0.0
  0
SPLINE
  5
4BE
330
228
100
AcDbEntity
  8
7_ALL_FEATURES
  6
Continuous
 62
     7
100
AcDbSpline
 70
     0
 71
     3
 72
    11
 73
     7
 74
     0
 42
0.000000001
 43
0.0000001
 40
0.0
 40
0.0
 40
0.0
 40
0.0
 40
0.2149567975
 40
0.4456232394
 40
0.7045182199
 40
1.0
 40
1.0
 40
1.0
 40
1.0
 10
361.7999451822
 20
127.6159737622
 30
0.0
 10
361.8052790496
 20
127.401302406
 30
0.0
 10
361.7490147664
 20
126.9523950444
 30
0.0
 10
361.4722448802
 20
126.2977845652
 30
0.0
 10
361.0130170654
 20
125.6560922556
 30
0.0
 10
360.617586402
 20
125.2650780836
 30
0.0
 10
360.3955737197
 20
125.0705481719
 30
0.0
  0
SPLINE
  5
4BF
330
228
100
AcDbEntity
  8
7_ALL_FEATURES
  6
Continuous
 62
     7
100
AcDbSpline
 70
     0
 71
     3
 72
    14
 73
    10
 74
     0
 42
0.000000001
 43
0.0000001
 40
0.0
 40
0.0
 40
0.0
 40
0.0
 40
0.0847177359
 40
0.1814970036
 40
0.2904245853
 40
0.4112346468
 40
0.543387213
 40
0.6861734226
 40
1.0
 40
1.0
 40
1.0
 40
1.0
 10
360.263734696
 20
124.9577514695
 30
0.0
 10
359.9661857159
 20
124.7090617406
 30
0.0
 10
359.2891539199
 20
124.2232832646
 30
0.0
 10
358.1331157826
 20
123.5636957178
 30
0.0
 10
356.7780032654
 20
122.9299344772
 30
0.0
 10
355.2340720513
 20
122.3270763884
 30
0.0
 10
353.5129230805
 20
121.759604778
 30
0.0
 10
350.9168105535
 20
121.0336042835
 30
0.0
 10
348.8711158808
 20
120.5933982064
 30
0.0
 10
347.4584275239
 20
120.3327902599
 30
0.0
  0
SPLINE
  5
4C0
330
228
100
AcDbEntity
  8
7_ALL_FEATURES
  6
Continuous
 62
     7
100
AcDbSpline
 70
     0
 71
     3
 72
    11
 73
     7
 74
     0
 42
0.000000001
 43
0.0000001
 40
0.0
 40
0.0
 40
0.0
 40
0.0
 40
0.2149567975
 40
0.4456232394
 40
0.7045182199
 40
1.0
 40
1.0
 40
1.0
 40
1.0
 10
361.9196362039
 20
122.811074281
 30
0.0
 10
361.9249700713
 20
122.5964029248
 30
0.0
 10
361.8687057882
 20
122.1474955632
 30
0.0
 10
361.591935902
 20
121.492885084
 30
0.0
 10
361.1327080872
 20
120.8511927744
 30
0.0
 10
360.7372774238
 20
120.4601786024
 30
0.0
 10
360.5152647414
 20
120.2656486907
 30
0.0
  0
SPLINE
  5
4C1
330
228
100
AcDbEntity
  8
7_ALL_FEATURES
  6
Continuous
 62
     7
100
AcDbSpline
 70
     0
 71
     3
 72
    14
 73
    10
 74
     0
 42
0.000000001
 43
0.0000001
 40
0.0
 40
0.0
 40
0.0
 40
0.0
 40
0.0847177359
 40
0.1814970036
 40
0.2904245853
 40
0.4112346468
 40
0.543387213
 40
0.6861734226
 40
1.0
 40
1.0
 40
1.0
 40
1.0
 10
360.3834257177
 20
120.1528519883
 30
0.0
 10
360.0858767376
 20
119.9041622593
 30
0.0
 10
359.4088449417
 20
119.4183837833
 30
0.0
 10
358.2528068043
 20
118.7587962366
 30
0.0
 10
356.8976942871
 20
118.1250349959
 30
0.0
 10
355.3537630731
 20
117.5221769072
 30
0.0
 10
353.6326141023
 20
116.9547052967
 30
0.0
 10
351.0365015753
 20
116.2287048023
 30
0.0
 10
348.9908069026
 20
115.7884987252
 30
0.0
 10
347.5781185457
 20
115.5278907787
 30
0.0
  0
SPLINE
  5
4C2
330
228
100
AcDbEntity
  8
7_ALL_FEATURES
  6
Continuous
 62
     7
100
AcDbSpline
 70
     0
 71
     3
 72
    11
 73
     7
 74
     0
 42
0.000000001
 43
0.0000001
 40
0.0
 40
0.0
 40
0.0
 40
0.0
 40
0.2149567975
 40
0.4456232394
 40
0.7045182199
 40
1.0
 40
1.0
 40
1.0
 40
1.0
 10
362.0393272257
 20
118.0061747998
 30
0.0
 10
362.0446610931
 20
117.7915034436
 30
0.0
 10
361.98839681
 20
117.342596082
 30
0.0
 10
361.7116269237
 20
116.6879856028
 30
0.0
 10
361.2523991089
 20
116.0462932932
 30
0.0
 10
360.8569684456
 20
115.6552791212
 30
0.0
 10
360.6349557632
 20
115.4607492095
 30
0.0
  0
SPLINE
  5
4C3
330
228
100
AcDbEntity
  8
7_ALL_FEATURES
  6
Continuous
 62
     7
100
AcDbSpline
 70
     0
 71
     3
 72
    14
 73
    10
 74
     0
 42
0.000000001
 43
0.0000001
 40
0.0
 40
0.0
 40
0.0
 40
0.0
 40
0.0847177359
 40
0.1814970036
 40
0.2904245853
 40
0.4112346468
 40
0.543387213
 40
0.6861734226
 40
1.0
 40
1.0
 40
1.0
 40
1.0
 10
360.5031167395
 20
115.3479525071
 30
0.0
 10
360.2055677594
 20
115.0992627781
 30
0.0
 10
359.5285359634
 20
114.6134843021
 30
0.0
 10
358.3724978261
 20
113.9538967554
 30
0.0
 10
357.0173853089
 20
113.3201355147
 30
0.0
 10
355.4734540949
 20
112.717277426
 30
0.0
 10
353.7523051241
 20
112.1498058155
 30
0.0
 10
351.1561925971
 20
111.4238053211
 30
0.0
 10
349.1104979244
 20
110.983599244
 30
0.0
 10
347.6978095674
 20
110.7229912975
 30
0.0
  0
SPLINE
  5
4C4
330
228
100
AcDbEntity
  8
7_ALL_FEATURES
  6
Continuous
 62
     7
100
AcDbSpline
 70
     0
 71
     3
 72
     9
 73
     5
 74
     0
 42
0.000000001
 43
0.0000001
 40
0.0
 40
0.0
 40
0.0
 40
0.0
 40
0.4835886922
 40
1.0
 40
1.0
 40
1.0
 40
1.0
 10
362.0992036535
 20
115.603666394
 30
0.0
 10
362.0941056551
 20
115.8096040694
 30
0.0
 10
362.0219412722
 20
116.2357415875
 30
0.0
 10
361.841094197
 20
116.6264682178
 30
0.0
 10
361.7287297515
 20
116.8155888157
 30
0.0
  0
SPLINE
  5
4C5
330
228
100
AcDbEntity
  8
7_ALL_FEATURES
  6
Continuous
 62
     7
100
AcDbSpline
 70
     0
 71
     3
 72
    27
 73
    23
 74
     0
 42
0.000000001
 43
0.0000001
 40
0.0
 40
0.0
 40
0.0
 40
0.0
 40
0.0113823449
 40
0.0234876634
 40
0.0369083767
 40
0.0520584072
 40
0.0691972823
 40
0.0884657588
 40
0.1099256081
 40
0.1335775652
 40
0.1872516608
 40
0.2488335806
 40
0.3172987048
 40
0.3913810167
 40
0.469640724
 40
0.5505177738
 40
0.6323796942
 40
0.7135672827
 40
0.7924395571
 40
0.8674194778
 40
0.9370405108
 40
1.0
 40
1.0
 40
1.0
 40
1.0
 10
362.1590491644
 20
113.2012166533
 30
0.0
 10
362.1639761154
 20
113.0021885733
 30
0.0
 10
362.1167472051
 20
112.5882629835
 30
0.0
 10
361.8807310959
 20
111.9812896611
 30
0.0
 10
361.4861769603
 20
111.3840984923
 30
0.0
 10
360.9386173214
 20
110.7976533517
 30
0.0
 10
360.2413454133
 20
110.2226796909
 30
0.0
 10
359.3978251157
 20
109.6607940801
 30
0.0
 10
358.4119910607
 20
109.1144704591
 30
0.0
 10
356.8473006558
 20
108.3791040284
 30
0.0
 10
354.5643687407
 20
107.5354182602
 30
0.0
 10
351.4690903278
 20
106.6634645058
 30
0.0
 10
347.9760886113
 20
105.9140244359
 30
0.0
 10
344.1608802987
 20
105.3040160029
 30
0.0
 10
340.1059189569
 20
104.847435521
 30
0.0
 10
335.8995725668
 20
104.5546173169
 30
0.0
 10
331.6336313508
 20
104.4321565967
 30
0.0
 10
327.4012668607
 20
104.4827434834
 30
0.0
 10
323.2949106377
 20
104.7051106764
 30
0.0
 10
319.4039521337
 20
105.0940446947
 30
0.0
 10
315.8132045043
 20
105.6404725702
 30
0.0
 10
313.5438642551
 20
106.1283833622
 30
0.0
 10
312.4775319244
 20
106.4034037355
 30
0.0
  0
SPLINE
  5
4C6
330
228
100
AcDbEntity
  8
7_ALL_FEATURES
  6
Continuous
 62
     7
100
AcDbSpline
 70
     0
 71
     3
 72
     9
 73
     5
 74
     0
 42
0.000000001
 43
0.0000001
 40
0.0
 40
0.0
 40
0.0
 40
0.0
 40
0.484308875
 40
1.0
 40
1.0
 40
1.0
 40
1.0
 10
362.2188946753
 20
110.7987669127
 30
0.0
 10
362.2139216993
 20
110.9996542088
 30
0.0
 10
362.1451859399
 20
111.4146946528
 30
0.0
 10
361.9726957897
 20
111.7967746262
 30
0.0
 10
361.865342684
 20
111.9818649802
 30
0.0
  0
SPLINE
  5
4C7
330
228
100
AcDbEntity
  8
7_ALL_FEATURES
  6
Continuous
 62
     7
100
AcDbSpline
 70
     0
 71
     3
 72
    19
 73
    15
 74
     0
 42
0.000000001
 43
0.0000001
 40
0.0
 40
0.0
 40
0.0
 40
0.0
 40
0.0291223605
 40
0.0600857078
 40
0.0943999025
 40
0.133121512
 40
0.1769142
 40
0.2261391628
 40
0.2809559204
 40
0.3413685164
 40
0.4784627297
 40
0.635767823
 40
0.8106851424
 40
1.0
 40
1.0
 40
1.0
 40
1.0
 10
362.2787401861
 20
108.3963171721
 30
0.0
 10
362.2836545935
 20
108.1977958015
 30
0.0
 10
362.236706658
 20
107.7849951926
 30
0.0
 10
362.0019523951
 20
107.1795707024
 30
0.0
 10
361.609423384
 20
106.5838343333
 30
0.0
 10
361.0646100355
 20
105.9987650278
 30
0.0
 10
360.3707878676
 20
105.4250837842
 30
0.0
 10
359.5313903274
 20
104.8643961901
 30
0.0
 10
358.5503159726
 20
104.3191502
 30
0.0
 10
356.9930791857
 20
103.5850972982
 30
0.0
 10
354.7206432997
 20
102.7425359851
 30
0.0
 10
351.6389740083
 20
101.8711315871
 30
0.0
 10
348.1605649964
 20
101.121364835
 30
0.0
 10
345.7072838169
 20
100.7268003336
 30
0.0
 10
344.4284501216
 20
100.5505849778
 30
0.0
  0
SPLINE
  5
4C8
330
228
100
AcDbEntity
  8
7_ALL_FEATURES
  6
Continuous
 62
     7
100
AcDbSpline
 70
     0
 71
     3
 72
    15
 73
    11
 74
     0
 42
0.000000001
 43
0.0000001
 40
0.0
 40
0.0
 40
0.0
 40
0.0
 40
0.1266300539
 40
0.2574437594
 40
0.3901146643
 40
0.5222719796
 40
0.6515564771
 40
0.7756810195
 40
0.8924758773
 40
1.0
 40
1.0
 40
1.0
 40
1.0
 10
344.4284501216
 20
100.5505849778
 30
0.0
 10
343.1578900774
 20
100.3755096797
 30
0.0
 10
340.5665359877
 20
100.077574596
 30
0.0
 10
336.6252089742
 20
99.7846035457
 30
0.0
 10
332.6195349433
 20
99.6415424714
 30
0.0
 10
328.6268159838
 20
99.6511860709
 30
0.0
 10
324.7239534475
 20
99.8132409739
 30
0.0
 10
320.9860756541
 20
100.1244150988
 30
0.0
 10
317.4849129963
 20
100.5782563502
 30
0.0
 10
315.2487557916
 20
100.9889738214
 30
0.0
 10
314.1848085396
 20
101.2214619645
 30
0.0
  0
SPLINE
  5
4C9
330
228
100
AcDbEntity
  8
7_ALL_FEATURES
  6
Continuous
 62
     7
100
AcDbSpline
 70
     0
 71
     3
 72
     9
 73
     5
 74
     0
 42
0.000000001
 43
0.0000001
 40
0.0
 40
0.0
 40
0.0
 40
0.0
 40
0.484308875
 40
1.0
 40
1.0
 40
1.0
 40
1.0
 10
362.338585697
 20
105.9938674315
 30
0.0
 10
362.333612721
 20
106.1947547276
 30
0.0
 10
362.2648769617
 20
106.6097951716
 30
0.0
 10
362.0923868115
 20
106.9918751449
 30
0.0
 10
361.9850337058
 20
107.176965499
 30
0.0
  0
SPLINE
  5
4CA
330
228
100
AcDbEntity
  8
7_ALL_FEATURES
  6
Continuous
 62
     7
100
AcDbSpline
 70
     0
 71
     3
 72
    19
 73
    15
 74
     0
 42
0.000000001
 43
0.0000001
 40
0.0
 40
0.0
 40
0.0
 40
0.0
 40
0.0289647233
 40
0.059795381
 40
0.0940169747
 40
0.132690108
 40
0.1764761482
 40
0.2257300835
 40
0.2806046198
 40
0.3410952067
 40
0.4783730607
 40
0.6358368574
 40
0.8108107728
 40
1.0
 40
1.0
 40
1.0
 40
1.0
 10
362.3984312079
 20
103.5914176909
 30
0.0
 10
362.4033956148
 20
103.3908765506
 30
0.0
 10
362.3553221234
 20
102.9735888628
 30
0.0
 10
362.1155176287
 20
102.3619922507
 30
0.0
 10
361.7148878322
 20
101.7604612677
 30
0.0
 10
361.159090692
 20
101.1699139056
 30
0.0
 10
360.451473396
 20
100.5910884933
 30
0.0
 10
359.5955909339
 20
100.0256365551
 30
0.0
 10
358.595488848
 20
99.476108454
 30
0.0
 10
357.0084619688
 20
98.7368473065
 30
0.0
 10
354.6941111276
 20
97.889848128
 30
0.0
 10
351.5580518832
 20
97.0163249
 30
0.0
 10
348.0216965256
 20
96.2679471691
 30
0.0
 10
345.5289749978
 20
95.8764869356
 30
0.0
 10
344.2303000303
 20
95.7024972793
 30
0.0
  0
LINE
  5
4CB
330
228
100
AcDbEntity
  8
7_ALL_FEATURES
  6
Continuous
 62
     7
100
AcDbLine
 10
344.2303000303
 20
95.7024972793
 30
0.0
 11
344.082989006
 21
95.6828905049
 31
0.0
  0
SPLINE
  5
4CC
330
228
100
AcDbEntity
  8
7_ALL_FEATURES
  6
Continuous
 62
     7
100
AcDbSpline
 70
     0
 71
     3
 72
    15
 73
    11
 74
     0
 42
0.000000001
 43
0.0000001
 40
0.0
 40
0.0
 40
0.0
 40
0.0
 40
0.1272246081
 40
0.2583222599
 40
0.3910314137
 40
0.5230533032
 40
0.6521044322
 40
0.7759735956
 40
0.8925636366
 40
1.0
 40
1.0
 40
1.0
 40
1.0
 10
344.082989006
 20
95.6828905049
 30
0.0
 10
342.8252489295
 20
95.5165884724
 30
0.0
 10
340.2638683271
 20
95.2345700073
 30
0.0
 10
336.373217377
 20
94.960760161
 30
0.0
 10
332.4271380092
 20
94.8326781266
 30
0.0
 10
328.4994437517
 20
94.8527521331
 30
0.0
 10
324.6634606229
 20
95.0204957392
 30
0.0
 10
320.9907637653
 20
95.3326154051
 30
0.0
 10
317.5496549167
 20
95.782846211
 30
0.0
 10
315.3511606366
 20
96.1878516244
 30
0.0
 10
314.3044995614
 20
96.4165624833
 30
0.0
  0
SPLINE
  5
4CD
330
228
100
AcDbEntity
  8
7_ALL_FEATURES
  6
Continuous
 62
     7
100
AcDbSpline
 70
     0
 71
     3
 72
     9
 73
     5
 74
     0
 42
0.000000001
 43
0.0000001
 40
0.0
 40
0.0
 40
0.0
 40
0.0
 40
0.484308875
 40
1.0
 40
1.0
 40
1.0
 40
1.0
 10
362.4582767188
 20
101.1889679503
 30
0.0
 10
362.4533037428
 20
101.3898552463
 30
0.0
 10
362.3845679834
 20
101.8048956904
 30
0.0
 10
362.2120778332
 20
102.1869756637
 30
0.0
 10
362.1047247275
 20
102.3720660177
 30
0.0
  0
SPLINE
  5
4CE
330
228
100
AcDbEntity
  8
7_ALL_FEATURES
  6
Continuous
 62
     7
100
AcDbSpline
 70
     0
 71
     3
 72
     9
 73
     5
 74
     0
 42
0.000000001
 43
0.0000001
 40
0.0
 40
0.0
 40
0.0
 40
0.0
 40
0.4688254811
 40
1.0
 40
1.0
 40
1.0
 40
1.0
 10
304.5570941083
 20
97.4936165736
 30
0.0
 10
304.6028467865
 20
97.2330599102
 30
0.0
 10
304.8010448462
 20
96.6930381098
 30
0.0
 10
305.1405758896
 20
96.2349268036
 30
0.0
 10
305.3408137919
 20
96.0119028397
 30
0.0
  0
SPLINE
  5
4CF
330
228
100
AcDbEntity
  8
02___PRT_ALL_AXES
  6
Continuous
 62
     7
100
AcDbSpline
 70
     0
 71
     3
 72
    15
 73
    11
 74
     0
 42
0.000000001
 43
0.0000001
 40
0.0
 40
0.0
 40
0.0
 40
0.0
 40
0.0937377807
 40
0.2125717889
 40
0.3498301368
 40
0.496959423
 40
0.6445213617
 40
0.7830265841
 40
0.9038275949
 40
1.0
 40
1.0
 40
1.0
 40
1.0
 10
314.0964318485
 20
101.2709640607
 30
0.0
 10
314.0156693628
 20
101.2275817964
 30
0.0
 10
313.8196703362
 20
101.1539454995
 30
0.0
 10
313.4864138294
 20
101.0751450136
 30
0.0
 10
313.095341578
 20
101.0202259244
 30
0.0
 10
312.6734034721
 20
100.9933124992
 30
0.0
 10
312.2493973816
 20
100.9964818369
 30
0.0
 10
311.8522998277
 20
101.0292957339
 30
0.0
 10
311.5095114093
 20
101.0892112952
 30
0.0
 10
311.3052275558
 20
101.1514574153
 30
0.0
 10
311.2193865452
 20
101.1899044042
 30
0.0
  0
SPLINE
  5
4D0
330
228
100
AcDbEntity
  8
7_ALL_FEATURES
  6
Continuous
 62
     7
100
AcDbSpline
 70
     0
 71
     3
 72
    21
 73
    17
 74
     0
 42
0.000000001
 43
0.0000001
 40
0.0
 40
0.0
 40
0.0
 40
0.0
 40
0.0566251899
 40
0.1185105634
 40
0.18482672
 40
0.2546679318
 40
0.4008874274
 40
0.5488037038
 40
0.6207326377
 40
0.6899162052
 40
0.7553794083
 40
0.8162256873
 40
0.8716632067
 40
0.9210380887
 40
0.9638831047
 40
1.0
 40
1.0
 40
1.0
 40
1.0
 10
312.8246358875
 20
92.46919524
 30
0.0
 10
313.7181600122
 20
92.2387467489
 30
0.0
 10
315.6049540714
 20
91.8203951168
 30
0.0
 10
318.5771066725
 20
91.3258760847
 30
0.0
 10
321.7825712401
 20
90.9421578533
 30
0.0
 10
326.3710372939
 20
90.5813773979
 30
0.0
 10
332.3062299941
 20
90.4493859747
 30
0.0
 10
338.2705066614
 20
90.7187961363
 30
0.0
 10
342.9585643289
 20
91.1824752407
 30
0.0
 10
346.2944922952
 20
91.6407308768
 30
0.0
 10
349.4308913769
 20
92.2050588283
 30
0.0
 10
352.3191757246
 20
92.8664228136
 30
0.0
 10
354.914803507
 20
93.6140382339
 30
0.0
 10
357.178960614
 20
94.4360629869
 30
0.0
 10
359.0777838974
 20
95.319084617
 30
0.0
 10
360.1774225182
 20
95.9980399007
 30
0.0
 10
360.6470784127
 20
96.3527603668
 30
0.0
  0
SPLINE
  5
4D1
330
228
100
AcDbEntity
  8
7_ALL_FEATURES
  6
Continuous
 62
     7
100
AcDbSpline
 70
     0
 71
     3
 72
     9
 73
     5
 74
     0
 42
0.000000001
 43
0.0000001
 40
0.0
 40
0.0
 40
0.0
 40
0.0
 40
0.2618332847
 40
1.0
 40
1.0
 40
1.0
 40
1.0
 10
360.6470784127
 20
96.3527603668
 30
0.0
 10
360.7109950904
 20
96.4010351866
 30
0.0
 10
360.9526316744
 20
96.588627036
 30
0.0
 10
361.18404237
 20
96.7896590847
 30
0.0
 10
361.3462842517
 20
96.9467275668
 30
0.0
  0
LINE
  5
4D2
330
228
100
AcDbEntity
  8
7_ALL_FEATURES
  6
Continuous
 62
     7
100
AcDbLine
 10
313.4423971752
 20
91.8889678987
 30
0.0
 11
312.8246358875
 21
92.46919524
 31
0.0
  0
SPLINE
  5
4D3
330
228
100
AcDbEntity
  8
7_ALL_FEATURES
  6
Continuous
 62
     7
100
AcDbSpline
 70
     0
 71
     3
 72
    27
 73
    23
 74
     0
 42
0.000000001
 43
0.0000001
 40
0.0
 40
0.0
 40
0.0
 40
0.0
 40
0.0746794728
 40
0.1531457017
 40
0.2341737524
 40
0.3164975569
 40
0.3988149989
 40
0.4798277578
 40
0.5582638714
 40
0.6329075592
 40
0.7026280666
 40
0.7664123643
 40
0.8234045679
 40
0.8729609918
 40
0.8948393122
 40
0.9147669594
 40
0.9327770454
 40
0.9489568337
 40
0.9634605895
 40
0.9765379392
 40
0.9885548863
 40
1.0
 40
1.0
 40
1.0
 40
1.0
 10
347.6379640565
 20
113.1254410381
 30
0.0
 10
346.5125119225
 20
112.9178214537
 30
0.0
 10
344.1941062003
 20
112.5473431543
 30
0.0
 10
340.6292108464
 20
112.1276751787
 30
0.0
 10
336.9341172646
 20
111.8350027296
 30
0.0
 10
333.1719226884
 20
111.674386784
 30
0.0
 10
329.4066164867
 20
111.6486432886
 30
0.0
 10
325.7023807512
 20
111.7581446144
 30
0.0
 10
322.1222660221
 20
112.0009078613
 30
0.0
 10
318.7271056211
 20
112.3725591184
 30
0.0
 10
315.5744578803
 20
112.8664437936
 30
0.0
 10
312.7171541273
 20
113.4736355613
 30
0.0
 10
310.2030992597
 20
114.1834256774
 30
0.0
 10
308.3567181808
 20
114.8756112384
 30
0.0
 10
307.0941791979
 20
115.4829052269
 30
0.0
 10
306.2969964365
 20
115.9372332713
 30
0.0
 10
305.6126841115
 20
116.4078643753
 30
0.0
 10
305.0437663204
 20
116.8933016382
 30
0.0
 10
304.5926062827
 20
117.392583838
 30
0.0
 10
304.2617125817
 20
117.9051736226
 30
0.0
 10
304.0546991674
 20
118.4298503713
 30
0.0
 10
304.0018614816
 20
118.7895048511
 30
0.0
 10
303.9975048894
 20
118.9648439586
 30
0.0
  0
SPLINE
  5
4D4
330
228
100
AcDbEntity
  8
7_ALL_FEATURES
  6
Continuous
 62
     7
100
AcDbSpline
 70
     0
 71
     3
 72
    27
 73
    23
 74
     0
 42
0.000000001
 43
0.0000001
 40
0.0
 40
0.0
 40
0.0
 40
0.0
 40
0.0629594892
 40
0.1325805222
 40
0.2075604429
 40
0.2864327173
 40
0.3676203058
 40
0.4494822262
 40
0.530359276
 40
0.6086189833
 40
0.6827012952
 40
0.7511664194
 40
0.8127483392
 40
0.8664224348
 40
0.8900743919
 40
0.9115342412
 40
0.9308027177
 40
0.9479415928
 40
0.9630916233
 40
0.9765123366
 40
0.9886176551
 40
1.0
 40
1.0
 40
1.0
 40
1.0
 10
312.657068457
 20
99.1960545137
 30
0.0
 10
313.7234007877
 20
98.9210341404
 30
0.0
 10
315.992741037
 20
98.4331233484
 30
0.0
 10
319.5834886664
 20
97.8866954729
 30
0.0
 10
323.4744471703
 20
97.4977614545
 30
0.0
 10
327.5808033933
 20
97.2753942616
 30
0.0
 10
331.8131678835
 20
97.2248073749
 30
0.0
 10
336.0791090994
 20
97.3472680951
 30
0.0
 10
340.2854554896
 20
97.6400862992
 30
0.0
 10
344.3404168314
 20
98.0966667811
 30
0.0
 10
348.155625144
 20
98.706675214
 30
0.0
 10
351.6486268605
 20
99.456115284
 30
0.0
 10
354.7439052734
 20
100.3280690384
 30
0.0
 10
357.0268371884
 20
101.1717548065
 30
0.0
 10
358.5915275934
 20
101.9071212373
 30
0.0
 10
359.5773616484
 20
102.4534448583
 30
0.0
 10
360.4208819459
 20
103.0153304691
 30
0.0
 10
361.118153854
 20
103.5903041299
 30
0.0
 10
361.665713493
 20
104.1767492705
 30
0.0
 10
362.0602676285
 20
104.7739404393
 30
0.0
 10
362.2962837377
 20
105.3809137616
 30
0.0
 10
362.343512648
 20
105.7948393515
 30
0.0
 10
362.338585697
 20
105.9938674315
 30
0.0
  0
SPLINE
  5
4D5
330
228
100
AcDbEntity
  8
7_ALL_FEATURES
  6
Continuous
 62
     7
100
AcDbSpline
 70
     0
 71
     3
 72
    11
 73
     7
 74
     0
 42
0.000000001
 43
0.0000001
 40
0.0
 40
0.0
 40
0.0
 40
0.0
 40
0.2430604742
 40
0.500007385
 40
0.7569614063
 40
1.0
 40
1.0
 40
1.0
 40
1.0
 10
343.4073606877
 20
95.5970799934
 30
0.0
 10
341.8351557567
 20
95.3278997119
 30
0.0
 10
338.5764094084
 20
94.9131000889
 30
0.0
 10
333.6137129649
 20
94.6264872801
 30
0.0
 10
328.6430515225
 20
94.6655753275
 30
0.0
 10
325.3677712811
 20
94.9173804483
 30
0.0
 10
323.7842553032
 20
95.1079203652
 30
0.0
  0
SPLINE
  5
4D6
330
228
100
AcDbEntity
  8
7_ALL_FEATURES
  6
Continuous
 62
     7
100
AcDbSpline
 70
     0
 71
     3
 72
    27
 73
    23
 74
     0
 42
0.000000001
 43
0.0000001
 40
0.0
 40
0.0
 40
0.0
 40
0.0
 40
0.0746794728
 40
0.1531457017
 40
0.2341737524
 40
0.3164975569
 40
0.3988149989
 40
0.4798277578
 40
0.5582638714
 40
0.6329075592
 40
0.7026280666
 40
0.7664123643
 40
0.8234045679
 40
0.8729609918
 40
0.8948393122
 40
0.9147669594
 40
0.9327770454
 40
0.9489568337
 40
0.9634605895
 40
0.9765379392
 40
0.9885548863
 40
1.0
 40
1.0
 40
1.0
 40
1.0
 10
347.5182730348
 20
117.9303405193
 30
0.0
 10
346.3928209008
 20
117.7227209349
 30
0.0
 10
344.0744151786
 20
117.3522426355
 30
0.0
 10
340.5095198246
 20
116.9325746599
 30
0.0
 10
336.8144262428
 20
116.6399022108
 30
0.0
 10
333.0522316666
 20
116.4792862652
 30
0.0
 10
329.286925465
 20
116.4535427698
 30
0.0
 10
325.5826897294
 20
116.5630440956
 30
0.0
 10
322.0025750003
 20
116.8058073425
 30
0.0
 10
318.6074145993
 20
117.1774585996
 30
0.0
 10
315.4547668586
 20
117.6713432748
 30
0.0
 10
312.5974631055
 20
118.2785350426
 30
0.0
 10
310.0834082379
 20
118.9883251586
 30
0.0
 10
308.237027159
 20
119.6805107196
 30
0.0
 10
306.9744881761
 20
120.2878047081
 30
0.0
 10
306.1773054147
 20
120.7421327525
 30
0.0
 10
305.4929930898
 20
121.2127638566
 30
0.0
 10
304.9240752986
 20
121.6982011194
 30
0.0
 10
304.4729152609
 20
122.1974833192
 30
0.0
 10
304.1420215599
 20
122.7100731038
 30
0.0
 10
303.9350081457
 20
123.2347498525
 30
0.0
 10
303.8821704598
 20
123.5944043323
 30
0.0
 10
303.8778138677
 20
123.7697434398
 30
0.0
  0
SPLINE
  5
4D7
330
228
100
AcDbEntity
  8
7_ALL_FEATURES
  6
Continuous
 62
     7
100
AcDbSpline
 70
     0
 71
     3
 72
     9
 73
     5
 74
     0
 42
0.000000001
 43
0.0000001
 40
0.0
 40
0.0
 40
0.0
 40
0.0
 40
0.2628307071
 40
1.0
 40
1.0
 40
1.0
 40
1.0
 10
344.4609579742
 20
100.2945030248
 30
0.0
 10
344.8003568228
 20
100.3571141708
 30
0.0
 10
346.0892764468
 20
100.6078537479
 30
0.0
 10
347.3687955733
 20
100.9092742184
 30
0.0
 10
348.3012470898
 20
101.1691360566
 30
0.0
  0
SPLINE
  5
4D8
330
228
100
AcDbEntity
  8
7_ALL_FEATURES
  6
Continuous
 62
     7
100
AcDbSpline
 70
     0
 71
     3
 72
    15
 73
    11
 74
     0
 42
0.000000001
 43
0.0000001
 40
0.0
 40
0.0
 40
0.0
 40
0.0
 40
0.1217887888
 40
0.2505190705
 40
0.3832326635
 40
0.5168586454
 40
0.6482899059
 40
0.7744912061
 40
0.8925933296
 40
1.0
 40
1.0
 40
1.0
 40
1.0
 10
344.4609579742
 20
100.2945030248
 30
0.0
 10
343.4189026046
 20
100.1022681921
 30
0.0
 10
341.2635925808
 20
99.76928748
 30
0.0
 10
337.94627542
 20
99.4217243055
 30
0.0
 10
334.51384188
 20
99.2177315431
 30
0.0
 10
331.0523434377
 20
99.1625338107
 30
0.0
 10
327.6483471374
 20
99.2574978958
 30
0.0
 10
324.386891818
 20
99.4999815391
 30
0.0
 10
321.3495354894
 20
99.8834447769
 30
0.0
 10
319.4193562048
 20
100.2456985869
 30
0.0
 10
318.5084356528
 20
100.4543212453
 30
0.0
  0
SPLINE
  5
4D9
330
228
100
AcDbEntity
  8
7_ALL_FEATURES
  6
Continuous
 62
     7
100
AcDbSpline
 70
     0
 71
     3
 72
    19
 73
    15
 74
     0
 42
0.000000001
 43
0.0000001
 40
0.0
 40
0.0
 40
0.0
 40
0.0
 40
0.0311586266
 40
0.0638791359
 40
0.0994914867
 40
0.1389966941
 40
0.1830685789
 40
0.2321342768
 40
0.2864220328
 40
0.3460296085
 40
0.4810451701
 40
0.6363106862
 40
0.8100824481
 40
1.0
 40
1.0
 40
1.0
 40
1.0
 10
361.8597906931
 20
125.2135240216
 30
0.0
 10
361.8641518126
 20
125.0380027012
 30
0.0
 10
361.8290942539
 20
124.6757590102
 30
0.0
 10
361.6479036991
 20
124.1409070117
 30
0.0
 10
361.3422384716
 20
123.611920002
 30
0.0
 10
360.9154402119
 20
123.0903659479
 30
0.0
 10
360.3702457399
 20
122.5766620255
 30
0.0
 10
359.7087316782
 20
122.0721884614
 30
0.0
 10
358.9335654944
 20
121.5782538137
 30
0.0
 10
357.7002373228
 20
120.9084123851
 30
0.0
 10
355.8870491177
 20
120.124645125
 30
0.0
 10
353.4067184914
 20
119.2902090728
 30
0.0
 10
350.5781472907
 20
118.5414499524
 30
0.0
 10
348.5706801633
 20
118.1244850093
 30
0.0
 10
347.5182730348
 20
117.9303405193
 30
0.0
  0
SPLINE
  5
4DA
330
228
100
AcDbEntity
  8
7_ALL_FEATURES
  6
Continuous
 62
     7
100
AcDbSpline
 70
     0
 71
     3
 72
    27
 73
    23
 74
     0
 42
0.000000001
 43
0.0000001
 40
0.0
 40
0.0
 40
0.0
 40
0.0
 40
0.0629594892
 40
0.1325805222
 40
0.2075604429
 40
0.2864327173
 40
0.3676203058
 40
0.4494822262
 40
0.530359276
 40
0.6086189833
 40
0.6827012952
 40
0.7511664194
 40
0.8127483392
 40
0.8664224348
 40
0.8900743919
 40
0.9115342412
 40
0.9308027177
 40
0.9479415928
 40
0.9630916233
 40
0.9765123366
 40
0.9886176551
 40
1.0
 40
1.0
 40
1.0
 40
1.0
 10
312.5373774353
 20
104.0009539949
 30
0.0
 10
313.603709766
 20
103.7259336216
 30
0.0
 10
315.8730500152
 20
103.2380228296
 30
0.0
 10
319.4637976446
 20
102.6915949541
 30
0.0
 10
323.3547561486
 20
102.3026609357
 30
0.0
 10
327.4611123715
 20
102.0802937428
 30
0.0
 10
331.6934768617
 20
102.0297068561
 30
0.0
 10
335.9594180777
 20
102.1521675763
 30
0.0
 10
340.1657644678
 20
102.4449857804
 30
0.0
 10
344.2207258096
 20
102.9015662623
 30
0.0
 10
348.0359341222
 20
103.5115746952
 30
0.0
 10
351.5289358387
 20
104.2610147652
 30
0.0
 10
354.6242142516
 20
105.1329685196
 30
0.0
 10
356.9071461667
 20
105.9766542877
 30
0.0
 10
358.4718365716
 20
106.7120207185
 30
0.0
 10
359.4576706266
 20
107.2583443395
 30
0.0
 10
360.3011909242
 20
107.8202299503
 30
0.0
 10
360.9984628323
 20
108.3952036111
 30
0.0
 10
361.5460224712
 20
108.9816487517
 30
0.0
 10
361.9405766067
 20
109.5788399205
 30
0.0
 10
362.176592716
 20
110.1858132428
 30
0.0
 10
362.2238216263
 20
110.5997388327
 30
0.0
 10
362.2188946753
 20
110.7987669127
 30
0.0
  0
SPLINE
  5
4DB
330
228
100
AcDbEntity
  8
7_ALL_FEATURES
  6
Continuous
 62
     7
100
AcDbSpline
 70
     0
 71
     3
 72
    19
 73
    15
 74
     0
 42
0.000000001
 43
0.0000001
 40
0.0
 40
0.0
 40
0.0
 40
0.0
 40
0.0311586266
 40
0.0638791359
 40
0.0994914867
 40
0.1389966941
 40
0.1830685789
 40
0.2321342768
 40
0.2864220328
 40
0.3460296085
 40
0.4810451701
 40
0.6363106862
 40
0.8100824481
 40
1.0
 40
1.0
 40
1.0
 40
1.0
 10
361.9794817148
 20
120.4086245404
 30
0.0
 10
361.9838428344
 20
120.23310322
 30
0.0
 10
361.9487852756
 20
119.870859529
 30
0.0
 10
361.7675947209
 20
119.3360075304
 30
0.0
 10
361.4619294934
 20
118.8070205208
 30
0.0
 10
361.0351312337
 20
118.2854664667
 30
0.0
 10
360.4899367617
 20
117.7717625443
 30
0.0
 10
359.8284227
 20
117.2672889802
 30
0.0
 10
359.0532565162
 20
116.7733543325
 30
0.0
 10
357.8199283446
 20
116.1035129039
 30
0.0
 10
356.0067401395
 20
115.3197456438
 30
0.0
 10
353.5264095131
 20
114.4853095916
 30
0.0
 10
350.6978383125
 20
113.7365504712
 30
0.0
 10
348.6903711851
 20
113.3195855281
 30
0.0
 10
347.6379640565
 20
113.1254410381
 30
0.0
  0
SPLINE
  5
4DC
330
228
100
AcDbEntity
  8
7_ALL_FEATURES
  6
Continuous
 62
     7
100
AcDbSpline
 70
     0
 71
     3
 72
    27
 73
    23
 74
     0
 42
0.000000001
 43
0.0000001
 40
0.0
 40
0.0
 40
0.0
 40
0.0
 40
0.0629594892
 40
0.1325805222
 40
0.2075604429
 40
0.2864327173
 40
0.3676203058
 40
0.4494822262
 40
0.530359276
 40
0.6086189833
 40
0.6827012952
 40
0.7511664194
 40
0.8127483392
 40
0.8664224348
 40
0.8900743919
 40
0.9115342412
 40
0.9308027177
 40
0.9479415928
 40
0.9630916233
 40
0.9765123366
 40
0.9886176551
 40
1.0
 40
1.0
 40
1.0
 40
1.0
 10
312.4176864135
 20
108.8058534761
 30
0.0
 10
313.4840187442
 20
108.5308331028
 30
0.0
 10
315.7533589935
 20
108.0429223108
 30
0.0
 10
319.3441066228
 20
107.4964944353
 30
0.0
 10
323.2350651268
 20
107.107560417
 30
0.0
 10
327.3414213498
 20
106.885193224
 30
0.0
 10
331.57378584
 20
106.8346063373
 30
0.0
 10
335.8397270559
 20
106.9570670575
 30
0.0
 10
340.046073446
 20
107.2498852616
 30
0.0
 10
344.1010347878
 20
107.7064657435
 30
0.0
 10
347.9162431004
 20
108.3164741765
 30
0.0
 10
351.4092448169
 20
109.0659142464
 30
0.0
 10
354.5045232299
 20
109.9378680008
 30
0.0
 10
356.7874551449
 20
110.781553769
 30
0.0
 10
358.3521455499
 20
111.5169201997
 30
0.0
 10
359.3379796048
 20
112.0632438207
 30
0.0
 10
360.1814999024
 20
112.6251294315
 30
0.0
 10
360.8787718105
 20
113.2001030923
 30
0.0
 10
361.4263314494
 20
113.7865482329
 30
0.0
 10
361.820885585
 20
114.3837394017
 30
0.0
 10
362.0569016942
 20
114.9907127241
 30
0.0
 10
362.1041306045
 20
115.4046383139
 30
0.0
 10
362.0992036535
 20
115.603666394
 30
0.0
  0
SPLINE
  5
4DD
330
228
100
AcDbEntity
  8
7_ALL_FEATURES
  6
Continuous
 62
     7
100
AcDbSpline
 70
     0
 71
     3
 72
    11
 73
     7
 74
     0
 42
0.000000001
 43
0.0000001
 40
0.0
 40
0.0
 40
0.0
 40
0.0
 40
0.2957838788
 40
0.5636645475
 40
0.7993805804
 40
1.0
 40
1.0
 40
1.0
 40
1.0
 10
345.3515752804
 20
104.6468995259
 30
0.0
 10
346.2978515928
 20
104.8214653637
 30
0.0
 10
348.0935333034
 20
105.1979638507
 30
0.0
 10
350.6043175514
 20
105.8829264452
 30
0.0
 10
352.7656821424
 20
106.6489884246
 30
0.0
 10
354.0547013248
 20
107.2533711349
 30
0.0
 10
354.6226321085
 20
107.5749493407
 30
0.0
  0
LINE
  5
4DE
330
228
100
AcDbEntity
  8
7_ALL_FEATURES
  6
Continuous
 62
     7
100
AcDbLine
 10
341.9633791081
 20
104.116244869
 30
0.0
 11
341.8376011784
 21
104.0999030323
 31
0.0
  0
SPLINE
  5
4DF
330
228
100
AcDbEntity
  8
7_ALL_FEATURES
  6
Continuous
 62
     7
100
AcDbSpline
 70
     0
 71
     3
 72
    17
 73
    13
 74
     0
 42
0.000000001
 43
0.0000001
 40
0.0
 40
0.0
 40
0.0
 40
0.0
 40
0.1373881404
 40
0.2790027527
 40
0.4208034856
 40
0.5587502403
 40
0.6889488556
 40
0.8078168746
 40
0.8620223684
 40
0.9122900502
 40
0.9583484476
 40
1.0
 40
1.0
 40
1.0
 40
1.0
 10
341.8376011784
 20
104.0999030323
 30
0.0
 10
340.4902722493
 20
103.9260525924
 30
0.0
 10
337.7439326062
 20
103.6491390302
 30
0.0
 10
333.5869311025
 20
103.4365035048
 30
0.0
 10
329.4188756768
 20
103.4233406866
 30
0.0
 10
325.3678082311
 20
103.6097643608
 30
0.0
 10
321.5580173265
 20
103.9896660062
 30
0.0
 10
318.5952092908
 20
104.4700030453
 30
0.0
 10
316.4394869433
 20
104.9521627554
 30
0.0
 10
315.002270434
 20
105.341684366
 30
0.0
 10
313.7052930318
 20
105.7671558899
 30
0.0
 10
312.8990192001
 20
106.0890486403
 30
0.0
 10
312.5231456874
 20
106.2573971335
 30
0.0
  0
SPLINE
  5
4E0
330
228
100
AcDbEntity
  8
7_ALL_FEATURES
  6
Continuous
 62
     7
100
AcDbSpline
 70
     0
 71
     3
 72
     9
 73
     5
 74
     0
 42
0.000000001
 43
0.0000001
 40
0.0
 40
0.0
 40
0.0
 40
0.0
 40
0.2652314037
 40
1.0
 40
1.0
 40
1.0
 40
1.0
 10
312.4124037182
 20
106.3075528586
 30
0.0
 10
312.3019318147
 20
106.3581496296
 30
0.0
 10
311.8879330665
 20
106.5542514688
 30
0.0
 10
311.4841068372
 20
106.7725852694
 30
0.0
 10
311.1975166513
 20
106.9491448018
 30
0.0
  0
SPLINE
  5
4E1
330
228
100
AcDbEntity
  8
7_ALL_FEATURES
  6
Continuous
 62
     7
100
AcDbSpline
 70
     0
 71
     3
 72
    11
 73
     7
 74
     0
 42
0.000000001
 43
0.0000001
 40
0.0
 40
0.0
 40
0.0
 40
0.0
 40
0.2218543995
 40
0.4560727243
 40
0.7130243604
 40
1.0
 40
1.0
 40
1.0
 40
1.0
 10
304.1171649943
 20
114.1600031426
 30
0.0
 10
304.1217548305
 20
113.9745930833
 30
0.0
 10
304.1806229538
 20
113.5931558155
 30
0.0
 10
304.4117971285
 20
113.0385715808
 30
0.0
 10
304.7808847508
 20
112.4985164837
 30
0.0
 10
305.0966151117
 20
112.1687273014
 30
0.0
 10
305.2728347949
 20
112.0059326604
 30
0.0
  0
SPLINE
  5
4E2
330
228
100
AcDbEntity
  8
7_ALL_FEATURES
  6
Continuous
 62
     7
100
AcDbSpline
 70
     0
 71
     3
 72
     9
 73
     5
 74
     0
 42
0.000000001
 43
0.0000001
 40
0.0
 40
0.0
 40
0.0
 40
0.0
 40
0.4880281298
 40
1.0
 40
1.0
 40
1.0
 40
1.0
 10
304.2368560161
 20
109.3551036614
 30
0.0
 10
304.2411475922
 20
109.1817420508
 30
0.0
 10
304.2928425911
 20
108.8264375313
 30
0.0
 10
304.4230417026
 20
108.4926518818
 30
0.0
 10
304.5047927951
 20
108.3301321121
 30
0.0
  0
SPLINE
  5
4E3
330
228
100
AcDbEntity
  8
7_ALL_FEATURES
  6
Continuous
 62
     7
100
AcDbSpline
 70
     0
 71
     3
 72
    18
 73
    14
 74
     0
 42
0.000000001
 43
0.0000001
 40
0.0
 40
0.0
 40
0.0
 40
0.0
 40
0.1871271214
 40
0.3589601003
 40
0.5132427124
 40
0.6483507789
 40
0.7633005719
 40
0.8132415549
 40
0.8583324296
 40
0.8988889395
 40
0.9354401564
 40
0.9687792011
 40
1.0
 40
1.0
 40
1.0
 40
1.0
 10
346.949408416
 20
108.6825439409
 30
0.0
 10
347.9140634354
 20
108.8605002201
 30
0.0
 10
349.757523344
 20
109.2421583493
 30
0.0
 10
352.3614413982
 20
109.9243411551
 30
0.0
 10
354.6591794117
 20
110.6834620031
 30
0.0
 10
356.6148753357
 20
111.506867759
 30
0.0
 10
357.9967281495
 20
112.2681387
 30
0.0
 10
358.8921546322
 20
112.9105075288
 30
0.0
 10
359.4292276436
 20
113.3780078663
 30
0.0
 10
359.8618169684
 20
113.8528014932
 30
0.0
 10
360.1879068637
 20
114.3341974315
 30
0.0
 10
360.4050803915
 20
114.8210846075
 30
0.0
 10
360.4761294623
 20
115.1553130158
 30
0.0
 10
360.4912663325
 20
115.3182728973
 30
0.0
  0
SPLINE
  5
4E4
330
228
100
AcDbEntity
  8
7_ALL_FEATURES
  6
Continuous
 62
     7
100
AcDbSpline
 70
     0
 71
     3
 72
    25
 73
    21
 74
     0
 42
0.000000001
 43
0.0000001
 40
0.0
 40
0.0
 40
0.0
 40
0.0
 40
0.0741436317
 40
0.1520290413
 40
0.3141611383
 40
0.3959474037
 40
0.4765202392
 40
0.5546406371
 40
0.6291221308
 40
0.6988581943
 40
0.7628524122
 40
0.8202550347
 40
0.8704130321
 40
0.9129518898
 40
0.9313763351
 40
0.9479704214
 40
0.9628647724
 40
0.976268624
 40
0.988501448
 40
1.0
 40
1.0
 40
1.0
 40
1.0
 10
346.949408416
 20
108.6825439409
 30
0.0
 10
345.8978553662
 20
108.4885570085
 30
0.0
 10
343.7320092533
 20
108.1418450272
 30
0.0
 10
339.2317395037
 20
107.6093678771
 30
0.0
 10
334.5943692897
 20
107.3261372654
 30
0.0
 10
329.9140839912
 20
107.2856767795
 30
0.0
 10
326.4463575481
 20
107.3806753466
 30
0.0
 10
323.089784768
 20
107.5990432497
 30
0.0
 10
319.9001198114
 20
107.9370281504
 30
0.0
 10
316.9302509962
 20
108.3886668999
 30
0.0
 10
314.2291968045
 20
108.9460358255
 30
0.0
 10
311.8405537942
 20
109.5993576616
 30
0.0
 10
309.802867074
 20
110.337428978
 30
0.0
 10
308.3581343274
 20
111.0433590453
 30
0.0
 10
307.4191304823
 20
111.6536582758
 30
0.0
 10
306.8554212496
 20
112.1035437074
 30
0.0
 10
306.39984013
 20
112.5662232643
 30
0.0
 10
306.0548072466
 20
113.0414366318
 30
0.0
 10
305.8230534501
 20
113.5280255798
 30
0.0
 10
305.7454445954
 20
113.8649911757
 30
0.0
 10
305.727857303
 20
114.0298875664
 30
0.0
  0
SPLINE
  5
4E5
330
228
100
AcDbEntity
  8
7_ALL_FEATURES
  6
Continuous
 62
     7
100
AcDbSpline
 70
     0
 71
     3
 72
    27
 73
    23
 74
     0
 42
0.000000001
 43
0.0000001
 40
0.0
 40
0.0
 40
0.0
 40
0.0
 40
0.0671352647
 40
0.1399408015
 40
0.21713673
 40
0.2973061932
 40
0.3789610145
 40
0.4605741463
 40
0.5406199953
 40
0.6176123341
 40
0.6901437831
 40
0.7569276128
 40
0.8168456902
 40
0.8690110576
 40
0.8920062689
 40
0.9128919069
 40
0.9316818348
 40
0.9484460445
 40
0.9633312438
 40
0.9765937842
 40
0.9886314605
 40
1.0
 40
1.0
 40
1.0
 40
1.0
 10
314.757005095
 20
93.9300038138
 30
0.0
 10
315.8617066834
 20
93.6980644571
 30
0.0
 10
318.1808348652
 20
93.2913650199
 30
0.0
 10
321.8063106142
 20
92.8506374272
 30
0.0
 10
325.6667039705
 20
92.5605277377
 30
0.0
 10
329.6843845424
 20
92.4273281676
 30
0.0
 10
333.778413393
 20
92.4538972554
 30
0.0
 10
337.8662245133
 20
92.6397826652
 30
0.0
 10
341.8653801102
 20
92.9811567972
 30
0.0
 10
345.6953396827
 20
93.4709164486
 30
0.0
 10
349.2790971469
 20
94.098828929
 30
0.0
 10
352.5452678944
 20
94.8516258308
 30
0.0
 10
355.4287769492
 20
95.7136363062
 30
0.0
 10
357.5490613441
 20
96.5388485313
 30
0.0
 10
358.9984876539
 20
97.2531108808
 30
0.0
 10
359.9108245747
 20
97.7822893034
 30
0.0
 10
360.6907410755
 20
98.3251942435
 30
0.0
 10
361.3348180397
 20
98.8797713516
 30
0.0
 10
361.8400607846
 20
99.4445413244
 30
0.0
 10
362.2034359586
 20
100.0188540621
 30
0.0
 10
362.4200741839
 20
100.6015283628
 30
0.0
 10
362.46300711
 20
100.9978800572
 30
0.0
 10
362.4582767188
 20
101.1889679503
 30
0.0
  0
SPLINE
  5
4E6
330
228
100
AcDbEntity
  8
7_ALL_FEATURES
  6
Continuous
 62
     7
100
AcDbSpline
 70
     0
 71
     3
 72
    18
 73
    14
 74
     0
 42
0.000000001
 43
0.0000001
 40
0.0
 40
0.0
 40
0.0
 40
0.0
 40
0.1871271214
 40
0.3589601003
 40
0.5132427124
 40
0.6483507789
 40
0.7633005719
 40
0.8132415549
 40
0.8583324296
 40
0.8988889395
 40
0.9354401564
 40
0.9687792011
 40
1.0
 40
1.0
 40
1.0
 40
1.0
 10
346.8297173942
 20
113.4874434222
 30
0.0
 10
347.7943724136
 20
113.6653997014
 30
0.0
 10
349.6378323222
 20
114.0470578306
 30
0.0
 10
352.2417503764
 20
114.7292406363
 30
0.0
 10
354.5394883899
 20
115.4883614844
 30
0.0
 10
356.4951843139
 20
116.3117672402
 30
0.0
 10
357.8770371277
 20
117.0730381813
 30
0.0
 10
358.7724636105
 20
117.71540701
 30
0.0
 10
359.3095366218
 20
118.1829073475
 30
0.0
 10
359.7421259466
 20
118.6577009744
 30
0.0
 10
360.0682158419
 20
119.1390969127
 30
0.0
 10
360.2853893697
 20
119.6259840887
 30
0.0
 10
360.3564384405
 20
119.9602124971
 30
0.0
 10
360.3715753107
 20
120.1231723785
 30
0.0
  0
SPLINE
  5
4E7
330
228
100
AcDbEntity
  8
7_ALL_FEATURES
  6
Continuous
 62
     7
100
AcDbSpline
 70
     0
 71
     3
 72
    25
 73
    21
 74
     0
 42
0.000000001
 43
0.0000001
 40
0.0
 40
0.0
 40
0.0
 40
0.0
 40
0.0741436317
 40
0.1520290413
 40
0.3141611383
 40
0.3959474037
 40
0.4765202392
 40
0.5546406371
 40
0.6291221308
 40
0.6988581943
 40
0.7628524122
 40
0.8202550347
 40
0.8704130321
 40
0.9129518898
 40
0.9313763351
 40
0.9479704214
 40
0.9628647724
 40
0.976268624
 40
0.988501448
 40
1.0
 40
1.0
 40
1.0
 40
1.0
 10
346.8297173942
 20
113.4874434222
 30
0.0
 10
345.7781643444
 20
113.2934564897
 30
0.0
 10
343.6123182315
 20
112.9467445084
 30
0.0
 10
339.112048482
 20
112.4142673583
 30
0.0
 10
334.4746782679
 20
112.1310367466
 30
0.0
 10
329.7943929694
 20
112.0905762607
 30
0.0
 10
326.3266665263
 20
112.1855748278
 30
0.0
 10
322.9700937462
 20
112.403942731
 30
0.0
 10
319.7804287896
 20
112.7419276316
 30
0.0
 10
316.8105599745
 20
113.1935663811
 30
0.0
 10
314.1095057827
 20
113.7509353067
 30
0.0
 10
311.7208627724
 20
114.4042571428
 30
0.0
 10
309.6831760522
 20
115.1423284593
 30
0.0
 10
308.2384433056
 20
115.8482585265
 30
0.0
 10
307.2994394605
 20
116.458557757
 30
0.0
 10
306.7357302278
 20
116.9084431886
 30
0.0
 10
306.2801491083
 20
117.3711227455
 30
0.0
 10
305.9351162248
 20
117.846336113
 30
0.0
 10
305.7033624284
 20
118.332925061
 30
0.0
 10
305.6257535737
 20
118.6698906569
 30
0.0
 10
305.6081662812
 20
118.8347870476
 30
0.0
  0
SPLINE
  5
4E8
330
228
100
AcDbEntity
  8
7_ALL_FEATURES
  6
Continuous
 62
     7
100
AcDbSpline
 70
     0
 71
     3
 72
    18
 73
    14
 74
     0
 42
0.000000001
 43
0.0000001
 40
0.0
 40
0.0
 40
0.0
 40
0.0
 40
0.1871271214
 40
0.3589601003
 40
0.5132427124
 40
0.6483507789
 40
0.7633005719
 40
0.8132415549
 40
0.8583324296
 40
0.8988889395
 40
0.9354401564
 40
0.9687792011
 40
1.0
 40
1.0
 40
1.0
 40
1.0
 10
346.7100263725
 20
118.2923429034
 30
0.0
 10
347.6746813919
 20
118.4702991826
 30
0.0
 10
349.5181413004
 20
118.8519573118
 30
0.0
 10
352.1220593546
 20
119.5341401175
 30
0.0
 10
354.4197973681
 20
120.2932609656
 30
0.0
 10
356.3754932921
 20
121.1166667214
 30
0.0
 10
357.7573461059
 20
121.8779376625
 30
0.0
 10
358.6527725887
 20
122.5203064913
 30
0.0
 10
359.1898456
 20
122.9878068287
 30
0.0
 10
359.6224349248
 20
123.4626004556
 30
0.0
 10
359.9485248201
 20
123.9439963939
 30
0.0
 10
360.1656983479
 20
124.4308835699
 30
0.0
 10
360.2367474188
 20
124.7651119783
 30
0.0
 10
360.251884289
 20
124.9280718597
 30
0.0
  0
SPLINE
  5
4E9
330
228
100
AcDbEntity
  8
7_ALL_FEATURES
  6
Continuous
 62
     7
100
AcDbSpline
 70
     0
 71
     3
 72
    25
 73
    21
 74
     0
 42
0.000000001
 43
0.0000001
 40
0.0
 40
0.0
 40
0.0
 40
0.0
 40
0.0741436317
 40
0.1520290413
 40
0.3141611383
 40
0.3959474037
 40
0.4765202392
 40
0.5546406371
 40
0.6291221308
 40
0.6988581943
 40
0.7628524122
 40
0.8202550347
 40
0.8704130321
 40
0.9129518898
 40
0.9313763351
 40
0.9479704214
 40
0.9628647724
 40
0.976268624
 40
0.988501448
 40
1.0
 40
1.0
 40
1.0
 40
1.0
 10
346.7100263725
 20
118.2923429034
 30
0.0
 10
345.6584733226
 20
118.0983559709
 30
0.0
 10
343.4926272098
 20
117.7516439896
 30
0.0
 10
338.9923574602
 20
117.2191668395
 30
0.0
 10
334.3549872462
 20
116.9359362278
 30
0.0
 10
329.6747019476
 20
116.8954757419
 30
0.0
 10
326.2069755046
 20
116.990474309
 30
0.0
 10
322.8504027244
 20
117.2088422122
 30
0.0
 10
319.6607377678
 20
117.5468271129
 30
0.0
 10
316.6908689527
 20
117.9984658623
 30
0.0
 10
313.9898147609
 20
118.5558347879
 30
0.0
 10
311.6011717507
 20
119.2091566241
 30
0.0
 10
309.5634850304
 20
119.9472279405
 30
0.0
 10
308.1187522839
 20
120.6531580077
 30
0.0
 10
307.1797484388
 20
121.2634572382
 30
0.0
 10
306.616039206
 20
121.7133426698
 30
0.0
 10
306.1604580865
 20
122.1760222267
 30
0.0
 10
305.8154252031
 20
122.6512355942
 30
0.0
 10
305.5836714066
 20
123.1378245422
 30
0.0
 10
305.5060625519
 20
123.4747901381
 30
0.0
 10
305.4884752594
 20
123.6396865289
 30
0.0
  0
SPLINE
  5
4EA
330
228
100
AcDbEntity
  8
02___PRT_ALL_AXES
  6
Continuous
 62
     7
100
AcDbSpline
 70
     0
 71
     3
 72
    14
 73
    10
 74
     0
 42
0.000000001
 43
0.0000001
 40
0.0
 40
0.0
 40
0.0
 40
0.0
 40
0.0595652797
 40
0.1323716192
 40
0.2253984188
 40
0.3407370555
 40
0.4780644433
 40
0.6355776157
 40
1.0
 40
1.0
 40
1.0
 40
1.0
 10
310.9933419231
 20
101.411573113
 30
0.0
 10
310.9927912606
 20
101.4347924018
 30
0.0
 10
311.0074421004
 20
101.48696418
 30
0.0
 10
311.0656370105
 20
101.5547915305
 30
0.0
 10
311.1554840655
 20
101.6186581506
 30
0.0
 10
311.276548229
 20
101.6787844322
 30
0.0
 10
311.4267978779
 20
101.7342293458
 30
0.0
 10
311.6744643247
 20
101.803780231
 30
0.0
 10
311.8753568524
 20
101.8396212537
 30
0.0
 10
312.0161519341
 20
101.8588075198
 30
0.0
  0
SPLINE
  5
4EB
330
228
100
AcDbEntity
  8
7_ALL_FEATURES
  6
Continuous
 62
     7
100
AcDbSpline
 70
     0
 71
     3
 72
    14
 73
    10
 74
     0
 42
0.000000001
 43
0.0000001
 40
0.0
 40
0.0
 40
0.0
 40
0.0
 40
0.1154131223
 40
0.2336961121
 40
0.3550849496
 40
0.4795604652
 40
0.6068681068
 40
0.7365515198
 40
1.0
 40
1.0
 40
1.0
 40
1.0
 10
364.2145352049
 20
115.0489998148
 30
0.0
 10
364.3307993798
 20
114.9059145071
 30
0.0
 10
364.5431651056
 20
114.5967006466
 30
0.0
 10
364.7904727143
 20
114.0840391814
 30
0.0
 10
364.9657644032
 20
113.5273203314
 30
0.0
 10
365.0656843469
 20
112.937865388
 30
0.0
 10
365.0884219788
 20
112.3271392478
 30
0.0
 10
365.0153359676
 20
111.497490608
 30
0.0
 10
364.8455229527
 20
110.8846862307
 30
0.0
 10
364.6867748888
 20
110.4949317124
 30
0.0
  0
SPLINE
  5
4EC
330
228
100
AcDbEntity
  8
7_ALL_FEATURES
  6
Continuous
 62
     7
100
AcDbSpline
 70
     0
 71
     3
 72
     9
 73
     5
 74
     0
 42
0.000000001
 43
0.0000001
 40
0.0
 40
0.0
 40
0.0
 40
0.0
 40
0.4931395036
 40
1.0
 40
1.0
 40
1.0
 40
1.0
 10
312.0951559496
 20
91.7710456035
 30
0.0
 10
312.167849538
 20
91.7384835685
 30
0.0
 10
312.3266949199
 20
91.6956313032
 30
0.0
 10
312.490683255
 20
91.7029890652
 30
0.0
 10
312.5711942824
 20
91.7178414658
 30
0.0
  0
SPLINE
  5
4ED
330
228
100
AcDbEntity
  8
7_ALL_FEATURES
  6
Continuous
 62
     7
100
AcDbSpline
 70
     0
 71
     3
 72
     9
 73
     5
 74
     0
 42
0.000000001
 43
0.0000001
 40
0.0
 40
0.0
 40
0.0
 40
0.0
 40
0.5080453047
 40
1.0
 40
1.0
 40
1.0
 40
1.0
 10
306.1585814195
 20
94.6202994572
 30
0.0
 10
306.2012191681
 20
94.5411467105
 30
0.0
 10
306.3090924009
 20
94.3966356803
 30
0.0
 10
306.4590081043
 20
94.2954013799
 30
0.0
 10
306.5384601462
 20
94.259811994
 30
0.0
  0
SPLINE
  5
4EE
330
228
100
AcDbEntity
  8
7_ALL_FEATURES
  6
Continuous
 62
     7
100
AcDbSpline
 70
     0
 71
     3
 72
    13
 73
     9
 74
     0
 42
0.000000001
 43
0.0000001
 40
0.0
 40
0.0
 40
0.0
 40
0.0
 40
0.2595750705
 40
0.388711333
 40
0.5162682735
 40
0.7637430375
 40
0.8834021779
 40
1.0
 40
1.0
 40
1.0
 40
1.0
 10
302.1909944293
 20
107.1209545713
 30
0.0
 10
301.9771395233
 20
106.7560197462
 30
0.0
 10
301.7202491869
 20
106.1686136988
 30
0.0
 10
301.524237473
 20
105.3489253187
 30
0.0
 10
301.4301263025
 20
104.5312802744
 30
0.0
 10
301.4872075107
 20
103.7163106149
 30
0.0
 10
301.7018924997
 20
102.9558030402
 30
0.0
 10
301.858817392
 20
102.6023844442
 30
0.0
 10
301.9489227781
 20
102.4351127417
 30
0.0
  0
SPLINE
  5
4EF
330
228
100
AcDbEntity
  8
7_ALL_FEATURES
  6
Continuous
 62
     7
100
AcDbSpline
 70
     0
 71
     3
 72
     9
 73
     5
 74
     0
 42
0.000000001
 43
0.0000001
 40
0.0
 40
0.0
 40
0.0
 40
0.0
 40
0.5080453047
 40
1.0
 40
1.0
 40
1.0
 40
1.0
 10
311.7152772229
 20
92.1315330667
 30
0.0
 10
311.7579149715
 20
92.05238032
 30
0.0
 10
311.8657882043
 20
91.9078692897
 30
0.0
 10
312.0157039077
 20
91.8066349893
 30
0.0
 10
312.0951559496
 20
91.7710456035
 30
0.0
  0
SPLINE
  5
4F0
330
228
100
AcDbEntity
  8
7_ALL_FEATURES
  6
Continuous
 62
     7
100
AcDbSpline
 70
     0
 71
     3
 72
    13
 73
     9
 74
     0
 42
0.000000001
 43
0.0000001
 40
0.0
 40
0.0
 40
0.0
 40
0.0
 40
0.2595750705
 40
0.388711333
 40
0.5162682735
 40
0.7637430375
 40
0.8834021779
 40
1.0
 40
1.0
 40
1.0
 40
1.0
 10
307.7476902327
 20
104.6321881808
 30
0.0
 10
307.5338353267
 20
104.2672533557
 30
0.0
 10
307.2769449903
 20
103.6798473083
 30
0.0
 10
307.0809332764
 20
102.8601589282
 30
0.0
 10
306.9868221059
 20
102.0425138839
 30
0.0
 10
307.0439033141
 20
101.2275442244
 30
0.0
 10
307.2585883031
 20
100.4670366497
 30
0.0
 10
307.4155131954
 20
100.1136180537
 30
0.0
 10
307.5056185815
 20
99.9463463512
 30
0.0
  0
ELLIPSE
  5
4F1
330
228
100
AcDbEntity
  8
7_ALL_FEATURES
  6
Continuous
 62
     7
100
AcDbEllipse
 10
209.5282892847
 20
203.6741093174
 30
0.0
 11
4.1574578963
 21
-4.1574578963
 31
0.0
210
0.0
220
0.0
230
1.0
 40
0.4142135624
 41
1.8298677433
 42
1.9634954085
  0
ELLIPSE
  5
4F2
330
228
100
AcDbEntity
  8
7_ALL_FEATURES
  6
Continuous
 62
     7
100
AcDbEllipse
 10
199.7273623111
 20
203.6741093174
 30
0.0
 11
4.1574578963
 21
4.1574578963
 31
0.0
210
0.0
220
0.0
230
1.0
 40
0.4142135624
 41
1.1780972451
 42
1.3117249102
  0
ELLIPSE
  5
4F3
330
228
100
AcDbEntity
  8
7_ALL_FEATURES
  6
Continuous
 62
     7
100
AcDbEllipse
 10
360.8906786686
 20
111.9921231493
 30
0.0
 11
4.633107806500001
 21
-3.023264054000001
 31
0.0
210
0.0
220
0.0
230
1.0
 40
0.7147083355
 41
1.3741566346
 42
1.5246077107
  0
ELLIPSE
  5
4F4
330
228
100
AcDbEntity
  8
7_ALL_FEATURES
  6
Continuous
 62
     7
100
AcDbEllipse
 10
310.5965171756
 20
102.7140271831
 30
0.0
 11
-1.1984046132
 21
4.6260680137
 31
0.0
210
0.0
220
0.0
230
1.0
 40
0.4822268724000001
 41
0.9384747295
 42
1.0889258057
  0
ELLIPSE
  5
4F5
330
228
100
AcDbEntity
  8
7_ALL_FEATURES
  6
Continuous
 62
     7
100
AcDbEllipse
 10
360.8906786686
 20
111.9921231493
 30
0.0
 11
5.2122462823
 21
-3.4011720607
 31
0.0
210
0.0
220
0.0
230
1.0
 40
0.7147083355
 41
1.3909800456
 42
1.5246077107
  0
ELLIPSE
  5
4F6
330
228
100
AcDbEntity
  8
7_ALL_FEATURES
  6
Continuous
 62
     7
100
AcDbEllipse
 10
305.6455381043
 20
104.9315015147
 30
0.0
 11
5.6262399185
 21
1.4575038356
 31
0.0
210
0.0
220
0.0
230
1.0
 40
0.5859442122
 41
1.9388727244
 42
2.0725003895
  0
ELLIPSE
  5
4F7
330
228
100
AcDbEntity
  8
7_ALL_FEATURES
  6
Continuous
 62
     7
100
AcDbEllipse
 10
310.5965171756
 20
102.7140271831
 30
0.0
 11
-1.3482051899
 21
5.2043265154
 31
0.0
210
0.0
220
0.0
230
1.0
 40
0.4822268724
 41
0.9384747295
 42
1.0721023947
  0
ENDSEC
  0
SECTION
  2
OBJECTS
  0
DICTIONARY
  5
C
330
0
100
AcDbDictionary
281
     1
  3
ACAD_GROUP
350
D
  3
ACAD_IMAGE_VARS
350
541
  3
ACAD_LAYOUT
350
1A
  3
ACAD_MLINESTYLE
350
17
  3
ACAD_PLOTSETTINGS
350
19
  3
ACAD_PLOTSTYLENAME
350
E
  3
ACAD_SCALELIST
350
4FD
  3
APPDATA
350
53F
  3
DWGPROPS
350
562
  0
DICTIONARY
  5
D
102
{ACAD_REACTORS
330
C
102
}
330
C
100
AcDbDictionary
281
     1
  0
RASTERVARIABLES
  5
541
102
{ACAD_REACTORS
330
C
102
}
330
C
100
AcDbRasterVariables
 90
        0
 70
     1
 71
     1
 72
     1
  0
DICTIONARY
  5
1A
102
{ACAD_REACTORS
330
C
102
}
330
C
100
AcDbDictionary
281
     1
  3
Layout1
350
4FA
  3
Model
350
4F9
  0
DICTIONARY
  5
17
102
{ACAD_REACTORS
330
C
102
}
330
C
100
AcDbDictionary
281
     1
  3
Standard
350
18
  0
DICTIONARY
  5
19
102
{ACAD_REACTORS
330
C
102
}
330
C
100
AcDbDictionary
281
     1
  0
ACDBDICTIONARYWDFLT
  5
E
102
{ACAD_REACTORS
330
C
102
}
330
C
100
AcDbDictionary
281
     1
  3
Normal
350
F
100
AcDbDictionaryWithDefault
340
F
  0
DICTIONARY
  5
4FD
102
{ACAD_REACTORS
330
C
102
}
330
C
100
AcDbDictionary
281
     1
  3
A0
350
4FE
  3
A1
350
4FF
  3
A2
350
500
  3
A3
350
501
  3
A4
350
502
  3
A5
350
503
  3
A6
350
504
  3
A7
350
505
  3
A8
350
506
  3
A9
350
507
  3
B0
350
508
  3
B1
350
509
  3
B2
350
50A
  3
B3
350
50B
  3
B4
350
50C
  3
B5
350
50D
  3
B6
350
50E
  3
B7
350
50F
  3
B8
350
510
  3
B9
350
511
  3
C0
350
512
  3
C1
350
513
  3
C2
350
514
  3
C3
350
515
  3
C4
350
516
  3
C5
350
517
  3
C6
350
518
  3
C7
350
519
  3
C8
350
51A
  3
C9
350
51B
  3
D0
350
51C
  3
D1
350
51D
  3
D2
350
51E
  0
DICTIONARY
  5
53F
102
{ACAD_REACTORS
330
C
102
}
330
C
100
AcDbDictionary
281
     1
  0
XRECORD
  5
562
102
{ACAD_REACTORS
330
C
102
}
330
C
100
AcDbXrecord
280
     1
  1
DWGPROPS COOKIE
  2

  3

  4

  6

  7

  8
andrea.faggionato
  9

300
=
301
=
302
=
303
=
304
=
305
=
306
=
307
=
308
=
309
=
 40
0.0
 41
0.0
 42
2456742.397407048
  1

 90
        0
  0
LAYOUT
  5
4FA
102
{ACAD_REACTORS
330
1A
102
}
330
1A
100
AcDbPlotSettings
  1

  2
none_device
  4
ISO_A3_(420.00_x_297.00_MM)
  6

 40
0.0
 41
0.0
 42
0.0
 43
0.0
 44
420.0
 45
297.0
 46
0.0
 47
0.0
 48
0.0
 49
0.0
140
0.0
141
0.0
142
1.0
143
1.0
 70
     0
 72
     1
 73
     0
 74
     0
  7

 75
     0
147
1.0
148
0.0
149
0.0
100
AcDbLayout
  1
Layout1
 70
     0
 71
     1
 10
0.0
 20
0.0
 11
420.0
 21
297.0
 12
0.0
 22
0.0
 32
0.0
 14
0.0
 24
0.0
 34
0.0
 15
0.0
 25
0.0
 35
0.0
146
0.0
 13
0.0
 23
0.0
 33
0.0
 16
1.0
 26
0.0
 36
0.0
 17
0.0
 27
1.0
 37
0.0
 76
     0
330
229
  0
LAYOUT
  5
4F9
102
{ACAD_REACTORS
330
1A
102
}
330
1A
100
AcDbPlotSettings
  1

  2
none_device
  4
ISO_A3_(420.00_x_297.00_MM)
  6

 40
0.0
 41
0.0
 42
0.0
 43
0.0
 44
420.0
 45
297.0
 46
0.0
 47
0.0
 48
0.0
 49
0.0
140
0.0
141
0.0
142
1.0
143
1.0
 70
  1024
 72
     1
 73
     0
 74
     0
  7

 75
     0
147
1.0
148
0.0
149
0.0
100
AcDbLayout
  1
Model
 70
     0
 71
     0
 10
0.0
 20
0.0
 11
420.0
 21
297.0
 12
0.0
 22
0.0
 32
0.0
 14
0.0
 24
0.0
 34
0.0
 15
0.0
 25
0.0
 35
0.0
146
0.0
 13
0.0
 23
0.0
 33
0.0
 16
1.0
 26
0.0
 36
0.0
 17
0.0
 27
1.0
 37
0.0
 76
     0
330
228
331
1F4
  0
MLINESTYLE
  5
18
102
{ACAD_REACTORS
330
17
102
}
330
17
100
AcDbMlineStyle
  2
STANDARD
 70
     0
  3

 62
   256
 51
90.0
 52
90.0
 71
     2
 49
0.5
 62
   256
  6
BYLAYER
 49
-0.5
 62
   256
  6
BYLAYER
  0
ACDBPLACEHOLDER
  5
F
102
{ACAD_REACTORS
330
E
102
}
330
E
  0
SCALE
  5
4FE
102
{ACAD_REACTORS
330
4FD
102
}
330
4FD
100
AcDbScale
 70
     0
300
1:1
140
1.0
141
1.0
290
     1
  0
SCALE
  5
4FF
102
{ACAD_REACTORS
330
4FD
102
}
330
4FD
100
AcDbScale
 70
     0
300
1:2
140
1.0
141
2.0
290
     0
  0
SCALE
  5
500
102
{ACAD_REACTORS
330
4FD
102
}
330
4FD
100
AcDbScale
 70
     0
300
1:4
140
1.0
141
4.0
290
     0
  0
SCALE
  5
501
102
{ACAD_REACTORS
330
4FD
102
}
330
4FD
100
AcDbScale
 70
     0
300
1:5
140
1.0
141
5.0
290
     0
  0
SCALE
  5
502
102
{ACAD_REACTORS
330
4FD
102
}
330
4FD
100
AcDbScale
 70
     0
300
1:8
140
1.0
141
8.0
290
     0
  0
SCALE
  5
503
102
{ACAD_REACTORS
330
4FD
102
}
330
4FD
100
AcDbScale
 70
     0
300
1:10
140
1.0
141
10.0
290
     0
  0
SCALE
  5
504
102
{ACAD_REACTORS
330
4FD
102
}
330
4FD
100
AcDbScale
 70
     0
300
1:16
140
1.0
141
16.0
290
     0
  0
SCALE
  5
505
102
{ACAD_REACTORS
330
4FD
102
}
330
4FD
100
AcDbScale
 70
     0
300
1:20
140
1.0
141
20.0
290
     0
  0
SCALE
  5
506
102
{ACAD_REACTORS
330
4FD
102
}
330
4FD
100
AcDbScale
 70
     0
300
1:30
140
1.0
141
30.0
290
     0
  0
SCALE
  5
507
102
{ACAD_REACTORS
330
4FD
102
}
330
4FD
100
AcDbScale
 70
     0
300
1:40
140
1.0
141
40.0
290
     0
  0
SCALE
  5
508
102
{ACAD_REACTORS
330
4FD
102
}
330
4FD
100
AcDbScale
 70
     0
300
1:50
140
1.0
141
50.0
290
     0
  0
SCALE
  5
509
102
{ACAD_REACTORS
330
4FD
102
}
330
4FD
100
AcDbScale
 70
     0
300
1:100
140
1.0
141
100.0
290
     0
  0
SCALE
  5
50A
102
{ACAD_REACTORS
330
4FD
102
}
330
4FD
100
AcDbScale
 70
     0
300
2:1
140
2.0
141
1.0
290
     0
  0
SCALE
  5
50B
102
{ACAD_REACTORS
330
4FD
102
}
330
4FD
100
AcDbScale
 70
     0
300
4:1
140
4.0
141
1.0
290
     0
  0
SCALE
  5
50C
102
{ACAD_REACTORS
330
4FD
102
}
330
4FD
100
AcDbScale
 70
     0
300
8:1
140
8.0
141
1.0
290
     0
  0
SCALE
  5
50D
102
{ACAD_REACTORS
330
4FD
102
}
330
4FD
100
AcDbScale
 70
     0
300
10:1
140
10.0
141
1.0
290
     0
  0
SCALE
  5
50E
102
{ACAD_REACTORS
330
4FD
102
}
330
4FD
100
AcDbScale
 70
     0
300
100:1
140
100.0
141
1.0
290
     0
  0
SCALE
  5
50F
102
{ACAD_REACTORS
330
4FD
102
}
330
4FD
100
AcDbScale
 70
     0
300
1/128" = 1'-0"
140
0.0078125
141
12.0
290
     0
  0
SCALE
  5
510
102
{ACAD_REACTORS
330
4FD
102
}
330
4FD
100
AcDbScale
 70
     0
300
1/64" = 1'-0"
140
0.015625
141
12.0
290
     0
  0
SCALE
  5
511
102
{ACAD_REACTORS
330
4FD
102
}
330
4FD
100
AcDbScale
 70
     0
300
1/32" = 1'-0"
140
0.03125
141
12.0
290
     0
  0
SCALE
  5
512
102
{ACAD_REACTORS
330
4FD
102
}
330
4FD
100
AcDbScale
 70
     0
300
1/16" = 1'-0"
140
0.0625
141
12.0
290
     0
  0
SCALE
  5
513
102
{ACAD_REACTORS
330
4FD
102
}
330
4FD
100
AcDbScale
 70
     0
300
3/32" = 1'-0"
140
0.09375
141
12.0
290
     0
  0
SCALE
  5
514
102
{ACAD_REACTORS
330
4FD
102
}
330
4FD
100
AcDbScale
 70
     0
300
1/8" = 1'-0"
140
0.125
141
12.0
290
     0
  0
SCALE
  5
515
102
{ACAD_REACTORS
330
4FD
102
}
330
4FD
100
AcDbScale
 70
     0
300
3/16" = 1'-0"
140
0.1875
141
12.0
290
     0
  0
SCALE
  5
516
102
{ACAD_REACTORS
330
4FD
102
}
330
4FD
100
AcDbScale
 70
     0
300
1/4" = 1'-0"
140
0.25
141
12.0
290
     0
  0
SCALE
  5
517
102
{ACAD_REACTORS
330
4FD
102
}
330
4FD
100
AcDbScale
 70
     0
300
3/8" = 1'-0"
140
0.375
141
12.0
290
     0
  0
SCALE
  5
518
102
{ACAD_REACTORS
330
4FD
102
}
330
4FD
100
AcDbScale
 70
     0
300
1/2" = 1'-0"
140
0.5
141
12.0
290
     0
  0
SCALE
  5
519
102
{ACAD_REACTORS
330
4FD
102
}
330
4FD
100
AcDbScale
 70
     0
300
3/4" = 1'-0"
140
0.75
141
12.0
290
     0
  0
SCALE
  5
51A
102
{ACAD_REACTORS
330
4FD
102
}
330
4FD
100
AcDbScale
 70
     0
300
1" = 1'-0"
140
1.0
141
12.0
290
     0
  0
SCALE
  5
51B
102
{ACAD_REACTORS
330
4FD
102
}
330
4FD
100
AcDbScale
 70
     0
300
1-1/2" = 1'-0"
140
1.5
141
12.0
290
     0
  0
SCALE
  5
51C
102
{ACAD_REACTORS
330
4FD
102
}
330
4FD
100
AcDbScale
 70
     0
300
3" = 1'-0"
140
3.0
141
12.0
290
     0
  0
SCALE
  5
51D
102
{ACAD_REACTORS
330
4FD
102
}
330
4FD
100
AcDbScale
 70
     0
300
6" = 1'-0"
140
6.0
141
12.0
290
     0
  0
SCALE
  5
51E
102
{ACAD_REACTORS
330
4FD
102
}
330
4FD
100
AcDbScale
 70
     0
300
1'-0" = 1'-0"
140
12.0
141
12.0
290
     0
  0
ENDSEC
  0
EOF
