999
DXF file: 2g0_c_020.dxf
999
Pro/ENGINEER 2016360 by Parametric Technology Corporation
  0
SECTION
  2
HEADER
  9
$ACADVER
  1
AC1014
  9
$DWGCODEPAGE
  3
ANSI_1252
  9
$EXTMAX
 10
420.0
 20
297.0
 30
0.0
  9
$EXTMIN
 10
0.0
 20
0.0
 30
0.0
  9
$LIMMIN
 10
0.0
 20
0.0
  9
$LIMMAX
 10
420.0
 20
297.0
  9
$VIEWCTR
 10
210.0
 20
148.5
  9
$VIEWSIZE
 40
297.0
  9
$CLAYER
  8
0
  9
$LTSCALE
 40
23.1
  9
$CELTYPE
  6
BYLAYER
  9
$DIMSCALE
 40
1.0
  9
$DIMASZ
 40
2.5
  9
$DIMEXO
 40
0.75
  9
$DIMDLI
 40
15.96
  9
$DIMEXE
 40
0.75
  9
$DIMCEN
 40
3.78
  9
$DIMLFAC
 40
1.0
  9
$DIMBLK
  1
_CLOSED
  9
$DIMALT
 70
0
  9
$DIMALTF
 40
25.4
  9
$DIMTXT
 40
3.0
  9
$DIMTOL
 70
1
  9
$DIMLIM
 70
0
  9
$DIMTFAC
 40
1.0
  9
$DIMTP
 40
0.01
  9
$DIMTM
 40
0.01
  9
$DIMGAP
 40
0.625
  9
$AUNITS
 70
0
  9
$PDMODE
 70
3
  9
$PDSIZE
 40
0.3125
  9
$HANDSEED
  5
4FF
  9
$TILEMODE
 70
1
  9
$MEASUREMENT
 70
1
  0
ENDSEC
  0
SECTION
  2
CLASSES
  0
ENDSEC
  0
SECTION
  2
TABLES
  0
TABLE
  2
VPORT
  5
8
100
AcDbSymbolTable
 70
2
  0
VPORT
  5
1F4
100
AcDbSymbolTableRecord
100
AcDbViewportTableRecord
  2
*ACTIVE
 70
0
 10
0.0
 20
0.0
 11
1.0
 21
1.0
 12
210.0
 22
148.5
 13
0.0
 23
0.0
 14
1.0
 24
1.0
 15
0.0
 25
0.0
 16
0.0
 26
0.0
 36
1.0
 17
0.0
 27
0.0
 37
0.0
 40
297.0
 41
1.4141414141
 42
50.0
 43
0.0
 44
0.0
 50
0.0
 51
0.0
 71
0
 72
100
 73
1
 74
1
 75
0
 76
0
 77
0
 78
0
  0
ENDTAB
  0
TABLE
  2
LTYPE
  5
5
100
AcDbSymbolTable
 70
6
  0
LTYPE
  5
14
100
AcDbSymbolTableRecord
100
AcDbLinetypeTableRecord
  2
BYBLOCK
 70
0
  3

 72
65
 73
0
 40
0.0
  0
LTYPE
  5
15
100
AcDbSymbolTableRecord
100
AcDbLinetypeTableRecord
  2
BYLAYER
 70
0
  3

 72
65
 73
0
 40
0.0
  0
LTYPE
  5
16
100
AcDbSymbolTableRecord
100
AcDbLinetypeTableRecord
  2
CONTINUOUS
 70
64
  3
Solid line
 72
65
 73
0
 40
0.0
  0
LTYPE
  5
1F5
100
AcDbSymbolTableRecord
100
AcDbLinetypeTableRecord
  2
CENTER
 70
64
  3
____ _ ____ _ ____ _ ____ _ ____ _ ____ _ ____
 72
65
 73
4
 40
0.6
 49
0.375
 74
0
 49
-0.075
 74
0
 49
0.075
 74
0
 49
-0.075
 74
0
  0
LTYPE
  5
1F6
100
AcDbSymbolTableRecord
100
AcDbLinetypeTableRecord
  2
HIDDEN
 70
64
  3
- - - - - - - - - - - - - - - - - - - -
 72
65
 73
2
 40
0.2
 49
0.1
 74
0
 49
-0.1
 74
0
  0
LTYPE
  5
1F7
100
AcDbSymbolTableRecord
100
AcDbLinetypeTableRecord
  2
PHANTOM
 70
64
  3
_____ _ _ _____ _ _ _____ _ _ _____
 72
65
 73
6
 40
0.8
 49
0.45
 74
0
 49
-0.05
 74
0
 49
0.1
 74
0
 49
-0.05
 74
0
 49
0.1
 74
0
 49
-0.05
 74
0
  0
LTYPE
  5
1F8
100
AcDbSymbolTableRecord
100
AcDbLinetypeTableRecord
  2
DOT
 70
64
  3
. . . . . . . . . . . . . . . . . . . .
 72
65
 73
2
 40
0.2
 49
0.1
 74
0
 49
-0.1
 74
0
  0
LTYPE
  5
1F9
100
AcDbSymbolTableRecord
100
AcDbLinetypeTableRecord
  2
DASHED
 70
64
  3
- - - - - - - - - - - - - - - - - - - -
 72
65
 73
2
 40
0.2
 49
0.1
 74
0
 49
-0.1
 74
0
  0
ENDTAB
  0
TABLE
  2
LAYER
  5
2
100
AcDbSymbolTable
 70
36
  0
LAYER
  5
10
100
AcDbSymbolTableRecord
100
AcDbLayerTableRecord
  2
0
 70
0
 62
7
  6
CONTINUOUS
  0
LAYER
  5
1FA
100
AcDbSymbolTableRecord
100
AcDbLayerTableRecord
  2
DEFAULT_1
 70
0
 62
7
  6
CENTER
  0
LAYER
  5
1FB
100
AcDbSymbolTableRecord
100
AcDbLayerTableRecord
  2
DEFAULT_2
 70
0
 62
8
  6
HIDDEN
  0
LAYER
  5
1FC
100
AcDbSymbolTableRecord
100
AcDbLayerTableRecord
  2
DEFAULT_3
 70
0
 62
7
  6
PHANTOM
  0
LAYER
  5
1FD
100
AcDbSymbolTableRecord
100
AcDbLayerTableRecord
  2
01_ALL_DTM_PLN
 70
0
 62
7
  6
CONTINUOUS
  0
LAYER
  5
1FE
100
AcDbSymbolTableRecord
100
AcDbLayerTableRecord
  2
01__ASM_ALL_DTM_PLN
 70
0
 62
7
  6
CONTINUOUS
  0
LAYER
  5
1FF
100
AcDbSymbolTableRecord
100
AcDbLayerTableRecord
  2
01__ASM_DEF_DTM_PLN
 70
0
 62
7
  6
CONTINUOUS
  0
LAYER
  5
200
100
AcDbSymbolTableRecord
100
AcDbLayerTableRecord
  2
01___PRT_ALL_DTM_PLN
 70
0
 62
7
  6
CONTINUOUS
  0
LAYER
  5
201
100
AcDbSymbolTableRecord
100
AcDbLayerTableRecord
  2
01___PRT_DEF_DTM_PLN
 70
0
 62
7
  6
CONTINUOUS
  0
LAYER
  5
202
100
AcDbSymbolTableRecord
100
AcDbLayerTableRecord
  2
02_ALL_AXES
 70
0
 62
7
  6
CONTINUOUS
  0
LAYER
  5
203
100
AcDbSymbolTableRecord
100
AcDbLayerTableRecord
  2
02__ASM_ALL_AXES
 70
0
 62
7
  6
CONTINUOUS
  0
LAYER
  5
204
100
AcDbSymbolTableRecord
100
AcDbLayerTableRecord
  2
02___PRT_ALL_AXES
 70
0
 62
7
  6
CONTINUOUS
  0
LAYER
  5
205
100
AcDbSymbolTableRecord
100
AcDbLayerTableRecord
  2
03_ALL_CURVES
 70
0
 62
7
  6
CONTINUOUS
  0
LAYER
  5
206
100
AcDbSymbolTableRecord
100
AcDbLayerTableRecord
  2
03__ASM_ALL_CURVES
 70
0
 62
7
  6
CONTINUOUS
  0
LAYER
  5
207
100
AcDbSymbolTableRecord
100
AcDbLayerTableRecord
  2
03___PRT_ALL_CURVES
 70
0
 62
7
  6
CONTINUOUS
  0
LAYER
  5
208
100
AcDbSymbolTableRecord
100
AcDbLayerTableRecord
  2
04_ALL_DTM_PNT
 70
0
 62
7
  6
CONTINUOUS
  0
LAYER
  5
209
100
AcDbSymbolTableRecord
100
AcDbLayerTableRecord
  2
04__ASM_ALL_DTM_PNT
 70
0
 62
7
  6
CONTINUOUS
  0
LAYER
  5
20A
100
AcDbSymbolTableRecord
100
AcDbLayerTableRecord
  2
04___PRT_ALL_DTM_PNT
 70
0
 62
7
  6
CONTINUOUS
  0
LAYER
  5
20B
100
AcDbSymbolTableRecord
100
AcDbLayerTableRecord
  2
05_ALL_DTM_CSYS
 70
0
 62
7
  6
CONTINUOUS
  0
LAYER
  5
20C
100
AcDbSymbolTableRecord
100
AcDbLayerTableRecord
  2
05__ASM_ALL_DTM_CSYS
 70
0
 62
7
  6
CONTINUOUS
  0
LAYER
  5
20D
100
AcDbSymbolTableRecord
100
AcDbLayerTableRecord
  2
05__ASM_DEF_DTM_CSYS
 70
0
 62
7
  6
CONTINUOUS
  0
LAYER
  5
20E
100
AcDbSymbolTableRecord
100
AcDbLayerTableRecord
  2
05___PRT_ALL_DTM_CSYS
 70
0
 62
7
  6
CONTINUOUS
  0
LAYER
  5
20F
100
AcDbSymbolTableRecord
100
AcDbLayerTableRecord
  2
05___PRT_DEF_DTM_CSYS
 70
0
 62
7
  6
CONTINUOUS
  0
LAYER
  5
210
100
AcDbSymbolTableRecord
100
AcDbLayerTableRecord
  2
06_ALL_SURFS
 70
0
 62
7
  6
CONTINUOUS
  0
LAYER
  5
211
100
AcDbSymbolTableRecord
100
AcDbLayerTableRecord
  2
06__ASM_ALL_SURFS
 70
0
 62
7
  6
CONTINUOUS
  0
LAYER
  5
212
100
AcDbSymbolTableRecord
100
AcDbLayerTableRecord
  2
06___PRT_ALL_SURFS
 70
0
 62
7
  6
CONTINUOUS
  0
LAYER
  5
213
100
AcDbSymbolTableRecord
100
AcDbLayerTableRecord
  2
07__ASM_ALL_SKELETONS
 70
0
 62
7
  6
CONTINUOUS
  0
LAYER
  5
214
100
AcDbSymbolTableRecord
100
AcDbLayerTableRecord
  2
1_ALL_PLANES
 70
0
 62
7
  6
CONTINUOUS
  0
LAYER
  5
215
100
AcDbSymbolTableRecord
100
AcDbLayerTableRecord
  2
2_ALL_CSYS
 70
0
 62
7
  6
CONTINUOUS
  0
LAYER
  5
216
100
AcDbSymbolTableRecord
100
AcDbLayerTableRecord
  2
3_ALL_AXES
 70
0
 62
7
  6
CONTINUOUS
  0
LAYER
  5
217
100
AcDbSymbolTableRecord
100
AcDbLayerTableRecord
  2
4_ALL_POINTS
 70
0
 62
7
  6
CONTINUOUS
  0
LAYER
  5
218
100
AcDbSymbolTableRecord
100
AcDbLayerTableRecord
  2
5_ALL_CURVES
 70
0
 62
7
  6
CONTINUOUS
  0
LAYER
  5
219
100
AcDbSymbolTableRecord
100
AcDbLayerTableRecord
  2
6_ALL_SURFS
 70
0
 62
7
  6
CONTINUOUS
  0
LAYER
  5
21A
100
AcDbSymbolTableRecord
100
AcDbLayerTableRecord
  2
7_ALL_FEATURES
 70
0
 62
7
  6
CONTINUOUS
  0
LAYER
  5
21B
100
AcDbSymbolTableRecord
100
AcDbLayerTableRecord
  2
8_ALL_NOTES_BALLOONS_SYMBOLS_GT
 70
0
 62
7
  6
CONTINUOUS
  0
LAYER
  5
21C
100
AcDbSymbolTableRecord
100
AcDbLayerTableRecord
  2
9_SOLID
 70
0
 62
7
  6
CONTINUOUS
  0
LAYER
  5
21D
100
AcDbSymbolTableRecord
100
AcDbLayerTableRecord
  2
INTFCLR_2
 70
0
 62
7
  6
CONTINUOUS
  0
LAYER
  5
21E
100
AcDbSymbolTableRecord
100
AcDbLayerTableRecord
  2
INTFCLR_3
 70
0
 62
7
  6
CONTINUOUS
  0
LAYER
  5
21F
100
AcDbSymbolTableRecord
100
AcDbLayerTableRecord
  2
INTF_CYAN
 70
0
 62
7
  6
CONTINUOUS
  0
ENDTAB
  0
TABLE
  2
STYLE
  5
3
100
AcDbSymbolTable
 70
1
  0
STYLE
  5
11
100
AcDbSymbolTableRecord
100
AcDbTextStyleTableRecord
  2
STANDARD
 70
0
 40
0.0
 41
0.85
 50
0.0
 71
0
 42
0.2
  3
txt
  4

  0
STYLE
  5
220
100
AcDbSymbolTableRecord
100
AcDbTextStyleTableRecord
  2
TEXTSTYLE_1
 70
0
 40
0.0
 41
0.8
 50
0.0
 71
0
 42
0.2
  3
gdt
  4

  0
STYLE
  5
221
100
AcDbSymbolTableRecord
100
AcDbTextStyleTableRecord
  2
TEXTSTYLE_2
 70
0
 40
0.0
 41
0.85
 50
0.0
 71
0
 42
0.2
  3
gdt
  4

  0
ENDTAB
  0
TABLE
  2
VIEW
  5
6
100
AcDbSymbolTable
 70
0
  0
ENDTAB
  0
TABLE
  2
UCS
  5
7
100
AcDbSymbolTable
 70
0
  0
ENDTAB
  0
TABLE
  2
APPID
  5
9
100
AcDbSymbolTable
 70
1
  0
APPID
  5
222
100
AcDbSymbolTableRecord
100
AcDbRegAppTableRecord
  2
ACAD
 70
0
  0
ENDTAB
  0
TABLE
  2
BLOCK_RECORD
  5
1
100
AcDbSymbolTable
 70
0
  0
BLOCK_RECORD
  5
1F
100
AcDbSymbolTableRecord
100
AcDbBlockTableRecord
  2
*MODEL_SPACE
  0
BLOCK_RECORD
  5
1B
100
AcDbSymbolTableRecord
100
AcDbBlockTableRecord
  2
*PAPER_SPACE
  0
BLOCK_RECORD
  5
223
100
AcDbSymbolTableRecord
100
AcDbBlockTableRecord
  2
_CLOSED
  0
BLOCK_RECORD
  5
224
100
AcDbSymbolTableRecord
100
AcDbBlockTableRecord
  2
*D0
  0
BLOCK_RECORD
  5
225
100
AcDbSymbolTableRecord
100
AcDbBlockTableRecord
  2
*D1
  0
BLOCK_RECORD
  5
226
100
AcDbSymbolTableRecord
100
AcDbBlockTableRecord
  2
*D2
  0
BLOCK_RECORD
  5
227
100
AcDbSymbolTableRecord
100
AcDbBlockTableRecord
  2
*D3
  0
BLOCK_RECORD
  5
228
100
AcDbSymbolTableRecord
100
AcDbBlockTableRecord
  2
*D4
  0
BLOCK_RECORD
  5
229
100
AcDbSymbolTableRecord
100
AcDbBlockTableRecord
  2
LOGO2_BL0
  0
ENDTAB
  0
TABLE
  2
DIMSTYLE
  5
A
100
AcDbSymbolTable
 70
1
  0
DIMSTYLE
105
22A
100
AcDbSymbolTableRecord
100
AcDbDimStyleTableRecord
  2
STANDARD
 70
0
  3

  4

  5
_CLOSED
  6
_CLOSED
  7
_CLOSED
 40
1.0
 41
2.5
 42
0.75
 43
0.38
 44
0.75
 45
0.0
 46
0.0
 47
0.01
 48
0.01
140
3.0
141
0.09
142
0.0
143
25.4
144
1.0
145
0.0
146
1.0
147
0.625
 71
1.0
 72
0.0
 73
0
 74
0
 75
0
 76
0
 77
1
 78
8
 79
2
170
0
171
1
172
0
173
0
174
0
175
0
176
0
177
0
178
0
270
2
179
2
271
2
272
2
273
2
274
2
275
0
280
0
281
0
282
0
283
1
284
8
285
0
286
0
287
3
288
0
340
11
  0
DIMSTYLE
105
22B
100
AcDbSymbolTableRecord
100
AcDbDimStyleTableRecord
  2
DIMSTYLE_1
 70
0
  3
<>
  4

  5
_CLOSED
  6
_CLOSED
  7
_CLOSED
 40
1.0
 41
2.5
 42
0.75
 43
0.38
 44
0.75
 45
0.0
 46
0.0
 47
0.3
 48
0.3
140
3.0
141
0.09
142
0.0
143
25.4
144
1.0
145
0.0
146
1.0
147
0.625
 71
0.0
 72
0.0
 73
0
 74
0
 75
0
 76
0
 77
1
 78
8
 79
2
170
0
171
1
172
1
173
0
174
0
175
0
176
0
177
0
178
0
270
2
179
2
271
2
272
2
273
2
274
2
275
0
280
0
281
0
282
0
283
1
284
8
285
0
286
0
287
3
288
1
340
11
  0
DIMSTYLE
105
22C
100
AcDbSymbolTableRecord
100
AcDbDimStyleTableRecord
  2
DIMSTYLE_2
 70
0
  3

  4

  5
_CLOSED
  6
_CLOSED
  7
_CLOSED
 40
1.0
 41
2.5
 42
0.75
 43
0.38
 44
0.75
 45
0.0
 46
0.0
 47
0.3
 48
0.3
140
3.0
141
0.09
142
0.0
143
25.4
144
1.0
145
0.0
146
1.0
147
0.75
 71
0.0
 72
0.0
 73
0
 74
0
 75
0
 76
0
 77
1
 78
8
 79
2
170
0
171
1
172
0
173
0
174
0
175
0
176
0
177
0
178
0
270
2
179
2
271
2
272
2
273
2
274
2
275
0
280
0
281
0
282
0
283
1
284
8
285
0
286
0
287
3
288
0
340
11
  0
DIMSTYLE
105
22D
100
AcDbSymbolTableRecord
100
AcDbDimStyleTableRecord
  2
DIMSTYLE_3
 70
0
  3

  4

  5
_CLOSED
  6
_CLOSED
  7
_CLOSED
 40
1.0
 41
2.5
 42
0.75
 43
0.38
 44
0.75
 45
0.0
 46
0.0
 47
0.1
 48
0.1
140
3.0
141
0.09
142
0.0
143
25.4
144
1.0
145
0.0
146
1.0
147
0.75
 71
0.0
 72
0.0
 73
0
 74
0
 75
0
 76
0
 77
1
 78
8
 79
2
170
0
171
1
172
0
173
0
174
0
175
0
176
0
177
0
178
0
270
2
179
2
271
2
272
2
273
2
274
2
275
0
280
0
281
0
282
0
283
1
284
8
285
0
286
0
287
3
288
0
340
11
  0
DIMSTYLE
105
22E
100
AcDbSymbolTableRecord
100
AcDbDimStyleTableRecord
  2
DIMSTYLE_4
 70
0
  3

  4

  5
_CLOSED
  6
_CLOSED
  7
_CLOSED
 40
1.0
 41
2.5
 42
0.75
 43
0.38
 44
0.75
 45
0.0
 46
0.0
 47
0.3
 48
0.3
140
3.0
141
0.09
142
0.0
143
25.4
144
1.0
145
0.0
146
1.0
147
0.75
 71
0.0
 72
0.0
 73
0
 74
0
 75
0
 76
0
 77
1
 78
8
 79
2
170
0
171
1
172
0
173
0
174
0
175
0
176
0
177
0
178
0
270
2
179
0
271
0
272
0
273
2
274
2
275
0
280
0
281
0
282
0
283
1
284
8
285
0
286
0
287
3
288
0
340
11
  0
ENDTAB
  0
ENDSEC
  0
SECTION
  2
BLOCKS
  0
BLOCK
  5
20
100
AcDbEntity
  8
0
100
AcDbBlockBegin
  2
*MODEL_SPACE
 70
0
 10
0.0
 20
0.0
 30
0.0
  3
*MODEL_SPACE
  1

  0
ENDBLK
  5
21
100
AcDbEntity
  8
0
100
AcDbBlockEnd
  0
BLOCK
  5
1C
100
AcDbEntity
  8
0
100
AcDbBlockBegin
  2
*PAPER_SPACE
 70
0
 10
0.0
 20
0.0
 30
0.0
  3
*PAPER_SPACE
  1

  0
ENDBLK
  5
1D
100
AcDbEntity
  8
0
100
AcDbBlockEnd
  0
BLOCK
  5
22F
100
AcDbEntity
  8
0
100
AcDbBlockBegin
 62
2
  6
CONTINUOUS
  2
LOGO2_BL0
 70
64
 10
333.6475659158
 20
36.9217920391
  3
LOGO2_BL0
  1

  0
LINE
  5
230
100
AcDbEntity
  8
0
100
AcDbLine
 62
7
  6
CONTINUOUS
 10
325.390491144
 20
40.1172833779
 11
324.0861502147
 21
40.1172833779
  0
LINE
  5
231
100
AcDbEntity
  8
0
100
AcDbLine
 62
7
  6
CONTINUOUS
 10
324.0861502147
 20
40.1172833779
 11
324.0861502147
 21
29.6582173181
  0
LINE
  5
232
100
AcDbEntity
  8
0
100
AcDbLine
 62
7
  6
CONTINUOUS
 10
324.0861502147
 20
29.6582173181
 11
328.567205103
 21
29.6582173181
  0
LINE
  5
233
100
AcDbEntity
  8
0
100
AcDbLine
 62
7
  6
CONTINUOUS
 10
328.567205103
 20
29.6582173181
 11
328.567205103
 21
30.8510716431
  0
LINE
  5
234
100
AcDbEntity
  8
0
100
AcDbLine
 62
7
  6
CONTINUOUS
 10
328.567205103
 20
30.8510716431
 11
325.390491144
 21
30.8510716431
  0
LINE
  5
235
100
AcDbEntity
  8
0
100
AcDbLine
 62
7
  6
CONTINUOUS
 10
325.390491144
 20
30.8510716431
 11
325.390491144
 21
40.1172833779
  0
LINE
  5
236
100
AcDbEntity
  8
0
100
AcDbLine
 62
7
  6
CONTINUOUS
 10
340.3268173604
 20
40.1172833779
 11
339.0229998423
 21
40.1172833779
  0
LINE
  5
237
100
AcDbEntity
  8
0
100
AcDbLine
 62
7
  6
CONTINUOUS
 10
339.0229998423
 20
40.1172833779
 11
339.0229998423
 21
29.6582173181
  0
LINE
  5
238
100
AcDbEntity
  8
0
100
AcDbLine
 62
7
  6
CONTINUOUS
 10
339.0229998423
 20
29.6582173181
 11
343.5041855834
 21
29.6582173181
  0
LINE
  5
239
100
AcDbEntity
  8
0
100
AcDbLine
 62
7
  6
CONTINUOUS
 10
343.5041855834
 20
29.6582173181
 11
343.5041855834
 21
30.8510716431
  0
LINE
  5
23A
100
AcDbEntity
  8
0
100
AcDbLine
 62
7
  6
CONTINUOUS
 10
343.5041855834
 20
30.8510716431
 11
340.3268173604
 21
30.8510716431
  0
LINE
  5
23B
100
AcDbEntity
  8
0
100
AcDbLine
 62
7
  6
CONTINUOUS
 10
340.3268173604
 20
30.8510716431
 11
340.3268173604
 21
40.1172833779
  0
LWPOLYLINE
  5
23C
100
AcDbEntity
  8
0
100
AcDbPolyline
 62
7
  6
CONTINUOUS
 90
2
 70
0
 43
0.2
 10
322.4405451256
 20
26.3146660112
 10
322.4405451256
 20
24.4576027618
  0
LWPOLYLINE
  5
23D
100
AcDbEntity
  8
0
100
AcDbPolyline
 62
7
  6
CONTINUOUS
 90
2
 70
0
 43
0.2
 10
322.4405451256
 20
24.4576027618
 10
323.236261136
 20
24.4576027618
  0
LWPOLYLINE
  5
23E
100
AcDbEntity
  8
0
100
AcDbPolyline
 62
7
  6
CONTINUOUS
 90
2
 70
0
 43
0.2
 10
323.236261136
 20
24.4576027618
 10
323.236261136
 20
24.6695843334
  0
LWPOLYLINE
  5
23F
100
AcDbEntity
  8
0
100
AcDbPolyline
 62
7
  6
CONTINUOUS
 90
2
 70
0
 43
0.2
 10
323.236261136
 20
24.6695843334
 10
322.6721546205
 20
24.6695843334
  0
LWPOLYLINE
  5
240
100
AcDbEntity
  8
0
100
AcDbPolyline
 62
7
  6
CONTINUOUS
 90
2
 70
0
 43
0.2
 10
322.6721546205
 20
24.6695843334
 10
322.6721546205
 20
26.3146660112
  0
LWPOLYLINE
  5
241
100
AcDbEntity
  8
0
100
AcDbPolyline
 62
7
  6
CONTINUOUS
 90
2
 70
0
 43
0.2
 10
322.6721546205
 20
26.3146660112
 10
322.4405451256
 20
26.3146660112
  0
SPLINE
  5
242
100
AcDbEntity
  8
0
100
AcDbSpline
 62
7
  6
CONTINUOUS
 70
2
 71
3
 72
35
 73
31
 74
0
 42
0.0000001
 43
0.0000001
 44
0.0000000001
 40
0.0
 40
0.0
 40
0.0
 40
0.0
 40
1.0
 40
1.0
 40
1.0
 40
2.0
 40
2.0
 40
2.0
 40
3.0
 40
3.0
 40
3.0
 40
4.0
 40
4.0
 40
4.0
 40
5.0
 40
5.0
 40
5.0
 40
6.0
 40
6.0
 40
6.0
 40
7.0
 40
7.0
 40
7.0
 40
8.0
 40
8.0
 40
8.0
 40
9.0
 40
9.0
 40
9.0
 40
10.0
 40
10.0
 40
10.0
 40
10.0
 10
324.6345543915
 20
25.6101544177
 30
0.0
 10
324.6345543915
 20
25.6101544177
 30
0.0
 10
324.6345543915
 20
24.9480391385
 30
0.0
 10
324.6345543915
 20
24.9480391385
 30
0.0
 10
324.6345543915
 20
24.6329455432
 30
0.0
 10
324.7824180804
 20
24.4183469152
 30
0.0
 10
325.1225045647
 20
24.4183469152
 30
0.0
 10
325.4620676377
 20
24.4183469152
 30
0.0
 10
325.6101930321
 20
24.6329455432
 30
0.0
 10
325.6101930321
 20
24.9480391385
 30
0.0
 10
325.6101930321
 20
24.9480391385
 30
0.0
 10
325.6101930321
 20
25.6101544177
 30
0.0
 10
325.6101930321
 20
25.6101544177
 30
0.0
 10
325.6101930321
 20
25.6101544177
 30
0.0
 10
325.3881357933
 20
25.6101544177
 30
0.0
 10
325.3881357933
 20
25.6101544177
 30
0.0
 10
325.3881357933
 20
25.6101544177
 30
0.0
 10
325.3881357933
 20
24.9731628803
 30
0.0
 10
325.3881357933
 20
24.9731628803
 30
0.0
 10
325.3881357933
 20
24.7873518732
 30
0.0
 10
325.3414213358
 20
24.6245709626
 30
0.0
 10
325.1225045647
 20
24.6245709626
 30
0.0
 10
324.9030643822
 20
24.6245709626
 30
0.0
 10
324.8563499248
 20
24.7873518732
 30
0.0
 10
324.8563499248
 20
24.9731628803
 30
0.0
 10
324.8563499248
 20
24.9731628803
 30
0.0
 10
324.8563499248
 20
25.6101544177
 30
0.0
 10
324.8563499248
 20
25.6101544177
 30
0.0
 10
324.8563499248
 20
25.6101544177
 30
0.0
 10
324.6345543915
 20
25.6101544177
 30
0.0
 10
324.6345543915
 20
25.6101544177
 30
0.0
  0
SPLINE
  5
243
100
AcDbEntity
  8
0
100
AcDbSpline
 62
7
  6
CONTINUOUS
 70
2
 71
3
 72
35
 73
31
 74
0
 42
0.0000001
 43
0.0000001
 44
0.0000000001
 40
0.0
 40
0.0
 40
0.0
 40
0.0
 40
1.0
 40
1.0
 40
1.0
 40
2.0
 40
2.0
 40
2.0
 40
3.0
 40
3.0
 40
3.0
 40
4.0
 40
4.0
 40
4.0
 40
5.0
 40
5.0
 40
5.0
 40
6.0
 40
6.0
 40
6.0
 40
7.0
 40
7.0
 40
7.0
 40
8.0
 40
8.0
 40
8.0
 40
9.0
 40
9.0
 40
9.0
 40
10.0
 40
10.0
 40
10.0
 40
10.0
 10
328.0333255893
 20
25.5688049259
 30
0.0
 10
327.9448690817
 20
25.6200992322
 30
0.0
 10
327.831419685
 20
25.645222974
 30
0.0
 10
327.72778425
 20
25.645222974
 30
0.0
 10
327.3729113969
 20
25.645222974
 30
0.0
 10
327.0974662066
 20
25.3814236849
 30
0.0
 10
327.0974662066
 20
25.0239337753
 30
0.0
 10
327.0974662066
 20
24.6790057366
 30
0.0
 10
327.3759210118
 20
24.4188703265
 30
0.0
 10
327.7154840848
 20
24.4188703265
 30
0.0
 10
327.831419685
 20
24.4188703265
 30
0.0
 10
327.9321763579
 20
24.4408536006
 30
0.0
 10
328.0333255893
 20
24.4947649632
 30
0.0
 10
328.0333255893
 20
24.4947649632
 30
0.0
 10
328.0333255893
 20
24.7774070587
 30
0.0
 10
328.0333255893
 20
24.7774070587
 30
0.0
 10
327.9494489304
 20
24.6842398494
 30
0.0
 10
327.8459443483
 20
24.6250943739
 30
0.0
 10
327.7178394356
 20
24.6250943739
 30
0.0
 10
327.4841362955
 20
24.6250943739
 30
0.0
 10
327.3188691814
 20
24.7972966876
 30
0.0
 10
327.3188691814
 20
25.0338785897
 30
0.0
 10
327.3188691814
 20
25.2458601613
 30
0.0
 10
327.4866224991
 20
25.437952104
 30
0.0
 10
327.7034456251
 20
25.437952104
 30
0.0
 10
327.8362612394
 20
25.437952104
 30
0.0
 10
327.9448690817
 20
25.3840407413
 30
0.0
 10
328.0333255893
 20
25.2830223628
 30
0.0
 10
328.0333255893
 20
25.2830223628
 30
0.0
 10
328.0333255893
 20
25.5688049259
 30
0.0
 10
328.0333255893
 20
25.5688049259
 30
0.0
  0
SPLINE
  5
244
100
AcDbEntity
  8
0
100
AcDbSpline
 62
7
  6
CONTINUOUS
 70
2
 71
3
 72
32
 73
28
 74
0
 42
0.0000001
 43
0.0000001
 44
0.0000000001
 40
0.0
 40
0.0
 40
0.0
 40
0.0
 40
1.0
 40
1.0
 40
1.0
 40
2.0
 40
2.0
 40
2.0
 40
3.0
 40
3.0
 40
3.0
 40
4.0
 40
4.0
 40
4.0
 40
5.0
 40
5.0
 40
5.0
 40
6.0
 40
6.0
 40
6.0
 40
7.0
 40
7.0
 40
7.0
 40
8.0
 40
8.0
 40
8.0
 40
9.0
 40
9.0
 40
9.0
 40
9.0
 10
330.5651968416
 20
24.9972397996
 30
0.0
 10
330.5651968416
 20
24.9972397996
 30
0.0
 10
330.5651968416
 20
25.0312615333
 30
0.0
 10
330.5651968416
 20
25.0312615333
 30
0.0
 10
330.5651968416
 20
25.3735725156
 30
0.0
 10
330.3923402638
 20
25.645222974
 30
0.0
 10
330.0256906566
 20
25.645222974
 30
0.0
 10
329.6540686422
 20
25.645222974
 30
0.0
 10
329.4643320504
 20
25.3788066284
 30
0.0
 10
329.4643320504
 20
25.0239337753
 30
0.0
 10
329.4643320504
 20
24.6842398494
 30
0.0
 10
329.6784072671
 20
24.4183469152
 30
0.0
 10
330.030532211
 20
24.4183469152
 30
0.0
 10
330.2545522422
 20
24.4183469152
 30
0.0
 10
330.4567198522
 20
24.5340208098
 30
0.0
 10
330.5651968416
 20
24.7334405105
 30
0.0
 10
330.5651968416
 20
24.7334405105
 30
0.0
 10
330.3775538949
 20
24.8402164132
 30
0.0
 10
330.3775538949
 20
24.8402164132
 30
0.0
 10
330.2940697945
 20
24.7015124219
 30
0.0
 10
330.2028653775
 20
24.6156729707
 30
0.0
 10
330.0332801203
 20
24.6156729707
 30
0.0
 10
329.8212985487
 20
24.6156729707
 30
0.0
 10
329.6883520816
 20
24.8004371554
 30
0.0
 10
329.6859967308
 20
24.9972397996
 30
0.0
 10
329.6859967308
 20
24.9972397996
 30
0.0
 10
330.5651968416
 20
24.9972397996
 30
0.0
 10
330.5651968416
 20
24.9972397996
 30
0.0
  0
SPLINE
  5
245
100
AcDbEntity
  8
0
100
AcDbSpline
 62
7
  6
CONTINUOUS
 70
2
 71
3
 72
14
 73
10
 74
0
 42
0.0000001
 43
0.0000001
 44
0.0000000001
 40
0.0
 40
0.0
 40
0.0
 40
0.0
 40
1.0
 40
1.0
 40
1.0
 40
2.0
 40
2.0
 40
2.0
 40
3.0
 40
3.0
 40
3.0
 40
3.0
 10
329.6980351904
 20
25.1647314117
 30
0.0
 10
329.7256451358
 20
25.3296059674
 30
0.0
 10
329.8534883429
 20
25.45260762
 30
0.0
 10
330.0256906566
 20
25.45260762
 30
0.0
 10
330.2028653775
 20
25.45260762
 30
0.0
 10
330.3163147742
 20
25.3369337254
 30
0.0
 10
330.3435321612
 20
25.1647314117
 30
0.0
 10
330.3435321612
 20
25.1647314117
 30
0.0
 10
329.6980351904
 20
25.1647314117
 30
0.0
 10
329.6980351904
 20
25.1647314117
 30
0.0
  0
SPLINE
  5
246
100
AcDbEntity
  8
0
100
AcDbSpline
 62
7
  6
CONTINUOUS
 70
2
 71
3
 72
20
 73
16
 74
0
 42
0.0000001
 43
0.0000001
 44
0.0000000001
 40
0.0
 40
0.0
 40
0.0
 40
0.0
 40
1.0
 40
1.0
 40
1.0
 40
2.0
 40
2.0
 40
2.0
 40
3.0
 40
3.0
 40
3.0
 40
4.0
 40
4.0
 40
4.0
 40
5.0
 40
5.0
 40
5.0
 40
5.0
 10
332.5892282918
 20
25.3740959269
 30
0.0
 10
332.5892282918
 20
25.3740959269
 30
0.0
 10
333.0003678584
 20
24.8716210905
 30
0.0
 10
333.0003678584
 20
24.8716210905
 30
0.0
 10
332.8843014053
 20
24.7559471959
 30
0.0
 10
332.7465133838
 20
24.6256177852
 30
0.0
 10
332.5745727757
 20
24.6256177852
 30
0.0
 10
332.3971363491
 20
24.6256177852
 30
0.0
 10
332.229644737
 20
24.7899689296
 30
0.0
 10
332.229644737
 20
24.9668819449
 30
0.0
 10
332.229644737
 20
25.1448417828
 30
0.0
 10
332.4394018106
 20
25.2709839031
 30
0.0
 10
332.566983312
 20
25.3589169995
 30
0.0
 10
332.566983312
 20
25.3589169995
 30
0.0
 10
332.5892282918
 20
25.3740959269
 30
0.0
 10
332.5892282918
 20
25.3740959269
 30
0.0
  0
SPLINE
  5
247
100
AcDbEntity
  8
0
100
AcDbSpline
 62
7
  6
CONTINUOUS
 70
2
 71
3
 72
23
 73
19
 74
0
 42
0.0000001
 43
0.0000001
 44
0.0000000001
 40
0.0
 40
0.0
 40
0.0
 40
0.0
 40
1.0
 40
1.0
 40
1.0
 40
2.0
 40
2.0
 40
2.0
 40
3.0
 40
3.0
 40
3.0
 40
4.0
 40
4.0
 40
4.0
 40
5.0
 40
5.0
 40
5.0
 40
6.0
 40
6.0
 40
6.0
 40
6.0
 10
332.6385598056
 20
25.6651126029
 30
0.0
 10
332.6385598056
 20
25.6651126029
 30
0.0
 10
332.5769281265
 20
25.7436242961
 30
0.0
 10
332.5769281265
 20
25.7436242961
 30
0.0
 10
332.5230167639
 20
25.8121911748
 30
0.0
 10
332.4662266391
 20
25.8812814648
 30
0.0
 10
332.4662266391
 20
25.9749720853
 30
0.0
 10
332.4662266391
 20
26.0937864477
 30
0.0
 10
332.5621417576
 20
26.1712513183
 30
0.0
 10
332.6731049506
 20
26.1712513183
 30
0.0
 10
332.7963683089
 20
26.1712513183
 30
0.0
 10
332.889666371
 20
26.1000673831
 30
0.0
 10
332.889666371
 20
25.9697379725
 30
0.0
 10
332.889666371
 20
25.8346978602
 30
0.0
 10
332.7615614583
 20
25.7582798122
 30
0.0
 10
332.6680016906
 20
25.6844788206
 30
0.0
 10
332.6680016906
 20
25.6844788206
 30
0.0
 10
332.6385598056
 20
25.6651126029
 30
0.0
 10
332.6385598056
 20
25.6651126029
 30
0.0
  0
SPLINE
  5
248
100
AcDbEntity
  8
0
100
AcDbSpline
 62
7
  6
CONTINUOUS
 70
2
 71
3
 72
50
 73
46
 74
0
 42
0.0000001
 43
0.0000001
 44
0.0000000001
 40
0.0
 40
0.0
 40
0.0
 40
0.0
 40
1.0
 40
1.0
 40
1.0
 40
2.0
 40
2.0
 40
2.0
 40
3.0
 40
3.0
 40
3.0
 40
4.0
 40
4.0
 40
4.0
 40
5.0
 40
5.0
 40
5.0
 40
6.0
 40
6.0
 40
6.0
 40
7.0
 40
7.0
 40
7.0
 40
8.0
 40
8.0
 40
8.0
 40
9.0
 40
9.0
 40
9.0
 40
10.0
 40
10.0
 40
10.0
 40
11.0
 40
11.0
 40
11.0
 40
12.0
 40
12.0
 40
12.0
 40
13.0
 40
13.0
 40
13.0
 40
14.0
 40
14.0
 40
14.0
 40
15.0
 40
15.0
 40
15.0
 40
15.0
 10
333.3407160483
 20
24.4581261731
 30
0.0
 10
333.3407160483
 20
24.4581261731
 30
0.0
 10
333.626106053
 20
24.4581261731
 30
0.0
 10
333.626106053
 20
24.4581261731
 30
0.0
 10
333.626106053
 20
24.4581261731
 30
0.0
 10
333.2937398852
 20
24.8690040341
 30
0.0
 10
333.2937398852
 20
24.8690040341
 30
0.0
 10
333.2937398852
 20
24.8690040341
 30
0.0
 10
333.5202461201
 20
25.1348969683
 30
0.0
 10
333.5202461201
 20
25.1348969683
 30
0.0
 10
333.5202461201
 20
25.1348969683
 30
0.0
 10
333.3719898728
 20
25.2877330644
 30
0.0
 10
333.3719898728
 20
25.2877330644
 30
0.0
 10
333.3719898728
 20
25.2877330644
 30
0.0
 10
333.1560827165
 20
25.0364956462
 30
0.0
 10
333.1560827165
 20
25.0364956462
 30
0.0
 10
333.1560827165
 20
25.0364956462
 30
0.0
 10
332.7690200692
 20
25.5044253375
 30
0.0
 10
332.7690200692
 20
25.5044253375
 30
0.0
 10
332.9244732216
 20
25.6185289983
 30
0.0
 10
333.1067512026
 20
25.7582798122
 30
0.0
 10
333.1067512026
 20
25.9676443273
 30
0.0
 10
333.1067512026
 20
26.2115539874
 30
0.0
 10
332.9047144455
 20
26.3549686803
 30
0.0
 10
332.6782082107
 20
26.3549686803
 30
0.0
 10
332.4340368449
 20
26.3549686803
 30
0.0
 10
332.2496652188
 20
26.2042262294
 30
0.0
 10
332.2496652188
 20
25.9477546984
 30
0.0
 10
332.2496652188
 20
25.7902079007
 30
0.0
 10
332.3483282465
 20
25.652550732
 30
0.0
 10
332.4536647682
 20
25.541587539
 30
0.0
 10
332.4536647682
 20
25.541587539
 30
0.0
 10
332.3381217264
 20
25.4578417329
 30
0.0
 10
332.3381217264
 20
25.4578417329
 30
0.0
 10
332.1604235942
 20
25.3296059674
 30
0.0
 10
332.0130833166
 20
25.2018936131
 30
0.0
 10
332.0130833166
 20
24.9647882997
 30
0.0
 10
332.0130833166
 20
24.6444605916
 30
0.0
 10
332.2716484929
 20
24.4183469152
 30
0.0
 10
332.5820313866
 20
24.4183469152
 30
0.0
 10
332.8009481577
 20
24.4183469152
 30
0.0
 10
332.9981433604
 20
24.543442213
 30
0.0
 10
333.1384175856
 20
24.7093635913
 30
0.0
 10
333.1384175856
 20
24.7093635913
 30
0.0
 10
333.3407160483
 20
24.4581261731
 30
0.0
 10
333.3407160483
 20
24.4581261731
 30
0.0
  0
LWPOLYLINE
  5
249
100
AcDbEntity
  8
0
100
AcDbPolyline
 62
7
  6
CONTINUOUS
 90
2
 70
0
 43
0.2
 10
335.276160138
 20
26.3146660112
 10
335.0448123488
 20
26.3146660112
  0
LWPOLYLINE
  5
24A
100
AcDbEntity
  8
0
100
AcDbPolyline
 62
7
  6
CONTINUOUS
 90
2
 70
0
 43
0.2
 10
335.0448123488
 20
26.3146660112
 10
335.0448123488
 20
24.4576027618
  0
LWPOLYLINE
  5
24B
100
AcDbEntity
  8
0
100
AcDbPolyline
 62
7
  6
CONTINUOUS
 90
2
 70
0
 43
0.2
 10
335.0448123488
 20
24.4576027618
 10
335.8401358007
 20
24.4576027618
  0
LWPOLYLINE
  5
24C
100
AcDbEntity
  8
0
100
AcDbPolyline
 62
7
  6
CONTINUOUS
 90
2
 70
0
 43
0.2
 10
335.8401358007
 20
24.4576027618
 10
335.8401358007
 20
24.6695843334
  0
LWPOLYLINE
  5
24D
100
AcDbEntity
  8
0
100
AcDbPolyline
 62
7
  6
CONTINUOUS
 90
2
 70
0
 43
0.2
 10
335.8401358007
 20
24.6695843334
 10
335.276160138
 20
24.6695843334
  0
LWPOLYLINE
  5
24E
100
AcDbEntity
  8
0
100
AcDbPolyline
 62
7
  6
CONTINUOUS
 90
2
 70
0
 43
0.2
 10
335.276160138
 20
24.6695843334
 10
335.276160138
 20
26.3146660112
  0
LWPOLYLINE
  5
24F
100
AcDbEntity
  8
0
100
AcDbPolyline
 62
7
  6
CONTINUOUS
 90
2
 70
0
 43
0.2
 10
337.5192392122
 20
25.6101544177
 10
337.2980979431
 20
25.6101544177
  0
LWPOLYLINE
  5
250
100
AcDbEntity
  8
0
100
AcDbPolyline
 62
7
  6
CONTINUOUS
 90
2
 70
0
 43
0.2
 10
337.2980979431
 20
25.6101544177
 10
337.2980979431
 20
24.4581261731
  0
LWPOLYLINE
  5
251
100
AcDbEntity
  8
0
100
AcDbPolyline
 62
7
  6
CONTINUOUS
 90
2
 70
0
 43
0.2
 10
337.2980979431
 20
24.4581261731
 10
337.5192392122
 20
24.4581261731
  0
LWPOLYLINE
  5
252
100
AcDbEntity
  8
0
100
AcDbPolyline
 62
7
  6
CONTINUOUS
 90
2
 70
0
 43
0.2
 10
337.5192392122
 20
24.4581261731
 10
337.5192392122
 20
25.6101544177
  0
LWPOLYLINE
  5
253
100
AcDbEntity
  8
0
100
AcDbPolyline
 62
7
  6
CONTINUOUS
 90
2
 70
1
 43
0.2
 10
337.256215935
 20
26.1401083467
 42
1.0
 10
337.5613829259
 20
26.1401083467
 42
1.0
  0
SPLINE
  5
254
100
AcDbEntity
  8
0
100
AcDbSpline
 62
7
  6
CONTINUOUS
 70
2
 71
3
 72
17
 73
13
 74
0
 42
0.0000001
 43
0.0000001
 44
0.0000000001
 40
0.0
 40
0.0
 40
0.0
 40
0.0
 40
1.0
 40
1.0
 40
1.0
 40
2.0
 40
2.0
 40
2.0
 40
3.0
 40
3.0
 40
3.0
 40
4.0
 40
4.0
 40
4.0
 40
4.0
 10
339.6495231538
 20
24.6156729707
 30
0.0
 10
339.4155583082
 20
24.6156729707
 30
0.0
 10
339.2852288975
 20
24.8177097279
 30
0.0
 10
339.2852288975
 20
25.0338785897
 30
0.0
 10
339.2852288975
 20
25.2484772178
 30
0.0
 10
339.4210541267
 20
25.4473735072
 30
0.0
 10
339.6495231538
 20
25.4473735072
 30
0.0
 10
339.888983818
 20
25.4473735072
 30
0.0
 10
340.0245473416
 20
25.2584220322
 30
0.0
 10
340.0245473416
 20
25.0338785897
 30
0.0
 10
340.0245473416
 20
24.8077649134
 30
0.0
 10
339.8913391688
 20
24.6156729707
 30
0.0
 10
339.6495231538
 20
24.6156729707
 30
0.0
  0
SPLINE
  5
255
100
AcDbEntity
  8
0
100
AcDbSpline
 62
7
  6
CONTINUOUS
 70
2
 71
3
 72
50
 73
46
 74
0
 42
0.0000001
 43
0.0000001
 44
0.0000000001
 40
0.0
 40
0.0
 40
0.0
 40
0.0
 40
1.0
 40
1.0
 40
1.0
 40
2.0
 40
2.0
 40
2.0
 40
3.0
 40
3.0
 40
3.0
 40
4.0
 40
4.0
 40
4.0
 40
5.0
 40
5.0
 40
5.0
 40
6.0
 40
6.0
 40
6.0
 40
7.0
 40
7.0
 40
7.0
 40
8.0
 40
8.0
 40
8.0
 40
9.0
 40
9.0
 40
9.0
 40
10.0
 40
10.0
 40
10.0
 40
11.0
 40
11.0
 40
11.0
 40
12.0
 40
12.0
 40
12.0
 40
13.0
 40
13.0
 40
13.0
 40
14.0
 40
14.0
 40
14.0
 40
15.0
 40
15.0
 40
15.0
 40
15.0
 10
340.2336501511
 20
25.610677829
 30
0.0
 10
340.2336501511
 20
25.610677829
 30
0.0
 10
340.0119854707
 20
25.610677829
 30
0.0
 10
340.0119854707
 20
25.610677829
 30
0.0
 10
340.0119854707
 20
25.610677829
 30
0.0
 10
340.0119854707
 20
25.4133517734
 30
0.0
 10
340.0119854707
 20
25.4133517734
 30
0.0
 10
340.0119854707
 20
25.4133517734
 30
0.0
 10
340.0072747691
 20
25.4133517734
 30
0.0
 10
340.0072747691
 20
25.4133517734
 30
0.0
 10
339.9159394994
 20
25.556243055
 30
0.0
 10
339.778020625
 20
25.6446995627
 30
0.0
 10
339.6052949
 20
25.6446995627
 30
0.0
 10
339.2729287322
 20
25.6446995627
 30
0.0
 10
339.0638259227
 20
25.3568233544
 30
0.0
 10
339.0638259227
 20
25.0412063478
 30
0.0
 10
339.0638259227
 20
24.7114572364
 30
0.0
 10
339.2608902726
 20
24.4183469152
 30
0.0
 10
339.6157631258
 20
24.4183469152
 30
0.0
 10
339.778020625
 20
24.4183469152
 30
0.0
 10
339.9180331445
 20
24.5068034229
 30
0.0
 10
340.0072747691
 20
24.6376562448
 30
0.0
 10
340.0072747691
 20
24.6376562448
 30
0.0
 10
340.0119854707
 20
24.6376562448
 30
0.0
 10
340.0119854707
 20
24.6376562448
 30
0.0
 10
340.0119854707
 20
24.6376562448
 30
0.0
 10
340.0119854707
 20
24.4183469152
 30
0.0
 10
340.0119854707
 20
24.4183469152
 30
0.0
 10
340.0119854707
 20
24.1817650131
 30
0.0
 10
339.9554570516
 20
23.9949071833
 30
0.0
 10
339.6822363593
 20
23.9949071833
 30
0.0
 10
339.4799378966
 20
23.9949071833
 30
0.0
 10
339.3373083206
 20
24.1131981344
 30
0.0
 10
339.3373083206
 20
24.3194221818
 30
0.0
 10
339.3373083206
 20
24.3194221818
 30
0.0
 10
339.1156436402
 20
24.3194221818
 30
0.0
 10
339.1156436402
 20
24.3194221818
 30
0.0
 10
339.1206160475
 20
23.9949071833
 30
0.0
 10
339.351702131
 20
23.7981045391
 30
0.0
 10
339.6720298392
 20
23.7981045391
 30
0.0
 10
340.1200699016
 20
23.7981045391
 30
0.0
 10
340.2336501511
 20
24.083363691
 30
0.0
 10
340.2336501511
 20
24.4801094472
 30
0.0
 10
340.2336501511
 20
24.4801094472
 30
0.0
 10
340.2336501511
 20
25.610677829
 30
0.0
 10
340.2336501511
 20
25.610677829
 30
0.0
  0
SPLINE
  5
256
100
AcDbEntity
  8
0
100
AcDbSpline
 62
7
  6
CONTINUOUS
 70
2
 71
3
 72
44
 73
40
 74
0
 42
0.0000001
 43
0.0000001
 44
0.0000000001
 40
0.0
 40
0.0
 40
0.0
 40
0.0
 40
1.0
 40
1.0
 40
1.0
 40
2.0
 40
2.0
 40
2.0
 40
3.0
 40
3.0
 40
3.0
 40
4.0
 40
4.0
 40
4.0
 40
5.0
 40
5.0
 40
5.0
 40
6.0
 40
6.0
 40
6.0
 40
7.0
 40
7.0
 40
7.0
 40
8.0
 40
8.0
 40
8.0
 40
9.0
 40
9.0
 40
9.0
 40
10.0
 40
10.0
 40
10.0
 40
11.0
 40
11.0
 40
11.0
 40
12.0
 40
12.0
 40
12.0
 40
13.0
 40
13.0
 40
13.0
 40
13.0
 10
341.8025754865
 20
26.5957378727
 30
0.0
 10
341.8025754865
 20
26.5957378727
 30
0.0
 10
341.8025754865
 20
24.4576027618
 30
0.0
 10
341.8025754865
 20
24.4576027618
 30
0.0
 10
341.8025754865
 20
24.4576027618
 30
0.0
 10
342.0239784613
 20
24.4576027618
 30
0.0
 10
342.0239784613
 20
24.4576027618
 30
0.0
 10
342.0239784613
 20
24.4576027618
 30
0.0
 10
342.0239784613
 20
24.9872949851
 30
0.0
 10
342.0239784613
 20
24.9872949851
 30
0.0
 10
342.0239784613
 20
25.1971829116
 30
0.0
 10
342.0239784613
 20
25.4478969184
 30
0.0
 10
342.3092376132
 20
25.4478969184
 30
0.0
 10
342.5361364065
 20
25.4478969184
 30
0.0
 10
342.5630920878
 20
25.3149504513
 30
0.0
 10
342.5630920878
 20
25.1186712184
 30
0.0
 10
342.5630920878
 20
25.1186712184
 30
0.0
 10
342.5630920878
 20
24.4576027618
 30
0.0
 10
342.5630920878
 20
24.4576027618
 30
0.0
 10
342.5630920878
 20
24.4576027618
 30
0.0
 10
342.7850184738
 20
24.4576027618
 30
0.0
 10
342.7850184738
 20
24.4576027618
 30
0.0
 10
342.7850184738
 20
24.4576027618
 30
0.0
 10
342.7850184738
 20
25.1448417828
 30
0.0
 10
342.7850184738
 20
25.1448417828
 30
0.0
 10
342.7850184738
 20
25.4253902331
 30
0.0
 10
342.7010109621
 20
25.645222974
 30
0.0
 10
342.3759725524
 20
25.645222974
 30
0.0
 10
342.2362217385
 20
25.645222974
 30
0.0
 10
342.0980411585
 20
25.5787497404
 30
0.0
 10
342.0286891629
 20
25.4557480878
 30
0.0
 10
342.0286891629
 20
25.4557480878
 30
0.0
 10
342.0239784613
 20
25.4557480878
 30
0.0
 10
342.0239784613
 20
25.4557480878
 30
0.0
 10
342.0239784613
 20
25.4557480878
 30
0.0
 10
342.0239784613
 20
26.5957378727
 30
0.0
 10
342.0239784613
 20
26.5957378727
 30
0.0
 10
342.0239784613
 20
26.5957378727
 30
0.0
 10
341.8025754865
 20
26.5957378727
 30
0.0
 10
341.8025754865
 20
26.5957378727
 30
0.0
  0
LWPOLYLINE
  5
257
100
AcDbEntity
  8
0
100
AcDbPolyline
 62
7
  6
CONTINUOUS
 90
2
 70
0
 43
0.2
 10
344.6248091507
 20
25.403406959
 10
344.8412397182
 20
25.403406959
  0
LWPOLYLINE
  5
258
100
AcDbEntity
  8
0
100
AcDbPolyline
 62
7
  6
CONTINUOUS
 90
2
 70
0
 43
0.2
 10
344.8412397182
 20
25.403406959
 10
344.8412397182
 20
25.6101544177
  0
LWPOLYLINE
  5
259
100
AcDbEntity
  8
0
100
AcDbPolyline
 62
7
  6
CONTINUOUS
 90
2
 70
0
 43
0.2
 10
344.8412397182
 20
25.6101544177
 10
344.6248091507
 20
25.6101544177
  0
LWPOLYLINE
  5
25A
100
AcDbEntity
  8
0
100
AcDbPolyline
 62
7
  6
CONTINUOUS
 90
2
 70
0
 43
0.2
 10
344.6248091507
 20
25.6101544177
 10
344.6248091507
 20
26.0508667221
  0
LWPOLYLINE
  5
25B
100
AcDbEntity
  8
0
100
AcDbPolyline
 62
7
  6
CONTINUOUS
 90
2
 70
0
 43
0.2
 10
344.6248091507
 20
26.0508667221
 10
344.4031444703
 20
26.0508667221
  0
LWPOLYLINE
  5
25C
100
AcDbEntity
  8
0
100
AcDbPolyline
 62
7
  6
CONTINUOUS
 90
2
 70
0
 43
0.2
 10
344.4031444703
 20
26.0508667221
 10
344.4031444703
 20
25.6101544177
  0
LWPOLYLINE
  5
25D
100
AcDbEntity
  8
0
100
AcDbPolyline
 62
7
  6
CONTINUOUS
 90
2
 70
0
 43
0.2
 10
344.4031444703
 20
25.6101544177
 10
344.2824981684
 20
25.6101544177
  0
LWPOLYLINE
  5
25E
100
AcDbEntity
  8
0
100
AcDbPolyline
 62
7
  6
CONTINUOUS
 90
2
 70
0
 43
0.2
 10
344.2824981684
 20
25.6101544177
 10
344.2824981684
 20
25.403406959
  0
LWPOLYLINE
  5
25F
100
AcDbEntity
  8
0
100
AcDbPolyline
 62
7
  6
CONTINUOUS
 90
2
 70
0
 43
0.2
 10
344.2824981684
 20
25.403406959
 10
344.4031444703
 20
25.403406959
  0
LWPOLYLINE
  5
260
100
AcDbEntity
  8
0
100
AcDbPolyline
 62
7
  6
CONTINUOUS
 90
2
 70
0
 43
0.2
 10
344.4031444703
 20
25.403406959
 10
344.4031444703
 20
24.4576027618
  0
LWPOLYLINE
  5
261
100
AcDbEntity
  8
0
100
AcDbPolyline
 62
7
  6
CONTINUOUS
 90
2
 70
0
 43
0.2
 10
344.4031444703
 20
24.4576027618
 10
344.6248091507
 20
24.4576027618
  0
LWPOLYLINE
  5
262
100
AcDbEntity
  8
0
100
AcDbPolyline
 62
7
  6
CONTINUOUS
 90
2
 70
0
 43
0.2
 10
344.6248091507
 20
24.4576027618
 10
344.6248091507
 20
25.403406959
  0
SPLINE
  5
263
100
AcDbEntity
  8
0
100
AcDbSpline
 62
7
  6
CONTINUOUS
 70
2
 71
3
 72
20
 73
16
 74
0
 42
0.0000001
 43
0.0000001
 44
0.0000000001
 40
0.0
 40
0.0
 40
0.0
 40
0.0
 40
1.0
 40
1.0
 40
1.0
 40
2.0
 40
2.0
 40
2.0
 40
3.0
 40
3.0
 40
3.0
 40
4.0
 40
4.0
 40
4.0
 40
5.0
 40
5.0
 40
5.0
 40
5.0
 10
332.4068194579
 20
34.8185292052
 30
0.0
 10
332.4068194579
 20
34.8185292052
 30
0.0
 10
334.7231761124
 20
31.988967783
 30
0.0
 10
334.7231761124
 20
31.988967783
 30
0.0
 10
334.071529059
 20
31.3367973183
 30
0.0
 10
333.294655855
 20
30.6008810475
 30
0.0
 10
332.3234662104
 20
30.6008810475
 30
0.0
 10
331.3249283259
 20
30.6008810475
 30
0.0
 10
330.3816103324
 20
31.5304594948
 30
0.0
 10
330.3816103324
 20
32.5296516433
 30
0.0
 10
330.3816103324
 20
33.5288437919
 30
0.0
 10
331.5604634055
 20
34.2354490305
 30
0.0
 10
332.2819858658
 20
34.7353068104
 30
0.0
 10
332.2819858658
 20
34.7353068104
 30
0.0
 10
332.4068194579
 20
34.8185292052
 30
0.0
 10
332.4068194579
 20
34.8185292052
 30
0.0
  0
SPLINE
  5
264
100
AcDbEntity
  8
0
100
AcDbSpline
 62
7
  6
CONTINUOUS
 70
2
 71
3
 72
23
 73
19
 74
0
 42
0.0000001
 43
0.0000001
 44
0.0000000001
 40
0.0
 40
0.0
 40
0.0
 40
0.0
 40
1.0
 40
1.0
 40
1.0
 40
2.0
 40
2.0
 40
2.0
 40
3.0
 40
3.0
 40
3.0
 40
4.0
 40
4.0
 40
4.0
 40
5.0
 40
5.0
 40
5.0
 40
6.0
 40
6.0
 40
6.0
 40
6.0
 10
332.6842274405
 20
36.4562831249
 30
0.0
 10
332.6842274405
 20
36.4562831249
 30
0.0
 10
332.3377291679
 20
36.8996124858
 30
0.0
 10
332.3377291679
 20
36.8996124858
 30
0.0
 10
332.031926123
 20
37.2877219557
 30
0.0
 10
331.7130377959
 20
37.6762239841
 30
0.0
 10
331.7130377959
 20
38.2031682982
 30
0.0
 10
331.7130377959
 20
38.8693400148
 30
0.0
 10
332.2543759204
 20
39.3130619341
 30
0.0
 10
332.8782821755
 20
39.3130619341
 30
0.0
 10
333.5720638376
 20
39.3130619341
 30
0.0
 10
334.0992698573
 20
38.9108203594
 30
0.0
 10
334.0992698573
 20
38.1758200584
 30
0.0
 10
334.0992698573
 20
37.4125555479
 30
0.0
 10
333.3780091026
 20
36.9824423221
 30
0.0
 10
332.8509339357
 20
36.5667229067
 30
0.0
 10
332.8509339357
 20
36.5667229067
 30
0.0
 10
332.6842274405
 20
36.4562831249
 30
0.0
 10
332.6842274405
 20
36.4562831249
 30
0.0
  0
SPLINE
  5
265
100
AcDbEntity
  8
0
100
AcDbSpline
 62
7
  6
CONTINUOUS
 70
2
 71
3
 72
50
 73
46
 74
0
 42
0.0000001
 43
0.0000001
 44
0.0000000001
 40
0.0
 40
0.0
 40
0.0
 40
0.0
 40
1.0
 40
1.0
 40
1.0
 40
2.0
 40
2.0
 40
2.0
 40
3.0
 40
3.0
 40
3.0
 40
4.0
 40
4.0
 40
4.0
 40
5.0
 40
5.0
 40
5.0
 40
6.0
 40
6.0
 40
6.0
 40
7.0
 40
7.0
 40
7.0
 40
8.0
 40
8.0
 40
8.0
 40
9.0
 40
9.0
 40
9.0
 40
10.0
 40
10.0
 40
10.0
 40
11.0
 40
11.0
 40
11.0
 40
12.0
 40
12.0
 40
12.0
 40
13.0
 40
13.0
 40
13.0
 40
14.0
 40
14.0
 40
14.0
 40
15.0
 40
15.0
 40
15.0
 40
15.0
 10
336.6378146034
 20
29.6576939068
 30
0.0
 10
336.6378146034
 20
29.6576939068
 30
0.0
 10
338.247042608
 20
29.6576939068
 30
0.0
 10
338.247042608
 20
29.6576939068
 30
0.0
 10
338.247042608
 20
29.6576939068
 30
0.0
 10
336.3740153144
 20
31.9748356782
 30
0.0
 10
336.3740153144
 20
31.9748356782
 30
0.0
 10
336.3740153144
 20
31.9748356782
 30
0.0
 10
337.6503537398
 20
33.4723153728
 30
0.0
 10
337.6503537398
 20
33.4723153728
 30
0.0
 10
337.6503537398
 20
33.4723153728
 30
0.0
 10
336.8181297921
 20
34.3333269413
 30
0.0
 10
336.8181297921
 20
34.3333269413
 30
0.0
 10
336.8181297921
 20
34.3333269413
 30
0.0
 10
335.5975346688
 20
32.9180228189
 30
0.0
 10
335.5975346688
 20
32.9180228189
 30
0.0
 10
335.5975346688
 20
32.9180228189
 30
0.0
 10
333.4196203
 20
35.5533986534
 30
0.0
 10
333.4196203
 20
35.5533986534
 30
0.0
 10
334.2931937394
 20
36.1914370133
 30
0.0
 10
335.3198649806
 20
36.9824423221
 30
0.0
 10
335.3198649806
 20
38.1612953952
 30
0.0
 10
335.3198649806
 20
39.5349883202
 30
0.0
 10
334.1819688408
 20
40.3394714696
 30
0.0
 10
332.9066772379
 20
40.3394714696
 30
0.0
 10
331.5332460185
 20
40.3394714696
 30
0.0
 10
330.4923118197
 20
39.49324627
 30
0.0
 10
330.4923118197
 20
38.0505939078
 30
0.0
 10
330.4923118197
 20
37.1630192164
 30
0.0
 10
331.0476511962
 20
36.3861460124
 30
0.0
 10
331.6438166531
 20
35.7617163459
 30
0.0
 10
331.6438166531
 20
35.7617163459
 30
0.0
 10
330.991907894
 20
35.2901227756
 30
0.0
 10
330.991907894
 20
35.2901227756
 30
0.0
 10
329.9933700096
 20
34.5688620209
 30
0.0
 10
329.1604917978
 20
33.8476012662
 30
0.0
 10
329.1604917978
 20
32.5160429498
 30
0.0
 10
329.1604917978
 20
30.7123676518
 30
0.0
 10
330.6175379704
 20
29.4357675207
 30
0.0
 10
332.3650774077
 20
29.4357675207
 30
0.0
 10
333.5999354886
 20
29.4357675207
 30
0.0
 10
334.7093057133
 20
30.1439429932
 30
0.0
 10
335.5001801693
 20
31.0724746179
 30
0.0
 10
335.5001801693
 20
31.0724746179
 30
0.0
 10
336.6378146034
 20
29.6576939068
 30
0.0
 10
336.6378146034
 20
29.6576939068
 30
0.0
  0
LINE
  5
266
100
AcDbEntity
  8
0
100
AcDbLine
 62
7
  6
CONTINUOUS
 10
322.4406759784
 20
27.6315688114
 11
344.8545867061
 21
27.6315688114
  0
LINE
  5
267
100
AcDbEntity
  8
0
100
AcDbLine
 62
7
  6
CONTINUOUS
 10
344.8545867061
 20
27.6315688114
 11
344.8545867061
 21
50.0454795391
  0
LINE
  5
268
100
AcDbEntity
  8
0
100
AcDbLine
 62
7
  6
CONTINUOUS
 10
344.8545867061
 20
50.0454795391
 11
322.4406759784
 21
50.0454795391
  0
LINE
  5
269
100
AcDbEntity
  8
0
100
AcDbLine
 62
7
  6
CONTINUOUS
 10
322.4406759784
 20
50.0454795391
 11
322.4406759784
 21
27.6315688114
  0
ENDBLK
  5
26A
100
AcDbEntity
  8
0
  6
BYBLOCK
 62
0
100
AcDbBlockEnd
  0
BLOCK
  5
26B
100
AcDbEntity
  8
0
100
AcDbBlockBegin
  2
_CLOSED
 70
64
 10
0.0
 20
0.0
  3
_CLOSED
  1

  0
LINE
  5
26C
100
AcDbEntity
  8
0
  6
BYBLOCK
 62
0
100
AcDbLine
 10
0.0
 20
0.0
 11
-1.0
 21
0.2
  0
LINE
  5
26D
100
AcDbEntity
  8
0
  6
BYBLOCK
 62
0
100
AcDbLine
 10
-1.0
 20
0.2
 11
-1.0
 21
-0.2
  0
LINE
  5
26E
100
AcDbEntity
  8
0
  6
BYBLOCK
 62
0
100
AcDbLine
 10
-1.0
 20
-0.2
 11
0.0
 21
0.0
  0
LINE
  5
26F
100
AcDbEntity
  8
0
  6
BYBLOCK
 62
0
100
AcDbLine
 10
-1.0
 20
0.0
 11
0.0
 21
0.0
  0
ENDBLK
  5
270
100
AcDbEntity
  8
0
  6
BYBLOCK
 62
0
100
AcDbBlockEnd
  0
BLOCK
  5
271
100
AcDbEntity
  8
0
100
AcDbBlockBegin
 62
2
  6
CONTINUOUS
  2
*D0
 70
65
 10
0.0
 20
0.0
  3
*D0
  1

  0
MTEXT
  5
272
100
AcDbEntity
  8
0
100
AcDbMText
 62
2
  6
CONTINUOUS
  7
TEXTSTYLE_2
 71
1
 72
1
 10
104.1649210519
 20
102.3062583134
 30
0.0
 11
0.8587479233
 21
0.5123982868
 31
0.0
  1
{\Fgdt;n}\Ftxt;54
 40
3.0
 41
12.75
  0
LINE
  5
273
100
AcDbEntity
  8
0
100
AcDbLine
 62
2
  6
CONTINUOUS
 10
96.382787161
 20
93.2959866569
 11
113.3857719751
 21
103.4413390386
  0
INSERT
  5
274
100
AcDbEntity
  8
0
100
AcDbBlockReference
 62
2
  6
CONTINUOUS
  2
_CLOSED
 10
96.382787161
 20
93.2959866569
 41
2.5
 42
2.5
 43
2.5
 50
210.8237108709
  0
ENDBLK
  5
275
100
AcDbEntity
  8
0
  6
BYBLOCK
 62
0
100
AcDbBlockEnd
  0
BLOCK
  5
276
100
AcDbEntity
  8
0
100
AcDbBlockBegin
 62
2
  6
CONTINUOUS
  2
*D1
 70
65
 10
0.0
 20
0.0
  3
*D1
  1

  0
MTEXT
  5
277
100
AcDbEntity
  8
0
100
AcDbMText
 62
2
  6
CONTINUOUS
  7
STANDARD
 71
2
 72
1
 10
111.4177835523
 20
220.8852385961
 30
0.0
 11
0.0
 21
1.0
 31
0.0
  1
64
 40
3.0
 41
7.0714285714
  0
LINE
  5
278
100
AcDbEntity
  8
0
100
AcDbLine
 62
2
  6
CONTINUOUS
 10
102.6780728517
 20
252.8852385961
 11
115.9177835523
 21
252.8852385961
  0
LINE
  5
279
100
AcDbEntity
  8
0
100
AcDbLine
 62
2
  6
CONTINUOUS
 10
103.0708001244
 20
188.8852385961
 11
115.9177835523
 21
188.8852385961
  0
LINE
  5
27A
100
AcDbEntity
  8
0
100
AcDbLine
 62
2
  6
CONTINUOUS
 10
115.1677835523
 20
252.8852385961
 11
115.1677835523
 21
220.8852385961
  0
LINE
  5
27B
100
AcDbEntity
  8
0
100
AcDbLine
 62
2
  6
CONTINUOUS
 10
115.1677835523
 20
188.8852385961
 11
115.1677835523
 21
220.8852385961
  0
INSERT
  5
27C
100
AcDbEntity
  8
0
100
AcDbBlockReference
 62
2
  6
CONTINUOUS
  2
_CLOSED
 10
115.1677835523
 20
252.8852385961
 41
2.5
 42
2.5
 43
2.5
 50
90.0
  0
INSERT
  5
27D
100
AcDbEntity
  8
0
100
AcDbBlockReference
 62
2
  6
CONTINUOUS
  2
_CLOSED
 10
115.1677835523
 20
188.8852385961
 41
2.5
 42
2.5
 43
2.5
 50
270.0
  0
ENDBLK
  5
27E
100
AcDbEntity
  8
0
  6
BYBLOCK
 62
0
100
AcDbBlockEnd
  0
BLOCK
  5
27F
100
AcDbEntity
  8
0
100
AcDbBlockBegin
 62
2
  6
CONTINUOUS
  2
*D2
 70
65
 10
0.0
 20
0.0
  3
*D2
  1

  0
MTEXT
  5
280
100
AcDbEntity
  8
0
100
AcDbMText
 62
2
  6
CONTINUOUS
  7
STANDARD
 71
1
 72
1
 10
239.4184937796
 20
261.500147687
 30
0.0
 11
0.0
 21
1.0
 31
0.0
  1
2
 40
3.0
 41
3.5357142857
  0
LINE
  5
281
100
AcDbEntity
  8
0
100
AcDbLine
 62
2
  6
CONTINUOUS
 10
229.2399543063
 20
252.8852385961
 11
243.9184937796
 21
252.8852385961
  0
LINE
  5
282
100
AcDbEntity
  8
0
100
AcDbLine
 62
2
  6
CONTINUOUS
 10
229.6421070335
 20
250.8852385961
 11
243.9184937796
 21
250.8852385961
  0
LINE
  5
283
100
AcDbEntity
  8
0
100
AcDbLine
 62
2
  6
CONTINUOUS
 10
243.1684937796
 20
252.8852385961
 11
243.1684937796
 21
263.8572905442
  0
LINE
  5
284
100
AcDbEntity
  8
0
100
AcDbLine
 62
2
  6
CONTINUOUS
 10
243.1684937796
 20
263.8572905442
 11
243.1684937796
 21
251.8852385961
  0
LINE
  5
285
100
AcDbEntity
  8
0
100
AcDbLine
 62
2
  6
CONTINUOUS
 10
243.1684937796
 20
250.8852385961
 11
243.1684937796
 21
249.8852385961
  0
LINE
  5
286
100
AcDbEntity
  8
0
100
AcDbLine
 62
2
  6
CONTINUOUS
 10
243.1684937796
 20
249.8852385961
 11
243.1684937796
 21
251.8852385961
  0
INSERT
  5
287
100
AcDbEntity
  8
0
100
AcDbBlockReference
 62
2
  6
CONTINUOUS
  2
_CLOSED
 10
243.1684937796
 20
252.8852385961
 41
2.5
 42
2.5
 43
2.5
 50
270.0
  0
INSERT
  5
288
100
AcDbEntity
  8
0
100
AcDbBlockReference
 62
2
  6
CONTINUOUS
  2
_CLOSED
 10
243.1684937796
 20
250.8852385961
 41
2.5
 42
2.5
 43
2.5
 50
90.0
  0
ENDBLK
  5
289
100
AcDbEntity
  8
0
  6
BYBLOCK
 62
0
100
AcDbBlockEnd
  0
BLOCK
  5
28A
100
AcDbEntity
  8
0
100
AcDbBlockBegin
 62
2
  6
CONTINUOUS
  2
*D3
 70
65
 10
0.0
 20
0.0
  3
*D3
  1

  0
MTEXT
  5
28B
100
AcDbEntity
  8
0
100
AcDbMText
 62
2
  6
CONTINUOUS
  7
TEXTSTYLE_2
 71
2
 72
1
 10
201.19730346
 20
182.2763572396
 30
0.0
 11
1.0
 21
0.0
 31
0.0
  1
{\Fgdt;n}\Ftxt;35
 40
3.0
 41
12.4285714286
  0
LINE
  5
28C
100
AcDbEntity
  8
0
100
AcDbLine
 62
2
  6
CONTINUOUS
 10
183.94730346
 20
187.8285127215
 11
183.94730346
 21
177.7763572396
  0
LINE
  5
28D
100
AcDbEntity
  8
0
100
AcDbLine
 62
2
  6
CONTINUOUS
 10
218.44730346
 20
187.7652635096
 11
218.44730346
 21
177.7763572396
  0
LINE
  5
28E
100
AcDbEntity
  8
0
100
AcDbLine
 62
2
  6
CONTINUOUS
 10
183.94730346
 20
178.5263572396
 11
201.19730346
 21
178.5263572396
  0
LINE
  5
28F
100
AcDbEntity
  8
0
100
AcDbLine
 62
2
  6
CONTINUOUS
 10
218.44730346
 20
178.5263572396
 11
201.19730346
 21
178.5263572396
  0
INSERT
  5
290
100
AcDbEntity
  8
0
100
AcDbBlockReference
 62
2
  6
CONTINUOUS
  2
_CLOSED
 10
183.94730346
 20
178.5263572396
 41
2.5
 42
2.5
 43
2.5
 50
180.0
  0
INSERT
  5
291
100
AcDbEntity
  8
0
100
AcDbBlockReference
 62
2
  6
CONTINUOUS
  2
_CLOSED
 10
218.44730346
 20
178.5263572396
 41
2.5
 42
2.5
 43
2.5
  0
ENDBLK
  5
292
100
AcDbEntity
  8
0
  6
BYBLOCK
 62
0
100
AcDbBlockEnd
  0
BLOCK
  5
293
100
AcDbEntity
  8
0
100
AcDbBlockBegin
 62
2
  6
CONTINUOUS
  2
*D4
 70
65
 10
0.0
 20
0.0
  3
*D4
  1

  0
MTEXT
  5
294
100
AcDbEntity
  8
0
100
AcDbMText
 62
2
  6
CONTINUOUS
  7
TEXTSTYLE_2
 71
2
 72
1
 10
201.19730346
 20
174.8013504271
 30
0.0
 11
1.0
 21
0.0
 31
0.0
  1
{\Fgdt;n}\Ftxt;48
 40
3.0
 41
13.0714285714
  0
LINE
  5
295
100
AcDbEntity
  8
0
100
AcDbLine
 62
2
  6
CONTINUOUS
 10
177.44730346
 20
187.7669929802
 11
177.44730346
 21
170.3013504271
  0
LINE
  5
296
100
AcDbEntity
  8
0
100
AcDbLine
 62
2
  6
CONTINUOUS
 10
224.94730346
 20
187.612575959
 11
224.94730346
 21
170.3013504271
  0
LINE
  5
297
100
AcDbEntity
  8
0
100
AcDbLine
 62
2
  6
CONTINUOUS
 10
177.44730346
 20
171.0513504271
 11
201.19730346
 21
171.0513504271
  0
LINE
  5
298
100
AcDbEntity
  8
0
100
AcDbLine
 62
2
  6
CONTINUOUS
 10
224.94730346
 20
171.0513504271
 11
201.19730346
 21
171.0513504271
  0
INSERT
  5
299
100
AcDbEntity
  8
0
100
AcDbBlockReference
 62
2
  6
CONTINUOUS
  2
_CLOSED
 10
177.44730346
 20
171.0513504271
 41
2.5
 42
2.5
 43
2.5
 50
180.0
  0
INSERT
  5
29A
100
AcDbEntity
  8
0
100
AcDbBlockReference
 62
2
  6
CONTINUOUS
  2
_CLOSED
 10
224.94730346
 20
171.0513504271
 41
2.5
 42
2.5
 43
2.5
  0
ENDBLK
  5
29B
100
AcDbEntity
  8
0
  6
BYBLOCK
 62
0
100
AcDbBlockEnd
  0
ENDSEC
  0
SECTION
  2
ENTITIES
  0
DIMENSION
  5
29C
100
AcDbEntity
  8
0
100
AcDbDimension
 62
2
  6
CONTINUOUS
  2
*D0
 10
96.382787161
 20
93.2959866569
 11
108.5831971559
 21
103.1958291472
 70
163
  1
%%c<>
  3
DIMSTYLE_1
100
AcDbDiametricDimension
 15
50.0103993044
 25
65.6264791716
  0
DIMENSION
  5
29D
100
AcDbEntity
  8
0
100
AcDbDimension
 62
2
  6
CONTINUOUS
  2
*D1
 10
115.1677835523
 20
188.8852385961
 11
115.1677835523
 21
220.4566696085
 70
160
  3
DIMSTYLE_2
100
AcDbAlignedDimension
 13
101.9280728517
 23
252.8852385961
 14
102.3208001244
 24
188.8852385961
 50
270.0
100
AcDbRotatedDimension
  0
DIMENSION
  5
29E
100
AcDbEntity
  8
0
100
AcDbDimension
 62
2
  6
CONTINUOUS
  2
*D2
 10
243.1684937796
 20
250.8852385961
 11
243.1684937796
 21
262.2501438976
 70
160
  3
DIMSTYLE_3
100
AcDbAlignedDimension
 13
228.4899543063
 23
252.8852385961
 14
228.8921070335
 24
250.8852385961
 50
270.0
100
AcDbRotatedDimension
  0
DIMENSION
  5
29F
100
AcDbEntity
  8
0
100
AcDbDimension
 62
2
  6
CONTINUOUS
  2
*D3
 10
218.44730346
 20
178.5263572396
 11
201.19730346
 21
178.5263572396
 70
160
  1
%%c<>
  3
DIMSTYLE_4
100
AcDbAlignedDimension
 13
183.94730346
 23
188.5785127215
 14
218.44730346
 24
188.5152635096
100
AcDbRotatedDimension
  0
DIMENSION
  5
2A0
100
AcDbEntity
  8
0
100
AcDbDimension
 62
2
  6
CONTINUOUS
  2
*D4
 10
224.94730346
 20
171.0513504271
 11
201.19730346
 21
171.0513504271
 70
160
  1
%%c<>
  3
DIMSTYLE_4
100
AcDbAlignedDimension
 13
177.44730346
 23
188.5169929802
 14
224.94730346
 24
188.362575959
100
AcDbRotatedDimension
  0
LINE
  5
2A1
100
AcDbEntity
  8
0
100
AcDbLine
 62
2
  6
CONTINUOUS
 10
319.8215188711
 20
50.4217920391
 11
409.8215188711
 21
50.4217920391
  0
LINE
  5
2A2
100
AcDbEntity
  8
0
100
AcDbLine
 62
2
  6
CONTINUOUS
 10
319.8215188711
 20
50.4217920391
 11
319.8215188711
 21
10.4217920391
  0
LINE
  5
2A3
100
AcDbEntity
  8
0
100
AcDbLine
 62
2
  6
CONTINUOUS
 10
349.8215188711
 20
44.4217920391
 11
409.8215188711
 21
44.4217920391
  0
LINE
  5
2A4
100
AcDbEntity
  8
0
100
AcDbLine
 62
2
  6
CONTINUOUS
 10
349.8215188711
 20
38.4217920391
 11
409.8215188711
 21
38.4217920391
  0
LINE
  5
2A5
100
AcDbEntity
  8
0
100
AcDbLine
 62
2
  6
CONTINUOUS
 10
349.8215188711
 20
28.4217920391
 11
409.8215188711
 21
28.4217920391
  0
LINE
  5
2A6
100
AcDbEntity
  8
0
100
AcDbLine
 62
2
  6
CONTINUOUS
 10
319.8215188711
 20
23.4217920391
 11
409.8215188711
 21
23.4217920391
  0
LINE
  5
2A7
100
AcDbEntity
  8
0
100
AcDbLine
 62
2
  6
CONTINUOUS
 10
319.8215188711
 20
10.4217920391
 11
409.8215188711
 21
10.4217920391
  0
LINE
  5
2A8
100
AcDbEntity
  8
0
100
AcDbLine
 62
2
  6
CONTINUOUS
 10
349.8215188711
 20
50.4217920391
 11
349.8215188711
 21
23.4217920391
  0
LINE
  5
2A9
100
AcDbEntity
  8
0
100
AcDbLine
 62
2
  6
CONTINUOUS
 10
389.8215188711
 20
50.4217920391
 11
389.8215188711
 21
38.4217920391
  0
LINE
  5
2AA
100
AcDbEntity
  8
0
100
AcDbLine
 62
2
  6
CONTINUOUS
 10
409.8215188711
 20
50.4217920391
 11
409.8215188711
 21
10.4217920391
  0
INSERT
  5
2AB
100
AcDbEntity
  8
0
100
AcDbBlockReference
 62
2
  6
CONTINUOUS
  2
LOGO2_BL0
 10
333.6475659158
 20
36.9217920391
  0
MTEXT
  5
2AC
100
AcDbEntity
  8
9_SOLID
100
AcDbMText
 62
2
  6
CONTINUOUS
  7
STANDARD
 71
1
 72
1
 10
351.3090188711
 20
48.9217920391
 30
0.0
 11
1.0
 21
0.0
 31
0.0
  1
2G0_C_020
 40
3.0
 41
32.8928571429
  0
MTEXT
  5
2AD
100
AcDbEntity
  8
0
100
AcDbMText
 62
2
  6
CONTINUOUS
  7
STANDARD
 71
1
 72
1
 10
391.3090188711
 20
49.1717920391
 30
0.0
 11
1.0
 21
0.0
 31
0.0
  1
Rev:01
 40
3.5
 41
21.625
  0
MTEXT
  5
2AE
100
AcDbEntity
  8
9_SOLID
100
AcDbMText
 62
2
  6
CONTINUOUS
  7
STANDARD
 71
1
 72
1
 10
351.3090188711
 20
42.6717920391
 30
0.0
 11
1.0
 21
0.0
 31
0.0
  1
Scale:1:1
 40
3.5
 41
28.375
  0
MTEXT
  5
2AF
100
AcDbEntity
  8
9_SOLID
100
AcDbMText
 62
2
  6
CONTINUOUS
  7
STANDARD
 71
1
 72
1
 10
391.3090188711
 20
43.1717920391
 30
0.0
 11
1.0
 21
0.0
 31
0.0
  1
A3
 40
3.5
 41
9.25
  0
MTEXT
  5
2B0
100
AcDbEntity
  8
0
100
AcDbMText
 62
2
  6
CONTINUOUS
  7
STANDARD
 71
1
 72
1
 10
351.3090188711
 20
35.1717920391
 30
0.0
 11
1.0
 21
0.0
 31
0.0
  1
smoothy 1.0 - 1.6
 40
3.5
 41
63.5
  0
MTEXT
  5
2B1
100
AcDbEntity
  8
0
100
AcDbMText
 62
2
  6
CONTINUOUS
  7
STANDARD
 71
1
 72
1
 10
351.3090188711
 20
27.1717920391
 30
0.0
 11
1.0
 21
0.0
 31
0.0
  1
DATE:06/07/2018
 40
2.5
 41
43.0357142857
  0
MTEXT
  5
2B2
100
AcDbEntity
  8
9_SOLID
100
AcDbMText
 62
2
  6
CONTINUOUS
  7
STANDARD
 71
1
 72
1
 10
321.3090188711
 20
23.1092920391
 30
0.0
 11
1.0
 21
0.0
 31
0.0
  1
Any integral or partial reproductions are prohibited \Pwithout prior authorisation of L {\Ftxt.shx;\W0.190476;\H2.250000; }& L Luce & Light s.r.l., \Pin accordance with the law in force. \PAll rights reserved.
 40
2.25
 41
134.5982142857
  0
LINE
  5
2B3
100
AcDbEntity
  8
0
100
AcDbLine
 62
7
  6
CONTINUOUS
 10
0.0
 20
0.0
 11
0.0
 21
297.0
  0
LINE
  5
2B4
100
AcDbEntity
  8
0
100
AcDbLine
 62
7
  6
CONTINUOUS
 10
0.0
 20
0.0
 11
420.0
 21
0.0
  0
LINE
  5
2B5
100
AcDbEntity
  8
0
100
AcDbLine
 62
7
  6
CONTINUOUS
 10
0.0
 20
297.0
 11
420.0
 21
297.0
  0
LINE
  5
2B6
100
AcDbEntity
  8
0
100
AcDbLine
 62
7
  6
CONTINUOUS
 10
420.0
 20
0.0
 11
420.0
 21
297.0
  0
LINE
  5
2B7
100
AcDbEntity
  8
3_ALL_AXES
100
AcDbLine
 62
7
  6
CONTINUOUS
 10
69.6995830783
 20
188.8852385961
 11
76.693603387
 21
188.8852385961
  0
LINE
  5
2B8
100
AcDbEntity
  8
7_ALL_FEATURES
100
AcDbLine
 62
7
  6
CONTINUOUS
 10
69.6965932327
 20
188.8852385961
 11
76.6965932327
 21
188.8852385961
  0
LINE
  5
2B9
100
AcDbEntity
  8
3_ALL_AXES
100
AcDbLine
 62
9
  6
CONTINUOUS
 10
80.1965932327
 20
192.3852385961
 11
78.8026794994
 21
192.3852385961
  0
LINE
  5
2BA
100
AcDbEntity
  8
3_ALL_AXES
100
AcDbLine
 62
9
  6
CONTINUOUS
 10
77.3884659371
 20
192.3852385961
 11
72.3693681146
 21
192.3852385961
  0
LINE
  5
2BB
100
AcDbEntity
  8
3_ALL_AXES
100
AcDbLine
 62
9
  6
CONTINUOUS
 10
66.1965932327
 20
192.3852385961
 11
66.2456437577
 21
192.3852385961
  0
LINE
  5
2BC
100
AcDbEntity
  8
3_ALL_AXES
100
AcDbLine
 62
9
  6
CONTINUOUS
 10
66.7632818479
 20
192.3852385961
 11
70.4375164621
 21
192.3852385961
  0
LINE
  5
2BD
100
AcDbEntity
  8
3_ALL_AXES
100
AcDbLine
 62
7
  6
CONTINUOUS
 10
80.1965932327
 20
192.8852385961
 11
78.8026794994
 21
192.8852385961
  0
LINE
  5
2BE
100
AcDbEntity
  8
3_ALL_AXES
100
AcDbLine
 62
7
  6
CONTINUOUS
 10
77.3884659371
 20
192.8852385961
 11
72.3693681146
 21
192.8852385961
  0
LINE
  5
2BF
100
AcDbEntity
  8
3_ALL_AXES
100
AcDbLine
 62
7
  6
CONTINUOUS
 10
66.1965932327
 20
192.8852385961
 11
66.2456437577
 21
192.8852385961
  0
LINE
  5
2C0
100
AcDbEntity
  8
3_ALL_AXES
100
AcDbLine
 62
7
  6
CONTINUOUS
 10
66.7632818479
 20
192.8852385961
 11
70.4375164621
 21
192.8852385961
  0
LINE
  5
2C1
100
AcDbEntity
  8
02___PRT_ALL_AXES
100
AcDbLine
 62
7
  6
CONTINUOUS
 10
46.1965932327
 20
250.8852385961
 11
46.1965932327
 21
251.3852385961
  0
LINE
  5
2C2
100
AcDbEntity
  8
3_ALL_AXES
100
AcDbLine
 62
7
  6
CONTINUOUS
 10
66.1965932327
 20
192.8852385961
 11
66.0177560681
 21
193.0640757607
  0
LINE
  5
2C3
100
AcDbEntity
  8
02___PRT_ALL_AXES
100
AcDbLine
 62
7
  6
CONTINUOUS
 10
49.4465932327
 20
241.3852385961
 11
49.4465932327
 21
250.8852385961
  0
LINE
  5
2C4
100
AcDbEntity
  8
3_ALL_AXES
100
AcDbLine
 62
7
  6
CONTINUOUS
 10
80.923999843
 20
198.3852385961
 11
65.4691866224
 21
198.3852385961
  0
LINE
  5
2C5
100
AcDbEntity
  8
7_ALL_FEATURES
100
AcDbLine
 62
7
  6
CONTINUOUS
 10
56.9465932327
 20
205.8852385961
 11
57.9465932327
 21
204.8852385961
  0
LINE
  5
2C6
100
AcDbEntity
  8
7_ALL_FEATURES
100
AcDbLine
 62
3
  6
CONTINUOUS
 10
56.6883777021
 20
204.9773151215
 11
52.0556690567
 21
213.8766656289
  0
LINE
  5
2C7
100
AcDbEntity
  8
7_ALL_FEATURES
100
AcDbLine
 62
7
  6
CONTINUOUS
 10
51.6965932327
 20
240.6852385961
 11
51.6965932327
 21
240.8852385961
  0
LINE
  5
2C8
100
AcDbEntity
  8
7_ALL_FEATURES
100
AcDbLine
 62
7
  6
CONTINUOUS
 10
52.2880885802
 20
241.3852385961
 11
52.2880885802
 21
249.8852385961
  0
LINE
  5
2C9
100
AcDbEntity
  8
3_ALL_AXES
100
AcDbLine
 62
7
  6
CONTINUOUS
 10
80.923999843
 20
201.3852385961
 11
65.4691866224
 21
201.3852385961
  0
LINE
  5
2CA
100
AcDbEntity
  8
7_ALL_FEATURES
100
AcDbLine
 62
7
  6
CONTINUOUS
 10
57.1318831187
 20
205.2081894282
 11
52.4991744733
 21
214.1075399356
  0
LINE
  5
2CB
100
AcDbEntity
  8
7_ALL_FEATURES
100
AcDbLine
 62
7
  6
CONTINUOUS
 10
55.9465932327
 20
221.8852385961
 11
55.9465932327
 21
239.8852385961
  0
LINE
  5
2CC
100
AcDbEntity
  8
3_ALL_AXES
100
AcDbLine
 62
7
  6
CONTINUOUS
 10
59.2316125459
 20
202.1852385961
 11
63.1615739195
 21
202.1852385961
  0
LINE
  5
2CD
100
AcDbEntity
  8
3_ALL_AXES
100
AcDbLine
 62
7
  6
CONTINUOUS
 10
83.2316125459
 20
202.1852385961
 11
87.1615739195
 21
202.1852385961
  0
LINE
  5
2CE
100
AcDbEntity
  8
3_ALL_AXES
100
AcDbLine
 62
7
  6
CONTINUOUS
 10
57.3965932327
 20
204.0052385961
 11
64.9965932327
 21
204.0052385961
  0
LINE
  5
2CF
100
AcDbEntity
  8
3_ALL_AXES
100
AcDbLine
 62
7
  6
CONTINUOUS
 10
81.3965932327
 20
204.0052385961
 11
88.9965932327
 21
204.0052385961
  0
LINE
  5
2D0
100
AcDbEntity
  8
7_ALL_FEATURES
100
AcDbLine
 62
3
  6
CONTINUOUS
 10
88.7290968467
 20
204.3852385961
 11
81.3965932327
 21
204.3852385961
  0
LINE
  5
2D1
100
AcDbEntity
  8
7_ALL_FEATURES
100
AcDbLine
 62
3
  6
CONTINUOUS
 10
64.9965932327
 20
204.3852385961
 11
57.6640896186
 21
204.3852385961
  0
LINE
  5
2D2
100
AcDbEntity
  8
3_ALL_AXES
100
AcDbLine
 62
7
  6
CONTINUOUS
 10
57.3966106402
 20
204.3852385961
 11
57.6640896186
 21
204.3852385961
  0
LINE
  5
2D3
100
AcDbEntity
  8
3_ALL_AXES
100
AcDbLine
 62
7
  6
CONTINUOUS
 10
88.7316513174
 20
204.3852385961
 11
88.9965758252
 21
204.3852385961
  0
LINE
  5
2D4
100
AcDbEntity
  8
7_ALL_FEATURES
100
AcDbLine
 62
7
  6
CONTINUOUS
 10
56.9465932327
 20
205.8852385961
 11
56.9465932327
 21
207.3852385961
  0
LINE
  5
2D5
100
AcDbEntity
  8
7_ALL_FEATURES
100
AcDbLine
 62
7
  6
CONTINUOUS
 10
56.9465932327
 20
209.3852385961
 11
56.9465932327
 21
211.3852385961
  0
LINE
  5
2D6
100
AcDbEntity
  8
7_ALL_FEATURES
100
AcDbLine
 62
7
  6
CONTINUOUS
 10
56.9465932327
 20
213.3852385961
 11
56.9465932327
 21
215.3852385961
  0
LINE
  5
2D7
100
AcDbEntity
  8
7_ALL_FEATURES
100
AcDbLine
 62
7
  6
CONTINUOUS
 10
56.9465932327
 20
217.3852385961
 11
56.9465932327
 21
219.3852385961
  0
LINE
  5
2D8
100
AcDbEntity
  8
3_ALL_AXES
100
AcDbLine
 62
7
  6
CONTINUOUS
 10
57.3965932327
 20
204.3852385961
 11
57.3965932327
 21
204.0052385961
  0
LINE
  5
2D9
100
AcDbEntity
  8
7_ALL_FEATURES
100
AcDbLine
 62
7
  6
CONTINUOUS
 10
57.4465932327
 20
207.3852385961
 11
57.4465932327
 21
209.3852385961
  0
LINE
  5
2DA
100
AcDbEntity
  8
7_ALL_FEATURES
100
AcDbLine
 62
7
  6
CONTINUOUS
 10
57.4465932327
 20
211.3852385961
 11
57.4465932327
 21
213.3852385961
  0
LINE
  5
2DB
100
AcDbEntity
  8
7_ALL_FEATURES
100
AcDbLine
 62
7
  6
CONTINUOUS
 10
57.4465932327
 20
215.3852385961
 11
57.4465932327
 21
217.3852385961
  0
LINE
  5
2DC
100
AcDbEntity
  8
7_ALL_FEATURES
100
AcDbLine
 62
7
  6
CONTINUOUS
 10
57.4465932327
 20
219.3852385961
 11
57.4465932327
 21
221.3852385961
  0
LINE
  5
2DD
100
AcDbEntity
  8
7_ALL_FEATURES
100
AcDbLine
 62
9
  6
CONTINUOUS
 10
57.6640896186
 20
204.3852385961
 11
57.6640896186
 21
204.8852385961
  0
LINE
  5
2DE
100
AcDbEntity
  8
7_ALL_FEATURES
100
AcDbLine
 62
7
  6
CONTINUOUS
 10
88.7290968467
 20
204.8852385961
 11
75.8968704652
 21
204.8852385961
  0
LINE
  5
2DF
100
AcDbEntity
  8
3_ALL_AXES
100
AcDbLine
 62
7
  6
CONTINUOUS
 10
75.8968704652
 20
204.8852385961
 11
73.6841826702
 21
204.8852385961
  0
LINE
  5
2E0
100
AcDbEntity
  8
7_ALL_FEATURES
100
AcDbLine
 62
7
  6
CONTINUOUS
 10
73.6841826702
 20
204.8852385961
 11
57.6640896186
 21
204.8852385961
  0
LINE
  5
2E1
100
AcDbEntity
  8
7_ALL_FEATURES
100
AcDbLine
 62
7
  6
CONTINUOUS
 10
56.9465932327
 20
205.8852385961
 11
89.4465932327
 21
205.8852385961
  0
LINE
  5
2E2
100
AcDbEntity
  8
7_ALL_FEATURES
100
AcDbLine
 62
7
  6
CONTINUOUS
 10
52.826805478
 20
218.3270740484
 11
52.4696679914
 21
218.684211535
  0
LINE
  5
2E3
100
AcDbEntity
  8
7_ALL_FEATURES
100
AcDbLine
 62
7
  6
CONTINUOUS
 10
54.2090679096
 20
219.7732387416
 11
53.855514519
 21
220.1267921322
  0
LINE
  5
2E4
100
AcDbEntity
  8
7_ALL_FEATURES
100
AcDbLine
 62
7
  6
CONTINUOUS
 10
61.9317393412
 20
241.3852385961
 11
61.9317393412
 21
249.8852385961
  0
LINE
  5
2E5
100
AcDbEntity
  8
7_ALL_FEATURES
100
AcDbLine
 62
3
  6
CONTINUOUS
 10
52.8652372906
 20
219.1365149038
 11
53.855514519
 21
220.1267921322
  0
LINE
  5
2E6
100
AcDbEntity
  8
7_ALL_FEATURES
100
AcDbLine
 62
7
  6
CONTINUOUS
 10
54.2090679096
 20
219.7732387416
 11
53.2187906812
 21
218.7829615132
  0
LINE
  5
2E7
100
AcDbEntity
  8
7_ALL_FEATURES
100
AcDbLine
 62
7
  6
CONTINUOUS
 10
56.9465932327
 20
207.3852385961
 11
89.4465932327
 21
207.3852385961
  0
LINE
  5
2E8
100
AcDbEntity
  8
7_ALL_FEATURES
100
AcDbLine
 62
7
  6
CONTINUOUS
 10
89.4465932327
 20
209.3852385961
 11
56.9465932327
 21
209.3852385961
  0
LINE
  5
2E9
100
AcDbEntity
  8
7_ALL_FEATURES
100
AcDbLine
 62
7
  6
CONTINUOUS
 10
56.4465932327
 20
221.3852385961
 11
55.9465932327
 21
221.8852385961
  0
LINE
  5
2EA
100
AcDbEntity
  8
3_ALL_AXES
100
AcDbLine
 62
7
  6
CONTINUOUS
 10
64.9965932327
 20
204.3852385961
 11
64.9965932327
 21
204.0052385961
  0
LINE
  5
2EB
100
AcDbEntity
  8
7_ALL_FEATURES
100
AcDbLine
 62
7
  6
CONTINUOUS
 10
64.9965932327
 20
204.3852385961
 11
64.9965932327
 21
204.8852385961
  0
LINE
  5
2EC
100
AcDbEntity
  8
7_ALL_FEATURES
100
AcDbLine
 62
7
  6
CONTINUOUS
 10
56.9465932327
 20
211.3852385961
 11
89.4465932327
 21
211.3852385961
  0
LINE
  5
2ED
100
AcDbEntity
  8
3_ALL_AXES
100
AcDbLine
 62
7
  6
CONTINUOUS
 10
65.4691866224
 20
204.8852385961
 11
65.4691866224
 21
201.3852385961
  0
LINE
  5
2EE
100
AcDbEntity
  8
3_ALL_AXES
100
AcDbLine
 62
7
  6
CONTINUOUS
 10
65.4691866224
 20
198.3852385961
 11
65.4691866224
 21
193.8852385961
  0
LINE
  5
2EF
100
AcDbEntity
  8
3_ALL_AXES
100
AcDbLine
 62
7
  6
CONTINUOUS
 10
66.1965932327
 20
192.3852385961
 11
66.1965932327
 21
192.8852385961
  0
LINE
  5
2F0
100
AcDbEntity
  8
3_ALL_AXES
100
AcDbLine
 62
7
  6
CONTINUOUS
 10
66.2456437577
 20
192.3852385961
 11
66.2456437577
 21
192.8852385961
  0
LINE
  5
2F1
100
AcDbEntity
  8
3_ALL_AXES
100
AcDbLine
 62
7
  6
CONTINUOUS
 10
66.7632818479
 20
192.3852385961
 11
66.7632818479
 21
192.8852385961
  0
LINE
  5
2F2
100
AcDbEntity
  8
3_ALL_AXES
100
AcDbLine
 62
7
  6
CONTINUOUS
 10
67.1965932327
 20
198.3852385961
 11
67.1965932327
 21
201.3852385961
  0
LINE
  5
2F3
100
AcDbEntity
  8
3_ALL_AXES
100
AcDbLine
 62
7
  6
CONTINUOUS
 10
67.5397389832
 20
204.8852385961
 11
67.5397389832
 21
201.3852385961
  0
LINE
  5
2F4
100
AcDbEntity
  8
3_ALL_AXES
100
AcDbLine
 62
7
  6
CONTINUOUS
 10
67.5397389832
 20
198.3852385961
 11
67.5397389832
 21
193.8852385961
  0
LINE
  5
2F5
100
AcDbEntity
  8
7_ALL_FEATURES
100
AcDbLine
 62
7
  6
CONTINUOUS
 10
89.4465932327
 20
213.3852385961
 11
56.9465932327
 21
213.3852385961
  0
LINE
  5
2F6
100
AcDbEntity
  8
7_ALL_FEATURES
100
AcDbLine
 62
7
  6
CONTINUOUS
 10
56.9465932327
 20
215.3852385961
 11
89.4465932327
 21
215.3852385961
  0
LINE
  5
2F7
100
AcDbEntity
  8
7_ALL_FEATURES
100
AcDbLine
 62
9
  6
CONTINUOUS
 10
89.7048087632
 20
204.9773151215
 11
89.2613033466
 21
205.2081894282
  0
LINE
  5
2F8
100
AcDbEntity
  8
3_ALL_AXES
100
AcDbLine
 62
7
  6
CONTINUOUS
 10
70.4375164621
 20
192.3852385961
 11
70.4375164621
 21
192.8852385961
  0
LINE
  5
2F9
100
AcDbEntity
  8
7_ALL_FEATURES
100
AcDbLine
 62
9
  6
CONTINUOUS
 10
52.0556690567
 20
213.8766656289
 11
52.4991744733
 21
214.1075399356
  0
LINE
  5
2FA
100
AcDbEntity
  8
7_ALL_FEATURES
100
AcDbLine
 62
7
  6
CONTINUOUS
 10
89.4465932327
 20
217.3852385961
 11
56.9465932327
 21
217.3852385961
  0
LINE
  5
2FB
100
AcDbEntity
  8
3_ALL_AXES
100
AcDbLine
 62
7
  6
CONTINUOUS
 10
72.3693681146
 20
192.3852385961
 11
72.3693681146
 21
192.8852385961
  0
LINE
  5
2FC
100
AcDbEntity
  8
7_ALL_FEATURES
100
AcDbLine
 62
7
  6
CONTINUOUS
 10
90.4465932327
 20
239.8852385961
 11
90.9465932327
 21
240.3852385961
  0
LINE
  5
2FD
100
AcDbEntity
  8
7_ALL_FEATURES
100
AcDbLine
 62
7
  6
CONTINUOUS
 10
56.9465932327
 20
219.3852385961
 11
89.4465932327
 21
219.3852385961
  0
LINE
  5
2FE
100
AcDbEntity
  8
7_ALL_FEATURES
100
AcDbLine
 62
7
  6
CONTINUOUS
 10
49.9465932327
 20
240.8852385961
 11
49.4465932327
 21
241.3852385961
  0
LINE
  5
2FF
100
AcDbEntity
  8
7_ALL_FEATURES
100
AcDbLine
 62
7
  6
CONTINUOUS
 10
51.9965932327
 20
240.3852385961
 11
51.6965932327
 21
240.6852385961
  0
LINE
  5
300
100
AcDbEntity
  8
3_ALL_AXES
100
AcDbLine
 62
7
  6
CONTINUOUS
 10
75.2671455935
 20
204.8852385961
 11
75.2671455935
 21
201.3852385961
  0
LINE
  5
301
100
AcDbEntity
  8
3_ALL_AXES
100
AcDbLine
 62
7
  6
CONTINUOUS
 10
75.2671455935
 20
198.3852385961
 11
75.2671455935
 21
193.8852385961
  0
LINE
  5
302
100
AcDbEntity
  8
7_ALL_FEATURES
100
AcDbLine
 62
7
  6
CONTINUOUS
 10
94.3965932327
 20
240.3852385961
 11
94.6965932327
 21
240.6852385961
  0
LINE
  5
303
100
AcDbEntity
  8
7_ALL_FEATURES
100
AcDbLine
 62
7
  6
CONTINUOUS
 10
96.4465932327
 20
240.8852385961
 11
96.9465932327
 21
241.3852385961
  0
LINE
  5
304
100
AcDbEntity
  8
7_ALL_FEATURES
100
AcDbLine
 62
7
  6
CONTINUOUS
 10
89.9465932325
 20
221.3852385961
 11
56.4465932328
 21
221.3852385961
  0
LINE
  5
305
100
AcDbEntity
  8
7_ALL_FEATURES
100
AcDbLine
 62
7
  6
CONTINUOUS
 10
90.4465932327
 20
221.8852385961
 11
55.9465932327
 21
221.8852385961
  0
LINE
  5
306
100
AcDbEntity
  8
7_ALL_FEATURES
100
AcDbLine
 62
7
  6
CONTINUOUS
 10
55.9465932327
 20
239.8852385961
 11
55.4465932327
 21
240.3852385961
  0
LINE
  5
307
100
AcDbEntity
  8
3_ALL_AXES
100
AcDbLine
 62
7
  6
CONTINUOUS
 10
77.3884659371
 20
192.3852385961
 11
77.3884659371
 21
192.8852385961
  0
LINE
  5
308
100
AcDbEntity
  8
3_ALL_AXES
100
AcDbLine
 62
7
  6
CONTINUOUS
 10
78.8026794994
 20
192.3852385961
 11
78.8026794994
 21
192.8852385961
  0
LINE
  5
309
100
AcDbEntity
  8
7_ALL_FEATURES
100
AcDbLine
 62
9
  6
CONTINUOUS
 10
94.3375174087
 20
213.8766656289
 11
93.8940119921
 21
214.1075399356
  0
LINE
  5
30A
100
AcDbEntity
  8
3_ALL_AXES
100
AcDbLine
 62
7
  6
CONTINUOUS
 10
79.1965932327
 20
198.3852385961
 11
79.1965932327
 21
201.3852385961
  0
LINE
  5
30B
100
AcDbEntity
  8
3_ALL_AXES
100
AcDbLine
 62
7
  6
CONTINUOUS
 10
80.1965932327
 20
192.3852385961
 11
80.1965932327
 21
192.8852385961
  0
LINE
  5
30C
100
AcDbEntity
  8
3_ALL_AXES
100
AcDbLine
 62
7
  6
CONTINUOUS
 10
80.923999843
 20
204.8852385961
 11
80.923999843
 21
201.3852385961
  0
LINE
  5
30D
100
AcDbEntity
  8
3_ALL_AXES
100
AcDbLine
 62
7
  6
CONTINUOUS
 10
80.923999843
 20
198.3852385961
 11
80.923999843
 21
193.8852385961
  0
LINE
  5
30E
100
AcDbEntity
  8
3_ALL_AXES
100
AcDbLine
 62
7
  6
CONTINUOUS
 10
81.3965932327
 20
204.3852385961
 11
81.3965932327
 21
204.0052385961
  0
LINE
  5
30F
100
AcDbEntity
  8
7_ALL_FEATURES
100
AcDbLine
 62
7
  6
CONTINUOUS
 10
81.3965932327
 20
204.3852385961
 11
81.3965932327
 21
204.8852385961
  0
LINE
  5
310
100
AcDbEntity
  8
7_ALL_FEATURES
100
AcDbLine
 62
9
  6
CONTINUOUS
 10
56.6883777021
 20
204.9773151215
 11
57.1318831187
 21
205.2081894282
  0
LINE
  5
311
100
AcDbEntity
  8
7_ALL_FEATURES
100
AcDbLine
 62
7
  6
CONTINUOUS
 10
89.9465932327
 20
221.3852385961
 11
90.4465932327
 21
221.8852385961
  0
LINE
  5
312
100
AcDbEntity
  8
7_ALL_FEATURES
100
AcDbLine
 62
7
  6
CONTINUOUS
 10
92.1841185558
 20
219.7732387416
 11
92.5376719464
 21
220.1267921322
  0
LINE
  5
313
100
AcDbEntity
  8
7_ALL_FEATURES
100
AcDbLine
 62
7
  6
CONTINUOUS
 10
93.1743957841
 20
218.7829615132
 11
92.1841185558
 21
219.7732387416
  0
LINE
  5
314
100
AcDbEntity
  8
7_ALL_FEATURES
100
AcDbLine
 62
3
  6
CONTINUOUS
 10
92.5376719464
 20
220.1267921322
 11
93.5279491747
 21
219.1365149038
  0
LINE
  5
315
100
AcDbEntity
  8
7_ALL_FEATURES
100
AcDbLine
 62
9
  6
CONTINUOUS
 10
88.7290968467
 20
204.3852385961
 11
88.7290968467
 21
204.8852385961
  0
LINE
  5
316
100
AcDbEntity
  8
7_ALL_FEATURES
100
AcDbLine
 62
7
  6
CONTINUOUS
 10
88.9465932327
 20
207.3852385961
 11
88.9465932327
 21
209.3852385961
  0
LINE
  5
317
100
AcDbEntity
  8
7_ALL_FEATURES
100
AcDbLine
 62
7
  6
CONTINUOUS
 10
88.9465932327
 20
211.3852385961
 11
88.9465932327
 21
213.3852385961
  0
LINE
  5
318
100
AcDbEntity
  8
7_ALL_FEATURES
100
AcDbLine
 62
7
  6
CONTINUOUS
 10
88.9465932327
 20
215.3852385961
 11
88.9465932327
 21
217.3852385961
  0
LINE
  5
319
100
AcDbEntity
  8
7_ALL_FEATURES
100
AcDbLine
 62
7
  6
CONTINUOUS
 10
88.9465932327
 20
219.3852385961
 11
88.9465932327
 21
221.3852385961
  0
LINE
  5
31A
100
AcDbEntity
  8
3_ALL_AXES
100
AcDbLine
 62
7
  6
CONTINUOUS
 10
88.9965932327
 20
204.3852385961
 11
88.9965932327
 21
204.0052385961
  0
LINE
  5
31B
100
AcDbEntity
  8
7_ALL_FEATURES
100
AcDbLine
 62
7
  6
CONTINUOUS
 10
89.4465932327
 20
205.8852385961
 11
89.4465932327
 21
207.3852385961
  0
LINE
  5
31C
100
AcDbEntity
  8
7_ALL_FEATURES
100
AcDbLine
 62
7
  6
CONTINUOUS
 10
89.4465932327
 20
209.3852385961
 11
89.4465932327
 21
211.3852385961
  0
LINE
  5
31D
100
AcDbEntity
  8
7_ALL_FEATURES
100
AcDbLine
 62
7
  6
CONTINUOUS
 10
89.4465932327
 20
213.3852385961
 11
89.4465932327
 21
215.3852385961
  0
LINE
  5
31E
100
AcDbEntity
  8
7_ALL_FEATURES
100
AcDbLine
 62
7
  6
CONTINUOUS
 10
89.4465932327
 20
217.3852385961
 11
89.4465932327
 21
219.3852385961
  0
LINE
  5
31F
100
AcDbEntity
  8
7_ALL_FEATURES
100
AcDbLine
 62
7
  6
CONTINUOUS
 10
93.5663809874
 20
218.3270740484
 11
93.923518474
 21
218.684211535
  0
LINE
  5
320
100
AcDbEntity
  8
7_ALL_FEATURES
100
AcDbLine
 62
7
  6
CONTINUOUS
 10
90.4465932327
 20
221.8852385961
 11
90.4465932327
 21
239.8852385961
  0
LINE
  5
321
100
AcDbEntity
  8
7_ALL_FEATURES
100
AcDbLine
 62
7
  6
CONTINUOUS
 10
55.9465932327
 20
239.8852385961
 11
90.4465932327
 21
239.8852385961
  0
LINE
  5
322
100
AcDbEntity
  8
7_ALL_FEATURES
100
AcDbLine
 62
7
  6
CONTINUOUS
 10
94.3963871305
 20
240.3852385961
 11
51.9967993349
 21
240.3852385961
  0
LINE
  5
323
100
AcDbEntity
  8
7_ALL_FEATURES
100
AcDbLine
 62
7
  6
CONTINUOUS
 10
94.6965932327
 20
240.6852385961
 11
51.6965932327
 21
240.6852385961
  0
LINE
  5
324
100
AcDbEntity
  8
7_ALL_FEATURES
100
AcDbLine
 62
7
  6
CONTINUOUS
 10
94.6965932327
 20
240.6852385961
 11
94.6965932327
 21
240.8852385961
  0
LINE
  5
325
100
AcDbEntity
  8
7_ALL_FEATURES
100
AcDbLine
 62
7
  6
CONTINUOUS
 10
93.8940119921
 20
214.1075399356
 11
89.2613033466
 21
205.2081894282
  0
LINE
  5
326
100
AcDbEntity
  8
7_ALL_FEATURES
100
AcDbLine
 62
3
  6
CONTINUOUS
 10
94.3375174087
 20
213.8766656289
 11
89.7048087632
 21
204.9773151215
  0
LINE
  5
327
100
AcDbEntity
  8
7_ALL_FEATURES
100
AcDbLine
 62
7
  6
CONTINUOUS
 10
89.4465932327
 20
205.8852385961
 11
88.4465932327
 21
204.8852385961
  0
LINE
  5
328
100
AcDbEntity
  8
7_ALL_FEATURES
100
AcDbLine
 62
7
  6
CONTINUOUS
 10
96.4463753655
 20
240.8852385961
 11
49.9468110998
 21
240.8852385961
  0
LINE
  5
329
100
AcDbEntity
  8
7_ALL_FEATURES
100
AcDbLine
 62
7
  6
CONTINUOUS
 10
49.4465932327
 20
241.3852385961
 11
96.9465932327
 21
241.3852385961
  0
LINE
  5
32A
100
AcDbEntity
  8
02___PRT_ALL_AXES
100
AcDbLine
 62
7
  6
CONTINUOUS
 10
96.9465932327
 20
241.3852385961
 11
96.9465932327
 21
250.8852385961
  0
LINE
  5
32B
100
AcDbEntity
  8
3_ALL_AXES
100
AcDbLine
 62
7
  6
CONTINUOUS
 10
80.1965932327
 20
192.8852385961
 11
80.3754303973
 21
193.0640757607
  0
LINE
  5
32C
100
AcDbEntity
  8
02___PRT_ALL_AXES
100
AcDbLine
 62
7
  6
CONTINUOUS
 10
100.1965932327
 20
250.8852385961
 11
100.1965932327
 21
251.3852385961
  0
LINE
  5
32D
100
AcDbEntity
  8
7_ALL_FEATURES
100
AcDbLine
 62
7
  6
CONTINUOUS
 10
61.9317393412
 20
249.8852385961
 11
52.2880885802
 21
249.8852385961
  0
LINE
  5
32E
100
AcDbEntity
  8
02___PRT_ALL_AXES
100
AcDbLine
 62
7
  6
CONTINUOUS
 10
46.1966393273
 20
250.8852385961
 11
100.1965471381
 21
250.8852385961
  0
LINE
  5
32F
100
AcDbEntity
  8
7_ALL_FEATURES
100
AcDbLine
 62
7
  6
CONTINUOUS
 10
46.1965932327
 20
251.3852385961
 11
100.1965932327
 21
251.3852385961
  0
LINE
  5
330
100
AcDbEntity
  8
7_ALL_FEATURES
100
AcDbLine
 62
7
  6
CONTINUOUS
 10
54.7035159621
 20
252.8852385961
 11
91.6896705033
 21
252.8852385961
  0
LINE
  5
331
100
AcDbEntity
  8
7_ALL_FEATURES
100
AcDbLine
 62
7
  6
CONTINUOUS
 10
46.1965932327
 20
251.3852385961
 11
54.7035159621
 21
252.8852385961
  0
LINE
  5
332
100
AcDbEntity
  8
7_ALL_FEATURES
100
AcDbLine
 62
7
  6
CONTINUOUS
 10
100.1965932327
 20
251.3852385961
 11
91.6896705033
 21
252.8852385961
  0
LINE
  5
333
100
AcDbEntity
  8
3_ALL_AXES
100
AcDbLine
 62
7
  6
CONTINUOUS
 10
206.6098387486
 20
188.8852385961
 11
213.6038590573
 21
188.8852385961
  0
LINE
  5
334
100
AcDbEntity
  8
7_ALL_FEATURES
100
AcDbLine
 62
7
  6
CONTINUOUS
 10
206.6068489029
 20
188.8852385961
 11
213.6068489029
 21
188.8852385961
  0
LINE
  5
335
100
AcDbEntity
  8
3_ALL_AXES
100
AcDbLine
 62
9
  6
CONTINUOUS
 10
217.1068489029
 20
192.3852385961
 11
217.0577983779
 21
192.3852385961
  0
LINE
  5
336
100
AcDbEntity
  8
3_ALL_AXES
100
AcDbLine
 62
9
  6
CONTINUOUS
 10
203.1068489029
 20
192.3852385961
 11
204.5007626362
 21
192.3852385961
  0
LINE
  5
337
100
AcDbEntity
  8
3_ALL_AXES
100
AcDbLine
 62
9
  6
CONTINUOUS
 10
205.9149761985
 20
192.3852385961
 11
210.934074021
 21
192.3852385961
  0
LINE
  5
338
100
AcDbEntity
  8
3_ALL_AXES
100
AcDbLine
 62
9
  6
CONTINUOUS
 10
212.8659256735
 20
192.3852385961
 11
216.5401602877
 21
192.3852385961
  0
LINE
  5
339
100
AcDbEntity
  8
3_ALL_AXES
100
AcDbLine
 62
7
  6
CONTINUOUS
 10
217.1068489029
 20
192.8852385961
 11
217.0577983779
 21
192.8852385961
  0
LINE
  5
33A
100
AcDbEntity
  8
3_ALL_AXES
100
AcDbLine
 62
7
  6
CONTINUOUS
 10
203.1068489029
 20
192.8852385961
 11
204.5007626362
 21
192.8852385961
  0
LINE
  5
33B
100
AcDbEntity
  8
3_ALL_AXES
100
AcDbLine
 62
7
  6
CONTINUOUS
 10
205.9149761985
 20
192.8852385961
 11
210.934074021
 21
192.8852385961
  0
LINE
  5
33C
100
AcDbEntity
  8
3_ALL_AXES
100
AcDbLine
 62
7
  6
CONTINUOUS
 10
212.8659256735
 20
192.8852385961
 11
216.5401602877
 21
192.8852385961
  0
LINE
  5
33D
100
AcDbEntity
  8
02___PRT_ALL_AXES
100
AcDbLine
 62
7
  6
CONTINUOUS
 10
174.19730346
 20
250.8852385961
 11
174.19730346
 21
251.3852385961
  0
LINE
  5
33E
100
AcDbEntity
  8
02___PRT_ALL_AXES
100
AcDbLine
 62
7
  6
CONTINUOUS
 10
177.44730346
 20
241.3852385961
 11
177.44730346
 21
250.8852385961
  0
LINE
  5
33F
100
AcDbEntity
  8
3_ALL_AXES
100
AcDbLine
 62
7
  6
CONTINUOUS
 10
217.8342555132
 20
198.3852385961
 11
202.3794422926
 21
198.3852385961
  0
LINE
  5
340
100
AcDbEntity
  8
7_ALL_FEATURES
100
AcDbLine
 62
7
  6
CONTINUOUS
 10
184.9473143654
 20
204.8852385961
 11
183.94730346
 21
205.885247759
  0
LINE
  5
341
100
AcDbEntity
  8
7_ALL_FEATURES
100
AcDbLine
 62
7
  6
CONTINUOUS
 10
179.69730346
 20
240.6852385961
 11
179.69730346
 21
240.8852385961
  0
LINE
  5
342
100
AcDbEntity
  8
3_ALL_AXES
100
AcDbLine
 62
7
  6
CONTINUOUS
 10
217.8342555132
 20
201.3852385961
 11
202.3794422926
 21
201.3852385961
  0
LINE
  5
343
100
AcDbEntity
  8
7_ALL_FEATURES
100
AcDbLine
 62
7
  6
CONTINUOUS
 10
183.94730346
 20
205.885247759
 11
183.94730346
 21
207.3852385961
  0
LINE
  5
344
100
AcDbEntity
  8
7_ALL_FEATURES
100
AcDbLine
 62
7
  6
CONTINUOUS
 10
183.94730346
 20
209.3852385961
 11
183.94730346
 21
211.3852385961
  0
LINE
  5
345
100
AcDbEntity
  8
7_ALL_FEATURES
100
AcDbLine
 62
7
  6
CONTINUOUS
 10
183.94730346
 20
213.3852385961
 11
183.94730346
 21
215.3852385961
  0
LINE
  5
346
100
AcDbEntity
  8
7_ALL_FEATURES
100
AcDbLine
 62
7
  6
CONTINUOUS
 10
183.94730346
 20
217.3852385961
 11
183.94730346
 21
219.3852385961
  0
LINE
  5
347
100
AcDbEntity
  8
7_ALL_FEATURES
100
AcDbLine
 62
7
  6
CONTINUOUS
 10
183.94730346
 20
221.8852385961
 11
183.94730346
 21
239.8852385961
  0
LINE
  5
348
100
AcDbEntity
  8
3_ALL_AXES
100
AcDbLine
 62
7
  6
CONTINUOUS
 10
199.2323227732
 20
202.1852385961
 11
203.1622841467
 21
202.1852385961
  0
LINE
  5
349
100
AcDbEntity
  8
3_ALL_AXES
100
AcDbLine
 62
7
  6
CONTINUOUS
 10
197.39730346
 20
204.0052385961
 11
204.99730346
 21
204.0052385961
  0
LINE
  5
34A
100
AcDbEntity
  8
7_ALL_FEATURES
100
AcDbLine
 62
3
  6
CONTINUOUS
 10
195.69730346
 20
204.3852385961
 11
199.7978861437
 21
204.3852385961
  0
LINE
  5
34B
100
AcDbEntity
  8
3_ALL_AXES
100
AcDbLine
 62
7
  6
CONTINUOUS
 10
199.7978861437
 20
204.3852385961
 11
202.5736795076
 21
204.3852385961
  0
LINE
  5
34C
100
AcDbEntity
  8
7_ALL_FEATURES
100
AcDbLine
 62
3
  6
CONTINUOUS
 10
202.5736795076
 20
204.3852385961
 11
206.69730346
 21
204.3852385961
  0
LINE
  5
34D
100
AcDbEntity
  8
3_ALL_AXES
100
AcDbLine
 62
7
  6
CONTINUOUS
 10
203.1068489029
 20
192.8852385961
 11
202.9280145109
 21
193.0640729881
  0
LINE
  5
34E
100
AcDbEntity
  8
7_ALL_FEATURES
100
AcDbLine
 62
7
  6
CONTINUOUS
 10
185.44730346
 20
207.3852385961
 11
185.44730346
 21
209.3852385961
  0
LINE
  5
34F
100
AcDbEntity
  8
7_ALL_FEATURES
100
AcDbLine
 62
7
  6
CONTINUOUS
 10
185.44730346
 20
211.3852385961
 11
185.44730346
 21
213.3852385961
  0
LINE
  5
350
100
AcDbEntity
  8
7_ALL_FEATURES
100
AcDbLine
 62
7
  6
CONTINUOUS
 10
185.44730346
 20
215.3852385961
 11
185.44730346
 21
217.3852385961
  0
LINE
  5
351
100
AcDbEntity
  8
7_ALL_FEATURES
100
AcDbLine
 62
7
  6
CONTINUOUS
 10
185.44730346
 20
219.3852385961
 11
185.44730346
 21
221.3852385961
  0
LINE
  5
352
100
AcDbEntity
  8
3_ALL_AXES
100
AcDbLine
 62
7
  6
CONTINUOUS
 10
217.8342555132
 20
204.8852385961
 11
217.4472994203
 21
204.8852385961
  0
LINE
  5
353
100
AcDbEntity
  8
7_ALL_FEATURES
100
AcDbLine
 62
7
  6
CONTINUOUS
 10
184.9473143656
 20
204.8852385961
 11
195.69730346
 21
204.8852385961
  0
LINE
  5
354
100
AcDbEntity
  8
7_ALL_FEATURES
100
AcDbLine
 62
7
  6
CONTINUOUS
 10
206.69730346
 20
204.8852385961
 11
217.4472994203
 21
204.8852385961
  0
LINE
  5
355
100
AcDbEntity
  8
7_ALL_FEATURES
100
AcDbLine
 62
9
  6
CONTINUOUS
 10
195.69730346
 20
204.9773151215
 11
206.69730346
 21
204.9773151215
  0
LINE
  5
356
100
AcDbEntity
  8
7_ALL_FEATURES
100
AcDbLine
 62
7
  6
CONTINUOUS
 10
183.94730346
 20
205.885247759
 11
195.69730346
 21
205.8852385961
  0
LINE
  5
357
100
AcDbEntity
  8
7_ALL_FEATURES
100
AcDbLine
 62
7
  6
CONTINUOUS
 10
206.69730346
 20
205.8852385961
 11
218.44730346
 21
205.8852410362
  0
LINE
  5
358
100
AcDbEntity
  8
7_ALL_FEATURES
100
AcDbLine
 62
7
  6
CONTINUOUS
 10
183.9473034599
 20
207.3852385961
 11
195.69730346
 21
207.3852385961
  0
LINE
  5
359
100
AcDbEntity
  8
7_ALL_FEATURES
100
AcDbLine
 62
7
  6
CONTINUOUS
 10
206.69730346
 20
207.3852385961
 11
218.44730346
 21
207.3852385961
  0
LINE
  5
35A
100
AcDbEntity
  8
7_ALL_FEATURES
100
AcDbLine
 62
7
  6
CONTINUOUS
 10
183.9473034599
 20
209.3852385961
 11
195.69730346
 21
209.3852385961
  0
LINE
  5
35B
100
AcDbEntity
  8
7_ALL_FEATURES
100
AcDbLine
 62
7
  6
CONTINUOUS
 10
206.69730346
 20
209.3852385961
 11
218.44730346
 21
209.3852385961
  0
LINE
  5
35C
100
AcDbEntity
  8
7_ALL_FEATURES
100
AcDbLine
 62
7
  6
CONTINUOUS
 10
184.44730346
 20
221.3852385961
 11
183.94730346
 21
221.8852385961
  0
LINE
  5
35D
100
AcDbEntity
  8
7_ALL_FEATURES
100
AcDbLine
 62
7
  6
CONTINUOUS
 10
183.9473034601
 20
211.3852385961
 11
195.69730346
 21
211.3852385961
  0
LINE
  5
35E
100
AcDbEntity
  8
7_ALL_FEATURES
100
AcDbLine
 62
7
  6
CONTINUOUS
 10
206.69730346
 20
211.3852385961
 11
218.4473034598
 21
211.3852385961
  0
LINE
  5
35F
100
AcDbEntity
  8
7_ALL_FEATURES
100
AcDbLine
 62
7
  6
CONTINUOUS
 10
195.4093850086
 20
205.8852385961
 11
195.4093850086
 21
207.3852385961
  0
LINE
  5
360
100
AcDbEntity
  8
7_ALL_FEATURES
100
AcDbLine
 62
7
  6
CONTINUOUS
 10
195.4093850086
 20
209.3852385961
 11
195.4093850086
 21
211.3852385961
  0
LINE
  5
361
100
AcDbEntity
  8
7_ALL_FEATURES
100
AcDbLine
 62
7
  6
CONTINUOUS
 10
195.4093850086
 20
213.3852385961
 11
195.4093850086
 21
215.3852385961
  0
LINE
  5
362
100
AcDbEntity
  8
7_ALL_FEATURES
100
AcDbLine
 62
7
  6
CONTINUOUS
 10
195.4093850086
 20
217.3852385961
 11
195.4093850086
 21
219.3852385961
  0
LINE
  5
363
100
AcDbEntity
  8
7_ALL_FEATURES
100
AcDbLine
 62
3
  6
CONTINUOUS
 10
195.69730346
 20
218.684211535
 11
195.69730346
 21
204.3852385961
  0
LINE
  5
364
100
AcDbEntity
  8
7_ALL_FEATURES
100
AcDbLine
 62
7
  6
CONTINUOUS
 10
183.9473034601
 20
213.3852385961
 11
195.69730346
 21
213.3852385961
  0
LINE
  5
365
100
AcDbEntity
  8
7_ALL_FEATURES
100
AcDbLine
 62
7
  6
CONTINUOUS
 10
206.69730346
 20
213.3852385961
 11
218.4473034598
 21
213.3852385961
  0
LINE
  5
366
100
AcDbEntity
  8
7_ALL_FEATURES
100
AcDbLine
 62
9
  6
CONTINUOUS
 10
195.69730346
 20
213.8766656289
 11
206.69730346
 21
213.8766656289
  0
LINE
  5
367
100
AcDbEntity
  8
7_ALL_FEATURES
100
AcDbLine
 62
7
  6
CONTINUOUS
 10
183.9473034601
 20
215.3852385961
 11
195.69730346
 21
215.3852385961
  0
LINE
  5
368
100
AcDbEntity
  8
7_ALL_FEATURES
100
AcDbLine
 62
7
  6
CONTINUOUS
 10
206.69730346
 20
215.3852385961
 11
218.4473034598
 21
215.3852385961
  0
LINE
  5
369
100
AcDbEntity
  8
3_ALL_AXES
100
AcDbLine
 62
7
  6
CONTINUOUS
 10
197.39730346
 20
204.3852385961
 11
197.39730346
 21
204.0052385961
  0
LINE
  5
36A
100
AcDbEntity
  8
7_ALL_FEATURES
100
AcDbLine
 62
7
  6
CONTINUOUS
 10
183.9473034601
 20
217.3852385961
 11
195.69730346
 21
217.3852385961
  0
LINE
  5
36B
100
AcDbEntity
  8
7_ALL_FEATURES
100
AcDbLine
 62
7
  6
CONTINUOUS
 10
206.69730346
 20
217.3852385961
 11
218.4473034598
 21
217.3852385961
  0
LINE
  5
36C
100
AcDbEntity
  8
7_ALL_FEATURES
100
AcDbLine
 62
7
  6
CONTINUOUS
 10
218.44730346
 20
239.8852385961
 11
218.94730346
 21
240.3852385961
  0
LINE
  5
36D
100
AcDbEntity
  8
7_ALL_FEATURES
100
AcDbLine
 62
3
  6
CONTINUOUS
 10
197.69730346
 20
220.1267921322
 11
196.2968399731
 21
219.1365149038
  0
LINE
  5
36E
100
AcDbEntity
  8
7_ALL_FEATURES
100
AcDbLine
 62
9
  6
CONTINUOUS
 10
196.2968399731
 20
219.1365149038
 11
206.0977669468
 21
219.1365149038
  0
LINE
  5
36F
100
AcDbEntity
  8
7_ALL_FEATURES
100
AcDbLine
 62
7
  6
CONTINUOUS
 10
183.9473034601
 20
219.3852385961
 11
196.648588392
 21
219.3852385961
  0
LINE
  5
370
100
AcDbEntity
  8
7_ALL_FEATURES
100
AcDbLine
 62
7
  6
CONTINUOUS
 10
205.7460185279
 20
219.3852385961
 11
218.4473034598
 21
219.3852385961
  0
LINE
  5
371
100
AcDbEntity
  8
7_ALL_FEATURES
100
AcDbLine
 62
3
  6
CONTINUOUS
 10
204.69730346
 20
220.1267921322
 11
197.69730346
 21
220.1267921322
  0
LINE
  5
372
100
AcDbEntity
  8
7_ALL_FEATURES
100
AcDbLine
 62
7
  6
CONTINUOUS
 10
177.94730346
 20
240.8852385961
 11
177.44730346
 21
241.3852385961
  0
LINE
  5
373
100
AcDbEntity
  8
7_ALL_FEATURES
100
AcDbLine
 62
7
  6
CONTINUOUS
 10
179.99730346
 20
240.3852385961
 11
179.69730346
 21
240.6852385961
  0
LINE
  5
374
100
AcDbEntity
  8
3_ALL_AXES
100
AcDbLine
 62
7
  6
CONTINUOUS
 10
202.3794422926
 20
202.1852385961
 11
202.3794422926
 21
201.3852385961
  0
LINE
  5
375
100
AcDbEntity
  8
3_ALL_AXES
100
AcDbLine
 62
7
  6
CONTINUOUS
 10
202.3794422926
 20
198.3852385961
 11
202.3794422926
 21
193.8852385961
  0
LINE
  5
376
100
AcDbEntity
  8
3_ALL_AXES
100
AcDbLine
 62
7
  6
CONTINUOUS
 10
203.1068489029
 20
192.3852385961
 11
203.1068489029
 21
192.8852385961
  0
LINE
  5
377
100
AcDbEntity
  8
3_ALL_AXES
100
AcDbLine
 62
7
  6
CONTINUOUS
 10
204.1068489029
 20
198.3852385961
 11
204.1068489029
 21
201.3852385961
  0
LINE
  5
378
100
AcDbEntity
  8
7_ALL_FEATURES
100
AcDbLine
 62
7
  6
CONTINUOUS
 10
222.39730346
 20
240.3852385961
 11
222.69730346
 21
240.6852385961
  0
LINE
  5
379
100
AcDbEntity
  8
7_ALL_FEATURES
100
AcDbLine
 62
7
  6
CONTINUOUS
 10
224.44730346
 20
240.8852385961
 11
224.94730346
 21
241.3852385961
  0
LINE
  5
37A
100
AcDbEntity
  8
7_ALL_FEATURES
100
AcDbLine
 62
7
  6
CONTINUOUS
 10
217.9473034598
 20
221.3852385961
 11
184.4473034601
 21
221.3852385961
  0
LINE
  5
37B
100
AcDbEntity
  8
7_ALL_FEATURES
100
AcDbLine
 62
7
  6
CONTINUOUS
 10
218.44730346
 20
221.8852385961
 11
183.94730346
 21
221.8852385961
  0
LINE
  5
37C
100
AcDbEntity
  8
7_ALL_FEATURES
100
AcDbLine
 62
3
  6
CONTINUOUS
 10
206.0977669468
 20
219.1365149038
 11
204.69730346
 21
220.1267921322
  0
LINE
  5
37D
100
AcDbEntity
  8
7_ALL_FEATURES
100
AcDbLine
 62
7
  6
CONTINUOUS
 10
183.94730346
 20
239.8852385961
 11
183.44730346
 21
240.3852385961
  0
LINE
  5
37E
100
AcDbEntity
  8
3_ALL_AXES
100
AcDbLine
 62
7
  6
CONTINUOUS
 10
204.5007626362
 20
192.3852385961
 11
204.5007626362
 21
192.8852385961
  0
LINE
  5
37F
100
AcDbEntity
  8
3_ALL_AXES
100
AcDbLine
 62
7
  6
CONTINUOUS
 10
204.99730346
 20
204.3852385961
 11
204.99730346
 21
204.0052385961
  0
LINE
  5
380
100
AcDbEntity
  8
3_ALL_AXES
100
AcDbLine
 62
7
  6
CONTINUOUS
 10
205.9149761985
 20
192.3852385961
 11
205.9149761985
 21
192.8852385961
  0
LINE
  5
381
100
AcDbEntity
  8
7_ALL_FEATURES
100
AcDbLine
 62
3
  6
CONTINUOUS
 10
206.69730346
 20
204.3852385961
 11
206.69730346
 21
218.684211535
  0
LINE
  5
382
100
AcDbEntity
  8
7_ALL_FEATURES
100
AcDbLine
 62
7
  6
CONTINUOUS
 10
206.9852219114
 20
205.8852385961
 11
206.9852219114
 21
207.3852385961
  0
LINE
  5
383
100
AcDbEntity
  8
7_ALL_FEATURES
100
AcDbLine
 62
7
  6
CONTINUOUS
 10
206.9852219114
 20
209.3852385961
 11
206.9852219114
 21
211.3852385961
  0
LINE
  5
384
100
AcDbEntity
  8
7_ALL_FEATURES
100
AcDbLine
 62
7
  6
CONTINUOUS
 10
206.9852219114
 20
213.3852385961
 11
206.9852219114
 21
215.3852385961
  0
LINE
  5
385
100
AcDbEntity
  8
7_ALL_FEATURES
100
AcDbLine
 62
7
  6
CONTINUOUS
 10
206.9852219114
 20
217.3852385961
 11
206.9852219114
 21
219.3852385961
  0
LINE
  5
386
100
AcDbEntity
  8
3_ALL_AXES
100
AcDbLine
 62
7
  6
CONTINUOUS
 10
208.0362965421
 20
204.8852385961
 11
208.0362965421
 21
201.3852385961
  0
LINE
  5
387
100
AcDbEntity
  8
3_ALL_AXES
100
AcDbLine
 62
7
  6
CONTINUOUS
 10
208.0362965421
 20
198.3852385961
 11
208.0362965421
 21
193.8852385961
  0
LINE
  5
388
100
AcDbEntity
  8
3_ALL_AXES
100
AcDbLine
 62
7
  6
CONTINUOUS
 10
210.934074021
 20
192.3852385961
 11
210.934074021
 21
192.8852385961
  0
LINE
  5
389
100
AcDbEntity
  8
7_ALL_FEATURES
100
AcDbLine
 62
7
  6
CONTINUOUS
 10
212.4621573515
 20
241.3852385961
 11
212.4621573515
 21
249.8852385961
  0
LINE
  5
38A
100
AcDbEntity
  8
7_ALL_FEATURES
100
AcDbLine
 62
7
  6
CONTINUOUS
 10
217.94730346
 20
221.3852385961
 11
218.44730346
 21
221.8852385961
  0
LINE
  5
38B
100
AcDbEntity
  8
3_ALL_AXES
100
AcDbLine
 62
7
  6
CONTINUOUS
 10
212.8659256735
 20
192.3852385961
 11
212.8659256735
 21
192.8852385961
  0
LINE
  5
38C
100
AcDbEntity
  8
3_ALL_AXES
100
AcDbLine
 62
7
  6
CONTINUOUS
 10
215.7637031524
 20
204.8852385961
 11
215.7637031524
 21
201.3852385961
  0
LINE
  5
38D
100
AcDbEntity
  8
3_ALL_AXES
100
AcDbLine
 62
7
  6
CONTINUOUS
 10
215.7637031524
 20
198.3852385961
 11
215.7637031524
 21
193.8852385961
  0
LINE
  5
38E
100
AcDbEntity
  8
3_ALL_AXES
100
AcDbLine
 62
7
  6
CONTINUOUS
 10
216.1068489029
 20
198.3852385961
 11
216.1068489029
 21
201.3852385961
  0
LINE
  5
38F
100
AcDbEntity
  8
3_ALL_AXES
100
AcDbLine
 62
7
  6
CONTINUOUS
 10
216.5401602877
 20
192.3852385961
 11
216.5401602877
 21
192.8852385961
  0
LINE
  5
390
100
AcDbEntity
  8
7_ALL_FEATURES
100
AcDbLine
 62
7
  6
CONTINUOUS
 10
216.94730346
 20
207.3852385961
 11
216.94730346
 21
209.3852385961
  0
LINE
  5
391
100
AcDbEntity
  8
7_ALL_FEATURES
100
AcDbLine
 62
7
  6
CONTINUOUS
 10
216.94730346
 20
211.3852385961
 11
216.94730346
 21
213.3852385961
  0
LINE
  5
392
100
AcDbEntity
  8
7_ALL_FEATURES
100
AcDbLine
 62
7
  6
CONTINUOUS
 10
216.94730346
 20
215.3852385961
 11
216.94730346
 21
217.3852385961
  0
LINE
  5
393
100
AcDbEntity
  8
7_ALL_FEATURES
100
AcDbLine
 62
7
  6
CONTINUOUS
 10
216.94730346
 20
219.3852385961
 11
216.94730346
 21
221.3852385961
  0
LINE
  5
394
100
AcDbEntity
  8
3_ALL_AXES
100
AcDbLine
 62
7
  6
CONTINUOUS
 10
217.0577983779
 20
192.3852385961
 11
217.0577983779
 21
192.8852385961
  0
LINE
  5
395
100
AcDbEntity
  8
3_ALL_AXES
100
AcDbLine
 62
7
  6
CONTINUOUS
 10
217.1068489029
 20
192.3852385961
 11
217.1068489029
 21
192.8852385961
  0
LINE
  5
396
100
AcDbEntity
  8
3_ALL_AXES
100
AcDbLine
 62
7
  6
CONTINUOUS
 10
217.8342555132
 20
204.8852385961
 11
217.8342555132
 21
201.3852385961
  0
LINE
  5
397
100
AcDbEntity
  8
3_ALL_AXES
100
AcDbLine
 62
7
  6
CONTINUOUS
 10
217.8342555132
 20
198.3852385961
 11
217.8342555132
 21
193.8852385961
  0
LINE
  5
398
100
AcDbEntity
  8
7_ALL_FEATURES
100
AcDbLine
 62
7
  6
CONTINUOUS
 10
218.44730346
 20
205.8852410362
 11
218.44730346
 21
207.3852385961
  0
LINE
  5
399
100
AcDbEntity
  8
7_ALL_FEATURES
100
AcDbLine
 62
7
  6
CONTINUOUS
 10
218.44730346
 20
209.3852385961
 11
218.44730346
 21
211.3852385961
  0
LINE
  5
39A
100
AcDbEntity
  8
7_ALL_FEATURES
100
AcDbLine
 62
7
  6
CONTINUOUS
 10
218.44730346
 20
213.3852385961
 11
218.44730346
 21
215.3852385961
  0
LINE
  5
39B
100
AcDbEntity
  8
7_ALL_FEATURES
100
AcDbLine
 62
7
  6
CONTINUOUS
 10
218.44730346
 20
217.3852385961
 11
218.44730346
 21
219.3852385961
  0
LINE
  5
39C
100
AcDbEntity
  8
7_ALL_FEATURES
100
AcDbLine
 62
7
  6
CONTINUOUS
 10
218.44730346
 20
221.8852385961
 11
218.44730346
 21
239.8852385961
  0
LINE
  5
39D
100
AcDbEntity
  8
7_ALL_FEATURES
100
AcDbLine
 62
7
  6
CONTINUOUS
 10
183.94730346
 20
239.8852385961
 11
218.44730346
 21
239.8852385961
  0
LINE
  5
39E
100
AcDbEntity
  8
7_ALL_FEATURES
100
AcDbLine
 62
7
  6
CONTINUOUS
 10
222.3970973619
 20
240.3852385961
 11
179.9975095581
 21
240.3852385961
  0
LINE
  5
39F
100
AcDbEntity
  8
7_ALL_FEATURES
100
AcDbLine
 62
7
  6
CONTINUOUS
 10
222.69730346
 20
240.6852385961
 11
179.69730346
 21
240.6852385961
  0
LINE
  5
3A0
100
AcDbEntity
  8
7_ALL_FEATURES
100
AcDbLine
 62
7
  6
CONTINUOUS
 10
222.1058081124
 20
241.3852385961
 11
222.1058081124
 21
249.8852385961
  0
LINE
  5
3A1
100
AcDbEntity
  8
7_ALL_FEATURES
100
AcDbLine
 62
7
  6
CONTINUOUS
 10
222.69730346
 20
240.6852385961
 11
222.69730346
 21
240.8852385961
  0
LINE
  5
3A2
100
AcDbEntity
  8
7_ALL_FEATURES
100
AcDbLine
 62
7
  6
CONTINUOUS
 10
224.4470855928
 20
240.8852385961
 11
177.9475213271
 21
240.8852385961
  0
LINE
  5
3A3
100
AcDbEntity
  8
7_ALL_FEATURES
100
AcDbLine
 62
7
  6
CONTINUOUS
 10
177.44730346
 20
241.3852385961
 11
224.94730346
 21
241.3852385961
  0
LINE
  5
3A4
100
AcDbEntity
  8
02___PRT_ALL_AXES
100
AcDbLine
 62
7
  6
CONTINUOUS
 10
224.94730346
 20
241.3852385961
 11
224.94730346
 21
250.8852385961
  0
LINE
  5
3A5
100
AcDbEntity
  8
7_ALL_FEATURES
100
AcDbLine
 62
7
  6
CONTINUOUS
 10
217.4472994205
 20
204.8852385961
 11
218.44730346
 21
205.8852410362
  0
LINE
  5
3A6
100
AcDbEntity
  8
02___PRT_ALL_AXES
100
AcDbLine
 62
7
  6
CONTINUOUS
 10
228.19730346
 20
250.8852385961
 11
228.19730346
 21
251.3852385961
  0
LINE
  5
3A7
100
AcDbEntity
  8
3_ALL_AXES
100
AcDbLine
 62
7
  6
CONTINUOUS
 10
217.1068489029
 20
192.8852385961
 11
217.2856832949
 21
193.0640729881
  0
LINE
  5
3A8
100
AcDbEntity
  8
7_ALL_FEATURES
100
AcDbLine
 62
7
  6
CONTINUOUS
 10
222.1058081124
 20
249.8852385961
 11
212.4621573515
 21
249.8852385961
  0
LINE
  5
3A9
100
AcDbEntity
  8
02___PRT_ALL_AXES
100
AcDbLine
 62
7
  6
CONTINUOUS
 10
174.1973495545
 20
250.8852385961
 11
228.1972573654
 21
250.8852385961
  0
LINE
  5
3AA
100
AcDbEntity
  8
7_ALL_FEATURES
100
AcDbLine
 62
7
  6
CONTINUOUS
 10
174.19730346
 20
251.3852385961
 11
228.19730346
 21
251.3852385961
  0
LINE
  5
3AB
100
AcDbEntity
  8
7_ALL_FEATURES
100
AcDbLine
 62
7
  6
CONTINUOUS
 10
182.7042261894
 20
252.8852385961
 11
219.6903807305
 21
252.8852385961
  0
LINE
  5
3AC
100
AcDbEntity
  8
7_ALL_FEATURES
100
AcDbLine
 62
7
  6
CONTINUOUS
 10
174.19730346
 20
251.3852385961
 11
182.7042261894
 21
252.8852385961
  0
LINE
  5
3AD
100
AcDbEntity
  8
7_ALL_FEATURES
100
AcDbLine
 62
7
  6
CONTINUOUS
 10
228.19730346
 20
251.3852385961
 11
219.6903807305
 21
252.8852385961
  0
LINE
  5
3AE
100
AcDbEntity
  8
7_ALL_FEATURES
100
AcDbLine
 62
7
  6
CONTINUOUS
 10
318.9534086852
 20
159.3007459604
 11
318.1864689798
 21
158.7233610755
  0
LINE
  5
3AF
100
AcDbEntity
  8
7_ALL_FEATURES
100
AcDbLine
 62
7
  6
CONTINUOUS
 10
317.9053516451
 20
158.4679276449
 11
318.1868820464
 21
158.7237585526
  0
LINE
  5
3B0
100
AcDbEntity
  8
3_ALL_AXES
100
AcDbLine
 62
7
  6
CONTINUOUS
 10
324.2305941371
 20
101.8675975134
 11
323.9491569003
 21
102.0797746941
  0
LINE
  5
3B1
100
AcDbEntity
  8
3_ALL_AXES
100
AcDbLine
 62
7
  6
CONTINUOUS
 10
323.8076565557
 20
102.2049468422
 11
324.2305941371
 21
101.8675975134
  0
LINE
  5
3B2
100
AcDbEntity
  8
02___PRT_ALL_AXES
100
AcDbLine
 62
7
  6
CONTINUOUS
 10
306.0328836407
 20
155.1227062653
 11
306.0297204147
 21
155.5975559576
  0
LINE
  5
3B3
100
AcDbEntity
  8
3_ALL_AXES
100
AcDbLine
 62
7
  6
CONTINUOUS
 10
326.964986653
 20
105.8040978656
 11
323.5068756205
 21
107.4110878047
  0
LINE
  5
3B4
100
AcDbEntity
  8
7_ALL_FEATURES
100
AcDbLine
 62
3
  6
CONTINUOUS
 10
316.0982609897
 20
111.3568862486
 11
319.6124654153
 21
108.1143394905
  0
LINE
  5
3B5
100
AcDbEntity
  8
7_ALL_FEATURES
100
AcDbLine
 62
9
  6
CONTINUOUS
 10
315.9228572569
 20
111.5797920022
 11
319.4370616825
 21
108.337245244
  0
LINE
  5
3B6
100
AcDbEntity
  8
02___PRT_ALL_AXES
100
AcDbLine
 62
7
  6
CONTINUOUS
 10
309.3429128272
 20
146.1222116078
 11
309.3094824543
 21
151.140633312
  0
LINE
  5
3B7
100
AcDbEntity
  8
3_ALL_AXES
100
AcDbLine
 62
7
  6
CONTINUOUS
 10
334.9487637588
 20
106.010720787
 11
326.964986653
 21
105.8040978656
  0
LINE
  5
3B8
100
AcDbEntity
  8
7_ALL_FEATURES
100
AcDbLine
 62
9
  6
CONTINUOUS
 10
319.606138812
 20
109.0505755635
 11
320.3622036548
 21
108.3529566125
  0
LINE
  5
3B9
100
AcDbEntity
  8
7_ALL_FEATURES
100
AcDbLine
 62
7
  6
CONTINUOUS
 10
319.3288735276
 20
109.5470883142
 11
319.7679783358
 21
109.1419275154
  0
LINE
  5
3BA
100
AcDbEntity
  8
7_ALL_FEATURES
100
AcDbLine
 62
7
  6
CONTINUOUS
 10
317.6978743594
 20
112.4677997379
 11
319.7584886576
 21
110.5664765923
  0
LINE
  5
3BB
100
AcDbEntity
  8
7_ALL_FEATURES
100
AcDbLine
 62
9
  6
CONTINUOUS
 10
311.4767206778
 20
119.5417101627
 11
314.9909251034
 21
116.2991634045
  0
LINE
  5
3BC
100
AcDbEntity
  8
7_ALL_FEATURES
100
AcDbLine
 62
7
  6
CONTINUOUS
 10
316.0476669104
 20
115.8781655817
 11
319.7458357534
 21
112.4658753615
  0
LINE
  5
3BD
100
AcDbEntity
  8
7_ALL_FEATURES
100
AcDbLine
 62
3
  6
CONTINUOUS
 10
311.4767206778
 20
119.5417101627
 11
315.9228572569
 21
111.5797920022
  0
LINE
  5
3BE
100
AcDbEntity
  8
7_ALL_FEATURES
100
AcDbLine
 62
3
  6
CONTINUOUS
 10
319.4370616825
 20
108.337245244
 11
314.9909251034
 21
116.2991634045
  0
LINE
  5
3BF
100
AcDbEntity
  8
7_ALL_FEATURES
100
AcDbLine
 62
3
  6
CONTINUOUS
 10
321.6636036335
 20
108.0229558138
 11
320.3653668809
 21
107.8781069202
  0
LINE
  5
3C0
100
AcDbEntity
  8
7_ALL_FEATURES
100
AcDbLine
 62
7
  6
CONTINUOUS
 10
320.6284386419
 20
108.3826613972
 11
320.3622036548
 21
108.3529566125
  0
LINE
  5
3C1
100
AcDbEntity
  8
7_ALL_FEATURES
100
AcDbLine
 62
7
  6
CONTINUOUS
 10
316.0350140061
 20
117.7775643508
 11
319.7331828492
 21
114.3652741306
  0
LINE
  5
3C2
100
AcDbEntity
  8
7_ALL_FEATURES
100
AcDbLine
 62
7
  6
CONTINUOUS
 10
316.0223611019
 20
119.67696312
 11
319.720529945
 21
116.2646728998
  0
LINE
  5
3C3
100
AcDbEntity
  8
7_ALL_FEATURES
100
AcDbLine
 62
7
  6
CONTINUOUS
 10
319.8558553648
 20
108.6033956982
 11
315.4097187857
 21
116.5653138587
  0
LINE
  5
3C4
100
AcDbEntity
  8
7_ALL_FEATURES
100
AcDbLine
 62
7
  6
CONTINUOUS
 10
315.9661344262
 20
127.6463726006
 11
315.8782670468
 21
140.8366401708
  0
LINE
  5
3C5
100
AcDbEntity
  8
7_ALL_FEATURES
100
AcDbLine
 62
7
  6
CONTINUOUS
 10
316.0476669104
 20
115.8781655817
 11
316.0350140061
 21
117.7775643508
  0
LINE
  5
3C6
100
AcDbEntity
  8
7_ALL_FEATURES
100
AcDbLine
 62
7
  6
CONTINUOUS
 10
316.0223611019
 20
119.67696312
 11
316.0097081977
 21
121.5763618892
  0
LINE
  5
3C7
100
AcDbEntity
  8
7_ALL_FEATURES
100
AcDbLine
 62
7
  6
CONTINUOUS
 10
315.9970552935
 20
123.4757606584
 11
315.9844023892
 21
125.3751594276
  0
LINE
  5
3C8
100
AcDbEntity
  8
7_ALL_FEATURES
100
AcDbLine
 62
7
  6
CONTINUOUS
 10
315.6934787978
 20
120.6072413436
 11
315.3528051106
 21
120.9086565102
  0
LINE
  5
3C9
100
AcDbEntity
  8
7_ALL_FEATURES
100
AcDbLine
 62
7
  6
CONTINUOUS
 10
316.3551796872
 20
122.7163556456
 11
316.0179248716
 21
123.0147459242
  0
LINE
  5
3CA
100
AcDbEntity
  8
7_ALL_FEATURES
100
AcDbLine
 62
7
  6
CONTINUOUS
 10
314.1188677801
 20
124.7797944917
 11
313.7816129644
 21
125.0781847703
  0
LINE
  5
3CB
100
AcDbEntity
  8
7_ALL_FEATURES
100
AcDbLine
 62
9
  6
CONTINUOUS
 10
312.4021062843
 20
124.4458471962
 11
315.5332390975
 21
121.5567595611
  0
LINE
  5
3CC
100
AcDbEntity
  8
7_ALL_FEATURES
100
AcDbLine
 62
7
  6
CONTINUOUS
 10
316.0097081977
 20
121.5763618892
 11
319.7078770407
 21
118.164071669
  0
LINE
  5
3CD
100
AcDbEntity
  8
7_ALL_FEATURES
100
AcDbLine
 62
3
  6
CONTINUOUS
 10
316.0179248716
 20
123.0147459242
 11
313.7816129644
 21
125.0781847703
  0
LINE
  5
3CE
100
AcDbEntity
  8
7_ALL_FEATURES
100
AcDbLine
 62
7
  6
CONTINUOUS
 10
316.3551796872
 20
122.7163556456
 11
314.1188677801
 21
124.7797944917
  0
LINE
  5
3CF
100
AcDbEntity
  8
7_ALL_FEATURES
100
AcDbLine
 62
7
  6
CONTINUOUS
 10
315.9970552935
 20
123.4757606584
 11
319.6952241365
 21
120.0634704382
  0
LINE
  5
3D0
100
AcDbEntity
  8
7_ALL_FEATURES
100
AcDbLine
 62
7
  6
CONTINUOUS
 10
316.878844096
 20
140.7492643881
 11
316.827586039
 21
148.4439002323
  0
LINE
  5
3D1
100
AcDbEntity
  8
02___PRT_ALL_AXES
100
AcDbLine
 62
7
  6
CONTINUOUS
 10
317.0256452975
 20
156.2459327714
 11
317.0218846123
 21
156.8104704369
  0
LINE
  5
3D2
100
AcDbEntity
  8
7_ALL_FEATURES
100
AcDbLine
 62
7
  6
CONTINUOUS
 10
317.557834701
 20
113.8857235992
 11
317.5538196697
 21
114.4884425731
  0
LINE
  5
3D3
100
AcDbEntity
  8
7_ALL_FEATURES
100
AcDbLine
 62
7
  6
CONTINUOUS
 10
317.5325288925
 20
117.6845211375
 11
317.5285138612
 21
118.2872401114
  0
LINE
  5
3D4
100
AcDbEntity
  8
7_ALL_FEATURES
100
AcDbLine
 62
7
  6
CONTINUOUS
 10
317.5072230841
 20
121.4833186759
 11
317.5032080528
 21
122.0860376498
  0
LINE
  5
3D5
100
AcDbEntity
  8
7_ALL_FEATURES
100
AcDbLine
 62
7
  6
CONTINUOUS
 10
317.4819172756
 20
125.2821162143
 11
317.4810879618
 21
125.4066091773
  0
LINE
  5
3D6
100
AcDbEntity
  8
7_ALL_FEATURES
100
AcDbLine
 62
7
  6
CONTINUOUS
 10
317.4172005202
 20
125.4521787579
 11
316.942344327
 21
125.8722746288
  0
LINE
  5
3D7
100
AcDbEntity
  8
7_ALL_FEATURES
100
AcDbLine
 62
7
  6
CONTINUOUS
 10
315.9844023892
 20
125.3751594276
 11
319.6825712323
 21
121.9628692074
  0
LINE
  5
3D8
100
AcDbEntity
  8
7_ALL_FEATURES
100
AcDbLine
 62
7
  6
CONTINUOUS
 10
319.7679783358
 20
109.1419275154
 11
319.7584886576
 21
110.5664765923
  0
LINE
  5
3D9
100
AcDbEntity
  8
7_ALL_FEATURES
100
AcDbLine
 62
7
  6
CONTINUOUS
 10
319.7458357534
 20
112.4658753615
 11
319.7331828492
 21
114.3652741306
  0
LINE
  5
3DA
100
AcDbEntity
  8
7_ALL_FEATURES
100
AcDbLine
 62
7
  6
CONTINUOUS
 10
319.720529945
 20
116.2646728998
 11
319.7078770407
 21
118.164071669
  0
LINE
  5
3DB
100
AcDbEntity
  8
7_ALL_FEATURES
100
AcDbLine
 62
7
  6
CONTINUOUS
 10
319.6952241365
 20
120.0634704382
 11
319.6825712323
 21
121.9628692074
  0
LINE
  5
3DC
100
AcDbEntity
  8
7_ALL_FEATURES
100
AcDbLine
 62
9
  6
CONTINUOUS
 10
320.3653668809
 20
107.8781069202
 11
320.3622036548
 21
108.3529566125
  0
LINE
  5
3DD
100
AcDbEntity
  8
7_ALL_FEATURES
100
AcDbLine
 62
3
  6
CONTINUOUS
 10
315.5332390975
 20
121.5567595611
 11
316.0179248716
 21
123.0147459242
  0
LINE
  5
3DE
100
AcDbEntity
  8
7_ALL_FEATURES
100
AcDbLine
 62
7
  6
CONTINUOUS
 10
316.3551796872
 20
122.7163556456
 11
315.8704939131
 21
121.2583692825
  0
LINE
  5
3DF
100
AcDbEntity
  8
7_ALL_FEATURES
100
AcDbLine
 62
9
  6
CONTINUOUS
 10
350.7225804715
 20
111.8278818904
 11
350.3810881447
 21
111.9674635986
  0
LINE
  5
3E0
100
AcDbEntity
  8
3_ALL_AXES
100
AcDbLine
 62
7
  6
CONTINUOUS
 10
322.5387122777
 20
107.1985757087
 11
322.5627548834
 21
103.5894046559
  0
LINE
  5
3E1
100
AcDbEntity
  8
3_ALL_AXES
100
AcDbLine
 62
7
  6
CONTINUOUS
 10
323.5561769782
 20
102.3248488165
 11
323.5553636924
 21
102.4469357306
  0
LINE
  5
3E2
100
AcDbEntity
  8
3_ALL_AXES
100
AcDbLine
 62
7
  6
CONTINUOUS
 10
324.2337573631
 20
101.3927478211
 11
324.2305941371
 21
101.8675975134
  0
LINE
  5
3E3
100
AcDbEntity
  8
7_ALL_FEATURES
100
AcDbLine
 62
7
  6
CONTINUOUS
 10
348.5613835406
 20
155.6078828634
 11
347.7578080035
 21
155.0029184522
  0
LINE
  5
3E4
100
AcDbEntity
  8
3_ALL_AXES
100
AcDbLine
 62
7
  6
CONTINUOUS
 10
325.3414325642
 20
100.8780093159
 11
325.3382693381
 21
101.3528590082
  0
LINE
  5
3E5
100
AcDbEntity
  8
3_ALL_AXES
100
AcDbLine
 62
7
  6
CONTINUOUS
 10
326.964986653
 20
105.8040978656
 11
326.9934556876
 21
101.5304506349
  0
LINE
  5
3E6
100
AcDbEntity
  8
7_ALL_FEATURES
100
AcDbLine
 62
7
  6
CONTINUOUS
 10
329.0978061979
 20
138.9261056801
 11
329.0445144882
 21
146.926024584
  0
LINE
  5
3E7
100
AcDbEntity
  8
3_ALL_AXES
100
AcDbLine
 62
7
  6
CONTINUOUS
 10
329.9968617804
 20
100.1833851535
 11
329.9936985543
 21
100.6582348458
  0
LINE
  5
3E8
100
AcDbEntity
  8
7_ALL_FEATURES
100
AcDbLine
 62
3
  6
CONTINUOUS
 10
313.7816129644
 20
125.0781847703
 11
312.4021062843
 21
124.4458471962
  0
LINE
  5
3E9
100
AcDbEntity
  8
7_ALL_FEATURES
100
AcDbLine
 62
7
  6
CONTINUOUS
 10
311.1618261302
 20
143.2595170801
 11
310.6869699369
 21
143.6796129511
  0
LINE
  5
3EA
100
AcDbEntity
  8
3_ALL_AXES
100
AcDbLine
 62
7
  6
CONTINUOUS
 10
331.9928060569
 20
100.2350408839
 11
331.9896428308
 21
100.7098905762
  0
LINE
  5
3EB
100
AcDbEntity
  8
7_ALL_FEATURES
100
AcDbLine
 62
9
  6
CONTINUOUS
 10
355.0561144209
 20
120.7693791302
 11
354.6343995081
 21
120.9417510498
  0
LINE
  5
3EC
100
AcDbEntity
  8
7_ALL_FEATURES
100
AcDbLine
 62
7
  6
CONTINUOUS
 10
350.5546506886
 20
114.002513964
 11
349.9102721739
 21
114.5970802473
  0
LINE
  5
3ED
100
AcDbEntity
  8
3_ALL_AXES
100
AcDbLine
 62
7
  6
CONTINUOUS
 10
334.9487637588
 20
106.010720787
 11
334.9772327934
 21
101.7370735564
  0
LINE
  5
3EE
100
AcDbEntity
  8
3_ALL_AXES
100
AcDbLine
 62
7
  6
CONTINUOUS
 10
336.3191260846
 20
101.1621158329
 11
336.3159628586
 21
101.6369655252
  0
LINE
  5
3EF
100
AcDbEntity
  8
7_ALL_FEATURES
100
AcDbLine
 62
9
  6
CONTINUOUS
 10
314.9909251034
 20
116.2991634045
 11
315.4097187857
 21
116.5653138587
  0
LINE
  5
3F0
100
AcDbEntity
  8
7_ALL_FEATURES
100
AcDbLine
 62
7
  6
CONTINUOUS
 10
350.5293448802
 20
117.8013115024
 11
349.8849605398
 21
118.3958831609
  0
LINE
  5
3F1
100
AcDbEntity
  8
3_ALL_AXES
100
AcDbLine
 62
7
  6
CONTINUOUS
 10
337.20739516
 20
101.7285100685
 11
337.204231934
 21
102.2033597608
  0
LINE
  5
3F2
100
AcDbEntity
  8
3_ALL_AXES
100
AcDbLine
 62
7
  6
CONTINUOUS
 10
337.5558663565
 20
102.4181081845
 11
337.5547957822
 21
102.5788181268
  0
LINE
  5
3F3
100
AcDbEntity
  8
3_ALL_AXES
100
AcDbLine
 62
7
  6
CONTINUOUS
 10
338.511501301
 20
106.8259944554
 11
338.530309095
 21
104.0026504989
  0
LINE
  5
3F4
100
AcDbEntity
  8
7_ALL_FEATURES
100
AcDbLine
 62
7
  6
CONTINUOUS
 10
355.0612452199
 20
143.5519544315
 11
355.5304625555
 21
143.9783392778
  0
LINE
  5
3F5
100
AcDbEntity
  8
7_ALL_FEATURES
100
AcDbLine
 62
7
  6
CONTINUOUS
 10
350.5040390717
 20
121.6001090407
 11
349.8596547314
 21
122.1946806993
  0
LINE
  5
3F6
100
AcDbEntity
  8
7_ALL_FEATURES
100
AcDbLine
 62
7
  6
CONTINUOUS
 10
329.2569863086
 20
138.6027097482
 11
317.1701249752
 21
140.4061580532
  0
LINE
  5
3F7
100
AcDbEntity
  8
7_ALL_FEATURES
100
AcDbLine
 62
7
  6
CONTINUOUS
 10
329.0978061979
 20
138.9261056801
 11
316.878844096
 21
140.7492643881
  0
LINE
  5
3F8
100
AcDbEntity
  8
7_ALL_FEATURES
100
AcDbLine
 62
9
  6
CONTINUOUS
 10
354.6343995081
 20
120.9417510498
 11
351.1201950825
 21
124.184297808
  0
LINE
  5
3F9
100
AcDbEntity
  8
7_ALL_FEATURES
100
AcDbLine
 62
7
  6
CONTINUOUS
 10
350.4787332633
 20
125.3989065791
 11
349.6198132745
 21
126.1914296904
  0
LINE
  5
3FA
100
AcDbEntity
  8
7_ALL_FEATURES
100
AcDbLine
 62
3
  6
CONTINUOUS
 10
350.933043632
 20
128.7448809706
 11
350.4568840082
 21
129.1499151291
  0
LINE
  5
3FB
100
AcDbEntity
  8
7_ALL_FEATURES
100
AcDbLine
 62
3
  6
CONTINUOUS
 10
350.9625572873
 20
128.7187432241
 11
350.933043632
 21
128.7448809706
  0
LINE
  5
3FC
100
AcDbEntity
  8
7_ALL_FEATURES
100
AcDbLine
 62
7
  6
CONTINUOUS
 10
353.7313951068
 20
125.4826447392
 11
352.3393585438
 21
126.7312385137
  0
LINE
  5
3FD
100
AcDbEntity
  8
7_ALL_FEATURES
100
AcDbLine
 62
3
  6
CONTINUOUS
 10
352.6721398822
 20
127.10438711
 11
354.0641764453
 21
125.8557933356
  0
LINE
  5
3FE
100
AcDbEntity
  8
7_ALL_FEATURES
100
AcDbLine
 62
3
  6
CONTINUOUS
 10
354.0641764453
 20
125.8557933356
 11
354.1477471794
 21
125.779777271
  0
LINE
  5
3FF
100
AcDbEntity
  8
7_ALL_FEATURES
100
AcDbLine
 62
7
  6
CONTINUOUS
 10
353.805920932
 20
125.4148089772
 11
353.7313951068
 21
125.4826447392
  0
LINE
  5
400
100
AcDbEntity
  8
7_ALL_FEATURES
100
AcDbLine
 62
7
  6
CONTINUOUS
 10
350.4614534103
 20
128.4639764154
 11
352.3393585438
 21
126.7312385137
  0
LINE
  5
401
100
AcDbEntity
  8
7_ALL_FEATURES
100
AcDbLine
 62
3
  6
CONTINUOUS
 10
350.4568941797
 20
129.148388227
 11
352.6721398822
 21
127.10438711
  0
LINE
  5
402
100
AcDbEntity
  8
7_ALL_FEATURES
100
AcDbLine
 62
9
  6
CONTINUOUS
 10
354.0641764453
 20
125.8557933356
 11
350.933043632
 21
128.7448809706
  0
LINE
  5
403
100
AcDbEntity
  8
7_ALL_FEATURES
100
AcDbLine
 62
3
  6
CONTINUOUS
 10
354.0647160803
 20
125.8563781808
 11
350.962577217
 21
128.718713178
  0
LINE
  5
404
100
AcDbEntity
  8
7_ALL_FEATURES
100
AcDbLine
 62
9
  6
CONTINUOUS
 10
319.4370616825
 20
108.337245244
 11
319.8558553648
 21
108.6033956982
  0
LINE
  5
405
100
AcDbEntity
  8
7_ALL_FEATURES
100
AcDbLine
 62
7
  6
CONTINUOUS
 10
348.9812183769
 20
125.4919497924
 11
348.9803963056
 21
125.6153555485
  0
LINE
  5
406
100
AcDbEntity
  8
02___PRT_ALL_AXES
100
AcDbLine
 62
7
  6
CONTINUOUS
 10
349.0253899483
 20
156.3908480034
 11
349.0211746199
 21
157.0236347067
  0
LINE
  5
407
100
AcDbEntity
  8
7_ALL_FEATURES
100
AcDbLine
 62
7
  6
CONTINUOUS
 10
350.5641403668
 20
112.5779648871
 11
350.5546506886
 21
114.002513964
  0
LINE
  5
408
100
AcDbEntity
  8
7_ALL_FEATURES
100
AcDbLine
 62
7
  6
CONTINUOUS
 10
350.5419977844
 20
115.9019127332
 11
350.5293448802
 21
117.8013115024
  0
LINE
  5
409
100
AcDbEntity
  8
7_ALL_FEATURES
100
AcDbLine
 62
7
  6
CONTINUOUS
 10
350.5166919759
 20
119.7007102715
 11
350.5040390717
 21
121.6001090407
  0
LINE
  5
40A
100
AcDbEntity
  8
7_ALL_FEATURES
100
AcDbLine
 62
7
  6
CONTINUOUS
 10
350.4913861675
 20
123.4995078099
 11
350.4787332633
 21
125.3989065791
  0
LINE
  5
40B
100
AcDbEntity
  8
7_ALL_FEATURES
100
AcDbLine
 62
7
  6
CONTINUOUS
 10
350.4653689657
 20
127.876190329
 11
350.3776223133
 21
141.0483348919
  0
LINE
  5
40C
100
AcDbEntity
  8
7_ALL_FEATURES
100
AcDbLine
 62
7
  6
CONTINUOUS
 10
352.3393585438
 20
126.7312385137
 11
352.6721398822
 21
127.10438711
  0
LINE
  5
40D
100
AcDbEntity
  8
7_ALL_FEATURES
100
AcDbLine
 62
7
  6
CONTINUOUS
 10
349.0436637354
 20
125.6628594304
 11
349.512881071
 21
126.0892442767
  0
LINE
  5
40E
100
AcDbEntity
  8
7_ALL_FEATURES
100
AcDbLine
 62
7
  6
CONTINUOUS
 10
350.0643716702
 20
122.0057889428
 11
351.1201950825
 21
124.184297808
  0
LINE
  5
40F
100
AcDbEntity
  8
7_ALL_FEATURES
100
AcDbLine
 62
7
  6
CONTINUOUS
 10
354.297250135
 20
124.9144014654
 11
354.6334049958
 21
125.2913328013
  0
LINE
  5
410
100
AcDbEntity
  8
3_ALL_AXES
100
AcDbLine
 62
7
  6
CONTINUOUS
 10
335.8931224664
 20
106.612879911
 11
334.9487637588
 21
106.010720787
  0
LINE
  5
411
100
AcDbEntity
  8
02___PRT_ALL_AXES
100
AcDbLine
 62
7
  6
CONTINUOUS
 10
356.8418589323
 20
146.4386273209
 11
356.8084295654
 21
151.456898007
  0
LINE
  5
412
100
AcDbEntity
  8
7_ALL_FEATURES
100
AcDbLine
 62
7
  6
CONTINUOUS
 10
354.6343995081
 20
120.9417510498
 11
350.5776762126
 21
112.571404683
  0
LINE
  5
413
100
AcDbEntity
  8
7_ALL_FEATURES
100
AcDbLine
 62
3
  6
CONTINUOUS
 10
355.0561144209
 20
120.7693791302
 11
350.7225804715
 21
111.8278818904
  0
LINE
  5
414
100
AcDbEntity
  8
7_ALL_FEATURES
100
AcDbLine
 62
7
  6
CONTINUOUS
 10
348.6756391151
 20
110.0412807992
 11
349.61409726
 21
110.8940701579
  0
LINE
  5
415
100
AcDbEntity
  8
02___PRT_ALL_AXES
100
AcDbLine
 62
7
  6
CONTINUOUS
 10
360.0316855286
 20
155.4824209707
 11
360.0285223026
 21
155.957270663
  0
LINE
  5
416
100
AcDbEntity
  8
7_ALL_FEATURES
100
AcDbLine
 62
7
  6
CONTINUOUS
 10
348.115704567
 20
158.6691748544
 11
347.8307908511
 21
158.921232377
  0
CIRCLE
  5
417
100
AcDbEntity
  8
7_ALL_FEATURES
100
AcDbCircle
 62
7
  6
CONTINUOUS
 10
73.1965932327
 20
79.4612329143
 40
27.0
  0
CIRCLE
  5
418
100
AcDbEntity
  8
7_ALL_FEATURES
100
AcDbCircle
 62
7
  6
CONTINUOUS
 10
73.1965932327
 20
79.4612329143
 40
18.4930772706
  0
CIRCLE
  5
419
100
AcDbEntity
  8
7_ALL_FEATURES
100
AcDbCircle
 62
7
  6
CONTINUOUS
 10
73.1965932327
 20
79.4612329143
 40
16.45
  0
CIRCLE
  5
41A
100
AcDbEntity
  8
7_ALL_FEATURES
100
AcDbCircle
 62
7
  6
CONTINUOUS
 10
73.1965932327
 20
79.4612329143
 40
16.15
  0
CIRCLE
  5
41B
100
AcDbEntity
  8
7_ALL_FEATURES
100
AcDbCircle
 62
7
  6
CONTINUOUS
 10
73.1965932327
 20
79.4612329143
 40
16.0
  0
CIRCLE
  5
41C
100
AcDbEntity
  8
7_ALL_FEATURES
100
AcDbCircle
 62
7
  6
CONTINUOUS
 10
73.1965932327
 20
79.4612329143
 40
15.7
  0
ARC
  5
41D
100
AcDbEntity
  8
7_ALL_FEATURES
100
AcDbCircle
 62
3
  6
CONTINUOUS
 10
56.047217806
 20
215.9545343885
 40
4.5
100
AcDbArc
 50
135.0
 51
207.5
  0
ARC
  5
41E
100
AcDbEntity
  8
7_ALL_FEATURES
100
AcDbCircle
 62
3
  6
CONTINUOUS
 10
90.3459686594
 20
215.9545343885
 40
4.5
100
AcDbArc
 50
332.5
 51
45.0
  0
ARC
  5
41F
100
AcDbEntity
  8
3_ALL_AXES
100
AcDbCircle
 62
7
  6
CONTINUOUS
 10
61.0541504353
 20
205.8578786878
 40
4.1
100
AcDbArc
 50
206.8633031301
 51
243.6069742257
  0
ARC
  5
420
100
AcDbEntity
  8
3_ALL_AXES
100
AcDbCircle
 62
7
  6
CONTINUOUS
 10
61.33903603
 20
205.8578786878
 40
4.1
100
AcDbArc
 50
296.3930257743
 51
333.1366968699
  0
ARC
  5
421
100
AcDbEntity
  8
3_ALL_AXES
100
AcDbCircle
 62
7
  6
CONTINUOUS
 10
85.33903603
 20
205.8578786878
 40
4.1
100
AcDbArc
 50
296.3930257743
 51
333.1366968699
  0
ARC
  5
422
100
AcDbEntity
  8
3_ALL_AXES
100
AcDbCircle
 62
7
  6
CONTINUOUS
 10
85.0541504353
 20
205.8578786878
 40
4.1
100
AcDbArc
 50
206.8633031301
 51
243.6069742257
  0
ARC
  5
423
100
AcDbEntity
  8
7_ALL_FEATURES
100
AcDbCircle
 62
7
  6
CONTINUOUS
 10
56.047217806
 20
215.9545343885
 40
4.0
100
AcDbArc
 50
135.0
 51
207.5
  0
ARC
  5
424
100
AcDbEntity
  8
7_ALL_FEATURES
100
AcDbCircle
 62
7
  6
CONTINUOUS
 10
90.3459686594
 20
215.9545343885
 40
4.0
100
AcDbArc
 50
332.5
 51
45.0
  0
ARC
  5
425
100
AcDbEntity
  8
3_ALL_AXES
100
AcDbCircle
 62
7
  6
CONTINUOUS
 10
76.6965932327
 20
192.3852385961
 40
3.5
100
AcDbArc
 50
270.0
 51
360.0
  0
ARC
  5
426
100
AcDbEntity
  8
3_ALL_AXES
100
AcDbCircle
 62
7
  6
CONTINUOUS
 10
69.6965932327
 20
192.3852385961
 40
3.5
100
AcDbArc
 50
180.0
 51
270.0
  0
ARC
  5
427
100
AcDbEntity
  8
7_ALL_FEATURES
100
AcDbCircle
 62
3
  6
CONTINUOUS
 10
57.6640896186
 20
205.4852385961
 40
1.1
100
AcDbArc
 50
207.5
 51
270.0
  0
ARC
  5
428
100
AcDbEntity
  8
7_ALL_FEATURES
100
AcDbCircle
 62
3
  6
CONTINUOUS
 10
88.7290968467
 20
205.4852385961
 40
1.1
100
AcDbArc
 50
270.0
 51
332.5
  0
ARC
  5
429
100
AcDbEntity
  8
3_ALL_AXES
100
AcDbCircle
 62
7
  6
CONTINUOUS
 10
66.6061830831
 20
193.5378049417
 40
0.7455410389
100
AcDbArc
 50
238.244737167
 51
241.0795905087
  0
ARC
  5
42A
100
AcDbEntity
  8
7_ALL_FEATURES
100
AcDbCircle
 62
7
  6
CONTINUOUS
 10
57.6640896186
 20
205.4852385961
 40
0.6
100
AcDbArc
 50
207.5
 51
270.0
  0
ARC
  5
42B
100
AcDbEntity
  8
7_ALL_FEATURES
100
AcDbCircle
 62
7
  6
CONTINUOUS
 10
88.7290968467
 20
205.4852385961
 40
0.6
100
AcDbArc
 50
270.0
 51
332.5
  0
ARC
  5
42C
100
AcDbEntity
  8
7_ALL_FEATURES
100
AcDbCircle
 62
7
  6
CONTINUOUS
 10
386.3728060883
 20
238.8710161167
 40
193.7913561259
100
AcDbArc
 50
189.8001943784
 51
190.1003669356
  0
ARC
  5
42D
100
AcDbEntity
  8
7_ALL_FEATURES
100
AcDbCircle
 62
7
  6
CONTINUOUS
 10
16.0222107234
 20
238.8709442084
 40
193.7909399758
100
AcDbArc
 50
349.8996327421
 51
350.1998059439
  0
ARC
  5
42E
100
AcDbEntity
  8
3_ALL_AXES
100
AcDbCircle
 62
7
  6
CONTINUOUS
 10
201.3397462573
 20
205.8578786878
 40
4.1
100
AcDbArc
 50
296.3930257743
 51
333.1366968699
  0
ARC
  5
42F
100
AcDbEntity
  8
3_ALL_AXES
100
AcDbCircle
 62
7
  6
CONTINUOUS
 10
201.0548606626
 20
205.8578786878
 40
4.1
100
AcDbArc
 50
206.8633031301
 51
243.6069742257
  0
ARC
  5
430
100
AcDbEntity
  8
3_ALL_AXES
100
AcDbCircle
 62
7
  6
CONTINUOUS
 10
213.6068489029
 20
192.3852385961
 40
3.5
100
AcDbArc
 50
270.0
 51
360.0
  0
ARC
  5
431
100
AcDbEntity
  8
3_ALL_AXES
100
AcDbCircle
 62
7
  6
CONTINUOUS
 10
206.6068489029
 20
192.3852385961
 40
3.5
100
AcDbArc
 50
180.0
 51
270.0
  0
ARC
  5
432
100
AcDbEntity
  8
3_ALL_AXES
100
AcDbCircle
 62
7
  6
CONTINUOUS
 10
216.6972597854
 20
193.5378036371
 40
0.7455395425
100
AcDbArc
 50
298.9204086752
 51
301.7552064426
  0
ARC
  5
433
100
AcDbEntity
  8
7_ALL_FEATURES
100
AcDbCircle
 62
7
  6
CONTINUOUS
 10
331.9000117676
 20
194.9045728178
 40
56.1817713534
100
AcDbArc
 50
261.5899504411
 51
264.8863444978
  0
ARC
  5
434
100
AcDbEntity
  8
7_ALL_FEATURES
100
AcDbCircle
 62
7
  6
CONTINUOUS
 10
331.045058311
 20
188.6687377123
 40
49.8879935656
100
AcDbArc
 50
261.3148659111
 51
261.5138380268
  0
ARC
  5
435
100
AcDbEntity
  8
7_ALL_FEATURES
100
AcDbCircle
 62
7
  6
CONTINUOUS
 10
325.9163243861
 20
170.7389395227
 40
31.5685545411
100
AcDbArc
 50
253.1823149217
 51
253.9155337384
  0
ARC
  5
436
100
AcDbEntity
  8
7_ALL_FEATURES
100
AcDbCircle
 62
7
  6
CONTINUOUS
 10
326.5523048365
 20
128.054908693
 40
18.7621858673
100
AcDbArc
 50
250.4830477867
 51
250.7502710785
  0
ARC
  5
437
100
AcDbEntity
  8
7_ALL_FEATURES
100
AcDbCircle
 62
7
  6
CONTINUOUS
 10
325.993834832
 20
126.5080546458
 40
17.1176357232
100
AcDbArc
 50
248.6376772408
 51
250.515180466
  0
ARC
  5
438
100
AcDbEntity
  8
7_ALL_FEATURES
100
AcDbCircle
 62
7
  6
CONTINUOUS
 10
322.8765270243
 20
152.2893604097
 40
8.047281708
100
AcDbArc
 50
119.9015942019
 51
122.5049901085
  0
ARC
  5
439
100
AcDbEntity
  8
3_ALL_AXES
100
AcDbCircle
 62
7
  6
CONTINUOUS
 10
328.0992889697
 20
107.0473945737
 40
6.4704960298
100
AcDbArc
 50
226.1379904861
 51
228.4509061497
  0
ARC
  5
43A
100
AcDbEntity
  8
7_ALL_FEATURES
100
AcDbCircle
 62
7
  6
CONTINUOUS
 10
345.7918244558
 20
129.2431215759
 40
4.8365961672
100
AcDbArc
 50
310.5712632557
 51
312.2532432748
  0
ARC
  5
43B
100
AcDbEntity
  8
7_ALL_FEATURES
100
AcDbCircle
 62
7
  6
CONTINUOUS
 10
320.6159935478
 20
129.0695805875
 40
4.8288564062
100
AcDbArc
 50
228.5107930359
 51
230.1606907564
  0
ARC
  5
43C
100
AcDbEntity
  8
3_ALL_AXES
100
AcDbCircle
 62
7
  6
CONTINUOUS
 10
322.0051828389
 20
111.3756077526
 40
4.2414102731
100
AcDbArc
 50
289.785542664
 51
293.2357695978
  0
ARC
  5
43D
100
AcDbEntity
  8
7_ALL_FEATURES
100
AcDbCircle
 62
7
  6
CONTINUOUS
 10
345.402568971
 20
158.384995666
 40
4.0735281485
100
AcDbArc
 50
313.7160825897
 51
314.4565980792
  0
ARC
  5
43E
100
AcDbEntity
  8
7_ALL_FEATURES
100
AcDbCircle
 62
7
  6
CONTINUOUS
 10
345.8626857268
 20
158.0600778384
 40
3.6289092097
100
AcDbArc
 50
315.7320845642
 51
317.9311689375
  0
ARC
  5
43F
100
AcDbEntity
  8
7_ALL_FEATURES
100
AcDbCircle
 62
7
  6
CONTINUOUS
 10
345.5745377927
 20
156.3114501767
 40
3.4484720398
100
AcDbArc
 50
42.8385913743
 51
43.5550876208
  0
ARC
  5
440
100
AcDbEntity
  8
7_ALL_FEATURES
100
AcDbCircle
 62
7
  6
CONTINUOUS
 10
308.7203426271
 20
155.6177834929
 40
2.6906870305
100
AcDbArc
 50
180.4307297815
 51
190.3091519689
  0
ARC
  5
441
100
AcDbEntity
  8
7_ALL_FEATURES
100
AcDbCircle
 62
7
  6
CONTINUOUS
 10
357.3447849304
 20
155.941058726
 40
2.6837751243
100
AcDbArc
 50
350.6617408668
 51
0.3461083319
  0
ARC
  5
442
100
AcDbEntity
  8
7_ALL_FEATURES
100
AcDbCircle
 62
9
  6
CONTINUOUS
 10
319.0478753576
 20
155.4047763748
 40
2.3747496429
100
AcDbArc
 50
149.0570012816
 51
150.66004396
  0
ARC
  5
443
100
AcDbEntity
  8
7_ALL_FEATURES
100
AcDbCircle
 62
9
  6
CONTINUOUS
 10
318.9562564472
 20
155.4562106111
 40
2.2696806077
100
AcDbArc
 50
150.6586368236
 51
152.5467112065
  0
ARC
  5
444
100
AcDbEntity
  8
7_ALL_FEATURES
100
AcDbCircle
 62
9
  6
CONTINUOUS
 10
347.1381380683
 20
155.6620848679
 40
2.2318062361
100
AcDbArc
 50
27.0071653025
 51
30.3763634508
  0
ARC
  5
445
100
AcDbEntity
  8
7_ALL_FEATURES
100
AcDbCircle
 62
7
  6
CONTINUOUS
 10
347.0784593415
 20
157.1771008098
 40
2.1211846234
100
AcDbArc
 50
333.1427828851
 51
334.8916226372
  0
ARC
  5
446
100
AcDbEntity
  8
7_ALL_FEATURES
100
AcDbCircle
 62
9
  6
CONTINUOUS
 10
318.5816431497
 20
156.4210955084
 40
1.7088670138
100
AcDbArc
 50
166.3513540942
 51
167.5149018795
  0
ARC
  5
447
100
AcDbEntity
  8
7_ALL_FEATURES
100
AcDbCircle
 62
9
  6
CONTINUOUS
 10
347.4692589614
 20
156.6140469126
 40
1.7063123002
100
AcDbArc
 50
13.0905256567
 51
14.3806605934
  0
ARC
  5
448
100
AcDbEntity
  8
7_ALL_FEATURES
100
AcDbCircle
 62
9
  6
CONTINUOUS
 10
318.5295764165
 20
156.4320545873
 40
1.6556624382
100
AcDbArc
 50
167.4956554025
 51
173.1024734906
  0
ARC
  5
449
100
AcDbEntity
  8
7_ALL_FEATURES
100
AcDbCircle
 62
9
  6
CONTINUOUS
 10
347.5255757126
 20
156.6264761904
 40
1.6486440455
100
AcDbArc
 50
6.8883309434
 51
13.1130774558
  0
ARC
  5
44A
100
AcDbEntity
  8
7_ALL_FEATURES
100
AcDbCircle
 62
7
  6
CONTINUOUS
 10
347.629505071
 20
156.3749915858
 40
1.5991469332
100
AcDbArc
 50
28.4933288425
 51
31.1211521876
  0
ARC
  5
44B
100
AcDbEntity
  8
7_ALL_FEATURES
100
AcDbCircle
 62
7
  6
CONTINUOUS
 10
347.5896166846
 20
157.0142308004
 40
1.5815862632
100
AcDbArc
 50
359.1566391249
 51
0.3768643863
  0
ARC
  5
44C
100
AcDbEntity
  8
7_ALL_FEATURES
100
AcDbCircle
 62
7
  6
CONTINUOUS
 10
318.4534425444
 20
156.8198743432
 40
1.5815862601
100
AcDbArc
 50
179.1566391237
 51
180.3768643866
  0
ARC
  5
44D
100
AcDbEntity
  8
7_ALL_FEATURES
100
AcDbCircle
 62
7
  6
CONTINUOUS
 10
347.5903913641
 20
157.0142311899
 40
1.5808115979
100
AcDbArc
 50
0.3770349507
 51
1.7272197869
  0
ARC
  5
44E
100
AcDbEntity
  8
7_ALL_FEATURES
100
AcDbCircle
 62
7
  6
CONTINUOUS
 10
318.4526678663
 20
156.8198739537
 40
1.5808115962
100
AcDbArc
 50
180.3770349509
 51
181.7272197876
  0
ARC
  5
44F
100
AcDbEntity
  8
7_ALL_FEATURES
100
AcDbCircle
 62
7
  6
CONTINUOUS
 10
347.9900122293
 20
156.5526990343
 40
1.1969764943
100
AcDbArc
 50
21.1311208998
 51
23.2315081264
  0
ARC
  5
450
100
AcDbEntity
  8
7_ALL_FEATURES
100
AcDbCircle
 62
7
  6
CONTINUOUS
 10
318.0453028166
 20
156.3584097008
 40
1.1823415369
100
AcDbArc
 50
157.6212442672
 51
159.7886853486
  0
ARC
  5
451
100
AcDbEntity
  8
7_ALL_FEATURES
100
AcDbCircle
 62
3
  6
CONTINUOUS
 10
316.7109988585
 20
112.0195137928
 40
0.902508968
100
AcDbArc
 50
209.1581231153
 51
227.2425130736
  0
ARC
  5
452
100
AcDbEntity
  8
7_ALL_FEATURES
100
AcDbCircle
 62
3
  6
CONTINUOUS
 10
320.2252032841
 20
108.7769670346
 40
0.902508968
100
AcDbArc
 50
209.1581231153
 51
227.2425130737
  0
ARC
  5
453
100
AcDbEntity
  8
7_ALL_FEATURES
100
AcDbCircle
 62
7
  6
CONTINUOUS
 10
320.2857507839
 20
108.8432439476
 40
0.4922776189
100
AcDbArc
 50
209.1581231153
 51
227.2425130736
  0
SPLINE
  5
454
100
AcDbEntity
  8
3_ALL_AXES
100
AcDbSpline
 62
7
  6
CONTINUOUS
 70
0
 71
3
 72
11
 73
7
 74
0
 42
0.0000001
 43
0.0000001
 44
0.0000000001
 40
0.0
 40
0.0
 40
0.0
 40
0.0
 40
0.2811921043
 40
0.543296489
 40
0.7836302519
 40
1.0
 40
1.0
 40
1.0
 40
1.0
 10
80.923999843
 20
193.8852385961
 30
0.0
 10
80.8809608578
 20
193.8020936613
 30
0.0
 10
80.7947722258
 20
193.6429808043
 30
0.0
 10
80.6588321695
 20
193.4200921615
 30
0.0
 10
80.5202918315
 20
193.2246805675
 30
0.0
 10
80.4206025854
 20
193.1092952089
 30
0.0
 10
80.3696863136
 20
193.0583300376
 30
0.0
  0
SPLINE
  5
455
100
AcDbEntity
  8
3_ALL_AXES
100
AcDbSpline
 62
7
  6
CONTINUOUS
 70
0
 71
3
 72
11
 73
7
 74
0
 42
0.0000001
 43
0.0000001
 44
0.0000000001
 40
0.0
 40
0.0
 40
0.0
 40
0.0
 40
0.2811921043
 40
0.543296489
 40
0.7836302519
 40
1.0
 40
1.0
 40
1.0
 40
1.0
 10
65.4691866224
 20
193.8852385961
 30
0.0
 10
65.5122256076
 20
193.8020936613
 30
0.0
 10
65.5984142395
 20
193.6429808043
 30
0.0
 10
65.7343542958
 20
193.4200921615
 30
0.0
 10
65.8728946339
 20
193.2246805675
 30
0.0
 10
65.97258388
 20
193.1092952089
 30
0.0
 10
66.0235001518
 20
193.0583300376
 30
0.0
  0
SPLINE
  5
456
100
AcDbEntity
  8
3_ALL_AXES
100
AcDbSpline
 62
7
  6
CONTINUOUS
 70
0
 71
3
 72
23
 73
19
 74
0
 42
0.0000001
 43
0.0000001
 44
0.0000000001
 40
0.0
 40
0.0
 40
0.0
 40
0.0
 40
0.1041170889
 40
0.1987311506
 40
0.2791747916
 40
0.3449979218
 40
0.3976280174
 40
0.4391112132
 40
0.4720285887
 40
0.5000276534
 40
0.5280319966
 40
0.5609638799
 40
0.6024544255
 40
0.6550865092
 40
0.720913556
 40
0.8013534514
 40
0.8959302724
 40
1.0
 40
1.0
 40
1.0
 40
1.0
 10
66.2456437577
 20
192.3852385961
 30
0.0
 10
66.2456437577
 20
192.3298846168
 30
0.0
 10
66.2501317289
 20
192.2241658174
 30
0.0
 10
66.2693474674
 20
192.076796931
 30
0.0
 10
66.2978784829
 20
191.9517249826
 30
0.0
 10
66.3326341037
 20
191.8515896178
 30
0.0
 10
66.3713683289
 20
191.7755010898
 30
0.0
 10
66.4128584466
 20
191.7215734114
 30
0.0
 10
66.457033441
 20
191.6881059233
 30
0.0
 10
66.504511785
 20
191.6761980173
 30
0.0
 10
66.5519902322
 20
191.6881444166
 30
0.0
 10
66.5961436745
 20
191.7216635378
 30
0.0
 10
66.637619423
 20
191.7756141356
 30
0.0
 10
66.6763466415
 20
191.8517144916
 30
0.0
 10
66.7110855168
 20
191.9518568766
 30
0.0
 10
66.7395954464
 20
192.076913086
 30
0.0
 10
66.7587973391
 20
192.2242360291
 30
0.0
 10
66.7632818479
 20
192.3299097965
 30
0.0
 10
66.7632818479
 20
192.3852385961
 30
0.0
  0
SPLINE
  5
457
100
AcDbEntity
  8
3_ALL_AXES
100
AcDbSpline
 62
7
  6
CONTINUOUS
 70
0
 71
3
 72
10
 73
6
 74
0
 42
0.0000001
 43
0.0000001
 44
0.0000000001
 40
0.0
 40
0.0
 40
0.0
 40
0.0
 40
0.2421734631
 40
0.6149310735
 40
1.0
 40
1.0
 40
1.0
 40
1.0
 10
78.8026794994
 20
192.8852385961
 30
0.0
 10
78.9894361171
 20
192.9229691306
 30
0.0
 10
79.4568057766
 20
193.0548762464
 30
0.0
 10
80.1735798034
 20
193.3878929555
 30
0.0
 10
80.6766399181
 20
193.7103287158
 30
0.0
 10
80.923999843
 20
193.8852385961
 30
0.0
  0
SPLINE
  5
458
100
AcDbEntity
  8
3_ALL_AXES
100
AcDbSpline
 62
7
  6
CONTINUOUS
 70
0
 71
3
 72
19
 73
15
 74
0
 42
0.0000001
 43
0.0000001
 44
0.0000000001
 40
0.0
 40
0.0
 40
0.0
 40
0.0
 40
0.0755313105
 40
0.1475271142
 40
0.2145707967
 40
0.2770181017
 40
0.3917437342
 40
0.5000509034
 40
0.6083537473
 40
0.7230719906
 40
0.7855182774
 40
0.8525486482
 40
0.9245023644
 40
1.0
 40
1.0
 40
1.0
 40
1.0
 10
77.3884659371
 20
192.3852385961
 30
0.0
 10
77.3884659371
 20
192.3295522572
 30
0.0
 10
77.4014324346
 20
192.2203367255
 30
0.0
 10
77.4561325064
 20
192.0705334941
 30
0.0
 10
77.5367987424
 20
191.9444167168
 30
0.0
 10
77.6631599405
 20
191.8147761822
 30
0.0
 10
77.8503186352
 20
191.7079253071
 30
0.0
 10
78.095685235
 20
191.6663495526
 30
0.0
 10
78.3410288865
 20
191.7080101553
 30
0.0
 10
78.5281533999
 20
191.8148981649
 30
0.0
 10
78.6544688489
 20
191.9445628968
 30
0.0
 10
78.7350682598
 20
192.0706716926
 30
0.0
 10
78.7897254388
 20
192.2204174151
 30
0.0
 10
78.8026794994
 20
192.3295770845
 30
0.0
 10
78.8026794994
 20
192.3852385961
 30
0.0
  0
SPLINE
  5
459
100
AcDbEntity
  8
3_ALL_AXES
100
AcDbSpline
 62
7
  6
CONTINUOUS
 70
0
 71
3
 72
11
 73
7
 74
0
 42
0.0000001
 43
0.0000001
 44
0.0000000001
 40
0.0
 40
0.0
 40
0.0
 40
0.0
 40
0.2493691879
 40
0.4991371759
 40
0.749356754
 40
1.0
 40
1.0
 40
1.0
 40
1.0
 10
72.3693681146
 20
192.8852385961
 30
0.0
 10
72.6225232124
 20
192.9226793736
 30
0.0
 10
73.125370689
 20
193.0260823238
 30
0.0
 10
73.8606887928
 20
193.2545096864
 30
0.0
 10
74.5757127717
 20
193.5429836464
 30
0.0
 10
75.0387185521
 20
193.7669960586
 30
0.0
 10
75.2671455935
 20
193.8852385961
 30
0.0
  0
SPLINE
  5
45A
100
AcDbEntity
  8
3_ALL_AXES
100
AcDbSpline
 62
7
  6
CONTINUOUS
 70
0
 71
3
 72
19
 73
15
 74
0
 42
0.0000001
 43
0.0000001
 44
0.0000000001
 40
0.0
 40
0.0
 40
0.0
 40
0.0
 40
0.0638036974
 40
0.1272626836
 40
0.1902376798
 40
0.2527732141
 40
0.3766396511
 40
0.5000560147
 40
0.6234651895
 40
0.7473195124
 40
0.8098500054
 40
0.8728049193
 40
0.9362224762
 40
1.0
 40
1.0
 40
1.0
 40
1.0
 10
70.4375164621
 20
192.3852385961
 30
0.0
 10
70.4375164621
 20
192.3292181817
 30
0.0
 10
70.4562082578
 20
192.2167182363
 30
0.0
 10
70.5330177092
 20
192.0660347682
 30
0.0
 10
70.64411461
 20
191.9408039446
 30
0.0
 10
70.8209616309
 20
191.809717135
 30
0.0
 10
71.0773929733
 20
191.7062281322
 30
0.0
 10
71.4035858676
 20
191.6668208362
 30
0.0
 10
71.7297563506
 20
191.7063073246
 30
0.0
 10
71.9861489554
 20
191.8098337563
 30
0.0
 10
72.1629375558
 20
191.9409481408
 30
0.0
 10
72.273946379
 20
192.0661773166
 30
0.0
 10
72.3506947741
 20
192.2168004397
 30
0.0
 10
72.3693681146
 20
192.3292411624
 30
0.0
 10
72.3693681146
 20
192.3852385961
 30
0.0
  0
SPLINE
  5
45B
100
AcDbEntity
  8
3_ALL_AXES
100
AcDbSpline
 62
7
  6
CONTINUOUS
 70
0
 71
3
 72
11
 73
7
 74
0
 42
0.0000001
 43
0.0000001
 44
0.0000000001
 40
0.0
 40
0.0
 40
0.0
 40
0.0
 40
0.2506432543
 40
0.5008628457
 40
0.7506308309
 40
1.0
 40
1.0
 40
1.0
 40
1.0
 10
67.5397389832
 20
193.8852385961
 30
0.0
 10
67.7681660321
 20
193.7669960547
 30
0.0
 10
68.2311718315
 20
193.5429836306
 30
0.0
 10
68.9461958304
 20
193.2545096673
 30
0.0
 10
69.6815139284
 20
193.0260823148
 30
0.0
 10
70.1843613834
 20
192.9226793708
 30
0.0
 10
70.4375164621
 20
192.8852385961
 30
0.0
  0
SPLINE
  5
45C
100
AcDbEntity
  8
3_ALL_AXES
100
AcDbSpline
 62
7
  6
CONTINUOUS
 70
0
 71
3
 72
9
 73
5
 74
0
 42
0.0000001
 43
0.0000001
 44
0.0000000001
 40
0.0
 40
0.0
 40
0.0
 40
0.0
 40
0.2660030251
 40
1.0
 40
1.0
 40
1.0
 40
1.0
 10
66.0235001518
 20
193.0583300376
 30
0.0
 10
66.0388782773
 20
193.0429371431
 30
0.0
 10
66.0979568392
 20
192.986399951
 30
0.0
 10
66.162746485
 20
192.9354460124
 30
0.0
 10
66.2138107767
 20
192.9038684987
 30
0.0
  0
SPLINE
  5
45D
100
AcDbEntity
  8
3_ALL_AXES
100
AcDbSpline
 62
7
  6
CONTINUOUS
 70
0
 71
3
 72
10
 73
6
 74
0
 42
0.0000001
 43
0.0000001
 44
0.0000000001
 40
0.0
 40
0.0
 40
0.0
 40
0.0
 40
0.258124603
 40
0.6351527744
 40
1.0
 40
1.0
 40
1.0
 40
1.0
 10
75.2671455935
 20
193.8852385961
 30
0.0
 10
75.4329299662
 20
193.7680113419
 30
0.0
 10
75.8499288536
 20
193.4921286404
 30
0.0
 10
76.5476061822
 20
193.1236811574
 30
0.0
 10
77.1071568127
 20
192.9420716217
 30
0.0
 10
77.3884659371
 20
192.8852385961
 30
0.0
  0
SPLINE
  5
45E
100
AcDbEntity
  8
3_ALL_AXES
100
AcDbSpline
 62
7
  6
CONTINUOUS
 70
0
 71
3
 72
11
 73
7
 74
0
 42
0.0000001
 43
0.0000001
 44
0.0000000001
 40
0.0
 40
0.0
 40
0.0
 40
0.0
 40
0.1976182287
 40
0.4318039509
 40
0.7009288274
 40
1.0
 40
1.0
 40
1.0
 40
1.0
 10
66.7632818479
 20
192.8852385961
 30
0.0
 10
66.8371244306
 20
192.9259965719
 30
0.0
 10
66.9828113575
 20
193.0429569854
 30
0.0
 10
67.1758759881
 20
193.2724594538
 30
0.0
 10
67.364112129
 20
193.5592527054
 30
0.0
 10
67.481060627
 20
193.7718807168
 30
0.0
 10
67.5397389832
 20
193.8852385961
 30
0.0
  0
LINE
  5
45F
100
AcDbEntity
  8
7_ALL_FEATURES
100
AcDbLine
 62
7
  6
CONTINUOUS
 10
52.6937713442
 20
240.8852385961
 11
52.2880885802
 21
241.3852385961
  0
LINE
  5
460
100
AcDbEntity
  8
7_ALL_FEATURES
100
AcDbLine
 62
7
  6
CONTINUOUS
 10
61.9317393412
 20
241.3852385961
 11
62.2331633584
 21
240.8852385961
  0
SPLINE
  5
461
100
AcDbEntity
  8
3_ALL_AXES
100
AcDbSpline
 62
7
  6
CONTINUOUS
 70
0
 71
3
 72
11
 73
7
 74
0
 42
0.0000001
 43
0.0000001
 44
0.0000000001
 40
0.0
 40
0.0
 40
0.0
 40
0.0
 40
0.2163698592
 40
0.4567036476
 40
0.7188079916
 40
1.0
 40
1.0
 40
1.0
 40
1.0
 10
217.2799432396
 20
193.0583312919
 30
0.0
 10
217.3308593876
 20
193.1092964585
 30
0.0
 10
217.4305483814
 20
193.2246817328
 30
0.0
 10
217.5690884146
 20
193.4200930587
 30
0.0
 10
217.7050281651
 20
193.6429813012
 30
0.0
 10
217.791216619
 20
193.8020938372
 30
0.0
 10
217.8342555132
 20
193.8852385961
 30
0.0
  0
SPLINE
  5
462
100
AcDbEntity
  8
3_ALL_AXES
100
AcDbSpline
 62
7
  6
CONTINUOUS
 70
0
 71
3
 72
11
 73
7
 74
0
 42
0.0000001
 43
0.0000001
 44
0.0000000001
 40
0.0
 40
0.0
 40
0.0
 40
0.0
 40
0.2163698592
 40
0.4567036476
 40
0.7188079916
 40
1.0
 40
1.0
 40
1.0
 40
1.0
 10
202.9337545662
 20
193.0583312919
 30
0.0
 10
202.8828384182
 20
193.1092964585
 30
0.0
 10
202.7831494244
 20
193.2246817328
 30
0.0
 10
202.6446093912
 20
193.4200930587
 30
0.0
 10
202.5086696407
 20
193.6429813012
 30
0.0
 10
202.4224811868
 20
193.8020938372
 30
0.0
 10
202.3794422926
 20
193.8852385961
 30
0.0
  0
SPLINE
  5
463
100
AcDbEntity
  8
3_ALL_AXES
100
AcDbSpline
 62
7
  6
CONTINUOUS
 70
0
 71
3
 72
19
 73
15
 74
0
 42
0.0000001
 43
0.0000001
 44
0.0000000001
 40
0.0
 40
0.0
 40
0.0
 40
0.0
 40
0.0638114962
 40
0.1272689962
 40
0.1902443843
 40
0.2527839854
 40
0.3766579829
 40
0.5000634573
 40
0.6234641555
 40
0.7473062116
 40
0.8098329522
 40
0.8727912221
 40
0.9362181193
 40
1.0
 40
1.0
 40
1.0
 40
1.0
 10
210.934074021
 20
192.3852385961
 30
0.0
 10
210.934074021
 20
192.3292113418
 30
0.0
 10
210.9527672211
 20
192.2167051426
 30
0.0
 10
211.029587072
 20
192.0660203672
 30
0.0
 10
211.1406878651
 20
191.9407900784
 30
0.0
 10
211.3175459178
 20
191.8096997001
 30
0.0
 10
211.5739836222
 20
191.7062239145
 30
0.0
 10
211.9001652909
 20
191.6668215165
 30
0.0
 10
212.2263077367
 20
191.7063086996
 30
0.0
 10
212.4826796736
 20
191.8098242595
 30
0.0
 10
212.6594654289
 20
191.9409226286
 30
0.0
 10
212.770489584
 20
192.066149168
 30
0.0
 10
212.8472482399
 20
192.2167848711
 30
0.0
 10
212.8659256735
 20
192.3292373445
 30
0.0
 10
212.8659256735
 20
192.3852385961
 30
0.0
  0
SPLINE
  5
464
100
AcDbEntity
  8
3_ALL_AXES
100
AcDbSpline
 62
7
  6
CONTINUOUS
 70
0
 71
3
 72
10
 73
6
 74
0
 42
0.0000001
 43
0.0000001
 44
0.0000000001
 40
0.0
 40
0.0
 40
0.0
 40
0.0
 40
0.258124603
 40
0.6351527744
 40
1.0
 40
1.0
 40
1.0
 40
1.0
 10
202.3794422926
 20
193.8852385961
 30
0.0
 10
202.5452266653
 20
193.7680113419
 30
0.0
 10
202.9622255527
 20
193.4921286404
 30
0.0
 10
203.6599028813
 20
193.1236811574
 30
0.0
 10
204.2194535118
 20
192.9420716217
 30
0.0
 10
204.5007626362
 20
192.8852385961
 30
0.0
  0
SPLINE
  5
465
100
AcDbEntity
  8
3_ALL_AXES
100
AcDbSpline
 62
7
  6
CONTINUOUS
 70
0
 71
3
 72
9
 73
5
 74
0
 42
0.0000001
 43
0.0000001
 44
0.0000000001
 40
0.0
 40
0.0
 40
0.0
 40
0.0
 40
0.2347660415
 40
1.0
 40
1.0
 40
1.0
 40
1.0
 10
217.0896306804
 20
192.9038680803
 30
0.0
 10
217.1059660787
 20
192.9139696626
 30
0.0
 10
217.1739633115
 20
192.9595637144
 30
0.0
 10
217.2356964567
 20
193.0140419113
 30
0.0
 10
217.2799432396
 20
193.0583312919
 30
0.0
  0
SPLINE
  5
466
100
AcDbEntity
  8
3_ALL_AXES
100
AcDbSpline
 62
7
  6
CONTINUOUS
 70
0
 71
3
 72
10
 73
6
 74
0
 42
0.0000001
 43
0.0000001
 44
0.0000000001
 40
0.0
 40
0.0
 40
0.0
 40
0.0
 40
0.2421734631
 40
0.6149310735
 40
1.0
 40
1.0
 40
1.0
 40
1.0
 10
205.9149761985
 20
192.8852385961
 30
0.0
 10
206.1017328162
 20
192.9229691306
 30
0.0
 10
206.5691024757
 20
193.0548762464
 30
0.0
 10
207.2858765025
 20
193.3878929555
 30
0.0
 10
207.7889366172
 20
193.7103287158
 30
0.0
 10
208.0362965421
 20
193.8852385961
 30
0.0
  0
SPLINE
  5
467
100
AcDbEntity
  8
3_ALL_AXES
100
AcDbSpline
 62
7
  6
CONTINUOUS
 70
0
 71
3
 72
19
 73
15
 74
0
 42
0.0000001
 43
0.0000001
 44
0.0000000001
 40
0.0
 40
0.0
 40
0.0
 40
0.0
 40
0.0755313105
 40
0.1475271142
 40
0.2145707967
 40
0.2770181017
 40
0.3917437342
 40
0.5000509034
 40
0.6083537473
 40
0.7230719906
 40
0.7855182774
 40
0.8525486482
 40
0.9245023644
 40
1.0
 40
1.0
 40
1.0
 40
1.0
 10
204.5007626362
 20
192.3852385961
 30
0.0
 10
204.5007626362
 20
192.3295522572
 30
0.0
 10
204.5137291337
 20
192.2203367255
 30
0.0
 10
204.5684292054
 20
192.0705334941
 30
0.0
 10
204.6490954415
 20
191.9444167168
 30
0.0
 10
204.7754566396
 20
191.8147761822
 30
0.0
 10
204.9626153343
 20
191.7079253071
 30
0.0
 10
205.2079819341
 20
191.6663495526
 30
0.0
 10
205.4533255856
 20
191.7080101553
 30
0.0
 10
205.640450099
 20
191.8148981649
 30
0.0
 10
205.766765548
 20
191.9445628968
 30
0.0
 10
205.8473649588
 20
192.0706716926
 30
0.0
 10
205.9020221379
 20
192.2204174151
 30
0.0
 10
205.9149761985
 20
192.3295770845
 30
0.0
 10
205.9149761985
 20
192.3852385961
 30
0.0
  0
SPLINE
  5
468
100
AcDbEntity
  8
3_ALL_AXES
100
AcDbSpline
 62
7
  6
CONTINUOUS
 70
0
 71
3
 72
23
 73
19
 74
0
 42
0.0000001
 43
0.0000001
 44
0.0000000001
 40
0.0
 40
0.0
 40
0.0
 40
0.0
 40
0.1041045604
 40
0.198722586
 40
0.2791671156
 40
0.344987429
 40
0.3976144983
 40
0.4391006973
 40
0.4720229716
 40
0.500024351
 40
0.5280300251
 40
0.560964335
 40
0.6024594955
 40
0.6550984182
 40
0.7209332483
 40
0.8013730741
 40
0.8959372264
 40
1.0
 40
1.0
 40
1.0
 40
1.0
 10
216.5401602877
 20
192.3852385961
 30
0.0
 10
216.5401602877
 20
192.3298912615
 30
0.0
 10
216.5446481734
 20
192.2241770791
 30
0.0
 10
216.5638607998
 20
192.0768117888
 30
0.0
 10
216.592391326
 20
191.951738732
 30
0.0
 10
216.6271437294
 20
191.8516046879
 30
0.0
 10
216.6658783827
 20
191.7755186313
 30
0.0
 10
216.7073622676
 20
191.7215831507
 30
0.0
 10
216.7515399217
 20
191.6881089733
 30
0.0
 10
216.7990222175
 20
191.6761983981
 30
0.0
 10
216.8465049118
 20
191.6881418937
 30
0.0
 10
216.89066215
 20
191.7216644145
 30
0.0
 10
216.9321410914
 20
191.7756217683
 30
0.0
 10
216.9708721394
 20
191.8517318118
 30
0.0
 10
217.0056095064
 20
191.951883058
 30
0.0
 10
217.0341149792
 20
192.0769374821
 30
0.0
 10
217.0533149015
 20
192.2242500832
 30
0.0
 10
217.0577983779
 20
192.3299134775
 30
0.0
 10
217.0577983779
 20
192.3852385961
 30
0.0
  0
SPLINE
  5
469
100
AcDbEntity
  8
3_ALL_AXES
100
AcDbSpline
 62
7
  6
CONTINUOUS
 70
0
 71
3
 72
11
 73
7
 74
0
 42
0.0000001
 43
0.0000001
 44
0.0000000001
 40
0.0
 40
0.0
 40
0.0
 40
0.0
 40
0.299071183
 40
0.5681960717
 40
0.8023817875
 40
1.0
 40
1.0
 40
1.0
 40
1.0
 10
215.7637031524
 20
193.8852385961
 30
0.0
 10
215.8223815106
 20
193.7718807128
 30
0.0
 10
215.9393300122
 20
193.5592526923
 30
0.0
 10
216.1275661587
 20
193.2724594357
 30
0.0
 10
216.3206307907
 20
193.042956974
 30
0.0
 10
216.4663177111
 20
192.9259965686
 30
0.0
 10
216.5401602877
 20
192.8852385961
 30
0.0
  0
SPLINE
  5
46A
100
AcDbEntity
  8
3_ALL_AXES
100
AcDbSpline
 62
7
  6
CONTINUOUS
 70
0
 71
3
 72
11
 73
7
 74
0
 42
0.0000001
 43
0.0000001
 44
0.0000000001
 40
0.0
 40
0.0
 40
0.0
 40
0.0
 40
0.2506432543
 40
0.5008628457
 40
0.7506308309
 40
1.0
 40
1.0
 40
1.0
 40
1.0
 10
208.0362965421
 20
193.8852385961
 30
0.0
 10
208.264723591
 20
193.7669960547
 30
0.0
 10
208.7277293904
 20
193.5429836306
 30
0.0
 10
209.4427533893
 20
193.2545096673
 30
0.0
 10
210.1780714873
 20
193.0260823148
 30
0.0
 10
210.6809189423
 20
192.9226793708
 30
0.0
 10
210.934074021
 20
192.8852385961
 30
0.0
  0
SPLINE
  5
46B
100
AcDbEntity
  8
3_ALL_AXES
100
AcDbSpline
 62
7
  6
CONTINUOUS
 70
0
 71
3
 72
11
 73
7
 74
0
 42
0.0000001
 43
0.0000001
 44
0.0000000001
 40
0.0
 40
0.0
 40
0.0
 40
0.0
 40
0.2493691879
 40
0.4991371759
 40
0.749356754
 40
1.0
 40
1.0
 40
1.0
 40
1.0
 10
212.8659256735
 20
192.8852385961
 30
0.0
 10
213.1190807713
 20
192.9226793736
 30
0.0
 10
213.6219282479
 20
193.0260823238
 30
0.0
 10
214.3572463517
 20
193.2545096864
 30
0.0
 10
215.0722703306
 20
193.5429836464
 30
0.0
 10
215.535276111
 20
193.7669960586
 30
0.0
 10
215.7637031524
 20
193.8852385961
 30
0.0
  0
LINE
  5
46C
100
AcDbEntity
  8
7_ALL_FEATURES
100
AcDbLine
 62
7
  6
CONTINUOUS
 10
212.1607333343
 20
240.8852385961
 11
212.4621573515
 21
241.3852385961
  0
LINE
  5
46D
100
AcDbEntity
  8
7_ALL_FEATURES
100
AcDbLine
 62
7
  6
CONTINUOUS
 10
222.1058081124
 20
241.3852385961
 11
221.7001253484
 21
240.8852385961
  0
SPLINE
  5
46E
100
AcDbEntity
  8
3_ALL_AXES
100
AcDbSpline
 62
7
  6
CONTINUOUS
 70
0
 71
3
 72
9
 73
5
 74
0
 42
0.0000001
 43
0.0000001
 44
0.0000000001
 40
0.0
 40
0.0
 40
0.0
 40
0.0
 40
0.4858217354
 40
1.0
 40
1.0
 40
1.0
 40
1.0
 10
318.1599368003
 20
109.4517234462
 30
0.0
 10
318.1627326477
 20
109.4239135046
 30
0.0
 10
318.1749728415
 20
109.3671793475
 30
0.0
 10
318.1984974658
 20
109.3142586375
 30
0.0
 10
318.2127441459
 20
109.2883337703
 30
0.0
  0
SPLINE
  5
46F
100
AcDbEntity
  8
3_ALL_AXES
100
AcDbSpline
 62
7
  6
CONTINUOUS
 70
0
 71
3
 72
15
 73
11
 74
0
 42
0.0000001
 43
0.0000001
 44
0.0000000001
 40
0.0
 40
0.0
 40
0.0
 40
0.0
 40
0.1068604996
 40
0.228931532
 40
0.3617082803
 40
0.5000019869
 40
0.6382954868
 40
0.7710724917
 40
0.8931434888
 40
1.0
 40
1.0
 40
1.0
 40
1.0
 10
320.5035284693
 20
107.3650168904
 30
0.0
 10
320.603819839
 20
107.3304391003
 30
0.0
 10
320.8238698317
 20
107.2713495192
 30
0.0
 10
321.178147298
 20
107.2107497375
 30
0.0
 10
321.5670818292
 20
107.1743276958
 30
0.0
 10
321.97362652
 20
107.163824066
 30
0.0
 10
322.3799951919
 20
107.1797457732
 30
0.0
 10
322.7684103073
 20
107.2213440103
 30
0.0
 10
323.1218447518
 20
107.2866596501
 30
0.0
 10
323.3410850504
 20
107.3486721105
 30
0.0
 10
323.4409022734
 20
107.3845840078
 30
0.0
  0
SPLINE
  5
470
100
AcDbEntity
  8
3_ALL_AXES
100
AcDbSpline
 62
7
  6
CONTINUOUS
 70
0
 71
3
 72
11
 73
7
 74
0
 42
0.0000001
 43
0.0000001
 44
0.0000000001
 40
0.0
 40
0.0
 40
0.0
 40
0.0
 40
0.2499225854
 40
0.4999057941
 40
0.7499320056
 40
1.0
 40
1.0
 40
1.0
 40
1.0
 10
320.5035273844
 20
107.3650165791
 30
0.0
 10
320.2628725154
 20
107.4479941036
 30
0.0
 10
319.7953207797
 20
107.6578287788
 30
0.0
 10
319.1637581446
 20
108.0948741559
 30
0.0
 10
318.6229830028
 20
108.6405020472
 30
0.0
 10
318.3354163509
 20
109.0651157495
 30
0.0
 10
318.2127409166
 20
109.2883335775
 30
0.0
  0
SPLINE
  5
471
100
AcDbEntity
  8
3_ALL_AXES
100
AcDbSpline
 62
7
  6
CONTINUOUS
 70
0
 71
3
 72
11
 73
7
 74
0
 42
0.0000001
 43
0.0000001
 44
0.0000000001
 40
0.0
 40
0.0
 40
0.0
 40
0.0
 40
0.1954137908
 40
0.4246852344
 40
0.6924325502
 40
1.0
 40
1.0
 40
1.0
 40
1.0
 10
318.2127441459
 20
109.2883337703
 30
0.0
 10
318.2385736788
 20
109.2413314368
 30
0.0
 10
318.3103575972
 20
109.1476959968
 30
0.0
 10
318.4551788579
 20
109.0233895368
 30
0.0
 10
318.6426757487
 20
108.905577844
 30
0.0
 10
318.7851338161
 20
108.8368384557
 30
0.0
 10
318.8625757659
 20
108.8032486509
 30
0.0
  0
SPLINE
  5
472
100
AcDbEntity
  8
7_ALL_FEATURES
100
AcDbSpline
 62
7
  6
CONTINUOUS
 70
0
 71
3
 72
13
 73
9
 74
0
 42
0.0000001
 43
0.0000001
 44
0.0000000001
 40
0.0
 40
0.0
 40
0.0
 40
0.0
 40
0.1200098929
 40
0.2410082456
 40
0.3633948458
 40
0.4874510392
 40
0.74040741
 40
1.0
 40
1.0
 40
1.0
 40
1.0
 10
350.7830457094
 20
128.1569482236
 30
0.0
 10
350.888622066
 20
128.0262843892
 30
0.0
 10
351.0806336421
 20
127.7469930332
 30
0.0
 10
351.3025787605
 20
127.287266262
 30
0.0
 10
351.4553444981
 20
126.7941082444
 30
0.0
 10
351.5635912555
 20
126.1013509467
 30
0.0
 10
351.5111250229
 20
125.1998537618
 30
0.0
 10
351.2786723758
 20
124.5112882728
 30
0.0
 10
351.1201950825
 20
124.184297808
 30
0.0
  0
SPLINE
  5
473
100
AcDbEntity
  8
7_ALL_FEATURES
100
AcDbSpline
 62
7
  6
CONTINUOUS
 70
0
 71
3
 72
13
 73
9
 74
0
 42
0.0000001
 43
0.0000001
 44
0.0000000001
 40
0.0
 40
0.0
 40
0.0
 40
0.0
 40
0.1200098929
 40
0.2410082456
 40
0.3633948458
 40
0.4874510392
 40
0.74040741
 40
1.0
 40
1.0
 40
1.0
 40
1.0
 10
354.297250135
 20
124.9144014654
 30
0.0
 10
354.4028264916
 20
124.783737631
 30
0.0
 10
354.5948380677
 20
124.5044462751
 30
0.0
 10
354.816783186
 20
124.0447195038
 30
0.0
 10
354.9695489237
 20
123.5515614863
 30
0.0
 10
355.0777956811
 20
122.8588041886
 30
0.0
 10
355.0253294485
 20
121.9573070036
 30
0.0
 10
354.7928768014
 20
121.2687415147
 30
0.0
 10
354.6343995081
 20
120.9417510498
 30
0.0
  0
SPLINE
  5
474
100
AcDbEntity
  8
3_ALL_AXES
100
AcDbSpline
 62
7
  6
CONTINUOUS
 70
0
 71
3
 72
9
 73
5
 74
0
 42
0.0000001
 43
0.0000001
 44
0.0000000001
 40
0.0
 40
0.0
 40
0.0
 40
0.0
 40
0.5132036077
 40
1.0
 40
1.0
 40
1.0
 40
1.0
 10
322.5627548834
 20
103.5894046559
 30
0.0
 10
322.7287947144
 20
103.3711329693
 30
0.0
 10
323.0632530281
 20
102.9539632509
 30
0.0
 10
323.4281200922
 20
102.5623035336
 30
0.0
 10
323.6157275744
 20
102.3820975749
 30
0.0
  0
SPLINE
  5
475
100
AcDbEntity
  8
3_ALL_AXES
100
AcDbSpline
 62
7
  6
CONTINUOUS
 70
0
 71
3
 72
15
 73
11
 74
0
 42
0.0000001
 43
0.0000001
 44
0.0000000001
 40
0.0
 40
0.0
 40
0.0
 40
0.0
 40
0.1306094032
 40
0.2603745141
 40
0.3881538635
 40
0.512620187
 40
0.6333657793
 40
0.7525044149
 40
0.8738108507
 40
1.0
 40
1.0
 40
1.0
 40
1.0
 10
323.5561769782
 20
102.3248488165
 30
0.0
 10
323.5582765795
 20
102.0096658363
 30
0.0
 10
323.640711858
 20
101.3791385536
 30
0.0
 10
323.986667766
 20
100.4992972343
 30
0.0
 10
324.5194983275
 20
99.7370033868
 30
0.0
 10
325.1872303837
 20
99.1240095359
 30
0.0
 10
325.9390398508
 20
98.6598325868
 30
0.0
 10
326.744413778
 20
98.3196877057
 30
0.0
 10
327.5961187378
 20
98.0743866563
 30
0.0
 10
328.1838542431
 20
97.9635494171
 30
0.0
 10
328.4850429451
 20
97.9186098551
 30
0.0
  0
SPLINE
  5
476
100
AcDbEntity
  8
3_ALL_AXES
100
AcDbSpline
 62
7
  6
CONTINUOUS
 70
0
 71
3
 72
21
 73
17
 74
0
 42
0.0000001
 43
0.0000001
 44
0.0000000001
 40
0.0
 40
0.0
 40
0.0
 40
0.0
 40
0.1293536019
 40
0.2615730994
 40
0.3265740183
 40
0.3898401981
 40
0.4510513894
 40
0.5104212044
 40
0.6268816136
 40
0.6862769647
 40
0.7471461778
 40
0.8093244355
 40
0.8724142517
 40
0.9042197826
 40
0.9361202756
 40
1.0
 40
1.0
 40
1.0
 40
1.0
 10
328.4850429451
 20
97.9186098551
 30
0.0
 10
328.9736900041
 20
97.8457001322
 30
0.0
 10
329.971361104
 20
97.7590334416
 30
0.0
 10
331.2207383687
 20
97.7781936245
 30
0.0
 10
332.2116828491
 20
97.8718622046
 30
0.0
 10
332.9275310832
 20
97.9808581369
 30
0.0
 10
333.6142841127
 20
98.1304831885
 30
0.0
 10
334.4826625029
 20
98.3876063679
 30
0.0
 10
335.3106591844
 20
98.7571998763
 30
0.0
 10
336.053016301
 20
99.278100696
 30
0.0
 10
336.5595935963
 20
99.7609381154
 30
0.0
 10
336.9878269529
 20
100.332781116
 30
0.0
 10
337.2580652832
 20
100.8724819531
 30
0.0
 10
337.4129281362
 20
101.3320228087
 30
0.0
 10
337.5247888892
 20
101.8068418581
 30
0.0
 10
337.5574916265
 20
102.1741297472
 30
0.0
 10
337.5558663565
 20
102.4181081845
 30
0.0
  0
SPLINE
  5
477
100
AcDbEntity
  8
3_ALL_AXES
100
AcDbSpline
 62
7
  6
CONTINUOUS
 70
0
 71
3
 72
11
 73
7
 74
0
 42
0.0000001
 43
0.0000001
 44
0.0000000001
 40
0.0
 40
0.0
 40
0.0
 40
0.0
 40
0.2242818868
 40
0.4679166045
 40
0.727600614
 40
1.0
 40
1.0
 40
1.0
 40
1.0
 10
337.204231934
 20
102.2033597608
 30
0.0
 10
337.3260456277
 20
102.3184779314
 30
0.0
 10
337.5646742515
 20
102.5751875233
 30
0.0
 10
337.8977499903
 20
103.0055193548
 30
0.0
 10
338.2218888626
 20
103.4864920981
 30
0.0
 10
338.4279526237
 20
103.8266957496
 30
0.0
 10
338.530309095
 20
104.0026504989
 30
0.0
  0
SPLINE
  5
478
100
AcDbEntity
  8
3_ALL_AXES
100
AcDbSpline
 62
7
  6
CONTINUOUS
 70
0
 71
3
 72
11
 73
7
 74
0
 42
0.0000001
 43
0.0000001
 44
0.0000000001
 40
0.0
 40
0.0
 40
0.0
 40
0.0
 40
0.256960533
 40
0.5059070049
 40
0.7524074012
 40
1.0
 40
1.0
 40
1.0
 40
1.0
 10
325.3382693381
 20
101.3528590082
 30
0.0
 10
325.4795329412
 20
101.3217676101
 30
0.0
 10
325.7638060012
 20
101.2852242049
 30
0.0
 10
326.1886991182
 20
101.3057637221
 30
0.0
 10
326.5998031808
 20
101.389752348
 30
0.0
 10
326.863827413
 20
101.4792559263
 30
0.0
 10
326.9934556876
 20
101.5304506349
 30
0.0
  0
SPLINE
  5
479
100
AcDbEntity
  8
3_ALL_AXES
100
AcDbSpline
 62
7
  6
CONTINUOUS
 70
0
 71
3
 72
19
 73
15
 74
0
 42
0.0000001
 43
0.0000001
 44
0.0000000001
 40
0.0
 40
0.0
 40
0.0
 40
0.0
 40
0.1674976416
 40
0.3237678253
 40
0.4571193577
 40
0.569547943
 40
0.6194783065
 40
0.6661884174
 40
0.7109809649
 40
0.755893859
 40
0.8039107173
 40
0.858770952
 40
0.92386179
 40
1.0
 40
1.0
 40
1.0
 40
1.0
 10
324.2337573631
 20
101.3927478211
 30
0.0
 10
324.2344949592
 20
101.2820231234
 30
0.0
 10
324.2780980256
 20
101.0677310956
 30
0.0
 10
324.415529327
 20
100.7956331713
 30
0.0
 10
324.5893741108
 20
100.5913938923
 30
0.0
 10
324.7521144115
 20
100.477642402
 30
0.0
 10
324.8823283604
 20
100.4292406015
 30
0.0
 10
324.9753627256
 20
100.4143318948
 30
0.0
 10
325.0662678147
 20
100.4214477777
 30
0.0
 10
325.1527628033
 20
100.4539520735
 30
0.0
 10
325.2305213751
 20
100.515722989
 30
0.0
 10
325.2932255233
 20
100.6093130068
 30
0.0
 10
325.333859543
 20
100.7338299037
 30
0.0
 10
325.3417678479
 20
100.8276779786
 30
0.0
 10
325.3414325642
 20
100.8780093159
 30
0.0
  0
SPLINE
  5
47A
100
AcDbEntity
  8
3_ALL_AXES
100
AcDbSpline
 62
7
  6
CONTINUOUS
 70
0
 71
3
 72
11
 73
7
 74
0
 42
0.0000001
 43
0.0000001
 44
0.0000000001
 40
0.0
 40
0.0
 40
0.0
 40
0.0
 40
0.2487901721
 40
0.4939843078
 40
0.7413016505
 40
1.0
 40
1.0
 40
1.0
 40
1.0
 10
334.9772327934
 20
101.7370735564
 30
0.0
 10
335.0818312534
 20
101.692256511
 30
0.0
 10
335.2950887816
 20
101.6152858283
 30
0.0
 10
335.6295133023
 20
101.5500418934
 30
0.0
 10
335.9754704184
 20
101.5495517077
 30
0.0
 10
336.2036456682
 20
101.5997334933
 30
0.0
 10
336.3159628586
 20
101.6369655252
 30
0.0
  0
SPLINE
  5
47B
100
AcDbEntity
  8
3_ALL_AXES
100
AcDbSpline
 62
7
  6
CONTINUOUS
 70
0
 71
3
 72
20
 73
16
 74
0
 42
0.0000001
 43
0.0000001
 44
0.0000000001
 40
0.0
 40
0.0
 40
0.0
 40
0.0
 40
0.081310872
 40
0.1490937537
 40
0.2034988606
 40
0.2481282724
 40
0.2876826482
 40
0.3264683242
 40
0.3676112763
 40
0.4130384249
 40
0.5206997237
 40
0.6555515143
 40
0.8198097116
 40
0.910290639
 40
1.0
 40
1.0
 40
1.0
 40
1.0
 10
336.3191260846
 20
101.1621158329
 30
0.0
 10
336.3194596936
 20
101.1120359144
 30
0.0
 10
336.3267608048
 20
101.0199681486
 30
0.0
 10
336.3603547666
 20
100.8982566338
 30
0.0
 10
336.4112213591
 20
100.8075174148
 30
0.0
 10
336.474745826
 20
100.7480923139
 30
0.0
 10
336.546296037
 20
100.718544924
 30
0.0
 10
336.6211431977
 20
100.715732749
 30
0.0
 10
336.6966628666
 20
100.7355075572
 30
0.0
 10
336.8032119078
 20
100.7915953799
 30
0.0
 10
336.9338504175
 20
100.9158686074
 30
0.0
 10
337.0701765139
 20
101.1278945281
 30
0.0
 10
337.1567007895
 20
101.3539461697
 30
0.0
 10
337.1995386289
 20
101.5620983214
 30
0.0
 10
337.207763227
 20
101.6732574636
 30
0.0
 10
337.20739516
 20
101.7285100685
 30
0.0
  0
SPLINE
  5
47C
100
AcDbEntity
  8
3_ALL_AXES
100
AcDbSpline
 62
7
  6
CONTINUOUS
 70
0
 71
3
 72
10
 73
6
 74
0
 42
0.0000001
 43
0.0000001
 44
0.0000000001
 40
0.0
 40
0.0
 40
0.0
 40
0.0
 40
0.4981415458
 40
0.7486123489
 40
1.0
 40
1.0
 40
1.0
 40
1.0
 10
326.9934556876
 20
101.5304506349
 30
0.0
 10
327.4685249958
 20
101.3173760633
 30
0.0
 10
328.2009225936
 20
101.0336203761
 30
0.0
 10
329.2137500965
 20
100.7713502223
 30
0.0
 10
329.7325190678
 20
100.6869559933
 30
0.0
 10
329.9936985543
 20
100.6582348458
 30
0.0
  0
SPLINE
  5
47D
100
AcDbEntity
  8
3_ALL_AXES
100
AcDbSpline
 62
7
  6
CONTINUOUS
 70
0
 71
3
 72
10
 73
6
 74
0
 42
0.0000001
 43
0.0000001
 44
0.0000000001
 40
0.0
 40
0.0
 40
0.0
 40
0.0
 40
0.2503876566
 40
0.5006427185
 40
1.0
 40
1.0
 40
1.0
 40
1.0
 10
331.9896428308
 20
100.7098905762
 30
0.0
 10
332.250821487
 20
100.7521947424
 30
0.0
 10
332.7690142724
 20
100.8636527861
 30
0.0
 10
333.7787135477
 20
101.1786088246
 30
0.0
 10
334.5058952897
 20
101.4998540188
 30
0.0
 10
334.9772327934
 20
101.7370735564
 30
0.0
  0
SPLINE
  5
47E
100
AcDbEntity
  8
3_ALL_AXES
100
AcDbSpline
 62
7
  6
CONTINUOUS
 70
0
 71
3
 72
19
 73
15
 74
0
 42
0.0000001
 43
0.0000001
 44
0.0000000001
 40
0.0
 40
0.0
 40
0.0
 40
0.0
 40
0.0604288928
 40
0.1211865866
 40
0.1826234957
 40
0.244738642
 40
0.3702248378
 40
0.4971182794
 40
0.6245572702
 40
0.7516536352
 40
0.8148880276
 40
0.8774934883
 40
0.9391967133
 40
1.0
 40
1.0
 40
1.0
 40
1.0
 10
329.9968617804
 20
100.1833851535
 30
0.0
 10
329.9972158577
 20
100.1302326113
 30
0.0
 10
330.0174935507
 20
100.0229166441
 30
0.0
 10
330.0985167418
 20
99.8815445695
 30
0.0
 10
330.2142936069
 20
99.7659076822
 30
0.0
 10
330.3989191284
 20
99.6458716942
 30
0.0
 10
330.6647094942
 20
99.5552730054
 30
0.0
 10
331.0002582463
 20
99.5270212725
 30
0.0
 10
331.3352560472
 20
99.5730352049
 30
0.0
 10
331.5988594078
 20
99.6773895477
 30
0.0
 10
331.781263551
 20
99.806677827
 30
0.0
 10
331.8951226823
 20
99.928007722
 30
0.0
 10
331.9740351868
 20
100.0728984259
 30
0.0
 10
331.9931623279
 20
100.1815590293
 30
0.0
 10
331.9928060569
 20
100.2350408839
 30
0.0
  0
SPLINE
  5
47F
100
AcDbEntity
  8
3_ALL_AXES
100
AcDbSpline
 62
9
  6
CONTINUOUS
 70
0
 71
3
 72
9
 73
5
 74
0
 42
0.0000001
 43
0.0000001
 44
0.0000000001
 40
0.0
 40
0.0
 40
0.0
 40
0.0
 40
0.5310154724
 40
1.0
 40
1.0
 40
1.0
 40
1.0
 10
327.4470799034
 20
100.3890986758
 30
0.0
 10
327.0682640931
 20
100.4456207714
 30
0.0
 10
326.358214895
 20
100.5763547779
 30
0.0
 10
325.6613388552
 20
100.7680770553
 30
0.0
 10
325.3414325642
 20
100.8780093159
 30
0.0
  0
SPLINE
  5
480
100
AcDbEntity
  8
3_ALL_AXES
100
AcDbSpline
 62
7
  6
CONTINUOUS
 70
0
 71
3
 72
13
 73
9
 74
0
 42
0.0000001
 43
0.0000001
 44
0.0000000001
 40
0.0
 40
0.0
 40
0.0
 40
0.0
 40
0.2869743137
 40
0.554418986
 40
0.6782620447
 40
0.7942836033
 40
0.9017551963
 40
1.0
 40
1.0
 40
1.0
 40
1.0
 10
331.9896428308
 20
100.7098905762
 30
0.0
 10
332.4137566293
 20
100.7402892145
 30
0.0
 10
333.2316029237
 20
100.823562665
 30
0.0
 10
334.2232818118
 20
100.9925293645
 30
0.0
 10
334.9552199917
 20
101.1645481953
 30
0.0
 10
335.4504755637
 20
101.3052534454
 30
0.0
 10
335.9017380125
 20
101.4596390335
 30
0.0
 10
336.1837269983
 20
101.5761107242
 30
0.0
 10
336.3159628586
 20
101.6369655252
 30
0.0
  0
SPLINE
  5
481
100
AcDbEntity
  8
3_ALL_AXES
100
AcDbSpline
 62
7
  6
CONTINUOUS
 70
0
 71
3
 72
12
 73
8
 74
0
 42
0.0000001
 43
0.0000001
 44
0.0000000001
 40
0.0
 40
0.0
 40
0.0
 40
0.0
 40
0.1034982776
 40
0.2149168894
 40
0.4581674751
 40
0.722627556
 40
1.0
 40
1.0
 40
1.0
 40
1.0
 10
325.3382693381
 20
101.3528590082
 30
0.0
 10
325.4923829313
 20
101.2998995755
 30
0.0
 10
325.8158457847
 20
101.1997995195
 30
0.0
 10
326.5151117901
 20
101.0215968451
 30
0.0
 10
327.4750153897
 20
100.8450325317
 30
0.0
 10
328.7042926927
 20
100.7078547943
 30
0.0
 10
329.5570520275
 20
100.6665676207
 30
0.0
 10
329.9936985543
 20
100.6582348458
 30
0.0
  0
SPLINE
  5
482
100
AcDbEntity
  8
3_ALL_AXES
100
AcDbSpline
 62
9
  6
CONTINUOUS
 70
0
 71
3
 72
12
 73
8
 74
0
 42
0.0000001
 43
0.0000001
 44
0.0000000001
 40
0.0
 40
0.0
 40
0.0
 40
0.0
 40
0.3066588964
 40
0.5687177737
 40
0.7944863593
 40
0.8986303835
 40
1.0
 40
1.0
 40
1.0
 40
1.0
 10
324.2337573631
 20
101.3927478211
 30
0.0
 10
324.1312712924
 20
101.4596570504
 30
0.0
 10
323.9481296825
 20
101.5954246311
 30
0.0
 10
323.7284838981
 20
101.8268577418
 30
0.0
 10
323.6102812179
 20
102.0355799674
 30
0.0
 10
323.5643688793
 20
102.2022439614
 30
0.0
 10
323.5564564437
 20
102.2843911097
 30
0.0
 10
323.5561809829
 20
102.3248488432
 30
0.0
  0
SPLINE
  5
483
100
AcDbEntity
  8
3_ALL_AXES
100
AcDbSpline
 62
9
  6
CONTINUOUS
 70
0
 71
3
 72
9
 73
5
 74
0
 42
0.0000001
 43
0.0000001
 44
0.0000000001
 40
0.0
 40
0.0
 40
0.0
 40
0.0
 40
0.4881007669
 40
1.0
 40
1.0
 40
1.0
 40
1.0
 10
327.4470799034
 20
100.3890986758
 30
0.0
 10
327.8589310939
 20
100.3276474594
 30
0.0
 10
328.7075366422
 20
100.2330196118
 30
0.0
 10
329.5602277989
 20
100.191717689
 30
0.0
 10
329.9968617804
 20
100.1833851535
 30
0.0
  0
SPLINE
  5
484
100
AcDbEntity
  8
3_ALL_AXES
100
AcDbSpline
 62
9
  6
CONTINUOUS
 70
0
 71
3
 72
13
 73
9
 74
0
 42
0.0000001
 43
0.0000001
 44
0.0000000001
 40
0.0
 40
0.0
 40
0.0
 40
0.0
 40
0.2869743137
 40
0.554418986
 40
0.6782620447
 40
0.7942836033
 40
0.9017551963
 40
1.0
 40
1.0
 40
1.0
 40
1.0
 10
331.9928060569
 20
100.2350408839
 30
0.0
 10
332.4169198553
 20
100.2654395222
 30
0.0
 10
333.2347661498
 20
100.3487129727
 30
0.0
 10
334.2264450378
 20
100.5176796722
 30
0.0
 10
334.9583832178
 20
100.689698503
 30
0.0
 10
335.4536387898
 20
100.8304037531
 30
0.0
 10
335.9049012385
 20
100.9847893412
 30
0.0
 10
336.1868902243
 20
101.1012610319
 30
0.0
 10
336.3191260846
 20
101.1621158329
 30
0.0
  0
SPLINE
  5
485
100
AcDbEntity
  8
3_ALL_AXES
100
AcDbSpline
 62
9
  6
CONTINUOUS
 70
0
 71
3
 72
11
 73
7
 74
0
 42
0.0000001
 43
0.0000001
 44
0.0000000001
 40
0.0
 40
0.0
 40
0.0
 40
0.0
 40
0.2869191262
 40
0.5439362294
 40
0.7781701337
 40
1.0
 40
1.0
 40
1.0
 40
1.0
 10
337.20739516
 20
101.7285100685
 30
0.0
 10
337.2621039854
 20
101.7810770888
 30
0.0
 10
337.3598128195
 20
101.8874468526
 30
0.0
 10
337.4726234606
 20
102.0609453003
 30
0.0
 10
337.5411920449
 20
102.2382587204
 30
0.0
 10
337.5562617281
 20
102.3594506048
 30
0.0
 10
337.5558623518
 20
102.4181081578
 30
0.0
  0
SPLINE
  5
486
100
AcDbEntity
  8
3_ALL_AXES
100
AcDbSpline
 62
7
  6
CONTINUOUS
 70
0
 71
3
 72
11
 73
7
 74
0
 42
0.0000001
 43
0.0000001
 44
0.0000000001
 40
0.0
 40
0.0
 40
0.0
 40
0.0
 40
0.2958798375
 40
0.5642525446
 40
0.8000774289
 40
1.0
 40
1.0
 40
1.0
 40
1.0
 10
327.8532557285
 20
106.3704921012
 30
0.0
 10
327.5799434858
 20
106.4112722911
 30
0.0
 10
327.0607779911
 20
106.5040536518
 30
0.0
 10
326.3354457488
 20
106.6869118328
 30
0.0
 10
325.71339787
 20
106.9028551377
 30
0.0
 10
325.3453573773
 20
107.0804818356
 30
0.0
 10
325.1853328539
 20
107.176689248
 30
0.0
  0
SPLINE
  5
487
100
AcDbEntity
  8
3_ALL_AXES
100
AcDbSpline
 62
7
  6
CONTINUOUS
 70
0
 71
3
 72
12
 73
8
 74
0
 42
0.0000001
 43
0.0000001
 44
0.0000000001
 40
0.0
 40
0.0
 40
0.0
 40
0.0
 40
0.2478550733
 40
0.5078501995
 40
0.7638150754
 40
0.8853191495
 40
1.0
 40
1.0
 40
1.0
 40
1.0
 10
327.8532557285
 20
106.3704921012
 30
0.0
 10
328.3483687089
 20
106.2966176154
 30
0.0
 10
329.3709946913
 20
106.1974248818
 30
0.0
 10
330.9149782321
 20
106.176507041
 30
0.0
 10
332.2013426646
 20
106.2629525882
 30
0.0
 10
333.1865448234
 20
106.3970860821
 30
0.0
 10
333.6556893135
 20
106.4849644895
 30
0.0
 10
333.8819944043
 20
106.5343049445
 30
0.0
  0
SPLINE
  5
488
100
AcDbEntity
  8
7_ALL_FEATURES
100
AcDbSpline
 62
7
  6
CONTINUOUS
 70
0
 71
3
 72
13
 73
9
 74
0
 42
0.0000001
 43
0.0000001
 44
0.0000000001
 40
0.0
 40
0.0
 40
0.0
 40
0.0
 40
0.2589059227
 40
0.5124071473
 40
0.6368404286
 40
0.7594765945
 40
0.8804420472
 40
1.0
 40
1.0
 40
1.0
 40
1.0
 10
315.6934787978
 20
120.6072413436
 30
0.0
 10
315.4884219128
 20
120.3026398384
 30
0.0
 10
315.1564499866
 20
119.6460357485
 30
0.0
 10
314.9675265599
 20
118.7512396904
 30
0.0
 10
314.9660733532
 20
118.039299176
 30
0.0
 10
315.0385357391
 20
117.5205140137
 30
0.0
 10
315.1832892176
 20
117.0243963453
 30
0.0
 10
315.3270473934
 20
116.7133576373
 30
0.0
 10
315.4097187857
 20
116.5653138587
 30
0.0
  0
SPLINE
  5
489
100
AcDbEntity
  8
7_ALL_FEATURES
100
AcDbSpline
 62
7
  6
CONTINUOUS
 70
0
 71
3
 72
11
 73
7
 74
0
 42
0.0000001
 43
0.0000001
 44
0.0000000001
 40
0.0
 40
0.0
 40
0.0
 40
0.0
 40
0.2450313924
 40
0.4922982654
 40
0.7435755107
 40
1.0
 40
1.0
 40
1.0
 40
1.0
 10
319.9515451355
 20
108.4817970792
 30
0.0
 10
319.9781441678
 20
108.4572562812
 30
0.0
 10
320.037331747
 20
108.4138047211
 30
0.0
 10
320.1387900503
 20
108.3695880679
 30
0.0
 10
320.2489762535
 20
108.3477896444
 30
0.0
 10
320.3245638806
 20
108.3487570089
 30
0.0
 10
320.3622036548
 20
108.3529566125
 30
0.0
  0
SPLINE
  5
48A
100
AcDbEntity
  8
7_ALL_FEATURES
100
AcDbSpline
 62
7
  6
CONTINUOUS
 70
0
 71
3
 72
26
 73
22
 74
0
 42
0.0000001
 43
0.0000001
 44
0.0000000001
 40
0.0
 40
0.0
 40
0.0
 40
0.0
 40
0.021226424
 40
0.0443953692
 40
0.0963471796
 40
0.1553040146
 40
0.2203683598
 40
0.2904163579
 40
0.3641636219
 40
0.4402151955
 40
0.5171103968
 40
0.5933649353
 40
0.6675124198
 40
0.7381463622
 40
0.803964325
 40
0.8638173443
 40
0.9167716079
 40
0.9404606752
 40
0.9622231884
 40
0.9820556367
 40
1.0
 40
1.0
 40
1.0
 40
1.0
 10
318.9534086852
 20
159.3007459604
 30
0.0
 10
319.1316409284
 20
159.4143936353
 30
0.0
 10
319.5147038958
 20
159.6361408224
 30
0.0
 10
320.3764073576
 20
160.059332739
 30
0.0
 10
321.6248724431
 20
160.5400150331
 30
0.0
 10
323.3094141202
 20
161.0283550432
 30
0.0
 10
325.1996106859
 20
161.4374857638
 30
0.0
 10
327.2556389398
 20
161.7584465266
 30
0.0
 10
329.4342135754
 20
161.9841055815
 30
0.0
 10
331.68906596
 20
162.1094763932
 30
0.0
 10
333.9722377632
 20
162.1317930938
 30
0.0
 10
336.2351165396
 20
162.0505741809
 30
0.0
 10
338.4295621001
 20
161.8676343355
 30
0.0
 10
340.50894939
 20
161.5870384852
 30
0.0
 10
342.4294370514
 20
161.2150525643
 30
0.0
 10
344.1505280183
 20
160.7598600597
 30
0.0
 10
345.4337436867
 20
160.3042105188
 30
0.0
 10
346.3264957805
 20
159.8987310087
 30
0.0
 10
346.9001250252
 20
159.5915571371
 30
0.0
 10
347.4001046001
 20
159.2716612567
 30
0.0
 10
347.6971526016
 20
159.0394521412
 30
0.0
 10
347.8309887386
 20
158.9210421725
 30
0.0
  0
SPLINE
  5
48B
100
AcDbEntity
  8
7_ALL_FEATURES
100
AcDbSpline
 62
7
  6
CONTINUOUS
 70
0
 71
3
 72
11
 73
7
 74
0
 42
0.0000001
 43
0.0000001
 44
0.0000000001
 40
0.0
 40
0.0
 40
0.0
 40
0.0
 40
0.2899237886
 40
0.5475033303
 40
0.7805034786
 40
1.0
 40
1.0
 40
1.0
 40
1.0
 10
317.9053703747
 20
158.4679257229
 30
0.0
 10
317.7671897774
 20
158.3423833084
 30
0.0
 10
317.5204280224
 20
158.0884804991
 30
0.0
 10
317.2341568594
 20
157.6717263565
 30
0.0
 10
317.0595853139
 20
157.2447375856
 30
0.0
 10
317.020937975
 20
156.9518104717
 30
0.0
 10
317.0218854099
 20
156.8104704422
 30
0.0
  0
SPLINE
  5
48C
100
AcDbEntity
  8
7_ALL_FEATURES
100
AcDbSpline
 62
7
  6
CONTINUOUS
 70
0
 71
3
 72
11
 73
7
 74
0
 42
0.0000001
 43
0.0000001
 44
0.0000000001
 40
0.0
 40
0.0
 40
0.0
 40
0.0
 40
0.2898826694
 40
0.5474888439
 40
0.780502958
 40
1.0
 40
1.0
 40
1.0
 40
1.0
 10
348.1156891523
 20
158.669173065
 30
0.0
 10
348.2555021086
 20
158.5454914481
 30
0.0
 10
348.5056226413
 20
158.2949100408
 30
0.0
 10
348.7974104871
 20
157.8820067717
 30
0.0
 10
348.9777263994
 20
157.4573767771
 30
0.0
 10
349.0202263862
 20
157.1649748954
 30
0.0
 10
349.0211738222
 20
157.0236347014
 30
0.0
  0
SPLINE
  5
48D
100
AcDbEntity
  8
7_ALL_FEATURES
100
AcDbSpline
 62
7
  6
CONTINUOUS
 70
0
 71
3
 72
11
 73
7
 74
0
 42
0.0000001
 43
0.0000001
 44
0.0000000001
 40
0.0
 40
0.0
 40
0.0
 40
0.0
 40
0.2286227672
 40
0.4664238617
 40
0.7214630043
 40
1.0
 40
1.0
 40
1.0
 40
1.0
 10
317.0218854099
 20
156.8104704422
 30
0.0
 10
317.0226414754
 20
156.6976792478
 30
0.0
 10
317.0494855142
 20
156.4670443602
 30
0.0
 10
317.1638232226
 20
156.1276193241
 30
0.0
 10
317.3505948894
 20
155.7939399684
 30
0.0
 10
317.5140166209
 20
155.5862633782
 30
0.0
 10
317.6054778176
 20
155.4837013563
 30
0.0
  0
SPLINE
  5
48E
100
AcDbEntity
  8
7_ALL_FEATURES
100
AcDbSpline
 62
7
  6
CONTINUOUS
 70
0
 71
3
 72
9
 73
5
 74
0
 42
0.0000001
 43
0.0000001
 44
0.0000000001
 40
0.0
 40
0.0
 40
0.0
 40
0.0
 40
0.2433243619
 40
1.0
 40
1.0
 40
1.0
 40
1.0
 10
317.6054778176
 20
155.4837013563
 30
0.0
 10
317.623475503
 20
155.4635192564
 30
0.0
 10
317.6984538649
 20
155.3814815746
 30
0.0
 10
317.7773232675
 20
155.3030250906
 30
0.0
 10
317.8387218787
 20
155.2455655626
 30
0.0
  0
SPLINE
  5
48F
100
AcDbEntity
  8
7_ALL_FEATURES
100
AcDbSpline
 62
7
  6
CONTINUOUS
 70
0
 71
3
 72
9
 73
5
 74
0
 42
0.0000001
 43
0.0000001
 44
0.0000000001
 40
0.0
 40
0.0
 40
0.0
 40
0.0
 40
0.4631428759
 40
1.0
 40
1.0
 40
1.0
 40
1.0
 10
317.8387218787
 20
155.2455655626
 30
0.0
 10
318.039121529
 20
155.0580227325
 30
0.0
 10
318.511467247
 20
154.6952739158
 30
0.0
 10
319.0262086937
 20
154.3991102274
 30
0.0
 10
319.3090725706
 20
154.253478427
 30
0.0
  0
SPLINE
  5
490
100
AcDbEntity
  8
7_ALL_FEATURES
100
AcDbSpline
 62
7
  6
CONTINUOUS
 70
0
 71
3
 72
11
 73
7
 74
0
 42
0.0000001
 43
0.0000001
 44
0.0000000001
 40
0.0
 40
0.0
 40
0.0
 40
0.0
 40
0.2290441895
 40
0.4670778749
 40
0.721986642
 40
1.0
 40
1.0
 40
1.0
 40
1.0
 10
349.0211738222
 20
157.0236347014
 30
0.0
 10
349.0219210339
 20
156.9121643282
 30
0.0
 10
348.9987242929
 20
156.6840123725
 30
0.0
 10
348.8915350709
 20
156.3471253244
 30
0.0
 10
348.713568252
 20
156.0147849847
 30
0.0
 10
348.5565138089
 20
155.8071207231
 30
0.0
 10
348.468433853
 20
155.7044099057
 30
0.0
  0
SPLINE
  5
491
100
AcDbEntity
  8
7_ALL_FEATURES
100
AcDbSpline
 62
7
  6
CONTINUOUS
 70
0
 71
3
 72
9
 73
5
 74
0
 42
0.0000001
 43
0.0000001
 44
0.0000000001
 40
0.0
 40
0.0
 40
0.0
 40
0.0
 40
0.2437119855
 40
1.0
 40
1.0
 40
1.0
 40
1.0
 10
348.468433853
 20
155.7044099057
 30
0.0
 10
348.4519722864
 20
155.6852139269
 30
0.0
 10
348.3835164129
 20
155.6072321746
 30
0.0
 10
348.3115513838
 20
155.5323499615
 30
0.0
 10
348.2555408758
 20
155.4773879059
 30
0.0
  0
SPLINE
  5
492
100
AcDbEntity
  8
7_ALL_FEATURES
100
AcDbSpline
 62
7
  6
CONTINUOUS
 70
0
 71
3
 72
9
 73
5
 74
0
 42
0.0000001
 43
0.0000001
 44
0.0000000001
 40
0.0
 40
0.0
 40
0.0
 40
0.0
 40
0.2392450965
 40
1.0
 40
1.0
 40
1.0
 40
1.0
 10
348.2177244607
 20
155.4407587284
 30
0.0
 10
348.1828892486
 20
155.4074483337
 30
0.0
 10
348.0348552419
 20
155.2707631095
 30
0.0
 10
347.8778324535
 20
155.1439558515
 30
0.0
 10
347.7549641119
 20
155.0523453721
 30
0.0
  0
SPLINE
  5
493
100
AcDbEntity
  8
7_ALL_FEATURES
100
AcDbSpline
 62
7
  6
CONTINUOUS
 70
0
 71
3
 72
9
 73
5
 74
0
 42
0.0000001
 43
0.0000001
 44
0.0000000001
 40
0.0
 40
0.0
 40
0.0
 40
0.0
 40
0.2434732918
 40
1.0
 40
1.0
 40
1.0
 40
1.0
 10
347.7549641119
 20
155.0523453721
 30
0.0
 10
347.7273389125
 20
155.0317480585
 30
0.0
 10
347.6131337271
 20
154.9481479522
 30
0.0
 10
347.4960848393
 20
154.8684519315
 30
0.0
 10
347.4062719793
 20
154.810160959
 30
0.0
  0
SPLINE
  5
494
100
AcDbEntity
  8
7_ALL_FEATURES
100
AcDbSpline
 62
7
  6
CONTINUOUS
 70
0
 71
3
 72
9
 73
5
 74
0
 42
0.0000001
 43
0.0000001
 44
0.0000000001
 40
0.0
 40
0.0
 40
0.0
 40
0.0
 40
0.2581102493
 40
1.0
 40
1.0
 40
1.0
 40
1.0
 10
318.1864654659
 20
158.723361436
 30
0.0
 10
318.1613881133
 20
158.7005715117
 30
0.0
 10
318.0652678979
 20
158.6111478417
 30
0.0
 10
317.9734354373
 20
158.5170663557
 30
0.0
 10
317.9084746507
 20
158.444494993
 30
0.0
  0
SPLINE
  5
495
100
AcDbEntity
  8
7_ALL_FEATURES
100
AcDbSpline
 62
7
  6
CONTINUOUS
 70
0
 71
3
 72
32
 73
28
 74
0
 42
0.0000001
 43
0.0000001
 44
0.0000000001
 40
0.0
 40
0.0
 40
0.0
 40
0.0
 40
0.0166007806
 40
0.0313870177
 40
0.0451622421
 40
0.0589413318
 40
0.0737399117
 40
0.0903579234
 40
0.1093166043
 40
0.1309015396
 40
0.1552336982
 40
0.182317337
 40
0.2120742197
 40
0.244367267
 40
0.2790101141
 40
0.3157807592
 40
0.3946582182
 40
0.4787274463
 40
0.5654526144
 40
0.6521782281
 40
0.7362486234
 40
0.8151278372
 40
0.8865279798
 40
0.9188216485
 40
0.9485795271
 40
0.9756702698
 40
1.0
 40
1.0
 40
1.0
 40
1.0
 10
317.9084746507
 20
158.444494993
 30
0.0
 10
317.7856853858
 20
158.3073201718
 30
0.0
 10
317.5735210144
 20
158.0280951165
 30
0.0
 10
317.3652101905
 20
157.5668895009
 30
0.0
 10
317.2964160269
 20
157.0953628834
 30
0.0
 10
317.3725665302
 20
156.6248611447
 30
0.0
 10
317.5882230922
 20
156.1665079618
 30
0.0
 10
317.9349188791
 20
155.7239029014
 30
0.0
 10
318.4073217714
 20
155.297663838
 30
0.0
 10
319.0014070385
 20
154.8890234385
 30
0.0
 10
319.712862589
 20
154.500363427
 30
0.0
 10
320.5362514763
 20
154.1344864012
 30
0.0
 10
321.4650206088
 20
153.7942945451
 30
0.0
 10
322.4915892981
 20
153.482719309
 30
0.0
 10
323.6074140979
 20
153.2023371287
 30
0.0
 10
325.2401920086
 20
152.8655623192
 30
0.0
 10
327.4338260688
 20
152.5450390444
 30
0.0
 10
330.1952846811
 20
152.3215157626
 30
0.0
 10
333.0521267468
 20
152.2589450463
 30
0.0
 10
335.9078343531
 20
152.3595323024
 30
0.0
 10
338.6662895533
 20
152.6196999979
 30
0.0
 10
341.2344942356
 20
153.0302893988
 30
0.0
 10
343.206997545
 20
153.4996518174
 30
0.0
 10
344.6179925413
 20
153.948297739
 30
0.0
 10
345.5422882153
 20
154.3008387992
 30
0.0
 10
346.3606918807
 20
154.6776598197
 30
0.0
 10
346.8583509709
 20
154.9581137762
 30
0.0
 10
347.0858546757
 20
155.103178814
 30
0.0
  0
SPLINE
  5
496
100
AcDbEntity
  8
7_ALL_FEATURES
100
AcDbSpline
 62
7
  6
CONTINUOUS
 70
0
 71
3
 72
9
 73
5
 74
0
 42
0.0000001
 43
0.0000001
 44
0.0000000001
 40
0.0
 40
0.0
 40
0.0
 40
0.0
 40
0.2568451092
 40
1.0
 40
1.0
 40
1.0
 40
1.0
 10
347.8309887386
 20
158.9210421725
 30
0.0
 10
347.8525839497
 20
158.9019360601
 30
0.0
 10
347.9359200461
 20
158.8267165415
 30
0.0
 10
348.016203125
 20
158.7480886545
 30
0.0
 10
348.0736875865
 20
158.6876256158
 30
0.0
  0
SPLINE
  5
497
100
AcDbEntity
  8
7_ALL_FEATURES
100
AcDbSpline
 62
7
  6
CONTINUOUS
 70
0
 71
3
 72
15
 73
11
 74
0
 42
0.0000001
 43
0.0000001
 44
0.0000000001
 40
0.0
 40
0.0
 40
0.0
 40
0.0
 40
0.1271538469
 40
0.2403039809
 40
0.3455725481
 40
0.4507548681
 40
0.5636541281
 40
0.6904496015
 40
0.8352053389
 40
1.0
 40
1.0
 40
1.0
 40
1.0
 10
348.1032059987
 20
158.6561882246
 30
0.0
 10
348.2291339766
 20
158.5203738897
 30
0.0
 10
348.4474211471
 20
158.2434400105
 30
0.0
 10
348.6653050287
 20
157.783886183
 30
0.0
 10
348.7429709601
 20
157.3118576652
 30
0.0
 10
348.674730494
 20
156.8387624963
 30
0.0
 10
348.4659298797
 20
156.375939431
 30
0.0
 10
348.1248874547
 20
155.9272204412
 30
0.0
 10
347.6572313309
 20
155.4933972401
 30
0.0
 10
347.2882495738
 20
155.2322335191
 30
0.0
 10
347.0858546757
 20
155.103178814
 30
0.0
  0
SPLINE
  5
498
100
AcDbEntity
  8
7_ALL_FEATURES
100
AcDbSpline
 62
7
  6
CONTINUOUS
 70
0
 71
3
 72
9
 73
5
 74
0
 42
0.0000001
 43
0.0000001
 44
0.0000000001
 40
0.0
 40
0.0
 40
0.0
 40
0.0
 40
0.2554121942
 40
1.0
 40
1.0
 40
1.0
 40
1.0
 10
317.6833511371
 20
155.2421362308
 30
0.0
 10
317.6667312039
 20
155.2578272655
 30
0.0
 10
317.6021748708
 20
155.319802975
 30
0.0
 10
317.5397246874
 20
155.3839829568
 30
0.0
 10
317.4946494458
 20
155.4330560121
 30
0.0
  0
SPLINE
  5
499
100
AcDbEntity
  8
7_ALL_FEATURES
100
AcDbSpline
 62
7
  6
CONTINUOUS
 70
0
 71
3
 72
9
 73
5
 74
0
 42
0.0000001
 43
0.0000001
 44
0.0000000001
 40
0.0
 40
0.0
 40
0.0
 40
0.0
 40
0.2646798599
 40
1.0
 40
1.0
 40
1.0
 40
1.0
 10
317.4946494458
 20
155.4330560121
 30
0.0
 10
317.4545425255
 20
155.4767200958
 30
0.0
 10
317.3073057799
 20
155.6454828525
 30
0.0
 10
317.1781244069
 20
155.8307371928
 30
0.0
 10
317.0994463635
 20
155.9754432312
 30
0.0
  0
SPLINE
  5
49A
100
AcDbEntity
  8
7_ALL_FEATURES
100
AcDbSpline
 62
7
  6
CONTINUOUS
 70
0
 71
3
 72
9
 73
5
 74
0
 42
0.0000001
 43
0.0000001
 44
0.0000000001
 40
0.0
 40
0.0
 40
0.0
 40
0.0
 40
0.2592914023
 40
1.0
 40
1.0
 40
1.0
 40
1.0
 10
317.0994463635
 20
155.9754432312
 30
0.0
 10
317.0782385296
 20
156.0144490514
 30
0.0
 10
317.0009807361
 20
156.1672617118
 30
0.0
 10
316.9430839888
 20
156.3301740473
 30
0.0
 10
316.9143609054
 20
156.4537104453
 30
0.0
  0
SPLINE
  5
49B
100
AcDbEntity
  8
7_ALL_FEATURES
100
AcDbSpline
 62
7
  6
CONTINUOUS
 70
0
 71
3
 72
9
 73
5
 74
0
 42
0.0000001
 43
0.0000001
 44
0.0000000001
 40
0.0
 40
0.0
 40
0.0
 40
0.0
 40
0.2525120277
 40
1.0
 40
1.0
 40
1.0
 40
1.0
 10
316.9143609054
 20
156.4537104453
 30
0.0
 10
316.9082317474
 20
156.4800716159
 30
0.0
 10
316.8864558379
 20
156.5850295484
 30
0.0
 10
316.8749893
 20
156.6921469172
 30
0.0
 10
316.8725745061
 20
156.772226543
 30
0.0
  0
SPLINE
  5
49C
100
AcDbEntity
  8
7_ALL_FEATURES
100
AcDbSpline
 62
7
  6
CONTINUOUS
 70
0
 71
3
 72
9
 73
5
 74
0
 42
0.0000001
 43
0.0000001
 44
0.0000000001
 40
0.0
 40
0.0
 40
0.0
 40
0.0
 40
0.2615572238
 40
1.0
 40
1.0
 40
1.0
 40
1.0
 10
317.0153640153
 20
156.9411014632
 30
0.0
 10
317.009254276
 20
156.9298406361
 30
0.0
 10
316.9864265551
 20
156.8865031382
 30
0.0
 10
316.9657704836
 20
156.8420087633
 30
0.0
 10
316.9520066554
 20
156.8085596912
 30
0.0
  0
SPLINE
  5
49D
100
AcDbEntity
  8
7_ALL_FEATURES
100
AcDbSpline
 62
7
  6
CONTINUOUS
 70
0
 71
3
 72
9
 73
5
 74
0
 42
0.0000001
 43
0.0000001
 44
0.0000000001
 40
0.0
 40
0.0
 40
0.0
 40
0.0
 40
0.2633542988
 40
1.0
 40
1.0
 40
1.0
 40
1.0
 10
316.9357641778
 20
156.7668892214
 30
0.0
 10
316.9304678911
 20
156.7524934439
 30
0.0
 10
316.9114564779
 20
156.6974354424
 30
0.0
 10
316.8969620247
 20
156.6407920988
 30
0.0
 10
316.8892384409
 20
156.5985868821
 30
0.0
  0
SPLINE
  5
49E
100
AcDbEntity
  8
7_ALL_FEATURES
100
AcDbSpline
 62
7
  6
CONTINUOUS
 70
0
 71
3
 72
23
 73
19
 74
0
 42
0.0000001
 43
0.0000001
 44
0.0000000001
 40
0.0
 40
0.0
 40
0.0
 40
0.0
 40
0.044373209
 40
0.0963298889
 40
0.1552922543
 40
0.2203627036
 40
0.2904172722
 40
0.3641714529
 40
0.44023016
 40
0.517132575
 40
0.5933942676
 40
0.6675487088
 40
0.7381892788
 40
0.8040134178
 40
0.8638720546
 40
0.9168312891
 40
0.9622625547
 40
1.0
 40
1.0
 40
1.0
 40
1.0
 10
347.7578080035
 20
155.0029184522
 30
0.0
 10
347.3674565733
 20
154.7540154908
 30
0.0
 10
346.4727723579
 20
154.2877248158
 30
0.0
 10
344.9590197935
 20
153.704450086
 30
0.0
 10
343.1936215798
 20
153.192779945
 30
0.0
 10
341.2132488034
 20
152.7641053041
 30
0.0
 10
339.0589667843
 20
152.4278118347
 30
0.0
 10
336.7763306348
 20
152.1913729317
 30
0.0
 10
334.4137594472
 20
152.0600129754
 30
0.0
 10
332.0215200375
 20
152.0366303662
 30
0.0
 10
329.6505408286
 20
152.1217283796
 30
0.0
 10
327.3512685133
 20
152.3134100187
 30
0.0
 10
325.1725357305
 20
152.6074008541
 30
0.0
 10
323.1603441577
 20
152.9971876888
 30
0.0
 10
321.3569089069
 20
153.4740250843
 30
0.0
 10
319.7986628001
 20
154.0277830999
 30
0.0
 10
318.5169561748
 20
154.6461585939
 30
0.0
 10
317.7956047887
 20
155.1398701793
 30
0.0
 10
317.5007261057
 20
155.4007606145
 30
0.0
  0
SPLINE
  5
49F
100
AcDbEntity
  8
02___PRT_ALL_AXES
100
AcDbSpline
 62
7
  6
CONTINUOUS
 70
0
 71
3
 72
17
 73
13
 74
0
 42
0.0000001
 43
0.0000001
 44
0.0000000001
 40
0.0
 40
0.0
 40
0.0
 40
0.0
 40
0.0406760719
 40
0.0853140781
 40
0.1338342677
 40
0.1860946997
 40
0.3009701775
 40
0.4278913644
 40
0.5642782136
 40
0.7072069771
 40
0.8535328217
 40
1.0
 40
1.0
 40
1.0
 40
1.0
 10
357.2226043854
 20
151.693190594
 30
0.0
 10
356.8920348877
 20
151.4824068764
 30
0.0
 10
356.1781212661
 20
151.0722229331
 30
0.0
 10
355.0154172877
 20
150.5116399966
 30
0.0
 10
353.7176155815
 20
149.9802634635
 30
0.0
 10
351.7549845725
 20
149.2934555105
 30
0.0
 10
349.018164812
 20
148.543479626
 30
0.0
 10
345.4411489895
 20
147.8303367596
 30
0.0
 10
341.5600784205
 20
147.2964665489
 30
0.0
 10
337.4699419681
 20
146.9554333549
 30
0.0
 10
333.2709719969
 20
146.8160230884
 30
0.0
 10
330.4478940457
 20
146.8601698479
 30
0.0
 10
329.0373557416
 20
146.9177691027
 30
0.0
  0
SPLINE
  5
4A0
100
AcDbEntity
  8
02___PRT_ALL_AXES
100
AcDbSpline
 62
7
  6
CONTINUOUS
 70
0
 71
3
 72
20
 73
16
 74
0
 42
0.0000001
 43
0.0000001
 44
0.0000000001
 40
0.0
 40
0.0
 40
0.0
 40
0.0
 40
0.1813252533
 40
0.3531183798
 40
0.5107171782
 40
0.5829306007
 40
0.6501715967
 40
0.7121032046
 40
0.768484524
 40
0.8191992141
 40
0.8642988753
 40
0.9040702587
 40
0.9391351217
 40
0.9705738835
 40
1.0
 40
1.0
 40
1.0
 40
1.0
 10
329.0373557416
 20
146.9177691027
 30
0.0
 10
327.4839922089
 20
146.981200618
 30
0.0
 10
324.4614431222
 20
147.1884588366
 30
0.0
 10
320.116354249
 20
147.7518050639
 30
0.0
 10
316.736388839
 20
148.4294301526
 30
0.0
 10
314.2767066256
 20
149.0933892058
 30
0.0
 10
312.6330942658
 20
149.6250709714
 30
0.0
 10
311.1488837105
 20
150.2007031744
 30
0.0
 10
309.8352468862
 20
150.8159167156
 30
0.0
 10
308.7017961811
 20
151.4661806216
 30
0.0
 10
307.7564951348
 20
152.1472548509
 30
0.0
 10
307.0058490768
 20
152.8555899305
 30
0.0
 10
306.4559409001
 20
153.5893859369
 30
0.0
 10
306.115111485
 20
154.3465760318
 30
0.0
 10
306.0345639056
 20
154.8704199617
 30
0.0
 10
306.0328836156
 20
155.1227098939
 30
0.0
  0
SPLINE
  5
4A1
100
AcDbEntity
  8
02___PRT_ALL_AXES
100
AcDbSpline
 62
7
  6
CONTINUOUS
 70
0
 71
3
 72
13
 73
9
 74
0
 42
0.0000001
 43
0.0000001
 44
0.0000000001
 40
0.0
 40
0.0
 40
0.0
 40
0.0
 40
0.3096812231
 40
0.4467353409
 40
0.5728777387
 40
0.7973090858
 40
0.9001500002
 40
1.0
 40
1.0
 40
1.0
 40
1.0
 10
357.2226043854
 20
151.693190594
 30
0.0
 10
357.6500165503
 20
151.9657248892
 30
0.0
 10
358.2458108019
 20
152.3962340603
 30
0.0
 10
358.9245891635
 20
153.0455840018
 30
0.0
 10
359.4408344833
 20
153.6550822748
 30
0.0
 10
359.81796312
 20
154.3089241906
 30
0.0
 10
360.0038095307
 20
154.9862121892
 30
0.0
 10
360.032774076
 20
155.3189793459
 30
0.0
 10
360.0316855537
 20
155.4824173421
 30
0.0
  0
SPLINE
  5
4A2
100
AcDbEntity
  8
7_ALL_FEATURES
100
AcDbSpline
 62
7
  6
CONTINUOUS
 70
0
 71
3
 72
9
 73
5
 74
0
 42
0.0000001
 43
0.0000001
 44
0.0000000001
 40
0.0
 40
0.0
 40
0.0
 40
0.0
 40
0.2370007884
 40
1.0
 40
1.0
 40
1.0
 40
1.0
 10
349.1578835596
 20
156.8064554413
 30
0.0
 10
349.1551569182
 20
156.8208282107
 30
0.0
 10
349.1422219879
 20
156.8811973277
 30
0.0
 10
349.123470923
 20
156.9402797042
 30
0.0
 10
349.1065014633
 20
156.98421325
 30
0.0
  0
SPLINE
  5
4A3
100
AcDbEntity
  8
7_ALL_FEATURES
100
AcDbSpline
 62
7
  6
CONTINUOUS
 70
0
 71
3
 72
9
 73
5
 74
0
 42
0.0000001
 43
0.0000001
 44
0.0000000001
 40
0.0
 40
0.0
 40
0.0
 40
0.0
 40
0.2405311042
 40
1.0
 40
1.0
 40
1.0
 40
1.0
 10
349.0899361501
 20
157.0248431823
 30
0.0
 10
349.0859620447
 20
157.0341066392
 30
0.0
 10
349.0689700073
 20
157.0724167249
 30
0.0
 10
349.0501286434
 20
157.1098995831
 30
0.0
 10
349.0349515964
 20
157.1378749178
 30
0.0
  0
SPLINE
  5
4A4
100
AcDbEntity
  8
7_ALL_FEATURES
100
AcDbSpline
 62
7
  6
CONTINUOUS
 70
0
 71
3
 72
11
 73
7
 74
0
 42
0.0000001
 43
0.0000001
 44
0.0000000001
 40
0.0
 40
0.0
 40
0.0
 40
0.0
 40
0.2899110262
 40
0.5474938703
 40
0.7805032678
 40
1.0
 40
1.0
 40
1.0
 40
1.0
 10
355.5304471271
 20
143.978340861
 30
0.0
 10
355.7355465449
 20
144.1646874068
 30
0.0
 10
356.101824958
 20
144.5415701475
 30
0.0
 10
356.5267424476
 20
145.1601924683
 30
0.0
 10
356.7859268221
 20
145.79399684
 30
0.0
 10
356.8432594946
 20
146.2288259787
 30
0.0
 10
356.8418485072
 20
146.4386272514
 30
0.0
  0
SPLINE
  5
4A5
100
AcDbEntity
  8
7_ALL_FEATURES
100
AcDbSpline
 62
7
  6
CONTINUOUS
 70
0
 71
3
 72
9
 73
5
 74
0
 42
0.0000001
 43
0.0000001
 44
0.0000000001
 40
0.0
 40
0.0
 40
0.0
 40
0.0
 40
0.2404819919
 40
1.0
 40
1.0
 40
1.0
 40
1.0
 10
355.061517451
 20
143.5522053812
 30
0.0
 10
355.0145834676
 20
143.5095532961
 30
0.0
 10
354.8167990978
 20
143.3350800224
 30
0.0
 10
354.6092161816
 20
143.1718395624
 30
0.0
 10
354.4476526443
 20
143.0534482964
 30
0.0
  0
SPLINE
  5
4A6
100
AcDbEntity
  8
7_ALL_FEATURES
100
AcDbSpline
 62
7
  6
CONTINUOUS
 70
0
 71
3
 72
18
 73
14
 74
0
 42
0.0000001
 43
0.0000001
 44
0.0000000001
 40
0.0
 40
0.0
 40
0.0
 40
0.0
 40
0.0386422494
 40
0.0815304899
 40
0.1286354915
 40
0.1798323311
 40
0.2936308846
 40
0.4207533003
 40
0.4884475038
 40
0.5583661446
 40
0.7031613468
 40
0.8515957516
 40
1.0
 40
1.0
 40
1.0
 40
1.0
 10
354.4476526443
 20
143.0534482964
 30
0.0
 10
354.1782531289
 20
142.8560364903
 30
0.0
 10
353.5861626932
 20
142.4715025233
 30
0.0
 10
352.6044090243
 20
141.9476206967
 30
0.0
 10
351.4892136952
 20
141.4499631234
 30
0.0
 10
349.7730232906
 20
140.8031123452
 30
0.0
 10
347.3448676157
 20
140.0976431665
 30
0.0
 10
344.7317628797
 20
139.5520894295
 30
0.0
 10
342.4719543635
 20
139.1913244847
 30
0.0
 10
340.0506859204
 20
138.8800275485
 30
0.0
 10
336.9214527853
 20
138.6146419981
 30
0.0
 10
333.1047726321
 20
138.4928611821
 30
0.0
 10
330.5382743041
 20
138.5432497108
 30
0.0
 10
329.2569863086
 20
138.6027097482
 30
0.0
  0
SPLINE
  5
4A7
100
AcDbEntity
  8
7_ALL_FEATURES
100
AcDbSpline
 62
7
  6
CONTINUOUS
 70
0
 71
3
 72
11
 73
7
 74
0
 42
0.0000001
 43
0.0000001
 44
0.0000000001
 40
0.0
 40
0.0
 40
0.0
 40
0.0
 40
0.2898845213
 40
0.5474858757
 40
0.7805044783
 40
1.0
 40
1.0
 40
1.0
 40
1.0
 10
310.6869870477
 20
143.6796149372
 30
0.0
 10
310.4794606062
 20
143.8632168951
 30
0.0
 10
310.1081547845
 20
144.2351407794
 30
0.0
 10
309.6750933328
 20
144.848083331
 30
0.0
 10
309.407365515
 20
145.4783642691
 30
0.0
 10
309.3443342331
 20
145.9124113746
 30
0.0
 10
309.3429232523
 20
146.1222116773
 30
0.0
  0
SPLINE
  5
4A8
100
AcDbEntity
  8
7_ALL_FEATURES
100
AcDbSpline
 62
7
  6
CONTINUOUS
 70
0
 71
3
 72
13
 73
9
 74
0
 42
0.0000001
 43
0.0000001
 44
0.0000000001
 40
0.0
 40
0.0
 40
0.0
 40
0.0
 40
0.0998512124
 40
0.2026957083
 40
0.4271113859
 40
0.5532539694
 40
0.6903450588
 40
1.0
 40
1.0
 40
1.0
 40
1.0
 10
306.0297316284
 20
155.5975560324
 30
0.0
 10
306.0286320686
 20
155.7609956567
 30
0.0
 10
306.0575997229
 20
156.093773583
 30
0.0
 10
306.2435042317
 20
156.7710226667
 30
0.0
 10
306.6205457342
 20
157.4248785623
 30
0.0
 10
307.1368118857
 20
158.0344114326
 30
0.0
 10
307.8156535623
 20
158.6837166672
 30
0.0
 10
308.4114264068
 20
159.1142756405
 30
0.0
 10
308.8388015579
 20
159.3867863343
 30
0.0
  0
SPLINE
  5
4A9
100
AcDbEntity
  8
7_ALL_FEATURES
100
AcDbSpline
 62
7
  6
CONTINUOUS
 70
0
 71
3
 72
11
 73
7
 74
0
 42
0.0000001
 43
0.0000001
 44
0.0000000001
 40
0.0
 40
0.0
 40
0.0
 40
0.0
 40
0.2978771879
 40
0.5644727879
 40
0.7984637623
 40
1.0
 40
1.0
 40
1.0
 40
1.0
 10
316.7826806156
 20
140.5205645286
 30
0.0
 10
316.1845420727
 20
140.701410492
 30
0.0
 10
315.0608925904
 20
141.0784196566
 30
0.0
 10
313.5168744805
 20
141.7333312285
 30
0.0
 10
312.2214259253
 20
142.4395420103
 30
0.0
 10
311.4787185191
 20
142.9791983435
 30
0.0
 10
311.1620627605
 20
143.2593241584
 30
0.0
  0
SPLINE
  5
4AA
100
AcDbEntity
  8
7_ALL_FEATURES
100
AcDbSpline
 62
7
  6
CONTINUOUS
 70
0
 71
3
 72
31
 73
27
 74
0
 42
0.0000001
 43
0.0000001
 44
0.0000000001
 40
0.0
 40
0.0
 40
0.0
 40
0.0
 40
0.0130546448
 40
0.0269087703
 40
0.0422171252
 40
0.0594364291
 40
0.0788428322
 40
0.1005796288
 40
0.1246921244
 40
0.1511559604
 40
0.1798959859
 40
0.2107949673
 40
0.2784416438
 40
0.3526430634
 40
0.4316404479
 40
0.513485739
 40
0.5961243635
 40
0.6774726136
 40
0.7170265813
 40
0.7555025864
 40
0.8282866093
 40
0.8941340533
 40
0.9240156831
 40
0.9516785227
 40
0.9770291144
 40
1.0
 40
1.0
 40
1.0
 40
1.0
 10
360.0285110888
 20
155.9572705882
 30
0.0
 10
360.0269115696
 20
156.1950246548
 30
0.0
 10
359.9557142228
 20
156.6868097961
 30
0.0
 10
359.6533260796
 20
157.4010861067
 30
0.0
 10
359.163961058
 20
158.0959412166
 30
0.0
 10
358.4944457737
 20
158.7689413789
 30
0.0
 10
357.6501277011
 20
159.4186264735
 30
0.0
 10
356.6362147584
 20
160.0419588817
 30
0.0
 10
355.4591036362
 20
160.6354709471
 30
0.0
 10
354.1264251344
 20
161.1953691794
 30
0.0
 10
352.6470502056
 20
161.7178345883
 30
0.0
 10
350.4245325439
 20
162.3797454759
 30
0.0
 10
347.3524576338
 20
163.0751968678
 30
0.0
 10
343.3750393809
 20
163.6902065506
 30
0.0
 10
339.1106578169
 20
164.0904664527
 30
0.0
 10
334.6775649215
 20
164.2644067589
 30
0.0
 10
330.1987314022
 20
164.2068013312
 30
0.0
 10
326.4976276152
 20
163.9651182033
 30
0.0
 10
323.6112624494
 20
163.6542070844
 30
0.0
 10
320.8898277168
 20
163.2798904067
 30
0.0
 10
317.7154294126
 20
162.6947197116
 30
0.0
 10
314.7415147362
 20
161.9207138616
 30
0.0
 10
312.6115936161
 20
161.2012519164
 30
0.0
 10
311.2084507735
 20
160.6416235051
 30
0.0
 10
309.957091234
 20
160.048413979
 30
0.0
 10
309.1915522506
 20
159.6117136277
 30
0.0
 10
308.8388015579
 20
159.3867863343
 30
0.0
  0
SPLINE
  5
4AB
100
AcDbEntity
  8
7_ALL_FEATURES
100
AcDbSpline
 62
7
  6
CONTINUOUS
 70
0
 71
3
 72
9
 73
5
 74
0
 42
0.0000001
 43
0.0000001
 44
0.0000000001
 40
0.0
 40
0.0
 40
0.0
 40
0.0
 40
0.2483125774
 40
1.0
 40
1.0
 40
1.0
 40
1.0
 10
349.1710316166
 20
156.9909516021
 30
0.0
 10
349.1706298149
 20
156.9636531236
 30
0.0
 10
349.1661754638
 20
156.8537724225
 30
0.0
 10
349.150268873
 20
156.7443946777
 30
0.0
 10
349.1324039369
 20
156.6637022072
 30
0.0
  0
SPLINE
  5
4AC
100
AcDbEntity
  8
7_ALL_FEATURES
100
AcDbSpline
 62
7
  6
CONTINUOUS
 70
0
 71
3
 72
9
 73
5
 74
0
 42
0.0000001
 43
0.0000001
 44
0.0000000001
 40
0.0
 40
0.0
 40
0.0
 40
0.0
 40
0.2440664897
 40
1.0
 40
1.0
 40
1.0
 40
1.0
 10
349.1324039369
 20
156.6637022072
 30
0.0
 10
349.1252032219
 20
156.6311779662
 30
0.0
 10
349.091789328
 20
156.4987969903
 30
0.0
 10
349.0429769908
 20
156.3704447113
 30
0.0
 10
348.99920637
 20
156.27701467
 30
0.0
  0
SPLINE
  5
4AD
100
AcDbEntity
  8
7_ALL_FEATURES
100
AcDbSpline
 62
7
  6
CONTINUOUS
 70
0
 71
3
 72
9
 73
5
 74
0
 42
0.0000001
 43
0.0000001
 44
0.0000000001
 40
0.0
 40
0.0
 40
0.0
 40
0.0
 40
0.235584592
 40
1.0
 40
1.0
 40
1.0
 40
1.0
 10
348.9708426293
 20
156.2188160408
 30
0.0
 10
348.9452227834
 20
156.1682101166
 30
0.0
 10
348.8280241919
 20
155.9576798289
 30
0.0
 10
348.6798685947
 20
155.7652693696
 30
0.0
 10
348.5565717995
 20
155.6286256222
 30
0.0
  0
SPLINE
  5
4AE
100
AcDbEntity
  8
7_ALL_FEATURES
100
AcDbSpline
 62
7
  6
CONTINUOUS
 70
0
 71
3
 72
9
 73
5
 74
0
 42
0.0000001
 43
0.0000001
 44
0.0000000001
 40
0.0
 40
0.0
 40
0.0
 40
0.0
 40
0.2668295959
 40
1.0
 40
1.0
 40
1.0
 40
1.0
 10
346.9044106247
 20
159.5839135264
 30
0.0
 10
346.9972236064
 20
159.5355761672
 30
0.0
 10
347.3420863952
 20
159.3489077117
 30
0.0
 10
347.6749111169
 20
159.1389756125
 30
0.0
 10
347.9062836363
 20
158.9682596253
 30
0.0
  0
SPLINE
  5
4AF
100
AcDbEntity
  8
7_ALL_FEATURES
100
AcDbSpline
 62
7
  6
CONTINUOUS
 70
0
 71
3
 72
9
 73
5
 74
0
 42
0.0000001
 43
0.0000001
 44
0.0000000001
 40
0.0
 40
0.0
 40
0.0
 40
0.0
 40
0.2564063855
 40
1.0
 40
1.0
 40
1.0
 40
1.0
 10
347.9062836363
 20
158.9682596253
 30
0.0
 10
347.9313197604
 20
158.9497869621
 30
0.0
 10
348.0283780264
 20
158.8769566735
 30
0.0
 10
348.1230404918
 20
158.800914453
 30
0.0
 10
348.1917393797
 20
158.7424160178
 30
0.0
  0
SPLINE
  5
4B0
100
AcDbEntity
  8
7_ALL_FEATURES
100
AcDbSpline
 62
7
  6
CONTINUOUS
 70
0
 71
3
 72
11
 73
7
 74
0
 42
0.0000001
 43
0.0000001
 44
0.0000000001
 40
0.0
 40
0.0
 40
0.0
 40
0.0
 40
0.2913888572
 40
0.5496768414
 40
0.7822445448
 40
1.0
 40
1.0
 40
1.0
 40
1.0
 10
348.1917393797
 20
158.7424160178
 30
0.0
 10
348.3395913698
 20
158.6165171812
 30
0.0
 10
348.6046211195
 20
158.3614701435
 30
0.0
 10
348.9171484242
 20
157.9404544604
 30
0.0
 10
349.1145475175
 20
157.506912939
 30
0.0
 10
349.1661106208
 20
157.206933097
 30
0.0
 10
349.170484726
 20
157.0618786006
 30
0.0
  0
SPLINE
  5
4B1
100
AcDbEntity
  8
7_ALL_FEATURES
100
AcDbSpline
 62
9
  6
CONTINUOUS
 70
0
 71
3
 72
9
 73
5
 74
0
 42
0.0000001
 43
0.0000001
 44
0.0000000001
 40
0.0
 40
0.0
 40
0.0
 40
0.0
 40
0.259948889
 40
1.0
 40
1.0
 40
1.0
 40
1.0
 10
348.919620264
 20
157.5261839023
 30
0.0
 10
348.9425051255
 20
157.4864116049
 30
0.0
 10
349.0259354737
 20
157.3308537672
 30
0.0
 10
349.0896661695
 20
157.1643735399
 30
0.0
 10
349.1221074599
 20
157.0378316538
 30
0.0
  0
SPLINE
  5
4B2
100
AcDbEntity
  8
7_ALL_FEATURES
100
AcDbSpline
 62
7
  6
CONTINUOUS
 70
0
 71
3
 72
9
 73
5
 74
0
 42
0.0000001
 43
0.0000001
 44
0.0000000001
 40
0.0
 40
0.0
 40
0.0
 40
0.0
 40
0.2655228818
 40
1.0
 40
1.0
 40
1.0
 40
1.0
 10
317.5007261057
 20
155.4007606145
 30
0.0
 10
317.4506030682
 20
155.4451063805
 30
0.0
 10
317.2655751842
 20
155.6162019484
 30
0.0
 10
317.0961429233
 20
155.8049135171
 30
0.0
 10
316.9864260125
 20
155.9540199192
 30
0.0
  0
SPLINE
  5
4B3
100
AcDbEntity
  8
7_ALL_FEATURES
100
AcDbSpline
 62
7
  6
CONTINUOUS
 70
0
 71
3
 72
15
 73
11
 74
0
 42
0.0000001
 43
0.0000001
 44
0.0000000001
 40
0.0
 40
0.0
 40
0.0
 40
0.0
 40
0.1190455817
 40
0.2278122864
 40
0.3323942727
 40
0.4397164998
 40
0.5561310153
 40
0.6864687561
 40
0.8338917663
 40
1.0
 40
1.0
 40
1.0
 40
1.0
 10
316.9864260125
 20
155.9540199192
 30
0.0
 10
316.8871407433
 20
156.0889496138
 30
0.0
 10
316.7191511637
 20
156.3652106065
 30
0.0
 10
316.5746500479
 20
156.8153486719
 30
0.0
 10
316.5577549876
 20
157.2722547842
 30
0.0
 10
316.669625699
 20
157.7260871682
 30
0.0
 10
316.9045633923
 20
158.1700515726
 30
0.0
 10
317.256898159
 20
158.6020726747
 30
0.0
 10
317.7226246596
 20
159.0210569336
 30
0.0
 10
318.0843643162
 20
159.27533356
 30
0.0
 10
318.2814553574
 20
159.4010063222
 30
0.0
  0
SPLINE
  5
4B4
100
AcDbEntity
  8
7_ALL_FEATURES
100
AcDbSpline
 62
7
  6
CONTINUOUS
 70
0
 71
3
 72
11
 73
7
 74
0
 42
0.0000001
 43
0.0000001
 44
0.0000000001
 40
0.0
 40
0.0
 40
0.0
 40
0.0
 40
0.3045978788
 40
0.568352738
 40
0.7966825205
 40
1.0
 40
1.0
 40
1.0
 40
1.0
 10
357.2194411593
 20
152.1680402863
 30
0.0
 10
357.6009219027
 20
152.4112869556
 30
0.0
 10
358.2900674653
 20
152.9034909786
 30
0.0
 10
359.1441343281
 20
153.7309217243
 30
0.0
 10
359.7327917753
 20
154.59025335
 30
0.0
 10
359.9441050624
 20
155.2075680852
 30
0.0
 10
359.9929935552
 20
155.5055819784
 30
0.0
  0
SPLINE
  5
4B5
100
AcDbEntity
  8
7_ALL_FEATURES
100
AcDbSpline
 62
7
  6
CONTINUOUS
 70
0
 71
3
 72
11
 73
7
 74
0
 42
0.0000001
 43
0.0000001
 44
0.0000000001
 40
0.0
 40
0.0
 40
0.0
 40
0.0
 40
0.2997626143
 40
0.5633078792
 40
0.7943004971
 40
1.0
 40
1.0
 40
1.0
 40
1.0
 10
349.588278098
 20
154.7297988971
 30
0.0
 10
349.8254129978
 20
154.8810051521
 30
0.0
 10
350.2579543821
 20
155.1869888229
 30
0.0
 10
350.8068731483
 20
155.6950977613
 30
0.0
 10
351.2082622718
 20
156.2200322517
 30
0.0
 10
351.3804340795
 20
156.5974589117
 30
0.0
 10
351.4346872377
 20
156.7826657387
 30
0.0
  0
SPLINE
  5
4B6
100
AcDbEntity
  8
7_ALL_FEATURES
100
AcDbSpline
 62
7
  6
CONTINUOUS
 70
0
 71
3
 72
31
 73
27
 74
0
 42
0.0000001
 43
0.0000001
 44
0.0000000001
 40
0.0
 40
0.0
 40
0.0
 40
0.0
 40
0.0133640616
 40
0.026654107
 40
0.0407480116
 40
0.0563689603
 40
0.0740131245
 40
0.0939788607
 40
0.1164116453
 40
0.1413530854
 40
0.1687674673
 40
0.1985629989
 40
0.2647088548
 40
0.3383576042
 40
0.4176793238
 40
0.5005975682
 40
0.5848901485
 40
0.6682808884
 40
0.708938534
 40
0.7485380681
 40
0.8235288607
 40
0.8913728231
 40
0.9221209878
 40
0.9505418699
 40
0.9765277215
 40
1.0
 40
1.0
 40
1.0
 40
1.0
 10
351.4346872377
 20
156.7826657387
 30
0.0
 10
351.482237614
 20
156.9449909305
 30
0.0
 10
351.5363896062
 20
157.2830052167
 30
0.0
 10
351.4705587198
 20
157.8010968113
 30
0.0
 10
351.2599060687
 20
158.3089872562
 30
0.0
 10
350.9117488793
 20
158.8016066478
 30
0.0
 10
350.4318494582
 20
159.2781696935
 30
0.0
 10
349.8239811952
 20
159.7372197194
 30
0.0
 10
349.0922952002
 20
160.1767698384
 30
0.0
 10
348.2416226684
 20
160.5940420524
 30
0.0
 10
347.2778955543
 20
160.986243579
 30
0.0
 10
345.7991604845
 20
161.4894292769
 30
0.0
 10
343.7170659901
 20
162.0240091454
 30
0.0
 10
340.9841082211
 20
162.5071076858
 30
0.0
 10
338.0148587353
 20
162.8366079364
 30
0.0
 10
334.897350131
 20
163.0022836427
 30
0.0
 10
331.7240517487
 20
162.9988210271
 30
0.0
 10
329.0896327081
 20
162.8539250198
 30
0.0
 10
327.0280116732
 20
162.6515515619
 30
0.0
 10
325.0788385842
 20
162.4011222441
 30
0.0
 10
322.803046003
 20
162.0008820591
 30
0.0
 10
320.6701069672
 20
161.4622633371
 30
0.0
 10
319.1433274032
 20
160.9569904544
 30
0.0
 10
318.1395443888
 20
160.5626848036
 30
0.0
 10
317.2466093961
 20
160.1435227465
 30
0.0
 10
316.7014790531
 20
159.8338502701
 30
0.0
 10
316.4509852629
 20
159.6741258772
 30
0.0
  0
SPLINE
  5
4B7
100
AcDbEntity
  8
7_ALL_FEATURES
100
AcDbSpline
 62
7
  6
CONTINUOUS
 70
0
 71
3
 72
19
 73
15
 74
0
 42
0.0000001
 43
0.0000001
 44
0.0000000001
 40
0.0
 40
0.0
 40
0.0
 40
0.0
 40
0.0404956632
 40
0.0863577694
 40
0.1373485933
 40
0.1931037228
 40
0.2531324343
 40
0.3168590827
 40
0.4527513253
 40
0.5951052409
 40
0.7377949072
 40
0.8746739432
 40
0.9391186496
 40
1.0
 40
1.0
 40
1.0
 40
1.0
 10
357.2194411593
 20
152.1680402863
 30
0.0
 10
356.7500734396
 20
151.8687535294
 30
0.0
 10
355.707422521
 20
151.2954190349
 30
0.0
 10
353.9741722796
 20
150.5421132983
 30
0.0
 10
351.992055145
 20
149.8500849875
 30
0.0
 10
349.7844125603
 20
149.2276583738
 30
0.0
 10
347.3767809026
 20
148.6823576625
 30
0.0
 10
343.8623381474
 20
148.0538203182
 30
0.0
 10
339.1872643759
 20
147.5157280318
 30
0.0
 10
333.4022341712
 20
147.2604437237
 30
0.0
 10
327.5996285992
 20
147.3963613558
 30
0.0
 10
322.8863061442
 20
147.8373107111
 30
0.0
 10
319.3239557146
 20
148.3918220373
 30
0.0
 10
317.6344066024
 20
148.7326070268
 30
0.0
 10
316.8186416342
 20
148.9194831156
 30
0.0
  0
SPLINE
  5
4B8
100
AcDbEntity
  8
7_ALL_FEATURES
100
AcDbSpline
 62
7
  6
CONTINUOUS
 70
0
 71
3
 72
17
 73
13
 74
0
 42
0.0000001
 43
0.0000001
 44
0.0000000001
 40
0.0
 40
0.0
 40
0.0
 40
0.0
 40
0.1794199363
 40
0.34422235
 40
0.4931537285
 40
0.6253980157
 40
0.740742626
 40
0.8398631504
 40
0.8839764477
 40
0.9249590546
 40
0.9633902259
 40
1.0
 40
1.0
 40
1.0
 40
1.0
 10
316.8186416342
 20
148.9194831156
 30
0.0
 10
316.0645549161
 20
149.0922299018
 30
0.0
 10
314.6254237555
 20
149.4586500126
 30
0.0
 10
312.5975827519
 20
150.1030587945
 30
0.0
 10
310.808422214
 20
150.8129135121
 30
0.0
 10
309.2774318176
 20
151.5803487414
 30
0.0
 10
308.0210863539
 20
152.3970786695
 30
0.0
 10
307.1819530429
 20
153.1414704316
 30
0.0
 10
306.6784303387
 20
153.7578593623
 30
0.0
 10
306.3931689191
 20
154.2094779328
 30
0.0
 10
306.1867351376
 20
154.6670726964
 30
0.0
 10
306.101280138
 20
154.9809434013
 30
0.0
 10
306.0730927969
 20
155.1362598351
 30
0.0
  0
SPLINE
  5
4B9
100
AcDbEntity
  8
7_ALL_FEATURES
100
AcDbSpline
 62
7
  6
CONTINUOUS
 70
0
 71
3
 72
29
 73
25
 74
0
 42
0.0000001
 43
0.0000001
 44
0.0000000001
 40
0.0
 40
0.0
 40
0.0
 40
0.0
 40
0.0224581217
 40
0.0471710252
 40
0.0740759097
 40
0.1030866263
 40
0.1669304285
 40
0.2374867482
 40
0.313233274
 40
0.3924501834
 40
0.4732948043
 40
0.5538686128
 40
0.6322823104
 40
0.7067211437
 40
0.7755134333
 40
0.837207953
 40
0.8650342996
 40
0.8906963566
 40
0.9141310343
 40
0.935318915
 40
0.9543067014
 40
0.9712233671
 40
0.9863199006
 40
1.0
 40
1.0
 40
1.0
 40
1.0
 10
349.588278098
 20
154.7297988971
 30
0.0
 10
349.3554995543
 20
154.5813704209
 30
0.0
 10
348.85163181
 20
154.2927928536
 30
0.0
 10
348.0297652816
 20
153.8992905424
 30
0.0
 10
347.1105430885
 20
153.5270972505
 30
0.0
 10
345.7182400703
 20
153.0470879485
 30
0.0
 10
343.7755684544
 20
152.5261728972
 30
0.0
 10
341.2374032125
 20
152.0364859267
 30
0.0
 10
338.4869178679
 20
151.6773730296
 30
0.0
 10
335.5951330926
 20
151.4584741376
 30
0.0
 10
332.6366851068
 20
151.3857447662
 30
0.0
 10
329.6881673117
 20
151.4611239805
 30
0.0
 10
326.8259036416
 20
151.6825514249
 30
0.0
 10
324.1236815934
 20
152.0439423405
 30
0.0
 10
321.6511823065
 20
152.5355521799
 30
0.0
 10
319.7738420451
 20
153.0588688121
 30
0.0
 10
318.4420029196
 20
153.5413956825
 30
0.0
 10
317.5724310102
 20
153.9144595178
 30
0.0
 10
316.8027066569
 20
154.3086562632
 30
0.0
 10
316.1375543944
 20
154.7218259812
 30
0.0
 10
315.5808050844
 20
155.1515540657
 30
0.0
 10
315.1358483143
 20
155.5963266279
 30
0.0
 10
314.8057463519
 20
156.0542723444
 30
0.0
 10
314.6597403415
 20
156.3803254885
 30
0.0
 10
314.6106220946
 20
156.5411596057
 30
0.0
  0
SPLINE
  5
4BA
100
AcDbEntity
  8
7_ALL_FEATURES
100
AcDbSpline
 62
7
  6
CONTINUOUS
 70
0
 71
3
 72
15
 73
11
 74
0
 42
0.0000001
 43
0.0000001
 44
0.0000000001
 40
0.0
 40
0.0
 40
0.0
 40
0.0
 40
0.1043799514
 40
0.2072220219
 40
0.3130158235
 40
0.425841177
 40
0.5489807758
 40
0.684823026
 40
0.8349096848
 40
1.0
 40
1.0
 40
1.0
 40
1.0
 10
314.6106220946
 20
156.5411596057
 30
0.0
 10
314.5708860198
 20
156.6712724842
 30
0.0
 10
314.5179646453
 20
156.9386575053
 30
0.0
 10
314.5301849528
 20
157.3497807066
 30
0.0
 10
314.6348773954
 20
157.7587369647
 30
0.0
 10
314.8297778285
 20
158.1620664998
 30
0.0
 10
315.1122165041
 20
158.5581846169
 30
0.0
 10
315.4800387854
 20
158.9460937461
 30
0.0
 10
315.931162361
 20
159.3245414099
 30
0.0
 10
316.2695568168
 20
159.5584401815
 30
0.0
 10
316.4509852629
 20
159.6741258772
 30
0.0
  0
SPLINE
  5
4BB
100
AcDbEntity
  8
7_ALL_FEATURES
100
AcDbSpline
 62
7
  6
CONTINUOUS
 70
0
 71
3
 72
11
 73
7
 74
0
 42
0.0000001
 43
0.0000001
 44
0.0000000001
 40
0.0
 40
0.0
 40
0.0
 40
0.0
 40
0.2179482856
 40
0.4505480888
 40
0.7087241263
 40
1.0
 40
1.0
 40
1.0
 40
1.0
 10
316.8720276156
 20
156.8431535414
 30
0.0
 10
316.8741581208
 20
156.9879004618
 30
0.0
 10
316.9207891709
 20
157.2877917229
 30
0.0
 10
317.1105773095
 20
157.7230638464
 30
0.0
 10
317.4152208939
 20
158.1475128205
 30
0.0
 10
317.6752965984
 20
158.4056655193
 30
0.0
 10
317.8206386938
 20
158.533357519
 30
0.0
  0
SPLINE
  5
4BC
100
AcDbEntity
  8
7_ALL_FEATURES
100
AcDbSpline
 62
7
  6
CONTINUOUS
 70
0
 71
3
 72
9
 73
5
 74
0
 42
0.0000001
 43
0.0000001
 44
0.0000000001
 40
0.0
 40
0.0
 40
0.0
 40
0.0
 40
0.2435313997
 40
1.0
 40
1.0
 40
1.0
 40
1.0
 10
317.8206386938
 20
158.533357519
 30
0.0
 10
317.843408869
 20
158.5533625231
 30
0.0
 10
317.9377038578
 20
158.6346009301
 30
0.0
 10
318.0350470675
 20
158.7122822529
 30
0.0
 10
318.1100427525
 20
158.7692013895
 30
0.0
  0
SPLINE
  5
4BD
100
AcDbEntity
  8
7_ALL_FEATURES
100
AcDbSpline
 62
7
  6
CONTINUOUS
 70
0
 71
3
 72
9
 73
5
 74
0
 42
0.0000001
 43
0.0000001
 44
0.0000000001
 40
0.0
 40
0.0
 40
0.0
 40
0.0
 40
0.241824344
 40
1.0
 40
1.0
 40
1.0
 40
1.0
 10
318.1100427525
 20
158.7692013895
 30
0.0
 10
318.1446000236
 20
158.7954291657
 30
0.0
 10
318.2887209842
 20
158.9022778095
 30
0.0
 10
318.4374490703
 20
159.0028644783
 30
0.0
 10
318.5521346242
 20
159.0759923621
 30
0.0
  0
SPLINE
  5
4BE
100
AcDbEntity
  8
7_ALL_FEATURES
100
AcDbSpline
 62
9
  6
CONTINUOUS
 70
0
 71
3
 72
9
 73
5
 74
0
 42
0.0000001
 43
0.0000001
 44
0.0000000001
 40
0.0
 40
0.0
 40
0.0
 40
0.0
 40
0.2414561022
 40
1.0
 40
1.0
 40
1.0
 40
1.0
 10
316.9210328191
 20
156.8243321642
 30
0.0
 10
316.9312777728
 20
156.8665269782
 30
0.0
 10
316.9803039876
 20
157.0396621366
 30
0.0
 10
317.0550810599
 20
157.2050762021
 30
0.0
 10
317.122092989
 20
157.3238892637
 30
0.0
  0
LINE
  5
4BF
100
AcDbEntity
  8
7_ALL_FEATURES
100
AcDbLine
 62
7
  6
CONTINUOUS
 10
329.0978061979
 20
138.9261056801
 11
329.2569863086
 21
138.6027097482
  0
SPLINE
  5
4C0
100
AcDbEntity
  8
7_ALL_FEATURES
100
AcDbSpline
 62
7
  6
CONTINUOUS
 70
0
 71
3
 72
18
 73
14
 74
0
 42
0.0000001
 43
0.0000001
 44
0.0000000001
 40
0.0
 40
0.0
 40
0.0
 40
0.0
 40
0.0405954167
 40
0.0852209613
 40
0.133770839
 40
0.1860995035
 40
0.3012072498
 40
0.4284052689
 40
0.4957229719
 40
0.565027279
 40
0.7080151266
 40
0.8541215465
 40
1.0
 40
1.0
 40
1.0
 40
1.0
 10
354.3709079266
 20
143.1055080081
 30
0.0
 10
354.0752154457
 20
142.9169632063
 30
0.0
 10
353.4357226428
 20
142.5502495742
 30
0.0
 10
352.3932864855
 20
142.0497471197
 30
0.0
 10
351.2282883897
 20
141.5759443289
 30
0.0
 10
349.4648116915
 20
140.9643716352
 30
0.0
 10
347.0048313424
 20
140.2990154281
 30
0.0
 10
344.3779961392
 20
139.7854824966
 30
0.0
 10
342.1237243153
 20
139.4485282928
 30
0.0
 10
339.7252470892
 20
139.1602379726
 30
0.0
 10
336.6371452264
 20
138.9171557049
 30
0.0
 10
332.8796259528
 20
138.8118837282
 30
0.0
 10
330.3565847662
 20
138.8664183773
 30
0.0
 10
329.0978061979
 20
138.9261056801
 30
0.0
  0
SPLINE
  5
4C1
100
AcDbEntity
  8
7_ALL_FEATURES
100
AcDbSpline
 62
7
  6
CONTINUOUS
 70
0
 71
3
 72
9
 73
5
 74
0
 42
0.0000001
 43
0.0000001
 44
0.0000000001
 40
0.0
 40
0.0
 40
0.0
 40
0.0
 40
0.2589599941
 40
1.0
 40
1.0
 40
1.0
 40
1.0
 10
354.3709079266
 20
143.1055080081
 30
0.0
 10
354.4329399628
 20
143.1450619998
 30
0.0
 10
354.6709429268
 20
143.3001910073
 30
0.0
 10
354.9026170316
 20
143.4651408188
 30
0.0
 10
355.0693929979
 20
143.5936217674
 30
0.0
  0
SPLINE
  5
4C2
100
AcDbEntity
  8
7_ALL_FEATURES
100
AcDbSpline
 62
7
  6
CONTINUOUS
 70
0
 71
3
 72
9
 73
5
 74
0
 42
0.0000001
 43
0.0000001
 44
0.0000000001
 40
0.0
 40
0.0
 40
0.0
 40
0.0
 40
0.2573014199
 40
1.0
 40
1.0
 40
1.0
 40
1.0
 10
355.0693929979
 20
143.5936217674
 30
0.0
 10
355.1101979552
 20
143.6250571099
 30
0.0
 10
355.2676450153
 20
143.7486982568
 30
0.0
 10
355.4204028936
 20
143.8783583111
 30
0.0
 10
355.5304471271
 20
143.978340861
 30
0.0
  0
SPLINE
  5
4C3
100
AcDbEntity
  8
7_ALL_FEATURES
100
AcDbSpline
 62
7
  6
CONTINUOUS
 70
0
 71
3
 72
32
 73
28
 74
0
 42
0.0000001
 43
0.0000001
 44
0.0000000001
 40
0.0
 40
0.0
 40
0.0
 40
0.0
 40
0.0241033262
 40
0.0508966834
 40
0.0802913001
 40
0.1121635473
 40
0.1825927038
 40
0.2604170237
 40
0.3014407394
 40
0.3434774471
 40
0.4293435258
 40
0.5154912411
 40
0.5993749395
 40
0.6785471358
 40
0.7507738724
 40
0.7836848469
 40
0.814190205
 40
0.8421394155
 40
0.8674314882
 40
0.8900356797
 40
0.9100118196
 40
0.9275535296
 40
0.9430437805
 40
0.9571127801
 40
0.9706443967
 40
0.9846411744
 40
1.0
 40
1.0
 40
1.0
 40
1.0
 10
318.2814553574
 20
159.4010063222
 30
0.0
 10
318.5152866783
 20
159.5501060916
 30
0.0
 10
319.0260145803
 20
159.8386013798
 30
0.0
 10
319.8649619216
 20
160.2270542211
 30
0.0
 10
320.8111965167
 20
160.5910714019
 30
0.0
 10
322.2542325445
 20
161.0552808454
 30
0.0
 10
324.2712291532
 20
161.543645277
 30
0.0
 10
326.4217218749
 20
161.8973794986
 30
0.0
 10
328.2606705694
 20
162.1110494167
 30
0.0
 10
330.1975062652
 20
162.2761457176
 30
0.0
 10
332.6596913946
 20
162.3769141557
 30
0.0
 10
335.6050985131
 20
162.332167038
 30
0.0
 10
338.4665213185
 20
162.1241029801
 30
0.0
 10
341.1507907164
 20
161.7598468054
 30
0.0
 10
343.228904178
 20
161.3245109051
 30
0.0
 10
344.7310760629
 20
160.899189418
 30
0.0
 10
345.7267001523
 20
160.5601280681
 30
0.0
 10
346.6187444052
 20
160.1939725619
 30
0.0
 10
347.4002369673
 20
159.803513026
 30
0.0
 10
348.0653373908
 20
159.3917442396
 30
0.0
 10
348.6092377994
 20
158.9612044602
 30
0.0
 10
349.0279400826
 20
158.5137859802
 30
0.0
 10
349.3172159672
 20
158.0503736996
 30
0.0
 10
349.4701235078
 20
157.5722905377
 30
0.0
 10
349.4787635364
 20
157.0866289266
 30
0.0
 10
349.3427146539
 20
156.6059530941
 30
0.0
 10
349.1708567289
 20
156.3113872775
 30
0.0
 10
349.0680226498
 20
156.1676781244
 30
0.0
  0
SPLINE
  5
4C4
100
AcDbEntity
  8
7_ALL_FEATURES
100
AcDbSpline
 62
7
  6
CONTINUOUS
 70
0
 71
3
 72
9
 73
5
 74
0
 42
0.0000001
 43
0.0000001
 44
0.0000000001
 40
0.0
 40
0.0
 40
0.0
 40
0.0
 40
0.2353057672
 40
1.0
 40
1.0
 40
1.0
 40
1.0
 10
349.0680226498
 20
156.1676781244
 30
0.0
 10
349.0335231805
 20
156.1194656099
 30
0.0
 10
348.8804446559
 20
155.9192021448
 30
0.0
 10
348.7039663907
 20
155.7374573635
 30
0.0
 10
348.5613859824
 20
155.6078826129
 30
0.0
  0
SPLINE
  5
4C5
100
AcDbEntity
  8
7_ALL_FEATURES
100
AcDbSpline
 62
7
  6
CONTINUOUS
 70
0
 71
3
 72
11
 73
7
 74
0
 42
0.0000001
 43
0.0000001
 44
0.0000000001
 40
0.0
 40
0.0
 40
0.0
 40
0.0
 40
0.2920761728
 40
0.5569381111
 40
0.7930351586
 40
1.0
 40
1.0
 40
1.0
 40
1.0
 10
316.878844096
 20
140.7492643881
 30
0.0
 10
316.2918611298
 20
140.9174505523
 30
0.0
 10
315.1809266465
 20
141.2687314065
 30
0.0
 10
313.6361865872
 20
141.8750643039
 30
0.0
 10
312.3068553538
 20
142.5297767439
 30
0.0
 10
311.5217024749
 20
143.0266351152
 30
0.0
 10
311.1746188527
 20
143.2849727
 30
0.0
  0
LINE
  5
4C6
100
AcDbEntity
  8
7_ALL_FEATURES
100
AcDbLine
 62
7
  6
CONTINUOUS
 10
311.1746188527
 20
143.2849727
 11
311.1519116688
 21
143.3019338338
  0
SPLINE
  5
4C7
100
AcDbEntity
  8
7_ALL_FEATURES
100
AcDbSpline
 62
7
  6
CONTINUOUS
 70
0
 71
3
 72
9
 73
5
 74
0
 42
0.0000001
 43
0.0000001
 44
0.0000000001
 40
0.0
 40
0.0
 40
0.0
 40
0.0
 40
0.2573160707
 40
1.0
 40
1.0
 40
1.0
 40
1.0
 10
311.1519116688
 20
143.3019338338
 30
0.0
 10
311.110795938
 20
143.3327544718
 30
0.0
 10
310.9521295258
 20
143.4540132274
 30
0.0
 10
310.7980658937
 20
143.5813417076
 30
0.0
 10
310.6869870477
 20
143.6796149372
 30
0.0
  0
LINE
  5
4C8
100
AcDbEntity
  8
7_ALL_FEATURES
100
AcDbLine
 62
7
  6
CONTINUOUS
 10
317.1701249752
 20
140.4061580532
 11
316.878844096
 21
140.7492643881
  0
SPLINE
  5
4C9
100
AcDbEntity
  8
7_ALL_FEATURES
100
AcDbSpline
 62
7
  6
CONTINUOUS
 70
0
 71
3
 72
9
 73
5
 74
0
 42
0.0000001
 43
0.0000001
 44
0.0000000001
 40
0.0
 40
0.0
 40
0.0
 40
0.0
 40
0.2574283445
 40
1.0
 40
1.0
 40
1.0
 40
1.0
 10
323.5117546974
 20
139.3528048034
 30
0.0
 10
323.2712423289
 20
139.3895452845
 30
0.0
 10
322.3380307569
 20
139.5391506457
 30
0.0
 10
321.4091922926
 20
139.716636904
 30
0.0
 10
320.7236303979
 20
139.8668443098
 30
0.0
  0
SPLINE
  5
4CA
100
AcDbEntity
  8
7_ALL_FEATURES
100
AcDbSpline
 62
7
  6
CONTINUOUS
 70
0
 71
3
 72
9
 73
5
 74
0
 42
0.0000001
 43
0.0000001
 44
0.0000000001
 40
0.0
 40
0.0
 40
0.0
 40
0.0
 40
0.5244809076
 40
1.0
 40
1.0
 40
1.0
 40
1.0
 10
316.4029529372
 20
126.4719652207
 30
0.0
 10
316.2822572425
 20
126.3033540643
 30
0.0
 10
316.0841556773
 20
125.9557220964
 30
0.0
 10
315.994585826
 20
125.5628835838
 30
0.0
 10
315.9844023892
 20
125.3751594276
 30
0.0
  0
SPLINE
  5
4CB
100
AcDbEntity
  8
7_ALL_FEATURES
100
AcDbSpline
 62
7
  6
CONTINUOUS
 70
0
 71
3
 72
11
 73
7
 74
0
 42
0.0000001
 43
0.0000001
 44
0.0000000001
 40
0.0
 40
0.0
 40
0.0
 40
0.0
 40
0.2112698744
 40
0.4414443024
 40
0.7019400798
 40
1.0
 40
1.0
 40
1.0
 40
1.0
 10
350.4913861675
 20
123.4995078099
 30
0.0
 10
350.4820480684
 20
123.3273668311
 30
0.0
 10
350.4057950946
 20
122.9691510696
 30
0.0
 10
350.1371052579
 20
122.4572382956
 30
0.0
 10
349.7210034744
 20
121.9613841883
 30
0.0
 10
349.3737529381
 20
121.6634821106
 30
0.0
 10
349.1802781346
 20
121.5161033903
 30
0.0
  0
SPLINE
  5
4CC
100
AcDbEntity
  8
7_ALL_FEATURES
100
AcDbSpline
 62
7
  6
CONTINUOUS
 70
0
 71
3
 72
20
 73
16
 74
0
 42
0.0000001
 43
0.0000001
 44
0.0000000001
 40
0.0
 40
0.0
 40
0.0
 40
0.0
 40
0.038906619
 40
0.0844132294
 40
0.1362930165
 40
0.1940328415
 40
0.2569192368
 40
0.3240919003
 40
0.4673064481
 40
0.6151773058
 40
0.7587410631
 40
0.8262111539
 40
0.889464616
 40
0.9476409856
 40
1.0
 40
1.0
 40
1.0
 40
1.0
 10
349.1802781346
 20
121.5161033903
 30
0.0
 10
348.8680348631
 20
121.278253226
 30
0.0
 10
348.1424532216
 20
120.8252434494
 30
0.0
 10
346.8945004071
 20
120.2431182509
 30
0.0
 10
345.4197960054
 20
119.7136782904
 30
0.0
 10
343.7421765119
 20
119.2461173242
 30
0.0
 10
341.8887440865
 20
118.8482479635
 30
0.0
 10
339.1656924036
 20
118.4109323504
 30
0.0
 10
335.5605044607
 20
118.0901595608
 30
0.0
 10
331.1715031139
 20
118.0541006739
 30
0.0
 10
327.5550153047
 20
118.315432973
 30
0.0
 10
324.8147723652
 20
118.7074587219
 30
0.0
 10
322.9436773579
 20
119.0746231079
 30
0.0
 10
321.2453257637
 20
119.5144218358
 30
0.0
 10
320.1871262328
 20
119.8709562064
 30
0.0
 10
319.6952241365
 20
120.0634704382
 30
0.0
  0
SPLINE
  5
4CD
100
AcDbEntity
  8
7_ALL_FEATURES
100
AcDbSpline
 62
7
  6
CONTINUOUS
 70
0
 71
3
 72
9
 73
5
 74
0
 42
0.0000001
 43
0.0000001
 44
0.0000000001
 40
0.0
 40
0.0
 40
0.0
 40
0.0
 40
0.2560727011
 40
1.0
 40
1.0
 40
1.0
 40
1.0
 10
316.5940144502
 20
122.8848794209
 30
0.0
 10
316.5771527582
 20
122.8650571304
 30
0.0
 10
316.512171084
 20
122.7869189315
 30
0.0
 10
316.4507460387
 20
122.7058011044
 30
0.0
 10
316.4074995837
 20
122.6437886626
 30
0.0
  0
SPLINE
  5
4CE
100
AcDbEntity
  8
7_ALL_FEATURES
100
AcDbSpline
 62
7
  6
CONTINUOUS
 70
0
 71
3
 72
9
 73
5
 74
0
 42
0.0000001
 43
0.0000001
 44
0.0000000001
 40
0.0
 40
0.0
 40
0.0
 40
0.0
 40
0.5234363003
 40
1.0
 40
1.0
 40
1.0
 40
1.0
 10
316.4074995837
 20
122.6437886626
 30
0.0
 10
316.2926845809
 20
122.4791518462
 30
0.0
 10
316.1045277169
 20
122.1399146968
 30
0.0
 10
316.0196069364
 20
121.7588378464
 30
0.0
 10
316.0097081977
 20
121.5763618892
 30
0.0
  0
SPLINE
  5
4CF
100
AcDbEntity
  8
7_ALL_FEATURES
100
AcDbSpline
 62
7
  6
CONTINUOUS
 70
0
 71
3
 72
11
 73
7
 74
0
 42
0.0000001
 43
0.0000001
 44
0.0000000001
 40
0.0
 40
0.0
 40
0.0
 40
0.0
 40
0.2112698744
 40
0.4414443024
 40
0.7019400798
 40
1.0
 40
1.0
 40
1.0
 40
1.0
 10
350.5166919759
 20
119.7007102715
 30
0.0
 10
350.5073538769
 20
119.5285692928
 30
0.0
 10
350.431100903
 20
119.1703535312
 30
0.0
 10
350.1624110664
 20
118.6584407572
 30
0.0
 10
349.7463092828
 20
118.1625866499
 30
0.0
 10
349.3990587465
 20
117.8646845723
 30
0.0
 10
349.2055839431
 20
117.7173058519
 30
0.0
  0
SPLINE
  5
4D0
100
AcDbEntity
  8
7_ALL_FEATURES
100
AcDbSpline
 62
7
  6
CONTINUOUS
 70
0
 71
3
 72
20
 73
16
 74
0
 42
0.0000001
 43
0.0000001
 44
0.0000000001
 40
0.0
 40
0.0
 40
0.0
 40
0.0
 40
0.038906619
 40
0.0844132294
 40
0.1362930165
 40
0.1940328415
 40
0.2569192368
 40
0.3240919003
 40
0.4673064481
 40
0.6151773058
 40
0.7587410631
 40
0.8262111539
 40
0.889464616
 40
0.9476409856
 40
1.0
 40
1.0
 40
1.0
 40
1.0
 10
349.2055839431
 20
117.7173058519
 30
0.0
 10
348.8933406715
 20
117.4794556876
 30
0.0
 10
348.16775903
 20
117.026445911
 30
0.0
 10
346.9198062156
 20
116.4443207125
 30
0.0
 10
345.4451018138
 20
115.9148807521
 30
0.0
 10
343.7674823204
 20
115.4473197858
 30
0.0
 10
341.9140498949
 20
115.0494504251
 30
0.0
 10
339.1909982121
 20
114.612134812
 30
0.0
 10
335.5858102691
 20
114.2913620224
 30
0.0
 10
331.1968089224
 20
114.2553031356
 30
0.0
 10
327.5803211131
 20
114.5166354347
 30
0.0
 10
324.8400781737
 20
114.9086611836
 30
0.0
 10
322.9689831664
 20
115.2758255696
 30
0.0
 10
321.2706315722
 20
115.7156242974
 30
0.0
 10
320.2124320412
 20
116.0721586681
 30
0.0
 10
319.720529945
 20
116.2646728998
 30
0.0
  0
SPLINE
  5
4D1
100
AcDbEntity
  8
7_ALL_FEATURES
100
AcDbSpline
 62
7
  6
CONTINUOUS
 70
0
 71
3
 72
10
 73
6
 74
0
 42
0.0000001
 43
0.0000001
 44
0.0000000001
 40
0.0
 40
0.0
 40
0.0
 40
0.0
 40
0.5313244452
 40
0.7706664935
 40
1.0
 40
1.0
 40
1.0
 40
1.0
 10
316.6193202586
 20
119.0860818825
 30
0.0
 10
316.4523004556
 20
118.889736518
 30
0.0
 10
316.2384053686
 20
118.5744808967
 30
0.0
 10
316.0760990708
 20
118.1150390497
 30
0.0
 10
316.0410407388
 20
117.8886627293
 30
0.0
 10
316.0350140061
 20
117.7775643508
 30
0.0
  0
SPLINE
  5
4D2
100
AcDbEntity
  8
7_ALL_FEATURES
100
AcDbSpline
 62
7
  6
CONTINUOUS
 70
0
 71
3
 72
11
 73
7
 74
0
 42
0.0000001
 43
0.0000001
 44
0.0000000001
 40
0.0
 40
0.0
 40
0.0
 40
0.0
 40
0.211269982
 40
0.4414444416
 40
0.7019401808
 40
1.0
 40
1.0
 40
1.0
 40
1.0
 10
350.5419977844
 20
115.9019127332
 30
0.0
 10
350.5326597039
 20
115.7297720972
 30
0.0
 10
350.4564070529
 20
115.3715571056
 30
0.0
 10
350.1877182072
 20
114.8596453626
 30
0.0
 10
349.7716180341
 20
114.3637921426
 30
0.0
 10
349.4243687451
 20
114.0658905405
 30
0.0
 10
349.2308946443
 20
113.9185120372
 30
0.0
  0
SPLINE
  5
4D3
100
AcDbEntity
  8
7_ALL_FEATURES
100
AcDbSpline
 62
7
  6
CONTINUOUS
 70
0
 71
3
 72
20
 73
16
 74
0
 42
0.0000001
 43
0.0000001
 44
0.0000000001
 40
0.0
 40
0.0
 40
0.0
 40
0.0
 40
0.0389065849
 40
0.0844131643
 40
0.1362929254
 40
0.1940327305
 40
0.2569191128
 40
0.3240917693
 40
0.4673063183
 40
0.6151771909
 40
0.7587409667
 40
0.8262110784
 40
0.8894645695
 40
0.947640968
 40
1.0
 40
1.0
 40
1.0
 40
1.0
 10
349.2308946443
 20
113.9185120372
 30
0.0
 10
348.918651831
 20
113.6806617085
 30
0.0
 10
348.1930709217
 20
113.2276516418
 30
0.0
 10
346.9451190101
 20
112.6455260191
 30
0.0
 10
345.4704152487
 20
112.1160856117
 30
0.0
 10
343.7927961313
 20
111.6485241889
 30
0.0
 10
341.9393638169
 20
111.2506543842
 30
0.0
 10
339.2163118535
 20
110.8133381818
 30
0.0
 10
335.611123129
 20
110.4925647951
 30
0.0
 10
331.2221205483
 20
110.4565053848
 30
0.0
 10
327.6056314258
 20
110.717837374
 30
0.0
 10
324.8653872216
 20
111.109863113
 30
0.0
 10
322.9942910149
 20
111.4770275322
 30
0.0
 10
321.2959383225
 20
111.9168264824
 30
0.0
 10
320.2377381142
 20
112.2733610262
 30
0.0
 10
319.7458357534
 20
112.4658753615
 30
0.0
  0
SPLINE
  5
4D4
100
AcDbEntity
  8
7_ALL_FEATURES
100
AcDbSpline
 62
7
  6
CONTINUOUS
 70
0
 71
3
 72
9
 73
5
 74
0
 42
0.0000001
 43
0.0000001
 44
0.0000000001
 40
0.0
 40
0.0
 40
0.0
 40
0.0
 40
0.2604438374
 40
1.0
 40
1.0
 40
1.0
 40
1.0
 10
316.6446300222
 20
115.2872889925
 30
0.0
 10
316.6155824538
 20
115.2531413324
 30
0.0
 10
316.5065880638
 20
115.1199180809
 30
0.0
 10
316.4081735334
 20
114.9778346584
 30
0.0
 10
316.3437523796
 20
114.8680358521
 30
0.0
  0
SPLINE
  5
4D5
100
AcDbEntity
  8
7_ALL_FEATURES
100
AcDbSpline
 62
7
  6
CONTINUOUS
 70
0
 71
3
 72
11
 73
7
 74
0
 42
0.0000001
 43
0.0000001
 44
0.0000000001
 40
0.0
 40
0.0
 40
0.0
 40
0.0
 40
0.2898756743
 40
0.547488906
 40
0.7805018026
 40
1.0
 40
1.0
 40
1.0
 40
1.0
 10
316.9423471275
 20
125.872274726
 30
0.0
 10
316.7916154836
 20
126.0056147438
 30
0.0
 10
316.5219912964
 20
126.2758011076
 30
0.0
 10
316.2073528466
 20
126.7209240637
 30
0.0
 10
316.01300933
 20
127.1787528096
 30
0.0
 10
315.96714331
 20
127.4939900534
 30
0.0
 10
315.9661356818
 20
127.6463725198
 30
0.0
  0
SPLINE
  5
4D6
100
AcDbEntity
  8
7_ALL_FEATURES
100
AcDbSpline
 62
7
  6
CONTINUOUS
 70
0
 71
3
 72
18
 73
14
 74
0
 42
0.0000001
 43
0.0000001
 44
0.0000000001
 40
0.0
 40
0.0
 40
0.0
 40
0.0
 40
0.0361082508
 40
0.0774929861
 40
0.1241553535
 40
0.1759014202
 40
0.2323967238
 40
0.2931970578
 40
0.4255209162
 40
0.568001837
 40
0.7151029103
 40
0.8610097277
 40
1.0
 40
1.0
 40
1.0
 40
1.0
 10
348.9375143056
 20
125.5692546957
 30
0.0
 10
348.7199310775
 20
125.3828775965
 30
0.0
 10
348.2193788327
 20
125.0218105628
 30
0.0
 10
347.3575002353
 20
124.5417889462
 30
0.0
 10
346.3425912246
 20
124.0912242046
 30
0.0
 10
345.1852289156
 20
123.675062816
 30
0.0
 10
343.8974411705
 20
123.2977318886
 30
0.0
 10
341.9699901429
 20
122.8391424504
 30
0.0
 10
339.3400779825
 20
122.4013220847
 30
0.0
 10
336.004275911
 20
122.0935280829
 30
0.0
 10
332.5475750189
 20
122.0044837332
 30
0.0
 10
329.1203066677
 20
122.1380180246
 30
0.0
 10
326.8703791975
 20
122.3801369598
 30
0.0
 10
325.7796614155
 20
122.5428800491
 30
0.0
  0
SPLINE
  5
4D7
100
AcDbEntity
  8
7_ALL_FEATURES
100
AcDbSpline
 62
7
  6
CONTINUOUS
 70
0
 71
3
 72
11
 73
7
 74
0
 42
0.0000001
 43
0.0000001
 44
0.0000000001
 40
0.0
 40
0.0
 40
0.0
 40
0.0
 40
0.2885422649
 40
0.546589817
 40
0.7806716099
 40
1.0
 40
1.0
 40
1.0
 40
1.0
 10
349.6140936454
 20
110.894071074
 30
0.0
 10
349.7550637263
 20
111.022159371
 30
0.0
 10
350.0082923909
 20
111.2810691903
 30
0.0
 10
350.3079128793
 20
111.7035936574
 30
0.0
 10
350.5008162007
 20
112.1356065664
 30
0.0
 10
350.556297929
 20
112.4333955958
 30
0.0
 10
350.5641403668
 20
112.5779648871
 30
0.0
  0
SPLINE
  5
4D8
100
AcDbEntity
  8
7_ALL_FEATURES
100
AcDbSpline
 62
7
  6
CONTINUOUS
 70
0
 71
3
 72
21
 73
17
 74
0
 42
0.0000001
 43
0.0000001
 44
0.0000000001
 40
0.0
 40
0.0
 40
0.0
 40
0.0
 40
0.0364453505
 40
0.0796962972
 40
0.1296813861
 40
0.1859632551
 40
0.2478575362
 40
0.3145024866
 40
0.3849053545
 40
0.4579782807
 40
0.6074579635
 40
0.753497073
 40
0.8223487327
 40
0.8869822549
 40
0.9464660476
 40
1.0
 40
1.0
 40
1.0
 40
1.0
 10
348.6756759351
 20
110.0413148376
 30
0.0
 10
348.4163779459
 20
109.8056981655
 30
0.0
 10
347.7911505902
 20
109.3545948339
 30
0.0
 10
346.6846199156
 20
108.7752007614
 30
0.0
 10
345.3466902986
 20
108.2440272629
 30
0.0
 10
343.7995866579
 20
107.7706093622
 30
0.0
 10
342.0690872727
 20
107.363169141
 30
0.0
 10
340.1851341782
 20
107.0291702748
 30
0.0
 10
338.1805284999
 20
106.7746249882
 30
0.0
 10
335.3727992096
 20
106.5458981077
 30
0.0
 10
331.8257864664
 20
106.4831116642
 30
0.0
 10
328.3253720014
 20
106.7068378849
 30
0.0
 10
325.6614674799
 20
107.0666167245
 30
0.0
 10
323.8374582306
 20
107.4100715878
 30
0.0
 10
322.1799857379
 20
107.8259682394
 30
0.0
 10
321.1464415146
 20
108.1656328149
 30
0.0
 10
320.6658359098
 20
108.3496631668
 30
0.0
  0
SPLINE
  5
4D9
100
AcDbEntity
  8
7_ALL_FEATURES
100
AcDbSpline
 62
7
  6
CONTINUOUS
 70
0
 71
3
 72
13
 73
9
 74
0
 42
0.0000001
 43
0.0000001
 44
0.0000000001
 40
0.0
 40
0.0
 40
0.0
 40
0.0
 40
0.3095335666
 40
0.5832758768
 40
0.7045554738
 40
0.8145676428
 40
0.9130237279
 40
1.0
 40
1.0
 40
1.0
 40
1.0
 10
325.7796614155
 20
122.5428800491
 30
0.0
 10
324.8804352792
 20
122.6770511798
 30
0.0
 10
323.1937703316
 20
122.9872454983
 30
0.0
 10
321.1939573119
 20
123.5347094691
 30
0.0
 10
319.8030183084
 20
124.0529797192
 30
0.0
 10
318.9204121253
 20
124.4543050015
 30
0.0
 10
318.163041151
 20
124.8802768349
 30
0.0
 10
317.7185824013
 20
125.1980689554
 30
0.0
 10
317.5224511589
 20
125.3617713043
 30
0.0
  0
LINE
  5
4DA
100
AcDbEntity
  8
7_ALL_FEATURES
100
AcDbLine
 62
7
  6
CONTINUOUS
 10
319.7679783358
 20
109.1419275154
 11
320.6658330756
 21
108.3496657819
  0
SPLINE
  5
4DB
100
AcDbEntity
  8
7_ALL_FEATURES
100
AcDbSpline
 62
7
  6
CONTINUOUS
 70
0
 71
3
 72
11
 73
7
 74
0
 42
0.0000001
 43
0.0000001
 44
0.0000000001
 40
0.0
 40
0.0
 40
0.0
 40
0.0
 40
0.2194978722
 40
0.4525110974
 40
0.7101217804
 40
1.0
 40
1.0
 40
1.0
 40
1.0
 10
350.4653677092
 20
127.876190411
 30
0.0
 10
350.4663753358
 20
127.723807832
 30
0.0
 10
350.4247409715
 20
127.4079852444
 30
0.0
 10
350.2364891215
 20
126.947615471
 30
0.0
 10
349.9278294099
 20
126.4983273657
 30
0.0
 10
349.6618163539
 20
126.2245809061
 30
0.0
 10
349.5128708171
 20
126.0892453713
 30
0.0
  0
SPLINE
  5
4DC
100
AcDbEntity
  8
7_ALL_FEATURES
100
AcDbSpline
 62
7
  6
CONTINUOUS
 70
0
 71
3
 72
9
 73
5
 74
0
 42
0.0000001
 43
0.0000001
 44
0.0000000001
 40
0.0
 40
0.0
 40
0.0
 40
0.0
 40
0.2401493799
 40
1.0
 40
1.0
 40
1.0
 40
1.0
 10
349.5128708171
 20
126.0892453713
 30
0.0
 10
349.4767544344
 20
126.0564291481
 30
0.0
 10
349.3242726943
 20
125.9220858213
 30
0.0
 10
349.1639879744
 20
125.7967050754
 30
0.0
 10
349.0391269736
 20
125.7058767678
 30
0.0
  0
SPLINE
  5
4DD
100
AcDbEntity
  8
7_ALL_FEATURES
100
AcDbSpline
 62
7
  6
CONTINUOUS
 70
0
 71
3
 72
17
 73
13
 74
0
 42
0.0000001
 43
0.0000001
 44
0.0000000001
 40
0.0
 40
0.0
 40
0.0
 40
0.0
 40
0.0382709617
 40
0.0815908747
 40
0.1298666866
 40
0.1828528745
 40
0.3014273697
 40
0.4336095489
 40
0.5747722481
 40
0.7197773321
 40
0.8632696985
 40
1.0
 40
1.0
 40
1.0
 40
1.0
 10
349.0391269736
 20
125.7058767678
 30
0.0
 10
348.7910258855
 20
125.5253992625
 30
0.0
 10
348.2354720618
 20
125.1769197686
 30
0.0
 10
347.3022995697
 20
124.7127949261
 30
0.0
 10
346.2262968825
 20
124.2792267756
 30
0.0
 10
344.5517001251
 20
123.7271063345
 30
0.0
 10
342.1796971707
 20
123.1587589371
 30
0.0
 10
339.0722673024
 20
122.6777933079
 30
0.0
 10
335.7278629303
 20
122.3963202657
 30
0.0
 10
332.2819135255
 20
122.3262819422
 30
0.0
 10
328.8739819563
 20
122.4706756233
 30
0.0
 10
326.6385314538
 20
122.7143754327
 30
0.0
 10
325.5544309206
 20
122.8761311825
 30
0.0
  0
SPLINE
  5
4DE
100
AcDbEntity
  8
7_ALL_FEATURES
100
AcDbSpline
 62
7
  6
CONTINUOUS
 70
0
 71
3
 72
18
 73
14
 74
0
 42
0.0000001
 43
0.0000001
 44
0.0000000001
 40
0.0
 40
0.0
 40
0.0
 40
0.0
 40
0.1800940785
 40
0.3485916303
 40
0.5023914984
 40
0.6389829389
 40
0.7565663289
 40
0.8080086326
 40
0.8545820952
 40
0.8965112884
 40
0.934212449
 40
0.9683736053
 40
1.0
 40
1.0
 40
1.0
 40
1.0
 10
338.3391870428
 20
109.3479029845
 30
0.0
 10
339.0588101865
 20
109.4281938991
 30
0.0
 10
340.4482273725
 20
109.6180975171
 30
0.0
 10
342.4320879167
 20
110.0041328263
 30
0.0
 10
344.2177514361
 20
110.475061142
 30
0.0
 10
345.7668441159
 20
111.0201806107
 30
0.0
 10
346.880788324
 20
111.5476254344
 30
0.0
 10
347.6175714842
 20
112.0060689948
 30
0.0
 10
348.0672820166
 20
112.3457702882
 30
0.0
 10
348.4370098493
 20
112.695111322
 30
0.0
 10
348.7246288472
 20
113.0532229207
 30
0.0
 10
348.9279309517
 20
113.4188430834
 30
0.0
 10
349.007410865
 20
113.6737772336
 30
0.0
 10
349.0305926333
 20
113.7988037425
 30
0.0
  0
SPLINE
  5
4DF
100
AcDbEntity
  8
7_ALL_FEATURES
100
AcDbSpline
 62
7
  6
CONTINUOUS
 70
0
 71
3
 72
21
 73
17
 74
0
 42
0.0000001
 43
0.0000001
 44
0.0000000001
 40
0.0
 40
0.0
 40
0.0
 40
0.0
 40
0.1631349615
 40
0.3293097241
 40
0.4901943885
 40
0.5661513845
 40
0.6378693099
 40
0.7045254066
 40
0.7654127626
 40
0.8199738951
 40
0.8678574948
 40
0.9090084562
 40
0.9438198373
 40
0.9733993108
 40
0.9869053105
 40
1.0
 40
1.0
 40
1.0
 40
1.0
 10
338.3391870428
 20
109.3479029845
 30
0.0
 10
337.1300248035
 20
109.2129924512
 30
0.0
 10
334.6771204046
 20
109.0412272953
 30
0.0
 10
331.0184185605
 20
109.0527255166
 30
0.0
 10
328.0181093358
 20
109.2842470423
 30
0.0
 10
325.7390029422
 20
109.6074406995
 30
0.0
 10
324.1678919471
 20
109.905607909
 30
0.0
 10
322.7237796025
 20
110.2597257647
 30
0.0
 10
321.4263478277
 20
110.6647599688
 30
0.0
 10
320.29296283
 20
111.1150974469
 30
0.0
 10
319.3381441217
 20
111.604643977
 30
0.0
 10
318.5731824469
 20
112.1282811177
 30
0.0
 10
318.0062527445
 20
112.6815242299
 30
0.0
 10
317.6984431097
 20
113.1854982494
 30
0.0
 10
317.5789172215
 20
113.5892379288
 30
0.0
 10
317.5585187981
 20
113.7879805335
 30
0.0
 10
317.5578655715
 20
113.8856389155
 30
0.0
  0
SPLINE
  5
4E0
100
AcDbEntity
  8
7_ALL_FEATURES
100
AcDbSpline
 62
7
  6
CONTINUOUS
 70
0
 71
3
 72
18
 73
14
 74
0
 42
0.0000001
 43
0.0000001
 44
0.0000000001
 40
0.0
 40
0.0
 40
0.0
 40
0.0
 40
0.1800942259
 40
0.3485918893
 40
0.5023918221
 40
0.6389832717
 40
0.7565666132
 40
0.8080088733
 40
0.8545822824
 40
0.8965114166
 40
0.9342125192
 40
0.9683736287
 40
1.0
 40
1.0
 40
1.0
 40
1.0
 10
338.3138812343
 20
113.1467005229
 30
0.0
 10
339.0335055697
 20
113.2269915704
 30
0.0
 10
340.4229249474
 20
113.4168955447
 30
0.0
 10
342.4067883796
 20
113.8029317177
 30
0.0
 10
344.1924539869
 20
114.273861145
 30
0.0
 10
345.741547786
 20
114.8189819132
 30
0.0
 10
346.8554921848
 20
115.3464280404
 30
0.0
 10
347.592274813
 20
115.8048727413
 30
0.0
 10
348.0419845724
 20
116.144574816
 30
0.0
 10
348.4117113246
 20
116.4939166367
 30
0.0
 10
348.699328915
 20
116.8520290412
 30
0.0
 10
348.9026292756
 20
117.2176500167
 30
0.0
 10
348.982107688
 20
117.4725845968
 30
0.0
 10
349.0052886757
 20
117.5976112631
 30
0.0
  0
SPLINE
  5
4E1
100
AcDbEntity
  8
7_ALL_FEATURES
100
AcDbSpline
 62
7
  6
CONTINUOUS
 70
0
 71
3
 72
27
 73
23
 74
0
 42
0.0000001
 43
0.0000001
 44
0.0000000001
 40
0.0
 40
0.0
 40
0.0
 40
0.0
 40
0.0577662865
 40
0.1228645246
 40
0.1941260934
 40
0.2701495584
 40
0.3493719936
 40
0.4301284592
 40
0.5107065754
 40
0.5893994326
 40
0.6645586799
 40
0.7346497775
 40
0.7983131284
 40
0.8544395037
 40
0.8794355902
 40
0.9023083528
 40
0.9230516868
 40
0.9417203401
 40
0.958442788
 40
0.9734589728
 40
0.9871400278
 40
1.0
 40
1.0
 40
1.0
 40
1.0
 10
319.6825712323
 20
121.9628692074
 30
0.0
 10
320.2692444798
 20
121.7332646775
 30
0.0
 10
321.5450974173
 20
121.3159315156
 30
0.0
 10
323.6055082585
 20
120.8221818171
 30
0.0
 10
325.8902575819
 20
120.4323013885
 30
0.0
 10
328.3462260465
 20
120.1559044163
 30
0.0
 10
330.9164096634
 20
119.9997610844
 30
0.0
 10
333.540745169
 20
119.9677124441
 30
0.0
 10
336.1578606272
 20
120.0605591226
 30
0.0
 10
338.7065639386
 20
120.2760483045
 30
0.0
 10
341.1273292783
 20
120.6089392158
 30
0.0
 10
343.3640509122
 20
121.0510655139
 30
0.0
 10
345.364875216
 20
121.5917581947
 30
0.0
 10
346.8516947986
 20
122.1323408334
 30
0.0
 10
347.879830413
 20
122.6128468255
 30
0.0
 10
348.5352016268
 20
122.9754293316
 30
0.0
 10
349.1014174601
 20
123.3523414213
 30
0.0
 10
349.5755397296
 20
123.7416395665
 30
0.0
 10
349.9548933836
 20
124.1419269849
 30
0.0
 10
350.2370880724
 20
124.5521200372
 30
0.0
 10
350.4187139687
 20
124.970845022
 30
0.0
 10
350.4711362249
 20
125.258860772
 30
0.0
 10
350.4787332633
 20
125.3989065791
 30
0.0
  0
SPLINE
  5
4E2
100
AcDbEntity
  8
7_ALL_FEATURES
100
AcDbSpline
 62
7
  6
CONTINUOUS
 70
0
 71
3
 72
21
 73
17
 74
0
 42
0.0000001
 43
0.0000001
 44
0.0000000001
 40
0.0
 40
0.0
 40
0.0
 40
0.0
 40
0.1631349615
 40
0.3293097241
 40
0.4901943885
 40
0.5661513845
 40
0.6378693099
 40
0.7045254066
 40
0.7654127626
 40
0.8199738951
 40
0.8678574948
 40
0.9090084562
 40
0.9438198373
 40
0.9733993108
 40
0.9869053105
 40
1.0
 40
1.0
 40
1.0
 40
1.0
 10
338.3138812343
 20
113.1467005229
 30
0.0
 10
337.1047189951
 20
113.0117899896
 30
0.0
 10
334.6518145961
 20
112.8400248337
 30
0.0
 10
330.993112752
 20
112.851523055
 30
0.0
 10
327.9928035274
 20
113.0830445807
 30
0.0
 10
325.7136971337
 20
113.4062382379
 30
0.0
 10
324.1425861386
 20
113.7044054474
 30
0.0
 10
322.698473794
 20
114.0585233031
 30
0.0
 10
321.4010420193
 20
114.4635575072
 30
0.0
 10
320.2676570215
 20
114.9138949853
 30
0.0
 10
319.3128383133
 20
115.4034415154
 30
0.0
 10
318.5478766384
 20
115.9270786561
 30
0.0
 10
317.980946936
 20
116.4803217683
 30
0.0
 10
317.6731373012
 20
116.9842957877
 30
0.0
 10
317.553611413
 20
117.3880354671
 30
0.0
 10
317.5332129896
 20
117.5867780718
 30
0.0
 10
317.5325597631
 20
117.6844364538
 30
0.0
  0
SPLINE
  5
4E3
100
AcDbEntity
  8
7_ALL_FEATURES
100
AcDbSpline
 62
7
  6
CONTINUOUS
 70
0
 71
3
 72
18
 73
14
 74
0
 42
0.0000001
 43
0.0000001
 44
0.0000000001
 40
0.0
 40
0.0
 40
0.0
 40
0.0
 40
0.1800942259
 40
0.3485918893
 40
0.5023918221
 40
0.6389832717
 40
0.7565666132
 40
0.8080088733
 40
0.8545822824
 40
0.8965114166
 40
0.9342125192
 40
0.9683736287
 40
1.0
 40
1.0
 40
1.0
 40
1.0
 10
338.2885754259
 20
116.9454980612
 30
0.0
 10
339.0081997613
 20
117.0257891088
 30
0.0
 10
340.3976191389
 20
117.2156930831
 30
0.0
 10
342.3814825712
 20
117.601729256
 30
0.0
 10
344.1671481784
 20
118.0726586833
 30
0.0
 10
345.7162419775
 20
118.6177794516
 30
0.0
 10
346.8301863763
 20
119.1452255788
 30
0.0
 10
347.5669690046
 20
119.6036702797
 30
0.0
 10
348.016678764
 20
119.9433723544
 30
0.0
 10
348.3864055161
 20
120.2927141751
 30
0.0
 10
348.6740231066
 20
120.6508265796
 30
0.0
 10
348.8773234671
 20
121.0164475551
 30
0.0
 10
348.9568018796
 20
121.2713821352
 30
0.0
 10
348.9799828672
 20
121.3964088014
 30
0.0
  0
SPLINE
  5
4E4
100
AcDbEntity
  8
7_ALL_FEATURES
100
AcDbSpline
 62
7
  6
CONTINUOUS
 70
0
 71
3
 72
21
 73
17
 74
0
 42
0.0000001
 43
0.0000001
 44
0.0000000001
 40
0.0
 40
0.0
 40
0.0
 40
0.0
 40
0.1631349615
 40
0.3293097241
 40
0.4901943885
 40
0.5661513845
 40
0.6378693099
 40
0.7045254066
 40
0.7654127626
 40
0.8199738951
 40
0.8678574948
 40
0.9090084562
 40
0.9438198373
 40
0.9733993108
 40
0.9869053105
 40
1.0
 40
1.0
 40
1.0
 40
1.0
 10
338.2885754259
 20
116.9454980612
 30
0.0
 10
337.0794131866
 20
116.810587528
 30
0.0
 10
334.6265087876
 20
116.6388223721
 30
0.0
 10
330.9678069436
 20
116.6503205933
 30
0.0
 10
327.9674977189
 20
116.8818421191
 30
0.0
 10
325.6883913252
 20
117.2050357763
 30
0.0
 10
324.1172803302
 20
117.5032029857
 30
0.0
 10
322.6731679855
 20
117.8573208414
 30
0.0
 10
321.3757362108
 20
118.2623550456
 30
0.0
 10
320.242351213
 20
118.7126925237
 30
0.0
 10
319.2875325048
 20
119.2022390538
 30
0.0
 10
318.52257083
 20
119.7258761945
 30
0.0
 10
317.9556411276
 20
120.2791193066
 30
0.0
 10
317.6478314928
 20
120.7830933261
 30
0.0
 10
317.5283056046
 20
121.1868330055
 30
0.0
 10
317.5079071812
 20
121.3855756102
 30
0.0
 10
317.5072539546
 20
121.4832339922
 30
0.0
  0
SPLINE
  5
4E5
100
AcDbEntity
  8
7_ALL_FEATURES
100
AcDbSpline
 62
7
  6
CONTINUOUS
 70
0
 71
3
 72
19
 73
15
 74
0
 42
0.0000001
 43
0.0000001
 44
0.0000000001
 40
0.0
 40
0.0
 40
0.0
 40
0.0
 40
0.1843895187
 40
0.35609982
 40
0.5116835562
 40
0.6483761987
 40
0.7090461739
 40
0.7644129278
 40
0.8144848793
 40
0.8594231842
 40
0.8996033036
 40
0.9356804064
 40
0.9686778981
 40
1.0
 40
1.0
 40
1.0
 40
1.0
 10
338.2632696174
 20
120.7442955996
 30
0.0
 10
339.0182497504
 20
120.8285314193
 30
0.0
 10
340.4724616542
 20
121.0290591104
 30
0.0
 10
342.541397256
 20
121.440992928
 30
0.0
 10
344.3869863127
 20
121.9453410221
 30
0.0
 10
345.7537926373
 20
122.4501175536
 30
0.0
 10
346.6940610656
 20
122.89898255
 30
0.0
 10
347.2897682266
 20
123.2372288893
 30
0.0
 10
347.801148074
 20
123.588593411
 30
0.0
 10
348.2253300019
 20
123.9515091418
 30
0.0
 10
348.5599865279
 20
124.324480888
 30
0.0
 10
348.8025062112
 20
124.7067388569
 30
0.0
 10
348.9498358187
 20
125.0967295293
 30
0.0
 10
348.9820506465
 20
125.3629936959
 30
0.0
 10
348.9811875063
 20
125.4920344761
 30
0.0
  0
SPLINE
  5
4E6
100
AcDbEntity
  8
7_ALL_FEATURES
100
AcDbSpline
 62
7
  6
CONTINUOUS
 70
0
 71
3
 72
21
 73
17
 74
0
 42
0.0000001
 43
0.0000001
 44
0.0000000001
 40
0.0
 40
0.0
 40
0.0
 40
0.0
 40
0.1631349615
 40
0.3293097241
 40
0.4901943885
 40
0.5661513845
 40
0.6378693099
 40
0.7045254066
 40
0.7654127626
 40
0.8199738951
 40
0.8678574948
 40
0.9090084562
 40
0.9438198373
 40
0.9733993108
 40
0.9869053105
 40
1.0
 40
1.0
 40
1.0
 40
1.0
 10
338.2632696174
 20
120.7442955996
 30
0.0
 10
337.0541073782
 20
120.6093850663
 30
0.0
 10
334.6012029792
 20
120.4376199104
 30
0.0
 10
330.9425011351
 20
120.4491181317
 30
0.0
 10
327.9421919105
 20
120.6806396574
 30
0.0
 10
325.6630855168
 20
121.0038333146
 30
0.0
 10
324.0919745217
 20
121.3020005241
 30
0.0
 10
322.6478621771
 20
121.6561183798
 30
0.0
 10
321.3504304024
 20
122.0611525839
 30
0.0
 10
320.2170454046
 20
122.511490062
 30
0.0
 10
319.2622266964
 20
123.0010365921
 30
0.0
 10
318.4972650215
 20
123.5246737328
 30
0.0
 10
317.9303353191
 20
124.077916845
 30
0.0
 10
317.6225256843
 20
124.5818908645
 30
0.0
 10
317.5029997961
 20
124.9856305439
 30
0.0
 10
317.4826013727
 20
125.1843731486
 30
0.0
 10
317.4819481462
 20
125.2820315306
 30
0.0
  0
SPLINE
  5
4E7
100
AcDbEntity
  8
7_ALL_FEATURES
100
AcDbSpline
 62
7
  6
CONTINUOUS
 70
0
 71
3
 72
27
 73
23
 74
0
 42
0.0000001
 43
0.0000001
 44
0.0000000001
 40
0.0
 40
0.0
 40
0.0
 40
0.0
 40
0.0577662865
 40
0.1228645246
 40
0.1941260934
 40
0.2701495584
 40
0.3493719936
 40
0.4301284592
 40
0.5107065754
 40
0.5893994326
 40
0.6645586799
 40
0.7346497775
 40
0.7983131284
 40
0.8544395037
 40
0.8794355902
 40
0.9023083528
 40
0.9230516868
 40
0.9417203401
 40
0.958442788
 40
0.9734589728
 40
0.9871400278
 40
1.0
 40
1.0
 40
1.0
 40
1.0
 10
319.7078770407
 20
118.164071669
 30
0.0
 10
320.2945502883
 20
117.9344671392
 30
0.0
 10
321.5704032258
 20
117.5171339772
 30
0.0
 10
323.630814067
 20
117.0233842787
 30
0.0
 10
325.9155633904
 20
116.6335038501
 30
0.0
 10
328.3715318549
 20
116.3571068779
 30
0.0
 10
330.9417154719
 20
116.2009635461
 30
0.0
 10
333.5660509775
 20
116.1689149058
 30
0.0
 10
336.1831664357
 20
116.2617615843
 30
0.0
 10
338.731869747
 20
116.4772507661
 30
0.0
 10
341.1526350868
 20
116.8101416775
 30
0.0
 10
343.3893567206
 20
117.2522679755
 30
0.0
 10
345.3901810244
 20
117.7929606563
 30
0.0
 10
346.8770006071
 20
118.333543295
 30
0.0
 10
347.9051362215
 20
118.8140492871
 30
0.0
 10
348.5605074353
 20
119.1766317933
 30
0.0
 10
349.1267232685
 20
119.5535438829
 30
0.0
 10
349.6008455381
 20
119.9428420281
 30
0.0
 10
349.980199192
 20
120.3431294465
 30
0.0
 10
350.2623938808
 20
120.7533224989
 30
0.0
 10
350.4440197771
 20
121.1720474836
 30
0.0
 10
350.4964420333
 20
121.4600632336
 30
0.0
 10
350.5040390717
 20
121.6001090407
 30
0.0
  0
SPLINE
  5
4E8
100
AcDbEntity
  8
7_ALL_FEATURES
100
AcDbSpline
 62
7
  6
CONTINUOUS
 70
0
 71
3
 72
20
 73
16
 74
0
 42
0.0000001
 43
0.0000001
 44
0.0000000001
 40
0.0
 40
0.0
 40
0.0
 40
0.0
 40
0.0513430592
 40
0.1081927275
 40
0.1698851714
 40
0.2356590778
 40
0.3758628895
 40
0.5211782062
 40
0.6635181406
 40
0.7311106262
 40
0.7950764743
 40
0.854588346
 40
0.9089283785
 40
0.9575238359
 40
1.0
 40
1.0
 40
1.0
 40
1.0
 10
319.7679783358
 20
109.1419275154
 30
0.0
 10
320.2380919809
 20
108.9579408712
 30
0.0
 10
321.2467693805
 20
108.6157732331
 30
0.0
 10
322.8629353092
 20
108.189724777
 30
0.0
 10
324.6401080818
 20
107.8299226488
 30
0.0
 10
327.2435265954
 20
107.438012561
 30
0.0
 10
330.6907961191
 20
107.1575481796
 30
0.0
 10
334.9014023274
 20
107.1430771263
 30
0.0
 10
338.3893238287
 20
107.3990718205
 30
0.0
 10
341.0575326419
 20
107.770354177
 30
0.0
 10
342.9047770212
 20
108.1171984298
 30
0.0
 10
344.6043575511
 20
108.5314657752
 30
0.0
 10
346.1306955237
 20
109.0067070175
 30
0.0
 10
347.4607355581
 20
109.53532778
 30
0.0
 10
348.2589821624
 20
109.9463549723
 30
0.0
 10
348.6159759488
 20
110.1631199739
 30
0.0
  0
SPLINE
  5
4E9
100
AcDbEntity
  8
7_ALL_FEATURES
100
AcDbSpline
 62
7
  6
CONTINUOUS
 70
0
 71
3
 72
9
 73
5
 74
0
 42
0.0000001
 43
0.0000001
 44
0.0000000001
 40
0.0
 40
0.0
 40
0.0
 40
0.0
 40
0.2689605242
 40
1.0
 40
1.0
 40
1.0
 40
1.0
 10
348.6159759488
 20
110.1631199739
 30
0.0
 10
348.7108586761
 20
110.220732334
 30
0.0
 10
349.0593669398
 20
110.4416627221
 30
0.0
 10
349.3907931673
 20
110.6911756953
 30
0.0
 10
349.6140936454
 20
110.894071074
 30
0.0
  0
SPLINE
  5
4EA
100
AcDbEntity
  8
7_ALL_FEATURES
100
AcDbSpline
 62
7
  6
CONTINUOUS
 70
0
 71
3
 72
27
 73
23
 74
0
 42
0.0000001
 43
0.0000001
 44
0.0000000001
 40
0.0
 40
0.0
 40
0.0
 40
0.0
 40
0.0577662865
 40
0.1228645246
 40
0.1941260934
 40
0.2701495584
 40
0.3493719936
 40
0.4301284592
 40
0.5107065754
 40
0.5893994326
 40
0.6645586799
 40
0.7346497775
 40
0.7983131284
 40
0.8544395037
 40
0.8794355902
 40
0.9023083528
 40
0.9230516868
 40
0.9417203401
 40
0.958442788
 40
0.9734589728
 40
0.9871400278
 40
1.0
 40
1.0
 40
1.0
 40
1.0
 10
319.7331828492
 20
114.3652741306
 30
0.0
 10
320.3198560968
 20
114.1356696008
 30
0.0
 10
321.5957090342
 20
113.7183364388
 30
0.0
 10
323.6561198754
 20
113.2245867404
 30
0.0
 10
325.9408691988
 20
112.8347063117
 30
0.0
 10
328.3968376634
 20
112.5583093395
 30
0.0
 10
330.9670212804
 20
112.4021660077
 30
0.0
 10
333.591356786
 20
112.3701173674
 30
0.0
 10
336.2084722441
 20
112.4629640459
 30
0.0
 10
338.7571755555
 20
112.6784532277
 30
0.0
 10
341.1779408952
 20
113.0113441391
 30
0.0
 10
343.4146625291
 20
113.4534704372
 30
0.0
 10
345.4154868329
 20
113.994163118
 30
0.0
 10
346.9023064155
 20
114.5347457566
 30
0.0
 10
347.93044203
 20
115.0152517487
 30
0.0
 10
348.5858132438
 20
115.3778342549
 30
0.0
 10
349.152029077
 20
115.7547463446
 30
0.0
 10
349.6261513466
 20
116.1440444897
 30
0.0
 10
350.0055050005
 20
116.5443319082
 30
0.0
 10
350.2876996893
 20
116.9545249605
 30
0.0
 10
350.4693255856
 20
117.3732499453
 30
0.0
 10
350.5217478418
 20
117.6612656953
 30
0.0
 10
350.5293448802
 20
117.8013115024
 30
0.0
  0
SPLINE
  5
4EB
100
AcDbEntity
  8
7_ALL_FEATURES
100
AcDbSpline
 62
7
  6
CONTINUOUS
 70
0
 71
3
 72
27
 73
23
 74
0
 42
0.0000001
 43
0.0000001
 44
0.0000000001
 40
0.0
 40
0.0
 40
0.0
 40
0.0
 40
0.0602811388
 40
0.1273442819
 40
0.2000128131
 40
0.276892865
 40
0.3564631208
 40
0.4371196033
 40
0.5172267685
 40
0.5951650839
 40
0.6693797418
 40
0.7384316072
 40
0.8010543269
 40
0.8562259131
 40
0.880801507
 40
0.9033030213
 40
0.9237317142
 40
0.942147452
 40
0.9586815863
 40
0.973572019
 40
0.987180025
 40
1.0
 40
1.0
 40
1.0
 40
1.0
 10
320.3666714762
 20
110.3417057514
 30
0.0
 10
320.9750537854
 20
110.1292469687
 30
0.0
 10
322.282906974
 20
109.7445032119
 30
0.0
 10
324.3743305658
 20
109.2932643945
 30
0.0
 10
326.6648520889
 20
108.9445053995
 30
0.0
 10
329.1036289697
 20
108.7065073464
 30
0.0
 10
331.636381022
 20
108.584792338
 30
0.0
 10
334.2065108834
 20
108.5822368205
 30
0.0
 10
336.7565462801
 20
108.6989098206
 30
0.0
 10
339.2295004992
 20
108.9321070478
 30
0.0
 10
341.5701820566
 20
109.2764109912
 30
0.0
 10
343.7267791525
 20
109.7237634865
 30
0.0
 10
345.6515427674
 20
110.2638608496
 30
0.0
 10
347.0792658953
 20
110.7994599581
 30
0.0
 10
348.0650933393
 20
111.2731665502
 30
0.0
 10
348.6931997212
 20
111.6298629604
 30
0.0
 10
349.2356314381
 20
111.9999957188
 30
0.0
 10
349.6896975094
 20
112.3817558788
 30
0.0
 10
350.0529125334
 20
112.7738498011
 30
0.0
 10
350.3230423546
 20
113.1752364259
 30
0.0
 10
350.4969124035
 20
113.5845444565
 30
0.0
 10
350.5472272352
 20
113.8656680679
 30
0.0
 10
350.5546506886
 20
114.002513964
 30
0.0
  0
SPLINE
  5
4EC
100
AcDbEntity
  8
7_ALL_FEATURES
100
AcDbSpline
 62
7
  6
CONTINUOUS
 70
0
 71
3
 72
13
 73
9
 74
0
 42
0.0000001
 43
0.0000001
 44
0.0000000001
 40
0.0
 40
0.0
 40
0.0
 40
0.0
 40
0.3028853785
 40
0.574020819
 40
0.6957944401
 40
0.8075745504
 40
0.9090107488
 40
1.0
 40
1.0
 40
1.0
 40
1.0
 10
325.5544309206
 20
122.8761311825
 30
0.0
 10
324.6939429411
 20
123.0045222963
 30
0.0
 10
323.0702066109
 20
123.2992441561
 30
0.0
 10
321.1345863064
 20
123.8091088922
 30
0.0
 10
319.7655338367
 20
124.2879562077
 30
0.0
 10
318.8774621389
 20
124.6602730878
 30
0.0
 10
318.0973538754
 20
125.0557334206
 30
0.0
 10
317.6274799688
 20
125.3489413901
 30
0.0
 10
317.414287131
 20
125.5001282656
 30
0.0
  0
SPLINE
  5
4ED
100
AcDbEntity
  8
7_ALL_FEATURES
100
AcDbSpline
 62
7
  6
CONTINUOUS
 70
0
 71
3
 72
9
 73
5
 74
0
 42
0.0000001
 43
0.0000001
 44
0.0000000001
 40
0.0
 40
0.0
 40
0.0
 40
0.0
 40
0.2599088016
 40
1.0
 40
1.0
 40
1.0
 40
1.0
 10
317.414287131
 20
125.5001282656
 30
0.0
 10
317.3718022446
 20
125.5302566569
 30
0.0
 10
317.2097378827
 20
125.6481167949
 30
0.0
 10
317.0534289783
 20
125.7740096531
 30
0.0
 10
316.9423471275
 20
125.872274726
 30
0.0
  0
SPLINE
  5
4EE
100
AcDbEntity
  8
7_ALL_FEATURES
100
AcDbSpline
 62
3
  6
CONTINUOUS
 70
0
 71
3
 72
12
 73
8
 74
0
 42
0.0000001
 43
0.0000001
 44
0.0000000001
 40
0.0
 40
0.0
 40
0.0
 40
0.0
 40
0.2518266394
 40
0.50438764
 40
0.6301670275
 40
0.7549479733
 40
1.0
 40
1.0
 40
1.0
 40
1.0
 10
350.7225804715
 20
111.8278818904
 30
0.0
 10
350.680720074
 20
111.7415102057
 30
0.0
 10
350.5754727461
 20
111.5781140421
 30
0.0
 10
350.3999955692
 20
111.4107251978
 30
0.0
 10
350.2395364674
 20
111.3049290504
 30
0.0
 10
350.0702082976
 20
111.2205052786
 30
0.0
 10
349.9327920569
 20
111.1812196972
 30
0.0
 10
349.8404115885
 20
111.1674640768
 30
0.0
  0
SPLINE
  5
4EF
100
AcDbEntity
  8
7_ALL_FEATURES
100
AcDbSpline
 62
3
  6
CONTINUOUS
 70
0
 71
3
 72
15
 73
11
 74
0
 42
0.0000001
 43
0.0000001
 44
0.0000000001
 40
0.0
 40
0.0
 40
0.0
 40
0.0
 40
0.119867878
 40
0.2406899127
 40
0.3628881619
 40
0.4867633533
 40
0.6124737666
 40
0.7400281473
 40
0.8692913184
 40
1.0
 40
1.0
 40
1.0
 40
1.0
 10
354.6334049958
 20
125.2913328013
 30
0.0
 10
354.756639379
 20
125.1444925992
 30
0.0
 10
354.9812683539
 20
124.8296324011
 30
0.0
 10
355.2422574783
 20
124.3088441011
 30
0.0
 10
355.4234394307
 20
123.7484078496
 30
0.0
 10
355.5211975866
 20
123.1597837562
 30
0.0
 10
355.5337708334
 20
122.5547534105
 30
0.0
 10
355.4610345449
 20
121.9453657306
 30
0.0
 10
355.3046248321
 20
121.3438435139
 30
0.0
 10
355.1472820852
 20
120.9574878259
 30
0.0
 10
355.0561144209
 20
120.7693791302
 30
0.0
  0
SPLINE
  5
4F0
100
AcDbEntity
  8
7_ALL_FEATURES
100
AcDbSpline
 62
3
  6
CONTINUOUS
 70
0
 71
3
 72
11
 73
7
 74
0
 42
0.0000001
 43
0.0000001
 44
0.0000000001
 40
0.0
 40
0.0
 40
0.0
 40
0.0
 40
0.2450313924
 40
0.4922982654
 40
0.7435755107
 40
1.0
 40
1.0
 40
1.0
 40
1.0
 10
319.6124929287
 20
108.1143144426
 30
0.0
 10
319.6612578213
 20
108.0693229796
 30
0.0
 10
319.7697683832
 20
107.989661786
 30
0.0
 10
319.9557752725
 20
107.9085979218
 30
0.0
 10
320.1577833117
 20
107.8686341454
 30
0.0
 10
320.2963606281
 20
107.870407647
 30
0.0
 10
320.3653668809
 20
107.8781069202
 30
0.0
  0
SPLINE
  5
4F1
100
AcDbEntity
  8
7_ALL_FEATURES
100
AcDbSpline
 62
3
  6
CONTINUOUS
 70
0
 71
3
 72
13
 73
9
 74
0
 42
0.0000001
 43
0.0000001
 44
0.0000000001
 40
0.0
 40
0.0
 40
0.0
 40
0.0
 40
0.2589332141
 40
0.5125034236
 40
0.6369550585
 40
0.7595813703
 40
0.8805070407
 40
1.0
 40
1.0
 40
1.0
 40
1.0
 10
311.838600685
 20
124.1512032684
 30
0.0
 10
311.5989939285
 20
123.8067191858
 30
0.0
 10
311.2093889958
 20
123.0612341141
 30
0.0
 10
310.9831026736
 20
122.040500314
 30
0.0
 10
310.9754559582
 20
121.2268410418
 30
0.0
 10
311.0550391676
 20
120.6335980435
 30
0.0
 10
311.2185017583
 20
120.0662754609
 30
0.0
 10
311.3823069252
 20
119.7107815708
 30
0.0
 10
311.4767206778
 20
119.5417101627
 30
0.0
  0
SPLINE
  5
4F2
100
AcDbEntity
  8
7_ALL_FEATURES
100
AcDbSpline
 62
3
  6
CONTINUOUS
 70
0
 71
3
 72
13
 73
9
 74
0
 42
0.0000001
 43
0.0000001
 44
0.0000000001
 40
0.0
 40
0.0
 40
0.0
 40
0.0
 40
0.2589332141
 40
0.5125034236
 40
0.6369550585
 40
0.7595813703
 40
0.8805070407
 40
1.0
 40
1.0
 40
1.0
 40
1.0
 10
315.3528051106
 20
120.9086565102
 30
0.0
 10
315.113198354
 20
120.5641724276
 30
0.0
 10
314.7235934214
 20
119.818687356
 30
0.0
 10
314.4973070992
 20
118.7979535559
 30
0.0
 10
314.4896603838
 20
117.9842942836
 30
0.0
 10
314.5692435931
 20
117.3910512853
 30
0.0
 10
314.7327061839
 20
116.8237287027
 30
0.0
 10
314.8965113507
 20
116.4682348126
 30
0.0
 10
314.9909251034
 20
116.2991634045
 30
0.0
  0
ELLIPSE
  5
4F3
100
AcDbEntity
  8
7_ALL_FEATURES
100
AcDbEllipse
 62
3
  6
CONTINUOUS
 10
206.0977669468
 20
215.9545343885
 30
0.0
 11
4.1574578963
 21
-4.1574578963
 31
0.0
 40
0.4142135624
 41
1.8298677433
 42
1.9634954085
  0
ELLIPSE
  5
4F4
100
AcDbEntity
  8
7_ALL_FEATURES
100
AcDbEllipse
 62
3
  6
CONTINUOUS
 10
196.2968399731
 20
215.9545343885
 30
0.0
 11
4.1574578963
 21
4.1574578963
 31
0.0
 40
0.4142135624
 41
1.1780972451
 42
1.3117249102
  0
ELLIPSE
  5
4F5
100
AcDbEntity
  8
7_ALL_FEATURES
100
AcDbEllipse
 62
7
  6
CONTINUOUS
 10
347.9380115862
 20
125.3865436036
 30
0.0
 11
2.6817905116
 21
2.9680574993
 31
0.0
 40
0.4659252864
 41
-0.1365094311
 42
-0.1163500248
  0
ELLIPSE
  5
4F6
100
AcDbEntity
  8
7_ALL_FEATURES
100
AcDbEllipse
 62
7
  6
CONTINUOUS
 10
351.0691443994
 20
122.4974559686
 30
0.0
 11
3.9629324714
 21
-3.580710516
 31
0.0
 40
0.7488909274
 41
1.4252101469
 42
1.5567924936
  0
ELLIPSE
  5
4F7
100
AcDbEntity
  8
7_ALL_FEATURES
100
AcDbEllipse
 62
7
  6
CONTINUOUS
 10
318.5685324381
 20
118.8712470537
 30
0.0
 11
-0.2336041377
 21
4.7977127203
 31
0.0
 40
0.630187044
 41
1.0196145672
 42
1.1700656433
  0
ELLIPSE
  5
4F8
100
AcDbEntity
  8
7_ALL_FEATURES
100
AcDbEllipse
 62
3
  6
CONTINUOUS
 10
351.0691443994
 20
122.4974559686
 30
0.0
 11
4.4582990303
 21
-4.0282993305
 31
0.0
 40
0.7488909274
 41
1.4420335579
 42
1.5568593592
  0
ELLIPSE
  5
4F9
100
AcDbEntity
  8
7_ALL_FEATURES
100
AcDbEllipse
 62
3
  6
CONTINUOUS
 10
315.4373996249
 20
121.7603346887
 30
0.0
 11
5.3698013789
 21
0.2614595525
 31
0.0
 40
0.6252333758
 41
2.1407846277
 42
2.2744122929
  0
ELLIPSE
  5
4FA
100
AcDbEntity
  8
7_ALL_FEATURES
100
AcDbEllipse
 62
3
  6
CONTINUOUS
 10
318.5685324381
 20
118.8712470537
 30
0.0
 11
-0.2628046549
 21
5.3974268103
 31
0.0
 40
0.630187044
 41
1.0196145672
 42
1.1532422323
  0
ENDSEC
  0
SECTION
  2
OBJECTS
  0
DICTIONARY
  5
4FB
100
AcDbDictionary
  3
ACAD_GROUP
350
4FC
  3
ACAD_MLINESTYLE
350
4FD
  0
DICTIONARY
  5
4FC
102
{ACAD_REACTORS
330
4FB
102
}
100
AcDbDictionary
  0
DICTIONARY
  5
4FD
102
{ACAD_REACTORS
330
4FB
102
}
100
AcDbDictionary
  3
STANDARD
350
4FE
  0
MLINESTYLE
  5
4FE
102
{ACAD_REACTORS
330
4FD
102
}
100
AcDbMlineStyle
  2
STANDARD
 70
0
  3

 62
256
 51
90.0
 52
90.0
 71
2
 49
0.5
 62
256
  6
BYLAYER
 49
-0.5
 62
256
  6
BYLAYER
  0
ENDSEC
  0
EOF
