  0
SECTION
  2
HEADER
  9
$ACADVER
  1
AC1027
  9
$ACADMAINTVER
 70
     8
  9
$DWGCODEPAGE
  3
ANSI_1252
  9
$REQUIREDVERSIONS
160
                 0
  9
$INSBASE
 10
0.0
 20
0.0
 30
0.0
  9
$EXTMIN
 10
0.0
 20
0.0
 30
0.0
  9
$EXTMAX
 10
1188.0
 20
840.0
 30
0.0
  9
$LIMMIN
 10
0.0
 20
0.0
  9
$LIMMAX
 10
1188.0
 20
840.0
  9
$ORTHOMODE
 70
     0
  9
$REGENMODE
 70
     1
  9
$FILLMODE
 70
     1
  9
$QTEXTMODE
 70
     0
  9
$MIRRTEXT
 70
     1
  9
$LTSCALE
 40
65.34
  9
$ATTMODE
 70
     1
  9
$TEXTSIZE
 40
0.2
  9
$TRACEWID
 40
0.05
  9
$TEXTSTYLE
  7
STANDARD
  9
$CLAYER
  8
0
  9
$CELTYPE
  6
BYLAYER
  9
$CECOLOR
 62
   256
  9
$CELTSCALE
 40
1.0
  9
$DISPSILH
 70
     0
  9
$DIMSCALE
 40
1.0
  9
$DIMASZ
 40
5.0
  9
$DIMEXO
 40
0.75
  9
$DIMDLI
 40
45.144
  9
$DIMRND
 40
0.0
  9
$DIMDLE
 40
0.0
  9
$DIMEXE
 40
0.75
  9
$DIMTP
 40
0.01
  9
$DIMTM
 40
0.01
  9
$DIMTXT
 40
6.0
  9
$DIMCEN
 40
10.692
  9
$DIMTSZ
 40
0.0
  9
$DIMTOL
 70
     1
  9
$DIMLIM
 70
     0
  9
$DIMTIH
 70
     1
  9
$DIMTOH
 70
     1
  9
$DIMSE1
 70
     0
  9
$DIMSE2
 70
     0
  9
$DIMTAD
 70
     0
  9
$DIMZIN
 70
     0
  9
$DIMBLK
  1
CLOSED
  9
$DIMASO
 70
     1
  9
$DIMSHO
 70
     1
  9
$DIMPOST
  1

  9
$DIMAPOST
  1

  9
$DIMALT
 70
     0
  9
$DIMALTD
 70
     2
  9
$DIMALTF
 40
25.4
  9
$DIMLFAC
 40
1.0
  9
$DIMTOFL
 70
     0
  9
$DIMTVP
 40
0.0
  9
$DIMTIX
 70
     0
  9
$DIMSOXD
 70
     0
  9
$DIMSAH
 70
     0
  9
$DIMBLK1
  1

  9
$DIMBLK2
  1

  9
$DIMSTYLE
  2
STANDARD
  9
$DIMCLRD
 70
     0
  9
$DIMCLRE
 70
     0
  9
$DIMCLRT
 70
     0
  9
$DIMTFAC
 40
1.0
  9
$DIMGAP
 40
0.625
  9
$DIMJUST
 70
     0
  9
$DIMSD1
 70
     0
  9
$DIMSD2
 70
     0
  9
$DIMTOLJ
 70
     1
  9
$DIMTZIN
 70
     0
  9
$DIMALTZ
 70
     0
  9
$DIMALTTZ
 70
     0
  9
$DIMUPT
 70
     0
  9
$DIMDEC
 70
     4
  9
$DIMTDEC
 70
     4
  9
$DIMALTU
 70
     2
  9
$DIMALTTD
 70
     2
  9
$DIMTXSTY
  7
STANDARD
  9
$DIMAUNIT
 70
     0
  9
$DIMADEC
 70
     0
  9
$DIMALTRND
 40
0.0
  9
$DIMAZIN
 70
     0
  9
$DIMDSEP
 70
    44
  9
$DIMATFIT
 70
     3
  9
$DIMFRAC
 70
     0
  9
$DIMLDRBLK
  1

  9
$DIMLUNIT
 70
     2
  9
$DIMLWD
 70
    -2
  9
$DIMLWE
 70
    -2
  9
$DIMTMOVE
 70
     0
  9
$DIMFXL
 40
1.0
  9
$DIMFXLON
 70
     0
  9
$DIMJOGANG
 40
0.785398
  9
$DIMTFILL
 70
     0
  9
$DIMTFILLCLR
 70
     0
  9
$DIMARCSYM
 70
     0
  9
$DIMLTYPE
  6

  9
$DIMLTEX1
  6

  9
$DIMLTEX2
  6

  9
$DIMTXTDIRECTION
 70
     0
  9
$LUNITS
 70
     2
  9
$LUPREC
 70
     4
  9
$SKETCHINC
 40
0.1
  9
$FILLETRAD
 40
0.5
  9
$AUNITS
 70
     0
  9
$AUPREC
 70
     0
  9
$MENU
  1
.
  9
$ELEVATION
 40
0.0
  9
$PELEVATION
 40
0.0
  9
$THICKNESS
 40
0.0
  9
$LIMCHECK
 70
     0
  9
$CHAMFERA
 40
0.0
  9
$CHAMFERB
 40
0.0
  9
$CHAMFERC
 40
0.0
  9
$CHAMFERD
 40
0.0
  9
$SKPOLY
 70
     0
  9
$TDCREATE
 40
2447893.083333333
  9
$TDUCREATE
 40
0.0
  9
$TDUPDATE
 40
2460208.604668125
  9
$TDUUPDATE
 40
2460208.521334792
  9
$TDINDWG
 40
0.0
  9
$TDUSRTIMER
 40
0.0
  9
$USRTIMER
 70
     1
  9
$ANGBASE
 50
0.0
  9
$ANGDIR
 70
     0
  9
$PDMODE
 70
     3
  9
$PDSIZE
 40
0.3125
  9
$PLINEWID
 40
0.0
  9
$SPLFRAME
 70
     0
  9
$SPLINETYPE
 70
     6
  9
$SPLINESEGS
 70
     8
  9
$HANDSEED
  5
647
  9
$SURFTAB1
 70
     6
  9
$SURFTAB2
 70
     6
  9
$SURFTYPE
 70
     6
  9
$SURFU
 70
     6
  9
$SURFV
 70
     6
  9
$UCSBASE
  2

  9
$UCSNAME
  2

  9
$UCSORG
 10
0.0
 20
0.0
 30
0.0
  9
$UCSXDIR
 10
1.0
 20
0.0
 30
0.0
  9
$UCSYDIR
 10
0.0
 20
1.0
 30
0.0
  9
$UCSORTHOREF
  2

  9
$UCSORTHOVIEW
 70
     0
  9
$UCSORGTOP
 10
0.0
 20
0.0
 30
0.0
  9
$UCSORGBOTTOM
 10
0.0
 20
0.0
 30
0.0
  9
$UCSORGLEFT
 10
0.0
 20
0.0
 30
0.0
  9
$UCSORGRIGHT
 10
0.0
 20
0.0
 30
0.0
  9
$UCSORGFRONT
 10
0.0
 20
0.0
 30
0.0
  9
$UCSORGBACK
 10
0.0
 20
0.0
 30
0.0
  9
$PUCSBASE
  2

  9
$PUCSNAME
  2

  9
$PUCSORG
 10
0.0
 20
0.0
 30
0.0
  9
$PUCSXDIR
 10
1.0
 20
0.0
 30
0.0
  9
$PUCSYDIR
 10
0.0
 20
1.0
 30
0.0
  9
$PUCSORTHOREF
  2

  9
$PUCSORTHOVIEW
 70
     0
  9
$PUCSORGTOP
 10
0.0
 20
0.0
 30
0.0
  9
$PUCSORGBOTTOM
 10
0.0
 20
0.0
 30
0.0
  9
$PUCSORGLEFT
 10
0.0
 20
0.0
 30
0.0
  9
$PUCSORGRIGHT
 10
0.0
 20
0.0
 30
0.0
  9
$PUCSORGFRONT
 10
0.0
 20
0.0
 30
0.0
  9
$PUCSORGBACK
 10
0.0
 20
0.0
 30
0.0
  9
$USERI1
 70
     0
  9
$USERI2
 70
     0
  9
$USERI3
 70
     0
  9
$USERI4
 70
     0
  9
$USERI5
 70
     0
  9
$USERR1
 40
0.0
  9
$USERR2
 40
0.0
  9
$USERR3
 40
0.0
  9
$USERR4
 40
0.0
  9
$USERR5
 40
0.0
  9
$WORLDVIEW
 70
     1
  9
$SHADEDGE
 70
     3
  9
$SHADEDIF
 70
    70
  9
$TILEMODE
 70
     1
  9
$MAXACTVP
 70
    64
  9
$PINSBASE
 10
0.0
 20
0.0
 30
0.0
  9
$PLIMCHECK
 70
     0
  9
$PEXTMIN
 10
1.000000E+20
 20
1.000000E+20
 30
1.000000E+20
  9
$PEXTMAX
 10
-1.000000E+20
 20
-1.000000E+20
 30
-1.000000E+20
  9
$PLIMMIN
 10
0.0
 20
0.0
  9
$PLIMMAX
 10
12.0
 20
9.0
  9
$UNITMODE
 70
     0
  9
$VISRETAIN
 70
     1
  9
$PLINEGEN
 70
     0
  9
$PSLTSCALE
 70
     0
  9
$TREEDEPTH
 70
  3020
  9
$CMLSTYLE
  2

  9
$CMLJUST
 70
     0
  9
$CMLSCALE
 40
1.0
  9
$PROXYGRAPHICS
 70
     1
  9
$MEASUREMENT
 70
     1
  9
$CELWEIGHT
370
    -1
  9
$ENDCAPS
280
     0
  9
$JOINSTYLE
280
     0
  9
$LWDISPLAY
290
     0
  9
$INSUNITS
 70
     4
  9
$HYPERLINKBASE
  1

  9
$STYLESHEET
  1

  9
$XEDIT
290
     1
  9
$CEPSNTYPE
380
     0
  9
$PSTYLEMODE
290
     1
  9
$FINGERPRINTGUID
  2
{74D8C5FD-CA9C-466E-8F3A-553942953C2B}
  9
$VERSIONGUID
  2
{FAEB1C32-E019-11D5-929B-00C0DF256EC4}
  9
$EXTNAMES
290
     1
  9
$PSVPSCALE
 40
0.0
  9
$OLESTARTUP
290
     0
  9
$SORTENTS
280
   127
  9
$INDEXCTL
280
     0
  9
$HIDETEXT
280
     1
  9
$XCLIPFRAME
280
     2
  9
$HALOGAP
280
     0
  9
$OBSCOLOR
 70
   257
  9
$OBSLTYPE
280
     0
  9
$INTERSECTIONDISPLAY
280
     0
  9
$INTERSECTIONCOLOR
 70
   257
  9
$DIMASSOC
280
     2
  9
$PROJECTNAME
  1

  9
$CAMERADISPLAY
290
     0
  9
$LENSLENGTH
 40
50.0
  9
$CAMERAHEIGHT
 40
0.0
  9
$STEPSPERSEC
 40
2.0
  9
$STEPSIZE
 40
6.0
  9
$3DDWFPREC
 40
2.0
  9
$PSOLWIDTH
 40
0.25
  9
$PSOLHEIGHT
 40
4.0
  9
$LOFTANG1
 40
1.570796
  9
$LOFTANG2
 40
1.570796
  9
$LOFTMAG1
 40
0.0
  9
$LOFTMAG2
 40
0.0
  9
$LOFTPARAM
 70
     7
  9
$LOFTNORMALS
280
     1
  9
$LATITUDE
 40
37.795
  9
$LONGITUDE
 40
-122.394
  9
$NORTHDIRECTION
 40
0.0
  9
$TIMEZONE
 70
 -8000
  9
$LIGHTGLYPHDISPLAY
280
     1
  9
$TILEMODELIGHTSYNCH
280
     1
  9
$SOLIDHIST
280
     1
  9
$SHOWHIST
280
     1
  9
$DWFFRAME
280
     2
  9
$DGNFRAME
280
     2
  9
$REALWORLDSCALE
290
     1
  9
$INTERFERECOLOR
 62
   256
  9
$CSHADOW
280
     0
  9
$SHADOWPLANELOCATION
 40
0.0
  0
ENDSEC
  0
SECTION
  2
CLASSES
  0
CLASS
  1
ACDBDICTIONARYWDFLT
  2
AcDbDictionaryWithDefault
  3
ObjectDBX Classes
 90
        0
 91
        6
280
     0
281
     0
  0
CLASS
  1
ACDBPLACEHOLDER
  2
AcDbPlaceHolder
  3
ObjectDBX Classes
 90
        0
 91
        1
280
     0
281
     0
  0
CLASS
  1
LAYOUT
  2
AcDbLayout
  3
ObjectDBX Classes
 90
        0
 91
        1
280
     0
281
     0
  0
CLASS
  1
TABLESTYLE
  2
AcDbTableStyle
  3
ObjectDBX Classes
 90
     4095
 91
        5
280
     0
281
     0
  0
CLASS
  1
ACAD_TABLE
  2
AcDbTable
  3
ObjectDBX Classes
 90
     1025
 91
        5
280
     0
281
     1
  0
CLASS
  1
SCALE
  2
AcDbScale
  3
ObjectDBX Classes
 90
     1153
 91
        5
280
     0
281
     0
  0
CLASS
  1
TABLEGEOMETRY
  2
AcDbTableGeometry
  3
ObjectDBX Classes
 90
     1152
 91
        4
280
     0
281
     0
  0
CLASS
  1
VISUALSTYLE
  2
AcDbVisualStyle
  3
ObjectDBX Classes
 90
     4095
 91
        5
280
     0
281
     0
  0
CLASS
  1
MATERIAL
  2
AcDbMaterial
  3
ObjectDBX Classes
 90
     1153
 91
        5
280
     0
281
     0
  0
CLASS
  1
SUN
  2
AcDbSun
  3
SCENEOE
 90
     1153
 91
        5
280
     0
281
     0
  0
CLASS
  1
CSACDOCUMENTOPTIONS
  2
CDocDataContainer
  3
"DERU003_CSAPP"
 90
     4095
 91
        4
280
     0
281
     0
  0
CLASS
  1
TABLECONTENT
  2
AcDbTableContent
  3
ObjectDBX Classes
 90
     1152
 91
        4
280
     0
281
     0
  0
CLASS
  1
DICTIONARYVAR
  2
AcDbDictionaryVar
  3
ObjectDBX Classes
 90
        0
 91
        4
280
     0
281
     0
  0
CLASS
  1
CELLSTYLEMAP
  2
AcDbCellStyleMap
  3
ObjectDBX Classes
 90
     1152
 91
        4
280
     0
281
     0
  0
ENDSEC
  0
SECTION
  2
TABLES
  0
TABLE
  2
VPORT
  5
8
330
0
100
AcDbSymbolTable
 70
     1
  0
VPORT
  5
1F4
330
8
100
AcDbSymbolTableRecord
100
AcDbViewportTableRecord
  2
*ACTIVE
 70
     0
 10
0.0
 20
0.0
 11
1.0
 21
1.0
 12
594.0
 22
420.0
 13
0.0
 23
0.0
 14
1.0
 24
1.0
 15
0.0
 25
0.0
 16
0.0
 26
0.0
 36
1.0
 17
0.0
 27
0.0
 37
0.0
 40
840.0
 41
1.818286
 42
50.0
 43
0.0
 44
0.0
 50
0.0
 51
0.0
 71
    16
 72
   100
 73
     1
 74
     1
 75
     0
 76
     0
 77
     0
 78
     0
281
     0
 65
     1
110
0.0
120
0.0
130
0.0
111
1.0
121
0.0
131
0.0
112
0.0
122
1.0
132
0.0
 79
     0
146
0.0
 60
     3
 61
     5
292
     1
282
     1
141
0.0
142
0.0
 63
   256
361
632
  0
ENDTAB
  0
TABLE
  2
LTYPE
  5
5
330
0
100
AcDbSymbolTable
 70
     6
  0
LTYPE
  5
14
330
5
100
AcDbSymbolTableRecord
100
AcDbLinetypeTableRecord
  2
BYBLOCK
 70
     0
  3

 72
    65
 73
     0
 40
0.0
  0
LTYPE
  5
15
330
5
100
AcDbSymbolTableRecord
100
AcDbLinetypeTableRecord
  2
BYLAYER
 70
     0
  3

 72
    65
 73
     0
 40
0.0
  0
LTYPE
  5
16
330
5
100
AcDbSymbolTableRecord
100
AcDbLinetypeTableRecord
  2
CONTINUOUS
 70
     0
  3
Solid line
 72
    65
 73
     0
 40
0.0
  0
LTYPE
  5
1F5
330
5
100
AcDbSymbolTableRecord
100
AcDbLinetypeTableRecord
  2
CENTER
 70
     0
  3
____ _ ____ _ ____ _ ____ _ ____ _ ____ _ ____
 72
    65
 73
     4
 40
0.6
 49
0.375
 74
     0
 49
-0.075
 74
     0
 49
0.075
 74
     0
 49
-0.075
 74
     0
  0
LTYPE
  5
1F6
330
5
100
AcDbSymbolTableRecord
100
AcDbLinetypeTableRecord
  2
HIDDEN
 70
     0
  3
- - - - - - - - - - - - - - - - - - - -
 72
    65
 73
     2
 40
0.2
 49
0.1
 74
     0
 49
-0.1
 74
     0
  0
LTYPE
  5
1F7
330
5
100
AcDbSymbolTableRecord
100
AcDbLinetypeTableRecord
  2
PHANTOM
 70
     0
  3
_____ _ _ _____ _ _ _____ _ _ _____
 72
    65
 73
     6
 40
0.8
 49
0.45
 74
     0
 49
-0.05
 74
     0
 49
0.1
 74
     0
 49
-0.05
 74
     0
 49
0.1
 74
     0
 49
-0.05
 74
     0
  0
LTYPE
  5
1F8
330
5
100
AcDbSymbolTableRecord
100
AcDbLinetypeTableRecord
  2
DOT
 70
     0
  3
. . . . . . . . . . . . . . . . . . . .
 72
    65
 73
     2
 40
0.2
 49
0.1
 74
     0
 49
-0.1
 74
     0
  0
LTYPE
  5
1F9
330
5
100
AcDbSymbolTableRecord
100
AcDbLinetypeTableRecord
  2
DASHED
 70
     0
  3
- - - - - - - - - - - - - - - - - - - -
 72
    65
 73
     2
 40
0.2
 49
0.1
 74
     0
 49
-0.1
 74
     0
  0
ENDTAB
  0
TABLE
  2
LAYER
  5
2
330
0
100
AcDbSymbolTable
 70
    42
  0
LAYER
  5
10
330
2
100
AcDbSymbolTableRecord
100
AcDbLayerTableRecord
  2
0
 70
     0
 62
     7
  6
CONTINUOUS
370
    -3
390
F
347
62C
348
0
  0
LAYER
  5
1FA
330
2
100
AcDbSymbolTableRecord
100
AcDbLayerTableRecord
  2
DEFAULT_1
 70
     0
 62
     7
  6
CENTER
370
    -3
390
F
347
62C
348
0
  0
LAYER
  5
1FB
330
2
100
AcDbSymbolTableRecord
100
AcDbLayerTableRecord
  2
DEFAULT_2
 70
     0
 62
     8
  6
HIDDEN
370
    -3
390
F
347
62C
348
0
  0
LAYER
  5
1FC
330
2
100
AcDbSymbolTableRecord
100
AcDbLayerTableRecord
  2
DEFAULT_3
 70
     0
 62
     7
  6
PHANTOM
370
    -3
390
F
347
62C
348
0
  0
LAYER
  5
1FD
330
2
100
AcDbSymbolTableRecord
100
AcDbLayerTableRecord
  2
001_PIANI
 70
     0
 62
     7
  6
CONTINUOUS
370
    -3
390
F
347
62C
348
0
  0
LAYER
  5
1FE
330
2
100
AcDbSymbolTableRecord
100
AcDbLayerTableRecord
  2
00_CORPO
 70
     0
 62
     7
  6
CONTINUOUS
370
    -3
390
F
347
62C
348
0
  0
LAYER
  5
1FF
330
2
100
AcDbSymbolTableRecord
100
AcDbLayerTableRecord
  2
01_ALL_DTM_PLN
 70
     0
 62
     7
  6
CONTINUOUS
370
    -3
390
F
347
62C
348
0
  0
LAYER
  5
200
330
2
100
AcDbSymbolTableRecord
100
AcDbLayerTableRecord
  2
01__ASM_ALL_DTM_PLN
 70
     0
 62
     7
  6
CONTINUOUS
370
    -3
390
F
347
62C
348
0
  0
LAYER
  5
201
330
2
100
AcDbSymbolTableRecord
100
AcDbLayerTableRecord
  2
01__ASM_DEF_DTM_PLN
 70
     0
 62
     7
  6
CONTINUOUS
370
    -3
390
F
347
62C
348
0
  0
LAYER
  5
202
330
2
100
AcDbSymbolTableRecord
100
AcDbLayerTableRecord
  2
01___PRT_ALL_DTM_PLN
 70
     0
 62
     7
  6
CONTINUOUS
370
    -3
390
F
347
62C
348
0
  0
LAYER
  5
203
330
2
100
AcDbSymbolTableRecord
100
AcDbLayerTableRecord
  2
01___PRT_DEF_DTM_PLN
 70
     0
 62
     7
  6
CONTINUOUS
370
    -3
390
F
347
62C
348
0
  0
LAYER
  5
204
330
2
100
AcDbSymbolTableRecord
100
AcDbLayerTableRecord
  2
02_ALL_AXES
 70
     0
 62
     7
  6
CONTINUOUS
370
    -3
390
F
347
62C
348
0
  0
LAYER
  5
205
330
2
100
AcDbSymbolTableRecord
100
AcDbLayerTableRecord
  2
02__ASM_ALL_AXES
 70
     0
 62
     7
  6
CONTINUOUS
370
    -3
390
F
347
62C
348
0
  0
LAYER
  5
206
330
2
100
AcDbSymbolTableRecord
100
AcDbLayerTableRecord
  2
02___PRT_ALL_AXES
 70
     0
 62
     7
  6
CONTINUOUS
370
    -3
390
F
347
62C
348
0
  0
LAYER
  5
207
330
2
100
AcDbSymbolTableRecord
100
AcDbLayerTableRecord
  2
03_ALL_CURVES
 70
     0
 62
     7
  6
CONTINUOUS
370
    -3
390
F
347
62C
348
0
  0
LAYER
  5
208
330
2
100
AcDbSymbolTableRecord
100
AcDbLayerTableRecord
  2
03__ASM_ALL_CURVES
 70
     0
 62
     7
  6
CONTINUOUS
370
    -3
390
F
347
62C
348
0
  0
LAYER
  5
209
330
2
100
AcDbSymbolTableRecord
100
AcDbLayerTableRecord
  2
03___PRT_ALL_CURVES
 70
     0
 62
     7
  6
CONTINUOUS
370
    -3
390
F
347
62C
348
0
  0
LAYER
  5
20A
330
2
100
AcDbSymbolTableRecord
100
AcDbLayerTableRecord
  2
04_ALL_DTM_PNT
 70
     0
 62
     7
  6
CONTINUOUS
370
    -3
390
F
347
62C
348
0
  0
LAYER
  5
20B
330
2
100
AcDbSymbolTableRecord
100
AcDbLayerTableRecord
  2
04__ASM_ALL_DTM_PNT
 70
     0
 62
     7
  6
CONTINUOUS
370
    -3
390
F
347
62C
348
0
  0
LAYER
  5
20C
330
2
100
AcDbSymbolTableRecord
100
AcDbLayerTableRecord
  2
04___PRT_ALL_DTM_PNT
 70
     0
 62
     7
  6
CONTINUOUS
370
    -3
390
F
347
62C
348
0
  0
LAYER
  5
20D
330
2
100
AcDbSymbolTableRecord
100
AcDbLayerTableRecord
  2
05_ALL_DTM_CSYS
 70
     0
 62
     7
  6
CONTINUOUS
370
    -3
390
F
347
62C
348
0
  0
LAYER
  5
20E
330
2
100
AcDbSymbolTableRecord
100
AcDbLayerTableRecord
  2
05__ASM_ALL_DTM_CSYS
 70
     0
 62
     7
  6
CONTINUOUS
370
    -3
390
F
347
62C
348
0
  0
LAYER
  5
20F
330
2
100
AcDbSymbolTableRecord
100
AcDbLayerTableRecord
  2
05__ASM_DEF_DTM_CSYS
 70
     0
 62
     7
  6
CONTINUOUS
370
    -3
390
F
347
62C
348
0
  0
LAYER
  5
210
330
2
100
AcDbSymbolTableRecord
100
AcDbLayerTableRecord
  2
05___PRT_ALL_DTM_CSYS
 70
     0
 62
     7
  6
CONTINUOUS
370
    -3
390
F
347
62C
348
0
  0
LAYER
  5
211
330
2
100
AcDbSymbolTableRecord
100
AcDbLayerTableRecord
  2
05___PRT_DEF_DTM_CSYS
 70
     0
 62
     7
  6
CONTINUOUS
370
    -3
390
F
347
62C
348
0
  0
LAYER
  5
212
330
2
100
AcDbSymbolTableRecord
100
AcDbLayerTableRecord
  2
06_ALL_SURFS
 70
     0
 62
     7
  6
CONTINUOUS
370
    -3
390
F
347
62C
348
0
  0
LAYER
  5
213
330
2
100
AcDbSymbolTableRecord
100
AcDbLayerTableRecord
  2
06__ASM_ALL_SURFS
 70
     0
 62
     7
  6
CONTINUOUS
370
    -3
390
F
347
62C
348
0
  0
LAYER
  5
214
330
2
100
AcDbSymbolTableRecord
100
AcDbLayerTableRecord
  2
06___PRT_ALL_SURFS
 70
     0
 62
     7
  6
CONTINUOUS
370
    -3
390
F
347
62C
348
0
  0
LAYER
  5
215
330
2
100
AcDbSymbolTableRecord
100
AcDbLayerTableRecord
  2
07__ASM_ALL_SKELETONS
 70
     0
 62
     7
  6
CONTINUOUS
370
    -3
390
F
347
62C
348
0
  0
LAYER
  5
216
330
2
100
AcDbSymbolTableRecord
100
AcDbLayerTableRecord
  2
1_ALL_PLANES
 70
     0
 62
     7
  6
CONTINUOUS
370
    -3
390
F
347
62C
348
0
  0
LAYER
  5
217
330
2
100
AcDbSymbolTableRecord
100
AcDbLayerTableRecord
  2
2_ALL_CSYS
 70
     0
 62
     7
  6
CONTINUOUS
370
    -3
390
F
347
62C
348
0
  0
LAYER
  5
218
330
2
100
AcDbSymbolTableRecord
100
AcDbLayerTableRecord
  2
3_ALL_AXES
 70
     0
 62
     7
  6
CONTINUOUS
370
    -3
390
F
347
62C
348
0
  0
LAYER
  5
219
330
2
100
AcDbSymbolTableRecord
100
AcDbLayerTableRecord
  2
4_ALL_POINTS
 70
     0
 62
     7
  6
CONTINUOUS
370
    -3
390
F
347
62C
348
0
  0
LAYER
  5
21A
330
2
100
AcDbSymbolTableRecord
100
AcDbLayerTableRecord
  2
5_ALL_CURVES
 70
     0
 62
     7
  6
CONTINUOUS
370
    -3
390
F
347
62C
348
0
  0
LAYER
  5
21B
330
2
100
AcDbSymbolTableRecord
100
AcDbLayerTableRecord
  2
5__COSTRUZIONE
 70
     0
 62
     7
  6
CONTINUOUS
370
    -3
390
F
347
62C
348
0
  0
LAYER
  5
21C
330
2
100
AcDbSymbolTableRecord
100
AcDbLayerTableRecord
  2
6_ALL_SURFS
 70
     0
 62
     7
  6
CONTINUOUS
370
    -3
390
F
347
62C
348
0
  0
LAYER
  5
21D
330
2
100
AcDbSymbolTableRecord
100
AcDbLayerTableRecord
  2
7_ALL_FEATURES
 70
     0
 62
     7
  6
CONTINUOUS
370
    -3
390
F
347
62C
348
0
  0
LAYER
  5
21E
330
2
100
AcDbSymbolTableRecord
100
AcDbLayerTableRecord
  2
8_ALL_NOTES_BALLOONS_SYMBOLS_GT
 70
     0
 62
     7
  6
CONTINUOUS
370
    -3
390
F
347
62C
348
0
  0
LAYER
  5
21F
330
2
100
AcDbSymbolTableRecord
100
AcDbLayerTableRecord
  2
9_SOLID
 70
     0
 62
     7
  6
CONTINUOUS
370
    -3
390
F
347
62C
348
0
  0
LAYER
  5
220
330
2
100
AcDbSymbolTableRecord
100
AcDbLayerTableRecord
  2
INTFCLR_2
 70
     0
 62
     7
  6
CONTINUOUS
370
    -3
390
F
347
62C
348
0
  0
LAYER
  5
221
330
2
100
AcDbSymbolTableRecord
100
AcDbLayerTableRecord
  2
INTFCLR_4
 70
     0
 62
     7
  6
CONTINUOUS
370
    -3
390
F
347
62C
348
0
  0
LAYER
  5
222
330
2
100
AcDbSymbolTableRecord
100
AcDbLayerTableRecord
  2
SOLIDI
 70
     0
 62
     7
  6
CONTINUOUS
370
    -3
390
F
347
62C
348
0
  0
ENDTAB
  0
TABLE
  2
STYLE
  5
3
330
0
100
AcDbSymbolTable
 70
     2
  0
STYLE
  5
11
330
3
100
AcDbSymbolTableRecord
100
AcDbTextStyleTableRecord
  2
STANDARD
 70
     0
 40
0.0
 41
0.85
 50
0.0
 71
     0
 42
0.2
  3
txt
  4

  0
STYLE
  5
223
330
3
100
AcDbSymbolTableRecord
100
AcDbTextStyleTableRecord
  2
TEXTSTYLE_1
 70
     0
 40
0.0
 41
0.8
 50
0.0
 71
     0
 42
0.2
  3
gdt
  4

  0
ENDTAB
  0
TABLE
  2
VIEW
  5
6
330
0
100
AcDbSymbolTable
 70
     0
  0
ENDTAB
  0
TABLE
  2
UCS
  5
7
330
0
100
AcDbSymbolTable
 70
     0
  0
ENDTAB
  0
TABLE
  2
APPID
  5
9
330
0
100
AcDbSymbolTable
 70
     6
  0
APPID
  5
224
330
9
100
AcDbSymbolTableRecord
100
AcDbRegAppTableRecord
  2
ACAD
 70
     0
  0
APPID
  5
62D
330
9
100
AcDbSymbolTableRecord
100
AcDbRegAppTableRecord
  2
MCS_DIM1
 70
     0
  0
APPID
  5
62E
330
9
100
AcDbSymbolTableRecord
100
AcDbRegAppTableRecord
  2
McsXdata5
 70
     0
  0
APPID
  5
631
330
9
100
AcDbSymbolTableRecord
100
AcDbRegAppTableRecord
  2
MCS_DOCUMENT_ID
 70
     0
  0
APPID
  5
637
330
9
100
AcDbSymbolTableRecord
100
AcDbRegAppTableRecord
  2
MCS_PARAMS_DATA
 70
     0
  0
APPID
  5
639
330
9
100
AcDbSymbolTableRecord
100
AcDbRegAppTableRecord
  2
MC_VERSION_DATA
 70
     0
  0
ENDTAB
  0
TABLE
  2
DIMSTYLE
  5
A
330
0
100
AcDbSymbolTable
 70
     4
100
AcDbDimStyleTable
  0
DIMSTYLE
105
22E
330
A
100
AcDbSymbolTableRecord
100
AcDbDimStyleTableRecord
  2
STANDARD
 70
     0
 41
5.0
 42
0.75
 44
0.75
 47
0.01
 48
0.01
 71
     1
 73
     0
 74
     0
 77
     1
 78
     8
 79
     2
140
6.0
147
0.625
171
     1
178
     0
179
     2
271
     2
272
     2
278
    44
284
     8
340
11
341
227
342
227
343
227
344
227
  0
DIMSTYLE
105
22F
330
A
100
AcDbSymbolTableRecord
100
AcDbDimStyleTableRecord
  2
DIMSTYLE_1
 70
     0
 41
5.0
 42
0.75
 44
0.75
 47
0.8
 48
0.8
 73
     0
 74
     0
 77
     1
 78
     8
 79
     2
140
12.0
147
1.5
171
     1
178
     0
179
     2
271
     2
272
    -1
278
    44
284
     8
340
11
341
227
342
227
343
227
344
227
  0
DIMSTYLE
105
230
330
A
100
AcDbSymbolTableRecord
100
AcDbDimStyleTableRecord
  2
DIMSTYLE_2
 70
     0
 41
5.0
 42
0.75
 44
0.75
 47
0.3
 48
0.3
 73
     0
 74
     0
 77
     1
 78
     8
 79
     2
140
12.0
147
1.5
171
     1
178
     0
179
     2
271
     2
272
     2
278
    44
284
     8
340
11
341
227
342
227
343
227
344
227
  0
DIMSTYLE
105
231
330
A
100
AcDbSymbolTableRecord
100
AcDbDimStyleTableRecord
  2
DIMSTYLE_3
 70
     0
 41
5.0
 42
0.75
 44
0.75
 47
0.3
 48
0.3
 73
     0
 74
     0
 77
     1
 78
     8
 79
     2
140
12.0
147
1.5
171
     1
178
     0
271
     0
272
     0
278
    44
284
     8
340
11
341
227
342
227
343
227
344
227
  0
ENDTAB
  0
TABLE
  2
BLOCK_RECORD
  5
1
330
0
100
AcDbSymbolTable
 70
     7
  0
BLOCK_RECORD
  5
225
330
1
100
AcDbSymbolTableRecord
100
AcDbBlockTableRecord
  2
*Model_Space
340
5E7
 70
     0
280
     1
281
     0
  0
BLOCK_RECORD
  5
226
330
1
100
AcDbSymbolTableRecord
100
AcDbBlockTableRecord
  2
*Paper_Space
340
5E8
 70
     0
280
     1
281
     0
  0
BLOCK_RECORD
  5
227
330
1
100
AcDbSymbolTableRecord
100
AcDbBlockTableRecord
  2
_CLOSED
340
0
102
{BLKREFS
331
27C
331
27D
331
285
331
286
331
28E
331
28F
331
297
331
298
102
}
 70
     0
280
     1
281
     0
  0
BLOCK_RECORD
  5
228
330
1
100
AcDbSymbolTableRecord
100
AcDbBlockTableRecord
  2
*D1
340
0
 70
     0
280
     1
281
     0
  0
BLOCK_RECORD
  5
229
330
1
100
AcDbSymbolTableRecord
100
AcDbBlockTableRecord
  2
*D2
340
0
 70
     0
280
     1
281
     0
  0
BLOCK_RECORD
  5
22A
330
1
100
AcDbSymbolTableRecord
100
AcDbBlockTableRecord
  2
*D3
340
0
 70
     0
280
     1
281
     0
  0
BLOCK_RECORD
  5
22B
330
1
100
AcDbSymbolTableRecord
100
AcDbBlockTableRecord
  2
*D4
340
0
 70
     0
280
     1
281
     0
  0
BLOCK_RECORD
  5
22C
330
1
100
AcDbSymbolTableRecord
100
AcDbBlockTableRecord
  2
LOGO2_BL0
340
0
102
{BLKREFS
331
5E4
102
}
 70
     0
280
     1
281
     0
  0
BLOCK_RECORD
  5
22D
330
1
100
AcDbSymbolTableRecord
100
AcDbBlockTableRecord
  2
*T6
340
0
102
{BLKREFS
331
5E5
102
}
 70
     0
280
     1
281
     0
  0
ENDTAB
  0
ENDSEC
  0
SECTION
  2
BLOCKS
  0
BLOCK
  5
20
330
225
100
AcDbEntity
  8
0
100
AcDbBlockBegin
  2
*Model_Space
 70
     0
 10
0.0
 20
0.0
 30
0.0
  3
*Model_Space
  1
*Model_Space
  0
ENDBLK
  5
21
330
225
100
AcDbEntity
  8
0
100
AcDbBlockEnd
  0
BLOCK
  5
1C
330
226
100
AcDbEntity
 67
     1
  8
0
100
AcDbBlockBegin
  2
*Paper_Space
 70
     0
 10
0.0
 20
0.0
 30
0.0
  3
*Paper_Space
  1
*Paper_Space
  0
ENDBLK
  5
1D
330
226
100
AcDbEntity
 67
     1
  8
0
100
AcDbBlockEnd
  0
BLOCK
  5
26E
330
227
100
AcDbEntity
  8
0
100
AcDbBlockBegin
  2
_CLOSED
 70
     0
 10
0.0
 20
0.0
 30
0.0
  3
_CLOSED
  1
_CLOSED
  0
LINE
  5
26F
330
227
100
AcDbEntity
  8
0
  6
ByBlock
 62
     0
100
AcDbLine
 10
0.0
 20
0.0
 30
0.0
 11
-1.0
 21
0.2
 31
0.0
  0
LINE
  5
270
330
227
100
AcDbEntity
  8
0
  6
ByBlock
 62
     0
100
AcDbLine
 10
-1.0
 20
0.2
 30
0.0
 11
-1.0
 21
-0.2
 31
0.0
  0
LINE
  5
271
330
227
100
AcDbEntity
  8
0
  6
ByBlock
 62
     0
100
AcDbLine
 10
-1.0
 20
-0.2
 30
0.0
 11
0.0
 21
0.0
 31
0.0
  0
LINE
  5
272
330
227
100
AcDbEntity
  8
0
  6
ByBlock
 62
     0
100
AcDbLine
 10
-1.0
 20
0.0
 30
0.0
 11
0.0
 21
0.0
 31
0.0
  0
ENDBLK
  5
273
330
227
100
AcDbEntity
  8
0
  6
ByBlock
 62
     0
100
AcDbBlockEnd
  0
BLOCK
  5
274
330
228
100
AcDbEntity
  8
0
100
AcDbBlockBegin
  2
*D1
 70
     1
 10
0.0
 20
0.0
 30
0.0
  3
*D1
  1
*D1
  0
MTEXT
  5
275
330
228
100
AcDbEntity
  8
0
  6
Continuous
 62
     2
100
AcDbMText
 10
412.453419
 20
349.446847
 30
0.0
 40
12.0
 41
41.142857
 46
0.0
 71
     2
 72
     1
  1
500
 73
     1
 44
0.9
  0
LINE
  5
276
330
228
100
AcDbEntity
  8
0
  6
Continuous
 62
     2
100
AcDbLine
 10
661.953419
 20
373.265565
 30
0.0
 11
661.953419
 21
337.446847
 31
0.0
  0
LINE
  5
277
330
228
100
AcDbEntity
  8
0
  6
Continuous
 62
     2
100
AcDbLine
 10
661.953419
 20
337.446847
 30
0.0
 11
661.953419
 21
332.946847
 31
0.0
  0
LINE
  5
278
330
228
100
AcDbEntity
  8
0
  6
Continuous
 62
     2
100
AcDbLine
 10
162.953419
 20
369.946847
 30
0.0
 11
162.953419
 21
337.446847
 31
0.0
  0
LINE
  5
279
330
228
100
AcDbEntity
  8
0
  6
Continuous
 62
     2
100
AcDbLine
 10
162.953419
 20
337.446847
 30
0.0
 11
162.953419
 21
332.946847
 31
0.0
  0
LINE
  5
27A
330
228
100
AcDbEntity
  8
0
  6
Continuous
 62
     2
100
AcDbLine
 10
661.953419
 20
334.446847
 30
0.0
 11
412.453419
 21
334.446847
 31
0.0
  0
LINE
  5
27B
330
228
100
AcDbEntity
  8
0
  6
Continuous
 62
     2
100
AcDbLine
 10
162.953419
 20
334.446847
 30
0.0
 11
412.453419
 21
334.446847
 31
0.0
  0
INSERT
  5
27C
330
228
100
AcDbEntity
  8
0
  6
Continuous
 62
     2
100
AcDbBlockReference
  2
_CLOSED
 10
661.953419
 20
334.446847
 30
0.0
 41
5.0
 42
5.0
 43
5.0
  0
INSERT
  5
27D
330
228
100
AcDbEntity
  8
0
  6
Continuous
 62
     2
100
AcDbBlockReference
  2
_CLOSED
 10
162.953419
 20
334.446847
 30
0.0
 41
5.0
 42
5.0
 43
5.0
 50
180.0
  0
ENDBLK
  5
27E
330
228
100
AcDbEntity
  8
0
  6
ByBlock
 62
     0
100
AcDbBlockEnd
  0
BLOCK
  5
27F
330
229
100
AcDbEntity
  8
0
100
AcDbBlockBegin
  2
*D2
 70
     1
 10
0.0
 20
0.0
 30
0.0
  3
*D2
  1
*D2
  0
MTEXT
  5
280
330
229
100
AcDbEntity
  8
0
  6
Continuous
 62
     2
100
AcDbMText
 10
698.589828
 20
428.367102
 30
0.0
 40
12.0
 41
27.0
 46
0.0
 71
     2
 72
     1
  1
56
 11
0.0
 21
1.0
 31
0.0
 73
     1
 44
0.9
  0
LINE
  5
281
330
229
100
AcDbEntity
  8
0
  6
Continuous
 62
     2
100
AcDbLine
 10
683.839828
 20
456.367102
 30
0.0
 11
715.089828
 21
456.367102
 31
0.0
  0
LINE
  5
282
330
229
100
AcDbEntity
  8
0
  6
Continuous
 62
     2
100
AcDbLine
 10
684.788033
 20
400.367102
 30
0.0
 11
715.089828
 21
400.367102
 31
0.0
  0
LINE
  5
283
330
229
100
AcDbEntity
  8
0
  6
Continuous
 62
     2
100
AcDbLine
 10
713.589828
 20
456.367102
 30
0.0
 11
713.589828
 21
428.367102
 31
0.0
  0
LINE
  5
284
330
229
100
AcDbEntity
  8
0
  6
Continuous
 62
     2
100
AcDbLine
 10
713.589828
 20
400.367102
 30
0.0
 11
713.589828
 21
428.367102
 31
0.0
  0
INSERT
  5
285
330
229
100
AcDbEntity
  8
0
  6
Continuous
 62
     2
100
AcDbBlockReference
  2
_CLOSED
 10
713.589828
 20
456.367102
 30
0.0
 41
5.0
 42
5.0
 43
5.0
 50
90.0
  0
INSERT
  5
286
330
229
100
AcDbEntity
  8
0
  6
Continuous
 62
     2
100
AcDbBlockReference
  2
_CLOSED
 10
713.589828
 20
400.367102
 30
0.0
 41
5.0
 42
5.0
 43
5.0
 50
270.0
  0
ENDBLK
  5
287
330
229
100
AcDbEntity
  8
0
  6
ByBlock
 62
     0
100
AcDbBlockEnd
  0
BLOCK
  5
288
330
22A
100
AcDbEntity
  8
0
100
AcDbBlockBegin
  2
*D3
 70
     1
 10
0.0
 20
0.0
 30
0.0
  3
*D3
  1
*D3
  0
MTEXT
  5
289
330
22A
100
AcDbEntity
  8
0
  6
Continuous
 62
     2
100
AcDbMText
 10
700.082605
 20
683.865742
 30
0.0
 40
12.0
 41
28.285714
 46
0.0
 71
     2
 72
     1
  1
87
 11
0.0
 21
1.0
 31
0.0
 73
     1
 44
0.9
  0
LINE
  5
28A
330
22A
100
AcDbEntity
  8
0
  6
Continuous
 62
     2
100
AcDbLine
 10
683.839828
 20
727.415742
 30
0.0
 11
716.582605
 21
727.415742
 31
0.0
  0
LINE
  5
28B
330
22A
100
AcDbEntity
  8
0
  6
Continuous
 62
     2
100
AcDbLine
 10
683.606751
 20
640.315742
 30
0.0
 11
716.582605
 21
640.315742
 31
0.0
  0
LINE
  5
28C
330
22A
100
AcDbEntity
  8
0
  6
Continuous
 62
     2
100
AcDbLine
 10
715.082605
 20
727.415742
 30
0.0
 11
715.082605
 21
683.865742
 31
0.0
  0
LINE
  5
28D
330
22A
100
AcDbEntity
  8
0
  6
Continuous
 62
     2
100
AcDbLine
 10
715.082605
 20
640.315742
 30
0.0
 11
715.082605
 21
683.865742
 31
0.0
  0
INSERT
  5
28E
330
22A
100
AcDbEntity
  8
0
  6
Continuous
 62
     2
100
AcDbBlockReference
  2
_CLOSED
 10
715.082605
 20
727.415742
 30
0.0
 41
5.0
 42
5.0
 43
5.0
 50
90.0
  0
INSERT
  5
28F
330
22A
100
AcDbEntity
  8
0
  6
Continuous
 62
     2
100
AcDbBlockReference
  2
_CLOSED
 10
715.082605
 20
640.315742
 30
0.0
 41
5.0
 42
5.0
 43
5.0
 50
270.0
  0
ENDBLK
  5
290
330
22A
100
AcDbEntity
  8
0
  6
ByBlock
 62
     0
100
AcDbBlockEnd
  0
BLOCK
  5
291
330
22B
100
AcDbEntity
  8
0
100
AcDbBlockBegin
  2
*D4
 70
     1
 10
0.0
 20
0.0
 30
0.0
  3
*D4
  1
*D4
  0
MTEXT
  5
292
330
22B
100
AcDbEntity
  8
0
  6
Continuous
 62
     2
100
AcDbMText
 10
1056.190257
 20
669.390742
 30
0.0
 40
12.0
 41
72.0
 46
0.0
 71
     2
 72
     1
  1
116,05
 11
0.0
 21
1.0
 31
0.0
 73
     1
 44
0.9
  0
LINE
  5
293
330
22B
100
AcDbEntity
  8
0
  6
Continuous
 62
     2
100
AcDbLine
 10
1037.384546
 20
611.365742
 30
0.0
 11
1072.690257
 21
611.365742
 31
0.0
  0
LINE
  5
294
330
22B
100
AcDbEntity
  8
0
  6
Continuous
 62
     2
100
AcDbLine
 10
1037.300548
 20
727.415742
 30
0.0
 11
1072.690257
 21
727.415742
 31
0.0
  0
LINE
  5
295
330
22B
100
AcDbEntity
  8
0
  6
Continuous
 62
     2
100
AcDbLine
 10
1071.190257
 20
611.365742
 30
0.0
 11
1071.190257
 21
669.390742
 31
0.0
  0
LINE
  5
296
330
22B
100
AcDbEntity
  8
0
  6
Continuous
 62
     2
100
AcDbLine
 10
1071.190257
 20
727.415742
 30
0.0
 11
1071.190257
 21
669.390742
 31
0.0
  0
INSERT
  5
297
330
22B
100
AcDbEntity
  8
0
  6
Continuous
 62
     2
100
AcDbBlockReference
  2
_CLOSED
 10
1071.190257
 20
611.365742
 30
0.0
 41
5.0
 42
5.0
 43
5.0
 50
270.0
  0
INSERT
  5
298
330
22B
100
AcDbEntity
  8
0
  6
Continuous
 62
     2
100
AcDbBlockReference
  2
_CLOSED
 10
1071.190257
 20
727.415742
 30
0.0
 41
5.0
 42
5.0
 43
5.0
 50
90.0
  0
ENDBLK
  5
299
330
22B
100
AcDbEntity
  8
0
  6
ByBlock
 62
     0
100
AcDbBlockEnd
  0
BLOCK
  5
232
330
22C
100
AcDbEntity
  8
0
100
AcDbBlockBegin
  2
LOGO2_BL0
 70
     0
 10
1015.84587
 20
73.760076
 30
0.0
  3
LOGO2_BL0
  1
LOGO2_BL0
  0
LINE
  5
233
330
22C
100
AcDbEntity
  8
0
  6
Continuous
 62
     7
100
AcDbLine
 10
999.33172
 20
80.151059
 30
0.0
 11
996.723039
 21
80.151059
 31
0.0
  0
LINE
  5
234
330
22C
100
AcDbEntity
  8
0
  6
Continuous
 62
     7
100
AcDbLine
 10
996.723039
 20
80.151059
 30
0.0
 11
996.723039
 21
59.232926
 31
0.0
  0
LINE
  5
235
330
22C
100
AcDbEntity
  8
0
  6
Continuous
 62
     7
100
AcDbLine
 10
996.723039
 20
59.232926
 30
0.0
 11
1005.685148
 21
59.232926
 31
0.0
  0
LINE
  5
236
330
22C
100
AcDbEntity
  8
0
  6
Continuous
 62
     7
100
AcDbLine
 10
1005.685148
 20
59.232926
 30
0.0
 11
1005.685148
 21
61.618635
 31
0.0
  0
LINE
  5
237
330
22C
100
AcDbEntity
  8
0
  6
Continuous
 62
     7
100
AcDbLine
 10
1005.685148
 20
61.618635
 30
0.0
 11
999.33172
 21
61.618635
 31
0.0
  0
LINE
  5
238
330
22C
100
AcDbEntity
  8
0
  6
Continuous
 62
     7
100
AcDbLine
 10
999.33172
 20
61.618635
 30
0.0
 11
999.33172
 21
80.151059
 31
0.0
  0
LINE
  5
239
330
22C
100
AcDbEntity
  8
0
  6
Continuous
 62
     7
100
AcDbLine
 10
1029.204373
 20
80.151059
 30
0.0
 11
1026.596738
 21
80.151059
 31
0.0
  0
LINE
  5
23A
330
22C
100
AcDbEntity
  8
0
  6
Continuous
 62
     7
100
AcDbLine
 10
1026.596738
 20
80.151059
 30
0.0
 11
1026.596738
 21
59.232926
 31
0.0
  0
LINE
  5
23B
330
22C
100
AcDbEntity
  8
0
  6
Continuous
 62
     7
100
AcDbLine
 10
1026.596738
 20
59.232926
 30
0.0
 11
1035.559109
 21
59.232926
 31
0.0
  0
LINE
  5
23C
330
22C
100
AcDbEntity
  8
0
  6
Continuous
 62
     7
100
AcDbLine
 10
1035.559109
 20
59.232926
 30
0.0
 11
1035.559109
 21
61.618635
 31
0.0
  0
LINE
  5
23D
330
22C
100
AcDbEntity
  8
0
  6
Continuous
 62
     7
100
AcDbLine
 10
1035.559109
 20
61.618635
 30
0.0
 11
1029.204373
 21
61.618635
 31
0.0
  0
LINE
  5
23E
330
22C
100
AcDbEntity
  8
0
  6
Continuous
 62
     7
100
AcDbLine
 10
1029.204373
 20
61.618635
 30
0.0
 11
1029.204373
 21
80.151059
 31
0.0
  0
LWPOLYLINE
  5
23F
330
22C
100
AcDbEntity
  8
0
  6
Continuous
 62
     7
100
AcDbPolyline
 90
        2
 70
     0
 43
0.4
 10
993.431828
 20
52.545824
 10
993.431828
 20
48.831697
  0
LWPOLYLINE
  5
240
330
22C
100
AcDbEntity
  8
0
  6
Continuous
 62
     7
100
AcDbPolyline
 90
        2
 70
     0
 43
0.4
 10
993.431828
 20
48.831697
 10
995.02326
 20
48.831697
  0
LWPOLYLINE
  5
241
330
22C
100
AcDbEntity
  8
0
  6
Continuous
 62
     7
100
AcDbPolyline
 90
        2
 70
     0
 43
0.4
 10
995.02326
 20
48.831697
 10
995.02326
 20
49.25566
  0
LWPOLYLINE
  5
242
330
22C
100
AcDbEntity
  8
0
  6
Continuous
 62
     7
100
AcDbPolyline
 90
        2
 70
     0
 43
0.4
 10
995.02326
 20
49.25566
 10
993.895047
 20
49.25566
  0
LWPOLYLINE
  5
243
330
22C
100
AcDbEntity
  8
0
  6
Continuous
 62
     7
100
AcDbPolyline
 90
        2
 70
     0
 43
0.4
 10
993.895047
 20
49.25566
 10
993.895047
 20
52.545824
  0
LWPOLYLINE
  5
244
330
22C
100
AcDbEntity
  8
0
  6
Continuous
 62
     7
100
AcDbPolyline
 90
        2
 70
     0
 43
0.4
 10
993.895047
 20
52.545824
 10
993.431828
 20
52.545824
  0
SPLINE
  5
245
330
22C
100
AcDbEntity
  8
0
  6
Continuous
 62
     7
100
AcDbSpline
 70
     3
 71
     3
 72
    35
 73
    31
 74
     0
 42
0.000000001
 43
0.0000001
 40
0.0
 40
0.0
 40
0.0
 40
0.0
 40
1.0
 40
1.0
 40
1.0
 40
2.0
 40
2.0
 40
2.0
 40
3.0
 40
3.0
 40
3.0
 40
4.0
 40
4.0
 40
4.0
 40
5.0
 40
5.0
 40
5.0
 40
6.0
 40
6.0
 40
6.0
 40
7.0
 40
7.0
 40
7.0
 40
8.0
 40
8.0
 40
8.0
 40
9.0
 40
9.0
 40
9.0
 40
10.0
 40
10.0
 40
10.0
 40
10.0
 10
997.8198469446
 20
51.1368006608
 30
0.0
 10
997.8198469446
 20
51.1368006608
 30
0.0
 10
997.8198469446
 20
49.8125701025
 30
0.0
 10
997.8198469446
 20
49.8125701025
 30
0.0
 10
997.8198469446
 20
49.1823829119
 30
0.0
 10
998.1155743222
 20
48.7531856559
 30
0.0
 10
998.7957472908
 20
48.7531856559
 30
0.0
 10
999.4748734368
 20
48.7531856559
 30
0.0
 10
999.7711242257
 20
49.1823829119
 30
0.0
 10
999.7711242257
 20
49.8125701025
 30
0.0
 10
999.7711242257
 20
49.8125701025
 30
0.0
 10
999.7711242257
 20
51.1368006608
 30
0.0
 10
999.7711242257
 20
51.1368006608
 30
0.0
 10
999.7711242257
 20
51.1368006608
 30
0.0
 10
999.327009748
 20
51.1368006608
 30
0.0
 10
999.327009748
 20
51.1368006608
 30
0.0
 10
999.327009748
 20
51.1368006608
 30
0.0
 10
999.327009748
 20
49.8628175862
 30
0.0
 10
999.327009748
 20
49.8628175862
 30
0.0
 10
999.327009748
 20
49.4911955718
 30
0.0
 10
999.2335808331
 20
49.1656337507
 30
0.0
 10
998.7957472908
 20
49.1656337507
 30
0.0
 10
998.3568669259
 20
49.1656337507
 30
0.0
 10
998.263438011
 20
49.4911955718
 30
0.0
 10
998.263438011
 20
49.8628175862
 30
0.0
 10
998.263438011
 20
49.8628175862
 30
0.0
 10
998.263438011
 20
51.1368006608
 30
0.0
 10
998.263438011
 20
51.1368006608
 30
0.0
 10
998.263438011
 20
51.1368006608
 30
0.0
 10
997.8198469446
 20
51.1368006608
 30
0.0
 10
997.8198469446
 20
51.1368006608
 30
0.0
  0
SPLINE
  5
246
330
22C
100
AcDbEntity
  8
0
  6
Continuous
 62
     7
100
AcDbSpline
 70
     3
 71
     3
 72
    35
 73
    31
 74
     0
 42
0.000000001
 43
0.0000001
 40
0.0
 40
0.0
 40
0.0
 40
0.0
 40
1.0
 40
1.0
 40
1.0
 40
2.0
 40
2.0
 40
2.0
 40
3.0
 40
3.0
 40
3.0
 40
4.0
 40
4.0
 40
4.0
 40
5.0
 40
5.0
 40
5.0
 40
6.0
 40
6.0
 40
6.0
 40
7.0
 40
7.0
 40
7.0
 40
8.0
 40
8.0
 40
8.0
 40
9.0
 40
9.0
 40
9.0
 40
10.0
 40
10.0
 40
10.0
 40
10.0
 10
1004.6173893401
 20
51.0541016773
 30
0.0
 10
1004.4404763248
 20
51.1566902898
 30
0.0
 10
1004.2135775315
 20
51.2069377734
 30
0.0
 10
1004.0063066615
 20
51.2069377734
 30
0.0
 10
1003.2965609552
 20
51.2069377734
 30
0.0
 10
1002.7456705747
 20
50.6793391952
 30
0.0
 10
1002.7456705747
 20
49.964359376
 30
0.0
 10
1002.7456705747
 20
49.2745032986
 30
0.0
 10
1003.302580185
 20
48.7542324784
 30
0.0
 10
1003.981706331
 20
48.7542324784
 30
0.0
 10
1004.2135775315
 20
48.7542324784
 30
0.0
 10
1004.4150908774
 20
48.7981990266
 30
0.0
 10
1004.6173893401
 20
48.9060217519
 30
0.0
 10
1004.6173893401
 20
48.9060217519
 30
0.0
 10
1004.6173893401
 20
49.4713059428
 30
0.0
 10
1004.6173893401
 20
49.4713059428
 30
0.0
 10
1004.4496360224
 20
49.2849715243
 30
0.0
 10
1004.242626858
 20
49.1666805733
 30
0.0
 10
1003.9864170326
 20
49.1666805733
 30
0.0
 10
1003.5190107525
 20
49.1666805733
 30
0.0
 10
1003.1884765243
 20
49.5110852007
 30
0.0
 10
1003.1884765243
 20
49.9842490049
 30
0.0
 10
1003.1884765243
 20
50.4082121481
 30
0.0
 10
1003.5239831598
 20
50.7923960334
 30
0.0
 10
1003.9576294118
 20
50.7923960334
 30
0.0
 10
1004.2232606404
 20
50.7923960334
 30
0.0
 10
1004.4404763248
 20
50.6845733081
 30
0.0
 10
1004.6173893401
 20
50.482536551
 30
0.0
 10
1004.6173893401
 20
50.482536551
 30
0.0
 10
1004.6173893401
 20
51.0541016773
 30
0.0
 10
1004.6173893401
 20
51.0541016773
 30
0.0
  0
SPLINE
  5
247
330
22C
100
AcDbEntity
  8
0
  6
Continuous
 62
     7
100
AcDbSpline
 70
     3
 71
     3
 72
    32
 73
    28
 74
     0
 42
0.000000001
 43
0.0000001
 40
0.0
 40
0.0
 40
0.0
 40
0.0
 40
1.0
 40
1.0
 40
1.0
 40
2.0
 40
2.0
 40
2.0
 40
3.0
 40
3.0
 40
3.0
 40
4.0
 40
4.0
 40
4.0
 40
5.0
 40
5.0
 40
5.0
 40
6.0
 40
6.0
 40
6.0
 40
7.0
 40
7.0
 40
7.0
 40
8.0
 40
8.0
 40
8.0
 40
9.0
 40
9.0
 40
9.0
 40
9.0
 10
1009.6811318446
 20
49.9109714246
 30
0.0
 10
1009.6811318446
 20
49.9109714246
 30
0.0
 10
1009.6811318446
 20
49.9790148921
 30
0.0
 10
1009.6811318446
 20
49.9790148921
 30
0.0
 10
1009.6811318446
 20
50.6636368566
 30
0.0
 10
1009.335418689
 20
51.2069377734
 30
0.0
 10
1008.6021194747
 20
51.2069377734
 30
0.0
 10
1007.8588754459
 20
51.2069377734
 30
0.0
 10
1007.4794022622
 20
50.6741050823
 30
0.0
 10
1007.4794022622
 20
49.964359376
 30
0.0
 10
1007.4794022622
 20
49.2849715243
 30
0.0
 10
1007.9075526957
 20
48.7531856559
 30
0.0
 10
1008.6118025835
 20
48.7531856559
 30
0.0
 10
1009.0598426459
 20
48.7531856559
 30
0.0
 10
1009.4641778658
 20
48.9845334451
 30
0.0
 10
1009.6811318446
 20
49.3833728465
 30
0.0
 10
1009.6811318446
 20
49.3833728465
 30
0.0
 10
1009.3058459512
 20
49.5969246519
 30
0.0
 10
1009.3058459512
 20
49.5969246519
 30
0.0
 10
1009.1388777504
 20
49.3195166693
 30
0.0
 10
1008.9564689166
 20
49.1478377669
 30
0.0
 10
1008.617298402
 20
49.1478377669
 30
0.0
 10
1008.1933352589
 20
49.1478377669
 30
0.0
 10
1007.9274423246
 20
49.5173661362
 30
0.0
 10
1007.922731623
 20
49.9109714246
 30
0.0
 10
1007.922731623
 20
49.9109714246
 30
0.0
 10
1009.6811318446
 20
49.9109714246
 30
0.0
 10
1009.6811318446
 20
49.9109714246
 30
0.0
  0
SPLINE
  5
248
330
22C
100
AcDbEntity
  8
0
  6
Continuous
 62
     7
100
AcDbSpline
 70
     3
 71
     3
 72
    14
 73
    10
 74
     0
 42
0.000000001
 43
0.0000001
 40
0.0
 40
0.0
 40
0.0
 40
0.0
 40
1.0
 40
1.0
 40
1.0
 40
2.0
 40
2.0
 40
2.0
 40
3.0
 40
3.0
 40
3.0
 40
3.0
 10
1007.9468085423
 20
50.2459546489
 30
0.0
 10
1008.0020284331
 20
50.5757037602
 30
0.0
 10
1008.2577148473
 20
50.8217070655
 30
0.0
 10
1008.6021194747
 20
50.8217070655
 30
0.0
 10
1008.9564689166
 20
50.8217070655
 30
0.0
 10
1009.1833677099
 20
50.5903592763
 30
0.0
 10
1009.2378024838
 20
50.2459546489
 30
0.0
 10
1009.2378024838
 20
50.2459546489
 30
0.0
 10
1007.9468085423
 20
50.2459546489
 30
0.0
 10
1007.9468085423
 20
50.2459546489
 30
0.0
  0
SPLINE
  5
249
330
22C
100
AcDbEntity
  8
0
  6
Continuous
 62
     7
100
AcDbSpline
 70
     3
 71
     3
 72
    20
 73
    16
 74
     0
 42
0.000000001
 43
0.0000001
 40
0.0
 40
0.0
 40
0.0
 40
0.0
 40
1.0
 40
1.0
 40
1.0
 40
2.0
 40
2.0
 40
2.0
 40
3.0
 40
3.0
 40
3.0
 40
4.0
 40
4.0
 40
4.0
 40
5.0
 40
5.0
 40
5.0
 40
5.0
 10
1013.729194745
 20
50.6646836792
 30
0.0
 10
1013.729194745
 20
50.6646836792
 30
0.0
 10
1014.5514738783
 20
49.6597340065
 30
0.0
 10
1014.5514738783
 20
49.6597340065
 30
0.0
 10
1014.3193409721
 20
49.4283862172
 30
0.0
 10
1014.043764929
 20
49.1677273959
 30
0.0
 10
1013.6998837129
 20
49.1677273959
 30
0.0
 10
1013.3450108597
 20
49.1677273959
 30
0.0
 10
1013.0100276355
 20
49.4964296846
 30
0.0
 10
1013.0100276355
 20
49.8502557152
 30
0.0
 10
1013.0100276355
 20
50.206175391
 30
0.0
 10
1013.4295417827
 20
50.4584596317
 30
0.0
 10
1013.6847047856
 20
50.6343258245
 30
0.0
 10
1013.6847047856
 20
50.6343258245
 30
0.0
 10
1013.729194745
 20
50.6646836792
 30
0.0
 10
1013.729194745
 20
50.6646836792
 30
0.0
  0
SPLINE
  5
24A
330
22C
100
AcDbEntity
  8
0
  6
Continuous
 62
     7
100
AcDbSpline
 70
     3
 71
     3
 72
    23
 73
    19
 74
     0
 42
0.000000001
 43
0.0000001
 40
0.0
 40
0.0
 40
0.0
 40
0.0
 40
1.0
 40
1.0
 40
1.0
 40
2.0
 40
2.0
 40
2.0
 40
3.0
 40
3.0
 40
3.0
 40
4.0
 40
4.0
 40
4.0
 40
5.0
 40
5.0
 40
5.0
 40
6.0
 40
6.0
 40
6.0
 40
6.0
 10
1013.8278577728
 20
51.2467170313
 30
0.0
 10
1013.8278577728
 20
51.2467170313
 30
0.0
 10
1013.7045944145
 20
51.4037404176
 30
0.0
 10
1013.7045944145
 20
51.4037404176
 30
0.0
 10
1013.5967716892
 20
51.5408741751
 30
0.0
 10
1013.4831914397
 20
51.6790547551
 30
0.0
 10
1013.4831914397
 20
51.8664359961
 30
0.0
 10
1013.4831914397
 20
52.1040647208
 30
0.0
 10
1013.6750216767
 20
52.258994462
 30
0.0
 10
1013.8969480628
 20
52.258994462
 30
0.0
 10
1014.1434747794
 20
52.258994462
 30
0.0
 10
1014.3300709035
 20
52.1166265917
 30
0.0
 10
1014.3300709035
 20
51.8559677704
 30
0.0
 10
1014.3300709035
 20
51.5858875458
 30
0.0
 10
1014.0738610781
 20
51.4330514498
 30
0.0
 10
1013.8867415427
 20
51.2854494666
 30
0.0
 10
1013.8867415427
 20
51.2854494666
 30
0.0
 10
1013.8278577728
 20
51.2467170313
 30
0.0
 10
1013.8278577728
 20
51.2467170313
 30
0.0
  0
SPLINE
  5
24B
330
22C
100
AcDbEntity
  8
0
  6
Continuous
 62
     7
100
AcDbSpline
 70
     3
 71
     3
 72
    50
 73
    46
 74
     0
 42
0.000000001
 43
0.0000001
 40
0.0
 40
0.0
 40
0.0
 40
0.0
 40
1.0
 40
1.0
 40
1.0
 40
2.0
 40
2.0
 40
2.0
 40
3.0
 40
3.0
 40
3.0
 40
4.0
 40
4.0
 40
4.0
 40
5.0
 40
5.0
 40
5.0
 40
6.0
 40
6.0
 40
6.0
 40
7.0
 40
7.0
 40
7.0
 40
8.0
 40
8.0
 40
8.0
 40
9.0
 40
9.0
 40
9.0
 40
10.0
 40
10.0
 40
10.0
 40
11.0
 40
11.0
 40
11.0
 40
12.0
 40
12.0
 40
12.0
 40
13.0
 40
13.0
 40
13.0
 40
14.0
 40
14.0
 40
14.0
 40
15.0
 40
15.0
 40
15.0
 40
15.0
 10
1015.2321702581
 20
48.8327441716
 30
0.0
 10
1015.2321702581
 20
48.8327441716
 30
0.0
 10
1015.8029502676
 20
48.8327441716
 30
0.0
 10
1015.8029502676
 20
48.8327441716
 30
0.0
 10
1015.8029502676
 20
48.8327441716
 30
0.0
 10
1015.138217932
 20
49.6544998936
 30
0.0
 10
1015.138217932
 20
49.6544998936
 30
0.0
 10
1015.138217932
 20
49.6544998936
 30
0.0
 10
1015.5912304016
 20
50.1862857621
 30
0.0
 10
1015.5912304016
 20
50.1862857621
 30
0.0
 10
1015.5912304016
 20
50.1862857621
 30
0.0
 10
1015.294717907
 20
50.4919579542
 30
0.0
 10
1015.294717907
 20
50.4919579542
 30
0.0
 10
1015.294717907
 20
50.4919579542
 30
0.0
 10
1014.8629035945
 20
49.9894831178
 30
0.0
 10
1014.8629035945
 20
49.9894831178
 30
0.0
 10
1014.8629035945
 20
49.9894831178
 30
0.0
 10
1014.0887782998
 20
50.9253425005
 30
0.0
 10
1014.0887782998
 20
50.9253425005
 30
0.0
 10
1014.3996846048
 20
51.153549822
 30
0.0
 10
1014.7642405668
 20
51.4330514498
 30
0.0
 10
1014.7642405668
 20
51.8517804801
 30
0.0
 10
1014.7642405668
 20
52.3395998004
 30
0.0
 10
1014.3601670525
 20
52.6264291861
 30
0.0
 10
1013.9071545829
 20
52.6264291861
 30
0.0
 10
1013.4188118513
 20
52.6264291861
 30
0.0
 10
1013.050068599
 20
52.3249442843
 30
0.0
 10
1013.050068599
 20
51.8120012222
 30
0.0
 10
1013.050068599
 20
51.4969076269
 30
0.0
 10
1013.2473946545
 20
51.2215932895
 30
0.0
 10
1013.4580676979
 20
50.9996669034
 30
0.0
 10
1013.4580676979
 20
50.9996669034
 30
0.0
 10
1013.2269816143
 20
50.8321752913
 30
0.0
 10
1013.2269816143
 20
50.8321752913
 30
0.0
 10
1012.8715853498
 20
50.5757037602
 30
0.0
 10
1012.5769047948
 20
50.3202790518
 30
0.0
 10
1012.5769047948
 20
49.8460684249
 30
0.0
 10
1012.5769047948
 20
49.2054130086
 30
0.0
 10
1013.0940351472
 20
48.7531856559
 30
0.0
 10
1013.7148009346
 20
48.7531856559
 30
0.0
 10
1014.1526344769
 20
48.7531856559
 30
0.0
 10
1014.5470248823
 20
49.0033762515
 30
0.0
 10
1014.8275733326
 20
49.335219008
 30
0.0
 10
1014.8275733326
 20
49.335219008
 30
0.0
 10
1015.2321702581
 20
48.8327441716
 30
0.0
 10
1015.2321702581
 20
48.8327441716
 30
0.0
  0
LWPOLYLINE
  5
24C
330
22C
100
AcDbEntity
  8
0
  6
Continuous
 62
     7
100
AcDbPolyline
 90
        2
 70
     0
 43
0.4
 10
1019.103058
 20
52.545824
 10
1018.640363
 20
52.545824
  0
LWPOLYLINE
  5
24D
330
22C
100
AcDbEntity
  8
0
  6
Continuous
 62
     7
100
AcDbPolyline
 90
        2
 70
     0
 43
0.4
 10
1018.640363
 20
52.545824
 10
1018.640363
 20
48.831697
  0
LWPOLYLINE
  5
24E
330
22C
100
AcDbEntity
  8
0
  6
Continuous
 62
     7
100
AcDbPolyline
 90
        2
 70
     0
 43
0.4
 10
1018.640363
 20
48.831697
 10
1020.23101
 20
48.831697
  0
LWPOLYLINE
  5
24F
330
22C
100
AcDbEntity
  8
0
  6
Continuous
 62
     7
100
AcDbPolyline
 90
        2
 70
     0
 43
0.4
 10
1020.23101
 20
48.831697
 10
1020.23101
 20
49.25566
  0
LWPOLYLINE
  5
250
330
22C
100
AcDbEntity
  8
0
  6
Continuous
 62
     7
100
AcDbPolyline
 90
        2
 70
     0
 43
0.4
 10
1020.23101
 20
49.25566
 10
1019.103058
 20
49.25566
  0
LWPOLYLINE
  5
251
330
22C
100
AcDbEntity
  8
0
  6
Continuous
 62
     7
100
AcDbPolyline
 90
        2
 70
     0
 43
0.4
 10
1019.103058
 20
49.25566
 10
1019.103058
 20
52.545824
  0
LWPOLYLINE
  5
252
330
22C
100
AcDbEntity
  8
0
  6
Continuous
 62
     7
100
AcDbPolyline
 90
        2
 70
     0
 43
0.4
 10
1023.589217
 20
51.136801
 10
1023.146934
 20
51.136801
  0
LWPOLYLINE
  5
253
330
22C
100
AcDbEntity
  8
0
  6
Continuous
 62
     7
100
AcDbPolyline
 90
        2
 70
     0
 43
0.4
 10
1023.146934
 20
51.136801
 10
1023.146934
 20
48.832744
  0
LWPOLYLINE
  5
254
330
22C
100
AcDbEntity
  8
0
  6
Continuous
 62
     7
100
AcDbPolyline
 90
        2
 70
     0
 43
0.4
 10
1023.146934
 20
48.832744
 10
1023.589217
 20
48.832744
  0
LWPOLYLINE
  5
255
330
22C
100
AcDbEntity
  8
0
  6
Continuous
 62
     7
100
AcDbPolyline
 90
        2
 70
     0
 43
0.4
 10
1023.589217
 20
48.832744
 10
1023.589217
 20
51.136801
  0
LWPOLYLINE
  5
256
330
22C
100
AcDbEntity
  8
0
  6
Continuous
 62
     7
100
AcDbPolyline
 90
        2
 70
     1
 43
0.4
 10
1023.06317
 20
52.196709
 42
1.0
 10
1023.673504
 20
52.196709
 42
1.0
  0
SPLINE
  5
257
330
22C
100
AcDbEntity
  8
0
  6
Continuous
 62
     7
100
AcDbSpline
 70
     3
 71
     3
 72
    17
 73
    13
 74
     0
 42
0.000000001
 43
0.0000001
 40
0.0
 40
0.0
 40
0.0
 40
0.0
 40
1.0
 40
1.0
 40
1.0
 40
2.0
 40
2.0
 40
2.0
 40
3.0
 40
3.0
 40
3.0
 40
4.0
 40
4.0
 40
4.0
 40
4.0
 10
1027.8497844692
 20
49.1478377669
 30
0.0
 10
1027.3818547778
 20
49.1478377669
 30
0.0
 10
1027.1211959565
 20
49.5519112812
 30
0.0
 10
1027.1211959565
 20
49.9842490049
 30
0.0
 10
1027.1211959565
 20
50.413446261
 30
0.0
 10
1027.3928464149
 20
50.8112388398
 30
0.0
 10
1027.8497844692
 20
50.8112388398
 30
0.0
 10
1028.3287057976
 20
50.8112388398
 30
0.0
 10
1028.5998328447
 20
50.4333358899
 30
0.0
 10
1028.5998328447
 20
49.9842490049
 30
0.0
 10
1028.5998328447
 20
49.5320216522
 30
0.0
 10
1028.3334164992
 20
49.1478377669
 30
0.0
 10
1027.8497844692
 20
49.1478377669
 30
0.0
  0
SPLINE
  5
258
330
22C
100
AcDbEntity
  8
0
  6
Continuous
 62
     7
100
AcDbSpline
 70
     3
 71
     3
 72
    50
 73
    46
 74
     0
 42
0.000000001
 43
0.0000001
 40
0.0
 40
0.0
 40
0.0
 40
0.0
 40
1.0
 40
1.0
 40
1.0
 40
2.0
 40
2.0
 40
2.0
 40
3.0
 40
3.0
 40
3.0
 40
4.0
 40
4.0
 40
4.0
 40
5.0
 40
5.0
 40
5.0
 40
6.0
 40
6.0
 40
6.0
 40
7.0
 40
7.0
 40
7.0
 40
8.0
 40
8.0
 40
8.0
 40
9.0
 40
9.0
 40
9.0
 40
10.0
 40
10.0
 40
10.0
 40
11.0
 40
11.0
 40
11.0
 40
12.0
 40
12.0
 40
12.0
 40
13.0
 40
13.0
 40
13.0
 40
14.0
 40
14.0
 40
14.0
 40
15.0
 40
15.0
 40
15.0
 40
15.0
 10
1029.0180384637
 20
51.1378474834
 30
0.0
 10
1029.0180384637
 20
51.1378474834
 30
0.0
 10
1028.5747091029
 20
51.1378474834
 30
0.0
 10
1028.5747091029
 20
51.1378474834
 30
0.0
 10
1028.5747091029
 20
51.1378474834
 30
0.0
 10
1028.5747091029
 20
50.7431953723
 30
0.0
 10
1028.5747091029
 20
50.7431953723
 30
0.0
 10
1028.5747091029
 20
50.7431953723
 30
0.0
 10
1028.5652876997
 20
50.7431953723
 30
0.0
 10
1028.5652876997
 20
50.7431953723
 30
0.0
 10
1028.3826171602
 20
51.0289779355
 30
0.0
 10
1028.1067794115
 20
51.2058909508
 30
0.0
 10
1027.7613279615
 20
51.2058909508
 30
0.0
 10
1027.0965956259
 20
51.2058909508
 30
0.0
 10
1026.6783900069
 20
50.6301385342
 30
0.0
 10
1026.6783900069
 20
49.998904521
 30
0.0
 10
1026.6783900069
 20
49.3394062983
 30
0.0
 10
1027.0725187067
 20
48.7531856559
 30
0.0
 10
1027.782264413
 20
48.7531856559
 30
0.0
 10
1028.1067794115
 20
48.7531856559
 30
0.0
 10
1028.3868044505
 20
48.9300986712
 30
0.0
 10
1028.5652876997
 20
49.1918043151
 30
0.0
 10
1028.5652876997
 20
49.1918043151
 30
0.0
 10
1028.5747091029
 20
49.1918043151
 30
0.0
 10
1028.5747091029
 20
49.1918043151
 30
0.0
 10
1028.5747091029
 20
49.1918043151
 30
0.0
 10
1028.5747091029
 20
48.7531856559
 30
0.0
 10
1028.5747091029
 20
48.7531856559
 30
0.0
 10
1028.5747091029
 20
48.2800218516
 30
0.0
 10
1028.4616522647
 20
47.9063061921
 30
0.0
 10
1027.9152108802
 20
47.9063061921
 30
0.0
 10
1027.5106139546
 20
47.9063061921
 30
0.0
 10
1027.2253548028
 20
48.1428880942
 30
0.0
 10
1027.2253548028
 20
48.5553361891
 30
0.0
 10
1027.2253548028
 20
48.5553361891
 30
0.0
 10
1026.7820254419
 20
48.5553361891
 30
0.0
 10
1026.7820254419
 20
48.5553361891
 30
0.0
 10
1026.7919702564
 20
47.9063061921
 30
0.0
 10
1027.2541424236
 20
47.5127009036
 30
0.0
 10
1027.8947978399
 20
47.5127009036
 30
0.0
 10
1028.7908779648
 20
47.5127009036
 30
0.0
 10
1029.0180384637
 20
48.0832192074
 30
0.0
 10
1029.0180384637
 20
48.8767107198
 30
0.0
 10
1029.0180384637
 20
48.8767107198
 30
0.0
 10
1029.0180384637
 20
51.1378474834
 30
0.0
 10
1029.0180384637
 20
51.1378474834
 30
0.0
  0
SPLINE
  5
259
330
22C
100
AcDbEntity
  8
0
  6
Continuous
 62
     7
100
AcDbSpline
 70
     3
 71
     3
 72
    44
 73
    40
 74
     0
 42
0.000000001
 43
0.0000001
 40
0.0
 40
0.0
 40
0.0
 40
0.0
 40
1.0
 40
1.0
 40
1.0
 40
2.0
 40
2.0
 40
2.0
 40
3.0
 40
3.0
 40
3.0
 40
4.0
 40
4.0
 40
4.0
 40
5.0
 40
5.0
 40
5.0
 40
6.0
 40
6.0
 40
6.0
 40
7.0
 40
7.0
 40
7.0
 40
8.0
 40
8.0
 40
8.0
 40
9.0
 40
9.0
 40
9.0
 40
10.0
 40
10.0
 40
10.0
 40
11.0
 40
11.0
 40
11.0
 40
12.0
 40
12.0
 40
12.0
 40
13.0
 40
13.0
 40
13.0
 40
13.0
 10
1032.1558891345
 20
53.1079675709
 30
0.0
 10
1032.1558891345
 20
53.1079675709
 30
0.0
 10
1032.1558891345
 20
48.831697349
 30
0.0
 10
1032.1558891345
 20
48.831697349
 30
0.0
 10
1032.1558891345
 20
48.831697349
 30
0.0
 10
1032.598695084
 20
48.831697349
 30
0.0
 10
1032.598695084
 20
48.831697349
 30
0.0
 10
1032.598695084
 20
48.831697349
 30
0.0
 10
1032.598695084
 20
49.8910817957
 30
0.0
 10
1032.598695084
 20
49.8910817957
 30
0.0
 10
1032.598695084
 20
50.3108576486
 30
0.0
 10
1032.598695084
 20
50.8122856623
 30
0.0
 10
1033.1692133878
 20
50.8122856623
 30
0.0
 10
1033.6230109744
 20
50.8122856623
 30
0.0
 10
1033.676922337
 20
50.5463927281
 30
0.0
 10
1033.676922337
 20
50.1538342622
 30
0.0
 10
1033.676922337
 20
50.1538342622
 30
0.0
 10
1033.676922337
 20
48.831697349
 30
0.0
 10
1033.676922337
 20
48.831697349
 30
0.0
 10
1033.676922337
 20
48.831697349
 30
0.0
 10
1034.1207751092
 20
48.831697349
 30
0.0
 10
1034.1207751092
 20
48.831697349
 30
0.0
 10
1034.1207751092
 20
48.831697349
 30
0.0
 10
1034.1207751092
 20
50.206175391
 30
0.0
 10
1034.1207751092
 20
50.206175391
 30
0.0
 10
1034.1207751092
 20
50.7672722916
 30
0.0
 10
1033.9527600857
 20
51.2069377734
 30
0.0
 10
1033.3026832662
 20
51.2069377734
 30
0.0
 10
1033.0231816385
 20
51.2069377734
 30
0.0
 10
1032.7468204785
 20
51.0739913063
 30
0.0
 10
1032.6081164872
 20
50.827988001
 30
0.0
 10
1032.6081164872
 20
50.827988001
 30
0.0
 10
1032.598695084
 20
50.827988001
 30
0.0
 10
1032.598695084
 20
50.827988001
 30
0.0
 10
1032.598695084
 20
50.827988001
 30
0.0
 10
1032.598695084
 20
53.1079675709
 30
0.0
 10
1032.598695084
 20
53.1079675709
 30
0.0
 10
1032.598695084
 20
53.1079675709
 30
0.0
 10
1032.1558891345
 20
53.1079675709
 30
0.0
 10
1032.1558891345
 20
53.1079675709
 30
0.0
  0
LWPOLYLINE
  5
25A
330
22C
100
AcDbEntity
  8
0
  6
Continuous
 62
     7
100
AcDbPolyline
 90
        2
 70
     0
 43
0.4
 10
1037.800356
 20
50.723306
 10
1038.233218
 20
50.723306
  0
LWPOLYLINE
  5
25B
330
22C
100
AcDbEntity
  8
0
  6
Continuous
 62
     7
100
AcDbPolyline
 90
        2
 70
     0
 43
0.4
 10
1038.233218
 20
50.723306
 10
1038.233218
 20
51.136801
  0
LWPOLYLINE
  5
25C
330
22C
100
AcDbEntity
  8
0
  6
Continuous
 62
     7
100
AcDbPolyline
 90
        2
 70
     0
 43
0.4
 10
1038.233218
 20
51.136801
 10
1037.800356
 20
51.136801
  0
LWPOLYLINE
  5
25D
330
22C
100
AcDbEntity
  8
0
  6
Continuous
 62
     7
100
AcDbPolyline
 90
        2
 70
     0
 43
0.4
 10
1037.800356
 20
51.136801
 10
1037.800356
 20
52.018225
  0
LWPOLYLINE
  5
25E
330
22C
100
AcDbEntity
  8
0
  6
Continuous
 62
     7
100
AcDbPolyline
 90
        2
 70
     0
 43
0.4
 10
1037.800356
 20
52.018225
 10
1037.357027
 20
52.018225
  0
LWPOLYLINE
  5
25F
330
22C
100
AcDbEntity
  8
0
  6
Continuous
 62
     7
100
AcDbPolyline
 90
        2
 70
     0
 43
0.4
 10
1037.357027
 20
52.018225
 10
1037.357027
 20
51.136801
  0
LWPOLYLINE
  5
260
330
22C
100
AcDbEntity
  8
0
  6
Continuous
 62
     7
100
AcDbPolyline
 90
        2
 70
     0
 43
0.4
 10
1037.357027
 20
51.136801
 10
1037.115734
 20
51.136801
  0
LWPOLYLINE
  5
261
330
22C
100
AcDbEntity
  8
0
  6
Continuous
 62
     7
100
AcDbPolyline
 90
        2
 70
     0
 43
0.4
 10
1037.115734
 20
51.136801
 10
1037.115734
 20
50.723306
  0
LWPOLYLINE
  5
262
330
22C
100
AcDbEntity
  8
0
  6
Continuous
 62
     7
100
AcDbPolyline
 90
        2
 70
     0
 43
0.4
 10
1037.115734
 20
50.723306
 10
1037.357027
 20
50.723306
  0
LWPOLYLINE
  5
263
330
22C
100
AcDbEntity
  8
0
  6
Continuous
 62
     7
100
AcDbPolyline
 90
        2
 70
     0
 43
0.4
 10
1037.357027
 20
50.723306
 10
1037.357027
 20
48.831697
  0
LWPOLYLINE
  5
264
330
22C
100
AcDbEntity
  8
0
  6
Continuous
 62
     7
100
AcDbPolyline
 90
        2
 70
     0
 43
0.4
 10
1037.357027
 20
48.831697
 10
1037.800356
 20
48.831697
  0
LWPOLYLINE
  5
265
330
22C
100
AcDbEntity
  8
0
  6
Continuous
 62
     7
100
AcDbPolyline
 90
        2
 70
     0
 43
0.4
 10
1037.800356
 20
48.831697
 10
1037.800356
 20
50.723306
  0
SPLINE
  5
266
330
22C
100
AcDbEntity
  8
0
  6
Continuous
 62
     7
100
AcDbSpline
 70
     3
 71
     3
 72
    20
 73
    16
 74
     0
 42
0.000000001
 43
0.0000001
 40
0.0
 40
0.0
 40
0.0
 40
0.0
 40
1.0
 40
1.0
 40
1.0
 40
2.0
 40
2.0
 40
2.0
 40
3.0
 40
3.0
 40
3.0
 40
4.0
 40
4.0
 40
4.0
 40
5.0
 40
5.0
 40
5.0
 40
5.0
 10
1013.3643770774
 20
69.5535502358
 30
0.0
 10
1013.3643770774
 20
69.5535502358
 30
0.0
 10
1017.9970903863
 20
63.8944273914
 30
0.0
 10
1017.9970903863
 20
63.8944273914
 30
0.0
 10
1016.6937962795
 20
62.590086462
 30
0.0
 10
1015.1400498715
 20
61.1182539205
 30
0.0
 10
1013.1976705822
 20
61.1182539205
 30
0.0
 10
1011.2005948133
 20
61.1182539205
 30
0.0
 10
1009.3139588262
 20
62.977410815
 30
0.0
 10
1009.3139588262
 20
64.9757951121
 30
0.0
 10
1009.3139588262
 20
66.9741794092
 30
0.0
 10
1011.6716649724
 20
68.3873898864
 30
0.0
 10
1013.1147098931
 20
69.3871054463
 30
0.0
 10
1013.1147098931
 20
69.3871054463
 30
0.0
 10
1013.3643770774
 20
69.5535502358
 30
0.0
 10
1013.3643770774
 20
69.5535502358
 30
0.0
  0
SPLINE
  5
267
330
22C
100
AcDbEntity
  8
0
  6
Continuous
 62
     7
100
AcDbSpline
 70
     3
 71
     3
 72
    23
 73
    19
 74
     0
 42
0.000000001
 43
0.0000001
 40
0.0
 40
0.0
 40
0.0
 40
0.0
 40
1.0
 40
1.0
 40
1.0
 40
2.0
 40
2.0
 40
2.0
 40
3.0
 40
3.0
 40
3.0
 40
4.0
 40
4.0
 40
4.0
 40
5.0
 40
5.0
 40
5.0
 40
6.0
 40
6.0
 40
6.0
 40
6.0
 10
1013.9191930425
 20
72.8290580753
 30
0.0
 10
1013.9191930425
 20
72.8290580753
 30
0.0
 10
1013.2261964974
 20
73.715716797
 30
0.0
 10
1013.2261964974
 20
73.715716797
 30
0.0
 10
1012.6145904075
 20
74.4919357369
 30
0.0
 10
1011.9768137532
 20
75.2689397937
 30
0.0
 10
1011.9768137532
 20
76.3228284218
 30
0.0
 10
1011.9768137532
 20
77.6551718551
 30
0.0
 10
1013.0594900022
 20
78.5426156937
 30
0.0
 10
1014.3073025125
 20
78.5426156937
 30
0.0
 10
1015.6948658366
 20
78.5426156937
 30
0.0
 10
1016.749277876
 20
77.7381325442
 30
0.0
 10
1016.749277876
 20
76.2681319423
 30
0.0
 10
1016.749277876
 20
74.7416029212
 30
0.0
 10
1015.3067563667
 20
73.8813764696
 30
0.0
 10
1014.2526060329
 20
73.0499376388
 30
0.0
 10
1014.2526060329
 20
73.0499376388
 30
0.0
 10
1013.9191930425
 20
72.8290580753
 30
0.0
 10
1013.9191930425
 20
72.8290580753
 30
0.0
  0
SPLINE
  5
268
330
22C
100
AcDbEntity
  8
0
  6
Continuous
 62
     7
100
AcDbSpline
 70
     3
 71
     3
 72
    50
 73
    46
 74
     0
 42
0.000000001
 43
0.0000001
 40
0.0
 40
0.0
 40
0.0
 40
0.0
 40
1.0
 40
1.0
 40
1.0
 40
2.0
 40
2.0
 40
2.0
 40
3.0
 40
3.0
 40
3.0
 40
4.0
 40
4.0
 40
4.0
 40
5.0
 40
5.0
 40
5.0
 40
6.0
 40
6.0
 40
6.0
 40
7.0
 40
7.0
 40
7.0
 40
8.0
 40
8.0
 40
8.0
 40
9.0
 40
9.0
 40
9.0
 40
10.0
 40
10.0
 40
10.0
 40
11.0
 40
11.0
 40
11.0
 40
12.0
 40
12.0
 40
12.0
 40
13.0
 40
13.0
 40
13.0
 40
14.0
 40
14.0
 40
14.0
 40
15.0
 40
15.0
 40
15.0
 40
15.0
 10
1021.8263673684
 20
59.231879639
 30
0.0
 10
1021.8263673684
 20
59.231879639
 30
0.0
 10
1025.0448233775
 20
59.231879639
 30
0.0
 10
1025.0448233775
 20
59.231879639
 30
0.0
 10
1025.0448233775
 20
59.231879639
 30
0.0
 10
1021.2987687902
 20
63.8661631818
 30
0.0
 10
1021.2987687902
 20
63.8661631818
 30
0.0
 10
1021.2987687902
 20
63.8661631818
 30
0.0
 10
1023.8514456411
 20
66.861122571
 30
0.0
 10
1023.8514456411
 20
66.861122571
 30
0.0
 10
1023.8514456411
 20
66.861122571
 30
0.0
 10
1022.1869977457
 20
68.5831457081
 30
0.0
 10
1022.1869977457
 20
68.5831457081
 30
0.0
 10
1022.1869977457
 20
68.5831457081
 30
0.0
 10
1019.7458074991
 20
65.7525374633
 30
0.0
 10
1019.7458074991
 20
65.7525374633
 30
0.0
 10
1019.7458074991
 20
65.7525374633
 30
0.0
 10
1015.3899787614
 20
71.0232891322
 30
0.0
 10
1015.3899787614
 20
71.0232891322
 30
0.0
 10
1017.1371256403
 20
72.299365852
 30
0.0
 10
1019.1904681227
 20
73.8813764696
 30
0.0
 10
1019.1904681227
 20
76.2390826158
 30
0.0
 10
1019.1904681227
 20
78.9864684658
 30
0.0
 10
1016.914675843
 20
80.5954347647
 30
0.0
 10
1014.3640926372
 20
80.5954347647
 30
0.0
 10
1011.6172301985
 20
80.5954347647
 30
0.0
 10
1009.535361801
 20
78.9029843654
 30
0.0
 10
1009.535361801
 20
76.017679641
 30
0.0
 10
1009.535361801
 20
74.2425302582
 30
0.0
 10
1010.6460405538
 20
72.6887838502
 30
0.0
 10
1011.8383714676
 20
71.4399245173
 30
0.0
 10
1011.8383714676
 20
71.4399245173
 30
0.0
 10
1010.5345539495
 20
70.4967373766
 30
0.0
 10
1010.5345539495
 20
70.4967373766
 30
0.0
 10
1008.5374781806
 20
69.0542158672
 30
0.0
 10
1006.871721757
 20
67.6116943578
 30
0.0
 10
1006.871721757
 20
64.9485777251
 30
0.0
 10
1006.871721757
 20
61.3412271291
 30
0.0
 10
1009.7858141022
 20
58.7880268669
 30
0.0
 10
1013.280892977
 20
58.7880268669
 30
0.0
 10
1015.7506091388
 20
58.7880268669
 30
0.0
 10
1017.9693495881
 20
60.2043778119
 30
0.0
 10
1019.5510985
 20
62.0614410613
 30
0.0
 10
1019.5510985
 20
62.0614410613
 30
0.0
 10
1021.8263673684
 20
59.231879639
 30
0.0
 10
1021.8263673684
 20
59.231879639
 30
0.0
  0
LINE
  5
269
330
22C
100
AcDbEntity
  8
0
  6
Continuous
 62
     7
100
AcDbLine
 10
993.43209
 20
55.179629
 30
0.0
 11
1038.259912
 21
55.179629
 31
0.0
  0
LINE
  5
26A
330
22C
100
AcDbEntity
  8
0
  6
Continuous
 62
     7
100
AcDbLine
 10
1038.259912
 20
55.179629
 30
0.0
 11
1038.259912
 21
100.007451
 31
0.0
  0
LINE
  5
26B
330
22C
100
AcDbEntity
  8
0
  6
Continuous
 62
     7
100
AcDbLine
 10
1038.259912
 20
100.007451
 30
0.0
 11
993.43209
 21
100.007451
 31
0.0
  0
LINE
  5
26C
330
22C
100
AcDbEntity
  8
0
  6
Continuous
 62
     7
100
AcDbLine
 10
993.43209
 20
100.007451
 30
0.0
 11
993.43209
 21
55.179629
 31
0.0
  0
ENDBLK
  5
26D
330
22C
100
AcDbEntity
  8
0
  6
ByBlock
 62
     0
100
AcDbBlockEnd
  0
BLOCK
  5
29A
330
22D
100
AcDbEntity
  8
0
100
AcDbBlockBegin
  2
*T6
 70
     1
 10
0.0
 20
0.0
 30
0.0
  3
*T6
  1
*T6
  0
LINE
  5
29B
330
22D
100
AcDbEntity
  8
0
  6
Continuous
 62
     2
100
AcDbLine
 10
0.0
 20
0.0
 30
0.0
 11
180.0
 21
0.0
 31
0.0
  0
LINE
  5
29C
330
22D
100
AcDbEntity
  8
0
  6
Continuous
 62
     2
100
AcDbLine
 10
0.0
 20
0.0
 30
0.0
 11
0.0
 21
-80.0
 31
0.0
  0
LINE
  5
29D
330
22D
100
AcDbEntity
  8
0
  6
Continuous
 62
     2
100
AcDbLine
 10
60.0
 20
-12.0
 30
0.0
 11
180.0
 21
-12.0
 31
0.0
  0
LINE
  5
29E
330
22D
100
AcDbEntity
  8
0
  6
Continuous
 62
     2
100
AcDbLine
 10
60.0
 20
-24.0
 30
0.0
 11
180.0
 21
-24.0
 31
0.0
  0
LINE
  5
29F
330
22D
100
AcDbEntity
  8
0
  6
Continuous
 62
     2
100
AcDbLine
 10
60.0
 20
-44.0
 30
0.0
 11
180.0
 21
-44.0
 31
0.0
  0
LINE
  5
2A0
330
22D
100
AcDbEntity
  8
0
  6
Continuous
 62
     2
100
AcDbLine
 10
0.0
 20
-54.0
 30
0.0
 11
180.0
 21
-54.0
 31
0.0
  0
LINE
  5
2A1
330
22D
100
AcDbEntity
  8
0
  6
Continuous
 62
     2
100
AcDbLine
 10
0.0
 20
-80.0
 30
0.0
 11
180.0
 21
-80.0
 31
0.0
  0
LINE
  5
2A2
330
22D
100
AcDbEntity
  8
0
  6
Continuous
 62
     2
100
AcDbLine
 10
60.0
 20
0.0
 30
0.0
 11
60.0
 21
-54.0
 31
0.0
  0
LINE
  5
2A3
330
22D
100
AcDbEntity
  8
0
  6
Continuous
 62
     2
100
AcDbLine
 10
140.0
 20
0.0
 30
0.0
 11
140.0
 21
-24.0
 31
0.0
  0
LINE
  5
2A4
330
22D
100
AcDbEntity
  8
0
  6
Continuous
 62
     2
100
AcDbLine
 10
180.0
 20
0.0
 30
0.0
 11
180.0
 21
-80.0
 31
0.0
  0
MTEXT
  5
2A5
330
22D
100
AcDbEntity
  8
9_SOLID
  6
Continuous
 62
     2
100
AcDbMText
 10
62.975
 20
-3.0
 30
0.0
 40
6.0
 41
88.571429
 46
0.0
 71
     1
 72
     1
  1
Y90_C_002
 73
     1
 44
0.9
  0
MTEXT
  5
2A6
330
22D
100
AcDbEntity
  8
9_SOLID
  6
Continuous
 62
     2
100
AcDbMText
 10
142.975
 20
-3.5
 30
0.0
 40
7.0
 41
57.666667
 46
0.0
 71
     1
 72
     1
  1
Rev:01
 73
     1
 44
0.9
  0
MTEXT
  5
2A7
330
22D
100
AcDbEntity
  8
9_SOLID
  6
Continuous
 62
     2
100
AcDbMText
 10
62.975
 20
-15.5
 30
0.0
 40
7.0
 41
75.666667
 46
0.0
 71
     1
 72
     1
  1
Scale:1:1
 73
     1
 44
0.9
  0
MTEXT
  5
2A8
330
22D
100
AcDbEntity
  8
9_SOLID
  6
Continuous
 62
     2
100
AcDbMText
 10
142.975
 20
-14.5
 30
0.0
 40
7.0
 41
25.666667
 46
0.0
 71
     1
 72
     1
  1
A2
 73
     1
 44
0.9
  0
MTEXT
  5
2A9
330
22D
100
AcDbEntity
  8
9_SOLID
  6
Continuous
 62
     2
100
AcDbMText
 10
62.975
 20
-30.5
 30
0.0
 40
7.0
 41
93.333333
 46
0.0
 71
     1
 72
     1
  1
RIVER 1.0
 73
     1
 44
0.9
  0
MTEXT
  5
2AA
330
22D
100
AcDbEntity
  8
9_SOLID
  6
Continuous
 62
     2
100
AcDbMText
 10
62.975
 20
-46.5
 30
0.0
 40
5.0
 41
38.809524
 46
0.0
 71
     1
 72
     1
  1
DATE:
 73
     1
 44
0.9
  0
MTEXT
  5
2AB
330
22D
100
AcDbEntity
  8
9_SOLID
  6
Continuous
 62
     2
100
AcDbMText
 10
2.975
 20
-54.625
 30
0.0
 40
4.5
 41
358.928571
 46
0.0
 71
     1
 72
     1
  1
Any integral or partial reproductions are prohibited \Pwithout prior authorisation of L {\Ftxt.shx;\W0.190476;\H4.500000; }& L Luce & Light s.r.l., \Pin accordance with the law in force. \PAll rights reserved.
 73
     1
 44
0.9
  0
ENDBLK
  5
2AC
330
22D
100
AcDbEntity
  8
0
  6
ByBlock
 62
     0
100
AcDbBlockEnd
  0
ENDSEC
  0
SECTION
  2
ENTITIES
  0
LINE
  5
2AD
330
225
100
AcDbEntity
  8
0
  6
Continuous
 62
     7
100
AcDbLine
 10
0.0
 20
0.0
 30
0.0
 11
1188.0
 21
0.0
 31
0.0
  0
LINE
  5
2AE
330
225
100
AcDbEntity
  8
0
  6
Continuous
 62
     7
100
AcDbLine
 10
1188.0
 20
0.0
 30
0.0
 11
1188.0
 21
840.0
 31
0.0
  0
LINE
  5
2AF
330
225
100
AcDbEntity
  8
0
  6
Continuous
 62
     7
100
AcDbLine
 10
0.0
 20
840.0
 30
0.0
 11
1188.0
 21
840.0
 31
0.0
  0
LINE
  5
2B0
330
225
100
AcDbEntity
  8
0
  6
Continuous
 62
     7
100
AcDbLine
 10
0.0
 20
0.0
 30
0.0
 11
0.0
 21
840.0
 31
0.0
  0
SPLINE
  5
2B1
330
225
100
AcDbEntity
  8
7_ALL_FEATURES
  6
HIDDEN
 62
     8
100
AcDbSpline
 70
     0
 71
     3
 72
    17
 73
    13
 74
     0
 42
0.000000001
 43
0.0000001
 40
0.0
 40
0.0
 40
0.0
 40
0.0
 40
0.088767271
 40
0.1922822848
 40
0.299559573
 40
0.3767841202
 40
0.481540073
 40
0.5869678661
 40
0.6918188559
 40
0.809506699
 40
0.8985542193
 40
1.0
 40
1.0
 40
1.0
 40
1.0
 10
412.6158812873
 20
429.0453010438
 30
0.0
 10
412.5643136508
 20
429.0015539687
 30
0.0
 10
412.4374713905
 20
428.8981631897
 30
0.0
 10
412.2856318805
 20
428.6943837374
 30
0.0
 10
412.3069412609
 20
428.4367436365
 30
0.0
 10
412.4611865184
 20
428.2421768861
 30
0.0
 10
412.7059699991
 20
428.1865948844
 30
0.0
 10
412.9700498491
 20
428.254954542
 30
0.0
 10
413.1298924942
 20
428.5049456402
 30
0.0
 10
413.0755691757
 20
428.7751870089
 30
0.0
 10
412.9259313744
 20
428.9784156765
 30
0.0
 10
412.8212637142
 20
429.0953925455
 30
0.0
 10
412.7757870729
 20
429.1642320787
 30
0.0
  0
LINE
  5
2B2
330
225
100
AcDbEntity
  8
7_ALL_FEATURES
  6
HIDDEN
 62
     8
100
AcDbLine
 10
412.775787
 20
429.164232
 30
0.0
 11
412.615881
 21
429.045301
 31
0.0
  0
LINE
  5
2B3
330
225
100
AcDbEntity
  8
7_ALL_FEATURES
  6
HIDDEN
 62
     8
100
AcDbLine
 10
412.093527
 20
430.659057
 30
0.0
 11
412.868984
 21
429.711405
 31
0.0
  0
LINE
  5
2B4
330
225
100
AcDbEntity
  8
7_ALL_FEATURES
  6
HIDDEN
 62
     8
100
AcDbLine
 10
412.868984
 20
429.711405
 30
0.0
 11
413.340777
 21
430.065196
 31
0.0
  0
SPLINE
  5
2B5
330
225
100
AcDbEntity
  8
7_ALL_FEATURES
  6
HIDDEN
 62
     8
100
AcDbSpline
 70
     0
 71
     3
 72
    15
 73
    11
 74
     0
 42
0.000000001
 43
0.0000001
 40
0.0
 40
0.0
 40
0.0
 40
0.0
 40
0.2244528206
 40
0.3191120138
 40
0.434615265
 40
0.5741622102
 40
0.696305529
 40
0.7982064702
 40
0.9342484109
 40
1.0
 40
1.0
 40
1.0
 40
1.0
 10
413.3407766076
 20
430.0651962547
 30
0.0
 10
413.5197086168
 20
430.2002708567
 30
0.0
 10
413.5919188725
 20
430.4680748487
 30
0.0
 10
413.46627786
 20
430.8017062378
 30
0.0
 10
413.2752656848
 20
431.0139386417
 30
0.0
 10
412.9868755303
 20
431.1455303423
 30
0.0
 10
412.6868344822
 20
431.1060012406
 30
0.0
 10
412.4303567128
 20
430.9692496851
 30
0.0
 10
412.2450619714
 20
430.8103188209
 30
0.0
 10
412.1304355839
 20
430.6962815591
 30
0.0
 10
412.0935271122
 20
430.6590565592
 30
0.0
  0
LINE
  5
2B6
330
225
100
AcDbEntity
  8
7_ALL_FEATURES
  6
HIDDEN
 62
     8
100
AcDbLine
 10
411.800955
 20
430.348182
 30
0.0
 11
411.392527
 21
429.874602
 31
0.0
  0
LINE
  5
2B7
330
225
100
AcDbEntity
  8
7_ALL_FEATURES
  6
HIDDEN
 62
     8
100
AcDbLine
 10
411.392527
 20
429.874602
 30
0.0
 11
411.114054
 21
430.162708
 31
0.0
  0
LINE
  5
2B8
330
225
100
AcDbEntity
  8
7_ALL_FEATURES
  6
HIDDEN
 62
     8
100
AcDbLine
 10
411.114054
 20
430.162708
 30
0.0
 11
411.541134
 21
430.663785
 31
0.0
  0
LINE
  5
2B9
330
225
100
AcDbEntity
  8
7_ALL_FEATURES
  6
HIDDEN
 62
     8
100
AcDbLine
 10
411.541134
 20
430.663785
 30
0.0
 11
410.914393
 21
431.439133
 31
0.0
  0
LINE
  5
2BA
330
225
100
AcDbEntity
  8
7_ALL_FEATURES
  6
HIDDEN
 62
     8
100
AcDbLine
 10
410.914393
 20
431.439133
 30
0.0
 11
411.452863
 21
431.439133
 31
0.0
  0
LINE
  5
2BB
330
225
100
AcDbEntity
  8
7_ALL_FEATURES
  6
HIDDEN
 62
     8
100
AcDbLine
 10
411.452863
 20
431.439133
 30
0.0
 11
411.833531
 21
430.965728
 31
0.0
  0
SPLINE
  5
2BC
330
225
100
AcDbEntity
  8
7_ALL_FEATURES
  6
HIDDEN
 62
     8
100
AcDbSpline
 70
     0
 71
     3
 72
    18
 73
    14
 74
     0
 42
0.000000001
 43
0.0000001
 40
0.0
 40
0.0
 40
0.0
 40
0.0
 40
0.0688118006
 40
0.1572001216
 40
0.2609364186
 40
0.36644106
 40
0.4438669064
 40
0.5482582034
 40
0.6603436196
 40
0.7927132953
 40
0.8594591661
 40
0.9371509351
 40
1.0
 40
1.0
 40
1.0
 40
1.0
 10
411.8335309855
 20
430.965727639
 30
0.0
 10
411.896663736
 20
431.0407768486
 30
0.0
 10
412.055042942
 20
431.2018411265
 30
0.0
 10
412.3669397705
 20
431.4117364846
 30
0.0
 10
412.7826545462
 20
431.5386890592
 30
0.0
 10
413.2018231437
 20
431.4936150344
 30
0.0
 10
413.5750658249
 20
431.3100690289
 30
0.0
 10
413.8669579663
 20
430.9882191258
 30
0.0
 10
414.0040000853
 20
430.4898238499
 30
0.0
 10
413.8743781348
 20
430.0303595519
 30
0.0
 10
413.5973559775
 20
429.7428754042
 30
0.0
 10
413.3601762335
 20
429.5656150166
 30
0.0
 10
413.195660865
 20
429.4504153553
 30
0.0
 10
413.1239226745
 20
429.3966435709
 30
0.0
  0
SPLINE
  5
2BD
330
225
100
AcDbEntity
  8
7_ALL_FEATURES
  6
HIDDEN
 62
     8
100
AcDbSpline
 70
     0
 71
     3
 72
    17
 73
    13
 74
     0
 42
0.000000001
 43
0.0000001
 40
0.0
 40
0.0
 40
0.0
 40
0.0
 40
0.1176167952
 40
0.2058947937
 40
0.3225682808
 40
0.4029402086
 40
0.4935926706
 40
0.6308367718
 40
0.7305992946
 40
0.8370543368
 40
0.9358857259
 40
1.0
 40
1.0
 40
1.0
 40
1.0
 10
413.1239226745
 20
429.3966435709
 30
0.0
 10
413.2432215872
 20
429.2804815041
 30
0.0
 10
413.4367757495
 20
429.0263143182
 30
0.0
 10
413.5529898823
 20
428.5561243657
 30
0.0
 10
413.3952271891
 20
428.1213606243
 30
0.0
 10
413.0228112061
 20
427.8868507162
 30
0.0
 10
412.5640422117
 20
427.8316194809
 30
0.0
 10
412.0704716271
 20
428.0231035109
 30
0.0
 10
411.8397970121
 20
428.5204760758
 30
0.0
 10
411.9795815876
 20
428.9825529644
 30
0.0
 10
412.2637134689
 20
429.264237509
 30
0.0
 10
412.4563568637
 20
429.4095053044
 30
0.0
 10
412.5297146188
 20
429.4663495045
 30
0.0
  0
LINE
  5
2BE
330
225
100
AcDbEntity
  8
7_ALL_FEATURES
  6
HIDDEN
 62
     8
100
AcDbLine
 10
412.529715
 20
429.46635
 30
0.0
 11
411.800955
 21
430.348182
 31
0.0
  0
LINE
  5
2BF
330
225
100
AcDbEntity
  8
7_ALL_FEATURES
  6
HIDDEN
 62
     8
100
AcDbLine
 10
415.21637
 20
431.039812
 30
0.0
 11
414.153399
 21
431.039812
 31
0.0
  0
LINE
  5
2C0
330
225
100
AcDbEntity
  8
7_ALL_FEATURES
  6
HIDDEN
 62
     8
100
AcDbLine
 10
414.153399
 20
431.039812
 30
0.0
 11
414.153399
 21
431.438957
 31
0.0
  0
LINE
  5
2C1
330
225
100
AcDbEntity
  8
7_ALL_FEATURES
  6
HIDDEN
 62
     8
100
AcDbLine
 10
414.153399
 20
431.438957
 30
0.0
 11
415.652821
 21
431.438957
 31
0.0
  0
LINE
  5
2C2
330
225
100
AcDbEntity
  8
7_ALL_FEATURES
  6
HIDDEN
 62
     8
100
AcDbLine
 10
415.652821
 20
431.438957
 30
0.0
 11
415.652821
 21
427.939212
 31
0.0
  0
LINE
  5
2C3
330
225
100
AcDbEntity
  8
7_ALL_FEATURES
  6
HIDDEN
 62
     8
100
AcDbLine
 10
415.652821
 20
427.939212
 30
0.0
 11
415.21637
 21
427.939212
 31
0.0
  0
LINE
  5
2C4
330
225
100
AcDbEntity
  8
7_ALL_FEATURES
  6
HIDDEN
 62
     8
100
AcDbLine
 10
415.21637
 20
427.939212
 30
0.0
 11
415.21637
 21
431.039812
 31
0.0
  0
LINE
  5
2C5
330
225
100
AcDbEntity
  8
7_ALL_FEATURES
  6
HIDDEN
 62
     8
100
AcDbLine
 10
410.218473
 20
431.039812
 30
0.0
 11
409.155282
 21
431.039812
 31
0.0
  0
LINE
  5
2C6
330
225
100
AcDbEntity
  8
7_ALL_FEATURES
  6
HIDDEN
 62
     8
100
AcDbLine
 10
409.155282
 20
431.039812
 30
0.0
 11
409.155282
 21
431.438957
 31
0.0
  0
LINE
  5
2C7
330
225
100
AcDbEntity
  8
7_ALL_FEATURES
  6
HIDDEN
 62
     8
100
AcDbLine
 10
409.155282
 20
431.438957
 30
0.0
 11
410.654748
 21
431.438957
 31
0.0
  0
LINE
  5
2C8
330
225
100
AcDbEntity
  8
7_ALL_FEATURES
  6
HIDDEN
 62
     8
100
AcDbLine
 10
410.654748
 20
431.438957
 30
0.0
 11
410.654748
 21
427.939212
 31
0.0
  0
LINE
  5
2C9
330
225
100
AcDbEntity
  8
7_ALL_FEATURES
  6
HIDDEN
 62
     8
100
AcDbLine
 10
410.654748
 20
427.939212
 30
0.0
 11
410.218473
 21
427.939212
 31
0.0
  0
LINE
  5
2CA
330
225
100
AcDbEntity
  8
7_ALL_FEATURES
  6
HIDDEN
 62
     8
100
AcDbLine
 10
410.218473
 20
427.939212
 30
0.0
 11
410.218473
 21
431.039812
 31
0.0
  0
LINE
  5
2CB
330
225
100
AcDbEntity
  8
7_ALL_FEATURES
  6
HIDDEN
 62
     8
100
AcDbLine
 10
416.203419
 20
424.617102
 30
0.0
 11
416.203419
 21
432.117102
 31
0.0
  0
LINE
  5
2CC
330
225
100
AcDbEntity
  8
7_ALL_FEATURES
  6
HIDDEN
 62
     8
100
AcDbLine
 10
416.203419
 20
432.117102
 30
0.0
 11
408.703419
 21
432.117102
 31
0.0
  0
LINE
  5
2CD
330
225
100
AcDbEntity
  8
7_ALL_FEATURES
  6
HIDDEN
 62
     8
100
AcDbLine
 10
408.703419
 20
432.117102
 30
0.0
 11
408.703419
 21
424.617102
 31
0.0
  0
LINE
  5
2CE
330
225
100
AcDbEntity
  8
7_ALL_FEATURES
  6
HIDDEN
 62
     8
100
AcDbLine
 10
408.703419
 20
424.617102
 30
0.0
 11
416.203419
 21
424.617102
 31
0.0
  0
LINE
  5
2CF
330
225
100
AcDbEntity
  8
7_ALL_FEATURES
  6
HIDDEN
 62
     8
100
AcDbLine
 10
408.499049
 20
432.321472
 30
0.0
 11
416.407789
 21
432.321472
 31
0.0
  0
LINE
  5
2D0
330
225
100
AcDbEntity
  8
7_ALL_FEATURES
  6
HIDDEN
 62
     8
100
AcDbLine
 10
416.407789
 20
432.321472
 30
0.0
 11
416.407789
 21
424.412732
 31
0.0
  0
LINE
  5
2D1
330
225
100
AcDbEntity
  8
7_ALL_FEATURES
  6
HIDDEN
 62
     8
100
AcDbLine
 10
416.407789
 20
424.412732
 30
0.0
 11
408.499049
 21
424.412732
 31
0.0
  0
LINE
  5
2D2
330
225
100
AcDbEntity
  8
7_ALL_FEATURES
  6
HIDDEN
 62
     8
100
AcDbLine
 10
408.499049
 20
424.412732
 30
0.0
 11
408.499049
 21
432.321472
 31
0.0
  0
LINE
  5
2D3
330
225
100
AcDbEntity
  8
7_ALL_FEATURES
  6
HIDDEN
 62
     8
100
AcDbLine
 10
197.753419
 20
418.067102
 30
0.0
 11
177.153419
 21
418.067102
 31
0.0
  0
LINE
  5
2D4
330
225
100
AcDbEntity
  8
7_ALL_FEATURES
  6
HIDDEN
 62
     8
100
AcDbLine
 10
177.153419
 20
418.067102
 30
0.0
 11
177.153419
 21
438.667102
 31
0.0
  0
LINE
  5
2D5
330
225
100
AcDbEntity
  8
7_ALL_FEATURES
  6
HIDDEN
 62
     8
100
AcDbLine
 10
177.153419
 20
438.667102
 30
0.0
 11
197.753419
 21
438.667102
 31
0.0
  0
LINE
  5
2D6
330
225
100
AcDbEntity
  8
7_ALL_FEATURES
  6
HIDDEN
 62
     8
100
AcDbLine
 10
197.753419
 20
438.667102
 30
0.0
 11
197.753419
 21
418.067102
 31
0.0
  0
LINE
  5
2D7
330
225
100
AcDbEntity
  8
7_ALL_FEATURES
  6
HIDDEN
 62
     8
100
AcDbLine
 10
247.753419
 20
418.067102
 30
0.0
 11
227.153419
 21
418.067102
 31
0.0
  0
LINE
  5
2D8
330
225
100
AcDbEntity
  8
7_ALL_FEATURES
  6
HIDDEN
 62
     8
100
AcDbLine
 10
227.153419
 20
418.067102
 30
0.0
 11
227.153419
 21
438.667102
 31
0.0
  0
LINE
  5
2D9
330
225
100
AcDbEntity
  8
7_ALL_FEATURES
  6
HIDDEN
 62
     8
100
AcDbLine
 10
227.153419
 20
438.667102
 30
0.0
 11
247.753419
 21
438.667102
 31
0.0
  0
LINE
  5
2DA
330
225
100
AcDbEntity
  8
7_ALL_FEATURES
  6
HIDDEN
 62
     8
100
AcDbLine
 10
247.753419
 20
438.667102
 30
0.0
 11
247.753419
 21
418.067102
 31
0.0
  0
LINE
  5
2DB
330
225
100
AcDbEntity
  8
7_ALL_FEATURES
  6
HIDDEN
 62
     8
100
AcDbLine
 10
297.753419
 20
418.067102
 30
0.0
 11
277.153419
 21
418.067102
 31
0.0
  0
LINE
  5
2DC
330
225
100
AcDbEntity
  8
7_ALL_FEATURES
  6
HIDDEN
 62
     8
100
AcDbLine
 10
277.153419
 20
418.067102
 30
0.0
 11
277.153419
 21
438.667102
 31
0.0
  0
LINE
  5
2DD
330
225
100
AcDbEntity
  8
7_ALL_FEATURES
  6
HIDDEN
 62
     8
100
AcDbLine
 10
277.153419
 20
438.667102
 30
0.0
 11
297.753419
 21
438.667102
 31
0.0
  0
LINE
  5
2DE
330
225
100
AcDbEntity
  8
7_ALL_FEATURES
  6
HIDDEN
 62
     8
100
AcDbLine
 10
297.753419
 20
438.667102
 30
0.0
 11
297.753419
 21
418.067102
 31
0.0
  0
LINE
  5
2DF
330
225
100
AcDbEntity
  8
7_ALL_FEATURES
  6
HIDDEN
 62
     8
100
AcDbLine
 10
347.753419
 20
418.067102
 30
0.0
 11
327.153419
 21
418.067102
 31
0.0
  0
LINE
  5
2E0
330
225
100
AcDbEntity
  8
7_ALL_FEATURES
  6
HIDDEN
 62
     8
100
AcDbLine
 10
327.153419
 20
418.067102
 30
0.0
 11
327.153419
 21
438.667102
 31
0.0
  0
LINE
  5
2E1
330
225
100
AcDbEntity
  8
7_ALL_FEATURES
  6
HIDDEN
 62
     8
100
AcDbLine
 10
327.153419
 20
438.667102
 30
0.0
 11
347.753419
 21
438.667102
 31
0.0
  0
LINE
  5
2E2
330
225
100
AcDbEntity
  8
7_ALL_FEATURES
  6
HIDDEN
 62
     8
100
AcDbLine
 10
347.753419
 20
438.667102
 30
0.0
 11
347.753419
 21
418.067102
 31
0.0
  0
LINE
  5
2E3
330
225
100
AcDbEntity
  8
7_ALL_FEATURES
  6
HIDDEN
 62
     8
100
AcDbLine
 10
397.753419
 20
418.067102
 30
0.0
 11
377.153419
 21
418.067102
 31
0.0
  0
LINE
  5
2E4
330
225
100
AcDbEntity
  8
7_ALL_FEATURES
  6
HIDDEN
 62
     8
100
AcDbLine
 10
377.153419
 20
418.067102
 30
0.0
 11
377.153419
 21
438.667102
 31
0.0
  0
LINE
  5
2E5
330
225
100
AcDbEntity
  8
7_ALL_FEATURES
  6
HIDDEN
 62
     8
100
AcDbLine
 10
377.153419
 20
438.667102
 30
0.0
 11
397.753419
 21
438.667102
 31
0.0
  0
LINE
  5
2E6
330
225
100
AcDbEntity
  8
7_ALL_FEATURES
  6
HIDDEN
 62
     8
100
AcDbLine
 10
397.753419
 20
438.667102
 30
0.0
 11
397.753419
 21
418.067102
 31
0.0
  0
LINE
  5
2E7
330
225
100
AcDbEntity
  8
7_ALL_FEATURES
  6
HIDDEN
 62
     8
100
AcDbLine
 10
447.753419
 20
418.067102
 30
0.0
 11
427.153419
 21
418.067102
 31
0.0
  0
LINE
  5
2E8
330
225
100
AcDbEntity
  8
7_ALL_FEATURES
  6
HIDDEN
 62
     8
100
AcDbLine
 10
427.153419
 20
418.067102
 30
0.0
 11
427.153419
 21
438.667102
 31
0.0
  0
LINE
  5
2E9
330
225
100
AcDbEntity
  8
7_ALL_FEATURES
  6
HIDDEN
 62
     8
100
AcDbLine
 10
427.153419
 20
438.667102
 30
0.0
 11
447.753419
 21
438.667102
 31
0.0
  0
LINE
  5
2EA
330
225
100
AcDbEntity
  8
7_ALL_FEATURES
  6
HIDDEN
 62
     8
100
AcDbLine
 10
447.753419
 20
438.667102
 30
0.0
 11
447.753419
 21
418.067102
 31
0.0
  0
LINE
  5
2EB
330
225
100
AcDbEntity
  8
7_ALL_FEATURES
  6
HIDDEN
 62
     8
100
AcDbLine
 10
497.753419
 20
418.067102
 30
0.0
 11
477.153419
 21
418.067102
 31
0.0
  0
LINE
  5
2EC
330
225
100
AcDbEntity
  8
7_ALL_FEATURES
  6
HIDDEN
 62
     8
100
AcDbLine
 10
477.153419
 20
418.067102
 30
0.0
 11
477.153419
 21
438.667102
 31
0.0
  0
LINE
  5
2ED
330
225
100
AcDbEntity
  8
7_ALL_FEATURES
  6
HIDDEN
 62
     8
100
AcDbLine
 10
477.153419
 20
438.667102
 30
0.0
 11
497.753419
 21
438.667102
 31
0.0
  0
LINE
  5
2EE
330
225
100
AcDbEntity
  8
7_ALL_FEATURES
  6
HIDDEN
 62
     8
100
AcDbLine
 10
497.753419
 20
438.667102
 30
0.0
 11
497.753419
 21
418.067102
 31
0.0
  0
LINE
  5
2EF
330
225
100
AcDbEntity
  8
7_ALL_FEATURES
  6
HIDDEN
 62
     8
100
AcDbLine
 10
547.753419
 20
418.067102
 30
0.0
 11
527.153419
 21
418.067102
 31
0.0
  0
LINE
  5
2F0
330
225
100
AcDbEntity
  8
7_ALL_FEATURES
  6
HIDDEN
 62
     8
100
AcDbLine
 10
527.153419
 20
418.067102
 30
0.0
 11
527.153419
 21
438.667102
 31
0.0
  0
LINE
  5
2F1
330
225
100
AcDbEntity
  8
7_ALL_FEATURES
  6
HIDDEN
 62
     8
100
AcDbLine
 10
527.153419
 20
438.667102
 30
0.0
 11
547.753419
 21
438.667102
 31
0.0
  0
LINE
  5
2F2
330
225
100
AcDbEntity
  8
7_ALL_FEATURES
  6
HIDDEN
 62
     8
100
AcDbLine
 10
547.753419
 20
438.667102
 30
0.0
 11
547.753419
 21
418.067102
 31
0.0
  0
LINE
  5
2F3
330
225
100
AcDbEntity
  8
7_ALL_FEATURES
  6
HIDDEN
 62
     8
100
AcDbLine
 10
597.753419
 20
418.067102
 30
0.0
 11
577.153419
 21
418.067102
 31
0.0
  0
LINE
  5
2F4
330
225
100
AcDbEntity
  8
7_ALL_FEATURES
  6
HIDDEN
 62
     8
100
AcDbLine
 10
577.153419
 20
418.067102
 30
0.0
 11
577.153419
 21
438.667102
 31
0.0
  0
LINE
  5
2F5
330
225
100
AcDbEntity
  8
7_ALL_FEATURES
  6
HIDDEN
 62
     8
100
AcDbLine
 10
577.153419
 20
438.667102
 30
0.0
 11
597.753419
 21
438.667102
 31
0.0
  0
LINE
  5
2F6
330
225
100
AcDbEntity
  8
7_ALL_FEATURES
  6
HIDDEN
 62
     8
100
AcDbLine
 10
597.753419
 20
438.667102
 30
0.0
 11
597.753419
 21
418.067102
 31
0.0
  0
LINE
  5
2F7
330
225
100
AcDbEntity
  8
7_ALL_FEATURES
  6
HIDDEN
 62
     8
100
AcDbLine
 10
647.753419
 20
418.067102
 30
0.0
 11
627.153419
 21
418.067102
 31
0.0
  0
LINE
  5
2F8
330
225
100
AcDbEntity
  8
7_ALL_FEATURES
  6
HIDDEN
 62
     8
100
AcDbLine
 10
627.153419
 20
418.067102
 30
0.0
 11
627.153419
 21
438.667102
 31
0.0
  0
LINE
  5
2F9
330
225
100
AcDbEntity
  8
7_ALL_FEATURES
  6
HIDDEN
 62
     8
100
AcDbLine
 10
627.153419
 20
438.667102
 30
0.0
 11
647.753419
 21
438.667102
 31
0.0
  0
LINE
  5
2FA
330
225
100
AcDbEntity
  8
7_ALL_FEATURES
  6
HIDDEN
 62
     8
100
AcDbLine
 10
647.753419
 20
438.667102
 30
0.0
 11
647.753419
 21
418.067102
 31
0.0
  0
LINE
  5
2FB
330
225
100
AcDbEntity
  8
7_ALL_FEATURES
  6
Continuous
 62
     7
100
AcDbLine
 10
663.203419
 20
426.367102
 30
0.0
 11
663.203419
 21
430.367102
 31
0.0
  0
LINE
  5
2FC
330
225
100
AcDbEntity
  8
7_ALL_FEATURES
  6
Continuous
 62
     7
100
AcDbLine
 10
663.203419
 20
430.367102
 30
0.0
 11
663.203419
 21
426.367102
 31
0.0
  0
LINE
  5
2FD
330
225
100
AcDbEntity
  8
7_ALL_FEATURES
  6
Continuous
 62
     7
100
AcDbLine
 10
663.203419
 20
430.367102
 30
0.0
 11
662.003419
 21
430.367102
 31
0.0
  0
LINE
  5
2FE
330
225
100
AcDbEntity
  8
7_ALL_FEATURES
  6
Continuous
 62
     7
100
AcDbLine
 10
662.003419
 20
430.367102
 30
0.0
 11
661.953419
 21
430.367102
 31
0.0
  0
LINE
  5
2FF
330
225
100
AcDbEntity
  8
7_ALL_FEATURES
  6
Continuous
 62
     7
100
AcDbLine
 10
663.203419
 20
426.367102
 30
0.0
 11
662.003419
 21
426.367102
 31
0.0
  0
LINE
  5
300
330
225
100
AcDbEntity
  8
7_ALL_FEATURES
  6
Continuous
 62
     7
100
AcDbLine
 10
662.003419
 20
426.367102
 30
0.0
 11
661.953419
 21
426.367102
 31
0.0
  0
LINE
  5
301
330
225
100
AcDbEntity
  8
7_ALL_FEATURES
  6
Continuous
 62
     7
100
AcDbLine
 10
158.003419
 20
435.867102
 30
0.0
 11
158.003419
 21
420.867102
 31
0.0
  0
LINE
  5
302
330
225
100
AcDbEntity
  8
7_ALL_FEATURES
  6
Continuous
 62
     7
100
AcDbLine
 10
158.003419
 20
435.867102
 30
0.0
 11
158.003419
 21
440.867102
 31
0.0
  0
LINE
  5
303
330
225
100
AcDbEntity
  8
7_ALL_FEATURES
  6
Continuous
 62
     7
100
AcDbLine
 10
158.003419
 20
415.867102
 30
0.0
 11
158.003419
 21
393.367102
 31
0.0
  0
LINE
  5
304
330
225
100
AcDbEntity
  8
7_ALL_FEATURES
  6
Continuous
 62
     7
100
AcDbLine
 10
158.003419
 20
415.867102
 30
0.0
 11
158.003419
 21
420.867102
 31
0.0
  0
LINE
  5
305
330
225
100
AcDbEntity
  8
7_ALL_FEATURES
  6
Continuous
 62
     7
100
AcDbLine
 10
179.003419
 20
463.367102
 30
0.0
 11
179.003419
 21
456.467102
 31
0.0
  0
LINE
  5
306
330
225
100
AcDbEntity
  8
7_ALL_FEATURES
  6
Continuous
 62
     7
100
AcDbLine
 10
179.003419
 20
456.467102
 30
0.0
 11
179.003419
 21
456.367102
 31
0.0
  0
LINE
  5
307
330
225
100
AcDbEntity
  8
7_ALL_FEATURES
  6
Continuous
 62
     7
100
AcDbLine
 10
179.003419
 20
400.367102
 30
0.0
 11
179.003419
 21
400.267102
 31
0.0
  0
LINE
  5
308
330
225
100
AcDbEntity
  8
7_ALL_FEATURES
  6
Continuous
 62
     7
100
AcDbLine
 10
158.003419
 20
463.367102
 30
0.0
 11
158.003419
 21
440.867102
 31
0.0
  0
LINE
  5
309
330
225
100
AcDbEntity
  8
7_ALL_FEATURES
  6
Continuous
 62
     7
100
AcDbLine
 10
179.003419
 20
400.267102
 30
0.0
 11
179.003419
 21
393.367102
 31
0.0
  0
LINE
  5
30A
330
225
100
AcDbEntity
  8
7_ALL_FEATURES
  6
Continuous
 62
     7
100
AcDbLine
 10
167.003419
 20
456.467102
 30
0.0
 11
167.003419
 21
456.367102
 31
0.0
  0
LINE
  5
30B
330
225
100
AcDbEntity
  8
7_ALL_FEATURES
  6
Continuous
 62
     7
100
AcDbLine
 10
162.803419
 20
456.467102
 30
0.0
 11
162.953419
 21
456.467102
 31
0.0
  0
LINE
  5
30C
330
225
100
AcDbEntity
  8
7_ALL_FEATURES
  6
Continuous
 62
     7
100
AcDbLine
 10
162.953419
 20
456.467102
 30
0.0
 11
179.003419
 21
456.467102
 31
0.0
  0
LINE
  5
30D
330
225
100
AcDbEntity
  8
7_ALL_FEATURES
  6
Continuous
 62
     7
100
AcDbLine
 10
162.953419
 20
415.867102
 30
0.0
 11
162.803419
 21
415.867102
 31
0.0
  0
LINE
  5
30E
330
225
100
AcDbEntity
  8
7_ALL_FEATURES
  6
Continuous
 62
     7
100
AcDbLine
 10
162.953419
 20
440.867102
 30
0.0
 11
162.803419
 21
440.867102
 31
0.0
  0
LINE
  5
30F
330
225
100
AcDbEntity
  8
7_ALL_FEATURES
  6
Continuous
 62
     7
100
AcDbLine
 10
179.003419
 20
393.367102
 30
0.0
 11
158.003419
 21
393.367102
 31
0.0
  0
LINE
  5
310
330
225
100
AcDbEntity
  8
7_ALL_FEATURES
  6
Continuous
 62
     7
100
AcDbLine
 10
162.803419
 20
400.267102
 30
0.0
 11
162.953419
 21
400.267102
 31
0.0
  0
LINE
  5
311
330
225
100
AcDbEntity
  8
7_ALL_FEATURES
  6
Continuous
 62
     7
100
AcDbLine
 10
162.953419
 20
400.267102
 30
0.0
 11
179.003419
 21
400.267102
 31
0.0
  0
LINE
  5
312
330
225
100
AcDbEntity
  8
7_ALL_FEATURES
  6
Continuous
 62
     7
100
AcDbLine
 10
162.803419
 20
415.867102
 30
0.0
 11
162.803419
 21
400.267102
 31
0.0
  0
LINE
  5
313
330
225
100
AcDbEntity
  8
7_ALL_FEATURES
  6
Continuous
 62
     7
100
AcDbLine
 10
158.003419
 20
415.867102
 30
0.0
 11
162.803419
 21
415.867102
 31
0.0
  0
LINE
  5
314
330
225
100
AcDbEntity
  8
7_ALL_FEATURES
  6
Continuous
 62
     7
100
AcDbLine
 10
162.803419
 20
456.467102
 30
0.0
 11
162.803419
 21
440.867102
 31
0.0
  0
LINE
  5
315
330
225
100
AcDbEntity
  8
7_ALL_FEATURES
  6
Continuous
 62
     7
100
AcDbLine
 10
158.003419
 20
440.867102
 30
0.0
 11
162.803419
 21
440.867102
 31
0.0
  0
LINE
  5
316
330
225
100
AcDbEntity
  8
7_ALL_FEATURES
  6
Continuous
 62
     7
100
AcDbLine
 10
167.003419
 20
400.367102
 30
0.0
 11
167.003419
 21
400.267102
 31
0.0
  0
LINE
  5
317
330
225
100
AcDbEntity
  8
7_ALL_FEATURES
  6
Continuous
 62
     7
100
AcDbLine
 10
179.003419
 20
463.367102
 30
0.0
 11
158.003419
 21
463.367102
 31
0.0
  0
LINE
  5
318
330
225
100
AcDbEntity
  8
7_ALL_FEATURES
  6
Continuous
 62
     7
100
AcDbLine
 10
158.003419
 20
435.867102
 30
0.0
 11
162.953419
 21
435.867102
 31
0.0
  0
LINE
  5
319
330
225
100
AcDbEntity
  8
7_ALL_FEATURES
  6
Continuous
 62
     7
100
AcDbLine
 10
158.003419
 20
420.867102
 30
0.0
 11
162.953419
 21
420.867102
 31
0.0
  0
LINE
  5
31A
330
225
100
AcDbEntity
  8
7_ALL_FEATURES
  6
Continuous
 62
     7
100
AcDbLine
 10
661.953419
 20
400.367102
 30
0.0
 11
661.953419
 21
456.367102
 31
0.0
  0
LINE
  5
31B
330
225
100
AcDbEntity
  8
7_ALL_FEATURES
  6
Continuous
 62
     7
100
AcDbLine
 10
661.953419
 20
456.367102
 30
0.0
 11
179.003419
 21
456.367102
 31
0.0
  0
LINE
  5
31C
330
225
100
AcDbEntity
  8
7_ALL_FEATURES
  6
Continuous
 62
     7
100
AcDbLine
 10
179.003419
 20
456.367102
 30
0.0
 11
162.953419
 21
456.367102
 31
0.0
  0
LINE
  5
31D
330
225
100
AcDbEntity
  8
7_ALL_FEATURES
  6
Continuous
 62
     7
100
AcDbLine
 10
162.953419
 20
456.367102
 30
0.0
 11
162.953419
 21
400.367102
 31
0.0
  0
LINE
  5
31E
330
225
100
AcDbEntity
  8
7_ALL_FEATURES
  6
Continuous
 62
     7
100
AcDbLine
 10
162.953419
 20
400.367102
 30
0.0
 11
179.003419
 21
400.367102
 31
0.0
  0
LINE
  5
31F
330
225
100
AcDbEntity
  8
7_ALL_FEATURES
  6
Continuous
 62
     7
100
AcDbLine
 10
179.003419
 20
400.367102
 30
0.0
 11
661.953419
 21
400.367102
 31
0.0
  0
LINE
  5
320
330
225
100
AcDbEntity
  8
3_ALL_AXES
  6
Continuous
 62
     7
100
AcDbLine
 10
648.753419
 20
709.815742
 30
0.0
 11
649.944341
 21
710.249202
 31
0.0
  0
LINE
  5
321
330
225
100
AcDbEntity
  8
3_ALL_AXES
  6
Continuous
 62
     7
100
AcDbLine
 10
648.753419
 20
709.815742
 30
0.0
 11
648.753419
 21
709.315742
 31
0.0
  0
LINE
  5
322
330
225
100
AcDbEntity
  8
3_ALL_AXES
  6
Continuous
 62
     7
100
AcDbLine
 10
648.753419
 20
708.815742
 30
0.0
 11
649.944341
 21
708.382282
 31
0.0
  0
LINE
  5
323
330
225
100
AcDbEntity
  8
3_ALL_AXES
  6
Continuous
 62
     7
100
AcDbLine
 10
648.753419
 20
708.815742
 30
0.0
 11
648.753419
 21
709.315742
 31
0.0
  0
LINE
  5
324
330
225
100
AcDbEntity
  8
3_ALL_AXES
  6
Continuous
 62
     7
100
AcDbLine
 10
652.737261
 20
710.249202
 30
0.0
 11
652.737261
 21
709.315742
 31
0.0
  0
LINE
  5
325
330
225
100
AcDbEntity
  8
3_ALL_AXES
  6
Continuous
 62
     7
100
AcDbLine
 10
652.737261
 20
708.382282
 30
0.0
 11
652.737261
 21
709.315742
 31
0.0
  0
ARC
  5
326
330
225
100
AcDbEntity
  8
7_ALL_FEATURES
  6
Continuous
 62
     7
100
AcDbCircle
 10
659.703419
 20
672.415742
 30
0.0
 40
2.3
100
AcDbArc
 50
333.249469
 51
360.0
  0
LINE
  5
327
330
225
100
AcDbEntity
  8
7_ALL_FEATURES
  6
Continuous
 62
     7
100
AcDbLine
 10
662.003419
 20
672.415742
 30
0.0
 11
662.003419
 21
682.915742
 31
0.0
  0
ARC
  5
328
330
225
100
AcDbEntity
  8
7_ALL_FEATURES
  6
Continuous
 62
     7
100
AcDbCircle
 10
659.703419
 20
682.915742
 30
0.0
 40
2.3
100
AcDbArc
 50
0.0
 51
26.750531
  0
ARC
  5
329
330
225
100
AcDbEntity
  8
7_ALL_FEATURES
  6
Continuous
 62
     7
100
AcDbCircle
 10
659.703419
 20
672.415742
 30
0.0
 40
3.5
100
AcDbArc
 50
305.980931
 51
360.0
  0
LINE
  5
32A
330
225
100
AcDbEntity
  8
7_ALL_FEATURES
  6
Continuous
 62
     7
100
AcDbLine
 10
663.203419
 20
672.415742
 30
0.0
 11
663.203419
 21
682.915742
 31
0.0
  0
ARC
  5
32B
330
225
100
AcDbEntity
  8
7_ALL_FEATURES
  6
Continuous
 62
     7
100
AcDbCircle
 10
659.703419
 20
682.915742
 30
0.0
 40
3.5
100
AcDbArc
 50
0.0
 51
54.019069
  0
LINE
  5
32C
330
225
100
AcDbEntity
  8
00_CORPO
  6
Continuous
 62
     7
100
AcDbLine
 10
167.453419
 20
671.315742
 30
0.0
 11
167.453419
 21
671.342641
 31
0.0
  0
LINE
  5
32D
330
225
100
AcDbEntity
  8
00_CORPO
  6
Continuous
 62
     7
100
AcDbLine
 10
167.453419
 20
671.342641
 30
0.0
 11
167.453419
 21
671.359583
 31
0.0
  0
LINE
  5
32E
330
225
100
AcDbEntity
  8
00_CORPO
  6
Continuous
 62
     7
100
AcDbLine
 10
167.453419
 20
671.359583
 30
0.0
 11
167.453419
 21
671.414475
 31
0.0
  0
LINE
  5
32F
330
225
100
AcDbEntity
  8
00_CORPO
  6
Continuous
 62
     7
100
AcDbLine
 10
167.453419
 20
671.414475
 30
0.0
 11
167.453419
 21
671.440139
 31
0.0
  0
LINE
  5
330
330
225
100
AcDbEntity
  8
00_CORPO
  6
Continuous
 62
     7
100
AcDbLine
 10
167.453419
 20
671.440139
 30
0.0
 11
167.453419
 21
671.543918
 31
0.0
  0
LINE
  5
331
330
225
100
AcDbEntity
  8
00_CORPO
  6
Continuous
 62
     7
100
AcDbLine
 10
167.003419
 20
671.323597
 30
0.0
 11
167.453419
 21
671.315742
 31
0.0
  0
LINE
  5
332
330
225
100
AcDbEntity
  8
00_CORPO
  6
Continuous
 62
     7
100
AcDbLine
 10
167.453419
 20
671.087566
 30
0.0
 11
167.453419
 21
670.556104
 31
0.0
  0
LINE
  5
333
330
225
100
AcDbEntity
  8
00_CORPO
  6
Continuous
 62
     7
100
AcDbLine
 10
167.453419
 20
670.556104
 30
0.0
 11
167.453419
 21
670.327927
 31
0.0
  0
LINE
  5
334
330
225
100
AcDbEntity
  8
00_CORPO
  6
Continuous
 62
     7
100
AcDbLine
 10
167.453419
 20
676.620587
 30
0.0
 11
167.453419
 21
676.196512
 31
0.0
  0
LINE
  5
335
330
225
100
AcDbEntity
  8
00_CORPO
  6
Continuous
 62
     7
100
AcDbLine
 10
167.453419
 20
676.196512
 30
0.0
 11
167.453419
 21
671.543918
 31
0.0
  0
LINE
  5
336
330
225
100
AcDbEntity
  8
00_CORPO
  6
Continuous
 62
     7
100
AcDbLine
 10
167.453419
 20
676.642373
 30
0.0
 11
167.453419
 21
676.620587
 31
0.0
  0
LINE
  5
337
330
225
100
AcDbEntity
  8
00_CORPO
  6
Continuous
 62
     7
100
AcDbLine
 10
167.453419
 20
671.087566
 30
0.0
 11
167.453419
 21
671.315742
 31
0.0
  0
LINE
  5
338
330
225
100
AcDbEntity
  8
00_CORPO
  6
Continuous
 62
     7
100
AcDbLine
 10
167.207688
 20
640.320031
 30
0.0
 11
167.453419
 21
640.315742
 31
0.0
  0
LINE
  5
339
330
225
100
AcDbEntity
  8
00_CORPO
  6
Continuous
 62
     7
100
AcDbLine
 10
167.003419
 20
671.323597
 30
0.0
 11
167.453419
 21
671.315742
 31
0.0
  0
LINE
  5
33A
330
225
100
AcDbEntity
  8
00_CORPO
  6
Continuous
 62
     7
100
AcDbLine
 10
167.453419
 20
676.642756
 30
0.0
 11
167.453419
 21
677.068068
 31
0.0
  0
LINE
  5
33B
330
225
100
AcDbEntity
  8
00_CORPO
  6
Continuous
 62
     7
100
AcDbLine
 10
167.453419
 20
677.068068
 30
0.0
 11
167.453419
 21
695.865742
 31
0.0
  0
LINE
  5
33C
330
225
100
AcDbEntity
  8
00_CORPO
  6
Continuous
 62
     9
100
AcDbLine
 10
167.453419
 20
671.543918
 30
0.0
 11
167.003419
 21
671.551773
 31
0.0
  0
LINE
  5
33D
330
225
100
AcDbEntity
  8
00_CORPO
  6
Continuous
 62
     9
100
AcDbLine
 10
167.453419
 20
676.642756
 30
0.0
 11
167.003419
 21
676.642756
 31
0.0
  0
LINE
  5
33E
330
225
100
AcDbEntity
  8
00_CORPO
  6
Continuous
 62
     9
100
AcDbLine
 10
167.003419
 20
676.620891
 30
0.0
 11
167.453419
 21
676.620206
 31
0.0
  0
LINE
  5
33F
330
225
100
AcDbEntity
  8
00_CORPO
  6
Continuous
 62
     9
100
AcDbLine
 10
167.003419
 20
671.095421
 30
0.0
 11
167.453419
 21
671.087566
 31
0.0
  0
LINE
  5
340
330
225
100
AcDbEntity
  8
00_CORPO
  6
Continuous
 62
     7
100
AcDbLine
 10
658.253419
 20
671.329706
 30
0.0
 11
657.453419
 21
671.315742
 31
0.0
  0
LINE
  5
341
330
225
100
AcDbEntity
  8
00_CORPO
  6
Continuous
 62
     7
100
AcDbLine
 10
657.453419
 20
676.642373
 30
0.0
 11
657.453419
 21
677.068068
 31
0.0
  0
LINE
  5
342
330
225
100
AcDbEntity
  8
00_CORPO
  6
Continuous
 62
     7
100
AcDbLine
 10
657.453419
 20
677.068068
 30
0.0
 11
657.453419
 21
707.365742
 31
0.0
  0
LINE
  5
343
330
225
100
AcDbEntity
  8
00_CORPO
  6
Continuous
 62
     7
100
AcDbLine
 10
657.453419
 20
707.365742
 30
0.0
 11
657.453419
 21
707.615742
 31
0.0
  0
LINE
  5
344
330
225
100
AcDbEntity
  8
00_CORPO
  6
Continuous
 62
     7
100
AcDbLine
 10
657.453419
 20
707.615742
 30
0.0
 11
657.453419
 21
711.015742
 31
0.0
  0
LINE
  5
345
330
225
100
AcDbEntity
  8
00_CORPO
  6
Continuous
 62
     7
100
AcDbLine
 10
657.453419
 20
711.015742
 30
0.0
 11
657.453419
 21
711.265742
 31
0.0
  0
LINE
  5
346
330
225
100
AcDbEntity
  8
00_CORPO
  6
Continuous
 62
     7
100
AcDbLine
 10
657.453419
 20
711.265742
 30
0.0
 11
657.453419
 21
715.565742
 31
0.0
  0
LINE
  5
347
330
225
100
AcDbEntity
  8
00_CORPO
  6
Continuous
 62
     7
100
AcDbLine
 10
657.453419
 20
715.565742
 30
0.0
 11
657.453419
 21
715.815742
 31
0.0
  0
LINE
  5
348
330
225
100
AcDbEntity
  8
00_CORPO
  6
Continuous
 62
     7
100
AcDbLine
 10
657.453419
 20
676.620587
 30
0.0
 11
657.453419
 21
676.642373
 31
0.0
  0
LINE
  5
349
330
225
100
AcDbEntity
  8
00_CORPO
  6
Continuous
 62
     7
100
AcDbLine
 10
657.453419
 20
671.543918
 30
0.0
 11
657.453419
 21
676.196512
 31
0.0
  0
LINE
  5
34A
330
225
100
AcDbEntity
  8
00_CORPO
  6
Continuous
 62
     7
100
AcDbLine
 10
657.453419
 20
676.196512
 30
0.0
 11
657.453419
 21
676.620587
 31
0.0
  0
LINE
  5
34B
330
225
100
AcDbEntity
  8
00_CORPO
  6
Continuous
 62
     7
100
AcDbLine
 10
657.453419
 20
670.327927
 30
0.0
 11
657.453419
 21
670.556104
 31
0.0
  0
LINE
  5
34C
330
225
100
AcDbEntity
  8
00_CORPO
  6
Continuous
 62
     7
100
AcDbLine
 10
657.453419
 20
670.556104
 30
0.0
 11
657.453419
 21
671.087566
 31
0.0
  0
LINE
  5
34D
330
225
100
AcDbEntity
  8
00_CORPO
  6
Continuous
 62
     7
100
AcDbLine
 10
657.453419
 20
671.315742
 30
0.0
 11
658.253419
 21
671.329706
 31
0.0
  0
LINE
  5
34E
330
225
100
AcDbEntity
  8
00_CORPO
  6
Continuous
 62
     7
100
AcDbLine
 10
657.453419
 20
671.543918
 30
0.0
 11
657.453419
 21
671.440138
 31
0.0
  0
LINE
  5
34F
330
225
100
AcDbEntity
  8
00_CORPO
  6
Continuous
 62
     7
100
AcDbLine
 10
657.453419
 20
671.440138
 30
0.0
 11
657.453419
 21
671.414474
 31
0.0
  0
LINE
  5
350
330
225
100
AcDbEntity
  8
00_CORPO
  6
Continuous
 62
     7
100
AcDbLine
 10
657.453419
 20
671.414474
 30
0.0
 11
657.453419
 21
671.359582
 31
0.0
  0
LINE
  5
351
330
225
100
AcDbEntity
  8
00_CORPO
  6
Continuous
 62
     7
100
AcDbLine
 10
657.453419
 20
671.359582
 30
0.0
 11
657.453419
 21
671.342641
 31
0.0
  0
LINE
  5
352
330
225
100
AcDbEntity
  8
00_CORPO
  6
Continuous
 62
     7
100
AcDbLine
 10
657.453419
 20
671.342641
 30
0.0
 11
657.453419
 21
671.315742
 31
0.0
  0
LINE
  5
353
330
225
100
AcDbEntity
  8
00_CORPO
  6
Continuous
 62
     7
100
AcDbLine
 10
657.453419
 20
671.315742
 30
0.0
 11
657.453419
 21
671.087566
 31
0.0
  0
LINE
  5
354
330
225
100
AcDbEntity
  8
00_CORPO
  6
Continuous
 62
     7
100
AcDbLine
 10
657.453419
 20
640.315742
 30
0.0
 11
657.69915
 21
640.320031
 31
0.0
  0
LINE
  5
355
330
225
100
AcDbEntity
  8
00_CORPO
  6
Continuous
 62
     9
100
AcDbLine
 10
657.453419
 20
671.087566
 30
0.0
 11
658.253419
 21
671.10153
 31
0.0
  0
LINE
  5
356
330
225
100
AcDbEntity
  8
00_CORPO
  6
Continuous
 62
     9
100
AcDbLine
 10
658.457782
 20
715.819309
 30
0.0
 11
658.457782
 21
676.642755
 31
0.0
  0
LINE
  5
357
330
225
100
AcDbEntity
  8
00_CORPO
  6
Continuous
 62
     9
100
AcDbLine
 10
658.703419
 20
676.643138
 30
0.0
 11
658.457782
 21
676.643138
 31
0.0
  0
LINE
  5
358
330
225
100
AcDbEntity
  8
00_CORPO
  6
Continuous
 62
     9
100
AcDbLine
 10
658.457782
 20
676.642755
 30
0.0
 11
658.253419
 21
676.642755
 31
0.0
  0
LINE
  5
359
330
225
100
AcDbEntity
  8
00_CORPO
  6
Continuous
 62
     9
100
AcDbLine
 10
658.253419
 20
676.642755
 30
0.0
 11
657.453419
 21
676.642755
 31
0.0
  0
LINE
  5
35A
330
225
100
AcDbEntity
  8
00_CORPO
  6
Continuous
 62
     9
100
AcDbLine
 10
657.453419
 20
676.620206
 30
0.0
 11
658.253469
 21
676.621423
 31
0.0
  0
LINE
  5
35B
330
225
100
AcDbEntity
  8
00_CORPO
  6
Continuous
 62
     9
100
AcDbLine
 10
658.253469
 20
676.621423
 30
0.0
 11
658.457782
 21
676.621734
 31
0.0
  0
ARC
  5
35C
330
225
100
AcDbEntity
  8
00_CORPO
  6
Continuous
 62
     9
100
AcDbCircle
 10
652.175289
 20
676.634673
 30
0.0
 40
6.2824988148
100
AcDbArc
 50
359.879364
 51
0.077202
  0
SPLINE
  5
35D
330
225
100
AcDbEntity
  8
00_CORPO
  6
Continuous
 62
     9
100
AcDbSpline
 70
     0
 71
     3
 72
    13
 73
     9
 74
     0
 42
0.000000001
 43
0.0000001
 40
0.0
 40
0.0
 40
0.0
 40
0.0
 40
0.3797048505
 40
0.7007617477
 40
0.8239896781
 40
0.9163170759
 40
0.9746071815
 40
1.0
 40
1.0
 40
1.0
 40
1.0
 10
658.4577821241
 20
676.6213523974
 30
0.0
 10
658.489228553
 20
676.6214002372
 30
0.0
 10
658.547174688
 20
676.6224011163
 30
0.0
 10
658.6156337159
 20
676.6261157527
 30
0.0
 10
658.6594345526
 20
676.6305201664
 30
0.0
 10
658.6826218104
 20
676.6342305975
 30
0.0
 10
658.695349086
 20
676.6372246102
 30
0.0
 10
658.7034190224
 20
676.6410350275
 30
0.0
 10
658.7034190224
 20
676.6431380145
 30
0.0
  0
LINE
  5
35E
330
225
100
AcDbEntity
  8
00_CORPO
  6
Continuous
 62
     9
100
AcDbLine
 10
658.457782
 20
676.621734
 30
0.0
 11
658.457782
 21
671.56145
 31
0.0
  0
LINE
  5
35F
330
225
100
AcDbEntity
  8
00_CORPO
  6
Continuous
 62
     9
100
AcDbLine
 10
658.253419
 20
671.557882
 30
0.0
 11
657.453419
 21
671.543918
 31
0.0
  0
LINE
  5
360
330
225
100
AcDbEntity
  8
3_ALL_AXES
  6
Continuous
 62
     7
100
AcDbLine
 10
200.253419
 20
632.315742
 30
0.0
 11
200.253419
 21
626.565742
 31
0.0
  0
LINE
  5
361
330
225
100
AcDbEntity
  8
3_ALL_AXES
  6
Continuous
 62
     7
100
AcDbLine
 10
184.653419
 20
632.315742
 30
0.0
 11
184.653419
 21
626.565742
 31
0.0
  0
LINE
  5
362
330
225
100
AcDbEntity
  8
7_ALL_FEATURES
  6
Continuous
 62
     7
100
AcDbLine
 10
183.453419
 20
614.865742
 30
0.0
 11
183.453419
 21
615.565742
 31
0.0
  0
ARC
  5
363
330
225
100
AcDbEntity
  8
7_ALL_FEATURES
  6
Continuous
 62
     7
100
AcDbCircle
 10
186.953419
 20
614.865742
 30
0.0
 40
3.5
100
AcDbArc
 50
257.879831
 51
270.0
  0
ARC
  5
364
330
225
100
AcDbEntity
  8
7_ALL_FEATURES
  6
Continuous
 62
     7
100
AcDbCircle
 10
186.953419
 20
614.865742
 30
0.0
 40
3.5
100
AcDbArc
 50
253.932368
 51
257.879831
  0
ARC
  5
365
330
225
100
AcDbEntity
  8
7_ALL_FEATURES
  6
Continuous
 62
     7
100
AcDbCircle
 10
186.953419
 20
614.865742
 30
0.0
 40
3.5
100
AcDbArc
 50
245.739259
 51
253.932368
  0
ARC
  5
366
330
225
100
AcDbEntity
  8
7_ALL_FEATURES
  6
Continuous
 62
     7
100
AcDbCircle
 10
186.953419
 20
614.865742
 30
0.0
 40
3.5
100
AcDbArc
 50
241.077758
 51
245.739259
  0
ARC
  5
367
330
225
100
AcDbEntity
  8
7_ALL_FEATURES
  6
Continuous
 62
     7
100
AcDbCircle
 10
186.953419
 20
614.865742
 30
0.0
 40
3.5
100
AcDbArc
 50
233.562981
 51
241.077758
  0
ARC
  5
368
330
225
100
AcDbEntity
  8
7_ALL_FEATURES
  6
Continuous
 62
     7
100
AcDbCircle
 10
186.953419
 20
614.865742
 30
0.0
 40
3.5
100
AcDbArc
 50
228.68143
 51
233.562981
  0
ARC
  5
369
330
225
100
AcDbEntity
  8
7_ALL_FEATURES
  6
Continuous
 62
     7
100
AcDbCircle
 10
186.953419
 20
614.865742
 30
0.0
 40
3.5
100
AcDbArc
 50
221.31857
 51
228.68143
  0
ARC
  5
36A
330
225
100
AcDbEntity
  8
7_ALL_FEATURES
  6
Continuous
 62
     7
100
AcDbCircle
 10
186.953419
 20
614.865742
 30
0.0
 40
3.5
100
AcDbArc
 50
216.437019
 51
221.31857
  0
ARC
  5
36B
330
225
100
AcDbEntity
  8
7_ALL_FEATURES
  6
Continuous
 62
     7
100
AcDbCircle
 10
186.953419
 20
614.865742
 30
0.0
 40
3.5
100
AcDbArc
 50
208.922242
 51
216.437019
  0
ARC
  5
36C
330
225
100
AcDbEntity
  8
7_ALL_FEATURES
  6
Continuous
 62
     7
100
AcDbCircle
 10
186.953419
 20
614.865742
 30
0.0
 40
3.5
100
AcDbArc
 50
204.260741
 51
208.922242
  0
ARC
  5
36D
330
225
100
AcDbEntity
  8
7_ALL_FEATURES
  6
Continuous
 62
     7
100
AcDbCircle
 10
186.953419
 20
614.865742
 30
0.0
 40
3.5
100
AcDbArc
 50
196.067632
 51
204.260741
  0
ARC
  5
36E
330
225
100
AcDbEntity
  8
7_ALL_FEATURES
  6
Continuous
 62
     7
100
AcDbCircle
 10
186.953419
 20
614.865742
 30
0.0
 40
3.5
100
AcDbArc
 50
192.120169
 51
196.067632
  0
ARC
  5
36F
330
225
100
AcDbEntity
  8
7_ALL_FEATURES
  6
Continuous
 62
     7
100
AcDbCircle
 10
186.953419
 20
614.865742
 30
0.0
 40
3.5
100
AcDbArc
 50
180.0
 51
192.120169
  0
LINE
  5
370
330
225
100
AcDbEntity
  8
7_ALL_FEATURES
  6
Continuous
 62
     7
100
AcDbLine
 10
186.953419
 20
611.365742
 30
0.0
 11
187.553419
 21
611.365742
 31
0.0
  0
LINE
  5
371
330
225
100
AcDbEntity
  8
7_ALL_FEATURES
  6
Continuous
 62
     7
100
AcDbLine
 10
187.553419
 20
611.365742
 30
0.0
 11
197.353419
 21
611.365742
 31
0.0
  0
LINE
  5
372
330
225
100
AcDbEntity
  8
7_ALL_FEATURES
  6
Continuous
 62
     7
100
AcDbLine
 10
197.353419
 20
611.365742
 30
0.0
 11
197.953419
 21
611.365742
 31
0.0
  0
LINE
  5
373
330
225
100
AcDbEntity
  8
7_ALL_FEATURES
  6
Continuous
 62
     7
100
AcDbLine
 10
201.453419
 20
614.865742
 30
0.0
 11
201.453419
 21
615.565742
 31
0.0
  0
ARC
  5
374
330
225
100
AcDbEntity
  8
7_ALL_FEATURES
  6
Continuous
 62
     7
100
AcDbCircle
 10
197.953419
 20
614.865742
 30
0.0
 40
3.5
100
AcDbArc
 50
270.0
 51
360.0
  0
ARC
  5
375
330
225
100
AcDbEntity
  8
7_ALL_FEATURES
  6
Continuous
 62
     7
100
AcDbCircle
 10
186.953419
 20
614.865742
 30
0.0
 40
3.5
100
AcDbArc
 50
257.889402
 51
270.0
  0
ARC
  5
376
330
225
100
AcDbEntity
  8
7_ALL_FEATURES
  6
Continuous
 62
     7
100
AcDbCircle
 10
186.953419
 20
614.865742
 30
0.0
 40
3.5
100
AcDbArc
 50
253.924774
 51
257.889402
  0
ARC
  5
377
330
225
100
AcDbEntity
  8
7_ALL_FEATURES
  6
Continuous
 62
     7
100
AcDbCircle
 10
186.953419
 20
614.865742
 30
0.0
 40
3.5
100
AcDbArc
 50
245.75425
 51
253.924774
  0
ARC
  5
378
330
225
100
AcDbEntity
  8
7_ALL_FEATURES
  6
Continuous
 62
     7
100
AcDbCircle
 10
186.953419
 20
614.865742
 30
0.0
 40
3.5
100
AcDbArc
 50
241.065097
 51
245.75425
  0
ARC
  5
379
330
225
100
AcDbEntity
  8
7_ALL_FEATURES
  6
Continuous
 62
     7
100
AcDbCircle
 10
186.953419
 20
614.865742
 30
0.0
 40
3.5
100
AcDbArc
 50
233.57988
 51
241.065097
  0
ARC
  5
37A
330
225
100
AcDbEntity
  8
7_ALL_FEATURES
  6
Continuous
 62
     7
100
AcDbCircle
 10
186.953419
 20
614.865742
 30
0.0
 40
3.5
100
AcDbArc
 50
228.665506
 51
233.57988
  0
ARC
  5
37B
330
225
100
AcDbEntity
  8
7_ALL_FEATURES
  6
Continuous
 62
     7
100
AcDbCircle
 10
186.953419
 20
614.865742
 30
0.0
 40
3.5
100
AcDbArc
 50
221.334494
 51
228.665506
  0
ARC
  5
37C
330
225
100
AcDbEntity
  8
7_ALL_FEATURES
  6
Continuous
 62
     7
100
AcDbCircle
 10
186.953419
 20
614.865742
 30
0.0
 40
3.5
100
AcDbArc
 50
216.42012
 51
221.334494
  0
ARC
  5
37D
330
225
100
AcDbEntity
  8
7_ALL_FEATURES
  6
Continuous
 62
     7
100
AcDbCircle
 10
186.953419
 20
614.865742
 30
0.0
 40
3.5
100
AcDbArc
 50
208.934903
 51
216.42012
  0
ARC
  5
37E
330
225
100
AcDbEntity
  8
7_ALL_FEATURES
  6
Continuous
 62
     7
100
AcDbCircle
 10
186.953419
 20
614.865742
 30
0.0
 40
3.5
100
AcDbArc
 50
204.24575
 51
208.934903
  0
ARC
  5
37F
330
225
100
AcDbEntity
  8
7_ALL_FEATURES
  6
Continuous
 62
     7
100
AcDbCircle
 10
186.953419
 20
614.865742
 30
0.0
 40
3.5
100
AcDbArc
 50
196.075226
 51
204.24575
  0
ARC
  5
380
330
225
100
AcDbEntity
  8
7_ALL_FEATURES
  6
Continuous
 62
     7
100
AcDbCircle
 10
186.953419
 20
614.865742
 30
0.0
 40
3.5
100
AcDbArc
 50
192.110598
 51
196.075226
  0
ARC
  5
381
330
225
100
AcDbEntity
  8
7_ALL_FEATURES
  6
Continuous
 62
     7
100
AcDbCircle
 10
186.953419
 20
614.865742
 30
0.0
 40
3.5
100
AcDbArc
 50
180.0
 51
192.110598
  0
ARC
  5
382
330
225
100
AcDbEntity
  8
7_ALL_FEATURES
  6
Continuous
 62
     7
100
AcDbCircle
 10
197.953419
 20
614.865742
 30
0.0
 40
3.5
100
AcDbArc
 50
270.0
 51
360.0
  0
LINE
  5
383
330
225
100
AcDbEntity
  8
7_ALL_FEATURES
  6
Continuous
 62
     7
100
AcDbLine
 10
192.453419
 20
632.315742
 30
0.0
 11
201.953419
 21
632.315742
 31
0.0
  0
LINE
  5
384
330
225
100
AcDbEntity
  8
7_ALL_FEATURES
  6
Continuous
 62
     7
100
AcDbLine
 10
182.953419
 20
632.315742
 30
0.0
 11
192.453419
 21
632.315742
 31
0.0
  0
LINE
  5
385
330
225
100
AcDbEntity
  8
7_ALL_FEATURES
  6
Continuous
 62
     7
100
AcDbLine
 10
182.953419
 20
640.315742
 30
0.0
 11
182.953419
 21
632.315742
 31
0.0
  0
LINE
  5
386
330
225
100
AcDbEntity
  8
7_ALL_FEATURES
  6
Continuous
 62
     7
100
AcDbLine
 10
201.953419
 20
640.315742
 30
0.0
 11
201.953419
 21
632.315742
 31
0.0
  0
LINE
  5
387
330
225
100
AcDbEntity
  8
7_ALL_FEATURES
  6
Continuous
 62
     7
100
AcDbLine
 10
203.423074
 20
626.565742
 30
0.0
 11
200.253419
 21
626.565742
 31
0.0
  0
LINE
  5
388
330
225
100
AcDbEntity
  8
7_ALL_FEATURES
  6
Continuous
 62
     7
100
AcDbLine
 10
200.253419
 20
626.565742
 30
0.0
 11
197.938247
 21
626.565742
 31
0.0
  0
LINE
  5
389
330
225
100
AcDbEntity
  8
7_ALL_FEATURES
  6
Continuous
 62
     7
100
AcDbLine
 10
197.938247
 20
626.565742
 30
0.0
 11
186.968591
 21
626.565742
 31
0.0
  0
LINE
  5
38A
330
225
100
AcDbEntity
  8
7_ALL_FEATURES
  6
Continuous
 62
     7
100
AcDbLine
 10
186.968591
 20
626.565742
 30
0.0
 11
184.653419
 21
626.565742
 31
0.0
  0
LINE
  5
38B
330
225
100
AcDbEntity
  8
7_ALL_FEATURES
  6
Continuous
 62
     7
100
AcDbLine
 10
184.653419
 20
626.565742
 30
0.0
 11
181.483764
 21
626.565742
 31
0.0
  0
LINE
  5
38C
330
225
100
AcDbEntity
  8
7_ALL_FEATURES
  6
Continuous
 62
     7
100
AcDbLine
 10
186.968591
 20
615.565742
 30
0.0
 11
183.453419
 21
615.565742
 31
0.0
  0
LINE
  5
38D
330
225
100
AcDbEntity
  8
7_ALL_FEATURES
  6
Continuous
 62
     7
100
AcDbLine
 10
183.453419
 20
615.565742
 30
0.0
 11
181.483764
 21
615.565742
 31
0.0
  0
LINE
  5
38E
330
225
100
AcDbEntity
  8
7_ALL_FEATURES
  6
Continuous
 62
     7
100
AcDbLine
 10
197.938247
 20
615.565742
 30
0.0
 11
186.968591
 21
615.565742
 31
0.0
  0
LINE
  5
38F
330
225
100
AcDbEntity
  8
7_ALL_FEATURES
  6
Continuous
 62
     7
100
AcDbLine
 10
203.423074
 20
615.565742
 30
0.0
 11
201.453419
 21
615.565742
 31
0.0
  0
LINE
  5
390
330
225
100
AcDbEntity
  8
7_ALL_FEATURES
  6
Continuous
 62
     7
100
AcDbLine
 10
201.453419
 20
615.565742
 30
0.0
 11
197.938247
 21
615.565742
 31
0.0
  0
LINE
  5
391
330
225
100
AcDbEntity
  8
7_ALL_FEATURES
  6
Continuous
 62
     7
100
AcDbLine
 10
183.453419
 20
614.865742
 30
0.0
 11
183.453419
 21
615.565742
 31
0.0
  0
LINE
  5
392
330
225
100
AcDbEntity
  8
7_ALL_FEATURES
  6
Continuous
 62
     7
100
AcDbLine
 10
203.423074
 20
626.565742
 30
0.0
 11
203.423074
 21
615.565742
 31
0.0
  0
LINE
  5
393
330
225
100
AcDbEntity
  8
7_ALL_FEATURES
  6
Continuous
 62
     7
100
AcDbLine
 10
181.483764
 20
626.565742
 30
0.0
 11
181.483764
 21
615.565742
 31
0.0
  0
LINE
  5
394
330
225
100
AcDbEntity
  8
7_ALL_FEATURES
  6
Continuous
 62
     7
100
AcDbLine
 10
201.453419
 20
614.865742
 30
0.0
 11
201.453419
 21
615.565742
 31
0.0
  0
LINE
  5
395
330
225
100
AcDbEntity
  8
7_ALL_FEATURES
  6
Continuous
 62
     7
100
AcDbLine
 10
197.953419
 20
611.365742
 30
0.0
 11
197.353419
 21
611.365742
 31
0.0
  0
LINE
  5
396
330
225
100
AcDbEntity
  8
7_ALL_FEATURES
  6
Continuous
 62
     7
100
AcDbLine
 10
197.353419
 20
611.365742
 30
0.0
 11
187.553419
 21
611.365742
 31
0.0
  0
LINE
  5
397
330
225
100
AcDbEntity
  8
7_ALL_FEATURES
  6
Continuous
 62
     7
100
AcDbLine
 10
187.553419
 20
611.365742
 30
0.0
 11
186.953419
 21
611.365742
 31
0.0
  0
LINE
  5
398
330
225
100
AcDbEntity
  8
7_ALL_FEATURES
  6
Continuous
 62
     7
100
AcDbLine
 10
192.453419
 20
640.315742
 30
0.0
 11
192.453419
 21
632.315742
 31
0.0
  0
LINE
  5
399
330
225
100
AcDbEntity
  8
7_ALL_FEATURES
  6
Continuous
 62
     9
100
AcDbLine
 10
201.453419
 20
614.865742
 30
0.0
 11
183.453419
 21
614.865742
 31
0.0
  0
LINE
  5
39A
330
225
100
AcDbEntity
  8
7_ALL_FEATURES
  6
Continuous
 62
     7
100
AcDbLine
 10
197.938247
 20
626.565742
 30
0.0
 11
197.938247
 21
615.565742
 31
0.0
  0
LINE
  5
39B
330
225
100
AcDbEntity
  8
7_ALL_FEATURES
  6
Continuous
 62
     7
100
AcDbLine
 10
186.968591
 20
626.565742
 30
0.0
 11
186.968591
 21
615.565742
 31
0.0
  0
LINE
  5
39C
330
225
100
AcDbEntity
  8
7_ALL_FEATURES
  6
Continuous
 62
     7
100
AcDbLine
 10
657.699056
 20
715.825419
 30
0.0
 11
658.253419
 21
715.815742
 31
0.0
  0
LINE
  5
39D
330
225
100
AcDbEntity
  8
7_ALL_FEATURES
  6
Continuous
 62
     7
100
AcDbLine
 10
658.253419
 20
719.015742
 30
0.0
 11
657.699056
 21
719.006066
 31
0.0
  0
SPLINE
  5
39E
330
225
100
AcDbEntity
  8
7_ALL_FEATURES
  6
Continuous
 62
     7
100
AcDbSpline
 70
     0
 71
     3
 72
     9
 73
     5
 74
     0
 42
0.000000001
 43
0.0000001
 40
0.0
 40
0.0
 40
0.0
 40
0.0
 40
0.5010547244
 40
1.0
 40
1.0
 40
1.0
 40
1.0
 10
658.2534190224
 20
715.7635859708
 30
0.0
 10
658.2541624118
 20
715.7736536733
 30
0.0
 10
658.2479352464
 20
715.7952671868
 30
0.0
 10
658.2291032729
 20
715.806100423
 30
0.0
 10
658.2195075622
 20
715.8090966389
 30
0.0
  0
LINE
  5
39F
330
225
100
AcDbEntity
  8
7_ALL_FEATURES
  6
Continuous
 62
     7
100
AcDbLine
 10
661.262145
 20
715.86826
 30
0.0
 11
658.253419
 21
715.815742
 31
0.0
  0
LINE
  5
3A0
330
225
100
AcDbEntity
  8
7_ALL_FEATURES
  6
Continuous
 62
     7
100
AcDbLine
 10
658.253419
 20
715.669327
 30
0.0
 11
658.253419
 21
715.315818
 31
0.0
  0
LINE
  5
3A1
330
225
100
AcDbEntity
  8
7_ALL_FEATURES
  6
Continuous
 62
     7
100
AcDbLine
 10
658.253419
 20
715.763586
 30
0.0
 11
658.253419
 21
715.736966
 31
0.0
  0
LINE
  5
3A2
330
225
100
AcDbEntity
  8
7_ALL_FEATURES
  6
Continuous
 62
     7
100
AcDbLine
 10
658.253419
 20
715.736966
 30
0.0
 11
658.253419
 21
715.669327
 31
0.0
  0
LINE
  5
3A3
330
225
100
AcDbEntity
  8
7_ALL_FEATURES
  6
Continuous
 62
     7
100
AcDbLine
 10
658.253419
 20
715.315818
 30
0.0
 11
658.253419
 21
676.654434
 31
0.0
  0
LINE
  5
3A4
330
225
100
AcDbEntity
  8
7_ALL_FEATURES
  6
Continuous
 62
     7
100
AcDbLine
 10
661.262145
 20
640.36826
 30
0.0
 11
658.253419
 21
640.315742
 31
0.0
  0
LINE
  5
3A5
330
225
100
AcDbEntity
  8
7_ALL_FEATURES
  6
Continuous
 62
     7
100
AcDbLine
 10
658.253419
 20
719.015742
 30
0.0
 11
661.262145
 21
718.963225
 31
0.0
  0
ARC
  5
3A6
330
225
100
AcDbEntity
  8
7_ALL_FEATURES
  6
Continuous
 62
     7
100
AcDbCircle
 10
661.253419
 20
716.368183
 30
0.0
 40
0.5
100
AcDbArc
 50
271.0
 51
360.0
  0
LINE
  5
3A7
330
225
100
AcDbEntity
  8
7_ALL_FEATURES
  6
Continuous
 62
     7
100
AcDbLine
 10
661.753419
 20
716.368183
 30
0.0
 11
661.753419
 21
718.463301
 31
0.0
  0
ARC
  5
3A8
330
225
100
AcDbEntity
  8
7_ALL_FEATURES
  6
Continuous
 62
     7
100
AcDbCircle
 10
661.253419
 20
718.463301
 30
0.0
 40
0.5
100
AcDbArc
 50
0.0
 51
89.0
  0
ARC
  5
3A9
330
225
100
AcDbEntity
  8
7_ALL_FEATURES
  6
Continuous
 62
     7
100
AcDbCircle
 10
661.253419
 20
716.368183
 30
0.0
 40
0.5
100
AcDbArc
 50
337.425208
 51
360.0
  0
ARC
  5
3AA
330
225
100
AcDbEntity
  8
7_ALL_FEATURES
  6
Continuous
 62
     7
100
AcDbCircle
 10
661.253419
 20
640.868183
 30
0.0
 40
0.5
100
AcDbArc
 50
271.0
 51
360.0
  0
LINE
  5
3AB
330
225
100
AcDbEntity
  8
7_ALL_FEATURES
  6
Continuous
 62
     7
100
AcDbLine
 10
661.753419
 20
676.655579
 30
0.0
 11
661.753419
 21
715.368336
 31
0.0
  0
ARC
  5
3AC
330
225
100
AcDbEntity
  8
7_ALL_FEATURES
  6
Continuous
 62
     7
100
AcDbCircle
 10
661.253419
 20
716.368183
 30
0.0
 40
0.5
100
AcDbArc
 50
337.885641
 51
360.0
  0
ARC
  5
3AD
330
225
100
AcDbEntity
  8
7_ALL_FEATURES
  6
Continuous
 62
     7
100
AcDbCircle
 10
661.253419
 20
716.368183
 30
0.0
 40
0.5
100
AcDbArc
 50
332.365962
 51
337.885641
  0
ARC
  5
3AE
330
225
100
AcDbEntity
  8
7_ALL_FEATURES
  6
Continuous
 62
     7
100
AcDbCircle
 10
661.253419
 20
716.368183
 30
0.0
 40
0.5
100
AcDbArc
 50
315.920584
 51
332.365962
  0
ARC
  5
3AF
330
225
100
AcDbEntity
  8
7_ALL_FEATURES
  6
Continuous
 62
     7
100
AcDbCircle
 10
661.253419
 20
716.368183
 30
0.0
 40
0.5
100
AcDbArc
 50
303.373015
 51
315.920584
  0
ARC
  5
3B0
330
225
100
AcDbEntity
  8
7_ALL_FEATURES
  6
Continuous
 62
     7
100
AcDbCircle
 10
661.253419
 20
716.368183
 30
0.0
 40
0.5
100
AcDbArc
 50
293.574792
 51
303.373015
  0
ARC
  5
3B1
330
225
100
AcDbEntity
  8
7_ALL_FEATURES
  6
Continuous
 62
     7
100
AcDbCircle
 10
661.253419
 20
716.368183
 30
0.0
 40
0.5
100
AcDbArc
 50
271.0
 51
293.574792
  0
LINE
  5
3B2
330
225
100
AcDbEntity
  8
7_ALL_FEATURES
  6
Continuous
 62
     7
100
AcDbLine
 10
661.753419
 20
716.075353
 30
0.0
 11
661.753419
 21
716.368183
 31
0.0
  0
LINE
  5
3B3
330
225
100
AcDbEntity
  8
7_ALL_FEATURES
  6
Continuous
 62
     7
100
AcDbLine
 10
661.753419
 20
715.368336
 30
0.0
 11
661.753419
 21
716.075353
 31
0.0
  0
LINE
  5
3B4
330
225
100
AcDbEntity
  8
7_ALL_FEATURES
  6
Continuous
 62
     7
100
AcDbLine
 10
661.753419
 20
676.655579
 30
0.0
 11
661.753419
 21
640.868183
 31
0.0
  0
LINE
  5
3B5
330
225
100
AcDbEntity
  8
7_ALL_FEATURES
  6
Continuous
 62
     7
100
AcDbLine
 10
658.253419
 20
676.63148
 30
0.0
 11
658.253419
 21
676.653286
 31
0.0
  0
LINE
  5
3B6
330
225
100
AcDbEntity
  8
7_ALL_FEATURES
  6
Continuous
 62
     7
100
AcDbLine
 10
658.253419
 20
676.609715
 30
0.0
 11
658.253419
 21
676.63148
 31
0.0
  0
LINE
  5
3B7
330
225
100
AcDbEntity
  8
7_ALL_FEATURES
  6
Continuous
 62
     7
100
AcDbLine
 10
658.253419
 20
670.272247
 30
0.0
 11
658.253419
 21
670.815742
 31
0.0
  0
LINE
  5
3B8
330
225
100
AcDbEntity
  8
7_ALL_FEATURES
  6
Continuous
 62
     7
100
AcDbLine
 10
658.253419
 20
670.815742
 30
0.0
 11
658.253419
 21
671.329706
 31
0.0
  0
LINE
  5
3B9
330
225
100
AcDbEntity
  8
7_ALL_FEATURES
  6
Continuous
 62
     7
100
AcDbLine
 10
658.253419
 20
671.329706
 30
0.0
 11
658.253419
 21
673.615742
 31
0.0
  0
LINE
  5
3BA
330
225
100
AcDbEntity
  8
7_ALL_FEATURES
  6
Continuous
 62
     7
100
AcDbLine
 10
658.253419
 20
673.615742
 30
0.0
 11
658.253419
 21
674.015742
 31
0.0
  0
LINE
  5
3BB
330
225
100
AcDbEntity
  8
7_ALL_FEATURES
  6
Continuous
 62
     7
100
AcDbLine
 10
658.253419
 20
674.015742
 30
0.0
 11
658.253419
 21
676.609715
 31
0.0
  0
LINE
  5
3BC
330
225
100
AcDbEntity
  8
7_ALL_FEATURES
  6
Continuous
 62
     7
100
AcDbLine
 10
657.453419
 20
670.327927
 30
0.0
 11
657.453419
 21
670.284356
 31
0.0
  0
LINE
  5
3BD
330
225
100
AcDbEntity
  8
7_ALL_FEATURES
  6
Continuous
 62
     7
100
AcDbLine
 10
657.699056
 20
640.325419
 30
0.0
 11
658.253419
 21
640.315742
 31
0.0
  0
LINE
  5
3BE
330
225
100
AcDbEntity
  8
7_ALL_FEATURES
  6
Continuous
 62
     7
100
AcDbLine
 10
657.699056
 20
670.806066
 30
0.0
 11
658.253419
 21
670.815742
 31
0.0
  0
LINE
  5
3BF
330
225
100
AcDbEntity
  8
7_ALL_FEATURES
  6
Continuous
 62
     7
100
AcDbLine
 10
661.753419
 20
676.655579
 30
0.0
 11
661.753419
 21
640.868183
 31
0.0
  0
LINE
  5
3C0
330
225
100
AcDbEntity
  8
7_ALL_FEATURES
  6
Continuous
 62
     7
100
AcDbLine
 10
658.253419
 20
719.015742
 30
0.0
 11
661.262145
 21
718.963225
 31
0.0
  0
LINE
  5
3C1
330
225
100
AcDbEntity
  8
7_ALL_FEATURES
  6
Continuous
 62
     7
100
AcDbLine
 10
658.253419
 20
640.315742
 30
0.0
 11
661.262145
 21
640.36826
 31
0.0
  0
LINE
  5
3C2
330
225
100
AcDbEntity
  8
7_ALL_FEATURES
  6
Continuous
 62
     7
100
AcDbLine
 10
657.699056
 20
719.006066
 30
0.0
 11
658.253419
 21
719.015742
 31
0.0
  0
ARC
  5
3C3
330
225
100
AcDbEntity
  8
7_ALL_FEATURES
  6
Continuous
 62
     7
100
AcDbCircle
 10
657.703419
 20
716.07538
 30
0.0
 40
0.25
100
AcDbArc
 50
247.327688
 51
269.0
  0
ARC
  5
3C4
330
225
100
AcDbEntity
  8
7_ALL_FEATURES
  6
Continuous
 62
     7
100
AcDbCircle
 10
657.703419
 20
716.07538
 30
0.0
 40
0.25
100
AcDbArc
 50
239.308172
 51
247.327688
  0
ARC
  5
3C5
330
225
100
AcDbEntity
  8
7_ALL_FEATURES
  6
Continuous
 62
     7
100
AcDbCircle
 10
657.703419
 20
716.07538
 30
0.0
 40
0.25
100
AcDbArc
 50
224.998595
 51
239.308172
  0
ARC
  5
3C6
330
225
100
AcDbEntity
  8
7_ALL_FEATURES
  6
Continuous
 62
     7
100
AcDbCircle
 10
657.703419
 20
716.07538
 30
0.0
 40
0.25
100
AcDbArc
 50
210.866913
 51
224.998595
  0
ARC
  5
3C7
330
225
100
AcDbEntity
  8
7_ALL_FEATURES
  6
Continuous
 62
     7
100
AcDbCircle
 10
657.703419
 20
716.07538
 30
0.0
 40
0.25
100
AcDbArc
 50
203.193845
 51
210.866913
  0
LINE
  5
3C8
330
225
100
AcDbEntity
  8
7_ALL_FEATURES
  6
Continuous
 62
     7
100
AcDbLine
 10
658.253419
 20
670.815742
 30
0.0
 11
657.699056
 21
670.806066
 31
0.0
  0
ARC
  5
3C9
330
225
100
AcDbEntity
  8
7_ALL_FEATURES
  6
Continuous
 62
     7
100
AcDbCircle
 10
657.703419
 20
716.07538
 30
0.0
 40
0.25
100
AcDbArc
 50
246.815527
 51
269.0
  0
ARC
  5
3CA
330
225
100
AcDbEntity
  8
7_ALL_FEATURES
  6
Continuous
 62
     7
100
AcDbCircle
 10
657.703419
 20
718.756104
 30
0.0
 40
0.25
100
AcDbArc
 50
91.0
 51
156.806155
  0
LINE
  5
3CB
330
225
100
AcDbEntity
  8
7_ALL_FEATURES
  6
Continuous
 62
     7
100
AcDbLine
 10
657.699056
 20
640.325419
 30
0.0
 11
658.253419
 21
640.315742
 31
0.0
  0
LINE
  5
3CC
330
225
100
AcDbEntity
  8
7_ALL_FEATURES
  6
Continuous
 62
     7
100
AcDbLine
 10
657.453419
 20
670.556104
 30
0.0
 11
657.453419
 21
670.284356
 31
0.0
  0
ARC
  5
3CD
330
225
100
AcDbEntity
  8
7_ALL_FEATURES
  6
Continuous
 62
     7
100
AcDbCircle
 10
657.703419
 20
670.556104
 30
0.0
 40
0.25
100
AcDbArc
 50
91.0
 51
112.672312
  0
ARC
  5
3CE
330
225
100
AcDbEntity
  8
7_ALL_FEATURES
  6
Continuous
 62
     7
100
AcDbCircle
 10
657.703419
 20
670.556104
 30
0.0
 40
0.25
100
AcDbArc
 50
112.672312
 51
120.691828
  0
ARC
  5
3CF
330
225
100
AcDbEntity
  8
7_ALL_FEATURES
  6
Continuous
 62
     7
100
AcDbCircle
 10
657.703419
 20
670.556104
 30
0.0
 40
0.25
100
AcDbArc
 50
120.691828
 51
135.001405
  0
ARC
  5
3D0
330
225
100
AcDbEntity
  8
7_ALL_FEATURES
  6
Continuous
 62
     7
100
AcDbCircle
 10
657.703419
 20
670.556104
 30
0.0
 40
0.25
100
AcDbArc
 50
135.001405
 51
149.133087
  0
ARC
  5
3D1
330
225
100
AcDbEntity
  8
7_ALL_FEATURES
  6
Continuous
 62
     7
100
AcDbCircle
 10
657.703419
 20
670.556104
 30
0.0
 40
0.25
100
AcDbArc
 50
149.133087
 51
157.315477
  0
ARC
  5
3D2
330
225
100
AcDbEntity
  8
7_ALL_FEATURES
  6
Continuous
 62
     7
100
AcDbCircle
 10
657.703419
 20
670.556104
 30
0.0
 40
0.25
100
AcDbArc
 50
157.315477
 51
180.0
  0
LINE
  5
3D3
330
225
100
AcDbEntity
  8
7_ALL_FEATURES
  6
Continuous
 62
     7
100
AcDbLine
 10
657.453419
 20
643.815742
 30
0.0
 11
657.453419
 21
651.243954
 31
0.0
  0
LINE
  5
3D4
330
225
100
AcDbEntity
  8
7_ALL_FEATURES
  6
Continuous
 62
     7
100
AcDbLine
 10
657.453419
 20
651.243954
 30
0.0
 11
657.453419
 21
670.284356
 31
0.0
  0
ARC
  5
3D5
330
225
100
AcDbEntity
  8
7_ALL_FEATURES
  6
Continuous
 62
     7
100
AcDbCircle
 10
657.703419
 20
670.556104
 30
0.0
 40
0.25
100
AcDbArc
 50
157.292974
 51
180.0
  0
ARC
  5
3D6
330
225
100
AcDbEntity
  8
7_ALL_FEATURES
  6
Continuous
 62
     7
100
AcDbCircle
 10
657.703419
 20
670.556104
 30
0.0
 40
0.25
100
AcDbArc
 50
149.234447
 51
157.292974
  0
ARC
  5
3D7
330
225
100
AcDbEntity
  8
7_ALL_FEATURES
  6
Continuous
 62
     7
100
AcDbCircle
 10
657.703419
 20
670.556104
 30
0.0
 40
0.25
100
AcDbArc
 50
134.987865
 51
149.234447
  0
ARC
  5
3D8
330
225
100
AcDbEntity
  8
7_ALL_FEATURES
  6
Continuous
 62
     7
100
AcDbCircle
 10
657.703419
 20
670.556104
 30
0.0
 40
0.25
100
AcDbArc
 50
120.791879
 51
134.987865
  0
ARC
  5
3D9
330
225
100
AcDbEntity
  8
7_ALL_FEATURES
  6
Continuous
 62
     7
100
AcDbCircle
 10
657.703419
 20
670.556104
 30
0.0
 40
0.25
100
AcDbArc
 50
112.651336
 51
120.791879
  0
ARC
  5
3DA
330
225
100
AcDbEntity
  8
7_ALL_FEATURES
  6
Continuous
 62
     7
100
AcDbCircle
 10
657.703419
 20
670.556104
 30
0.0
 40
0.25
100
AcDbArc
 50
91.0
 51
112.651336
  0
LINE
  5
3DB
330
225
100
AcDbEntity
  8
7_ALL_FEATURES
  6
Continuous
 62
     7
100
AcDbLine
 10
657.453419
 20
670.327927
 30
0.0
 11
657.453419
 21
670.491033
 31
0.0
  0
LINE
  5
3DC
330
225
100
AcDbEntity
  8
7_ALL_FEATURES
  6
Continuous
 62
     7
100
AcDbLine
 10
657.453419
 20
670.491033
 30
0.0
 11
657.453419
 21
670.556104
 31
0.0
  0
ARC
  5
3DD
330
225
100
AcDbEntity
  8
7_ALL_FEATURES
  6
Continuous
 62
     7
100
AcDbCircle
 10
657.703419
 20
718.756104
 30
0.0
 40
0.25
100
AcDbArc
 50
91.0
 51
113.184473
  0
ARC
  5
3DE
330
225
100
AcDbEntity
  8
7_ALL_FEATURES
  6
Continuous
 62
     7
100
AcDbCircle
 10
657.703419
 20
640.57538
 30
0.0
 40
0.25
100
AcDbArc
 50
246.940644
 51
269.0
  0
ARC
  5
3DF
330
225
100
AcDbEntity
  8
7_ALL_FEATURES
  6
Continuous
 62
     7
100
AcDbCircle
 10
657.703419
 20
640.57538
 30
0.0
 40
0.25
100
AcDbArc
 50
243.161932
 51
246.940644
  0
ARC
  5
3E0
330
225
100
AcDbEntity
  8
7_ALL_FEATURES
  6
Continuous
 62
     7
100
AcDbCircle
 10
657.703419
 20
640.57538
 30
0.0
 40
0.25
100
AcDbArc
 50
224.726426
 51
243.161932
  0
ARC
  5
3E1
330
225
100
AcDbEntity
  8
7_ALL_FEATURES
  6
Continuous
 62
     7
100
AcDbCircle
 10
657.703419
 20
640.57538
 30
0.0
 40
0.25
100
AcDbArc
 50
210.875415
 51
224.726426
  0
ARC
  5
3E2
330
225
100
AcDbEntity
  8
7_ALL_FEATURES
  6
Continuous
 62
     7
100
AcDbCircle
 10
657.703419
 20
640.57538
 30
0.0
 40
0.25
100
AcDbArc
 50
202.914017
 51
210.875415
  0
ARC
  5
3E3
330
225
100
AcDbEntity
  8
7_ALL_FEATURES
  6
Continuous
 62
     7
100
AcDbCircle
 10
657.703419
 20
640.57538
 30
0.0
 40
0.25
100
AcDbArc
 50
246.815527
 51
269.0
  0
LINE
  5
3E4
330
225
100
AcDbEntity
  8
7_ALL_FEATURES
  6
Continuous
 62
     9
100
AcDbLine
 10
661.262145
 20
676.613151
 30
0.0
 11
661.262145
 21
640.824612
 31
0.0
  0
LINE
  5
3E5
330
225
100
AcDbEntity
  8
7_ALL_FEATURES
  6
Continuous
 62
     9
100
AcDbLine
 10
661.753419
 20
676.655579
 30
0.0
 11
661.262145
 21
676.655579
 31
0.0
  0
SPLINE
  5
3E6
330
225
100
AcDbEntity
  8
7_ALL_FEATURES
  6
Continuous
 62
     9
100
AcDbSpline
 70
     0
 71
     3
 72
    13
 73
     9
 74
     0
 42
0.000000001
 43
0.0000001
 40
0.0
 40
0.0
 40
0.0
 40
0.0
 40
0.3797048505
 40
0.7007617477
 40
0.8239896781
 40
0.9163170759
 40
0.9746071815
 40
1.0
 40
1.0
 40
1.0
 40
1.0
 10
661.2621452257
 20
676.6120078879
 30
0.0
 10
661.3250380835
 20
676.6121035674
 30
0.0
 10
661.4409303536
 20
676.6141053257
 30
0.0
 10
661.5778484093
 20
676.6215345985
 30
0.0
 10
661.6654500827
 20
676.6303434259
 30
0.0
 10
661.7118245984
 20
676.6377642881
 30
0.0
 10
661.7372791495
 20
676.6437523136
 30
0.0
 10
661.7534190224
 20
676.651373148
 30
0.0
 10
661.7534190224
 20
676.6555791222
 30
0.0
  0
LINE
  5
3E7
330
225
100
AcDbEntity
  8
7_ALL_FEATURES
  6
Continuous
 62
     9
100
AcDbLine
 10
661.262145
 20
676.655579
 30
0.0
 11
661.262145
 21
676.612008
 31
0.0
  0
LINE
  5
3E8
330
225
100
AcDbEntity
  8
7_ALL_FEATURES
  6
Continuous
 62
     9
100
AcDbLine
 10
661.262145
 20
715.368336
 30
0.0
 11
661.262145
 21
676.654434
 31
0.0
  0
LINE
  5
3E9
330
225
100
AcDbEntity
  8
7_ALL_FEATURES
  6
Continuous
 62
     9
100
AcDbLine
 10
658.253419
 20
716.315666
 30
0.0
 11
657.699056
 21
716.325342
 31
0.0
  0
LINE
  5
3EA
330
225
100
AcDbEntity
  8
7_ALL_FEATURES
  6
Continuous
 62
     7
100
AcDbLine
 10
661.262145
 20
718.463301
 30
0.0
 11
661.753419
 21
718.463301
 31
0.0
  0
LINE
  5
3EB
330
225
100
AcDbEntity
  8
7_ALL_FEATURES
  6
Continuous
 62
     9
100
AcDbLine
 10
661.262145
 20
715.368336
 30
0.0
 11
661.753419
 21
715.368336
 31
0.0
  0
SPLINE
  5
3EC
330
225
100
AcDbEntity
  8
7_ALL_FEATURES
  6
Continuous
 62
     9
100
AcDbSpline
 70
     0
 71
     3
 72
    16
 73
    12
 74
     0
 42
0.000000001
 43
0.0000001
 40
0.0
 40
0.0
 40
0.0
 40
0.0
 40
0.3826022501
 40
0.5555341876
 40
0.7069707248
 40
0.8312028071
 40
0.9236337063
 40
0.9566377961
 40
0.9804441595
 40
0.9948997407
 40
1.0
 40
1.0
 40
1.0
 40
1.0
 10
661.2621452257
 20
715.3683357894
 30
0.0
 10
661.2633319313
 20
715.4321114576
 30
0.0
 10
661.2645774562
 20
715.524733498
 30
0.0
 10
661.2655456906
 20
715.6425670512
 30
0.0
 10
661.2658562638
 20
715.7174213307
 30
0.0
 10
661.2655899789
 20
715.778611237
 30
0.0
 10
661.2652189266
 20
715.8206235962
 30
0.0
 10
661.2643112658
 20
715.8449568258
 30
0.0
 10
661.2641066005
 20
715.8577308355
 30
0.0
 10
661.2628995371
 20
715.8633121025
 30
0.0
 10
661.2629948185
 20
715.8682744666
 30
0.0
 10
661.2621446426
 20
715.8682596268
 30
0.0
  0
LINE
  5
3ED
330
225
100
AcDbEntity
  8
7_ALL_FEATURES
  6
Continuous
 62
     9
100
AcDbLine
 10
657.699056
 20
718.506142
 30
0.0
 11
658.253419
 21
718.515818
 31
0.0
  0
LINE
  5
3EE
330
225
100
AcDbEntity
  8
7_ALL_FEATURES
  6
Continuous
 62
     9
100
AcDbLine
 10
661.262145
 20
715.368336
 30
0.0
 11
658.253419
 21
715.315818
 31
0.0
  0
LINE
  5
3EF
330
225
100
AcDbEntity
  8
7_ALL_FEATURES
  6
Continuous
 62
     9
100
AcDbLine
 10
658.253419
 20
676.608573
 30
0.0
 11
661.262145
 21
676.613151
 31
0.0
  0
LINE
  5
3F0
330
225
100
AcDbEntity
  8
7_ALL_FEATURES
  6
Continuous
 62
     9
100
AcDbLine
 10
661.262145
 20
676.654434
 30
0.0
 11
658.253419
 21
676.654434
 31
0.0
  0
LINE
  5
3F1
330
225
100
AcDbEntity
  8
7_ALL_FEATURES
  6
Continuous
 62
     9
100
AcDbLine
 10
658.253419
 20
640.772095
 30
0.0
 11
661.262145
 21
640.824612
 31
0.0
  0
LINE
  5
3F2
330
225
100
AcDbEntity
  8
7_ALL_FEATURES
  6
Continuous
 62
     7
100
AcDbLine
 10
658.253419
 20
670.272247
 30
0.0
 11
658.253419
 21
640.772095
 31
0.0
  0
LINE
  5
3F3
330
225
100
AcDbEntity
  8
7_ALL_FEATURES
  6
Continuous
 62
     7
100
AcDbLine
 10
658.253419
 20
640.772095
 30
0.0
 11
658.253419
 21
640.315742
 31
0.0
  0
SPLINE
  5
3F4
330
225
100
AcDbEntity
  8
7_ALL_FEATURES
  6
Continuous
 62
     9
100
AcDbSpline
 70
     0
 71
     3
 72
    13
 73
     9
 74
     0
 42
0.000000001
 43
0.0000001
 40
0.0
 40
0.0
 40
0.0
 40
0.0
 40
0.0253927984
 40
0.0836828914
 40
0.1760103179
 40
0.2992383072
 40
0.6202953209
 40
1.0
 40
1.0
 40
1.0
 40
1.0
 10
661.7534190224
 20
640.8681834845
 30
0.0
 10
661.7534190224
 20
640.8639775137
 30
0.0
 10
661.7372791657
 20
640.8563566716
 30
0.0
 10
661.7118246072
 20
640.8503686559
 30
0.0
 10
661.6654500821
 20
640.8429477879
 30
0.0
 10
661.5778483733
 20
640.8341389575
 30
0.0
 10
661.4409303173
 20
640.8267096866
 30
0.0
 10
661.3250380554
 20
640.8247079297
 30
0.0
 10
661.2621452257
 20
640.8246122503
 30
0.0
  0
SPLINE
  5
3F5
330
225
100
AcDbEntity
  8
7_ALL_FEATURES
  6
Continuous
 62
     9
100
AcDbSpline
 70
     0
 71
     3
 72
    16
 73
    12
 74
     0
 42
0.000000001
 43
0.0000001
 40
0.0
 40
0.0
 40
0.0
 40
0.0
 40
0.0051356382
 40
0.0196490943
 40
0.043509292
 40
0.0765571297
 40
0.169036905
 40
0.293267923
 40
0.444658468
 40
0.6175193318
 40
1.0
 40
1.0
 40
1.0
 40
1.0
 10
661.2621452257
 20
718.9632246145
 30
0.0
 10
661.2630012793
 20
718.963209672
 30
0.0
 10
661.2628105775
 20
718.9582607107
 30
0.0
 10
661.2641011537
 20
718.9526241339
 30
0.0
 10
661.2642841614
 20
718.9398446943
 30
0.0
 10
661.265245281
 20
718.915475996
 30
0.0
 10
661.2655911349
 20
718.8734582268
 30
0.0
 10
661.265854567
 20
718.8122651929
 30
0.0
 10
661.265556625
 20
718.737433871
 30
0.0
 10
661.2645857612
 20
718.6196419744
 30
0.0
 10
661.263257739
 20
718.5270560329
 30
0.0
 10
661.2621452257
 20
718.4633007669
 30
0.0
  0
LINE
  5
3F6
330
225
100
AcDbEntity
  8
7_ALL_FEATURES
  6
Continuous
 62
     7
100
AcDbLine
 10
658.253419
 20
719.015742
 30
0.0
 11
658.253419
 21
718.515818
 31
0.0
  0
SPLINE
  5
3F7
330
225
100
AcDbEntity
  8
7_ALL_FEATURES
  6
Continuous
 62
     9
100
AcDbSpline
 70
     0
 71
     3
 72
    16
 73
    12
 74
     0
 42
0.000000001
 43
0.0000001
 40
0.0
 40
0.0
 40
0.0
 40
0.0
 40
0.0053254066
 40
0.0207328053
 40
0.0457259241
 40
0.0797747995
 40
0.1729036884
 40
0.2958408604
 40
0.444303263
 40
0.6140068662
 40
1.0
 40
1.0
 40
1.0
 40
1.0
 10
657.6990726163
 20
719.0060659726
 30
0.0
 10
657.6981852228
 20
719.0060505122
 30
0.0
 10
657.6993443384
 20
719.0005947868
 30
0.0
 10
657.6977010905
 20
718.9948643882
 30
0.0
 10
657.698162627
 20
718.9814267167
 30
0.0
 10
657.6973865649
 20
718.9566649081
 30
0.0
 10
657.697442627
 20
718.9145597429
 30
0.0
 10
657.6972192334
 20
718.8539971892
 30
0.0
 10
657.6973934576
 20
718.7804158963
 30
0.0
 10
657.6978472393
 20
718.6630908737
 30
0.0
 10
657.6985114389
 20
718.5704688517
 30
0.0
 10
657.6990726163
 20
718.5061419786
 30
0.0
  0
SPLINE
  5
3F8
330
225
100
AcDbEntity
  8
7_ALL_FEATURES
  6
Continuous
 62
     9
100
AcDbSpline
 70
     0
 71
     3
 72
    16
 73
    12
 74
     0
 42
0.000000001
 43
0.0000001
 40
0.0
 40
0.0
 40
0.0
 40
0.0
 40
0.3859931338
 40
0.555696737
 40
0.7041591396
 40
0.8270963116
 40
0.9202252005
 40
0.9542740759
 40
0.9792671947
 40
0.9946745934
 40
1.0
 40
1.0
 40
1.0
 40
1.0
 10
657.6990726163
 20
716.3253422728
 30
0.0
 10
657.6985114389
 20
716.2610153997
 30
0.0
 10
657.6978472393
 20
716.1683933777
 30
0.0
 10
657.6973934576
 20
716.0510683551
 30
0.0
 10
657.6972192334
 20
715.9774870622
 30
0.0
 10
657.697442627
 20
715.9169245085
 30
0.0
 10
657.6973865649
 20
715.8748193433
 30
0.0
 10
657.698162627
 20
715.8500575347
 30
0.0
 10
657.6977010905
 20
715.8366198632
 30
0.0
 10
657.6993443384
 20
715.8308894646
 30
0.0
 10
657.6981852228
 20
715.8254337392
 30
0.0
 10
657.6990726163
 20
715.8254182788
 30
0.0
  0
LINE
  5
3F9
330
225
100
AcDbEntity
  8
7_ALL_FEATURES
  6
Continuous
 62
     9
100
AcDbLine
 10
657.699056
 20
716.325342
 30
0.0
 11
657.453419
 21
716.325342
 31
0.0
  0
LINE
  5
3FA
330
225
100
AcDbEntity
  8
7_ALL_FEATURES
  6
Continuous
 62
     9
100
AcDbLine
 10
657.699056
 20
670.262571
 30
0.0
 11
658.253419
 21
670.272247
 31
0.0
  0
SPLINE
  5
3FB
330
225
100
AcDbEntity
  8
7_ALL_FEATURES
  6
Continuous
 62
     9
100
AcDbSpline
 70
     0
 71
     3
 72
    16
 73
    12
 74
     0
 42
0.000000001
 43
0.0000001
 40
0.0
 40
0.0
 40
0.0
 40
0.0
 40
0.3797194617
 40
0.5491593826
 40
0.6985773985
 40
0.8231673889
 40
0.9181242939
 40
0.9529898447
 40
0.9786479258
 40
0.99450386
 40
1.0
 40
1.0
 40
1.0
 40
1.0
 10
657.6990750819
 20
670.2625707526
 30
0.0
 10
657.6984176307
 20
670.3313677036
 30
0.0
 10
657.6976508232
 20
670.430878252
 30
0.0
 10
657.6971276762
 20
670.557419486
 30
0.0
 10
657.6969312531
 20
670.6378392176
 30
0.0
 10
657.6971798235
 20
670.7044837376
 30
0.0
 10
657.6971369078
 20
670.7510433584
 30
0.0
 10
657.69800707
 20
670.7785516656
 30
0.0
 10
657.6975173891
 20
670.7935353387
 30
0.0
 10
657.6993432718
 20
670.7999449948
 30
0.0
 10
657.6980794058
 20
670.8060486731
 30
0.0
 10
657.6990750819
 20
670.8060660155
 30
0.0
  0
LINE
  5
3FC
330
225
100
AcDbEntity
  8
7_ALL_FEATURES
  6
Continuous
 62
     9
100
AcDbLine
 10
657.699056
 20
716.325342
 30
0.0
 11
657.699056
 21
718.506142
 31
0.0
  0
LINE
  5
3FD
330
225
100
AcDbEntity
  8
7_ALL_FEATURES
  6
Continuous
 62
     9
100
AcDbLine
 10
658.253419
 20
640.772095
 30
0.0
 11
657.699056
 21
640.781771
 31
0.0
  0
SPLINE
  5
3FE
330
225
100
AcDbEntity
  8
7_ALL_FEATURES
  6
Continuous
 62
     9
100
AcDbSpline
 70
     0
 71
     3
 72
    16
 73
    12
 74
     0
 42
0.000000001
 43
0.0000001
 40
0.0
 40
0.0
 40
0.0
 40
0.0
 40
0.3918043293
 40
0.5617519786
 40
0.7093289655
 40
0.830734923
 40
0.9221703905
 40
0.9554627703
 40
0.9798399882
 40
0.9948320826
 40
1.0
 40
1.0
 40
1.0
 40
1.0
 10
657.6990695368
 20
640.7817710538
 30
0.0
 10
657.6985912302
 20
640.7221668131
 30
0.0
 10
657.6980178119
 20
640.6366964167
 30
0.0
 10
657.6976255439
 20
640.5288119033
 30
0.0
 10
657.6974716365
 20
640.4619745285
 30
0.0
 10
657.6976713525
 20
640.4073153568
 30
0.0
 10
657.6976073545
 20
640.3694903469
 30
0.0
 10
657.6982958425
 20
640.3473441427
 30
0.0
 10
657.6978671309
 20
640.3353694383
 30
0.0
 10
657.6993355799
 20
640.3302777225
 30
0.0
 10
657.6982834481
 20
640.3254320328
 30
0.0
 10
657.6990695368
 20
640.3254183323
 30
0.0
  0
LINE
  5
3FF
330
225
100
AcDbEntity
  8
7_ALL_FEATURES
  6
Continuous
 62
     9
100
AcDbLine
 10
657.699056
 20
640.781771
 30
0.0
 11
657.699056
 21
670.262571
 31
0.0
  0
SPLINE
  5
400
330
225
100
AcDbEntity
  8
7_ALL_FEATURES
  6
Continuous
 62
     9
100
AcDbSpline
 70
     0
 71
     3
 72
    12
 73
     8
 74
     0
 42
0.000000001
 43
0.0000001
 40
0.0
 40
0.0
 40
0.0
 40
0.0
 40
0.0229109525
 40
0.0779940919
 40
0.2992598563
 40
0.6344182249
 40
1.0
 40
1.0
 40
1.0
 40
1.0
 10
657.4534190224
 20
670.2843562171
 30
0.0
 10
657.4534190224
 20
670.2824587184
 30
0.0
 10
657.4606391546
 20
670.278633696
 30
0.0
 10
657.4827966868
 20
670.2734552636
 30
0.0
 10
657.5352438754
 20
670.2674737025
 30
0.0
 10
657.6104525387
 20
670.2636564938
 30
0.0
 10
657.668778256
 20
670.2626166616
 30
0.0
 10
657.6990559208
 20
670.2625705999
 30
0.0
  0
LINE
  5
401
330
225
100
AcDbEntity
  8
7_ALL_FEATURES
  6
Continuous
 62
     9
100
AcDbLine
 10
658.253419
 20
716.315666
 30
0.0
 11
661.262145
 21
716.368183
 31
0.0
  0
LINE
  5
402
330
225
100
AcDbEntity
  8
7_ALL_FEATURES
  6
Continuous
 62
     9
100
AcDbLine
 10
657.453419
 20
718.506142
 30
0.0
 11
657.699056
 21
718.506142
 31
0.0
  0
LINE
  5
403
330
225
100
AcDbEntity
  8
7_ALL_FEATURES
  6
Continuous
 62
     7
100
AcDbLine
 10
658.253419
 20
718.515818
 30
0.0
 11
658.253419
 21
716.315666
 31
0.0
  0
LINE
  5
404
330
225
100
AcDbEntity
  8
7_ALL_FEATURES
  6
Continuous
 62
     9
100
AcDbLine
 10
661.262145
 20
718.463301
 30
0.0
 11
658.253419
 21
718.515818
 31
0.0
  0
SPLINE
  5
405
330
225
100
AcDbEntity
  8
7_ALL_FEATURES
  6
Continuous
 62
     9
100
AcDbSpline
 70
     0
 71
     3
 72
    12
 73
     8
 74
     0
 42
0.000000001
 43
0.0000001
 40
0.0
 40
0.0
 40
0.0
 40
0.0
 40
0.3655817751
 40
0.7007401437
 40
0.9220059081
 40
0.9770890475
 40
1.0
 40
1.0
 40
1.0
 40
1.0
 10
657.6990559208
 20
640.781771183
 30
0.0
 10
657.668778256
 20
640.7818172446
 30
0.0
 10
657.6104525387
 20
640.7828570768
 30
0.0
 10
657.5352438754
 20
640.7866742855
 30
0.0
 10
657.4827966868
 20
640.7926558466
 30
0.0
 10
657.4606391546
 20
640.797834279
 30
0.0
 10
657.4534190224
 20
640.8016593014
 30
0.0
 10
657.4534190224
 20
640.8035568001
 30
0.0
  0
LINE
  5
406
330
225
100
AcDbEntity
  8
7_ALL_FEATURES
  6
Continuous
 62
     7
100
AcDbLine
 10
658.253419
 20
716.315666
 30
0.0
 11
658.253419
 21
715.815742
 31
0.0
  0
LINE
  5
407
330
225
100
AcDbEntity
  8
7_ALL_FEATURES
  6
Continuous
 62
     7
100
AcDbLine
 10
661.753419
 20
716.368183
 30
0.0
 11
661.262145
 21
716.368183
 31
0.0
  0
SPLINE
  5
408
330
225
100
AcDbEntity
  8
7_ALL_FEATURES
  6
Continuous
 62
     9
100
AcDbSpline
 70
     0
 71
     3
 72
    16
 73
    12
 74
     0
 42
0.000000001
 43
0.0000001
 40
0.0
 40
0.0
 40
0.0
 40
0.0
 40
0.3824830332
 40
0.5553440412
 40
0.7067335417
 40
0.8309638272
 40
0.923443238
 40
0.9564909971
 40
0.9803510697
 40
0.9948644103
 40
1.0
 40
1.0
 40
1.0
 40
1.0
 10
661.2621452257
 20
716.3681834845
 30
0.0
 10
661.2632577459
 20
716.3044278241
 30
0.0
 10
661.264585766
 20
716.2118414639
 30
0.0
 10
661.2655566377
 20
716.0940493228
 30
0.0
 10
661.2658545656
 20
716.0192182733
 30
0.0
 10
661.265591131
 20
715.9580255949
 30
0.0
 10
661.2652452722
 20
715.9160080237
 30
0.0
 10
661.2642841629
 20
715.8916394177
 30
0.0
 10
661.2641011485
 20
715.8788600371
 30
0.0
 10
661.2628105885
 20
715.873223493
 30
0.0
 10
661.2630012712
 20
715.8682745793
 30
0.0
 10
661.2621452257
 20
715.8682596369
 30
0.0
  0
LINE
  5
409
330
225
100
AcDbEntity
  8
7_ALL_FEATURES
  6
Continuous
 62
     9
100
AcDbLine
 10
661.262145
 20
718.463301
 30
0.0
 11
661.262145
 21
716.368183
 31
0.0
  0
SPLINE
  5
40A
330
225
100
AcDbEntity
  8
7_ALL_FEATURES
  6
Continuous
 62
     9
100
AcDbSpline
 70
     0
 71
     3
 72
    16
 73
    12
 74
     0
 42
0.000000001
 43
0.0000001
 40
0.0
 40
0.0
 40
0.0
 40
0.0
 40
0.3888488994
 40
0.5616717453
 40
0.7118441476
 40
0.8343367311
 40
0.9251123317
 40
0.957478609
 40
0.9808204202
 40
0.9950004869
 40
1.0
 40
1.0
 40
1.0
 40
1.0
 10
661.2621452257
 20
640.8246122503
 30
0.0
 10
661.263094924
 20
640.7654455056
 30
0.0
 10
661.2642401286
 20
640.6799676733
 30
0.0
 10
661.2650788473
 20
640.5716683776
 30
0.0
 10
661.2653377751
 20
640.5038169752
 30
0.0
 10
661.2651067772
 20
640.4486684301
 30
0.0
 10
661.2648239543
 20
640.4109441072
 30
0.0
 10
661.2639814745
 20
640.3891363665
 30
0.0
 10
661.2638520993
 20
640.3777134194
 30
0.0
 10
661.2626929823
 20
640.3726963125
 30
0.0
 10
661.2629059272
 20
640.368272915
 30
0.0
 10
661.2621452257
 20
640.3682596369
 30
0.0
  0
LINE
  5
40B
330
225
100
AcDbEntity
  8
7_ALL_FEATURES
  6
Continuous
 62
     7
100
AcDbLine
 10
166.653419
 20
640.315742
 30
0.0
 11
163.644693
 21
640.36826
 31
0.0
  0
ARC
  5
40C
330
225
100
AcDbEntity
  8
7_ALL_FEATURES
  6
Continuous
 62
     7
100
AcDbCircle
 10
163.653419
 20
640.868183
 30
0.0
 40
0.5
100
AcDbArc
 50
180.0
 51
269.0
  0
ARC
  5
40D
330
225
100
AcDbEntity
  8
7_ALL_FEATURES
  6
Continuous
 62
     7
100
AcDbCircle
 10
163.653419
 20
640.868183
 30
0.0
 40
0.5
100
AcDbArc
 50
246.75
 51
269.0
  0
ARC
  5
40E
330
225
100
AcDbEntity
  8
7_ALL_FEATURES
  6
Continuous
 62
     7
100
AcDbCircle
 10
163.653419
 20
640.868183
 30
0.0
 40
0.5
100
AcDbArc
 50
245.329671
 51
246.75
  0
LINE
  5
40F
330
225
100
AcDbEntity
  8
7_ALL_FEATURES
  6
Continuous
 62
     7
100
AcDbLine
 10
167.207782
 20
670.806066
 30
0.0
 11
167.003419
 21
670.809633
 31
0.0
  0
LINE
  5
410
330
225
100
AcDbEntity
  8
7_ALL_FEATURES
  6
Continuous
 62
     7
100
AcDbLine
 10
167.207782
 20
670.806066
 30
0.0
 11
167.003419
 21
670.809633
 31
0.0
  0
LINE
  5
411
330
225
100
AcDbEntity
  8
7_ALL_FEATURES
  6
Continuous
 62
     7
100
AcDbLine
 10
166.653419
 20
640.315742
 30
0.0
 11
167.005057
 21
640.32188
 31
0.0
  0
LINE
  5
412
330
225
100
AcDbEntity
  8
7_ALL_FEATURES
  6
Continuous
 62
     7
100
AcDbLine
 10
167.005057
 20
640.32188
 30
0.0
 11
167.207782
 21
640.325419
 31
0.0
  0
ARC
  5
413
330
225
100
AcDbEntity
  8
7_ALL_FEATURES
  6
Continuous
 62
     7
100
AcDbCircle
 10
167.203419
 20
640.57538
 30
0.0
 40
0.25
100
AcDbArc
 50
271.0
 51
292.672312
  0
ARC
  5
414
330
225
100
AcDbEntity
  8
7_ALL_FEATURES
  6
Continuous
 62
     7
100
AcDbCircle
 10
167.203419
 20
640.57538
 30
0.0
 40
0.25
100
AcDbArc
 50
292.672312
 51
300.691828
  0
ARC
  5
415
330
225
100
AcDbEntity
  8
7_ALL_FEATURES
  6
Continuous
 62
     7
100
AcDbCircle
 10
167.203419
 20
640.57538
 30
0.0
 40
0.25
100
AcDbArc
 50
300.691828
 51
315.001405
  0
ARC
  5
416
330
225
100
AcDbEntity
  8
7_ALL_FEATURES
  6
Continuous
 62
     7
100
AcDbCircle
 10
167.203419
 20
640.57538
 30
0.0
 40
0.25
100
AcDbArc
 50
315.001405
 51
329.133087
  0
ARC
  5
417
330
225
100
AcDbEntity
  8
7_ALL_FEATURES
  6
Continuous
 62
     7
100
AcDbCircle
 10
167.203419
 20
640.57538
 30
0.0
 40
0.25
100
AcDbArc
 50
329.133087
 51
336.806155
  0
ARC
  5
418
330
225
100
AcDbEntity
  8
7_ALL_FEATURES
  6
Continuous
 62
     7
100
AcDbCircle
 10
167.203419
 20
670.556104
 30
0.0
 40
0.25
100
AcDbArc
 50
0.0
 51
22.707026
  0
ARC
  5
419
330
225
100
AcDbEntity
  8
7_ALL_FEATURES
  6
Continuous
 62
     7
100
AcDbCircle
 10
167.203419
 20
670.556104
 30
0.0
 40
0.25
100
AcDbArc
 50
22.707026
 51
30.765553
  0
ARC
  5
41A
330
225
100
AcDbEntity
  8
7_ALL_FEATURES
  6
Continuous
 62
     7
100
AcDbCircle
 10
167.203419
 20
670.556104
 30
0.0
 40
0.25
100
AcDbArc
 50
30.765553
 51
45.012135
  0
ARC
  5
41B
330
225
100
AcDbEntity
  8
7_ALL_FEATURES
  6
Continuous
 62
     7
100
AcDbCircle
 10
167.203419
 20
670.556104
 30
0.0
 40
0.25
100
AcDbArc
 50
45.012135
 51
59.208121
  0
ARC
  5
41C
330
225
100
AcDbEntity
  8
7_ALL_FEATURES
  6
Continuous
 62
     7
100
AcDbCircle
 10
167.203419
 20
670.556104
 30
0.0
 40
0.25
100
AcDbArc
 50
59.208121
 51
67.348664
  0
ARC
  5
41D
330
225
100
AcDbEntity
  8
7_ALL_FEATURES
  6
Continuous
 62
     7
100
AcDbCircle
 10
167.203419
 20
670.556104
 30
0.0
 40
0.25
100
AcDbArc
 50
67.348664
 51
89.0
  0
LINE
  5
41E
330
225
100
AcDbEntity
  8
7_ALL_FEATURES
  6
Continuous
 62
     7
100
AcDbLine
 10
167.453419
 20
670.284356
 30
0.0
 11
167.453419
 21
670.556104
 31
0.0
  0
ARC
  5
41F
330
225
100
AcDbEntity
  8
7_ALL_FEATURES
  6
Continuous
 62
     7
100
AcDbCircle
 10
167.203419
 20
670.556104
 30
0.0
 40
0.25
100
AcDbArc
 50
67.327688
 51
89.0
  0
ARC
  5
420
330
225
100
AcDbEntity
  8
7_ALL_FEATURES
  6
Continuous
 62
     7
100
AcDbCircle
 10
167.203419
 20
670.556104
 30
0.0
 40
0.25
100
AcDbArc
 50
59.308172
 51
67.327688
  0
ARC
  5
421
330
225
100
AcDbEntity
  8
7_ALL_FEATURES
  6
Continuous
 62
     7
100
AcDbCircle
 10
167.203419
 20
670.556104
 30
0.0
 40
0.25
100
AcDbArc
 50
44.998595
 51
59.308172
  0
ARC
  5
422
330
225
100
AcDbEntity
  8
7_ALL_FEATURES
  6
Continuous
 62
     7
100
AcDbCircle
 10
167.203419
 20
670.556104
 30
0.0
 40
0.25
100
AcDbArc
 50
30.866913
 51
44.998595
  0
ARC
  5
423
330
225
100
AcDbEntity
  8
7_ALL_FEATURES
  6
Continuous
 62
     7
100
AcDbCircle
 10
167.203419
 20
670.556104
 30
0.0
 40
0.25
100
AcDbArc
 50
22.684523
 51
30.866913
  0
ARC
  5
424
330
225
100
AcDbEntity
  8
7_ALL_FEATURES
  6
Continuous
 62
     7
100
AcDbCircle
 10
167.203419
 20
670.556104
 30
0.0
 40
0.25
100
AcDbArc
 50
0.0
 51
22.684523
  0
LINE
  5
425
330
225
100
AcDbEntity
  8
7_ALL_FEATURES
  6
Continuous
 62
     7
100
AcDbLine
 10
167.453419
 20
670.556104
 30
0.0
 11
167.453419
 21
670.489835
 31
0.0
  0
LINE
  5
426
330
225
100
AcDbEntity
  8
7_ALL_FEATURES
  6
Continuous
 62
     7
100
AcDbLine
 10
167.453419
 20
670.489835
 30
0.0
 11
167.453419
 21
670.327927
 31
0.0
  0
ARC
  5
427
330
225
100
AcDbEntity
  8
7_ALL_FEATURES
  6
Continuous
 62
     7
100
AcDbCircle
 10
167.203419
 20
640.57538
 30
0.0
 40
0.25
100
AcDbArc
 50
271.0
 51
293.184473
  0
LINE
  5
428
330
225
100
AcDbEntity
  8
7_ALL_FEATURES
  6
Continuous
 62
     7
100
AcDbLine
 10
167.453419
 20
670.284356
 30
0.0
 11
167.453419
 21
651.243954
 31
0.0
  0
LINE
  5
429
330
225
100
AcDbEntity
  8
7_ALL_FEATURES
  6
Continuous
 62
     7
100
AcDbLine
 10
167.453419
 20
651.243954
 30
0.0
 11
167.453419
 21
643.815742
 31
0.0
  0
LINE
  5
42A
330
225
100
AcDbEntity
  8
7_ALL_FEATURES
  6
Continuous
 62
     7
100
AcDbLine
 10
167.453419
 20
670.284356
 30
0.0
 11
167.453419
 21
670.327927
 31
0.0
  0
LINE
  5
42B
330
225
100
AcDbEntity
  8
7_ALL_FEATURES
  6
Continuous
 62
     9
100
AcDbLine
 10
167.207782
 20
670.262571
 30
0.0
 11
167.20818
 21
670.306149
 31
0.0
  0
LINE
  5
42C
330
225
100
AcDbEntity
  8
7_ALL_FEATURES
  6
Continuous
 62
     9
100
AcDbLine
 10
167.207782
 20
640.781771
 30
0.0
 11
167.003419
 21
640.778204
 31
0.0
  0
SPLINE
  5
42D
330
225
100
AcDbEntity
  8
7_ALL_FEATURES
  6
Continuous
 62
     9
100
AcDbSpline
 70
     0
 71
     3
 72
    16
 73
    12
 74
     0
 42
0.000000001
 43
0.0000001
 40
0.0
 40
0.0
 40
0.0
 40
0.0
 40
0.0051679174
 40
0.0201600118
 40
0.0445372297
 40
0.0778296095
 40
0.169265077
 40
0.2906710345
 40
0.4382480214
 40
0.6081956707
 40
1.0
 40
1.0
 40
1.0
 40
1.0
 10
167.2077685081
 20
640.3254183323
 30
0.0
 10
167.2085545967
 20
640.3254320328
 30
0.0
 10
167.207502465
 20
640.3302777225
 30
0.0
 10
167.2089709139
 20
640.3353694383
 30
0.0
 10
167.2085422024
 20
640.3473441427
 30
0.0
 10
167.2092306904
 20
640.3694903469
 30
0.0
 10
167.2091666924
 20
640.4073153568
 30
0.0
 10
167.2093664084
 20
640.4619745285
 30
0.0
 10
167.209212501
 20
640.5288119033
 30
0.0
 10
167.208820233
 20
640.6366964167
 30
0.0
 10
167.2082468147
 20
640.7221668131
 30
0.0
 10
167.2077685081
 20
640.7817710538
 30
0.0
  0
SPLINE
  5
42E
330
225
100
AcDbEntity
  8
7_ALL_FEATURES
  6
Continuous
 62
     9
100
AcDbSpline
 70
     0
 71
     3
 72
    10
 73
     6
 74
     0
 42
0.000000001
 43
0.0000001
 40
0.0
 40
0.0
 40
0.0
 40
0.0
 40
0.0768043895
 40
0.2607512061
 40
1.0
 40
1.0
 40
1.0
 40
1.0
 10
167.4534190224
 20
640.8035568001
 30
0.0
 10
167.4534190224
 20
640.801684425
 30
0.0
 10
167.4463461625
 20
640.7978854485
 30
0.0
 10
167.4245733526
 20
640.7927526455
 30
0.0
 10
167.4008994267
 20
640.790008913
 30
0.0
 10
167.3829501944
 20
640.7883935992
 30
0.0
  0
SPLINE
  5
42F
330
225
100
AcDbEntity
  8
7_ALL_FEATURES
  6
Continuous
 62
     9
100
AcDbSpline
 70
     0
 71
     3
 72
     9
 73
     5
 74
     0
 42
0.000000001
 43
0.0000001
 40
0.0
 40
0.0
 40
0.0
 40
0.0
 40
0.2248730196
 40
1.0
 40
1.0
 40
1.0
 40
1.0
 10
167.3829501944
 20
640.7883935992
 30
0.0
 10
167.369861178
 20
640.7872156732
 30
0.0
 10
167.3115528125
 20
640.7831443501
 30
0.0
 10
167.2530816403
 20
640.7818400975
 30
0.0
 10
167.2077821241
 20
640.781771183
 30
0.0
  0
LINE
  5
430
330
225
100
AcDbEntity
  8
7_ALL_FEATURES
  6
Continuous
 62
     9
100
AcDbLine
 10
167.207782
 20
670.262571
 30
0.0
 11
167.207782
 21
640.781771
 31
0.0
  0
SPLINE
  5
431
330
225
100
AcDbEntity
  8
7_ALL_FEATURES
  6
Continuous
 62
     9
100
AcDbSpline
 70
     0
 71
     3
 72
    12
 73
     8
 74
     0
 42
0.000000001
 43
0.0000001
 40
0.0
 40
0.0
 40
0.0
 40
0.0
 40
0.3655817747
 40
0.7007401434
 40
0.9220059082
 40
0.9770890474
 40
1.0
 40
1.0
 40
1.0
 40
1.0
 10
167.2077821241
 20
670.2625705999
 30
0.0
 10
167.2380597888
 20
670.2626166617
 30
0.0
 10
167.2963855061
 20
670.2636564938
 30
0.0
 10
167.3715941695
 20
670.2674737026
 30
0.0
 10
167.4240413581
 20
670.2734552635
 30
0.0
 10
167.4461988902
 20
670.278633696
 30
0.0
 10
167.4534190224
 20
670.2824587184
 30
0.0
 10
167.4534190224
 20
670.2843562171
 30
0.0
  0
SPLINE
  5
432
330
225
100
AcDbEntity
  8
7_ALL_FEATURES
  6
Continuous
 62
     9
100
AcDbSpline
 70
     0
 71
     3
 72
    13
 73
     9
 74
     0
 42
0.000000001
 43
0.0000001
 40
0.0
 40
0.0
 40
0.0
 40
0.0
 40
0.3797046955
 40
0.7007616991
 40
0.8239896825
 40
0.9163171058
 40
0.9746071998
 40
1.0
 40
1.0
 40
1.0
 40
1.0
 10
163.6446928192
 20
640.8246122503
 30
0.0
 10
163.5817999868
 20
640.8247079297
 30
0.0
 10
163.4659077239
 20
640.8267096867
 30
0.0
 10
163.3289896678
 20
640.8341389579
 30
0.0
 10
163.2413879624
 20
640.842947788
 30
0.0
 10
163.1950134384
 20
640.8503686554
 30
0.0
 10
163.1695588806
 20
640.856356672
 30
0.0
 10
163.1534190224
 20
640.8639775134
 30
0.0
 10
163.1534190224
 20
640.8681834845
 30
0.0
  0
LINE
  5
433
330
225
100
AcDbEntity
  8
7_ALL_FEATURES
  6
Continuous
 62
     7
100
AcDbLine
 10
166.653419
 20
640.315742
 30
0.0
 11
166.653419
 21
640.772095
 31
0.0
  0
LINE
  5
434
330
225
100
AcDbEntity
  8
7_ALL_FEATURES
  6
Continuous
 62
     9
100
AcDbLine
 10
167.003419
 20
670.266138
 30
0.0
 11
167.207782
 21
670.262571
 31
0.0
  0
SPLINE
  5
435
330
225
100
AcDbEntity
  8
7_ALL_FEATURES
  6
Continuous
 62
     9
100
AcDbSpline
 70
     0
 71
     3
 72
    16
 73
    12
 74
     0
 42
0.000000001
 43
0.0000001
 40
0.0
 40
0.0
 40
0.0
 40
0.0
 40
0.3837595636
 40
0.5533657495
 40
0.7021638633
 40
0.8256851165
 40
0.9194618928
 40
0.9538011562
 40
0.979031884
 40
0.9946020993
 40
1.0
 40
1.0
 40
1.0
 40
1.0
 10
167.2081586313
 20
670.3061488751
 30
0.0
 10
167.2087152365
 20
670.3701039686
 30
0.0
 10
167.2093605923
 20
670.4623381058
 30
0.0
 10
167.2097666577
 20
670.5793319786
 30
0.0
 10
167.2098956796
 20
670.6530503959
 30
0.0
 10
167.2096254822
 20
670.7138753598
 30
0.0
 10
167.2096183395
 20
670.7562335775
 30
0.0
 10
167.2088059362
 20
670.7811907022
 30
0.0
 10
167.2092084045
 20
670.7947449961
 30
0.0
 10
167.2075724767
 20
670.8005463803
 30
0.0
 10
167.2086602612
 20
670.8060503904
 30
0.0
 10
167.2077607814
 20
670.8060660534
 30
0.0
  0
ARC
  5
436
330
225
100
AcDbEntity
  8
7_ALL_FEATURES
  6
Continuous
 62
     7
100
AcDbCircle
 10
612.933026
 20
645.304585
 30
0.0
 40
2.9796066252
100
AcDbArc
 50
180.004979
 51
210.120451
  0
LINE
  5
437
330
225
100
AcDbEntity
  8
7_ALL_FEATURES
  6
Continuous
 62
     7
100
AcDbLine
 10
609.953419
 20
645.304326
 30
0.0
 11
609.953419
 21
651.015742
 31
0.0
  0
LINE
  5
438
330
225
100
AcDbEntity
  8
7_ALL_FEATURES
  6
Continuous
 62
     7
100
AcDbLine
 10
609.953419
 20
651.015742
 30
0.0
 11
609.953419
 21
669.711096
 31
0.0
  0
LINE
  5
439
330
225
100
AcDbEntity
  8
7_ALL_FEATURES
  6
Continuous
 62
     7
100
AcDbLine
 10
620.953419
 20
669.711096
 30
0.0
 11
620.953419
 21
654.313656
 31
0.0
  0
LINE
  5
43A
330
225
100
AcDbEntity
  8
7_ALL_FEATURES
  6
Continuous
 62
     7
100
AcDbLine
 10
620.953419
 20
654.313656
 30
0.0
 11
620.953419
 21
654.270079
 31
0.0
  0
LINE
  5
43B
330
225
100
AcDbEntity
  8
7_ALL_FEATURES
  6
Continuous
 62
     7
100
AcDbLine
 10
643.953419
 20
669.711096
 30
0.0
 11
643.953419
 21
654.270079
 31
0.0
  0
LINE
  5
43C
330
225
100
AcDbEntity
  8
7_ALL_FEATURES
  6
Continuous
 62
     7
100
AcDbLine
 10
654.953419
 20
669.711096
 30
0.0
 11
654.953419
 21
651.015742
 31
0.0
  0
LINE
  5
43D
330
225
100
AcDbEntity
  8
7_ALL_FEATURES
  6
Continuous
 62
     7
100
AcDbLine
 10
654.953419
 20
651.015742
 30
0.0
 11
654.953419
 21
645.347904
 31
0.0
  0
LINE
  5
43E
330
225
100
AcDbEntity
  8
7_ALL_FEATURES
  6
Continuous
 62
     7
100
AcDbLine
 10
654.953419
 20
645.347904
 30
0.0
 11
654.953419
 21
645.304326
 31
0.0
  0
ARC
  5
43F
330
225
100
AcDbEntity
  8
7_ALL_FEATURES
  6
Continuous
 62
     7
100
AcDbCircle
 10
651.973812
 20
645.304585
 30
0.0
 40
2.9796066252
100
AcDbArc
 50
329.879549
 51
359.995021
  0
LINE
  5
440
330
225
100
AcDbEntity
  8
7_ALL_FEATURES
  6
Continuous
 62
     7
100
AcDbLine
 10
624.453419
 20
651.568945
 30
0.0
 11
624.453419
 21
664.668153
 31
0.0
  0
LINE
  5
441
330
225
100
AcDbEntity
  8
7_ALL_FEATURES
  6
Continuous
 62
     7
100
AcDbLine
 10
640.453419
 20
664.668153
 30
0.0
 11
640.453419
 21
651.568945
 31
0.0
  0
LINE
  5
442
330
225
100
AcDbEntity
  8
7_ALL_FEATURES
  6
Continuous
 62
     7
100
AcDbLine
 10
640.453419
 20
651.568945
 30
0.0
 11
640.453419
 21
651.281494
 31
0.0
  0
LINE
  5
443
330
225
100
AcDbEntity
  8
7_ALL_FEATURES
  6
Continuous
 62
     7
100
AcDbLine
 10
624.453419
 20
651.568945
 30
0.0
 11
624.453419
 21
651.325072
 31
0.0
  0
LINE
  5
444
330
225
100
AcDbEntity
  8
7_ALL_FEATURES
  6
Continuous
 62
     7
100
AcDbLine
 10
624.453419
 20
651.325072
 30
0.0
 11
624.453419
 21
651.281494
 31
0.0
  0
SPLINE
  5
445
330
225
100
AcDbEntity
  8
7_ALL_FEATURES
  6
Continuous
 62
     7
100
AcDbSpline
 70
     0
 71
     3
 72
    11
 73
     7
 74
     0
 42
0.000000001
 43
0.0000001
 40
0.0
 40
0.0
 40
0.0
 40
0.0
 40
0.267476168
 40
0.5250578519
 40
0.767984032
 40
1.0
 40
1.0
 40
1.0
 40
1.0
 10
626.4534190224
 20
668.9616713155
 30
0.0
 10
626.1946083768
 20
668.9616713155
 30
0.0
 10
625.6821769585
 20
668.8765298364
 30
0.0
 10
625.0200937454
 20
668.5053765855
 30
0.0
 10
624.5640442483
 20
667.9372588907
 30
0.0
 10
624.4534190224
 20
667.4718359821
 30
0.0
 10
624.4534190224
 20
667.2473367195
 30
0.0
  0
LINE
  5
446
330
225
100
AcDbEntity
  8
7_ALL_FEATURES
  6
Continuous
 62
     7
100
AcDbLine
 10
638.453419
 20
668.961671
 30
0.0
 11
626.453419
 21
668.961671
 31
0.0
  0
SPLINE
  5
447
330
225
100
AcDbEntity
  8
7_ALL_FEATURES
  6
Continuous
 62
     7
100
AcDbSpline
 70
     0
 71
     3
 72
    11
 73
     7
 74
     0
 42
0.000000001
 43
0.0000001
 40
0.0
 40
0.0
 40
0.0
 40
0.0
 40
0.232015968
 40
0.4749421481
 40
0.732523832
 40
1.0
 40
1.0
 40
1.0
 40
1.0
 10
640.4534190224
 20
667.2473367195
 30
0.0
 10
640.4534190224
 20
667.4718359821
 30
0.0
 10
640.3427937966
 20
667.9372588907
 30
0.0
 10
639.8867442995
 20
668.5053765855
 30
0.0
 10
639.2246610864
 20
668.8765298364
 30
0.0
 10
638.712229668
 20
668.9616713155
 30
0.0
 10
638.4534190224
 20
668.9616713155
 30
0.0
  0
LINE
  5
448
330
225
100
AcDbEntity
  8
7_ALL_FEATURES
  6
Continuous
 62
     7
100
AcDbLine
 10
640.453419
 20
666.00262
 30
0.0
 11
640.453419
 21
667.247337
 31
0.0
  0
LINE
  5
449
330
225
100
AcDbEntity
  8
7_ALL_FEATURES
  6
Continuous
 62
     7
100
AcDbLine
 10
624.453419
 20
667.247337
 30
0.0
 11
624.453419
 21
666.00262
 31
0.0
  0
LINE
  5
44A
330
225
100
AcDbEntity
  8
7_ALL_FEATURES
  6
Continuous
 62
     7
100
AcDbLine
 10
640.453419
 20
666.00262
 30
0.0
 11
640.453419
 21
664.668153
 31
0.0
  0
LINE
  5
44B
330
225
100
AcDbEntity
  8
7_ALL_FEATURES
  6
Continuous
 62
     7
100
AcDbLine
 10
624.453419
 20
666.00262
 30
0.0
 11
624.453419
 21
664.668153
 31
0.0
  0
LINE
  5
44C
330
225
100
AcDbEntity
  8
7_ALL_FEATURES
  6
Continuous
 62
     7
100
AcDbLine
 10
620.953419
 20
671.197768
 30
0.0
 11
620.953419
 21
669.917518
 31
0.0
  0
LINE
  5
44D
330
225
100
AcDbEntity
  8
7_ALL_FEATURES
  6
Continuous
 62
     7
100
AcDbLine
 10
609.953419
 20
669.917518
 30
0.0
 11
609.953419
 21
671.197768
 31
0.0
  0
LINE
  5
44E
330
225
100
AcDbEntity
  8
7_ALL_FEATURES
  6
Continuous
 62
     7
100
AcDbLine
 10
620.953419
 20
669.917518
 30
0.0
 11
620.953419
 21
669.711096
 31
0.0
  0
LINE
  5
44F
330
225
100
AcDbEntity
  8
7_ALL_FEATURES
  6
Continuous
 62
     7
100
AcDbLine
 10
609.953419
 20
669.917518
 30
0.0
 11
609.953419
 21
669.711096
 31
0.0
  0
LINE
  5
450
330
225
100
AcDbEntity
  8
7_ALL_FEATURES
  6
Continuous
 62
     7
100
AcDbLine
 10
654.953419
 20
671.197768
 30
0.0
 11
654.953419
 21
669.917518
 31
0.0
  0
LINE
  5
451
330
225
100
AcDbEntity
  8
7_ALL_FEATURES
  6
Continuous
 62
     7
100
AcDbLine
 10
643.953419
 20
669.917518
 30
0.0
 11
643.953419
 21
671.197768
 31
0.0
  0
LINE
  5
452
330
225
100
AcDbEntity
  8
7_ALL_FEATURES
  6
Continuous
 62
     7
100
AcDbLine
 10
654.953419
 20
669.917518
 30
0.0
 11
654.953419
 21
669.711096
 31
0.0
  0
LINE
  5
453
330
225
100
AcDbEntity
  8
7_ALL_FEATURES
  6
Continuous
 62
     7
100
AcDbLine
 10
643.953419
 20
669.917518
 30
0.0
 11
643.953419
 21
669.711096
 31
0.0
  0
LINE
  5
454
330
225
100
AcDbEntity
  8
7_ALL_FEATURES
  6
Continuous
 62
     9
100
AcDbLine
 10
620.953419
 20
669.711096
 30
0.0
 11
609.953419
 21
669.711096
 31
0.0
  0
LINE
  5
455
330
225
100
AcDbEntity
  8
7_ALL_FEATURES
  6
Continuous
 62
     9
100
AcDbLine
 10
624.453419
 20
666.00262
 30
0.0
 11
640.453419
 21
666.00262
 31
0.0
  0
LINE
  5
456
330
225
100
AcDbEntity
  8
7_ALL_FEATURES
  6
Continuous
 62
     9
100
AcDbLine
 10
640.953419
 20
651.325072
 30
0.0
 11
640.953419
 21
651.281494
 31
0.0
  0
LINE
  5
457
330
225
100
AcDbEntity
  8
7_ALL_FEATURES
  6
Continuous
 62
     9
100
AcDbLine
 10
624.453419
 20
664.668153
 30
0.0
 11
640.453419
 21
664.668153
 31
0.0
  0
LINE
  5
458
330
225
100
AcDbEntity
  8
7_ALL_FEATURES
  6
Continuous
 62
     7
100
AcDbLine
 10
624.453419
 20
651.281494
 30
0.0
 11
623.953419
 21
651.281494
 31
0.0
  0
LINE
  5
459
330
225
100
AcDbEntity
  8
7_ALL_FEATURES
  6
Continuous
 62
     9
100
AcDbLine
 10
640.453419
 20
651.568945
 30
0.0
 11
624.453419
 21
651.568945
 31
0.0
  0
ARC
  5
45A
330
225
100
AcDbEntity
  8
7_ALL_FEATURES
  6
Continuous
 62
     7
100
AcDbCircle
 10
644.70692
 20
671.197408
 30
0.0
 40
0.7535007045
100
AcDbArc
 50
170.886637
 51
179.972612
  0
ARC
  5
45B
330
225
100
AcDbEntity
  8
7_ALL_FEATURES
  6
Continuous
 62
     7
100
AcDbCircle
 10
654.199918
 20
671.197408
 30
0.0
 40
0.7535007044
100
AcDbArc
 50
0.027388
 51
9.113363
  0
LINE
  5
45C
330
225
100
AcDbEntity
  8
7_ALL_FEATURES
  6
Continuous
 62
     7
100
AcDbLine
 10
640.953419
 20
651.281494
 30
0.0
 11
640.453419
 21
651.281494
 31
0.0
  0
LINE
  5
45D
330
225
100
AcDbEntity
  8
7_ALL_FEATURES
  6
Continuous
 62
     9
100
AcDbLine
 10
654.953419
 20
669.917518
 30
0.0
 11
643.953419
 21
669.917518
 31
0.0
  0
ARC
  5
45E
330
225
100
AcDbEntity
  8
7_ALL_FEATURES
  6
Continuous
 62
     7
100
AcDbCircle
 10
610.70692
 20
671.197408
 30
0.0
 40
0.7535007044
100
AcDbArc
 50
170.886637
 51
179.972612
  0
LINE
  5
45F
330
225
100
AcDbEntity
  8
7_ALL_FEATURES
  6
Continuous
 62
     9
100
AcDbLine
 10
654.953419
 20
669.711096
 30
0.0
 11
643.953419
 21
669.711096
 31
0.0
  0
SPLINE
  5
460
330
225
100
AcDbEntity
  8
7_ALL_FEATURES
  6
Continuous
 62
     7
100
AcDbSpline
 70
     0
 71
     3
 72
    11
 73
     7
 74
     0
 42
0.000000001
 43
0.0000001
 40
0.0
 40
0.0
 40
0.0
 40
0.0
 40
0.2495595472
 40
0.499377333
 40
0.7495598684
 40
1.0
 40
1.0
 40
1.0
 40
1.0
 10
643.9534190224
 20
654.2700785083
 30
0.0
 10
643.9534190224
 20
653.8813260054
 30
0.0
 10
643.7970945369
 20
653.094860411
 30
0.0
 10
643.1290132195
 20
652.1014795042
 30
0.0
 10
642.1318823764
 20
651.4368109698
 30
0.0
 10
641.3435432598
 20
651.2814944127
 30
0.0
 10
640.9534190224
 20
651.2814944127
 30
0.0
  0
ARC
  5
461
330
225
100
AcDbEntity
  8
7_ALL_FEATURES
  6
Continuous
 62
     7
100
AcDbCircle
 10
620.199918
 20
671.197408
 30
0.0
 40
0.7535007044
100
AcDbArc
 50
0.027388
 51
9.113363
  0
LINE
  5
462
330
225
100
AcDbEntity
  8
7_ALL_FEATURES
  6
Continuous
 62
     9
100
AcDbLine
 10
640.453419
 20
651.281494
 30
0.0
 11
624.453419
 21
651.281494
 31
0.0
  0
LINE
  5
463
330
225
100
AcDbEntity
  8
7_ALL_FEATURES
  6
Continuous
 62
     9
100
AcDbLine
 10
623.953419
 20
651.325072
 30
0.0
 11
623.953419
 21
651.281494
 31
0.0
  0
LINE
  5
464
330
225
100
AcDbEntity
  8
7_ALL_FEATURES
  6
Continuous
 62
     9
100
AcDbLine
 10
620.953419
 20
669.917518
 30
0.0
 11
609.953419
 21
669.917518
 31
0.0
  0
SPLINE
  5
465
330
225
100
AcDbEntity
  8
7_ALL_FEATURES
  6
Continuous
 62
     7
100
AcDbSpline
 70
     0
 71
     3
 72
    11
 73
     7
 74
     0
 42
0.000000001
 43
0.0000001
 40
0.0
 40
0.0
 40
0.0
 40
0.0
 40
0.2504401316
 40
0.500622667
 40
0.7504404528
 40
1.0
 40
1.0
 40
1.0
 40
1.0
 10
623.9534190224
 20
651.2814944127
 30
0.0
 10
623.5632947851
 20
651.2814944127
 30
0.0
 10
622.7749556685
 20
651.4368109698
 30
0.0
 10
621.7778248254
 20
652.1014795042
 30
0.0
 10
621.109743508
 20
653.094860411
 30
0.0
 10
620.9534190224
 20
653.8813260054
 30
0.0
 10
620.9534190224
 20
654.2700785083
 30
0.0
  0
ARC
  5
466
330
225
100
AcDbEntity
  8
7_ALL_FEATURES
  6
Continuous
 62
     7
100
AcDbCircle
 10
172.933026
 20
645.304585
 30
0.0
 40
2.9796066252
100
AcDbArc
 50
180.004979
 51
210.120451
  0
LINE
  5
467
330
225
100
AcDbEntity
  8
7_ALL_FEATURES
  6
Continuous
 62
     7
100
AcDbLine
 10
169.953419
 20
645.304326
 30
0.0
 11
169.953419
 21
651.015742
 31
0.0
  0
LINE
  5
468
330
225
100
AcDbEntity
  8
7_ALL_FEATURES
  6
Continuous
 62
     7
100
AcDbLine
 10
169.953419
 20
651.015742
 30
0.0
 11
169.953419
 21
669.711096
 31
0.0
  0
LINE
  5
469
330
225
100
AcDbEntity
  8
7_ALL_FEATURES
  6
Continuous
 62
     7
100
AcDbLine
 10
180.953419
 20
669.711096
 30
0.0
 11
180.953419
 21
654.313656
 31
0.0
  0
LINE
  5
46A
330
225
100
AcDbEntity
  8
7_ALL_FEATURES
  6
Continuous
 62
     7
100
AcDbLine
 10
180.953419
 20
654.313656
 30
0.0
 11
180.953419
 21
654.270079
 31
0.0
  0
LINE
  5
46B
330
225
100
AcDbEntity
  8
7_ALL_FEATURES
  6
Continuous
 62
     7
100
AcDbLine
 10
203.953419
 20
669.711096
 30
0.0
 11
203.953419
 21
654.270079
 31
0.0
  0
LINE
  5
46C
330
225
100
AcDbEntity
  8
7_ALL_FEATURES
  6
Continuous
 62
     7
100
AcDbLine
 10
214.953419
 20
669.711096
 30
0.0
 11
214.953419
 21
651.015742
 31
0.0
  0
LINE
  5
46D
330
225
100
AcDbEntity
  8
7_ALL_FEATURES
  6
Continuous
 62
     7
100
AcDbLine
 10
214.953419
 20
651.015742
 30
0.0
 11
214.953419
 21
645.347904
 31
0.0
  0
LINE
  5
46E
330
225
100
AcDbEntity
  8
7_ALL_FEATURES
  6
Continuous
 62
     7
100
AcDbLine
 10
214.953419
 20
645.347904
 30
0.0
 11
214.953419
 21
645.304326
 31
0.0
  0
ARC
  5
46F
330
225
100
AcDbEntity
  8
7_ALL_FEATURES
  6
Continuous
 62
     7
100
AcDbCircle
 10
211.973812
 20
645.304585
 30
0.0
 40
2.9796066252
100
AcDbArc
 50
329.879549
 51
359.995021
  0
LINE
  5
470
330
225
100
AcDbEntity
  8
7_ALL_FEATURES
  6
Continuous
 62
     7
100
AcDbLine
 10
184.453419
 20
651.568945
 30
0.0
 11
184.453419
 21
664.668153
 31
0.0
  0
LINE
  5
471
330
225
100
AcDbEntity
  8
7_ALL_FEATURES
  6
Continuous
 62
     7
100
AcDbLine
 10
200.453419
 20
664.668153
 30
0.0
 11
200.453419
 21
651.568945
 31
0.0
  0
LINE
  5
472
330
225
100
AcDbEntity
  8
7_ALL_FEATURES
  6
Continuous
 62
     7
100
AcDbLine
 10
200.453419
 20
651.568945
 30
0.0
 11
200.453419
 21
651.281494
 31
0.0
  0
LINE
  5
473
330
225
100
AcDbEntity
  8
7_ALL_FEATURES
  6
Continuous
 62
     7
100
AcDbLine
 10
184.453419
 20
651.568945
 30
0.0
 11
184.453419
 21
651.325072
 31
0.0
  0
LINE
  5
474
330
225
100
AcDbEntity
  8
7_ALL_FEATURES
  6
Continuous
 62
     7
100
AcDbLine
 10
184.453419
 20
651.325072
 30
0.0
 11
184.453419
 21
651.281494
 31
0.0
  0
SPLINE
  5
475
330
225
100
AcDbEntity
  8
7_ALL_FEATURES
  6
Continuous
 62
     7
100
AcDbSpline
 70
     0
 71
     3
 72
    11
 73
     7
 74
     0
 42
0.000000001
 43
0.0000001
 40
0.0
 40
0.0
 40
0.0
 40
0.0
 40
0.267476168
 40
0.5250578519
 40
0.767984032
 40
1.0
 40
1.0
 40
1.0
 40
1.0
 10
186.4534190224
 20
668.9616713155
 30
0.0
 10
186.1946083768
 20
668.9616713155
 30
0.0
 10
185.6821769585
 20
668.8765298364
 30
0.0
 10
185.0200937454
 20
668.5053765855
 30
0.0
 10
184.5640442483
 20
667.9372588907
 30
0.0
 10
184.4534190224
 20
667.4718359821
 30
0.0
 10
184.4534190224
 20
667.2473367195
 30
0.0
  0
LINE
  5
476
330
225
100
AcDbEntity
  8
7_ALL_FEATURES
  6
Continuous
 62
     7
100
AcDbLine
 10
198.453419
 20
668.961671
 30
0.0
 11
186.453419
 21
668.961671
 31
0.0
  0
SPLINE
  5
477
330
225
100
AcDbEntity
  8
7_ALL_FEATURES
  6
Continuous
 62
     7
100
AcDbSpline
 70
     0
 71
     3
 72
    11
 73
     7
 74
     0
 42
0.000000001
 43
0.0000001
 40
0.0
 40
0.0
 40
0.0
 40
0.0
 40
0.232015968
 40
0.4749421481
 40
0.732523832
 40
1.0
 40
1.0
 40
1.0
 40
1.0
 10
200.4534190224
 20
667.2473367195
 30
0.0
 10
200.4534190224
 20
667.4718359821
 30
0.0
 10
200.3427937966
 20
667.9372588907
 30
0.0
 10
199.8867442995
 20
668.5053765855
 30
0.0
 10
199.2246610864
 20
668.8765298364
 30
0.0
 10
198.712229668
 20
668.9616713155
 30
0.0
 10
198.4534190224
 20
668.9616713155
 30
0.0
  0
LINE
  5
478
330
225
100
AcDbEntity
  8
7_ALL_FEATURES
  6
Continuous
 62
     7
100
AcDbLine
 10
200.453419
 20
666.00262
 30
0.0
 11
200.453419
 21
667.247337
 31
0.0
  0
LINE
  5
479
330
225
100
AcDbEntity
  8
7_ALL_FEATURES
  6
Continuous
 62
     7
100
AcDbLine
 10
184.453419
 20
667.247337
 30
0.0
 11
184.453419
 21
666.00262
 31
0.0
  0
LINE
  5
47A
330
225
100
AcDbEntity
  8
7_ALL_FEATURES
  6
Continuous
 62
     7
100
AcDbLine
 10
200.453419
 20
666.00262
 30
0.0
 11
200.453419
 21
664.668153
 31
0.0
  0
LINE
  5
47B
330
225
100
AcDbEntity
  8
7_ALL_FEATURES
  6
Continuous
 62
     7
100
AcDbLine
 10
184.453419
 20
666.00262
 30
0.0
 11
184.453419
 21
664.668153
 31
0.0
  0
LINE
  5
47C
330
225
100
AcDbEntity
  8
7_ALL_FEATURES
  6
Continuous
 62
     7
100
AcDbLine
 10
180.953419
 20
671.197768
 30
0.0
 11
180.953419
 21
669.917518
 31
0.0
  0
LINE
  5
47D
330
225
100
AcDbEntity
  8
7_ALL_FEATURES
  6
Continuous
 62
     7
100
AcDbLine
 10
169.953419
 20
669.917518
 30
0.0
 11
169.953419
 21
671.197768
 31
0.0
  0
LINE
  5
47E
330
225
100
AcDbEntity
  8
7_ALL_FEATURES
  6
Continuous
 62
     7
100
AcDbLine
 10
180.953419
 20
669.917518
 30
0.0
 11
180.953419
 21
669.711096
 31
0.0
  0
LINE
  5
47F
330
225
100
AcDbEntity
  8
7_ALL_FEATURES
  6
Continuous
 62
     7
100
AcDbLine
 10
169.953419
 20
669.917518
 30
0.0
 11
169.953419
 21
669.711096
 31
0.0
  0
LINE
  5
480
330
225
100
AcDbEntity
  8
7_ALL_FEATURES
  6
Continuous
 62
     7
100
AcDbLine
 10
214.953419
 20
671.197768
 30
0.0
 11
214.953419
 21
669.917518
 31
0.0
  0
LINE
  5
481
330
225
100
AcDbEntity
  8
7_ALL_FEATURES
  6
Continuous
 62
     7
100
AcDbLine
 10
203.953419
 20
669.917518
 30
0.0
 11
203.953419
 21
671.197768
 31
0.0
  0
LINE
  5
482
330
225
100
AcDbEntity
  8
7_ALL_FEATURES
  6
Continuous
 62
     7
100
AcDbLine
 10
214.953419
 20
669.917518
 30
0.0
 11
214.953419
 21
669.711096
 31
0.0
  0
LINE
  5
483
330
225
100
AcDbEntity
  8
7_ALL_FEATURES
  6
Continuous
 62
     7
100
AcDbLine
 10
203.953419
 20
669.917518
 30
0.0
 11
203.953419
 21
669.711096
 31
0.0
  0
LINE
  5
484
330
225
100
AcDbEntity
  8
7_ALL_FEATURES
  6
Continuous
 62
     9
100
AcDbLine
 10
180.953419
 20
669.711096
 30
0.0
 11
169.953419
 21
669.711096
 31
0.0
  0
LINE
  5
485
330
225
100
AcDbEntity
  8
7_ALL_FEATURES
  6
Continuous
 62
     9
100
AcDbLine
 10
184.453419
 20
666.00262
 30
0.0
 11
200.453419
 21
666.00262
 31
0.0
  0
LINE
  5
486
330
225
100
AcDbEntity
  8
7_ALL_FEATURES
  6
Continuous
 62
     9
100
AcDbLine
 10
200.953419
 20
651.325072
 30
0.0
 11
200.953419
 21
651.281494
 31
0.0
  0
LINE
  5
487
330
225
100
AcDbEntity
  8
7_ALL_FEATURES
  6
Continuous
 62
     9
100
AcDbLine
 10
184.453419
 20
664.668153
 30
0.0
 11
200.453419
 21
664.668153
 31
0.0
  0
LINE
  5
488
330
225
100
AcDbEntity
  8
7_ALL_FEATURES
  6
Continuous
 62
     7
100
AcDbLine
 10
184.453419
 20
651.281494
 30
0.0
 11
183.953419
 21
651.281494
 31
0.0
  0
LINE
  5
489
330
225
100
AcDbEntity
  8
7_ALL_FEATURES
  6
Continuous
 62
     9
100
AcDbLine
 10
200.453419
 20
651.568945
 30
0.0
 11
184.453419
 21
651.568945
 31
0.0
  0
ARC
  5
48A
330
225
100
AcDbEntity
  8
7_ALL_FEATURES
  6
Continuous
 62
     7
100
AcDbCircle
 10
204.70692
 20
671.197408
 30
0.0
 40
0.7535007045
100
AcDbArc
 50
170.886637
 51
179.972612
  0
ARC
  5
48B
330
225
100
AcDbEntity
  8
7_ALL_FEATURES
  6
Continuous
 62
     7
100
AcDbCircle
 10
214.199918
 20
671.197408
 30
0.0
 40
0.7535007045
100
AcDbArc
 50
0.027388
 51
9.113363
  0
LINE
  5
48C
330
225
100
AcDbEntity
  8
7_ALL_FEATURES
  6
Continuous
 62
     7
100
AcDbLine
 10
200.953419
 20
651.281494
 30
0.0
 11
200.453419
 21
651.281494
 31
0.0
  0
LINE
  5
48D
330
225
100
AcDbEntity
  8
7_ALL_FEATURES
  6
Continuous
 62
     9
100
AcDbLine
 10
214.953419
 20
669.917518
 30
0.0
 11
203.953419
 21
669.917518
 31
0.0
  0
ARC
  5
48E
330
225
100
AcDbEntity
  8
7_ALL_FEATURES
  6
Continuous
 62
     7
100
AcDbCircle
 10
170.70692
 20
671.197408
 30
0.0
 40
0.7535007045
100
AcDbArc
 50
170.886637
 51
179.972612
  0
LINE
  5
48F
330
225
100
AcDbEntity
  8
7_ALL_FEATURES
  6
Continuous
 62
     9
100
AcDbLine
 10
214.953419
 20
669.711096
 30
0.0
 11
203.953419
 21
669.711096
 31
0.0
  0
SPLINE
  5
490
330
225
100
AcDbEntity
  8
7_ALL_FEATURES
  6
Continuous
 62
     7
100
AcDbSpline
 70
     0
 71
     3
 72
    11
 73
     7
 74
     0
 42
0.000000001
 43
0.0000001
 40
0.0
 40
0.0
 40
0.0
 40
0.0
 40
0.2495595472
 40
0.499377333
 40
0.7495598684
 40
1.0
 40
1.0
 40
1.0
 40
1.0
 10
203.9534190224
 20
654.2700785083
 30
0.0
 10
203.9534190224
 20
653.8813260054
 30
0.0
 10
203.7970945369
 20
653.094860411
 30
0.0
 10
203.1290132195
 20
652.1014795042
 30
0.0
 10
202.1318823764
 20
651.4368109698
 30
0.0
 10
201.3435432598
 20
651.2814944127
 30
0.0
 10
200.9534190224
 20
651.2814944127
 30
0.0
  0
ARC
  5
491
330
225
100
AcDbEntity
  8
7_ALL_FEATURES
  6
Continuous
 62
     7
100
AcDbCircle
 10
180.199918
 20
671.197408
 30
0.0
 40
0.7535007045
100
AcDbArc
 50
0.027388
 51
9.113363
  0
LINE
  5
492
330
225
100
AcDbEntity
  8
7_ALL_FEATURES
  6
Continuous
 62
     9
100
AcDbLine
 10
200.453419
 20
651.281494
 30
0.0
 11
184.453419
 21
651.281494
 31
0.0
  0
LINE
  5
493
330
225
100
AcDbEntity
  8
7_ALL_FEATURES
  6
Continuous
 62
     9
100
AcDbLine
 10
183.953419
 20
651.325072
 30
0.0
 11
183.953419
 21
651.281494
 31
0.0
  0
LINE
  5
494
330
225
100
AcDbEntity
  8
7_ALL_FEATURES
  6
Continuous
 62
     9
100
AcDbLine
 10
180.953419
 20
669.917518
 30
0.0
 11
169.953419
 21
669.917518
 31
0.0
  0
SPLINE
  5
495
330
225
100
AcDbEntity
  8
7_ALL_FEATURES
  6
Continuous
 62
     7
100
AcDbSpline
 70
     0
 71
     3
 72
    11
 73
     7
 74
     0
 42
0.000000001
 43
0.0000001
 40
0.0
 40
0.0
 40
0.0
 40
0.0
 40
0.2504401316
 40
0.500622667
 40
0.7504404528
 40
1.0
 40
1.0
 40
1.0
 40
1.0
 10
183.9534190224
 20
651.2814944127
 30
0.0
 10
183.5632947851
 20
651.2814944127
 30
0.0
 10
182.7749556685
 20
651.4368109698
 30
0.0
 10
181.7778248254
 20
652.1014795042
 30
0.0
 10
181.109743508
 20
653.094860411
 30
0.0
 10
180.9534190224
 20
653.8813260054
 30
0.0
 10
180.9534190224
 20
654.2700785083
 30
0.0
  0
LINE
  5
496
330
225
100
AcDbEntity
  8
7_ALL_FEATURES
  6
Continuous
 62
     7
100
AcDbLine
 10
158.003419
 20
727.415742
 30
0.0
 11
158.003419
 21
695.415742
 31
0.0
  0
LINE
  5
497
330
225
100
AcDbEntity
  8
7_ALL_FEATURES
  6
Continuous
 62
     7
100
AcDbLine
 10
158.003419
 20
645.415742
 30
0.0
 11
158.003419
 21
695.415742
 31
0.0
  0
LINE
  5
498
330
225
100
AcDbEntity
  8
7_ALL_FEATURES
  6
Continuous
 62
     7
100
AcDbLine
 10
158.003419
 20
640.415742
 30
0.0
 11
158.003419
 21
645.415742
 31
0.0
  0
LINE
  5
499
330
225
100
AcDbEntity
  8
7_ALL_FEATURES
  6
Continuous
 62
     7
100
AcDbLine
 10
167.003419
 20
695.415742
 30
0.0
 11
179.003419
 21
707.415742
 31
0.0
  0
LINE
  5
49A
330
225
100
AcDbEntity
  8
7_ALL_FEATURES
  6
Continuous
 62
     7
100
AcDbLine
 10
179.003419
 20
727.415742
 30
0.0
 11
179.003419
 21
707.415742
 31
0.0
  0
LINE
  5
49B
330
225
100
AcDbEntity
  8
7_ALL_FEATURES
  6
Continuous
 62
     7
100
AcDbLine
 10
179.003419
 20
727.415742
 30
0.0
 11
158.003419
 21
727.415742
 31
0.0
  0
LINE
  5
49C
330
225
100
AcDbEntity
  8
7_ALL_FEATURES
  6
Continuous
 62
     7
100
AcDbLine
 10
163.445881
 20
640.415742
 30
0.0
 11
158.003419
 21
640.415742
 31
0.0
  0
LINE
  5
49D
330
225
100
AcDbEntity
  8
7_ALL_FEATURES
  6
Continuous
 62
     7
100
AcDbLine
 10
158.003419
 20
695.415742
 30
0.0
 11
167.003419
 21
695.415742
 31
0.0
  0
LINE
  5
49E
330
225
100
AcDbEntity
  8
7_ALL_FEATURES
  6
Continuous
 62
     7
100
AcDbLine
 10
167.003419
 20
645.415742
 30
0.0
 11
167.003419
 21
640.415742
 31
0.0
  0
LINE
  5
49F
330
225
100
AcDbEntity
  8
7_ALL_FEATURES
  6
Continuous
 62
     7
100
AcDbLine
 10
167.003419
 20
645.415742
 30
0.0
 11
167.003419
 21
695.415742
 31
0.0
  0
LINE
  5
4A0
330
225
100
AcDbEntity
  8
7_ALL_FEATURES
  6
Continuous
 62
     7
100
AcDbLine
 10
167.003419
 20
645.415742
 30
0.0
 11
158.003419
 21
645.415742
 31
0.0
  0
LINE
  5
4A1
330
225
100
AcDbEntity
  8
7_ALL_FEATURES
  6
Continuous
 62
     7
100
AcDbLine
 10
179.003419
 20
719.415742
 30
0.0
 11
657.453419
 21
719.415742
 31
0.0
  0
LINE
  5
4A2
330
225
100
AcDbEntity
  8
7_ALL_FEATURES
  6
Continuous
 62
     7
100
AcDbLine
 10
657.453419
 20
719.415742
 30
0.0
 11
661.953419
 21
719.415742
 31
0.0
  0
LINE
  5
4A3
330
225
100
AcDbEntity
  8
7_ALL_FEATURES
  6
Continuous
 62
     7
100
AcDbLine
 10
179.003419
 20
727.415742
 30
0.0
 11
661.953419
 21
727.415742
 31
0.0
  0
LINE
  5
4A4
330
225
100
AcDbEntity
  8
7_ALL_FEATURES
  6
Continuous
 62
     7
100
AcDbLine
 10
661.953419
 20
719.415742
 30
0.0
 11
661.953419
 21
727.415742
 31
0.0
  0
LINE
  5
4A5
330
225
100
AcDbEntity
  8
02___PRT_ALL_AXES
  6
Continuous
 62
     7
100
AcDbLine
 10
657.453419
 20
643.815742
 30
0.0
 11
657.453419
 21
643.543952
 31
0.0
  0
LINE
  5
4A6
330
225
100
AcDbEntity
  8
02___PRT_ALL_AXES
  6
Continuous
 62
     7
100
AcDbLine
 10
167.453419
 20
643.815742
 30
0.0
 11
167.453419
 21
643.543952
 31
0.0
  0
LINE
  5
4A7
330
225
100
AcDbEntity
  8
02___PRT_ALL_AXES
  6
Continuous
 62
     7
100
AcDbLine
 10
167.453419
 20
643.815742
 30
0.0
 11
657.453419
 21
643.815742
 31
0.0
  0
LINE
  5
4A8
330
225
100
AcDbEntity
  8
02___PRT_ALL_AXES
  6
Continuous
 62
     7
100
AcDbLine
 10
167.453419
 20
647.615742
 30
0.0
 11
169.953419
 21
647.615742
 31
0.0
  0
LINE
  5
4A9
330
225
100
AcDbEntity
  8
02___PRT_ALL_AXES
  6
Continuous
 62
     7
100
AcDbLine
 10
214.953419
 20
647.615742
 30
0.0
 11
609.953419
 21
647.615742
 31
0.0
  0
LINE
  5
4AA
330
225
100
AcDbEntity
  8
02___PRT_ALL_AXES
  6
Continuous
 62
     7
100
AcDbLine
 10
654.953419
 20
647.615742
 30
0.0
 11
657.453419
 21
647.615742
 31
0.0
  0
LINE
  5
4AB
330
225
100
AcDbEntity
  8
02___PRT_ALL_AXES
  6
Continuous
 62
     7
100
AcDbLine
 10
167.453419
 20
695.865742
 30
0.0
 11
167.453419
 21
695.415742
 31
0.0
  0
LINE
  5
4AC
330
225
100
AcDbEntity
  8
02___PRT_ALL_AXES
  6
Continuous
 62
     7
100
AcDbLine
 10
167.453419
 20
695.415742
 30
0.0
 11
167.453419
 21
677.068068
 31
0.0
  0
LINE
  5
4AD
330
225
100
AcDbEntity
  8
02___PRT_ALL_AXES
  6
Continuous
 62
     7
100
AcDbLine
 10
167.453419
 20
677.068068
 30
0.0
 11
167.453419
 21
676.642373
 31
0.0
  0
LINE
  5
4AE
330
225
100
AcDbEntity
  8
02___PRT_ALL_AXES
  6
Continuous
 62
     7
100
AcDbLine
 10
167.453419
 20
676.642373
 30
0.0
 11
167.453419
 21
676.48662
 31
0.0
  0
LINE
  5
4AF
330
225
100
AcDbEntity
  8
02___PRT_ALL_AXES
  6
Continuous
 62
     7
100
AcDbLine
 10
167.453419
 20
676.48662
 30
0.0
 11
167.453419
 21
676.196512
 31
0.0
  0
LINE
  5
4B0
330
225
100
AcDbEntity
  8
02___PRT_ALL_AXES
  6
Continuous
 62
     7
100
AcDbLine
 10
167.453419
 20
676.196512
 30
0.0
 11
167.453419
 21
671.543954
 31
0.0
  0
LINE
  5
4B1
330
225
100
AcDbEntity
  8
02___PRT_ALL_AXES
  6
Continuous
 62
     7
100
AcDbLine
 10
167.453419
 20
671.543954
 30
0.0
 11
167.453419
 21
671.440139
 31
0.0
  0
LINE
  5
4B2
330
225
100
AcDbEntity
  8
02___PRT_ALL_AXES
  6
Continuous
 62
     7
100
AcDbLine
 10
167.453419
 20
671.440139
 30
0.0
 11
167.453419
 21
671.359583
 31
0.0
  0
LINE
  5
4B3
330
225
100
AcDbEntity
  8
02___PRT_ALL_AXES
  6
Continuous
 62
     7
100
AcDbLine
 10
167.453419
 20
671.359583
 30
0.0
 11
167.453419
 21
671.315742
 31
0.0
  0
LINE
  5
4B4
330
225
100
AcDbEntity
  8
02___PRT_ALL_AXES
  6
Continuous
 62
     7
100
AcDbLine
 10
214.953419
 20
648.392116
 30
0.0
 11
609.953419
 21
648.392116
 31
0.0
  0
LINE
  5
4B5
330
225
100
AcDbEntity
  8
02___PRT_ALL_AXES
  6
Continuous
 62
     7
100
AcDbLine
 10
167.453419
 20
671.315742
 30
0.0
 11
167.453419
 21
671.087566
 31
0.0
  0
LINE
  5
4B6
330
225
100
AcDbEntity
  8
02___PRT_ALL_AXES
  6
Continuous
 62
     7
100
AcDbLine
 10
167.453419
 20
671.087566
 30
0.0
 11
167.453419
 21
670.806066
 31
0.0
  0
LINE
  5
4B7
330
225
100
AcDbEntity
  8
02___PRT_ALL_AXES
  6
Continuous
 62
     7
100
AcDbLine
 10
167.453419
 20
670.806066
 30
0.0
 11
167.453419
 21
670.556104
 31
0.0
  0
LINE
  5
4B8
330
225
100
AcDbEntity
  8
02___PRT_ALL_AXES
  6
Continuous
 62
     7
100
AcDbLine
 10
167.453419
 20
670.556104
 30
0.0
 11
167.453419
 21
670.284356
 31
0.0
  0
LINE
  5
4B9
330
225
100
AcDbEntity
  8
02___PRT_ALL_AXES
  6
Continuous
 62
     7
100
AcDbLine
 10
214.953419
 20
650.249202
 30
0.0
 11
609.953419
 21
650.249202
 31
0.0
  0
LINE
  5
4BA
330
225
100
AcDbEntity
  8
02___PRT_ALL_AXES
  6
Continuous
 62
     7
100
AcDbLine
 10
657.453419
 20
707.615742
 30
0.0
 11
657.453419
 21
707.365742
 31
0.0
  0
LINE
  5
4BB
330
225
100
AcDbEntity
  8
02___PRT_ALL_AXES
  6
Continuous
 62
     7
100
AcDbLine
 10
179.003419
 20
707.615742
 30
0.0
 11
657.453419
 21
707.615742
 31
0.0
  0
LINE
  5
4BC
330
225
100
AcDbEntity
  8
02___PRT_ALL_AXES
  6
Continuous
 62
     7
100
AcDbLine
 10
179.003419
 20
708.382282
 30
0.0
 11
657.453419
 21
708.382282
 31
0.0
  0
LINE
  5
4BD
330
225
100
AcDbEntity
  8
02___PRT_ALL_AXES
  6
Continuous
 62
     7
100
AcDbLine
 10
167.453419
 20
643.543952
 30
0.0
 11
167.453419
 21
641.228588
 31
0.0
  0
LINE
  5
4BE
330
225
100
AcDbEntity
  8
02___PRT_ALL_AXES
  6
Continuous
 62
     7
100
AcDbLine
 10
167.453419
 20
641.228588
 30
0.0
 11
167.453419
 21
640.803557
 31
0.0
  0
LINE
  5
4BF
330
225
100
AcDbEntity
  8
02___PRT_ALL_AXES
  6
Continuous
 62
     7
100
AcDbLine
 10
167.453419
 20
640.803557
 30
0.0
 11
167.453419
 21
640.57538
 31
0.0
  0
LINE
  5
4C0
330
225
100
AcDbEntity
  8
02___PRT_ALL_AXES
  6
Continuous
 62
     7
100
AcDbLine
 10
167.453419
 20
640.57538
 30
0.0
 11
167.453419
 21
640.383734
 31
0.0
  0
LINE
  5
4C1
330
225
100
AcDbEntity
  8
02___PRT_ALL_AXES
  6
Continuous
 62
     7
100
AcDbLine
 10
167.453419
 20
640.383734
 30
0.0
 11
167.453419
 21
640.315742
 31
0.0
  0
LINE
  5
4C2
330
225
100
AcDbEntity
  8
02___PRT_ALL_AXES
  6
Continuous
 62
     7
100
AcDbLine
 10
179.003419
 20
710.249202
 30
0.0
 11
657.453419
 21
710.249202
 31
0.0
  0
LINE
  5
4C3
330
225
100
AcDbEntity
  8
7_ALL_FEATURES
  6
Continuous
 62
     7
100
AcDbLine
 10
657.453419
 20
719.315742
 30
0.0
 11
179.003419
 21
719.315742
 31
0.0
  0
LINE
  5
4C4
330
225
100
AcDbEntity
  8
02___PRT_ALL_AXES
  6
Continuous
 62
     7
100
AcDbLine
 10
167.453419
 20
640.315742
 30
0.0
 11
657.453419
 21
640.315742
 31
0.0
  0
LINE
  5
4C5
330
225
100
AcDbEntity
  8
02___PRT_ALL_AXES
  6
Continuous
 62
     7
100
AcDbLine
 10
657.453419
 20
641.228588
 30
0.0
 11
657.453419
 21
640.847128
 31
0.0
  0
LINE
  5
4C6
330
225
100
AcDbEntity
  8
02___PRT_ALL_AXES
  6
Continuous
 62
     7
100
AcDbLine
 10
657.453419
 20
640.847128
 30
0.0
 11
657.453419
 21
640.578465
 31
0.0
  0
LINE
  5
4C7
330
225
100
AcDbEntity
  8
02___PRT_ALL_AXES
  6
Continuous
 62
     7
100
AcDbLine
 10
657.453419
 20
640.578465
 30
0.0
 11
657.453419
 21
640.543918
 31
0.0
  0
LINE
  5
4C8
330
225
100
AcDbEntity
  8
02___PRT_ALL_AXES
  6
Continuous
 62
     7
100
AcDbLine
 10
657.453419
 20
640.543918
 30
0.0
 11
657.453419
 21
640.383734
 31
0.0
  0
LINE
  5
4C9
330
225
100
AcDbEntity
  8
02___PRT_ALL_AXES
  6
Continuous
 62
     7
100
AcDbLine
 10
657.453419
 20
640.383734
 30
0.0
 11
657.453419
 21
640.315742
 31
0.0
  0
LINE
  5
4CA
330
225
100
AcDbEntity
  8
02___PRT_ALL_AXES
  6
Continuous
 62
     7
100
AcDbLine
 10
657.453419
 20
643.543952
 30
0.0
 11
657.453419
 21
641.228588
 31
0.0
  0
LINE
  5
4CB
330
225
100
AcDbEntity
  8
02___PRT_ALL_AXES
  6
Continuous
 62
     7
100
AcDbLine
 10
167.453419
 20
643.815742
 30
0.0
 11
657.453419
 21
643.815742
 31
0.0
  0
LINE
  5
4CC
330
225
100
AcDbEntity
  8
02___PRT_ALL_AXES
  6
Continuous
 62
     7
100
AcDbLine
 10
167.453419
 20
647.615742
 30
0.0
 11
169.953419
 21
647.615742
 31
0.0
  0
LINE
  5
4CD
330
225
100
AcDbEntity
  8
02___PRT_ALL_AXES
  6
Continuous
 62
     7
100
AcDbLine
 10
214.953419
 20
647.615742
 30
0.0
 11
609.953419
 21
647.615742
 31
0.0
  0
LINE
  5
4CE
330
225
100
AcDbEntity
  8
02___PRT_ALL_AXES
  6
Continuous
 62
     7
100
AcDbLine
 10
654.953419
 20
647.615742
 30
0.0
 11
657.453419
 21
647.615742
 31
0.0
  0
LINE
  5
4CF
330
225
100
AcDbEntity
  8
02___PRT_ALL_AXES
  6
Continuous
 62
     7
100
AcDbLine
 10
657.453419
 20
671.315742
 30
0.0
 11
657.453419
 21
671.087566
 31
0.0
  0
LINE
  5
4D0
330
225
100
AcDbEntity
  8
02___PRT_ALL_AXES
  6
Continuous
 62
     7
100
AcDbLine
 10
657.453419
 20
671.087566
 30
0.0
 11
657.453419
 21
670.806066
 31
0.0
  0
LINE
  5
4D1
330
225
100
AcDbEntity
  8
02___PRT_ALL_AXES
  6
Continuous
 62
     7
100
AcDbLine
 10
657.453419
 20
670.806066
 30
0.0
 11
657.453419
 21
670.556104
 31
0.0
  0
LINE
  5
4D2
330
225
100
AcDbEntity
  8
02___PRT_ALL_AXES
  6
Continuous
 62
     7
100
AcDbLine
 10
657.453419
 20
670.556104
 30
0.0
 11
657.453419
 21
670.327927
 31
0.0
  0
LINE
  5
4D3
330
225
100
AcDbEntity
  8
02___PRT_ALL_AXES
  6
Continuous
 62
     7
100
AcDbLine
 10
167.453419
 20
651.015742
 30
0.0
 11
169.953419
 21
651.015742
 31
0.0
  0
LINE
  5
4D4
330
225
100
AcDbEntity
  8
02___PRT_ALL_AXES
  6
Continuous
 62
     7
100
AcDbLine
 10
214.953419
 20
651.015742
 30
0.0
 11
609.953419
 21
651.015742
 31
0.0
  0
LINE
  5
4D5
330
225
100
AcDbEntity
  8
02___PRT_ALL_AXES
  6
Continuous
 62
     7
100
AcDbLine
 10
654.953419
 20
651.015742
 30
0.0
 11
657.453419
 21
651.015742
 31
0.0
  0
LINE
  5
4D6
330
225
100
AcDbEntity
  8
02___PRT_ALL_AXES
  6
Continuous
 62
     7
100
AcDbLine
 10
657.453419
 20
671.543954
 30
0.0
 11
657.453419
 21
671.440138
 31
0.0
  0
LINE
  5
4D7
330
225
100
AcDbEntity
  8
02___PRT_ALL_AXES
  6
Continuous
 62
     7
100
AcDbLine
 10
657.453419
 20
671.440138
 30
0.0
 11
657.453419
 21
671.359582
 31
0.0
  0
LINE
  5
4D8
330
225
100
AcDbEntity
  8
02___PRT_ALL_AXES
  6
Continuous
 62
     7
100
AcDbLine
 10
657.453419
 20
671.359582
 30
0.0
 11
657.453419
 21
671.315742
 31
0.0
  0
LINE
  5
4D9
330
225
100
AcDbEntity
  8
02___PRT_ALL_AXES
  6
Continuous
 62
     7
100
AcDbLine
 10
657.453419
 20
676.196512
 30
0.0
 11
657.453419
 21
671.543954
 31
0.0
  0
LINE
  5
4DA
330
225
100
AcDbEntity
  8
02___PRT_ALL_AXES
  6
Continuous
 62
     7
100
AcDbLine
 10
657.453419
 20
677.068068
 30
0.0
 11
657.453419
 21
676.642373
 31
0.0
  0
LINE
  5
4DB
330
225
100
AcDbEntity
  8
02___PRT_ALL_AXES
  6
Continuous
 62
     7
100
AcDbLine
 10
657.453419
 20
676.642373
 30
0.0
 11
657.453419
 21
676.48662
 31
0.0
  0
LINE
  5
4DC
330
225
100
AcDbEntity
  8
02___PRT_ALL_AXES
  6
Continuous
 62
     7
100
AcDbLine
 10
657.453419
 20
676.48662
 30
0.0
 11
657.453419
 21
676.196512
 31
0.0
  0
LINE
  5
4DD
330
225
100
AcDbEntity
  8
02___PRT_ALL_AXES
  6
Continuous
 62
     7
100
AcDbLine
 10
657.453419
 20
707.365742
 30
0.0
 11
657.453419
 21
677.068068
 31
0.0
  0
LINE
  5
4DE
330
225
100
AcDbEntity
  8
02___PRT_ALL_AXES
  6
Continuous
 62
     7
100
AcDbLine
 10
167.453419
 20
671.315742
 30
0.0
 11
657.453419
 21
671.315742
 31
0.0
  0
LINE
  5
4DF
330
225
100
AcDbEntity
  8
02___PRT_ALL_AXES
  6
Continuous
 62
     7
100
AcDbLine
 10
657.453419
 20
711.265742
 30
0.0
 11
657.453419
 21
711.015742
 31
0.0
  0
LINE
  5
4E0
330
225
100
AcDbEntity
  8
02___PRT_ALL_AXES
  6
Continuous
 62
     7
100
AcDbLine
 10
657.453419
 20
715.565742
 30
0.0
 11
657.453419
 21
711.265742
 31
0.0
  0
LINE
  5
4E1
330
225
100
AcDbEntity
  8
02___PRT_ALL_AXES
  6
Continuous
 62
     7
100
AcDbLine
 10
657.453419
 20
715.690742
 30
0.0
 11
657.453419
 21
715.565742
 31
0.0
  0
LINE
  5
4E2
330
225
100
AcDbEntity
  8
02___PRT_ALL_AXES
  6
Continuous
 62
     7
100
AcDbLine
 10
657.453419
 20
716.065742
 30
0.0
 11
657.453419
 21
715.815742
 31
0.0
  0
LINE
  5
4E3
330
225
100
AcDbEntity
  8
7_ALL_FEATURES
  6
Continuous
 62
     7
100
AcDbLine
 10
657.453419
 20
719.015742
 30
0.0
 11
657.453419
 21
718.756104
 31
0.0
  0
LINE
  5
4E4
330
225
100
AcDbEntity
  8
7_ALL_FEATURES
  6
Continuous
 62
     7
100
AcDbLine
 10
657.453419
 20
718.756104
 30
0.0
 11
657.453419
 21
718.506142
 31
0.0
  0
LINE
  5
4E5
330
225
100
AcDbEntity
  8
7_ALL_FEATURES
  6
Continuous
 62
     7
100
AcDbLine
 10
657.453419
 20
718.506142
 30
0.0
 11
657.453419
 21
716.325342
 31
0.0
  0
LINE
  5
4E6
330
225
100
AcDbEntity
  8
7_ALL_FEATURES
  6
Continuous
 62
     7
100
AcDbLine
 10
657.453419
 20
716.325342
 30
0.0
 11
657.453419
 21
716.065742
 31
0.0
  0
LINE
  5
4E7
330
225
100
AcDbEntity
  8
7_ALL_FEATURES
  6
Continuous
 62
     7
100
AcDbLine
 10
657.453419
 20
719.315742
 30
0.0
 11
657.453419
 21
719.015742
 31
0.0
  0
LINE
  5
4E8
330
225
100
AcDbEntity
  8
02___PRT_ALL_AXES
  6
Continuous
 62
     7
100
AcDbLine
 10
179.003419
 20
707.615742
 30
0.0
 11
657.453419
 21
707.615742
 31
0.0
  0
LINE
  5
4E9
330
225
100
AcDbEntity
  8
02___PRT_ALL_AXES
  6
Continuous
 62
     7
100
AcDbLine
 10
179.003419
 20
715.815742
 30
0.0
 11
657.453419
 21
715.815742
 31
0.0
  0
LINE
  5
4EA
330
225
100
AcDbEntity
  8
02___PRT_ALL_AXES
  6
Continuous
 62
     7
100
AcDbLine
 10
179.003419
 20
711.015742
 30
0.0
 11
657.453419
 21
711.015742
 31
0.0
  0
LINE
  5
4EB
330
225
100
AcDbEntity
  8
02___PRT_ALL_AXES
  6
Continuous
 62
     9
100
AcDbLine
 10
167.453419
 20
641.228586
 30
0.0
 11
657.453419
 21
641.228586
 31
0.0
  0
LINE
  5
4EC
330
225
100
AcDbEntity
  8
02___PRT_ALL_AXES
  6
Continuous
 62
     9
100
AcDbLine
 10
167.453419
 20
643.543953
 30
0.0
 11
657.453419
 21
643.543953
 31
0.0
  0
LINE
  5
4ED
330
225
100
AcDbEntity
  8
02___PRT_ALL_AXES
  6
Continuous
 62
     9
100
AcDbLine
 10
167.453419
 20
647.343953
 30
0.0
 11
169.953419
 21
647.343953
 31
0.0
  0
LINE
  5
4EE
330
225
100
AcDbEntity
  8
02___PRT_ALL_AXES
  6
Continuous
 62
     9
100
AcDbLine
 10
214.953419
 20
647.343953
 30
0.0
 11
609.953419
 21
647.343953
 31
0.0
  0
LINE
  5
4EF
330
225
100
AcDbEntity
  8
02___PRT_ALL_AXES
  6
Continuous
 62
     9
100
AcDbLine
 10
654.953419
 20
647.343953
 30
0.0
 11
657.453419
 21
647.343953
 31
0.0
  0
LINE
  5
4F0
330
225
100
AcDbEntity
  8
02___PRT_ALL_AXES
  6
Continuous
 62
     9
100
AcDbLine
 10
167.453419
 20
648.359409
 30
0.0
 11
169.953419
 21
648.359409
 31
0.0
  0
LINE
  5
4F1
330
225
100
AcDbEntity
  8
02___PRT_ALL_AXES
  6
Continuous
 62
     9
100
AcDbLine
 10
214.953419
 20
648.359409
 30
0.0
 11
609.953419
 21
648.359409
 31
0.0
  0
LINE
  5
4F2
330
225
100
AcDbEntity
  8
02___PRT_ALL_AXES
  6
Continuous
 62
     9
100
AcDbLine
 10
654.953419
 20
648.359409
 30
0.0
 11
657.453419
 21
648.359409
 31
0.0
  0
LINE
  5
4F3
330
225
100
AcDbEntity
  8
02___PRT_ALL_AXES
  6
Continuous
 62
     7
100
AcDbLine
 10
167.453419
 20
650.282696
 30
0.0
 11
169.953419
 21
650.282696
 31
0.0
  0
LINE
  5
4F4
330
225
100
AcDbEntity
  8
02___PRT_ALL_AXES
  6
Continuous
 62
     7
100
AcDbLine
 10
214.953419
 20
650.282696
 30
0.0
 11
609.953419
 21
650.282696
 31
0.0
  0
LINE
  5
4F5
330
225
100
AcDbEntity
  8
02___PRT_ALL_AXES
  6
Continuous
 62
     7
100
AcDbLine
 10
654.953419
 20
650.282696
 30
0.0
 11
657.453419
 21
650.282696
 31
0.0
  0
LINE
  5
4F6
330
225
100
AcDbEntity
  8
02___PRT_ALL_AXES
  6
Continuous
 62
     9
100
AcDbLine
 10
167.453419
 20
651.243953
 30
0.0
 11
169.953419
 21
651.243953
 31
0.0
  0
LINE
  5
4F7
330
225
100
AcDbEntity
  8
02___PRT_ALL_AXES
  6
Continuous
 62
     9
100
AcDbLine
 10
214.953419
 20
651.243953
 30
0.0
 11
609.953419
 21
651.243953
 31
0.0
  0
LINE
  5
4F8
330
225
100
AcDbEntity
  8
02___PRT_ALL_AXES
  6
Continuous
 62
     9
100
AcDbLine
 10
654.953419
 20
651.243953
 30
0.0
 11
657.453419
 21
651.243953
 31
0.0
  0
LINE
  5
4F9
330
225
100
AcDbEntity
  8
02___PRT_ALL_AXES
  6
Continuous
 62
     9
100
AcDbLine
 10
167.453419
 20
671.543953
 30
0.0
 11
657.453419
 21
671.543953
 31
0.0
  0
LINE
  5
4FA
330
225
100
AcDbEntity
  8
02___PRT_ALL_AXES
  6
Continuous
 62
     9
100
AcDbLine
 10
167.453419
 20
676.196511
 30
0.0
 11
657.453419
 21
676.196511
 31
0.0
  0
LINE
  5
4FB
330
225
100
AcDbEntity
  8
02___PRT_ALL_AXES
  6
Continuous
 62
     9
100
AcDbLine
 10
167.453419
 20
677.068068
 30
0.0
 11
657.453419
 21
677.068068
 31
0.0
  0
LINE
  5
4FC
330
225
100
AcDbEntity
  8
02___PRT_ALL_AXES
  6
Continuous
 62
     9
100
AcDbLine
 10
179.003419
 20
707.365742
 30
0.0
 11
657.453419
 21
707.365742
 31
0.0
  0
LINE
  5
4FD
330
225
100
AcDbEntity
  8
02___PRT_ALL_AXES
  6
Continuous
 62
     7
100
AcDbLine
 10
179.003419
 20
708.348788
 30
0.0
 11
657.453419
 21
708.348788
 31
0.0
  0
LINE
  5
4FE
330
225
100
AcDbEntity
  8
7_ALL_FEATURES
  6
Continuous
 62
     9
100
AcDbLine
 10
657.453419
 20
719.015742
 30
0.0
 11
179.003419
 21
719.015742
 31
0.0
  0
LINE
  5
4FF
330
225
100
AcDbEntity
  8
02___PRT_ALL_AXES
  6
Continuous
 62
     9
100
AcDbLine
 10
179.003419
 20
716.065742
 30
0.0
 11
657.453419
 21
716.065742
 31
0.0
  0
LINE
  5
500
330
225
100
AcDbEntity
  8
02___PRT_ALL_AXES
  6
Continuous
 62
     9
100
AcDbLine
 10
179.003419
 20
715.565742
 30
0.0
 11
657.453419
 21
715.565742
 31
0.0
  0
LINE
  5
501
330
225
100
AcDbEntity
  8
02___PRT_ALL_AXES
  6
Continuous
 62
     9
100
AcDbLine
 10
179.003419
 20
711.265742
 30
0.0
 11
657.453419
 21
711.265742
 31
0.0
  0
LINE
  5
502
330
225
100
AcDbEntity
  8
02___PRT_ALL_AXES
  6
Continuous
 62
     7
100
AcDbLine
 10
179.003419
 20
710.282696
 30
0.0
 11
657.453419
 21
710.282696
 31
0.0
  0
LINE
  5
503
330
225
100
AcDbEntity
  8
7_ALL_FEATURES
  6
Continuous
 62
     3
100
AcDbLine
 10
640.953419
 20
651.325072
 30
0.0
 11
640.453419
 21
651.325072
 31
0.0
  0
LINE
  5
504
330
225
100
AcDbEntity
  8
7_ALL_FEATURES
  6
Continuous
 62
     3
100
AcDbLine
 10
624.453419
 20
651.325072
 30
0.0
 11
623.953419
 21
651.325072
 31
0.0
  0
SPLINE
  5
505
330
225
100
AcDbEntity
  8
7_ALL_FEATURES
  6
Continuous
 62
     3
100
AcDbSpline
 70
     0
 71
     3
 72
    11
 73
     7
 74
     0
 42
0.000000001
 43
0.0000001
 40
0.0
 40
0.0
 40
0.0
 40
0.0
 40
0.2495686472
 40
0.4993872579
 40
0.7495666598
 40
1.0
 40
1.0
 40
1.0
 40
1.0
 10
620.9537344046
 20
654.2704431327
 30
0.0
 10
620.9593549732
 20
653.8852438489
 30
0.0
 10
621.1240432038
 20
653.1083606966
 30
0.0
 10
621.794641508
 20
652.1304558938
 30
0.0
 10
622.7858234645
 20
651.4775064021
 30
0.0
 10
623.5668439737
 20
651.3250722814
 30
0.0
 10
623.9534190224
 20
651.3250722814
 30
0.0
  0
SPLINE
  5
506
330
225
100
AcDbEntity
  8
7_ALL_FEATURES
  6
Continuous
 62
     3
100
AcDbSpline
 70
     0
 71
     3
 72
    11
 73
     7
 74
     0
 42
0.000000001
 43
0.0000001
 40
0.0
 40
0.0
 40
0.0
 40
0.0
 40
0.2504333402
 40
0.5006127421
 40
0.7504313528
 40
1.0
 40
1.0
 40
1.0
 40
1.0
 10
640.9534190224
 20
651.3250722814
 30
0.0
 10
641.3399940712
 20
651.3250722814
 30
0.0
 10
642.1210145804
 20
651.4775064021
 30
0.0
 10
643.1121965369
 20
652.1304558938
 30
0.0
 10
643.7827948411
 20
653.1083606966
 30
0.0
 10
643.9474830717
 20
653.8852438489
 30
0.0
 10
643.9531036403
 20
654.2704431327
 30
0.0
  0
LINE
  5
507
330
225
100
AcDbEntity
  8
7_ALL_FEATURES
  6
Continuous
 62
     3
100
AcDbLine
 10
200.953419
 20
651.325072
 30
0.0
 11
200.453419
 21
651.325072
 31
0.0
  0
LINE
  5
508
330
225
100
AcDbEntity
  8
7_ALL_FEATURES
  6
Continuous
 62
     3
100
AcDbLine
 10
184.453419
 20
651.325072
 30
0.0
 11
183.953419
 21
651.325072
 31
0.0
  0
SPLINE
  5
509
330
225
100
AcDbEntity
  8
7_ALL_FEATURES
  6
Continuous
 62
     3
100
AcDbSpline
 70
     0
 71
     3
 72
    11
 73
     7
 74
     0
 42
0.000000001
 43
0.0000001
 40
0.0
 40
0.0
 40
0.0
 40
0.0
 40
0.2495686472
 40
0.4993872579
 40
0.7495666598
 40
1.0
 40
1.0
 40
1.0
 40
1.0
 10
180.9537344046
 20
654.2704431327
 30
0.0
 10
180.9593549732
 20
653.8852438489
 30
0.0
 10
181.1240432038
 20
653.1083606966
 30
0.0
 10
181.794641508
 20
652.1304558938
 30
0.0
 10
182.7858234645
 20
651.4775064021
 30
0.0
 10
183.5668439737
 20
651.3250722814
 30
0.0
 10
183.9534190224
 20
651.3250722814
 30
0.0
  0
SPLINE
  5
50A
330
225
100
AcDbEntity
  8
7_ALL_FEATURES
  6
Continuous
 62
     3
100
AcDbSpline
 70
     0
 71
     3
 72
    11
 73
     7
 74
     0
 42
0.000000001
 43
0.0000001
 40
0.0
 40
0.0
 40
0.0
 40
0.0
 40
0.2504333402
 40
0.5006127421
 40
0.7504313528
 40
1.0
 40
1.0
 40
1.0
 40
1.0
 10
200.9534190224
 20
651.3250722814
 30
0.0
 10
201.3399940712
 20
651.3250722814
 30
0.0
 10
202.1210145804
 20
651.4775064021
 30
0.0
 10
203.1121965369
 20
652.1304558938
 30
0.0
 10
203.7827948411
 20
653.1083606966
 30
0.0
 10
203.9474830717
 20
653.8852438489
 30
0.0
 10
203.9531036403
 20
654.2704431327
 30
0.0
  0
LINE
  5
50B
330
225
100
AcDbEntity
  8
7_ALL_FEATURES
  6
Continuous
 62
     7
100
AcDbLine
 10
954.804076
 20
664.668153
 30
0.0
 11
955.690036
 21
662.475326
 31
0.0
  0
LINE
  5
50C
330
225
100
AcDbEntity
  8
7_ALL_FEATURES
  6
Continuous
 62
     7
100
AcDbLine
 10
955.657002
 20
667.247337
 30
0.0
 11
955.690036
 21
667.302314
 31
0.0
  0
LINE
  5
50D
330
225
100
AcDbEntity
  8
7_ALL_FEATURES
  6
Continuous
 62
     7
100
AcDbLine
 10
954.909101
 20
666.00262
 30
0.0
 11
955.657002
 21
667.247337
 31
0.0
  0
ARC
  5
50E
330
225
100
AcDbEntity
  8
7_ALL_FEATURES
  6
Continuous
 62
     7
100
AcDbCircle
 10
956.194852
 20
665.230063
 30
0.0
 40
1.5
100
AcDbArc
 50
149.0
 51
202.0
  0
LINE
  5
50F
330
225
100
AcDbEntity
  8
7_ALL_FEATURES
  6
Continuous
 62
     9
100
AcDbLine
 10
954.804076
 20
664.668153
 30
0.0
 11
955.267668
 21
664.855457
 31
0.0
  0
LINE
  5
510
330
225
100
AcDbEntity
  8
7_ALL_FEATURES
  6
Continuous
 62
     9
100
AcDbLine
 10
954.909101
 20
666.00262
 30
0.0
 11
955.337685
 21
665.745101
 31
0.0
  0
LINE
  5
511
330
225
100
AcDbEntity
  8
7_ALL_FEATURES
  6
Continuous
 62
     9
100
AcDbLine
 10
955.690036
 20
667.227488
 30
0.0
 11
955.657002
 21
667.247337
 31
0.0
  0
LINE
  5
512
330
225
100
AcDbEntity
  8
7_ALL_FEATURES
  6
Continuous
 62
     7
100
AcDbLine
 10
1004.190036
 20
662.475326
 30
0.0
 11
1005.075996
 21
664.668153
 31
0.0
  0
LINE
  5
513
330
225
100
AcDbEntity
  8
7_ALL_FEATURES
  6
Continuous
 62
     7
100
AcDbLine
 10
1004.190036
 20
667.302314
 30
0.0
 11
1004.22307
 21
667.247337
 31
0.0
  0
LINE
  5
514
330
225
100
AcDbEntity
  8
7_ALL_FEATURES
  6
Continuous
 62
     7
100
AcDbLine
 10
1004.22307
 20
667.247337
 30
0.0
 11
1004.970971
 21
666.00262
 31
0.0
  0
ARC
  5
515
330
225
100
AcDbEntity
  8
7_ALL_FEATURES
  6
Continuous
 62
     7
100
AcDbCircle
 10
1003.68522
 20
665.230063
 30
0.0
 40
1.5
100
AcDbArc
 50
338.0
 51
31.0
  0
LINE
  5
516
330
225
100
AcDbEntity
  8
7_ALL_FEATURES
  6
Continuous
 62
     9
100
AcDbLine
 10
1005.075996
 20
664.668153
 30
0.0
 11
1004.612404
 21
664.855457
 31
0.0
  0
LINE
  5
517
330
225
100
AcDbEntity
  8
7_ALL_FEATURES
  6
Continuous
 62
     9
100
AcDbLine
 10
1004.970971
 20
666.00262
 30
0.0
 11
1004.542387
 21
665.745101
 31
0.0
  0
LINE
  5
518
330
225
100
AcDbEntity
  8
7_ALL_FEATURES
  6
Continuous
 62
     9
100
AcDbLine
 10
1004.190036
 20
667.227488
 30
0.0
 11
1004.22307
 21
667.247337
 31
0.0
  0
LINE
  5
519
330
225
100
AcDbEntity
  8
7_ALL_FEATURES
  6
Continuous
 62
     7
100
AcDbLine
 10
967.440036
 20
719.415742
 30
0.0
 11
992.440036
 21
719.415742
 31
0.0
  0
LINE
  5
51A
330
225
100
AcDbEntity
  8
7_ALL_FEATURES
  6
Continuous
 62
     7
100
AcDbLine
 10
967.440036
 20
727.415742
 30
0.0
 11
992.440036
 21
727.415742
 31
0.0
  0
LINE
  5
51B
330
225
100
AcDbEntity
  8
3_ALL_AXES
  6
Continuous
 62
     7
100
AcDbLine
 10
972.140036
 20
632.315742
 30
0.0
 11
972.140036
 21
626.565742
 31
0.0
  0
LINE
  5
51C
330
225
100
AcDbEntity
  8
3_ALL_AXES
  6
Continuous
 62
     7
100
AcDbLine
 10
987.740036
 20
632.315742
 30
0.0
 11
987.740036
 21
626.565742
 31
0.0
  0
LINE
  5
51D
330
225
100
AcDbEntity
  8
7_ALL_FEATURES
  6
Continuous
 62
     7
100
AcDbLine
 10
988.940036
 20
614.865742
 30
0.0
 11
988.940036
 21
615.565742
 31
0.0
  0
LINE
  5
51E
330
225
100
AcDbEntity
  8
7_ALL_FEATURES
  6
Continuous
 62
     7
100
AcDbLine
 10
985.439886
 20
611.365742
 30
0.0
 11
985.416574
 21
611.365742
 31
0.0
  0
LINE
  5
51F
330
225
100
AcDbEntity
  8
7_ALL_FEATURES
  6
Continuous
 62
     7
100
AcDbLine
 10
985.416574
 20
611.365742
 30
0.0
 11
984.863434
 21
611.365742
 31
0.0
  0
LINE
  5
520
330
225
100
AcDbEntity
  8
7_ALL_FEATURES
  6
Continuous
 62
     7
100
AcDbLine
 10
984.863434
 20
611.365742
 30
0.0
 11
984.840036
 21
611.365742
 31
0.0
  0
LINE
  5
521
330
225
100
AcDbEntity
  8
7_ALL_FEATURES
  6
Continuous
 62
     7
100
AcDbLine
 10
984.840036
 20
611.365742
 30
0.0
 11
979.940036
 21
611.365742
 31
0.0
  0
ARC
  5
522
330
225
100
AcDbEntity
  8
7_ALL_FEATURES
  6
Continuous
 62
     7
100
AcDbCircle
 10
985.440036
 20
614.865742
 30
0.0
 40
3.5
100
AcDbArc
 50
270.0
 51
360.0
  0
LINE
  5
523
330
225
100
AcDbEntity
  8
7_ALL_FEATURES
  6
Continuous
 62
     7
100
AcDbLine
 10
985.421251
 20
611.365742
 30
0.0
 11
985.440036
 21
611.365742
 31
0.0
  0
LINE
  5
524
330
225
100
AcDbEntity
  8
7_ALL_FEATURES
  6
Continuous
 62
     7
100
AcDbLine
 10
979.940036
 20
611.365742
 30
0.0
 11
985.356478
 21
611.365742
 31
0.0
  0
LINE
  5
525
330
225
100
AcDbEntity
  8
7_ALL_FEATURES
  6
Continuous
 62
     7
100
AcDbLine
 10
985.356478
 20
611.365742
 30
0.0
 11
985.421251
 21
611.365742
 31
0.0
  0
LINE
  5
526
330
225
100
AcDbEntity
  8
7_ALL_FEATURES
  6
Continuous
 62
     7
100
AcDbLine
 10
970.940036
 20
614.865742
 30
0.0
 11
970.940036
 21
615.565742
 31
0.0
  0
LINE
  5
527
330
225
100
AcDbEntity
  8
7_ALL_FEATURES
  6
Continuous
 62
     7
100
AcDbLine
 10
974.440186
 20
611.365742
 30
0.0
 11
974.463498
 21
611.365742
 31
0.0
  0
LINE
  5
528
330
225
100
AcDbEntity
  8
7_ALL_FEATURES
  6
Continuous
 62
     7
100
AcDbLine
 10
974.463498
 20
611.365742
 30
0.0
 11
975.016638
 21
611.365742
 31
0.0
  0
LINE
  5
529
330
225
100
AcDbEntity
  8
7_ALL_FEATURES
  6
Continuous
 62
     7
100
AcDbLine
 10
975.016638
 20
611.365742
 30
0.0
 11
975.040036
 21
611.365742
 31
0.0
  0
LINE
  5
52A
330
225
100
AcDbEntity
  8
7_ALL_FEATURES
  6
Continuous
 62
     7
100
AcDbLine
 10
975.040036
 20
611.365742
 30
0.0
 11
979.940036
 21
611.365742
 31
0.0
  0
ARC
  5
52B
330
225
100
AcDbEntity
  8
7_ALL_FEATURES
  6
Continuous
 62
     7
100
AcDbCircle
 10
974.440036
 20
614.865742
 30
0.0
 40
3.5
100
AcDbArc
 50
180.0
 51
270.0
  0
LINE
  5
52C
330
225
100
AcDbEntity
  8
7_ALL_FEATURES
  6
Continuous
 62
     7
100
AcDbLine
 10
968.970381
 20
632.315742
 30
0.0
 11
972.140036
 21
632.315742
 31
0.0
  0
LINE
  5
52D
330
225
100
AcDbEntity
  8
7_ALL_FEATURES
  6
Continuous
 62
     7
100
AcDbLine
 10
972.140036
 20
632.315742
 30
0.0
 11
974.455208
 21
632.315742
 31
0.0
  0
LINE
  5
52E
330
225
100
AcDbEntity
  8
7_ALL_FEATURES
  6
Continuous
 62
     7
100
AcDbLine
 10
974.455208
 20
632.315742
 30
0.0
 11
985.424863
 21
632.315742
 31
0.0
  0
LINE
  5
52F
330
225
100
AcDbEntity
  8
7_ALL_FEATURES
  6
Continuous
 62
     7
100
AcDbLine
 10
985.424863
 20
632.315742
 30
0.0
 11
987.740036
 21
632.315742
 31
0.0
  0
LINE
  5
530
330
225
100
AcDbEntity
  8
7_ALL_FEATURES
  6
Continuous
 62
     7
100
AcDbLine
 10
987.740036
 20
632.315742
 30
0.0
 11
990.909691
 21
632.315742
 31
0.0
  0
LINE
  5
531
330
225
100
AcDbEntity
  8
7_ALL_FEATURES
  6
Continuous
 62
     7
100
AcDbLine
 10
974.440036
 20
611.365742
 30
0.0
 11
974.523593
 21
611.365742
 31
0.0
  0
LINE
  5
532
330
225
100
AcDbEntity
  8
7_ALL_FEATURES
  6
Continuous
 62
     7
100
AcDbLine
 10
974.523593
 20
611.365742
 30
0.0
 11
975.040036
 21
611.365742
 31
0.0
  0
LINE
  5
533
330
225
100
AcDbEntity
  8
7_ALL_FEATURES
  6
Continuous
 62
     7
100
AcDbLine
 10
975.040036
 20
611.365742
 30
0.0
 11
979.940036
 21
611.365742
 31
0.0
  0
LINE
  5
534
330
225
100
AcDbEntity
  8
7_ALL_FEATURES
  6
Continuous
 62
     7
100
AcDbLine
 10
990.909691
 20
640.315742
 30
0.0
 11
990.909691
 21
632.315742
 31
0.0
  0
LINE
  5
535
330
225
100
AcDbEntity
  8
7_ALL_FEATURES
  6
Continuous
 62
     7
100
AcDbLine
 10
972.140036
 20
632.315742
 30
0.0
 11
972.140036
 21
626.565742
 31
0.0
  0
LINE
  5
536
330
225
100
AcDbEntity
  8
7_ALL_FEATURES
  6
Continuous
 62
     7
100
AcDbLine
 10
968.970381
 20
640.315742
 30
0.0
 11
968.970381
 21
632.315742
 31
0.0
  0
LINE
  5
537
330
225
100
AcDbEntity
  8
7_ALL_FEATURES
  6
Continuous
 62
     7
100
AcDbLine
 10
987.740036
 20
632.315742
 30
0.0
 11
987.740036
 21
626.565742
 31
0.0
  0
LINE
  5
538
330
225
100
AcDbEntity
  8
7_ALL_FEATURES
  6
Continuous
 62
     7
100
AcDbLine
 10
989.440036
 20
626.565742
 30
0.0
 11
979.940036
 21
626.565742
 31
0.0
  0
LINE
  5
539
330
225
100
AcDbEntity
  8
7_ALL_FEATURES
  6
Continuous
 62
     7
100
AcDbLine
 10
979.940036
 20
626.565742
 30
0.0
 11
970.440036
 21
626.565742
 31
0.0
  0
LINE
  5
53A
330
225
100
AcDbEntity
  8
7_ALL_FEATURES
  6
Continuous
 62
     7
100
AcDbLine
 10
979.940036
 20
615.565742
 30
0.0
 11
970.440036
 21
615.565742
 31
0.0
  0
LINE
  5
53B
330
225
100
AcDbEntity
  8
7_ALL_FEATURES
  6
Continuous
 62
     7
100
AcDbLine
 10
989.440036
 20
615.565742
 30
0.0
 11
979.940036
 21
615.565742
 31
0.0
  0
LINE
  5
53C
330
225
100
AcDbEntity
  8
7_ALL_FEATURES
  6
Continuous
 62
     7
100
AcDbLine
 10
970.440036
 20
626.565742
 30
0.0
 11
970.440036
 21
615.565742
 31
0.0
  0
LINE
  5
53D
330
225
100
AcDbEntity
  8
7_ALL_FEATURES
  6
Continuous
 62
     7
100
AcDbLine
 10
989.440036
 20
626.565742
 30
0.0
 11
989.440036
 21
615.565742
 31
0.0
  0
LINE
  5
53E
330
225
100
AcDbEntity
  8
7_ALL_FEATURES
  6
Continuous
 62
     9
100
AcDbLine
 10
970.940036
 20
614.865742
 30
0.0
 11
979.940036
 21
614.865742
 31
0.0
  0
LINE
  5
53F
330
225
100
AcDbEntity
  8
7_ALL_FEATURES
  6
Continuous
 62
     9
100
AcDbLine
 10
988.940036
 20
614.865742
 30
0.0
 11
979.940036
 21
614.865742
 31
0.0
  0
LINE
  5
540
330
225
100
AcDbEntity
  8
7_ALL_FEATURES
  6
Continuous
 62
     7
100
AcDbLine
 10
974.455208
 20
640.315742
 30
0.0
 11
974.455208
 21
632.315742
 31
0.0
  0
LINE
  5
541
330
225
100
AcDbEntity
  8
7_ALL_FEATURES
  6
Continuous
 62
     7
100
AcDbLine
 10
979.940036
 20
626.565742
 30
0.0
 11
979.940036
 21
615.565742
 31
0.0
  0
LINE
  5
542
330
225
100
AcDbEntity
  8
7_ALL_FEATURES
  6
Continuous
 62
     7
100
AcDbLine
 10
985.424863
 20
640.315742
 30
0.0
 11
985.424863
 21
632.315742
 31
0.0
  0
LINE
  5
543
330
225
100
AcDbEntity
  8
7_ALL_FEATURES
  6
Continuous
 62
     7
100
AcDbLine
 10
958.956868
 20
642.14891
 30
0.0
 11
959.077324
 21
640.772095
 31
0.0
  0
ARC
  5
544
330
225
100
AcDbEntity
  8
7_ALL_FEATURES
  6
Continuous
 62
     7
100
AcDbCircle
 10
959.57532
 20
640.815639
 30
0.0
 40
0.4998967366
100
AcDbArc
 50
184.997153
 51
270.002847
  0
LINE
  5
545
330
225
100
AcDbEntity
  8
7_ALL_FEATURES
  6
Continuous
 62
     7
100
AcDbLine
 10
998.999608
 20
640.315742
 30
0.0
 11
1000.304727
 21
640.315742
 31
0.0
  0
LINE
  5
546
330
225
100
AcDbEntity
  8
7_ALL_FEATURES
  6
Continuous
 62
     7
100
AcDbLine
 10
960.880464
 20
640.315742
 30
0.0
 11
998.999608
 21
640.315742
 31
0.0
  0
LINE
  5
547
330
225
100
AcDbEntity
  8
7_ALL_FEATURES
  6
Continuous
 62
     7
100
AcDbLine
 10
959.575345
 20
640.315742
 30
0.0
 11
960.880464
 21
640.315742
 31
0.0
  0
ARC
  5
548
330
225
100
AcDbEntity
  8
7_ALL_FEATURES
  6
Continuous
 62
     7
100
AcDbCircle
 10
1000.304751
 20
640.815639
 30
0.0
 40
0.4998967366
100
AcDbArc
 50
269.997153
 51
355.002847
  0
LINE
  5
549
330
225
100
AcDbEntity
  8
7_ALL_FEATURES
  6
Continuous
 62
     7
100
AcDbLine
 10
992.440036
 20
719.015742
 30
0.0
 11
967.440036
 21
719.015742
 31
0.0
  0
SPLINE
  5
54A
330
225
100
AcDbEntity
  8
7_ALL_FEATURES
  6
Continuous
 62
     7
100
AcDbSpline
 70
     0
 71
     3
 72
     8
 73
     4
 74
     0
 42
0.000000001
 43
0.0000001
 40
0.0
 40
0.0
 40
0.0
 40
0.0
 40
1.0
 40
1.0
 40
1.0
 40
1.0
 10
978.5319005687
 20
664.8697201252
 30
0.0
 10
978.1833326223
 20
665.3267167995
 30
0.0
 10
977.951614158
 20
665.6959160832
 30
0.0
 10
977.834764676
 20
665.9795691914
 30
0.0
  0
SPLINE
  5
54B
330
225
100
AcDbEntity
  8
7_ALL_FEATURES
  6
Continuous
 62
     7
100
AcDbSpline
 70
     0
 71
     3
 72
    11
 73
     7
 74
     0
 42
0.000000001
 43
0.0000001
 40
0.0
 40
0.0
 40
0.0
 40
0.0
 40
0.1253762151
 40
0.3480641006
 40
0.7934398716
 40
1.0
 40
1.0
 40
1.0
 40
1.0
 10
976.6955486799
 20
662.4159519227
 30
0.0
 10
976.7002411978
 20
662.4910757254
 30
0.0
 10
976.7216160085
 20
662.697982172
 30
0.0
 10
976.8239469629
 20
663.1462010595
 30
0.0
 10
977.0507840836
 20
663.6031433548
 30
0.0
 10
977.3029386965
 20
663.9157506292
 30
0.0
 10
977.3911112168
 20
664.0119589584
 30
0.0
  0
SPLINE
  5
54C
330
225
100
AcDbEntity
  8
7_ALL_FEATURES
  6
Continuous
 62
     7
100
AcDbSpline
 70
     0
 71
     3
 72
     8
 73
     4
 74
     0
 42
0.000000001
 43
0.0000001
 40
0.0
 40
0.0
 40
0.0
 40
0.0
 40
1.0
 40
1.0
 40
1.0
 40
1.0
 10
982.6671839325
 20
663.7170979712
 30
0.0
 10
982.5599167448
 20
663.227945142
 30
0.0
 10
982.4277218202
 20
662.7936344828
 30
0.0
 10
982.2711115413
 20
662.4147484139
 30
0.0
  0
LINE
  5
54D
330
225
100
AcDbEntity
  8
7_ALL_FEATURES
  6
Continuous
 62
     7
100
AcDbLine
 10
981.680895
 20
663.957978
 30
0.0
 11
982.667184
 21
663.717098
 31
0.0
  0
SPLINE
  5
54E
330
225
100
AcDbEntity
  8
7_ALL_FEATURES
  6
Continuous
 62
     7
100
AcDbSpline
 70
     0
 71
     3
 72
     8
 73
     4
 74
     0
 42
0.000000001
 43
0.0000001
 40
0.0
 40
0.0
 40
0.0
 40
0.0
 40
1.0
 40
1.0
 40
1.0
 40
1.0
 10
981.3105416412
 20
662.733316953
 30
0.0
 10
981.4689816169
 20
663.0845065156
 30
0.0
 10
981.591772598
 20
663.4942276719
 30
0.0
 10
981.6808950842
 20
663.9579779917
 30
0.0
  0
LINE
  5
54F
330
225
100
AcDbEntity
  8
7_ALL_FEATURES
  6
Continuous
 62
     7
100
AcDbLine
 10
979.922211
 20
664.743652
 30
0.0
 11
981.310542
 21
662.733317
 31
0.0
  0
SPLINE
  5
550
330
225
100
AcDbEntity
  8
7_ALL_FEATURES
  6
Continuous
 62
     7
100
AcDbSpline
 70
     0
 71
     3
 72
    23
 73
    19
 74
     0
 42
0.000000001
 43
0.0000001
 40
0.0
 40
0.0
 40
0.0
 40
0.0
 40
0.124742467
 40
0.1865851307
 40
0.2484277944
 40
0.3102704582
 40
0.3721131219
 40
0.4337655161
 40
0.4954179103
 40
0.5570703045
 40
0.6187226988
 40
0.6777233771
 40
0.7367240554
 40
0.7957247338
 40
0.8547254121
 40
0.9133720956
 40
0.9720187792
 40
1.0
 40
1.0
 40
1.0
 40
1.0
 10
977.834764676
 20
665.9795691914
 30
0.0
 10
977.7174052205
 20
666.2644602644
 30
0.0
 10
977.6351736508
 20
666.676024528
 30
0.0
 10
977.6836498122
 20
667.1904779592
 30
0.0
 10
977.7858192838
 20
667.5474430468
 30
0.0
 10
977.9558841429
 20
667.8779785094
 30
0.0
 10
978.1981151505
 20
668.1891890714
 30
0.0
 10
978.492318277
 20
668.4507519216
 30
0.0
 10
978.8186781952
 20
668.6322827427
 30
0.0
 10
979.1790480643
 20
668.7422496403
 30
0.0
 10
979.5780426652
 20
668.7783902292
 30
0.0
 10
979.9695211182
 20
668.7436212335
 30
0.0
 10
980.3099510339
 20
668.6394046773
 30
0.0
 10
980.6158761475
 20
668.4675029112
 30
0.0
 10
980.8884225269
 20
668.2214466325
 30
0.0
 10
981.1115934048
 20
667.9271527661
 30
0.0
 10
981.2408398326
 20
667.6653907709
 30
0.0
 10
981.2953801588
 20
667.4991756606
 30
0.0
 10
981.3106368502
 20
667.444348105
 30
0.0
  0
LINE
  5
551
330
225
100
AcDbEntity
  8
7_ALL_FEATURES
  6
Continuous
 62
     7
100
AcDbLine
 10
984.140036
 20
668.615742
 30
0.0
 11
984.140036
 21
662.415742
 31
0.0
  0
LINE
  5
552
330
225
100
AcDbEntity
  8
7_ALL_FEATURES
  6
Continuous
 62
     7
100
AcDbLine
 10
984.986536
 20
668.615742
 30
0.0
 11
984.140036
 21
668.615742
 31
0.0
  0
LINE
  5
553
330
225
100
AcDbEntity
  8
7_ALL_FEATURES
  6
Continuous
 62
     7
100
AcDbLine
 10
984.986536
 20
662.415742
 30
0.0
 11
984.986536
 21
668.615742
 31
0.0
  0
LINE
  5
554
330
225
100
AcDbEntity
  8
7_ALL_FEATURES
  6
Continuous
 62
     7
100
AcDbLine
 10
971.940036
 20
668.615742
 30
0.0
 11
971.940036
 21
662.915742
 31
0.0
  0
LINE
  5
555
330
225
100
AcDbEntity
  8
7_ALL_FEATURES
  6
Continuous
 62
     7
100
AcDbLine
 10
972.786536
 20
668.615742
 30
0.0
 11
971.940036
 21
668.615742
 31
0.0
  0
LINE
  5
556
330
225
100
AcDbEntity
  8
7_ALL_FEATURES
  6
Continuous
 62
     7
100
AcDbLine
 10
972.786536
 20
662.415742
 30
0.0
 11
972.786536
 21
668.615742
 31
0.0
  0
SPLINE
  5
557
330
225
100
AcDbEntity
  8
7_ALL_FEATURES
  6
Continuous
 62
     7
100
AcDbSpline
 70
     0
 71
     3
 72
     8
 73
     4
 74
     0
 42
0.000000001
 43
0.0000001
 40
0.0
 40
0.0
 40
0.0
 40
0.0
 40
1.0
 40
1.0
 40
1.0
 40
1.0
 10
979.0230644931
 20
664.1605873547
 30
0.0
 10
978.5101150721
 20
663.8139002224
 30
0.0
 10
978.1635276254
 20
663.4897252416
 30
0.0
 10
977.9833021531
 20
663.1925648425
 30
0.0
  0
LINE
  5
558
330
225
100
AcDbEntity
  8
7_ALL_FEATURES
  6
Continuous
 62
     7
100
AcDbLine
 10
980.262349
 20
662.415742
 30
0.0
 11
979.023064
 21
664.160587
 31
0.0
  0
SPLINE
  5
559
330
225
100
AcDbEntity
  8
7_ALL_FEATURES
  6
Continuous
 62
     7
100
AcDbSpline
 70
     0
 71
     3
 72
     8
 73
     4
 74
     0
 42
0.000000001
 43
0.0000001
 40
0.0
 40
0.0
 40
0.0
 40
0.0
 40
1.0
 40
1.0
 40
1.0
 40
1.0
 10
977.9833021531
 20
663.1925648425
 30
0.0
 10
977.8243407288
 20
662.9304651533
 30
0.0
 10
977.7382838924
 20
662.673558682
 30
0.0
 10
977.7184223882
 20
662.4160731399
 30
0.0
  0
SPLINE
  5
55A
330
225
100
AcDbEntity
  8
7_ALL_FEATURES
  6
Continuous
 62
     7
100
AcDbSpline
 70
     0
 71
     3
 72
     8
 73
     4
 74
     0
 42
0.000000001
 43
0.0000001
 40
0.0
 40
0.0
 40
0.0
 40
0.0
 40
1.0
 40
1.0
 40
1.0
 40
1.0
 10
979.4310474304
 20
665.4392775568
 30
0.0
 10
979.842991367
 20
665.7161770195
 30
0.0
 10
980.1083783262
 20
665.9593082551
 30
0.0
 10
980.2311693073
 20
666.1664200484
 30
0.0
  0
LINE
  5
55B
330
225
100
AcDbEntity
  8
7_ALL_FEATURES
  6
Continuous
 62
     7
100
AcDbLine
 10
979.00722
 20
665.997579
 30
0.0
 11
979.431047
 21
665.439278
 31
0.0
  0
SPLINE
  5
55C
330
225
100
AcDbEntity
  8
7_ALL_FEATURES
  6
Continuous
 62
     7
100
AcDbSpline
 70
     0
 71
     3
 72
    24
 73
    20
 74
     0
 42
0.000000001
 43
0.0000001
 40
0.0
 40
0.0
 40
0.0
 40
0.0
 40
0.0958572044
 40
0.1437858065
 40
0.1917144087
 40
0.2486296238
 40
0.3055448389
 40
0.362460054
 40
0.419375269
 40
0.4769680462
 40
0.5345608234
 40
0.5921536005
 40
0.6497463777
 40
0.709167497
 40
0.7685886163
 40
0.8280097356
 40
0.8874308549
 40
0.9472440524
 40
1.0
 40
1.0
 40
1.0
 40
1.0
 10
980.2311693073
 20
666.1664200484
 30
0.0
 10
980.2923087964
 20
666.269544147
 30
0.0
 10
980.3606376765
 20
666.4344737856
 30
0.0
 10
980.4058816707
 20
666.6703498079
 30
0.0
 10
980.4178341968
 20
666.8700374608
 30
0.0
 10
980.4027612407
 20
667.0759488775
 30
0.0
 10
980.3550998005
 20
667.2692235429
 30
0.0
 10
980.2768352913
 20
667.4423004188
 30
0.0
 10
980.1651354332
 20
667.5967569926
 30
0.0
 10
980.0303318916
 20
667.7231869168
 30
0.0
 10
979.8818291372
 20
667.8120268169
 30
0.0
 10
979.7186498529
 20
667.8655990917
 30
0.0
 10
979.5340617709
 20
667.883241941
 30
0.0
 10
979.3476608566
 20
667.8655064727
 30
0.0
 10
979.1798717179
 20
667.8124508665
 30
0.0
 10
979.0278205833
 20
667.72496016
 30
0.0
 10
978.8900063281
 20
667.5998644557
 30
0.0
 10
978.7807003575
 20
667.4550578537
 30
0.0
 10
978.7299436798
 20
667.352472955
 30
0.0
 10
978.7100660818
 20
667.3022630985
 30
0.0
  0
LINE
  5
55D
330
225
100
AcDbEntity
  8
7_ALL_FEATURES
  6
Continuous
 62
     7
100
AcDbLine
 10
1000.923204
 20
642.14891
 30
0.0
 11
1000.802748
 21
640.772095
 31
0.0
  0
SPLINE
  5
55E
330
225
100
AcDbEntity
  8
7_ALL_FEATURES
  6
Continuous
 62
     7
100
AcDbSpline
 70
     0
 71
     3
 72
     9
 73
     5
 74
     0
 42
0.000000001
 43
0.0000001
 40
0.0
 40
0.0
 40
0.0
 40
0.0
 40
0.3483715758
 40
1.0
 40
1.0
 40
1.0
 40
1.0
 10
977.3911112168
 20
664.0119589584
 30
0.0
 10
977.4924009322
 20
664.1224799489
 30
0.0
 10
977.814516686
 20
664.4289776487
 30
0.0
 10
978.2259133658
 20
664.7042558121
 30
0.0
 10
978.5319005687
 20
664.8697201252
 30
0.0
  0
SPLINE
  5
55F
330
225
100
AcDbEntity
  8
7_ALL_FEATURES
  6
Continuous
 62
     7
100
AcDbSpline
 70
     0
 71
     3
 72
    13
 73
     9
 74
     0
 42
0.000000001
 43
0.0000001
 40
0.0
 40
0.0
 40
0.0
 40
0.0
 40
0.0651919112
 40
0.1898692859
 40
0.2911356251
 40
0.3924019644
 40
0.5949346429
 40
1.0
 40
1.0
 40
1.0
 40
1.0
 10
981.3106368502
 20
667.444348105
 30
0.0
 10
981.3273571179
 20
667.3842609354
 30
0.0
 10
981.367798616
 20
667.205273731
 30
0.0
 10
981.3927782349
 20
666.9116070386
 30
0.0
 10
981.368693854
 20
666.5759230705
 30
0.0
 10
981.2771880241
 20
666.1814941722
 30
0.0
 10
980.95755992
 20
665.529021625
 30
0.0
 10
980.4094142799
 20
665.0396868686
 30
0.0
 10
979.9222113548
 20
664.7436520771
 30
0.0
  0
SPLINE
  5
560
330
225
100
AcDbEntity
  8
7_ALL_FEATURES
  6
Continuous
 62
     7
100
AcDbSpline
 70
     0
 71
     3
 72
    11
 73
     7
 74
     0
 42
0.000000001
 43
0.0000001
 40
0.0
 40
0.0
 40
0.0
 40
0.0
 40
0.0194714046
 40
0.3495282965
 40
0.6768574456
 40
1.0
 40
1.0
 40
1.0
 40
1.0
 10
978.7100660818
 20
667.3022630985
 30
0.0
 10
978.7074070229
 20
667.2955464435
 30
0.0
 10
978.660930557
 20
667.1742915664
 30
0.0
 10
978.6136077097
 20
666.9150395916
 30
0.0
 10
978.6955266626
 20
666.4851788832
 30
0.0
 10
978.8844295145
 20
666.1664200484
 30
0.0
 10
979.0072204956
 20
665.9975789126
 30
0.0
  0
LINE
  5
561
330
225
100
AcDbEntity
  8
7_ALL_FEATURES
  6
Continuous
 62
     7
100
AcDbLine
 10
970.940036
 20
676.815742
 30
0.0
 11
970.940036
 21
663.915742
 31
0.0
  0
LINE
  5
562
330
225
100
AcDbEntity
  8
7_ALL_FEATURES
  6
Continuous
 62
     7
100
AcDbLine
 10
988.743496
 20
676.815742
 30
0.0
 11
970.940036
 21
676.815742
 31
0.0
  0
LINE
  5
563
330
225
100
AcDbEntity
  8
7_ALL_FEATURES
  6
Continuous
 62
     9
100
AcDbLine
 10
1000.754625
 20
640.824612
 30
0.0
 11
1000.802748
 21
640.772095
 31
0.0
  0
LINE
  5
564
330
225
100
AcDbEntity
  8
7_ALL_FEATURES
  6
Continuous
 62
     9
100
AcDbLine
 10
959.077324
 20
640.772095
 30
0.0
 11
959.125447
 21
640.824612
 31
0.0
  0
LINE
  5
565
330
225
100
AcDbEntity
  8
7_ALL_FEATURES
  6
Continuous
 62
     9
100
AcDbLine
 10
1000.304727
 20
640.315742
 30
0.0
 11
1000.256603
 21
640.36826
 31
0.0
  0
LINE
  5
566
330
225
100
AcDbEntity
  8
7_ALL_FEATURES
  6
Continuous
 62
     9
100
AcDbLine
 10
959.623469
 20
640.36826
 30
0.0
 11
959.575345
 21
640.315742
 31
0.0
  0
LINE
  5
567
330
225
100
AcDbEntity
  8
7_ALL_FEATURES
  6
Continuous
 62
     9
100
AcDbLine
 10
992.440036
 20
718.963225
 30
0.0
 11
967.440036
 21
718.963225
 31
0.0
  0
LINE
  5
568
330
225
100
AcDbEntity
  8
7_ALL_FEATURES
  6
Continuous
 62
     9
100
AcDbLine
 10
967.440036
 20
718.463301
 30
0.0
 11
992.440036
 21
718.463301
 31
0.0
  0
LINE
  5
569
330
225
100
AcDbEntity
  8
7_ALL_FEATURES
  6
Continuous
 62
     7
100
AcDbLine
 10
970.931308
 20
676.82447
 30
0.0
 11
970.931308
 21
663.92447
 31
0.0
  0
LINE
  5
56A
330
225
100
AcDbEntity
  8
7_ALL_FEATURES
  6
Continuous
 62
     7
100
AcDbLine
 10
970.940036
 20
676.815742
 30
0.0
 11
970.931308
 21
676.82447
 31
0.0
  0
ELLIPSE
  5
56B
330
225
100
AcDbEntity
  8
7_ALL_FEATURES
  6
Continuous
 62
     7
100
AcDbEllipse
 10
988.743496
 20
676.819233
 30
0.0
 11
0.2
 21
0.0
 31
0.0
210
0.0
220
0.0
230
1.0
 40
0.017455
 41
-1.5707963268
 42
-0.0174532924999999
  0
LINE
  5
56C
330
225
100
AcDbEntity
  8
7_ALL_FEATURES
  6
Continuous
 62
     9
100
AcDbLine
 10
988.943466
 20
663.919172
 30
0.0
 11
988.943466
 21
676.819172
 31
0.0
  0
LINE
  5
56D
330
225
100
AcDbEntity
  8
7_ALL_FEATURES
  6
Continuous
 62
     9
100
AcDbLine
 10
988.743496
 20
676.815742
 30
0.0
 11
988.743496
 21
663.719203
 31
0.0
  0
LINE
  5
56E
330
225
100
AcDbEntity
  8
7_ALL_FEATURES
  6
Continuous
 62
     9
100
AcDbLine
 10
1000.754625
 20
640.824612
 30
0.0
 11
1000.865431
 21
642.091137
 31
0.0
  0
LINE
  5
56F
330
225
100
AcDbEntity
  8
7_ALL_FEATURES
  6
Continuous
 62
     9
100
AcDbLine
 10
1000.256603
 20
640.868183
 30
0.0
 11
1000.256603
 21
640.36826
 31
0.0
  0
LINE
  5
570
330
225
100
AcDbEntity
  8
7_ALL_FEATURES
  6
Continuous
 62
     9
100
AcDbLine
 10
1000.754625
 20
640.824612
 30
0.0
 11
1000.256603
 21
640.868183
 31
0.0
  0
ARC
  5
571
330
225
100
AcDbEntity
  8
7_ALL_FEATURES
  6
Continuous
 62
     9
100
AcDbCircle
 10
1000.256439
 20
640.868363
 30
0.0
 40
0.5001033162
100
AcDbArc
 50
270.018838
 51
354.981162
  0
LINE
  5
572
330
225
100
AcDbEntity
  8
7_ALL_FEATURES
  6
Continuous
 62
     9
100
AcDbLine
 10
1000.256603
 20
640.868183
 30
0.0
 11
999.642477
 21
640.868183
 31
0.0
  0
LINE
  5
573
330
225
100
AcDbEntity
  8
7_ALL_FEATURES
  6
Continuous
 62
     9
100
AcDbLine
 10
960.237594
 20
640.868183
 30
0.0
 11
959.623469
 21
640.868183
 31
0.0
  0
LINE
  5
574
330
225
100
AcDbEntity
  8
7_ALL_FEATURES
  6
Continuous
 62
     9
100
AcDbLine
 10
959.623469
 20
640.36826
 30
0.0
 11
960.690036
 21
640.36826
 31
0.0
  0
LINE
  5
575
330
225
100
AcDbEntity
  8
7_ALL_FEATURES
  6
Continuous
 62
     9
100
AcDbLine
 10
960.690036
 20
640.36826
 30
0.0
 11
999.190036
 21
640.36826
 31
0.0
  0
LINE
  5
576
330
225
100
AcDbEntity
  8
7_ALL_FEATURES
  6
Continuous
 62
     9
100
AcDbLine
 10
999.190036
 20
640.36826
 30
0.0
 11
1000.256603
 21
640.36826
 31
0.0
  0
LINE
  5
577
330
225
100
AcDbEntity
  8
7_ALL_FEATURES
  6
Continuous
 62
     9
100
AcDbLine
 10
959.623469
 20
640.868183
 30
0.0
 11
959.125447
 21
640.824612
 31
0.0
  0
LINE
  5
578
330
225
100
AcDbEntity
  8
7_ALL_FEATURES
  6
Continuous
 62
     9
100
AcDbLine
 10
959.623469
 20
640.36826
 30
0.0
 11
959.623469
 21
640.868183
 31
0.0
  0
ARC
  5
579
330
225
100
AcDbEntity
  8
7_ALL_FEATURES
  6
Continuous
 62
     9
100
AcDbCircle
 10
959.623633
 20
640.868363
 30
0.0
 40
0.5001033162
100
AcDbArc
 50
185.018838
 51
269.981162
  0
LINE
  5
57A
330
225
100
AcDbEntity
  8
7_ALL_FEATURES
  6
Continuous
 62
     9
100
AcDbLine
 10
959.014641
 20
642.091137
 30
0.0
 11
959.125447
 21
640.824612
 31
0.0
  0
LINE
  5
57B
330
225
100
AcDbEntity
  8
7_ALL_FEATURES
  6
Continuous
 62
     9
100
AcDbLine
 10
1000.256603
 20
640.868183
 30
0.0
 11
1000.315483
 21
641.54119
 31
0.0
  0
LINE
  5
57C
330
225
100
AcDbEntity
  8
7_ALL_FEATURES
  6
Continuous
 62
     9
100
AcDbLine
 10
959.564588
 20
641.54119
 30
0.0
 11
959.623469
 21
640.868183
 31
0.0
  0
LINE
  5
57D
330
225
100
AcDbEntity
  8
7_ALL_FEATURES
  6
Continuous
 62
     9
100
AcDbLine
 10
970.443466
 20
664.412312
 30
0.0
 11
970.443466
 21
677.311378
 31
0.0
  0
LINE
  5
57E
330
225
100
AcDbEntity
  8
7_ALL_FEATURES
  6
Continuous
 62
     9
100
AcDbLine
 10
970.243496
 20
677.512282
 30
0.0
 11
970.243496
 21
664.612282
 31
0.0
  0
LINE
  5
57F
330
225
100
AcDbEntity
  8
7_ALL_FEATURES
  6
Continuous
 62
     9
100
AcDbLine
 10
969.708586
 20
713.847298
 30
0.0
 11
969.708586
 21
694.784186
 31
0.0
  0
LINE
  5
580
330
225
100
AcDbEntity
  8
7_ALL_FEATURES
  6
Continuous
 62
     9
100
AcDbLine
 10
969.908556
 20
694.784186
 30
0.0
 11
969.908556
 21
713.847298
 31
0.0
  0
LINE
  5
581
330
225
100
AcDbEntity
  8
7_ALL_FEATURES
  6
Continuous
 62
     9
100
AcDbLine
 10
970.40848
 20
694.084293
 30
0.0
 11
970.40848
 21
694.284262
 31
0.0
  0
SPLINE
  5
582
330
225
100
AcDbEntity
  8
7_ALL_FEATURES
  6
Continuous
 62
     9
100
AcDbSpline
 70
     0
 71
     3
 72
     9
 73
     5
 74
     0
 42
0.000000001
 43
0.0000001
 40
0.0
 40
0.0
 40
0.0
 40
0.0
 40
0.4999990354
 40
1.0
 40
1.0
 40
1.0
 40
1.0
 10
969.9135673668
 20
694.2892736404
 30
0.0
 10
969.9782200266
 20
694.2251862515
 30
0.0
 10
970.1333868401
 20
694.1200601835
 30
0.0
 10
970.3174462895
 20
694.0846797631
 30
0.0
 10
970.4084796562
 20
694.0842925432
 30
0.0
  0
SPLINE
  5
583
330
225
100
AcDbEntity
  8
7_ALL_FEATURES
  6
Continuous
 62
     9
100
AcDbSpline
 70
     0
 71
     3
 72
     9
 73
     5
 74
     0
 42
0.000000001
 43
0.0000001
 40
0.0
 40
0.0
 40
0.0
 40
0.0
 40
0.5000009646
 40
1.0
 40
1.0
 40
1.0
 40
1.0
 10
969.7085862696
 20
694.7841859298
 30
0.0
 10
969.7089734893
 20
694.6931525632
 30
0.0
 10
969.7443539099
 20
694.5090931137
 30
0.0
 10
969.849479978
 20
694.3539263004
 30
0.0
 10
969.9135673668
 20
694.2892736404
 30
0.0
  0
LINE
  5
584
330
225
100
AcDbEntity
  8
7_ALL_FEATURES
  6
Continuous
 62
     9
100
AcDbLine
 10
969.908556
 20
694.784186
 30
0.0
 11
969.708586
 21
694.784186
 31
0.0
  0
LINE
  5
585
330
225
100
AcDbEntity
  8
7_ALL_FEATURES
  6
Continuous
 62
     9
100
AcDbLine
 10
970.40848
 20
694.084293
 30
0.0
 11
989.471592
 21
694.084293
 31
0.0
  0
LINE
  5
586
330
225
100
AcDbEntity
  8
7_ALL_FEATURES
  6
Continuous
 62
     9
100
AcDbLine
 10
989.471592
 20
694.284262
 30
0.0
 11
970.40848
 21
694.284262
 31
0.0
  0
LINE
  5
587
330
225
100
AcDbEntity
  8
7_ALL_FEATURES
  6
Continuous
 62
     9
100
AcDbLine
 10
990.171485
 20
694.784186
 30
0.0
 11
989.971516
 21
694.784186
 31
0.0
  0
SPLINE
  5
588
330
225
100
AcDbEntity
  8
7_ALL_FEATURES
  6
Continuous
 62
     9
100
AcDbSpline
 70
     0
 71
     3
 72
     9
 73
     5
 74
     0
 42
0.000000001
 43
0.0000001
 40
0.0
 40
0.0
 40
0.0
 40
0.0
 40
0.4999990354
 40
1.0
 40
1.0
 40
1.0
 40
1.0
 10
989.9665043373
 20
694.2892736404
 30
0.0
 10
990.0305917263
 20
694.3539263002
 30
0.0
 10
990.1357177943
 20
694.5090931137
 30
0.0
 10
990.1710982147
 20
694.6931525632
 30
0.0
 10
990.1714854346
 20
694.7841859298
 30
0.0
  0
SPLINE
  5
589
330
225
100
AcDbEntity
  8
7_ALL_FEATURES
  6
Continuous
 62
     9
100
AcDbSpline
 70
     0
 71
     3
 72
     9
 73
     5
 74
     0
 42
0.000000001
 43
0.0000001
 40
0.0
 40
0.0
 40
0.0
 40
0.0
 40
0.5000009646
 40
1.0
 40
1.0
 40
1.0
 40
1.0
 10
989.4715920479
 20
694.0842925432
 30
0.0
 10
989.5626254146
 20
694.0846797629
 30
0.0
 10
989.7466848641
 20
694.1200601835
 30
0.0
 10
989.9018516774
 20
694.2251862516
 30
0.0
 10
989.9665043373
 20
694.2892736404
 30
0.0
  0
LINE
  5
58A
330
225
100
AcDbEntity
  8
7_ALL_FEATURES
  6
Continuous
 62
     9
100
AcDbLine
 10
989.471592
 20
694.284262
 30
0.0
 11
989.471592
 21
694.084293
 31
0.0
  0
LINE
  5
58B
330
225
100
AcDbEntity
  8
7_ALL_FEATURES
  6
Continuous
 62
     9
100
AcDbLine
 10
989.971516
 20
713.847298
 30
0.0
 11
989.971516
 21
694.784186
 31
0.0
  0
LINE
  5
58C
330
225
100
AcDbEntity
  8
7_ALL_FEATURES
  6
Continuous
 62
     9
100
AcDbLine
 10
990.171485
 20
694.784186
 30
0.0
 11
990.171485
 21
713.847298
 31
0.0
  0
LINE
  5
58D
330
225
100
AcDbEntity
  8
7_ALL_FEATURES
  6
Continuous
 62
     9
100
AcDbLine
 10
989.948611
 20
694.807091
 30
0.0
 11
989.971516
 21
694.784186
 31
0.0
  0
LINE
  5
58E
330
225
100
AcDbEntity
  8
7_ALL_FEATURES
  6
Continuous
 62
     9
100
AcDbLine
 10
989.971516
 20
713.847298
 30
0.0
 11
989.948611
 21
713.824393
 31
0.0
  0
ARC
  5
58F
330
225
100
AcDbEntity
  8
7_ALL_FEATURES
  6
Continuous
 62
     9
100
AcDbCircle
 10
989.47171
 20
694.784068
 30
0.0
 40
0.4998062548
100
AcDbArc
 50
269.986519
 51
0.013483
  0
LINE
  5
590
330
225
100
AcDbEntity
  8
7_ALL_FEATURES
  6
Continuous
 62
     9
100
AcDbLine
 10
970.431384
 20
694.307167
 30
0.0
 11
970.40848
 21
694.284262
 31
0.0
  0
LINE
  5
591
330
225
100
AcDbEntity
  8
7_ALL_FEATURES
  6
Continuous
 62
     9
100
AcDbLine
 10
989.471592
 20
694.284262
 30
0.0
 11
989.448687
 21
694.307167
 31
0.0
  0
ARC
  5
592
330
225
100
AcDbEntity
  8
7_ALL_FEATURES
  6
Continuous
 62
     9
100
AcDbCircle
 10
970.408362
 20
694.784068
 30
0.0
 40
0.4998062548
100
AcDbArc
 50
179.986517
 51
270.013481
  0
LINE
  5
593
330
225
100
AcDbEntity
  8
7_ALL_FEATURES
  6
Continuous
 62
     9
100
AcDbLine
 10
969.931461
 20
713.824393
 30
0.0
 11
969.908556
 21
713.847298
 31
0.0
  0
LINE
  5
594
330
225
100
AcDbEntity
  8
7_ALL_FEATURES
  6
Continuous
 62
     9
100
AcDbLine
 10
969.908556
 20
694.784186
 30
0.0
 11
969.931461
 21
694.807091
 31
0.0
  0
ARC
  5
595
330
225
100
AcDbEntity
  8
7_ALL_FEATURES
  6
Continuous
 62
     9
100
AcDbCircle
 10
970.408362
 20
713.847416
 30
0.0
 40
0.4998062548
100
AcDbArc
 50
89.986517
 51
180.013481
  0
LINE
  5
596
330
225
100
AcDbEntity
  8
7_ALL_FEATURES
  6
Continuous
 62
     9
100
AcDbLine
 10
989.448687
 20
714.324317
 30
0.0
 11
989.471592
 21
714.347222
 31
0.0
  0
LINE
  5
597
330
225
100
AcDbEntity
  8
7_ALL_FEATURES
  6
Continuous
 62
     9
100
AcDbLine
 10
970.40848
 20
714.347222
 30
0.0
 11
970.431384
 21
714.324317
 31
0.0
  0
ARC
  5
598
330
225
100
AcDbEntity
  8
7_ALL_FEATURES
  6
Continuous
 62
     9
100
AcDbCircle
 10
989.47171
 20
713.847416
 30
0.0
 40
0.4998062548
100
AcDbArc
 50
359.986519
 51
90.013483
  0
ARC
  5
599
330
225
100
AcDbEntity
  8
7_ALL_FEATURES
  6
Continuous
 62
     9
100
AcDbCircle
 10
989.448503
 20
713.82421
 30
0.0
 40
0.5001077272
100
AcDbArc
 50
0.021063
 51
89.978937
  0
LINE
  5
59A
330
225
100
AcDbEntity
  8
7_ALL_FEATURES
  6
Continuous
 62
     7
100
AcDbLine
 10
989.448687
 20
713.824393
 30
0.0
 11
989.948611
 21
713.824393
 31
0.0
  0
LINE
  5
59B
330
225
100
AcDbEntity
  8
7_ALL_FEATURES
  6
Continuous
 62
     9
100
AcDbLine
 10
989.448687
 20
714.324317
 30
0.0
 11
989.448687
 21
713.824393
 31
0.0
  0
LINE
  5
59C
330
225
100
AcDbEntity
  8
7_ALL_FEATURES
  6
Continuous
 62
     9
100
AcDbLine
 10
989.948611
 20
694.807091
 30
0.0
 11
989.948611
 21
713.824393
 31
0.0
  0
LINE
  5
59D
330
225
100
AcDbEntity
  8
7_ALL_FEATURES
  6
Continuous
 62
     9
100
AcDbLine
 10
989.448687
 20
713.824393
 30
0.0
 11
989.448687
 21
694.807091
 31
0.0
  0
LINE
  5
59E
330
225
100
AcDbEntity
  8
7_ALL_FEATURES
  6
Continuous
 62
     7
100
AcDbLine
 10
989.948611
 20
694.807091
 30
0.0
 11
989.448687
 21
694.807091
 31
0.0
  0
ARC
  5
59F
330
225
100
AcDbEntity
  8
7_ALL_FEATURES
  6
Continuous
 62
     9
100
AcDbCircle
 10
989.448503
 20
694.807275
 30
0.0
 40
0.5001077272
100
AcDbArc
 50
270.021063
 51
359.978937
  0
LINE
  5
5A0
330
225
100
AcDbEntity
  8
7_ALL_FEATURES
  6
Continuous
 62
     9
100
AcDbLine
 10
989.448687
 20
694.807091
 30
0.0
 11
989.448687
 21
694.307167
 31
0.0
  0
LINE
  5
5A1
330
225
100
AcDbEntity
  8
7_ALL_FEATURES
  6
Continuous
 62
     9
100
AcDbLine
 10
989.448687
 20
694.807091
 30
0.0
 11
970.431384
 21
694.807091
 31
0.0
  0
LINE
  5
5A2
330
225
100
AcDbEntity
  8
7_ALL_FEATURES
  6
Continuous
 62
     9
100
AcDbLine
 10
970.431384
 20
694.307167
 30
0.0
 11
989.448687
 21
694.307167
 31
0.0
  0
LINE
  5
5A3
330
225
100
AcDbEntity
  8
7_ALL_FEATURES
  6
Continuous
 62
     7
100
AcDbLine
 10
970.431384
 20
694.807091
 30
0.0
 11
969.931461
 21
694.807091
 31
0.0
  0
LINE
  5
5A4
330
225
100
AcDbEntity
  8
7_ALL_FEATURES
  6
Continuous
 62
     9
100
AcDbLine
 10
970.431384
 20
694.307167
 30
0.0
 11
970.431384
 21
694.807091
 31
0.0
  0
ARC
  5
5A5
330
225
100
AcDbEntity
  8
7_ALL_FEATURES
  6
Continuous
 62
     9
100
AcDbCircle
 10
970.431568
 20
694.807275
 30
0.0
 40
0.500107727
100
AcDbArc
 50
180.021063
 51
269.978937
  0
LINE
  5
5A6
330
225
100
AcDbEntity
  8
7_ALL_FEATURES
  6
Continuous
 62
     9
100
AcDbLine
 10
970.431384
 20
694.807091
 30
0.0
 11
970.431384
 21
713.824393
 31
0.0
  0
LINE
  5
5A7
330
225
100
AcDbEntity
  8
7_ALL_FEATURES
  6
Continuous
 62
     9
100
AcDbLine
 10
969.931461
 20
713.824393
 30
0.0
 11
969.931461
 21
694.807091
 31
0.0
  0
LINE
  5
5A8
330
225
100
AcDbEntity
  8
7_ALL_FEATURES
  6
Continuous
 62
     9
100
AcDbLine
 10
970.431384
 20
713.824393
 30
0.0
 11
970.431384
 21
714.324317
 31
0.0
  0
LINE
  5
5A9
330
225
100
AcDbEntity
  8
7_ALL_FEATURES
  6
Continuous
 62
     7
100
AcDbLine
 10
969.931461
 20
713.824393
 30
0.0
 11
970.431384
 21
713.824393
 31
0.0
  0
ARC
  5
5AA
330
225
100
AcDbEntity
  8
7_ALL_FEATURES
  6
Continuous
 62
     9
100
AcDbCircle
 10
970.431568
 20
713.82421
 30
0.0
 40
0.5001077272
100
AcDbArc
 50
90.021063
 51
179.978937
  0
LINE
  5
5AB
330
225
100
AcDbEntity
  8
7_ALL_FEATURES
  6
Continuous
 62
     9
100
AcDbLine
 10
989.448687
 20
714.324317
 30
0.0
 11
970.431384
 21
714.324317
 31
0.0
  0
LINE
  5
5AC
330
225
100
AcDbEntity
  8
7_ALL_FEATURES
  6
Continuous
 62
     9
100
AcDbLine
 10
970.431384
 20
713.824393
 30
0.0
 11
989.448687
 21
713.824393
 31
0.0
  0
LINE
  5
5AD
330
225
100
AcDbEntity
  8
7_ALL_FEATURES
  6
Continuous
 62
     9
100
AcDbLine
 10
989.971516
 20
713.847298
 30
0.0
 11
990.171485
 21
713.847298
 31
0.0
  0
LINE
  5
5AE
330
225
100
AcDbEntity
  8
7_ALL_FEATURES
  6
Continuous
 62
     9
100
AcDbLine
 10
989.471592
 20
714.547192
 30
0.0
 11
989.471592
 21
714.347222
 31
0.0
  0
SPLINE
  5
5AF
330
225
100
AcDbEntity
  8
7_ALL_FEATURES
  6
Continuous
 62
     9
100
AcDbSpline
 70
     0
 71
     3
 72
     9
 73
     5
 74
     0
 42
0.000000001
 43
0.0000001
 40
0.0
 40
0.0
 40
0.0
 40
0.0
 40
0.4999990354
 40
1.0
 40
1.0
 40
1.0
 40
1.0
 10
989.9665043373
 20
714.342210611
 30
0.0
 10
989.9018516776
 20
714.4062979999
 30
0.0
 10
989.746684864
 20
714.5114240679
 30
0.0
 10
989.5626254146
 20
714.5468044883
 30
0.0
 10
989.4715920479
 20
714.5471917082
 30
0.0
  0
SPLINE
  5
5B0
330
225
100
AcDbEntity
  8
7_ALL_FEATURES
  6
Continuous
 62
     9
100
AcDbSpline
 70
     0
 71
     3
 72
     9
 73
     5
 74
     0
 42
0.000000001
 43
0.0000001
 40
0.0
 40
0.0
 40
0.0
 40
0.0
 40
0.5000009646
 40
1.0
 40
1.0
 40
1.0
 40
1.0
 10
990.1714854346
 20
713.8472983216
 30
0.0
 10
990.1710982149
 20
713.9383316882
 30
0.0
 10
990.1357177943
 20
714.1223911377
 30
0.0
 10
990.0305917261
 20
714.277557951
 30
0.0
 10
989.9665043373
 20
714.342210611
 30
0.0
  0
LINE
  5
5B1
330
225
100
AcDbEntity
  8
7_ALL_FEATURES
  6
Continuous
 62
     9
100
AcDbLine
 10
970.40848
 20
714.347222
 30
0.0
 11
989.471592
 21
714.347222
 31
0.0
  0
LINE
  5
5B2
330
225
100
AcDbEntity
  8
7_ALL_FEATURES
  6
Continuous
 62
     9
100
AcDbLine
 10
989.471592
 20
714.547192
 30
0.0
 11
970.40848
 21
714.547192
 31
0.0
  0
LINE
  5
5B3
330
225
100
AcDbEntity
  8
7_ALL_FEATURES
  6
Continuous
 62
     9
100
AcDbLine
 10
969.708586
 20
713.847298
 30
0.0
 11
969.908556
 21
713.847298
 31
0.0
  0
SPLINE
  5
5B4
330
225
100
AcDbEntity
  8
7_ALL_FEATURES
  6
Continuous
 62
     9
100
AcDbSpline
 70
     0
 71
     3
 72
     9
 73
     5
 74
     0
 42
0.000000001
 43
0.0000001
 40
0.0
 40
0.0
 40
0.0
 40
0.0
 40
0.4999990354
 40
1.0
 40
1.0
 40
1.0
 40
1.0
 10
969.9135673668
 20
714.342210611
 30
0.0
 10
969.8494799779
 20
714.2775579512
 30
0.0
 10
969.7443539099
 20
714.1223911377
 30
0.0
 10
969.7089734895
 20
713.9383316882
 30
0.0
 10
969.7085862696
 20
713.8472983216
 30
0.0
  0
SPLINE
  5
5B5
330
225
100
AcDbEntity
  8
7_ALL_FEATURES
  6
Continuous
 62
     9
100
AcDbSpline
 70
     0
 71
     3
 72
     9
 73
     5
 74
     0
 42
0.000000001
 43
0.0000001
 40
0.0
 40
0.0
 40
0.0
 40
0.0
 40
0.5000009646
 40
1.0
 40
1.0
 40
1.0
 40
1.0
 10
970.4084796562
 20
714.5471917082
 30
0.0
 10
970.3174462895
 20
714.5468044885
 30
0.0
 10
970.13338684
 20
714.5114240679
 30
0.0
 10
969.9782200267
 20
714.4062979998
 30
0.0
 10
969.9135673668
 20
714.342210611
 30
0.0
  0
LINE
  5
5B6
330
225
100
AcDbEntity
  8
7_ALL_FEATURES
  6
Continuous
 62
     9
100
AcDbLine
 10
970.40848
 20
714.347222
 30
0.0
 11
970.40848
 21
714.547192
 31
0.0
  0
LINE
  5
5B7
330
225
100
AcDbEntity
  8
7_ALL_FEATURES
  6
Continuous
 62
     9
100
AcDbLine
 10
989.636575
 20
664.612282
 30
0.0
 11
989.636575
 21
677.512282
 31
0.0
  0
LINE
  5
5B8
330
225
100
AcDbEntity
  8
7_ALL_FEATURES
  6
Continuous
 62
     9
100
AcDbLine
 10
989.436606
 20
677.311378
 30
0.0
 11
989.436606
 21
664.412312
 31
0.0
  0
LINE
  5
5B9
330
225
100
AcDbEntity
  8
7_ALL_FEATURES
  6
Continuous
 62
     7
100
AcDbLine
 10
989.436606
 20
677.312312
 30
0.0
 11
989.636575
 21
677.512282
 31
0.0
  0
LINE
  5
5BA
330
225
100
AcDbEntity
  8
7_ALL_FEATURES
  6
Continuous
 62
     9
100
AcDbLine
 10
970.4444
 20
677.312312
 30
0.0
 11
989.435672
 21
677.312312
 31
0.0
  0
LINE
  5
5BB
330
225
100
AcDbEntity
  8
7_ALL_FEATURES
  6
Continuous
 62
     7
100
AcDbLine
 10
970.243496
 20
677.512282
 30
0.0
 11
970.443466
 21
677.312312
 31
0.0
  0
LINE
  5
5BC
330
225
100
AcDbEntity
  8
7_ALL_FEATURES
  6
Continuous
 62
     9
100
AcDbLine
 10
989.636575
 20
677.512282
 30
0.0
 11
970.243496
 21
677.512282
 31
0.0
  0
LINE
  5
5BD
330
225
100
AcDbEntity
  8
7_ALL_FEATURES
  6
Continuous
 62
     7
100
AcDbLine
 10
970.4444
 20
677.312312
 30
0.0
 11
970.4444
 21
677.310445
 31
0.0
  0
LINE
  5
5BE
330
225
100
AcDbEntity
  8
7_ALL_FEATURES
  6
Continuous
 62
     9
100
AcDbLine
 10
970.645303
 20
664.210475
 30
0.0
 11
970.645303
 21
677.110475
 31
0.0
  0
LINE
  5
5BF
330
225
100
AcDbEntity
  8
7_ALL_FEATURES
  6
Continuous
 62
     9
100
AcDbLine
 10
970.445333
 20
677.311378
 30
0.0
 11
970.445333
 21
664.410445
 31
0.0
  0
SPLINE
  5
5C0
330
225
100
AcDbEntity
  8
7_ALL_FEATURES
  6
Continuous
 62
     7
100
AcDbSpline
 70
     0
 71
     3
 72
    13
 73
     9
 74
     0
 42
0.000000001
 43
0.0000001
 40
0.0
 40
0.0
 40
0.0
 40
0.0
 40
0.3819525835
 40
0.7053656396
 40
0.8288663175
 40
0.9208596782
 40
0.9782246174
 40
1.0
 40
1.0
 40
1.0
 40
1.0
 10
989.4313083196
 20
677.1104751406
 30
0.0
 10
989.4313083196
 20
677.1360654403
 30
0.0
 10
989.43154236
 20
677.1832749915
 30
0.0
 10
989.431873297
 20
677.2389610578
 30
0.0
 10
989.4329723405
 20
677.2748303956
 30
0.0
 10
989.4328822313
 20
677.293515005
 30
0.0
 10
989.4346517457
 20
677.3041987451
 30
0.0
 10
989.4337826465
 20
677.3103467467
 30
0.0
 10
989.4348142593
 20
677.3113783595
 30
0.0
  0
LINE
  5
5C1
330
225
100
AcDbEntity
  8
7_ALL_FEATURES
  6
Continuous
 62
     9
100
AcDbLine
 10
970.645303
 20
677.110475
 30
0.0
 11
989.431308
 21
677.110475
 31
0.0
  0
SPLINE
  5
5C2
330
225
100
AcDbEntity
  8
7_ALL_FEATURES
  6
Continuous
 62
     7
100
AcDbSpline
 70
     0
 71
     3
 72
     9
 73
     5
 74
     0
 42
0.000000001
 43
0.0000001
 40
0.0
 40
0.0
 40
0.0
 40
0.0
 40
0.1093366479
 40
1.0
 40
1.0
 40
1.0
 40
1.0
 10
970.4459683822
 20
677.3104446796
 30
0.0
 10
970.4532449186
 20
677.3031681432
 30
0.0
 10
970.5179411342
 20
677.2347915095
 30
0.0
 10
970.5860277044
 20
677.1697502734
 30
0.0
 10
970.6453028372
 20
677.1104751406
 30
0.0
  0
LINE
  5
5C3
330
225
100
AcDbEntity
  8
7_ALL_FEATURES
  6
Continuous
 62
     9
100
AcDbLine
 10
989.435672
 20
677.310445
 30
0.0
 11
970.4444
 21
677.310445
 31
0.0
  0
LINE
  5
5C4
330
225
100
AcDbEntity
  8
7_ALL_FEATURES
  6
Continuous
 62
     7
100
AcDbLine
 10
989.436606
 20
677.311378
 30
0.0
 11
989.434814
 21
677.311378
 31
0.0
  0
LINE
  5
5C5
330
225
100
AcDbEntity
  8
7_ALL_FEATURES
  6
Continuous
 62
     7
100
AcDbLine
 10
988.948763
 20
676.82447
 30
0.0
 11
988.948763
 21
663.92447
 31
0.0
  0
LINE
  5
5C6
330
225
100
AcDbEntity
  8
7_ALL_FEATURES
  6
Continuous
 62
     7
100
AcDbLine
 10
989.431308
 20
664.407015
 30
0.0
 11
989.431308
 21
677.110475
 31
0.0
  0
LINE
  5
5C7
330
225
100
AcDbEntity
  8
7_ALL_FEATURES
  6
Continuous
 62
     7
100
AcDbLine
 10
988.948763
 20
676.82447
 30
0.0
 11
970.931308
 21
676.82447
 31
0.0
  0
LINE
  5
5C8
330
225
100
AcDbEntity
  8
7_ALL_FEATURES
  6
Continuous
 62
     7
100
AcDbLine
 10
988.943466
 20
676.819172
 30
0.0
 11
988.948763
 21
676.82447
 31
0.0
  0
LINE
  5
5C9
330
225
100
AcDbEntity
  8
7_ALL_FEATURES
  6
Continuous
 62
     7
100
AcDbLine
 10
992.440036
 20
719.315742
 30
0.0
 11
967.440036
 21
719.315742
 31
0.0
  0
LINE
  5
5CA
330
225
100
AcDbEntity
  8
7_ALL_FEATURES
  6
Continuous
 62
     7
100
AcDbLine
 10
967.440036
 20
727.415742
 30
0.0
 11
967.440036
 21
667.415742
 31
0.0
  0
LINE
  5
5CB
330
225
100
AcDbEntity
  8
7_ALL_FEATURES
  6
Continuous
 62
     7
100
AcDbLine
 10
972.440036
 20
662.415742
 30
0.0
 11
987.440036
 21
662.415742
 31
0.0
  0
LINE
  5
5CC
330
225
100
AcDbEntity
  8
7_ALL_FEATURES
  6
Continuous
 62
     7
100
AcDbLine
 10
992.440036
 20
727.415742
 30
0.0
 11
992.440036
 21
667.415742
 31
0.0
  0
LINE
  5
5CD
330
225
100
AcDbEntity
  8
7_ALL_FEATURES
  6
Continuous
 62
     7
100
AcDbLine
 10
992.440036
 20
727.415742
 30
0.0
 11
1014.940036
 21
727.415742
 31
0.0
  0
LINE
  5
5CE
330
225
100
AcDbEntity
  8
7_ALL_FEATURES
  6
Continuous
 62
     7
100
AcDbLine
 10
1014.940036
 20
727.415742
 30
0.0
 11
1014.940036
 21
695.415742
 31
0.0
  0
LINE
  5
5CF
330
225
100
AcDbEntity
  8
7_ALL_FEATURES
  6
Continuous
 62
     7
100
AcDbLine
 10
1014.940036
 20
695.415742
 30
0.0
 11
1004.190036
 21
695.415742
 31
0.0
  0
LINE
  5
5D0
330
225
100
AcDbEntity
  8
7_ALL_FEATURES
  6
Continuous
 62
     7
100
AcDbLine
 10
1004.190036
 20
645.415742
 30
0.0
 11
1004.190036
 21
695.415742
 31
0.0
  0
LINE
  5
5D1
330
225
100
AcDbEntity
  8
7_ALL_FEATURES
  6
Continuous
 62
     7
100
AcDbLine
 10
999.190036
 20
640.415742
 30
0.0
 11
1004.190036
 21
645.415742
 31
0.0
  0
LINE
  5
5D2
330
225
100
AcDbEntity
  8
7_ALL_FEATURES
  6
Continuous
 62
     7
100
AcDbLine
 10
999.190036
 20
640.415742
 30
0.0
 11
960.690036
 21
640.415742
 31
0.0
  0
LINE
  5
5D3
330
225
100
AcDbEntity
  8
7_ALL_FEATURES
  6
Continuous
 62
     7
100
AcDbLine
 10
955.690036
 20
645.415742
 30
0.0
 11
960.690036
 21
640.415742
 31
0.0
  0
LINE
  5
5D4
330
225
100
AcDbEntity
  8
7_ALL_FEATURES
  6
Continuous
 62
     7
100
AcDbLine
 10
955.690036
 20
645.415742
 30
0.0
 11
955.690036
 21
695.415742
 31
0.0
  0
LINE
  5
5D5
330
225
100
AcDbEntity
  8
7_ALL_FEATURES
  6
Continuous
 62
     7
100
AcDbLine
 10
944.940036
 20
695.415742
 30
0.0
 11
955.690036
 21
695.415742
 31
0.0
  0
LINE
  5
5D6
330
225
100
AcDbEntity
  8
7_ALL_FEATURES
  6
Continuous
 62
     7
100
AcDbLine
 10
944.940036
 20
695.415742
 30
0.0
 11
944.940036
 21
727.415742
 31
0.0
  0
LINE
  5
5D7
330
225
100
AcDbEntity
  8
7_ALL_FEATURES
  6
Continuous
 62
     7
100
AcDbLine
 10
944.940036
 20
727.415742
 30
0.0
 11
967.440036
 21
727.415742
 31
0.0
  0
LINE
  5
5D8
330
225
100
AcDbEntity
  8
7_ALL_FEATURES
  6
Continuous
 62
     7
100
AcDbLine
 10
972.440036
 20
662.415742
 30
0.0
 11
967.440036
 21
667.415742
 31
0.0
  0
LINE
  5
5D9
330
225
100
AcDbEntity
  8
7_ALL_FEATURES
  6
Continuous
 62
     7
100
AcDbLine
 10
992.440036
 20
667.415742
 30
0.0
 11
987.440036
 21
662.415742
 31
0.0
  0
LINE
  5
5DA
330
225
100
AcDbEntity
  8
7_ALL_FEATURES
  6
Continuous
 62
     3
100
AcDbLine
 10
955.267668
 20
664.855457
 30
0.0
 11
955.690036
 21
663.81006
 31
0.0
  0
ARC
  5
5DB
330
225
100
AcDbEntity
  8
7_ALL_FEATURES
  6
Continuous
 62
     3
100
AcDbCircle
 10
956.194852
 20
665.230063
 30
0.0
 40
1.0
100
AcDbArc
 50
149.0
 51
202.0
  0
LINE
  5
5DC
330
225
100
AcDbEntity
  8
7_ALL_FEATURES
  6
Continuous
 62
     3
100
AcDbLine
 10
955.337685
 20
665.745101
 30
0.0
 11
955.690036
 21
666.331512
 31
0.0
  0
LINE
  5
5DD
330
225
100
AcDbEntity
  8
7_ALL_FEATURES
  6
Continuous
 62
     3
100
AcDbLine
 10
1004.190036
 20
663.81006
 30
0.0
 11
1004.612404
 21
664.855457
 31
0.0
  0
ARC
  5
5DE
330
225
100
AcDbEntity
  8
7_ALL_FEATURES
  6
Continuous
 62
     3
100
AcDbCircle
 10
1003.68522
 20
665.230063
 30
0.0
 40
1.0
100
AcDbArc
 50
338.0
 51
31.0
  0
LINE
  5
5DF
330
225
100
AcDbEntity
  8
7_ALL_FEATURES
  6
Continuous
 62
     3
100
AcDbLine
 10
1004.190036
 20
666.331512
 30
0.0
 11
1004.542387
 21
665.745101
 31
0.0
  0
DIMENSION
  5
5E0
330
225
100
AcDbEntity
  8
0
  6
Continuous
 62
     2
100
AcDbDimension
280
     0
  2
*D1
 10
162.953419
 20
334.446847
 30
0.0
 11
410.739145
 21
334.446847
 31
0.0
 70
   160
  1
500
 71
     2
 42
499.0
 73
     0
 74
     0
 75
     0
  3
DIMSTYLE_1
100
AcDbAlignedDimension
 13
661.953419
 23
374.015565
 33
0.0
 14
162.953419
 24
370.696847
 34
0.0
 50
180.0
100
AcDbRotatedDimension
  0
DIMENSION
  5
5E1
330
225
100
AcDbEntity
  8
0
  6
Continuous
 62
     2
100
AcDbDimension
280
     0
  2
*D2
 10
713.589828
 20
400.367102
 30
0.0
 11
713.589828
 21
426.652812
 31
0.0
 70
   160
 71
     2
 42
56.0
 73
     0
 74
     0
 75
     0
  3
DIMSTYLE_2
100
AcDbAlignedDimension
 13
683.089828
 23
456.367102
 33
0.0
 14
684.038033
 24
400.367102
 34
0.0
 50
270.0
100
AcDbRotatedDimension
  0
DIMENSION
  5
5E2
330
225
100
AcDbEntity
  8
0
  6
Continuous
 62
     2
100
AcDbDimension
280
     0
  2
*D3
 10
715.082605
 20
640.315742
 30
0.0
 11
715.082605
 21
682.151431
 31
0.0
 70
   160
 71
     2
 42
87.1
 73
     0
 74
     0
 75
     0
  3
DIMSTYLE_3
100
AcDbAlignedDimension
 13
683.089828
 23
727.415742
 33
0.0
 14
682.856751
 24
640.315742
 34
0.0
 50
270.0
100
AcDbRotatedDimension
  0
DIMENSION
  5
5E3
330
225
100
AcDbEntity
  8
0
  6
Continuous
 62
     2
100
AcDbDimension
280
     0
  2
*D4
 10
1071.190257
 20
727.415742
 30
0.0
 11
1071.190257
 21
667.676445
 31
0.0
 70
   160
 71
     2
 42
116.05
 73
     0
 74
     0
 75
     0
  3
DIMSTYLE_2
100
AcDbAlignedDimension
 13
1036.634546
 23
611.365742
 33
0.0
 14
1036.550548
 24
727.415742
 34
0.0
 50
90.0
100
AcDbRotatedDimension
  0
INSERT
  5
5E4
330
225
100
AcDbEntity
  8
0
  6
Continuous
 62
     2
100
AcDbBlockReference
  2
LOGO2_BL0
 10
1015.84587
 20
73.760076
 30
0.0
  0
ACAD_TABLE
  5
5E5
102
{ACAD_XDICTIONARY
360
63C
102
}
330
225
100
AcDbEntity
  8
0
  6
Continuous
 62
     2
160
              3524
310
C40D000019000000880000001D000000000000000000F03F00000000000000000000000000000000B88561DA8CE18E400000000000000000000000000000F03F0000000000000000231C6715A530594000000000000000000000000000000000000000000000F03F0000000000000000000000000000000000000000000000
310
000000000000000000000000000000F03F54000000200000000200000000000000000000000000000000000000000000000000000000000000008066400000000000000000000000000000000000000000000000000000000000000000000000000000F03F5400000020000000020000000000000000000000000000000000
310
00000000000000000000000000000000000000000000000054C0000000000000000000000000000000000000000000000000000000000000F03F5400000020000000020000000000000000004E4000000000000028C00000000000000000000000000080664000000000000028C00000000000000000000000000000000000
310
00000000000000000000000000F03F5400000020000000020000000000000000004E4000000000000038C00000000000000000000000000080664000000000000038C0000000000000000000000000000000000000000000000000000000000000F03F5400000020000000020000000000000000004E4000000000000046C0
310
0000000000000000000000000080664000000000000046C0000000000000000000000000000000000000000000000000000000000000F03F54000000200000000200000000000000000000000000000000004BC0000000000000000000000000008066400000000000004BC000000000000000000000000000000000000000
310
0000000000000000000000F03F540000002000000002000000000000000000000000000000000054C00000000000000000000000000080664000000000000054C0000000000000000000000000000000000000000000000000000000000000F03F5400000020000000020000000000000000004E4000000000000000000000
310
0000000000000000000000004E400000000000004BC0000000000000000000000000000000000000000000000000000000000000F03F540000002000000002000000000000000080614000000000000000000000000000000000000000000080614000000000000038C0000000000000000000000000000000000000000000
310
000000000000000000F03F540000002000000002000000000000000080664000000000000000000000000000000000000000000080664000000000000054C0000000000000000000000000000000000000000000000000000000000000F03F0C0000001000000026000000C000000026000000CDCCCCCCCC7C4F4000000000
310
000022C0000000000000000000000000000000000000000000000000000000000000F03F000000000000F03F000000000000000000000000000000005900390030005F0043005F00300030003200000012000000010000000000000000001840333333333333EB3F0000000000000000000000000000F03F00000000000000
310
000000000000000000000000000000000000000000000000000000000000000000740078007400000000000000BC000000260000003333333333DF614000000000000025C0000000000000000000000000000000000000000000000000000000000000F03F000000000000F03F000000000000000000000000000000005200
310
650076003A0030003100000000000C000000010000000000000000001C40333333333333EB3F0000000000000000000000000000F03F00000000000000000000000000000000000000000000000000000000000000000000000000000000740078007400000000000000C000000026000000CDCCCCCCCC7C4F400000000000
310
8036C0000000000000000000000000000000000000000000000000000000000000F03F000000000000F03F000000000000000000000000000000005300630061006C0065003A0031003A003100000012000000010000000000000000001C40333333333333EB3F0000000000000000000000000000F03F0000000000000000
310
0000000000000000000000000000000000000000000000000000000000000000740078007400000000000000B4000000260000003333333333DF614000000000008035C0000000000000000000000000000000000000000000000000000000000000F03F000000000000F03F00000000000000000000000000000000410032
310
000000000004000000010000000000000000001C40333333333333EB3F0000000000000000000000000000F03F00000000000000000000000000000000000000000000000000000000000000000000000000000000740078007400000000000000C000000026000000CDCCCCCCCC7C4F400000000000C042C0000000000000
310
000000000000000000000000000000000000000000000000F03F000000000000F03F0000000000000000000000000000000052004900560045005200200031002E003000000012000000010000000000000000001C40333333333333EB3F0000000000000000000000000000F03F0000000000000000000000000000000000
310
0000000000000000000000000000000000000000000000740078007400000000000000B800000026000000CDCCCCCCCC7C4F400000000000C049C0000000000000000000000000000000000000000000000000000000000000F03F000000000000F03F0000000000000000000000000000000044004100540045003A000000
310
0A000000010000000000000000001440333333333333EB3F0000000000000000000000000000F03F000000000000000000000000000000000000000000000000000000000000000000000000000000007400780074000000000000001801000026000000CDCCCCCCCCCC07400000000000904DC00000000000000000000000
310
00000000000000000000000000000000000000F03F000000000000F03F0000000000000000000000000000000041006E007900200069006E00740065006700720061006C0020006F00720020007000610072007400690061006C00200072006500700072006F00640075006300740069006F006E0073002000610072006500
310
2000700072006F0068006900620069007400650064000000000068000000010000000000000000001240333333333333EB3F0000000000000000000000000000F03F00000000000000000000000000000000000000000000000000000000000000000000000000000000740078007400000000000000F000000026000000CD
310
CCCCCCCCCC074000000000007850C0000000000000000000000000000000000000000000000000000000000000F03F000000000000F03F0000000000000000000000000000000077006900740068006F007500740020007000720069006F007200200061007500740068006F007200690073006100740069006F006E002000
310
6F00660020004C002000000042000000010000000000000000001240333333333333EB3F0000000000000000000000000000F03F00000000000000000000000000000000000000000000000000000000000000000000000000000000740078007400000000000000B8000000260000000000000000C05D4000000000007850
310
C0000000000000000000000000000000000000000000000000000000000000F03F000000000000F03F0000000000000000000000000000000020000000020000000100000000000000000012407521567F8461C83F0000000000000000000000000000F03F0000000000000000000000000000000000000000000000000000
310
00000000000000000000000000007400780074002E00730068007800000000000000E000000026000000CB811E6ADBF65D4000000000007850C0000000000000000000000000000000000000000000000000000000000000F03F000000000000F03F00000000000000000000000000000000260020004C0020004C00750063
310
0065002000260020004C006900670068007400200073002E0072002E006C002E002C000000000030000000010000000000000000001240333333333333EB3F0000000000000000000000000000F03F000000000000000000000000000000000000000000000000000000000000000000000000000000007400780074000000
310
00000000F800000026000000CDCCCCCCCCCC074000000000002852C0000000000000000000000000000000000000000000000000000000000000F03F000000000000F03F0000000000000000000000000000000069006E0020006100630063006F007200640061006E00630065002000770069007400680020007400680065
310
0020006C0061007700200069006E00200066006F007200630065002E000000000048000000010000000000000000001240333333333333EB3F0000000000000000000000000000F03F00000000000000000000000000000000000000000000000000000000000000000000000000000000740078007400000000000000D800
310
000026000000CDCCCCCCCCCC07400000000000D853C0000000000000000000000000000000000000000000000000000000000000F03F000000000000F03F0000000000000000000000000000000041006C006C0020007200690067006800740073002000720065007300650072007600650064002E00000000002800000001
310
0000000000000000001240333333333333EB3F0000000000000000000000000000F03F00000000000000000000000000000000000000000000000000000000000000000000000000000000740078007400000000000000080000001F000000
100
AcDbBlockReference
  2
*T6
 10
988.193776
 20
100.760076
 30
0.0
100
AcDbTable
342
60E
343
22D
 11
1.0
 21
0.0
 31
0.0
 90
       22
 91
        5
 92
        5
 93
        0
 94
        0
 95
        0
 96
        0
141
12.0
141
12.0
141
20.0
141
10.0
141
26.0
142
20.0
142
20.0
142
20.0
142
80.0
142
40.0
171
     1
172
     0
173
     0
174
     0
175
     3
176
     4
 91
       32
178
     0
145
0.0
140
7.0
 92
        0
301
CELL_VALUE
 93
        2
 90
        4
  1
 
 94
        0
300

302
 
304
ACVALUE_END
171
     1
172
     0
173
     1
174
     0
175
     1
176
     1
 91
        0
178
     0
145
0.0
 92
        0
301
CELL_VALUE
 93
        3
 90
        0
 91
        0
 94
        0
300

302

304
ACVALUE_END
171
     1
172
     0
173
     1
174
     0
175
     1
176
     1
 91
        0
178
     0
145
0.0
 92
        0
301
CELL_VALUE
 93
        3
 90
        0
 91
        0
 94
        0
300

302

304
ACVALUE_END
171
     1
172
     0
173
     0
174
     0
175
     1
176
     1
 91
        1
178
     0
145
0.0
170
     4
 92
        0
301
CELL_VALUE
 93
        2
 90
        4
  1
Y90_C_002
 94
        0
300

302
Y90_C_002
304
ACVALUE_END
171
     1
172
     0
173
     0
174
     0
175
     1
176
     1
 91
       33
178
     0
145
0.0
170
     1
140
7.0
 92
        0
301
CELL_VALUE
 93
        2
 90
        4
  1
Rev:01
 94
        0
300

302
Rev:01
304
ACVALUE_END
171
     1
172
     0
173
     1
174
     0
175
     1
176
     1
 91
        0
178
     0
145
0.0
 92
        0
301
CELL_VALUE
 93
        3
 90
        0
 91
        0
 94
        0
300

302

304
ACVALUE_END
171
     1
172
     0
173
     1
174
     0
175
     1
176
     1
 91
        0
178
     0
145
0.0
 92
        0
301
CELL_VALUE
 93
        3
 90
        0
 91
        0
 94
        0
300

302

304
ACVALUE_END
171
     1
172
     0
173
     1
174
     0
175
     1
176
     1
 91
        0
178
     0
145
0.0
 92
        0
301
CELL_VALUE
 93
        3
 90
        0
 91
        0
 94
        0
300

302

304
ACVALUE_END
171
     1
172
     0
173
     0
174
     0
175
     1
176
     1
 91
       33
178
     0
145
0.0
170
     1
140
7.0
 92
        0
301
CELL_VALUE
 93
        2
 90
        4
  1
Scale:1:1
 94
        0
300

302
Scale:1:1
304
ACVALUE_END
171
     1
172
     0
173
     0
174
     0
175
     1
176
     1
 91
       33
178
     0
145
0.0
170
     4
140
7.0
 92
        0
301
CELL_VALUE
 93
        2
 90
        4
  1
A2
 94
        0
300

302
A2
304
ACVALUE_END
171
     1
172
     0
173
     1
174
     0
175
     1
176
     1
 91
        0
178
     0
145
0.0
 92
        0
301
CELL_VALUE
 93
        3
 90
        0
 91
        0
 94
        0
300

302

304
ACVALUE_END
171
     1
172
     0
173
     1
174
     0
175
     1
176
     1
 91
        0
178
     0
145
0.0
 92
        0
301
CELL_VALUE
 93
        3
 90
        0
 91
        0
 94
        0
300

302

304
ACVALUE_END
171
     1
172
     0
173
     1
174
     0
175
     1
176
     1
 91
        0
178
     0
145
0.0
 92
        0
301
CELL_VALUE
 93
        3
 90
        0
 91
        0
 94
        0
300

302

304
ACVALUE_END
171
     1
172
     0
173
     0
174
     0
175
     2
176
     1
 91
       33
178
     0
145
0.0
170
     4
140
7.0
 92
        0
301
CELL_VALUE
 93
        2
 90
        4
  1
RIVER 1.0
 94
        0
300

302
RIVER 1.0
304
ACVALUE_END
171
     1
172
     0
173
     1
174
     0
175
     1
176
     1
 91
        0
178
     0
145
0.0
 92
        0
301
CELL_VALUE
 93
        3
 90
        0
 91
        0
 94
        0
300

302

304
ACVALUE_END
171
     1
172
     0
173
     1
174
     0
175
     1
176
     1
 91
        0
178
     0
145
0.0
 92
        0
301
CELL_VALUE
 93
        3
 90
        0
 91
        0
 94
        0
300

302

304
ACVALUE_END
171
     1
172
     0
173
     1
174
     0
175
     1
176
     1
 91
        0
178
     0
145
0.0
 92
        0
301
CELL_VALUE
 93
        3
 90
        0
 91
        0
 94
        0
300

302

304
ACVALUE_END
171
     1
172
     0
173
     1
174
     0
175
     1
176
     1
 91
        0
178
     0
145
0.0
 92
        0
301
CELL_VALUE
 93
        3
 90
        0
 91
        0
 94
        0
300

302

304
ACVALUE_END
171
     1
172
     0
173
     0
174
     0
175
     2
176
     1
 91
       33
178
     0
145
0.0
170
     4
140
5.0
 92
        0
301
CELL_VALUE
 93
        2
 90
        4
  1
DATE:
 94
        0
300

302
DATE:
304
ACVALUE_END
171
     1
172
     0
173
     1
174
     0
175
     1
176
     1
 91
        0
178
     0
145
0.0
 92
        0
301
CELL_VALUE
 93
        3
 90
        0
 91
        0
 94
        0
300

302

304
ACVALUE_END
171
     1
172
     0
173
     0
174
     0
175
     5
176
     1
 91
        1
178
     0
145
0.0
170
     4
 92
        0
301
CELL_VALUE
 93
        2
 90
        4
  1
Any integral or partial reproductions are prohibited \Pwithout prior authorisation of L {\Ftxt.shx;\W0.190476;\H4.500000; }& L Luce & Light s.r.l., \Pin accordance with the law in force. \PAll rights reserved.
 94
        0
300

302
Any integral or partial reproductions are prohibited \Pwithout prior authorisation of L {\Ftxt.shx;\W0.190476;\H4.500000; }& L Luce & Light s.r.l., \Pin accordance with the law in force. \PAll rights reserved.
304
ACVALUE_END
171
     1
172
     0
173
     1
174
     0
175
     1
176
     1
 91
        0
178
     0
145
0.0
 92
        0
301
CELL_VALUE
 93
        3
 90
        0
 91
        0
 94
        0
300

302

304
ACVALUE_END
171
     1
172
     0
173
     1
174
     0
175
     1
176
     1
 91
        0
178
     0
145
0.0
 92
        0
301
CELL_VALUE
 93
        3
 90
        0
 91
        0
 94
        0
300

302

304
ACVALUE_END
171
     1
172
     0
173
     1
174
     0
175
     1
176
     1
 91
        0
178
     0
145
0.0
 92
        0
301
CELL_VALUE
 93
        3
 90
        0
 91
        0
 94
        0
300

302

304
ACVALUE_END
171
     1
172
     0
173
     1
174
     0
175
     1
176
     1
 91
        0
178
     0
145
0.0
 92
        0
301
CELL_VALUE
 93
        3
 90
        0
 91
        0
 94
        0
300

302

304
ACVALUE_END
  0
ENDSEC
  0
SECTION
  2
OBJECTS
  0
DICTIONARY
  5
C
330
0
100
AcDbDictionary
281
     1
  3
ACAD_DETAILVIEWSTYLE
350
645
  3
ACAD_GROUP
350
D
  3
ACAD_IMAGE_DICT
350
635
  3
ACAD_LAYOUT
350
1A
  3
ACAD_MATERIAL
350
629
  3
ACAD_MLEADERSTYLE
350
644
  3
ACAD_MLINESTYLE
350
17
  3
ACAD_PLOTSETTINGS
350
19
  3
ACAD_PLOTSTYLENAME
350
E
  3
ACAD_SCALELIST
350
5EB
  3
ACAD_SECTIONVIEWSTYLE
350
646
  3
ACAD_TABLESTYLE
350
60D
  3
ACAD_VISUALSTYLE
350
610
  3
ACDB_RECOMPOSE_DATA
350
642
  3
AcDbVariableDictionary
350
63E
  3
HOST_DOC_SETTINGS
350
633
  3
MCS_STREAM_DICT
350
62F
  0
SUN
  5
632
330
1F4
100
AcDbSun
 90
        1
290
     0
 63
     7
421
 16777215
 40
1.0
291
     1
 91
  2455826
 92
 54000000
292
     0
 70
     2
 71
   256
280
     1
  0
DICTIONARY
  5
63C
330
5E5
100
AcDbDictionary
280
     1
281
     1
  3
ACAD_XREC_ROUNDTRIP
360
63D
  0
DICTIONARY
  5
645
102
{ACAD_REACTORS
330
C
102
}
330
C
100
AcDbDictionary
281
     1
  0
DICTIONARY
  5
D
102
{ACAD_REACTORS
330
C
102
}
330
C
100
AcDbDictionary
281
     1
  0
DICTIONARY
  5
635
102
{ACAD_REACTORS
330
C
102
}
330
C
100
AcDbDictionary
281
     1
  0
DICTIONARY
  5
1A
102
{ACAD_REACTORS
330
C
102
}
330
C
100
AcDbDictionary
281
     1
  3
Layout1
350
5E8
  3
Model
350
5E7
  0
DICTIONARY
  5
629
102
{ACAD_REACTORS
330
C
102
}
330
C
100
AcDbDictionary
281
     1
  3
ByBlock
350
62B
  3
ByLayer
350
62A
  3
Global
350
62C
  0
DICTIONARY
  5
644
102
{ACAD_REACTORS
330
C
102
}
330
C
100
AcDbDictionary
281
     1
  0
DICTIONARY
  5
17
102
{ACAD_REACTORS
330
C
102
}
330
C
100
AcDbDictionary
281
     1
  3
Standard
350
18
  0
DICTIONARY
  5
19
102
{ACAD_REACTORS
330
C
102
}
330
C
100
AcDbDictionary
281
     1
  0
ACDBDICTIONARYWDFLT
  5
E
102
{ACAD_REACTORS
330
C
102
}
330
C
100
AcDbDictionary
281
     1
  3
Normal
350
F
100
AcDbDictionaryWithDefault
340
F
  0
DICTIONARY
  5
5EB
102
{ACAD_REACTORS
330
C
102
}
330
C
100
AcDbDictionary
281
     1
  3
A0
350
5EC
  3
A1
350
5ED
  3
A2
350
5EE
  3
A3
350
5EF
  3
A4
350
5F0
  3
A5
350
5F1
  3
A6
350
5F2
  3
A7
350
5F3
  3
A8
350
5F4
  3
A9
350
5F5
  3
B0
350
5F6
  3
B1
350
5F7
  3
B2
350
5F8
  3
B3
350
5F9
  3
B4
350
5FA
  3
B5
350
5FB
  3
B6
350
5FC
  3
B7
350
5FD
  3
B8
350
5FE
  3
B9
350
5FF
  3
C0
350
600
  3
C1
350
601
  3
C2
350
602
  3
C3
350
603
  3
C4
350
604
  3
C5
350
605
  3
C6
350
606
  3
C7
350
607
  3
C8
350
608
  3
C9
350
609
  3
D0
350
60A
  3
D1
350
60B
  3
D2
350
60C
  0
DICTIONARY
  5
646
102
{ACAD_REACTORS
330
C
102
}
330
C
100
AcDbDictionary
281
     1
  0
DICTIONARY
  5
60D
102
{ACAD_REACTORS
330
C
102
}
330
C
100
AcDbDictionary
281
     1
  3
Standard
350
60E
  0
DICTIONARY
  5
610
102
{ACAD_REACTORS
330
C
102
}
330
C
100
AcDbDictionary
281
     1
  3
2dWireframe
350
615
  3
Basic
350
618
  3
Brighten
350
61C
  3
ColorChange
350
620
  3
Conceptual
350
61A
  3
Dim
350
61B
  3
EdgeColorOff
350
623
  3
Facepattern
350
61F
  3
Flat
350
611
  3
FlatWithEdges
350
612
  3
Gouraud
350
613
  3
GouraudWithEdges
350
614
  3
Hidden
350
617
  3
JitterOff
350
621
  3
Linepattern
350
61E
  3
OverhangOff
350
622
  3
Realistic
350
619
  3
Shaded
350
628
  3
Shaded with edges
350
627
  3
Shades of Gray
350
624
  3
Sketchy
350
625
  3
Thicken
350
61D
  3
Wireframe
350
616
  3
X-Ray
350
626
  0
XRECORD
  5
642
102
{ACAD_REACTORS
330
C
102
}
330
C
100
AcDbXrecord
280
     1
 90
        1
330
5E5
330
60E
  0
DICTIONARY
  5
63E
102
{ACAD_REACTORS
330
C
102
}
330
C
100
AcDbDictionary
281
     1
  3
CANNOSCALE
350
63F
  3
CTABLESTYLE
350
643
  0
DICTIONARY
  5
633
102
{ACAD_REACTORS
330
C
102
}
330
C
100
AcDbDictionary
281
     1
  3
NCDocParameters
350
634
  0
DICTIONARY
  5
62F
102
{ACAD_REACTORS
330
C
102
}
330
C
100
AcDbDictionary
281
     1
  3
MC_VERSION_DATA
350
638
  3
MCS_DOCUMENT_ID
350
630
  3
MCS_PARAMS_DATA
350
636
  0
XRECORD
  5
63D
102
{ACAD_REACTORS
330
63C
102
}
330
63C
100
AcDbXrecord
280
     1
102
ACAD_ROUNDTRIP_2008_TABLE_ENTITY
360
63A
 70
     2
 90
        1
 10
0.0
 20
0.0
 30
0.0
 90
        0
 90
        4
361
63B
  0
LAYOUT
  5
5E8
102
{ACAD_REACTORS
330
1A
102
}
330
1A
100
AcDbPlotSettings
  1

  2
none_device
  4
ISO_A2_(594.00_x_420.00_MM)
  6

 40
0.0
 41
0.0
 42
0.0
 43
0.0
 44
594.0
 45
420.0
 46
0.0
 47
0.0
 48
0.0
 49
0.0
140
0.0
141
0.0
142
1.0
143
1.0
 70
     0
 72
     1
 73
     0
 74
     0
  7

 75
     0
 76
     0
 77
     2
 78
   300
147
1.0
148
0.0
149
0.0
100
AcDbLayout
  1
Layout1
 70
     0
 71
     1
 10
0.0
 20
0.0
 11
594.0
 21
420.0
 12
0.0
 22
0.0
 32
0.0
 14
0.0
 24
0.0
 34
0.0
 15
0.0
 25
0.0
 35
0.0
146
0.0
 13
0.0
 23
0.0
 33
0.0
 16
1.0
 26
0.0
 36
0.0
 17
0.0
 27
1.0
 37
0.0
 76
     0
330
226
  0
LAYOUT
  5
5E7
102
{ACAD_REACTORS
330
1A
102
}
330
1A
100
AcDbPlotSettings
  1

  2
none_device
  4
ISO_A2_(594.00_x_420.00_MM)
  6

 40
0.0
 41
0.0
 42
0.0
 43
0.0
 44
594.0
 45
420.0
 46
0.0
 47
0.0
 48
0.0
 49
0.0
140
0.0
141
0.0
142
1.0
143
1.0
 70
  1024
 72
     1
 73
     0
 74
     0
  7

 75
     0
 76
     0
 77
     2
 78
   300
147
1.0
148
0.0
149
0.0
100
AcDbLayout
  1
Model
 70
     0
 71
     0
 10
0.0
 20
0.0
 11
594.0
 21
420.0
 12
0.0
 22
0.0
 32
0.0
 14
0.0
 24
0.0
 34
0.0
 15
0.0
 25
0.0
 35
0.0
146
0.0
 13
0.0
 23
0.0
 33
0.0
 16
1.0
 26
0.0
 36
0.0
 17
0.0
 27
1.0
 37
0.0
 76
     0
330
225
331
1F4
  0
MATERIAL
  5
62B
102
{ACAD_REACTORS
330
629
102
}
330
629
100
AcDbMaterial
  1
ByBlock
 72
     1
 94
      127
  0
MATERIAL
  5
62A
102
{ACAD_REACTORS
330
629
102
}
330
629
100
AcDbMaterial
  1
ByLayer
 72
     1
 94
      127
  0
MATERIAL
  5
62C
102
{ACAD_REACTORS
330
629
102
}
330
629
100
AcDbMaterial
  1
Global
 72
     1
 94
      127
  0
MLINESTYLE
  5
18
102
{ACAD_REACTORS
330
17
102
}
330
17
100
AcDbMlineStyle
  2
STANDARD
 70
     0
  3

 62
   256
 51
90.0
 52
90.0
 71
     2
 49
0.5
 62
   256
  6
BYLAYER
 49
-0.5
 62
   256
  6
BYLAYER
  0
ACDBPLACEHOLDER
  5
F
102
{ACAD_REACTORS
330
E
102
}
330
E
  0
SCALE
  5
5EC
102
{ACAD_REACTORS
330
5EB
102
}
330
5EB
100
AcDbScale
 70
     0
300
1:1
140
1.0
141
1.0
290
     1
  0
SCALE
  5
5ED
102
{ACAD_REACTORS
330
5EB
102
}
330
5EB
100
AcDbScale
 70
     0
300
1:2
140
1.0
141
2.0
290
     0
  0
SCALE
  5
5EE
102
{ACAD_REACTORS
330
5EB
102
}
330
5EB
100
AcDbScale
 70
     0
300
1:4
140
1.0
141
4.0
290
     0
  0
SCALE
  5
5EF
102
{ACAD_REACTORS
330
5EB
102
}
330
5EB
100
AcDbScale
 70
     0
300
1:5
140
1.0
141
5.0
290
     0
  0
SCALE
  5
5F0
102
{ACAD_REACTORS
330
5EB
102
}
330
5EB
100
AcDbScale
 70
     0
300
1:8
140
1.0
141
8.0
290
     0
  0
SCALE
  5
5F1
102
{ACAD_REACTORS
330
5EB
102
}
330
5EB
100
AcDbScale
 70
     0
300
1:10
140
1.0
141
10.0
290
     0
  0
SCALE
  5
5F2
102
{ACAD_REACTORS
330
5EB
102
}
330
5EB
100
AcDbScale
 70
     0
300
1:16
140
1.0
141
16.0
290
     0
  0
SCALE
  5
5F3
102
{ACAD_REACTORS
330
5EB
102
}
330
5EB
100
AcDbScale
 70
     0
300
1:20
140
1.0
141
20.0
290
     0
  0
SCALE
  5
5F4
102
{ACAD_REACTORS
330
5EB
102
}
330
5EB
100
AcDbScale
 70
     0
300
1:30
140
1.0
141
30.0
290
     0
  0
SCALE
  5
5F5
102
{ACAD_REACTORS
330
5EB
102
}
330
5EB
100
AcDbScale
 70
     0
300
1:40
140
1.0
141
40.0
290
     0
  0
SCALE
  5
5F6
102
{ACAD_REACTORS
330
5EB
102
}
330
5EB
100
AcDbScale
 70
     0
300
1:50
140
1.0
141
50.0
290
     0
  0
SCALE
  5
5F7
102
{ACAD_REACTORS
330
5EB
102
}
330
5EB
100
AcDbScale
 70
     0
300
1:100
140
1.0
141
100.0
290
     0
  0
SCALE
  5
5F8
102
{ACAD_REACTORS
330
5EB
102
}
330
5EB
100
AcDbScale
 70
     0
300
2:1
140
2.0
141
1.0
290
     0
  0
SCALE
  5
5F9
102
{ACAD_REACTORS
330
5EB
102
}
330
5EB
100
AcDbScale
 70
     0
300
4:1
140
4.0
141
1.0
290
     0
  0
SCALE
  5
5FA
102
{ACAD_REACTORS
330
5EB
102
}
330
5EB
100
AcDbScale
 70
     0
300
8:1
140
8.0
141
1.0
290
     0
  0
SCALE
  5
5FB
102
{ACAD_REACTORS
330
5EB
102
}
330
5EB
100
AcDbScale
 70
     0
300
10:1
140
10.0
141
1.0
290
     0
  0
SCALE
  5
5FC
102
{ACAD_REACTORS
330
5EB
102
}
330
5EB
100
AcDbScale
 70
     0
300
100:1
140
100.0
141
1.0
290
     0
  0
SCALE
  5
5FD
102
{ACAD_REACTORS
330
5EB
102
}
330
5EB
100
AcDbScale
 70
     0
300
1/128" = 1'-0"
140
0.007812
141
12.0
290
     0
  0
SCALE
  5
5FE
102
{ACAD_REACTORS
330
5EB
102
}
330
5EB
100
AcDbScale
 70
     0
300
1/64" = 1'-0"
140
0.015625
141
12.0
290
     0
  0
SCALE
  5
5FF
102
{ACAD_REACTORS
330
5EB
102
}
330
5EB
100
AcDbScale
 70
     0
300
1/32" = 1'-0"
140
0.03125
141
12.0
290
     0
  0
SCALE
  5
600
102
{ACAD_REACTORS
330
5EB
102
}
330
5EB
100
AcDbScale
 70
     0
300
1/16" = 1'-0"
140
0.0625
141
12.0
290
     0
  0
SCALE
  5
601
102
{ACAD_REACTORS
330
5EB
102
}
330
5EB
100
AcDbScale
 70
     0
300
3/32" = 1'-0"
140
0.09375
141
12.0
290
     0
  0
SCALE
  5
602
102
{ACAD_REACTORS
330
5EB
102
}
330
5EB
100
AcDbScale
 70
     0
300
1/8" = 1'-0"
140
0.125
141
12.0
290
     0
  0
SCALE
  5
603
102
{ACAD_REACTORS
330
5EB
102
}
330
5EB
100
AcDbScale
 70
     0
300
3/16" = 1'-0"
140
0.1875
141
12.0
290
     0
  0
SCALE
  5
604
102
{ACAD_REACTORS
330
5EB
102
}
330
5EB
100
AcDbScale
 70
     0
300
1/4" = 1'-0"
140
0.25
141
12.0
290
     0
  0
SCALE
  5
605
102
{ACAD_REACTORS
330
5EB
102
}
330
5EB
100
AcDbScale
 70
     0
300
3/8" = 1'-0"
140
0.375
141
12.0
290
     0
  0
SCALE
  5
606
102
{ACAD_REACTORS
330
5EB
102
}
330
5EB
100
AcDbScale
 70
     0
300
1/2" = 1'-0"
140
0.5
141
12.0
290
     0
  0
SCALE
  5
607
102
{ACAD_REACTORS
330
5EB
102
}
330
5EB
100
AcDbScale
 70
     0
300
3/4" = 1'-0"
140
0.75
141
12.0
290
     0
  0
SCALE
  5
608
102
{ACAD_REACTORS
330
5EB
102
}
330
5EB
100
AcDbScale
 70
     0
300
1" = 1'-0"
140
1.0
141
12.0
290
     0
  0
SCALE
  5
609
102
{ACAD_REACTORS
330
5EB
102
}
330
5EB
100
AcDbScale
 70
     0
300
1-1/2" = 1'-0"
140
1.5
141
12.0
290
     0
  0
SCALE
  5
60A
102
{ACAD_REACTORS
330
5EB
102
}
330
5EB
100
AcDbScale
 70
     0
300
3" = 1'-0"
140
3.0
141
12.0
290
     0
  0
SCALE
  5
60B
102
{ACAD_REACTORS
330
5EB
102
}
330
5EB
100
AcDbScale
 70
     0
300
6" = 1'-0"
140
6.0
141
12.0
290
     0
  0
SCALE
  5
60C
102
{ACAD_REACTORS
330
5EB
102
}
330
5EB
100
AcDbScale
 70
     0
300
1'-0" = 1'-0"
140
12.0
141
12.0
290
     0
  0
TABLESTYLE
  5
60E
102
{ACAD_REACTORS
330
60D
102
}
102
{ACAD_XDICTIONARY
360
640
102
}
330
60D
100
AcDbTableStyle
  3
Standard
 70
     0
 71
     0
 40
0.06
 41
0.06
280
     0
281
     0
  7
STANDARD
140
4.5
170
     2
 62
     0
 63
   257
283
     0
 90
        4
 91
        0
  1

274
    -2
284
     1
 64
     0
275
    -2
285
     1
 65
     0
276
    -2
286
     1
 66
     0
277
    -2
287
     1
 67
     0
278
    -2
288
     1
 68
     0
279
    -2
289
     1
 69
     0
  7
STANDARD
140
6.0
170
     5
 62
     0
 63
   257
283
     0
 90
        4
 91
        0
  1

274
    -2
284
     1
 64
     0
275
    -2
285
     1
 65
     0
276
    -2
286
     1
 66
     0
277
    -2
287
     1
 67
     0
278
    -2
288
     1
 68
     0
279
    -2
289
     1
 69
     0
  7
STANDARD
140
4.5
170
     5
 62
     0
 63
   257
283
     0
 90
        4
 91
        0
  1

274
    -2
284
     1
 64
     0
275
    -2
285
     1
 65
     0
276
    -2
286
     1
 66
     0
277
    -2
287
     1
 67
     0
278
    -2
288
     1
 68
     0
279
    -2
289
     1
 69
     0
  0
VISUALSTYLE
  5
615
102
{ACAD_REACTORS
330
610
102
}
330
610
100
AcDbVisualStyle
  2
2dWireframe
 70
     4
177
     3
291
     0
 70
    58
 90
        0
176
     1
 90
        2
176
     1
 90
        0
176
     1
 90
        0
176
     1
 40
0.6
176
     1
 40
30.0
176
     1
 62
     7
420
 16777215
176
     1
 90
        1
176
     1
 90
        4
176
     1
 62
     7
176
     1
 62
   257
176
     1
 90
        1
176
     1
 90
        1
176
     1
 40
1.0
176
     1
 90
        0
176
     1
 62
   257
176
     1
 40
1.0
176
     1
 90
        1
176
     1
 90
        6
176
     1
 90
        2
176
     1
 62
     7
176
     1
 90
        5
176
     1
 90
        0
176
     1
 90
        0
176
     1
290
     0
176
     1
 90
        1
176
     1
 40
0.0
176
     1
 90
        0
176
     1
290
     1
176
     1
290
     1
176
     1
290
     0
176
     1
290
     0
176
     1
290
     0
176
     1
290
     0
176
     1
290
     0
176
     1
290
     0
176
     1
290
     0
176
     1
 90
       50
176
     1
 40
0.0
176
     1
 40
1.0
176
     1
 90
        0
176
     1
 62
    18
420
        0
176
     1
 90
       50
176
     1
 90
        3
176
     1
 62
     5
420
      255
176
     1
290
     0
176
     1
 90
       50
176
     1
 90
       50
176
     1
 90
       50
176
     1
290
     0
176
     1
 90
       50
176
     1
 62
   256
176
     0
 40
1.0
176
     0
 90
        2
176
     1
  1
strokes_ogs.tif
176
     1
290
     0
176
     1
 40
1.0
176
     1
 40
1.0
176
     1
  0
VISUALSTYLE
  5
618
102
{ACAD_REACTORS
330
610
102
}
330
610
100
AcDbVisualStyle
  2
Basic
 70
     7
177
     3
291
     1
 70
    58
 90
        1
176
     1
 90
        0
176
     1
 90
        1
176
     1
 90
        0
176
     1
 40
0.6
176
     1
 40
30.0
176
     1
 62
     7
420
 16777215
176
     1
 90
        0
176
     1
 90
        4
176
     1
 62
     7
176
     1
 62
   257
176
     1
 90
        1
176
     1
 90
        1
176
     1
 40
1.0
176
     1
 90
        8
176
     1
 62
     7
176
     1
 40
1.0
176
     1
 90
        1
176
     1
 90
        6
176
     1
 90
        2
176
     1
 62
     7
176
     1
 90
        5
176
     1
 90
        0
176
     1
 90
        0
176
     1
290
     0
176
     1
 90
        1
176
     1
 40
0.0
176
     1
 90
        0
176
     1
290
     0
176
     1
290
     1
176
     1
290
     1
176
     1
290
     0
176
     1
290
     0
176
     1
290
     0
176
     1
290
     0
176
     1
290
     0
176
     1
290
     0
176
     1
 90
       50
176
     1
 40
0.0
176
     1
 40
1.0
176
     1
 90
        0
176
     1
 62
    18
420
        0
176
     1
 90
       50
176
     1
 90
        3
176
     1
 62
     5
420
      255
176
     1
290
     0
176
     1
 90
       50
176
     1
 90
       50
176
     1
 90
       50
176
     1
290
     0
176
     1
 90
       50
176
     1
 62
   256
176
     0
 40
1.0
176
     0
 90
        2
176
     1
  1
strokes_ogs.tif
176
     1
290
     0
176
     1
 40
1.0
176
     1
 40
1.0
176
     1
  0
VISUALSTYLE
  5
61C
102
{ACAD_REACTORS
330
610
102
}
330
610
100
AcDbVisualStyle
  2
Brighten
 70
    12
177
     3
291
     1
 70
    58
 90
        2
176
     1
 90
        2
176
     1
 90
        0
176
     1
 90
        0
176
     1
 40
0.6
176
     1
 40
30.0
176
     1
 62
     7
420
 16777215
176
     1
 90
        1
176
     1
 90
        4
176
     1
 62
     7
176
     1
 62
   257
176
     1
 90
        1
176
     1
 90
        1
176
     1
 40
1.0
176
     1
 90
        8
176
     1
 62
     7
176
     1
 40
1.0
176
     1
 90
        1
176
     1
 90
        6
176
     1
 90
        2
176
     1
 62
     7
176
     1
 90
        5
176
     1
 90
        0
176
     1
 90
        0
176
     1
290
     0
176
     1
 90
        1
176
     1
 40
50.0
176
     1
 90
        0
176
     1
290
     0
176
     1
290
     1
176
     1
290
     1
176
     1
290
     0
176
     1
290
     0
176
     1
290
     0
176
     1
290
     0
176
     1
290
     0
176
     1
290
     0
176
     1
 90
       50
176
     1
 40
0.0
176
     1
 40
1.0
176
     1
 90
        0
176
     1
 62
    18
420
        0
176
     1
 90
       50
176
     1
 90
        3
176
     1
 62
     5
420
      255
176
     1
290
     0
176
     1
 90
       50
176
     1
 90
       50
176
     1
 90
       50
176
     1
290
     0
176
     1
 90
       50
176
     1
 62
   256
176
     0
 40
1.0
176
     0
 90
        2
176
     1
  1
strokes_ogs.tif
176
     1
290
     0
176
     1
 40
1.0
176
     1
 40
1.0
176
     1
  0
VISUALSTYLE
  5
620
102
{ACAD_REACTORS
330
610
102
}
330
610
100
AcDbVisualStyle
  2
ColorChange
 70
    16
177
     3
291
     1
 70
    58
 90
        2
176
     1
 90
        2
176
     1
 90
        3
176
     1
 90
        0
176
     1
 40
0.6
176
     1
 40
30.0
176
     1
 62
     8
420
  8421504
176
     1
 90
        1
176
     1
 90
        4
176
     1
 62
     7
176
     1
 62
   257
176
     1
 90
        1
176
     1
 90
        1
176
     1
 40
1.0
176
     1
 90
        8
176
     1
 62
     8
420
  8421504
176
     1
 40
1.0
176
     1
 90
        1
176
     1
 90
        6
176
     1
 90
        2
176
     1
 62
     7
176
     1
 90
        5
176
     1
 90
        0
176
     1
 90
        0
176
     1
290
     0
176
     1
 90
        1
176
     1
 40
0.0
176
     1
 90
        0
176
     1
290
     0
176
     1
290
     1
176
     1
290
     1
176
     1
290
     0
176
     1
290
     0
176
     1
290
     0
176
     1
290
     0
176
     1
290
     0
176
     1
290
     0
176
     1
 90
       50
176
     1
 40
0.0
176
     1
 40
1.0
176
     1
 90
        0
176
     1
 62
    18
420
        0
176
     1
 90
       50
176
     1
 90
        3
176
     1
 62
     5
420
      255
176
     1
290
     0
176
     1
 90
       50
176
     1
 90
       50
176
     1
 90
       50
176
     1
290
     0
176
     1
 90
       50
176
     1
 62
   256
176
     0
 40
1.0
176
     0
 90
        2
176
     1
  1
strokes_ogs.tif
176
     1
290
     0
176
     1
 40
1.0
176
     1
 40
1.0
176
     1
  0
VISUALSTYLE
  5
61A
102
{ACAD_REACTORS
330
610
102
}
330
610
100
AcDbVisualStyle
  2
Conceptual
 70
     9
177
     3
291
     0
 70
    58
 90
        3
176
     1
 90
        2
176
     1
 90
        0
176
     1
 90
        0
176
     1
 40
0.6
176
     1
 40
30.0
176
     1
 62
     7
420
 16777215
176
     1
 90
        2
176
     1
 90
        2
176
     1
 62
     7
176
     1
 62
   257
176
     1
 90
        1
176
     1
 90
        1
176
     1
 40
179.0
176
     1
 90
        8
176
     1
 62
     7
176
     1
 40
1.0
176
     1
 90
        1
176
     1
 90
        6
176
     1
 90
        2
176
     1
 62
     7
176
     1
 90
        3
176
     1
 90
        0
176
     1
 90
        0
176
     1
290
     0
176
     1
 90
        1
176
     1
 40
0.0
176
     1
 90
        0
176
     1
290
     0
176
     1
290
     1
176
     1
290
     1
176
     1
290
     0
176
     1
290
     0
176
     1
290
     0
176
     1
290
     0
176
     1
290
     0
176
     1
290
     0
176
     1
 90
       50
176
     1
 40
0.0
176
     1
 40
1.0
176
     1
 90
        0
176
     1
 62
    18
420
        0
176
     1
 90
       50
176
     1
 90
        3
176
     1
 62
     5
420
      255
176
     1
290
     0
176
     1
 90
       50
176
     1
 90
       50
176
     1
 90
       50
176
     1
290
     0
176
     1
 90
       50
176
     1
 62
   256
176
     0
 40
1.0
176
     0
 90
        2
176
     1
  1
strokes_ogs.tif
176
     1
290
     0
176
     1
 40
1.0
176
     1
 40
1.0
176
     1
  0
VISUALSTYLE
  5
61B
102
{ACAD_REACTORS
330
610
102
}
330
610
100
AcDbVisualStyle
  2
Dim
 70
    11
177
     3
291
     1
 70
    58
 90
        2
176
     1
 90
        2
176
     1
 90
        0
176
     1
 90
        0
176
     1
 40
0.6
176
     1
 40
30.0
176
     1
 62
     7
420
 16777215
176
     1
 90
        1
176
     1
 90
        4
176
     1
 62
     7
176
     1
 62
   257
176
     1
 90
        1
176
     1
 90
        1
176
     1
 40
1.0
176
     1
 90
        8
176
     1
 62
     7
176
     1
 40
1.0
176
     1
 90
        1
176
     1
 90
        6
176
     1
 90
        2
176
     1
 62
     7
176
     1
 90
        5
176
     1
 90
        0
176
     1
 90
        0
176
     1
290
     0
176
     1
 90
        1
176
     1
 40
-50.0
176
     1
 90
        0
176
     1
290
     0
176
     1
290
     1
176
     1
290
     1
176
     1
290
     0
176
     1
290
     0
176
     1
290
     0
176
     1
290
     0
176
     1
290
     0
176
     1
290
     0
176
     1
 90
       50
176
     1
 40
0.0
176
     1
 40
1.0
176
     1
 90
        0
176
     1
 62
    18
420
        0
176
     1
 90
       50
176
     1
 90
        3
176
     1
 62
     5
420
      255
176
     1
290
     0
176
     1
 90
       50
176
     1
 90
       50
176
     1
 90
       50
176
     1
290
     0
176
     1
 90
       50
176
     1
 62
   256
176
     0
 40
1.0
176
     0
 90
        2
176
     1
  1
strokes_ogs.tif
176
     1
290
     0
176
     1
 40
1.0
176
     1
 40
1.0
176
     1
  0
VISUALSTYLE
  5
623
102
{ACAD_REACTORS
330
610
102
}
330
610
100
AcDbVisualStyle
  2
EdgeColorOff
 70
    22
177
     3
291
     1
 70
    58
 90
        2
176
     0
 90
        2
176
     0
 90
        0
176
     0
 90
        0
176
     0
 40
0.6
176
     0
 40
30.0
176
     0
 62
     7
420
 16777215
176
     0
 90
        1
176
     0
 90
        4
176
     0
 62
     7
176
     0
 62
   257
176
     0
 90
        1
176
     0
 90
        1
176
     0
 40
1.0
176
     0
 90
        8
176
     2
 62
     7
176
     0
 40
1.0
176
     0
 90
        1
176
     0
 90
        6
176
     0
 90
        2
176
     0
 62
     7
176
     0
 90
        5
176
     0
 90
        0
176
     0
 90
        0
176
     0
290
     0
176
     0
 90
        1
176
     0
 40
0.0
176
     0
 90
        0
176
     0
290
     0
176
     0
290
     1
176
     0
290
     1
176
     0
290
     0
176
     0
290
     0
176
     0
290
     0
176
     0
290
     0
176
     0
290
     0
176
     0
290
     0
176
     0
 90
       50
176
     0
 40
0.0
176
     0
 40
1.0
176
     0
 90
        0
176
     0
 62
    18
420
        0
176
     0
 90
       50
176
     0
 90
        3
176
     0
 62
     5
420
      255
176
     0
290
     0
176
     0
 90
       50
176
     0
 90
       50
176
     0
 90
       50
176
     0
290
     0
176
     0
 90
       50
176
     0
 62
   256
176
     0
 40
1.0
176
     0
 90
        2
176
     0
  1
strokes_ogs.tif
176
     0
290
     0
176
     0
 40
1.0
176
     0
 40
1.0
176
     0
  0
VISUALSTYLE
  5
61F
102
{ACAD_REACTORS
330
610
102
}
330
610
100
AcDbVisualStyle
  2
Facepattern
 70
    15
177
     3
291
     1
 70
    58
 90
        2
176
     1
 90
        2
176
     1
 90
        0
176
     1
 90
        0
176
     1
 40
0.6
176
     1
 40
30.0
176
     1
 62
     7
420
 16777215
176
     1
 90
        1
176
     1
 90
        4
176
     1
 62
     7
176
     1
 62
   257
176
     1
 90
        1
176
     1
 90
        1
176
     1
 40
1.0
176
     1
 90
        8
176
     1
 62
     7
176
     1
 40
1.0
176
     1
 90
        1
176
     1
 90
        6
176
     1
 90
        2
176
     1
 62
     7
176
     1
 90
        5
176
     1
 90
        0
176
     1
 90
        0
176
     1
290
     0
176
     1
 90
        1
176
     1
 40
0.0
176
     1
 90
        0
176
     1
290
     0
176
     1
290
     1
176
     1
290
     1
176
     1
290
     0
176
     1
290
     0
176
     1
290
     0
176
     1
290
     0
176
     1
290
     0
176
     1
290
     0
176
     1
 90
       50
176
     1
 40
0.0
176
     1
 40
1.0
176
     1
 90
        0
176
     1
 62
    18
420
        0
176
     1
 90
       50
176
     1
 90
        3
176
     1
 62
     5
420
      255
176
     1
290
     0
176
     1
 90
       50
176
     1
 90
       50
176
     1
 90
       50
176
     1
290
     0
176
     1
 90
       50
176
     1
 62
   256
176
     0
 40
1.0
176
     0
 90
        2
176
     1
  1
strokes_ogs.tif
176
     1
290
     0
176
     1
 40
1.0
176
     1
 40
1.0
176
     1
  0
VISUALSTYLE
  5
611
102
{ACAD_REACTORS
330
610
102
}
330
610
100
AcDbVisualStyle
  2
Flat
 70
     0
177
     3
291
     1
 70
    58
 90
        2
176
     1
 90
        1
176
     1
 90
        1
176
     1
 90
        2
176
     1
 40
0.6
176
     1
 40
30.0
176
     1
 62
     7
420
 16777215
176
     1
 90
        0
176
     1
 90
        0
176
     1
 62
     7
176
     1
 62
   257
176
     1
 90
        1
176
     1
 90
        1
176
     1
 40
1.0
176
     1
 90
        8
176
     1
 62
     7
176
     1
 40
1.0
176
     1
 90
        1
176
     1
 90
        6
176
     1
 90
        2
176
     1
 62
     7
176
     1
 90
        5
176
     1
 90
        0
176
     1
 90
        0
176
     1
290
     0
176
     1
 90
       13
176
     1
 40
0.0
176
     1
 90
        0
176
     1
290
     0
176
     1
290
     1
176
     1
290
     1
176
     1
290
     0
176
     1
290
     0
176
     1
290
     0
176
     1
290
     0
176
     1
290
     0
176
     1
290
     0
176
     1
 90
       50
176
     1
 40
0.0
176
     1
 40
1.0
176
     1
 90
        0
176
     1
 62
    18
420
        0
176
     1
 90
       50
176
     1
 90
        3
176
     1
 62
     5
420
      255
176
     1
290
     0
176
     1
 90
       50
176
     1
 90
       50
176
     1
 90
       50
176
     1
290
     0
176
     1
 90
       50
176
     1
 62
   256
176
     0
 40
1.0
176
     0
 90
        2
176
     1
  1
strokes_ogs.tif
176
     1
290
     0
176
     1
 40
1.0
176
     1
 40
1.0
176
     1
  0
VISUALSTYLE
  5
612
102
{ACAD_REACTORS
330
610
102
}
330
610
100
AcDbVisualStyle
  2
FlatWithEdges
 70
     1
177
     3
291
     1
 70
    58
 90
        2
176
     1
 90
        1
176
     1
 90
        1
176
     1
 90
        2
176
     1
 40
0.6
176
     1
 40
30.0
176
     1
 62
     7
420
 16777215
176
     1
 90
        1
176
     1
 90
        0
176
     1
 62
     7
176
     1
 62
   257
176
     1
 90
        1
176
     1
 90
        1
176
     1
 40
1.0
176
     1
 90
        0
176
     1
 62
   257
176
     1
 40
1.0
176
     1
 90
        1
176
     1
 90
        6
176
     1
 90
        2
176
     1
 62
     7
176
     1
 90
        5
176
     1
 90
        0
176
     1
 90
        0
176
     1
290
     0
176
     1
 90
       13
176
     1
 40
0.0
176
     1
 90
        0
176
     1
290
     0
176
     1
290
     1
176
     1
290
     1
176
     1
290
     0
176
     1
290
     0
176
     1
290
     0
176
     1
290
     0
176
     1
290
     0
176
     1
290
     0
176
     1
 90
       50
176
     1
 40
0.0
176
     1
 40
1.0
176
     1
 90
        0
176
     1
 62
    18
420
        0
176
     1
 90
       50
176
     1
 90
        3
176
     1
 62
     5
420
      255
176
     1
290
     0
176
     1
 90
       50
176
     1
 90
       50
176
     1
 90
       50
176
     1
290
     0
176
     1
 90
       50
176
     1
 62
   256
176
     0
 40
1.0
176
     0
 90
        2
176
     1
  1
strokes_ogs.tif
176
     1
290
     0
176
     1
 40
1.0
176
     1
 40
1.0
176
     1
  0
VISUALSTYLE
  5
613
102
{ACAD_REACTORS
330
610
102
}
330
610
100
AcDbVisualStyle
  2
Gouraud
 70
     2
177
     3
291
     1
 70
    58
 90
        2
176
     1
 90
        2
176
     1
 90
        1
176
     1
 90
        2
176
     1
 40
0.6
176
     1
 40
30.0
176
     1
 62
     7
420
 16777215
176
     1
 90
        0
176
     1
 90
        0
176
     1
 62
     7
176
     1
 62
   257
176
     1
 90
        1
176
     1
 90
        1
176
     1
 40
1.0
176
     1
 90
        0
176
     1
 62
     7
176
     1
 40
1.0
176
     1
 90
        1
176
     1
 90
        6
176
     1
 90
        2
176
     1
 62
     7
176
     1
 90
        5
176
     1
 90
        0
176
     1
 90
        0
176
     1
290
     0
176
     1
 90
       13
176
     1
 40
0.0
176
     1
 90
        0
176
     1
290
     0
176
     1
290
     1
176
     1
290
     1
176
     1
290
     0
176
     1
290
     0
176
     1
290
     0
176
     1
290
     0
176
     1
290
     0
176
     1
290
     0
176
     1
 90
       50
176
     1
 40
0.0
176
     1
 40
1.0
176
     1
 90
        0
176
     1
 62
    18
420
        0
176
     1
 90
       50
176
     1
 90
        3
176
     1
 62
     5
420
      255
176
     1
290
     0
176
     1
 90
       50
176
     1
 90
       50
176
     1
 90
       50
176
     1
290
     0
176
     1
 90
       50
176
     1
 62
   256
176
     0
 40
1.0
176
     0
 90
        2
176
     1
  1
strokes_ogs.tif
176
     1
290
     0
176
     1
 40
1.0
176
     1
 40
1.0
176
     1
  0
VISUALSTYLE
  5
614
102
{ACAD_REACTORS
330
610
102
}
330
610
100
AcDbVisualStyle
  2
GouraudWithEdges
 70
     3
177
     3
291
     1
 70
    58
 90
        2
176
     1
 90
        2
176
     1
 90
        1
176
     1
 90
        2
176
     1
 40
0.6
176
     1
 40
30.0
176
     1
 62
     7
420
 16777215
176
     1
 90
        1
176
     1
 90
        0
176
     1
 62
     7
176
     1
 62
   257
176
     1
 90
        1
176
     1
 90
        1
176
     1
 40
1.0
176
     1
 90
        0
176
     1
 62
   257
176
     1
 40
1.0
176
     1
 90
        1
176
     1
 90
        6
176
     1
 90
        2
176
     1
 62
     7
176
     1
 90
        5
176
     1
 90
        0
176
     1
 90
        0
176
     1
290
     0
176
     1
 90
       13
176
     1
 40
0.0
176
     1
 90
        0
176
     1
290
     0
176
     1
290
     1
176
     1
290
     1
176
     1
290
     0
176
     1
290
     0
176
     1
290
     0
176
     1
290
     0
176
     1
290
     0
176
     1
290
     0
176
     1
 90
       50
176
     1
 40
0.0
176
     1
 40
1.0
176
     1
 90
        0
176
     1
 62
    18
420
        0
176
     1
 90
       50
176
     1
 90
        3
176
     1
 62
     5
420
      255
176
     1
290
     0
176
     1
 90
       50
176
     1
 90
       50
176
     1
 90
       50
176
     1
290
     0
176
     1
 90
       50
176
     1
 62
   256
176
     0
 40
1.0
176
     0
 90
        2
176
     1
  1
strokes_ogs.tif
176
     1
290
     0
176
     1
 40
1.0
176
     1
 40
1.0
176
     1
  0
VISUALSTYLE
  5
617
102
{ACAD_REACTORS
330
610
102
}
330
610
100
AcDbVisualStyle
  2
Hidden
 70
     6
177
     3
291
     0
 70
    58
 90
        1
176
     1
 90
        2
176
     1
 90
        2
176
     1
 90
        0
176
     1
 40
0.6
176
     1
 40
30.0
176
     1
 62
     7
420
 16777215
176
     1
 90
        2
176
     1
 90
        2
176
     1
 62
     7
176
     1
 62
   257
176
     1
 90
        2
176
     1
 90
        1
176
     1
 40
40.0
176
     1
 90
        0
176
     1
 62
   257
176
     1
 40
1.0
176
     1
 90
        1
176
     1
 90
        6
176
     1
 90
        2
176
     1
 62
     7
176
     1
 90
        3
176
     1
 90
        0
176
     1
 90
        0
176
     1
290
     0
176
     1
 90
        1
176
     1
 40
0.0
176
     1
 90
        0
176
     1
290
     0
176
     1
290
     1
176
     1
290
     1
176
     1
290
     0
176
     1
290
     0
176
     1
290
     0
176
     1
290
     0
176
     1
290
     0
176
     1
290
     0
176
     1
 90
       50
176
     1
 40
0.0
176
     1
 40
1.0
176
     1
 90
        0
176
     1
 62
    18
420
        0
176
     1
 90
       50
176
     1
 90
        3
176
     1
 62
     5
420
      255
176
     1
290
     0
176
     1
 90
       50
176
     1
 90
       50
176
     1
 90
       50
176
     1
290
     0
176
     1
 90
       50
176
     1
 62
   256
176
     0
 40
1.0
176
     0
 90
        2
176
     1
  1
strokes_ogs.tif
176
     1
290
     0
176
     1
 40
1.0
176
     1
 40
1.0
176
     1
  0
VISUALSTYLE
  5
621
102
{ACAD_REACTORS
330
610
102
}
330
610
100
AcDbVisualStyle
  2
JitterOff
 70
    20
177
     3
291
     1
 70
    58
 90
        2
176
     0
 90
        2
176
     0
 90
        0
176
     0
 90
        0
176
     0
 40
0.6
176
     0
 40
30.0
176
     0
 62
     7
420
 16777215
176
     0
 90
        1
176
     0
 90
        4
176
     0
 62
     7
176
     0
 62
   257
176
     0
 90
        1
176
     0
 90
        1
176
     0
 40
1.0
176
     0
 90
       10
176
     2
 62
     7
176
     0
 40
1.0
176
     0
 90
        1
176
     0
 90
        6
176
     0
 90
        2
176
     0
 62
     7
176
     0
 90
        5
176
     0
 90
        0
176
     0
 90
        0
176
     0
290
     0
176
     0
 90
        1
176
     0
 40
0.0
176
     0
 90
        0
176
     0
290
     0
176
     0
290
     1
176
     0
290
     1
176
     0
290
     0
176
     0
290
     0
176
     0
290
     0
176
     0
290
     0
176
     0
290
     0
176
     0
290
     0
176
     0
 90
       50
176
     0
 40
0.0
176
     0
 40
1.0
176
     0
 90
        0
176
     0
 62
    18
420
        0
176
     0
 90
       50
176
     0
 90
        3
176
     0
 62
     5
420
      255
176
     0
290
     0
176
     0
 90
       50
176
     0
 90
       50
176
     0
 90
       50
176
     0
290
     0
176
     0
 90
       50
176
     0
 62
   256
176
     0
 40
1.0
176
     0
 90
        2
176
     0
  1
strokes_ogs.tif
176
     0
290
     0
176
     0
 40
1.0
176
     0
 40
1.0
176
     0
  0
VISUALSTYLE
  5
61E
102
{ACAD_REACTORS
330
610
102
}
330
610
100
AcDbVisualStyle
  2
Linepattern
 70
    14
177
     3
291
     1
 70
    58
 90
        2
176
     1
 90
        2
176
     1
 90
        0
176
     1
 90
        0
176
     1
 40
0.6
176
     1
 40
30.0
176
     1
 62
     7
420
 16777215
176
     1
 90
        1
176
     1
 90
        4
176
     1
 62
     7
176
     1
 62
   257
176
     1
 90
        7
176
     1
 90
        7
176
     1
 40
1.0
176
     1
 90
        8
176
     1
 62
     7
176
     1
 40
1.0
176
     1
 90
        1
176
     1
 90
        6
176
     1
 90
        2
176
     1
 62
     7
176
     1
 90
        5
176
     1
 90
        0
176
     1
 90
        0
176
     1
290
     0
176
     1
 90
        1
176
     1
 40
0.0
176
     1
 90
        0
176
     1
290
     0
176
     1
290
     1
176
     1
290
     1
176
     1
290
     0
176
     1
290
     0
176
     1
290
     0
176
     1
290
     0
176
     1
290
     0
176
     1
290
     0
176
     1
 90
       50
176
     1
 40
0.0
176
     1
 40
1.0
176
     1
 90
        0
176
     1
 62
    18
420
        0
176
     1
 90
       50
176
     1
 90
        3
176
     1
 62
     5
420
      255
176
     1
290
     0
176
     1
 90
       50
176
     1
 90
       50
176
     1
 90
       50
176
     1
290
     0
176
     1
 90
       50
176
     1
 62
   256
176
     0
 40
1.0
176
     0
 90
        2
176
     1
  1
strokes_ogs.tif
176
     1
290
     0
176
     1
 40
1.0
176
     1
 40
1.0
176
     1
  0
VISUALSTYLE
  5
622
102
{ACAD_REACTORS
330
610
102
}
330
610
100
AcDbVisualStyle
  2
OverhangOff
 70
    21
177
     3
291
     1
 70
    58
 90
        2
176
     0
 90
        2
176
     0
 90
        0
176
     0
 90
        0
176
     0
 40
0.6
176
     0
 40
30.0
176
     0
 62
     7
420
 16777215
176
     0
 90
        1
176
     0
 90
        4
176
     0
 62
     7
176
     0
 62
   257
176
     0
 90
        1
176
     0
 90
        1
176
     0
 40
1.0
176
     0
 90
        9
176
     2
 62
     7
176
     0
 40
1.0
176
     0
 90
        1
176
     0
 90
        6
176
     0
 90
        2
176
     0
 62
     7
176
     0
 90
        5
176
     0
 90
        0
176
     0
 90
        0
176
     0
290
     0
176
     0
 90
        1
176
     0
 40
0.0
176
     0
 90
        0
176
     0
290
     0
176
     0
290
     1
176
     0
290
     1
176
     0
290
     0
176
     0
290
     0
176
     0
290
     0
176
     0
290
     0
176
     0
290
     0
176
     0
290
     0
176
     0
 90
       50
176
     0
 40
0.0
176
     0
 40
1.0
176
     0
 90
        0
176
     0
 62
    18
420
        0
176
     0
 90
       50
176
     0
 90
        3
176
     0
 62
     5
420
      255
176
     0
290
     0
176
     0
 90
       50
176
     0
 90
       50
176
     0
 90
       50
176
     0
290
     0
176
     0
 90
       50
176
     0
 62
   256
176
     0
 40
1.0
176
     0
 90
        2
176
     0
  1
strokes_ogs.tif
176
     0
290
     0
176
     0
 40
1.0
176
     0
 40
1.0
176
     0
  0
VISUALSTYLE
  5
619
102
{ACAD_REACTORS
330
610
102
}
330
610
100
AcDbVisualStyle
  2
Realistic
 70
     8
177
     3
291
     0
 70
    58
 90
        2
176
     1
 90
        3
176
     1
 90
        0
176
     1
 90
        2
176
     1
 40
0.6
176
     1
 40
30.0
176
     1
 62
     7
420
 16777215
176
     1
 90
        0
176
     1
 90
        0
176
     1
 62
     7
176
     1
 62
   257
176
     1
 90
        1
176
     1
 90
        1
176
     1
 40
1.0
176
     1
 90
        8
176
     1
 62
   257
176
     1
 40
1.0
176
     1
 90
        1
176
     1
 90
        6
176
     1
 90
        2
176
     1
 62
     7
176
     1
 90
        3
176
     1
 90
        0
176
     1
 90
        0
176
     1
290
     0
176
     1
 90
       13
176
     1
 40
0.0
176
     1
 90
        0
176
     1
290
     0
176
     1
290
     1
176
     1
290
     1
176
     1
290
     0
176
     1
290
     0
176
     1
290
     0
176
     1
290
     0
176
     1
290
     0
176
     1
290
     0
176
     1
 90
       50
176
     1
 40
0.0
176
     1
 40
1.0
176
     1
 90
        0
176
     1
 62
    18
420
        0
176
     1
 90
       50
176
     1
 90
        3
176
     1
 62
     5
420
      255
176
     1
290
     0
176
     1
 90
       50
176
     1
 90
       50
176
     1
 90
       50
176
     1
290
     0
176
     1
 90
       50
176
     1
 62
   256
176
     0
 40
1.0
176
     0
 90
        2
176
     1
  1
strokes_ogs.tif
176
     1
290
     0
176
     1
 40
1.0
176
     1
 40
1.0
176
     1
  0
VISUALSTYLE
  5
628
102
{ACAD_REACTORS
330
610
102
}
330
610
100
AcDbVisualStyle
  2
Shaded
 70
    27
177
     3
291
     0
 70
    58
 90
        2
176
     1
 90
        2
176
     1
 90
        1
176
     1
 90
        2
176
     1
 40
0.6
176
     1
 40
30.0
176
     1
 62
     7
420
 16777215
176
     1
 90
        0
176
     1
 90
        4
176
     1
 62
     7
176
     1
 62
   257
176
     1
 90
        1
176
     1
 90
        1
176
     1
 40
1.0
176
     1
 90
        8
176
     1
 62
   257
176
     1
 40
1.0
176
     1
 90
        1
176
     1
 90
        6
176
     1
 90
        2
176
     1
 62
     8
420
  7895160
176
     1
 90
        3
176
     1
 90
        0
176
     1
 90
        0
176
     1
290
     0
176
     1
 90
        5
176
     1
 40
0.0
176
     1
 90
        0
176
     1
290
     0
176
     1
290
     1
176
     1
290
     1
176
     1
290
     0
176
     1
290
     0
176
     1
290
     0
176
     1
290
     0
176
     1
290
     0
176
     1
290
     0
176
     1
 90
       50
176
     1
 40
0.0
176
     1
 40
1.0
176
     1
 90
        0
176
     1
 62
    18
420
        0
176
     1
 90
       50
176
     1
 90
        3
176
     1
 62
     5
420
      255
176
     1
290
     0
176
     1
 90
       50
176
     1
 90
       50
176
     1
 90
       50
176
     1
290
     0
176
     1
 90
       50
176
     1
 62
   256
176
     0
 40
1.0
176
     0
 90
        2
176
     1
  1
strokes_ogs.tif
176
     1
290
     0
176
     1
 40
1.0
176
     1
 40
1.0
176
     1
  0
VISUALSTYLE
  5
627
102
{ACAD_REACTORS
330
610
102
}
330
610
100
AcDbVisualStyle
  2
Shaded with edges
 70
    26
177
     3
291
     0
 70
    58
 90
        2
176
     1
 90
        2
176
     1
 90
        1
176
     1
 90
        2
176
     1
 40
0.6
176
     1
 40
30.0
176
     1
 62
     7
420
 16777215
176
     1
 90
        1
176
     1
 90
       10
176
     1
 62
     7
176
     1
 62
   257
176
     1
 90
        2
176
     1
 90
        1
176
     1
 40
1.0
176
     1
 90
        8
176
     1
 62
   257
176
     1
 40
1.0
176
     1
 90
        1
176
     1
 90
        6
176
     1
 90
        2
176
     1
 62
     7
176
     1
 90
        3
176
     1
 90
        0
176
     1
 90
        0
176
     1
290
     0
176
     1
 90
        5
176
     1
 40
0.0
176
     1
 90
        0
176
     1
290
     0
176
     1
290
     1
176
     1
290
     1
176
     1
290
     0
176
     1
290
     0
176
     1
290
     0
176
     1
290
     0
176
     1
290
     0
176
     1
290
     0
176
     1
 90
       50
176
     1
 40
0.0
176
     1
 40
1.0
176
     1
 90
        0
176
     1
 62
    18
420
        0
176
     1
 90
       50
176
     1
 90
        3
176
     1
 62
     5
420
      255
176
     1
290
     0
176
     1
 90
       50
176
     1
 90
       50
176
     1
 90
       50
176
     1
290
     0
176
     1
 90
       50
176
     1
 62
   256
176
     0
 40
1.0
176
     0
 90
        2
176
     1
  1
strokes_ogs.tif
176
     1
290
     0
176
     1
 40
1.0
176
     1
 40
1.0
176
     1
  0
VISUALSTYLE
  5
624
102
{ACAD_REACTORS
330
610
102
}
330
610
100
AcDbVisualStyle
  2
Shades of Gray
 70
    23
177
     3
291
     0
 70
    58
 90
        2
176
     1
 90
        2
176
     1
 90
        3
176
     1
 90
        0
176
     1
 40
0.6
176
     1
 40
30.0
176
     1
 62
     7
420
 16777215
176
     1
 90
        2
176
     1
 90
        2
176
     1
 62
     7
176
     1
 62
     7
176
     1
 90
        1
176
     1
 90
        1
176
     1
 40
40.0
176
     1
 90
        8
176
     1
 62
     7
176
     1
 40
1.0
176
     1
 90
        1
176
     1
 90
        6
176
     1
 90
        2
176
     1
 62
     7
176
     1
 90
        3
176
     1
 90
        0
176
     1
 90
        0
176
     1
290
     0
176
     1
 90
        1
176
     1
 40
0.0
176
     1
 90
        0
176
     1
290
     0
176
     1
290
     1
176
     1
290
     1
176
     1
290
     0
176
     1
290
     0
176
     1
290
     0
176
     1
290
     0
176
     1
290
     0
176
     1
290
     0
176
     1
 90
       50
176
     1
 40
0.0
176
     1
 40
1.0
176
     1
 90
        0
176
     1
 62
    18
420
        0
176
     1
 90
       50
176
     1
 90
        3
176
     1
 62
     5
420
      255
176
     1
290
     0
176
     1
 90
       50
176
     1
 90
       50
176
     1
 90
       50
176
     1
290
     0
176
     1
 90
       50
176
     1
 62
   256
176
     0
 40
1.0
176
     0
 90
        2
176
     1
  1
strokes_ogs.tif
176
     1
290
     0
176
     1
 40
1.0
176
     1
 40
1.0
176
     1
  0
VISUALSTYLE
  5
625
102
{ACAD_REACTORS
330
610
102
}
330
610
100
AcDbVisualStyle
  2
Sketchy
 70
    24
177
     3
291
     0
 70
    58
 90
        1
176
     1
 90
        2
176
     1
 90
        2
176
     1
 90
        0
176
     1
 40
0.6
176
     1
 40
30.0
176
     1
 62
     7
420
 16777215
176
     1
 90
        2
176
     1
 90
        2
176
     1
 62
     7
176
     1
 62
     7
176
     1
 90
        1
176
     1
 90
        1
176
     1
 40
40.0
176
     1
 90
       11
176
     1
 62
     7
176
     1
 40
1.0
176
     1
 90
        1
176
     1
 90
        6
176
     1
 90
        2
176
     1
 62
     7
176
     1
 90
        6
176
     1
 90
        0
176
     1
 90
        0
176
     1
290
     0
176
     1
 90
        1
176
     1
 40
0.0
176
     1
 90
        0
176
     1
290
     0
176
     1
290
     1
176
     1
290
     1
176
     1
290
     0
176
     1
290
     0
176
     1
290
     0
176
     1
290
     0
176
     1
290
     0
176
     1
290
     0
176
     1
 90
       50
176
     1
 40
0.0
176
     1
 40
1.0
176
     1
 90
        0
176
     1
 62
    18
420
        0
176
     1
 90
       50
176
     1
 90
        3
176
     1
 62
     5
420
      255
176
     1
290
     0
176
     1
 90
       50
176
     1
 90
       50
176
     1
 90
       50
176
     1
290
     0
176
     1
 90
       50
176
     1
 62
   256
176
     0
 40
1.0
176
     0
 90
        2
176
     1
  1
strokes_ogs.tif
176
     1
290
     0
176
     1
 40
1.0
176
     1
 40
1.0
176
     1
  0
VISUALSTYLE
  5
61D
102
{ACAD_REACTORS
330
610
102
}
330
610
100
AcDbVisualStyle
  2
Thicken
 70
    13
177
     3
291
     1
 70
    58
 90
        2
176
     1
 90
        2
176
     1
 90
        0
176
     1
 90
        0
176
     1
 40
0.6
176
     1
 40
30.0
176
     1
 62
     7
420
 16777215
176
     1
 90
        1
176
     1
 90
        4
176
     1
 62
     7
176
     1
 62
   257
176
     1
 90
        1
176
     1
 90
        1
176
     1
 40
1.0
176
     1
 90
       12
176
     1
 62
     7
176
     1
 40
1.0
176
     1
 90
        1
176
     1
 90
        6
176
     1
 90
        2
176
     1
 62
     7
176
     1
 90
        5
176
     1
 90
        0
176
     1
 90
        0
176
     1
290
     0
176
     1
 90
        1
176
     1
 40
0.0
176
     1
 90
        0
176
     1
290
     0
176
     1
290
     1
176
     1
290
     1
176
     1
290
     0
176
     1
290
     0
176
     1
290
     0
176
     1
290
     0
176
     1
290
     0
176
     1
290
     0
176
     1
 90
       50
176
     1
 40
0.0
176
     1
 40
1.0
176
     1
 90
        0
176
     1
 62
    18
420
        0
176
     1
 90
       50
176
     1
 90
        3
176
     1
 62
     5
420
      255
176
     1
290
     0
176
     1
 90
       50
176
     1
 90
       50
176
     1
 90
       50
176
     1
290
     0
176
     1
 90
       50
176
     1
 62
   256
176
     0
 40
1.0
176
     0
 90
        2
176
     1
  1
strokes_ogs.tif
176
     1
290
     0
176
     1
 40
1.0
176
     1
 40
1.0
176
     1
  0
VISUALSTYLE
  5
616
102
{ACAD_REACTORS
330
610
102
}
330
610
100
AcDbVisualStyle
  2
Wireframe
 70
     5
177
     3
291
     0
 70
    58
 90
        0
176
     1
 90
        2
176
     1
 90
        0
176
     1
 90
        0
176
     1
 40
0.6
176
     1
 40
30.0
176
     1
 62
     7
420
 16777215
176
     1
 90
        1
176
     1
 90
        4
176
     1
 62
     7
176
     1
 62
   257
176
     1
 90
        1
176
     1
 90
        1
176
     1
 40
1.0
176
     1
 90
        0
176
     1
 62
   257
176
     1
 40
1.0
176
     1
 90
        1
176
     1
 90
        6
176
     1
 90
        2
176
     1
 62
     7
176
     1
 90
        3
176
     1
 90
        0
176
     1
 90
        0
176
     1
290
     0
176
     1
 90
        1
176
     1
 40
0.0
176
     1
 90
        0
176
     1
290
     0
176
     1
290
     1
176
     1
290
     1
176
     1
290
     0
176
     1
290
     0
176
     1
290
     0
176
     1
290
     0
176
     1
290
     0
176
     1
290
     0
176
     1
 90
       50
176
     1
 40
0.0
176
     1
 40
1.0
176
     1
 90
        0
176
     1
 62
    18
420
        0
176
     1
 90
       50
176
     1
 90
        3
176
     1
 62
     5
420
      255
176
     1
290
     0
176
     1
 90
       50
176
     1
 90
       50
176
     1
 90
       50
176
     1
290
     0
176
     1
 90
       50
176
     1
 62
   256
176
     0
 40
1.0
176
     0
 90
        2
176
     1
  1
strokes_ogs.tif
176
     1
290
     0
176
     1
 40
1.0
176
     1
 40
1.0
176
     1
  0
VISUALSTYLE
  5
626
102
{ACAD_REACTORS
330
610
102
}
330
610
100
AcDbVisualStyle
  2
X-Ray
 70
    25
177
     3
291
     0
 70
    58
 90
        2
176
     1
 90
        2
176
     1
 90
        1
176
     1
 90
        1
176
     1
 40
0.5
176
     1
 40
30.0
176
     1
 62
     7
420
 16777215
176
     1
 90
        1
176
     1
 90
        0
176
     1
 62
     7
176
     1
 62
   257
176
     1
 90
        1
176
     1
 90
        1
176
     1
 40
1.0
176
     1
 90
        8
176
     1
 62
     7
176
     1
 40
1.0
176
     1
 90
        1
176
     1
 90
        6
176
     1
 90
        2
176
     1
 62
     7
176
     1
 90
        3
176
     1
 90
        0
176
     1
 90
        0
176
     1
290
     0
176
     1
 90
       13
176
     1
 40
0.0
176
     1
 90
        0
176
     1
290
     0
176
     1
290
     1
176
     1
290
     1
176
     1
290
     0
176
     1
290
     0
176
     1
290
     0
176
     1
290
     0
176
     1
290
     0
176
     1
290
     0
176
     1
 90
       50
176
     1
 40
0.0
176
     1
 40
1.0
176
     1
 90
        0
176
     1
 62
    18
420
        0
176
     1
 90
       50
176
     1
 90
        3
176
     1
 62
     5
420
      255
176
     1
290
     0
176
     1
 90
       50
176
     1
 90
       50
176
     1
 90
       50
176
     1
290
     0
176
     1
 90
       50
176
     1
 62
   256
176
     0
 40
1.0
176
     0
 90
        2
176
     1
  1
strokes_ogs.tif
176
     1
290
     0
176
     1
 40
1.0
176
     1
 40
1.0
176
     1
  0
DICTIONARYVAR
  5
63F
102
{ACAD_REACTORS
330
63E
102
}
330
63E
100
DictionaryVariables
280
     0
  1
1:1
  0
DICTIONARYVAR
  5
643
102
{ACAD_REACTORS
330
63E
102
}
330
63E
100
DictionaryVariables
280
     0
  1
Standard
  0
CSACDOCUMENTOPTIONS
  5
634
102
{ACAD_REACTORS
330
633
102
}
330
633
  0
XRECORD
  5
638
102
{ACAD_REACTORS
330
62F
102
}
330
62F
100
AcDbXrecord
280
     1
300
MC_VERSION_DATA
 90
       95
310
0600000002000000570000001C000000E404000000000000000000007801936764E5D8CF7A8393818115C460606066E0646662626666706006F214793899F8DE3171E725E6E53B3BBA2878E6951050AF75FEFFFFFF520032DE0F3057000000
  0
XRECORD
  5
630
102
{ACAD_REACTORS
330
62F
102
}
330
62F
100
AcDbXrecord
280
     1
300
MCS_DOCUMENT_ID
 90
       60
310
0600000002000000150000001C000000E404000000000000000000007801E37D9910185FDFB7C679677B99B0A2DC7F8DFF40000069DE0B2E15000000
  0
XRECORD
  5
636
102
{ACAD_REACTORS
330
62F
102
}
330
62F
100
AcDbXrecord
280
     1
300
MCS_PARAMS_DATA
 90
     3313
310
0600000002000000F64B00001C000000E404000000000000000000007801C55C5B905C45199EE99EBDCCE67E5DA218172C303B91307B4B8C459531245054850D55591F78B236BB49B9BAC9E6B22A082A9655BE5865596569A965F9209288CF16503EC8834088C10B092404211702988430422E9084CDAEFFD7A7FBF4DFA7CF
310
D9D99D9D39930798FF3F7DCEF7DFFAFBBBFBCC6CDBFC46297252EECB48F9CDF5ED5234493921A5206D76815820B252E4F3225F128D7D5F59BF69E3162948D9A2D485B3131313747328BF06593E960915079422437734AA3BDAA5CCD053F5ED4FD2557D257BAB94DF007A03479F859BB2B22193C9108EC1CDCADC0464C27506
310
28605703E48886E0B986E10F03BF91E33707F8E3140E7A9091C8268236920C1C662240B94888A1C8E07600AE99C32D5131CA8B3925D172EFE62D7D6D9DABBA8ADDD6F17CE16D13F0457AE8AC9268DE32DABF73B07FCFA013F9BF8491D7C17E2550D8E8FFCA8DFE4E98B3929B331718B291824FFF72EB941D9E8E2211D5A93C
310
784A44C557923911258BD0C8640531AEEC61A924855B11378280384364A422680C0A928DB9C10CD89D581114199665B722B26E4590C82B0222AB08FAA8A60626C028E0044F81BA246F5360E167F2D27C56A10E05C058C13C59DEC6207679103AFC5DEADF992F2B284F67B31C8EE359B64A9665A62453228F64269D98455E3B
310
A4B35817F7EC92C86FB8EFFE8DBD5BEEDBDCAB0CD3B5FC8E99065A7E55D536E39DE7826237F1C8BBBCB3CFADFC93302087C80397EE69C2FF69CA32234F0763E41851010DA578E8294D435524988818E84710A7B2643B4F7C034F6CE5C9368F203BE8094C6268541D70D35EE4B585DAE170F4942EB8D2D422560A9917F34B62
310
CE86919D9F1F6DDBB36DD770FFC0B6BC682E898607BEB5737424F8D83B323AF07529CFC0B69BB96D9FD3CFF9B410ED79B1A42416161FEA29AEEDEEEC5ADF532C76DEF3C5AEEEB5CAECF97A60330D2C1C3579EAD0DA7621F20269BD6768746FDBF0D0DE51F3B0EE356B3ABBD6F474F7740D76770EACED08FCFC92BEAF13F701
310
B5AF7FEBF0B6B691ED6D7D23C3DBF6F4EF840FDA9AD583C58E81E240FFEAADDD5BD70EAC0E669D2A25F27FB610851F9335859F059541B9E5971EC7A5A7E83F2CE53DB9A4040555A2661A4DDBF2C560B2E54E7D5483931EF871F7C88E5DFDA3435B878687461F6EDB313248FE3596847C70DBDEBC682809D13B22E56A5856E4
310
E9998738519B6E2A89DCE6EDDBDB542AF4E4380F8F61A4965F57116093E5A052A06AF588670205D9A715FB49B140D81A90855F902680EBB8B3A3187EEA96F2B224E392BAF898328CB1AD47DA34C1601A1B421AD816D190715CC3F276A5DE067C546F03AED6DB808FEB6DC0B57A1BB00853B49EB3E0937A47E07ABD0D188301
310
71CB797197D3603B1D06BFCB6DB024827C0C834324E60945463B3712E196397079076E990B47228783C8E09631B8F129C211385B3E540C97413DC70673C524DEAD70BD23917B079179B782793791AE77D944EFDCDC5529988B13E1069D6092C472A7F777A6F648E4C184C88239C8822913E16AE29D48176E29E0727C316496
310
EF2A967C95165E504B0C2B218EEE82DD5C63513CD614C5091F6D6FA7551865CC5C5030A1E0A3E84BEC86CFD04EC5DD01AA74CBDB05AB8C403295A124BB2908C4B032B4682A032283FB103E391B4E03172C7199C4E0F88E871E8855ADA1482D3238FA1846E0B807A77785BFF935FE1D74369F5647D0D171CA5F4F09337C2559
310
105132935A503D6DBC7A94B54D2B6DF1E0339960F436A97441791E5EC104D40283580888C4FDED577B1FD8B4B9AF6FE30605D8AAD7F1F34A62F6DD5BBEC62E92057A31FEA25A9DB3F5FBD3C1729D9CD723B0BF0DE8402BB05A67160DDE4416E59079C0D9EAA575B7321F67115FC018C76AB5B3A33D06B68CBD9BFBDC93C073
310
800CC384FD360C544F539B6F02B1820953BE9D01DE01C0D85A6C50369A5AC4065C7760793B965800321749E4B50891C0C2AB0CAE9808178444974C70F875952A9381563C01BE9D08EAFA481283ABD8C7EF7870DAABE068E68833DFAC8EA0A3E3F87C0B07AA507B2311F0889285BDC333294C4E2DB27C67BA70ABD2857B688A
310
70552AA7873DB8489E55063D5D2DCBE9BB9E49F1E554A5083C922EDCA3E9C27D2F5DB8EF7B705EE9D87E1E920E88313AAE6AECF4FBD668D3D30DB4E51ADA9BEDB0D7AFCEB4DDED85F7C4ECF6551B3BCE2AFF6E835E49458EC94883D6E73C45753FAE614C3C0A0362777435D915EC025C33F7578776011DE6F3D066954C59D6
310
D76F86AC9CD58A53F4122CF0552BAE070AEA3B5AF15752304F1F47569D50AB71F41A31FA5A51C904CD43C6B0F51D2ACEFC112ACC4CC1B0FF086CE7AD5A4D096A005126387AAD451EE384D9C035A925859E39C1AA865EE9A9B8DA21CEE289167F7CF1D4C4BC7A125EC5AED5D8BB0B5A9D9144D134CFA71BF85A8D44BE568348
310
F6AA55A2F3CAEA4F6982FD21118CC249D3CBF852A586F244BA70FBD285DB9F085793EDE56E143F0AD06C6B4CB2242BDD3DD1419166C2865E81F9CE1648F3CBD84597B22E28992A3DDCE24C77F3F311A01C8A722828EC3CF15F7D987933F818F8E59BC138E5CD4CE8AC24C94E68BA32F5C3CBAB808B6B06B9936E642F9F804C
310
903AF2F3709D37832318A078E4B37AEBDCFAA66859945B9EBB25776BAE2DD3995995E9CA1433DDFA4DAC7ECE6FE93696E96BB06712968ED2661884A9EE40230F60D0D73DE8C858453B9E8E4212D5A9B0784A762662599FEDD18C9299F4094C728A91F536658E91CDA6DFC8E89F363B15B4CB31404FD2581CF722BBF229B517
310
430944E56AB2E2A8E3461950730F2B7ECA7BC570E389706E8BA9D241C744225C40C29385944F707279EA277D998065D9EAD604B1263E66D38513E9C2490F4EE7CC6E8AA89C3D9DA588701CA708AB6414C194931EE3FC0D4515D71A4FBFE712F8CB4A26532A6E8DCF01CA61A3745BE3F3C09F6E6B442F0CD7BAD36A8D2F002E
310
AE359E3BE646F6B8926D6BBC0CD9926FBEF08C5220B9BAE91D0E14769FF44B52301E3C00E8FA74C117BD24F396E22C7F1005F2DA2902EB76053DE720B0D3EE397F2F036AE8B24A3DE750225C4DF8F8A544B81AF69C7F2482D6C4C77F067093EF36FE359541FF8E0E8A50399BA22F63681CEF0EBDEBB2C3834A9E09EF1E0654
310
1D79F708F0A7CBBB956F495E015C1CEFEE3EEC46B65FC996771F856C09285F58A7148C77872F6104D6DC9A8897D30896D457015D1FDE3DEA25B91CEFF2EBD6EB0A68F718A0D3A6DDD7CA805699768F27C2D584925E4F84AB9476A39B03E744D09CD6610FF59F44E89A78FA46BA70DDDE0ADC144A4DBCEBF1E0221D416DC23D
310
1D715254A766A8A7AC60C1FF26021ED7783E889CD89C52F24C1ACF0940D5B1F19C047E7A8DE714E0E21ACFD5436EE339AB64DB78E44B91C6730003ECCB897CE1D28548E3798246B0C6731AD0536D3CB3E90740046E0B5FD5161351555C247A084506FA9607AAEBD39C44F1E2B63A5BDCA18E17B755B2E2664A322602C34C3A
310
0393625B51C09BC60D77315EF1E1C8DB80730A9C37D5B8CD0EBF3EA3A6FB4EA2A7C18B1B2746D53A5F7BB70C687C78291FE10E3A386EE3054657F9CB297E9CF703B0E71DFC4DA3397B4068C3CF33A1A81F02C2C920DB8E7ABF712005813923946BAE06DE453454B45CC32AF6311810C751E3F85A979E7874424F9299B34AB2
310
210DC430A45A3473162283FB2F3218C7FE178FBB1CF59692CDAD957C0DECAC3739580882F7E26636C4FC0874E66F42CE013F2EB274A4C323CBB88082C5B980AE4CFD4DC879C0C5B1FFF5E7DDC89E57324556799F2F34BC006EC70CD18A8318C0D9FF0AB6807CDBB19F46B0A4BE07E8B4D9FF8207EA504E3D7E65FA3E4C7226
310
B329B0E8D703AAFEBAA304E869379E693123CD68457958A4FF2F11AE86ECFF4119D078F6E7138AD87FF2370F86D6E1E38789702D76FED2134932CCA824CB8C811832A3160D33426421BD980847AF6F0C11D33DEECB1CFE9B7175D1F926045DE5BD8DBFBDBE94081764D0049324E6DDB40A8607F372225C4D16463974B5B836
310
F393232E193EA2E499B49986C93A780A6DA631A981D7A6CD34012EAECDFCFC5937B23F52B26D33BF83CCDBCC56A5C0ECD07DE7A7A7226D661D8D6033A419D0536D33E07F56B8C4CA7C0D48229F9610695A461A0883CE7B494E8DD95B004DF38E8247AB09FE45AC1A52EDAC32A0861DD8DA85D8A76276989D08579353913989
310
700119397510D9BB4CAB9DF096393711B4263ECE4B176E7EBA700B3C389DB3F0B5335AA6A7234288EA142D784A9083AFB414616018456CF24C3293C4CD2F49D3E5A5F0410CEE7E0F2E6A6FEA11580893E29AEE529C2FC11C4DF48D4AA628982DB44A422820F8563073C8F989CF2240392BED74F7768B819FDEDE6E09E0E29A
310
EE72FA030B3CB273954C91D5916E87CC9BEEFB4FAB1E6B73B10CFB6CBEB73B4423589D2D05F4CC9AAE2E4C768646F0614DBB4BD40606DDEA2539B5A67B13A0D36EBACBCA809A9055A7E9E24B8E0D79912B896C91FE0C1655C17843E129FA335B3277F4E8510807513CB9CC44868E210AF7FE19028691B0917E39482B125CF8
310
D4FF01F0B312DAF64B0000
  0
TABLECONTENT
  5
63A
330
63D
100
AcDbLinkedData
  1

300

100
AcDbLinkedTableData
 90
        5
300
COLUMN
  1
LINKEDTABLEDATACOLUMN_BEGIN
300

 91
        0
301
CUSTOMDATA
  1
DATAMAP_BEGIN
 90
        0
309
DATAMAP_END
309
LINKEDTABLEDATACOLUMN_END
  1
FORMATTEDTABLEDATACOLUMN_BEGIN
300
COLUMNTABLEFORMAT
  1
TABLEFORMAT_BEGIN
 90
        3
170
     0
309
TABLEFORMAT_END
309
FORMATTEDTABLEDATACOLUMN_END
  1
TABLECOLUMN_BEGIN
 90
        0
 40
20.0
309
TABLECOLUMN_END
300
COLUMN
  1
LINKEDTABLEDATACOLUMN_BEGIN
300

 91
        0
301
CUSTOMDATA
  1
DATAMAP_BEGIN
 90
        0
309
DATAMAP_END
309
LINKEDTABLEDATACOLUMN_END
  1
FORMATTEDTABLEDATACOLUMN_BEGIN
300
COLUMNTABLEFORMAT
  1
TABLEFORMAT_BEGIN
 90
        3
170
     0
309
TABLEFORMAT_END
309
FORMATTEDTABLEDATACOLUMN_END
  1
TABLECOLUMN_BEGIN
 90
        0
 40
20.0
309
TABLECOLUMN_END
300
COLUMN
  1
LINKEDTABLEDATACOLUMN_BEGIN
300

 91
        0
301
CUSTOMDATA
  1
DATAMAP_BEGIN
 90
        0
309
DATAMAP_END
309
LINKEDTABLEDATACOLUMN_END
  1
FORMATTEDTABLEDATACOLUMN_BEGIN
300
COLUMNTABLEFORMAT
  1
TABLEFORMAT_BEGIN
 90
        3
170
     0
309
TABLEFORMAT_END
309
FORMATTEDTABLEDATACOLUMN_END
  1
TABLECOLUMN_BEGIN
 90
        0
 40
20.0
309
TABLECOLUMN_END
300
COLUMN
  1
LINKEDTABLEDATACOLUMN_BEGIN
300

 91
        0
301
CUSTOMDATA
  1
DATAMAP_BEGIN
 90
        0
309
DATAMAP_END
309
LINKEDTABLEDATACOLUMN_END
  1
FORMATTEDTABLEDATACOLUMN_BEGIN
300
COLUMNTABLEFORMAT
  1
TABLEFORMAT_BEGIN
 90
        3
170
     0
309
TABLEFORMAT_END
309
FORMATTEDTABLEDATACOLUMN_END
  1
TABLECOLUMN_BEGIN
 90
        0
 40
80.0
309
TABLECOLUMN_END
300
COLUMN
  1
LINKEDTABLEDATACOLUMN_BEGIN
300

 91
        0
301
CUSTOMDATA
  1
DATAMAP_BEGIN
 90
        0
309
DATAMAP_END
309
LINKEDTABLEDATACOLUMN_END
  1
FORMATTEDTABLEDATACOLUMN_BEGIN
300
COLUMNTABLEFORMAT
  1
TABLEFORMAT_BEGIN
 90
        3
170
     0
309
TABLEFORMAT_END
309
FORMATTEDTABLEDATACOLUMN_END
  1
TABLECOLUMN_BEGIN
 90
        0
 40
40.0
309
TABLECOLUMN_END
 91
        5
301
ROW
  1
LINKEDTABLEDATAROW_BEGIN
 90
        5
300
CELL
  1
LINKEDTABLEDATACELL_BEGIN
 90
        0
300

 91
        0
301
CUSTOMDATA
  1
DATAMAP_BEGIN
 90
        1
300
ACAD_ROUNDTRIP_2008_CELL_CHECKSUM
301
DATAMAP_VALUE
 93
        2
 90
        2
140
32.0
 94
        0
300

302

304
ACVALUE_END
309
DATAMAP_END
 92
        0
 95
        1
302
CONTENT
  1
CELLCONTENT_BEGIN
 90
        1
300
VALUE
 93
        2
 90
        4
  1
 
 94
        0
300

302
 
304
ACVALUE_END
 91
        0
309
CELLCONTENT_END
  1
FORMATTEDCELLCONTENT_BEGIN
170
     1
300
CONTENTFORMAT
  1
CONTENTFORMAT_BEGIN
 90
      132
 91
        0
 92
      512
 93
        0
300

 40
0.0
140
1.0
 94
        1
 62
     0
340
0
144
7.0
309
CONTENTFORMAT_END
309
FORMATTEDCELLCONTENT_END
309
LINKEDTABLEDATACELL_END
  1
FORMATTEDTABLEDATACELL_BEGIN
300
CELLTABLEFORMAT
  1
TABLEFORMAT_BEGIN
 90
        1
170
     1
 91
        0
 92
        0
 62
   257
 93
        1
300
CONTENTFORMAT
  1
CONTENTFORMAT_BEGIN
 90
        0
 91
        0
 92
      512
 93
        0
300

 40
0.0
140
1.0
 94
        1
 62
     0
340
0
144
0.18
309
CONTENTFORMAT_END
171
     0
 94
        0
309
TABLEFORMAT_END
309
FORMATTEDTABLEDATACELL_END
  1
TABLECELL_BEGIN
 90
        0
 91
        0
309
TABLECELL_END
300
CELL
  1
LINKEDTABLEDATACELL_BEGIN
 90
        0
300

 91
        0
301
CUSTOMDATA
  1
DATAMAP_BEGIN
 90
        0
309
DATAMAP_END
 92
        0
 95
        0
309
LINKEDTABLEDATACELL_END
  1
FORMATTEDTABLEDATACELL_BEGIN
300
CELLTABLEFORMAT
  1
TABLEFORMAT_BEGIN
 90
        1
170
     1
 91
        0
 92
        0
 62
   257
 93
        1
300
CONTENTFORMAT
  1
CONTENTFORMAT_BEGIN
 90
        0
 91
        0
 92
      512
 93
        0
300

 40
0.0
140
1.0
 94
        1
 62
     0
340
0
144
0.18
309
CONTENTFORMAT_END
171
     0
 94
        0
309
TABLEFORMAT_END
309
FORMATTEDTABLEDATACELL_END
  1
TABLECELL_BEGIN
 90
        0
 91
        0
309
TABLECELL_END
300
CELL
  1
LINKEDTABLEDATACELL_BEGIN
 90
        0
300

 91
        0
301
CUSTOMDATA
  1
DATAMAP_BEGIN
 90
        0
309
DATAMAP_END
 92
        0
 95
        0
309
LINKEDTABLEDATACELL_END
  1
FORMATTEDTABLEDATACELL_BEGIN
300
CELLTABLEFORMAT
  1
TABLEFORMAT_BEGIN
 90
        1
170
     1
 91
        0
 92
        0
 62
   257
 93
        1
300
CONTENTFORMAT
  1
CONTENTFORMAT_BEGIN
 90
        0
 91
        0
 92
      512
 93
        0
300

 40
0.0
140
1.0
 94
        1
 62
     0
340
0
144
0.18
309
CONTENTFORMAT_END
171
     0
 94
        0
309
TABLEFORMAT_END
309
FORMATTEDTABLEDATACELL_END
  1
TABLECELL_BEGIN
 90
        0
 91
        0
309
TABLECELL_END
300
CELL
  1
LINKEDTABLEDATACELL_BEGIN
 90
        0
300

 91
        0
301
CUSTOMDATA
  1
DATAMAP_BEGIN
 90
        1
300
ACAD_ROUNDTRIP_2008_CELL_CHECKSUM
301
DATAMAP_VALUE
 93
        2
 90
        2
140
2802.0
 94
        0
300

302

304
ACVALUE_END
309
DATAMAP_END
 92
        0
 95
        1
302
CONTENT
  1
CELLCONTENT_BEGIN
 90
        1
300
VALUE
 93
        2
 90
        4
  1
Y90_C_002
 94
        0
300

302
Y90_C_002
304
ACVALUE_END
 91
        0
309
CELLCONTENT_END
  1
FORMATTEDCELLCONTENT_BEGIN
170
     1
300
CONTENTFORMAT
  1
CONTENTFORMAT_BEGIN
 90
      132
 91
        0
 92
      512
 93
        0
300

 40
0.0
140
1.0
 94
        1
 62
     0
340
0
144
6.0
309
CONTENTFORMAT_END
309
FORMATTEDCELLCONTENT_END
309
LINKEDTABLEDATACELL_END
  1
FORMATTEDTABLEDATACELL_BEGIN
300
CELLTABLEFORMAT
  1
TABLEFORMAT_BEGIN
 90
        1
170
     1
 91
       16
 92
        0
 62
   257
 93
        1
300
CONTENTFORMAT
  1
CONTENTFORMAT_BEGIN
 90
       16
 91
        0
 92
      512
 93
        0
300

 40
0.0
140
1.0
 94
        4
 62
     0
340
0
144
0.18
309
CONTENTFORMAT_END
171
     0
 94
        4
 95
        1
302
GRIDFORMAT
  1
GRIDFORMAT_BEGIN
 90
       26
 91
        1
 62
     0
 92
       -2
340
0
 93
        0
 40
0.045
309
GRIDFORMAT_END
 95
        4
302
GRIDFORMAT
  1
GRIDFORMAT_BEGIN
 90
       26
 91
        1
 62
     0
 92
       -2
340
0
 93
        0
 40
0.045
309
GRIDFORMAT_END
 95
        8
302
GRIDFORMAT
  1
GRIDFORMAT_BEGIN
 90
       26
 91
        1
 62
     0
 92
       -2
340
0
 93
        0
 40
0.045
309
GRIDFORMAT_END
 95
       32
302
GRIDFORMAT
  1
GRIDFORMAT_BEGIN
 90
       26
 91
        1
 62
     0
 92
       -2
340
0
 93
        0
 40
0.045
309
GRIDFORMAT_END
309
TABLEFORMAT_END
309
FORMATTEDTABLEDATACELL_END
  1
TABLECELL_BEGIN
 90
        0
 91
        0
309
TABLECELL_END
300
CELL
  1
LINKEDTABLEDATACELL_BEGIN
 90
        0
300

 91
        0
301
CUSTOMDATA
  1
DATAMAP_BEGIN
 90
        1
300
ACAD_ROUNDTRIP_2008_CELL_CHECKSUM
301
DATAMAP_VALUE
 93
        2
 90
        2
140
1404.0
 94
        0
300

302

304
ACVALUE_END
309
DATAMAP_END
 92
        0
 95
        1
302
CONTENT
  1
CELLCONTENT_BEGIN
 90
        1
300
VALUE
 93
        2
 90
        4
  1
Rev:01
 94
        0
300

302
Rev:01
304
ACVALUE_END
 91
        0
309
CELLCONTENT_END
  1
FORMATTEDCELLCONTENT_BEGIN
170
     1
300
CONTENTFORMAT
  1
CONTENTFORMAT_BEGIN
 90
      132
 91
        0
 92
      512
 93
        0
300

 40
0.0
140
1.0
 94
        1
 62
     0
340
0
144
7.0
309
CONTENTFORMAT_END
309
FORMATTEDCELLCONTENT_END
309
LINKEDTABLEDATACELL_END
  1
FORMATTEDTABLEDATACELL_BEGIN
300
CELLTABLEFORMAT
  1
TABLEFORMAT_BEGIN
 90
        1
170
     1
 91
       16
 92
        0
 62
   257
 93
        1
300
CONTENTFORMAT
  1
CONTENTFORMAT_BEGIN
 90
       16
 91
        0
 92
      512
 93
        0
300

 40
0.0
140
1.0
 94
        1
 62
     0
340
0
144
0.18
309
CONTENTFORMAT_END
171
     0
 94
        4
 95
        1
302
GRIDFORMAT
  1
GRIDFORMAT_BEGIN
 90
       26
 91
        1
 62
     0
 92
       -2
340
0
 93
        0
 40
0.045
309
GRIDFORMAT_END
 95
        4
302
GRIDFORMAT
  1
GRIDFORMAT_BEGIN
 90
       26
 91
        1
 62
     0
 92
       -2
340
0
 93
        0
 40
0.045
309
GRIDFORMAT_END
 95
        8
302
GRIDFORMAT
  1
GRIDFORMAT_BEGIN
 90
       26
 91
        1
 62
     0
 92
       -2
340
0
 93
        0
 40
0.045
309
GRIDFORMAT_END
 95
       32
302
GRIDFORMAT
  1
GRIDFORMAT_BEGIN
 90
       26
 91
        1
 62
     0
 92
       -2
340
0
 93
        0
 40
0.045
309
GRIDFORMAT_END
309
TABLEFORMAT_END
309
FORMATTEDTABLEDATACELL_END
  1
TABLECELL_BEGIN
 90
        0
 91
        0
309
TABLECELL_END
 91
        0
301
CUSTOMDATA
  1
DATAMAP_BEGIN
 90
        0
309
DATAMAP_END
309
LINKEDTABLEDATAROW_END
  1
FORMATTEDTABLEDATAROW_BEGIN
300
ROWTABLEFORMAT
  1
TABLEFORMAT_BEGIN
 90
        2
170
     0
309
TABLEFORMAT_END
309
FORMATTEDTABLEDATAROW_END
  1
TABLEROW_BEGIN
 90
        1
 40
12.0
309
TABLEROW_END
301
ROW
  1
LINKEDTABLEDATAROW_BEGIN
 90
        5
300
CELL
  1
LINKEDTABLEDATACELL_BEGIN
 90
        0
300

 91
        0
301
CUSTOMDATA
  1
DATAMAP_BEGIN
 90
        0
309
DATAMAP_END
 92
        0
 95
        0
309
LINKEDTABLEDATACELL_END
  1
FORMATTEDTABLEDATACELL_BEGIN
300
CELLTABLEFORMAT
  1
TABLEFORMAT_BEGIN
 90
        1
170
     1
 91
        0
 92
        0
 62
   257
 93
        1
300
CONTENTFORMAT
  1
CONTENTFORMAT_BEGIN
 90
        0
 91
        0
 92
      512
 93
        0
300

 40
0.0
140
1.0
 94
        1
 62
     0
340
0
144
0.18
309
CONTENTFORMAT_END
171
     0
 94
        0
309
TABLEFORMAT_END
309
FORMATTEDTABLEDATACELL_END
  1
TABLECELL_BEGIN
 90
        0
 91
        0
309
TABLECELL_END
300
CELL
  1
LINKEDTABLEDATACELL_BEGIN
 90
        0
300

 91
        0
301
CUSTOMDATA
  1
DATAMAP_BEGIN
 90
        0
309
DATAMAP_END
 92
        0
 95
        0
309
LINKEDTABLEDATACELL_END
  1
FORMATTEDTABLEDATACELL_BEGIN
300
CELLTABLEFORMAT
  1
TABLEFORMAT_BEGIN
 90
        1
170
     1
 91
        0
 92
        0
 62
   257
 93
        1
300
CONTENTFORMAT
  1
CONTENTFORMAT_BEGIN
 90
        0
 91
        0
 92
      512
 93
        0
300

 40
0.0
140
1.0
 94
        1
 62
     0
340
0
144
0.18
309
CONTENTFORMAT_END
171
     0
 94
        0
309
TABLEFORMAT_END
309
FORMATTEDTABLEDATACELL_END
  1
TABLECELL_BEGIN
 90
        0
 91
        0
309
TABLECELL_END
300
CELL
  1
LINKEDTABLEDATACELL_BEGIN
 90
        0
300

 91
        0
301
CUSTOMDATA
  1
DATAMAP_BEGIN
 90
        0
309
DATAMAP_END
 92
        0
 95
        0
309
LINKEDTABLEDATACELL_END
  1
FORMATTEDTABLEDATACELL_BEGIN
300
CELLTABLEFORMAT
  1
TABLEFORMAT_BEGIN
 90
        1
170
     1
 91
        0
 92
        0
 62
   257
 93
        1
300
CONTENTFORMAT
  1
CONTENTFORMAT_BEGIN
 90
        0
 91
        0
 92
      512
 93
        0
300

 40
0.0
140
1.0
 94
        1
 62
     0
340
0
144
0.18
309
CONTENTFORMAT_END
171
     0
 94
        0
309
TABLEFORMAT_END
309
FORMATTEDTABLEDATACELL_END
  1
TABLECELL_BEGIN
 90
        0
 91
        0
309
TABLECELL_END
300
CELL
  1
LINKEDTABLEDATACELL_BEGIN
 90
        0
300

 91
        0
301
CUSTOMDATA
  1
DATAMAP_BEGIN
 90
        1
300
ACAD_ROUNDTRIP_2008_CELL_CHECKSUM
301
DATAMAP_VALUE
 93
        2
 90
        2
140
3105.0
 94
        0
300

302

304
ACVALUE_END
309
DATAMAP_END
 92
        0
 95
        1
302
CONTENT
  1
CELLCONTENT_BEGIN
 90
        1
300
VALUE
 93
        2
 90
        4
  1
Scale:1:1
 94
        0
300

302
Scale:1:1
304
ACVALUE_END
 91
        0
309
CELLCONTENT_END
  1
FORMATTEDCELLCONTENT_BEGIN
170
     1
300
CONTENTFORMAT
  1
CONTENTFORMAT_BEGIN
 90
      132
 91
        0
 92
      512
 93
        0
300

 40
0.0
140
1.0
 94
        1
 62
     0
340
0
144
7.0
309
CONTENTFORMAT_END
309
FORMATTEDCELLCONTENT_END
309
LINKEDTABLEDATACELL_END
  1
FORMATTEDTABLEDATACELL_BEGIN
300
CELLTABLEFORMAT
  1
TABLEFORMAT_BEGIN
 90
        1
170
     1
 91
       16
 92
        0
 62
   257
 93
        1
300
CONTENTFORMAT
  1
CONTENTFORMAT_BEGIN
 90
       16
 91
        0
 92
      512
 93
        0
300

 40
0.0
140
1.0
 94
        1
 62
     0
340
0
144
0.18
309
CONTENTFORMAT_END
171
     0
 94
        4
 95
        1
302
GRIDFORMAT
  1
GRIDFORMAT_BEGIN
 90
       26
 91
        1
 62
     0
 92
       -2
340
0
 93
        0
 40
0.045
309
GRIDFORMAT_END
 95
        4
302
GRIDFORMAT
  1
GRIDFORMAT_BEGIN
 90
       26
 91
        1
 62
     0
 92
       -2
340
0
 93
        0
 40
0.045
309
GRIDFORMAT_END
 95
        8
302
GRIDFORMAT
  1
GRIDFORMAT_BEGIN
 90
       26
 91
        1
 62
     0
 92
       -2
340
0
 93
        0
 40
0.045
309
GRIDFORMAT_END
 95
       32
302
GRIDFORMAT
  1
GRIDFORMAT_BEGIN
 90
       26
 91
        1
 62
     0
 92
       -2
340
0
 93
        0
 40
0.045
309
GRIDFORMAT_END
309
TABLEFORMAT_END
309
FORMATTEDTABLEDATACELL_END
  1
TABLECELL_BEGIN
 90
        0
 91
        0
309
TABLECELL_END
300
CELL
  1
LINKEDTABLEDATACELL_BEGIN
 90
        0
300

 91
        0
301
CUSTOMDATA
  1
DATAMAP_BEGIN
 90
        1
300
ACAD_ROUNDTRIP_2008_CELL_CHECKSUM
301
DATAMAP_VALUE
 93
        2
 90
        2
140
165.0
 94
        0
300

302

304
ACVALUE_END
309
DATAMAP_END
 92
        0
 95
        1
302
CONTENT
  1
CELLCONTENT_BEGIN
 90
        1
300
VALUE
 93
        2
 90
        4
  1
A2
 94
        0
300

302
A2
304
ACVALUE_END
 91
        0
309
CELLCONTENT_END
  1
FORMATTEDCELLCONTENT_BEGIN
170
     1
300
CONTENTFORMAT
  1
CONTENTFORMAT_BEGIN
 90
      132
 91
        0
 92
      512
 93
        0
300

 40
0.0
140
1.0
 94
        1
 62
     0
340
0
144
7.0
309
CONTENTFORMAT_END
309
FORMATTEDCELLCONTENT_END
309
LINKEDTABLEDATACELL_END
  1
FORMATTEDTABLEDATACELL_BEGIN
300
CELLTABLEFORMAT
  1
TABLEFORMAT_BEGIN
 90
        1
170
     1
 91
       16
 92
        0
 62
   257
 93
        1
300
CONTENTFORMAT
  1
CONTENTFORMAT_BEGIN
 90
       16
 91
        0
 92
      512
 93
        0
300

 40
0.0
140
1.0
 94
        4
 62
     0
340
0
144
0.18
309
CONTENTFORMAT_END
171
     0
 94
        4
 95
        1
302
GRIDFORMAT
  1
GRIDFORMAT_BEGIN
 90
       26
 91
        1
 62
     0
 92
       -2
340
0
 93
        0
 40
0.045
309
GRIDFORMAT_END
 95
        4
302
GRIDFORMAT
  1
GRIDFORMAT_BEGIN
 90
       26
 91
        1
 62
     0
 92
       -2
340
0
 93
        0
 40
0.045
309
GRIDFORMAT_END
 95
        8
302
GRIDFORMAT
  1
GRIDFORMAT_BEGIN
 90
       26
 91
        1
 62
     0
 92
       -2
340
0
 93
        0
 40
0.045
309
GRIDFORMAT_END
 95
       32
302
GRIDFORMAT
  1
GRIDFORMAT_BEGIN
 90
       26
 91
        1
 62
     0
 92
       -2
340
0
 93
        0
 40
0.045
309
GRIDFORMAT_END
309
TABLEFORMAT_END
309
FORMATTEDTABLEDATACELL_END
  1
TABLECELL_BEGIN
 90
        0
 91
        0
309
TABLECELL_END
 91
        0
301
CUSTOMDATA
  1
DATAMAP_BEGIN
 90
        0
309
DATAMAP_END
309
LINKEDTABLEDATAROW_END
  1
FORMATTEDTABLEDATAROW_BEGIN
300
ROWTABLEFORMAT
  1
TABLEFORMAT_BEGIN
 90
        2
170
     0
309
TABLEFORMAT_END
309
FORMATTEDTABLEDATAROW_END
  1
TABLEROW_BEGIN
 90
        2
 40
12.0
309
TABLEROW_END
301
ROW
  1
LINKEDTABLEDATAROW_BEGIN
 90
        5
300
CELL
  1
LINKEDTABLEDATACELL_BEGIN
 90
        0
300

 91
        0
301
CUSTOMDATA
  1
DATAMAP_BEGIN
 90
        0
309
DATAMAP_END
 92
        0
 95
        0
309
LINKEDTABLEDATACELL_END
  1
FORMATTEDTABLEDATACELL_BEGIN
300
CELLTABLEFORMAT
  1
TABLEFORMAT_BEGIN
 90
        1
170
     1
 91
        0
 92
        0
 62
   257
 93
        1
300
CONTENTFORMAT
  1
CONTENTFORMAT_BEGIN
 90
        0
 91
        0
 92
      512
 93
        0
300

 40
0.0
140
1.0
 94
        1
 62
     0
340
0
144
0.18
309
CONTENTFORMAT_END
171
     0
 94
        0
309
TABLEFORMAT_END
309
FORMATTEDTABLEDATACELL_END
  1
TABLECELL_BEGIN
 90
        0
 91
        0
309
TABLECELL_END
300
CELL
  1
LINKEDTABLEDATACELL_BEGIN
 90
        0
300

 91
        0
301
CUSTOMDATA
  1
DATAMAP_BEGIN
 90
        0
309
DATAMAP_END
 92
        0
 95
        0
309
LINKEDTABLEDATACELL_END
  1
FORMATTEDTABLEDATACELL_BEGIN
300
CELLTABLEFORMAT
  1
TABLEFORMAT_BEGIN
 90
        1
170
     1
 91
        0
 92
        0
 62
   257
 93
        1
300
CONTENTFORMAT
  1
CONTENTFORMAT_BEGIN
 90
        0
 91
        0
 92
      512
 93
        0
300

 40
0.0
140
1.0
 94
        1
 62
     0
340
0
144
0.18
309
CONTENTFORMAT_END
171
     0
 94
        0
309
TABLEFORMAT_END
309
FORMATTEDTABLEDATACELL_END
  1
TABLECELL_BEGIN
 90
        0
 91
        0
309
TABLECELL_END
300
CELL
  1
LINKEDTABLEDATACELL_BEGIN
 90
        0
300

 91
        0
301
CUSTOMDATA
  1
DATAMAP_BEGIN
 90
        0
309
DATAMAP_END
 92
        0
 95
        0
309
LINKEDTABLEDATACELL_END
  1
FORMATTEDTABLEDATACELL_BEGIN
300
CELLTABLEFORMAT
  1
TABLEFORMAT_BEGIN
 90
        1
170
     1
 91
        0
 92
        0
 62
   257
 93
        1
300
CONTENTFORMAT
  1
CONTENTFORMAT_BEGIN
 90
        0
 91
        0
 92
      512
 93
        0
300

 40
0.0
140
1.0
 94
        1
 62
     0
340
0
144
0.18
309
CONTENTFORMAT_END
171
     0
 94
        0
309
TABLEFORMAT_END
309
FORMATTEDTABLEDATACELL_END
  1
TABLECELL_BEGIN
 90
        0
 91
        0
309
TABLECELL_END
300
CELL
  1
LINKEDTABLEDATACELL_BEGIN
 90
        0
300

 91
        0
301
CUSTOMDATA
  1
DATAMAP_BEGIN
 90
        1
300
ACAD_ROUNDTRIP_2008_CELL_CHECKSUM
301
DATAMAP_VALUE
 93
        2
 90
        2
140
2507.0
 94
        0
300

302

304
ACVALUE_END
309
DATAMAP_END
 92
        0
 95
        1
302
CONTENT
  1
CELLCONTENT_BEGIN
 90
        1
300
VALUE
 93
        2
 90
        4
  1
RIVER 1.0
 94
        0
300

302
RIVER 1.0
304
ACVALUE_END
 91
        0
309
CELLCONTENT_END
  1
FORMATTEDCELLCONTENT_BEGIN
170
     1
300
CONTENTFORMAT
  1
CONTENTFORMAT_BEGIN
 90
      132
 91
        0
 92
      512
 93
        0
300

 40
0.0
140
1.0
 94
        1
 62
     0
340
0
144
7.0
309
CONTENTFORMAT_END
309
FORMATTEDCELLCONTENT_END
309
LINKEDTABLEDATACELL_END
  1
FORMATTEDTABLEDATACELL_BEGIN
300
CELLTABLEFORMAT
  1
TABLEFORMAT_BEGIN
 90
        1
170
     1
 91
       16
 92
        0
 62
   257
 93
        1
300
CONTENTFORMAT
  1
CONTENTFORMAT_BEGIN
 90
       16
 91
        0
 92
      512
 93
        0
300

 40
0.0
140
1.0
 94
        4
 62
     0
340
0
144
0.18
309
CONTENTFORMAT_END
171
     0
 94
        4
 95
        1
302
GRIDFORMAT
  1
GRIDFORMAT_BEGIN
 90
       26
 91
        1
 62
     0
 92
       -2
340
0
 93
        0
 40
0.045
309
GRIDFORMAT_END
 95
        4
302
GRIDFORMAT
  1
GRIDFORMAT_BEGIN
 90
       26
 91
        1
 62
     0
 92
       -2
340
0
 93
        0
 40
0.045
309
GRIDFORMAT_END
 95
        8
302
GRIDFORMAT
  1
GRIDFORMAT_BEGIN
 90
       26
 91
        1
 62
     0
 92
       -2
340
0
 93
        0
 40
0.045
309
GRIDFORMAT_END
 95
       32
302
GRIDFORMAT
  1
GRIDFORMAT_BEGIN
 90
       26
 91
        1
 62
     0
 92
       -2
340
0
 93
        0
 40
0.045
309
GRIDFORMAT_END
309
TABLEFORMAT_END
309
FORMATTEDTABLEDATACELL_END
  1
TABLECELL_BEGIN
 90
        0
 91
        0
309
TABLECELL_END
300
CELL
  1
LINKEDTABLEDATACELL_BEGIN
 90
        0
300

 91
        0
301
CUSTOMDATA
  1
DATAMAP_BEGIN
 90
        0
309
DATAMAP_END
 92
        0
 95
        0
309
LINKEDTABLEDATACELL_END
  1
FORMATTEDTABLEDATACELL_BEGIN
300
CELLTABLEFORMAT
  1
TABLEFORMAT_BEGIN
 90
        1
170
     1
 91
        0
 92
        0
 62
   257
 93
        1
300
CONTENTFORMAT
  1
CONTENTFORMAT_BEGIN
 90
        0
 91
        0
 92
      512
 93
        0
300

 40
0.0
140
1.0
 94
        1
 62
     0
340
0
144
0.18
309
CONTENTFORMAT_END
171
     0
 94
        0
309
TABLEFORMAT_END
309
FORMATTEDTABLEDATACELL_END
  1
TABLECELL_BEGIN
 90
        0
 91
        0
309
TABLECELL_END
 91
        0
301
CUSTOMDATA
  1
DATAMAP_BEGIN
 90
        0
309
DATAMAP_END
309
LINKEDTABLEDATAROW_END
  1
FORMATTEDTABLEDATAROW_BEGIN
300
ROWTABLEFORMAT
  1
TABLEFORMAT_BEGIN
 90
        2
170
     0
309
TABLEFORMAT_END
309
FORMATTEDTABLEDATAROW_END
  1
TABLEROW_BEGIN
 90
        3
 40
20.0
309
TABLEROW_END
301
ROW
  1
LINKEDTABLEDATAROW_BEGIN
 90
        5
300
CELL
  1
LINKEDTABLEDATACELL_BEGIN
 90
        0
300

 91
        0
301
CUSTOMDATA
  1
DATAMAP_BEGIN
 90
        0
309
DATAMAP_END
 92
        0
 95
        0
309
LINKEDTABLEDATACELL_END
  1
FORMATTEDTABLEDATACELL_BEGIN
300
CELLTABLEFORMAT
  1
TABLEFORMAT_BEGIN
 90
        1
170
     1
 91
        0
 92
        0
 62
   257
 93
        1
300
CONTENTFORMAT
  1
CONTENTFORMAT_BEGIN
 90
        0
 91
        0
 92
      512
 93
        0
300

 40
0.0
140
1.0
 94
        1
 62
     0
340
0
144
0.18
309
CONTENTFORMAT_END
171
     0
 94
        0
309
TABLEFORMAT_END
309
FORMATTEDTABLEDATACELL_END
  1
TABLECELL_BEGIN
 90
        0
 91
        0
309
TABLECELL_END
300
CELL
  1
LINKEDTABLEDATACELL_BEGIN
 90
        0
300

 91
        0
301
CUSTOMDATA
  1
DATAMAP_BEGIN
 90
        0
309
DATAMAP_END
 92
        0
 95
        0
309
LINKEDTABLEDATACELL_END
  1
FORMATTEDTABLEDATACELL_BEGIN
300
CELLTABLEFORMAT
  1
TABLEFORMAT_BEGIN
 90
        1
170
     1
 91
        0
 92
        0
 62
   257
 93
        1
300
CONTENTFORMAT
  1
CONTENTFORMAT_BEGIN
 90
        0
 91
        0
 92
      512
 93
        0
300

 40
0.0
140
1.0
 94
        1
 62
     0
340
0
144
0.18
309
CONTENTFORMAT_END
171
     0
 94
        0
309
TABLEFORMAT_END
309
FORMATTEDTABLEDATACELL_END
  1
TABLECELL_BEGIN
 90
        0
 91
        0
309
TABLECELL_END
300
CELL
  1
LINKEDTABLEDATACELL_BEGIN
 90
        0
300

 91
        0
301
CUSTOMDATA
  1
DATAMAP_BEGIN
 90
        0
309
DATAMAP_END
 92
        0
 95
        0
309
LINKEDTABLEDATACELL_END
  1
FORMATTEDTABLEDATACELL_BEGIN
300
CELLTABLEFORMAT
  1
TABLEFORMAT_BEGIN
 90
        1
170
     1
 91
        0
 92
        0
 62
   257
 93
        1
300
CONTENTFORMAT
  1
CONTENTFORMAT_BEGIN
 90
        0
 91
        0
 92
      512
 93
        0
300

 40
0.0
140
1.0
 94
        1
 62
     0
340
0
144
0.18
309
CONTENTFORMAT_END
171
     0
 94
        0
309
TABLEFORMAT_END
309
FORMATTEDTABLEDATACELL_END
  1
TABLECELL_BEGIN
 90
        0
 91
        0
309
TABLECELL_END
300
CELL
  1
LINKEDTABLEDATACELL_BEGIN
 90
        0
300

 91
        0
301
CUSTOMDATA
  1
DATAMAP_BEGIN
 90
        1
300
ACAD_ROUNDTRIP_2008_CELL_CHECKSUM
301
DATAMAP_VALUE
 93
        2
 90
        2
140
1016.0
 94
        0
300

302

304
ACVALUE_END
309
DATAMAP_END
 92
        0
 95
        1
302
CONTENT
  1
CELLCONTENT_BEGIN
 90
        1
300
VALUE
 93
        2
 90
        4
  1
DATE:
 94
        0
300

302
DATE:
304
ACVALUE_END
 91
        0
309
CELLCONTENT_END
  1
FORMATTEDCELLCONTENT_BEGIN
170
     1
300
CONTENTFORMAT
  1
CONTENTFORMAT_BEGIN
 90
      132
 91
        0
 92
      512
 93
        0
300

 40
0.0
140
1.0
 94
        1
 62
     0
340
0
144
5.0
309
CONTENTFORMAT_END
309
FORMATTEDCELLCONTENT_END
309
LINKEDTABLEDATACELL_END
  1
FORMATTEDTABLEDATACELL_BEGIN
300
CELLTABLEFORMAT
  1
TABLEFORMAT_BEGIN
 90
        1
170
     1
 91
       16
 92
        0
 62
   257
 93
        1
300
CONTENTFORMAT
  1
CONTENTFORMAT_BEGIN
 90
       16
 91
        0
 92
      512
 93
        0
300

 40
0.0
140
1.0
 94
        4
 62
     0
340
0
144
0.18
309
CONTENTFORMAT_END
171
     0
 94
        4
 95
        1
302
GRIDFORMAT
  1
GRIDFORMAT_BEGIN
 90
       26
 91
        1
 62
     0
 92
       -2
340
0
 93
        0
 40
0.045
309
GRIDFORMAT_END
 95
        4
302
GRIDFORMAT
  1
GRIDFORMAT_BEGIN
 90
       26
 91
        1
 62
     0
 92
       -2
340
0
 93
        0
 40
0.045
309
GRIDFORMAT_END
 95
        8
302
GRIDFORMAT
  1
GRIDFORMAT_BEGIN
 90
       26
 91
        1
 62
     0
 92
       -2
340
0
 93
        0
 40
0.045
309
GRIDFORMAT_END
 95
       32
302
GRIDFORMAT
  1
GRIDFORMAT_BEGIN
 90
       26
 91
        1
 62
     0
 92
       -2
340
0
 93
        0
 40
0.045
309
GRIDFORMAT_END
309
TABLEFORMAT_END
309
FORMATTEDTABLEDATACELL_END
  1
TABLECELL_BEGIN
 90
        0
 91
        0
309
TABLECELL_END
300
CELL
  1
LINKEDTABLEDATACELL_BEGIN
 90
        0
300

 91
        0
301
CUSTOMDATA
  1
DATAMAP_BEGIN
 90
        0
309
DATAMAP_END
 92
        0
 95
        0
309
LINKEDTABLEDATACELL_END
  1
FORMATTEDTABLEDATACELL_BEGIN
300
CELLTABLEFORMAT
  1
TABLEFORMAT_BEGIN
 90
        1
170
     1
 91
        0
 92
        0
 62
   257
 93
        1
300
CONTENTFORMAT
  1
CONTENTFORMAT_BEGIN
 90
        0
 91
        0
 92
      512
 93
        0
300

 40
0.0
140
1.0
 94
        1
 62
     0
340
0
144
0.18
309
CONTENTFORMAT_END
171
     0
 94
        0
309
TABLEFORMAT_END
309
FORMATTEDTABLEDATACELL_END
  1
TABLECELL_BEGIN
 90
        0
 91
        0
309
TABLECELL_END
 91
        0
301
CUSTOMDATA
  1
DATAMAP_BEGIN
 90
        0
309
DATAMAP_END
309
LINKEDTABLEDATAROW_END
  1
FORMATTEDTABLEDATAROW_BEGIN
300
ROWTABLEFORMAT
  1
TABLEFORMAT_BEGIN
 90
        2
170
     0
309
TABLEFORMAT_END
309
FORMATTEDTABLEDATAROW_END
  1
TABLEROW_BEGIN
 90
        3
 40
10.0
309
TABLEROW_END
301
ROW
  1
LINKEDTABLEDATAROW_BEGIN
 90
        5
300
CELL
  1
LINKEDTABLEDATACELL_BEGIN
 90
        0
300

 91
        0
301
CUSTOMDATA
  1
DATAMAP_BEGIN
 90
        1
300
ACAD_ROUNDTRIP_2008_CELL_CHECKSUM
301
DATAMAP_VALUE
 93
        2
 90
        2
140
1878378.0
 94
        0
300

302

304
ACVALUE_END
309
DATAMAP_END
 92
        0
 95
        1
302
CONTENT
  1
CELLCONTENT_BEGIN
 90
        1
300
VALUE
 93
        2
 90
        4
  1
Any integral or partial reproductions are prohibited \Pwithout prior authorisation of L {\Ftxt.shx;\W0.190476;\H4.500000; }& L Luce & Light s.r.l., \Pin accordance with the law in force. \PAll rights reserved.
 94
        0
300

302
Any integral or partial reproductions are prohibited \Pwithout prior authorisation of L {\Ftxt.shx;\W0.190476;\H4.500000; }& L Luce & Light s.r.l., \Pin accordance with the law in force. \PAll rights reserved.
304
ACVALUE_END
 91
        0
309
CELLCONTENT_END
  1
FORMATTEDCELLCONTENT_BEGIN
170
     1
300
CONTENTFORMAT
  1
CONTENTFORMAT_BEGIN
 90
      132
 91
        0
 92
      512
 93
        0
300

 40
0.0
140
1.0
 94
        1
 62
     0
340
0
144
4.5
309
CONTENTFORMAT_END
309
FORMATTEDCELLCONTENT_END
309
LINKEDTABLEDATACELL_END
  1
FORMATTEDTABLEDATACELL_BEGIN
300
CELLTABLEFORMAT
  1
TABLEFORMAT_BEGIN
 90
        1
170
     1
 91
       16
 92
        0
 62
   257
 93
        1
300
CONTENTFORMAT
  1
CONTENTFORMAT_BEGIN
 90
       16
 91
        0
 92
      512
 93
        0
300

 40
0.0
140
1.0
 94
        4
 62
     0
340
0
144
0.18
309
CONTENTFORMAT_END
171
     0
 94
        4
 95
        1
302
GRIDFORMAT
  1
GRIDFORMAT_BEGIN
 90
       26
 91
        1
 62
     0
 92
       -2
340
0
 93
        0
 40
0.045
309
GRIDFORMAT_END
 95
        4
302
GRIDFORMAT
  1
GRIDFORMAT_BEGIN
 90
       26
 91
        1
 62
     0
 92
       -2
340
0
 93
        0
 40
0.045
309
GRIDFORMAT_END
 95
        8
302
GRIDFORMAT
  1
GRIDFORMAT_BEGIN
 90
       26
 91
        1
 62
     0
 92
       -2
340
0
 93
        0
 40
0.045
309
GRIDFORMAT_END
 95
       32
302
GRIDFORMAT
  1
GRIDFORMAT_BEGIN
 90
       26
 91
        1
 62
     0
 92
       -2
340
0
 93
        0
 40
0.045
309
GRIDFORMAT_END
309
TABLEFORMAT_END
309
FORMATTEDTABLEDATACELL_END
  1
TABLECELL_BEGIN
 90
        0
 91
        0
309
TABLECELL_END
300
CELL
  1
LINKEDTABLEDATACELL_BEGIN
 90
        0
300

 91
        0
301
CUSTOMDATA
  1
DATAMAP_BEGIN
 90
        0
309
DATAMAP_END
 92
        0
 95
        0
309
LINKEDTABLEDATACELL_END
  1
FORMATTEDTABLEDATACELL_BEGIN
300
CELLTABLEFORMAT
  1
TABLEFORMAT_BEGIN
 90
        1
170
     1
 91
        0
 92
        0
 62
   257
 93
        1
300
CONTENTFORMAT
  1
CONTENTFORMAT_BEGIN
 90
        0
 91
        0
 92
      512
 93
        0
300

 40
0.0
140
1.0
 94
        1
 62
     0
340
0
144
0.18
309
CONTENTFORMAT_END
171
     0
 94
        0
309
TABLEFORMAT_END
309
FORMATTEDTABLEDATACELL_END
  1
TABLECELL_BEGIN
 90
        0
 91
        0
309
TABLECELL_END
300
CELL
  1
LINKEDTABLEDATACELL_BEGIN
 90
        0
300

 91
        0
301
CUSTOMDATA
  1
DATAMAP_BEGIN
 90
        0
309
DATAMAP_END
 92
        0
 95
        0
309
LINKEDTABLEDATACELL_END
  1
FORMATTEDTABLEDATACELL_BEGIN
300
CELLTABLEFORMAT
  1
TABLEFORMAT_BEGIN
 90
        1
170
     1
 91
        0
 92
        0
 62
   257
 93
        1
300
CONTENTFORMAT
  1
CONTENTFORMAT_BEGIN
 90
        0
 91
        0
 92
      512
 93
        0
300

 40
0.0
140
1.0
 94
        1
 62
     0
340
0
144
0.18
309
CONTENTFORMAT_END
171
     0
 94
        0
309
TABLEFORMAT_END
309
FORMATTEDTABLEDATACELL_END
  1
TABLECELL_BEGIN
 90
        0
 91
        0
309
TABLECELL_END
300
CELL
  1
LINKEDTABLEDATACELL_BEGIN
 90
        0
300

 91
        0
301
CUSTOMDATA
  1
DATAMAP_BEGIN
 90
        0
309
DATAMAP_END
 92
        0
 95
        0
309
LINKEDTABLEDATACELL_END
  1
FORMATTEDTABLEDATACELL_BEGIN
300
CELLTABLEFORMAT
  1
TABLEFORMAT_BEGIN
 90
        1
170
     1
 91
        0
 92
        0
 62
   257
 93
        1
300
CONTENTFORMAT
  1
CONTENTFORMAT_BEGIN
 90
        0
 91
        0
 92
      512
 93
        0
300

 40
0.0
140
1.0
 94
        1
 62
     0
340
0
144
0.18
309
CONTENTFORMAT_END
171
     0
 94
        0
309
TABLEFORMAT_END
309
FORMATTEDTABLEDATACELL_END
  1
TABLECELL_BEGIN
 90
        0
 91
        0
309
TABLECELL_END
300
CELL
  1
LINKEDTABLEDATACELL_BEGIN
 90
        0
300

 91
        0
301
CUSTOMDATA
  1
DATAMAP_BEGIN
 90
        0
309
DATAMAP_END
 92
        0
 95
        0
309
LINKEDTABLEDATACELL_END
  1
FORMATTEDTABLEDATACELL_BEGIN
300
CELLTABLEFORMAT
  1
TABLEFORMAT_BEGIN
 90
        1
170
     1
 91
        0
 92
        0
 62
   257
 93
        1
300
CONTENTFORMAT
  1
CONTENTFORMAT_BEGIN
 90
        0
 91
        0
 92
      512
 93
        0
300

 40
0.0
140
1.0
 94
        1
 62
     0
340
0
144
0.18
309
CONTENTFORMAT_END
171
     0
 94
        0
309
TABLEFORMAT_END
309
FORMATTEDTABLEDATACELL_END
  1
TABLECELL_BEGIN
 90
        0
 91
        0
309
TABLECELL_END
 91
        0
301
CUSTOMDATA
  1
DATAMAP_BEGIN
 90
        0
309
DATAMAP_END
309
LINKEDTABLEDATAROW_END
  1
FORMATTEDTABLEDATAROW_BEGIN
300
ROWTABLEFORMAT
  1
TABLEFORMAT_BEGIN
 90
        2
170
     0
309
TABLEFORMAT_END
309
FORMATTEDTABLEDATAROW_END
  1
TABLEROW_BEGIN
 90
        3
 40
26.0
309
TABLEROW_END
100
AcDbFormattedTableData
300
TABLEFORMAT
  1
TABLEFORMAT_BEGIN
 90
        4
170
     1
 91
    15360
 92
        0
 62
   257
 93
        1
300
CONTENTFORMAT
  1
CONTENTFORMAT_BEGIN
 90
        0
 91
        0
 92
      512
 93
        0
300

 40
0.0
140
1.0
 94
        1
 62
     0
340
0
144
0.18
309
CONTENTFORMAT_END
171
     1
301
MARGIN
  1
CELLMARGIN_BEGIN
 40
0.06
 40
0.06
 40
0.06
 40
0.06
 40
0.06
 40
0.06
309
CELLMARGIN_END
 94
        0
309
TABLEFORMAT_END
 90
        4
 91
        0
 92
        0
 93
        3
 94
        2
 91
        2
 92
        3
 93
        2
 94
        4
 91
        3
 92
        3
 93
        3
 94
        4
 91
        4
 92
        0
 93
        4
 94
        4
100
AcDbTableContent
340
60E
  0
TABLEGEOMETRY
  5
63B
330
63D
100
AcDbTableGeometry
 90
        5
 91
        5
 92
       25
 93
        0
 40
0.0
 41
0.0
330
0
 94
        0
 93
        0
 40
0.0
 41
0.0
330
0
 94
        0
 93
        0
 40
0.0
 41
0.0
330
0
 94
        0
 93
        0
 40
0.0
 41
0.0
330
0
 94
        0
 93
        0
 40
0.0
 41
0.0
330
0
 94
        0
 93
        0
 40
0.0
 41
0.0
330
0
 94
        0
 93
        0
 40
0.0
 41
0.0
330
0
 94
        0
 93
        0
 40
0.0
 41
0.0
330
0
 94
        0
 93
        0
 40
0.0
 41
0.0
330
0
 94
        0
 93
        0
 40
0.0
 41
0.0
330
0
 94
        0
 93
        0
 40
0.0
 41
0.0
330
0
 94
        0
 93
        0
 40
0.0
 41
0.0
330
0
 94
        0
 93
        0
 40
0.0
 41
0.0
330
0
 94
        0
 93
        0
 40
0.0
 41
0.0
330
0
 94
        0
 93
        0
 40
0.0
 41
0.0
330
0
 94
        0
 93
        0
 40
0.0
 41
0.0
330
0
 94
        0
 93
        0
 40
0.0
 41
0.0
330
0
 94
        0
 93
        0
 40
0.0
 41
0.0
330
0
 94
        0
 93
        0
 40
0.0
 41
0.0
330
0
 94
        0
 93
        0
 40
0.0
 41
0.0
330
0
 94
        0
 93
        0
 40
0.0
 41
0.0
330
0
 94
        0
 93
        0
 40
0.0
 41
0.0
330
0
 94
        0
 93
        0
 40
0.0
 41
0.0
330
0
 94
        0
 93
        0
 40
0.0
 41
0.0
330
0
 94
        0
 93
        0
 40
0.0
 41
0.0
330
0
 94
        0
  0
DICTIONARY
  5
640
330
60E
100
AcDbDictionary
280
     1
281
     1
  3
ACAD_ROUNDTRIP_2008_TABLESTYLE_CELLSTYLEMAP
360
641
  0
CELLSTYLEMAP
  5
641
102
{ACAD_REACTORS
330
640
102
}
330
640
100
AcDbCellStyleMap
 90
        3
300
CELLSTYLE
  1
TABLEFORMAT_BEGIN
 90
        5
170
     1
 91
        0
 92
        0
 62
   257
 93
        1
300
CONTENTFORMAT
  1
CONTENTFORMAT_BEGIN
 90
        0
 91
        0
 92
        4
 93
        0
300

 40
0.0
140
1.0
 94
        5
 62
     0
340
11
144
6.0
309
CONTENTFORMAT_END
171
     1
301
MARGIN
  1
CELLMARGIN_BEGIN
 40
1.5
 40
1.5
 40
1.5
 40
1.5
 40
1.5
 40
1.5
309
CELLMARGIN_END
 94
        6
 95
        1
302
GRIDFORMAT
  1
GRIDFORMAT_BEGIN
 90
        0
 91
        1
 62
     0
 92
       -2
340
14
 93
        0
 40
0.045
309
GRIDFORMAT_END
 95
        2
302
GRIDFORMAT
  1
GRIDFORMAT_BEGIN
 90
        0
 91
        1
 62
     0
 92
       -2
340
14
 93
        0
 40
0.045
309
GRIDFORMAT_END
 95
        4
302
GRIDFORMAT
  1
GRIDFORMAT_BEGIN
 90
        0
 91
        1
 62
     0
 92
       -2
340
14
 93
        0
 40
0.045
309
GRIDFORMAT_END
 95
        8
302
GRIDFORMAT
  1
GRIDFORMAT_BEGIN
 90
        0
 91
        1
 62
     0
 92
       -2
340
14
 93
        0
 40
0.045
309
GRIDFORMAT_END
 95
       16
302
GRIDFORMAT
  1
GRIDFORMAT_BEGIN
 90
        0
 91
        1
 62
     0
 92
       -2
340
14
 93
        0
 40
0.045
309
GRIDFORMAT_END
 95
       32
302
GRIDFORMAT
  1
GRIDFORMAT_BEGIN
 90
        0
 91
        1
 62
     0
 92
       -2
340
14
 93
        0
 40
0.045
309
GRIDFORMAT_END
309
TABLEFORMAT_END
  1
CELLSTYLE_BEGIN
 90
        1
 91
        1
300
_TITLE
309
CELLSTYLE_END
300
CELLSTYLE
  1
TABLEFORMAT_BEGIN
 90
        5
170
     1
 91
        0
 92
        0
 62
   257
 93
        1
300
CONTENTFORMAT
  1
CONTENTFORMAT_BEGIN
 90
        0
 91
        0
 92
        4
 93
        0
300

 40
0.0
140
1.0
 94
        5
 62
     0
340
11
144
4.5
309
CONTENTFORMAT_END
171
     1
301
MARGIN
  1
CELLMARGIN_BEGIN
 40
1.5
 40
1.5
 40
1.5
 40
1.5
 40
1.5
 40
1.5
309
CELLMARGIN_END
 94
        6
 95
        1
302
GRIDFORMAT
  1
GRIDFORMAT_BEGIN
 90
        0
 91
        1
 62
     0
 92
       -2
340
14
 93
        0
 40
0.045
309
GRIDFORMAT_END
 95
        2
302
GRIDFORMAT
  1
GRIDFORMAT_BEGIN
 90
        0
 91
        1
 62
     0
 92
       -2
340
14
 93
        0
 40
0.045
309
GRIDFORMAT_END
 95
        4
302
GRIDFORMAT
  1
GRIDFORMAT_BEGIN
 90
        0
 91
        1
 62
     0
 92
       -2
340
14
 93
        0
 40
0.045
309
GRIDFORMAT_END
 95
        8
302
GRIDFORMAT
  1
GRIDFORMAT_BEGIN
 90
        0
 91
        1
 62
     0
 92
       -2
340
14
 93
        0
 40
0.045
309
GRIDFORMAT_END
 95
       16
302
GRIDFORMAT
  1
GRIDFORMAT_BEGIN
 90
        0
 91
        1
 62
     0
 92
       -2
340
14
 93
        0
 40
0.045
309
GRIDFORMAT_END
 95
       32
302
GRIDFORMAT
  1
GRIDFORMAT_BEGIN
 90
        0
 91
        1
 62
     0
 92
       -2
340
14
 93
        0
 40
0.045
309
GRIDFORMAT_END
309
TABLEFORMAT_END
  1
CELLSTYLE_BEGIN
 90
        2
 91
        1
300
_HEADER
309
CELLSTYLE_END
300
CELLSTYLE
  1
TABLEFORMAT_BEGIN
 90
        5
170
     1
 91
        0
 92
        0
 62
   257
 93
        1
300
CONTENTFORMAT
  1
CONTENTFORMAT_BEGIN
 90
        0
 91
        0
 92
        4
 93
        0
300

 40
0.0
140
1.0
 94
        2
 62
     0
340
11
144
4.5
309
CONTENTFORMAT_END
171
     1
301
MARGIN
  1
CELLMARGIN_BEGIN
 40
1.5
 40
1.5
 40
1.5
 40
1.5
 40
1.5
 40
1.5
309
CELLMARGIN_END
 94
        6
 95
        1
302
GRIDFORMAT
  1
GRIDFORMAT_BEGIN
 90
        0
 91
        1
 62
     0
 92
       -2
340
14
 93
        0
 40
0.045
309
GRIDFORMAT_END
 95
        2
302
GRIDFORMAT
  1
GRIDFORMAT_BEGIN
 90
        0
 91
        1
 62
     0
 92
       -2
340
14
 93
        0
 40
0.045
309
GRIDFORMAT_END
 95
        4
302
GRIDFORMAT
  1
GRIDFORMAT_BEGIN
 90
        0
 91
        1
 62
     0
 92
       -2
340
14
 93
        0
 40
0.045
309
GRIDFORMAT_END
 95
        8
302
GRIDFORMAT
  1
GRIDFORMAT_BEGIN
 90
        0
 91
        1
 62
     0
 92
       -2
340
14
 93
        0
 40
0.045
309
GRIDFORMAT_END
 95
       16
302
GRIDFORMAT
  1
GRIDFORMAT_BEGIN
 90
        0
 91
        1
 62
     0
 92
       -2
340
14
 93
        0
 40
0.045
309
GRIDFORMAT_END
 95
       32
302
GRIDFORMAT
  1
GRIDFORMAT_BEGIN
 90
        0
 91
        1
 62
     0
 92
       -2
340
14
 93
        0
 40
0.045
309
GRIDFORMAT_END
309
TABLEFORMAT_END
  1
CELLSTYLE_BEGIN
 90
        3
 91
        2
300
_DATA
309
CELLSTYLE_END
  0
ENDSEC
  0
EOF
