  0
SECTION
  2
HEADER
  9
$ACADVER
  1
AC1027
  9
$ACADMAINTVER
 70
     8
  9
$DWGCODEPAGE
  3
ANSI_1252
  9
$REQUIREDVERSIONS
160
                 0
  9
$INSBASE
 10
0.0
 20
0.0
 30
0.0
  9
$EXTMIN
 10
0.0
 20
0.0
 30
0.0
  9
$EXTMAX
 10
841.0
 20
594.0
 30
0.0
  9
$LIMMIN
 10
0.0
 20
0.0
  9
$LIMMAX
 10
841.0
 20
594.0
  9
$ORTHOMODE
 70
     0
  9
$REGENMODE
 70
     1
  9
$FILLMODE
 70
     1
  9
$QTEXTMODE
 70
     0
  9
$MIRRTEXT
 70
     1
  9
$LTSCALE
 40
46.255
  9
$ATTMODE
 70
     1
  9
$TEXTSIZE
 40
0.2
  9
$TRACEWID
 40
0.05
  9
$TEXTSTYLE
  7
STANDARD
  9
$CLAYER
  8
0
  9
$CELTYPE
  6
BYLAYER
  9
$CECOLOR
 62
   256
  9
$CELTSCALE
 40
1.0
  9
$DISPSILH
 70
     0
  9
$DIMSCALE
 40
1.0
  9
$DIMASZ
 40
2.5
  9
$DIMEXO
 40
0.75
  9
$DIMDLI
 40
31.958
  9
$DIMRND
 40
0.0
  9
$DIMDLE
 40
0.0
  9
$DIMEXE
 40
0.75
  9
$DIMTP
 40
0.01
  9
$DIMTM
 40
0.01
  9
$DIMTXT
 40
3.0
  9
$DIMCEN
 40
7.569
  9
$DIMTSZ
 40
0.0
  9
$DIMTOL
 70
     1
  9
$DIMLIM
 70
     0
  9
$DIMTIH
 70
     1
  9
$DIMTOH
 70
     1
  9
$DIMSE1
 70
     0
  9
$DIMSE2
 70
     0
  9
$DIMTAD
 70
     0
  9
$DIMZIN
 70
     0
  9
$DIMBLK
  1
CLOSED
  9
$DIMASO
 70
     1
  9
$DIMSHO
 70
     1
  9
$DIMPOST
  1

  9
$DIMAPOST
  1

  9
$DIMALT
 70
     0
  9
$DIMALTD
 70
     2
  9
$DIMALTF
 40
25.4
  9
$DIMLFAC
 40
1.0
  9
$DIMTOFL
 70
     0
  9
$DIMTVP
 40
0.0
  9
$DIMTIX
 70
     0
  9
$DIMSOXD
 70
     0
  9
$DIMSAH
 70
     0
  9
$DIMBLK1
  1

  9
$DIMBLK2
  1

  9
$DIMSTYLE
  2
STANDARD
  9
$DIMCLRD
 70
     0
  9
$DIMCLRE
 70
     0
  9
$DIMCLRT
 70
     0
  9
$DIMTFAC
 40
1.0
  9
$DIMGAP
 40
0.625
  9
$DIMJUST
 70
     0
  9
$DIMSD1
 70
     0
  9
$DIMSD2
 70
     0
  9
$DIMTOLJ
 70
     1
  9
$DIMTZIN
 70
     0
  9
$DIMALTZ
 70
     0
  9
$DIMALTTZ
 70
     0
  9
$DIMUPT
 70
     0
  9
$DIMDEC
 70
     4
  9
$DIMTDEC
 70
     4
  9
$DIMALTU
 70
     2
  9
$DIMALTTD
 70
     2
  9
$DIMTXSTY
  7
STANDARD
  9
$DIMAUNIT
 70
     0
  9
$DIMADEC
 70
     0
  9
$DIMALTRND
 40
0.0
  9
$DIMAZIN
 70
     0
  9
$DIMDSEP
 70
    44
  9
$DIMATFIT
 70
     3
  9
$DIMFRAC
 70
     0
  9
$DIMLDRBLK
  1

  9
$DIMLUNIT
 70
     2
  9
$DIMLWD
 70
    -2
  9
$DIMLWE
 70
    -2
  9
$DIMTMOVE
 70
     0
  9
$DIMFXL
 40
1.0
  9
$DIMFXLON
 70
     0
  9
$DIMJOGANG
 40
0.785398
  9
$DIMTFILL
 70
     0
  9
$DIMTFILLCLR
 70
     0
  9
$DIMARCSYM
 70
     0
  9
$DIMLTYPE
  6

  9
$DIMLTEX1
  6

  9
$DIMLTEX2
  6

  9
$DIMTXTDIRECTION
 70
     0
  9
$LUNITS
 70
     2
  9
$LUPREC
 70
     4
  9
$SKETCHINC
 40
0.1
  9
$FILLETRAD
 40
0.5
  9
$AUNITS
 70
     0
  9
$AUPREC
 70
     0
  9
$MENU
  1
.
  9
$ELEVATION
 40
0.0
  9
$PELEVATION
 40
0.0
  9
$THICKNESS
 40
0.0
  9
$LIMCHECK
 70
     0
  9
$CHAMFERA
 40
0.0
  9
$CHAMFERB
 40
0.0
  9
$CHAMFERC
 40
0.0
  9
$CHAMFERD
 40
0.0
  9
$SKPOLY
 70
     0
  9
$TDCREATE
 40
2447893.083333333
  9
$TDUCREATE
 40
0.0
  9
$TDUPDATE
 40
2460208.383307535
  9
$TDUUPDATE
 40
2460208.299974201
  9
$TDINDWG
 40
0.0
  9
$TDUSRTIMER
 40
0.0
  9
$USRTIMER
 70
     1
  9
$ANGBASE
 50
0.0
  9
$ANGDIR
 70
     0
  9
$PDMODE
 70
     3
  9
$PDSIZE
 40
0.3125
  9
$PLINEWID
 40
0.0
  9
$SPLFRAME
 70
     0
  9
$SPLINETYPE
 70
     6
  9
$SPLINESEGS
 70
     8
  9
$HANDSEED
  5
638
  9
$SURFTAB1
 70
     6
  9
$SURFTAB2
 70
     6
  9
$SURFTYPE
 70
     6
  9
$SURFU
 70
     6
  9
$SURFV
 70
     6
  9
$UCSBASE
  2

  9
$UCSNAME
  2

  9
$UCSORG
 10
0.0
 20
0.0
 30
0.0
  9
$UCSXDIR
 10
1.0
 20
0.0
 30
0.0
  9
$UCSYDIR
 10
0.0
 20
1.0
 30
0.0
  9
$UCSORTHOREF
  2

  9
$UCSORTHOVIEW
 70
     0
  9
$UCSORGTOP
 10
0.0
 20
0.0
 30
0.0
  9
$UCSORGBOTTOM
 10
0.0
 20
0.0
 30
0.0
  9
$UCSORGLEFT
 10
0.0
 20
0.0
 30
0.0
  9
$UCSORGRIGHT
 10
0.0
 20
0.0
 30
0.0
  9
$UCSORGFRONT
 10
0.0
 20
0.0
 30
0.0
  9
$UCSORGBACK
 10
0.0
 20
0.0
 30
0.0
  9
$PUCSBASE
  2

  9
$PUCSNAME
  2

  9
$PUCSORG
 10
0.0
 20
0.0
 30
0.0
  9
$PUCSXDIR
 10
1.0
 20
0.0
 30
0.0
  9
$PUCSYDIR
 10
0.0
 20
1.0
 30
0.0
  9
$PUCSORTHOREF
  2

  9
$PUCSORTHOVIEW
 70
     0
  9
$PUCSORGTOP
 10
0.0
 20
0.0
 30
0.0
  9
$PUCSORGBOTTOM
 10
0.0
 20
0.0
 30
0.0
  9
$PUCSORGLEFT
 10
0.0
 20
0.0
 30
0.0
  9
$PUCSORGRIGHT
 10
0.0
 20
0.0
 30
0.0
  9
$PUCSORGFRONT
 10
0.0
 20
0.0
 30
0.0
  9
$PUCSORGBACK
 10
0.0
 20
0.0
 30
0.0
  9
$USERI1
 70
     0
  9
$USERI2
 70
     0
  9
$USERI3
 70
     0
  9
$USERI4
 70
     0
  9
$USERI5
 70
     0
  9
$USERR1
 40
0.0
  9
$USERR2
 40
0.0
  9
$USERR3
 40
0.0
  9
$USERR4
 40
0.0
  9
$USERR5
 40
0.0
  9
$WORLDVIEW
 70
     1
  9
$SHADEDGE
 70
     3
  9
$SHADEDIF
 70
    70
  9
$TILEMODE
 70
     1
  9
$MAXACTVP
 70
    64
  9
$PINSBASE
 10
0.0
 20
0.0
 30
0.0
  9
$PLIMCHECK
 70
     0
  9
$PEXTMIN
 10
1.000000E+20
 20
1.000000E+20
 30
1.000000E+20
  9
$PEXTMAX
 10
-1.000000E+20
 20
-1.000000E+20
 30
-1.000000E+20
  9
$PLIMMIN
 10
0.0
 20
0.0
  9
$PLIMMAX
 10
12.0
 20
9.0
  9
$UNITMODE
 70
     0
  9
$VISRETAIN
 70
     1
  9
$PLINEGEN
 70
     0
  9
$PSLTSCALE
 70
     0
  9
$TREEDEPTH
 70
  3020
  9
$CMLSTYLE
  2

  9
$CMLJUST
 70
     0
  9
$CMLSCALE
 40
1.0
  9
$PROXYGRAPHICS
 70
     1
  9
$MEASUREMENT
 70
     1
  9
$CELWEIGHT
370
    -1
  9
$ENDCAPS
280
     0
  9
$JOINSTYLE
280
     0
  9
$LWDISPLAY
290
     0
  9
$INSUNITS
 70
     4
  9
$HYPERLINKBASE
  1

  9
$STYLESHEET
  1

  9
$XEDIT
290
     1
  9
$CEPSNTYPE
380
     0
  9
$PSTYLEMODE
290
     1
  9
$FINGERPRINTGUID
  2
{95B70D66-EEDC-4777-8BDE-1D34413FFEB3}
  9
$VERSIONGUID
  2
{FAEB1C32-E019-11D5-929B-00C0DF256EC4}
  9
$EXTNAMES
290
     1
  9
$PSVPSCALE
 40
0.0
  9
$OLESTARTUP
290
     0
  9
$SORTENTS
280
   127
  9
$INDEXCTL
280
     0
  9
$HIDETEXT
280
     1
  9
$XCLIPFRAME
280
     2
  9
$HALOGAP
280
     0
  9
$OBSCOLOR
 70
   257
  9
$OBSLTYPE
280
     0
  9
$INTERSECTIONDISPLAY
280
     0
  9
$INTERSECTIONCOLOR
 70
   257
  9
$DIMASSOC
280
     2
  9
$PROJECTNAME
  1

  9
$CAMERADISPLAY
290
     0
  9
$LENSLENGTH
 40
50.0
  9
$CAMERAHEIGHT
 40
0.0
  9
$STEPSPERSEC
 40
2.0
  9
$STEPSIZE
 40
6.0
  9
$3DDWFPREC
 40
2.0
  9
$PSOLWIDTH
 40
0.25
  9
$PSOLHEIGHT
 40
4.0
  9
$LOFTANG1
 40
1.570796
  9
$LOFTANG2
 40
1.570796
  9
$LOFTMAG1
 40
0.0
  9
$LOFTMAG2
 40
0.0
  9
$LOFTPARAM
 70
     7
  9
$LOFTNORMALS
280
     1
  9
$LATITUDE
 40
37.795
  9
$LONGITUDE
 40
-122.394
  9
$NORTHDIRECTION
 40
0.0
  9
$TIMEZONE
 70
 -8000
  9
$LIGHTGLYPHDISPLAY
280
     1
  9
$TILEMODELIGHTSYNCH
280
     1
  9
$SOLIDHIST
280
     1
  9
$SHOWHIST
280
     1
  9
$DWFFRAME
280
     2
  9
$DGNFRAME
280
     2
  9
$REALWORLDSCALE
290
     1
  9
$INTERFERECOLOR
 62
   256
  9
$CSHADOW
280
     0
  9
$SHADOWPLANELOCATION
 40
0.0
  0
ENDSEC
  0
SECTION
  2
CLASSES
  0
CLASS
  1
ACDBDICTIONARYWDFLT
  2
AcDbDictionaryWithDefault
  3
ObjectDBX Classes
 90
        0
 91
        6
280
     0
281
     0
  0
CLASS
  1
ACDBPLACEHOLDER
  2
AcDbPlaceHolder
  3
ObjectDBX Classes
 90
        0
 91
        1
280
     0
281
     0
  0
CLASS
  1
LAYOUT
  2
AcDbLayout
  3
ObjectDBX Classes
 90
        0
 91
        1
280
     0
281
     0
  0
CLASS
  1
TABLESTYLE
  2
AcDbTableStyle
  3
ObjectDBX Classes
 90
     4095
 91
        5
280
     0
281
     0
  0
CLASS
  1
ACAD_TABLE
  2
AcDbTable
  3
ObjectDBX Classes
 90
     1025
 91
        5
280
     0
281
     1
  0
CLASS
  1
SCALE
  2
AcDbScale
  3
ObjectDBX Classes
 90
     1153
 91
        5
280
     0
281
     0
  0
CLASS
  1
TABLEGEOMETRY
  2
AcDbTableGeometry
  3
ObjectDBX Classes
 90
     1152
 91
        4
280
     0
281
     0
  0
CLASS
  1
VISUALSTYLE
  2
AcDbVisualStyle
  3
ObjectDBX Classes
 90
     4095
 91
        5
280
     0
281
     0
  0
CLASS
  1
MATERIAL
  2
AcDbMaterial
  3
ObjectDBX Classes
 90
     1153
 91
        5
280
     0
281
     0
  0
CLASS
  1
SUN
  2
AcDbSun
  3
SCENEOE
 90
     1153
 91
        5
280
     0
281
     0
  0
CLASS
  1
CSACDOCUMENTOPTIONS
  2
CDocDataContainer
  3
"DERU003_CSAPP"
 90
     4095
 91
        4
280
     0
281
     0
  0
CLASS
  1
TABLECONTENT
  2
AcDbTableContent
  3
ObjectDBX Classes
 90
     1152
 91
        4
280
     0
281
     0
  0
CLASS
  1
DICTIONARYVAR
  2
AcDbDictionaryVar
  3
ObjectDBX Classes
 90
        0
 91
        4
280
     0
281
     0
  0
CLASS
  1
CELLSTYLEMAP
  2
AcDbCellStyleMap
  3
ObjectDBX Classes
 90
     1152
 91
        4
280
     0
281
     0
  0
ENDSEC
  0
SECTION
  2
TABLES
  0
TABLE
  2
VPORT
  5
8
330
0
100
AcDbSymbolTable
 70
     1
  0
VPORT
  5
1F4
330
8
100
AcDbSymbolTableRecord
100
AcDbViewportTableRecord
  2
*ACTIVE
 70
     0
 10
0.0
 20
0.0
 11
1.0
 21
1.0
 12
420.5
 22
297.0
 13
0.0
 23
0.0
 14
1.0
 24
1.0
 15
0.0
 25
0.0
 16
0.0
 26
0.0
 36
1.0
 17
0.0
 27
0.0
 37
0.0
 40
594.0
 41
1.818286
 42
50.0
 43
0.0
 44
0.0
 50
0.0
 51
0.0
 71
    16
 72
   100
 73
     1
 74
     1
 75
     0
 76
     0
 77
     0
 78
     0
281
     0
 65
     1
110
0.0
120
0.0
130
0.0
111
1.0
121
0.0
131
0.0
112
0.0
122
1.0
132
0.0
 79
     0
146
0.0
 60
     3
 61
     5
292
     1
282
     1
141
0.0
142
0.0
 63
   256
361
623
  0
ENDTAB
  0
TABLE
  2
LTYPE
  5
5
330
0
100
AcDbSymbolTable
 70
     6
  0
LTYPE
  5
14
330
5
100
AcDbSymbolTableRecord
100
AcDbLinetypeTableRecord
  2
BYBLOCK
 70
     0
  3

 72
    65
 73
     0
 40
0.0
  0
LTYPE
  5
15
330
5
100
AcDbSymbolTableRecord
100
AcDbLinetypeTableRecord
  2
BYLAYER
 70
     0
  3

 72
    65
 73
     0
 40
0.0
  0
LTYPE
  5
16
330
5
100
AcDbSymbolTableRecord
100
AcDbLinetypeTableRecord
  2
CONTINUOUS
 70
     0
  3
Solid line
 72
    65
 73
     0
 40
0.0
  0
LTYPE
  5
1F5
330
5
100
AcDbSymbolTableRecord
100
AcDbLinetypeTableRecord
  2
CENTER
 70
     0
  3
____ _ ____ _ ____ _ ____ _ ____ _ ____ _ ____
 72
    65
 73
     4
 40
0.6
 49
0.375
 74
     0
 49
-0.075
 74
     0
 49
0.075
 74
     0
 49
-0.075
 74
     0
  0
LTYPE
  5
1F6
330
5
100
AcDbSymbolTableRecord
100
AcDbLinetypeTableRecord
  2
HIDDEN
 70
     0
  3
- - - - - - - - - - - - - - - - - - - -
 72
    65
 73
     2
 40
0.2
 49
0.1
 74
     0
 49
-0.1
 74
     0
  0
LTYPE
  5
1F7
330
5
100
AcDbSymbolTableRecord
100
AcDbLinetypeTableRecord
  2
PHANTOM
 70
     0
  3
_____ _ _ _____ _ _ _____ _ _ _____
 72
    65
 73
     6
 40
0.8
 49
0.45
 74
     0
 49
-0.05
 74
     0
 49
0.1
 74
     0
 49
-0.05
 74
     0
 49
0.1
 74
     0
 49
-0.05
 74
     0
  0
LTYPE
  5
1F8
330
5
100
AcDbSymbolTableRecord
100
AcDbLinetypeTableRecord
  2
DOT
 70
     0
  3
. . . . . . . . . . . . . . . . . . . .
 72
    65
 73
     2
 40
0.2
 49
0.1
 74
     0
 49
-0.1
 74
     0
  0
LTYPE
  5
1F9
330
5
100
AcDbSymbolTableRecord
100
AcDbLinetypeTableRecord
  2
DASHED
 70
     0
  3
- - - - - - - - - - - - - - - - - - - -
 72
    65
 73
     2
 40
0.2
 49
0.1
 74
     0
 49
-0.1
 74
     0
  0
ENDTAB
  0
TABLE
  2
LAYER
  5
2
330
0
100
AcDbSymbolTable
 70
    38
  0
LAYER
  5
10
330
2
100
AcDbSymbolTableRecord
100
AcDbLayerTableRecord
  2
0
 70
     0
 62
     7
  6
CONTINUOUS
370
    -3
390
F
347
61D
348
0
  0
LAYER
  5
1FA
330
2
100
AcDbSymbolTableRecord
100
AcDbLayerTableRecord
  2
DEFAULT_1
 70
     0
 62
     7
  6
CENTER
370
    -3
390
F
347
61D
348
0
  0
LAYER
  5
1FB
330
2
100
AcDbSymbolTableRecord
100
AcDbLayerTableRecord
  2
DEFAULT_2
 70
     0
 62
     8
  6
HIDDEN
370
    -3
390
F
347
61D
348
0
  0
LAYER
  5
1FC
330
2
100
AcDbSymbolTableRecord
100
AcDbLayerTableRecord
  2
DEFAULT_3
 70
     0
 62
     7
  6
PHANTOM
370
    -3
390
F
347
61D
348
0
  0
LAYER
  5
1FD
330
2
100
AcDbSymbolTableRecord
100
AcDbLayerTableRecord
  2
01_ALL_DTM_PLN
 70
     0
 62
     7
  6
CONTINUOUS
370
    -3
390
F
347
61D
348
0
  0
LAYER
  5
1FE
330
2
100
AcDbSymbolTableRecord
100
AcDbLayerTableRecord
  2
01__ASM_ALL_DTM_PLN
 70
     0
 62
     7
  6
CONTINUOUS
370
    -3
390
F
347
61D
348
0
  0
LAYER
  5
1FF
330
2
100
AcDbSymbolTableRecord
100
AcDbLayerTableRecord
  2
01__ASM_DEF_DTM_PLN
 70
     0
 62
     7
  6
CONTINUOUS
370
    -3
390
F
347
61D
348
0
  0
LAYER
  5
200
330
2
100
AcDbSymbolTableRecord
100
AcDbLayerTableRecord
  2
01___PRT_ALL_DTM_PLN
 70
     0
 62
     7
  6
CONTINUOUS
370
    -3
390
F
347
61D
348
0
  0
LAYER
  5
201
330
2
100
AcDbSymbolTableRecord
100
AcDbLayerTableRecord
  2
01___PRT_DEF_DTM_PLN
 70
     0
 62
     7
  6
CONTINUOUS
370
    -3
390
F
347
61D
348
0
  0
LAYER
  5
202
330
2
100
AcDbSymbolTableRecord
100
AcDbLayerTableRecord
  2
02_ALL_AXES
 70
     0
 62
     7
  6
CONTINUOUS
370
    -3
390
F
347
61D
348
0
  0
LAYER
  5
203
330
2
100
AcDbSymbolTableRecord
100
AcDbLayerTableRecord
  2
02__ASM_ALL_AXES
 70
     0
 62
     7
  6
CONTINUOUS
370
    -3
390
F
347
61D
348
0
  0
LAYER
  5
204
330
2
100
AcDbSymbolTableRecord
100
AcDbLayerTableRecord
  2
02___PRT_ALL_AXES
 70
     0
 62
     7
  6
CONTINUOUS
370
    -3
390
F
347
61D
348
0
  0
LAYER
  5
205
330
2
100
AcDbSymbolTableRecord
100
AcDbLayerTableRecord
  2
03_ALL_CURVES
 70
     0
 62
     7
  6
CONTINUOUS
370
    -3
390
F
347
61D
348
0
  0
LAYER
  5
206
330
2
100
AcDbSymbolTableRecord
100
AcDbLayerTableRecord
  2
03__ASM_ALL_CURVES
 70
     0
 62
     7
  6
CONTINUOUS
370
    -3
390
F
347
61D
348
0
  0
LAYER
  5
207
330
2
100
AcDbSymbolTableRecord
100
AcDbLayerTableRecord
  2
03___PRT_ALL_CURVES
 70
     0
 62
     7
  6
CONTINUOUS
370
    -3
390
F
347
61D
348
0
  0
LAYER
  5
208
330
2
100
AcDbSymbolTableRecord
100
AcDbLayerTableRecord
  2
04_ALL_DTM_PNT
 70
     0
 62
     7
  6
CONTINUOUS
370
    -3
390
F
347
61D
348
0
  0
LAYER
  5
209
330
2
100
AcDbSymbolTableRecord
100
AcDbLayerTableRecord
  2
04__ASM_ALL_DTM_PNT
 70
     0
 62
     7
  6
CONTINUOUS
370
    -3
390
F
347
61D
348
0
  0
LAYER
  5
20A
330
2
100
AcDbSymbolTableRecord
100
AcDbLayerTableRecord
  2
04___PRT_ALL_DTM_PNT
 70
     0
 62
     7
  6
CONTINUOUS
370
    -3
390
F
347
61D
348
0
  0
LAYER
  5
20B
330
2
100
AcDbSymbolTableRecord
100
AcDbLayerTableRecord
  2
05_ALL_DTM_CSYS
 70
     0
 62
     7
  6
CONTINUOUS
370
    -3
390
F
347
61D
348
0
  0
LAYER
  5
20C
330
2
100
AcDbSymbolTableRecord
100
AcDbLayerTableRecord
  2
05__ASM_ALL_DTM_CSYS
 70
     0
 62
     7
  6
CONTINUOUS
370
    -3
390
F
347
61D
348
0
  0
LAYER
  5
20D
330
2
100
AcDbSymbolTableRecord
100
AcDbLayerTableRecord
  2
05__ASM_DEF_DTM_CSYS
 70
     0
 62
     7
  6
CONTINUOUS
370
    -3
390
F
347
61D
348
0
  0
LAYER
  5
20E
330
2
100
AcDbSymbolTableRecord
100
AcDbLayerTableRecord
  2
05___PRT_ALL_DTM_CSYS
 70
     0
 62
     7
  6
CONTINUOUS
370
    -3
390
F
347
61D
348
0
  0
LAYER
  5
20F
330
2
100
AcDbSymbolTableRecord
100
AcDbLayerTableRecord
  2
05___PRT_DEF_DTM_CSYS
 70
     0
 62
     7
  6
CONTINUOUS
370
    -3
390
F
347
61D
348
0
  0
LAYER
  5
210
330
2
100
AcDbSymbolTableRecord
100
AcDbLayerTableRecord
  2
06_ALL_SURFS
 70
     0
 62
     7
  6
CONTINUOUS
370
    -3
390
F
347
61D
348
0
  0
LAYER
  5
211
330
2
100
AcDbSymbolTableRecord
100
AcDbLayerTableRecord
  2
06__ASM_ALL_SURFS
 70
     0
 62
     7
  6
CONTINUOUS
370
    -3
390
F
347
61D
348
0
  0
LAYER
  5
212
330
2
100
AcDbSymbolTableRecord
100
AcDbLayerTableRecord
  2
06___PRT_ALL_SURFS
 70
     0
 62
     7
  6
CONTINUOUS
370
    -3
390
F
347
61D
348
0
  0
LAYER
  5
213
330
2
100
AcDbSymbolTableRecord
100
AcDbLayerTableRecord
  2
07__ASM_ALL_SKELETONS
 70
     0
 62
     7
  6
CONTINUOUS
370
    -3
390
F
347
61D
348
0
  0
LAYER
  5
214
330
2
100
AcDbSymbolTableRecord
100
AcDbLayerTableRecord
  2
1_ALL_PLANES
 70
     0
 62
     7
  6
CONTINUOUS
370
    -3
390
F
347
61D
348
0
  0
LAYER
  5
215
330
2
100
AcDbSymbolTableRecord
100
AcDbLayerTableRecord
  2
2_ALL_CSYS
 70
     0
 62
     7
  6
CONTINUOUS
370
    -3
390
F
347
61D
348
0
  0
LAYER
  5
216
330
2
100
AcDbSymbolTableRecord
100
AcDbLayerTableRecord
  2
3_ALL_AXES
 70
     0
 62
     7
  6
CONTINUOUS
370
    -3
390
F
347
61D
348
0
  0
LAYER
  5
217
330
2
100
AcDbSymbolTableRecord
100
AcDbLayerTableRecord
  2
4_ALL_POINTS
 70
     0
 62
     7
  6
CONTINUOUS
370
    -3
390
F
347
61D
348
0
  0
LAYER
  5
218
330
2
100
AcDbSymbolTableRecord
100
AcDbLayerTableRecord
  2
5_ALL_CURVES
 70
     0
 62
     7
  6
CONTINUOUS
370
    -3
390
F
347
61D
348
0
  0
LAYER
  5
219
330
2
100
AcDbSymbolTableRecord
100
AcDbLayerTableRecord
  2
6_ALL_SURFS
 70
     0
 62
     7
  6
CONTINUOUS
370
    -3
390
F
347
61D
348
0
  0
LAYER
  5
21A
330
2
100
AcDbSymbolTableRecord
100
AcDbLayerTableRecord
  2
6__COSTRUZIONE
 70
     0
 62
     7
  6
CONTINUOUS
370
    -3
390
F
347
61D
348
0
  0
LAYER
  5
21B
330
2
100
AcDbSymbolTableRecord
100
AcDbLayerTableRecord
  2
7_ALL_FEATURES
 70
     0
 62
     7
  6
CONTINUOUS
370
    -3
390
F
347
61D
348
0
  0
LAYER
  5
21C
330
2
100
AcDbSymbolTableRecord
100
AcDbLayerTableRecord
  2
8_ALL_NOTES_BALLOONS_SYMBOLS_GT
 70
     0
 62
     7
  6
CONTINUOUS
370
    -3
390
F
347
61D
348
0
  0
LAYER
  5
21D
330
2
100
AcDbSymbolTableRecord
100
AcDbLayerTableRecord
  2
9_SOLID
 70
     0
 62
     7
  6
CONTINUOUS
370
    -3
390
F
347
61D
348
0
  0
LAYER
  5
21E
330
2
100
AcDbSymbolTableRecord
100
AcDbLayerTableRecord
  2
XXX_SOLIDO
 70
     0
 62
     7
  6
CONTINUOUS
370
    -3
390
F
347
61D
348
0
  0
ENDTAB
  0
TABLE
  2
STYLE
  5
3
330
0
100
AcDbSymbolTable
 70
     3
  0
STYLE
  5
11
330
3
100
AcDbSymbolTableRecord
100
AcDbTextStyleTableRecord
  2
STANDARD
 70
     0
 40
0.0
 41
0.85
 50
0.0
 71
     0
 42
0.2
  3
txt
  4

  0
STYLE
  5
21F
330
3
100
AcDbSymbolTableRecord
100
AcDbTextStyleTableRecord
  2
TEXTSTYLE_1
 70
     0
 40
0.0
 41
0.8
 50
0.0
 71
     0
 42
0.2
  3
gdt
  4

  0
STYLE
  5
220
330
3
100
AcDbSymbolTableRecord
100
AcDbTextStyleTableRecord
  2
TEXTSTYLE_2
 70
     0
 40
0.0
 41
1.0
 50
0.0
 71
     0
 42
0.2
  3
arial.ttf
  4

  0
ENDTAB
  0
TABLE
  2
VIEW
  5
6
330
0
100
AcDbSymbolTable
 70
     0
  0
ENDTAB
  0
TABLE
  2
UCS
  5
7
330
0
100
AcDbSymbolTable
 70
     0
  0
ENDTAB
  0
TABLE
  2
APPID
  5
9
330
0
100
AcDbSymbolTable
 70
     6
  0
APPID
  5
221
330
9
100
AcDbSymbolTableRecord
100
AcDbRegAppTableRecord
  2
ACAD
 70
     0
  0
APPID
  5
61E
330
9
100
AcDbSymbolTableRecord
100
AcDbRegAppTableRecord
  2
MCS_DIM1
 70
     0
  0
APPID
  5
61F
330
9
100
AcDbSymbolTableRecord
100
AcDbRegAppTableRecord
  2
McsXdata5
 70
     0
  0
APPID
  5
622
330
9
100
AcDbSymbolTableRecord
100
AcDbRegAppTableRecord
  2
MCS_DOCUMENT_ID
 70
     0
  0
APPID
  5
628
330
9
100
AcDbSymbolTableRecord
100
AcDbRegAppTableRecord
  2
MCS_PARAMS_DATA
 70
     0
  0
APPID
  5
62A
330
9
100
AcDbSymbolTableRecord
100
AcDbRegAppTableRecord
  2
MC_VERSION_DATA
 70
     0
  0
ENDTAB
  0
TABLE
  2
DIMSTYLE
  5
A
330
0
100
AcDbSymbolTable
 70
     3
100
AcDbDimStyleTable
  0
DIMSTYLE
105
22B
330
A
100
AcDbSymbolTableRecord
100
AcDbDimStyleTableRecord
  2
STANDARD
 70
     0
 41
2.5
 42
0.75
 44
0.75
 47
0.01
 48
0.01
 71
     1
 73
     0
 74
     0
 77
     1
 78
     8
 79
     2
140
3.0
147
0.625
171
     1
178
     0
179
     2
271
     2
272
     2
278
    44
284
     8
340
11
341
224
342
224
343
224
344
224
  0
DIMSTYLE
105
22C
330
A
100
AcDbSymbolTableRecord
100
AcDbDimStyleTableRecord
  2
DIMSTYLE_1
 70
     0
 41
2.5
 42
0.75
 44
0.75
 47
0.3
 48
0.3
 73
     0
 74
     0
 77
     1
 78
     8
 79
     2
140
3.0
147
0.75
171
     1
178
     0
271
     0
272
     0
278
    44
284
     8
340
11
341
224
342
224
343
224
344
224
  0
DIMSTYLE
105
22D
330
A
100
AcDbSymbolTableRecord
100
AcDbDimStyleTableRecord
  2
DIMSTYLE_2
 70
     0
 41
2.5
 42
0.75
 44
0.75
 47
0.8
 48
0.8
 73
     0
 74
     0
 77
     1
 78
     8
 79
     2
140
3.0
147
0.75
171
     1
178
     0
179
     2
271
     2
272
    -1
278
    44
284
     8
340
11
341
224
342
224
343
224
344
224
  0
ENDTAB
  0
TABLE
  2
BLOCK_RECORD
  5
1
330
0
100
AcDbSymbolTable
 70
     7
  0
BLOCK_RECORD
  5
222
330
1
100
AcDbSymbolTableRecord
100
AcDbBlockTableRecord
  2
*Model_Space
340
5D8
 70
     0
280
     1
281
     0
  0
BLOCK_RECORD
  5
223
330
1
100
AcDbSymbolTableRecord
100
AcDbBlockTableRecord
  2
*Paper_Space
340
5D9
 70
     0
280
     1
281
     0
  0
BLOCK_RECORD
  5
224
330
1
100
AcDbSymbolTableRecord
100
AcDbBlockTableRecord
  2
_CLOSED
340
0
102
{BLKREFS
331
276
331
277
331
27F
331
280
331
288
331
289
331
291
331
292
102
}
 70
     0
280
     1
281
     0
  0
BLOCK_RECORD
  5
225
330
1
100
AcDbSymbolTableRecord
100
AcDbBlockTableRecord
  2
*D1
340
0
 70
     0
280
     1
281
     0
  0
BLOCK_RECORD
  5
226
330
1
100
AcDbSymbolTableRecord
100
AcDbBlockTableRecord
  2
*D2
340
0
 70
     0
280
     1
281
     0
  0
BLOCK_RECORD
  5
227
330
1
100
AcDbSymbolTableRecord
100
AcDbBlockTableRecord
  2
*D3
340
0
 70
     0
280
     1
281
     0
  0
BLOCK_RECORD
  5
228
330
1
100
AcDbSymbolTableRecord
100
AcDbBlockTableRecord
  2
*D4
340
0
 70
     0
280
     1
281
     0
  0
BLOCK_RECORD
  5
229
330
1
100
AcDbSymbolTableRecord
100
AcDbBlockTableRecord
  2
LOGO2_BL0
340
0
102
{BLKREFS
331
5D5
102
}
 70
     0
280
     1
281
     0
  0
BLOCK_RECORD
  5
22A
330
1
100
AcDbSymbolTableRecord
100
AcDbBlockTableRecord
  2
*T6
340
0
102
{BLKREFS
331
5D6
102
}
 70
     0
280
     1
281
     0
  0
ENDTAB
  0
ENDSEC
  0
SECTION
  2
BLOCKS
  0
BLOCK
  5
20
330
222
100
AcDbEntity
  8
0
100
AcDbBlockBegin
  2
*Model_Space
 70
     0
 10
0.0
 20
0.0
 30
0.0
  3
*Model_Space
  1
*Model_Space
  0
ENDBLK
  5
21
330
222
100
AcDbEntity
  8
0
100
AcDbBlockEnd
  0
BLOCK
  5
1C
330
223
100
AcDbEntity
 67
     1
  8
0
100
AcDbBlockBegin
  2
*Paper_Space
 70
     0
 10
0.0
 20
0.0
 30
0.0
  3
*Paper_Space
  1
*Paper_Space
  0
ENDBLK
  5
1D
330
223
100
AcDbEntity
 67
     1
  8
0
100
AcDbBlockEnd
  0
BLOCK
  5
26A
330
224
100
AcDbEntity
  8
0
100
AcDbBlockBegin
  2
_CLOSED
 70
     0
 10
0.0
 20
0.0
 30
0.0
  3
_CLOSED
  1
_CLOSED
  0
LINE
  5
26B
330
224
100
AcDbEntity
  8
0
  6
ByBlock
 62
     0
100
AcDbLine
 10
0.0
 20
0.0
 30
0.0
 11
-1.0
 21
0.2
 31
0.0
  0
LINE
  5
26C
330
224
100
AcDbEntity
  8
0
  6
ByBlock
 62
     0
100
AcDbLine
 10
-1.0
 20
0.2
 30
0.0
 11
-1.0
 21
-0.2
 31
0.0
  0
LINE
  5
26D
330
224
100
AcDbEntity
  8
0
  6
ByBlock
 62
     0
100
AcDbLine
 10
-1.0
 20
-0.2
 30
0.0
 11
0.0
 21
0.0
 31
0.0
  0
LINE
  5
26E
330
224
100
AcDbEntity
  8
0
  6
ByBlock
 62
     0
100
AcDbLine
 10
-1.0
 20
0.0
 30
0.0
 11
0.0
 21
0.0
 31
0.0
  0
ENDBLK
  5
26F
330
224
100
AcDbEntity
  8
0
  6
ByBlock
 62
     0
100
AcDbBlockEnd
  0
BLOCK
  5
270
330
225
100
AcDbEntity
  8
0
100
AcDbBlockBegin
  2
*D1
 70
     1
 10
0.0
 20
0.0
 30
0.0
  3
*D1
  1
*D1
  0
MTEXT
  5
271
330
225
100
AcDbEntity
  8
0
  6
Continuous
 62
     2
100
AcDbMText
 10
606.9926
 20
284.827016
 30
0.0
 40
3.0
 41
6.75
 46
0.0
 71
     2
 72
     1
  1
37
 11
0.0
 21
1.0
 31
0.0
 73
     1
 44
0.9
  0
LINE
  5
272
330
225
100
AcDbEntity
  8
0
  6
Continuous
 62
     2
100
AcDbLine
 10
591.4926
 20
303.427016
 30
0.0
 11
611.4926
 21
303.427016
 31
0.0
  0
LINE
  5
273
330
225
100
AcDbEntity
  8
0
  6
Continuous
 62
     2
100
AcDbLine
 10
591.4926
 20
266.227016
 30
0.0
 11
611.4926
 21
266.227016
 31
0.0
  0
LINE
  5
274
330
225
100
AcDbEntity
  8
0
  6
Continuous
 62
     2
100
AcDbLine
 10
610.7426
 20
303.427016
 30
0.0
 11
610.7426
 21
284.827016
 31
0.0
  0
LINE
  5
275
330
225
100
AcDbEntity
  8
0
  6
Continuous
 62
     2
100
AcDbLine
 10
610.7426
 20
266.227016
 30
0.0
 11
610.7426
 21
284.827016
 31
0.0
  0
INSERT
  5
276
330
225
100
AcDbEntity
  8
0
  6
Continuous
 62
     2
100
AcDbBlockReference
  2
_CLOSED
 10
610.7426
 20
303.427016
 30
0.0
 41
2.5
 42
2.5
 43
2.5
 50
90.0
  0
INSERT
  5
277
330
225
100
AcDbEntity
  8
0
  6
Continuous
 62
     2
100
AcDbBlockReference
  2
_CLOSED
 10
610.7426
 20
266.227016
 30
0.0
 41
2.5
 42
2.5
 43
2.5
 50
270.0
  0
ENDBLK
  5
278
330
225
100
AcDbEntity
  8
0
  6
ByBlock
 62
     0
100
AcDbBlockEnd
  0
BLOCK
  5
279
330
226
100
AcDbEntity
  8
0
100
AcDbBlockBegin
  2
*D2
 70
     1
 10
0.0
 20
0.0
 30
0.0
  3
*D2
  1
*D2
  0
MTEXT
  5
27A
330
226
100
AcDbEntity
  8
0
  6
Continuous
 62
     2
100
AcDbMText
 10
335.9926
 20
249.977016
 30
0.0
 40
3.0
 41
9.321429
 46
0.0
 71
     2
 72
     1
  1
510
 73
     1
 44
0.9
  0
LINE
  5
27B
330
226
100
AcDbEntity
  8
0
  6
Continuous
 62
     2
100
AcDbLine
 10
81.2426
 20
252.607159
 30
0.0
 11
81.2426
 21
245.477016
 31
0.0
  0
LINE
  5
27C
330
226
100
AcDbEntity
  8
0
  6
Continuous
 62
     2
100
AcDbLine
 10
590.7426
 20
252.149117
 30
0.0
 11
590.7426
 21
245.477016
 31
0.0
  0
LINE
  5
27D
330
226
100
AcDbEntity
  8
0
  6
Continuous
 62
     2
100
AcDbLine
 10
81.2426
 20
246.227016
 30
0.0
 11
335.9926
 21
246.227016
 31
0.0
  0
LINE
  5
27E
330
226
100
AcDbEntity
  8
0
  6
Continuous
 62
     2
100
AcDbLine
 10
590.7426
 20
246.227016
 30
0.0
 11
335.9926
 21
246.227016
 31
0.0
  0
INSERT
  5
27F
330
226
100
AcDbEntity
  8
0
  6
Continuous
 62
     2
100
AcDbBlockReference
  2
_CLOSED
 10
81.2426
 20
246.227016
 30
0.0
 41
2.5
 42
2.5
 43
2.5
 50
180.0
  0
INSERT
  5
280
330
226
100
AcDbEntity
  8
0
  6
Continuous
 62
     2
100
AcDbBlockReference
  2
_CLOSED
 10
590.7426
 20
246.227016
 30
0.0
 41
2.5
 42
2.5
 43
2.5
 50
0.0
  0
ENDBLK
  5
281
330
226
100
AcDbEntity
  8
0
  6
ByBlock
 62
     0
100
AcDbBlockEnd
  0
BLOCK
  5
282
330
227
100
AcDbEntity
  8
0
100
AcDbBlockBegin
  2
*D3
 70
     1
 10
0.0
 20
0.0
 30
0.0
  3
*D3
  1
*D3
  0
MTEXT
  5
283
330
227
100
AcDbEntity
  8
0
  6
Continuous
 62
     2
100
AcDbMText
 10
596.776384
 20
453.439525
 30
0.0
 40
3.0
 41
7.071429
 46
0.0
 71
     2
 72
     1
  1
47
 11
0.0
 21
1.0
 31
0.0
 73
     1
 44
0.9
  0
LINE
  5
284
330
227
100
AcDbEntity
  8
0
  6
Continuous
 62
     2
100
AcDbLine
 10
591.4926
 20
476.814525
 30
0.0
 11
601.276384
 21
476.814525
 31
0.0
  0
LINE
  5
285
330
227
100
AcDbEntity
  8
0
  6
Continuous
 62
     2
100
AcDbLine
 10
589.7426
 20
430.064525
 30
0.0
 11
601.276384
 21
430.064525
 31
0.0
  0
LINE
  5
286
330
227
100
AcDbEntity
  8
0
  6
Continuous
 62
     2
100
AcDbLine
 10
600.526384
 20
476.814525
 30
0.0
 11
600.526384
 21
453.439525
 31
0.0
  0
LINE
  5
287
330
227
100
AcDbEntity
  8
0
  6
Continuous
 62
     2
100
AcDbLine
 10
600.526384
 20
430.064525
 30
0.0
 11
600.526384
 21
453.439525
 31
0.0
  0
INSERT
  5
288
330
227
100
AcDbEntity
  8
0
  6
Continuous
 62
     2
100
AcDbBlockReference
  2
_CLOSED
 10
600.526384
 20
476.814525
 30
0.0
 41
2.5
 42
2.5
 43
2.5
 50
90.0
  0
INSERT
  5
289
330
227
100
AcDbEntity
  8
0
  6
Continuous
 62
     2
100
AcDbBlockReference
  2
_CLOSED
 10
600.526384
 20
430.064525
 30
0.0
 41
2.5
 42
2.5
 43
2.5
 50
270.0
  0
ENDBLK
  5
28A
330
227
100
AcDbEntity
  8
0
  6
ByBlock
 62
     0
100
AcDbBlockEnd
  0
BLOCK
  5
28B
330
228
100
AcDbEntity
  8
0
100
AcDbBlockBegin
  2
*D4
 70
     1
 10
0.0
 20
0.0
 30
0.0
  3
*D4
  1
*D4
  0
MTEXT
  5
28C
330
228
100
AcDbEntity
  8
0
  6
Continuous
 62
     2
100
AcDbMText
 10
798.055731
 20
448.907862
 30
0.0
 40
3.0
 41
6.75
 46
0.0
 71
     2
 72
     1
  1
56
 11
0.0
 21
1.0
 31
0.0
 73
     1
 44
0.9
  0
LINE
  5
28D
330
228
100
AcDbEntity
  8
0
  6
Continuous
 62
     2
100
AcDbLine
 10
801.055731
 20
421.0012
 30
0.0
 11
801.958411
 21
421.0012
 31
0.0
  0
LINE
  5
28E
330
228
100
AcDbEntity
  8
0
  6
Continuous
 62
     2
100
AcDbLine
 10
790.653027
 20
476.814525
 30
0.0
 11
802.555731
 21
476.814525
 31
0.0
  0
LINE
  5
28F
330
228
100
AcDbEntity
  8
0
  6
Continuous
 62
     2
100
AcDbLine
 10
801.805731
 20
421.0012
 30
0.0
 11
801.805731
 21
448.907862
 31
0.0
  0
LINE
  5
290
330
228
100
AcDbEntity
  8
0
  6
Continuous
 62
     2
100
AcDbLine
 10
801.805731
 20
476.814525
 30
0.0
 11
801.805731
 21
448.907862
 31
0.0
  0
INSERT
  5
291
330
228
100
AcDbEntity
  8
0
  6
Continuous
 62
     2
100
AcDbBlockReference
  2
_CLOSED
 10
801.805731
 20
421.0012
 30
0.0
 41
2.5
 42
2.5
 43
2.5
 50
270.0
  0
INSERT
  5
292
330
228
100
AcDbEntity
  8
0
  6
Continuous
 62
     2
100
AcDbBlockReference
  2
_CLOSED
 10
801.805731
 20
476.814525
 30
0.0
 41
2.5
 42
2.5
 43
2.5
 50
90.0
  0
ENDBLK
  5
293
330
228
100
AcDbEntity
  8
0
  6
ByBlock
 62
     0
100
AcDbBlockEnd
  0
BLOCK
  5
22E
330
229
100
AcDbEntity
  8
0
100
AcDbBlockBegin
  2
LOGO2_BL0
 70
     0
 10
752.542758
 20
36.702704
 30
0.0
  3
LOGO2_BL0
  1
LOGO2_BL0
  0
LINE
  5
22F
330
229
100
AcDbEntity
  8
0
  6
Continuous
 62
     7
100
AcDbLine
 10
744.285683
 20
39.898195
 30
0.0
 11
742.981342
 21
39.898195
 31
0.0
  0
LINE
  5
230
330
229
100
AcDbEntity
  8
0
  6
Continuous
 62
     7
100
AcDbLine
 10
742.981342
 20
39.898195
 30
0.0
 11
742.981342
 21
29.439129
 31
0.0
  0
LINE
  5
231
330
229
100
AcDbEntity
  8
0
  6
Continuous
 62
     7
100
AcDbLine
 10
742.981342
 20
29.439129
 30
0.0
 11
747.462397
 21
29.439129
 31
0.0
  0
LINE
  5
232
330
229
100
AcDbEntity
  8
0
  6
Continuous
 62
     7
100
AcDbLine
 10
747.462397
 20
29.439129
 30
0.0
 11
747.462397
 21
30.631983
 31
0.0
  0
LINE
  5
233
330
229
100
AcDbEntity
  8
0
  6
Continuous
 62
     7
100
AcDbLine
 10
747.462397
 20
30.631983
 30
0.0
 11
744.285683
 21
30.631983
 31
0.0
  0
LINE
  5
234
330
229
100
AcDbEntity
  8
0
  6
Continuous
 62
     7
100
AcDbLine
 10
744.285683
 20
30.631983
 30
0.0
 11
744.285683
 21
39.898195
 31
0.0
  0
LINE
  5
235
330
229
100
AcDbEntity
  8
0
  6
Continuous
 62
     7
100
AcDbLine
 10
759.222009
 20
39.898195
 30
0.0
 11
757.918192
 21
39.898195
 31
0.0
  0
LINE
  5
236
330
229
100
AcDbEntity
  8
0
  6
Continuous
 62
     7
100
AcDbLine
 10
757.918192
 20
39.898195
 30
0.0
 11
757.918192
 21
29.439129
 31
0.0
  0
LINE
  5
237
330
229
100
AcDbEntity
  8
0
  6
Continuous
 62
     7
100
AcDbLine
 10
757.918192
 20
29.439129
 30
0.0
 11
762.399378
 21
29.439129
 31
0.0
  0
LINE
  5
238
330
229
100
AcDbEntity
  8
0
  6
Continuous
 62
     7
100
AcDbLine
 10
762.399378
 20
29.439129
 30
0.0
 11
762.399378
 21
30.631983
 31
0.0
  0
LINE
  5
239
330
229
100
AcDbEntity
  8
0
  6
Continuous
 62
     7
100
AcDbLine
 10
762.399378
 20
30.631983
 30
0.0
 11
759.222009
 21
30.631983
 31
0.0
  0
LINE
  5
23A
330
229
100
AcDbEntity
  8
0
  6
Continuous
 62
     7
100
AcDbLine
 10
759.222009
 20
30.631983
 30
0.0
 11
759.222009
 21
39.898195
 31
0.0
  0
LWPOLYLINE
  5
23B
330
229
100
AcDbEntity
  8
0
  6
Continuous
 62
     7
100
AcDbPolyline
 90
        2
 70
     0
 43
0.2
 10
741.335737
 20
26.095578
 10
741.335737
 20
24.238515
  0
LWPOLYLINE
  5
23C
330
229
100
AcDbEntity
  8
0
  6
Continuous
 62
     7
100
AcDbPolyline
 90
        2
 70
     0
 43
0.2
 10
741.335737
 20
24.238515
 10
742.131453
 20
24.238515
  0
LWPOLYLINE
  5
23D
330
229
100
AcDbEntity
  8
0
  6
Continuous
 62
     7
100
AcDbPolyline
 90
        2
 70
     0
 43
0.2
 10
742.131453
 20
24.238515
 10
742.131453
 20
24.450496
  0
LWPOLYLINE
  5
23E
330
229
100
AcDbEntity
  8
0
  6
Continuous
 62
     7
100
AcDbPolyline
 90
        2
 70
     0
 43
0.2
 10
742.131453
 20
24.450496
 10
741.567347
 20
24.450496
  0
LWPOLYLINE
  5
23F
330
229
100
AcDbEntity
  8
0
  6
Continuous
 62
     7
100
AcDbPolyline
 90
        2
 70
     0
 43
0.2
 10
741.567347
 20
24.450496
 10
741.567347
 20
26.095578
  0
LWPOLYLINE
  5
240
330
229
100
AcDbEntity
  8
0
  6
Continuous
 62
     7
100
AcDbPolyline
 90
        2
 70
     0
 43
0.2
 10
741.567347
 20
26.095578
 10
741.335737
 20
26.095578
  0
SPLINE
  5
241
330
229
100
AcDbEntity
  8
0
  6
Continuous
 62
     7
100
AcDbSpline
 70
     3
 71
     3
 72
    35
 73
    31
 74
     0
 42
0.000000001
 43
0.0000001
 40
0.0
 40
0.0
 40
0.0
 40
0.0
 40
1.0
 40
1.0
 40
1.0
 40
2.0
 40
2.0
 40
2.0
 40
3.0
 40
3.0
 40
3.0
 40
4.0
 40
4.0
 40
4.0
 40
5.0
 40
5.0
 40
5.0
 40
6.0
 40
6.0
 40
6.0
 40
7.0
 40
7.0
 40
7.0
 40
8.0
 40
8.0
 40
8.0
 40
9.0
 40
9.0
 40
9.0
 40
10.0
 40
10.0
 40
10.0
 40
10.0
 10
743.5297463577
 20
25.3910661661
 30
0.0
 10
743.5297463577
 20
25.3910661661
 30
0.0
 10
743.5297463577
 20
24.7289508869
 30
0.0
 10
743.5297463577
 20
24.7289508869
 30
0.0
 10
743.5297463577
 20
24.4138572916
 30
0.0
 10
743.6776100465
 20
24.1992586636
 30
0.0
 10
744.0176965308
 20
24.1992586636
 30
0.0
 10
744.3572596038
 20
24.1992586636
 30
0.0
 10
744.5053849983
 20
24.4138572916
 30
0.0
 10
744.5053849983
 20
24.7289508869
 30
0.0
 10
744.5053849983
 20
24.7289508869
 30
0.0
 10
744.5053849983
 20
25.3910661661
 30
0.0
 10
744.5053849983
 20
25.3910661661
 30
0.0
 10
744.5053849983
 20
25.3910661661
 30
0.0
 10
744.2833277594
 20
25.3910661661
 30
0.0
 10
744.2833277594
 20
25.3910661661
 30
0.0
 10
744.2833277594
 20
25.3910661661
 30
0.0
 10
744.2833277594
 20
24.7540746288
 30
0.0
 10
744.2833277594
 20
24.7540746288
 30
0.0
 10
744.2833277594
 20
24.5682636216
 30
0.0
 10
744.236613302
 20
24.405482711
 30
0.0
 10
744.0176965308
 20
24.405482711
 30
0.0
 10
743.7982563484
 20
24.405482711
 30
0.0
 10
743.7515418909
 20
24.5682636216
 30
0.0
 10
743.7515418909
 20
24.7540746288
 30
0.0
 10
743.7515418909
 20
24.7540746288
 30
0.0
 10
743.7515418909
 20
25.3910661661
 30
0.0
 10
743.7515418909
 20
25.3910661661
 30
0.0
 10
743.7515418909
 20
25.3910661661
 30
0.0
 10
743.5297463577
 20
25.3910661661
 30
0.0
 10
743.5297463577
 20
25.3910661661
 30
0.0
  0
SPLINE
  5
242
330
229
100
AcDbEntity
  8
0
  6
Continuous
 62
     7
100
AcDbSpline
 70
     3
 71
     3
 72
    35
 73
    31
 74
     0
 42
0.000000001
 43
0.0000001
 40
0.0
 40
0.0
 40
0.0
 40
0.0
 40
1.0
 40
1.0
 40
1.0
 40
2.0
 40
2.0
 40
2.0
 40
3.0
 40
3.0
 40
3.0
 40
4.0
 40
4.0
 40
4.0
 40
5.0
 40
5.0
 40
5.0
 40
6.0
 40
6.0
 40
6.0
 40
7.0
 40
7.0
 40
7.0
 40
8.0
 40
8.0
 40
8.0
 40
9.0
 40
9.0
 40
9.0
 40
10.0
 40
10.0
 40
10.0
 40
10.0
 10
746.9285175555
 20
25.3497166744
 30
0.0
 10
746.8400610478
 20
25.4010109806
 30
0.0
 10
746.7266116512
 20
25.4261347224
 30
0.0
 10
746.6229762162
 20
25.4261347224
 30
0.0
 10
746.268103363
 20
25.4261347224
 30
0.0
 10
745.9926581728
 20
25.1623354333
 30
0.0
 10
745.9926581728
 20
24.8048455237
 30
0.0
 10
745.9926581728
 20
24.459917485
 30
0.0
 10
746.2711129779
 20
24.1997820749
 30
0.0
 10
746.6106760509
 20
24.1997820749
 30
0.0
 10
746.7266116512
 20
24.1997820749
 30
0.0
 10
746.8273683241
 20
24.221765349
 30
0.0
 10
746.9285175555
 20
24.2756767116
 30
0.0
 10
746.9285175555
 20
24.2756767116
 30
0.0
 10
746.9285175555
 20
24.5583188071
 30
0.0
 10
746.9285175555
 20
24.5583188071
 30
0.0
 10
746.8446408966
 20
24.4651515979
 30
0.0
 10
746.7411363144
 20
24.4060061223
 30
0.0
 10
746.6130314017
 20
24.4060061223
 30
0.0
 10
746.3793282617
 20
24.4060061223
 30
0.0
 10
746.2140611475
 20
24.578208436
 30
0.0
 10
746.2140611475
 20
24.8147903382
 30
0.0
 10
746.2140611475
 20
25.0267719097
 30
0.0
 10
746.3818144653
 20
25.2188638524
 30
0.0
 10
746.5986375913
 20
25.2188638524
 30
0.0
 10
746.7314532056
 20
25.2188638524
 30
0.0
 10
746.8400610478
 20
25.1649524897
 30
0.0
 10
746.9285175555
 20
25.0639341112
 30
0.0
 10
746.9285175555
 20
25.0639341112
 30
0.0
 10
746.9285175555
 20
25.3497166744
 30
0.0
 10
746.9285175555
 20
25.3497166744
 30
0.0
  0
SPLINE
  5
243
330
229
100
AcDbEntity
  8
0
  6
Continuous
 62
     7
100
AcDbSpline
 70
     3
 71
     3
 72
    32
 73
    28
 74
     0
 42
0.000000001
 43
0.0000001
 40
0.0
 40
0.0
 40
0.0
 40
0.0
 40
1.0
 40
1.0
 40
1.0
 40
2.0
 40
2.0
 40
2.0
 40
3.0
 40
3.0
 40
3.0
 40
4.0
 40
4.0
 40
4.0
 40
5.0
 40
5.0
 40
5.0
 40
6.0
 40
6.0
 40
6.0
 40
7.0
 40
7.0
 40
7.0
 40
8.0
 40
8.0
 40
8.0
 40
9.0
 40
9.0
 40
9.0
 40
9.0
 10
749.4603888077
 20
24.778151548
 30
0.0
 10
749.4603888077
 20
24.778151548
 30
0.0
 10
749.4603888077
 20
24.8121732817
 30
0.0
 10
749.4603888077
 20
24.8121732817
 30
0.0
 10
749.4603888077
 20
25.154484264
 30
0.0
 10
749.2875322299
 20
25.4261347224
 30
0.0
 10
748.9208826228
 20
25.4261347224
 30
0.0
 10
748.5492606084
 20
25.4261347224
 30
0.0
 10
748.3595240165
 20
25.1597183769
 30
0.0
 10
748.3595240165
 20
24.8048455237
 30
0.0
 10
748.3595240165
 20
24.4651515979
 30
0.0
 10
748.5735992333
 20
24.1992586636
 30
0.0
 10
748.9257241772
 20
24.1992586636
 30
0.0
 10
749.1497442084
 20
24.1992586636
 30
0.0
 10
749.3519118183
 20
24.3149325582
 30
0.0
 10
749.4603888077
 20
24.5143522589
 30
0.0
 10
749.4603888077
 20
24.5143522589
 30
0.0
 10
749.272745861
 20
24.6211281616
 30
0.0
 10
749.272745861
 20
24.6211281616
 30
0.0
 10
749.1892617606
 20
24.4824241704
 30
0.0
 10
749.0980573437
 20
24.3965847191
 30
0.0
 10
748.9284720864
 20
24.3965847191
 30
0.0
 10
748.7164905148
 20
24.3965847191
 30
0.0
 10
748.5835440477
 20
24.5813489038
 30
0.0
 10
748.5811886969
 20
24.778151548
 30
0.0
 10
748.5811886969
 20
24.778151548
 30
0.0
 10
749.4603888077
 20
24.778151548
 30
0.0
 10
749.4603888077
 20
24.778151548
 30
0.0
  0
SPLINE
  5
244
330
229
100
AcDbEntity
  8
0
  6
Continuous
 62
     7
100
AcDbSpline
 70
     3
 71
     3
 72
    14
 73
    10
 74
     0
 42
0.000000001
 43
0.0000001
 40
0.0
 40
0.0
 40
0.0
 40
0.0
 40
1.0
 40
1.0
 40
1.0
 40
2.0
 40
2.0
 40
2.0
 40
3.0
 40
3.0
 40
3.0
 40
3.0
 10
748.5932271565
 20
24.9456431601
 30
0.0
 10
748.620837102
 20
25.1105177158
 30
0.0
 10
748.748680309
 20
25.2335193685
 30
0.0
 10
748.9208826228
 20
25.2335193685
 30
0.0
 10
749.0980573437
 20
25.2335193685
 30
0.0
 10
749.2115067403
 20
25.1178454738
 30
0.0
 10
749.2387241273
 20
24.9456431601
 30
0.0
 10
749.2387241273
 20
24.9456431601
 30
0.0
 10
748.5932271565
 20
24.9456431601
 30
0.0
 10
748.5932271565
 20
24.9456431601
 30
0.0
  0
SPLINE
  5
245
330
229
100
AcDbEntity
  8
0
  6
Continuous
 62
     7
100
AcDbSpline
 70
     3
 71
     3
 72
    20
 73
    16
 74
     0
 42
0.000000001
 43
0.0000001
 40
0.0
 40
0.0
 40
0.0
 40
0.0
 40
1.0
 40
1.0
 40
1.0
 40
2.0
 40
2.0
 40
2.0
 40
3.0
 40
3.0
 40
3.0
 40
4.0
 40
4.0
 40
4.0
 40
5.0
 40
5.0
 40
5.0
 40
5.0
 10
751.4844202579
 20
25.1550076753
 30
0.0
 10
751.4844202579
 20
25.1550076753
 30
0.0
 10
751.8955598245
 20
24.6525328389
 30
0.0
 10
751.8955598245
 20
24.6525328389
 30
0.0
 10
751.7794933715
 20
24.5368589443
 30
0.0
 10
751.6417053499
 20
24.4065295336
 30
0.0
 10
751.4697647419
 20
24.4065295336
 30
0.0
 10
751.2923283153
 20
24.4065295336
 30
0.0
 10
751.1248367032
 20
24.570880678
 30
0.0
 10
751.1248367032
 20
24.7477936933
 30
0.0
 10
751.1248367032
 20
24.9257535312
 30
0.0
 10
751.3345937768
 20
25.0518956516
 30
0.0
 10
751.4621752782
 20
25.1398287479
 30
0.0
 10
751.4621752782
 20
25.1398287479
 30
0.0
 10
751.4844202579
 20
25.1550076753
 30
0.0
 10
751.4844202579
 20
25.1550076753
 30
0.0
  0
SPLINE
  5
246
330
229
100
AcDbEntity
  8
0
  6
Continuous
 62
     7
100
AcDbSpline
 70
     3
 71
     3
 72
    23
 73
    19
 74
     0
 42
0.000000001
 43
0.0000001
 40
0.0
 40
0.0
 40
0.0
 40
0.0
 40
1.0
 40
1.0
 40
1.0
 40
2.0
 40
2.0
 40
2.0
 40
3.0
 40
3.0
 40
3.0
 40
4.0
 40
4.0
 40
4.0
 40
5.0
 40
5.0
 40
5.0
 40
6.0
 40
6.0
 40
6.0
 40
6.0
 10
751.5337517718
 20
25.4460243513
 30
0.0
 10
751.5337517718
 20
25.4460243513
 30
0.0
 10
751.4721200927
 20
25.5245360445
 30
0.0
 10
751.4721200927
 20
25.5245360445
 30
0.0
 10
751.41820873
 20
25.5931029232
 30
0.0
 10
751.3614186053
 20
25.6621932132
 30
0.0
 10
751.3614186053
 20
25.7558838337
 30
0.0
 10
751.3614186053
 20
25.8746981961
 30
0.0
 10
751.4573337238
 20
25.9521630667
 30
0.0
 10
751.5682969168
 20
25.9521630667
 30
0.0
 10
751.6915602751
 20
25.9521630667
 30
0.0
 10
751.7848583372
 20
25.8809791315
 30
0.0
 10
751.7848583372
 20
25.7506497209
 30
0.0
 10
751.7848583372
 20
25.6156096086
 30
0.0
 10
751.6567534244
 20
25.5391915606
 30
0.0
 10
751.5631936567
 20
25.465390569
 30
0.0
 10
751.5631936567
 20
25.465390569
 30
0.0
 10
751.5337517718
 20
25.4460243513
 30
0.0
 10
751.5337517718
 20
25.4460243513
 30
0.0
  0
SPLINE
  5
247
330
229
100
AcDbEntity
  8
0
  6
Continuous
 62
     7
100
AcDbSpline
 70
     3
 71
     3
 72
    50
 73
    46
 74
     0
 42
0.000000001
 43
0.0000001
 40
0.0
 40
0.0
 40
0.0
 40
0.0
 40
1.0
 40
1.0
 40
1.0
 40
2.0
 40
2.0
 40
2.0
 40
3.0
 40
3.0
 40
3.0
 40
4.0
 40
4.0
 40
4.0
 40
5.0
 40
5.0
 40
5.0
 40
6.0
 40
6.0
 40
6.0
 40
7.0
 40
7.0
 40
7.0
 40
8.0
 40
8.0
 40
8.0
 40
9.0
 40
9.0
 40
9.0
 40
10.0
 40
10.0
 40
10.0
 40
11.0
 40
11.0
 40
11.0
 40
12.0
 40
12.0
 40
12.0
 40
13.0
 40
13.0
 40
13.0
 40
14.0
 40
14.0
 40
14.0
 40
15.0
 40
15.0
 40
15.0
 40
15.0
 10
752.2359080145
 20
24.2390379215
 30
0.0
 10
752.2359080145
 20
24.2390379215
 30
0.0
 10
752.5212980192
 20
24.2390379215
 30
0.0
 10
752.5212980192
 20
24.2390379215
 30
0.0
 10
752.5212980192
 20
24.2390379215
 30
0.0
 10
752.1889318514
 20
24.6499157825
 30
0.0
 10
752.1889318514
 20
24.6499157825
 30
0.0
 10
752.1889318514
 20
24.6499157825
 30
0.0
 10
752.4154380862
 20
24.9158087167
 30
0.0
 10
752.4154380862
 20
24.9158087167
 30
0.0
 10
752.4154380862
 20
24.9158087167
 30
0.0
 10
752.2671818389
 20
25.0686448128
 30
0.0
 10
752.2671818389
 20
25.0686448128
 30
0.0
 10
752.2671818389
 20
25.0686448128
 30
0.0
 10
752.0512746827
 20
24.8174073946
 30
0.0
 10
752.0512746827
 20
24.8174073946
 30
0.0
 10
752.0512746827
 20
24.8174073946
 30
0.0
 10
751.6642120353
 20
25.2853370859
 30
0.0
 10
751.6642120353
 20
25.2853370859
 30
0.0
 10
751.8196651878
 20
25.3994407467
 30
0.0
 10
752.0019431688
 20
25.5391915606
 30
0.0
 10
752.0019431688
 20
25.7485560757
 30
0.0
 10
752.0019431688
 20
25.9924657359
 30
0.0
 10
751.7999064117
 20
26.1358804287
 30
0.0
 10
751.5734001769
 20
26.1358804287
 30
0.0
 10
751.3292288111
 20
26.1358804287
 30
0.0
 10
751.1448571849
 20
25.9851379778
 30
0.0
 10
751.1448571849
 20
25.7286664468
 30
0.0
 10
751.1448571849
 20
25.5711196491
 30
0.0
 10
751.2435202127
 20
25.4334624804
 30
0.0
 10
751.3488567344
 20
25.3224992874
 30
0.0
 10
751.3488567344
 20
25.3224992874
 30
0.0
 10
751.2333136926
 20
25.2387534813
 30
0.0
 10
751.2333136926
 20
25.2387534813
 30
0.0
 10
751.0556155603
 20
25.1105177158
 30
0.0
 10
750.9082752828
 20
24.9828053616
 30
0.0
 10
750.9082752828
 20
24.7457000482
 30
0.0
 10
750.9082752828
 20
24.42537234
 30
0.0
 10
751.166840459
 20
24.1992586636
 30
0.0
 10
751.4772233527
 20
24.1992586636
 30
0.0
 10
751.6961401239
 20
24.1992586636
 30
0.0
 10
751.8933353266
 20
24.3243539614
 30
0.0
 10
752.0336095517
 20
24.4902753397
 30
0.0
 10
752.0336095517
 20
24.4902753397
 30
0.0
 10
752.2359080145
 20
24.2390379215
 30
0.0
 10
752.2359080145
 20
24.2390379215
 30
0.0
  0
LWPOLYLINE
  5
248
330
229
100
AcDbEntity
  8
0
  6
Continuous
 62
     7
100
AcDbPolyline
 90
        2
 70
     0
 43
0.2
 10
754.171352
 20
26.095578
 10
753.940004
 20
26.095578
  0
LWPOLYLINE
  5
249
330
229
100
AcDbEntity
  8
0
  6
Continuous
 62
     7
100
AcDbPolyline
 90
        2
 70
     0
 43
0.2
 10
753.940004
 20
26.095578
 10
753.940004
 20
24.238515
  0
LWPOLYLINE
  5
24A
330
229
100
AcDbEntity
  8
0
  6
Continuous
 62
     7
100
AcDbPolyline
 90
        2
 70
     0
 43
0.2
 10
753.940004
 20
24.238515
 10
754.735328
 20
24.238515
  0
LWPOLYLINE
  5
24B
330
229
100
AcDbEntity
  8
0
  6
Continuous
 62
     7
100
AcDbPolyline
 90
        2
 70
     0
 43
0.2
 10
754.735328
 20
24.238515
 10
754.735328
 20
24.450496
  0
LWPOLYLINE
  5
24C
330
229
100
AcDbEntity
  8
0
  6
Continuous
 62
     7
100
AcDbPolyline
 90
        2
 70
     0
 43
0.2
 10
754.735328
 20
24.450496
 10
754.171352
 20
24.450496
  0
LWPOLYLINE
  5
24D
330
229
100
AcDbEntity
  8
0
  6
Continuous
 62
     7
100
AcDbPolyline
 90
        2
 70
     0
 43
0.2
 10
754.171352
 20
24.450496
 10
754.171352
 20
26.095578
  0
LWPOLYLINE
  5
24E
330
229
100
AcDbEntity
  8
0
  6
Continuous
 62
     7
100
AcDbPolyline
 90
        2
 70
     0
 43
0.2
 10
756.414431
 20
25.391066
 10
756.19329
 20
25.391066
  0
LWPOLYLINE
  5
24F
330
229
100
AcDbEntity
  8
0
  6
Continuous
 62
     7
100
AcDbPolyline
 90
        2
 70
     0
 43
0.2
 10
756.19329
 20
25.391066
 10
756.19329
 20
24.239038
  0
LWPOLYLINE
  5
250
330
229
100
AcDbEntity
  8
0
  6
Continuous
 62
     7
100
AcDbPolyline
 90
        2
 70
     0
 43
0.2
 10
756.19329
 20
24.239038
 10
756.414431
 20
24.239038
  0
LWPOLYLINE
  5
251
330
229
100
AcDbEntity
  8
0
  6
Continuous
 62
     7
100
AcDbPolyline
 90
        2
 70
     0
 43
0.2
 10
756.414431
 20
24.239038
 10
756.414431
 20
25.391066
  0
LWPOLYLINE
  5
252
330
229
100
AcDbEntity
  8
0
  6
Continuous
 62
     7
100
AcDbPolyline
 90
        2
 70
     1
 43
0.2
 10
756.151408
 20
25.92102
 42
1.0
 10
756.456575
 20
25.92102
 42
1.0
  0
SPLINE
  5
253
330
229
100
AcDbEntity
  8
0
  6
Continuous
 62
     7
100
AcDbSpline
 70
     3
 71
     3
 72
    17
 73
    13
 74
     0
 42
0.000000001
 43
0.0000001
 40
0.0
 40
0.0
 40
0.0
 40
0.0
 40
1.0
 40
1.0
 40
1.0
 40
2.0
 40
2.0
 40
2.0
 40
3.0
 40
3.0
 40
3.0
 40
4.0
 40
4.0
 40
4.0
 40
4.0
 10
758.54471512
 20
24.3965847191
 30
0.0
 10
758.3107502743
 20
24.3965847191
 30
0.0
 10
758.1804208636
 20
24.5986214763
 30
0.0
 10
758.1804208636
 20
24.8147903382
 30
0.0
 10
758.1804208636
 20
25.0293889662
 30
0.0
 10
758.3162460928
 20
25.2282852556
 30
0.0
 10
758.54471512
 20
25.2282852556
 30
0.0
 10
758.7841757842
 20
25.2282852556
 30
0.0
 10
758.9197393078
 20
25.0393337807
 30
0.0
 10
758.9197393078
 20
24.8147903382
 30
0.0
 10
758.9197393078
 20
24.5886766618
 30
0.0
 10
758.786531135
 20
24.3965847191
 30
0.0
 10
758.54471512
 20
24.3965847191
 30
0.0
  0
SPLINE
  5
254
330
229
100
AcDbEntity
  8
0
  6
Continuous
 62
     7
100
AcDbSpline
 70
     3
 71
     3
 72
    50
 73
    46
 74
     0
 42
0.000000001
 43
0.0000001
 40
0.0
 40
0.0
 40
0.0
 40
0.0
 40
1.0
 40
1.0
 40
1.0
 40
2.0
 40
2.0
 40
2.0
 40
3.0
 40
3.0
 40
3.0
 40
4.0
 40
4.0
 40
4.0
 40
5.0
 40
5.0
 40
5.0
 40
6.0
 40
6.0
 40
6.0
 40
7.0
 40
7.0
 40
7.0
 40
8.0
 40
8.0
 40
8.0
 40
9.0
 40
9.0
 40
9.0
 40
10.0
 40
10.0
 40
10.0
 40
11.0
 40
11.0
 40
11.0
 40
12.0
 40
12.0
 40
12.0
 40
13.0
 40
13.0
 40
13.0
 40
14.0
 40
14.0
 40
14.0
 40
15.0
 40
15.0
 40
15.0
 40
15.0
 10
759.1288421173
 20
25.3915895774
 30
0.0
 10
759.1288421173
 20
25.3915895774
 30
0.0
 10
758.9071774368
 20
25.3915895774
 30
0.0
 10
758.9071774368
 20
25.3915895774
 30
0.0
 10
758.9071774368
 20
25.3915895774
 30
0.0
 10
758.9071774368
 20
25.1942635219
 30
0.0
 10
758.9071774368
 20
25.1942635219
 30
0.0
 10
758.9071774368
 20
25.1942635219
 30
0.0
 10
758.9024667353
 20
25.1942635219
 30
0.0
 10
758.9024667353
 20
25.1942635219
 30
0.0
 10
758.8111314655
 20
25.3371548034
 30
0.0
 10
758.6732125912
 20
25.4256113111
 30
0.0
 10
758.5004868662
 20
25.4256113111
 30
0.0
 10
758.1681206984
 20
25.4256113111
 30
0.0
 10
757.9590178889
 20
25.1377351028
 30
0.0
 10
757.9590178889
 20
24.8221180962
 30
0.0
 10
757.9590178889
 20
24.4923689848
 30
0.0
 10
758.1560822388
 20
24.1992586636
 30
0.0
 10
758.5109550919
 20
24.1992586636
 30
0.0
 10
758.6732125912
 20
24.1992586636
 30
0.0
 10
758.8132251107
 20
24.2877151713
 30
0.0
 10
758.9024667353
 20
24.4185679932
 30
0.0
 10
758.9024667353
 20
24.4185679932
 30
0.0
 10
758.9071774368
 20
24.4185679932
 30
0.0
 10
758.9071774368
 20
24.4185679932
 30
0.0
 10
758.9071774368
 20
24.4185679932
 30
0.0
 10
758.9071774368
 20
24.1992586636
 30
0.0
 10
758.9071774368
 20
24.1992586636
 30
0.0
 10
758.9071774368
 20
23.9626767615
 30
0.0
 10
758.8506490178
 20
23.7758189317
 30
0.0
 10
758.5774283255
 20
23.7758189317
 30
0.0
 10
758.3751298627
 20
23.7758189317
 30
0.0
 10
758.2325002868
 20
23.8941098828
 30
0.0
 10
758.2325002868
 20
24.1003339302
 30
0.0
 10
758.2325002868
 20
24.1003339302
 30
0.0
 10
758.0108356064
 20
24.1003339302
 30
0.0
 10
758.0108356064
 20
24.1003339302
 30
0.0
 10
758.0158080136
 20
23.7758189317
 30
0.0
 10
758.2468940972
 20
23.5790162875
 30
0.0
 10
758.5672218054
 20
23.5790162875
 30
0.0
 10
759.0152618678
 20
23.5790162875
 30
0.0
 10
759.1288421173
 20
23.8642754394
 30
0.0
 10
759.1288421173
 20
24.2610211956
 30
0.0
 10
759.1288421173
 20
24.2610211956
 30
0.0
 10
759.1288421173
 20
25.3915895774
 30
0.0
 10
759.1288421173
 20
25.3915895774
 30
0.0
  0
SPLINE
  5
255
330
229
100
AcDbEntity
  8
0
  6
Continuous
 62
     7
100
AcDbSpline
 70
     3
 71
     3
 72
    44
 73
    40
 74
     0
 42
0.000000001
 43
0.0000001
 40
0.0
 40
0.0
 40
0.0
 40
0.0
 40
1.0
 40
1.0
 40
1.0
 40
2.0
 40
2.0
 40
2.0
 40
3.0
 40
3.0
 40
3.0
 40
4.0
 40
4.0
 40
4.0
 40
5.0
 40
5.0
 40
5.0
 40
6.0
 40
6.0
 40
6.0
 40
7.0
 40
7.0
 40
7.0
 40
8.0
 40
8.0
 40
8.0
 40
9.0
 40
9.0
 40
9.0
 40
10.0
 40
10.0
 40
10.0
 40
11.0
 40
11.0
 40
11.0
 40
12.0
 40
12.0
 40
12.0
 40
13.0
 40
13.0
 40
13.0
 40
13.0
 10
760.6977674527
 20
26.3766496212
 30
0.0
 10
760.6977674527
 20
26.3766496212
 30
0.0
 10
760.6977674527
 20
24.2385145102
 30
0.0
 10
760.6977674527
 20
24.2385145102
 30
0.0
 10
760.6977674527
 20
24.2385145102
 30
0.0
 10
760.9191704274
 20
24.2385145102
 30
0.0
 10
760.9191704274
 20
24.2385145102
 30
0.0
 10
760.9191704274
 20
24.2385145102
 30
0.0
 10
760.9191704274
 20
24.7682067335
 30
0.0
 10
760.9191704274
 20
24.7682067335
 30
0.0
 10
760.9191704274
 20
24.97809466
 30
0.0
 10
760.9191704274
 20
25.2288086669
 30
0.0
 10
761.2044295793
 20
25.2288086669
 30
0.0
 10
761.4313283726
 20
25.2288086669
 30
0.0
 10
761.4582840539
 20
25.0958621997
 30
0.0
 10
761.4582840539
 20
24.8995829668
 30
0.0
 10
761.4582840539
 20
24.8995829668
 30
0.0
 10
761.4582840539
 20
24.2385145102
 30
0.0
 10
761.4582840539
 20
24.2385145102
 30
0.0
 10
761.4582840539
 20
24.2385145102
 30
0.0
 10
761.68021044
 20
24.2385145102
 30
0.0
 10
761.68021044
 20
24.2385145102
 30
0.0
 10
761.68021044
 20
24.2385145102
 30
0.0
 10
761.68021044
 20
24.9257535312
 30
0.0
 10
761.68021044
 20
24.9257535312
 30
0.0
 10
761.68021044
 20
25.2063019815
 30
0.0
 10
761.5962029283
 20
25.4261347224
 30
0.0
 10
761.2711645185
 20
25.4261347224
 30
0.0
 10
761.1314137047
 20
25.4261347224
 30
0.0
 10
760.9932331247
 20
25.3596614888
 30
0.0
 10
760.923881129
 20
25.2366598362
 30
0.0
 10
760.923881129
 20
25.2366598362
 30
0.0
 10
760.9191704274
 20
25.2366598362
 30
0.0
 10
760.9191704274
 20
25.2366598362
 30
0.0
 10
760.9191704274
 20
25.2366598362
 30
0.0
 10
760.9191704274
 20
26.3766496212
 30
0.0
 10
760.9191704274
 20
26.3766496212
 30
0.0
 10
760.9191704274
 20
26.3766496212
 30
0.0
 10
760.6977674527
 20
26.3766496212
 30
0.0
 10
760.6977674527
 20
26.3766496212
 30
0.0
  0
LWPOLYLINE
  5
256
330
229
100
AcDbEntity
  8
0
  6
Continuous
 62
     7
100
AcDbPolyline
 90
        2
 70
     0
 43
0.2
 10
763.520001
 20
25.184319
 10
763.736432
 20
25.184319
  0
LWPOLYLINE
  5
257
330
229
100
AcDbEntity
  8
0
  6
Continuous
 62
     7
100
AcDbPolyline
 90
        2
 70
     0
 43
0.2
 10
763.736432
 20
25.184319
 10
763.736432
 20
25.391066
  0
LWPOLYLINE
  5
258
330
229
100
AcDbEntity
  8
0
  6
Continuous
 62
     7
100
AcDbPolyline
 90
        2
 70
     0
 43
0.2
 10
763.736432
 20
25.391066
 10
763.520001
 20
25.391066
  0
LWPOLYLINE
  5
259
330
229
100
AcDbEntity
  8
0
  6
Continuous
 62
     7
100
AcDbPolyline
 90
        2
 70
     0
 43
0.2
 10
763.520001
 20
25.391066
 10
763.520001
 20
25.831778
  0
LWPOLYLINE
  5
25A
330
229
100
AcDbEntity
  8
0
  6
Continuous
 62
     7
100
AcDbPolyline
 90
        2
 70
     0
 43
0.2
 10
763.520001
 20
25.831778
 10
763.298336
 20
25.831778
  0
LWPOLYLINE
  5
25B
330
229
100
AcDbEntity
  8
0
  6
Continuous
 62
     7
100
AcDbPolyline
 90
        2
 70
     0
 43
0.2
 10
763.298336
 20
25.831778
 10
763.298336
 20
25.391066
  0
LWPOLYLINE
  5
25C
330
229
100
AcDbEntity
  8
0
  6
Continuous
 62
     7
100
AcDbPolyline
 90
        2
 70
     0
 43
0.2
 10
763.298336
 20
25.391066
 10
763.17769
 20
25.391066
  0
LWPOLYLINE
  5
25D
330
229
100
AcDbEntity
  8
0
  6
Continuous
 62
     7
100
AcDbPolyline
 90
        2
 70
     0
 43
0.2
 10
763.17769
 20
25.391066
 10
763.17769
 20
25.184319
  0
LWPOLYLINE
  5
25E
330
229
100
AcDbEntity
  8
0
  6
Continuous
 62
     7
100
AcDbPolyline
 90
        2
 70
     0
 43
0.2
 10
763.17769
 20
25.184319
 10
763.298336
 20
25.184319
  0
LWPOLYLINE
  5
25F
330
229
100
AcDbEntity
  8
0
  6
Continuous
 62
     7
100
AcDbPolyline
 90
        2
 70
     0
 43
0.2
 10
763.298336
 20
25.184319
 10
763.298336
 20
24.238515
  0
LWPOLYLINE
  5
260
330
229
100
AcDbEntity
  8
0
  6
Continuous
 62
     7
100
AcDbPolyline
 90
        2
 70
     0
 43
0.2
 10
763.298336
 20
24.238515
 10
763.520001
 20
24.238515
  0
LWPOLYLINE
  5
261
330
229
100
AcDbEntity
  8
0
  6
Continuous
 62
     7
100
AcDbPolyline
 90
        2
 70
     0
 43
0.2
 10
763.520001
 20
24.238515
 10
763.520001
 20
25.184319
  0
SPLINE
  5
262
330
229
100
AcDbEntity
  8
0
  6
Continuous
 62
     7
100
AcDbSpline
 70
     3
 71
     3
 72
    20
 73
    16
 74
     0
 42
0.000000001
 43
0.0000001
 40
0.0
 40
0.0
 40
0.0
 40
0.0
 40
1.0
 40
1.0
 40
1.0
 40
2.0
 40
2.0
 40
2.0
 40
3.0
 40
3.0
 40
3.0
 40
4.0
 40
4.0
 40
4.0
 40
5.0
 40
5.0
 40
5.0
 40
5.0
 10
751.3020114241
 20
34.5994409536
 30
0.0
 10
751.3020114241
 20
34.5994409536
 30
0.0
 10
753.6183680786
 20
31.7698795314
 30
0.0
 10
753.6183680786
 20
31.7698795314
 30
0.0
 10
752.9667210252
 20
31.1177090667
 30
0.0
 10
752.1898478211
 20
30.3817927959
 30
0.0
 10
751.2186581765
 20
30.3817927959
 30
0.0
 10
750.2201202921
 20
30.3817927959
 30
0.0
 10
749.2768022985
 20
31.3113712432
 30
0.0
 10
749.2768022985
 20
32.3105633917
 30
0.0
 10
749.2768022985
 20
33.3097555403
 30
0.0
 10
750.4556553716
 20
34.0163607789
 30
0.0
 10
751.1771778319
 20
34.5162185588
 30
0.0
 10
751.1771778319
 20
34.5162185588
 30
0.0
 10
751.3020114241
 20
34.5994409536
 30
0.0
 10
751.3020114241
 20
34.5994409536
 30
0.0
  0
SPLINE
  5
263
330
229
100
AcDbEntity
  8
0
  6
Continuous
 62
     7
100
AcDbSpline
 70
     3
 71
     3
 72
    23
 73
    19
 74
     0
 42
0.000000001
 43
0.0000001
 40
0.0
 40
0.0
 40
0.0
 40
0.0
 40
1.0
 40
1.0
 40
1.0
 40
2.0
 40
2.0
 40
2.0
 40
3.0
 40
3.0
 40
3.0
 40
4.0
 40
4.0
 40
4.0
 40
5.0
 40
5.0
 40
5.0
 40
6.0
 40
6.0
 40
6.0
 40
6.0
 10
751.5794194067
 20
36.2371948733
 30
0.0
 10
751.5794194067
 20
36.2371948733
 30
0.0
 10
751.2329211341
 20
36.6805242342
 30
0.0
 10
751.2329211341
 20
36.6805242342
 30
0.0
 10
750.9271180892
 20
37.0686337041
 30
0.0
 10
750.608229762
 20
37.4571357325
 30
0.0
 10
750.608229762
 20
37.9840800466
 30
0.0
 10
750.608229762
 20
38.6502517632
 30
0.0
 10
751.1495678865
 20
39.0939736825
 30
0.0
 10
751.7734741416
 20
39.0939736825
 30
0.0
 10
752.4672558037
 20
39.0939736825
 30
0.0
 10
752.9944618234
 20
38.6917321078
 30
0.0
 10
752.9944618234
 20
37.9567318068
 30
0.0
 10
752.9944618234
 20
37.1934672963
 30
0.0
 10
752.2732010687
 20
36.7633540705
 30
0.0
 10
751.7461259019
 20
36.3476346551
 30
0.0
 10
751.7461259019
 20
36.3476346551
 30
0.0
 10
751.5794194067
 20
36.2371948733
 30
0.0
 10
751.5794194067
 20
36.2371948733
 30
0.0
  0
SPLINE
  5
264
330
229
100
AcDbEntity
  8
0
  6
Continuous
 62
     7
100
AcDbSpline
 70
     3
 71
     3
 72
    50
 73
    46
 74
     0
 42
0.000000001
 43
0.0000001
 40
0.0
 40
0.0
 40
0.0
 40
0.0
 40
1.0
 40
1.0
 40
1.0
 40
2.0
 40
2.0
 40
2.0
 40
3.0
 40
3.0
 40
3.0
 40
4.0
 40
4.0
 40
4.0
 40
5.0
 40
5.0
 40
5.0
 40
6.0
 40
6.0
 40
6.0
 40
7.0
 40
7.0
 40
7.0
 40
8.0
 40
8.0
 40
8.0
 40
9.0
 40
9.0
 40
9.0
 40
10.0
 40
10.0
 40
10.0
 40
11.0
 40
11.0
 40
11.0
 40
12.0
 40
12.0
 40
12.0
 40
13.0
 40
13.0
 40
13.0
 40
14.0
 40
14.0
 40
14.0
 40
15.0
 40
15.0
 40
15.0
 40
15.0
 10
755.5330065696
 20
29.4386056552
 30
0.0
 10
755.5330065696
 20
29.4386056552
 30
0.0
 10
757.1422345742
 20
29.4386056552
 30
0.0
 10
757.1422345742
 20
29.4386056552
 30
0.0
 10
757.1422345742
 20
29.4386056552
 30
0.0
 10
755.2692072805
 20
31.7557474266
 30
0.0
 10
755.2692072805
 20
31.7557474266
 30
0.0
 10
755.2692072805
 20
31.7557474266
 30
0.0
 10
756.545545706
 20
33.2532271212
 30
0.0
 10
756.545545706
 20
33.2532271212
 30
0.0
 10
756.545545706
 20
33.2532271212
 30
0.0
 10
755.7133217583
 20
34.1142386897
 30
0.0
 10
755.7133217583
 20
34.1142386897
 30
0.0
 10
755.7133217583
 20
34.1142386897
 30
0.0
 10
754.492726635
 20
32.6989345673
 30
0.0
 10
754.492726635
 20
32.6989345673
 30
0.0
 10
754.492726635
 20
32.6989345673
 30
0.0
 10
752.3148122661
 20
35.3343104018
 30
0.0
 10
752.3148122661
 20
35.3343104018
 30
0.0
 10
753.1883857056
 20
35.9723487617
 30
0.0
 10
754.2150569467
 20
36.7633540705
 30
0.0
 10
754.2150569467
 20
37.9422071436
 30
0.0
 10
754.2150569467
 20
39.3159000686
 30
0.0
 10
753.0771608069
 20
40.1203832181
 30
0.0
 10
751.801869204
 20
40.1203832181
 30
0.0
 10
750.4284379846
 20
40.1203832181
 30
0.0
 10
749.3875037859
 20
39.2741580184
 30
0.0
 10
749.3875037859
 20
37.8315056562
 30
0.0
 10
749.3875037859
 20
36.9439309648
 30
0.0
 10
749.9428431623
 20
36.1670577608
 30
0.0
 10
750.5390086192
 20
35.5426280943
 30
0.0
 10
750.5390086192
 20
35.5426280943
 30
0.0
 10
749.8870998602
 20
35.071034524
 30
0.0
 10
749.8870998602
 20
35.071034524
 30
0.0
 10
748.8885619757
 20
34.3497737693
 30
0.0
 10
748.0556837639
 20
33.6285130146
 30
0.0
 10
748.0556837639
 20
32.2969546983
 30
0.0
 10
748.0556837639
 20
30.4932794003
 30
0.0
 10
749.5127299365
 20
29.2166792691
 30
0.0
 10
751.2602693739
 20
29.2166792691
 30
0.0
 10
752.4951274548
 20
29.2166792691
 30
0.0
 10
753.6044976794
 20
29.9248547416
 30
0.0
 10
754.3953721354
 20
30.8533863663
 30
0.0
 10
754.3953721354
 20
30.8533863663
 30
0.0
 10
755.5330065696
 20
29.4386056552
 30
0.0
 10
755.5330065696
 20
29.4386056552
 30
0.0
  0
LINE
  5
265
330
229
100
AcDbEntity
  8
0
  6
Continuous
 62
     7
100
AcDbLine
 10
741.335868
 20
27.412481
 30
0.0
 11
763.749779
 21
27.412481
 31
0.0
  0
LINE
  5
266
330
229
100
AcDbEntity
  8
0
  6
Continuous
 62
     7
100
AcDbLine
 10
763.749779
 20
27.412481
 30
0.0
 11
763.749779
 21
49.826391
 31
0.0
  0
LINE
  5
267
330
229
100
AcDbEntity
  8
0
  6
Continuous
 62
     7
100
AcDbLine
 10
763.749779
 20
49.826391
 30
0.0
 11
741.335868
 21
49.826391
 31
0.0
  0
LINE
  5
268
330
229
100
AcDbEntity
  8
0
  6
Continuous
 62
     7
100
AcDbLine
 10
741.335868
 20
49.826391
 30
0.0
 11
741.335868
 21
27.412481
 31
0.0
  0
ENDBLK
  5
269
330
229
100
AcDbEntity
  8
0
  6
ByBlock
 62
     0
100
AcDbBlockEnd
  0
BLOCK
  5
294
330
22A
100
AcDbEntity
  8
0
100
AcDbBlockBegin
  2
*T6
 70
     1
 10
0.0
 20
0.0
 30
0.0
  3
*T6
  1
*T6
  0
LINE
  5
295
330
22A
100
AcDbEntity
  8
0
  6
Continuous
 62
     2
100
AcDbLine
 10
0.0
 20
0.0
 30
0.0
 11
90.0
 21
0.0
 31
0.0
  0
LINE
  5
296
330
22A
100
AcDbEntity
  8
0
  6
Continuous
 62
     2
100
AcDbLine
 10
0.0
 20
0.0
 30
0.0
 11
0.0
 21
-40.0
 31
0.0
  0
LINE
  5
297
330
22A
100
AcDbEntity
  8
0
  6
Continuous
 62
     2
100
AcDbLine
 10
30.0
 20
-6.0
 30
0.0
 11
90.0
 21
-6.0
 31
0.0
  0
LINE
  5
298
330
22A
100
AcDbEntity
  8
0
  6
Continuous
 62
     2
100
AcDbLine
 10
30.0
 20
-12.0
 30
0.0
 11
90.0
 21
-12.0
 31
0.0
  0
LINE
  5
299
330
22A
100
AcDbEntity
  8
0
  6
Continuous
 62
     2
100
AcDbLine
 10
30.0
 20
-22.0
 30
0.0
 11
90.0
 21
-22.0
 31
0.0
  0
LINE
  5
29A
330
22A
100
AcDbEntity
  8
0
  6
Continuous
 62
     2
100
AcDbLine
 10
0.0
 20
-27.0
 30
0.0
 11
90.0
 21
-27.0
 31
0.0
  0
LINE
  5
29B
330
22A
100
AcDbEntity
  8
0
  6
Continuous
 62
     2
100
AcDbLine
 10
0.0
 20
-40.0
 30
0.0
 11
90.0
 21
-40.0
 31
0.0
  0
LINE
  5
29C
330
22A
100
AcDbEntity
  8
0
  6
Continuous
 62
     2
100
AcDbLine
 10
30.0
 20
0.0
 30
0.0
 11
30.0
 21
-27.0
 31
0.0
  0
LINE
  5
29D
330
22A
100
AcDbEntity
  8
0
  6
Continuous
 62
     2
100
AcDbLine
 10
70.0
 20
0.0
 30
0.0
 11
70.0
 21
-12.0
 31
0.0
  0
LINE
  5
29E
330
22A
100
AcDbEntity
  8
0
  6
Continuous
 62
     2
100
AcDbLine
 10
90.0
 20
0.0
 30
0.0
 11
90.0
 21
-40.0
 31
0.0
  0
MTEXT
  5
29F
330
22A
100
AcDbEntity
  8
9_SOLID
  6
Continuous
 62
     2
100
AcDbMText
 10
31.4875
 20
-1.5
 30
0.0
 40
3.0
 41
43.33829
 46
0.0
 71
     1
 72
     1
  1
571_C_080
  7
TEXTSTYLE_2
 73
     1
 44
0.9
  0
MTEXT
  5
2A0
330
22A
100
AcDbEntity
  8
9_SOLID
  6
Continuous
 62
     2
100
AcDbMText
 10
71.4875
 20
-1.25
 30
0.0
 40
3.5
 41
30.966543
 46
0.0
 71
     1
 72
     1
  1
Rev:01
  7
TEXTSTYLE_2
 73
     1
 44
0.9
  0
MTEXT
  5
2A1
330
22A
100
AcDbEntity
  8
9_SOLID
  6
Continuous
 62
     2
100
AcDbMText
 10
31.4875
 20
-7.75
 30
0.0
 40
3.5
 41
40.724907
 46
0.0
 71
     1
 72
     1
  1
Scale:1:1
  7
TEXTSTYLE_2
 73
     1
 44
0.9
  0
MTEXT
  5
2A2
330
22A
100
AcDbEntity
  8
9_SOLID
  6
Continuous
 62
     2
100
AcDbMText
 10
71.4875
 20
-7.25
 30
0.0
 40
3.5
 41
11.944238
 46
0.0
 71
     1
 72
     1
  1
A1
  7
TEXTSTYLE_2
 73
     1
 44
0.9
  0
MTEXT
  5
2A3
330
22A
100
AcDbEntity
  8
9_SOLID
  6
Continuous
 62
     2
100
AcDbMText
 10
31.4875
 20
-15.25
 30
0.0
 40
3.5
 41
33.64684
 46
0.0
 71
     1
 72
     1
  1
RIO 2.1
  7
TEXTSTYLE_2
 73
     1
 44
0.9
  0
MTEXT
  5
2A4
330
22A
100
AcDbEntity
  8
9_SOLID
  6
Continuous
 62
     2
100
AcDbMText
 10
31.4875
 20
-23.25
 30
0.0
 40
2.5
 41
47.695167
 46
0.0
 71
     1
 72
     1
  1
DATE:09.01.19
  7
TEXTSTYLE_2
 73
     1
 44
0.9
  0
MTEXT
  5
2A5
330
22A
100
AcDbEntity
  8
9_SOLID
  6
Continuous
 62
     2
100
AcDbMText
 10
1.4875
 20
-27.3125
 30
0.0
 40
2.25
 41
148.98513
 46
0.0
 71
     1
 72
     1
  1
Any integral or partial reproductions are prohibited \Pwithout prior authorisation of L & L Luce & Light s.r.l., \Pin accordance with the law in force. \PAll rights reserved.
  7
TEXTSTYLE_2
 73
     1
 44
0.9
  0
ENDBLK
  5
2A6
330
22A
100
AcDbEntity
  8
0
  6
ByBlock
 62
     0
100
AcDbBlockEnd
  0
ENDSEC
  0
SECTION
  2
ENTITIES
  0
LINE
  5
2A7
330
222
100
AcDbEntity
  8
0
  6
Continuous
 62
     7
100
AcDbLine
 10
0.0
 20
0.0
 30
0.0
 11
841.0
 21
0.0
 31
0.0
  0
LINE
  5
2A8
330
222
100
AcDbEntity
  8
0
  6
Continuous
 62
     7
100
AcDbLine
 10
841.0
 20
0.0
 30
0.0
 11
841.0
 21
594.0
 31
0.0
  0
LINE
  5
2A9
330
222
100
AcDbEntity
  8
0
  6
Continuous
 62
     7
100
AcDbLine
 10
0.0
 20
594.0
 30
0.0
 11
841.0
 21
594.0
 31
0.0
  0
LINE
  5
2AA
330
222
100
AcDbEntity
  8
0
  6
Continuous
 62
     7
100
AcDbLine
 10
0.0
 20
0.0
 30
0.0
 11
0.0
 21
594.0
 31
0.0
  0
LINE
  5
2AB
330
222
100
AcDbEntity
  8
6_ALL_SURFS
  6
Continuous
 62
     7
100
AcDbLine
 10
590.7426
 20
267.227016
 30
0.0
 11
590.7426
 21
266.227016
 31
0.0
  0
LINE
  5
2AC
330
222
100
AcDbEntity
  8
6_ALL_SURFS
  6
Continuous
 62
     7
100
AcDbLine
 10
590.7426
 20
267.227016
 30
0.0
 11
590.7426
 21
302.427016
 31
0.0
  0
LINE
  5
2AD
330
222
100
AcDbEntity
  8
6_ALL_SURFS
  6
Continuous
 62
     7
100
AcDbLine
 10
590.7426
 20
303.427016
 30
0.0
 11
590.7426
 21
302.427016
 31
0.0
  0
LINE
  5
2AE
330
222
100
AcDbEntity
  8
7_ALL_FEATURES
  6
Continuous
 62
     7
100
AcDbLine
 10
81.2426
 20
266.227016
 30
0.0
 11
590.7426
 21
266.227016
 31
0.0
  0
LINE
  5
2AF
330
222
100
AcDbEntity
  8
7_ALL_FEATURES
  6
Continuous
 62
     7
100
AcDbLine
 10
81.2426
 20
267.227016
 30
0.0
 11
81.2426
 21
302.427016
 31
0.0
  0
LINE
  5
2B0
330
222
100
AcDbEntity
  8
7_ALL_FEATURES
  6
Continuous
 62
     7
100
AcDbLine
 10
81.2426
 20
303.427016
 30
0.0
 11
590.7426
 21
303.427016
 31
0.0
  0
LINE
  5
2B1
330
222
100
AcDbEntity
  8
7_ALL_FEATURES
  6
Continuous
 62
     7
100
AcDbLine
 10
81.2426
 20
303.427016
 30
0.0
 11
81.2426
 21
302.427016
 31
0.0
  0
LINE
  5
2B2
330
222
100
AcDbEntity
  8
7_ALL_FEATURES
  6
Continuous
 62
     7
100
AcDbLine
 10
81.2426
 20
267.227016
 30
0.0
 11
81.2426
 21
266.227016
 31
0.0
  0
LINE
  5
2B3
330
222
100
AcDbEntity
  8
7_ALL_FEATURES
  6
Continuous
 62
     9
100
AcDbLine
 10
81.2426
 20
267.227016
 30
0.0
 11
590.7426
 21
267.227016
 31
0.0
  0
LINE
  5
2B4
330
222
100
AcDbEntity
  8
7_ALL_FEATURES
  6
Continuous
 62
     9
100
AcDbLine
 10
81.2426
 20
302.427016
 30
0.0
 11
590.7426
 21
302.427016
 31
0.0
  0
LINE
  5
2B5
330
222
100
AcDbEntity
  8
7_ALL_FEATURES
  6
Continuous
 62
     7
100
AcDbLine
 10
587.2426
 20
465.814525
 30
0.0
 11
587.4926
 21
465.814525
 31
0.0
  0
LINE
  5
2B6
330
222
100
AcDbEntity
  8
7_ALL_FEATURES
  6
Continuous
 62
     7
100
AcDbLine
 10
588.2426
 20
443.814525
 30
0.0
 11
588.2426
 21
442.314525
 31
0.0
  0
LINE
  5
2B7
330
222
100
AcDbEntity
  8
7_ALL_FEATURES
  6
Continuous
 62
     7
100
AcDbLine
 10
587.2426
 20
449.064525
 30
0.0
 11
587.4926
 21
449.064525
 31
0.0
  0
LINE
  5
2B8
330
222
100
AcDbEntity
  8
7_ALL_FEATURES
  6
Continuous
 62
     7
100
AcDbLine
 10
587.2426
 20
443.814525
 30
0.0
 11
587.2426
 21
444.835971
 31
0.0
  0
LINE
  5
2B9
330
222
100
AcDbEntity
  8
7_ALL_FEATURES
  6
Continuous
 62
     7
100
AcDbLine
 10
587.2426
 20
444.835971
 30
0.0
 11
587.2426
 21
445.543078
 31
0.0
  0
LINE
  5
2BA
330
222
100
AcDbEntity
  8
7_ALL_FEATURES
  6
Continuous
 62
     7
100
AcDbLine
 10
587.2426
 20
445.543078
 30
0.0
 11
587.2426
 21
446.564525
 31
0.0
  0
LINE
  5
2BB
330
222
100
AcDbEntity
  8
7_ALL_FEATURES
  6
Continuous
 62
     7
100
AcDbLine
 10
587.2426
 20
442.314525
 30
0.0
 11
587.4926
 21
442.314525
 31
0.0
  0
LINE
  5
2BC
330
222
100
AcDbEntity
  8
7_ALL_FEATURES
  6
Continuous
 62
     7
100
AcDbLine
 10
587.2426
 20
465.814525
 30
0.0
 11
587.4926
 21
465.814525
 31
0.0
  0
LINE
  5
2BD
330
222
100
AcDbEntity
  8
7_ALL_FEATURES
  6
Continuous
 62
     9
100
AcDbLine
 10
587.2426
 20
443.814525
 30
0.0
 11
587.4926
 21
443.814525
 31
0.0
  0
LINE
  5
2BE
330
222
100
AcDbEntity
  8
7_ALL_FEATURES
  6
Continuous
 62
     9
100
AcDbLine
 10
587.2426
 20
450.564525
 30
0.0
 11
587.4926
 21
450.564525
 31
0.0
  0
LINE
  5
2BF
330
222
100
AcDbEntity
  8
7_ALL_FEATURES
  6
Continuous
 62
     9
100
AcDbLine
 10
587.4926
 20
448.064525
 30
0.0
 11
587.2426
 21
448.064525
 31
0.0
  0
LINE
  5
2C0
330
222
100
AcDbEntity
  8
7_ALL_FEATURES
  6
Continuous
 62
     9
100
AcDbLine
 10
587.2426
 20
464.314525
 30
0.0
 11
587.4926
 21
464.314525
 31
0.0
  0
LINE
  5
2C1
330
222
100
AcDbEntity
  8
7_ALL_FEATURES
  6
Continuous
 62
     7
100
AcDbLine
 10
84.7426
 20
449.064525
 30
0.0
 11
84.4926
 21
449.064525
 31
0.0
  0
LINE
  5
2C2
330
222
100
AcDbEntity
  8
7_ALL_FEATURES
  6
Continuous
 62
     7
100
AcDbLine
 10
83.7426
 20
442.314525
 30
0.0
 11
83.7426
 21
443.814525
 31
0.0
  0
LINE
  5
2C3
330
222
100
AcDbEntity
  8
7_ALL_FEATURES
  6
Continuous
 62
     7
100
AcDbLine
 10
84.7426
 20
442.314525
 30
0.0
 11
84.4926
 21
442.314525
 31
0.0
  0
LINE
  5
2C4
330
222
100
AcDbEntity
  8
7_ALL_FEATURES
  6
Continuous
 62
     7
100
AcDbLine
 10
84.7426
 20
442.314525
 30
0.0
 11
84.4926
 21
442.314525
 31
0.0
  0
LINE
  5
2C5
330
222
100
AcDbEntity
  8
7_ALL_FEATURES
  6
Continuous
 62
     7
100
AcDbLine
 10
84.7426
 20
449.064525
 30
0.0
 11
84.4926
 21
449.064525
 31
0.0
  0
LINE
  5
2C6
330
222
100
AcDbEntity
  8
7_ALL_FEATURES
  6
Continuous
 62
     7
100
AcDbLine
 10
84.7426
 20
446.564525
 30
0.0
 11
84.7426
 21
445.543078
 31
0.0
  0
LINE
  5
2C7
330
222
100
AcDbEntity
  8
7_ALL_FEATURES
  6
Continuous
 62
     7
100
AcDbLine
 10
84.7426
 20
445.543078
 30
0.0
 11
84.7426
 21
444.835971
 31
0.0
  0
LINE
  5
2C8
330
222
100
AcDbEntity
  8
7_ALL_FEATURES
  6
Continuous
 62
     7
100
AcDbLine
 10
84.7426
 20
444.835971
 30
0.0
 11
84.7426
 21
443.814525
 31
0.0
  0
LINE
  5
2C9
330
222
100
AcDbEntity
  8
7_ALL_FEATURES
  6
Continuous
 62
     7
100
AcDbLine
 10
84.7426
 20
465.814525
 30
0.0
 11
84.4926
 21
465.814525
 31
0.0
  0
LINE
  5
2CA
330
222
100
AcDbEntity
  8
7_ALL_FEATURES
  6
Continuous
 62
     9
100
AcDbLine
 10
84.4926
 20
448.064525
 30
0.0
 11
84.7426
 21
448.064525
 31
0.0
  0
LINE
  5
2CB
330
222
100
AcDbEntity
  8
7_ALL_FEATURES
  6
Continuous
 62
     9
100
AcDbLine
 10
84.7426
 20
464.314525
 30
0.0
 11
84.4926
 21
464.314525
 31
0.0
  0
LINE
  5
2CC
330
222
100
AcDbEntity
  8
7_ALL_FEATURES
  6
Continuous
 62
     9
100
AcDbLine
 10
84.7426
 20
450.564525
 30
0.0
 11
84.4926
 21
450.564525
 31
0.0
  0
LINE
  5
2CD
330
222
100
AcDbEntity
  8
7_ALL_FEATURES
  6
Continuous
 62
     9
100
AcDbLine
 10
84.7426
 20
443.814525
 30
0.0
 11
84.4926
 21
443.814525
 31
0.0
  0
LINE
  5
2CE
330
222
100
AcDbEntity
  8
3_ALL_AXES
  6
Continuous
 62
     7
100
AcDbLine
 10
520.7426
 20
440.814525
 30
0.0
 11
521.266018
 21
440.814525
 31
0.0
  0
LINE
  5
2CF
330
222
100
AcDbEntity
  8
3_ALL_AXES
  6
Continuous
 62
     7
100
AcDbLine
 10
520.7426
 20
440.814525
 30
0.0
 11
520.219182
 21
440.814525
 31
0.0
  0
LINE
  5
2D0
330
222
100
AcDbEntity
  8
3_ALL_AXES
  6
Continuous
 62
     7
100
AcDbLine
 10
520.3926
 20
438.647859
 30
0.0
 11
520.3926
 21
438.886346
 31
0.0
  0
SPLINE
  5
2D1
330
222
100
AcDbEntity
  8
3_ALL_AXES
  6
Continuous
 62
     7
100
AcDbSpline
 70
     0
 71
     3
 72
    13
 73
     9
 74
     0
 42
0.000000001
 43
0.0000001
 40
0.0
 40
0.0
 40
0.0
 40
0.0
 40
0.3799619074
 40
0.7020186022
 40
0.8254434231
 40
0.9173357932
 40
0.9749475939
 40
1.0
 40
1.0
 40
1.0
 40
1.0
 10
520.3226003252
 20
438.647859421
 30
0.0
 10
520.3315068015
 20
438.6470219462
 30
0.0
 10
520.3479655299
 20
438.6457511813
 30
0.0
 10
520.3674732113
 20
438.6450483038
 30
0.0
 10
520.3800127914
 20
438.6451785666
 30
0.0
 10
520.3866335475
 20
438.6457347231
 30
0.0
 10
520.3903042161
 20
438.646210778
 30
0.0
 10
520.3926003252
 20
438.6472695911
 30
0.0
 10
520.3926003252
 20
438.647859421
 30
0.0
  0
ARC
  5
2D2
330
222
100
AcDbEntity
  8
3_ALL_AXES
  6
Continuous
 62
     7
100
AcDbCircle
 10
520.7426
 20
443.114525
 30
0.0
 40
4.4863682417
100
AcDbArc
 50
250.467217
 51
264.628279
  0
ARC
  5
2D3
330
222
100
AcDbEntity
  8
3_ALL_AXES
  6
Continuous
 62
     7
100
AcDbCircle
 10
520.7426
 20
443.114525
 30
0.0
 40
4.2426406871
100
AcDbArc
 50
265.267962
 51
270.0
  0
LINE
  5
2D4
330
222
100
AcDbEntity
  8
3_ALL_AXES
  6
Continuous
 62
     7
100
AcDbLine
 10
522.2426
 20
438.886346
 30
0.0
 11
522.2426
 21
438.87189
 31
0.0
  0
ARC
  5
2D5
330
222
100
AcDbEntity
  8
3_ALL_AXES
  6
Continuous
 62
     7
100
AcDbCircle
 10
520.7426
 20
443.114525
 30
0.0
 40
4.4863682417
100
AcDbArc
 50
275.371721
 51
289.532783
  0
SPLINE
  5
2D6
330
222
100
AcDbEntity
  8
3_ALL_AXES
  6
Continuous
 62
     7
100
AcDbSpline
 70
     0
 71
     3
 72
    13
 73
     9
 74
     0
 42
0.000000001
 43
0.0000001
 40
0.0
 40
0.0
 40
0.0
 40
0.0
 40
0.0250529887
 40
0.0826638709
 40
0.1745594535
 40
0.2979892478
 40
0.6200394963
 40
1.0
 40
1.0
 40
1.0
 40
1.0
 10
521.0926003252
 20
438.647859421
 30
0.0
 10
521.0926003252
 20
438.6472695775
 30
0.0
 10
521.0948964686
 20
438.6462108164
 30
0.0
 10
521.0985671614
 20
438.6457346648
 30
0.0
 10
521.1051881214
 20
438.6451785892
 30
0.0
 10
521.1177277242
 20
438.6450482815
 30
0.0
 10
521.1372353429
 20
438.6457512222
 30
0.0
 10
521.1536938829
 20
438.6470219494
 30
0.0
 10
521.1626003252
 20
438.647859421
 30
0.0
  0
LINE
  5
2D7
330
222
100
AcDbEntity
  8
3_ALL_AXES
  6
Continuous
 62
     7
100
AcDbLine
 10
521.0926
 20
438.886346
 30
0.0
 11
521.0926
 21
438.647859
 31
0.0
  0
ARC
  5
2D8
330
222
100
AcDbEntity
  8
3_ALL_AXES
  6
Continuous
 62
     7
100
AcDbCircle
 10
520.7426
 20
443.114525
 30
0.0
 40
4.2426406871
100
AcDbArc
 50
270.0
 51
274.732038
  0
ARC
  5
2D9
330
222
100
AcDbEntity
  8
3_ALL_AXES
  6
Continuous
 62
     7
100
AcDbCircle
 10
520.7426
 20
443.114525
 30
0.0
 40
4.5
100
AcDbArc
 50
231.521405
 51
250.467312
  0
LINE
  5
2DA
330
222
100
AcDbEntity
  8
3_ALL_AXES
  6
Continuous
 62
     7
100
AcDbLine
 10
519.2426
 20
438.87189
 30
0.0
 11
519.2426
 21
438.886346
 31
0.0
  0
LINE
  5
2DB
330
222
100
AcDbEntity
  8
3_ALL_AXES
  6
Continuous
 62
     7
100
AcDbLine
 10
517.9426
 20
440.814525
 30
0.0
 11
517.9426
 21
439.591742
 31
0.0
  0
ARC
  5
2DC
330
222
100
AcDbEntity
  8
3_ALL_AXES
  6
Continuous
 62
     7
100
AcDbCircle
 10
520.7426
 20
443.114525
 30
0.0
 40
4.5
100
AcDbArc
 50
289.532688
 51
308.478595
  0
LINE
  5
2DD
330
222
100
AcDbEntity
  8
3_ALL_AXES
  6
Continuous
 62
     7
100
AcDbLine
 10
523.5426
 20
440.814525
 30
0.0
 11
523.5426
 21
439.591742
 31
0.0
  0
LINE
  5
2DE
330
222
100
AcDbEntity
  8
3_ALL_AXES
  6
Continuous
 62
     7
100
AcDbLine
 10
520.7426
 20
439.591742
 30
0.0
 11
523.5426
 21
439.591742
 31
0.0
  0
LINE
  5
2DF
330
222
100
AcDbEntity
  8
3_ALL_AXES
  6
Continuous
 62
     7
100
AcDbLine
 10
520.7426
 20
439.591742
 30
0.0
 11
517.9426
 21
439.591742
 31
0.0
  0
LINE
  5
2E0
330
222
100
AcDbEntity
  8
3_ALL_AXES
  6
Continuous
 62
     7
100
AcDbLine
 10
540.7426
 20
440.814525
 30
0.0
 11
541.266018
 21
440.814525
 31
0.0
  0
LINE
  5
2E1
330
222
100
AcDbEntity
  8
3_ALL_AXES
  6
Continuous
 62
     7
100
AcDbLine
 10
540.7426
 20
440.814525
 30
0.0
 11
540.219182
 21
440.814525
 31
0.0
  0
LINE
  5
2E2
330
222
100
AcDbEntity
  8
3_ALL_AXES
  6
Continuous
 62
     7
100
AcDbLine
 10
540.3926
 20
438.647859
 30
0.0
 11
540.3926
 21
438.886346
 31
0.0
  0
SPLINE
  5
2E3
330
222
100
AcDbEntity
  8
3_ALL_AXES
  6
Continuous
 62
     7
100
AcDbSpline
 70
     0
 71
     3
 72
    13
 73
     9
 74
     0
 42
0.000000001
 43
0.0000001
 40
0.0
 40
0.0
 40
0.0
 40
0.0
 40
0.3799619074
 40
0.7020186022
 40
0.8254434231
 40
0.9173357932
 40
0.9749475939
 40
1.0
 40
1.0
 40
1.0
 40
1.0
 10
540.3226003252
 20
438.647859421
 30
0.0
 10
540.3315068015
 20
438.6470219462
 30
0.0
 10
540.3479655299
 20
438.6457511813
 30
0.0
 10
540.3674732113
 20
438.6450483038
 30
0.0
 10
540.3800127914
 20
438.6451785666
 30
0.0
 10
540.3866335475
 20
438.6457347231
 30
0.0
 10
540.3903042161
 20
438.646210778
 30
0.0
 10
540.3926003252
 20
438.6472695911
 30
0.0
 10
540.3926003252
 20
438.647859421
 30
0.0
  0
ARC
  5
2E4
330
222
100
AcDbEntity
  8
3_ALL_AXES
  6
Continuous
 62
     7
100
AcDbCircle
 10
540.7426
 20
443.114525
 30
0.0
 40
4.4863682417
100
AcDbArc
 50
250.467217
 51
264.628279
  0
ARC
  5
2E5
330
222
100
AcDbEntity
  8
3_ALL_AXES
  6
Continuous
 62
     7
100
AcDbCircle
 10
540.7426
 20
443.114525
 30
0.0
 40
4.2426406871
100
AcDbArc
 50
265.267962
 51
270.0
  0
LINE
  5
2E6
330
222
100
AcDbEntity
  8
3_ALL_AXES
  6
Continuous
 62
     7
100
AcDbLine
 10
542.2426
 20
438.886346
 30
0.0
 11
542.2426
 21
438.87189
 31
0.0
  0
ARC
  5
2E7
330
222
100
AcDbEntity
  8
3_ALL_AXES
  6
Continuous
 62
     7
100
AcDbCircle
 10
540.7426
 20
443.114525
 30
0.0
 40
4.4863682417
100
AcDbArc
 50
275.371721
 51
289.532783
  0
SPLINE
  5
2E8
330
222
100
AcDbEntity
  8
3_ALL_AXES
  6
Continuous
 62
     7
100
AcDbSpline
 70
     0
 71
     3
 72
    13
 73
     9
 74
     0
 42
0.000000001
 43
0.0000001
 40
0.0
 40
0.0
 40
0.0
 40
0.0
 40
0.0250529887
 40
0.0826638709
 40
0.1745594535
 40
0.2979892478
 40
0.6200394963
 40
1.0
 40
1.0
 40
1.0
 40
1.0
 10
541.0926003252
 20
438.647859421
 30
0.0
 10
541.0926003252
 20
438.6472695775
 30
0.0
 10
541.0948964686
 20
438.6462108164
 30
0.0
 10
541.0985671614
 20
438.6457346648
 30
0.0
 10
541.1051881214
 20
438.6451785892
 30
0.0
 10
541.1177277242
 20
438.6450482815
 30
0.0
 10
541.1372353429
 20
438.6457512222
 30
0.0
 10
541.1536938829
 20
438.6470219494
 30
0.0
 10
541.1626003252
 20
438.647859421
 30
0.0
  0
LINE
  5
2E9
330
222
100
AcDbEntity
  8
3_ALL_AXES
  6
Continuous
 62
     7
100
AcDbLine
 10
541.0926
 20
438.886346
 30
0.0
 11
541.0926
 21
438.647859
 31
0.0
  0
ARC
  5
2EA
330
222
100
AcDbEntity
  8
3_ALL_AXES
  6
Continuous
 62
     7
100
AcDbCircle
 10
540.7426
 20
443.114525
 30
0.0
 40
4.2426406871
100
AcDbArc
 50
270.0
 51
274.732038
  0
ARC
  5
2EB
330
222
100
AcDbEntity
  8
3_ALL_AXES
  6
Continuous
 62
     7
100
AcDbCircle
 10
540.7426
 20
443.114525
 30
0.0
 40
4.5
100
AcDbArc
 50
231.521405
 51
250.467312
  0
LINE
  5
2EC
330
222
100
AcDbEntity
  8
3_ALL_AXES
  6
Continuous
 62
     7
100
AcDbLine
 10
539.2426
 20
438.87189
 30
0.0
 11
539.2426
 21
438.886346
 31
0.0
  0
LINE
  5
2ED
330
222
100
AcDbEntity
  8
3_ALL_AXES
  6
Continuous
 62
     7
100
AcDbLine
 10
537.9426
 20
440.814525
 30
0.0
 11
537.9426
 21
439.591742
 31
0.0
  0
ARC
  5
2EE
330
222
100
AcDbEntity
  8
3_ALL_AXES
  6
Continuous
 62
     7
100
AcDbCircle
 10
540.7426
 20
443.114525
 30
0.0
 40
4.5
100
AcDbArc
 50
289.532688
 51
308.478595
  0
LINE
  5
2EF
330
222
100
AcDbEntity
  8
3_ALL_AXES
  6
Continuous
 62
     7
100
AcDbLine
 10
543.5426
 20
440.814525
 30
0.0
 11
543.5426
 21
439.591742
 31
0.0
  0
LINE
  5
2F0
330
222
100
AcDbEntity
  8
3_ALL_AXES
  6
Continuous
 62
     7
100
AcDbLine
 10
540.7426
 20
439.591742
 30
0.0
 11
543.5426
 21
439.591742
 31
0.0
  0
LINE
  5
2F1
330
222
100
AcDbEntity
  8
3_ALL_AXES
  6
Continuous
 62
     7
100
AcDbLine
 10
540.7426
 20
439.591742
 30
0.0
 11
537.9426
 21
439.591742
 31
0.0
  0
LINE
  5
2F2
330
222
100
AcDbEntity
  8
3_ALL_AXES
  6
Continuous
 62
     7
100
AcDbLine
 10
151.2426
 20
440.814525
 30
0.0
 11
151.766018
 21
440.814525
 31
0.0
  0
LINE
  5
2F3
330
222
100
AcDbEntity
  8
3_ALL_AXES
  6
Continuous
 62
     7
100
AcDbLine
 10
151.2426
 20
440.814525
 30
0.0
 11
150.719182
 21
440.814525
 31
0.0
  0
LINE
  5
2F4
330
222
100
AcDbEntity
  8
3_ALL_AXES
  6
Continuous
 62
     7
100
AcDbLine
 10
150.8926
 20
438.647859
 30
0.0
 11
150.8926
 21
438.886346
 31
0.0
  0
SPLINE
  5
2F5
330
222
100
AcDbEntity
  8
3_ALL_AXES
  6
Continuous
 62
     7
100
AcDbSpline
 70
     0
 71
     3
 72
    13
 73
     9
 74
     0
 42
0.000000001
 43
0.0000001
 40
0.0
 40
0.0
 40
0.0
 40
0.0
 40
0.3799619074
 40
0.7020186022
 40
0.8254434231
 40
0.9173357932
 40
0.9749475939
 40
1.0
 40
1.0
 40
1.0
 40
1.0
 10
150.8226003252
 20
438.647859421
 30
0.0
 10
150.8315068015
 20
438.6470219462
 30
0.0
 10
150.8479655299
 20
438.6457511813
 30
0.0
 10
150.8674732113
 20
438.6450483038
 30
0.0
 10
150.8800127914
 20
438.6451785666
 30
0.0
 10
150.8866335475
 20
438.6457347231
 30
0.0
 10
150.8903042161
 20
438.646210778
 30
0.0
 10
150.8926003252
 20
438.6472695911
 30
0.0
 10
150.8926003252
 20
438.647859421
 30
0.0
  0
ARC
  5
2F6
330
222
100
AcDbEntity
  8
3_ALL_AXES
  6
Continuous
 62
     7
100
AcDbCircle
 10
151.2426
 20
443.114525
 30
0.0
 40
4.4863682417
100
AcDbArc
 50
250.467217
 51
264.628279
  0
ARC
  5
2F7
330
222
100
AcDbEntity
  8
3_ALL_AXES
  6
Continuous
 62
     7
100
AcDbCircle
 10
151.2426
 20
443.114525
 30
0.0
 40
4.2426406871
100
AcDbArc
 50
265.267962
 51
270.0
  0
LINE
  5
2F8
330
222
100
AcDbEntity
  8
3_ALL_AXES
  6
Continuous
 62
     7
100
AcDbLine
 10
152.7426
 20
438.886346
 30
0.0
 11
152.7426
 21
438.87189
 31
0.0
  0
ARC
  5
2F9
330
222
100
AcDbEntity
  8
3_ALL_AXES
  6
Continuous
 62
     7
100
AcDbCircle
 10
151.2426
 20
443.114525
 30
0.0
 40
4.4863682417
100
AcDbArc
 50
275.371721
 51
289.532783
  0
SPLINE
  5
2FA
330
222
100
AcDbEntity
  8
3_ALL_AXES
  6
Continuous
 62
     7
100
AcDbSpline
 70
     0
 71
     3
 72
    13
 73
     9
 74
     0
 42
0.000000001
 43
0.0000001
 40
0.0
 40
0.0
 40
0.0
 40
0.0
 40
0.0250529887
 40
0.0826638709
 40
0.1745594535
 40
0.2979892478
 40
0.6200394963
 40
1.0
 40
1.0
 40
1.0
 40
1.0
 10
151.5926003252
 20
438.647859421
 30
0.0
 10
151.5926003252
 20
438.6472695775
 30
0.0
 10
151.5948964686
 20
438.6462108164
 30
0.0
 10
151.5985671614
 20
438.6457346648
 30
0.0
 10
151.6051881214
 20
438.6451785892
 30
0.0
 10
151.6177277242
 20
438.6450482815
 30
0.0
 10
151.6372353429
 20
438.6457512222
 30
0.0
 10
151.6536938829
 20
438.6470219494
 30
0.0
 10
151.6626003252
 20
438.647859421
 30
0.0
  0
LINE
  5
2FB
330
222
100
AcDbEntity
  8
3_ALL_AXES
  6
Continuous
 62
     7
100
AcDbLine
 10
151.5926
 20
438.886346
 30
0.0
 11
151.5926
 21
438.647859
 31
0.0
  0
ARC
  5
2FC
330
222
100
AcDbEntity
  8
3_ALL_AXES
  6
Continuous
 62
     7
100
AcDbCircle
 10
151.2426
 20
443.114525
 30
0.0
 40
4.2426406871
100
AcDbArc
 50
270.0
 51
274.732038
  0
ARC
  5
2FD
330
222
100
AcDbEntity
  8
3_ALL_AXES
  6
Continuous
 62
     7
100
AcDbCircle
 10
151.2426
 20
443.114525
 30
0.0
 40
4.5
100
AcDbArc
 50
231.521405
 51
250.467312
  0
LINE
  5
2FE
330
222
100
AcDbEntity
  8
3_ALL_AXES
  6
Continuous
 62
     7
100
AcDbLine
 10
149.7426
 20
438.87189
 30
0.0
 11
149.7426
 21
438.886346
 31
0.0
  0
LINE
  5
2FF
330
222
100
AcDbEntity
  8
3_ALL_AXES
  6
Continuous
 62
     7
100
AcDbLine
 10
148.4426
 20
440.814525
 30
0.0
 11
148.4426
 21
439.591742
 31
0.0
  0
ARC
  5
300
330
222
100
AcDbEntity
  8
3_ALL_AXES
  6
Continuous
 62
     7
100
AcDbCircle
 10
151.2426
 20
443.114525
 30
0.0
 40
4.5
100
AcDbArc
 50
289.532688
 51
308.478595
  0
LINE
  5
301
330
222
100
AcDbEntity
  8
3_ALL_AXES
  6
Continuous
 62
     7
100
AcDbLine
 10
154.0426
 20
440.814525
 30
0.0
 11
154.0426
 21
439.591742
 31
0.0
  0
LINE
  5
302
330
222
100
AcDbEntity
  8
3_ALL_AXES
  6
Continuous
 62
     7
100
AcDbLine
 10
151.2426
 20
439.591742
 30
0.0
 11
154.0426
 21
439.591742
 31
0.0
  0
LINE
  5
303
330
222
100
AcDbEntity
  8
3_ALL_AXES
  6
Continuous
 62
     7
100
AcDbLine
 10
151.2426
 20
439.591742
 30
0.0
 11
148.4426
 21
439.591742
 31
0.0
  0
LINE
  5
304
330
222
100
AcDbEntity
  8
3_ALL_AXES
  6
Continuous
 62
     7
100
AcDbLine
 10
131.2426
 20
440.814525
 30
0.0
 11
131.766018
 21
440.814525
 31
0.0
  0
LINE
  5
305
330
222
100
AcDbEntity
  8
3_ALL_AXES
  6
Continuous
 62
     7
100
AcDbLine
 10
131.2426
 20
440.814525
 30
0.0
 11
130.719182
 21
440.814525
 31
0.0
  0
LINE
  5
306
330
222
100
AcDbEntity
  8
3_ALL_AXES
  6
Continuous
 62
     7
100
AcDbLine
 10
130.8926
 20
438.647859
 30
0.0
 11
130.8926
 21
438.886346
 31
0.0
  0
SPLINE
  5
307
330
222
100
AcDbEntity
  8
3_ALL_AXES
  6
Continuous
 62
     7
100
AcDbSpline
 70
     0
 71
     3
 72
    13
 73
     9
 74
     0
 42
0.000000001
 43
0.0000001
 40
0.0
 40
0.0
 40
0.0
 40
0.0
 40
0.3799619074
 40
0.7020186022
 40
0.8254434231
 40
0.9173357932
 40
0.9749475939
 40
1.0
 40
1.0
 40
1.0
 40
1.0
 10
130.8226003252
 20
438.647859421
 30
0.0
 10
130.8315068015
 20
438.6470219462
 30
0.0
 10
130.8479655299
 20
438.6457511813
 30
0.0
 10
130.8674732113
 20
438.6450483038
 30
0.0
 10
130.8800127914
 20
438.6451785666
 30
0.0
 10
130.8866335475
 20
438.6457347231
 30
0.0
 10
130.8903042161
 20
438.646210778
 30
0.0
 10
130.8926003252
 20
438.6472695911
 30
0.0
 10
130.8926003252
 20
438.647859421
 30
0.0
  0
ARC
  5
308
330
222
100
AcDbEntity
  8
3_ALL_AXES
  6
Continuous
 62
     7
100
AcDbCircle
 10
131.2426
 20
443.114525
 30
0.0
 40
4.4863682417
100
AcDbArc
 50
250.467217
 51
264.628279
  0
ARC
  5
309
330
222
100
AcDbEntity
  8
3_ALL_AXES
  6
Continuous
 62
     7
100
AcDbCircle
 10
131.2426
 20
443.114525
 30
0.0
 40
4.2426406871
100
AcDbArc
 50
265.267962
 51
270.0
  0
LINE
  5
30A
330
222
100
AcDbEntity
  8
3_ALL_AXES
  6
Continuous
 62
     7
100
AcDbLine
 10
132.7426
 20
438.886346
 30
0.0
 11
132.7426
 21
438.87189
 31
0.0
  0
ARC
  5
30B
330
222
100
AcDbEntity
  8
3_ALL_AXES
  6
Continuous
 62
     7
100
AcDbCircle
 10
131.2426
 20
443.114525
 30
0.0
 40
4.4863682417
100
AcDbArc
 50
275.371721
 51
289.532783
  0
SPLINE
  5
30C
330
222
100
AcDbEntity
  8
3_ALL_AXES
  6
Continuous
 62
     7
100
AcDbSpline
 70
     0
 71
     3
 72
    13
 73
     9
 74
     0
 42
0.000000001
 43
0.0000001
 40
0.0
 40
0.0
 40
0.0
 40
0.0
 40
0.0250529887
 40
0.0826638709
 40
0.1745594535
 40
0.2979892478
 40
0.6200394963
 40
1.0
 40
1.0
 40
1.0
 40
1.0
 10
131.5926003252
 20
438.647859421
 30
0.0
 10
131.5926003252
 20
438.6472695775
 30
0.0
 10
131.5948964686
 20
438.6462108164
 30
0.0
 10
131.5985671614
 20
438.6457346648
 30
0.0
 10
131.6051881214
 20
438.6451785892
 30
0.0
 10
131.6177277242
 20
438.6450482815
 30
0.0
 10
131.6372353429
 20
438.6457512222
 30
0.0
 10
131.6536938829
 20
438.6470219494
 30
0.0
 10
131.6626003252
 20
438.647859421
 30
0.0
  0
LINE
  5
30D
330
222
100
AcDbEntity
  8
3_ALL_AXES
  6
Continuous
 62
     7
100
AcDbLine
 10
131.5926
 20
438.886346
 30
0.0
 11
131.5926
 21
438.647859
 31
0.0
  0
ARC
  5
30E
330
222
100
AcDbEntity
  8
3_ALL_AXES
  6
Continuous
 62
     7
100
AcDbCircle
 10
131.2426
 20
443.114525
 30
0.0
 40
4.2426406871
100
AcDbArc
 50
270.0
 51
274.732038
  0
ARC
  5
30F
330
222
100
AcDbEntity
  8
3_ALL_AXES
  6
Continuous
 62
     7
100
AcDbCircle
 10
131.2426
 20
443.114525
 30
0.0
 40
4.5
100
AcDbArc
 50
231.521405
 51
250.467312
  0
LINE
  5
310
330
222
100
AcDbEntity
  8
3_ALL_AXES
  6
Continuous
 62
     7
100
AcDbLine
 10
129.7426
 20
438.87189
 30
0.0
 11
129.7426
 21
438.886346
 31
0.0
  0
LINE
  5
311
330
222
100
AcDbEntity
  8
3_ALL_AXES
  6
Continuous
 62
     7
100
AcDbLine
 10
128.4426
 20
440.814525
 30
0.0
 11
128.4426
 21
439.591742
 31
0.0
  0
ARC
  5
312
330
222
100
AcDbEntity
  8
3_ALL_AXES
  6
Continuous
 62
     7
100
AcDbCircle
 10
131.2426
 20
443.114525
 30
0.0
 40
4.5
100
AcDbArc
 50
289.532688
 51
308.478595
  0
LINE
  5
313
330
222
100
AcDbEntity
  8
3_ALL_AXES
  6
Continuous
 62
     7
100
AcDbLine
 10
134.0426
 20
440.814525
 30
0.0
 11
134.0426
 21
439.591742
 31
0.0
  0
LINE
  5
314
330
222
100
AcDbEntity
  8
3_ALL_AXES
  6
Continuous
 62
     7
100
AcDbLine
 10
131.2426
 20
439.591742
 30
0.0
 11
134.0426
 21
439.591742
 31
0.0
  0
LINE
  5
315
330
222
100
AcDbEntity
  8
3_ALL_AXES
  6
Continuous
 62
     7
100
AcDbLine
 10
131.2426
 20
439.591742
 30
0.0
 11
128.4426
 21
439.591742
 31
0.0
  0
LINE
  5
316
330
222
100
AcDbEntity
  8
7_ALL_FEATURES
  6
Continuous
 62
     7
100
AcDbLine
 10
587.4926
 20
430.064525
 30
0.0
 11
587.4926
 21
433.564525
 31
0.0
  0
LINE
  5
317
330
222
100
AcDbEntity
  8
7_ALL_FEATURES
  6
Continuous
 62
     7
100
AcDbLine
 10
588.9926
 20
430.064525
 30
0.0
 11
587.4926
 21
430.064525
 31
0.0
  0
LINE
  5
318
330
222
100
AcDbEntity
  8
7_ALL_FEATURES
  6
Continuous
 62
     7
100
AcDbLine
 10
587.4926
 20
442.159787
 30
0.0
 11
587.4926
 21
442.314525
 31
0.0
  0
LINE
  5
319
330
222
100
AcDbEntity
  8
7_ALL_FEATURES
  6
Continuous
 62
     7
100
AcDbLine
 10
587.4926
 20
441.191541
 30
0.0
 11
587.4926
 21
433.564525
 31
0.0
  0
LINE
  5
31A
330
222
100
AcDbEntity
  8
7_ALL_FEATURES
  6
Continuous
 62
     7
100
AcDbLine
 10
587.4926
 20
448.564525
 30
0.0
 11
587.4926
 21
450.564525
 31
0.0
  0
LINE
  5
31B
330
222
100
AcDbEntity
  8
7_ALL_FEATURES
  6
Continuous
 62
     7
100
AcDbLine
 10
588.9926
 20
448.564525
 30
0.0
 11
587.4926
 21
448.564525
 31
0.0
  0
LINE
  5
31C
330
222
100
AcDbEntity
  8
7_ALL_FEATURES
  6
Continuous
 62
     7
100
AcDbLine
 10
587.4926
 20
465.314525
 30
0.0
 11
587.4926
 21
466.314525
 31
0.0
  0
LINE
  5
31D
330
222
100
AcDbEntity
  8
7_ALL_FEATURES
  6
Continuous
 62
     7
100
AcDbLine
 10
587.4926
 20
465.314525
 30
0.0
 11
587.4926
 21
450.564525
 31
0.0
  0
LINE
  5
31E
330
222
100
AcDbEntity
  8
7_ALL_FEATURES
  6
Continuous
 62
     7
100
AcDbLine
 10
587.4926
 20
447.814525
 30
0.0
 11
587.4926
 21
445.064525
 31
0.0
  0
LINE
  5
31F
330
222
100
AcDbEntity
  8
7_ALL_FEATURES
  6
Continuous
 62
     7
100
AcDbLine
 10
588.9926
 20
442.159787
 30
0.0
 11
588.9926
 21
441.191541
 31
0.0
  0
LINE
  5
320
330
222
100
AcDbEntity
  8
7_ALL_FEATURES
  6
Continuous
 62
     7
100
AcDbLine
 10
587.4926
 20
441.191541
 30
0.0
 11
587.4926
 21
442.159787
 31
0.0
  0
LINE
  5
321
330
222
100
AcDbEntity
  8
7_ALL_FEATURES
  6
Continuous
 62
     7
100
AcDbLine
 10
588.9926
 20
441.191541
 30
0.0
 11
588.9926
 21
433.564525
 31
0.0
  0
LINE
  5
322
330
222
100
AcDbEntity
  8
7_ALL_FEATURES
  6
Continuous
 62
     7
100
AcDbLine
 10
588.9926
 20
445.064525
 30
0.0
 11
588.9926
 21
443.814573
 31
0.0
  0
LINE
  5
323
330
222
100
AcDbEntity
  8
7_ALL_FEATURES
  6
Continuous
 62
     7
100
AcDbLine
 10
588.9926
 20
443.814573
 30
0.0
 11
588.9926
 21
442.159787
 31
0.0
  0
LINE
  5
324
330
222
100
AcDbEntity
  8
7_ALL_FEATURES
  6
Continuous
 62
     7
100
AcDbLine
 10
588.9926
 20
447.814525
 30
0.0
 11
588.9926
 21
445.064525
 31
0.0
  0
LINE
  5
325
330
222
100
AcDbEntity
  8
7_ALL_FEATURES
  6
Continuous
 62
     7
100
AcDbLine
 10
588.9926
 20
450.564525
 30
0.0
 11
588.9926
 21
448.564525
 31
0.0
  0
LINE
  5
326
330
222
100
AcDbEntity
  8
7_ALL_FEATURES
  6
Continuous
 62
     7
100
AcDbLine
 10
588.9926
 20
465.314525
 30
0.0
 11
588.9926
 21
450.564525
 31
0.0
  0
LINE
  5
327
330
222
100
AcDbEntity
  8
7_ALL_FEATURES
  6
Continuous
 62
     7
100
AcDbLine
 10
588.9926
 20
466.314525
 30
0.0
 11
588.9926
 21
465.314525
 31
0.0
  0
LINE
  5
328
330
222
100
AcDbEntity
  8
7_ALL_FEATURES
  6
Continuous
 62
     7
100
AcDbLine
 10
588.9926
 20
448.564525
 30
0.0
 11
588.9926
 21
447.814525
 31
0.0
  0
LINE
  5
329
330
222
100
AcDbEntity
  8
7_ALL_FEATURES
  6
Continuous
 62
     7
100
AcDbLine
 10
587.4926
 20
447.814525
 30
0.0
 11
587.4926
 21
448.564525
 31
0.0
  0
LINE
  5
32A
330
222
100
AcDbEntity
  8
7_ALL_FEATURES
  6
Continuous
 62
     7
100
AcDbLine
 10
588.9926
 20
433.564525
 30
0.0
 11
588.9926
 21
430.064525
 31
0.0
  0
LINE
  5
32B
330
222
100
AcDbEntity
  8
7_ALL_FEATURES
  6
Continuous
 62
     7
100
AcDbLine
 10
588.9926
 20
466.314525
 30
0.0
 11
587.4926
 21
466.314525
 31
0.0
  0
LINE
  5
32C
330
222
100
AcDbEntity
  8
7_ALL_FEATURES
  6
Continuous
 62
     7
100
AcDbLine
 10
588.9926
 20
448.564525
 30
0.0
 11
587.4926
 21
448.564525
 31
0.0
  0
LINE
  5
32D
330
222
100
AcDbEntity
  8
7_ALL_FEATURES
  6
Continuous
 62
     7
100
AcDbLine
 10
588.9926
 20
430.064525
 30
0.0
 11
587.4926
 21
430.064525
 31
0.0
  0
LINE
  5
32E
330
222
100
AcDbEntity
  8
7_ALL_FEATURES
  6
Continuous
 62
     9
100
AcDbLine
 10
587.4926
 20
442.159787
 30
0.0
 11
588.9926
 21
442.159787
 31
0.0
  0
LINE
  5
32F
330
222
100
AcDbEntity
  8
7_ALL_FEATURES
  6
Continuous
 62
     9
100
AcDbLine
 10
588.9926
 20
465.314525
 30
0.0
 11
587.4926
 21
465.314525
 31
0.0
  0
LINE
  5
330
330
222
100
AcDbEntity
  8
7_ALL_FEATURES
  6
Continuous
 62
     9
100
AcDbLine
 10
588.9926
 20
450.564525
 30
0.0
 11
587.4926
 21
450.564525
 31
0.0
  0
LINE
  5
331
330
222
100
AcDbEntity
  8
7_ALL_FEATURES
  6
Continuous
 62
     9
100
AcDbLine
 10
588.9926
 20
445.064525
 30
0.0
 11
587.4926
 21
445.064525
 31
0.0
  0
LINE
  5
332
330
222
100
AcDbEntity
  8
7_ALL_FEATURES
  6
Continuous
 62
     9
100
AcDbLine
 10
587.4926
 20
447.814525
 30
0.0
 11
588.9926
 21
447.814525
 31
0.0
  0
LINE
  5
333
330
222
100
AcDbEntity
  8
7_ALL_FEATURES
  6
Continuous
 62
     9
100
AcDbLine
 10
587.4926
 20
441.191541
 30
0.0
 11
588.9926
 21
441.191541
 31
0.0
  0
LINE
  5
334
330
222
100
AcDbEntity
  8
7_ALL_FEATURES
  6
Continuous
 62
     9
100
AcDbLine
 10
588.9926
 20
433.564525
 30
0.0
 11
587.4926
 21
433.564525
 31
0.0
  0
LINE
  5
335
330
222
100
AcDbEntity
  8
7_ALL_FEATURES
  6
Continuous
 62
     7
100
AcDbLine
 10
84.4926
 20
466.314525
 30
0.0
 11
84.4926
 21
465.314525
 31
0.0
  0
LINE
  5
336
330
222
100
AcDbEntity
  8
7_ALL_FEATURES
  6
Continuous
 62
     7
100
AcDbLine
 10
84.4926
 20
433.564525
 30
0.0
 11
84.4926
 21
430.064525
 31
0.0
  0
LINE
  5
337
330
222
100
AcDbEntity
  8
7_ALL_FEATURES
  6
Continuous
 62
     7
100
AcDbLine
 10
84.4926
 20
433.564525
 30
0.0
 11
84.4926
 21
441.191541
 31
0.0
  0
LINE
  5
338
330
222
100
AcDbEntity
  8
7_ALL_FEATURES
  6
Continuous
 62
     7
100
AcDbLine
 10
84.4926
 20
445.064525
 30
0.0
 11
84.4926
 21
442.314525
 31
0.0
  0
LINE
  5
339
330
222
100
AcDbEntity
  8
7_ALL_FEATURES
  6
Continuous
 62
     7
100
AcDbLine
 10
84.4926
 20
442.314525
 30
0.0
 11
84.4926
 21
442.159787
 31
0.0
  0
LINE
  5
33A
330
222
100
AcDbEntity
  8
7_ALL_FEATURES
  6
Continuous
 62
     7
100
AcDbLine
 10
84.4926
 20
445.064525
 30
0.0
 11
84.4926
 21
447.814525
 31
0.0
  0
LINE
  5
33B
330
222
100
AcDbEntity
  8
7_ALL_FEATURES
  6
Continuous
 62
     7
100
AcDbLine
 10
82.9926
 20
466.314525
 30
0.0
 11
84.4926
 21
466.314525
 31
0.0
  0
LINE
  5
33C
330
222
100
AcDbEntity
  8
7_ALL_FEATURES
  6
Continuous
 62
     7
100
AcDbLine
 10
84.4926
 20
450.564525
 30
0.0
 11
84.4926
 21
448.564525
 31
0.0
  0
LINE
  5
33D
330
222
100
AcDbEntity
  8
7_ALL_FEATURES
  6
Continuous
 62
     7
100
AcDbLine
 10
84.4926
 20
450.564525
 30
0.0
 11
84.4926
 21
465.314525
 31
0.0
  0
LINE
  5
33E
330
222
100
AcDbEntity
  8
7_ALL_FEATURES
  6
Continuous
 62
     7
100
AcDbLine
 10
84.4926
 20
448.564525
 30
0.0
 11
84.4926
 21
447.814525
 31
0.0
  0
LINE
  5
33F
330
222
100
AcDbEntity
  8
7_ALL_FEATURES
  6
Continuous
 62
     7
100
AcDbLine
 10
84.4926
 20
442.159787
 30
0.0
 11
84.4926
 21
441.191541
 31
0.0
  0
LINE
  5
340
330
222
100
AcDbEntity
  8
7_ALL_FEATURES
  6
Continuous
 62
     7
100
AcDbLine
 10
82.9926
 20
441.191541
 30
0.0
 11
82.9926
 21
442.159787
 31
0.0
  0
LINE
  5
341
330
222
100
AcDbEntity
  8
7_ALL_FEATURES
  6
Continuous
 62
     7
100
AcDbLine
 10
82.9926
 20
465.314525
 30
0.0
 11
82.9926
 21
466.314525
 31
0.0
  0
LINE
  5
342
330
222
100
AcDbEntity
  8
7_ALL_FEATURES
  6
Continuous
 62
     7
100
AcDbLine
 10
82.9926
 20
450.564525
 30
0.0
 11
82.9926
 21
465.314525
 31
0.0
  0
LINE
  5
343
330
222
100
AcDbEntity
  8
7_ALL_FEATURES
  6
Continuous
 62
     7
100
AcDbLine
 10
82.9926
 20
448.564525
 30
0.0
 11
82.9926
 21
450.564525
 31
0.0
  0
LINE
  5
344
330
222
100
AcDbEntity
  8
7_ALL_FEATURES
  6
Continuous
 62
     7
100
AcDbLine
 10
82.9926
 20
445.064525
 30
0.0
 11
82.9926
 21
447.814525
 31
0.0
  0
LINE
  5
345
330
222
100
AcDbEntity
  8
7_ALL_FEATURES
  6
Continuous
 62
     7
100
AcDbLine
 10
82.9926
 20
442.159787
 30
0.0
 11
82.9926
 21
443.814573
 31
0.0
  0
LINE
  5
346
330
222
100
AcDbEntity
  8
7_ALL_FEATURES
  6
Continuous
 62
     7
100
AcDbLine
 10
82.9926
 20
443.814573
 30
0.0
 11
82.9926
 21
445.064525
 31
0.0
  0
LINE
  5
347
330
222
100
AcDbEntity
  8
7_ALL_FEATURES
  6
Continuous
 62
     7
100
AcDbLine
 10
82.9926
 20
433.564525
 30
0.0
 11
82.9926
 21
441.191541
 31
0.0
  0
LINE
  5
348
330
222
100
AcDbEntity
  8
7_ALL_FEATURES
  6
Continuous
 62
     7
100
AcDbLine
 10
82.9926
 20
430.064525
 30
0.0
 11
82.9926
 21
433.564525
 31
0.0
  0
LINE
  5
349
330
222
100
AcDbEntity
  8
7_ALL_FEATURES
  6
Continuous
 62
     7
100
AcDbLine
 10
82.9926
 20
447.814525
 30
0.0
 11
82.9926
 21
448.564525
 31
0.0
  0
LINE
  5
34A
330
222
100
AcDbEntity
  8
7_ALL_FEATURES
  6
Continuous
 62
     7
100
AcDbLine
 10
82.9926
 20
466.314525
 30
0.0
 11
84.4926
 21
466.314525
 31
0.0
  0
LINE
  5
34B
330
222
100
AcDbEntity
  8
7_ALL_FEATURES
  6
Continuous
 62
     7
100
AcDbLine
 10
82.9926
 20
430.064525
 30
0.0
 11
84.4926
 21
430.064525
 31
0.0
  0
LINE
  5
34C
330
222
100
AcDbEntity
  8
7_ALL_FEATURES
  6
Continuous
 62
     7
100
AcDbLine
 10
82.9926
 20
448.564525
 30
0.0
 11
84.4926
 21
448.564525
 31
0.0
  0
LINE
  5
34D
330
222
100
AcDbEntity
  8
7_ALL_FEATURES
  6
Continuous
 62
     9
100
AcDbLine
 10
82.9926
 20
442.159787
 30
0.0
 11
84.4926
 21
442.159787
 31
0.0
  0
LINE
  5
34E
330
222
100
AcDbEntity
  8
7_ALL_FEATURES
  6
Continuous
 62
     9
100
AcDbLine
 10
82.9926
 20
441.191541
 30
0.0
 11
84.4926
 21
441.191541
 31
0.0
  0
LINE
  5
34F
330
222
100
AcDbEntity
  8
7_ALL_FEATURES
  6
Continuous
 62
     9
100
AcDbLine
 10
82.9926
 20
433.564525
 30
0.0
 11
84.4926
 21
433.564525
 31
0.0
  0
LINE
  5
350
330
222
100
AcDbEntity
  8
7_ALL_FEATURES
  6
Continuous
 62
     9
100
AcDbLine
 10
82.9926
 20
445.064525
 30
0.0
 11
84.4926
 21
445.064525
 31
0.0
  0
LINE
  5
351
330
222
100
AcDbEntity
  8
7_ALL_FEATURES
  6
Continuous
 62
     9
100
AcDbLine
 10
84.4926
 20
447.814525
 30
0.0
 11
82.9926
 21
447.814525
 31
0.0
  0
LINE
  5
352
330
222
100
AcDbEntity
  8
7_ALL_FEATURES
  6
Continuous
 62
     9
100
AcDbLine
 10
82.9926
 20
450.564525
 30
0.0
 11
84.4926
 21
450.564525
 31
0.0
  0
LINE
  5
353
330
222
100
AcDbEntity
  8
7_ALL_FEATURES
  6
Continuous
 62
     9
100
AcDbLine
 10
82.9926
 20
465.314525
 30
0.0
 11
84.4926
 21
465.314525
 31
0.0
  0
LINE
  5
354
330
222
100
AcDbEntity
  8
3_ALL_AXES
  6
Continuous
 62
     7
100
AcDbLine
 10
576.2426
 20
441.314525
 30
0.0
 11
576.2426
 21
437.814525
 31
0.0
  0
LINE
  5
355
330
222
100
AcDbEntity
  8
3_ALL_AXES
  6
Continuous
 62
     7
100
AcDbLine
 10
576.2426
 20
437.814525
 30
0.0
 11
574.2426
 21
437.814525
 31
0.0
  0
LINE
  5
356
330
222
100
AcDbEntity
  8
3_ALL_AXES
  6
Continuous
 62
     7
100
AcDbLine
 10
574.2426
 20
437.814525
 30
0.0
 11
572.2426
 21
437.814525
 31
0.0
  0
LINE
  5
357
330
222
100
AcDbEntity
  8
3_ALL_AXES
  6
Continuous
 62
     7
100
AcDbLine
 10
576.2426
 20
434.814525
 30
0.0
 11
574.2426
 21
434.814525
 31
0.0
  0
LINE
  5
358
330
222
100
AcDbEntity
  8
3_ALL_AXES
  6
Continuous
 62
     7
100
AcDbLine
 10
574.2426
 20
434.814525
 30
0.0
 11
572.2426
 21
434.814525
 31
0.0
  0
LINE
  5
359
330
222
100
AcDbEntity
  8
3_ALL_AXES
  6
Continuous
 62
     7
100
AcDbLine
 10
576.2426
 20
434.814525
 30
0.0
 11
576.2426
 21
430.314525
 31
0.0
  0
LINE
  5
35A
330
222
100
AcDbEntity
  8
3_ALL_AXES
  6
Continuous
 62
     7
100
AcDbLine
 10
572.2426
 20
437.814525
 30
0.0
 11
564.2426
 21
437.814525
 31
0.0
  0
LINE
  5
35B
330
222
100
AcDbEntity
  8
3_ALL_AXES
  6
Continuous
 62
     7
100
AcDbLine
 10
572.2426
 20
434.814525
 30
0.0
 11
564.2426
 21
434.814525
 31
0.0
  0
LINE
  5
35C
330
222
100
AcDbEntity
  8
3_ALL_AXES
  6
Continuous
 62
     7
100
AcDbLine
 10
564.2426
 20
437.814525
 30
0.0
 11
562.2426
 21
437.814525
 31
0.0
  0
LINE
  5
35D
330
222
100
AcDbEntity
  8
3_ALL_AXES
  6
Continuous
 62
     7
100
AcDbLine
 10
562.2426
 20
437.814525
 30
0.0
 11
560.2426
 21
437.814525
 31
0.0
  0
LINE
  5
35E
330
222
100
AcDbEntity
  8
3_ALL_AXES
  6
Continuous
 62
     7
100
AcDbLine
 10
564.2426
 20
434.814525
 30
0.0
 11
562.2426
 21
434.814525
 31
0.0
  0
LINE
  5
35F
330
222
100
AcDbEntity
  8
3_ALL_AXES
  6
Continuous
 62
     7
100
AcDbLine
 10
562.2426
 20
434.814525
 30
0.0
 11
560.2426
 21
434.814525
 31
0.0
  0
LINE
  5
360
330
222
100
AcDbEntity
  8
3_ALL_AXES
  6
Continuous
 62
     7
100
AcDbLine
 10
562.2426
 20
434.814525
 30
0.0
 11
562.2426
 21
437.814525
 31
0.0
  0
LINE
  5
361
330
222
100
AcDbEntity
  8
3_ALL_AXES
  6
Continuous
 62
     7
100
AcDbLine
 10
560.2426
 20
434.814525
 30
0.0
 11
560.2426
 21
430.314525
 31
0.0
  0
ARC
  5
362
330
222
100
AcDbEntity
  8
3_ALL_AXES
  6
Continuous
 62
     7
100
AcDbCircle
 10
564.7426
 20
428.814525
 30
0.0
 40
3.5
100
AcDbArc
 50
183.555665
 51
266.371503
  0
ARC
  5
363
330
222
100
AcDbEntity
  8
3_ALL_AXES
  6
Continuous
 62
     7
100
AcDbCircle
 10
564.7426
 20
428.814525
 30
0.0
 40
3.5
100
AcDbArc
 50
180.0
 51
183.555665
  0
LINE
  5
364
330
222
100
AcDbEntity
  8
3_ALL_AXES
  6
Continuous
 62
     7
100
AcDbLine
 10
564.7426
 20
425.314525
 30
0.0
 11
568.2426
 21
425.314525
 31
0.0
  0
LINE
  5
365
330
222
100
AcDbEntity
  8
3_ALL_AXES
  6
Continuous
 62
     7
100
AcDbLine
 10
568.2426
 20
425.314525
 30
0.0
 11
571.7426
 21
425.314525
 31
0.0
  0
LINE
  5
366
330
222
100
AcDbEntity
  8
3_ALL_AXES
  6
Continuous
 62
     7
100
AcDbLine
 10
574.2426
 20
434.814525
 30
0.0
 11
574.2426
 21
437.814525
 31
0.0
  0
ARC
  5
367
330
222
100
AcDbEntity
  8
3_ALL_AXES
  6
Continuous
 62
     7
100
AcDbCircle
 10
571.7426
 20
428.814525
 30
0.0
 40
3.5
100
AcDbArc
 50
270.0
 51
273.555665
  0
ARC
  5
368
330
222
100
AcDbEntity
  8
3_ALL_AXES
  6
Continuous
 62
     7
100
AcDbCircle
 10
571.7426
 20
428.814525
 30
0.0
 40
3.5
100
AcDbArc
 50
273.555665
 51
356.444335
  0
ARC
  5
369
330
222
100
AcDbEntity
  8
3_ALL_AXES
  6
Continuous
 62
     7
100
AcDbCircle
 10
571.7426
 20
428.814525
 30
0.0
 40
3.5
100
AcDbArc
 50
356.444335
 51
360.0
  0
LINE
  5
36A
330
222
100
AcDbEntity
  8
3_ALL_AXES
  6
Continuous
 62
     7
100
AcDbLine
 10
560.2426
 20
441.314525
 30
0.0
 11
560.2426
 21
437.814525
 31
0.0
  0
LINE
  5
36B
330
222
100
AcDbEntity
  8
3_ALL_AXES
  6
Continuous
 62
     7
100
AcDbLine
 10
575.2426
 20
428.814525
 30
0.0
 11
575.2426
 21
429.314525
 31
0.0
  0
LINE
  5
36C
330
222
100
AcDbEntity
  8
3_ALL_AXES
  6
Continuous
 62
     7
100
AcDbLine
 10
561.2426
 20
428.814525
 30
0.0
 11
561.2426
 21
429.314525
 31
0.0
  0
LINE
  5
36D
330
222
100
AcDbEntity
  8
3_ALL_AXES
  6
Continuous
 62
     7
100
AcDbLine
 10
575.2426
 20
429.314525
 30
0.0
 11
576.2426
 21
430.314525
 31
0.0
  0
LINE
  5
36E
330
222
100
AcDbEntity
  8
3_ALL_AXES
  6
Continuous
 62
     7
100
AcDbLine
 10
561.2426
 20
429.314525
 30
0.0
 11
560.2426
 21
430.314525
 31
0.0
  0
LINE
  5
36F
330
222
100
AcDbEntity
  8
3_ALL_AXES
  6
Continuous
 62
     7
100
AcDbLine
 10
562.2426
 20
437.814525
 30
0.0
 11
562.2426
 21
434.814525
 31
0.0
  0
LINE
  5
370
330
222
100
AcDbEntity
  8
3_ALL_AXES
  6
Continuous
 62
     7
100
AcDbLine
 10
574.2426
 20
437.814525
 30
0.0
 11
574.2426
 21
434.814525
 31
0.0
  0
LINE
  5
371
330
222
100
AcDbEntity
  8
7_ALL_FEATURES
  6
Continuous
 62
     7
100
AcDbLine
 10
568.2426
 20
425.314525
 30
0.0
 11
571.7426
 21
425.314525
 31
0.0
  0
ARC
  5
372
330
222
100
AcDbEntity
  8
7_ALL_FEATURES
  6
Continuous
 62
     7
100
AcDbCircle
 10
571.7426
 20
428.814525
 30
0.0
 40
3.5
100
AcDbArc
 50
356.444554
 51
360.0
  0
ARC
  5
373
330
222
100
AcDbEntity
  8
7_ALL_FEATURES
  6
Continuous
 62
     7
100
AcDbCircle
 10
571.7426
 20
428.814525
 30
0.0
 40
3.5
100
AcDbArc
 50
273.555446
 51
356.444554
  0
ARC
  5
374
330
222
100
AcDbEntity
  8
7_ALL_FEATURES
  6
Continuous
 62
     7
100
AcDbCircle
 10
571.7426
 20
428.814525
 30
0.0
 40
3.5
100
AcDbArc
 50
270.0
 51
273.555446
  0
ARC
  5
375
330
222
100
AcDbEntity
  8
7_ALL_FEATURES
  6
Continuous
 62
     7
100
AcDbCircle
 10
564.7426
 20
428.814525
 30
0.0
 40
3.5
100
AcDbArc
 50
180.0
 51
183.555446
  0
ARC
  5
376
330
222
100
AcDbEntity
  8
7_ALL_FEATURES
  6
Continuous
 62
     7
100
AcDbCircle
 10
564.7426
 20
428.814525
 30
0.0
 40
3.5
100
AcDbArc
 50
183.555446
 51
266.369094
  0
LINE
  5
377
330
222
100
AcDbEntity
  8
3_ALL_AXES
  6
Continuous
 62
     7
100
AcDbLine
 10
569.2426
 20
428.814525
 30
0.0
 11
569.2426
 21
429.314525
 31
0.0
  0
SPLINE
  5
378
330
222
100
AcDbEntity
  8
3_ALL_AXES
  6
Continuous
 62
     7
100
AcDbSpline
 70
     0
 71
     3
 72
    19
 73
    15
 74
     0
 42
0.000000001
 43
0.0000001
 40
0.0
 40
0.0
 40
0.0
 40
0.0
 40
0.062499569
 40
0.1250450196
 40
0.1876243679
 40
0.2502137548
 40
0.3750836247
 40
0.5000591496
 40
0.6250261711
 40
0.7498800617
 40
0.8124624827
 40
0.8750225901
 40
0.9375286272
 40
1.0
 40
1.0
 40
1.0
 40
1.0
 10
567.2426003252
 20
428.8145248439
 30
0.0
 10
567.2426003252
 20
428.7584512322
 30
0.0
 10
567.2621094403
 20
428.6454621383
 30
0.0
 10
567.3418934104
 20
428.494739755
 30
0.0
 10
567.4569528649
 20
428.3696900461
 30
0.0
 10
567.6403965646
 20
428.2385241801
 30
0.0
 10
567.905796502
 20
428.1353934289
 30
0.0
 10
568.2427542131
 20
428.0961370063
 30
0.0
 10
568.5796860462
 20
428.1354747184
 30
0.0
 10
568.8450402329
 20
428.2386430362
 30
0.0
 10
569.0284218601
 20
428.3698341925
 30
0.0
 10
569.1433926301
 20
428.4948842216
 30
0.0
 10
569.2231104059
 20
428.645548325
 30
0.0
 10
569.2426003252
 20
428.7584765293
 30
0.0
 10
569.2426003252
 20
428.8145248439
 30
0.0
  0
LINE
  5
379
330
222
100
AcDbEntity
  8
3_ALL_AXES
  6
Continuous
 62
     7
100
AcDbLine
 10
567.2426
 20
428.814525
 30
0.0
 11
567.2426
 21
429.314525
 31
0.0
  0
SPLINE
  5
37A
330
222
100
AcDbEntity
  8
3_ALL_AXES
  6
Continuous
 62
     7
100
AcDbSpline
 70
     0
 71
     3
 72
     9
 73
     5
 74
     0
 42
0.000000001
 43
0.0000001
 40
0.0
 40
0.0
 40
0.0
 40
0.0
 40
0.5001651926
 40
1.0
 40
1.0
 40
1.0
 40
1.0
 10
564.2426003252
 20
430.3145248439
 30
0.0
 10
564.7156868917
 20
430.0779815607
 30
0.0
 10
565.6875025936
 20
429.6537477522
 30
0.0
 10
566.7193353194
 20
429.3892769876
 30
0.0
 10
567.2426003252
 20
429.3145248439
 30
0.0
  0
LINE
  5
37B
330
222
100
AcDbEntity
  8
3_ALL_AXES
  6
Continuous
 62
     7
100
AcDbLine
 10
573.7426
 20
428.814525
 30
0.0
 11
573.7426
 21
429.314525
 31
0.0
  0
LINE
  5
37C
330
222
100
AcDbEntity
  8
3_ALL_AXES
  6
Continuous
 62
     7
100
AcDbLine
 10
564.2426
 20
441.314525
 30
0.0
 11
564.2426
 21
437.814525
 31
0.0
  0
SPLINE
  5
37D
330
222
100
AcDbEntity
  8
3_ALL_AXES
  6
Continuous
 62
     7
100
AcDbSpline
 70
     0
 71
     3
 72
    10
 73
     6
 74
     0
 42
0.000000001
 43
0.0000001
 40
0.0
 40
0.0
 40
0.0
 40
0.0
 40
0.2703642709
 40
0.5278686738
 40
1.0
 40
1.0
 40
1.0
 40
1.0
 10
572.2426003252
 20
430.3145248439
 30
0.0
 10
572.3584262902
 20
430.198698879
 30
0.0
 10
572.592219486
 20
429.9795680763
 30
0.0
 10
573.0685367905
 20
429.6059370052
 30
0.0
 10
573.4675611553
 20
429.3931074639
 30
0.0
 10
573.7426003252
 20
429.3145248439
 30
0.0
  0
SPLINE
  5
37E
330
222
100
AcDbEntity
  8
3_ALL_AXES
  6
Continuous
 62
     7
100
AcDbSpline
 70
     0
 71
     3
 72
    10
 73
     6
 74
     0
 42
0.000000001
 43
0.0000001
 40
0.0
 40
0.0
 40
0.0
 40
0.0
 40
0.472131348
 40
0.7296357382
 40
1.0
 40
1.0
 40
1.0
 40
1.0
 10
574.7426003252
 20
429.3145248439
 30
0.0
 10
575.0176395078
 20
429.3931074675
 30
0.0
 10
575.4166638757
 20
429.6059370165
 30
0.0
 10
575.8929811768
 20
429.9795680909
 30
0.0
 10
576.1267743643
 20
430.198698883
 30
0.0
 10
576.2426003252
 20
430.3145248439
 30
0.0
  0
LINE
  5
37F
330
222
100
AcDbEntity
  8
3_ALL_AXES
  6
Continuous
 62
     7
100
AcDbLine
 10
564.2426
 20
434.814525
 30
0.0
 11
564.2426
 21
430.314525
 31
0.0
  0
SPLINE
  5
380
330
222
100
AcDbEntity
  8
3_ALL_AXES
  6
Continuous
 62
     7
100
AcDbSpline
 70
     0
 71
     3
 72
    10
 73
     6
 74
     0
 42
0.000000001
 43
0.0000001
 40
0.0
 40
0.0
 40
0.0
 40
0.0
 40
0.2703642709
 40
0.5278686738
 40
1.0
 40
1.0
 40
1.0
 40
1.0
 10
560.2426003252
 20
430.3145248439
 30
0.0
 10
560.3584262902
 20
430.198698879
 30
0.0
 10
560.592219486
 20
429.9795680763
 30
0.0
 10
561.0685367905
 20
429.6059370052
 30
0.0
 10
561.4675611553
 20
429.3931074639
 30
0.0
 10
561.7426003252
 20
429.3145248439
 30
0.0
  0
LINE
  5
381
330
222
100
AcDbEntity
  8
3_ALL_AXES
  6
Continuous
 62
     7
100
AcDbLine
 10
561.2426
 20
429.314525
 30
0.0
 11
561.7426
 21
429.314525
 31
0.0
  0
SPLINE
  5
382
330
222
100
AcDbEntity
  8
3_ALL_AXES
  6
Continuous
 62
     7
100
AcDbSpline
 70
     0
 71
     3
 72
    10
 73
     6
 74
     0
 42
0.000000001
 43
0.0000001
 40
0.0
 40
0.0
 40
0.0
 40
0.0
 40
0.472131348
 40
0.7296357382
 40
1.0
 40
1.0
 40
1.0
 40
1.0
 10
562.7426003252
 20
429.3145248439
 30
0.0
 10
563.0176395078
 20
429.3931074675
 30
0.0
 10
563.4166638757
 20
429.6059370165
 30
0.0
 10
563.8929811768
 20
429.9795680909
 30
0.0
 10
564.1267743643
 20
430.198698883
 30
0.0
 10
564.2426003252
 20
430.3145248439
 30
0.0
  0
LINE
  5
383
330
222
100
AcDbEntity
  8
3_ALL_AXES
  6
Continuous
 62
     7
100
AcDbLine
 10
562.7426
 20
428.814525
 30
0.0
 11
562.7426
 21
429.314525
 31
0.0
  0
SPLINE
  5
384
330
222
100
AcDbEntity
  8
3_ALL_AXES
  6
Continuous
 62
     7
100
AcDbSpline
 70
     0
 71
     3
 72
    15
 73
    11
 74
     0
 42
0.000000001
 43
0.0000001
 40
0.0
 40
0.0
 40
0.0
 40
0.0
 40
0.1686889682
 40
0.3038155322
 40
0.4094422526
 40
0.5000398214
 40
0.5906390971
 40
0.6962706796
 40
0.8313936487
 40
1.0
 40
1.0
 40
1.0
 40
1.0
 10
561.7426003252
 20
428.8145248439
 30
0.0
 10
561.7426003252
 20
428.7079191687
 30
0.0
 10
561.7729664561
 20
428.5140496101
 30
0.0
 10
561.8963001521
 20
428.2808669883
 30
0.0
 10
562.0602186962
 20
428.1410745226
 30
0.0
 10
562.2426823782
 20
428.0945219203
 30
0.0
 10
562.4251213989
 20
428.1411624895
 30
0.0
 10
562.5890060931
 20
428.2809922345
 30
0.0
 10
562.71224976
 20
428.5141633286
 30
0.0
 10
562.7426003252
 20
428.7079713798
 30
0.0
 10
562.7426003252
 20
428.8145248439
 30
0.0
  0
LINE
  5
385
330
222
100
AcDbEntity
  8
3_ALL_AXES
  6
Continuous
 62
     7
100
AcDbLine
 10
561.7426
 20
428.814525
 30
0.0
 11
561.7426
 21
429.314525
 31
0.0
  0
LINE
  5
386
330
222
100
AcDbEntity
  8
3_ALL_AXES
  6
Continuous
 62
     7
100
AcDbLine
 10
572.2426
 20
441.314525
 30
0.0
 11
572.2426
 21
437.814525
 31
0.0
  0
LINE
  5
387
330
222
100
AcDbEntity
  8
3_ALL_AXES
  6
Continuous
 62
     7
100
AcDbLine
 10
574.7426
 20
428.814525
 30
0.0
 11
574.7426
 21
429.314525
 31
0.0
  0
SPLINE
  5
388
330
222
100
AcDbEntity
  8
3_ALL_AXES
  6
Continuous
 62
     7
100
AcDbSpline
 70
     0
 71
     3
 72
    15
 73
    11
 74
     0
 42
0.000000001
 43
0.0000001
 40
0.0
 40
0.0
 40
0.0
 40
0.0
 40
0.1686964145
 40
0.303825837
 40
0.4094560199
 40
0.5000450187
 40
0.5906383609
 40
0.6962584594
 40
0.831376692
 40
1.0
 40
1.0
 40
1.0
 40
1.0
 10
573.7426003252
 20
428.8145248439
 30
0.0
 10
573.7426003252
 20
428.7079145116
 30
0.0
 10
573.7729699603
 20
428.5140389179
 30
0.0
 10
573.896310575
 20
428.2808487556
 30
0.0
 10
574.0602378374
 20
428.1410678159
 30
0.0
 10
574.2426945314
 20
428.0945232316
 30
0.0
 10
574.4251157743
 20
428.1411631864
 30
0.0
 10
574.5889910489
 20
428.2809787438
 30
0.0
 10
574.7122479618
 20
428.5141435411
 30
0.0
 10
574.7426003252
 20
428.7079607124
 30
0.0
 10
574.7426003252
 20
428.8145248439
 30
0.0
  0
LINE
  5
389
330
222
100
AcDbEntity
  8
3_ALL_AXES
  6
Continuous
 62
     9
100
AcDbLine
 10
575.2426
 20
428.814525
 30
0.0
 11
574.7426
 21
428.814525
 31
0.0
  0
LINE
  5
38A
330
222
100
AcDbEntity
  8
3_ALL_AXES
  6
Continuous
 62
     9
100
AcDbLine
 10
573.7426
 20
428.814525
 30
0.0
 11
569.2426
 21
428.814525
 31
0.0
  0
LINE
  5
38B
330
222
100
AcDbEntity
  8
3_ALL_AXES
  6
Continuous
 62
     9
100
AcDbLine
 10
567.2426
 20
428.814525
 30
0.0
 11
562.7426
 21
428.814525
 31
0.0
  0
LINE
  5
38C
330
222
100
AcDbEntity
  8
3_ALL_AXES
  6
Continuous
 62
     9
100
AcDbLine
 10
561.7426
 20
428.814525
 30
0.0
 11
561.2426
 21
428.814525
 31
0.0
  0
LINE
  5
38D
330
222
100
AcDbEntity
  8
3_ALL_AXES
  6
Continuous
 62
     7
100
AcDbLine
 10
572.2426
 20
434.814525
 30
0.0
 11
572.2426
 21
430.314525
 31
0.0
  0
SPLINE
  5
38E
330
222
100
AcDbEntity
  8
3_ALL_AXES
  6
Continuous
 62
     7
100
AcDbSpline
 70
     0
 71
     3
 72
     9
 73
     5
 74
     0
 42
0.000000001
 43
0.0000001
 40
0.0
 40
0.0
 40
0.0
 40
0.0
 40
0.4998348289
 40
1.0
 40
1.0
 40
1.0
 40
1.0
 10
569.2426003252
 20
429.3145248439
 30
0.0
 10
569.7658653536
 20
429.3892769908
 30
0.0
 10
570.7976980777
 20
429.6537477634
 30
0.0
 10
571.7695137792
 20
430.0779815709
 30
0.0
 10
572.2426003252
 20
430.3145248439
 30
0.0
  0
LINE
  5
38F
330
222
100
AcDbEntity
  8
3_ALL_AXES
  6
Continuous
 62
     7
100
AcDbLine
 10
567.2426
 20
429.314525
 30
0.0
 11
562.7426
 21
429.314525
 31
0.0
  0
LINE
  5
390
330
222
100
AcDbEntity
  8
3_ALL_AXES
  6
Continuous
 62
     7
100
AcDbLine
 10
573.7426
 20
429.314525
 30
0.0
 11
569.2426
 21
429.314525
 31
0.0
  0
LINE
  5
391
330
222
100
AcDbEntity
  8
3_ALL_AXES
  6
Continuous
 62
     7
100
AcDbLine
 10
574.7426
 20
429.314525
 30
0.0
 11
575.2426
 21
429.314525
 31
0.0
  0
LINE
  5
392
330
222
100
AcDbEntity
  8
7_ALL_FEATURES
  6
Continuous
 62
     7
100
AcDbLine
 10
135.2426
 20
440.314525
 30
0.0
 11
135.2426
 21
440.814525
 31
0.0
  0
LINE
  5
393
330
222
100
AcDbEntity
  8
7_ALL_FEATURES
  6
Continuous
 62
     7
100
AcDbLine
 10
135.2426
 20
440.814525
 30
0.0
 11
135.2426
 21
440.887869
 31
0.0
  0
LINE
  5
394
330
222
100
AcDbEntity
  8
7_ALL_FEATURES
  6
Continuous
 62
     7
100
AcDbLine
 10
135.2426
 20
440.887869
 30
0.0
 11
135.2426
 21
441.314525
 31
0.0
  0
LINE
  5
395
330
222
100
AcDbEntity
  8
7_ALL_FEATURES
  6
Continuous
 62
     7
100
AcDbLine
 10
147.2426
 20
441.314525
 30
0.0
 11
135.2426
 21
441.314525
 31
0.0
  0
LINE
  5
396
330
222
100
AcDbEntity
  8
7_ALL_FEATURES
  6
Continuous
 62
     7
100
AcDbLine
 10
147.2426
 20
440.314525
 30
0.0
 11
147.2426
 21
440.814525
 31
0.0
  0
LINE
  5
397
330
222
100
AcDbEntity
  8
7_ALL_FEATURES
  6
Continuous
 62
     7
100
AcDbLine
 10
147.2426
 20
440.814525
 30
0.0
 11
147.2426
 21
441.314525
 31
0.0
  0
LINE
  5
398
330
222
100
AcDbEntity
  8
7_ALL_FEATURES
  6
Continuous
 62
     7
100
AcDbLine
 10
135.2426
 20
440.314525
 30
0.0
 11
135.2426
 21
432.646234
 31
0.0
  0
LINE
  5
399
330
222
100
AcDbEntity
  8
7_ALL_FEATURES
  6
Continuous
 62
     7
100
AcDbLine
 10
147.2426
 20
432.646234
 30
0.0
 11
147.2426
 21
440.314525
 31
0.0
  0
LINE
  5
39A
330
222
100
AcDbEntity
  8
7_ALL_FEATURES
  6
Continuous
 62
     7
100
AcDbLine
 10
135.2426
 20
430.907384
 30
0.0
 11
135.2426
 21
432.231715
 31
0.0
  0
LINE
  5
39B
330
222
100
AcDbEntity
  8
7_ALL_FEATURES
  6
Continuous
 62
     7
100
AcDbLine
 10
147.2426
 20
432.231715
 30
0.0
 11
147.2426
 21
430.907384
 31
0.0
  0
LINE
  5
39C
330
222
100
AcDbEntity
  8
7_ALL_FEATURES
  6
Continuous
 62
     7
100
AcDbLine
 10
135.2426
 20
432.231715
 30
0.0
 11
135.2426
 21
432.646234
 31
0.0
  0
LINE
  5
39D
330
222
100
AcDbEntity
  8
7_ALL_FEATURES
  6
Continuous
 62
     7
100
AcDbLine
 10
147.2426
 20
432.231715
 30
0.0
 11
147.2426
 21
432.646234
 31
0.0
  0
SPLINE
  5
39E
330
222
100
AcDbEntity
  8
7_ALL_FEATURES
  6
Continuous
 62
     7
100
AcDbSpline
 70
     0
 71
     3
 72
     9
 73
     5
 74
     0
 42
0.000000001
 43
0.0000001
 40
0.0
 40
0.0
 40
0.0
 40
0.0
 40
0.4888112863
 40
1.0
 40
1.0
 40
1.0
 40
1.0
 10
137.6568138876
 20
421.4868391004
 30
0.0
 10
137.8471573719
 20
421.3290372003
 30
0.0
 10
138.3031003193
 20
421.0823309054
 30
0.0
 10
138.8124595406
 20
421.0012001341
 30
0.0
 10
139.07102745
 20
421.0012001341
 30
0.0
  0
LINE
  5
39F
330
222
100
AcDbEntity
  8
7_ALL_FEATURES
  6
Continuous
 62
     7
100
AcDbLine
 10
135.828387
 20
423.002674
 30
0.0
 11
137.656814
 21
421.486839
 31
0.0
  0
SPLINE
  5
3A0
330
222
100
AcDbEntity
  8
7_ALL_FEATURES
  6
Continuous
 62
     7
100
AcDbSpline
 70
     0
 71
     3
 72
    10
 73
     6
 74
     0
 42
0.000000001
 43
0.0000001
 40
0.0
 40
0.0
 40
0.0
 40
0.0
 40
0.2416818994
 40
0.4874164958
 40
1.0
 40
1.0
 40
1.0
 40
1.0
 10
135.2426003252
 20
424.1751100643
 30
0.0
 10
135.2426003252
 20
424.0665270094
 30
0.0
 10
135.2690231088
 20
423.8466030423
 30
0.0
 10
135.4252585062
 20
423.4221363102
 30
0.0
 10
135.6510960531
 20
423.1496545452
 30
0.0
 10
135.8283867629
 20
423.0026738855
 30
0.0
  0
LINE
  5
3A1
330
222
100
AcDbEntity
  8
7_ALL_FEATURES
  6
Continuous
 62
     7
100
AcDbLine
 10
135.2426
 20
428.130923
 30
0.0
 11
135.2426
 21
424.17511
 31
0.0
  0
LINE
  5
3A2
330
222
100
AcDbEntity
  8
7_ALL_FEATURES
  6
Continuous
 62
     7
100
AcDbLine
 10
147.2426
 20
424.17511
 30
0.0
 11
147.2426
 21
428.130923
 31
0.0
  0
SPLINE
  5
3A3
330
222
100
AcDbEntity
  8
7_ALL_FEATURES
  6
Continuous
 62
     7
100
AcDbSpline
 70
     0
 71
     3
 72
    10
 73
     6
 74
     0
 42
0.000000001
 43
0.0000001
 40
0.0
 40
0.0
 40
0.0
 40
0.0
 40
0.5125835042
 40
0.7583181006
 40
1.0
 40
1.0
 40
1.0
 40
1.0
 10
146.6568138876
 20
423.0026738855
 30
0.0
 10
146.8341045974
 20
423.1496545452
 30
0.0
 10
147.0599421443
 20
423.4221363102
 30
0.0
 10
147.2161775417
 20
423.8466030423
 30
0.0
 10
147.2426003252
 20
424.0665270094
 30
0.0
 10
147.2426003252
 20
424.1751100643
 30
0.0
  0
LINE
  5
3A4
330
222
100
AcDbEntity
  8
7_ALL_FEATURES
  6
Continuous
 62
     7
100
AcDbLine
 10
144.828387
 20
421.486839
 30
0.0
 11
146.656814
 21
423.002674
 31
0.0
  0
SPLINE
  5
3A5
330
222
100
AcDbEntity
  8
7_ALL_FEATURES
  6
Continuous
 62
     7
100
AcDbSpline
 70
     0
 71
     3
 72
     9
 73
     5
 74
     0
 42
0.000000001
 43
0.0000001
 40
0.0
 40
0.0
 40
0.0
 40
0.0
 40
0.5111887137
 40
1.0
 40
1.0
 40
1.0
 40
1.0
 10
143.4141732005
 20
421.0012001341
 30
0.0
 10
143.6727411099
 20
421.0012001341
 30
0.0
 10
144.1821003312
 20
421.0823309054
 30
0.0
 10
144.6380432786
 20
421.3290372003
 30
0.0
 10
144.8283867629
 20
421.4868391004
 30
0.0
  0
LINE
  5
3A6
330
222
100
AcDbEntity
  8
7_ALL_FEATURES
  6
Continuous
 62
     7
100
AcDbLine
 10
139.071027
 20
421.0012
 30
0.0
 11
143.414173
 21
421.0012
 31
0.0
  0
LINE
  5
3A7
330
222
100
AcDbEntity
  8
7_ALL_FEATURES
  6
Continuous
 62
     7
100
AcDbLine
 10
135.2426
 20
428.130923
 30
0.0
 11
135.2426
 21
430.907384
 31
0.0
  0
LINE
  5
3A8
330
222
100
AcDbEntity
  8
7_ALL_FEATURES
  6
Continuous
 62
     7
100
AcDbLine
 10
147.2426
 20
428.130923
 30
0.0
 11
147.2426
 21
430.907384
 31
0.0
  0
LINE
  5
3A9
330
222
100
AcDbEntity
  8
7_ALL_FEATURES
  6
Continuous
 62
     7
100
AcDbLine
 10
154.2426
 20
441.314525
 30
0.0
 11
154.2426
 21
440.814525
 31
0.0
  0
LINE
  5
3AA
330
222
100
AcDbEntity
  8
7_ALL_FEATURES
  6
Continuous
 62
     7
100
AcDbLine
 10
128.2426
 20
441.314525
 30
0.0
 11
128.2426
 21
440.814525
 31
0.0
  0
LINE
  5
3AB
330
222
100
AcDbEntity
  8
7_ALL_FEATURES
  6
Continuous
 62
     7
100
AcDbLine
 10
135.19495
 20
441.314525
 30
0.0
 11
135.2426
 21
441.314525
 31
0.0
  0
LINE
  5
3AC
330
222
100
AcDbEntity
  8
7_ALL_FEATURES
  6
Continuous
 62
     7
100
AcDbLine
 10
147.2426
 20
441.314525
 30
0.0
 11
135.2426
 21
441.314525
 31
0.0
  0
LINE
  5
3AD
330
222
100
AcDbEntity
  8
7_ALL_FEATURES
  6
Continuous
 62
     7
100
AcDbLine
 10
154.2426
 20
441.314525
 30
0.0
 11
154.2426
 21
440.814525
 31
0.0
  0
LINE
  5
3AE
330
222
100
AcDbEntity
  8
7_ALL_FEATURES
  6
Continuous
 62
     7
100
AcDbLine
 10
147.2426
 20
441.314525
 30
0.0
 11
147.290251
 21
441.314525
 31
0.0
  0
LINE
  5
3AF
330
222
100
AcDbEntity
  8
7_ALL_FEATURES
  6
Continuous
 62
     9
100
AcDbLine
 10
135.2426
 20
432.231715
 30
0.0
 11
147.2426
 21
432.231715
 31
0.0
  0
LINE
  5
3B0
330
222
100
AcDbEntity
  8
7_ALL_FEATURES
  6
Continuous
 62
     9
100
AcDbLine
 10
135.2426
 20
432.646234
 30
0.0
 11
147.2426
 21
432.646234
 31
0.0
  0
LINE
  5
3B1
330
222
100
AcDbEntity
  8
7_ALL_FEATURES
  6
Continuous
 62
     9
100
AcDbLine
 10
134.7926
 20
440.814525
 30
0.0
 11
134.7926
 21
441.314525
 31
0.0
  0
LINE
  5
3B2
330
222
100
AcDbEntity
  8
7_ALL_FEATURES
  6
Continuous
 62
     9
100
AcDbLine
 10
130.2426
 20
441.314525
 30
0.0
 11
130.2426
 21
440.814525
 31
0.0
  0
LINE
  5
3B3
330
222
100
AcDbEntity
  8
7_ALL_FEATURES
  6
Continuous
 62
     9
100
AcDbLine
 10
147.6926
 20
440.814525
 30
0.0
 11
147.6926
 21
441.314525
 31
0.0
  0
LINE
  5
3B4
330
222
100
AcDbEntity
  8
7_ALL_FEATURES
  6
Continuous
 62
     9
100
AcDbLine
 10
152.2426
 20
441.314525
 30
0.0
 11
152.2426
 21
440.814525
 31
0.0
  0
LINE
  5
3B5
330
222
100
AcDbEntity
  8
7_ALL_FEATURES
  6
Continuous
 62
     9
100
AcDbLine
 10
147.2426
 20
440.314525
 30
0.0
 11
135.2426
 21
440.314525
 31
0.0
  0
LINE
  5
3B6
330
222
100
AcDbEntity
  8
7_ALL_FEATURES
  6
Continuous
 62
     9
100
AcDbLine
 10
147.2426
 20
428.130923
 30
0.0
 11
135.2426
 21
428.130923
 31
0.0
  0
LINE
  5
3B7
330
222
100
AcDbEntity
  8
7_ALL_FEATURES
  6
Continuous
 62
     9
100
AcDbLine
 10
147.2426
 20
430.907384
 30
0.0
 11
135.2426
 21
430.907384
 31
0.0
  0
LINE
  5
3B8
330
222
100
AcDbEntity
  8
7_ALL_FEATURES
  6
Continuous
 62
     7
100
AcDbLine
 10
524.7426
 20
440.314525
 30
0.0
 11
524.7426
 21
440.814525
 31
0.0
  0
LINE
  5
3B9
330
222
100
AcDbEntity
  8
7_ALL_FEATURES
  6
Continuous
 62
     7
100
AcDbLine
 10
524.7426
 20
440.814525
 30
0.0
 11
524.7426
 21
440.887869
 31
0.0
  0
LINE
  5
3BA
330
222
100
AcDbEntity
  8
7_ALL_FEATURES
  6
Continuous
 62
     7
100
AcDbLine
 10
524.7426
 20
440.887869
 30
0.0
 11
524.7426
 21
441.314525
 31
0.0
  0
LINE
  5
3BB
330
222
100
AcDbEntity
  8
7_ALL_FEATURES
  6
Continuous
 62
     7
100
AcDbLine
 10
536.7426
 20
441.314525
 30
0.0
 11
524.7426
 21
441.314525
 31
0.0
  0
LINE
  5
3BC
330
222
100
AcDbEntity
  8
7_ALL_FEATURES
  6
Continuous
 62
     7
100
AcDbLine
 10
536.7426
 20
440.314525
 30
0.0
 11
536.7426
 21
440.814525
 31
0.0
  0
LINE
  5
3BD
330
222
100
AcDbEntity
  8
7_ALL_FEATURES
  6
Continuous
 62
     7
100
AcDbLine
 10
536.7426
 20
440.814525
 30
0.0
 11
536.7426
 21
441.314525
 31
0.0
  0
LINE
  5
3BE
330
222
100
AcDbEntity
  8
7_ALL_FEATURES
  6
Continuous
 62
     7
100
AcDbLine
 10
524.7426
 20
440.314525
 30
0.0
 11
524.7426
 21
432.646234
 31
0.0
  0
LINE
  5
3BF
330
222
100
AcDbEntity
  8
7_ALL_FEATURES
  6
Continuous
 62
     7
100
AcDbLine
 10
536.7426
 20
432.646234
 30
0.0
 11
536.7426
 21
440.314525
 31
0.0
  0
LINE
  5
3C0
330
222
100
AcDbEntity
  8
7_ALL_FEATURES
  6
Continuous
 62
     7
100
AcDbLine
 10
524.7426
 20
430.907384
 30
0.0
 11
524.7426
 21
432.231715
 31
0.0
  0
LINE
  5
3C1
330
222
100
AcDbEntity
  8
7_ALL_FEATURES
  6
Continuous
 62
     7
100
AcDbLine
 10
536.7426
 20
432.231715
 30
0.0
 11
536.7426
 21
430.907384
 31
0.0
  0
LINE
  5
3C2
330
222
100
AcDbEntity
  8
7_ALL_FEATURES
  6
Continuous
 62
     7
100
AcDbLine
 10
524.7426
 20
432.231715
 30
0.0
 11
524.7426
 21
432.646234
 31
0.0
  0
LINE
  5
3C3
330
222
100
AcDbEntity
  8
7_ALL_FEATURES
  6
Continuous
 62
     7
100
AcDbLine
 10
536.7426
 20
432.231715
 30
0.0
 11
536.7426
 21
432.646234
 31
0.0
  0
SPLINE
  5
3C4
330
222
100
AcDbEntity
  8
7_ALL_FEATURES
  6
Continuous
 62
     7
100
AcDbSpline
 70
     0
 71
     3
 72
     9
 73
     5
 74
     0
 42
0.000000001
 43
0.0000001
 40
0.0
 40
0.0
 40
0.0
 40
0.0
 40
0.4888112863
 40
1.0
 40
1.0
 40
1.0
 40
1.0
 10
527.1568138876
 20
421.4868391004
 30
0.0
 10
527.3471573719
 20
421.3290372003
 30
0.0
 10
527.8031003193
 20
421.0823309054
 30
0.0
 10
528.3124595406
 20
421.0012001341
 30
0.0
 10
528.57102745
 20
421.0012001341
 30
0.0
  0
LINE
  5
3C5
330
222
100
AcDbEntity
  8
7_ALL_FEATURES
  6
Continuous
 62
     7
100
AcDbLine
 10
525.328387
 20
423.002674
 30
0.0
 11
527.156814
 21
421.486839
 31
0.0
  0
SPLINE
  5
3C6
330
222
100
AcDbEntity
  8
7_ALL_FEATURES
  6
Continuous
 62
     7
100
AcDbSpline
 70
     0
 71
     3
 72
    10
 73
     6
 74
     0
 42
0.000000001
 43
0.0000001
 40
0.0
 40
0.0
 40
0.0
 40
0.0
 40
0.2416818994
 40
0.4874164958
 40
1.0
 40
1.0
 40
1.0
 40
1.0
 10
524.7426003252
 20
424.1751100643
 30
0.0
 10
524.7426003252
 20
424.0665270094
 30
0.0
 10
524.7690231088
 20
423.8466030423
 30
0.0
 10
524.9252585062
 20
423.4221363102
 30
0.0
 10
525.1510960531
 20
423.1496545452
 30
0.0
 10
525.3283867629
 20
423.0026738855
 30
0.0
  0
LINE
  5
3C7
330
222
100
AcDbEntity
  8
7_ALL_FEATURES
  6
Continuous
 62
     7
100
AcDbLine
 10
524.7426
 20
428.130923
 30
0.0
 11
524.7426
 21
424.17511
 31
0.0
  0
LINE
  5
3C8
330
222
100
AcDbEntity
  8
7_ALL_FEATURES
  6
Continuous
 62
     7
100
AcDbLine
 10
536.7426
 20
424.17511
 30
0.0
 11
536.7426
 21
428.130923
 31
0.0
  0
SPLINE
  5
3C9
330
222
100
AcDbEntity
  8
7_ALL_FEATURES
  6
Continuous
 62
     7
100
AcDbSpline
 70
     0
 71
     3
 72
    10
 73
     6
 74
     0
 42
0.000000001
 43
0.0000001
 40
0.0
 40
0.0
 40
0.0
 40
0.0
 40
0.5125835042
 40
0.7583181006
 40
1.0
 40
1.0
 40
1.0
 40
1.0
 10
536.1568138876
 20
423.0026738855
 30
0.0
 10
536.3341045974
 20
423.1496545452
 30
0.0
 10
536.5599421443
 20
423.4221363102
 30
0.0
 10
536.7161775417
 20
423.8466030423
 30
0.0
 10
536.7426003252
 20
424.0665270094
 30
0.0
 10
536.7426003252
 20
424.1751100643
 30
0.0
  0
LINE
  5
3CA
330
222
100
AcDbEntity
  8
7_ALL_FEATURES
  6
Continuous
 62
     7
100
AcDbLine
 10
534.328387
 20
421.486839
 30
0.0
 11
536.156814
 21
423.002674
 31
0.0
  0
SPLINE
  5
3CB
330
222
100
AcDbEntity
  8
7_ALL_FEATURES
  6
Continuous
 62
     7
100
AcDbSpline
 70
     0
 71
     3
 72
     9
 73
     5
 74
     0
 42
0.000000001
 43
0.0000001
 40
0.0
 40
0.0
 40
0.0
 40
0.0
 40
0.5111887137
 40
1.0
 40
1.0
 40
1.0
 40
1.0
 10
532.9141732005
 20
421.0012001341
 30
0.0
 10
533.1727411099
 20
421.0012001341
 30
0.0
 10
533.6821003312
 20
421.0823309054
 30
0.0
 10
534.1380432786
 20
421.3290372003
 30
0.0
 10
534.3283867629
 20
421.4868391004
 30
0.0
  0
LINE
  5
3CC
330
222
100
AcDbEntity
  8
7_ALL_FEATURES
  6
Continuous
 62
     7
100
AcDbLine
 10
528.571027
 20
421.0012
 30
0.0
 11
532.914173
 21
421.0012
 31
0.0
  0
LINE
  5
3CD
330
222
100
AcDbEntity
  8
7_ALL_FEATURES
  6
Continuous
 62
     7
100
AcDbLine
 10
524.7426
 20
428.130923
 30
0.0
 11
524.7426
 21
430.907384
 31
0.0
  0
LINE
  5
3CE
330
222
100
AcDbEntity
  8
7_ALL_FEATURES
  6
Continuous
 62
     7
100
AcDbLine
 10
536.7426
 20
428.130923
 30
0.0
 11
536.7426
 21
430.907384
 31
0.0
  0
LINE
  5
3CF
330
222
100
AcDbEntity
  8
7_ALL_FEATURES
  6
Continuous
 62
     7
100
AcDbLine
 10
543.7426
 20
441.314525
 30
0.0
 11
543.7426
 21
440.814525
 31
0.0
  0
LINE
  5
3D0
330
222
100
AcDbEntity
  8
7_ALL_FEATURES
  6
Continuous
 62
     7
100
AcDbLine
 10
517.7426
 20
441.314525
 30
0.0
 11
517.7426
 21
440.814525
 31
0.0
  0
LINE
  5
3D1
330
222
100
AcDbEntity
  8
7_ALL_FEATURES
  6
Continuous
 62
     7
100
AcDbLine
 10
524.69495
 20
441.314525
 30
0.0
 11
524.7426
 21
441.314525
 31
0.0
  0
LINE
  5
3D2
330
222
100
AcDbEntity
  8
7_ALL_FEATURES
  6
Continuous
 62
     7
100
AcDbLine
 10
536.7426
 20
441.314525
 30
0.0
 11
524.7426
 21
441.314525
 31
0.0
  0
LINE
  5
3D3
330
222
100
AcDbEntity
  8
7_ALL_FEATURES
  6
Continuous
 62
     7
100
AcDbLine
 10
543.7426
 20
441.314525
 30
0.0
 11
543.7426
 21
440.814525
 31
0.0
  0
LINE
  5
3D4
330
222
100
AcDbEntity
  8
7_ALL_FEATURES
  6
Continuous
 62
     7
100
AcDbLine
 10
536.7426
 20
441.314525
 30
0.0
 11
536.790251
 21
441.314525
 31
0.0
  0
LINE
  5
3D5
330
222
100
AcDbEntity
  8
7_ALL_FEATURES
  6
Continuous
 62
     9
100
AcDbLine
 10
524.7426
 20
432.231715
 30
0.0
 11
536.7426
 21
432.231715
 31
0.0
  0
LINE
  5
3D6
330
222
100
AcDbEntity
  8
7_ALL_FEATURES
  6
Continuous
 62
     9
100
AcDbLine
 10
524.7426
 20
432.646234
 30
0.0
 11
536.7426
 21
432.646234
 31
0.0
  0
LINE
  5
3D7
330
222
100
AcDbEntity
  8
7_ALL_FEATURES
  6
Continuous
 62
     9
100
AcDbLine
 10
524.2926
 20
440.814525
 30
0.0
 11
524.2926
 21
441.314525
 31
0.0
  0
LINE
  5
3D8
330
222
100
AcDbEntity
  8
7_ALL_FEATURES
  6
Continuous
 62
     9
100
AcDbLine
 10
519.7426
 20
441.314525
 30
0.0
 11
519.7426
 21
440.814525
 31
0.0
  0
LINE
  5
3D9
330
222
100
AcDbEntity
  8
7_ALL_FEATURES
  6
Continuous
 62
     9
100
AcDbLine
 10
537.1926
 20
440.814525
 30
0.0
 11
537.1926
 21
441.314525
 31
0.0
  0
LINE
  5
3DA
330
222
100
AcDbEntity
  8
7_ALL_FEATURES
  6
Continuous
 62
     9
100
AcDbLine
 10
541.7426
 20
441.314525
 30
0.0
 11
541.7426
 21
440.814525
 31
0.0
  0
LINE
  5
3DB
330
222
100
AcDbEntity
  8
7_ALL_FEATURES
  6
Continuous
 62
     9
100
AcDbLine
 10
536.7426
 20
440.314525
 30
0.0
 11
524.7426
 21
440.314525
 31
0.0
  0
LINE
  5
3DC
330
222
100
AcDbEntity
  8
7_ALL_FEATURES
  6
Continuous
 62
     9
100
AcDbLine
 10
536.7426
 20
428.130923
 30
0.0
 11
524.7426
 21
428.130923
 31
0.0
  0
LINE
  5
3DD
330
222
100
AcDbEntity
  8
7_ALL_FEATURES
  6
Continuous
 62
     9
100
AcDbLine
 10
536.7426
 20
430.907384
 30
0.0
 11
524.7426
 21
430.907384
 31
0.0
  0
LINE
  5
3DE
330
222
100
AcDbEntity
  8
7_ALL_FEATURES
  6
Continuous
 62
     7
100
AcDbLine
 10
441.5426
 20
415.314525
 30
0.0
 11
457.4426
 21
415.314525
 31
0.0
  0
LINE
  5
3DF
330
222
100
AcDbEntity
  8
7_ALL_FEATURES
  6
Continuous
 62
     7
100
AcDbLine
 10
457.4426
 20
415.314525
 30
0.0
 11
458.92584
 21
415.314525
 31
0.0
  0
LINE
  5
3E0
330
222
100
AcDbEntity
  8
7_ALL_FEATURES
  6
Continuous
 62
     7
100
AcDbLine
 10
458.92584
 20
415.314525
 30
0.0
 11
492.559361
 21
415.314525
 31
0.0
  0
LINE
  5
3E1
330
222
100
AcDbEntity
  8
7_ALL_FEATURES
  6
Continuous
 62
     7
100
AcDbLine
 10
492.559361
 20
415.314525
 30
0.0
 11
494.0426
 21
415.314525
 31
0.0
  0
LINE
  5
3E2
330
222
100
AcDbEntity
  8
7_ALL_FEATURES
  6
Continuous
 62
     7
100
AcDbLine
 10
494.0426
 20
415.314525
 30
0.0
 11
509.9426
 21
415.314525
 31
0.0
  0
LINE
  5
3E3
330
222
100
AcDbEntity
  8
3_ALL_AXES
  6
Continuous
 62
     7
100
AcDbLine
 10
400.7426
 20
417.165013
 30
0.0
 11
400.7426
 21
420.314525
 31
0.0
  0
LINE
  5
3E4
330
222
100
AcDbEntity
  8
3_ALL_AXES
  6
Continuous
 62
     7
100
AcDbLine
 10
440.7426
 20
417.164525
 30
0.0
 11
400.7426
 21
417.164525
 31
0.0
  0
LINE
  5
3E5
330
222
100
AcDbEntity
  8
3_ALL_AXES
  6
Continuous
 62
     7
100
AcDbLine
 10
440.7426
 20
423.464525
 30
0.0
 11
400.7426
 21
423.464525
 31
0.0
  0
LINE
  5
3E6
330
222
100
AcDbEntity
  8
7_ALL_FEATURES
  6
Continuous
 62
     7
100
AcDbLine
 10
458.92584
 20
415.314525
 30
0.0
 11
492.559361
 21
415.314525
 31
0.0
  0
LINE
  5
3E7
330
222
100
AcDbEntity
  8
7_ALL_FEATURES
  6
Continuous
 62
     7
100
AcDbLine
 10
494.0426
 20
415.314525
 30
0.0
 11
509.9426
 21
415.314525
 31
0.0
  0
LINE
  5
3E8
330
222
100
AcDbEntity
  8
7_ALL_FEATURES
  6
Continuous
 62
     7
100
AcDbLine
 10
509.9426
 20
425.314525
 30
0.0
 11
494.0426
 21
425.314525
 31
0.0
  0
LINE
  5
3E9
330
222
100
AcDbEntity
  8
7_ALL_FEATURES
  6
Continuous
 62
     7
100
AcDbLine
 10
494.0426
 20
425.314525
 30
0.0
 11
492.559361
 21
425.314525
 31
0.0
  0
LINE
  5
3EA
330
222
100
AcDbEntity
  8
7_ALL_FEATURES
  6
Continuous
 62
     7
100
AcDbLine
 10
492.559361
 20
425.314525
 30
0.0
 11
458.92584
 21
425.314525
 31
0.0
  0
LINE
  5
3EB
330
222
100
AcDbEntity
  8
7_ALL_FEATURES
  6
Continuous
 62
     7
100
AcDbLine
 10
458.92584
 20
425.314525
 30
0.0
 11
457.4426
 21
425.314525
 31
0.0
  0
LINE
  5
3EC
330
222
100
AcDbEntity
  8
7_ALL_FEATURES
  6
Continuous
 62
     7
100
AcDbLine
 10
457.4426
 20
425.314525
 30
0.0
 11
441.5426
 21
425.314525
 31
0.0
  0
LINE
  5
3ED
330
222
100
AcDbEntity
  8
7_ALL_FEATURES
  6
Continuous
 62
     7
100
AcDbLine
 10
492.559361
 20
425.314525
 30
0.0
 11
458.92584
 21
425.314525
 31
0.0
  0
LINE
  5
3EE
330
222
100
AcDbEntity
  8
7_ALL_FEATURES
  6
Continuous
 62
     7
100
AcDbLine
 10
457.4426
 20
425.314525
 30
0.0
 11
441.5426
 21
425.314525
 31
0.0
  0
LINE
  5
3EF
330
222
100
AcDbEntity
  8
7_ALL_FEATURES
  6
Continuous
 62
     7
100
AcDbLine
 10
440.7426
 20
416.114525
 30
0.0
 11
440.7426
 21
424.514525
 31
0.0
  0
ARC
  5
3F0
330
222
100
AcDbEntity
  8
7_ALL_FEATURES
  6
Continuous
 62
     7
100
AcDbCircle
 10
560.7426
 20
428.242025
 30
0.0
 40
4.7775
100
AcDbArc
 50
274.675628
 51
322.303948
  0
ARC
  5
3F1
330
222
100
AcDbEntity
  8
7_ALL_FEATURES
  6
Continuous
 62
     7
100
AcDbCircle
 10
560.7426
 20
428.242025
 30
0.0
 40
4.7775
100
AcDbArc
 50
270.0
 51
274.675628
  0
LINE
  5
3F2
330
222
100
AcDbEntity
  8
3_ALL_AXES
  6
Continuous
 62
     7
100
AcDbLine
 10
510.7426
 20
417.164525
 30
0.0
 11
560.7426
 21
417.164525
 31
0.0
  0
LINE
  5
3F3
330
222
100
AcDbEntity
  8
3_ALL_AXES
  6
Continuous
 62
     7
100
AcDbLine
 10
510.7426
 20
423.464525
 30
0.0
 11
524.936456
 21
423.464525
 31
0.0
  0
LINE
  5
3F4
330
222
100
AcDbEntity
  8
3_ALL_AXES
  6
Continuous
 62
     7
100
AcDbLine
 10
536.548745
 20
423.464525
 30
0.0
 11
560.7426
 21
423.464525
 31
0.0
  0
LINE
  5
3F5
330
222
100
AcDbEntity
  8
7_ALL_FEATURES
  6
Continuous
 62
     7
100
AcDbLine
 10
510.7426
 20
424.514525
 30
0.0
 11
510.7426
 21
416.114525
 31
0.0
  0
LINE
  5
3F6
330
222
100
AcDbEntity
  8
3_ALL_AXES
  6
Continuous
 62
     7
100
AcDbLine
 10
400.7426
 20
420.314525
 30
0.0
 11
400.7426
 21
423.464037
 31
0.0
  0
ARC
  5
3F7
330
222
100
AcDbEntity
  8
7_ALL_FEATURES
  6
Continuous
 62
     7
100
AcDbCircle
 10
441.5426
 20
416.114525
 30
0.0
 40
0.8
100
AcDbArc
 50
183.328336
 51
266.670348
  0
ARC
  5
3F8
330
222
100
AcDbEntity
  8
7_ALL_FEATURES
  6
Continuous
 62
     7
100
AcDbCircle
 10
441.5426
 20
416.114525
 30
0.0
 40
0.8
100
AcDbArc
 50
180.0
 51
183.328336
  0
ARC
  5
3F9
330
222
100
AcDbEntity
  8
7_ALL_FEATURES
  6
Continuous
 62
     7
100
AcDbCircle
 10
441.5426
 20
416.114525
 30
0.0
 40
0.8
100
AcDbArc
 50
180.0
 51
270.0
  0
ARC
  5
3FA
330
222
100
AcDbEntity
  8
7_ALL_FEATURES
  6
Continuous
 62
     7
100
AcDbCircle
 10
441.5426
 20
424.514525
 30
0.0
 40
0.8
100
AcDbArc
 50
176.671674
 51
180.0
  0
ARC
  5
3FB
330
222
100
AcDbEntity
  8
7_ALL_FEATURES
  6
Continuous
 62
     7
100
AcDbCircle
 10
441.5426
 20
424.514525
 30
0.0
 40
0.8
100
AcDbArc
 50
93.329652
 51
176.671674
  0
ARC
  5
3FC
330
222
100
AcDbEntity
  8
7_ALL_FEATURES
  6
Continuous
 62
     7
100
AcDbCircle
 10
441.5426
 20
424.514525
 30
0.0
 40
0.8
100
AcDbArc
 50
90.0
 51
93.329652
  0
ARC
  5
3FD
330
222
100
AcDbEntity
  8
7_ALL_FEATURES
  6
Continuous
 62
     7
100
AcDbCircle
 10
441.5426
 20
424.514525
 30
0.0
 40
0.8
100
AcDbArc
 50
90.0
 51
180.0
  0
ARC
  5
3FE
330
222
100
AcDbEntity
  8
7_ALL_FEATURES
  6
Continuous
 62
     7
100
AcDbCircle
 10
509.9426
 20
424.514525
 30
0.0
 40
0.8
100
AcDbArc
 50
3.328336
 51
86.670348
  0
ARC
  5
3FF
330
222
100
AcDbEntity
  8
7_ALL_FEATURES
  6
Continuous
 62
     7
100
AcDbCircle
 10
509.9426
 20
424.514525
 30
0.0
 40
0.8
100
AcDbArc
 50
0.0
 51
3.328336
  0
ARC
  5
400
330
222
100
AcDbEntity
  8
7_ALL_FEATURES
  6
Continuous
 62
     7
100
AcDbCircle
 10
509.9426
 20
424.514525
 30
0.0
 40
0.8
100
AcDbArc
 50
0.0
 51
90.0
  0
ARC
  5
401
330
222
100
AcDbEntity
  8
7_ALL_FEATURES
  6
Continuous
 62
     7
100
AcDbCircle
 10
509.9426
 20
416.114525
 30
0.0
 40
0.8
100
AcDbArc
 50
270.0
 51
273.329652
  0
ARC
  5
402
330
222
100
AcDbEntity
  8
7_ALL_FEATURES
  6
Continuous
 62
     7
100
AcDbCircle
 10
509.9426
 20
416.114525
 30
0.0
 40
0.8
100
AcDbArc
 50
270.0
 51
360.0
  0
ARC
  5
403
330
222
100
AcDbEntity
  8
3_ALL_AXES
  6
Continuous
 62
     7
100
AcDbCircle
 10
560.7426
 20
428.242025
 30
0.0
 40
11.0775
100
AcDbArc
 50
270.0
 51
344.665589
  0
ARC
  5
404
330
222
100
AcDbEntity
  8
3_ALL_AXES
  6
Continuous
 62
     7
100
AcDbCircle
 10
560.7426
 20
428.242025
 30
0.0
 40
4.7775
100
AcDbArc
 50
274.675022
 51
322.285652
  0
ARC
  5
405
330
222
100
AcDbEntity
  8
3_ALL_AXES
  6
Continuous
 62
     7
100
AcDbCircle
 10
560.7426
 20
428.242025
 30
0.0
 40
4.7775
100
AcDbArc
 50
270.0
 51
274.675022
  0
LINE
  5
406
330
222
100
AcDbEntity
  8
7_ALL_FEATURES
  6
Continuous
 62
     9
100
AcDbLine
 10
494.0426
 20
416.114525
 30
0.0
 11
509.9426
 21
416.114525
 31
0.0
  0
LINE
  5
407
330
222
100
AcDbEntity
  8
7_ALL_FEATURES
  6
Continuous
 62
     9
100
AcDbLine
 10
494.0426
 20
424.514525
 30
0.0
 11
494.0426
 21
416.114525
 31
0.0
  0
LINE
  5
408
330
222
100
AcDbEntity
  8
7_ALL_FEATURES
  6
Continuous
 62
     9
100
AcDbLine
 10
492.559361
 20
424.514525
 30
0.0
 11
492.559361
 21
416.114525
 31
0.0
  0
LINE
  5
409
330
222
100
AcDbEntity
  8
7_ALL_FEATURES
  6
Continuous
 62
     9
100
AcDbLine
 10
560.7426
 20
423.464525
 30
0.0
 11
560.7426
 21
420.314525
 31
0.0
  0
LINE
  5
40A
330
222
100
AcDbEntity
  8
7_ALL_FEATURES
  6
Continuous
 62
     9
100
AcDbLine
 10
441.5426
 20
416.114525
 30
0.0
 11
441.5426
 21
415.314525
 31
0.0
  0
LINE
  5
40B
330
222
100
AcDbEntity
  8
7_ALL_FEATURES
  6
Continuous
 62
     9
100
AcDbLine
 10
457.4426
 20
416.114525
 30
0.0
 11
457.4426
 21
415.314525
 31
0.0
  0
SPLINE
  5
40C
330
222
100
AcDbEntity
  8
7_ALL_FEATURES
  6
Continuous
 62
     9
100
AcDbSpline
 70
     0
 71
     3
 72
    11
 73
     7
 74
     0
 42
0.000000001
 43
0.0000001
 40
0.0
 40
0.0
 40
0.0
 40
0.0
 40
0.2586965025
 40
0.5123489006
 40
0.7587699169
 40
1.0
 40
1.0
 40
1.0
 40
1.0
 10
458.18422018
 20
416.1145248439
 30
0.0
 10
458.18422018
 20
416.0107494409
 30
0.0
 10
458.2218506653
 20
415.8031943608
 30
0.0
 10
458.38477365
 20
415.5376894078
 30
0.0
 10
458.6310915509
 20
415.3573287991
 30
0.0
 10
458.8290712266
 20
415.3145248439
 30
0.0
 10
458.9258400227
 20
415.3145248439
 30
0.0
  0
LINE
  5
40D
330
222
100
AcDbEntity
  8
7_ALL_FEATURES
  6
Continuous
 62
     9
100
AcDbLine
 10
458.92584
 20
416.114525
 30
0.0
 11
458.92584
 21
415.314525
 31
0.0
  0
LINE
  5
40E
330
222
100
AcDbEntity
  8
7_ALL_FEATURES
  6
Continuous
 62
     9
100
AcDbLine
 10
492.559361
 20
416.114525
 30
0.0
 11
492.559361
 21
415.314525
 31
0.0
  0
SPLINE
  5
40F
330
222
100
AcDbEntity
  8
7_ALL_FEATURES
  6
Continuous
 62
     9
100
AcDbSpline
 70
     0
 71
     3
 72
    11
 73
     7
 74
     0
 42
0.000000001
 43
0.0000001
 40
0.0
 40
0.0
 40
0.0
 40
0.0
 40
0.2586965107
 40
0.5123489043
 40
0.7587699145
 40
1.0
 40
1.0
 40
1.0
 40
1.0
 10
493.3009804769
 20
416.1145248439
 30
0.0
 10
493.3009804769
 20
416.0107494375
 30
0.0
 10
493.2633499803
 20
415.8031943576
 30
0.0
 10
493.1004269992
 20
415.5376894053
 30
0.0
 10
492.8541090997
 20
415.3573287993
 30
0.0
 10
492.6561294256
 20
415.3145248439
 30
0.0
 10
492.5593606284
 20
415.3145248439
 30
0.0
  0
LINE
  5
410
330
222
100
AcDbEntity
  8
7_ALL_FEATURES
  6
Continuous
 62
     9
100
AcDbLine
 10
494.0426
 20
416.114525
 30
0.0
 11
494.0426
 21
415.314525
 31
0.0
  0
LINE
  5
411
330
222
100
AcDbEntity
  8
7_ALL_FEATURES
  6
Continuous
 62
     9
100
AcDbLine
 10
458.18422
 20
424.514525
 30
0.0
 11
457.4426
 21
424.514525
 31
0.0
  0
LINE
  5
412
330
222
100
AcDbEntity
  8
7_ALL_FEATURES
  6
Continuous
 62
     9
100
AcDbLine
 10
458.18422
 20
416.114525
 30
0.0
 11
458.18422
 21
424.514525
 31
0.0
  0
LINE
  5
413
330
222
100
AcDbEntity
  8
7_ALL_FEATURES
  6
Continuous
 62
     9
100
AcDbLine
 10
457.4426
 20
416.114525
 30
0.0
 11
458.18422
 21
416.114525
 31
0.0
  0
LINE
  5
414
330
222
100
AcDbEntity
  8
7_ALL_FEATURES
  6
Continuous
 62
     9
100
AcDbLine
 10
494.0426
 20
424.514525
 30
0.0
 11
493.30098
 21
424.514525
 31
0.0
  0
LINE
  5
415
330
222
100
AcDbEntity
  8
7_ALL_FEATURES
  6
Continuous
 62
     9
100
AcDbLine
 10
493.30098
 20
416.114525
 30
0.0
 11
494.0426
 21
416.114525
 31
0.0
  0
LINE
  5
416
330
222
100
AcDbEntity
  8
7_ALL_FEATURES
  6
Continuous
 62
     9
100
AcDbLine
 10
493.30098
 20
424.514525
 30
0.0
 11
493.30098
 21
416.114525
 31
0.0
  0
LINE
  5
417
330
222
100
AcDbEntity
  8
7_ALL_FEATURES
  6
Continuous
 62
     9
100
AcDbLine
 10
509.9426
 20
416.114525
 30
0.0
 11
509.9426
 21
415.314525
 31
0.0
  0
LINE
  5
418
330
222
100
AcDbEntity
  8
7_ALL_FEATURES
  6
Continuous
 62
     9
100
AcDbLine
 10
509.9426
 20
424.514525
 30
0.0
 11
509.9426
 21
425.314525
 31
0.0
  0
LINE
  5
419
330
222
100
AcDbEntity
  8
7_ALL_FEATURES
  6
Continuous
 62
     9
100
AcDbLine
 10
494.0426
 20
424.514525
 30
0.0
 11
494.0426
 21
425.314525
 31
0.0
  0
SPLINE
  5
41A
330
222
100
AcDbEntity
  8
7_ALL_FEATURES
  6
Continuous
 62
     9
100
AcDbSpline
 70
     0
 71
     3
 72
    11
 73
     7
 74
     0
 42
0.000000001
 43
0.0000001
 40
0.0
 40
0.0
 40
0.0
 40
0.0
 40
0.2586965025
 40
0.5123489006
 40
0.7587699169
 40
1.0
 40
1.0
 40
1.0
 40
1.0
 10
493.3009804705
 20
424.5145248439
 30
0.0
 10
493.3009804705
 20
424.618300247
 30
0.0
 10
493.2633499852
 20
424.825855327
 30
0.0
 10
493.1004270005
 20
425.09136028
 30
0.0
 10
492.8541090996
 20
425.2717208888
 30
0.0
 10
492.6561294239
 20
425.3145248439
 30
0.0
 10
492.5593606278
 20
425.3145248439
 30
0.0
  0
LINE
  5
41B
330
222
100
AcDbEntity
  8
7_ALL_FEATURES
  6
Continuous
 62
     9
100
AcDbLine
 10
492.559361
 20
424.514525
 30
0.0
 11
492.559361
 21
425.314525
 31
0.0
  0
LINE
  5
41C
330
222
100
AcDbEntity
  8
7_ALL_FEATURES
  6
Continuous
 62
     9
100
AcDbLine
 10
458.92584
 20
416.114525
 30
0.0
 11
492.559361
 21
416.114525
 31
0.0
  0
LINE
  5
41D
330
222
100
AcDbEntity
  8
7_ALL_FEATURES
  6
Continuous
 62
     9
100
AcDbLine
 10
458.92584
 20
416.114525
 30
0.0
 11
458.92584
 21
424.514525
 31
0.0
  0
LINE
  5
41E
330
222
100
AcDbEntity
  8
7_ALL_FEATURES
  6
Continuous
 62
     9
100
AcDbLine
 10
441.5426
 20
424.514525
 30
0.0
 11
440.7426
 21
424.514525
 31
0.0
  0
LINE
  5
41F
330
222
100
AcDbEntity
  8
7_ALL_FEATURES
  6
Continuous
 62
     9
100
AcDbLine
 10
440.7426
 20
416.114525
 30
0.0
 11
441.5426
 21
416.114525
 31
0.0
  0
LINE
  5
420
330
222
100
AcDbEntity
  8
7_ALL_FEATURES
  6
Continuous
 62
     9
100
AcDbLine
 10
492.559361
 20
424.514525
 30
0.0
 11
458.92584
 21
424.514525
 31
0.0
  0
LINE
  5
421
330
222
100
AcDbEntity
  8
7_ALL_FEATURES
  6
Continuous
 62
     9
100
AcDbLine
 10
457.4426
 20
424.514525
 30
0.0
 11
441.5426
 21
424.514525
 31
0.0
  0
LINE
  5
422
330
222
100
AcDbEntity
  8
7_ALL_FEATURES
  6
Continuous
 62
     9
100
AcDbLine
 10
457.4426
 20
416.114525
 30
0.0
 11
457.4426
 21
424.514525
 31
0.0
  0
LINE
  5
423
330
222
100
AcDbEntity
  8
7_ALL_FEATURES
  6
Continuous
 62
     9
100
AcDbLine
 10
510.7426
 20
424.514525
 30
0.0
 11
509.9426
 21
424.514525
 31
0.0
  0
LINE
  5
424
330
222
100
AcDbEntity
  8
7_ALL_FEATURES
  6
Continuous
 62
     9
100
AcDbLine
 10
509.9426
 20
416.114525
 30
0.0
 11
510.7426
 21
416.114525
 31
0.0
  0
LINE
  5
425
330
222
100
AcDbEntity
  8
7_ALL_FEATURES
  6
Continuous
 62
     9
100
AcDbLine
 10
441.5426
 20
416.114525
 30
0.0
 11
457.4426
 21
416.114525
 31
0.0
  0
LINE
  5
426
330
222
100
AcDbEntity
  8
7_ALL_FEATURES
  6
Continuous
 62
     9
100
AcDbLine
 10
441.5426
 20
416.114525
 30
0.0
 11
441.5426
 21
424.514525
 31
0.0
  0
LINE
  5
427
330
222
100
AcDbEntity
  8
7_ALL_FEATURES
  6
Continuous
 62
     9
100
AcDbLine
 10
458.92584
 20
424.514525
 30
0.0
 11
458.92584
 21
425.314525
 31
0.0
  0
SPLINE
  5
428
330
222
100
AcDbEntity
  8
7_ALL_FEATURES
  6
Continuous
 62
     9
100
AcDbSpline
 70
     0
 71
     3
 72
    11
 73
     7
 74
     0
 42
0.000000001
 43
0.0000001
 40
0.0
 40
0.0
 40
0.0
 40
0.0
 40
0.2586965107
 40
0.5123489043
 40
0.7587699145
 40
1.0
 40
1.0
 40
1.0
 40
1.0
 10
458.1842201736
 20
424.5145248439
 30
0.0
 10
458.1842201736
 20
424.6183002503
 30
0.0
 10
458.2218506701
 20
424.8258553302
 30
0.0
 10
458.3847736513
 20
425.0913602825
 30
0.0
 10
458.6310915508
 20
425.2717208886
 30
0.0
 10
458.8290712249
 20
425.3145248439
 30
0.0
 10
458.925840022
 20
425.3145248439
 30
0.0
  0
LINE
  5
429
330
222
100
AcDbEntity
  8
7_ALL_FEATURES
  6
Continuous
 62
     9
100
AcDbLine
 10
457.4426
 20
424.514525
 30
0.0
 11
457.4426
 21
425.314525
 31
0.0
  0
LINE
  5
42A
330
222
100
AcDbEntity
  8
7_ALL_FEATURES
  6
Continuous
 62
     9
100
AcDbLine
 10
441.5426
 20
424.514525
 30
0.0
 11
441.5426
 21
425.314525
 31
0.0
  0
LINE
  5
42B
330
222
100
AcDbEntity
  8
7_ALL_FEATURES
  6
Continuous
 62
     9
100
AcDbLine
 10
458.92584
 20
424.514525
 30
0.0
 11
458.18422
 21
424.514525
 31
0.0
  0
LINE
  5
42C
330
222
100
AcDbEntity
  8
7_ALL_FEATURES
  6
Continuous
 62
     9
100
AcDbLine
 10
458.18422
 20
416.114525
 30
0.0
 11
458.92584
 21
416.114525
 31
0.0
  0
LINE
  5
42D
330
222
100
AcDbEntity
  8
7_ALL_FEATURES
  6
Continuous
 62
     9
100
AcDbLine
 10
493.30098
 20
424.514525
 30
0.0
 11
492.559361
 21
424.514525
 31
0.0
  0
LINE
  5
42E
330
222
100
AcDbEntity
  8
7_ALL_FEATURES
  6
Continuous
 62
     9
100
AcDbLine
 10
492.559361
 20
416.114525
 30
0.0
 11
493.30098
 21
416.114525
 31
0.0
  0
LINE
  5
42F
330
222
100
AcDbEntity
  8
7_ALL_FEATURES
  6
Continuous
 62
     9
100
AcDbLine
 10
509.9426
 20
424.514525
 30
0.0
 11
494.0426
 21
424.514525
 31
0.0
  0
LINE
  5
430
330
222
100
AcDbEntity
  8
7_ALL_FEATURES
  6
Continuous
 62
     9
100
AcDbLine
 10
509.9426
 20
424.514525
 30
0.0
 11
509.9426
 21
416.114525
 31
0.0
  0
LINE
  5
431
330
222
100
AcDbEntity
  8
7_ALL_FEATURES
  6
Continuous
 62
     9
100
AcDbLine
 10
560.7426
 20
417.164525
 30
0.0
 11
560.7426
 21
420.314525
 31
0.0
  0
LINE
  5
432
330
222
100
AcDbEntity
  8
6_ALL_SURFS
  6
Continuous
 62
     7
100
AcDbLine
 10
590.7426
 20
466.564525
 30
0.0
 11
590.7426
 21
475.814525
 31
0.0
  0
LINE
  5
433
330
222
100
AcDbEntity
  8
6_ALL_SURFS
  6
Continuous
 62
     7
100
AcDbLine
 10
590.7426
 20
476.814525
 30
0.0
 11
590.7426
 21
475.814525
 31
0.0
  0
LINE
  5
434
330
222
100
AcDbEntity
  8
7_ALL_FEATURES
  6
Continuous
 62
     7
100
AcDbLine
 10
84.7426
 20
449.064525
 30
0.0
 11
84.7426
 21
466.564525
 31
0.0
  0
LINE
  5
435
330
222
100
AcDbEntity
  8
7_ALL_FEATURES
  6
Continuous
 62
     7
100
AcDbLine
 10
81.2426
 20
466.564525
 30
0.0
 11
84.7426
 21
466.564525
 31
0.0
  0
LINE
  5
436
330
222
100
AcDbEntity
  8
7_ALL_FEATURES
  6
Continuous
 62
     7
100
AcDbLine
 10
81.2426
 20
466.564525
 30
0.0
 11
81.2426
 21
475.814525
 31
0.0
  0
LINE
  5
437
330
222
100
AcDbEntity
  8
6_ALL_SURFS
  6
Continuous
 62
     7
100
AcDbLine
 10
590.7426
 20
466.564525
 30
0.0
 11
587.2426
 21
466.564525
 31
0.0
  0
LINE
  5
438
330
222
100
AcDbEntity
  8
6_ALL_SURFS
  6
Continuous
 62
     7
100
AcDbLine
 10
587.2426
 20
449.064525
 30
0.0
 11
587.2426
 21
466.564525
 31
0.0
  0
LINE
  5
439
330
222
100
AcDbEntity
  8
7_ALL_FEATURES
  6
Continuous
 62
     7
100
AcDbLine
 10
81.2426
 20
476.814525
 30
0.0
 11
590.7426
 21
476.814525
 31
0.0
  0
LINE
  5
43A
330
222
100
AcDbEntity
  8
7_ALL_FEATURES
  6
Continuous
 62
     7
100
AcDbLine
 10
84.7426
 20
448.064525
 30
0.0
 11
587.2426
 21
448.064525
 31
0.0
  0
LINE
  5
43B
330
222
100
AcDbEntity
  8
7_ALL_FEATURES
  6
Continuous
 62
     7
100
AcDbLine
 10
81.2426
 20
476.814525
 30
0.0
 11
81.2426
 21
475.814525
 31
0.0
  0
LINE
  5
43C
330
222
100
AcDbEntity
  8
7_ALL_FEATURES
  6
Continuous
 62
     7
100
AcDbLine
 10
84.7426
 20
449.064525
 30
0.0
 11
84.7426
 21
448.064525
 31
0.0
  0
LINE
  5
43D
330
222
100
AcDbEntity
  8
6_ALL_SURFS
  6
Continuous
 62
     7
100
AcDbLine
 10
587.2426
 20
449.064525
 30
0.0
 11
587.2426
 21
448.064525
 31
0.0
  0
LINE
  5
43E
330
222
100
AcDbEntity
  8
7_ALL_FEATURES
  6
Continuous
 62
     7
100
AcDbLine
 10
84.7426
 20
441.314525
 30
0.0
 11
134.7926
 21
441.314525
 31
0.0
  0
LINE
  5
43F
330
222
100
AcDbEntity
  8
7_ALL_FEATURES
  6
Continuous
 62
     7
100
AcDbLine
 10
134.7926
 20
441.314525
 30
0.0
 11
135.19495
 21
441.314525
 31
0.0
  0
LINE
  5
440
330
222
100
AcDbEntity
  8
7_ALL_FEATURES
  6
Continuous
 62
     7
100
AcDbLine
 10
147.290251
 20
441.314525
 30
0.0
 11
147.6926
 21
441.314525
 31
0.0
  0
LINE
  5
441
330
222
100
AcDbEntity
  8
7_ALL_FEATURES
  6
Continuous
 62
     7
100
AcDbLine
 10
147.6926
 20
441.314525
 30
0.0
 11
524.2926
 21
441.314525
 31
0.0
  0
LINE
  5
442
330
222
100
AcDbEntity
  8
7_ALL_FEATURES
  6
Continuous
 62
     7
100
AcDbLine
 10
524.2926
 20
441.314525
 30
0.0
 11
524.69495
 21
441.314525
 31
0.0
  0
LINE
  5
443
330
222
100
AcDbEntity
  8
7_ALL_FEATURES
  6
Continuous
 62
     7
100
AcDbLine
 10
536.790251
 20
441.314525
 30
0.0
 11
537.1926
 21
441.314525
 31
0.0
  0
LINE
  5
444
330
222
100
AcDbEntity
  8
7_ALL_FEATURES
  6
Continuous
 62
     7
100
AcDbLine
 10
537.1926
 20
441.314525
 30
0.0
 11
587.2426
 21
441.314525
 31
0.0
  0
LINE
  5
445
330
222
100
AcDbEntity
  8
7_ALL_FEATURES
  6
Continuous
 62
     7
100
AcDbLine
 10
84.7426
 20
448.064525
 30
0.0
 11
84.7426
 21
447.918078
 31
0.0
  0
LINE
  5
446
330
222
100
AcDbEntity
  8
6_ALL_SURFS
  6
Continuous
 62
     7
100
AcDbLine
 10
587.2426
 20
448.064525
 30
0.0
 11
587.2426
 21
447.918078
 31
0.0
  0
LINE
  5
447
330
222
100
AcDbEntity
  8
7_ALL_FEATURES
  6
Continuous
 62
     7
100
AcDbLine
 10
84.7426
 20
442.96141
 30
0.0
 11
84.7426
 21
442.391201
 31
0.0
  0
LINE
  5
448
330
222
100
AcDbEntity
  8
7_ALL_FEATURES
  6
Continuous
 62
     7
100
AcDbLine
 10
84.7426
 20
442.391201
 30
0.0
 11
84.7426
 21
441.314525
 31
0.0
  0
LINE
  5
449
330
222
100
AcDbEntity
  8
6_ALL_SURFS
  6
Continuous
 62
     7
100
AcDbLine
 10
587.2426
 20
442.96141
 30
0.0
 11
587.2426
 21
442.324016
 31
0.0
  0
LINE
  5
44A
330
222
100
AcDbEntity
  8
6_ALL_SURFS
  6
Continuous
 62
     7
100
AcDbLine
 10
587.2426
 20
442.324016
 30
0.0
 11
587.2426
 21
442.314525
 31
0.0
  0
LINE
  5
44B
330
222
100
AcDbEntity
  8
6_ALL_SURFS
  6
Continuous
 62
     7
100
AcDbLine
 10
587.2426
 20
442.314525
 30
0.0
 11
587.2426
 21
441.314525
 31
0.0
  0
LINE
  5
44C
330
222
100
AcDbEntity
  8
6_ALL_SURFS
  6
Continuous
 62
     7
100
AcDbLine
 10
587.2426
 20
443.535932
 30
0.0
 11
587.2426
 21
443.814525
 31
0.0
  0
LINE
  5
44D
330
222
100
AcDbEntity
  8
7_ALL_FEATURES
  6
Continuous
 62
     7
100
AcDbLine
 10
84.7426
 20
443.535932
 30
0.0
 11
84.7426
 21
443.814525
 31
0.0
  0
LINE
  5
44E
330
222
100
AcDbEntity
  8
7_ALL_FEATURES
  6
Continuous
 62
     7
100
AcDbLine
 10
84.7426
 20
446.564525
 30
0.0
 11
84.7426
 21
447.918078
 31
0.0
  0
LINE
  5
44F
330
222
100
AcDbEntity
  8
6_ALL_SURFS
  6
Continuous
 62
     7
100
AcDbLine
 10
587.2426
 20
446.564525
 30
0.0
 11
587.2426
 21
447.918078
 31
0.0
  0
LINE
  5
450
330
222
100
AcDbEntity
  8
7_ALL_FEATURES
  6
Continuous
 62
     7
100
AcDbLine
 10
84.7426
 20
443.535932
 30
0.0
 11
84.7426
 21
442.96141
 31
0.0
  0
LINE
  5
451
330
222
100
AcDbEntity
  8
6_ALL_SURFS
  6
Continuous
 62
     7
100
AcDbLine
 10
587.2426
 20
443.535932
 30
0.0
 11
587.2426
 21
442.96141
 31
0.0
  0
LINE
  5
452
330
222
100
AcDbEntity
  8
7_ALL_FEATURES
  6
Continuous
 62
     9
100
AcDbLine
 10
84.7426
 20
449.064525
 30
0.0
 11
587.2426
 21
449.064525
 31
0.0
  0
LINE
  5
453
330
222
100
AcDbEntity
  8
7_ALL_FEATURES
  6
Continuous
 62
     9
100
AcDbLine
 10
81.2426
 20
475.814525
 30
0.0
 11
590.7426
 21
475.814525
 31
0.0
  0
LINE
  5
454
330
222
100
AcDbEntity
  8
7_ALL_FEATURES
  6
Continuous
 62
     9
100
AcDbLine
 10
84.7426
 20
442.96141
 30
0.0
 11
587.2426
 21
442.96141
 31
0.0
  0
LINE
  5
455
330
222
100
AcDbEntity
  8
7_ALL_FEATURES
  6
Continuous
 62
     9
100
AcDbLine
 10
587.2426
 20
444.835971
 30
0.0
 11
84.7426
 21
444.835971
 31
0.0
  0
LINE
  5
456
330
222
100
AcDbEntity
  8
7_ALL_FEATURES
  6
Continuous
 62
     9
100
AcDbLine
 10
84.7426
 20
443.535932
 30
0.0
 11
587.2426
 21
443.535932
 31
0.0
  0
LINE
  5
457
330
222
100
AcDbEntity
  8
7_ALL_FEATURES
  6
Continuous
 62
     9
100
AcDbLine
 10
587.2426
 20
445.543078
 30
0.0
 11
84.7426
 21
445.543078
 31
0.0
  0
LINE
  5
458
330
222
100
AcDbEntity
  8
7_ALL_FEATURES
  6
Continuous
 62
     9
100
AcDbLine
 10
587.2426
 20
447.918078
 30
0.0
 11
84.7426
 21
447.918078
 31
0.0
  0
LINE
  5
459
330
222
100
AcDbEntity
  8
7_ALL_FEATURES
  6
Continuous
 62
     3
100
AcDbLine
 10
130.2426
 20
440.814525
 30
0.0
 11
128.51049
 21
440.814525
 31
0.0
  0
LINE
  5
45A
330
222
100
AcDbEntity
  8
7_ALL_FEATURES
  6
Continuous
 62
     3
100
AcDbLine
 10
128.51049
 20
440.814525
 30
0.0
 11
128.2426
 21
440.814525
 31
0.0
  0
LINE
  5
45B
330
222
100
AcDbEntity
  8
7_ALL_FEATURES
  6
Continuous
 62
     3
100
AcDbLine
 10
134.7926
 20
440.814525
 30
0.0
 11
134.042568
 21
440.814525
 31
0.0
  0
LINE
  5
45C
330
222
100
AcDbEntity
  8
7_ALL_FEATURES
  6
Continuous
 62
     3
100
AcDbLine
 10
134.042568
 20
440.814525
 30
0.0
 11
131.766018
 21
440.814525
 31
0.0
  0
LINE
  5
45D
330
222
100
AcDbEntity
  8
7_ALL_FEATURES
  6
Continuous
 62
     3
100
AcDbLine
 10
130.719182
 20
440.814525
 30
0.0
 11
130.2426
 21
440.814525
 31
0.0
  0
LINE
  5
45E
330
222
100
AcDbEntity
  8
7_ALL_FEATURES
  6
Continuous
 62
     3
100
AcDbLine
 10
152.2426
 20
440.814525
 30
0.0
 11
151.766018
 21
440.814525
 31
0.0
  0
LINE
  5
45F
330
222
100
AcDbEntity
  8
7_ALL_FEATURES
  6
Continuous
 62
     3
100
AcDbLine
 10
150.719182
 20
440.814525
 30
0.0
 11
148.442633
 21
440.814525
 31
0.0
  0
LINE
  5
460
330
222
100
AcDbEntity
  8
7_ALL_FEATURES
  6
Continuous
 62
     3
100
AcDbLine
 10
148.442633
 20
440.814525
 30
0.0
 11
147.6926
 21
440.814525
 31
0.0
  0
LINE
  5
461
330
222
100
AcDbEntity
  8
7_ALL_FEATURES
  6
Continuous
 62
     3
100
AcDbLine
 10
147.6926
 20
440.814525
 30
0.0
 11
147.2426
 21
440.814525
 31
0.0
  0
LINE
  5
462
330
222
100
AcDbEntity
  8
7_ALL_FEATURES
  6
Continuous
 62
     3
100
AcDbLine
 10
154.2426
 20
440.814525
 30
0.0
 11
153.97471
 21
440.814525
 31
0.0
  0
LINE
  5
463
330
222
100
AcDbEntity
  8
7_ALL_FEATURES
  6
Continuous
 62
     3
100
AcDbLine
 10
153.97471
 20
440.814525
 30
0.0
 11
152.2426
 21
440.814525
 31
0.0
  0
LINE
  5
464
330
222
100
AcDbEntity
  8
7_ALL_FEATURES
  6
Continuous
 62
     3
100
AcDbLine
 10
135.2426
 20
440.814525
 30
0.0
 11
134.7926
 21
440.814525
 31
0.0
  0
LINE
  5
465
330
222
100
AcDbEntity
  8
7_ALL_FEATURES
  6
Continuous
 62
     3
100
AcDbLine
 10
519.7426
 20
440.814525
 30
0.0
 11
518.01049
 21
440.814525
 31
0.0
  0
LINE
  5
466
330
222
100
AcDbEntity
  8
7_ALL_FEATURES
  6
Continuous
 62
     3
100
AcDbLine
 10
518.01049
 20
440.814525
 30
0.0
 11
517.7426
 21
440.814525
 31
0.0
  0
LINE
  5
467
330
222
100
AcDbEntity
  8
7_ALL_FEATURES
  6
Continuous
 62
     3
100
AcDbLine
 10
524.2926
 20
440.814525
 30
0.0
 11
523.542568
 21
440.814525
 31
0.0
  0
LINE
  5
468
330
222
100
AcDbEntity
  8
7_ALL_FEATURES
  6
Continuous
 62
     3
100
AcDbLine
 10
523.542568
 20
440.814525
 30
0.0
 11
521.266018
 21
440.814525
 31
0.0
  0
LINE
  5
469
330
222
100
AcDbEntity
  8
7_ALL_FEATURES
  6
Continuous
 62
     3
100
AcDbLine
 10
520.219182
 20
440.814525
 30
0.0
 11
519.7426
 21
440.814525
 31
0.0
  0
LINE
  5
46A
330
222
100
AcDbEntity
  8
7_ALL_FEATURES
  6
Continuous
 62
     3
100
AcDbLine
 10
541.7426
 20
440.814525
 30
0.0
 11
541.266018
 21
440.814525
 31
0.0
  0
LINE
  5
46B
330
222
100
AcDbEntity
  8
7_ALL_FEATURES
  6
Continuous
 62
     3
100
AcDbLine
 10
540.219182
 20
440.814525
 30
0.0
 11
537.942633
 21
440.814525
 31
0.0
  0
LINE
  5
46C
330
222
100
AcDbEntity
  8
7_ALL_FEATURES
  6
Continuous
 62
     3
100
AcDbLine
 10
537.942633
 20
440.814525
 30
0.0
 11
537.1926
 21
440.814525
 31
0.0
  0
LINE
  5
46D
330
222
100
AcDbEntity
  8
7_ALL_FEATURES
  6
Continuous
 62
     3
100
AcDbLine
 10
537.1926
 20
440.814525
 30
0.0
 11
536.7426
 21
440.814525
 31
0.0
  0
LINE
  5
46E
330
222
100
AcDbEntity
  8
7_ALL_FEATURES
  6
Continuous
 62
     3
100
AcDbLine
 10
543.7426
 20
440.814525
 30
0.0
 11
543.47471
 21
440.814525
 31
0.0
  0
LINE
  5
46F
330
222
100
AcDbEntity
  8
7_ALL_FEATURES
  6
Continuous
 62
     3
100
AcDbLine
 10
543.47471
 20
440.814525
 30
0.0
 11
541.7426
 21
440.814525
 31
0.0
  0
LINE
  5
470
330
222
100
AcDbEntity
  8
7_ALL_FEATURES
  6
Continuous
 62
     3
100
AcDbLine
 10
524.7426
 20
440.814525
 30
0.0
 11
524.2926
 21
440.814525
 31
0.0
  0
LINE
  5
471
330
222
100
AcDbEntity
  8
7_ALL_FEATURES
  6
Continuous
 62
     7
100
AcDbLine
 10
759.678027
 20
460.564525
 30
0.0
 11
759.678027
 21
461.439525
 31
0.0
  0
LINE
  5
472
330
222
100
AcDbEntity
  8
7_ALL_FEATURES
  6
Continuous
 62
     7
100
AcDbLine
 10
759.678027
 20
461.439525
 30
0.0
 11
760.553027
 21
461.439525
 31
0.0
  0
LINE
  5
473
330
222
100
AcDbEntity
  8
7_ALL_FEATURES
  6
Continuous
 62
     7
100
AcDbLine
 10
760.553027
 20
462.189525
 30
0.0
 11
759.678027
 21
462.189525
 31
0.0
  0
LINE
  5
474
330
222
100
AcDbEntity
  8
7_ALL_FEATURES
  6
Continuous
 62
     7
100
AcDbLine
 10
759.678027
 20
462.189525
 30
0.0
 11
759.678027
 21
463.064525
 31
0.0
  0
LINE
  5
475
330
222
100
AcDbEntity
  8
7_ALL_FEATURES
  6
Continuous
 62
     7
100
AcDbLine
 10
758.928027
 20
463.064525
 30
0.0
 11
758.928027
 21
462.189525
 31
0.0
  0
LINE
  5
476
330
222
100
AcDbEntity
  8
7_ALL_FEATURES
  6
Continuous
 62
     7
100
AcDbLine
 10
758.928027
 20
462.189525
 30
0.0
 11
758.053027
 21
462.189525
 31
0.0
  0
LINE
  5
477
330
222
100
AcDbEntity
  8
7_ALL_FEATURES
  6
Continuous
 62
     7
100
AcDbLine
 10
758.053027
 20
461.439525
 30
0.0
 11
758.928027
 21
461.439525
 31
0.0
  0
LINE
  5
478
330
222
100
AcDbEntity
  8
7_ALL_FEATURES
  6
Continuous
 62
     7
100
AcDbLine
 10
758.928027
 20
461.439525
 30
0.0
 11
758.928027
 21
460.564525
 31
0.0
  0
ARC
  5
479
330
222
100
AcDbEntity
  8
3_ALL_AXES
  6
Continuous
 62
     7
100
AcDbCircle
 10
759.303027
 20
461.814525
 30
0.0
 40
2.75
100
AcDbArc
 50
0.0
 51
180.0
  0
ARC
  5
47A
330
222
100
AcDbEntity
  8
3_ALL_AXES
  6
Continuous
 62
     7
100
AcDbCircle
 10
759.303027
 20
461.814525
 30
0.0
 40
2.75
100
AcDbArc
 50
180.0
 51
360.0
  0
LINE
  5
47B
330
222
100
AcDbEntity
  8
7_ALL_FEATURES
  6
Continuous
 62
     7
100
AcDbLine
 10
758.053027
 20
461.439525
 30
0.0
 11
758.053027
 21
462.189525
 31
0.0
  0
LINE
  5
47C
330
222
100
AcDbEntity
  8
7_ALL_FEATURES
  6
Continuous
 62
     7
100
AcDbLine
 10
759.678027
 20
460.564525
 30
0.0
 11
758.928027
 21
460.564525
 31
0.0
  0
LINE
  5
47D
330
222
100
AcDbEntity
  8
7_ALL_FEATURES
  6
Continuous
 62
     7
100
AcDbLine
 10
760.553027
 20
462.189525
 30
0.0
 11
760.553027
 21
461.439525
 31
0.0
  0
LINE
  5
47E
330
222
100
AcDbEntity
  8
7_ALL_FEATURES
  6
Continuous
 62
     7
100
AcDbLine
 10
758.928027
 20
463.064525
 30
0.0
 11
759.678027
 21
463.064525
 31
0.0
  0
LINE
  5
47F
330
222
100
AcDbEntity
  8
7_ALL_FEATURES
  6
Continuous
 62
     7
100
AcDbLine
 10
762.928027
 20
445.314525
 30
0.0
 11
762.928027
 21
446.189525
 31
0.0
  0
LINE
  5
480
330
222
100
AcDbEntity
  8
7_ALL_FEATURES
  6
Continuous
 62
     7
100
AcDbLine
 10
762.928027
 20
446.189525
 30
0.0
 11
763.803027
 21
446.189525
 31
0.0
  0
LINE
  5
481
330
222
100
AcDbEntity
  8
7_ALL_FEATURES
  6
Continuous
 62
     7
100
AcDbLine
 10
763.803027
 20
446.939525
 30
0.0
 11
762.928027
 21
446.939525
 31
0.0
  0
LINE
  5
482
330
222
100
AcDbEntity
  8
7_ALL_FEATURES
  6
Continuous
 62
     7
100
AcDbLine
 10
762.928027
 20
446.939525
 30
0.0
 11
762.928027
 21
447.814525
 31
0.0
  0
LINE
  5
483
330
222
100
AcDbEntity
  8
7_ALL_FEATURES
  6
Continuous
 62
     7
100
AcDbLine
 10
762.178027
 20
447.814525
 30
0.0
 11
762.178027
 21
446.939525
 31
0.0
  0
LINE
  5
484
330
222
100
AcDbEntity
  8
7_ALL_FEATURES
  6
Continuous
 62
     7
100
AcDbLine
 10
762.178027
 20
446.939525
 30
0.0
 11
761.303027
 21
446.939525
 31
0.0
  0
LINE
  5
485
330
222
100
AcDbEntity
  8
7_ALL_FEATURES
  6
Continuous
 62
     7
100
AcDbLine
 10
761.303027
 20
446.189525
 30
0.0
 11
762.178027
 21
446.189525
 31
0.0
  0
LINE
  5
486
330
222
100
AcDbEntity
  8
7_ALL_FEATURES
  6
Continuous
 62
     7
100
AcDbLine
 10
762.178027
 20
446.189525
 30
0.0
 11
762.178027
 21
445.314525
 31
0.0
  0
ARC
  5
487
330
222
100
AcDbEntity
  8
3_ALL_AXES
  6
Continuous
 62
     7
100
AcDbCircle
 10
762.553027
 20
446.564525
 30
0.0
 40
2.75
100
AcDbArc
 50
0.0
 51
180.0
  0
ARC
  5
488
330
222
100
AcDbEntity
  8
3_ALL_AXES
  6
Continuous
 62
     7
100
AcDbCircle
 10
762.553027
 20
446.564525
 30
0.0
 40
2.75
100
AcDbArc
 50
180.0
 51
360.0
  0
LINE
  5
489
330
222
100
AcDbEntity
  8
7_ALL_FEATURES
  6
Continuous
 62
     7
100
AcDbLine
 10
761.303027
 20
446.189525
 30
0.0
 11
761.303027
 21
446.939525
 31
0.0
  0
LINE
  5
48A
330
222
100
AcDbEntity
  8
7_ALL_FEATURES
  6
Continuous
 62
     7
100
AcDbLine
 10
762.928027
 20
445.314525
 30
0.0
 11
762.178027
 21
445.314525
 31
0.0
  0
LINE
  5
48B
330
222
100
AcDbEntity
  8
7_ALL_FEATURES
  6
Continuous
 62
     7
100
AcDbLine
 10
763.803027
 20
446.939525
 30
0.0
 11
763.803027
 21
446.189525
 31
0.0
  0
LINE
  5
48C
330
222
100
AcDbEntity
  8
7_ALL_FEATURES
  6
Continuous
 62
     7
100
AcDbLine
 10
762.178027
 20
447.814525
 30
0.0
 11
762.928027
 21
447.814525
 31
0.0
  0
LINE
  5
48D
330
222
100
AcDbEntity
  8
7_ALL_FEATURES
  6
Continuous
 62
     7
100
AcDbLine
 10
782.428027
 20
445.314525
 30
0.0
 11
782.428027
 21
446.189525
 31
0.0
  0
LINE
  5
48E
330
222
100
AcDbEntity
  8
7_ALL_FEATURES
  6
Continuous
 62
     7
100
AcDbLine
 10
782.428027
 20
446.189525
 30
0.0
 11
783.303027
 21
446.189525
 31
0.0
  0
LINE
  5
48F
330
222
100
AcDbEntity
  8
7_ALL_FEATURES
  6
Continuous
 62
     7
100
AcDbLine
 10
783.303027
 20
446.939525
 30
0.0
 11
782.428027
 21
446.939525
 31
0.0
  0
LINE
  5
490
330
222
100
AcDbEntity
  8
7_ALL_FEATURES
  6
Continuous
 62
     7
100
AcDbLine
 10
782.428027
 20
446.939525
 30
0.0
 11
782.428027
 21
447.814525
 31
0.0
  0
LINE
  5
491
330
222
100
AcDbEntity
  8
7_ALL_FEATURES
  6
Continuous
 62
     7
100
AcDbLine
 10
781.678027
 20
447.814525
 30
0.0
 11
781.678027
 21
446.939525
 31
0.0
  0
LINE
  5
492
330
222
100
AcDbEntity
  8
7_ALL_FEATURES
  6
Continuous
 62
     7
100
AcDbLine
 10
781.678027
 20
446.939525
 30
0.0
 11
780.803027
 21
446.939525
 31
0.0
  0
LINE
  5
493
330
222
100
AcDbEntity
  8
7_ALL_FEATURES
  6
Continuous
 62
     7
100
AcDbLine
 10
780.803027
 20
446.189525
 30
0.0
 11
781.678027
 21
446.189525
 31
0.0
  0
LINE
  5
494
330
222
100
AcDbEntity
  8
7_ALL_FEATURES
  6
Continuous
 62
     7
100
AcDbLine
 10
781.678027
 20
446.189525
 30
0.0
 11
781.678027
 21
445.314525
 31
0.0
  0
ARC
  5
495
330
222
100
AcDbEntity
  8
3_ALL_AXES
  6
Continuous
 62
     7
100
AcDbCircle
 10
782.053027
 20
446.564525
 30
0.0
 40
2.75
100
AcDbArc
 50
0.0
 51
180.0
  0
ARC
  5
496
330
222
100
AcDbEntity
  8
3_ALL_AXES
  6
Continuous
 62
     7
100
AcDbCircle
 10
782.053027
 20
446.564525
 30
0.0
 40
2.75
100
AcDbArc
 50
180.0
 51
360.0
  0
LINE
  5
497
330
222
100
AcDbEntity
  8
7_ALL_FEATURES
  6
Continuous
 62
     7
100
AcDbLine
 10
780.803027
 20
446.189525
 30
0.0
 11
780.803027
 21
446.939525
 31
0.0
  0
LINE
  5
498
330
222
100
AcDbEntity
  8
7_ALL_FEATURES
  6
Continuous
 62
     7
100
AcDbLine
 10
782.428027
 20
445.314525
 30
0.0
 11
781.678027
 21
445.314525
 31
0.0
  0
LINE
  5
499
330
222
100
AcDbEntity
  8
7_ALL_FEATURES
  6
Continuous
 62
     7
100
AcDbLine
 10
783.303027
 20
446.939525
 30
0.0
 11
783.303027
 21
446.189525
 31
0.0
  0
LINE
  5
49A
330
222
100
AcDbEntity
  8
7_ALL_FEATURES
  6
Continuous
 62
     7
100
AcDbLine
 10
781.678027
 20
447.814525
 30
0.0
 11
782.428027
 21
447.814525
 31
0.0
  0
LINE
  5
49B
330
222
100
AcDbEntity
  8
7_ALL_FEATURES
  6
Continuous
 62
     7
100
AcDbLine
 10
785.678027
 20
460.564525
 30
0.0
 11
785.678027
 21
461.439525
 31
0.0
  0
LINE
  5
49C
330
222
100
AcDbEntity
  8
7_ALL_FEATURES
  6
Continuous
 62
     7
100
AcDbLine
 10
785.678027
 20
461.439525
 30
0.0
 11
786.553027
 21
461.439525
 31
0.0
  0
LINE
  5
49D
330
222
100
AcDbEntity
  8
7_ALL_FEATURES
  6
Continuous
 62
     7
100
AcDbLine
 10
786.553027
 20
462.189525
 30
0.0
 11
785.678027
 21
462.189525
 31
0.0
  0
LINE
  5
49E
330
222
100
AcDbEntity
  8
7_ALL_FEATURES
  6
Continuous
 62
     7
100
AcDbLine
 10
785.678027
 20
462.189525
 30
0.0
 11
785.678027
 21
463.064525
 31
0.0
  0
LINE
  5
49F
330
222
100
AcDbEntity
  8
7_ALL_FEATURES
  6
Continuous
 62
     7
100
AcDbLine
 10
784.928027
 20
463.064525
 30
0.0
 11
784.928027
 21
462.189525
 31
0.0
  0
LINE
  5
4A0
330
222
100
AcDbEntity
  8
7_ALL_FEATURES
  6
Continuous
 62
     7
100
AcDbLine
 10
784.928027
 20
462.189525
 30
0.0
 11
784.053027
 21
462.189525
 31
0.0
  0
LINE
  5
4A1
330
222
100
AcDbEntity
  8
7_ALL_FEATURES
  6
Continuous
 62
     7
100
AcDbLine
 10
784.053027
 20
461.439525
 30
0.0
 11
784.928027
 21
461.439525
 31
0.0
  0
LINE
  5
4A2
330
222
100
AcDbEntity
  8
7_ALL_FEATURES
  6
Continuous
 62
     7
100
AcDbLine
 10
784.928027
 20
461.439525
 30
0.0
 11
784.928027
 21
460.564525
 31
0.0
  0
ARC
  5
4A3
330
222
100
AcDbEntity
  8
3_ALL_AXES
  6
Continuous
 62
     7
100
AcDbCircle
 10
785.303027
 20
461.814525
 30
0.0
 40
2.75
100
AcDbArc
 50
0.0
 51
180.0
  0
ARC
  5
4A4
330
222
100
AcDbEntity
  8
3_ALL_AXES
  6
Continuous
 62
     7
100
AcDbCircle
 10
785.303027
 20
461.814525
 30
0.0
 40
2.75
100
AcDbArc
 50
180.0
 51
360.0
  0
LINE
  5
4A5
330
222
100
AcDbEntity
  8
7_ALL_FEATURES
  6
Continuous
 62
     7
100
AcDbLine
 10
784.053027
 20
461.439525
 30
0.0
 11
784.053027
 21
462.189525
 31
0.0
  0
LINE
  5
4A6
330
222
100
AcDbEntity
  8
7_ALL_FEATURES
  6
Continuous
 62
     7
100
AcDbLine
 10
785.678027
 20
460.564525
 30
0.0
 11
784.928027
 21
460.564525
 31
0.0
  0
LINE
  5
4A7
330
222
100
AcDbEntity
  8
7_ALL_FEATURES
  6
Continuous
 62
     7
100
AcDbLine
 10
786.553027
 20
462.189525
 30
0.0
 11
786.553027
 21
461.439525
 31
0.0
  0
LINE
  5
4A8
330
222
100
AcDbEntity
  8
7_ALL_FEATURES
  6
Continuous
 62
     7
100
AcDbLine
 10
784.928027
 20
463.064525
 30
0.0
 11
785.678027
 21
463.064525
 31
0.0
  0
LINE
  5
4A9
330
222
100
AcDbEntity
  8
3_ALL_AXES
  6
Continuous
 62
     7
100
AcDbLine
 10
760.303027
 20
440.814525
 30
0.0
 11
760.253027
 21
440.814525
 31
0.0
  0
ARC
  5
4AA
330
222
100
AcDbEntity
  8
3_ALL_AXES
  6
Continuous
 62
     7
100
AcDbCircle
 10
763.053027
 20
443.114525
 30
0.0
 40
4.5
100
AcDbArc
 50
244.21569
 51
247.078181
  0
ARC
  5
4AB
330
222
100
AcDbEntity
  8
3_ALL_AXES
  6
Continuous
 62
     7
100
AcDbCircle
 10
763.053027
 20
443.114525
 30
0.0
 40
4.5
100
AcDbArc
 50
239.984189
 51
244.21569
  0
ARC
  5
4AC
330
222
100
AcDbEntity
  8
3_ALL_AXES
  6
Continuous
 62
     7
100
AcDbCircle
 10
763.053027
 20
443.114525
 30
0.0
 40
4.5
100
AcDbArc
 50
237.868548
 51
239.984189
  0
ARC
  5
4AD
330
222
100
AcDbEntity
  8
3_ALL_AXES
  6
Continuous
 62
     7
100
AcDbCircle
 10
763.053027
 20
443.114525
 30
0.0
 40
4.5
100
AcDbArc
 50
231.521405
 51
237.868548
  0
LINE
  5
4AE
330
222
100
AcDbEntity
  8
3_ALL_AXES
  6
Continuous
 62
     7
100
AcDbLine
 10
760.253027
 20
439.591742
 30
0.0
 11
760.253027
 21
440.814525
 31
0.0
  0
ARC
  5
4AF
330
222
100
AcDbEntity
  8
3_ALL_AXES
  6
Continuous
 62
     7
100
AcDbCircle
 10
763.053027
 20
443.114525
 30
0.0
 40
4.5
100
AcDbArc
 50
231.521405
 51
237.868502
  0
ARC
  5
4B0
330
222
100
AcDbEntity
  8
3_ALL_AXES
  6
Continuous
 62
     7
100
AcDbCircle
 10
763.053027
 20
443.114525
 30
0.0
 40
4.5
100
AcDbArc
 50
237.868502
 51
239.98422
  0
ARC
  5
4B1
330
222
100
AcDbEntity
  8
3_ALL_AXES
  6
Continuous
 62
     7
100
AcDbCircle
 10
763.053027
 20
443.114525
 30
0.0
 40
4.5
100
AcDbArc
 50
239.98422
 51
244.215599
  0
ARC
  5
4B2
330
222
100
AcDbEntity
  8
3_ALL_AXES
  6
Continuous
 62
     7
100
AcDbCircle
 10
763.053027
 20
443.114525
 30
0.0
 40
4.5
100
AcDbArc
 50
244.215599
 51
247.078774
  0
LINE
  5
4B3
330
222
100
AcDbEntity
  8
3_ALL_AXES
  6
Continuous
 62
     7
100
AcDbLine
 10
760.253027
 20
440.814525
 30
0.0
 11
760.253027
 21
439.591742
 31
0.0
  0
LINE
  5
4B4
330
222
100
AcDbEntity
  8
3_ALL_AXES
  6
Continuous
 62
     7
100
AcDbLine
 10
761.303027
 20
439.591742
 30
0.0
 11
760.253027
 21
439.591742
 31
0.0
  0
LINE
  5
4B5
330
222
100
AcDbEntity
  8
3_ALL_AXES
  6
Continuous
 62
     7
100
AcDbLine
 10
784.353027
 20
440.814525
 30
0.0
 11
784.303027
 21
440.814525
 31
0.0
  0
ARC
  5
4B6
330
222
100
AcDbEntity
  8
3_ALL_AXES
  6
Continuous
 62
     7
100
AcDbCircle
 10
781.553027
 20
443.114525
 30
0.0
 40
4.5
100
AcDbArc
 50
292.921819
 51
295.78431
  0
ARC
  5
4B7
330
222
100
AcDbEntity
  8
3_ALL_AXES
  6
Continuous
 62
     7
100
AcDbCircle
 10
781.553027
 20
443.114525
 30
0.0
 40
4.5
100
AcDbArc
 50
295.78431
 51
300.015811
  0
ARC
  5
4B8
330
222
100
AcDbEntity
  8
3_ALL_AXES
  6
Continuous
 62
     7
100
AcDbCircle
 10
781.553027
 20
443.114525
 30
0.0
 40
4.5
100
AcDbArc
 50
300.015811
 51
302.131452
  0
ARC
  5
4B9
330
222
100
AcDbEntity
  8
3_ALL_AXES
  6
Continuous
 62
     7
100
AcDbCircle
 10
781.553027
 20
443.114525
 30
0.0
 40
4.5
100
AcDbArc
 50
302.131452
 51
308.478595
  0
LINE
  5
4BA
330
222
100
AcDbEntity
  8
3_ALL_AXES
  6
Continuous
 62
     7
100
AcDbLine
 10
784.353027
 20
439.591742
 30
0.0
 11
784.353027
 21
440.814525
 31
0.0
  0
ARC
  5
4BB
330
222
100
AcDbEntity
  8
3_ALL_AXES
  6
Continuous
 62
     7
100
AcDbCircle
 10
781.553027
 20
443.114525
 30
0.0
 40
4.5
100
AcDbArc
 50
302.131498
 51
308.478595
  0
ARC
  5
4BC
330
222
100
AcDbEntity
  8
3_ALL_AXES
  6
Continuous
 62
     7
100
AcDbCircle
 10
781.553027
 20
443.114525
 30
0.0
 40
4.5
100
AcDbArc
 50
300.01578
 51
302.131498
  0
ARC
  5
4BD
330
222
100
AcDbEntity
  8
3_ALL_AXES
  6
Continuous
 62
     7
100
AcDbCircle
 10
781.553027
 20
443.114525
 30
0.0
 40
4.5
100
AcDbArc
 50
295.784401
 51
300.01578
  0
ARC
  5
4BE
330
222
100
AcDbEntity
  8
3_ALL_AXES
  6
Continuous
 62
     7
100
AcDbCircle
 10
781.553027
 20
443.114525
 30
0.0
 40
4.5
100
AcDbArc
 50
292.921226
 51
295.784401
  0
LINE
  5
4BF
330
222
100
AcDbEntity
  8
3_ALL_AXES
  6
Continuous
 62
     7
100
AcDbLine
 10
784.353027
 20
440.814525
 30
0.0
 11
784.353027
 21
439.591742
 31
0.0
  0
LINE
  5
4C0
330
222
100
AcDbEntity
  8
3_ALL_AXES
  6
Continuous
 62
     7
100
AcDbLine
 10
784.353027
 20
439.591742
 30
0.0
 11
783.303027
 21
439.591742
 31
0.0
  0
ARC
  5
4C1
330
222
100
AcDbEntity
  8
3_ALL_AXES
  6
Continuous
 62
     7
100
AcDbCircle
 10
775.803027
 20
428.814525
 30
0.0
 40
3.5
100
AcDbArc
 50
270.0
 51
348.431635
  0
LINE
  5
4C2
330
222
100
AcDbEntity
  8
3_ALL_AXES
  6
Continuous
 62
     7
100
AcDbLine
 10
765.374823
 20
428.109363
 30
0.0
 11
765.374823
 21
428.814525
 31
0.0
  0
ARC
  5
4C3
330
222
100
AcDbEntity
  8
3_ALL_AXES
  6
Continuous
 62
     7
100
AcDbCircle
 10
768.803027
 20
428.814525
 30
0.0
 40
3.5
100
AcDbArc
 50
191.568365
 51
270.0
  0
LINE
  5
4C4
330
222
100
AcDbEntity
  8
3_ALL_AXES
  6
Continuous
 62
     7
100
AcDbLine
 10
779.23123
 20
428.814525
 30
0.0
 11
779.23123
 21
428.109363
 31
0.0
  0
LINE
  5
4C5
330
222
100
AcDbEntity
  8
3_ALL_AXES
  6
Continuous
 62
     7
100
AcDbLine
 10
779.23123
 20
428.814525
 30
0.0
 11
779.23123
 21
429.314525
 31
0.0
  0
LINE
  5
4C6
330
222
100
AcDbEntity
  8
3_ALL_AXES
  6
Continuous
 62
     7
100
AcDbLine
 10
779.23123
 20
430.064525
 30
0.0
 11
779.23123
 21
429.314525
 31
0.0
  0
LINE
  5
4C7
330
222
100
AcDbEntity
  8
3_ALL_AXES
  6
Continuous
 62
     7
100
AcDbLine
 10
774.095817
 20
437.814525
 30
0.0
 11
772.303027
 21
437.814525
 31
0.0
  0
LINE
  5
4C8
330
222
100
AcDbEntity
  8
3_ALL_AXES
  6
Continuous
 62
     7
100
AcDbLine
 10
775.803027
 20
434.814525
 30
0.0
 11
772.303027
 21
434.814525
 31
0.0
  0
LINE
  5
4C9
330
222
100
AcDbEntity
  8
3_ALL_AXES
  6
Continuous
 62
     7
100
AcDbLine
 10
772.303027
 20
434.814525
 30
0.0
 11
768.803027
 21
434.814525
 31
0.0
  0
LINE
  5
4CA
330
222
100
AcDbEntity
  8
3_ALL_AXES
  6
Continuous
 62
     7
100
AcDbLine
 10
772.303027
 20
437.814525
 30
0.0
 11
770.510236
 21
437.814525
 31
0.0
  0
LINE
  5
4CB
330
222
100
AcDbEntity
  8
3_ALL_AXES
  6
Continuous
 62
     7
100
AcDbLine
 10
765.374823
 20
429.314525
 30
0.0
 11
765.374823
 21
430.064525
 31
0.0
  0
LINE
  5
4CC
330
222
100
AcDbEntity
  8
3_ALL_AXES
  6
Continuous
 62
     7
100
AcDbLine
 10
765.374823
 20
428.814525
 30
0.0
 11
765.374823
 21
429.314525
 31
0.0
  0
SPLINE
  5
4CD
330
222
100
AcDbEntity
  8
3_ALL_AXES
  6
Continuous
 62
     7
100
AcDbSpline
 70
     0
 71
     3
 72
     9
 73
     5
 74
     0
 42
0.000000001
 43
0.0000001
 40
0.0
 40
0.0
 40
0.0
 40
0.0
 40
0.5032020783
 40
1.0
 40
1.0
 40
1.0
 40
1.0
 10
772.7707694277
 20
430.0586054843
 30
0.0
 10
773.1081779401
 20
429.8845458908
 30
0.0
 10
773.798442978
 20
429.5745941481
 30
0.0
 10
774.5312732566
 20
429.3755309075
 30
0.0
 10
774.9011028623
 20
429.3145248439
 30
0.0
  0
SPLINE
  5
4CE
330
222
100
AcDbEntity
  8
3_ALL_AXES
  6
Continuous
 62
     7
100
AcDbSpline
 70
     0
 71
     3
 72
     9
 73
     5
 74
     0
 42
0.000000001
 43
0.0000001
 40
0.0
 40
0.0
 40
0.0
 40
0.0
 40
0.5032020783
 40
1.0
 40
1.0
 40
1.0
 40
1.0
 10
765.8425661974
 20
430.0586054843
 30
0.0
 10
766.1799747099
 20
429.8845458908
 30
0.0
 10
766.8702397477
 20
429.5745941481
 30
0.0
 10
767.6030700263
 20
429.3755309075
 30
0.0
 10
767.972899632
 20
429.3145248439
 30
0.0
  0
LINE
  5
4CF
330
222
100
AcDbEntity
  8
3_ALL_AXES
  6
Continuous
 62
     7
100
AcDbLine
 10
772.303027
 20
434.814525
 30
0.0
 11
772.303027
 21
431.333698
 31
0.0
  0
SPLINE
  5
4D0
330
222
100
AcDbEntity
  8
3_ALL_AXES
  6
Continuous
 62
     7
100
AcDbSpline
 70
     0
 71
     3
 72
     9
 73
     5
 74
     0
 42
0.000000001
 43
0.0000001
 40
0.0
 40
0.0
 40
0.0
 40
0.0
 40
0.4967979405
 40
1.0
 40
1.0
 40
1.0
 40
1.0
 10
769.7049504396
 20
429.3145248439
 30
0.0
 10
770.074780562
 20
429.3755309927
 30
0.0
 10
770.8076118216
 20
429.5745946081
 30
0.0
 10
771.4978777079
 20
429.884546977
 30
0.0
 10
771.8352866146
 20
430.058606901
 30
0.0
  0
LINE
  5
4D1
330
222
100
AcDbEntity
  8
3_ALL_AXES
  6
Continuous
 62
     7
100
AcDbLine
 10
769.70495
 20
428.814525
 30
0.0
 11
769.70495
 21
429.314525
 31
0.0
  0
SPLINE
  5
4D2
330
222
100
AcDbEntity
  8
3_ALL_AXES
  6
Continuous
 62
     7
100
AcDbSpline
 70
     0
 71
     3
 72
    13
 73
     9
 74
     0
 42
0.000000001
 43
0.0000001
 40
0.0
 40
0.0
 40
0.0
 40
0.0
 40
0.1368172946
 40
0.2694970526
 40
0.3972471653
 40
0.5211524247
 40
0.7615636944
 40
1.0
 40
1.0
 40
1.0
 40
1.0
 10
767.972899632
 20
428.8145248439
 30
0.0
 10
767.972899632
 20
428.7469798628
 30
0.0
 10
767.9969955835
 20
428.6128436359
 30
0.0
 10
768.0939918071
 20
428.4390806672
 30
0.0
 10
768.2296172946
 20
428.3034738364
 30
0.0
 10
768.4374227048
 20
428.17450938
 30
0.0
 10
768.7309212514
 20
428.0945996693
 30
0.0
 10
768.9716977361
 20
428.1108148204
 30
0.0
 10
769.0861230381
 20
428.1384409553
 30
0.0
  0
SPLINE
  5
4D3
330
222
100
AcDbEntity
  8
3_ALL_AXES
  6
Continuous
 62
     7
100
AcDbSpline
 70
     0
 71
     3
 72
     9
 73
     5
 74
     0
 42
0.000000001
 43
0.0000001
 40
0.0
 40
0.0
 40
0.0
 40
0.0
 40
0.7482894478
 40
1.0
 40
1.0
 40
1.0
 40
1.0
 10
769.0861230381
 20
428.1384409553
 30
0.0
 10
769.1332121976
 20
428.1498098698
 30
0.0
 10
769.1952146344
 20
428.1695107131
 30
0.0
 10
769.2546194763
 20
428.1952765381
 30
0.0
 10
769.2693951542
 20
428.2021472966
 30
0.0
  0
SPLINE
  5
4D4
330
222
100
AcDbEntity
  8
3_ALL_AXES
  6
Continuous
 62
     7
100
AcDbSpline
 70
     0
 71
     3
 72
    11
 73
     7
 74
     0
 42
0.000000001
 43
0.0000001
 40
0.0
 40
0.0
 40
0.0
 40
0.0
 40
0.23761034
 40
0.4825877404
 40
0.7371946992
 40
1.0
 40
1.0
 40
1.0
 40
1.0
 10
769.2693951542
 20
428.2021472966
 30
0.0
 10
769.3262094725
 20
428.228566217
 30
0.0
 10
769.436607582
 20
428.2940734754
 30
0.0
 10
769.5778435228
 20
428.4306311753
 30
0.0
 10
769.6795536135
 20
428.6076236527
 30
0.0
 10
769.7049504396
 20
428.7452246715
 30
0.0
 10
769.7049504396
 20
428.8145248439
 30
0.0
  0
LINE
  5
4D5
330
222
100
AcDbEntity
  8
3_ALL_AXES
  6
Continuous
 62
     7
100
AcDbLine
 10
767.9729
 20
428.814525
 30
0.0
 11
767.9729
 21
429.314525
 31
0.0
  0
LINE
  5
4D6
330
222
100
AcDbEntity
  8
3_ALL_AXES
  6
Continuous
 62
     7
100
AcDbLine
 10
772.303027
 20
438.295351
 30
0.0
 11
772.303027
 21
437.814525
 31
0.0
  0
LINE
  5
4D7
330
222
100
AcDbEntity
  8
3_ALL_AXES
  6
Continuous
 62
     9
100
AcDbLine
 10
779.23123
 20
428.814525
 30
0.0
 11
776.633154
 21
428.814525
 31
0.0
  0
LINE
  5
4D8
330
222
100
AcDbEntity
  8
3_ALL_AXES
  6
Continuous
 62
     9
100
AcDbLine
 10
774.901103
 20
428.814525
 30
0.0
 11
772.303027
 21
428.814525
 31
0.0
  0
SPLINE
  5
4D9
330
222
100
AcDbEntity
  8
3_ALL_AXES
  6
Continuous
 62
     7
100
AcDbSpline
 70
     0
 71
     3
 72
     9
 73
     5
 74
     0
 42
0.000000001
 43
0.0000001
 40
0.0
 40
0.0
 40
0.0
 40
0.0
 40
0.4967979405
 40
1.0
 40
1.0
 40
1.0
 40
1.0
 10
776.6331536698
 20
429.3145248439
 30
0.0
 10
777.0029837923
 20
429.3755309927
 30
0.0
 10
777.7358150519
 20
429.5745946081
 30
0.0
 10
778.4260809382
 20
429.884546977
 30
0.0
 10
778.7634898449
 20
430.058606901
 30
0.0
  0
LINE
  5
4DA
330
222
100
AcDbEntity
  8
3_ALL_AXES
  6
Continuous
 62
     7
100
AcDbLine
 10
776.633154
 20
428.814525
 30
0.0
 11
776.633154
 21
429.314525
 31
0.0
  0
LINE
  5
4DB
330
222
100
AcDbEntity
  8
3_ALL_AXES
  6
Continuous
 62
     9
100
AcDbLine
 10
769.70495
 20
428.814525
 30
0.0
 11
772.303027
 21
428.814525
 31
0.0
  0
SPLINE
  5
4DC
330
222
100
AcDbEntity
  8
3_ALL_AXES
  6
Continuous
 62
     7
100
AcDbSpline
 70
     0
 71
     3
 72
    12
 73
     8
 74
     0
 42
0.000000001
 43
0.0000001
 40
0.0
 40
0.0
 40
0.0
 40
0.0
 40
0.1348956974
 40
0.2674721292
 40
0.5209610923
 40
0.7635463637
 40
1.0
 40
1.0
 40
1.0
 40
1.0
 10
774.9011028623
 20
428.8145248439
 30
0.0
 10
774.9011028623
 20
428.7669050545
 30
0.0
 10
774.9129957137
 20
428.6720676893
 30
0.0
 10
774.9790043431
 20
428.4988931954
 30
0.0
 10
775.1232177246
 20
428.3222465045
 30
0.0
 10
775.3464863154
 20
428.1851621215
 30
0.0
 10
775.5107953859
 20
428.1372347492
 30
0.0
 10
775.5931370043
 20
428.1235505323
 30
0.0
  0
SPLINE
  5
4DD
330
222
100
AcDbEntity
  8
3_ALL_AXES
  6
Continuous
 62
     7
100
AcDbSpline
 70
     0
 71
     3
 72
    13
 73
     9
 74
     0
 42
0.000000001
 43
0.0000001
 40
0.0
 40
0.0
 40
0.0
 40
0.0
 40
0.2378202675
 40
0.4784813852
 40
0.6026705132
 40
0.7307022893
 40
0.86344151
 40
1.0
 40
1.0
 40
1.0
 40
1.0
 10
775.5931370043
 20
428.1235505323
 30
0.0
 10
775.703175254
 20
428.1052634581
 30
0.0
 10
775.9317195199
 20
428.1035843994
 30
0.0
 10
776.2063764785
 20
428.1923221499
 30
0.0
 10
776.3990387005
 20
428.3227782769
 30
0.0
 10
776.5235796598
 20
428.456050066
 30
0.0
 10
776.6115286535
 20
428.6232206529
 30
0.0
 10
776.6331536698
 20
428.7504733171
 30
0.0
 10
776.6331536698
 20
428.8145248439
 30
0.0
  0
LINE
  5
4DE
330
222
100
AcDbEntity
  8
3_ALL_AXES
  6
Continuous
 62
     9
100
AcDbLine
 10
765.374823
 20
428.814525
 30
0.0
 11
767.9729
 21
428.814525
 31
0.0
  0
LINE
  5
4DF
330
222
100
AcDbEntity
  8
3_ALL_AXES
  6
Continuous
 62
     7
100
AcDbLine
 10
774.901103
 20
428.814525
 30
0.0
 11
774.901103
 21
429.314525
 31
0.0
  0
LINE
  5
4E0
330
222
100
AcDbEntity
  8
3_ALL_AXES
  6
Continuous
 62
     7
100
AcDbLine
 10
769.70495
 20
429.314525
 30
0.0
 11
774.901103
 21
429.314525
 31
0.0
  0
LINE
  5
4E1
330
222
100
AcDbEntity
  8
3_ALL_AXES
  6
Continuous
 62
     7
100
AcDbLine
 10
765.374823
 20
429.314525
 30
0.0
 11
767.9729
 21
429.314525
 31
0.0
  0
LINE
  5
4E2
330
222
100
AcDbEntity
  8
3_ALL_AXES
  6
Continuous
 62
     7
100
AcDbLine
 10
779.23123
 20
429.314525
 30
0.0
 11
776.633154
 21
429.314525
 31
0.0
  0
LINE
  5
4E3
330
222
100
AcDbEntity
  8
7_ALL_FEATURES
  6
Continuous
 62
     7
100
AcDbLine
 10
779.803027
 20
416.114525
 30
0.0
 11
779.803027
 21
424.514525
 31
0.0
  0
LINE
  5
4E4
330
222
100
AcDbEntity
  8
7_ALL_FEATURES
  6
Continuous
 62
     7
100
AcDbLine
 10
766.603027
 20
415.314525
 30
0.0
 11
778.003027
 21
415.314525
 31
0.0
  0
ARC
  5
4E5
330
222
100
AcDbEntity
  8
7_ALL_FEATURES
  6
Continuous
 62
     7
100
AcDbCircle
 10
766.603027
 20
416.114525
 30
0.0
 40
0.8
100
AcDbArc
 50
249.460634
 51
270.0
  0
ARC
  5
4E6
330
222
100
AcDbEntity
  8
7_ALL_FEATURES
  6
Continuous
 62
     7
100
AcDbCircle
 10
766.603027
 20
416.114525
 30
0.0
 40
0.8
100
AcDbArc
 50
242.972119
 51
249.460634
  0
ARC
  5
4E7
330
222
100
AcDbEntity
  8
7_ALL_FEATURES
  6
Continuous
 62
     7
100
AcDbCircle
 10
766.603027
 20
416.114525
 30
0.0
 40
0.8
100
AcDbArc
 50
228.639131
 51
242.972119
  0
ARC
  5
4E8
330
222
100
AcDbEntity
  8
7_ALL_FEATURES
  6
Continuous
 62
     7
100
AcDbCircle
 10
766.603027
 20
416.114525
 30
0.0
 40
0.8
100
AcDbArc
 50
221.360869
 51
228.639131
  0
ARC
  5
4E9
330
222
100
AcDbEntity
  8
7_ALL_FEATURES
  6
Continuous
 62
     7
100
AcDbCircle
 10
766.603027
 20
416.114525
 30
0.0
 40
0.8
100
AcDbArc
 50
207.027881
 51
221.360869
  0
ARC
  5
4EA
330
222
100
AcDbEntity
  8
7_ALL_FEATURES
  6
Continuous
 62
     7
100
AcDbCircle
 10
766.603027
 20
416.114525
 30
0.0
 40
0.8
100
AcDbArc
 50
200.539366
 51
207.027881
  0
ARC
  5
4EB
330
222
100
AcDbEntity
  8
7_ALL_FEATURES
  6
Continuous
 62
     7
100
AcDbCircle
 10
766.603027
 20
416.114525
 30
0.0
 40
0.8
100
AcDbArc
 50
180.0
 51
200.539366
  0
LINE
  5
4EC
330
222
100
AcDbEntity
  8
7_ALL_FEATURES
  6
Continuous
 62
     7
100
AcDbLine
 10
778.003027
 20
415.314525
 30
0.0
 11
779.003027
 21
415.314525
 31
0.0
  0
ARC
  5
4ED
330
222
100
AcDbEntity
  8
7_ALL_FEATURES
  6
Continuous
 62
     7
100
AcDbCircle
 10
778.003027
 20
424.514525
 30
0.0
 40
0.8
100
AcDbArc
 50
69.460634
 51
90.0
  0
ARC
  5
4EE
330
222
100
AcDbEntity
  8
7_ALL_FEATURES
  6
Continuous
 62
     7
100
AcDbCircle
 10
778.003027
 20
424.514525
 30
0.0
 40
0.8
100
AcDbArc
 50
62.972119
 51
69.460634
  0
ARC
  5
4EF
330
222
100
AcDbEntity
  8
7_ALL_FEATURES
  6
Continuous
 62
     7
100
AcDbCircle
 10
778.003027
 20
424.514525
 30
0.0
 40
0.8
100
AcDbArc
 50
48.639131
 51
62.972119
  0
ARC
  5
4F0
330
222
100
AcDbEntity
  8
7_ALL_FEATURES
  6
Continuous
 62
     7
100
AcDbCircle
 10
778.003027
 20
424.514525
 30
0.0
 40
0.8
100
AcDbArc
 50
41.360869
 51
48.639131
  0
ARC
  5
4F1
330
222
100
AcDbEntity
  8
7_ALL_FEATURES
  6
Continuous
 62
     7
100
AcDbCircle
 10
778.003027
 20
424.514525
 30
0.0
 40
0.8
100
AcDbArc
 50
27.027881
 51
41.360869
  0
ARC
  5
4F2
330
222
100
AcDbEntity
  8
7_ALL_FEATURES
  6
Continuous
 62
     7
100
AcDbCircle
 10
778.003027
 20
424.514525
 30
0.0
 40
0.8
100
AcDbArc
 50
20.539366
 51
27.027881
  0
ARC
  5
4F3
330
222
100
AcDbEntity
  8
7_ALL_FEATURES
  6
Continuous
 62
     7
100
AcDbCircle
 10
778.003027
 20
424.514525
 30
0.0
 40
0.8
100
AcDbArc
 50
0.0
 51
20.539366
  0
LINE
  5
4F4
330
222
100
AcDbEntity
  8
7_ALL_FEATURES
  6
Continuous
 62
     7
100
AcDbLine
 10
765.603027
 20
415.314525
 30
0.0
 11
766.603027
 21
415.314525
 31
0.0
  0
LINE
  5
4F5
330
222
100
AcDbEntity
  8
7_ALL_FEATURES
  6
Continuous
 62
     7
100
AcDbLine
 10
764.803027
 20
424.514525
 30
0.0
 11
764.803027
 21
416.114525
 31
0.0
  0
LINE
  5
4F6
330
222
100
AcDbEntity
  8
7_ALL_FEATURES
  6
Continuous
 62
     7
100
AcDbLine
 10
764.803027
 20
424.514525
 30
0.0
 11
764.803027
 21
416.114525
 31
0.0
  0
LINE
  5
4F7
330
222
100
AcDbEntity
  8
7_ALL_FEATURES
  6
Continuous
 62
     7
100
AcDbLine
 10
779.003027
 20
425.314525
 30
0.0
 11
778.003027
 21
425.314525
 31
0.0
  0
LINE
  5
4F8
330
222
100
AcDbEntity
  8
7_ALL_FEATURES
  6
Continuous
 62
     7
100
AcDbLine
 10
778.003027
 20
425.314525
 30
0.0
 11
766.603027
 21
425.314525
 31
0.0
  0
LINE
  5
4F9
330
222
100
AcDbEntity
  8
7_ALL_FEATURES
  6
Continuous
 62
     7
100
AcDbLine
 10
766.603027
 20
425.314525
 30
0.0
 11
765.603027
 21
425.314525
 31
0.0
  0
LINE
  5
4FA
330
222
100
AcDbEntity
  8
7_ALL_FEATURES
  6
Continuous
 62
     7
100
AcDbLine
 10
778.003027
 20
425.314525
 30
0.0
 11
766.603027
 21
425.314525
 31
0.0
  0
LINE
  5
4FB
330
222
100
AcDbEntity
  8
7_ALL_FEATURES
  6
Continuous
 62
     7
100
AcDbLine
 10
778.803027
 20
416.114525
 30
0.0
 11
778.803027
 21
424.514525
 31
0.0
  0
LINE
  5
4FC
330
222
100
AcDbEntity
  8
7_ALL_FEATURES
  6
Continuous
 62
     7
100
AcDbLine
 10
766.603027
 20
415.314525
 30
0.0
 11
778.003027
 21
415.314525
 31
0.0
  0
LINE
  5
4FD
330
222
100
AcDbEntity
  8
7_ALL_FEATURES
  6
Continuous
 62
     7
100
AcDbLine
 10
765.803027
 20
424.514525
 30
0.0
 11
765.803027
 21
416.114525
 31
0.0
  0
LINE
  5
4FE
330
222
100
AcDbEntity
  8
7_ALL_FEATURES
  6
Continuous
 62
     7
100
AcDbLine
 10
778.803027
 20
416.114525
 30
0.0
 11
778.803027
 21
424.514525
 31
0.0
  0
ARC
  5
4FF
330
222
100
AcDbEntity
  8
3_ALL_AXES
  6
Continuous
 62
     7
100
AcDbCircle
 10
772.303027
 20
420.314525
 30
0.0
 40
3.15
100
AcDbArc
 50
180.0
 51
360.0
  0
ARC
  5
500
330
222
100
AcDbEntity
  8
3_ALL_AXES
  6
Continuous
 62
     7
100
AcDbCircle
 10
772.303027
 20
420.314525
 30
0.0
 40
3.15
100
AcDbArc
 50
0.0
 51
180.0
  0
ARC
  5
501
330
222
100
AcDbEntity
  8
7_ALL_FEATURES
  6
Continuous
 62
     7
100
AcDbCircle
 10
778.003027
 20
416.114525
 30
0.0
 40
0.8
100
AcDbArc
 50
270.0
 51
360.0
  0
ARC
  5
502
330
222
100
AcDbEntity
  8
7_ALL_FEATURES
  6
Continuous
 62
     7
100
AcDbCircle
 10
778.003027
 20
416.114525
 30
0.0
 40
0.8
100
AcDbArc
 50
342.000008
 51
360.0
  0
ARC
  5
503
330
222
100
AcDbEntity
  8
7_ALL_FEATURES
  6
Continuous
 62
     7
100
AcDbCircle
 10
778.003027
 20
416.114525
 30
0.0
 40
0.8
100
AcDbArc
 50
331.582098
 51
342.000008
  0
ARC
  5
504
330
222
100
AcDbEntity
  8
7_ALL_FEATURES
  6
Continuous
 62
     7
100
AcDbCircle
 10
778.003027
 20
416.114525
 30
0.0
 40
0.8
100
AcDbArc
 50
324.000006
 51
331.582098
  0
ARC
  5
505
330
222
100
AcDbEntity
  8
7_ALL_FEATURES
  6
Continuous
 62
     7
100
AcDbCircle
 10
778.003027
 20
416.114525
 30
0.0
 40
0.8
100
AcDbArc
 50
305.999999
 51
324.000006
  0
ARC
  5
506
330
222
100
AcDbEntity
  8
7_ALL_FEATURES
  6
Continuous
 62
     7
100
AcDbCircle
 10
778.003027
 20
416.114525
 30
0.0
 40
0.8
100
AcDbArc
 50
302.916594
 51
305.999999
  0
ARC
  5
507
330
222
100
AcDbEntity
  8
7_ALL_FEATURES
  6
Continuous
 62
     7
100
AcDbCircle
 10
778.003027
 20
416.114525
 30
0.0
 40
0.8
100
AcDbArc
 50
287.999994
 51
302.916594
  0
ARC
  5
508
330
222
100
AcDbEntity
  8
7_ALL_FEATURES
  6
Continuous
 62
     7
100
AcDbCircle
 10
778.003027
 20
416.114525
 30
0.0
 40
0.8
100
AcDbArc
 50
270.0
 51
287.999994
  0
ARC
  5
509
330
222
100
AcDbEntity
  8
7_ALL_FEATURES
  6
Continuous
 62
     7
100
AcDbCircle
 10
779.003027
 20
416.114525
 30
0.0
 40
0.8
100
AcDbArc
 50
270.0
 51
360.0
  0
LINE
  5
50A
330
222
100
AcDbEntity
  8
7_ALL_FEATURES
  6
Continuous
 62
     7
100
AcDbLine
 10
765.803027
 20
424.514525
 30
0.0
 11
765.803027
 21
416.114525
 31
0.0
  0
ARC
  5
50B
330
222
100
AcDbEntity
  8
7_ALL_FEATURES
  6
Continuous
 62
     7
100
AcDbCircle
 10
779.003027
 20
416.114525
 30
0.0
 40
0.8
100
AcDbArc
 50
342.146171
 51
360.0
  0
ARC
  5
50C
330
222
100
AcDbEntity
  8
7_ALL_FEATURES
  6
Continuous
 62
     7
100
AcDbCircle
 10
779.003027
 20
416.114525
 30
0.0
 40
0.8
100
AcDbArc
 50
330.920969
 51
342.146171
  0
ARC
  5
50D
330
222
100
AcDbEntity
  8
7_ALL_FEATURES
  6
Continuous
 62
     7
100
AcDbCircle
 10
779.003027
 20
416.114525
 30
0.0
 40
0.8
100
AcDbArc
 50
324.155577
 51
330.920969
  0
ARC
  5
50E
330
222
100
AcDbEntity
  8
7_ALL_FEATURES
  6
Continuous
 62
     7
100
AcDbCircle
 10
779.003027
 20
416.114525
 30
0.0
 40
0.8
100
AcDbArc
 50
306.092354
 51
324.155577
  0
ARC
  5
50F
330
222
100
AcDbEntity
  8
7_ALL_FEATURES
  6
Continuous
 62
     7
100
AcDbCircle
 10
779.003027
 20
416.114525
 30
0.0
 40
0.8
100
AcDbArc
 50
300.108986
 51
306.092354
  0
ARC
  5
510
330
222
100
AcDbEntity
  8
7_ALL_FEATURES
  6
Continuous
 62
     7
100
AcDbCircle
 10
779.003027
 20
416.114525
 30
0.0
 40
0.8
100
AcDbArc
 50
288.057507
 51
300.108986
  0
ARC
  5
511
330
222
100
AcDbEntity
  8
7_ALL_FEATURES
  6
Continuous
 62
     7
100
AcDbCircle
 10
779.003027
 20
416.114525
 30
0.0
 40
0.8
100
AcDbArc
 50
270.0
 51
288.057507
  0
ARC
  5
512
330
222
100
AcDbEntity
  8
7_ALL_FEATURES
  6
Continuous
 62
     7
100
AcDbCircle
 10
765.603027
 20
416.114525
 30
0.0
 40
0.8
100
AcDbArc
 50
233.907646
 51
239.891006
  0
ARC
  5
513
330
222
100
AcDbEntity
  8
7_ALL_FEATURES
  6
Continuous
 62
     7
100
AcDbCircle
 10
765.603027
 20
416.114525
 30
0.0
 40
0.8
100
AcDbArc
 50
239.891006
 51
251.942494
  0
ARC
  5
514
330
222
100
AcDbEntity
  8
7_ALL_FEATURES
  6
Continuous
 62
     7
100
AcDbCircle
 10
765.603027
 20
416.114525
 30
0.0
 40
0.8
100
AcDbArc
 50
251.942494
 51
270.0
  0
ARC
  5
515
330
222
100
AcDbEntity
  8
7_ALL_FEATURES
  6
Continuous
 62
     7
100
AcDbCircle
 10
765.603027
 20
416.114525
 30
0.0
 40
0.8
100
AcDbArc
 50
180.0
 51
270.0
  0
ARC
  5
516
330
222
100
AcDbEntity
  8
7_ALL_FEATURES
  6
Continuous
 62
     7
100
AcDbCircle
 10
766.603027
 20
416.114525
 30
0.0
 40
0.8
100
AcDbArc
 50
200.603432
 51
206.97217
  0
ARC
  5
517
330
222
100
AcDbEntity
  8
7_ALL_FEATURES
  6
Continuous
 62
     7
100
AcDbCircle
 10
766.603027
 20
416.114525
 30
0.0
 40
0.8
100
AcDbArc
 50
228.560942
 51
243.02783
  0
ARC
  5
518
330
222
100
AcDbEntity
  8
7_ALL_FEATURES
  6
Continuous
 62
     7
100
AcDbCircle
 10
766.603027
 20
416.114525
 30
0.0
 40
0.8
100
AcDbArc
 50
243.02783
 51
249.396568
  0
ARC
  5
519
330
222
100
AcDbEntity
  8
7_ALL_FEATURES
  6
Continuous
 62
     7
100
AcDbCircle
 10
766.603027
 20
416.114525
 30
0.0
 40
0.8
100
AcDbArc
 50
249.396568
 51
270.0
  0
ARC
  5
51A
330
222
100
AcDbEntity
  8
7_ALL_FEATURES
  6
Continuous
 62
     7
100
AcDbCircle
 10
766.603027
 20
416.114525
 30
0.0
 40
0.8
100
AcDbArc
 50
180.0
 51
200.603432
  0
ARC
  5
51B
330
222
100
AcDbEntity
  8
7_ALL_FEATURES
  6
Continuous
 62
     7
100
AcDbCircle
 10
766.603027
 20
416.114525
 30
0.0
 40
0.8
100
AcDbArc
 50
200.603432
 51
206.97217
  0
ARC
  5
51C
330
222
100
AcDbEntity
  8
7_ALL_FEATURES
  6
Continuous
 62
     7
100
AcDbCircle
 10
766.603027
 20
416.114525
 30
0.0
 40
0.8
100
AcDbArc
 50
206.97217
 51
221.439058
  0
ARC
  5
51D
330
222
100
AcDbEntity
  8
7_ALL_FEATURES
  6
Continuous
 62
     7
100
AcDbCircle
 10
766.603027
 20
416.114525
 30
0.0
 40
0.8
100
AcDbArc
 50
221.439058
 51
228.560942
  0
ARC
  5
51E
330
222
100
AcDbEntity
  8
7_ALL_FEATURES
  6
Continuous
 62
     7
100
AcDbCircle
 10
766.603027
 20
416.114525
 30
0.0
 40
0.8
100
AcDbArc
 50
228.560942
 51
243.02783
  0
ARC
  5
51F
330
222
100
AcDbEntity
  8
7_ALL_FEATURES
  6
Continuous
 62
     7
100
AcDbCircle
 10
766.603027
 20
416.114525
 30
0.0
 40
0.8
100
AcDbArc
 50
243.02783
 51
249.396568
  0
ARC
  5
520
330
222
100
AcDbEntity
  8
7_ALL_FEATURES
  6
Continuous
 62
     7
100
AcDbCircle
 10
766.603027
 20
416.114525
 30
0.0
 40
0.8
100
AcDbArc
 50
249.396568
 51
270.0
  0
ARC
  5
521
330
222
100
AcDbEntity
  8
7_ALL_FEATURES
  6
Continuous
 62
     7
100
AcDbCircle
 10
779.003027
 20
424.514525
 30
0.0
 40
0.8
100
AcDbArc
 50
0.0
 51
17.853828
  0
ARC
  5
522
330
222
100
AcDbEntity
  8
7_ALL_FEATURES
  6
Continuous
 62
     7
100
AcDbCircle
 10
779.003027
 20
424.514525
 30
0.0
 40
0.8
100
AcDbArc
 50
17.853828
 51
29.079041
  0
ARC
  5
523
330
222
100
AcDbEntity
  8
7_ALL_FEATURES
  6
Continuous
 62
     7
100
AcDbCircle
 10
779.003027
 20
424.514525
 30
0.0
 40
0.8
100
AcDbArc
 50
29.079041
 51
35.844422
  0
ARC
  5
524
330
222
100
AcDbEntity
  8
7_ALL_FEATURES
  6
Continuous
 62
     7
100
AcDbCircle
 10
779.003027
 20
424.514525
 30
0.0
 40
0.8
100
AcDbArc
 50
35.844422
 51
53.907646
  0
ARC
  5
525
330
222
100
AcDbEntity
  8
7_ALL_FEATURES
  6
Continuous
 62
     7
100
AcDbCircle
 10
779.003027
 20
424.514525
 30
0.0
 40
0.8
100
AcDbArc
 50
53.907646
 51
59.891006
  0
ARC
  5
526
330
222
100
AcDbEntity
  8
7_ALL_FEATURES
  6
Continuous
 62
     7
100
AcDbCircle
 10
779.003027
 20
424.514525
 30
0.0
 40
0.8
100
AcDbArc
 50
0.0
 51
90.0
  0
ARC
  5
527
330
222
100
AcDbEntity
  8
7_ALL_FEATURES
  6
Continuous
 62
     7
100
AcDbCircle
 10
778.003027
 20
424.514525
 30
0.0
 40
0.8
100
AcDbArc
 50
0.0
 51
20.603432
  0
ARC
  5
528
330
222
100
AcDbEntity
  8
7_ALL_FEATURES
  6
Continuous
 62
     7
100
AcDbCircle
 10
778.003027
 20
424.514525
 30
0.0
 40
0.8
100
AcDbArc
 50
20.603432
 51
26.97217
  0
ARC
  5
529
330
222
100
AcDbEntity
  8
7_ALL_FEATURES
  6
Continuous
 62
     7
100
AcDbCircle
 10
778.003027
 20
424.514525
 30
0.0
 40
0.8
100
AcDbArc
 50
26.97217
 51
41.439058
  0
ARC
  5
52A
330
222
100
AcDbEntity
  8
7_ALL_FEATURES
  6
Continuous
 62
     7
100
AcDbCircle
 10
778.003027
 20
424.514525
 30
0.0
 40
0.8
100
AcDbArc
 50
41.439058
 51
48.560942
  0
ARC
  5
52B
330
222
100
AcDbEntity
  8
7_ALL_FEATURES
  6
Continuous
 62
     7
100
AcDbCircle
 10
778.003027
 20
424.514525
 30
0.0
 40
0.8
100
AcDbArc
 50
48.560942
 51
63.02783
  0
ARC
  5
52C
330
222
100
AcDbEntity
  8
7_ALL_FEATURES
  6
Continuous
 62
     7
100
AcDbCircle
 10
778.003027
 20
424.514525
 30
0.0
 40
0.8
100
AcDbArc
 50
63.02783
 51
69.396568
  0
ARC
  5
52D
330
222
100
AcDbEntity
  8
7_ALL_FEATURES
  6
Continuous
 62
     7
100
AcDbCircle
 10
778.003027
 20
424.514525
 30
0.0
 40
0.8
100
AcDbArc
 50
0.0
 51
20.603432
  0
ARC
  5
52E
330
222
100
AcDbEntity
  8
7_ALL_FEATURES
  6
Continuous
 62
     7
100
AcDbCircle
 10
778.003027
 20
424.514525
 30
0.0
 40
0.8
100
AcDbArc
 50
20.603432
 51
26.97217
  0
ARC
  5
52F
330
222
100
AcDbEntity
  8
7_ALL_FEATURES
  6
Continuous
 62
     7
100
AcDbCircle
 10
778.003027
 20
424.514525
 30
0.0
 40
0.8
100
AcDbArc
 50
26.97217
 51
41.439058
  0
ARC
  5
530
330
222
100
AcDbEntity
  8
7_ALL_FEATURES
  6
Continuous
 62
     7
100
AcDbCircle
 10
778.003027
 20
424.514525
 30
0.0
 40
0.8
100
AcDbArc
 50
41.439058
 51
48.560942
  0
ARC
  5
531
330
222
100
AcDbEntity
  8
7_ALL_FEATURES
  6
Continuous
 62
     7
100
AcDbCircle
 10
778.003027
 20
424.514525
 30
0.0
 40
0.8
100
AcDbArc
 50
48.560942
 51
63.02783
  0
ARC
  5
532
330
222
100
AcDbEntity
  8
7_ALL_FEATURES
  6
Continuous
 62
     7
100
AcDbCircle
 10
778.003027
 20
424.514525
 30
0.0
 40
0.8
100
AcDbArc
 50
63.02783
 51
69.396568
  0
ARC
  5
533
330
222
100
AcDbEntity
  8
7_ALL_FEATURES
  6
Continuous
 62
     7
100
AcDbCircle
 10
778.003027
 20
424.514525
 30
0.0
 40
0.8
100
AcDbArc
 50
69.396568
 51
90.0
  0
ARC
  5
534
330
222
100
AcDbEntity
  8
7_ALL_FEATURES
  6
Continuous
 62
     7
100
AcDbCircle
 10
766.603027
 20
424.514525
 30
0.0
 40
0.8
100
AcDbArc
 50
90.0
 51
180.0
  0
ARC
  5
535
330
222
100
AcDbEntity
  8
7_ALL_FEATURES
  6
Continuous
 62
     7
100
AcDbCircle
 10
765.603027
 20
424.514525
 30
0.0
 40
0.8
100
AcDbArc
 50
90.0
 51
180.0
  0
LINE
  5
536
330
222
100
AcDbEntity
  8
7_ALL_FEATURES
  6
Continuous
 62
     9
100
AcDbLine
 10
778.803027
 20
416.114525
 30
0.0
 11
779.303027
 21
416.114525
 31
0.0
  0
LINE
  5
537
330
222
100
AcDbEntity
  8
7_ALL_FEATURES
  6
Continuous
 62
     9
100
AcDbLine
 10
766.603027
 20
416.114525
 30
0.0
 11
778.003027
 21
416.114525
 31
0.0
  0
LINE
  5
538
330
222
100
AcDbEntity
  8
7_ALL_FEATURES
  6
Continuous
 62
     9
100
AcDbLine
 10
778.003027
 20
425.314525
 30
0.0
 11
778.003027
 21
424.514525
 31
0.0
  0
LINE
  5
539
330
222
100
AcDbEntity
  8
7_ALL_FEATURES
  6
Continuous
 62
     9
100
AcDbLine
 10
778.803027
 20
424.514525
 30
0.0
 11
778.003027
 21
424.514525
 31
0.0
  0
LINE
  5
53A
330
222
100
AcDbEntity
  8
7_ALL_FEATURES
  6
Continuous
 62
     9
100
AcDbLine
 10
764.803027
 20
416.114525
 30
0.0
 11
765.303027
 21
416.114525
 31
0.0
  0
SPLINE
  5
53B
330
222
100
AcDbEntity
  8
7_ALL_FEATURES
  6
Continuous
 62
     9
100
AcDbSpline
 70
     0
 71
     3
 72
    12
 73
     8
 74
     0
 42
0.000000001
 43
0.0000001
 40
0.0
 40
0.0
 40
0.0
 40
0.0
 40
0.3395414354
 40
0.6353927005
 40
0.756388626
 40
0.8562547405
 40
1.0
 40
1.0
 40
1.0
 40
1.0
 10
765.3030266518
 20
416.1145248439
 30
0.0
 10
765.3030266518
 20
416.0121863789
 30
0.0
 10
765.3166909823
 20
415.8204637379
 30
0.0
 10
765.3672782515
 20
415.596731021
 30
0.0
 10
765.4311896091
 20
415.453404193
 30
0.0
 10
765.4902890231
 20
415.3622456903
 30
0.0
 10
765.5597015448
 20
415.3145248439
 30
0.0
 10
765.6030266523
 20
415.3145248439
 30
0.0
  0
LINE
  5
53C
330
222
100
AcDbEntity
  8
7_ALL_FEATURES
  6
Continuous
 62
     9
100
AcDbLine
 10
766.603027
 20
424.514525
 30
0.0
 11
765.803027
 21
424.514525
 31
0.0
  0
LINE
  5
53D
330
222
100
AcDbEntity
  8
7_ALL_FEATURES
  6
Continuous
 62
     9
100
AcDbLine
 10
766.603027
 20
415.314525
 30
0.0
 11
766.603027
 21
416.114525
 31
0.0
  0
LINE
  5
53E
330
222
100
AcDbEntity
  8
7_ALL_FEATURES
  6
Continuous
 62
     9
100
AcDbLine
 10
766.603027
 20
424.514525
 30
0.0
 11
766.603027
 21
416.114525
 31
0.0
  0
LINE
  5
53F
330
222
100
AcDbEntity
  8
7_ALL_FEATURES
  6
Continuous
 62
     9
100
AcDbLine
 10
778.003027
 20
416.114525
 30
0.0
 11
778.003027
 21
415.314525
 31
0.0
  0
LINE
  5
540
330
222
100
AcDbEntity
  8
7_ALL_FEATURES
  6
Continuous
 62
     9
100
AcDbLine
 10
765.803027
 20
416.114525
 30
0.0
 11
766.603027
 21
416.114525
 31
0.0
  0
LINE
  5
541
330
222
100
AcDbEntity
  8
7_ALL_FEATURES
  6
Continuous
 62
     9
100
AcDbLine
 10
778.003027
 20
416.114525
 30
0.0
 11
778.803027
 21
416.114525
 31
0.0
  0
LINE
  5
542
330
222
100
AcDbEntity
  8
7_ALL_FEATURES
  6
Continuous
 62
     9
100
AcDbLine
 10
766.603027
 20
424.514525
 30
0.0
 11
766.603027
 21
425.314525
 31
0.0
  0
SPLINE
  5
543
330
222
100
AcDbEntity
  8
7_ALL_FEATURES
  6
Continuous
 62
     9
100
AcDbSpline
 70
     0
 71
     3
 72
    12
 73
     8
 74
     0
 42
0.000000001
 43
0.0000001
 40
0.0
 40
0.0
 40
0.0
 40
0.0
 40
0.3395414277
 40
0.635392698
 40
0.7563886278
 40
0.8562547441
 40
1.0
 40
1.0
 40
1.0
 40
1.0
 10
779.3030266658
 20
416.1145248439
 30
0.0
 10
779.3030266658
 20
416.0121863813
 30
0.0
 10
779.2893623091
 20
415.8204637434
 30
0.0
 10
779.2387750534
 20
415.596731024
 30
0.0
 10
779.1748636928
 20
415.4534041933
 30
0.0
 10
779.1157642779
 20
415.3622456906
 30
0.0
 10
779.0463517573
 20
415.3145248439
 30
0.0
 10
779.0030266509
 20
415.3145248439
 30
0.0
  0
LINE
  5
544
330
222
100
AcDbEntity
  8
7_ALL_FEATURES
  6
Continuous
 62
     9
100
AcDbLine
 10
778.003027
 20
424.514525
 30
0.0
 11
766.603027
 21
424.514525
 31
0.0
  0
SPLINE
  5
545
330
222
100
AcDbEntity
  8
7_ALL_FEATURES
  6
Continuous
 62
     9
100
AcDbSpline
 70
     0
 71
     3
 72
    12
 73
     8
 74
     0
 42
0.000000001
 43
0.0000001
 40
0.0
 40
0.0
 40
0.0
 40
0.0
 40
0.3395414354
 40
0.6353927005
 40
0.756388626
 40
0.8562547405
 40
1.0
 40
1.0
 40
1.0
 40
1.0
 10
779.30302665
 20
424.5145248439
 30
0.0
 10
779.30302665
 20
424.6168633089
 30
0.0
 10
779.2893623195
 20
424.80858595
 30
0.0
 10
779.2387750503
 20
425.0323186668
 30
0.0
 10
779.1748636928
 20
425.1756454948
 30
0.0
 10
779.1157642787
 20
425.2668039976
 30
0.0
 10
779.046351757
 20
425.3145248439
 30
0.0
 10
779.0030266495
 20
425.3145248439
 30
0.0
  0
LINE
  5
546
330
222
100
AcDbEntity
  8
7_ALL_FEATURES
  6
Continuous
 62
     9
100
AcDbLine
 10
778.003027
 20
416.114525
 30
0.0
 11
778.003027
 21
424.514525
 31
0.0
  0
LINE
  5
547
330
222
100
AcDbEntity
  8
7_ALL_FEATURES
  6
Continuous
 62
     9
100
AcDbLine
 10
765.803027
 20
424.514525
 30
0.0
 11
765.303027
 21
424.514525
 31
0.0
  0
LINE
  5
548
330
222
100
AcDbEntity
  8
7_ALL_FEATURES
  6
Continuous
 62
     9
100
AcDbLine
 10
765.303027
 20
416.114525
 30
0.0
 11
765.803027
 21
416.114525
 31
0.0
  0
SPLINE
  5
549
330
222
100
AcDbEntity
  8
7_ALL_FEATURES
  6
Continuous
 62
     9
100
AcDbSpline
 70
     0
 71
     3
 72
    12
 73
     8
 74
     0
 42
0.000000001
 43
0.0000001
 40
0.0
 40
0.0
 40
0.0
 40
0.0
 40
0.3395414277
 40
0.635392698
 40
0.7563886278
 40
0.8562547441
 40
1.0
 40
1.0
 40
1.0
 40
1.0
 10
765.303026636
 20
424.5145248439
 30
0.0
 10
765.303026636
 20
424.6168633065
 30
0.0
 10
765.3166909928
 20
424.8085859444
 30
0.0
 10
765.3672782484
 20
425.0323186638
 30
0.0
 10
765.4311896091
 20
425.1756454945
 30
0.0
 10
765.4902890239
 20
425.2668039973
 30
0.0
 10
765.5597015445
 20
425.3145248439
 30
0.0
 10
765.6030266509
 20
425.3145248439
 30
0.0
  0
LINE
  5
54A
330
222
100
AcDbEntity
  8
7_ALL_FEATURES
  6
Continuous
 62
     9
100
AcDbLine
 10
765.303027
 20
424.514525
 30
0.0
 11
764.803027
 21
424.514525
 31
0.0
  0
LINE
  5
54B
330
222
100
AcDbEntity
  8
7_ALL_FEATURES
  6
Continuous
 62
     9
100
AcDbLine
 10
765.303027
 20
424.514525
 30
0.0
 11
765.303027
 21
416.114525
 31
0.0
  0
LINE
  5
54C
330
222
100
AcDbEntity
  8
7_ALL_FEATURES
  6
Continuous
 62
     9
100
AcDbLine
 10
779.803027
 20
424.514525
 30
0.0
 11
779.303027
 21
424.514525
 31
0.0
  0
LINE
  5
54D
330
222
100
AcDbEntity
  8
7_ALL_FEATURES
  6
Continuous
 62
     9
100
AcDbLine
 10
779.303027
 20
416.114525
 30
0.0
 11
779.803027
 21
416.114525
 31
0.0
  0
LINE
  5
54E
330
222
100
AcDbEntity
  8
7_ALL_FEATURES
  6
Continuous
 62
     9
100
AcDbLine
 10
779.303027
 20
424.514525
 30
0.0
 11
778.803027
 21
424.514525
 31
0.0
  0
LINE
  5
54F
330
222
100
AcDbEntity
  8
7_ALL_FEATURES
  6
Continuous
 62
     9
100
AcDbLine
 10
779.303027
 20
416.114525
 30
0.0
 11
779.303027
 21
424.514525
 31
0.0
  0
LINE
  5
550
330
222
100
AcDbEntity
  8
7_ALL_FEATURES
  6
Continuous
 62
     7
100
AcDbLine
 10
784.613969
 20
441.314525
 30
0.0
 11
784.753027
 21
441.314525
 31
0.0
  0
LINE
  5
551
330
222
100
AcDbEntity
  8
7_ALL_FEATURES
  6
Continuous
 62
     7
100
AcDbLine
 10
784.303027
 20
441.314525
 30
0.0
 11
784.303027
 21
440.814525
 31
0.0
  0
LINE
  5
552
330
222
100
AcDbEntity
  8
7_ALL_FEATURES
  6
Continuous
 62
     7
100
AcDbLine
 10
759.853027
 20
441.314525
 30
0.0
 11
759.992084
 21
441.314525
 31
0.0
  0
ARC
  5
553
330
222
100
AcDbEntity
  8
7_ALL_FEATURES
  6
Continuous
 62
     7
100
AcDbCircle
 10
759.303027
 20
440.314525
 30
0.0
 40
1.0
100
AcDbArc
 50
90.0
 51
180.0
  0
LINE
  5
554
330
222
100
AcDbEntity
  8
7_ALL_FEATURES
  6
Continuous
 62
     7
100
AcDbLine
 10
785.303027
 20
441.314525
 30
0.0
 11
784.753027
 21
441.314525
 31
0.0
  0
LINE
  5
555
330
222
100
AcDbEntity
  8
7_ALL_FEATURES
  6
Continuous
 62
     7
100
AcDbLine
 10
759.853027
 20
441.314525
 30
0.0
 11
759.303027
 21
441.314525
 31
0.0
  0
LINE
  5
556
330
222
100
AcDbEntity
  8
7_ALL_FEATURES
  6
Continuous
 62
     7
100
AcDbLine
 10
758.303027
 20
432.646234
 30
0.0
 11
758.303027
 21
440.314525
 31
0.0
  0
LINE
  5
557
330
222
100
AcDbEntity
  8
7_ALL_FEATURES
  6
Continuous
 62
     7
100
AcDbLine
 10
784.303027
 20
441.314525
 30
0.0
 11
784.303027
 21
440.814525
 31
0.0
  0
LINE
  5
558
330
222
100
AcDbEntity
  8
7_ALL_FEATURES
  6
Continuous
 62
     7
100
AcDbLine
 10
760.303027
 20
441.314525
 30
0.0
 11
760.303027
 21
440.814525
 31
0.0
  0
LINE
  5
559
330
222
100
AcDbEntity
  8
7_ALL_FEATURES
  6
Continuous
 62
     7
100
AcDbLine
 10
758.082623
 20
432.231715
 30
0.0
 11
756.119221
 21
430.907384
 31
0.0
  0
ARC
  5
55A
330
222
100
AcDbEntity
  8
7_ALL_FEATURES
  6
Continuous
 62
     7
100
AcDbCircle
 10
757.803027
 20
432.646234
 30
0.0
 40
0.5
100
AcDbArc
 50
304.0
 51
360.0
  0
LINE
  5
55B
330
222
100
AcDbEntity
  8
7_ALL_FEATURES
  6
Continuous
 62
     7
100
AcDbLine
 10
759.03858
 20
423.002674
 30
0.0
 11
758.247762
 21
424.17511
 31
0.0
  0
LINE
  5
55C
330
222
100
AcDbEntity
  8
7_ALL_FEATURES
  6
Continuous
 62
     7
100
AcDbLine
 10
760.061023
 20
421.486839
 30
0.0
 11
759.03858
 21
423.002674
 31
0.0
  0
LINE
  5
55D
330
222
100
AcDbEntity
  8
7_ALL_FEATURES
  6
Continuous
 62
     7
100
AcDbLine
 10
760.388591
 20
421.0012
 30
0.0
 11
760.061023
 21
421.486839
 31
0.0
  0
LINE
  5
55E
330
222
100
AcDbEntity
  8
7_ALL_FEATURES
  6
Continuous
 62
     7
100
AcDbLine
 10
758.247762
 20
424.17511
 30
0.0
 11
755.579532
 21
428.130923
 31
0.0
  0
ARC
  5
55F
330
222
100
AcDbEntity
  8
7_ALL_FEATURES
  6
Continuous
 62
     7
100
AcDbCircle
 10
757.237607
 20
429.249309
 30
0.0
 40
2.0
100
AcDbArc
 50
124.0
 51
214.0
  0
LINE
  5
560
330
222
100
AcDbEntity
  8
7_ALL_FEATURES
  6
Continuous
 62
     7
100
AcDbLine
 10
760.80311
 20
421.280797
 30
0.0
 11
760.388591
 21
421.0012
 31
0.0
  0
LINE
  5
561
330
222
100
AcDbEntity
  8
7_ALL_FEATURES
  6
Continuous
 62
     7
100
AcDbLine
 10
784.217462
 20
421.0012
 30
0.0
 11
783.802944
 21
421.280797
 31
0.0
  0
ARC
  5
562
330
222
100
AcDbEntity
  8
7_ALL_FEATURES
  6
Continuous
 62
     7
100
AcDbCircle
 10
787.368446
 20
429.249309
 30
0.0
 40
2.0
100
AcDbArc
 50
326.0
 51
56.0
  0
ARC
  5
563
330
222
100
AcDbEntity
  8
7_ALL_FEATURES
  6
Continuous
 62
     7
100
AcDbCircle
 10
785.303027
 20
440.314525
 30
0.0
 40
1.0
100
AcDbArc
 50
0.0
 51
90.0
  0
LINE
  5
564
330
222
100
AcDbEntity
  8
7_ALL_FEATURES
  6
Continuous
 62
     7
100
AcDbLine
 10
789.026521
 20
428.130923
 30
0.0
 11
786.358292
 21
424.17511
 31
0.0
  0
LINE
  5
565
330
222
100
AcDbEntity
  8
7_ALL_FEATURES
  6
Continuous
 62
     7
100
AcDbLine
 10
786.358292
 20
424.17511
 30
0.0
 11
785.567474
 21
423.002674
 31
0.0
  0
LINE
  5
566
330
222
100
AcDbEntity
  8
7_ALL_FEATURES
  6
Continuous
 62
     7
100
AcDbLine
 10
785.567474
 20
423.002674
 30
0.0
 11
784.54503
 21
421.486839
 31
0.0
  0
LINE
  5
567
330
222
100
AcDbEntity
  8
7_ALL_FEATURES
  6
Continuous
 62
     7
100
AcDbLine
 10
784.54503
 20
421.486839
 30
0.0
 11
784.217462
 21
421.0012
 31
0.0
  0
LINE
  5
568
330
222
100
AcDbEntity
  8
7_ALL_FEATURES
  6
Continuous
 62
     7
100
AcDbLine
 10
786.303027
 20
440.314525
 30
0.0
 11
786.303027
 21
432.646234
 31
0.0
  0
ARC
  5
569
330
222
100
AcDbEntity
  8
7_ALL_FEATURES
  6
Continuous
 62
     7
100
AcDbCircle
 10
786.803027
 20
432.646234
 30
0.0
 40
0.5
100
AcDbArc
 50
180.0
 51
236.0
  0
LINE
  5
56A
330
222
100
AcDbEntity
  8
7_ALL_FEATURES
  6
Continuous
 62
     7
100
AcDbLine
 10
788.486832
 20
430.907384
 30
0.0
 11
786.52343
 21
432.231715
 31
0.0
  0
LINE
  5
56B
330
222
100
AcDbEntity
  8
7_ALL_FEATURES
  6
Continuous
 62
     9
100
AcDbLine
 10
759.303027
 20
441.314525
 30
0.0
 11
759.303027
 21
440.814525
 31
0.0
  0
LINE
  5
56C
330
222
100
AcDbEntity
  8
7_ALL_FEATURES
  6
Continuous
 62
     9
100
AcDbLine
 10
758.803027
 20
432.646234
 30
0.0
 11
758.303027
 21
432.646234
 31
0.0
  0
LINE
  5
56D
330
222
100
AcDbEntity
  8
7_ALL_FEATURES
  6
Continuous
 62
     9
100
AcDbLine
 10
759.853027
 20
440.814525
 30
0.0
 11
759.853027
 21
441.314525
 31
0.0
  0
LINE
  5
56E
330
222
100
AcDbEntity
  8
7_ALL_FEATURES
  6
Continuous
 62
     9
100
AcDbLine
 10
789.026521
 20
428.130923
 30
0.0
 11
788.612003
 21
428.41052
 31
0.0
  0
LINE
  5
56F
330
222
100
AcDbEntity
  8
7_ALL_FEATURES
  6
Continuous
 62
     9
100
AcDbLine
 10
758.303027
 20
440.314525
 30
0.0
 11
758.803027
 21
440.314525
 31
0.0
  0
LINE
  5
570
330
222
100
AcDbEntity
  8
7_ALL_FEATURES
  6
Continuous
 62
     9
100
AcDbLine
 10
785.152955
 20
423.28227
 30
0.0
 11
785.567474
 21
423.002674
 31
0.0
  0
LINE
  5
571
330
222
100
AcDbEntity
  8
7_ALL_FEATURES
  6
Continuous
 62
     9
100
AcDbLine
 10
785.943773
 20
424.454707
 30
0.0
 11
786.358292
 21
424.17511
 31
0.0
  0
LINE
  5
572
330
222
100
AcDbEntity
  8
7_ALL_FEATURES
  6
Continuous
 62
     9
100
AcDbLine
 10
784.54503
 20
421.486839
 30
0.0
 11
784.130511
 21
421.766436
 31
0.0
  0
LINE
  5
573
330
222
100
AcDbEntity
  8
7_ALL_FEATURES
  6
Continuous
 62
     9
100
AcDbLine
 10
760.475542
 20
421.766436
 30
0.0
 11
760.061023
 21
421.486839
 31
0.0
  0
LINE
  5
574
330
222
100
AcDbEntity
  8
7_ALL_FEATURES
  6
Continuous
 62
     9
100
AcDbLine
 10
758.247762
 20
424.17511
 30
0.0
 11
758.66228
 21
424.454707
 31
0.0
  0
LINE
  5
575
330
222
100
AcDbEntity
  8
7_ALL_FEATURES
  6
Continuous
 62
     9
100
AcDbLine
 10
786.303027
 20
440.314525
 30
0.0
 11
785.803027
 21
440.314525
 31
0.0
  0
LINE
  5
576
330
222
100
AcDbEntity
  8
7_ALL_FEATURES
  6
Continuous
 62
     9
100
AcDbLine
 10
755.579532
 20
428.130923
 30
0.0
 11
755.994051
 21
428.41052
 31
0.0
  0
LINE
  5
577
330
222
100
AcDbEntity
  8
7_ALL_FEATURES
  6
Continuous
 62
     9
100
AcDbLine
 10
788.486832
 20
430.907384
 30
0.0
 11
788.207236
 21
430.492865
 31
0.0
  0
LINE
  5
578
330
222
100
AcDbEntity
  8
7_ALL_FEATURES
  6
Continuous
 62
     9
100
AcDbLine
 10
786.243834
 20
431.817197
 30
0.0
 11
786.52343
 21
432.231715
 31
0.0
  0
LINE
  5
579
330
222
100
AcDbEntity
  8
7_ALL_FEATURES
  6
Continuous
 62
     9
100
AcDbLine
 10
759.03858
 20
423.002674
 30
0.0
 11
759.453099
 21
423.28227
 31
0.0
  0
LINE
  5
57A
330
222
100
AcDbEntity
  8
7_ALL_FEATURES
  6
Continuous
 62
     9
100
AcDbLine
 10
756.119221
 20
430.907384
 30
0.0
 11
756.398818
 21
430.492865
 31
0.0
  0
LINE
  5
57B
330
222
100
AcDbEntity
  8
7_ALL_FEATURES
  6
Continuous
 62
     9
100
AcDbLine
 10
785.303027
 20
441.314525
 30
0.0
 11
785.303027
 21
440.814525
 31
0.0
  0
LINE
  5
57C
330
222
100
AcDbEntity
  8
7_ALL_FEATURES
  6
Continuous
 62
     9
100
AcDbLine
 10
785.803027
 20
432.646234
 30
0.0
 11
786.303027
 21
432.646234
 31
0.0
  0
LINE
  5
57D
330
222
100
AcDbEntity
  8
7_ALL_FEATURES
  6
Continuous
 62
     9
100
AcDbLine
 10
784.753027
 20
440.814525
 30
0.0
 11
784.753027
 21
441.314525
 31
0.0
  0
LINE
  5
57E
330
222
100
AcDbEntity
  8
7_ALL_FEATURES
  6
Continuous
 62
     9
100
AcDbLine
 10
758.36222
 20
431.817197
 30
0.0
 11
758.082623
 21
432.231715
 31
0.0
  0
ARC
  5
57F
330
222
100
AcDbEntity
  8
7_ALL_FEATURES
  6
Continuous
 62
     7
100
AcDbCircle
 10
784.303027
 20
443.814525
 30
0.0
 40
1.5
100
AcDbArc
 50
278.68828
 51
337.175301
  0
ARC
  5
580
330
222
100
AcDbEntity
  8
7_ALL_FEATURES
  6
Continuous
 62
     7
100
AcDbCircle
 10
760.303027
 20
443.814525
 30
0.0
 40
1.5
100
AcDbArc
 50
202.824699
 51
261.31172
  0
ARC
  5
581
330
222
100
AcDbEntity
  8
7_ALL_FEATURES
  6
Continuous
 62
     7
100
AcDbCircle
 10
760.303027
 20
441.191541
 30
0.0
 40
1.0
100
AcDbArc
 50
0.0
 51
75.522488
  0
ARC
  5
582
330
222
100
AcDbEntity
  8
7_ALL_FEATURES
  6
Continuous
 62
     7
100
AcDbCircle
 10
784.303027
 20
441.191541
 30
0.0
 40
1.0
100
AcDbArc
 50
104.477512
 51
180.0
  0
ARC
  5
583
330
222
100
AcDbEntity
  8
7_ALL_FEATURES
  6
Continuous
 62
     7
100
AcDbCircle
 10
757.553027
 20
447.814525
 30
0.0
 40
0.75
100
AcDbArc
 50
0.0
 51
90.0
  0
ARC
  5
584
330
222
100
AcDbEntity
  8
7_ALL_FEATURES
  6
Continuous
 62
     7
100
AcDbCircle
 10
787.053027
 20
447.814525
 30
0.0
 40
0.75
100
AcDbArc
 50
90.0
 51
180.0
  0
ARC
  5
585
330
222
100
AcDbEntity
  8
7_ALL_FEATURES
  6
Continuous
 62
     7
100
AcDbCircle
 10
764.803027
 20
433.564525
 30
0.0
 40
3.5
100
AcDbArc
 50
180.0
 51
270.0
  0
LINE
  5
586
330
222
100
AcDbEntity
  8
7_ALL_FEATURES
  6
Continuous
 62
     7
100
AcDbLine
 10
764.803027
 20
430.064525
 30
0.0
 11
779.803027
 21
430.064525
 31
0.0
  0
ARC
  5
587
330
222
100
AcDbEntity
  8
7_ALL_FEATURES
  6
Continuous
 62
     7
100
AcDbCircle
 10
779.803027
 20
433.564525
 30
0.0
 40
3.5
100
AcDbArc
 50
270.0
 51
360.0
  0
LINE
  5
588
330
222
100
AcDbEntity
  8
7_ALL_FEATURES
  6
Continuous
 62
     7
100
AcDbLine
 10
783.303027
 20
433.564525
 30
0.0
 11
783.303027
 21
441.191541
 31
0.0
  0
ARC
  5
589
330
222
100
AcDbEntity
  8
7_ALL_FEATURES
  6
Continuous
 62
     7
100
AcDbCircle
 10
783.303027
 20
445.064525
 30
0.0
 40
3.0
100
AcDbArc
 50
284.477512
 51
360.0
  0
LINE
  5
58A
330
222
100
AcDbEntity
  8
7_ALL_FEATURES
  6
Continuous
 62
     7
100
AcDbLine
 10
786.303027
 20
445.064525
 30
0.0
 11
786.303027
 21
447.814525
 31
0.0
  0
LINE
  5
58B
330
222
100
AcDbEntity
  8
7_ALL_FEATURES
  6
Continuous
 62
     7
100
AcDbLine
 10
787.053027
 20
448.564525
 30
0.0
 11
788.303027
 21
448.564525
 31
0.0
  0
ARC
  5
58C
330
222
100
AcDbEntity
  8
7_ALL_FEATURES
  6
Continuous
 62
     7
100
AcDbCircle
 10
788.303027
 20
450.564525
 30
0.0
 40
2.0
100
AcDbArc
 50
270.0
 51
360.0
  0
ARC
  5
58D
330
222
100
AcDbEntity
  8
3_ALL_AXES
  6
Continuous
 62
     7
100
AcDbCircle
 10
772.303027
 20
434.814525
 30
0.0
 40
3.5
100
AcDbArc
 50
0.0
 51
180.0
  0
ARC
  5
58E
330
222
100
AcDbEntity
  8
3_ALL_AXES
  6
Continuous
 62
     7
100
AcDbCircle
 10
772.303027
 20
434.814525
 30
0.0
 40
3.5
100
AcDbArc
 50
180.0
 51
360.0
  0
LINE
  5
58F
330
222
100
AcDbEntity
  8
7_ALL_FEATURES
  6
Continuous
 62
     7
100
AcDbLine
 10
761.303027
 20
441.191541
 30
0.0
 11
761.303027
 21
433.564525
 31
0.0
  0
ARC
  5
590
330
222
100
AcDbEntity
  8
7_ALL_FEATURES
  6
Continuous
 62
     7
100
AcDbCircle
 10
761.303027
 20
445.064525
 30
0.0
 40
3.0
100
AcDbArc
 50
180.0
 51
255.522488
  0
LINE
  5
591
330
222
100
AcDbEntity
  8
7_ALL_FEATURES
  6
Continuous
 62
     7
100
AcDbLine
 10
758.303027
 20
447.814525
 30
0.0
 11
758.303027
 21
445.064525
 31
0.0
  0
LINE
  5
592
330
222
100
AcDbEntity
  8
7_ALL_FEATURES
  6
Continuous
 62
     7
100
AcDbLine
 10
756.303027
 20
448.564525
 30
0.0
 11
757.553027
 21
448.564525
 31
0.0
  0
ARC
  5
593
330
222
100
AcDbEntity
  8
7_ALL_FEATURES
  6
Continuous
 62
     7
100
AcDbCircle
 10
756.303027
 20
450.564525
 30
0.0
 40
2.0
100
AcDbArc
 50
180.0
 51
270.0
  0
LINE
  5
594
330
222
100
AcDbEntity
  8
7_ALL_FEATURES
  6
Continuous
 62
     7
100
AcDbLine
 10
754.303027
 20
465.314525
 30
0.0
 11
754.303027
 21
450.564525
 31
0.0
  0
ARC
  5
595
330
222
100
AcDbEntity
  8
7_ALL_FEATURES
  6
Continuous
 62
     7
100
AcDbCircle
 10
755.303027
 20
465.314525
 30
0.0
 40
1.0
100
AcDbArc
 50
90.0
 51
180.0
  0
LINE
  5
596
330
222
100
AcDbEntity
  8
7_ALL_FEATURES
  6
Continuous
 62
     7
100
AcDbLine
 10
789.303027
 20
466.314525
 30
0.0
 11
755.303027
 21
466.314525
 31
0.0
  0
ARC
  5
597
330
222
100
AcDbEntity
  8
7_ALL_FEATURES
  6
Continuous
 62
     7
100
AcDbCircle
 10
789.303027
 20
465.314525
 30
0.0
 40
1.0
100
AcDbArc
 50
0.0
 51
90.0
  0
LINE
  5
598
330
222
100
AcDbEntity
  8
7_ALL_FEATURES
  6
Continuous
 62
     7
100
AcDbLine
 10
790.303027
 20
450.564525
 30
0.0
 11
790.303027
 21
465.314525
 31
0.0
  0
ARC
  5
599
330
222
100
AcDbEntity
  8
7_ALL_FEATURES
  6
Continuous
 62
     7
100
AcDbCircle
 10
762.553027
 20
446.564525
 30
0.0
 40
2.9
100
AcDbArc
 50
180.0
 51
360.0
  0
ARC
  5
59A
330
222
100
AcDbEntity
  8
7_ALL_FEATURES
  6
Continuous
 62
     7
100
AcDbCircle
 10
762.553027
 20
446.564525
 30
0.0
 40
2.9
100
AcDbArc
 50
0.0
 51
180.0
  0
ARC
  5
59B
330
222
100
AcDbEntity
  8
7_ALL_FEATURES
  6
Continuous
 62
     7
100
AcDbCircle
 10
785.303027
 20
461.814525
 30
0.0
 40
3.0
100
AcDbArc
 50
0.0
 51
180.0
  0
ARC
  5
59C
330
222
100
AcDbEntity
  8
7_ALL_FEATURES
  6
Continuous
 62
     7
100
AcDbCircle
 10
785.303027
 20
461.814525
 30
0.0
 40
3.0
100
AcDbArc
 50
180.0
 51
360.0
  0
ARC
  5
59D
330
222
100
AcDbEntity
  8
7_ALL_FEATURES
  6
Continuous
 62
     7
100
AcDbCircle
 10
782.053027
 20
446.564525
 30
0.0
 40
2.9
100
AcDbArc
 50
180.0
 51
360.0
  0
ARC
  5
59E
330
222
100
AcDbEntity
  8
7_ALL_FEATURES
  6
Continuous
 62
     7
100
AcDbCircle
 10
782.053027
 20
446.564525
 30
0.0
 40
2.9
100
AcDbArc
 50
0.0
 51
180.0
  0
ARC
  5
59F
330
222
100
AcDbEntity
  8
7_ALL_FEATURES
  6
Continuous
 62
     7
100
AcDbCircle
 10
759.303027
 20
461.814525
 30
0.0
 40
3.0
100
AcDbArc
 50
180.0
 51
360.0
  0
ARC
  5
5A0
330
222
100
AcDbEntity
  8
7_ALL_FEATURES
  6
Continuous
 62
     7
100
AcDbCircle
 10
759.303027
 20
461.814525
 30
0.0
 40
3.0
100
AcDbArc
 50
0.0
 51
180.0
  0
LINE
  5
5A1
330
222
100
AcDbEntity
  8
7_ALL_FEATURES
  6
Continuous
 62
     7
100
AcDbLine
 10
790.903027
 20
449.064525
 30
0.0
 11
790.903027
 21
466.564525
 31
0.0
  0
LINE
  5
5A2
330
222
100
AcDbEntity
  8
7_ALL_FEATURES
  6
Continuous
 62
     7
100
AcDbLine
 10
790.903027
 20
466.564525
 30
0.0
 11
790.903027
 21
475.814525
 31
0.0
  0
LINE
  5
5A3
330
222
100
AcDbEntity
  8
7_ALL_FEATURES
  6
Continuous
 62
     7
100
AcDbLine
 10
789.903027
 20
476.814525
 30
0.0
 11
754.703027
 21
476.814525
 31
0.0
  0
LINE
  5
5A4
330
222
100
AcDbEntity
  8
7_ALL_FEATURES
  6
Continuous
 62
     7
100
AcDbLine
 10
753.703027
 20
475.814525
 30
0.0
 11
753.703027
 21
466.564525
 31
0.0
  0
LINE
  5
5A5
330
222
100
AcDbEntity
  8
7_ALL_FEATURES
  6
Continuous
 62
     7
100
AcDbLine
 10
753.703027
 20
449.064525
 30
0.0
 11
753.703027
 21
466.564525
 31
0.0
  0
LINE
  5
5A6
330
222
100
AcDbEntity
  8
7_ALL_FEATURES
  6
Continuous
 62
     7
100
AcDbLine
 10
787.510133
 20
448.064525
 30
0.0
 11
789.903027
 21
448.064525
 31
0.0
  0
ARC
  5
5A7
330
222
100
AcDbEntity
  8
7_ALL_FEATURES
  6
Continuous
 62
     7
100
AcDbCircle
 10
754.703027
 20
475.814525
 30
0.0
 40
1.0
100
AcDbArc
 50
90.0
 51
180.0
  0
ARC
  5
5A8
330
222
100
AcDbEntity
  8
7_ALL_FEATURES
  6
Continuous
 62
     7
100
AcDbCircle
 10
789.903027
 20
475.814525
 30
0.0
 40
1.0
100
AcDbArc
 50
0.0
 51
90.0
  0
ARC
  5
5A9
330
222
100
AcDbEntity
  8
7_ALL_FEATURES
  6
Continuous
 62
     7
100
AcDbCircle
 10
789.903027
 20
449.064525
 30
0.0
 40
1.0
100
AcDbArc
 50
270.0
 51
360.0
  0
LINE
  5
5AA
330
222
100
AcDbEntity
  8
7_ALL_FEATURES
  6
Continuous
 62
     7
100
AcDbLine
 10
790.903027
 20
466.564525
 30
0.0
 11
753.703027
 21
466.564525
 31
0.0
  0
LINE
  5
5AB
330
222
100
AcDbEntity
  8
7_ALL_FEATURES
  6
Continuous
 62
     7
100
AcDbLine
 10
754.703027
 20
448.064525
 30
0.0
 11
757.09592
 21
448.064525
 31
0.0
  0
LINE
  5
5AC
330
222
100
AcDbEntity
  8
7_ALL_FEATURES
  6
Continuous
 62
     7
100
AcDbLine
 10
760.053027
 20
441.314525
 30
0.0
 11
761.286721
 21
441.314525
 31
0.0
  0
LINE
  5
5AD
330
222
100
AcDbEntity
  8
7_ALL_FEATURES
  6
Continuous
 62
     7
100
AcDbLine
 10
783.319332
 20
441.314525
 30
0.0
 11
784.553027
 21
441.314525
 31
0.0
  0
ARC
  5
5AE
330
222
100
AcDbEntity
  8
7_ALL_FEATURES
  6
Continuous
 62
     7
100
AcDbCircle
 10
785.551289
 20
443.005602
 30
0.0
 40
0.75
100
AcDbArc
 50
356.62202
 51
45.0
  0
ARC
  5
5AF
330
222
100
AcDbEntity
  8
7_ALL_FEATURES
  6
Continuous
 62
     7
100
AcDbCircle
 10
758.953192
 20
443.045451
 30
0.0
 40
0.65
100
AcDbArc
 50
135.0
 51
180.99353
  0
ARC
  5
5B0
330
222
100
AcDbEntity
  8
7_ALL_FEATURES
  6
Continuous
 62
     7
100
AcDbCircle
 10
757.09592
 20
447.564525
 30
0.0
 40
0.5
100
AcDbArc
 50
45.0
 51
90.0
  0
ARC
  5
5B1
330
222
100
AcDbEntity
  8
7_ALL_FEATURES
  6
Continuous
 62
     7
100
AcDbCircle
 10
754.703027
 20
449.064525
 30
0.0
 40
1.0
100
AcDbArc
 50
180.0
 51
270.0
  0
ARC
  5
5B2
330
222
100
AcDbEntity
  8
7_ALL_FEATURES
  6
Continuous
 62
     7
100
AcDbCircle
 10
787.510133
 20
447.564525
 30
0.0
 40
0.5
100
AcDbArc
 50
90.0
 51
135.0
  0
LINE
  5
5B3
330
222
100
AcDbEntity
  8
7_ALL_FEATURES
  6
Continuous
 62
     7
100
AcDbLine
 10
786.303027
 20
447.064525
 30
0.0
 11
787.15658
 21
447.918078
 31
0.0
  0
ARC
  5
5B4
330
222
100
AcDbEntity
  8
7_ALL_FEATURES
  6
Continuous
 62
     7
100
AcDbCircle
 10
760.053027
 20
443.064525
 30
0.0
 40
1.75
100
AcDbArc
 50
180.99353
 51
270.0
  0
ARC
  5
5B5
330
222
100
AcDbEntity
  8
7_ALL_FEATURES
  6
Continuous
 62
     7
100
AcDbCircle
 10
784.553027
 20
443.064525
 30
0.0
 40
1.75
100
AcDbArc
 50
270.0
 51
356.62202
  0
LINE
  5
5B6
330
222
100
AcDbEntity
  8
7_ALL_FEATURES
  6
Continuous
 62
     7
100
AcDbLine
 10
786.081619
 20
443.535932
 30
0.0
 11
785.946351
 21
443.6712
 31
0.0
  0
LINE
  5
5B7
330
222
100
AcDbEntity
  8
7_ALL_FEATURES
  6
Continuous
 62
     7
100
AcDbLine
 10
758.659702
 20
443.6712
 30
0.0
 11
758.493573
 21
443.505071
 31
0.0
  0
LINE
  5
5B8
330
222
100
AcDbEntity
  8
7_ALL_FEATURES
  6
Continuous
 62
     7
100
AcDbLine
 10
757.449473
 20
447.918078
 30
0.0
 11
758.303027
 21
447.064525
 31
0.0
  0
LINE
  5
5B9
330
222
100
AcDbEntity
  8
7_ALL_FEATURES
  6
Continuous
 62
     3
100
AcDbLine
 10
784.303027
 20
440.814525
 30
0.0
 11
783.303027
 21
440.814525
 31
0.0
  0
LINE
  5
5BA
330
222
100
AcDbEntity
  8
7_ALL_FEATURES
  6
Continuous
 62
     3
100
AcDbLine
 10
759.853027
 20
440.814525
 30
0.0
 11
759.303027
 21
440.814525
 31
0.0
  0
LINE
  5
5BB
330
222
100
AcDbEntity
  8
7_ALL_FEATURES
  6
Continuous
 62
     3
100
AcDbLine
 10
761.303027
 20
440.814525
 30
0.0
 11
760.303027
 21
440.814525
 31
0.0
  0
LINE
  5
5BC
330
222
100
AcDbEntity
  8
7_ALL_FEATURES
  6
Continuous
 62
     3
100
AcDbLine
 10
785.303027
 20
440.814525
 30
0.0
 11
784.753027
 21
440.814525
 31
0.0
  0
LINE
  5
5BD
330
222
100
AcDbEntity
  8
7_ALL_FEATURES
  6
Continuous
 62
     3
100
AcDbLine
 10
784.753027
 20
440.814525
 30
0.0
 11
784.353027
 21
440.814525
 31
0.0
  0
LINE
  5
5BE
330
222
100
AcDbEntity
  8
7_ALL_FEATURES
  6
Continuous
 62
     3
100
AcDbLine
 10
760.253027
 20
440.814525
 30
0.0
 11
759.853027
 21
440.814525
 31
0.0
  0
ARC
  5
5BF
330
222
100
AcDbEntity
  8
7_ALL_FEATURES
  6
Continuous
 62
     3
100
AcDbCircle
 10
759.303027
 20
440.314525
 30
0.0
 40
0.5
100
AcDbArc
 50
90.0
 51
180.0
  0
LINE
  5
5C0
330
222
100
AcDbEntity
  8
7_ALL_FEATURES
  6
Continuous
 62
     3
100
AcDbLine
 10
758.803027
 20
440.314525
 30
0.0
 11
758.803027
 21
432.646234
 31
0.0
  0
LINE
  5
5C1
330
222
100
AcDbEntity
  8
7_ALL_FEATURES
  6
Continuous
 62
     3
100
AcDbLine
 10
758.36222
 20
431.817197
 30
0.0
 11
756.398818
 21
430.492865
 31
0.0
  0
ARC
  5
5C2
330
222
100
AcDbEntity
  8
7_ALL_FEATURES
  6
Continuous
 62
     3
100
AcDbCircle
 10
757.803027
 20
432.646234
 30
0.0
 40
1.0
100
AcDbArc
 50
304.0
 51
360.0
  0
LINE
  5
5C3
330
222
100
AcDbEntity
  8
7_ALL_FEATURES
  6
Continuous
 62
     3
100
AcDbLine
 10
758.66228
 20
424.454707
 30
0.0
 11
759.453099
 21
423.28227
 31
0.0
  0
LINE
  5
5C4
330
222
100
AcDbEntity
  8
7_ALL_FEATURES
  6
Continuous
 62
     3
100
AcDbLine
 10
758.66228
 20
424.454707
 30
0.0
 11
755.994051
 21
428.41052
 31
0.0
  0
ARC
  5
5C5
330
222
100
AcDbEntity
  8
7_ALL_FEATURES
  6
Continuous
 62
     3
100
AcDbCircle
 10
787.368446
 20
429.249309
 30
0.0
 40
1.5
100
AcDbArc
 50
326.0
 51
56.0
  0
LINE
  5
5C6
330
222
100
AcDbEntity
  8
7_ALL_FEATURES
  6
Continuous
 62
     3
100
AcDbLine
 10
784.130511
 20
421.766436
 30
0.0
 11
785.152955
 21
423.28227
 31
0.0
  0
LINE
  5
5C7
330
222
100
AcDbEntity
  8
7_ALL_FEATURES
  6
Continuous
 62
     3
100
AcDbLine
 10
785.152955
 20
423.28227
 30
0.0
 11
785.943773
 21
424.454707
 31
0.0
  0
LINE
  5
5C8
330
222
100
AcDbEntity
  8
7_ALL_FEATURES
  6
Continuous
 62
     3
100
AcDbLine
 10
788.612003
 20
428.41052
 30
0.0
 11
785.943773
 21
424.454707
 31
0.0
  0
LINE
  5
5C9
330
222
100
AcDbEntity
  8
7_ALL_FEATURES
  6
Continuous
 62
     3
100
AcDbLine
 10
783.802944
 20
421.280797
 30
0.0
 11
784.130511
 21
421.766436
 31
0.0
  0
LINE
  5
5CA
330
222
100
AcDbEntity
  8
7_ALL_FEATURES
  6
Continuous
 62
     3
100
AcDbLine
 10
760.475542
 20
421.766436
 30
0.0
 11
760.80311
 21
421.280797
 31
0.0
  0
LINE
  5
5CB
330
222
100
AcDbEntity
  8
7_ALL_FEATURES
  6
Continuous
 62
     3
100
AcDbLine
 10
759.453099
 20
423.28227
 30
0.0
 11
760.475542
 21
421.766436
 31
0.0
  0
ARC
  5
5CC
330
222
100
AcDbEntity
  8
7_ALL_FEATURES
  6
Continuous
 62
     3
100
AcDbCircle
 10
757.237607
 20
429.249309
 30
0.0
 40
1.5
100
AcDbArc
 50
124.0
 51
214.0
  0
ARC
  5
5CD
330
222
100
AcDbEntity
  8
7_ALL_FEATURES
  6
Continuous
 62
     3
100
AcDbCircle
 10
785.303027
 20
440.314525
 30
0.0
 40
0.5
100
AcDbArc
 50
0.0
 51
90.0
  0
LINE
  5
5CE
330
222
100
AcDbEntity
  8
7_ALL_FEATURES
  6
Continuous
 62
     3
100
AcDbLine
 10
785.803027
 20
432.646234
 30
0.0
 11
785.803027
 21
440.314525
 31
0.0
  0
ARC
  5
5CF
330
222
100
AcDbEntity
  8
7_ALL_FEATURES
  6
Continuous
 62
     3
100
AcDbCircle
 10
786.803027
 20
432.646234
 30
0.0
 40
1.0
100
AcDbArc
 50
180.0
 51
236.0
  0
LINE
  5
5D0
330
222
100
AcDbEntity
  8
7_ALL_FEATURES
  6
Continuous
 62
     3
100
AcDbLine
 10
788.207236
 20
430.492865
 30
0.0
 11
786.243834
 21
431.817197
 31
0.0
  0
DIMENSION
  5
5D1
330
222
100
AcDbEntity
  8
0
  6
Continuous
 62
     2
100
AcDbDimension
280
     0
  2
*D1
 10
610.7426
 20
266.227016
 30
0.0
 11
610.7426
 21
284.398441
 31
0.0
 70
   160
 71
     2
 42
37.2
 73
     0
 74
     0
 75
     0
  3
DIMSTYLE_1
100
AcDbAlignedDimension
 13
590.7426
 23
303.427016
 33
0.0
 14
590.7426
 24
266.227016
 34
0.0
 50
270.0
100
AcDbRotatedDimension
  0
DIMENSION
  5
5D2
330
222
100
AcDbEntity
  8
0
  6
Continuous
 62
     2
100
AcDbDimension
280
     0
  2
*D2
 10
590.7426
 20
246.227016
 30
0.0
 11
335.564018
 21
246.227016
 31
0.0
 70
   160
  1
510
 71
     2
 42
509.5
 73
     0
 74
     0
 75
     0
  3
DIMSTYLE_2
100
AcDbAlignedDimension
 13
81.2426
 23
253.357159
 33
0.0
 14
590.7426
 24
252.899117
 34
0.0
100
AcDbRotatedDimension
  0
DIMENSION
  5
5D3
330
222
100
AcDbEntity
  8
0
  6
Continuous
 62
     2
100
AcDbDimension
280
     0
  2
*D3
 10
600.526384
 20
430.064525
 30
0.0
 11
600.526384
 21
453.010956
 31
0.0
 70
   160
 71
     2
 42
46.75
 73
     0
 74
     0
 75
     0
  3
DIMSTYLE_1
100
AcDbAlignedDimension
 13
590.7426
 23
476.814525
 33
0.0
 14
588.9926
 24
430.064525
 34
0.0
 50
270.0
100
AcDbRotatedDimension
  0
DIMENSION
  5
5D4
330
222
100
AcDbEntity
  8
0
  6
Continuous
 62
     2
100
AcDbDimension
280
     0
  2
*D4
 10
801.805731
 20
476.814525
 30
0.0
 11
801.805731
 21
448.479304
 31
0.0
 70
   160
 71
     2
 42
55.813325
 73
     0
 74
     0
 75
     0
  3
DIMSTYLE_1
100
AcDbAlignedDimension
 13
800.305731
 23
421.0012
 33
0.0
 14
789.903027
 24
476.814525
 34
0.0
 50
90.0
100
AcDbRotatedDimension
  0
INSERT
  5
5D5
330
222
100
AcDbEntity
  8
0
  6
Continuous
 62
     2
100
AcDbBlockReference
  2
LOGO2_BL0
 10
752.542758
 20
36.702704
 30
0.0
  0
ACAD_TABLE
  5
5D6
102
{ACAD_XDICTIONARY
360
62D
102
}
330
222
100
AcDbEntity
  8
0
  6
Continuous
 62
     2
160
              3296
310
E00C000017000000880000001D000000000000000000F03F00000000000000000000000000000000B433E4D2BB1587400000000000000000000000000000F03F00000000000000003E0B9D32F219494000000000000000000000000000000000000000000000F03F0000000000000000000000000000000000000000000000
310
000000000000000000000000000000F03F54000000200000000200000000000000000000000000000000000000000000000000000000000000008056400000000000000000000000000000000000000000000000000000000000000000000000000000F03F5400000020000000020000000000000000000000000000000000
310
00000000000000000000000000000000000000000000000044C0000000000000000000000000000000000000000000000000000000000000F03F5400000020000000020000000000000000003E4000000000000018C00000000000000000000000000080564000000000000018C00000000000000000000000000000000000
310
00000000000000000000000000F03F5400000020000000020000000000000000003E4000000000000028C00000000000000000000000000080564000000000000028C0000000000000000000000000000000000000000000000000000000000000F03F5400000020000000020000000000000000003E4000000000000036C0
310
0000000000000000000000000080564000000000000036C0000000000000000000000000000000000000000000000000000000000000F03F54000000200000000200000000000000000000000000000000003BC0000000000000000000000000008056400000000000003BC000000000000000000000000000000000000000
310
0000000000000000000000F03F540000002000000002000000000000000000000000000000000044C00000000000000000000000000080564000000000000044C0000000000000000000000000000000000000000000000000000000000000F03F5400000020000000020000000000000000003E4000000000000000000000
310
0000000000000000000000003E400000000000003BC0000000000000000000000000000000000000000000000000000000000000F03F540000002000000002000000000000000080514000000000000000000000000000000000000000000080514000000000000028C0000000000000000000000000000000000000000000
310
000000000000000000F03F540000002000000002000000000000000080564000000000000000000000000000000000000000000080564000000000000044C0000000000000000000000000000000000000000000000000000000000000F03F0C0000001000000024000000CC00000026000000C74B378941503F404E621058
310
393412C0000000000000000000000000000000000000000000000000000000000000F03F000000000000F03F000000000000000000000000000000003500370031005F0043005F00300038003000000012000000010000000000000000000840000000000000F03F0000000000000000000000000000F03F00000000000000
310
00000000000000000000000000000000000000000000000000000000000000000061007200690061006C002E00740074006600000000000000C800000026000000C2F5285C8FC6514075931804560E13C0000000000000000000000000000000000000000000000000000000000000F03F000000000000F03F000000000000
310
000000000000000000005200650076003A0030003100000000000C000000010000000000000000000C40000000000000F03F0000000000000000000000000000F03F0000000000000000000000000000000000000000000000000000000000000000000000000000000061007200690061006C002E00740074006600000000
310
000000CC00000026000000FA7E6ABC74433F405839B4C8769E26C0000000000000000000000000000000000000000000000000000000000000F03F000000000000F03F000000000000000000000000000000005300630061006C0065003A0031003A003100000012000000010000000000000000000C40000000000000F03F
310
0000000000000000000000000000F03F0000000000000000000000000000000000000000000000000000000000000000000000000000000061007200690061006C002E00740074006600000000000000C0000000260000003333333333DF5140BA490C022B8725C00000000000000000000000000000000000000000000000
310
00000000000000F03F000000000000F03F00000000000000000000000000000000410031000000000004000000010000000000000000000C40000000000000F03F0000000000000000000000000000F03F00000000000000000000000000000000000000000000000000000000000000000000000000000000610072006900
310
61006C002E00740074006600000000000000C8000000260000000AD7A3703D1A3F40AC1C5A643BCF32C0000000000000000000000000000000000000000000000000000000000000F03F000000000000F03F00000000000000000000000000000000520049004F00200032002E00310000000E000000010000000000000000
310
000C40000000000000F03F0000000000000000000000000000F03F0000000000000000000000000000000000000000000000000000000000000000000000000000000061007200690061006C002E00740074006600000000000000D40000002600000048E17A14AE373F40C3F5285C8FC239C0000000000000000000000000
310
000000000000000000000000000000000000F03F000000000000F03F0000000000000000000000000000000044004100540045003A00300039002E00300031002E003100390000001A000000010000000000000000000440000000000000F03F0000000000000000000000000000F03F000000000000000000000000000000
310
0000000000000000000000000000000000000000000000000061007200690061006C002E007400740066000000000000002401000026000000CDCCCCCCCCCCF73F0000000000903DC0000000000000000000000000000000000000000000000000000000000000F03F000000000000F03F0000000000000000000000000000
310
000041006E007900200069006E00740065006700720061006C0020006F00720020007000610072007400690061006C00200072006500700072006F00640075006300740069006F006E00730020006100720065002000700072006F006800690062006900740065006400000000006800000001000000000000000000024000
310
0000000000F03F0000000000000000000000000000F03F0000000000000000000000000000000000000000000000000000000000000000000000000000000061007200690061006C002E007400740066000000000000002C01000026000000FED478E926B1F73F37894160E57C40C000000000000000000000000000000000
310
0000000000000000000000000000F03F000000000000F03F0000000000000000000000000000000077006900740068006F007500740020007000720069006F007200200061007500740068006F007200690073006100740069006F006E0020006F00660020004C002000260020004C0020004C007500630065002000260020
310
004C006900670068007400200073002E0072002E006C002E002C00000072000000010000000000000000000240000000000000F03F0000000000000000000000000000F03F0000000000000000000000000000000000000000000000000000000000000000000000000000000061007200690061006C002E00740074006600
310
0000000000000401000026000000C1CAA145B673F43F4F1E166A4D3142C0000000000000000000000000000000000000000000000000000000000000F03F000000000000F03F0000000000000000000000000000000069006E0020006100630063006F007200640061006E0063006500200077006900740068002000740068
310
00650020006C0061007700200069006E00200066006F007200630065002E000000000048000000010000000000000000000240000000000000F03F0000000000000000000000000000F03F0000000000000000000000000000000000000000000000000000000000000000000000000000000061007200690061006C002E00
310
740074006600000000000000E400000026000000CDCCCCCCCCCCF73F302AA913D0E043C0000000000000000000000000000000000000000000000000000000000000F03F000000000000F03F0000000000000000000000000000000041006C006C002000720069006700680074007300200072006500730065007200760065
310
0064002E000000000028000000010000000000000000000240000000000000F03F0000000000000000000000000000F03F0000000000000000000000000000000000000000000000000000000000000000000000000000000061007200690061006C002E00740074006600000000000000080000001F000000
100
AcDbBlockReference
  2
*T6
 10
738.716711
 20
50.202704
 30
0.0
100
AcDbTable
342
5FF
343
22A
 11
1.0
 21
0.0
 31
0.0
 90
       22
 91
        5
 92
        5
 93
        0
 94
        0
 95
        0
 96
        0
141
6.0
141
6.0
141
10.0
141
5.0
141
13.0
142
10.0
142
10.0
142
10.0
142
40.0
142
20.0
171
     1
172
     0
173
     0
174
     0
175
     3
176
     4
 91
       32
178
     0
145
0.0
140
3.5
 92
        0
301
CELL_VALUE
 93
        2
 90
        4
  1
 
 94
        0
300

302
 
304
ACVALUE_END
171
     1
172
     0
173
     1
174
     0
175
     1
176
     1
 91
        0
178
     0
145
0.0
 92
        0
301
CELL_VALUE
 93
        3
 90
        0
 91
        0
 94
        0
300

302

304
ACVALUE_END
171
     1
172
     0
173
     1
174
     0
175
     1
176
     1
 91
        0
178
     0
145
0.0
 92
        0
301
CELL_VALUE
 93
        3
 90
        0
 91
        0
 94
        0
300

302

304
ACVALUE_END
171
     1
172
     0
173
     0
174
     0
175
     1
176
     1
 91
       49
178
     0
145
0.0
170
     4
  7
TEXTSTYLE_2
140
3.0
 92
        0
301
CELL_VALUE
 93
        2
 90
        4
  1
571_C_080
 94
        0
300

302
571_C_080
304
ACVALUE_END
171
     1
172
     0
173
     0
174
     0
175
     1
176
     1
 91
       49
178
     0
145
0.0
170
     4
  7
TEXTSTYLE_2
140
3.5
 92
        0
301
CELL_VALUE
 93
        2
 90
        4
  1
Rev:01
 94
        0
300

302
Rev:01
304
ACVALUE_END
171
     1
172
     0
173
     1
174
     0
175
     1
176
     1
 91
        0
178
     0
145
0.0
 92
        0
301
CELL_VALUE
 93
        3
 90
        0
 91
        0
 94
        0
300

302

304
ACVALUE_END
171
     1
172
     0
173
     1
174
     0
175
     1
176
     1
 91
        0
178
     0
145
0.0
 92
        0
301
CELL_VALUE
 93
        3
 90
        0
 91
        0
 94
        0
300

302

304
ACVALUE_END
171
     1
172
     0
173
     1
174
     0
175
     1
176
     1
 91
        0
178
     0
145
0.0
 92
        0
301
CELL_VALUE
 93
        3
 90
        0
 91
        0
 94
        0
300

302

304
ACVALUE_END
171
     1
172
     0
173
     0
174
     0
175
     1
176
     1
 91
       49
178
     0
145
0.0
170
     1
  7
TEXTSTYLE_2
140
3.5
 92
        0
301
CELL_VALUE
 93
        2
 90
        4
  1
Scale:1:1
 94
        0
300

302
Scale:1:1
304
ACVALUE_END
171
     1
172
     0
173
     0
174
     0
175
     1
176
     1
 91
       49
178
     0
145
0.0
170
     4
  7
TEXTSTYLE_2
140
3.5
 92
        0
301
CELL_VALUE
 93
        2
 90
        4
  1
A1
 94
        0
300

302
A1
304
ACVALUE_END
171
     1
172
     0
173
     1
174
     0
175
     1
176
     1
 91
        0
178
     0
145
0.0
 92
        0
301
CELL_VALUE
 93
        3
 90
        0
 91
        0
 94
        0
300

302

304
ACVALUE_END
171
     1
172
     0
173
     1
174
     0
175
     1
176
     1
 91
        0
178
     0
145
0.0
 92
        0
301
CELL_VALUE
 93
        3
 90
        0
 91
        0
 94
        0
300

302

304
ACVALUE_END
171
     1
172
     0
173
     1
174
     0
175
     1
176
     1
 91
        0
178
     0
145
0.0
 92
        0
301
CELL_VALUE
 93
        3
 90
        0
 91
        0
 94
        0
300

302

304
ACVALUE_END
171
     1
172
     0
173
     0
174
     0
175
     2
176
     1
 91
       49
178
     0
145
0.0
170
     4
  7
TEXTSTYLE_2
140
3.5
 92
        0
301
CELL_VALUE
 93
        2
 90
        4
  1
RIO 2.1
 94
        0
300

302
RIO 2.1
304
ACVALUE_END
171
     1
172
     0
173
     1
174
     0
175
     1
176
     1
 91
        0
178
     0
145
0.0
 92
        0
301
CELL_VALUE
 93
        3
 90
        0
 91
        0
 94
        0
300

302

304
ACVALUE_END
171
     1
172
     0
173
     1
174
     0
175
     1
176
     1
 91
        0
178
     0
145
0.0
 92
        0
301
CELL_VALUE
 93
        3
 90
        0
 91
        0
 94
        0
300

302

304
ACVALUE_END
171
     1
172
     0
173
     1
174
     0
175
     1
176
     1
 91
        0
178
     0
145
0.0
 92
        0
301
CELL_VALUE
 93
        3
 90
        0
 91
        0
 94
        0
300

302

304
ACVALUE_END
171
     1
172
     0
173
     1
174
     0
175
     1
176
     1
 91
        0
178
     0
145
0.0
 92
        0
301
CELL_VALUE
 93
        3
 90
        0
 91
        0
 94
        0
300

302

304
ACVALUE_END
171
     1
172
     0
173
     0
174
     0
175
     2
176
     1
 91
       49
178
     0
145
0.0
170
     4
  7
TEXTSTYLE_2
140
2.5
 92
        0
301
CELL_VALUE
 93
        2
 90
        4
  1
DATE:09.01.19
 94
        0
300

302
DATE:09.01.19
304
ACVALUE_END
171
     1
172
     0
173
     1
174
     0
175
     1
176
     1
 91
        0
178
     0
145
0.0
 92
        0
301
CELL_VALUE
 93
        3
 90
        0
 91
        0
 94
        0
300

302

304
ACVALUE_END
171
     1
172
     0
173
     0
174
     0
175
     5
176
     1
 91
       49
178
     0
145
0.0
170
     4
  7
TEXTSTYLE_2
140
2.25
 92
        0
301
CELL_VALUE
 93
        2
 90
        4
  1
Any integral or partial reproductions are prohibited \Pwithout prior authorisation of L & L Luce & Light s.r.l., \Pin accordance with the law in force. \PAll rights reserved.
 94
        0
300

302
Any integral or partial reproductions are prohibited \Pwithout prior authorisation of L & L Luce & Light s.r.l., \Pin accordance with the law in force. \PAll rights reserved.
304
ACVALUE_END
171
     1
172
     0
173
     1
174
     0
175
     1
176
     1
 91
        0
178
     0
145
0.0
 92
        0
301
CELL_VALUE
 93
        3
 90
        0
 91
        0
 94
        0
300

302

304
ACVALUE_END
171
     1
172
     0
173
     1
174
     0
175
     1
176
     1
 91
        0
178
     0
145
0.0
 92
        0
301
CELL_VALUE
 93
        3
 90
        0
 91
        0
 94
        0
300

302

304
ACVALUE_END
171
     1
172
     0
173
     1
174
     0
175
     1
176
     1
 91
        0
178
     0
145
0.0
 92
        0
301
CELL_VALUE
 93
        3
 90
        0
 91
        0
 94
        0
300

302

304
ACVALUE_END
171
     1
172
     0
173
     1
174
     0
175
     1
176
     1
 91
        0
178
     0
145
0.0
 92
        0
301
CELL_VALUE
 93
        3
 90
        0
 91
        0
 94
        0
300

302

304
ACVALUE_END
  0
ENDSEC
  0
SECTION
  2
OBJECTS
  0
DICTIONARY
  5
C
330
0
100
AcDbDictionary
281
     1
  3
ACAD_DETAILVIEWSTYLE
350
636
  3
ACAD_GROUP
350
D
  3
ACAD_IMAGE_DICT
350
626
  3
ACAD_LAYOUT
350
1A
  3
ACAD_MATERIAL
350
61A
  3
ACAD_MLEADERSTYLE
350
635
  3
ACAD_MLINESTYLE
350
17
  3
ACAD_PLOTSETTINGS
350
19
  3
ACAD_PLOTSTYLENAME
350
E
  3
ACAD_SCALELIST
350
5DC
  3
ACAD_SECTIONVIEWSTYLE
350
637
  3
ACAD_TABLESTYLE
350
5FE
  3
ACAD_VISUALSTYLE
350
601
  3
ACDB_RECOMPOSE_DATA
350
633
  3
AcDbVariableDictionary
350
62F
  3
HOST_DOC_SETTINGS
350
624
  3
MCS_STREAM_DICT
350
620
  0
SUN
  5
623
330
1F4
100
AcDbSun
 90
        1
290
     0
 63
     7
421
 16777215
 40
1.0
291
     1
 91
  2455826
 92
 54000000
292
     0
 70
     2
 71
   256
280
     1
  0
DICTIONARY
  5
62D
330
5D6
100
AcDbDictionary
280
     1
281
     1
  3
ACAD_XREC_ROUNDTRIP
360
62E
  0
DICTIONARY
  5
636
102
{ACAD_REACTORS
330
C
102
}
330
C
100
AcDbDictionary
281
     1
  0
DICTIONARY
  5
D
102
{ACAD_REACTORS
330
C
102
}
330
C
100
AcDbDictionary
281
     1
  0
DICTIONARY
  5
626
102
{ACAD_REACTORS
330
C
102
}
330
C
100
AcDbDictionary
281
     1
  0
DICTIONARY
  5
1A
102
{ACAD_REACTORS
330
C
102
}
330
C
100
AcDbDictionary
281
     1
  3
Layout1
350
5D9
  3
Model
350
5D8
  0
DICTIONARY
  5
61A
102
{ACAD_REACTORS
330
C
102
}
330
C
100
AcDbDictionary
281
     1
  3
ByBlock
350
61C
  3
ByLayer
350
61B
  3
Global
350
61D
  0
DICTIONARY
  5
635
102
{ACAD_REACTORS
330
C
102
}
330
C
100
AcDbDictionary
281
     1
  0
DICTIONARY
  5
17
102
{ACAD_REACTORS
330
C
102
}
330
C
100
AcDbDictionary
281
     1
  3
Standard
350
18
  0
DICTIONARY
  5
19
102
{ACAD_REACTORS
330
C
102
}
330
C
100
AcDbDictionary
281
     1
  0
ACDBDICTIONARYWDFLT
  5
E
102
{ACAD_REACTORS
330
C
102
}
330
C
100
AcDbDictionary
281
     1
  3
Normal
350
F
100
AcDbDictionaryWithDefault
340
F
  0
DICTIONARY
  5
5DC
102
{ACAD_REACTORS
330
C
102
}
330
C
100
AcDbDictionary
281
     1
  3
A0
350
5DD
  3
A1
350
5DE
  3
A2
350
5DF
  3
A3
350
5E0
  3
A4
350
5E1
  3
A5
350
5E2
  3
A6
350
5E3
  3
A7
350
5E4
  3
A8
350
5E5
  3
A9
350
5E6
  3
B0
350
5E7
  3
B1
350
5E8
  3
B2
350
5E9
  3
B3
350
5EA
  3
B4
350
5EB
  3
B5
350
5EC
  3
B6
350
5ED
  3
B7
350
5EE
  3
B8
350
5EF
  3
B9
350
5F0
  3
C0
350
5F1
  3
C1
350
5F2
  3
C2
350
5F3
  3
C3
350
5F4
  3
C4
350
5F5
  3
C5
350
5F6
  3
C6
350
5F7
  3
C7
350
5F8
  3
C8
350
5F9
  3
C9
350
5FA
  3
D0
350
5FB
  3
D1
350
5FC
  3
D2
350
5FD
  0
DICTIONARY
  5
637
102
{ACAD_REACTORS
330
C
102
}
330
C
100
AcDbDictionary
281
     1
  0
DICTIONARY
  5
5FE
102
{ACAD_REACTORS
330
C
102
}
330
C
100
AcDbDictionary
281
     1
  3
Standard
350
5FF
  0
DICTIONARY
  5
601
102
{ACAD_REACTORS
330
C
102
}
330
C
100
AcDbDictionary
281
     1
  3
2dWireframe
350
606
  3
Basic
350
609
  3
Brighten
350
60D
  3
ColorChange
350
611
  3
Conceptual
350
60B
  3
Dim
350
60C
  3
EdgeColorOff
350
614
  3
Facepattern
350
610
  3
Flat
350
602
  3
FlatWithEdges
350
603
  3
Gouraud
350
604
  3
GouraudWithEdges
350
605
  3
Hidden
350
608
  3
JitterOff
350
612
  3
Linepattern
350
60F
  3
OverhangOff
350
613
  3
Realistic
350
60A
  3
Shaded
350
619
  3
Shaded with edges
350
618
  3
Shades of Gray
350
615
  3
Sketchy
350
616
  3
Thicken
350
60E
  3
Wireframe
350
607
  3
X-Ray
350
617
  0
XRECORD
  5
633
102
{ACAD_REACTORS
330
C
102
}
330
C
100
AcDbXrecord
280
     1
 90
        1
330
5D6
330
5FF
  0
DICTIONARY
  5
62F
102
{ACAD_REACTORS
330
C
102
}
330
C
100
AcDbDictionary
281
     1
  3
CANNOSCALE
350
630
  3
CTABLESTYLE
350
634
  0
DICTIONARY
  5
624
102
{ACAD_REACTORS
330
C
102
}
330
C
100
AcDbDictionary
281
     1
  3
NCDocParameters
350
625
  0
DICTIONARY
  5
620
102
{ACAD_REACTORS
330
C
102
}
330
C
100
AcDbDictionary
281
     1
  3
MC_VERSION_DATA
350
629
  3
MCS_DOCUMENT_ID
350
621
  3
MCS_PARAMS_DATA
350
627
  0
XRECORD
  5
62E
102
{ACAD_REACTORS
330
62D
102
}
330
62D
100
AcDbXrecord
280
     1
102
ACAD_ROUNDTRIP_2008_TABLE_ENTITY
360
62B
 70
     2
 90
        1
 10
0.0
 20
0.0
 30
0.0
 90
        0
 90
        4
361
62C
  0
LAYOUT
  5
5D9
102
{ACAD_REACTORS
330
1A
102
}
330
1A
100
AcDbPlotSettings
  1

  2
none_device
  4
ISO_A1_(594.00_x_841.00_MM)
  6

 40
0.0
 41
0.0
 42
0.0
 43
0.0
 44
841.0
 45
594.0
 46
0.0
 47
0.0
 48
0.0
 49
0.0
140
0.0
141
0.0
142
1.0
143
1.0
 70
     0
 72
     1
 73
     0
 74
     0
  7

 75
     0
 76
     0
 77
     2
 78
   300
147
1.0
148
0.0
149
0.0
100
AcDbLayout
  1
Layout1
 70
     0
 71
     1
 10
0.0
 20
0.0
 11
841.0
 21
594.0
 12
0.0
 22
0.0
 32
0.0
 14
0.0
 24
0.0
 34
0.0
 15
0.0
 25
0.0
 35
0.0
146
0.0
 13
0.0
 23
0.0
 33
0.0
 16
1.0
 26
0.0
 36
0.0
 17
0.0
 27
1.0
 37
0.0
 76
     0
330
223
  0
LAYOUT
  5
5D8
102
{ACAD_REACTORS
330
1A
102
}
330
1A
100
AcDbPlotSettings
  1

  2
none_device
  4
ISO_A1_(594.00_x_841.00_MM)
  6

 40
0.0
 41
0.0
 42
0.0
 43
0.0
 44
841.0
 45
594.0
 46
0.0
 47
0.0
 48
0.0
 49
0.0
140
0.0
141
0.0
142
1.0
143
1.0
 70
  1024
 72
     1
 73
     0
 74
     0
  7

 75
     0
 76
     0
 77
     2
 78
   300
147
1.0
148
0.0
149
0.0
100
AcDbLayout
  1
Model
 70
     0
 71
     0
 10
0.0
 20
0.0
 11
841.0
 21
594.0
 12
0.0
 22
0.0
 32
0.0
 14
0.0
 24
0.0
 34
0.0
 15
0.0
 25
0.0
 35
0.0
146
0.0
 13
0.0
 23
0.0
 33
0.0
 16
1.0
 26
0.0
 36
0.0
 17
0.0
 27
1.0
 37
0.0
 76
     0
330
222
331
1F4
  0
MATERIAL
  5
61C
102
{ACAD_REACTORS
330
61A
102
}
330
61A
100
AcDbMaterial
  1
ByBlock
 72
     1
 94
      127
  0
MATERIAL
  5
61B
102
{ACAD_REACTORS
330
61A
102
}
330
61A
100
AcDbMaterial
  1
ByLayer
 72
     1
 94
      127
  0
MATERIAL
  5
61D
102
{ACAD_REACTORS
330
61A
102
}
330
61A
100
AcDbMaterial
  1
Global
 72
     1
 94
      127
  0
MLINESTYLE
  5
18
102
{ACAD_REACTORS
330
17
102
}
330
17
100
AcDbMlineStyle
  2
STANDARD
 70
     0
  3

 62
   256
 51
90.0
 52
90.0
 71
     2
 49
0.5
 62
   256
  6
BYLAYER
 49
-0.5
 62
   256
  6
BYLAYER
  0
ACDBPLACEHOLDER
  5
F
102
{ACAD_REACTORS
330
E
102
}
330
E
  0
SCALE
  5
5DD
102
{ACAD_REACTORS
330
5DC
102
}
330
5DC
100
AcDbScale
 70
     0
300
1:1
140
1.0
141
1.0
290
     1
  0
SCALE
  5
5DE
102
{ACAD_REACTORS
330
5DC
102
}
330
5DC
100
AcDbScale
 70
     0
300
1:2
140
1.0
141
2.0
290
     0
  0
SCALE
  5
5DF
102
{ACAD_REACTORS
330
5DC
102
}
330
5DC
100
AcDbScale
 70
     0
300
1:4
140
1.0
141
4.0
290
     0
  0
SCALE
  5
5E0
102
{ACAD_REACTORS
330
5DC
102
}
330
5DC
100
AcDbScale
 70
     0
300
1:5
140
1.0
141
5.0
290
     0
  0
SCALE
  5
5E1
102
{ACAD_REACTORS
330
5DC
102
}
330
5DC
100
AcDbScale
 70
     0
300
1:8
140
1.0
141
8.0
290
     0
  0
SCALE
  5
5E2
102
{ACAD_REACTORS
330
5DC
102
}
330
5DC
100
AcDbScale
 70
     0
300
1:10
140
1.0
141
10.0
290
     0
  0
SCALE
  5
5E3
102
{ACAD_REACTORS
330
5DC
102
}
330
5DC
100
AcDbScale
 70
     0
300
1:16
140
1.0
141
16.0
290
     0
  0
SCALE
  5
5E4
102
{ACAD_REACTORS
330
5DC
102
}
330
5DC
100
AcDbScale
 70
     0
300
1:20
140
1.0
141
20.0
290
     0
  0
SCALE
  5
5E5
102
{ACAD_REACTORS
330
5DC
102
}
330
5DC
100
AcDbScale
 70
     0
300
1:30
140
1.0
141
30.0
290
     0
  0
SCALE
  5
5E6
102
{ACAD_REACTORS
330
5DC
102
}
330
5DC
100
AcDbScale
 70
     0
300
1:40
140
1.0
141
40.0
290
     0
  0
SCALE
  5
5E7
102
{ACAD_REACTORS
330
5DC
102
}
330
5DC
100
AcDbScale
 70
     0
300
1:50
140
1.0
141
50.0
290
     0
  0
SCALE
  5
5E8
102
{ACAD_REACTORS
330
5DC
102
}
330
5DC
100
AcDbScale
 70
     0
300
1:100
140
1.0
141
100.0
290
     0
  0
SCALE
  5
5E9
102
{ACAD_REACTORS
330
5DC
102
}
330
5DC
100
AcDbScale
 70
     0
300
2:1
140
2.0
141
1.0
290
     0
  0
SCALE
  5
5EA
102
{ACAD_REACTORS
330
5DC
102
}
330
5DC
100
AcDbScale
 70
     0
300
4:1
140
4.0
141
1.0
290
     0
  0
SCALE
  5
5EB
102
{ACAD_REACTORS
330
5DC
102
}
330
5DC
100
AcDbScale
 70
     0
300
8:1
140
8.0
141
1.0
290
     0
  0
SCALE
  5
5EC
102
{ACAD_REACTORS
330
5DC
102
}
330
5DC
100
AcDbScale
 70
     0
300
10:1
140
10.0
141
1.0
290
     0
  0
SCALE
  5
5ED
102
{ACAD_REACTORS
330
5DC
102
}
330
5DC
100
AcDbScale
 70
     0
300
100:1
140
100.0
141
1.0
290
     0
  0
SCALE
  5
5EE
102
{ACAD_REACTORS
330
5DC
102
}
330
5DC
100
AcDbScale
 70
     0
300
1/128" = 1'-0"
140
0.007812
141
12.0
290
     0
  0
SCALE
  5
5EF
102
{ACAD_REACTORS
330
5DC
102
}
330
5DC
100
AcDbScale
 70
     0
300
1/64" = 1'-0"
140
0.015625
141
12.0
290
     0
  0
SCALE
  5
5F0
102
{ACAD_REACTORS
330
5DC
102
}
330
5DC
100
AcDbScale
 70
     0
300
1/32" = 1'-0"
140
0.03125
141
12.0
290
     0
  0
SCALE
  5
5F1
102
{ACAD_REACTORS
330
5DC
102
}
330
5DC
100
AcDbScale
 70
     0
300
1/16" = 1'-0"
140
0.0625
141
12.0
290
     0
  0
SCALE
  5
5F2
102
{ACAD_REACTORS
330
5DC
102
}
330
5DC
100
AcDbScale
 70
     0
300
3/32" = 1'-0"
140
0.09375
141
12.0
290
     0
  0
SCALE
  5
5F3
102
{ACAD_REACTORS
330
5DC
102
}
330
5DC
100
AcDbScale
 70
     0
300
1/8" = 1'-0"
140
0.125
141
12.0
290
     0
  0
SCALE
  5
5F4
102
{ACAD_REACTORS
330
5DC
102
}
330
5DC
100
AcDbScale
 70
     0
300
3/16" = 1'-0"
140
0.1875
141
12.0
290
     0
  0
SCALE
  5
5F5
102
{ACAD_REACTORS
330
5DC
102
}
330
5DC
100
AcDbScale
 70
     0
300
1/4" = 1'-0"
140
0.25
141
12.0
290
     0
  0
SCALE
  5
5F6
102
{ACAD_REACTORS
330
5DC
102
}
330
5DC
100
AcDbScale
 70
     0
300
3/8" = 1'-0"
140
0.375
141
12.0
290
     0
  0
SCALE
  5
5F7
102
{ACAD_REACTORS
330
5DC
102
}
330
5DC
100
AcDbScale
 70
     0
300
1/2" = 1'-0"
140
0.5
141
12.0
290
     0
  0
SCALE
  5
5F8
102
{ACAD_REACTORS
330
5DC
102
}
330
5DC
100
AcDbScale
 70
     0
300
3/4" = 1'-0"
140
0.75
141
12.0
290
     0
  0
SCALE
  5
5F9
102
{ACAD_REACTORS
330
5DC
102
}
330
5DC
100
AcDbScale
 70
     0
300
1" = 1'-0"
140
1.0
141
12.0
290
     0
  0
SCALE
  5
5FA
102
{ACAD_REACTORS
330
5DC
102
}
330
5DC
100
AcDbScale
 70
     0
300
1-1/2" = 1'-0"
140
1.5
141
12.0
290
     0
  0
SCALE
  5
5FB
102
{ACAD_REACTORS
330
5DC
102
}
330
5DC
100
AcDbScale
 70
     0
300
3" = 1'-0"
140
3.0
141
12.0
290
     0
  0
SCALE
  5
5FC
102
{ACAD_REACTORS
330
5DC
102
}
330
5DC
100
AcDbScale
 70
     0
300
6" = 1'-0"
140
6.0
141
12.0
290
     0
  0
SCALE
  5
5FD
102
{ACAD_REACTORS
330
5DC
102
}
330
5DC
100
AcDbScale
 70
     0
300
1'-0" = 1'-0"
140
12.0
141
12.0
290
     0
  0
TABLESTYLE
  5
5FF
102
{ACAD_REACTORS
330
5FE
102
}
102
{ACAD_XDICTIONARY
360
631
102
}
330
5FE
100
AcDbTableStyle
  3
Standard
 70
     0
 71
     0
 40
0.06
 41
0.06
280
     0
281
     0
  7
STANDARD
140
4.5
170
     2
 62
     0
 63
   257
283
     0
 90
        4
 91
        0
  1

274
    -2
284
     1
 64
     0
275
    -2
285
     1
 65
     0
276
    -2
286
     1
 66
     0
277
    -2
287
     1
 67
     0
278
    -2
288
     1
 68
     0
279
    -2
289
     1
 69
     0
  7
STANDARD
140
6.0
170
     5
 62
     0
 63
   257
283
     0
 90
        4
 91
        0
  1

274
    -2
284
     1
 64
     0
275
    -2
285
     1
 65
     0
276
    -2
286
     1
 66
     0
277
    -2
287
     1
 67
     0
278
    -2
288
     1
 68
     0
279
    -2
289
     1
 69
     0
  7
STANDARD
140
4.5
170
     5
 62
     0
 63
   257
283
     0
 90
        4
 91
        0
  1

274
    -2
284
     1
 64
     0
275
    -2
285
     1
 65
     0
276
    -2
286
     1
 66
     0
277
    -2
287
     1
 67
     0
278
    -2
288
     1
 68
     0
279
    -2
289
     1
 69
     0
  0
VISUALSTYLE
  5
606
102
{ACAD_REACTORS
330
601
102
}
330
601
100
AcDbVisualStyle
  2
2dWireframe
 70
     4
177
     3
291
     0
 70
    58
 90
        0
176
     1
 90
        2
176
     1
 90
        0
176
     1
 90
        0
176
     1
 40
0.6
176
     1
 40
30.0
176
     1
 62
     7
420
 16777215
176
     1
 90
        1
176
     1
 90
        4
176
     1
 62
     7
176
     1
 62
   257
176
     1
 90
        1
176
     1
 90
        1
176
     1
 40
1.0
176
     1
 90
        0
176
     1
 62
   257
176
     1
 40
1.0
176
     1
 90
        1
176
     1
 90
        6
176
     1
 90
        2
176
     1
 62
     7
176
     1
 90
        5
176
     1
 90
        0
176
     1
 90
        0
176
     1
290
     0
176
     1
 90
        1
176
     1
 40
0.0
176
     1
 90
        0
176
     1
290
     1
176
     1
290
     1
176
     1
290
     0
176
     1
290
     0
176
     1
290
     0
176
     1
290
     0
176
     1
290
     0
176
     1
290
     0
176
     1
290
     0
176
     1
 90
       50
176
     1
 40
0.0
176
     1
 40
1.0
176
     1
 90
        0
176
     1
 62
    18
420
        0
176
     1
 90
       50
176
     1
 90
        3
176
     1
 62
     5
420
      255
176
     1
290
     0
176
     1
 90
       50
176
     1
 90
       50
176
     1
 90
       50
176
     1
290
     0
176
     1
 90
       50
176
     1
 62
   256
176
     0
 40
1.0
176
     0
 90
        2
176
     1
  1
strokes_ogs.tif
176
     1
290
     0
176
     1
 40
1.0
176
     1
 40
1.0
176
     1
  0
VISUALSTYLE
  5
609
102
{ACAD_REACTORS
330
601
102
}
330
601
100
AcDbVisualStyle
  2
Basic
 70
     7
177
     3
291
     1
 70
    58
 90
        1
176
     1
 90
        0
176
     1
 90
        1
176
     1
 90
        0
176
     1
 40
0.6
176
     1
 40
30.0
176
     1
 62
     7
420
 16777215
176
     1
 90
        0
176
     1
 90
        4
176
     1
 62
     7
176
     1
 62
   257
176
     1
 90
        1
176
     1
 90
        1
176
     1
 40
1.0
176
     1
 90
        8
176
     1
 62
     7
176
     1
 40
1.0
176
     1
 90
        1
176
     1
 90
        6
176
     1
 90
        2
176
     1
 62
     7
176
     1
 90
        5
176
     1
 90
        0
176
     1
 90
        0
176
     1
290
     0
176
     1
 90
        1
176
     1
 40
0.0
176
     1
 90
        0
176
     1
290
     0
176
     1
290
     1
176
     1
290
     1
176
     1
290
     0
176
     1
290
     0
176
     1
290
     0
176
     1
290
     0
176
     1
290
     0
176
     1
290
     0
176
     1
 90
       50
176
     1
 40
0.0
176
     1
 40
1.0
176
     1
 90
        0
176
     1
 62
    18
420
        0
176
     1
 90
       50
176
     1
 90
        3
176
     1
 62
     5
420
      255
176
     1
290
     0
176
     1
 90
       50
176
     1
 90
       50
176
     1
 90
       50
176
     1
290
     0
176
     1
 90
       50
176
     1
 62
   256
176
     0
 40
1.0
176
     0
 90
        2
176
     1
  1
strokes_ogs.tif
176
     1
290
     0
176
     1
 40
1.0
176
     1
 40
1.0
176
     1
  0
VISUALSTYLE
  5
60D
102
{ACAD_REACTORS
330
601
102
}
330
601
100
AcDbVisualStyle
  2
Brighten
 70
    12
177
     3
291
     1
 70
    58
 90
        2
176
     1
 90
        2
176
     1
 90
        0
176
     1
 90
        0
176
     1
 40
0.6
176
     1
 40
30.0
176
     1
 62
     7
420
 16777215
176
     1
 90
        1
176
     1
 90
        4
176
     1
 62
     7
176
     1
 62
   257
176
     1
 90
        1
176
     1
 90
        1
176
     1
 40
1.0
176
     1
 90
        8
176
     1
 62
     7
176
     1
 40
1.0
176
     1
 90
        1
176
     1
 90
        6
176
     1
 90
        2
176
     1
 62
     7
176
     1
 90
        5
176
     1
 90
        0
176
     1
 90
        0
176
     1
290
     0
176
     1
 90
        1
176
     1
 40
50.0
176
     1
 90
        0
176
     1
290
     0
176
     1
290
     1
176
     1
290
     1
176
     1
290
     0
176
     1
290
     0
176
     1
290
     0
176
     1
290
     0
176
     1
290
     0
176
     1
290
     0
176
     1
 90
       50
176
     1
 40
0.0
176
     1
 40
1.0
176
     1
 90
        0
176
     1
 62
    18
420
        0
176
     1
 90
       50
176
     1
 90
        3
176
     1
 62
     5
420
      255
176
     1
290
     0
176
     1
 90
       50
176
     1
 90
       50
176
     1
 90
       50
176
     1
290
     0
176
     1
 90
       50
176
     1
 62
   256
176
     0
 40
1.0
176
     0
 90
        2
176
     1
  1
strokes_ogs.tif
176
     1
290
     0
176
     1
 40
1.0
176
     1
 40
1.0
176
     1
  0
VISUALSTYLE
  5
611
102
{ACAD_REACTORS
330
601
102
}
330
601
100
AcDbVisualStyle
  2
ColorChange
 70
    16
177
     3
291
     1
 70
    58
 90
        2
176
     1
 90
        2
176
     1
 90
        3
176
     1
 90
        0
176
     1
 40
0.6
176
     1
 40
30.0
176
     1
 62
     8
420
  8421504
176
     1
 90
        1
176
     1
 90
        4
176
     1
 62
     7
176
     1
 62
   257
176
     1
 90
        1
176
     1
 90
        1
176
     1
 40
1.0
176
     1
 90
        8
176
     1
 62
     8
420
  8421504
176
     1
 40
1.0
176
     1
 90
        1
176
     1
 90
        6
176
     1
 90
        2
176
     1
 62
     7
176
     1
 90
        5
176
     1
 90
        0
176
     1
 90
        0
176
     1
290
     0
176
     1
 90
        1
176
     1
 40
0.0
176
     1
 90
        0
176
     1
290
     0
176
     1
290
     1
176
     1
290
     1
176
     1
290
     0
176
     1
290
     0
176
     1
290
     0
176
     1
290
     0
176
     1
290
     0
176
     1
290
     0
176
     1
 90
       50
176
     1
 40
0.0
176
     1
 40
1.0
176
     1
 90
        0
176
     1
 62
    18
420
        0
176
     1
 90
       50
176
     1
 90
        3
176
     1
 62
     5
420
      255
176
     1
290
     0
176
     1
 90
       50
176
     1
 90
       50
176
     1
 90
       50
176
     1
290
     0
176
     1
 90
       50
176
     1
 62
   256
176
     0
 40
1.0
176
     0
 90
        2
176
     1
  1
strokes_ogs.tif
176
     1
290
     0
176
     1
 40
1.0
176
     1
 40
1.0
176
     1
  0
VISUALSTYLE
  5
60B
102
{ACAD_REACTORS
330
601
102
}
330
601
100
AcDbVisualStyle
  2
Conceptual
 70
     9
177
     3
291
     0
 70
    58
 90
        3
176
     1
 90
        2
176
     1
 90
        0
176
     1
 90
        0
176
     1
 40
0.6
176
     1
 40
30.0
176
     1
 62
     7
420
 16777215
176
     1
 90
        2
176
     1
 90
        2
176
     1
 62
     7
176
     1
 62
   257
176
     1
 90
        1
176
     1
 90
        1
176
     1
 40
179.0
176
     1
 90
        8
176
     1
 62
     7
176
     1
 40
1.0
176
     1
 90
        1
176
     1
 90
        6
176
     1
 90
        2
176
     1
 62
     7
176
     1
 90
        3
176
     1
 90
        0
176
     1
 90
        0
176
     1
290
     0
176
     1
 90
        1
176
     1
 40
0.0
176
     1
 90
        0
176
     1
290
     0
176
     1
290
     1
176
     1
290
     1
176
     1
290
     0
176
     1
290
     0
176
     1
290
     0
176
     1
290
     0
176
     1
290
     0
176
     1
290
     0
176
     1
 90
       50
176
     1
 40
0.0
176
     1
 40
1.0
176
     1
 90
        0
176
     1
 62
    18
420
        0
176
     1
 90
       50
176
     1
 90
        3
176
     1
 62
     5
420
      255
176
     1
290
     0
176
     1
 90
       50
176
     1
 90
       50
176
     1
 90
       50
176
     1
290
     0
176
     1
 90
       50
176
     1
 62
   256
176
     0
 40
1.0
176
     0
 90
        2
176
     1
  1
strokes_ogs.tif
176
     1
290
     0
176
     1
 40
1.0
176
     1
 40
1.0
176
     1
  0
VISUALSTYLE
  5
60C
102
{ACAD_REACTORS
330
601
102
}
330
601
100
AcDbVisualStyle
  2
Dim
 70
    11
177
     3
291
     1
 70
    58
 90
        2
176
     1
 90
        2
176
     1
 90
        0
176
     1
 90
        0
176
     1
 40
0.6
176
     1
 40
30.0
176
     1
 62
     7
420
 16777215
176
     1
 90
        1
176
     1
 90
        4
176
     1
 62
     7
176
     1
 62
   257
176
     1
 90
        1
176
     1
 90
        1
176
     1
 40
1.0
176
     1
 90
        8
176
     1
 62
     7
176
     1
 40
1.0
176
     1
 90
        1
176
     1
 90
        6
176
     1
 90
        2
176
     1
 62
     7
176
     1
 90
        5
176
     1
 90
        0
176
     1
 90
        0
176
     1
290
     0
176
     1
 90
        1
176
     1
 40
-50.0
176
     1
 90
        0
176
     1
290
     0
176
     1
290
     1
176
     1
290
     1
176
     1
290
     0
176
     1
290
     0
176
     1
290
     0
176
     1
290
     0
176
     1
290
     0
176
     1
290
     0
176
     1
 90
       50
176
     1
 40
0.0
176
     1
 40
1.0
176
     1
 90
        0
176
     1
 62
    18
420
        0
176
     1
 90
       50
176
     1
 90
        3
176
     1
 62
     5
420
      255
176
     1
290
     0
176
     1
 90
       50
176
     1
 90
       50
176
     1
 90
       50
176
     1
290
     0
176
     1
 90
       50
176
     1
 62
   256
176
     0
 40
1.0
176
     0
 90
        2
176
     1
  1
strokes_ogs.tif
176
     1
290
     0
176
     1
 40
1.0
176
     1
 40
1.0
176
     1
  0
VISUALSTYLE
  5
614
102
{ACAD_REACTORS
330
601
102
}
330
601
100
AcDbVisualStyle
  2
EdgeColorOff
 70
    22
177
     3
291
     1
 70
    58
 90
        2
176
     0
 90
        2
176
     0
 90
        0
176
     0
 90
        0
176
     0
 40
0.6
176
     0
 40
30.0
176
     0
 62
     7
420
 16777215
176
     0
 90
        1
176
     0
 90
        4
176
     0
 62
     7
176
     0
 62
   257
176
     0
 90
        1
176
     0
 90
        1
176
     0
 40
1.0
176
     0
 90
        8
176
     2
 62
     7
176
     0
 40
1.0
176
     0
 90
        1
176
     0
 90
        6
176
     0
 90
        2
176
     0
 62
     7
176
     0
 90
        5
176
     0
 90
        0
176
     0
 90
        0
176
     0
290
     0
176
     0
 90
        1
176
     0
 40
0.0
176
     0
 90
        0
176
     0
290
     0
176
     0
290
     1
176
     0
290
     1
176
     0
290
     0
176
     0
290
     0
176
     0
290
     0
176
     0
290
     0
176
     0
290
     0
176
     0
290
     0
176
     0
 90
       50
176
     0
 40
0.0
176
     0
 40
1.0
176
     0
 90
        0
176
     0
 62
    18
420
        0
176
     0
 90
       50
176
     0
 90
        3
176
     0
 62
     5
420
      255
176
     0
290
     0
176
     0
 90
       50
176
     0
 90
       50
176
     0
 90
       50
176
     0
290
     0
176
     0
 90
       50
176
     0
 62
   256
176
     0
 40
1.0
176
     0
 90
        2
176
     0
  1
strokes_ogs.tif
176
     0
290
     0
176
     0
 40
1.0
176
     0
 40
1.0
176
     0
  0
VISUALSTYLE
  5
610
102
{ACAD_REACTORS
330
601
102
}
330
601
100
AcDbVisualStyle
  2
Facepattern
 70
    15
177
     3
291
     1
 70
    58
 90
        2
176
     1
 90
        2
176
     1
 90
        0
176
     1
 90
        0
176
     1
 40
0.6
176
     1
 40
30.0
176
     1
 62
     7
420
 16777215
176
     1
 90
        1
176
     1
 90
        4
176
     1
 62
     7
176
     1
 62
   257
176
     1
 90
        1
176
     1
 90
        1
176
     1
 40
1.0
176
     1
 90
        8
176
     1
 62
     7
176
     1
 40
1.0
176
     1
 90
        1
176
     1
 90
        6
176
     1
 90
        2
176
     1
 62
     7
176
     1
 90
        5
176
     1
 90
        0
176
     1
 90
        0
176
     1
290
     0
176
     1
 90
        1
176
     1
 40
0.0
176
     1
 90
        0
176
     1
290
     0
176
     1
290
     1
176
     1
290
     1
176
     1
290
     0
176
     1
290
     0
176
     1
290
     0
176
     1
290
     0
176
     1
290
     0
176
     1
290
     0
176
     1
 90
       50
176
     1
 40
0.0
176
     1
 40
1.0
176
     1
 90
        0
176
     1
 62
    18
420
        0
176
     1
 90
       50
176
     1
 90
        3
176
     1
 62
     5
420
      255
176
     1
290
     0
176
     1
 90
       50
176
     1
 90
       50
176
     1
 90
       50
176
     1
290
     0
176
     1
 90
       50
176
     1
 62
   256
176
     0
 40
1.0
176
     0
 90
        2
176
     1
  1
strokes_ogs.tif
176
     1
290
     0
176
     1
 40
1.0
176
     1
 40
1.0
176
     1
  0
VISUALSTYLE
  5
602
102
{ACAD_REACTORS
330
601
102
}
330
601
100
AcDbVisualStyle
  2
Flat
 70
     0
177
     3
291
     1
 70
    58
 90
        2
176
     1
 90
        1
176
     1
 90
        1
176
     1
 90
        2
176
     1
 40
0.6
176
     1
 40
30.0
176
     1
 62
     7
420
 16777215
176
     1
 90
        0
176
     1
 90
        0
176
     1
 62
     7
176
     1
 62
   257
176
     1
 90
        1
176
     1
 90
        1
176
     1
 40
1.0
176
     1
 90
        8
176
     1
 62
     7
176
     1
 40
1.0
176
     1
 90
        1
176
     1
 90
        6
176
     1
 90
        2
176
     1
 62
     7
176
     1
 90
        5
176
     1
 90
        0
176
     1
 90
        0
176
     1
290
     0
176
     1
 90
       13
176
     1
 40
0.0
176
     1
 90
        0
176
     1
290
     0
176
     1
290
     1
176
     1
290
     1
176
     1
290
     0
176
     1
290
     0
176
     1
290
     0
176
     1
290
     0
176
     1
290
     0
176
     1
290
     0
176
     1
 90
       50
176
     1
 40
0.0
176
     1
 40
1.0
176
     1
 90
        0
176
     1
 62
    18
420
        0
176
     1
 90
       50
176
     1
 90
        3
176
     1
 62
     5
420
      255
176
     1
290
     0
176
     1
 90
       50
176
     1
 90
       50
176
     1
 90
       50
176
     1
290
     0
176
     1
 90
       50
176
     1
 62
   256
176
     0
 40
1.0
176
     0
 90
        2
176
     1
  1
strokes_ogs.tif
176
     1
290
     0
176
     1
 40
1.0
176
     1
 40
1.0
176
     1
  0
VISUALSTYLE
  5
603
102
{ACAD_REACTORS
330
601
102
}
330
601
100
AcDbVisualStyle
  2
FlatWithEdges
 70
     1
177
     3
291
     1
 70
    58
 90
        2
176
     1
 90
        1
176
     1
 90
        1
176
     1
 90
        2
176
     1
 40
0.6
176
     1
 40
30.0
176
     1
 62
     7
420
 16777215
176
     1
 90
        1
176
     1
 90
        0
176
     1
 62
     7
176
     1
 62
   257
176
     1
 90
        1
176
     1
 90
        1
176
     1
 40
1.0
176
     1
 90
        0
176
     1
 62
   257
176
     1
 40
1.0
176
     1
 90
        1
176
     1
 90
        6
176
     1
 90
        2
176
     1
 62
     7
176
     1
 90
        5
176
     1
 90
        0
176
     1
 90
        0
176
     1
290
     0
176
     1
 90
       13
176
     1
 40
0.0
176
     1
 90
        0
176
     1
290
     0
176
     1
290
     1
176
     1
290
     1
176
     1
290
     0
176
     1
290
     0
176
     1
290
     0
176
     1
290
     0
176
     1
290
     0
176
     1
290
     0
176
     1
 90
       50
176
     1
 40
0.0
176
     1
 40
1.0
176
     1
 90
        0
176
     1
 62
    18
420
        0
176
     1
 90
       50
176
     1
 90
        3
176
     1
 62
     5
420
      255
176
     1
290
     0
176
     1
 90
       50
176
     1
 90
       50
176
     1
 90
       50
176
     1
290
     0
176
     1
 90
       50
176
     1
 62
   256
176
     0
 40
1.0
176
     0
 90
        2
176
     1
  1
strokes_ogs.tif
176
     1
290
     0
176
     1
 40
1.0
176
     1
 40
1.0
176
     1
  0
VISUALSTYLE
  5
604
102
{ACAD_REACTORS
330
601
102
}
330
601
100
AcDbVisualStyle
  2
Gouraud
 70
     2
177
     3
291
     1
 70
    58
 90
        2
176
     1
 90
        2
176
     1
 90
        1
176
     1
 90
        2
176
     1
 40
0.6
176
     1
 40
30.0
176
     1
 62
     7
420
 16777215
176
     1
 90
        0
176
     1
 90
        0
176
     1
 62
     7
176
     1
 62
   257
176
     1
 90
        1
176
     1
 90
        1
176
     1
 40
1.0
176
     1
 90
        0
176
     1
 62
     7
176
     1
 40
1.0
176
     1
 90
        1
176
     1
 90
        6
176
     1
 90
        2
176
     1
 62
     7
176
     1
 90
        5
176
     1
 90
        0
176
     1
 90
        0
176
     1
290
     0
176
     1
 90
       13
176
     1
 40
0.0
176
     1
 90
        0
176
     1
290
     0
176
     1
290
     1
176
     1
290
     1
176
     1
290
     0
176
     1
290
     0
176
     1
290
     0
176
     1
290
     0
176
     1
290
     0
176
     1
290
     0
176
     1
 90
       50
176
     1
 40
0.0
176
     1
 40
1.0
176
     1
 90
        0
176
     1
 62
    18
420
        0
176
     1
 90
       50
176
     1
 90
        3
176
     1
 62
     5
420
      255
176
     1
290
     0
176
     1
 90
       50
176
     1
 90
       50
176
     1
 90
       50
176
     1
290
     0
176
     1
 90
       50
176
     1
 62
   256
176
     0
 40
1.0
176
     0
 90
        2
176
     1
  1
strokes_ogs.tif
176
     1
290
     0
176
     1
 40
1.0
176
     1
 40
1.0
176
     1
  0
VISUALSTYLE
  5
605
102
{ACAD_REACTORS
330
601
102
}
330
601
100
AcDbVisualStyle
  2
GouraudWithEdges
 70
     3
177
     3
291
     1
 70
    58
 90
        2
176
     1
 90
        2
176
     1
 90
        1
176
     1
 90
        2
176
     1
 40
0.6
176
     1
 40
30.0
176
     1
 62
     7
420
 16777215
176
     1
 90
        1
176
     1
 90
        0
176
     1
 62
     7
176
     1
 62
   257
176
     1
 90
        1
176
     1
 90
        1
176
     1
 40
1.0
176
     1
 90
        0
176
     1
 62
   257
176
     1
 40
1.0
176
     1
 90
        1
176
     1
 90
        6
176
     1
 90
        2
176
     1
 62
     7
176
     1
 90
        5
176
     1
 90
        0
176
     1
 90
        0
176
     1
290
     0
176
     1
 90
       13
176
     1
 40
0.0
176
     1
 90
        0
176
     1
290
     0
176
     1
290
     1
176
     1
290
     1
176
     1
290
     0
176
     1
290
     0
176
     1
290
     0
176
     1
290
     0
176
     1
290
     0
176
     1
290
     0
176
     1
 90
       50
176
     1
 40
0.0
176
     1
 40
1.0
176
     1
 90
        0
176
     1
 62
    18
420
        0
176
     1
 90
       50
176
     1
 90
        3
176
     1
 62
     5
420
      255
176
     1
290
     0
176
     1
 90
       50
176
     1
 90
       50
176
     1
 90
       50
176
     1
290
     0
176
     1
 90
       50
176
     1
 62
   256
176
     0
 40
1.0
176
     0
 90
        2
176
     1
  1
strokes_ogs.tif
176
     1
290
     0
176
     1
 40
1.0
176
     1
 40
1.0
176
     1
  0
VISUALSTYLE
  5
608
102
{ACAD_REACTORS
330
601
102
}
330
601
100
AcDbVisualStyle
  2
Hidden
 70
     6
177
     3
291
     0
 70
    58
 90
        1
176
     1
 90
        2
176
     1
 90
        2
176
     1
 90
        0
176
     1
 40
0.6
176
     1
 40
30.0
176
     1
 62
     7
420
 16777215
176
     1
 90
        2
176
     1
 90
        2
176
     1
 62
     7
176
     1
 62
   257
176
     1
 90
        2
176
     1
 90
        1
176
     1
 40
40.0
176
     1
 90
        0
176
     1
 62
   257
176
     1
 40
1.0
176
     1
 90
        1
176
     1
 90
        6
176
     1
 90
        2
176
     1
 62
     7
176
     1
 90
        3
176
     1
 90
        0
176
     1
 90
        0
176
     1
290
     0
176
     1
 90
        1
176
     1
 40
0.0
176
     1
 90
        0
176
     1
290
     0
176
     1
290
     1
176
     1
290
     1
176
     1
290
     0
176
     1
290
     0
176
     1
290
     0
176
     1
290
     0
176
     1
290
     0
176
     1
290
     0
176
     1
 90
       50
176
     1
 40
0.0
176
     1
 40
1.0
176
     1
 90
        0
176
     1
 62
    18
420
        0
176
     1
 90
       50
176
     1
 90
        3
176
     1
 62
     5
420
      255
176
     1
290
     0
176
     1
 90
       50
176
     1
 90
       50
176
     1
 90
       50
176
     1
290
     0
176
     1
 90
       50
176
     1
 62
   256
176
     0
 40
1.0
176
     0
 90
        2
176
     1
  1
strokes_ogs.tif
176
     1
290
     0
176
     1
 40
1.0
176
     1
 40
1.0
176
     1
  0
VISUALSTYLE
  5
612
102
{ACAD_REACTORS
330
601
102
}
330
601
100
AcDbVisualStyle
  2
JitterOff
 70
    20
177
     3
291
     1
 70
    58
 90
        2
176
     0
 90
        2
176
     0
 90
        0
176
     0
 90
        0
176
     0
 40
0.6
176
     0
 40
30.0
176
     0
 62
     7
420
 16777215
176
     0
 90
        1
176
     0
 90
        4
176
     0
 62
     7
176
     0
 62
   257
176
     0
 90
        1
176
     0
 90
        1
176
     0
 40
1.0
176
     0
 90
       10
176
     2
 62
     7
176
     0
 40
1.0
176
     0
 90
        1
176
     0
 90
        6
176
     0
 90
        2
176
     0
 62
     7
176
     0
 90
        5
176
     0
 90
        0
176
     0
 90
        0
176
     0
290
     0
176
     0
 90
        1
176
     0
 40
0.0
176
     0
 90
        0
176
     0
290
     0
176
     0
290
     1
176
     0
290
     1
176
     0
290
     0
176
     0
290
     0
176
     0
290
     0
176
     0
290
     0
176
     0
290
     0
176
     0
290
     0
176
     0
 90
       50
176
     0
 40
0.0
176
     0
 40
1.0
176
     0
 90
        0
176
     0
 62
    18
420
        0
176
     0
 90
       50
176
     0
 90
        3
176
     0
 62
     5
420
      255
176
     0
290
     0
176
     0
 90
       50
176
     0
 90
       50
176
     0
 90
       50
176
     0
290
     0
176
     0
 90
       50
176
     0
 62
   256
176
     0
 40
1.0
176
     0
 90
        2
176
     0
  1
strokes_ogs.tif
176
     0
290
     0
176
     0
 40
1.0
176
     0
 40
1.0
176
     0
  0
VISUALSTYLE
  5
60F
102
{ACAD_REACTORS
330
601
102
}
330
601
100
AcDbVisualStyle
  2
Linepattern
 70
    14
177
     3
291
     1
 70
    58
 90
        2
176
     1
 90
        2
176
     1
 90
        0
176
     1
 90
        0
176
     1
 40
0.6
176
     1
 40
30.0
176
     1
 62
     7
420
 16777215
176
     1
 90
        1
176
     1
 90
        4
176
     1
 62
     7
176
     1
 62
   257
176
     1
 90
        7
176
     1
 90
        7
176
     1
 40
1.0
176
     1
 90
        8
176
     1
 62
     7
176
     1
 40
1.0
176
     1
 90
        1
176
     1
 90
        6
176
     1
 90
        2
176
     1
 62
     7
176
     1
 90
        5
176
     1
 90
        0
176
     1
 90
        0
176
     1
290
     0
176
     1
 90
        1
176
     1
 40
0.0
176
     1
 90
        0
176
     1
290
     0
176
     1
290
     1
176
     1
290
     1
176
     1
290
     0
176
     1
290
     0
176
     1
290
     0
176
     1
290
     0
176
     1
290
     0
176
     1
290
     0
176
     1
 90
       50
176
     1
 40
0.0
176
     1
 40
1.0
176
     1
 90
        0
176
     1
 62
    18
420
        0
176
     1
 90
       50
176
     1
 90
        3
176
     1
 62
     5
420
      255
176
     1
290
     0
176
     1
 90
       50
176
     1
 90
       50
176
     1
 90
       50
176
     1
290
     0
176
     1
 90
       50
176
     1
 62
   256
176
     0
 40
1.0
176
     0
 90
        2
176
     1
  1
strokes_ogs.tif
176
     1
290
     0
176
     1
 40
1.0
176
     1
 40
1.0
176
     1
  0
VISUALSTYLE
  5
613
102
{ACAD_REACTORS
330
601
102
}
330
601
100
AcDbVisualStyle
  2
OverhangOff
 70
    21
177
     3
291
     1
 70
    58
 90
        2
176
     0
 90
        2
176
     0
 90
        0
176
     0
 90
        0
176
     0
 40
0.6
176
     0
 40
30.0
176
     0
 62
     7
420
 16777215
176
     0
 90
        1
176
     0
 90
        4
176
     0
 62
     7
176
     0
 62
   257
176
     0
 90
        1
176
     0
 90
        1
176
     0
 40
1.0
176
     0
 90
        9
176
     2
 62
     7
176
     0
 40
1.0
176
     0
 90
        1
176
     0
 90
        6
176
     0
 90
        2
176
     0
 62
     7
176
     0
 90
        5
176
     0
 90
        0
176
     0
 90
        0
176
     0
290
     0
176
     0
 90
        1
176
     0
 40
0.0
176
     0
 90
        0
176
     0
290
     0
176
     0
290
     1
176
     0
290
     1
176
     0
290
     0
176
     0
290
     0
176
     0
290
     0
176
     0
290
     0
176
     0
290
     0
176
     0
290
     0
176
     0
 90
       50
176
     0
 40
0.0
176
     0
 40
1.0
176
     0
 90
        0
176
     0
 62
    18
420
        0
176
     0
 90
       50
176
     0
 90
        3
176
     0
 62
     5
420
      255
176
     0
290
     0
176
     0
 90
       50
176
     0
 90
       50
176
     0
 90
       50
176
     0
290
     0
176
     0
 90
       50
176
     0
 62
   256
176
     0
 40
1.0
176
     0
 90
        2
176
     0
  1
strokes_ogs.tif
176
     0
290
     0
176
     0
 40
1.0
176
     0
 40
1.0
176
     0
  0
VISUALSTYLE
  5
60A
102
{ACAD_REACTORS
330
601
102
}
330
601
100
AcDbVisualStyle
  2
Realistic
 70
     8
177
     3
291
     0
 70
    58
 90
        2
176
     1
 90
        3
176
     1
 90
        0
176
     1
 90
        2
176
     1
 40
0.6
176
     1
 40
30.0
176
     1
 62
     7
420
 16777215
176
     1
 90
        0
176
     1
 90
        0
176
     1
 62
     7
176
     1
 62
   257
176
     1
 90
        1
176
     1
 90
        1
176
     1
 40
1.0
176
     1
 90
        8
176
     1
 62
   257
176
     1
 40
1.0
176
     1
 90
        1
176
     1
 90
        6
176
     1
 90
        2
176
     1
 62
     7
176
     1
 90
        3
176
     1
 90
        0
176
     1
 90
        0
176
     1
290
     0
176
     1
 90
       13
176
     1
 40
0.0
176
     1
 90
        0
176
     1
290
     0
176
     1
290
     1
176
     1
290
     1
176
     1
290
     0
176
     1
290
     0
176
     1
290
     0
176
     1
290
     0
176
     1
290
     0
176
     1
290
     0
176
     1
 90
       50
176
     1
 40
0.0
176
     1
 40
1.0
176
     1
 90
        0
176
     1
 62
    18
420
        0
176
     1
 90
       50
176
     1
 90
        3
176
     1
 62
     5
420
      255
176
     1
290
     0
176
     1
 90
       50
176
     1
 90
       50
176
     1
 90
       50
176
     1
290
     0
176
     1
 90
       50
176
     1
 62
   256
176
     0
 40
1.0
176
     0
 90
        2
176
     1
  1
strokes_ogs.tif
176
     1
290
     0
176
     1
 40
1.0
176
     1
 40
1.0
176
     1
  0
VISUALSTYLE
  5
619
102
{ACAD_REACTORS
330
601
102
}
330
601
100
AcDbVisualStyle
  2
Shaded
 70
    27
177
     3
291
     0
 70
    58
 90
        2
176
     1
 90
        2
176
     1
 90
        1
176
     1
 90
        2
176
     1
 40
0.6
176
     1
 40
30.0
176
     1
 62
     7
420
 16777215
176
     1
 90
        0
176
     1
 90
        4
176
     1
 62
     7
176
     1
 62
   257
176
     1
 90
        1
176
     1
 90
        1
176
     1
 40
1.0
176
     1
 90
        8
176
     1
 62
   257
176
     1
 40
1.0
176
     1
 90
        1
176
     1
 90
        6
176
     1
 90
        2
176
     1
 62
     8
420
  7895160
176
     1
 90
        3
176
     1
 90
        0
176
     1
 90
        0
176
     1
290
     0
176
     1
 90
        5
176
     1
 40
0.0
176
     1
 90
        0
176
     1
290
     0
176
     1
290
     1
176
     1
290
     1
176
     1
290
     0
176
     1
290
     0
176
     1
290
     0
176
     1
290
     0
176
     1
290
     0
176
     1
290
     0
176
     1
 90
       50
176
     1
 40
0.0
176
     1
 40
1.0
176
     1
 90
        0
176
     1
 62
    18
420
        0
176
     1
 90
       50
176
     1
 90
        3
176
     1
 62
     5
420
      255
176
     1
290
     0
176
     1
 90
       50
176
     1
 90
       50
176
     1
 90
       50
176
     1
290
     0
176
     1
 90
       50
176
     1
 62
   256
176
     0
 40
1.0
176
     0
 90
        2
176
     1
  1
strokes_ogs.tif
176
     1
290
     0
176
     1
 40
1.0
176
     1
 40
1.0
176
     1
  0
VISUALSTYLE
  5
618
102
{ACAD_REACTORS
330
601
102
}
330
601
100
AcDbVisualStyle
  2
Shaded with edges
 70
    26
177
     3
291
     0
 70
    58
 90
        2
176
     1
 90
        2
176
     1
 90
        1
176
     1
 90
        2
176
     1
 40
0.6
176
     1
 40
30.0
176
     1
 62
     7
420
 16777215
176
     1
 90
        1
176
     1
 90
       10
176
     1
 62
     7
176
     1
 62
   257
176
     1
 90
        2
176
     1
 90
        1
176
     1
 40
1.0
176
     1
 90
        8
176
     1
 62
   257
176
     1
 40
1.0
176
     1
 90
        1
176
     1
 90
        6
176
     1
 90
        2
176
     1
 62
     7
176
     1
 90
        3
176
     1
 90
        0
176
     1
 90
        0
176
     1
290
     0
176
     1
 90
        5
176
     1
 40
0.0
176
     1
 90
        0
176
     1
290
     0
176
     1
290
     1
176
     1
290
     1
176
     1
290
     0
176
     1
290
     0
176
     1
290
     0
176
     1
290
     0
176
     1
290
     0
176
     1
290
     0
176
     1
 90
       50
176
     1
 40
0.0
176
     1
 40
1.0
176
     1
 90
        0
176
     1
 62
    18
420
        0
176
     1
 90
       50
176
     1
 90
        3
176
     1
 62
     5
420
      255
176
     1
290
     0
176
     1
 90
       50
176
     1
 90
       50
176
     1
 90
       50
176
     1
290
     0
176
     1
 90
       50
176
     1
 62
   256
176
     0
 40
1.0
176
     0
 90
        2
176
     1
  1
strokes_ogs.tif
176
     1
290
     0
176
     1
 40
1.0
176
     1
 40
1.0
176
     1
  0
VISUALSTYLE
  5
615
102
{ACAD_REACTORS
330
601
102
}
330
601
100
AcDbVisualStyle
  2
Shades of Gray
 70
    23
177
     3
291
     0
 70
    58
 90
        2
176
     1
 90
        2
176
     1
 90
        3
176
     1
 90
        0
176
     1
 40
0.6
176
     1
 40
30.0
176
     1
 62
     7
420
 16777215
176
     1
 90
        2
176
     1
 90
        2
176
     1
 62
     7
176
     1
 62
     7
176
     1
 90
        1
176
     1
 90
        1
176
     1
 40
40.0
176
     1
 90
        8
176
     1
 62
     7
176
     1
 40
1.0
176
     1
 90
        1
176
     1
 90
        6
176
     1
 90
        2
176
     1
 62
     7
176
     1
 90
        3
176
     1
 90
        0
176
     1
 90
        0
176
     1
290
     0
176
     1
 90
        1
176
     1
 40
0.0
176
     1
 90
        0
176
     1
290
     0
176
     1
290
     1
176
     1
290
     1
176
     1
290
     0
176
     1
290
     0
176
     1
290
     0
176
     1
290
     0
176
     1
290
     0
176
     1
290
     0
176
     1
 90
       50
176
     1
 40
0.0
176
     1
 40
1.0
176
     1
 90
        0
176
     1
 62
    18
420
        0
176
     1
 90
       50
176
     1
 90
        3
176
     1
 62
     5
420
      255
176
     1
290
     0
176
     1
 90
       50
176
     1
 90
       50
176
     1
 90
       50
176
     1
290
     0
176
     1
 90
       50
176
     1
 62
   256
176
     0
 40
1.0
176
     0
 90
        2
176
     1
  1
strokes_ogs.tif
176
     1
290
     0
176
     1
 40
1.0
176
     1
 40
1.0
176
     1
  0
VISUALSTYLE
  5
616
102
{ACAD_REACTORS
330
601
102
}
330
601
100
AcDbVisualStyle
  2
Sketchy
 70
    24
177
     3
291
     0
 70
    58
 90
        1
176
     1
 90
        2
176
     1
 90
        2
176
     1
 90
        0
176
     1
 40
0.6
176
     1
 40
30.0
176
     1
 62
     7
420
 16777215
176
     1
 90
        2
176
     1
 90
        2
176
     1
 62
     7
176
     1
 62
     7
176
     1
 90
        1
176
     1
 90
        1
176
     1
 40
40.0
176
     1
 90
       11
176
     1
 62
     7
176
     1
 40
1.0
176
     1
 90
        1
176
     1
 90
        6
176
     1
 90
        2
176
     1
 62
     7
176
     1
 90
        6
176
     1
 90
        0
176
     1
 90
        0
176
     1
290
     0
176
     1
 90
        1
176
     1
 40
0.0
176
     1
 90
        0
176
     1
290
     0
176
     1
290
     1
176
     1
290
     1
176
     1
290
     0
176
     1
290
     0
176
     1
290
     0
176
     1
290
     0
176
     1
290
     0
176
     1
290
     0
176
     1
 90
       50
176
     1
 40
0.0
176
     1
 40
1.0
176
     1
 90
        0
176
     1
 62
    18
420
        0
176
     1
 90
       50
176
     1
 90
        3
176
     1
 62
     5
420
      255
176
     1
290
     0
176
     1
 90
       50
176
     1
 90
       50
176
     1
 90
       50
176
     1
290
     0
176
     1
 90
       50
176
     1
 62
   256
176
     0
 40
1.0
176
     0
 90
        2
176
     1
  1
strokes_ogs.tif
176
     1
290
     0
176
     1
 40
1.0
176
     1
 40
1.0
176
     1
  0
VISUALSTYLE
  5
60E
102
{ACAD_REACTORS
330
601
102
}
330
601
100
AcDbVisualStyle
  2
Thicken
 70
    13
177
     3
291
     1
 70
    58
 90
        2
176
     1
 90
        2
176
     1
 90
        0
176
     1
 90
        0
176
     1
 40
0.6
176
     1
 40
30.0
176
     1
 62
     7
420
 16777215
176
     1
 90
        1
176
     1
 90
        4
176
     1
 62
     7
176
     1
 62
   257
176
     1
 90
        1
176
     1
 90
        1
176
     1
 40
1.0
176
     1
 90
       12
176
     1
 62
     7
176
     1
 40
1.0
176
     1
 90
        1
176
     1
 90
        6
176
     1
 90
        2
176
     1
 62
     7
176
     1
 90
        5
176
     1
 90
        0
176
     1
 90
        0
176
     1
290
     0
176
     1
 90
        1
176
     1
 40
0.0
176
     1
 90
        0
176
     1
290
     0
176
     1
290
     1
176
     1
290
     1
176
     1
290
     0
176
     1
290
     0
176
     1
290
     0
176
     1
290
     0
176
     1
290
     0
176
     1
290
     0
176
     1
 90
       50
176
     1
 40
0.0
176
     1
 40
1.0
176
     1
 90
        0
176
     1
 62
    18
420
        0
176
     1
 90
       50
176
     1
 90
        3
176
     1
 62
     5
420
      255
176
     1
290
     0
176
     1
 90
       50
176
     1
 90
       50
176
     1
 90
       50
176
     1
290
     0
176
     1
 90
       50
176
     1
 62
   256
176
     0
 40
1.0
176
     0
 90
        2
176
     1
  1
strokes_ogs.tif
176
     1
290
     0
176
     1
 40
1.0
176
     1
 40
1.0
176
     1
  0
VISUALSTYLE
  5
607
102
{ACAD_REACTORS
330
601
102
}
330
601
100
AcDbVisualStyle
  2
Wireframe
 70
     5
177
     3
291
     0
 70
    58
 90
        0
176
     1
 90
        2
176
     1
 90
        0
176
     1
 90
        0
176
     1
 40
0.6
176
     1
 40
30.0
176
     1
 62
     7
420
 16777215
176
     1
 90
        1
176
     1
 90
        4
176
     1
 62
     7
176
     1
 62
   257
176
     1
 90
        1
176
     1
 90
        1
176
     1
 40
1.0
176
     1
 90
        0
176
     1
 62
   257
176
     1
 40
1.0
176
     1
 90
        1
176
     1
 90
        6
176
     1
 90
        2
176
     1
 62
     7
176
     1
 90
        3
176
     1
 90
        0
176
     1
 90
        0
176
     1
290
     0
176
     1
 90
        1
176
     1
 40
0.0
176
     1
 90
        0
176
     1
290
     0
176
     1
290
     1
176
     1
290
     1
176
     1
290
     0
176
     1
290
     0
176
     1
290
     0
176
     1
290
     0
176
     1
290
     0
176
     1
290
     0
176
     1
 90
       50
176
     1
 40
0.0
176
     1
 40
1.0
176
     1
 90
        0
176
     1
 62
    18
420
        0
176
     1
 90
       50
176
     1
 90
        3
176
     1
 62
     5
420
      255
176
     1
290
     0
176
     1
 90
       50
176
     1
 90
       50
176
     1
 90
       50
176
     1
290
     0
176
     1
 90
       50
176
     1
 62
   256
176
     0
 40
1.0
176
     0
 90
        2
176
     1
  1
strokes_ogs.tif
176
     1
290
     0
176
     1
 40
1.0
176
     1
 40
1.0
176
     1
  0
VISUALSTYLE
  5
617
102
{ACAD_REACTORS
330
601
102
}
330
601
100
AcDbVisualStyle
  2
X-Ray
 70
    25
177
     3
291
     0
 70
    58
 90
        2
176
     1
 90
        2
176
     1
 90
        1
176
     1
 90
        1
176
     1
 40
0.5
176
     1
 40
30.0
176
     1
 62
     7
420
 16777215
176
     1
 90
        1
176
     1
 90
        0
176
     1
 62
     7
176
     1
 62
   257
176
     1
 90
        1
176
     1
 90
        1
176
     1
 40
1.0
176
     1
 90
        8
176
     1
 62
     7
176
     1
 40
1.0
176
     1
 90
        1
176
     1
 90
        6
176
     1
 90
        2
176
     1
 62
     7
176
     1
 90
        3
176
     1
 90
        0
176
     1
 90
        0
176
     1
290
     0
176
     1
 90
       13
176
     1
 40
0.0
176
     1
 90
        0
176
     1
290
     0
176
     1
290
     1
176
     1
290
     1
176
     1
290
     0
176
     1
290
     0
176
     1
290
     0
176
     1
290
     0
176
     1
290
     0
176
     1
290
     0
176
     1
 90
       50
176
     1
 40
0.0
176
     1
 40
1.0
176
     1
 90
        0
176
     1
 62
    18
420
        0
176
     1
 90
       50
176
     1
 90
        3
176
     1
 62
     5
420
      255
176
     1
290
     0
176
     1
 90
       50
176
     1
 90
       50
176
     1
 90
       50
176
     1
290
     0
176
     1
 90
       50
176
     1
 62
   256
176
     0
 40
1.0
176
     0
 90
        2
176
     1
  1
strokes_ogs.tif
176
     1
290
     0
176
     1
 40
1.0
176
     1
 40
1.0
176
     1
  0
DICTIONARYVAR
  5
630
102
{ACAD_REACTORS
330
62F
102
}
330
62F
100
DictionaryVariables
280
     0
  1
1:1
  0
DICTIONARYVAR
  5
634
102
{ACAD_REACTORS
330
62F
102
}
330
62F
100
DictionaryVariables
280
     0
  1
Standard
  0
CSACDOCUMENTOPTIONS
  5
625
102
{ACAD_REACTORS
330
624
102
}
330
624
  0
XRECORD
  5
629
102
{ACAD_REACTORS
330
620
102
}
330
620
100
AcDbXrecord
280
     1
300
MC_VERSION_DATA
 90
       95
310
0600000002000000570000001C000000E404000000000000000000007801936764E5D8CF7A8393818115C460606066E0646662626666706006F214793899F8DE3171E725E6E53B3BBA2878E6951050AF75FEFFFFFF520032DE0F3057000000
  0
XRECORD
  5
621
102
{ACAD_REACTORS
330
620
102
}
330
620
100
AcDbXrecord
280
     1
300
MCS_DOCUMENT_ID
 90
       60
310
0600000002000000150000001C000000E404000000000000000000007801E3658FDDF7C26593AEE75C3F56B1FF3E6ADBFF0301005E5D0AAE15000000
  0
XRECORD
  5
627
102
{ACAD_REACTORS
330
620
102
}
330
620
100
AcDbXrecord
280
     1
300
MCS_PARAMS_DATA
 90
     3313
310
0600000002000000F64B00001C000000E404000000000000000000007801C55C5B905C45199EE99EBDCCE67E5DA218172C303B91307B4B8C459531245054850D55591F78B236BB49B9BAC9E6B22A082A9655BE5865596569A965F9209288CF16503EC8834088C10B092404211702988430422E9084CDAEFFD7A7FBF4DFA7CF
310
D9D99D9D39930798FF3F7DCEF7DFFAFBBBFBCC6CDBFC46297252EECB48F9CDF5ED5234493921A5206D76815820B252E4F3225F128D7D5F59BF69E3162948D9A2D485B3131313747328BF06593E960915079422437734AA3BDAA5CCD053F5ED4FD2557D257BAB94DF007A03479F859BB2B22193C9108EC1CDCADC0464C27506
310
28605703E48886E0B986E10F03BF91E33707F8E3140E7A9091C8268236920C1C662240B94888A1C8E07600AE99C32D5131CA8B3925D172EFE62D7D6D9DABBA8ADDD6F17CE16D13F0457AE8AC9268DE32DABF73B07FCFA013F9BF8491D7C17E2550D8E8FFCA8DFE4E98B3929B331718B291824FFF72EB941D9E8E2211D5A93C
310
784A44C557923911258BD0C8640531AEEC61A924855B11378280384364A422680C0A928DB9C10CD89D581114199665B722B26E4590C82B0222AB08FAA8A60626C028E0044F81BA246F5360E167F2D27C56A10E05C058C13C59DEC6207679103AFC5DEADF992F2B284F67B31C8EE359B64A9665A62453228F64269D98455E3B
310
A4B35817F7EC92C86FB8EFFE8DBD5BEEDBDCAB0CD3B5FC8E99065A7E55D536E39DE7826237F1C8BBBCB3CFADFC93302087C80397EE69C2FF69CA32234F0763E41851010DA578E8294D435524988818E84710A7B2643B4F7C034F6CE5C9368F203BE8094C6268541D70D35EE4B585DAE170F4942EB8D2D422560A9917F34B62
310
CE86919D9F1F6DDBB36DD770FFC0B6BC682E898607BEB5737424F8D83B323AF07529CFC0B69BB96D9FD3CFF9B410ED79B1A42416161FEA29AEEDEEEC5ADF532C76DEF3C5AEEEB5CAECF97A60330D2C1C3579EAD0DA7621F20269BD6768746FDBF0D0DE51F3B0EE356B3ABBD6F474F7740D76770EACED08FCFC92BEAF13F701
310
B5AF7FEBF0B6B691ED6D7D23C3DBF6F4EF840FDA9AD583C58E81E240FFEAADDD5BD70EAC0E669D2A25F27FB610851F9335859F059541B9E5971EC7A5A7E83F2CE53DB9A4040555A2661A4DDBF2C560B2E54E7D5483931EF871F7C88E5DFDA3435B878687461F6EDB313248FE3596847C70DBDEBC682809D13B22E56A5856E4
310
E9998738519B6E2A89DCE6EDDBDB542AF4E4380F8F61A4965F57116093E5A052A06AF588670205D9A715FB49B140D81A90855F902680EBB8B3A3187EEA96F2B224E392BAF898328CB1AD47DA34C1601A1B421AD816D190715CC3F276A5DE067C546F03AED6DB808FEB6DC0B57A1BB00853B49EB3E0937A47E07ABD0D188301
310
71CB797197D3603B1D06BFCB6DB024827C0C834324E60945463B3712E196397079076E990B47228783C8E09631B8F129C211385B3E540C97413DC70673C524DEAD70BD23917B079179B782793791AE77D944EFDCDC5529988B13E1069D6092C472A7F777A6F648E4C184C88239C8822913E16AE29D48176E29E0727C316496
310
EF2A967C95165E504B0C2B218EEE82DD5C63513CD614C5091F6D6FA7551865CC5C5030A1E0A3E84BEC86CFD04EC5DD01AA74CBDB05AB8C403295A124BB2908C4B032B4682A032283FB103E391B4E03172C7199C4E0F88E871E8855ADA1482D3238FA1846E0B807A77785BFF935FE1D74369F5647D0D171CA5F4F09337C2559
310
105132935A503D6DBC7A94B54D2B6DF1E0339960F436A97441791E5EC104D40283580888C4FDED577B1FD8B4B9AF6FE30605D8AAD7F1F34A62F6DD5BBEC62E92057A31FEA25A9DB3F5FBD3C1729D9CD723B0BF0DE8402BB05A67160DDE4416E59079C0D9EAA575B7321F67115FC018C76AB5B3A33D06B68CBD9BFBDC93C073
310
800CC384FD360C544F539B6F02B1820953BE9D01DE01C0D85A6C50369A5AC4065C7760793B965800321749E4B50891C0C2AB0CAE9808178444974C70F875952A9381563C01BE9D08EAFA481283ABD8C7EF7870DAABE068E68833DFAC8EA0A3E3F87C0B07AA507B2311F0889285BDC333294C4E2DB27C67BA70ABD2857B688A
310
70552AA7873DB8489E55063D5D2DCBE9BB9E49F1E554A5083C922EDCA3E9C27D2F5DB8EF7B705EE9D87E1E920E88313AAE6AECF4FBD668D3D30DB4E51ADA9BEDB0D7AFCEB4DDED85F7C4ECF6551B3BCE2AFF6E835E49458EC94883D6E73C45753FAE614C3C0A0362777435D915EC025C33F7578776011DE6F3D066954C59D6
310
D76F86AC9CD58A53F4122CF0552BAE070AEA3B5AF15752304F1F47569D50AB71F41A31FA5A51C904CD43C6B0F51D2ACEFC112ACC4CC1B0FF086CE7AD5A4D096A005126387AAD451EE384D9C035A925859E39C1AA865EE9A9B8DA21CEE289167F7CF1D4C4BC7A125EC5AED5D8BB0B5A9D9144D134CFA71BF85A8D44BE568348
310
F6AA55A2F3CAEA4F6982FD21118CC249D3CBF852A586F244BA70FBD285DB9F085793EDE56E143F0AD06C6B4CB2242BDD3DD1419166C2865E81F9CE1648F3CBD84597B22E28992A3DDCE24C77F3F311A01C8A722828EC3CF15F7D987933F818F8E59BC138E5CD4CE8AC24C94E68BA32F5C3CBAB808B6B06B9936E642F9F804C
310
903AF2F3709D37832318A078E4B37AEBDCFAA66859945B9EBB25776BAE2DD3995995E9CA1433DDFA4DAC7ECE6FE93696E96BB06712968ED2661884A9EE40230F60D0D73DE8C858453B9E8E4212D5A9B0784A762662599FEDD18C9299F4094C728A91F536658E91CDA6DFC8E89F363B15B4CB31404FD2581CF722BBF229B517
310
430944E56AB2E2A8E3461950730F2B7ECA7BC570E389706E8BA9D241C744225C40C29385944F707279EA277D998065D9EAD604B1263E66D38513E9C2490F4EE7CC6E8AA89C3D9DA588701CA708AB6414C194931EE3FC0D4515D71A4FBFE712F8CB4A26532A6E8DCF01CA61A3745BE3F3C09F6E6B442F0CD7BAD36A8D2F002E
310
AE359E3BE646F6B8926D6BBC0CD9926FBEF08C5220B9BAE91D0E14769FF44B52301E3C00E8FA74C117BD24F396E22C7F1005F2DA2902EB76053DE720B0D3EE397F2F036AE8B24A3DE750225C4DF8F8A544B81AF69C7F2482D6C4C77F067093EF36FE359541FF8E0E8A50399BA22F63681CEF0EBDEBB2C3834A9E09EF1E0654
310
1D79F708F0A7CBBB956F495E015C1CEFEE3EEC46B65FC996771F856C09285F58A7148C77872F6104D6DC9A8897D30896D457015D1FDE3DEA25B91CEFF2EBD6EB0A68F718A0D3A6DDD7CA805699768F27C2D584925E4F84AB9476A39B03E744D09CD6610FF59F44E89A78FA46BA70DDDE0ADC144A4DBCEBF1E0221D416DC23D
310
1D715254A766A8A7AC60C1FF26021ED7783E889CD89C52F24C1ACF0940D5B1F19C047E7A8DE714E0E21ACFD5436EE339AB64DB78E44B91C6730003ECCB897CE1D28548E3798246B0C6731AD0536D3CB3E90740046E0B5FD5161351555C247A084506FA9607AAEBD39C44F1E2B63A5BDCA18E17B755B2E2664A322602C34C3A
310
0393625B51C09BC60D77315EF1E1C8DB80730A9C37D5B8CD0EBF3EA3A6FB4EA2A7C18B1B2746D53A5F7BB70C687C78291FE10E3A386EE3054657F9CB297E9CF703B0E71DFC4DA3397B4068C3CF33A1A81F02C2C920DB8E7ABF712005813923946BAE06DE453454B45CC32AF6311810C751E3F85A979E7874424F9299B34AB2
310
210DC430A45A3473162283FB2F3218C7FE178FBB1CF59692CDAD957C0DECAC3739580882F7E26636C4FC0874E66F42CE013F2EB274A4C323CBB88082C5B980AE4CFD4DC879C0C5B1FFF5E7DDC89E57324556799F2F34BC006EC70CD18A8318C0D9FF0AB6807CDBB19F46B0A4BE07E8B4D9FF8207EA504E3D7E65FA3E4C7226
310
B329B0E8D703AAFEBAA304E869379E693123CD68457958A4FF2F11AE86ECFF4119D078F6E7138AD87FF2370F86D6E1E38789702D76FED2134932CCA824CB8C811832A3160D33426421BD980847AF6F0C11D33DEECB1CFE9B7175D1F926045DE5BD8DBFBDBE94081764D0049324E6DDB40A8607F372225C4D16463974B5B836
310
F393232E193EA2E499B49986C93A780A6DA631A981D7A6CD34012EAECDFCFC5937B23F52B26D33BF83CCDBCC56A5C0ECD07DE7A7A7226D661D8D6033A419D0536D33E07F56B8C4CA7C0D48229F9610695A461A0883CE7B494E8DD95B004DF38E8247AB09FE45AC1A52EDAC32A0861DD8DA85D8A76276989D08579353913989
310
700119397510D9BB4CAB9DF096393711B4263ECE4B176E7EBA700B3C389DB3F0B5335AA6A7234288EA142D784A9083AFB414616018456CF24C3293C4CD2F49D3E5A5F0410CEE7E0F2E6A6FEA11580893E29AEE529C2FC11C4DF48D4AA628982DB44A422820F8563073C8F989CF2240392BED74F7768B819FDEDE6E09E0E29A
310
EE72FA030B3CB273954C91D5916E87CC9BEEFB4FAB1E6B73B10CFB6CBEB73B4423589D2D05F4CC9AAE2E4C768646F0614DBB4BD40606DDEA2539B5A67B13A0D36EBACBCA809A9055A7E9E24B8E0D79912B896C91FE0C1655C17843E129FA335B3277F4E8510807513CB9CC44868E210AF7FE19028691B0917E39482B125CF8
310
D4FF01F0B312DAF64B0000
  0
TABLECONTENT
  5
62B
330
62E
100
AcDbLinkedData
  1

300

100
AcDbLinkedTableData
 90
        5
300
COLUMN
  1
LINKEDTABLEDATACOLUMN_BEGIN
300

 91
        0
301
CUSTOMDATA
  1
DATAMAP_BEGIN
 90
        0
309
DATAMAP_END
309
LINKEDTABLEDATACOLUMN_END
  1
FORMATTEDTABLEDATACOLUMN_BEGIN
300
COLUMNTABLEFORMAT
  1
TABLEFORMAT_BEGIN
 90
        3
170
     0
309
TABLEFORMAT_END
309
FORMATTEDTABLEDATACOLUMN_END
  1
TABLECOLUMN_BEGIN
 90
        0
 40
10.0
309
TABLECOLUMN_END
300
COLUMN
  1
LINKEDTABLEDATACOLUMN_BEGIN
300

 91
        0
301
CUSTOMDATA
  1
DATAMAP_BEGIN
 90
        0
309
DATAMAP_END
309
LINKEDTABLEDATACOLUMN_END
  1
FORMATTEDTABLEDATACOLUMN_BEGIN
300
COLUMNTABLEFORMAT
  1
TABLEFORMAT_BEGIN
 90
        3
170
     0
309
TABLEFORMAT_END
309
FORMATTEDTABLEDATACOLUMN_END
  1
TABLECOLUMN_BEGIN
 90
        0
 40
10.0
309
TABLECOLUMN_END
300
COLUMN
  1
LINKEDTABLEDATACOLUMN_BEGIN
300

 91
        0
301
CUSTOMDATA
  1
DATAMAP_BEGIN
 90
        0
309
DATAMAP_END
309
LINKEDTABLEDATACOLUMN_END
  1
FORMATTEDTABLEDATACOLUMN_BEGIN
300
COLUMNTABLEFORMAT
  1
TABLEFORMAT_BEGIN
 90
        3
170
     0
309
TABLEFORMAT_END
309
FORMATTEDTABLEDATACOLUMN_END
  1
TABLECOLUMN_BEGIN
 90
        0
 40
10.0
309
TABLECOLUMN_END
300
COLUMN
  1
LINKEDTABLEDATACOLUMN_BEGIN
300

 91
        0
301
CUSTOMDATA
  1
DATAMAP_BEGIN
 90
        0
309
DATAMAP_END
309
LINKEDTABLEDATACOLUMN_END
  1
FORMATTEDTABLEDATACOLUMN_BEGIN
300
COLUMNTABLEFORMAT
  1
TABLEFORMAT_BEGIN
 90
        3
170
     0
309
TABLEFORMAT_END
309
FORMATTEDTABLEDATACOLUMN_END
  1
TABLECOLUMN_BEGIN
 90
        0
 40
40.0
309
TABLECOLUMN_END
300
COLUMN
  1
LINKEDTABLEDATACOLUMN_BEGIN
300

 91
        0
301
CUSTOMDATA
  1
DATAMAP_BEGIN
 90
        0
309
DATAMAP_END
309
LINKEDTABLEDATACOLUMN_END
  1
FORMATTEDTABLEDATACOLUMN_BEGIN
300
COLUMNTABLEFORMAT
  1
TABLEFORMAT_BEGIN
 90
        3
170
     0
309
TABLEFORMAT_END
309
FORMATTEDTABLEDATACOLUMN_END
  1
TABLECOLUMN_BEGIN
 90
        0
 40
20.0
309
TABLECOLUMN_END
 91
        5
301
ROW
  1
LINKEDTABLEDATAROW_BEGIN
 90
        5
300
CELL
  1
LINKEDTABLEDATACELL_BEGIN
 90
        0
300

 91
        0
301
CUSTOMDATA
  1
DATAMAP_BEGIN
 90
        1
300
ACAD_ROUNDTRIP_2008_CELL_CHECKSUM
301
DATAMAP_VALUE
 93
        2
 90
        2
140
32.0
 94
        0
300

302

304
ACVALUE_END
309
DATAMAP_END
 92
        0
 95
        1
302
CONTENT
  1
CELLCONTENT_BEGIN
 90
        1
300
VALUE
 93
        2
 90
        4
  1
 
 94
        0
300

302
 
304
ACVALUE_END
 91
        0
309
CELLCONTENT_END
  1
FORMATTEDCELLCONTENT_BEGIN
170
     1
300
CONTENTFORMAT
  1
CONTENTFORMAT_BEGIN
 90
      132
 91
        0
 92
      512
 93
        0
300

 40
0.0
140
1.0
 94
        1
 62
     0
340
0
144
3.5
309
CONTENTFORMAT_END
309
FORMATTEDCELLCONTENT_END
309
LINKEDTABLEDATACELL_END
  1
FORMATTEDTABLEDATACELL_BEGIN
300
CELLTABLEFORMAT
  1
TABLEFORMAT_BEGIN
 90
        1
170
     1
 91
        0
 92
        0
 62
   257
 93
        1
300
CONTENTFORMAT
  1
CONTENTFORMAT_BEGIN
 90
        0
 91
        0
 92
      512
 93
        0
300

 40
0.0
140
1.0
 94
        1
 62
     0
340
0
144
0.18
309
CONTENTFORMAT_END
171
     0
 94
        0
309
TABLEFORMAT_END
309
FORMATTEDTABLEDATACELL_END
  1
TABLECELL_BEGIN
 90
        0
 91
        0
309
TABLECELL_END
300
CELL
  1
LINKEDTABLEDATACELL_BEGIN
 90
        0
300

 91
        0
301
CUSTOMDATA
  1
DATAMAP_BEGIN
 90
        0
309
DATAMAP_END
 92
        0
 95
        0
309
LINKEDTABLEDATACELL_END
  1
FORMATTEDTABLEDATACELL_BEGIN
300
CELLTABLEFORMAT
  1
TABLEFORMAT_BEGIN
 90
        1
170
     1
 91
        0
 92
        0
 62
   257
 93
        1
300
CONTENTFORMAT
  1
CONTENTFORMAT_BEGIN
 90
        0
 91
        0
 92
      512
 93
        0
300

 40
0.0
140
1.0
 94
        1
 62
     0
340
0
144
0.18
309
CONTENTFORMAT_END
171
     0
 94
        0
309
TABLEFORMAT_END
309
FORMATTEDTABLEDATACELL_END
  1
TABLECELL_BEGIN
 90
        0
 91
        0
309
TABLECELL_END
300
CELL
  1
LINKEDTABLEDATACELL_BEGIN
 90
        0
300

 91
        0
301
CUSTOMDATA
  1
DATAMAP_BEGIN
 90
        0
309
DATAMAP_END
 92
        0
 95
        0
309
LINKEDTABLEDATACELL_END
  1
FORMATTEDTABLEDATACELL_BEGIN
300
CELLTABLEFORMAT
  1
TABLEFORMAT_BEGIN
 90
        1
170
     1
 91
        0
 92
        0
 62
   257
 93
        1
300
CONTENTFORMAT
  1
CONTENTFORMAT_BEGIN
 90
        0
 91
        0
 92
      512
 93
        0
300

 40
0.0
140
1.0
 94
        1
 62
     0
340
0
144
0.18
309
CONTENTFORMAT_END
171
     0
 94
        0
309
TABLEFORMAT_END
309
FORMATTEDTABLEDATACELL_END
  1
TABLECELL_BEGIN
 90
        0
 91
        0
309
TABLECELL_END
300
CELL
  1
LINKEDTABLEDATACELL_BEGIN
 90
        0
300

 91
        0
301
CUSTOMDATA
  1
DATAMAP_BEGIN
 90
        1
300
ACAD_ROUNDTRIP_2008_CELL_CHECKSUM
301
DATAMAP_VALUE
 93
        2
 90
        2
140
2811.0
 94
        0
300

302

304
ACVALUE_END
309
DATAMAP_END
 92
        0
 95
        1
302
CONTENT
  1
CELLCONTENT_BEGIN
 90
        1
300
VALUE
 93
        2
 90
        4
  1
571_C_080
 94
        0
300

302
571_C_080
304
ACVALUE_END
 91
        0
309
CELLCONTENT_END
  1
FORMATTEDCELLCONTENT_BEGIN
170
     1
300
CONTENTFORMAT
  1
CONTENTFORMAT_BEGIN
 90
      196
 91
        0
 92
      512
 93
        0
300

 40
0.0
140
1.0
 94
        1
 62
     0
340
220
144
3.0
309
CONTENTFORMAT_END
309
FORMATTEDCELLCONTENT_END
309
LINKEDTABLEDATACELL_END
  1
FORMATTEDTABLEDATACELL_BEGIN
300
CELLTABLEFORMAT
  1
TABLEFORMAT_BEGIN
 90
        1
170
     1
 91
       16
 92
        0
 62
   257
 93
        1
300
CONTENTFORMAT
  1
CONTENTFORMAT_BEGIN
 90
       16
 91
        0
 92
      512
 93
        0
300

 40
0.0
140
1.0
 94
        4
 62
     0
340
0
144
0.18
309
CONTENTFORMAT_END
171
     0
 94
        4
 95
        1
302
GRIDFORMAT
  1
GRIDFORMAT_BEGIN
 90
       26
 91
        1
 62
     0
 92
       -2
340
0
 93
        0
 40
0.045
309
GRIDFORMAT_END
 95
        4
302
GRIDFORMAT
  1
GRIDFORMAT_BEGIN
 90
       26
 91
        1
 62
     0
 92
       -2
340
0
 93
        0
 40
0.045
309
GRIDFORMAT_END
 95
        8
302
GRIDFORMAT
  1
GRIDFORMAT_BEGIN
 90
       26
 91
        1
 62
     0
 92
       -2
340
0
 93
        0
 40
0.045
309
GRIDFORMAT_END
 95
       32
302
GRIDFORMAT
  1
GRIDFORMAT_BEGIN
 90
       26
 91
        1
 62
     0
 92
       -2
340
0
 93
        0
 40
0.045
309
GRIDFORMAT_END
309
TABLEFORMAT_END
309
FORMATTEDTABLEDATACELL_END
  1
TABLECELL_BEGIN
 90
        0
 91
        0
309
TABLECELL_END
300
CELL
  1
LINKEDTABLEDATACELL_BEGIN
 90
        0
300

 91
        0
301
CUSTOMDATA
  1
DATAMAP_BEGIN
 90
        1
300
ACAD_ROUNDTRIP_2008_CELL_CHECKSUM
301
DATAMAP_VALUE
 93
        2
 90
        2
140
1404.0
 94
        0
300

302

304
ACVALUE_END
309
DATAMAP_END
 92
        0
 95
        1
302
CONTENT
  1
CELLCONTENT_BEGIN
 90
        1
300
VALUE
 93
        2
 90
        4
  1
Rev:01
 94
        0
300

302
Rev:01
304
ACVALUE_END
 91
        0
309
CELLCONTENT_END
  1
FORMATTEDCELLCONTENT_BEGIN
170
     1
300
CONTENTFORMAT
  1
CONTENTFORMAT_BEGIN
 90
      196
 91
        0
 92
      512
 93
        0
300

 40
0.0
140
1.0
 94
        1
 62
     0
340
220
144
3.5
309
CONTENTFORMAT_END
309
FORMATTEDCELLCONTENT_END
309
LINKEDTABLEDATACELL_END
  1
FORMATTEDTABLEDATACELL_BEGIN
300
CELLTABLEFORMAT
  1
TABLEFORMAT_BEGIN
 90
        1
170
     1
 91
       16
 92
        0
 62
   257
 93
        1
300
CONTENTFORMAT
  1
CONTENTFORMAT_BEGIN
 90
       16
 91
        0
 92
      512
 93
        0
300

 40
0.0
140
1.0
 94
        4
 62
     0
340
0
144
0.18
309
CONTENTFORMAT_END
171
     0
 94
        4
 95
        1
302
GRIDFORMAT
  1
GRIDFORMAT_BEGIN
 90
       26
 91
        1
 62
     0
 92
       -2
340
0
 93
        0
 40
0.045
309
GRIDFORMAT_END
 95
        4
302
GRIDFORMAT
  1
GRIDFORMAT_BEGIN
 90
       26
 91
        1
 62
     0
 92
       -2
340
0
 93
        0
 40
0.045
309
GRIDFORMAT_END
 95
        8
302
GRIDFORMAT
  1
GRIDFORMAT_BEGIN
 90
       26
 91
        1
 62
     0
 92
       -2
340
0
 93
        0
 40
0.045
309
GRIDFORMAT_END
 95
       32
302
GRIDFORMAT
  1
GRIDFORMAT_BEGIN
 90
       26
 91
        1
 62
     0
 92
       -2
340
0
 93
        0
 40
0.045
309
GRIDFORMAT_END
309
TABLEFORMAT_END
309
FORMATTEDTABLEDATACELL_END
  1
TABLECELL_BEGIN
 90
        0
 91
        0
309
TABLECELL_END
 91
        0
301
CUSTOMDATA
  1
DATAMAP_BEGIN
 90
        0
309
DATAMAP_END
309
LINKEDTABLEDATAROW_END
  1
FORMATTEDTABLEDATAROW_BEGIN
300
ROWTABLEFORMAT
  1
TABLEFORMAT_BEGIN
 90
        2
170
     0
309
TABLEFORMAT_END
309
FORMATTEDTABLEDATAROW_END
  1
TABLEROW_BEGIN
 90
        1
 40
6.0
309
TABLEROW_END
301
ROW
  1
LINKEDTABLEDATAROW_BEGIN
 90
        5
300
CELL
  1
LINKEDTABLEDATACELL_BEGIN
 90
        0
300

 91
        0
301
CUSTOMDATA
  1
DATAMAP_BEGIN
 90
        0
309
DATAMAP_END
 92
        0
 95
        0
309
LINKEDTABLEDATACELL_END
  1
FORMATTEDTABLEDATACELL_BEGIN
300
CELLTABLEFORMAT
  1
TABLEFORMAT_BEGIN
 90
        1
170
     1
 91
        0
 92
        0
 62
   257
 93
        1
300
CONTENTFORMAT
  1
CONTENTFORMAT_BEGIN
 90
        0
 91
        0
 92
      512
 93
        0
300

 40
0.0
140
1.0
 94
        1
 62
     0
340
0
144
0.18
309
CONTENTFORMAT_END
171
     0
 94
        0
309
TABLEFORMAT_END
309
FORMATTEDTABLEDATACELL_END
  1
TABLECELL_BEGIN
 90
        0
 91
        0
309
TABLECELL_END
300
CELL
  1
LINKEDTABLEDATACELL_BEGIN
 90
        0
300

 91
        0
301
CUSTOMDATA
  1
DATAMAP_BEGIN
 90
        0
309
DATAMAP_END
 92
        0
 95
        0
309
LINKEDTABLEDATACELL_END
  1
FORMATTEDTABLEDATACELL_BEGIN
300
CELLTABLEFORMAT
  1
TABLEFORMAT_BEGIN
 90
        1
170
     1
 91
        0
 92
        0
 62
   257
 93
        1
300
CONTENTFORMAT
  1
CONTENTFORMAT_BEGIN
 90
        0
 91
        0
 92
      512
 93
        0
300

 40
0.0
140
1.0
 94
        1
 62
     0
340
0
144
0.18
309
CONTENTFORMAT_END
171
     0
 94
        0
309
TABLEFORMAT_END
309
FORMATTEDTABLEDATACELL_END
  1
TABLECELL_BEGIN
 90
        0
 91
        0
309
TABLECELL_END
300
CELL
  1
LINKEDTABLEDATACELL_BEGIN
 90
        0
300

 91
        0
301
CUSTOMDATA
  1
DATAMAP_BEGIN
 90
        0
309
DATAMAP_END
 92
        0
 95
        0
309
LINKEDTABLEDATACELL_END
  1
FORMATTEDTABLEDATACELL_BEGIN
300
CELLTABLEFORMAT
  1
TABLEFORMAT_BEGIN
 90
        1
170
     1
 91
        0
 92
        0
 62
   257
 93
        1
300
CONTENTFORMAT
  1
CONTENTFORMAT_BEGIN
 90
        0
 91
        0
 92
      512
 93
        0
300

 40
0.0
140
1.0
 94
        1
 62
     0
340
0
144
0.18
309
CONTENTFORMAT_END
171
     0
 94
        0
309
TABLEFORMAT_END
309
FORMATTEDTABLEDATACELL_END
  1
TABLECELL_BEGIN
 90
        0
 91
        0
309
TABLECELL_END
300
CELL
  1
LINKEDTABLEDATACELL_BEGIN
 90
        0
300

 91
        0
301
CUSTOMDATA
  1
DATAMAP_BEGIN
 90
        1
300
ACAD_ROUNDTRIP_2008_CELL_CHECKSUM
301
DATAMAP_VALUE
 93
        2
 90
        2
140
3105.0
 94
        0
300

302

304
ACVALUE_END
309
DATAMAP_END
 92
        0
 95
        1
302
CONTENT
  1
CELLCONTENT_BEGIN
 90
        1
300
VALUE
 93
        2
 90
        4
  1
Scale:1:1
 94
        0
300

302
Scale:1:1
304
ACVALUE_END
 91
        0
309
CELLCONTENT_END
  1
FORMATTEDCELLCONTENT_BEGIN
170
     1
300
CONTENTFORMAT
  1
CONTENTFORMAT_BEGIN
 90
      196
 91
        0
 92
      512
 93
        0
300

 40
0.0
140
1.0
 94
        1
 62
     0
340
220
144
3.5
309
CONTENTFORMAT_END
309
FORMATTEDCELLCONTENT_END
309
LINKEDTABLEDATACELL_END
  1
FORMATTEDTABLEDATACELL_BEGIN
300
CELLTABLEFORMAT
  1
TABLEFORMAT_BEGIN
 90
        1
170
     1
 91
       16
 92
        0
 62
   257
 93
        1
300
CONTENTFORMAT
  1
CONTENTFORMAT_BEGIN
 90
       16
 91
        0
 92
      512
 93
        0
300

 40
0.0
140
1.0
 94
        1
 62
     0
340
0
144
0.18
309
CONTENTFORMAT_END
171
     0
 94
        4
 95
        1
302
GRIDFORMAT
  1
GRIDFORMAT_BEGIN
 90
       26
 91
        1
 62
     0
 92
       -2
340
0
 93
        0
 40
0.045
309
GRIDFORMAT_END
 95
        4
302
GRIDFORMAT
  1
GRIDFORMAT_BEGIN
 90
       26
 91
        1
 62
     0
 92
       -2
340
0
 93
        0
 40
0.045
309
GRIDFORMAT_END
 95
        8
302
GRIDFORMAT
  1
GRIDFORMAT_BEGIN
 90
       26
 91
        1
 62
     0
 92
       -2
340
0
 93
        0
 40
0.045
309
GRIDFORMAT_END
 95
       32
302
GRIDFORMAT
  1
GRIDFORMAT_BEGIN
 90
       26
 91
        1
 62
     0
 92
       -2
340
0
 93
        0
 40
0.045
309
GRIDFORMAT_END
309
TABLEFORMAT_END
309
FORMATTEDTABLEDATACELL_END
  1
TABLECELL_BEGIN
 90
        0
 91
        0
309
TABLECELL_END
300
CELL
  1
LINKEDTABLEDATACELL_BEGIN
 90
        0
300

 91
        0
301
CUSTOMDATA
  1
DATAMAP_BEGIN
 90
        1
300
ACAD_ROUNDTRIP_2008_CELL_CHECKSUM
301
DATAMAP_VALUE
 93
        2
 90
        2
140
163.0
 94
        0
300

302

304
ACVALUE_END
309
DATAMAP_END
 92
        0
 95
        1
302
CONTENT
  1
CELLCONTENT_BEGIN
 90
        1
300
VALUE
 93
        2
 90
        4
  1
A1
 94
        0
300

302
A1
304
ACVALUE_END
 91
        0
309
CELLCONTENT_END
  1
FORMATTEDCELLCONTENT_BEGIN
170
     1
300
CONTENTFORMAT
  1
CONTENTFORMAT_BEGIN
 90
      196
 91
        0
 92
      512
 93
        0
300

 40
0.0
140
1.0
 94
        1
 62
     0
340
220
144
3.5
309
CONTENTFORMAT_END
309
FORMATTEDCELLCONTENT_END
309
LINKEDTABLEDATACELL_END
  1
FORMATTEDTABLEDATACELL_BEGIN
300
CELLTABLEFORMAT
  1
TABLEFORMAT_BEGIN
 90
        1
170
     1
 91
       16
 92
        0
 62
   257
 93
        1
300
CONTENTFORMAT
  1
CONTENTFORMAT_BEGIN
 90
       16
 91
        0
 92
      512
 93
        0
300

 40
0.0
140
1.0
 94
        4
 62
     0
340
0
144
0.18
309
CONTENTFORMAT_END
171
     0
 94
        4
 95
        1
302
GRIDFORMAT
  1
GRIDFORMAT_BEGIN
 90
       26
 91
        1
 62
     0
 92
       -2
340
0
 93
        0
 40
0.045
309
GRIDFORMAT_END
 95
        4
302
GRIDFORMAT
  1
GRIDFORMAT_BEGIN
 90
       26
 91
        1
 62
     0
 92
       -2
340
0
 93
        0
 40
0.045
309
GRIDFORMAT_END
 95
        8
302
GRIDFORMAT
  1
GRIDFORMAT_BEGIN
 90
       26
 91
        1
 62
     0
 92
       -2
340
0
 93
        0
 40
0.045
309
GRIDFORMAT_END
 95
       32
302
GRIDFORMAT
  1
GRIDFORMAT_BEGIN
 90
       26
 91
        1
 62
     0
 92
       -2
340
0
 93
        0
 40
0.045
309
GRIDFORMAT_END
309
TABLEFORMAT_END
309
FORMATTEDTABLEDATACELL_END
  1
TABLECELL_BEGIN
 90
        0
 91
        0
309
TABLECELL_END
 91
        0
301
CUSTOMDATA
  1
DATAMAP_BEGIN
 90
        0
309
DATAMAP_END
309
LINKEDTABLEDATAROW_END
  1
FORMATTEDTABLEDATAROW_BEGIN
300
ROWTABLEFORMAT
  1
TABLEFORMAT_BEGIN
 90
        2
170
     0
309
TABLEFORMAT_END
309
FORMATTEDTABLEDATAROW_END
  1
TABLEROW_BEGIN
 90
        2
 40
6.0
309
TABLEROW_END
301
ROW
  1
LINKEDTABLEDATAROW_BEGIN
 90
        5
300
CELL
  1
LINKEDTABLEDATACELL_BEGIN
 90
        0
300

 91
        0
301
CUSTOMDATA
  1
DATAMAP_BEGIN
 90
        0
309
DATAMAP_END
 92
        0
 95
        0
309
LINKEDTABLEDATACELL_END
  1
FORMATTEDTABLEDATACELL_BEGIN
300
CELLTABLEFORMAT
  1
TABLEFORMAT_BEGIN
 90
        1
170
     1
 91
        0
 92
        0
 62
   257
 93
        1
300
CONTENTFORMAT
  1
CONTENTFORMAT_BEGIN
 90
        0
 91
        0
 92
      512
 93
        0
300

 40
0.0
140
1.0
 94
        1
 62
     0
340
0
144
0.18
309
CONTENTFORMAT_END
171
     0
 94
        0
309
TABLEFORMAT_END
309
FORMATTEDTABLEDATACELL_END
  1
TABLECELL_BEGIN
 90
        0
 91
        0
309
TABLECELL_END
300
CELL
  1
LINKEDTABLEDATACELL_BEGIN
 90
        0
300

 91
        0
301
CUSTOMDATA
  1
DATAMAP_BEGIN
 90
        0
309
DATAMAP_END
 92
        0
 95
        0
309
LINKEDTABLEDATACELL_END
  1
FORMATTEDTABLEDATACELL_BEGIN
300
CELLTABLEFORMAT
  1
TABLEFORMAT_BEGIN
 90
        1
170
     1
 91
        0
 92
        0
 62
   257
 93
        1
300
CONTENTFORMAT
  1
CONTENTFORMAT_BEGIN
 90
        0
 91
        0
 92
      512
 93
        0
300

 40
0.0
140
1.0
 94
        1
 62
     0
340
0
144
0.18
309
CONTENTFORMAT_END
171
     0
 94
        0
309
TABLEFORMAT_END
309
FORMATTEDTABLEDATACELL_END
  1
TABLECELL_BEGIN
 90
        0
 91
        0
309
TABLECELL_END
300
CELL
  1
LINKEDTABLEDATACELL_BEGIN
 90
        0
300

 91
        0
301
CUSTOMDATA
  1
DATAMAP_BEGIN
 90
        0
309
DATAMAP_END
 92
        0
 95
        0
309
LINKEDTABLEDATACELL_END
  1
FORMATTEDTABLEDATACELL_BEGIN
300
CELLTABLEFORMAT
  1
TABLEFORMAT_BEGIN
 90
        1
170
     1
 91
        0
 92
        0
 62
   257
 93
        1
300
CONTENTFORMAT
  1
CONTENTFORMAT_BEGIN
 90
        0
 91
        0
 92
      512
 93
        0
300

 40
0.0
140
1.0
 94
        1
 62
     0
340
0
144
0.18
309
CONTENTFORMAT_END
171
     0
 94
        0
309
TABLEFORMAT_END
309
FORMATTEDTABLEDATACELL_END
  1
TABLECELL_BEGIN
 90
        0
 91
        0
309
TABLECELL_END
300
CELL
  1
LINKEDTABLEDATACELL_BEGIN
 90
        0
300

 91
        0
301
CUSTOMDATA
  1
DATAMAP_BEGIN
 90
        1
300
ACAD_ROUNDTRIP_2008_CELL_CHECKSUM
301
DATAMAP_VALUE
 93
        2
 90
        2
140
1462.0
 94
        0
300

302

304
ACVALUE_END
309
DATAMAP_END
 92
        0
 95
        1
302
CONTENT
  1
CELLCONTENT_BEGIN
 90
        1
300
VALUE
 93
        2
 90
        4
  1
RIO 2.1
 94
        0
300

302
RIO 2.1
304
ACVALUE_END
 91
        0
309
CELLCONTENT_END
  1
FORMATTEDCELLCONTENT_BEGIN
170
     1
300
CONTENTFORMAT
  1
CONTENTFORMAT_BEGIN
 90
      196
 91
        0
 92
      512
 93
        0
300

 40
0.0
140
1.0
 94
        1
 62
     0
340
220
144
3.5
309
CONTENTFORMAT_END
309
FORMATTEDCELLCONTENT_END
309
LINKEDTABLEDATACELL_END
  1
FORMATTEDTABLEDATACELL_BEGIN
300
CELLTABLEFORMAT
  1
TABLEFORMAT_BEGIN
 90
        1
170
     1
 91
       16
 92
        0
 62
   257
 93
        1
300
CONTENTFORMAT
  1
CONTENTFORMAT_BEGIN
 90
       16
 91
        0
 92
      512
 93
        0
300

 40
0.0
140
1.0
 94
        4
 62
     0
340
0
144
0.18
309
CONTENTFORMAT_END
171
     0
 94
        4
 95
        1
302
GRIDFORMAT
  1
GRIDFORMAT_BEGIN
 90
       26
 91
        1
 62
     0
 92
       -2
340
0
 93
        0
 40
0.045
309
GRIDFORMAT_END
 95
        4
302
GRIDFORMAT
  1
GRIDFORMAT_BEGIN
 90
       26
 91
        1
 62
     0
 92
       -2
340
0
 93
        0
 40
0.045
309
GRIDFORMAT_END
 95
        8
302
GRIDFORMAT
  1
GRIDFORMAT_BEGIN
 90
       26
 91
        1
 62
     0
 92
       -2
340
0
 93
        0
 40
0.045
309
GRIDFORMAT_END
 95
       32
302
GRIDFORMAT
  1
GRIDFORMAT_BEGIN
 90
       26
 91
        1
 62
     0
 92
       -2
340
0
 93
        0
 40
0.045
309
GRIDFORMAT_END
309
TABLEFORMAT_END
309
FORMATTEDTABLEDATACELL_END
  1
TABLECELL_BEGIN
 90
        0
 91
        0
309
TABLECELL_END
300
CELL
  1
LINKEDTABLEDATACELL_BEGIN
 90
        0
300

 91
        0
301
CUSTOMDATA
  1
DATAMAP_BEGIN
 90
        0
309
DATAMAP_END
 92
        0
 95
        0
309
LINKEDTABLEDATACELL_END
  1
FORMATTEDTABLEDATACELL_BEGIN
300
CELLTABLEFORMAT
  1
TABLEFORMAT_BEGIN
 90
        1
170
     1
 91
        0
 92
        0
 62
   257
 93
        1
300
CONTENTFORMAT
  1
CONTENTFORMAT_BEGIN
 90
        0
 91
        0
 92
      512
 93
        0
300

 40
0.0
140
1.0
 94
        1
 62
     0
340
0
144
0.18
309
CONTENTFORMAT_END
171
     0
 94
        0
309
TABLEFORMAT_END
309
FORMATTEDTABLEDATACELL_END
  1
TABLECELL_BEGIN
 90
        0
 91
        0
309
TABLECELL_END
 91
        0
301
CUSTOMDATA
  1
DATAMAP_BEGIN
 90
        0
309
DATAMAP_END
309
LINKEDTABLEDATAROW_END
  1
FORMATTEDTABLEDATAROW_BEGIN
300
ROWTABLEFORMAT
  1
TABLEFORMAT_BEGIN
 90
        2
170
     0
309
TABLEFORMAT_END
309
FORMATTEDTABLEDATAROW_END
  1
TABLEROW_BEGIN
 90
        3
 40
10.0
309
TABLEROW_END
301
ROW
  1
LINKEDTABLEDATAROW_BEGIN
 90
        5
300
CELL
  1
LINKEDTABLEDATACELL_BEGIN
 90
        0
300

 91
        0
301
CUSTOMDATA
  1
DATAMAP_BEGIN
 90
        0
309
DATAMAP_END
 92
        0
 95
        0
309
LINKEDTABLEDATACELL_END
  1
FORMATTEDTABLEDATACELL_BEGIN
300
CELLTABLEFORMAT
  1
TABLEFORMAT_BEGIN
 90
        1
170
     1
 91
        0
 92
        0
 62
   257
 93
        1
300
CONTENTFORMAT
  1
CONTENTFORMAT_BEGIN
 90
        0
 91
        0
 92
      512
 93
        0
300

 40
0.0
140
1.0
 94
        1
 62
     0
340
0
144
0.18
309
CONTENTFORMAT_END
171
     0
 94
        0
309
TABLEFORMAT_END
309
FORMATTEDTABLEDATACELL_END
  1
TABLECELL_BEGIN
 90
        0
 91
        0
309
TABLECELL_END
300
CELL
  1
LINKEDTABLEDATACELL_BEGIN
 90
        0
300

 91
        0
301
CUSTOMDATA
  1
DATAMAP_BEGIN
 90
        0
309
DATAMAP_END
 92
        0
 95
        0
309
LINKEDTABLEDATACELL_END
  1
FORMATTEDTABLEDATACELL_BEGIN
300
CELLTABLEFORMAT
  1
TABLEFORMAT_BEGIN
 90
        1
170
     1
 91
        0
 92
        0
 62
   257
 93
        1
300
CONTENTFORMAT
  1
CONTENTFORMAT_BEGIN
 90
        0
 91
        0
 92
      512
 93
        0
300

 40
0.0
140
1.0
 94
        1
 62
     0
340
0
144
0.18
309
CONTENTFORMAT_END
171
     0
 94
        0
309
TABLEFORMAT_END
309
FORMATTEDTABLEDATACELL_END
  1
TABLECELL_BEGIN
 90
        0
 91
        0
309
TABLECELL_END
300
CELL
  1
LINKEDTABLEDATACELL_BEGIN
 90
        0
300

 91
        0
301
CUSTOMDATA
  1
DATAMAP_BEGIN
 90
        0
309
DATAMAP_END
 92
        0
 95
        0
309
LINKEDTABLEDATACELL_END
  1
FORMATTEDTABLEDATACELL_BEGIN
300
CELLTABLEFORMAT
  1
TABLEFORMAT_BEGIN
 90
        1
170
     1
 91
        0
 92
        0
 62
   257
 93
        1
300
CONTENTFORMAT
  1
CONTENTFORMAT_BEGIN
 90
        0
 91
        0
 92
      512
 93
        0
300

 40
0.0
140
1.0
 94
        1
 62
     0
340
0
144
0.18
309
CONTENTFORMAT_END
171
     0
 94
        0
309
TABLEFORMAT_END
309
FORMATTEDTABLEDATACELL_END
  1
TABLECELL_BEGIN
 90
        0
 91
        0
309
TABLECELL_END
300
CELL
  1
LINKEDTABLEDATACELL_BEGIN
 90
        0
300

 91
        0
301
CUSTOMDATA
  1
DATAMAP_BEGIN
 90
        1
300
ACAD_ROUNDTRIP_2008_CELL_CHECKSUM
301
DATAMAP_VALUE
 93
        2
 90
        2
140
4828.0
 94
        0
300

302

304
ACVALUE_END
309
DATAMAP_END
 92
        0
 95
        1
302
CONTENT
  1
CELLCONTENT_BEGIN
 90
        1
300
VALUE
 93
        2
 90
        4
  1
DATE:09.01.19
 94
        0
300

302
DATE:09.01.19
304
ACVALUE_END
 91
        0
309
CELLCONTENT_END
  1
FORMATTEDCELLCONTENT_BEGIN
170
     1
300
CONTENTFORMAT
  1
CONTENTFORMAT_BEGIN
 90
      196
 91
        0
 92
      512
 93
        0
300

 40
0.0
140
1.0
 94
        1
 62
     0
340
220
144
2.5
309
CONTENTFORMAT_END
309
FORMATTEDCELLCONTENT_END
309
LINKEDTABLEDATACELL_END
  1
FORMATTEDTABLEDATACELL_BEGIN
300
CELLTABLEFORMAT
  1
TABLEFORMAT_BEGIN
 90
        1
170
     1
 91
       16
 92
        0
 62
   257
 93
        1
300
CONTENTFORMAT
  1
CONTENTFORMAT_BEGIN
 90
       16
 91
        0
 92
      512
 93
        0
300

 40
0.0
140
1.0
 94
        4
 62
     0
340
0
144
0.18
309
CONTENTFORMAT_END
171
     0
 94
        4
 95
        1
302
GRIDFORMAT
  1
GRIDFORMAT_BEGIN
 90
       26
 91
        1
 62
     0
 92
       -2
340
0
 93
        0
 40
0.045
309
GRIDFORMAT_END
 95
        4
302
GRIDFORMAT
  1
GRIDFORMAT_BEGIN
 90
       26
 91
        1
 62
     0
 92
       -2
340
0
 93
        0
 40
0.045
309
GRIDFORMAT_END
 95
        8
302
GRIDFORMAT
  1
GRIDFORMAT_BEGIN
 90
       26
 91
        1
 62
     0
 92
       -2
340
0
 93
        0
 40
0.045
309
GRIDFORMAT_END
 95
       32
302
GRIDFORMAT
  1
GRIDFORMAT_BEGIN
 90
       26
 91
        1
 62
     0
 92
       -2
340
0
 93
        0
 40
0.045
309
GRIDFORMAT_END
309
TABLEFORMAT_END
309
FORMATTEDTABLEDATACELL_END
  1
TABLECELL_BEGIN
 90
        0
 91
        0
309
TABLECELL_END
300
CELL
  1
LINKEDTABLEDATACELL_BEGIN
 90
        0
300

 91
        0
301
CUSTOMDATA
  1
DATAMAP_BEGIN
 90
        0
309
DATAMAP_END
 92
        0
 95
        0
309
LINKEDTABLEDATACELL_END
  1
FORMATTEDTABLEDATACELL_BEGIN
300
CELLTABLEFORMAT
  1
TABLEFORMAT_BEGIN
 90
        1
170
     1
 91
        0
 92
        0
 62
   257
 93
        1
300
CONTENTFORMAT
  1
CONTENTFORMAT_BEGIN
 90
        0
 91
        0
 92
      512
 93
        0
300

 40
0.0
140
1.0
 94
        1
 62
     0
340
0
144
0.18
309
CONTENTFORMAT_END
171
     0
 94
        0
309
TABLEFORMAT_END
309
FORMATTEDTABLEDATACELL_END
  1
TABLECELL_BEGIN
 90
        0
 91
        0
309
TABLECELL_END
 91
        0
301
CUSTOMDATA
  1
DATAMAP_BEGIN
 90
        0
309
DATAMAP_END
309
LINKEDTABLEDATAROW_END
  1
FORMATTEDTABLEDATAROW_BEGIN
300
ROWTABLEFORMAT
  1
TABLEFORMAT_BEGIN
 90
        2
170
     0
309
TABLEFORMAT_END
309
FORMATTEDTABLEDATAROW_END
  1
TABLEROW_BEGIN
 90
        3
 40
5.0
309
TABLEROW_END
301
ROW
  1
LINKEDTABLEDATAROW_BEGIN
 90
        5
300
CELL
  1
LINKEDTABLEDATACELL_BEGIN
 90
        0
300

 91
        0
301
CUSTOMDATA
  1
DATAMAP_BEGIN
 90
        1
300
ACAD_ROUNDTRIP_2008_CELL_CHECKSUM
301
DATAMAP_VALUE
 93
        2
 90
        2
140
1361482.0
 94
        0
300

302

304
ACVALUE_END
309
DATAMAP_END
 92
        0
 95
        1
302
CONTENT
  1
CELLCONTENT_BEGIN
 90
        1
300
VALUE
 93
        2
 90
        4
  1
Any integral or partial reproductions are prohibited \Pwithout prior authorisation of L & L Luce & Light s.r.l., \Pin accordance with the law in force. \PAll rights reserved.
 94
        0
300

302
Any integral or partial reproductions are prohibited \Pwithout prior authorisation of L & L Luce & Light s.r.l., \Pin accordance with the law in force. \PAll rights reserved.
304
ACVALUE_END
 91
        0
309
CELLCONTENT_END
  1
FORMATTEDCELLCONTENT_BEGIN
170
     1
300
CONTENTFORMAT
  1
CONTENTFORMAT_BEGIN
 90
      196
 91
        0
 92
      512
 93
        0
300

 40
0.0
140
1.0
 94
        1
 62
     0
340
220
144
2.25
309
CONTENTFORMAT_END
309
FORMATTEDCELLCONTENT_END
309
LINKEDTABLEDATACELL_END
  1
FORMATTEDTABLEDATACELL_BEGIN
300
CELLTABLEFORMAT
  1
TABLEFORMAT_BEGIN
 90
        1
170
     1
 91
       16
 92
        0
 62
   257
 93
        1
300
CONTENTFORMAT
  1
CONTENTFORMAT_BEGIN
 90
       16
 91
        0
 92
      512
 93
        0
300

 40
0.0
140
1.0
 94
        4
 62
     0
340
0
144
0.18
309
CONTENTFORMAT_END
171
     0
 94
        4
 95
        1
302
GRIDFORMAT
  1
GRIDFORMAT_BEGIN
 90
       26
 91
        1
 62
     0
 92
       -2
340
0
 93
        0
 40
0.045
309
GRIDFORMAT_END
 95
        4
302
GRIDFORMAT
  1
GRIDFORMAT_BEGIN
 90
       26
 91
        1
 62
     0
 92
       -2
340
0
 93
        0
 40
0.045
309
GRIDFORMAT_END
 95
        8
302
GRIDFORMAT
  1
GRIDFORMAT_BEGIN
 90
       26
 91
        1
 62
     0
 92
       -2
340
0
 93
        0
 40
0.045
309
GRIDFORMAT_END
 95
       32
302
GRIDFORMAT
  1
GRIDFORMAT_BEGIN
 90
       26
 91
        1
 62
     0
 92
       -2
340
0
 93
        0
 40
0.045
309
GRIDFORMAT_END
309
TABLEFORMAT_END
309
FORMATTEDTABLEDATACELL_END
  1
TABLECELL_BEGIN
 90
        0
 91
        0
309
TABLECELL_END
300
CELL
  1
LINKEDTABLEDATACELL_BEGIN
 90
        0
300

 91
        0
301
CUSTOMDATA
  1
DATAMAP_BEGIN
 90
        0
309
DATAMAP_END
 92
        0
 95
        0
309
LINKEDTABLEDATACELL_END
  1
FORMATTEDTABLEDATACELL_BEGIN
300
CELLTABLEFORMAT
  1
TABLEFORMAT_BEGIN
 90
        1
170
     1
 91
        0
 92
        0
 62
   257
 93
        1
300
CONTENTFORMAT
  1
CONTENTFORMAT_BEGIN
 90
        0
 91
        0
 92
      512
 93
        0
300

 40
0.0
140
1.0
 94
        1
 62
     0
340
0
144
0.18
309
CONTENTFORMAT_END
171
     0
 94
        0
309
TABLEFORMAT_END
309
FORMATTEDTABLEDATACELL_END
  1
TABLECELL_BEGIN
 90
        0
 91
        0
309
TABLECELL_END
300
CELL
  1
LINKEDTABLEDATACELL_BEGIN
 90
        0
300

 91
        0
301
CUSTOMDATA
  1
DATAMAP_BEGIN
 90
        0
309
DATAMAP_END
 92
        0
 95
        0
309
LINKEDTABLEDATACELL_END
  1
FORMATTEDTABLEDATACELL_BEGIN
300
CELLTABLEFORMAT
  1
TABLEFORMAT_BEGIN
 90
        1
170
     1
 91
        0
 92
        0
 62
   257
 93
        1
300
CONTENTFORMAT
  1
CONTENTFORMAT_BEGIN
 90
        0
 91
        0
 92
      512
 93
        0
300

 40
0.0
140
1.0
 94
        1
 62
     0
340
0
144
0.18
309
CONTENTFORMAT_END
171
     0
 94
        0
309
TABLEFORMAT_END
309
FORMATTEDTABLEDATACELL_END
  1
TABLECELL_BEGIN
 90
        0
 91
        0
309
TABLECELL_END
300
CELL
  1
LINKEDTABLEDATACELL_BEGIN
 90
        0
300

 91
        0
301
CUSTOMDATA
  1
DATAMAP_BEGIN
 90
        0
309
DATAMAP_END
 92
        0
 95
        0
309
LINKEDTABLEDATACELL_END
  1
FORMATTEDTABLEDATACELL_BEGIN
300
CELLTABLEFORMAT
  1
TABLEFORMAT_BEGIN
 90
        1
170
     1
 91
        0
 92
        0
 62
   257
 93
        1
300
CONTENTFORMAT
  1
CONTENTFORMAT_BEGIN
 90
        0
 91
        0
 92
      512
 93
        0
300

 40
0.0
140
1.0
 94
        1
 62
     0
340
0
144
0.18
309
CONTENTFORMAT_END
171
     0
 94
        0
309
TABLEFORMAT_END
309
FORMATTEDTABLEDATACELL_END
  1
TABLECELL_BEGIN
 90
        0
 91
        0
309
TABLECELL_END
300
CELL
  1
LINKEDTABLEDATACELL_BEGIN
 90
        0
300

 91
        0
301
CUSTOMDATA
  1
DATAMAP_BEGIN
 90
        0
309
DATAMAP_END
 92
        0
 95
        0
309
LINKEDTABLEDATACELL_END
  1
FORMATTEDTABLEDATACELL_BEGIN
300
CELLTABLEFORMAT
  1
TABLEFORMAT_BEGIN
 90
        1
170
     1
 91
        0
 92
        0
 62
   257
 93
        1
300
CONTENTFORMAT
  1
CONTENTFORMAT_BEGIN
 90
        0
 91
        0
 92
      512
 93
        0
300

 40
0.0
140
1.0
 94
        1
 62
     0
340
0
144
0.18
309
CONTENTFORMAT_END
171
     0
 94
        0
309
TABLEFORMAT_END
309
FORMATTEDTABLEDATACELL_END
  1
TABLECELL_BEGIN
 90
        0
 91
        0
309
TABLECELL_END
 91
        0
301
CUSTOMDATA
  1
DATAMAP_BEGIN
 90
        0
309
DATAMAP_END
309
LINKEDTABLEDATAROW_END
  1
FORMATTEDTABLEDATAROW_BEGIN
300
ROWTABLEFORMAT
  1
TABLEFORMAT_BEGIN
 90
        2
170
     0
309
TABLEFORMAT_END
309
FORMATTEDTABLEDATAROW_END
  1
TABLEROW_BEGIN
 90
        3
 40
13.0
309
TABLEROW_END
100
AcDbFormattedTableData
300
TABLEFORMAT
  1
TABLEFORMAT_BEGIN
 90
        4
170
     1
 91
    15360
 92
        0
 62
   257
 93
        1
300
CONTENTFORMAT
  1
CONTENTFORMAT_BEGIN
 90
        0
 91
        0
 92
      512
 93
        0
300

 40
0.0
140
1.0
 94
        1
 62
     0
340
0
144
0.18
309
CONTENTFORMAT_END
171
     1
301
MARGIN
  1
CELLMARGIN_BEGIN
 40
0.06
 40
0.06
 40
0.06
 40
0.06
 40
0.06
 40
0.06
309
CELLMARGIN_END
 94
        0
309
TABLEFORMAT_END
 90
        4
 91
        0
 92
        0
 93
        3
 94
        2
 91
        2
 92
        3
 93
        2
 94
        4
 91
        3
 92
        3
 93
        3
 94
        4
 91
        4
 92
        0
 93
        4
 94
        4
100
AcDbTableContent
340
5FF
  0
TABLEGEOMETRY
  5
62C
330
62E
100
AcDbTableGeometry
 90
        5
 91
        5
 92
       25
 93
        0
 40
0.0
 41
0.0
330
0
 94
        0
 93
        0
 40
0.0
 41
0.0
330
0
 94
        0
 93
        0
 40
0.0
 41
0.0
330
0
 94
        0
 93
        0
 40
0.0
 41
0.0
330
0
 94
        0
 93
        0
 40
0.0
 41
0.0
330
0
 94
        0
 93
        0
 40
0.0
 41
0.0
330
0
 94
        0
 93
        0
 40
0.0
 41
0.0
330
0
 94
        0
 93
        0
 40
0.0
 41
0.0
330
0
 94
        0
 93
        0
 40
0.0
 41
0.0
330
0
 94
        0
 93
        0
 40
0.0
 41
0.0
330
0
 94
        0
 93
        0
 40
0.0
 41
0.0
330
0
 94
        0
 93
        0
 40
0.0
 41
0.0
330
0
 94
        0
 93
        0
 40
0.0
 41
0.0
330
0
 94
        0
 93
        0
 40
0.0
 41
0.0
330
0
 94
        0
 93
        0
 40
0.0
 41
0.0
330
0
 94
        0
 93
        0
 40
0.0
 41
0.0
330
0
 94
        0
 93
        0
 40
0.0
 41
0.0
330
0
 94
        0
 93
        0
 40
0.0
 41
0.0
330
0
 94
        0
 93
        0
 40
0.0
 41
0.0
330
0
 94
        0
 93
        0
 40
0.0
 41
0.0
330
0
 94
        0
 93
        0
 40
0.0
 41
0.0
330
0
 94
        0
 93
        0
 40
0.0
 41
0.0
330
0
 94
        0
 93
        0
 40
0.0
 41
0.0
330
0
 94
        0
 93
        0
 40
0.0
 41
0.0
330
0
 94
        0
 93
        0
 40
0.0
 41
0.0
330
0
 94
        0
  0
DICTIONARY
  5
631
330
5FF
100
AcDbDictionary
280
     1
281
     1
  3
ACAD_ROUNDTRIP_2008_TABLESTYLE_CELLSTYLEMAP
360
632
  0
CELLSTYLEMAP
  5
632
102
{ACAD_REACTORS
330
631
102
}
330
631
100
AcDbCellStyleMap
 90
        3
300
CELLSTYLE
  1
TABLEFORMAT_BEGIN
 90
        5
170
     1
 91
        0
 92
        0
 62
   257
 93
        1
300
CONTENTFORMAT
  1
CONTENTFORMAT_BEGIN
 90
        0
 91
        0
 92
        4
 93
        0
300

 40
0.0
140
1.0
 94
        5
 62
     0
340
11
144
6.0
309
CONTENTFORMAT_END
171
     1
301
MARGIN
  1
CELLMARGIN_BEGIN
 40
1.5
 40
1.5
 40
1.5
 40
1.5
 40
1.5
 40
1.5
309
CELLMARGIN_END
 94
        6
 95
        1
302
GRIDFORMAT
  1
GRIDFORMAT_BEGIN
 90
        0
 91
        1
 62
     0
 92
       -2
340
14
 93
        0
 40
0.045
309
GRIDFORMAT_END
 95
        2
302
GRIDFORMAT
  1
GRIDFORMAT_BEGIN
 90
        0
 91
        1
 62
     0
 92
       -2
340
14
 93
        0
 40
0.045
309
GRIDFORMAT_END
 95
        4
302
GRIDFORMAT
  1
GRIDFORMAT_BEGIN
 90
        0
 91
        1
 62
     0
 92
       -2
340
14
 93
        0
 40
0.045
309
GRIDFORMAT_END
 95
        8
302
GRIDFORMAT
  1
GRIDFORMAT_BEGIN
 90
        0
 91
        1
 62
     0
 92
       -2
340
14
 93
        0
 40
0.045
309
GRIDFORMAT_END
 95
       16
302
GRIDFORMAT
  1
GRIDFORMAT_BEGIN
 90
        0
 91
        1
 62
     0
 92
       -2
340
14
 93
        0
 40
0.045
309
GRIDFORMAT_END
 95
       32
302
GRIDFORMAT
  1
GRIDFORMAT_BEGIN
 90
        0
 91
        1
 62
     0
 92
       -2
340
14
 93
        0
 40
0.045
309
GRIDFORMAT_END
309
TABLEFORMAT_END
  1
CELLSTYLE_BEGIN
 90
        1
 91
        1
300
_TITLE
309
CELLSTYLE_END
300
CELLSTYLE
  1
TABLEFORMAT_BEGIN
 90
        5
170
     1
 91
        0
 92
        0
 62
   257
 93
        1
300
CONTENTFORMAT
  1
CONTENTFORMAT_BEGIN
 90
        0
 91
        0
 92
        4
 93
        0
300

 40
0.0
140
1.0
 94
        5
 62
     0
340
11
144
4.5
309
CONTENTFORMAT_END
171
     1
301
MARGIN
  1
CELLMARGIN_BEGIN
 40
1.5
 40
1.5
 40
1.5
 40
1.5
 40
1.5
 40
1.5
309
CELLMARGIN_END
 94
        6
 95
        1
302
GRIDFORMAT
  1
GRIDFORMAT_BEGIN
 90
        0
 91
        1
 62
     0
 92
       -2
340
14
 93
        0
 40
0.045
309
GRIDFORMAT_END
 95
        2
302
GRIDFORMAT
  1
GRIDFORMAT_BEGIN
 90
        0
 91
        1
 62
     0
 92
       -2
340
14
 93
        0
 40
0.045
309
GRIDFORMAT_END
 95
        4
302
GRIDFORMAT
  1
GRIDFORMAT_BEGIN
 90
        0
 91
        1
 62
     0
 92
       -2
340
14
 93
        0
 40
0.045
309
GRIDFORMAT_END
 95
        8
302
GRIDFORMAT
  1
GRIDFORMAT_BEGIN
 90
        0
 91
        1
 62
     0
 92
       -2
340
14
 93
        0
 40
0.045
309
GRIDFORMAT_END
 95
       16
302
GRIDFORMAT
  1
GRIDFORMAT_BEGIN
 90
        0
 91
        1
 62
     0
 92
       -2
340
14
 93
        0
 40
0.045
309
GRIDFORMAT_END
 95
       32
302
GRIDFORMAT
  1
GRIDFORMAT_BEGIN
 90
        0
 91
        1
 62
     0
 92
       -2
340
14
 93
        0
 40
0.045
309
GRIDFORMAT_END
309
TABLEFORMAT_END
  1
CELLSTYLE_BEGIN
 90
        2
 91
        1
300
_HEADER
309
CELLSTYLE_END
300
CELLSTYLE
  1
TABLEFORMAT_BEGIN
 90
        5
170
     1
 91
        0
 92
        0
 62
   257
 93
        1
300
CONTENTFORMAT
  1
CONTENTFORMAT_BEGIN
 90
        0
 91
        0
 92
        4
 93
        0
300

 40
0.0
140
1.0
 94
        2
 62
     0
340
11
144
4.5
309
CONTENTFORMAT_END
171
     1
301
MARGIN
  1
CELLMARGIN_BEGIN
 40
1.5
 40
1.5
 40
1.5
 40
1.5
 40
1.5
 40
1.5
309
CELLMARGIN_END
 94
        6
 95
        1
302
GRIDFORMAT
  1
GRIDFORMAT_BEGIN
 90
        0
 91
        1
 62
     0
 92
       -2
340
14
 93
        0
 40
0.045
309
GRIDFORMAT_END
 95
        2
302
GRIDFORMAT
  1
GRIDFORMAT_BEGIN
 90
        0
 91
        1
 62
     0
 92
       -2
340
14
 93
        0
 40
0.045
309
GRIDFORMAT_END
 95
        4
302
GRIDFORMAT
  1
GRIDFORMAT_BEGIN
 90
        0
 91
        1
 62
     0
 92
       -2
340
14
 93
        0
 40
0.045
309
GRIDFORMAT_END
 95
        8
302
GRIDFORMAT
  1
GRIDFORMAT_BEGIN
 90
        0
 91
        1
 62
     0
 92
       -2
340
14
 93
        0
 40
0.045
309
GRIDFORMAT_END
 95
       16
302
GRIDFORMAT
  1
GRIDFORMAT_BEGIN
 90
        0
 91
        1
 62
     0
 92
       -2
340
14
 93
        0
 40
0.045
309
GRIDFORMAT_END
 95
       32
302
GRIDFORMAT
  1
GRIDFORMAT_BEGIN
 90
        0
 91
        1
 62
     0
 92
       -2
340
14
 93
        0
 40
0.045
309
GRIDFORMAT_END
309
TABLEFORMAT_END
  1
CELLSTYLE_BEGIN
 90
        3
 91
        2
300
_DATA
309
CELLSTYLE_END
  0
ENDSEC
  0
EOF
