  0
SECTION
  2
HEADER
  9
$ACADVER
  1
AC1027
  9
$ACADMAINTVER
 70
     8
  9
$DWGCODEPAGE
  3
ANSI_1252
  9
$REQUIREDVERSIONS
160
                 0
  9
$INSBASE
 10
0.0
 20
0.0
 30
0.0
  9
$EXTMIN
 10
0.0
 20
0.0
 30
0.0
  9
$EXTMAX
 10
420.0
 20
297.0
 30
0.0
  9
$LIMMIN
 10
0.0
 20
0.0
  9
$LIMMAX
 10
420.0
 20
297.0
  9
$ORTHOMODE
 70
     0
  9
$REGENMODE
 70
     1
  9
$FILLMODE
 70
     1
  9
$QTEXTMODE
 70
     0
  9
$MIRRTEXT
 70
     1
  9
$LTSCALE
 40
23.1
  9
$ATTMODE
 70
     1
  9
$TEXTSIZE
 40
0.2
  9
$TRACEWID
 40
0.05
  9
$TEXTSTYLE
  7
STANDARD
  9
$CLAYER
  8
0
  9
$CELTYPE
  6
BYLAYER
  9
$CECOLOR
 62
   256
  9
$CELTSCALE
 40
1.0
  9
$DISPSILH
 70
     0
  9
$DIMSCALE
 40
1.0
  9
$DIMASZ
 40
2.5
  9
$DIMEXO
 40
0.75
  9
$DIMDLI
 40
15.96
  9
$DIMRND
 40
0.0
  9
$DIMDLE
 40
0.0
  9
$DIMEXE
 40
0.75
  9
$DIMTP
 40
0.01
  9
$DIMTM
 40
0.01
  9
$DIMTXT
 40
3.0
  9
$DIMCEN
 40
3.78
  9
$DIMTSZ
 40
0.0
  9
$DIMTOL
 70
     1
  9
$DIMLIM
 70
     0
  9
$DIMTIH
 70
     1
  9
$DIMTOH
 70
     1
  9
$DIMSE1
 70
     0
  9
$DIMSE2
 70
     0
  9
$DIMTAD
 70
     0
  9
$DIMZIN
 70
     0
  9
$DIMBLK
  1
CLOSED
  9
$DIMASO
 70
     1
  9
$DIMSHO
 70
     1
  9
$DIMPOST
  1

  9
$DIMAPOST
  1

  9
$DIMALT
 70
     0
  9
$DIMALTD
 70
     2
  9
$DIMALTF
 40
25.4
  9
$DIMLFAC
 40
1.0
  9
$DIMTOFL
 70
     0
  9
$DIMTVP
 40
0.0
  9
$DIMTIX
 70
     0
  9
$DIMSOXD
 70
     0
  9
$DIMSAH
 70
     0
  9
$DIMBLK1
  1

  9
$DIMBLK2
  1

  9
$DIMSTYLE
  2
STANDARD
  9
$DIMCLRD
 70
     0
  9
$DIMCLRE
 70
     0
  9
$DIMCLRT
 70
     0
  9
$DIMTFAC
 40
1.0
  9
$DIMGAP
 40
0.625
  9
$DIMJUST
 70
     0
  9
$DIMSD1
 70
     0
  9
$DIMSD2
 70
     0
  9
$DIMTOLJ
 70
     1
  9
$DIMTZIN
 70
     0
  9
$DIMALTZ
 70
     0
  9
$DIMALTTZ
 70
     0
  9
$DIMUPT
 70
     0
  9
$DIMDEC
 70
     4
  9
$DIMTDEC
 70
     4
  9
$DIMALTU
 70
     2
  9
$DIMALTTD
 70
     2
  9
$DIMTXSTY
  7
STANDARD
  9
$DIMAUNIT
 70
     0
  9
$DIMADEC
 70
     0
  9
$DIMALTRND
 40
0.0
  9
$DIMAZIN
 70
     0
  9
$DIMDSEP
 70
    44
  9
$DIMATFIT
 70
     3
  9
$DIMFRAC
 70
     0
  9
$DIMLDRBLK
  1

  9
$DIMLUNIT
 70
     2
  9
$DIMLWD
 70
    -2
  9
$DIMLWE
 70
    -2
  9
$DIMTMOVE
 70
     0
  9
$DIMFXL
 40
1.0
  9
$DIMFXLON
 70
     0
  9
$DIMJOGANG
 40
0.785398
  9
$DIMTFILL
 70
     0
  9
$DIMTFILLCLR
 70
     0
  9
$DIMARCSYM
 70
     0
  9
$DIMLTYPE
  6

  9
$DIMLTEX1
  6

  9
$DIMLTEX2
  6

  9
$DIMTXTDIRECTION
 70
     0
  9
$LUNITS
 70
     2
  9
$LUPREC
 70
     4
  9
$SKETCHINC
 40
0.1
  9
$FILLETRAD
 40
0.5
  9
$AUNITS
 70
     0
  9
$AUPREC
 70
     0
  9
$MENU
  1
.
  9
$ELEVATION
 40
0.0
  9
$PELEVATION
 40
0.0
  9
$THICKNESS
 40
0.0
  9
$LIMCHECK
 70
     0
  9
$CHAMFERA
 40
0.0
  9
$CHAMFERB
 40
0.0
  9
$CHAMFERC
 40
0.0
  9
$CHAMFERD
 40
0.0
  9
$SKPOLY
 70
     0
  9
$TDCREATE
 40
2447893.083333333
  9
$TDUCREATE
 40
0.0
  9
$TDUPDATE
 40
2460208.382426239
  9
$TDUUPDATE
 40
2460208.299092905
  9
$TDINDWG
 40
0.0
  9
$TDUSRTIMER
 40
0.0
  9
$USRTIMER
 70
     1
  9
$ANGBASE
 50
0.0
  9
$ANGDIR
 70
     0
  9
$PDMODE
 70
     3
  9
$PDSIZE
 40
0.3125
  9
$PLINEWID
 40
0.0
  9
$SPLFRAME
 70
     0
  9
$SPLINETYPE
 70
     6
  9
$SPLINESEGS
 70
     8
  9
$HANDSEED
  5
66D
  9
$SURFTAB1
 70
     6
  9
$SURFTAB2
 70
     6
  9
$SURFTYPE
 70
     6
  9
$SURFU
 70
     6
  9
$SURFV
 70
     6
  9
$UCSBASE
  2

  9
$UCSNAME
  2

  9
$UCSORG
 10
0.0
 20
0.0
 30
0.0
  9
$UCSXDIR
 10
1.0
 20
0.0
 30
0.0
  9
$UCSYDIR
 10
0.0
 20
1.0
 30
0.0
  9
$UCSORTHOREF
  2

  9
$UCSORTHOVIEW
 70
     0
  9
$UCSORGTOP
 10
0.0
 20
0.0
 30
0.0
  9
$UCSORGBOTTOM
 10
0.0
 20
0.0
 30
0.0
  9
$UCSORGLEFT
 10
0.0
 20
0.0
 30
0.0
  9
$UCSORGRIGHT
 10
0.0
 20
0.0
 30
0.0
  9
$UCSORGFRONT
 10
0.0
 20
0.0
 30
0.0
  9
$UCSORGBACK
 10
0.0
 20
0.0
 30
0.0
  9
$PUCSBASE
  2

  9
$PUCSNAME
  2

  9
$PUCSORG
 10
0.0
 20
0.0
 30
0.0
  9
$PUCSXDIR
 10
1.0
 20
0.0
 30
0.0
  9
$PUCSYDIR
 10
0.0
 20
1.0
 30
0.0
  9
$PUCSORTHOREF
  2

  9
$PUCSORTHOVIEW
 70
     0
  9
$PUCSORGTOP
 10
0.0
 20
0.0
 30
0.0
  9
$PUCSORGBOTTOM
 10
0.0
 20
0.0
 30
0.0
  9
$PUCSORGLEFT
 10
0.0
 20
0.0
 30
0.0
  9
$PUCSORGRIGHT
 10
0.0
 20
0.0
 30
0.0
  9
$PUCSORGFRONT
 10
0.0
 20
0.0
 30
0.0
  9
$PUCSORGBACK
 10
0.0
 20
0.0
 30
0.0
  9
$USERI1
 70
     0
  9
$USERI2
 70
     0
  9
$USERI3
 70
     0
  9
$USERI4
 70
     0
  9
$USERI5
 70
     0
  9
$USERR1
 40
0.0
  9
$USERR2
 40
0.0
  9
$USERR3
 40
0.0
  9
$USERR4
 40
0.0
  9
$USERR5
 40
0.0
  9
$WORLDVIEW
 70
     1
  9
$SHADEDGE
 70
     3
  9
$SHADEDIF
 70
    70
  9
$TILEMODE
 70
     1
  9
$MAXACTVP
 70
    64
  9
$PINSBASE
 10
0.0
 20
0.0
 30
0.0
  9
$PLIMCHECK
 70
     0
  9
$PEXTMIN
 10
1.000000E+20
 20
1.000000E+20
 30
1.000000E+20
  9
$PEXTMAX
 10
-1.000000E+20
 20
-1.000000E+20
 30
-1.000000E+20
  9
$PLIMMIN
 10
0.0
 20
0.0
  9
$PLIMMAX
 10
12.0
 20
9.0
  9
$UNITMODE
 70
     0
  9
$VISRETAIN
 70
     1
  9
$PLINEGEN
 70
     0
  9
$PSLTSCALE
 70
     0
  9
$TREEDEPTH
 70
  3020
  9
$CMLSTYLE
  2

  9
$CMLJUST
 70
     0
  9
$CMLSCALE
 40
1.0
  9
$PROXYGRAPHICS
 70
     1
  9
$MEASUREMENT
 70
     1
  9
$CELWEIGHT
370
    -1
  9
$ENDCAPS
280
     0
  9
$JOINSTYLE
280
     0
  9
$LWDISPLAY
290
     0
  9
$INSUNITS
 70
     4
  9
$HYPERLINKBASE
  1

  9
$STYLESHEET
  1

  9
$XEDIT
290
     1
  9
$CEPSNTYPE
380
     0
  9
$PSTYLEMODE
290
     1
  9
$FINGERPRINTGUID
  2
{1FF6DAE9-B0E2-4BBB-88DE-8B92AB82310B}
  9
$VERSIONGUID
  2
{FAEB1C32-E019-11D5-929B-00C0DF256EC4}
  9
$EXTNAMES
290
     1
  9
$PSVPSCALE
 40
0.0
  9
$OLESTARTUP
290
     0
  9
$SORTENTS
280
   127
  9
$INDEXCTL
280
     0
  9
$HIDETEXT
280
     1
  9
$XCLIPFRAME
280
     2
  9
$HALOGAP
280
     0
  9
$OBSCOLOR
 70
   257
  9
$OBSLTYPE
280
     0
  9
$INTERSECTIONDISPLAY
280
     0
  9
$INTERSECTIONCOLOR
 70
   257
  9
$DIMASSOC
280
     2
  9
$PROJECTNAME
  1

  9
$CAMERADISPLAY
290
     0
  9
$LENSLENGTH
 40
50.0
  9
$CAMERAHEIGHT
 40
0.0
  9
$STEPSPERSEC
 40
2.0
  9
$STEPSIZE
 40
6.0
  9
$3DDWFPREC
 40
2.0
  9
$PSOLWIDTH
 40
0.25
  9
$PSOLHEIGHT
 40
4.0
  9
$LOFTANG1
 40
1.570796
  9
$LOFTANG2
 40
1.570796
  9
$LOFTMAG1
 40
0.0
  9
$LOFTMAG2
 40
0.0
  9
$LOFTPARAM
 70
     7
  9
$LOFTNORMALS
280
     1
  9
$LATITUDE
 40
37.795
  9
$LONGITUDE
 40
-122.394
  9
$NORTHDIRECTION
 40
0.0
  9
$TIMEZONE
 70
 -8000
  9
$LIGHTGLYPHDISPLAY
280
     1
  9
$TILEMODELIGHTSYNCH
280
     1
  9
$SOLIDHIST
280
     1
  9
$SHOWHIST
280
     1
  9
$DWFFRAME
280
     2
  9
$DGNFRAME
280
     2
  9
$REALWORLDSCALE
290
     1
  9
$INTERFERECOLOR
 62
   256
  9
$CSHADOW
280
     0
  9
$SHADOWPLANELOCATION
 40
0.0
  0
ENDSEC
  0
SECTION
  2
CLASSES
  0
CLASS
  1
ACDBDICTIONARYWDFLT
  2
AcDbDictionaryWithDefault
  3
ObjectDBX Classes
 90
        0
 91
        6
280
     0
281
     0
  0
CLASS
  1
ACDBPLACEHOLDER
  2
AcDbPlaceHolder
  3
ObjectDBX Classes
 90
        0
 91
        1
280
     0
281
     0
  0
CLASS
  1
LAYOUT
  2
AcDbLayout
  3
ObjectDBX Classes
 90
        0
 91
        1
280
     0
281
     0
  0
CLASS
  1
TABLESTYLE
  2
AcDbTableStyle
  3
ObjectDBX Classes
 90
     4095
 91
        5
280
     0
281
     0
  0
CLASS
  1
ACAD_TABLE
  2
AcDbTable
  3
ObjectDBX Classes
 90
     1025
 91
        5
280
     0
281
     1
  0
CLASS
  1
SCALE
  2
AcDbScale
  3
ObjectDBX Classes
 90
     1153
 91
        5
280
     0
281
     0
  0
CLASS
  1
TABLEGEOMETRY
  2
AcDbTableGeometry
  3
ObjectDBX Classes
 90
     1152
 91
        4
280
     0
281
     0
  0
CLASS
  1
VISUALSTYLE
  2
AcDbVisualStyle
  3
ObjectDBX Classes
 90
     4095
 91
        5
280
     0
281
     0
  0
CLASS
  1
MATERIAL
  2
AcDbMaterial
  3
ObjectDBX Classes
 90
     1153
 91
        5
280
     0
281
     0
  0
CLASS
  1
SUN
  2
AcDbSun
  3
SCENEOE
 90
     1153
 91
        5
280
     0
281
     0
  0
CLASS
  1
CSACDOCUMENTOPTIONS
  2
CDocDataContainer
  3
"DERU003_CSAPP"
 90
     4095
 91
        4
280
     0
281
     0
  0
CLASS
  1
TABLECONTENT
  2
AcDbTableContent
  3
ObjectDBX Classes
 90
     1152
 91
        4
280
     0
281
     0
  0
CLASS
  1
DICTIONARYVAR
  2
AcDbDictionaryVar
  3
ObjectDBX Classes
 90
        0
 91
        4
280
     0
281
     0
  0
CLASS
  1
CELLSTYLEMAP
  2
AcDbCellStyleMap
  3
ObjectDBX Classes
 90
     1152
 91
        4
280
     0
281
     0
  0
ENDSEC
  0
SECTION
  2
TABLES
  0
TABLE
  2
VPORT
  5
8
330
0
100
AcDbSymbolTable
 70
     1
  0
VPORT
  5
1F4
330
8
100
AcDbSymbolTableRecord
100
AcDbViewportTableRecord
  2
*ACTIVE
 70
     0
 10
0.0
 20
0.0
 11
1.0
 21
1.0
 12
210.0
 22
148.5
 13
0.0
 23
0.0
 14
1.0
 24
1.0
 15
0.0
 25
0.0
 16
0.0
 26
0.0
 36
1.0
 17
0.0
 27
0.0
 37
0.0
 40
297.0
 41
1.818286
 42
50.0
 43
0.0
 44
0.0
 50
0.0
 51
0.0
 71
    16
 72
   100
 73
     1
 74
     1
 75
     0
 76
     0
 77
     0
 78
     0
281
     0
 65
     1
110
0.0
120
0.0
130
0.0
111
1.0
121
0.0
131
0.0
112
0.0
122
1.0
132
0.0
 79
     0
146
0.0
 60
     3
 61
     5
292
     1
282
     1
141
0.0
142
0.0
 63
   256
361
658
  0
ENDTAB
  0
TABLE
  2
LTYPE
  5
5
330
0
100
AcDbSymbolTable
 70
     6
  0
LTYPE
  5
14
330
5
100
AcDbSymbolTableRecord
100
AcDbLinetypeTableRecord
  2
BYBLOCK
 70
     0
  3

 72
    65
 73
     0
 40
0.0
  0
LTYPE
  5
15
330
5
100
AcDbSymbolTableRecord
100
AcDbLinetypeTableRecord
  2
BYLAYER
 70
     0
  3

 72
    65
 73
     0
 40
0.0
  0
LTYPE
  5
16
330
5
100
AcDbSymbolTableRecord
100
AcDbLinetypeTableRecord
  2
CONTINUOUS
 70
     0
  3
Solid line
 72
    65
 73
     0
 40
0.0
  0
LTYPE
  5
1F5
330
5
100
AcDbSymbolTableRecord
100
AcDbLinetypeTableRecord
  2
CENTER
 70
     0
  3
____ _ ____ _ ____ _ ____ _ ____ _ ____ _ ____
 72
    65
 73
     4
 40
0.6
 49
0.375
 74
     0
 49
-0.075
 74
     0
 49
0.075
 74
     0
 49
-0.075
 74
     0
  0
LTYPE
  5
1F6
330
5
100
AcDbSymbolTableRecord
100
AcDbLinetypeTableRecord
  2
HIDDEN
 70
     0
  3
- - - - - - - - - - - - - - - - - - - -
 72
    65
 73
     2
 40
0.2
 49
0.1
 74
     0
 49
-0.1
 74
     0
  0
LTYPE
  5
1F7
330
5
100
AcDbSymbolTableRecord
100
AcDbLinetypeTableRecord
  2
PHANTOM
 70
     0
  3
_____ _ _ _____ _ _ _____ _ _ _____
 72
    65
 73
     6
 40
0.8
 49
0.45
 74
     0
 49
-0.05
 74
     0
 49
0.1
 74
     0
 49
-0.05
 74
     0
 49
0.1
 74
     0
 49
-0.05
 74
     0
  0
LTYPE
  5
1F8
330
5
100
AcDbSymbolTableRecord
100
AcDbLinetypeTableRecord
  2
DOT
 70
     0
  3
. . . . . . . . . . . . . . . . . . . .
 72
    65
 73
     2
 40
0.2
 49
0.1
 74
     0
 49
-0.1
 74
     0
  0
LTYPE
  5
1F9
330
5
100
AcDbSymbolTableRecord
100
AcDbLinetypeTableRecord
  2
DASHED
 70
     0
  3
- - - - - - - - - - - - - - - - - - - -
 72
    65
 73
     2
 40
0.2
 49
0.1
 74
     0
 49
-0.1
 74
     0
  0
ENDTAB
  0
TABLE
  2
LAYER
  5
2
330
0
100
AcDbSymbolTable
 70
    38
  0
LAYER
  5
10
330
2
100
AcDbSymbolTableRecord
100
AcDbLayerTableRecord
  2
0
 70
     0
 62
     7
  6
CONTINUOUS
370
    -3
390
F
347
652
348
0
  0
LAYER
  5
1FA
330
2
100
AcDbSymbolTableRecord
100
AcDbLayerTableRecord
  2
DEFAULT_1
 70
     0
 62
     7
  6
CENTER
370
    -3
390
F
347
652
348
0
  0
LAYER
  5
1FB
330
2
100
AcDbSymbolTableRecord
100
AcDbLayerTableRecord
  2
DEFAULT_2
 70
     0
 62
     8
  6
HIDDEN
370
    -3
390
F
347
652
348
0
  0
LAYER
  5
1FC
330
2
100
AcDbSymbolTableRecord
100
AcDbLayerTableRecord
  2
DEFAULT_3
 70
     0
 62
     7
  6
PHANTOM
370
    -3
390
F
347
652
348
0
  0
LAYER
  5
1FD
330
2
100
AcDbSymbolTableRecord
100
AcDbLayerTableRecord
  2
01_ALL_DTM_PLN
 70
     0
 62
     7
  6
CONTINUOUS
370
    -3
390
F
347
652
348
0
  0
LAYER
  5
1FE
330
2
100
AcDbSymbolTableRecord
100
AcDbLayerTableRecord
  2
01__ASM_ALL_DTM_PLN
 70
     0
 62
     7
  6
CONTINUOUS
370
    -3
390
F
347
652
348
0
  0
LAYER
  5
1FF
330
2
100
AcDbSymbolTableRecord
100
AcDbLayerTableRecord
  2
01__ASM_DEF_DTM_PLN
 70
     0
 62
     7
  6
CONTINUOUS
370
    -3
390
F
347
652
348
0
  0
LAYER
  5
200
330
2
100
AcDbSymbolTableRecord
100
AcDbLayerTableRecord
  2
01___PRT_ALL_DTM_PLN
 70
     0
 62
     7
  6
CONTINUOUS
370
    -3
390
F
347
652
348
0
  0
LAYER
  5
201
330
2
100
AcDbSymbolTableRecord
100
AcDbLayerTableRecord
  2
01___PRT_DEF_DTM_PLN
 70
     0
 62
     7
  6
CONTINUOUS
370
    -3
390
F
347
652
348
0
  0
LAYER
  5
202
330
2
100
AcDbSymbolTableRecord
100
AcDbLayerTableRecord
  2
02_ALL_AXES
 70
     0
 62
     7
  6
CONTINUOUS
370
    -3
390
F
347
652
348
0
  0
LAYER
  5
203
330
2
100
AcDbSymbolTableRecord
100
AcDbLayerTableRecord
  2
02__ASM_ALL_AXES
 70
     0
 62
     7
  6
CONTINUOUS
370
    -3
390
F
347
652
348
0
  0
LAYER
  5
204
330
2
100
AcDbSymbolTableRecord
100
AcDbLayerTableRecord
  2
02___PRT_ALL_AXES
 70
     0
 62
     7
  6
CONTINUOUS
370
    -3
390
F
347
652
348
0
  0
LAYER
  5
205
330
2
100
AcDbSymbolTableRecord
100
AcDbLayerTableRecord
  2
03_ALL_CURVES
 70
     0
 62
     7
  6
CONTINUOUS
370
    -3
390
F
347
652
348
0
  0
LAYER
  5
206
330
2
100
AcDbSymbolTableRecord
100
AcDbLayerTableRecord
  2
03__ASM_ALL_CURVES
 70
     0
 62
     7
  6
CONTINUOUS
370
    -3
390
F
347
652
348
0
  0
LAYER
  5
207
330
2
100
AcDbSymbolTableRecord
100
AcDbLayerTableRecord
  2
03___PRT_ALL_CURVES
 70
     0
 62
     7
  6
CONTINUOUS
370
    -3
390
F
347
652
348
0
  0
LAYER
  5
208
330
2
100
AcDbSymbolTableRecord
100
AcDbLayerTableRecord
  2
04_ALL_DTM_PNT
 70
     0
 62
     7
  6
CONTINUOUS
370
    -3
390
F
347
652
348
0
  0
LAYER
  5
209
330
2
100
AcDbSymbolTableRecord
100
AcDbLayerTableRecord
  2
04__ASM_ALL_DTM_PNT
 70
     0
 62
     7
  6
CONTINUOUS
370
    -3
390
F
347
652
348
0
  0
LAYER
  5
20A
330
2
100
AcDbSymbolTableRecord
100
AcDbLayerTableRecord
  2
04___PRT_ALL_DTM_PNT
 70
     0
 62
     7
  6
CONTINUOUS
370
    -3
390
F
347
652
348
0
  0
LAYER
  5
20B
330
2
100
AcDbSymbolTableRecord
100
AcDbLayerTableRecord
  2
05_ALL_DTM_CSYS
 70
     0
 62
     7
  6
CONTINUOUS
370
    -3
390
F
347
652
348
0
  0
LAYER
  5
20C
330
2
100
AcDbSymbolTableRecord
100
AcDbLayerTableRecord
  2
05__ASM_ALL_DTM_CSYS
 70
     0
 62
     7
  6
CONTINUOUS
370
    -3
390
F
347
652
348
0
  0
LAYER
  5
20D
330
2
100
AcDbSymbolTableRecord
100
AcDbLayerTableRecord
  2
05__ASM_DEF_DTM_CSYS
 70
     0
 62
     7
  6
CONTINUOUS
370
    -3
390
F
347
652
348
0
  0
LAYER
  5
20E
330
2
100
AcDbSymbolTableRecord
100
AcDbLayerTableRecord
  2
05___PRT_ALL_DTM_CSYS
 70
     0
 62
     7
  6
CONTINUOUS
370
    -3
390
F
347
652
348
0
  0
LAYER
  5
20F
330
2
100
AcDbSymbolTableRecord
100
AcDbLayerTableRecord
  2
05___PRT_DEF_DTM_CSYS
 70
     0
 62
     7
  6
CONTINUOUS
370
    -3
390
F
347
652
348
0
  0
LAYER
  5
210
330
2
100
AcDbSymbolTableRecord
100
AcDbLayerTableRecord
  2
06_ALL_SURFS
 70
     0
 62
     7
  6
CONTINUOUS
370
    -3
390
F
347
652
348
0
  0
LAYER
  5
211
330
2
100
AcDbSymbolTableRecord
100
AcDbLayerTableRecord
  2
06__ASM_ALL_SURFS
 70
     0
 62
     7
  6
CONTINUOUS
370
    -3
390
F
347
652
348
0
  0
LAYER
  5
212
330
2
100
AcDbSymbolTableRecord
100
AcDbLayerTableRecord
  2
06___PRT_ALL_SURFS
 70
     0
 62
     7
  6
CONTINUOUS
370
    -3
390
F
347
652
348
0
  0
LAYER
  5
213
330
2
100
AcDbSymbolTableRecord
100
AcDbLayerTableRecord
  2
07__ASM_ALL_SKELETONS
 70
     0
 62
     7
  6
CONTINUOUS
370
    -3
390
F
347
652
348
0
  0
LAYER
  5
214
330
2
100
AcDbSymbolTableRecord
100
AcDbLayerTableRecord
  2
1_ALL_PLANES
 70
     0
 62
     7
  6
CONTINUOUS
370
    -3
390
F
347
652
348
0
  0
LAYER
  5
215
330
2
100
AcDbSymbolTableRecord
100
AcDbLayerTableRecord
  2
2_ALL_CSYS
 70
     0
 62
     7
  6
CONTINUOUS
370
    -3
390
F
347
652
348
0
  0
LAYER
  5
216
330
2
100
AcDbSymbolTableRecord
100
AcDbLayerTableRecord
  2
3_ALL_AXES
 70
     0
 62
     7
  6
CONTINUOUS
370
    -3
390
F
347
652
348
0
  0
LAYER
  5
217
330
2
100
AcDbSymbolTableRecord
100
AcDbLayerTableRecord
  2
4_ALL_POINTS
 70
     0
 62
     7
  6
CONTINUOUS
370
    -3
390
F
347
652
348
0
  0
LAYER
  5
218
330
2
100
AcDbSymbolTableRecord
100
AcDbLayerTableRecord
  2
5_ALL_CURVES
 70
     0
 62
     7
  6
CONTINUOUS
370
    -3
390
F
347
652
348
0
  0
LAYER
  5
219
330
2
100
AcDbSymbolTableRecord
100
AcDbLayerTableRecord
  2
6_ALL_SURFS
 70
     0
 62
     7
  6
CONTINUOUS
370
    -3
390
F
347
652
348
0
  0
LAYER
  5
21A
330
2
100
AcDbSymbolTableRecord
100
AcDbLayerTableRecord
  2
6__COSTRUZIONE
 70
     0
 62
     7
  6
CONTINUOUS
370
    -3
390
F
347
652
348
0
  0
LAYER
  5
21B
330
2
100
AcDbSymbolTableRecord
100
AcDbLayerTableRecord
  2
7_ALL_FEATURES
 70
     0
 62
     7
  6
CONTINUOUS
370
    -3
390
F
347
652
348
0
  0
LAYER
  5
21C
330
2
100
AcDbSymbolTableRecord
100
AcDbLayerTableRecord
  2
8_ALL_NOTES_BALLOONS_SYMBOLS_GT
 70
     0
 62
     7
  6
CONTINUOUS
370
    -3
390
F
347
652
348
0
  0
LAYER
  5
21D
330
2
100
AcDbSymbolTableRecord
100
AcDbLayerTableRecord
  2
9_SOLID
 70
     0
 62
     7
  6
CONTINUOUS
370
    -3
390
F
347
652
348
0
  0
LAYER
  5
21E
330
2
100
AcDbSymbolTableRecord
100
AcDbLayerTableRecord
  2
XXX_SOLIDO
 70
     0
 62
     7
  6
CONTINUOUS
370
    -3
390
F
347
652
348
0
  0
ENDTAB
  0
TABLE
  2
STYLE
  5
3
330
0
100
AcDbSymbolTable
 70
     3
  0
STYLE
  5
11
330
3
100
AcDbSymbolTableRecord
100
AcDbTextStyleTableRecord
  2
STANDARD
 70
     0
 40
0.0
 41
0.85
 50
0.0
 71
     0
 42
0.2
  3
txt
  4

  0
STYLE
  5
21F
330
3
100
AcDbSymbolTableRecord
100
AcDbTextStyleTableRecord
  2
TEXTSTYLE_1
 70
     0
 40
0.0
 41
0.8
 50
0.0
 71
     0
 42
0.2
  3
gdt
  4

  0
STYLE
  5
220
330
3
100
AcDbSymbolTableRecord
100
AcDbTextStyleTableRecord
  2
TEXTSTYLE_2
 70
     0
 40
0.0
 41
1.0
 50
0.0
 71
     0
 42
0.2
  3
arial.ttf
  4

  0
ENDTAB
  0
TABLE
  2
VIEW
  5
6
330
0
100
AcDbSymbolTable
 70
     0
  0
ENDTAB
  0
TABLE
  2
UCS
  5
7
330
0
100
AcDbSymbolTable
 70
     0
  0
ENDTAB
  0
TABLE
  2
APPID
  5
9
330
0
100
AcDbSymbolTable
 70
     6
  0
APPID
  5
221
330
9
100
AcDbSymbolTableRecord
100
AcDbRegAppTableRecord
  2
ACAD
 70
     0
  0
APPID
  5
653
330
9
100
AcDbSymbolTableRecord
100
AcDbRegAppTableRecord
  2
MCS_DIM1
 70
     0
  0
APPID
  5
654
330
9
100
AcDbSymbolTableRecord
100
AcDbRegAppTableRecord
  2
McsXdata5
 70
     0
  0
APPID
  5
657
330
9
100
AcDbSymbolTableRecord
100
AcDbRegAppTableRecord
  2
MCS_DOCUMENT_ID
 70
     0
  0
APPID
  5
65D
330
9
100
AcDbSymbolTableRecord
100
AcDbRegAppTableRecord
  2
MCS_PARAMS_DATA
 70
     0
  0
APPID
  5
65F
330
9
100
AcDbSymbolTableRecord
100
AcDbRegAppTableRecord
  2
MC_VERSION_DATA
 70
     0
  0
ENDTAB
  0
TABLE
  2
DIMSTYLE
  5
A
330
0
100
AcDbSymbolTable
 70
     4
100
AcDbDimStyleTable
  0
DIMSTYLE
105
22B
330
A
100
AcDbSymbolTableRecord
100
AcDbDimStyleTableRecord
  2
STANDARD
 70
     0
 41
2.5
 42
0.75
 44
0.75
 47
0.01
 48
0.01
 71
     1
 73
     0
 74
     0
 77
     1
 78
     8
 79
     2
140
3.0
147
0.625
171
     1
178
     0
179
     2
271
     2
272
     2
278
    44
284
     8
340
11
341
224
342
224
343
224
344
224
  0
DIMSTYLE
105
22C
330
A
100
AcDbSymbolTableRecord
100
AcDbDimStyleTableRecord
  2
DIMSTYLE_1
 70
     0
 41
2.5
 42
0.75
 44
0.75
 47
0.5
 48
0.5
 73
     0
 74
     0
 77
     1
 78
     8
 79
     2
140
3.0
147
0.75
171
     1
178
     0
179
     2
271
     2
272
    -1
278
    44
284
     8
340
11
341
224
342
224
343
224
344
224
  0
DIMSTYLE
105
22D
330
A
100
AcDbSymbolTableRecord
100
AcDbDimStyleTableRecord
  2
DIMSTYLE_2
 70
     0
 41
2.5
 42
0.75
 44
0.75
 47
0.3
 48
0.3
 73
     0
 74
     0
 77
     1
 78
     8
 79
     2
140
3.0
147
0.75
171
     1
178
     0
271
     0
272
     0
278
    44
284
     8
340
11
341
224
342
224
343
224
344
224
  0
DIMSTYLE
105
22E
330
A
100
AcDbSymbolTableRecord
100
AcDbDimStyleTableRecord
  2
DIMSTYLE_3
 70
     0
 41
2.5
 42
0.75
 44
0.75
 47
0.3
 48
0.3
 73
     0
 74
     0
 77
     1
 78
     8
 79
     2
140
3.0
147
0.75
171
     1
178
     0
179
     2
271
     2
272
     2
278
    44
284
     8
340
11
341
224
342
224
343
224
344
224
  0
ENDTAB
  0
TABLE
  2
BLOCK_RECORD
  5
1
330
0
100
AcDbSymbolTable
 70
     7
  0
BLOCK_RECORD
  5
222
330
1
100
AcDbSymbolTableRecord
100
AcDbBlockTableRecord
  2
*Model_Space
340
60D
 70
     0
280
     1
281
     0
  0
BLOCK_RECORD
  5
223
330
1
100
AcDbSymbolTableRecord
100
AcDbBlockTableRecord
  2
*Paper_Space
340
60E
 70
     0
280
     1
281
     0
  0
BLOCK_RECORD
  5
224
330
1
100
AcDbSymbolTableRecord
100
AcDbBlockTableRecord
  2
_CLOSED
340
0
102
{BLKREFS
331
277
331
278
331
280
331
281
331
289
331
28A
331
292
331
293
102
}
 70
     0
280
     1
281
     0
  0
BLOCK_RECORD
  5
225
330
1
100
AcDbSymbolTableRecord
100
AcDbBlockTableRecord
  2
*D1
340
0
 70
     0
280
     1
281
     0
  0
BLOCK_RECORD
  5
226
330
1
100
AcDbSymbolTableRecord
100
AcDbBlockTableRecord
  2
*D2
340
0
 70
     0
280
     1
281
     0
  0
BLOCK_RECORD
  5
227
330
1
100
AcDbSymbolTableRecord
100
AcDbBlockTableRecord
  2
*D3
340
0
 70
     0
280
     1
281
     0
  0
BLOCK_RECORD
  5
228
330
1
100
AcDbSymbolTableRecord
100
AcDbBlockTableRecord
  2
*D4
340
0
 70
     0
280
     1
281
     0
  0
BLOCK_RECORD
  5
229
330
1
100
AcDbSymbolTableRecord
100
AcDbBlockTableRecord
  2
LOGO2_BL0
340
0
102
{BLKREFS
331
60A
102
}
 70
     0
280
     1
281
     0
  0
BLOCK_RECORD
  5
22A
330
1
100
AcDbSymbolTableRecord
100
AcDbBlockTableRecord
  2
*T6
340
0
102
{BLKREFS
331
60B
102
}
 70
     0
280
     1
281
     0
  0
ENDTAB
  0
ENDSEC
  0
SECTION
  2
BLOCKS
  0
BLOCK
  5
20
330
222
100
AcDbEntity
  8
0
100
AcDbBlockBegin
  2
*Model_Space
 70
     0
 10
0.0
 20
0.0
 30
0.0
  3
*Model_Space
  1
*Model_Space
  0
ENDBLK
  5
21
330
222
100
AcDbEntity
  8
0
100
AcDbBlockEnd
  0
BLOCK
  5
1C
330
223
100
AcDbEntity
 67
     1
  8
0
100
AcDbBlockBegin
  2
*Paper_Space
 70
     0
 10
0.0
 20
0.0
 30
0.0
  3
*Paper_Space
  1
*Paper_Space
  0
ENDBLK
  5
1D
330
223
100
AcDbEntity
 67
     1
  8
0
100
AcDbBlockEnd
  0
BLOCK
  5
26B
330
224
100
AcDbEntity
  8
0
100
AcDbBlockBegin
  2
_CLOSED
 70
     0
 10
0.0
 20
0.0
 30
0.0
  3
_CLOSED
  1
_CLOSED
  0
LINE
  5
26C
330
224
100
AcDbEntity
  8
0
  6
ByBlock
 62
     0
100
AcDbLine
 10
0.0
 20
0.0
 30
0.0
 11
-1.0
 21
0.2
 31
0.0
  0
LINE
  5
26D
330
224
100
AcDbEntity
  8
0
  6
ByBlock
 62
     0
100
AcDbLine
 10
-1.0
 20
0.2
 30
0.0
 11
-1.0
 21
-0.2
 31
0.0
  0
LINE
  5
26E
330
224
100
AcDbEntity
  8
0
  6
ByBlock
 62
     0
100
AcDbLine
 10
-1.0
 20
-0.2
 30
0.0
 11
0.0
 21
0.0
 31
0.0
  0
LINE
  5
26F
330
224
100
AcDbEntity
  8
0
  6
ByBlock
 62
     0
100
AcDbLine
 10
-1.0
 20
0.0
 30
0.0
 11
0.0
 21
0.0
 31
0.0
  0
ENDBLK
  5
270
330
224
100
AcDbEntity
  8
0
  6
ByBlock
 62
     0
100
AcDbBlockEnd
  0
BLOCK
  5
271
330
225
100
AcDbEntity
  8
0
100
AcDbBlockBegin
  2
*D1
 70
     1
 10
0.0
 20
0.0
 30
0.0
  3
*D1
  1
*D1
  0
MTEXT
  5
272
330
225
100
AcDbEntity
  8
0
  6
Continuous
 62
     2
100
AcDbMText
 10
166.763394
 20
122.636917
 30
0.0
 40
3.0
 41
10.607143
 46
0.0
 71
     2
 72
     1
  1
260
 73
     1
 44
0.9
  0
LINE
  5
273
330
225
100
AcDbEntity
  8
0
  6
Continuous
 62
     2
100
AcDbLine
 10
296.513394
 20
125.95364
 30
0.0
 11
296.513394
 21
118.136917
 31
0.0
  0
LINE
  5
274
330
225
100
AcDbEntity
  8
0
  6
Continuous
 62
     2
100
AcDbLine
 10
37.013394
 20
133.136917
 30
0.0
 11
37.013394
 21
118.136917
 31
0.0
  0
LINE
  5
275
330
225
100
AcDbEntity
  8
0
  6
Continuous
 62
     2
100
AcDbLine
 10
296.513394
 20
118.886917
 30
0.0
 11
166.763394
 21
118.886917
 31
0.0
  0
LINE
  5
276
330
225
100
AcDbEntity
  8
0
  6
Continuous
 62
     2
100
AcDbLine
 10
37.013394
 20
118.886917
 30
0.0
 11
166.763394
 21
118.886917
 31
0.0
  0
INSERT
  5
277
330
225
100
AcDbEntity
  8
0
  6
Continuous
 62
     2
100
AcDbBlockReference
  2
_CLOSED
 10
296.513394
 20
118.886917
 30
0.0
 41
2.5
 42
2.5
 43
2.5
  0
INSERT
  5
278
330
225
100
AcDbEntity
  8
0
  6
Continuous
 62
     2
100
AcDbBlockReference
  2
_CLOSED
 10
37.013394
 20
118.886917
 30
0.0
 41
2.5
 42
2.5
 43
2.5
 50
180.0
  0
ENDBLK
  5
279
330
225
100
AcDbEntity
  8
0
  6
ByBlock
 62
     0
100
AcDbBlockEnd
  0
BLOCK
  5
27A
330
226
100
AcDbEntity
  8
0
100
AcDbBlockBegin
  2
*D2
 70
     1
 10
0.0
 20
0.0
 30
0.0
  3
*D2
  1
*D2
  0
MTEXT
  5
27B
330
226
100
AcDbEntity
  8
0
  6
Continuous
 62
     2
100
AcDbMText
 10
307.763394
 20
152.486917
 30
0.0
 40
3.0
 41
6.75
 46
0.0
 71
     2
 72
     1
  1
37
 11
0.0
 21
1.0
 31
0.0
 73
     1
 44
0.9
  0
LINE
  5
27C
330
226
100
AcDbEntity
  8
0
  6
Continuous
 62
     2
100
AcDbLine
 10
306.87237
 20
171.086917
 30
0.0
 11
312.263394
 21
171.086917
 31
0.0
  0
LINE
  5
27D
330
226
100
AcDbEntity
  8
0
  6
Continuous
 62
     2
100
AcDbLine
 10
306.87237
 20
133.886917
 30
0.0
 11
312.263394
 21
133.886917
 31
0.0
  0
LINE
  5
27E
330
226
100
AcDbEntity
  8
0
  6
Continuous
 62
     2
100
AcDbLine
 10
311.513394
 20
171.086917
 30
0.0
 11
311.513394
 21
152.486917
 31
0.0
  0
LINE
  5
27F
330
226
100
AcDbEntity
  8
0
  6
Continuous
 62
     2
100
AcDbLine
 10
311.513394
 20
133.886917
 30
0.0
 11
311.513394
 21
152.486917
 31
0.0
  0
INSERT
  5
280
330
226
100
AcDbEntity
  8
0
  6
Continuous
 62
     2
100
AcDbBlockReference
  2
_CLOSED
 10
311.513394
 20
171.086917
 30
0.0
 41
2.5
 42
2.5
 43
2.5
 50
90.0
  0
INSERT
  5
281
330
226
100
AcDbEntity
  8
0
  6
Continuous
 62
     2
100
AcDbBlockReference
  2
_CLOSED
 10
311.513394
 20
133.886917
 30
0.0
 41
2.5
 42
2.5
 43
2.5
 50
270.0
  0
ENDBLK
  5
282
330
226
100
AcDbEntity
  8
0
  6
ByBlock
 62
     0
100
AcDbBlockEnd
  0
BLOCK
  5
283
330
227
100
AcDbEntity
  8
0
100
AcDbBlockBegin
  2
*D3
 70
     1
 10
0.0
 20
0.0
 30
0.0
  3
*D3
  1
*D3
  0
MTEXT
  5
284
330
227
100
AcDbEntity
  8
0
  6
Continuous
 62
     2
100
AcDbMText
 10
307.763394
 20
235.53137
 30
0.0
 40
3.0
 41
7.071429
 46
0.0
 71
     2
 72
     1
  1
47
 11
0.0
 21
1.0
 31
0.0
 73
     1
 44
0.9
  0
LINE
  5
285
330
227
100
AcDbEntity
  8
0
  6
Continuous
 62
     2
100
AcDbLine
 10
306.042955
 20
258.90637
 30
0.0
 11
312.263394
 21
258.90637
 31
0.0
  0
LINE
  5
286
330
227
100
AcDbEntity
  8
0
  6
Continuous
 62
     2
100
AcDbLine
 10
306.87237
 20
212.15637
 30
0.0
 11
312.263394
 21
212.15637
 31
0.0
  0
LINE
  5
287
330
227
100
AcDbEntity
  8
0
  6
Continuous
 62
     2
100
AcDbLine
 10
311.513394
 20
258.90637
 30
0.0
 11
311.513394
 21
235.53137
 31
0.0
  0
LINE
  5
288
330
227
100
AcDbEntity
  8
0
  6
Continuous
 62
     2
100
AcDbLine
 10
311.513394
 20
212.15637
 30
0.0
 11
311.513394
 21
235.53137
 31
0.0
  0
INSERT
  5
289
330
227
100
AcDbEntity
  8
0
  6
Continuous
 62
     2
100
AcDbBlockReference
  2
_CLOSED
 10
311.513394
 20
258.90637
 30
0.0
 41
2.5
 42
2.5
 43
2.5
 50
90.0
  0
INSERT
  5
28A
330
227
100
AcDbEntity
  8
0
  6
Continuous
 62
     2
100
AcDbBlockReference
  2
_CLOSED
 10
311.513394
 20
212.15637
 30
0.0
 41
2.5
 42
2.5
 43
2.5
 50
270.0
  0
ENDBLK
  5
28B
330
227
100
AcDbEntity
  8
0
  6
ByBlock
 62
     0
100
AcDbBlockEnd
  0
BLOCK
  5
28C
330
228
100
AcDbEntity
  8
0
100
AcDbBlockBegin
  2
*D4
 70
     1
 10
0.0
 20
0.0
 30
0.0
  3
*D4
  1
*D4
  0
MTEXT
  5
28D
330
228
100
AcDbEntity
  8
0
  6
Continuous
 62
     2
100
AcDbMText
 10
390.909171
 20
230.999707
 30
0.0
 40
3.0
 41
15.107143
 46
0.0
 71
     2
 72
     1
  1
55,81
 11
0.0
 21
1.0
 31
0.0
 73
     1
 44
0.9
  0
LINE
  5
28E
330
228
100
AcDbEntity
  8
0
  6
Continuous
 62
     2
100
AcDbLine
 10
389.019311
 20
258.90637
 30
0.0
 11
395.409171
 21
258.90637
 31
0.0
  0
LINE
  5
28F
330
228
100
AcDbEntity
  8
0
  6
Continuous
 62
     2
100
AcDbLine
 10
387.093314
 20
203.093045
 30
0.0
 11
395.409171
 21
203.093045
 31
0.0
  0
LINE
  5
290
330
228
100
AcDbEntity
  8
0
  6
Continuous
 62
     2
100
AcDbLine
 10
394.659171
 20
258.90637
 30
0.0
 11
394.659171
 21
230.999707
 31
0.0
  0
LINE
  5
291
330
228
100
AcDbEntity
  8
0
  6
Continuous
 62
     2
100
AcDbLine
 10
394.659171
 20
203.093045
 30
0.0
 11
394.659171
 21
230.999707
 31
0.0
  0
INSERT
  5
292
330
228
100
AcDbEntity
  8
0
  6
Continuous
 62
     2
100
AcDbBlockReference
  2
_CLOSED
 10
394.659171
 20
258.90637
 30
0.0
 41
2.5
 42
2.5
 43
2.5
 50
90.0
  0
INSERT
  5
293
330
228
100
AcDbEntity
  8
0
  6
Continuous
 62
     2
100
AcDbBlockReference
  2
_CLOSED
 10
394.659171
 20
203.093045
 30
0.0
 41
2.5
 42
2.5
 43
2.5
 50
270.0
  0
ENDBLK
  5
294
330
228
100
AcDbEntity
  8
0
  6
ByBlock
 62
     0
100
AcDbBlockEnd
  0
BLOCK
  5
22F
330
229
100
AcDbEntity
  8
0
100
AcDbBlockBegin
  2
LOGO2_BL0
 70
     0
 10
334.394648
 20
37.585341
 30
0.0
  3
LOGO2_BL0
  1
LOGO2_BL0
  0
LINE
  5
230
330
229
100
AcDbEntity
  8
0
  6
Continuous
 62
     7
100
AcDbLine
 10
326.137573
 20
40.780832
 30
0.0
 11
324.833232
 21
40.780832
 31
0.0
  0
LINE
  5
231
330
229
100
AcDbEntity
  8
0
  6
Continuous
 62
     7
100
AcDbLine
 10
324.833232
 20
40.780832
 30
0.0
 11
324.833232
 21
30.321766
 31
0.0
  0
LINE
  5
232
330
229
100
AcDbEntity
  8
0
  6
Continuous
 62
     7
100
AcDbLine
 10
324.833232
 20
30.321766
 30
0.0
 11
329.314287
 21
30.321766
 31
0.0
  0
LINE
  5
233
330
229
100
AcDbEntity
  8
0
  6
Continuous
 62
     7
100
AcDbLine
 10
329.314287
 20
30.321766
 30
0.0
 11
329.314287
 21
31.51462
 31
0.0
  0
LINE
  5
234
330
229
100
AcDbEntity
  8
0
  6
Continuous
 62
     7
100
AcDbLine
 10
329.314287
 20
31.51462
 30
0.0
 11
326.137573
 21
31.51462
 31
0.0
  0
LINE
  5
235
330
229
100
AcDbEntity
  8
0
  6
Continuous
 62
     7
100
AcDbLine
 10
326.137573
 20
31.51462
 30
0.0
 11
326.137573
 21
40.780832
 31
0.0
  0
LINE
  5
236
330
229
100
AcDbEntity
  8
0
  6
Continuous
 62
     7
100
AcDbLine
 10
341.0739
 20
40.780832
 30
0.0
 11
339.770082
 21
40.780832
 31
0.0
  0
LINE
  5
237
330
229
100
AcDbEntity
  8
0
  6
Continuous
 62
     7
100
AcDbLine
 10
339.770082
 20
40.780832
 30
0.0
 11
339.770082
 21
30.321766
 31
0.0
  0
LINE
  5
238
330
229
100
AcDbEntity
  8
0
  6
Continuous
 62
     7
100
AcDbLine
 10
339.770082
 20
30.321766
 30
0.0
 11
344.251268
 21
30.321766
 31
0.0
  0
LINE
  5
239
330
229
100
AcDbEntity
  8
0
  6
Continuous
 62
     7
100
AcDbLine
 10
344.251268
 20
30.321766
 30
0.0
 11
344.251268
 21
31.51462
 31
0.0
  0
LINE
  5
23A
330
229
100
AcDbEntity
  8
0
  6
Continuous
 62
     7
100
AcDbLine
 10
344.251268
 20
31.51462
 30
0.0
 11
341.0739
 21
31.51462
 31
0.0
  0
LINE
  5
23B
330
229
100
AcDbEntity
  8
0
  6
Continuous
 62
     7
100
AcDbLine
 10
341.0739
 20
31.51462
 30
0.0
 11
341.0739
 21
40.780832
 31
0.0
  0
LWPOLYLINE
  5
23C
330
229
100
AcDbEntity
  8
0
  6
Continuous
 62
     7
100
AcDbPolyline
 90
        2
 70
     0
 43
0.2
 10
323.187627
 20
26.978215
 10
323.187627
 20
25.121151
  0
LWPOLYLINE
  5
23D
330
229
100
AcDbEntity
  8
0
  6
Continuous
 62
     7
100
AcDbPolyline
 90
        2
 70
     0
 43
0.2
 10
323.187627
 20
25.121151
 10
323.983343
 20
25.121151
  0
LWPOLYLINE
  5
23E
330
229
100
AcDbEntity
  8
0
  6
Continuous
 62
     7
100
AcDbPolyline
 90
        2
 70
     0
 43
0.2
 10
323.983343
 20
25.121151
 10
323.983343
 20
25.333133
  0
LWPOLYLINE
  5
23F
330
229
100
AcDbEntity
  8
0
  6
Continuous
 62
     7
100
AcDbPolyline
 90
        2
 70
     0
 43
0.2
 10
323.983343
 20
25.333133
 10
323.419237
 20
25.333133
  0
LWPOLYLINE
  5
240
330
229
100
AcDbEntity
  8
0
  6
Continuous
 62
     7
100
AcDbPolyline
 90
        2
 70
     0
 43
0.2
 10
323.419237
 20
25.333133
 10
323.419237
 20
26.978215
  0
LWPOLYLINE
  5
241
330
229
100
AcDbEntity
  8
0
  6
Continuous
 62
     7
100
AcDbPolyline
 90
        2
 70
     0
 43
0.2
 10
323.419237
 20
26.978215
 10
323.187627
 20
26.978215
  0
SPLINE
  5
242
330
229
100
AcDbEntity
  8
0
  6
Continuous
 62
     7
100
AcDbSpline
 70
     3
 71
     3
 72
    35
 73
    31
 74
     0
 42
0.000000001
 43
0.0000001
 40
0.0
 40
0.0
 40
0.0
 40
0.0
 40
1.0
 40
1.0
 40
1.0
 40
2.0
 40
2.0
 40
2.0
 40
3.0
 40
3.0
 40
3.0
 40
4.0
 40
4.0
 40
4.0
 40
5.0
 40
5.0
 40
5.0
 40
6.0
 40
6.0
 40
6.0
 40
7.0
 40
7.0
 40
7.0
 40
8.0
 40
8.0
 40
8.0
 40
9.0
 40
9.0
 40
9.0
 40
10.0
 40
10.0
 40
10.0
 40
10.0
 10
325.3816365597
 20
26.2737030253
 30
0.0
 10
325.3816365597
 20
26.2737030253
 30
0.0
 10
325.3816365597
 20
25.6115877461
 30
0.0
 10
325.3816365597
 20
25.6115877461
 30
0.0
 10
325.3816365597
 20
25.2964941508
 30
0.0
 10
325.5295002486
 20
25.0818955228
 30
0.0
 10
325.8695867329
 20
25.0818955228
 30
0.0
 10
326.2091498059
 20
25.0818955228
 30
0.0
 10
326.3572752003
 20
25.2964941508
 30
0.0
 10
326.3572752003
 20
25.6115877461
 30
0.0
 10
326.3572752003
 20
25.6115877461
 30
0.0
 10
326.3572752003
 20
26.2737030253
 30
0.0
 10
326.3572752003
 20
26.2737030253
 30
0.0
 10
326.3572752003
 20
26.2737030253
 30
0.0
 10
326.1352179614
 20
26.2737030253
 30
0.0
 10
326.1352179614
 20
26.2737030253
 30
0.0
 10
326.1352179614
 20
26.2737030253
 30
0.0
 10
326.1352179614
 20
25.6367114879
 30
0.0
 10
326.1352179614
 20
25.6367114879
 30
0.0
 10
326.1352179614
 20
25.4509004807
 30
0.0
 10
326.088503504
 20
25.2881195702
 30
0.0
 10
325.8695867329
 20
25.2881195702
 30
0.0
 10
325.6501465504
 20
25.2881195702
 30
0.0
 10
325.603432093
 20
25.4509004807
 30
0.0
 10
325.603432093
 20
25.6367114879
 30
0.0
 10
325.603432093
 20
25.6367114879
 30
0.0
 10
325.603432093
 20
26.2737030253
 30
0.0
 10
325.603432093
 20
26.2737030253
 30
0.0
 10
325.603432093
 20
26.2737030253
 30
0.0
 10
325.3816365597
 20
26.2737030253
 30
0.0
 10
325.3816365597
 20
26.2737030253
 30
0.0
  0
SPLINE
  5
243
330
229
100
AcDbEntity
  8
0
  6
Continuous
 62
     7
100
AcDbSpline
 70
     3
 71
     3
 72
    35
 73
    31
 74
     0
 42
0.000000001
 43
0.0000001
 40
0.0
 40
0.0
 40
0.0
 40
0.0
 40
1.0
 40
1.0
 40
1.0
 40
2.0
 40
2.0
 40
2.0
 40
3.0
 40
3.0
 40
3.0
 40
4.0
 40
4.0
 40
4.0
 40
5.0
 40
5.0
 40
5.0
 40
6.0
 40
6.0
 40
6.0
 40
7.0
 40
7.0
 40
7.0
 40
8.0
 40
8.0
 40
8.0
 40
9.0
 40
9.0
 40
9.0
 40
10.0
 40
10.0
 40
10.0
 40
10.0
 10
328.7804077575
 20
26.2323535335
 30
0.0
 10
328.6919512499
 20
26.2836478398
 30
0.0
 10
328.5785018532
 20
26.3087715816
 30
0.0
 10
328.4748664182
 20
26.3087715816
 30
0.0
 10
328.1199935651
 20
26.3087715816
 30
0.0
 10
327.8445483748
 20
26.0449722925
 30
0.0
 10
327.8445483748
 20
25.6874823829
 30
0.0
 10
327.8445483748
 20
25.3425543442
 30
0.0
 10
328.12300318
 20
25.0824189341
 30
0.0
 10
328.462566253
 20
25.0824189341
 30
0.0
 10
328.5785018532
 20
25.0824189341
 30
0.0
 10
328.6792585261
 20
25.1044022082
 30
0.0
 10
328.7804077575
 20
25.1583135708
 30
0.0
 10
328.7804077575
 20
25.1583135708
 30
0.0
 10
328.7804077575
 20
25.4409556663
 30
0.0
 10
328.7804077575
 20
25.4409556663
 30
0.0
 10
328.6965310986
 20
25.347788457
 30
0.0
 10
328.5930265165
 20
25.2886429815
 30
0.0
 10
328.4649216038
 20
25.2886429815
 30
0.0
 10
328.2312184637
 20
25.2886429815
 30
0.0
 10
328.0659513496
 20
25.4608452952
 30
0.0
 10
328.0659513496
 20
25.6974271973
 30
0.0
 10
328.0659513496
 20
25.9094087689
 30
0.0
 10
328.2337046673
 20
26.1015007116
 30
0.0
 10
328.4505277933
 20
26.1015007116
 30
0.0
 10
328.5833434076
 20
26.1015007116
 30
0.0
 10
328.6919512499
 20
26.0475893489
 30
0.0
 10
328.7804077575
 20
25.9465709704
 30
0.0
 10
328.7804077575
 20
25.9465709704
 30
0.0
 10
328.7804077575
 20
26.2323535335
 30
0.0
 10
328.7804077575
 20
26.2323535335
 30
0.0
  0
SPLINE
  5
244
330
229
100
AcDbEntity
  8
0
  6
Continuous
 62
     7
100
AcDbSpline
 70
     3
 71
     3
 72
    32
 73
    28
 74
     0
 42
0.000000001
 43
0.0000001
 40
0.0
 40
0.0
 40
0.0
 40
0.0
 40
1.0
 40
1.0
 40
1.0
 40
2.0
 40
2.0
 40
2.0
 40
3.0
 40
3.0
 40
3.0
 40
4.0
 40
4.0
 40
4.0
 40
5.0
 40
5.0
 40
5.0
 40
6.0
 40
6.0
 40
6.0
 40
7.0
 40
7.0
 40
7.0
 40
8.0
 40
8.0
 40
8.0
 40
9.0
 40
9.0
 40
9.0
 40
9.0
 10
331.3122790098
 20
25.6607884072
 30
0.0
 10
331.3122790098
 20
25.6607884072
 30
0.0
 10
331.3122790098
 20
25.6948101409
 30
0.0
 10
331.3122790098
 20
25.6948101409
 30
0.0
 10
331.3122790098
 20
26.0371211232
 30
0.0
 10
331.139422432
 20
26.3087715816
 30
0.0
 10
330.7727728248
 20
26.3087715816
 30
0.0
 10
330.4011508104
 20
26.3087715816
 30
0.0
 10
330.2114142186
 20
26.042355236
 30
0.0
 10
330.2114142186
 20
25.6874823829
 30
0.0
 10
330.2114142186
 20
25.347788457
 30
0.0
 10
330.4254894353
 20
25.0818955228
 30
0.0
 10
330.7776143792
 20
25.0818955228
 30
0.0
 10
331.0016344104
 20
25.0818955228
 30
0.0
 10
331.2038020204
 20
25.1975694174
 30
0.0
 10
331.3122790098
 20
25.3969891181
 30
0.0
 10
331.3122790098
 20
25.3969891181
 30
0.0
 10
331.1246360631
 20
25.5037650208
 30
0.0
 10
331.1246360631
 20
25.5037650208
 30
0.0
 10
331.0411519627
 20
25.3650610295
 30
0.0
 10
330.9499475457
 20
25.2792215783
 30
0.0
 10
330.7803622885
 20
25.2792215783
 30
0.0
 10
330.5683807169
 20
25.2792215783
 30
0.0
 10
330.4354342498
 20
25.4639857629
 30
0.0
 10
330.433078899
 20
25.6607884072
 30
0.0
 10
330.433078899
 20
25.6607884072
 30
0.0
 10
331.3122790098
 20
25.6607884072
 30
0.0
 10
331.3122790098
 20
25.6607884072
 30
0.0
  0
SPLINE
  5
245
330
229
100
AcDbEntity
  8
0
  6
Continuous
 62
     7
100
AcDbSpline
 70
     3
 71
     3
 72
    14
 73
    10
 74
     0
 42
0.000000001
 43
0.0000001
 40
0.0
 40
0.0
 40
0.0
 40
0.0
 40
1.0
 40
1.0
 40
1.0
 40
2.0
 40
2.0
 40
2.0
 40
3.0
 40
3.0
 40
3.0
 40
3.0
 10
330.4451173586
 20
25.8282800193
 30
0.0
 10
330.472727304
 20
25.993154575
 30
0.0
 10
330.6005705111
 20
26.1161562276
 30
0.0
 10
330.7727728248
 20
26.1161562276
 30
0.0
 10
330.9499475457
 20
26.1161562276
 30
0.0
 10
331.0633969424
 20
26.000482333
 30
0.0
 10
331.0906143294
 20
25.8282800193
 30
0.0
 10
331.0906143294
 20
25.8282800193
 30
0.0
 10
330.4451173586
 20
25.8282800193
 30
0.0
 10
330.4451173586
 20
25.8282800193
 30
0.0
  0
SPLINE
  5
246
330
229
100
AcDbEntity
  8
0
  6
Continuous
 62
     7
100
AcDbSpline
 70
     3
 71
     3
 72
    20
 73
    16
 74
     0
 42
0.000000001
 43
0.0000001
 40
0.0
 40
0.0
 40
0.0
 40
0.0
 40
1.0
 40
1.0
 40
1.0
 40
2.0
 40
2.0
 40
2.0
 40
3.0
 40
3.0
 40
3.0
 40
4.0
 40
4.0
 40
4.0
 40
5.0
 40
5.0
 40
5.0
 40
5.0
 10
333.33631046
 20
26.0376445345
 30
0.0
 10
333.33631046
 20
26.0376445345
 30
0.0
 10
333.7474500266
 20
25.5351696981
 30
0.0
 10
333.7474500266
 20
25.5351696981
 30
0.0
 10
333.6313835735
 20
25.4194958035
 30
0.0
 10
333.493595552
 20
25.2891663928
 30
0.0
 10
333.3216549439
 20
25.2891663928
 30
0.0
 10
333.1442185173
 20
25.2891663928
 30
0.0
 10
332.9767269052
 20
25.4535175372
 30
0.0
 10
332.9767269052
 20
25.6304305525
 30
0.0
 10
332.9767269052
 20
25.8083903904
 30
0.0
 10
333.1864839788
 20
25.9345325107
 30
0.0
 10
333.3140654802
 20
26.0224656071
 30
0.0
 10
333.3140654802
 20
26.0224656071
 30
0.0
 10
333.33631046
 20
26.0376445345
 30
0.0
 10
333.33631046
 20
26.0376445345
 30
0.0
  0
SPLINE
  5
247
330
229
100
AcDbEntity
  8
0
  6
Continuous
 62
     7
100
AcDbSpline
 70
     3
 71
     3
 72
    23
 73
    19
 74
     0
 42
0.000000001
 43
0.0000001
 40
0.0
 40
0.0
 40
0.0
 40
0.0
 40
1.0
 40
1.0
 40
1.0
 40
2.0
 40
2.0
 40
2.0
 40
3.0
 40
3.0
 40
3.0
 40
4.0
 40
4.0
 40
4.0
 40
5.0
 40
5.0
 40
5.0
 40
6.0
 40
6.0
 40
6.0
 40
6.0
 10
333.3856419738
 20
26.3286612105
 30
0.0
 10
333.3856419738
 20
26.3286612105
 30
0.0
 10
333.3240102947
 20
26.4071729037
 30
0.0
 10
333.3240102947
 20
26.4071729037
 30
0.0
 10
333.270098932
 20
26.4757397824
 30
0.0
 10
333.2133088073
 20
26.5448300724
 30
0.0
 10
333.2133088073
 20
26.6385206929
 30
0.0
 10
333.2133088073
 20
26.7573350553
 30
0.0
 10
333.3092239258
 20
26.8347999259
 30
0.0
 10
333.4201871188
 20
26.8347999259
 30
0.0
 10
333.5434504771
 20
26.8347999259
 30
0.0
 10
333.6367485392
 20
26.7636159907
 30
0.0
 10
333.6367485392
 20
26.63328658
 30
0.0
 10
333.6367485392
 20
26.4982464678
 30
0.0
 10
333.5086436265
 20
26.4218284197
 30
0.0
 10
333.4150838588
 20
26.3480274282
 30
0.0
 10
333.4150838588
 20
26.3480274282
 30
0.0
 10
333.3856419738
 20
26.3286612105
 30
0.0
 10
333.3856419738
 20
26.3286612105
 30
0.0
  0
SPLINE
  5
248
330
229
100
AcDbEntity
  8
0
  6
Continuous
 62
     7
100
AcDbSpline
 70
     3
 71
     3
 72
    50
 73
    46
 74
     0
 42
0.000000001
 43
0.0000001
 40
0.0
 40
0.0
 40
0.0
 40
0.0
 40
1.0
 40
1.0
 40
1.0
 40
2.0
 40
2.0
 40
2.0
 40
3.0
 40
3.0
 40
3.0
 40
4.0
 40
4.0
 40
4.0
 40
5.0
 40
5.0
 40
5.0
 40
6.0
 40
6.0
 40
6.0
 40
7.0
 40
7.0
 40
7.0
 40
8.0
 40
8.0
 40
8.0
 40
9.0
 40
9.0
 40
9.0
 40
10.0
 40
10.0
 40
10.0
 40
11.0
 40
11.0
 40
11.0
 40
12.0
 40
12.0
 40
12.0
 40
13.0
 40
13.0
 40
13.0
 40
14.0
 40
14.0
 40
14.0
 40
15.0
 40
15.0
 40
15.0
 40
15.0
 10
334.0877982165
 20
25.1216747807
 30
0.0
 10
334.0877982165
 20
25.1216747807
 30
0.0
 10
334.3731882212
 20
25.1216747807
 30
0.0
 10
334.3731882212
 20
25.1216747807
 30
0.0
 10
334.3731882212
 20
25.1216747807
 30
0.0
 10
334.0408220534
 20
25.5325526417
 30
0.0
 10
334.0408220534
 20
25.5325526417
 30
0.0
 10
334.0408220534
 20
25.5325526417
 30
0.0
 10
334.2673282883
 20
25.7984455759
 30
0.0
 10
334.2673282883
 20
25.7984455759
 30
0.0
 10
334.2673282883
 20
25.7984455759
 30
0.0
 10
334.119072041
 20
25.951281672
 30
0.0
 10
334.119072041
 20
25.951281672
 30
0.0
 10
334.119072041
 20
25.951281672
 30
0.0
 10
333.9031648847
 20
25.7000442538
 30
0.0
 10
333.9031648847
 20
25.7000442538
 30
0.0
 10
333.9031648847
 20
25.7000442538
 30
0.0
 10
333.5161022373
 20
26.1679739451
 30
0.0
 10
333.5161022373
 20
26.1679739451
 30
0.0
 10
333.6715553898
 20
26.2820776059
 30
0.0
 10
333.8538333708
 20
26.4218284197
 30
0.0
 10
333.8538333708
 20
26.6311929349
 30
0.0
 10
333.8538333708
 20
26.875102595
 30
0.0
 10
333.6517966137
 20
27.0185172879
 30
0.0
 10
333.4252903789
 20
27.0185172879
 30
0.0
 10
333.1811190131
 20
27.0185172879
 30
0.0
 10
332.996747387
 20
26.867774837
 30
0.0
 10
332.996747387
 20
26.611303306
 30
0.0
 10
332.996747387
 20
26.4537565083
 30
0.0
 10
333.0954104147
 20
26.3160993396
 30
0.0
 10
333.2007469364
 20
26.2051361466
 30
0.0
 10
333.2007469364
 20
26.2051361466
 30
0.0
 10
333.0852038946
 20
26.1213903405
 30
0.0
 10
333.0852038946
 20
26.1213903405
 30
0.0
 10
332.9075057624
 20
25.993154575
 30
0.0
 10
332.7601654848
 20
25.8654422207
 30
0.0
 10
332.7601654848
 20
25.6283369073
 30
0.0
 10
332.7601654848
 20
25.3080091992
 30
0.0
 10
333.0187306611
 20
25.0818955228
 30
0.0
 10
333.3291135548
 20
25.0818955228
 30
0.0
 10
333.5480303259
 20
25.0818955228
 30
0.0
 10
333.7452255286
 20
25.2069908206
 30
0.0
 10
333.8854997538
 20
25.3729121989
 30
0.0
 10
333.8854997538
 20
25.3729121989
 30
0.0
 10
334.0877982165
 20
25.1216747807
 30
0.0
 10
334.0877982165
 20
25.1216747807
 30
0.0
  0
LWPOLYLINE
  5
249
330
229
100
AcDbEntity
  8
0
  6
Continuous
 62
     7
100
AcDbPolyline
 90
        2
 70
     0
 43
0.2
 10
336.023242
 20
26.978215
 10
335.791895
 20
26.978215
  0
LWPOLYLINE
  5
24A
330
229
100
AcDbEntity
  8
0
  6
Continuous
 62
     7
100
AcDbPolyline
 90
        2
 70
     0
 43
0.2
 10
335.791895
 20
26.978215
 10
335.791895
 20
25.121151
  0
LWPOLYLINE
  5
24B
330
229
100
AcDbEntity
  8
0
  6
Continuous
 62
     7
100
AcDbPolyline
 90
        2
 70
     0
 43
0.2
 10
335.791895
 20
25.121151
 10
336.587218
 20
25.121151
  0
LWPOLYLINE
  5
24C
330
229
100
AcDbEntity
  8
0
  6
Continuous
 62
     7
100
AcDbPolyline
 90
        2
 70
     0
 43
0.2
 10
336.587218
 20
25.121151
 10
336.587218
 20
25.333133
  0
LWPOLYLINE
  5
24D
330
229
100
AcDbEntity
  8
0
  6
Continuous
 62
     7
100
AcDbPolyline
 90
        2
 70
     0
 43
0.2
 10
336.587218
 20
25.333133
 10
336.023242
 20
25.333133
  0
LWPOLYLINE
  5
24E
330
229
100
AcDbEntity
  8
0
  6
Continuous
 62
     7
100
AcDbPolyline
 90
        2
 70
     0
 43
0.2
 10
336.023242
 20
25.333133
 10
336.023242
 20
26.978215
  0
LWPOLYLINE
  5
24F
330
229
100
AcDbEntity
  8
0
  6
Continuous
 62
     7
100
AcDbPolyline
 90
        2
 70
     0
 43
0.2
 10
338.266321
 20
26.273703
 10
338.04518
 20
26.273703
  0
LWPOLYLINE
  5
250
330
229
100
AcDbEntity
  8
0
  6
Continuous
 62
     7
100
AcDbPolyline
 90
        2
 70
     0
 43
0.2
 10
338.04518
 20
26.273703
 10
338.04518
 20
25.121675
  0
LWPOLYLINE
  5
251
330
229
100
AcDbEntity
  8
0
  6
Continuous
 62
     7
100
AcDbPolyline
 90
        2
 70
     0
 43
0.2
 10
338.04518
 20
25.121675
 10
338.266321
 20
25.121675
  0
LWPOLYLINE
  5
252
330
229
100
AcDbEntity
  8
0
  6
Continuous
 62
     7
100
AcDbPolyline
 90
        2
 70
     0
 43
0.2
 10
338.266321
 20
25.121675
 10
338.266321
 20
26.273703
  0
LWPOLYLINE
  5
253
330
229
100
AcDbEntity
  8
0
  6
Continuous
 62
     7
100
AcDbPolyline
 90
        2
 70
     1
 43
0.2
 10
338.003298
 20
26.803657
 42
1.0
 10
338.308465
 20
26.803657
 42
1.0
  0
SPLINE
  5
254
330
229
100
AcDbEntity
  8
0
  6
Continuous
 62
     7
100
AcDbSpline
 70
     3
 71
     3
 72
    17
 73
    13
 74
     0
 42
0.000000001
 43
0.0000001
 40
0.0
 40
0.0
 40
0.0
 40
0.0
 40
1.0
 40
1.0
 40
1.0
 40
2.0
 40
2.0
 40
2.0
 40
3.0
 40
3.0
 40
3.0
 40
4.0
 40
4.0
 40
4.0
 40
4.0
 10
340.396605322
 20
25.2792215783
 30
0.0
 10
340.1626404764
 20
25.2792215783
 30
0.0
 10
340.0323110657
 20
25.4812583354
 30
0.0
 10
340.0323110657
 20
25.6974271973
 30
0.0
 10
340.0323110657
 20
25.9120258254
 30
0.0
 10
340.1681362949
 20
26.1109221148
 30
0.0
 10
340.396605322
 20
26.1109221148
 30
0.0
 10
340.6360659862
 20
26.1109221148
 30
0.0
 10
340.7716295098
 20
25.9219706398
 30
0.0
 10
340.7716295098
 20
25.6974271973
 30
0.0
 10
340.7716295098
 20
25.471313521
 30
0.0
 10
340.638421337
 20
25.2792215783
 30
0.0
 10
340.396605322
 20
25.2792215783
 30
0.0
  0
SPLINE
  5
255
330
229
100
AcDbEntity
  8
0
  6
Continuous
 62
     7
100
AcDbSpline
 70
     3
 71
     3
 72
    50
 73
    46
 74
     0
 42
0.000000001
 43
0.0000001
 40
0.0
 40
0.0
 40
0.0
 40
0.0
 40
1.0
 40
1.0
 40
1.0
 40
2.0
 40
2.0
 40
2.0
 40
3.0
 40
3.0
 40
3.0
 40
4.0
 40
4.0
 40
4.0
 40
5.0
 40
5.0
 40
5.0
 40
6.0
 40
6.0
 40
6.0
 40
7.0
 40
7.0
 40
7.0
 40
8.0
 40
8.0
 40
8.0
 40
9.0
 40
9.0
 40
9.0
 40
10.0
 40
10.0
 40
10.0
 40
11.0
 40
11.0
 40
11.0
 40
12.0
 40
12.0
 40
12.0
 40
13.0
 40
13.0
 40
13.0
 40
14.0
 40
14.0
 40
14.0
 40
15.0
 40
15.0
 40
15.0
 40
15.0
 10
340.9807323193
 20
26.2742264366
 30
0.0
 10
340.9807323193
 20
26.2742264366
 30
0.0
 10
340.7590676389
 20
26.2742264366
 30
0.0
 10
340.7590676389
 20
26.2742264366
 30
0.0
 10
340.7590676389
 20
26.2742264366
 30
0.0
 10
340.7590676389
 20
26.076900381
 30
0.0
 10
340.7590676389
 20
26.076900381
 30
0.0
 10
340.7590676389
 20
26.076900381
 30
0.0
 10
340.7543569373
 20
26.076900381
 30
0.0
 10
340.7543569373
 20
26.076900381
 30
0.0
 10
340.6630216676
 20
26.2197916626
 30
0.0
 10
340.5251027932
 20
26.3082481703
 30
0.0
 10
340.3523770682
 20
26.3082481703
 30
0.0
 10
340.0200109004
 20
26.3082481703
 30
0.0
 10
339.8109080909
 20
26.020371962
 30
0.0
 10
339.8109080909
 20
25.7047549554
 30
0.0
 10
339.8109080909
 20
25.375005844
 30
0.0
 10
340.0079724408
 20
25.0818955228
 30
0.0
 10
340.362845294
 20
25.0818955228
 30
0.0
 10
340.5251027932
 20
25.0818955228
 30
0.0
 10
340.6651153127
 20
25.1703520305
 30
0.0
 10
340.7543569373
 20
25.3012048524
 30
0.0
 10
340.7543569373
 20
25.3012048524
 30
0.0
 10
340.7590676389
 20
25.3012048524
 30
0.0
 10
340.7590676389
 20
25.3012048524
 30
0.0
 10
340.7590676389
 20
25.3012048524
 30
0.0
 10
340.7590676389
 20
25.0818955228
 30
0.0
 10
340.7590676389
 20
25.0818955228
 30
0.0
 10
340.7590676389
 20
24.8453136207
 30
0.0
 10
340.7025392198
 20
24.6584557909
 30
0.0
 10
340.4293185275
 20
24.6584557909
 30
0.0
 10
340.2270200648
 20
24.6584557909
 30
0.0
 10
340.0843904888
 20
24.776746742
 30
0.0
 10
340.0843904888
 20
24.9829707894
 30
0.0
 10
340.0843904888
 20
24.9829707894
 30
0.0
 10
339.8627258084
 20
24.9829707894
 30
0.0
 10
339.8627258084
 20
24.9829707894
 30
0.0
 10
339.8676982157
 20
24.6584557909
 30
0.0
 10
340.0987842992
 20
24.4616531467
 30
0.0
 10
340.4191120074
 20
24.4616531467
 30
0.0
 10
340.8671520698
 20
24.4616531467
 30
0.0
 10
340.9807323193
 20
24.7469122986
 30
0.0
 10
340.9807323193
 20
25.1436580548
 30
0.0
 10
340.9807323193
 20
25.1436580548
 30
0.0
 10
340.9807323193
 20
26.2742264366
 30
0.0
 10
340.9807323193
 20
26.2742264366
 30
0.0
  0
SPLINE
  5
256
330
229
100
AcDbEntity
  8
0
  6
Continuous
 62
     7
100
AcDbSpline
 70
     3
 71
     3
 72
    44
 73
    40
 74
     0
 42
0.000000001
 43
0.0000001
 40
0.0
 40
0.0
 40
0.0
 40
0.0
 40
1.0
 40
1.0
 40
1.0
 40
2.0
 40
2.0
 40
2.0
 40
3.0
 40
3.0
 40
3.0
 40
4.0
 40
4.0
 40
4.0
 40
5.0
 40
5.0
 40
5.0
 40
6.0
 40
6.0
 40
6.0
 40
7.0
 40
7.0
 40
7.0
 40
8.0
 40
8.0
 40
8.0
 40
9.0
 40
9.0
 40
9.0
 40
10.0
 40
10.0
 40
10.0
 40
11.0
 40
11.0
 40
11.0
 40
12.0
 40
12.0
 40
12.0
 40
13.0
 40
13.0
 40
13.0
 40
13.0
 10
342.5496576547
 20
27.2592864803
 30
0.0
 10
342.5496576547
 20
27.2592864803
 30
0.0
 10
342.5496576547
 20
25.1211513694
 30
0.0
 10
342.5496576547
 20
25.1211513694
 30
0.0
 10
342.5496576547
 20
25.1211513694
 30
0.0
 10
342.7710606295
 20
25.1211513694
 30
0.0
 10
342.7710606295
 20
25.1211513694
 30
0.0
 10
342.7710606295
 20
25.1211513694
 30
0.0
 10
342.7710606295
 20
25.6508435927
 30
0.0
 10
342.7710606295
 20
25.6508435927
 30
0.0
 10
342.7710606295
 20
25.8607315192
 30
0.0
 10
342.7710606295
 20
26.111445526
 30
0.0
 10
343.0563197814
 20
26.111445526
 30
0.0
 10
343.2832185746
 20
26.111445526
 30
0.0
 10
343.310174256
 20
25.9784990589
 30
0.0
 10
343.310174256
 20
25.782219826
 30
0.0
 10
343.310174256
 20
25.782219826
 30
0.0
 10
343.310174256
 20
25.1211513694
 30
0.0
 10
343.310174256
 20
25.1211513694
 30
0.0
 10
343.310174256
 20
25.1211513694
 30
0.0
 10
343.532100642
 20
25.1211513694
 30
0.0
 10
343.532100642
 20
25.1211513694
 30
0.0
 10
343.532100642
 20
25.1211513694
 30
0.0
 10
343.532100642
 20
25.8083903904
 30
0.0
 10
343.532100642
 20
25.8083903904
 30
0.0
 10
343.532100642
 20
26.0889388407
 30
0.0
 10
343.4480931303
 20
26.3087715816
 30
0.0
 10
343.1230547206
 20
26.3087715816
 30
0.0
 10
342.9833039067
 20
26.3087715816
 30
0.0
 10
342.8451233267
 20
26.242298348
 30
0.0
 10
342.7757713311
 20
26.1192966954
 30
0.0
 10
342.7757713311
 20
26.1192966954
 30
0.0
 10
342.7710606295
 20
26.1192966954
 30
0.0
 10
342.7710606295
 20
26.1192966954
 30
0.0
 10
342.7710606295
 20
26.1192966954
 30
0.0
 10
342.7710606295
 20
27.2592864803
 30
0.0
 10
342.7710606295
 20
27.2592864803
 30
0.0
 10
342.7710606295
 20
27.2592864803
 30
0.0
 10
342.5496576547
 20
27.2592864803
 30
0.0
 10
342.5496576547
 20
27.2592864803
 30
0.0
  0
LWPOLYLINE
  5
257
330
229
100
AcDbEntity
  8
0
  6
Continuous
 62
     7
100
AcDbPolyline
 90
        2
 70
     0
 43
0.2
 10
345.371891
 20
26.066956
 10
345.588322
 20
26.066956
  0
LWPOLYLINE
  5
258
330
229
100
AcDbEntity
  8
0
  6
Continuous
 62
     7
100
AcDbPolyline
 90
        2
 70
     0
 43
0.2
 10
345.588322
 20
26.066956
 10
345.588322
 20
26.273703
  0
LWPOLYLINE
  5
259
330
229
100
AcDbEntity
  8
0
  6
Continuous
 62
     7
100
AcDbPolyline
 90
        2
 70
     0
 43
0.2
 10
345.588322
 20
26.273703
 10
345.371891
 20
26.273703
  0
LWPOLYLINE
  5
25A
330
229
100
AcDbEntity
  8
0
  6
Continuous
 62
     7
100
AcDbPolyline
 90
        2
 70
     0
 43
0.2
 10
345.371891
 20
26.273703
 10
345.371891
 20
26.714415
  0
LWPOLYLINE
  5
25B
330
229
100
AcDbEntity
  8
0
  6
Continuous
 62
     7
100
AcDbPolyline
 90
        2
 70
     0
 43
0.2
 10
345.371891
 20
26.714415
 10
345.150227
 20
26.714415
  0
LWPOLYLINE
  5
25C
330
229
100
AcDbEntity
  8
0
  6
Continuous
 62
     7
100
AcDbPolyline
 90
        2
 70
     0
 43
0.2
 10
345.150227
 20
26.714415
 10
345.150227
 20
26.273703
  0
LWPOLYLINE
  5
25D
330
229
100
AcDbEntity
  8
0
  6
Continuous
 62
     7
100
AcDbPolyline
 90
        2
 70
     0
 43
0.2
 10
345.150227
 20
26.273703
 10
345.02958
 20
26.273703
  0
LWPOLYLINE
  5
25E
330
229
100
AcDbEntity
  8
0
  6
Continuous
 62
     7
100
AcDbPolyline
 90
        2
 70
     0
 43
0.2
 10
345.02958
 20
26.273703
 10
345.02958
 20
26.066956
  0
LWPOLYLINE
  5
25F
330
229
100
AcDbEntity
  8
0
  6
Continuous
 62
     7
100
AcDbPolyline
 90
        2
 70
     0
 43
0.2
 10
345.02958
 20
26.066956
 10
345.150227
 20
26.066956
  0
LWPOLYLINE
  5
260
330
229
100
AcDbEntity
  8
0
  6
Continuous
 62
     7
100
AcDbPolyline
 90
        2
 70
     0
 43
0.2
 10
345.150227
 20
26.066956
 10
345.150227
 20
25.121151
  0
LWPOLYLINE
  5
261
330
229
100
AcDbEntity
  8
0
  6
Continuous
 62
     7
100
AcDbPolyline
 90
        2
 70
     0
 43
0.2
 10
345.150227
 20
25.121151
 10
345.371891
 20
25.121151
  0
LWPOLYLINE
  5
262
330
229
100
AcDbEntity
  8
0
  6
Continuous
 62
     7
100
AcDbPolyline
 90
        2
 70
     0
 43
0.2
 10
345.371891
 20
25.121151
 10
345.371891
 20
26.066956
  0
SPLINE
  5
263
330
229
100
AcDbEntity
  8
0
  6
Continuous
 62
     7
100
AcDbSpline
 70
     3
 71
     3
 72
    20
 73
    16
 74
     0
 42
0.000000001
 43
0.0000001
 40
0.0
 40
0.0
 40
0.0
 40
0.0
 40
1.0
 40
1.0
 40
1.0
 40
2.0
 40
2.0
 40
2.0
 40
3.0
 40
3.0
 40
3.0
 40
4.0
 40
4.0
 40
4.0
 40
5.0
 40
5.0
 40
5.0
 40
5.0
 10
333.1539016261
 20
35.4820778128
 30
0.0
 10
333.1539016261
 20
35.4820778128
 30
0.0
 10
335.4702582806
 20
32.6525163906
 30
0.0
 10
335.4702582806
 20
32.6525163906
 30
0.0
 10
334.8186112272
 20
32.0003459259
 30
0.0
 10
334.0417380232
 20
31.2644296551
 30
0.0
 10
333.0705483785
 20
31.2644296551
 30
0.0
 10
332.0720104941
 20
31.2644296551
 30
0.0
 10
331.1286925006
 20
32.1940081024
 30
0.0
 10
331.1286925006
 20
33.1932002509
 30
0.0
 10
331.1286925006
 20
34.1923923995
 30
0.0
 10
332.3075455737
 20
34.8989976381
 30
0.0
 10
333.029068034
 20
35.398855418
 30
0.0
 10
333.029068034
 20
35.398855418
 30
0.0
 10
333.1539016261
 20
35.4820778128
 30
0.0
 10
333.1539016261
 20
35.4820778128
 30
0.0
  0
SPLINE
  5
264
330
229
100
AcDbEntity
  8
0
  6
Continuous
 62
     7
100
AcDbSpline
 70
     3
 71
     3
 72
    23
 73
    19
 74
     0
 42
0.000000001
 43
0.0000001
 40
0.0
 40
0.0
 40
0.0
 40
0.0
 40
1.0
 40
1.0
 40
1.0
 40
2.0
 40
2.0
 40
2.0
 40
3.0
 40
3.0
 40
3.0
 40
4.0
 40
4.0
 40
4.0
 40
5.0
 40
5.0
 40
5.0
 40
6.0
 40
6.0
 40
6.0
 40
6.0
 10
333.4313096087
 20
37.1198317325
 30
0.0
 10
333.4313096087
 20
37.1198317325
 30
0.0
 10
333.0848113361
 20
37.5631610934
 30
0.0
 10
333.0848113361
 20
37.5631610934
 30
0.0
 10
332.7790082912
 20
37.9512705633
 30
0.0
 10
332.4601199641
 20
38.3397725917
 30
0.0
 10
332.4601199641
 20
38.8667169058
 30
0.0
 10
332.4601199641
 20
39.5328886224
 30
0.0
 10
333.0014580886
 20
39.9766105417
 30
0.0
 10
333.6253643437
 20
39.9766105417
 30
0.0
 10
334.3191460058
 20
39.9766105417
 30
0.0
 10
334.8463520255
 20
39.574368967
 30
0.0
 10
334.8463520255
 20
38.839368666
 30
0.0
 10
334.8463520255
 20
38.0761041555
 30
0.0
 10
334.1250912708
 20
37.6459909297
 30
0.0
 10
333.5980161039
 20
37.2302715143
 30
0.0
 10
333.5980161039
 20
37.2302715143
 30
0.0
 10
333.4313096087
 20
37.1198317325
 30
0.0
 10
333.4313096087
 20
37.1198317325
 30
0.0
  0
SPLINE
  5
265
330
229
100
AcDbEntity
  8
0
  6
Continuous
 62
     7
100
AcDbSpline
 70
     3
 71
     3
 72
    50
 73
    46
 74
     0
 42
0.000000001
 43
0.0000001
 40
0.0
 40
0.0
 40
0.0
 40
0.0
 40
1.0
 40
1.0
 40
1.0
 40
2.0
 40
2.0
 40
2.0
 40
3.0
 40
3.0
 40
3.0
 40
4.0
 40
4.0
 40
4.0
 40
5.0
 40
5.0
 40
5.0
 40
6.0
 40
6.0
 40
6.0
 40
7.0
 40
7.0
 40
7.0
 40
8.0
 40
8.0
 40
8.0
 40
9.0
 40
9.0
 40
9.0
 40
10.0
 40
10.0
 40
10.0
 40
11.0
 40
11.0
 40
11.0
 40
12.0
 40
12.0
 40
12.0
 40
13.0
 40
13.0
 40
13.0
 40
14.0
 40
14.0
 40
14.0
 40
15.0
 40
15.0
 40
15.0
 40
15.0
 10
337.3848967716
 20
30.3212425144
 30
0.0
 10
337.3848967716
 20
30.3212425144
 30
0.0
 10
338.9941247762
 20
30.3212425144
 30
0.0
 10
338.9941247762
 20
30.3212425144
 30
0.0
 10
338.9941247762
 20
30.3212425144
 30
0.0
 10
337.1210974826
 20
32.6383842858
 30
0.0
 10
337.1210974826
 20
32.6383842858
 30
0.0
 10
337.1210974826
 20
32.6383842858
 30
0.0
 10
338.397435908
 20
34.1358639804
 30
0.0
 10
338.397435908
 20
34.1358639804
 30
0.0
 10
338.397435908
 20
34.1358639804
 30
0.0
 10
337.5652119603
 20
34.9968755489
 30
0.0
 10
337.5652119603
 20
34.9968755489
 30
0.0
 10
337.5652119603
 20
34.9968755489
 30
0.0
 10
336.344616837
 20
33.5815714265
 30
0.0
 10
336.344616837
 20
33.5815714265
 30
0.0
 10
336.344616837
 20
33.5815714265
 30
0.0
 10
334.1667024682
 20
36.216947261
 30
0.0
 10
334.1667024682
 20
36.216947261
 30
0.0
 10
335.0402759076
 20
36.8549856209
 30
0.0
 10
336.0669471488
 20
37.6459909297
 30
0.0
 10
336.0669471488
 20
38.8248440028
 30
0.0
 10
336.0669471488
 20
40.1985369278
 30
0.0
 10
334.929051009
 20
41.0030200772
 30
0.0
 10
333.6537594061
 20
41.0030200772
 30
0.0
 10
332.2803281867
 20
41.0030200772
 30
0.0
 10
331.2393939879
 20
40.1567948776
 30
0.0
 10
331.2393939879
 20
38.7141425154
 30
0.0
 10
331.2393939879
 20
37.826567824
 30
0.0
 10
331.7947333644
 20
37.04969462
 30
0.0
 10
332.3908988213
 20
36.4252649535
 30
0.0
 10
332.3908988213
 20
36.4252649535
 30
0.0
 10
331.7389900622
 20
35.9536713832
 30
0.0
 10
331.7389900622
 20
35.9536713832
 30
0.0
 10
330.7404521778
 20
35.2324106285
 30
0.0
 10
329.907573966
 20
34.5111498738
 30
0.0
 10
329.907573966
 20
33.1795915574
 30
0.0
 10
329.907573966
 20
31.3759162594
 30
0.0
 10
331.3646201386
 20
30.0993161283
 30
0.0
 10
333.1121595759
 20
30.0993161283
 30
0.0
 10
334.3470176568
 20
30.0993161283
 30
0.0
 10
335.4563878815
 20
30.8074916008
 30
0.0
 10
336.2472623375
 20
31.7360232255
 30
0.0
 10
336.2472623375
 20
31.7360232255
 30
0.0
 10
337.3848967716
 20
30.3212425144
 30
0.0
 10
337.3848967716
 20
30.3212425144
 30
0.0
  0
LINE
  5
266
330
229
100
AcDbEntity
  8
0
  6
Continuous
 62
     7
100
AcDbLine
 10
323.187758
 20
28.295117
 30
0.0
 11
345.601669
 21
28.295117
 31
0.0
  0
LINE
  5
267
330
229
100
AcDbEntity
  8
0
  6
Continuous
 62
     7
100
AcDbLine
 10
345.601669
 20
28.295117
 30
0.0
 11
345.601669
 21
50.709028
 31
0.0
  0
LINE
  5
268
330
229
100
AcDbEntity
  8
0
  6
Continuous
 62
     7
100
AcDbLine
 10
345.601669
 20
50.709028
 30
0.0
 11
323.187758
 21
50.709028
 31
0.0
  0
LINE
  5
269
330
229
100
AcDbEntity
  8
0
  6
Continuous
 62
     7
100
AcDbLine
 10
323.187758
 20
50.709028
 30
0.0
 11
323.187758
 21
28.295117
 31
0.0
  0
ENDBLK
  5
26A
330
229
100
AcDbEntity
  8
0
  6
ByBlock
 62
     0
100
AcDbBlockEnd
  0
BLOCK
  5
295
330
22A
100
AcDbEntity
  8
0
100
AcDbBlockBegin
  2
*T6
 70
     1
 10
0.0
 20
0.0
 30
0.0
  3
*T6
  1
*T6
  0
LINE
  5
296
330
22A
100
AcDbEntity
  8
0
  6
Continuous
 62
     2
100
AcDbLine
 10
0.0
 20
0.0
 30
0.0
 11
90.0
 21
0.0
 31
0.0
  0
LINE
  5
297
330
22A
100
AcDbEntity
  8
0
  6
Continuous
 62
     2
100
AcDbLine
 10
0.0
 20
0.0
 30
0.0
 11
0.0
 21
-40.0
 31
0.0
  0
LINE
  5
298
330
22A
100
AcDbEntity
  8
0
  6
Continuous
 62
     2
100
AcDbLine
 10
30.0
 20
-6.0
 30
0.0
 11
90.0
 21
-6.0
 31
0.0
  0
LINE
  5
299
330
22A
100
AcDbEntity
  8
0
  6
Continuous
 62
     2
100
AcDbLine
 10
30.0
 20
-12.0
 30
0.0
 11
90.0
 21
-12.0
 31
0.0
  0
LINE
  5
29A
330
22A
100
AcDbEntity
  8
0
  6
Continuous
 62
     2
100
AcDbLine
 10
30.0
 20
-22.0
 30
0.0
 11
90.0
 21
-22.0
 31
0.0
  0
LINE
  5
29B
330
22A
100
AcDbEntity
  8
0
  6
Continuous
 62
     2
100
AcDbLine
 10
0.0
 20
-27.0
 30
0.0
 11
90.0
 21
-27.0
 31
0.0
  0
LINE
  5
29C
330
22A
100
AcDbEntity
  8
0
  6
Continuous
 62
     2
100
AcDbLine
 10
0.0
 20
-40.0
 30
0.0
 11
90.0
 21
-40.0
 31
0.0
  0
LINE
  5
29D
330
22A
100
AcDbEntity
  8
0
  6
Continuous
 62
     2
100
AcDbLine
 10
30.0
 20
0.0
 30
0.0
 11
30.0
 21
-27.0
 31
0.0
  0
LINE
  5
29E
330
22A
100
AcDbEntity
  8
0
  6
Continuous
 62
     2
100
AcDbLine
 10
70.0
 20
0.0
 30
0.0
 11
70.0
 21
-12.0
 31
0.0
  0
LINE
  5
29F
330
22A
100
AcDbEntity
  8
0
  6
Continuous
 62
     2
100
AcDbLine
 10
90.0
 20
0.0
 30
0.0
 11
90.0
 21
-40.0
 31
0.0
  0
MTEXT
  5
2A0
330
22A
100
AcDbEntity
  8
9_SOLID
  6
Continuous
 62
     2
100
AcDbMText
 10
31.4875
 20
-1.5
 30
0.0
 40
3.0
 41
43.33829
 46
0.0
 71
     1
 72
     1
  1
571_C_078
  7
TEXTSTYLE_2
 73
     1
 44
0.9
  0
MTEXT
  5
2A1
330
22A
100
AcDbEntity
  8
9_SOLID
  6
Continuous
 62
     2
100
AcDbMText
 10
71.4875
 20
-1.25
 30
0.0
 40
3.5
 41
30.966543
 46
0.0
 71
     1
 72
     1
  1
Rev:01
  7
TEXTSTYLE_2
 73
     1
 44
0.9
  0
MTEXT
  5
2A2
330
22A
100
AcDbEntity
  8
9_SOLID
  6
Continuous
 62
     2
100
AcDbMText
 10
31.4875
 20
-7.75
 30
0.0
 40
3.5
 41
40.724907
 46
0.0
 71
     1
 72
     1
  1
Scale:1:1
  7
TEXTSTYLE_2
 73
     1
 44
0.9
  0
MTEXT
  5
2A3
330
22A
100
AcDbEntity
  8
9_SOLID
  6
Continuous
 62
     2
100
AcDbMText
 10
71.4875
 20
-7.25
 30
0.0
 40
3.5
 41
11.944238
 46
0.0
 71
     1
 72
     1
  1
A3
  7
TEXTSTYLE_2
 73
     1
 44
0.9
  0
MTEXT
  5
2A4
330
22A
100
AcDbEntity
  8
9_SOLID
  6
Continuous
 62
     2
100
AcDbMText
 10
31.4875
 20
-15.25
 30
0.0
 40
3.5
 41
33.64684
 46
0.0
 71
     1
 72
     1
  1
RIO 2.0
  7
TEXTSTYLE_2
 73
     1
 44
0.9
  0
MTEXT
  5
2A5
330
22A
100
AcDbEntity
  8
9_SOLID
  6
Continuous
 62
     2
100
AcDbMText
 10
31.4875
 20
-23.25
 30
0.0
 40
2.5
 41
47.695167
 46
0.0
 71
     1
 72
     1
  1
DATE:09.01.19
  7
TEXTSTYLE_2
 73
     1
 44
0.9
  0
MTEXT
  5
2A6
330
22A
100
AcDbEntity
  8
9_SOLID
  6
Continuous
 62
     2
100
AcDbMText
 10
1.4875
 20
-27.3125
 30
0.0
 40
2.25
 41
148.98513
 46
0.0
 71
     1
 72
     1
  1
Any integral or partial reproductions are prohibited \Pwithout prior authorisation of L & L Luce & Light s.r.l., \Pin accordance with the law in force. \PAll rights reserved.
  7
TEXTSTYLE_2
 73
     1
 44
0.9
  0
ENDBLK
  5
2A7
330
22A
100
AcDbEntity
  8
0
  6
ByBlock
 62
     0
100
AcDbBlockEnd
  0
ENDSEC
  0
SECTION
  2
ENTITIES
  0
LINE
  5
2A8
330
222
100
AcDbEntity
  8
0
  6
Continuous
 62
     7
100
AcDbLine
 10
0.0
 20
0.0
 30
0.0
 11
420.0
 21
0.0
 31
0.0
  0
LINE
  5
2A9
330
222
100
AcDbEntity
  8
0
  6
Continuous
 62
     7
100
AcDbLine
 10
420.0
 20
0.0
 30
0.0
 11
420.0
 21
297.0
 31
0.0
  0
LINE
  5
2AA
330
222
100
AcDbEntity
  8
0
  6
Continuous
 62
     7
100
AcDbLine
 10
0.0
 20
297.0
 30
0.0
 11
420.0
 21
297.0
 31
0.0
  0
LINE
  5
2AB
330
222
100
AcDbEntity
  8
0
  6
Continuous
 62
     7
100
AcDbLine
 10
0.0
 20
0.0
 30
0.0
 11
0.0
 21
297.0
 31
0.0
  0
LINE
  5
2AC
330
222
100
AcDbEntity
  8
6_ALL_SURFS
  6
Continuous
 62
     7
100
AcDbLine
 10
37.013394
 20
170.086917
 30
0.0
 11
37.013394
 21
171.086917
 31
0.0
  0
LINE
  5
2AD
330
222
100
AcDbEntity
  8
6_ALL_SURFS
  6
Continuous
 62
     7
100
AcDbLine
 10
37.013394
 20
170.086917
 30
0.0
 11
37.013394
 21
134.886917
 31
0.0
  0
LINE
  5
2AE
330
222
100
AcDbEntity
  8
7_ALL_FEATURES
  6
Continuous
 62
     7
100
AcDbLine
 10
296.513394
 20
171.086917
 30
0.0
 11
37.013394
 21
171.086917
 31
0.0
  0
LINE
  5
2AF
330
222
100
AcDbEntity
  8
7_ALL_FEATURES
  6
Continuous
 62
     7
100
AcDbLine
 10
296.513394
 20
170.086917
 30
0.0
 11
296.513394
 21
134.886917
 31
0.0
  0
LINE
  5
2B0
330
222
100
AcDbEntity
  8
7_ALL_FEATURES
  6
Continuous
 62
     7
100
AcDbLine
 10
296.513394
 20
133.886917
 30
0.0
 11
37.013394
 21
133.886917
 31
0.0
  0
LINE
  5
2B1
330
222
100
AcDbEntity
  8
7_ALL_FEATURES
  6
Continuous
 62
     7
100
AcDbLine
 10
296.513394
 20
170.086917
 30
0.0
 11
296.513394
 21
171.086917
 31
0.0
  0
LINE
  5
2B2
330
222
100
AcDbEntity
  8
6_ALL_SURFS
  6
Continuous
 62
     7
100
AcDbLine
 10
37.013394
 20
133.886917
 30
0.0
 11
37.013394
 21
134.886917
 31
0.0
  0
LINE
  5
2B3
330
222
100
AcDbEntity
  8
7_ALL_FEATURES
  6
Continuous
 62
     7
100
AcDbLine
 10
296.513394
 20
133.886917
 30
0.0
 11
296.513394
 21
134.886917
 31
0.0
  0
LINE
  5
2B4
330
222
100
AcDbEntity
  8
6_ALL_SURFS
  6
Continuous
 62
     7
100
AcDbLine
 10
296.513394
 20
133.886917
 30
0.0
 11
37.013394
 21
133.886917
 31
0.0
  0
LINE
  5
2B5
330
222
100
AcDbEntity
  8
7_ALL_FEATURES
  6
Continuous
 62
     9
100
AcDbLine
 10
296.513394
 20
134.886917
 30
0.0
 11
37.013394
 21
134.886917
 31
0.0
  0
LINE
  5
2B6
330
222
100
AcDbEntity
  8
7_ALL_FEATURES
  6
Continuous
 62
     9
100
AcDbLine
 10
296.513394
 20
170.086917
 30
0.0
 11
37.013394
 21
170.086917
 31
0.0
  0
LINE
  5
2B7
330
222
100
AcDbEntity
  8
7_ALL_FEATURES
  6
Continuous
 62
     7
100
AcDbLine
 10
293.013394
 20
247.90637
 30
0.0
 11
293.513394
 21
247.90637
 31
0.0
  0
LINE
  5
2B8
330
222
100
AcDbEntity
  8
7_ALL_FEATURES
  6
Continuous
 62
     7
100
AcDbLine
 10
294.013394
 20
225.90637
 30
0.0
 11
294.013394
 21
224.40637
 31
0.0
  0
LINE
  5
2B9
330
222
100
AcDbEntity
  8
7_ALL_FEATURES
  6
Continuous
 62
     7
100
AcDbLine
 10
293.013394
 20
231.15637
 30
0.0
 11
293.513394
 21
231.15637
 31
0.0
  0
LINE
  5
2BA
330
222
100
AcDbEntity
  8
7_ALL_FEATURES
  6
Continuous
 62
     7
100
AcDbLine
 10
293.013394
 20
225.90637
 30
0.0
 11
293.013394
 21
226.927816
 31
0.0
  0
LINE
  5
2BB
330
222
100
AcDbEntity
  8
7_ALL_FEATURES
  6
Continuous
 62
     7
100
AcDbLine
 10
293.013394
 20
226.927816
 30
0.0
 11
293.013394
 21
227.634923
 31
0.0
  0
LINE
  5
2BC
330
222
100
AcDbEntity
  8
7_ALL_FEATURES
  6
Continuous
 62
     7
100
AcDbLine
 10
293.013394
 20
227.634923
 30
0.0
 11
293.013394
 21
228.65637
 31
0.0
  0
LINE
  5
2BD
330
222
100
AcDbEntity
  8
7_ALL_FEATURES
  6
Continuous
 62
     7
100
AcDbLine
 10
293.013394
 20
224.40637
 30
0.0
 11
293.513394
 21
224.40637
 31
0.0
  0
LINE
  5
2BE
330
222
100
AcDbEntity
  8
7_ALL_FEATURES
  6
Continuous
 62
     7
100
AcDbLine
 10
293.013394
 20
247.90637
 30
0.0
 11
293.513394
 21
247.90637
 31
0.0
  0
LINE
  5
2BF
330
222
100
AcDbEntity
  8
7_ALL_FEATURES
  6
Continuous
 62
     9
100
AcDbLine
 10
293.013394
 20
225.90637
 30
0.0
 11
293.513394
 21
225.90637
 31
0.0
  0
LINE
  5
2C0
330
222
100
AcDbEntity
  8
7_ALL_FEATURES
  6
Continuous
 62
     9
100
AcDbLine
 10
293.013394
 20
232.65637
 30
0.0
 11
293.513394
 21
232.65637
 31
0.0
  0
LINE
  5
2C1
330
222
100
AcDbEntity
  8
7_ALL_FEATURES
  6
Continuous
 62
     9
100
AcDbLine
 10
293.513394
 20
230.15637
 30
0.0
 11
293.013394
 21
230.15637
 31
0.0
  0
LINE
  5
2C2
330
222
100
AcDbEntity
  8
7_ALL_FEATURES
  6
Continuous
 62
     9
100
AcDbLine
 10
293.013394
 20
246.40637
 30
0.0
 11
293.513394
 21
246.40637
 31
0.0
  0
LINE
  5
2C3
330
222
100
AcDbEntity
  8
7_ALL_FEATURES
  6
Continuous
 62
     7
100
AcDbLine
 10
40.513394
 20
231.15637
 30
0.0
 11
40.013394
 21
231.15637
 31
0.0
  0
LINE
  5
2C4
330
222
100
AcDbEntity
  8
7_ALL_FEATURES
  6
Continuous
 62
     7
100
AcDbLine
 10
39.513394
 20
224.40637
 30
0.0
 11
39.513394
 21
225.90637
 31
0.0
  0
LINE
  5
2C5
330
222
100
AcDbEntity
  8
7_ALL_FEATURES
  6
Continuous
 62
     7
100
AcDbLine
 10
40.513394
 20
224.40637
 30
0.0
 11
40.013394
 21
224.40637
 31
0.0
  0
LINE
  5
2C6
330
222
100
AcDbEntity
  8
7_ALL_FEATURES
  6
Continuous
 62
     7
100
AcDbLine
 10
40.513394
 20
224.40637
 30
0.0
 11
40.013394
 21
224.40637
 31
0.0
  0
LINE
  5
2C7
330
222
100
AcDbEntity
  8
7_ALL_FEATURES
  6
Continuous
 62
     7
100
AcDbLine
 10
40.513394
 20
231.15637
 30
0.0
 11
40.013394
 21
231.15637
 31
0.0
  0
LINE
  5
2C8
330
222
100
AcDbEntity
  8
7_ALL_FEATURES
  6
Continuous
 62
     7
100
AcDbLine
 10
40.513394
 20
228.65637
 30
0.0
 11
40.513394
 21
227.634923
 31
0.0
  0
LINE
  5
2C9
330
222
100
AcDbEntity
  8
7_ALL_FEATURES
  6
Continuous
 62
     7
100
AcDbLine
 10
40.513394
 20
227.634923
 30
0.0
 11
40.513394
 21
226.927816
 31
0.0
  0
LINE
  5
2CA
330
222
100
AcDbEntity
  8
7_ALL_FEATURES
  6
Continuous
 62
     7
100
AcDbLine
 10
40.513394
 20
226.927816
 30
0.0
 11
40.513394
 21
225.90637
 31
0.0
  0
LINE
  5
2CB
330
222
100
AcDbEntity
  8
7_ALL_FEATURES
  6
Continuous
 62
     7
100
AcDbLine
 10
40.513394
 20
247.90637
 30
0.0
 11
40.013394
 21
247.90637
 31
0.0
  0
LINE
  5
2CC
330
222
100
AcDbEntity
  8
7_ALL_FEATURES
  6
Continuous
 62
     9
100
AcDbLine
 10
40.013394
 20
230.15637
 30
0.0
 11
40.513394
 21
230.15637
 31
0.0
  0
LINE
  5
2CD
330
222
100
AcDbEntity
  8
7_ALL_FEATURES
  6
Continuous
 62
     9
100
AcDbLine
 10
40.513394
 20
246.40637
 30
0.0
 11
40.013394
 21
246.40637
 31
0.0
  0
LINE
  5
2CE
330
222
100
AcDbEntity
  8
7_ALL_FEATURES
  6
Continuous
 62
     9
100
AcDbLine
 10
40.513394
 20
232.65637
 30
0.0
 11
40.013394
 21
232.65637
 31
0.0
  0
LINE
  5
2CF
330
222
100
AcDbEntity
  8
7_ALL_FEATURES
  6
Continuous
 62
     9
100
AcDbLine
 10
40.513394
 20
225.90637
 30
0.0
 11
40.013394
 21
225.90637
 31
0.0
  0
LINE
  5
2D0
330
222
100
AcDbEntity
  8
3_ALL_AXES
  6
Continuous
 62
     7
100
AcDbLine
 10
108.513394
 20
220.978191
 30
0.0
 11
108.513394
 21
220.963735
 31
0.0
  0
ARC
  5
2D1
330
222
100
AcDbEntity
  8
3_ALL_AXES
  6
Continuous
 62
     7
100
AcDbCircle
 10
107.013394
 20
225.20637
 30
0.0
 40
4.4863682417
100
AcDbArc
 50
275.371721
 51
289.532783
  0
LINE
  5
2D2
330
222
100
AcDbEntity
  8
3_ALL_AXES
  6
Continuous
 62
     7
100
AcDbLine
 10
107.363394
 20
220.978191
 30
0.0
 11
107.363394
 21
220.739704
 31
0.0
  0
ARC
  5
2D3
330
222
100
AcDbEntity
  8
3_ALL_AXES
  6
Continuous
 62
     7
100
AcDbCircle
 10
107.013394
 20
225.20637
 30
0.0
 40
4.2426406871
100
AcDbArc
 50
270.0
 51
274.732038
  0
ARC
  5
2D4
330
222
100
AcDbEntity
  8
3_ALL_AXES
  6
Continuous
 62
     7
100
AcDbCircle
 10
107.013394
 20
225.20637
 30
0.0
 40
4.2426406871
100
AcDbArc
 50
265.267962
 51
270.0
  0
LINE
  5
2D5
330
222
100
AcDbEntity
  8
3_ALL_AXES
  6
Continuous
 62
     7
100
AcDbLine
 10
106.663394
 20
220.739704
 30
0.0
 11
106.663394
 21
220.978191
 31
0.0
  0
SPLINE
  5
2D6
330
222
100
AcDbEntity
  8
3_ALL_AXES
  6
Continuous
 62
     7
100
AcDbSpline
 70
     0
 71
     3
 72
    14
 73
    10
 74
     0
 42
0.000000001
 43
0.0000001
 40
0.0
 40
0.0
 40
0.0
 40
0.0
 40
0.3799509066
 40
0.5515831282
 40
0.7020272295
 40
0.8254484769
 40
0.9173381866
 40
0.9749483193
 40
1.0
 40
1.0
 40
1.0
 40
1.0
 10
106.5933938928
 20
220.739704416
 30
0.0
 10
106.6023003691
 20
220.7388669411
 30
0.0
 10
106.6152585287
 20
220.7378722971
 30
0.0
 10
106.6317587251
 20
220.7371209912
 30
0.0
 10
106.6422784114
 20
220.7369360317
 30
0.0
 10
106.6508050701
 20
220.7370233577
 30
0.0
 10
106.6574273005
 20
220.7375797474
 30
0.0
 10
106.6610977665
 20
220.7380557702
 30
0.0
 10
106.6633938928
 20
220.7391145861
 30
0.0
 10
106.6633938928
 20
220.739704416
 30
0.0
  0
ARC
  5
2D7
330
222
100
AcDbEntity
  8
3_ALL_AXES
  6
Continuous
 62
     7
100
AcDbCircle
 10
107.013394
 20
225.20637
 30
0.0
 40
4.4863682417
100
AcDbArc
 50
250.467217
 51
264.628279
  0
ARC
  5
2D8
330
222
100
AcDbEntity
  8
3_ALL_AXES
  6
Continuous
 62
     7
100
AcDbCircle
 10
107.013394
 20
225.20637
 30
0.0
 40
4.5
100
AcDbArc
 50
289.532688
 51
308.478595
  0
LINE
  5
2D9
330
222
100
AcDbEntity
  8
3_ALL_AXES
  6
Continuous
 62
     7
100
AcDbLine
 10
109.813394
 20
222.90637
 30
0.0
 11
109.813394
 21
221.683587
 31
0.0
  0
LINE
  5
2DA
330
222
100
AcDbEntity
  8
3_ALL_AXES
  6
Continuous
 62
     7
100
AcDbLine
 10
107.512758
 20
222.90637
 30
0.0
 11
107.013394
 21
222.90637
 31
0.0
  0
ARC
  5
2DB
330
222
100
AcDbEntity
  8
3_ALL_AXES
  6
Continuous
 62
     7
100
AcDbCircle
 10
107.013394
 20
225.20637
 30
0.0
 40
4.5
100
AcDbArc
 50
231.521405
 51
250.467312
  0
LINE
  5
2DC
330
222
100
AcDbEntity
  8
3_ALL_AXES
  6
Continuous
 62
     7
100
AcDbLine
 10
105.513394
 20
220.963735
 30
0.0
 11
105.513394
 21
220.978191
 31
0.0
  0
LINE
  5
2DD
330
222
100
AcDbEntity
  8
3_ALL_AXES
  6
Continuous
 62
     7
100
AcDbLine
 10
104.213394
 20
222.90637
 30
0.0
 11
104.213394
 21
221.683587
 31
0.0
  0
LINE
  5
2DE
330
222
100
AcDbEntity
  8
3_ALL_AXES
  6
Continuous
 62
     7
100
AcDbLine
 10
106.51403
 20
222.90637
 30
0.0
 11
107.013394
 21
222.90637
 31
0.0
  0
SPLINE
  5
2DF
330
222
100
AcDbEntity
  8
3_ALL_AXES
  6
Continuous
 62
     7
100
AcDbSpline
 70
     0
 71
     3
 72
    14
 73
    10
 74
     0
 42
0.000000001
 43
0.0000001
 40
0.0
 40
0.0
 40
0.0
 40
0.0
 40
0.0250522634
 40
0.0826614775
 40
0.1745543994
 40
0.29798062
 40
0.4484197279
 40
0.6200504974
 40
1.0
 40
1.0
 40
1.0
 40
1.0
 10
107.3633938928
 20
220.739704416
 30
0.0
 10
107.3633938928
 20
220.7391145724
 30
0.0
 10
107.3656900533
 20
220.7380558086
 30
0.0
 10
107.3693605434
 20
220.7375796891
 30
0.0
 10
107.3759829781
 20
220.7370233803
 30
0.0
 10
107.3845096975
 20
220.7369360225
 30
0.0
 10
107.395029351
 20
220.737120994
 30
0.0
 10
107.4115293578
 20
220.7378723216
 30
0.0
 10
107.4244874505
 20
220.7388669443
 30
0.0
 10
107.4333938928
 20
220.739704416
 30
0.0
  0
LINE
  5
2E0
330
222
100
AcDbEntity
  8
3_ALL_AXES
  6
Continuous
 62
     7
100
AcDbLine
 10
109.813394
 20
221.683587
 30
0.0
 11
107.013394
 21
221.683587
 31
0.0
  0
LINE
  5
2E1
330
222
100
AcDbEntity
  8
3_ALL_AXES
  6
Continuous
 62
     7
100
AcDbLine
 10
104.213394
 20
221.683587
 30
0.0
 11
107.013394
 21
221.683587
 31
0.0
  0
LINE
  5
2E2
330
222
100
AcDbEntity
  8
3_ALL_AXES
  6
Continuous
 62
     7
100
AcDbLine
 10
88.513394
 20
220.978191
 30
0.0
 11
88.513394
 21
220.963735
 31
0.0
  0
ARC
  5
2E3
330
222
100
AcDbEntity
  8
3_ALL_AXES
  6
Continuous
 62
     7
100
AcDbCircle
 10
87.013394
 20
225.20637
 30
0.0
 40
4.4863682417
100
AcDbArc
 50
275.371721
 51
289.532783
  0
LINE
  5
2E4
330
222
100
AcDbEntity
  8
3_ALL_AXES
  6
Continuous
 62
     7
100
AcDbLine
 10
87.363394
 20
220.978191
 30
0.0
 11
87.363394
 21
220.739704
 31
0.0
  0
ARC
  5
2E5
330
222
100
AcDbEntity
  8
3_ALL_AXES
  6
Continuous
 62
     7
100
AcDbCircle
 10
87.013394
 20
225.20637
 30
0.0
 40
4.2426406871
100
AcDbArc
 50
270.0
 51
274.732038
  0
ARC
  5
2E6
330
222
100
AcDbEntity
  8
3_ALL_AXES
  6
Continuous
 62
     7
100
AcDbCircle
 10
87.013394
 20
225.20637
 30
0.0
 40
4.2426406871
100
AcDbArc
 50
265.267962
 51
270.0
  0
LINE
  5
2E7
330
222
100
AcDbEntity
  8
3_ALL_AXES
  6
Continuous
 62
     7
100
AcDbLine
 10
86.663394
 20
220.739704
 30
0.0
 11
86.663394
 21
220.978191
 31
0.0
  0
SPLINE
  5
2E8
330
222
100
AcDbEntity
  8
3_ALL_AXES
  6
Continuous
 62
     7
100
AcDbSpline
 70
     0
 71
     3
 72
    14
 73
    10
 74
     0
 42
0.000000001
 43
0.0000001
 40
0.0
 40
0.0
 40
0.0
 40
0.0
 40
0.3799509066
 40
0.5515831282
 40
0.7020272295
 40
0.8254484769
 40
0.9173381866
 40
0.9749483193
 40
1.0
 40
1.0
 40
1.0
 40
1.0
 10
86.5933938928
 20
220.739704416
 30
0.0
 10
86.6023003691
 20
220.7388669411
 30
0.0
 10
86.6152585287
 20
220.7378722971
 30
0.0
 10
86.6317587251
 20
220.7371209912
 30
0.0
 10
86.6422784114
 20
220.7369360317
 30
0.0
 10
86.6508050701
 20
220.7370233577
 30
0.0
 10
86.6574273005
 20
220.7375797474
 30
0.0
 10
86.6610977665
 20
220.7380557702
 30
0.0
 10
86.6633938928
 20
220.7391145861
 30
0.0
 10
86.6633938928
 20
220.739704416
 30
0.0
  0
ARC
  5
2E9
330
222
100
AcDbEntity
  8
3_ALL_AXES
  6
Continuous
 62
     7
100
AcDbCircle
 10
87.013394
 20
225.20637
 30
0.0
 40
4.4863682417
100
AcDbArc
 50
250.467217
 51
264.628279
  0
ARC
  5
2EA
330
222
100
AcDbEntity
  8
3_ALL_AXES
  6
Continuous
 62
     7
100
AcDbCircle
 10
87.013394
 20
225.20637
 30
0.0
 40
4.5
100
AcDbArc
 50
289.532688
 51
308.478595
  0
LINE
  5
2EB
330
222
100
AcDbEntity
  8
3_ALL_AXES
  6
Continuous
 62
     7
100
AcDbLine
 10
89.813394
 20
222.90637
 30
0.0
 11
89.813394
 21
221.683587
 31
0.0
  0
LINE
  5
2EC
330
222
100
AcDbEntity
  8
3_ALL_AXES
  6
Continuous
 62
     7
100
AcDbLine
 10
87.512758
 20
222.90637
 30
0.0
 11
87.013394
 21
222.90637
 31
0.0
  0
ARC
  5
2ED
330
222
100
AcDbEntity
  8
3_ALL_AXES
  6
Continuous
 62
     7
100
AcDbCircle
 10
87.013394
 20
225.20637
 30
0.0
 40
4.5
100
AcDbArc
 50
231.521405
 51
250.467312
  0
LINE
  5
2EE
330
222
100
AcDbEntity
  8
3_ALL_AXES
  6
Continuous
 62
     7
100
AcDbLine
 10
85.513394
 20
220.963735
 30
0.0
 11
85.513394
 21
220.978191
 31
0.0
  0
LINE
  5
2EF
330
222
100
AcDbEntity
  8
3_ALL_AXES
  6
Continuous
 62
     7
100
AcDbLine
 10
84.213394
 20
222.90637
 30
0.0
 11
84.213394
 21
221.683587
 31
0.0
  0
LINE
  5
2F0
330
222
100
AcDbEntity
  8
3_ALL_AXES
  6
Continuous
 62
     7
100
AcDbLine
 10
86.51403
 20
222.90637
 30
0.0
 11
87.013394
 21
222.90637
 31
0.0
  0
SPLINE
  5
2F1
330
222
100
AcDbEntity
  8
3_ALL_AXES
  6
Continuous
 62
     7
100
AcDbSpline
 70
     0
 71
     3
 72
    14
 73
    10
 74
     0
 42
0.000000001
 43
0.0000001
 40
0.0
 40
0.0
 40
0.0
 40
0.0
 40
0.0250522634
 40
0.0826614775
 40
0.1745543994
 40
0.29798062
 40
0.4484197279
 40
0.6200504974
 40
1.0
 40
1.0
 40
1.0
 40
1.0
 10
87.3633938928
 20
220.739704416
 30
0.0
 10
87.3633938928
 20
220.7391145724
 30
0.0
 10
87.3656900533
 20
220.7380558086
 30
0.0
 10
87.3693605434
 20
220.7375796891
 30
0.0
 10
87.3759829781
 20
220.7370233803
 30
0.0
 10
87.3845096975
 20
220.7369360225
 30
0.0
 10
87.395029351
 20
220.737120994
 30
0.0
 10
87.4115293578
 20
220.7378723216
 30
0.0
 10
87.4244874505
 20
220.7388669443
 30
0.0
 10
87.4333938928
 20
220.739704416
 30
0.0
  0
LINE
  5
2F2
330
222
100
AcDbEntity
  8
3_ALL_AXES
  6
Continuous
 62
     7
100
AcDbLine
 10
89.813394
 20
221.683587
 30
0.0
 11
87.013394
 21
221.683587
 31
0.0
  0
LINE
  5
2F3
330
222
100
AcDbEntity
  8
3_ALL_AXES
  6
Continuous
 62
     7
100
AcDbLine
 10
84.213394
 20
221.683587
 30
0.0
 11
87.013394
 21
221.683587
 31
0.0
  0
LINE
  5
2F4
330
222
100
AcDbEntity
  8
3_ALL_AXES
  6
Continuous
 62
     7
100
AcDbLine
 10
228.013394
 20
220.978191
 30
0.0
 11
228.013394
 21
220.963735
 31
0.0
  0
ARC
  5
2F5
330
222
100
AcDbEntity
  8
3_ALL_AXES
  6
Continuous
 62
     7
100
AcDbCircle
 10
226.513394
 20
225.20637
 30
0.0
 40
4.4863682417
100
AcDbArc
 50
275.371721
 51
289.532783
  0
LINE
  5
2F6
330
222
100
AcDbEntity
  8
3_ALL_AXES
  6
Continuous
 62
     7
100
AcDbLine
 10
226.863394
 20
220.978191
 30
0.0
 11
226.863394
 21
220.739704
 31
0.0
  0
ARC
  5
2F7
330
222
100
AcDbEntity
  8
3_ALL_AXES
  6
Continuous
 62
     7
100
AcDbCircle
 10
226.513394
 20
225.20637
 30
0.0
 40
4.2426406871
100
AcDbArc
 50
270.0
 51
274.732038
  0
ARC
  5
2F8
330
222
100
AcDbEntity
  8
3_ALL_AXES
  6
Continuous
 62
     7
100
AcDbCircle
 10
226.513394
 20
225.20637
 30
0.0
 40
4.2426406871
100
AcDbArc
 50
265.267962
 51
270.0
  0
LINE
  5
2F9
330
222
100
AcDbEntity
  8
3_ALL_AXES
  6
Continuous
 62
     7
100
AcDbLine
 10
226.163394
 20
220.739704
 30
0.0
 11
226.163394
 21
220.978191
 31
0.0
  0
SPLINE
  5
2FA
330
222
100
AcDbEntity
  8
3_ALL_AXES
  6
Continuous
 62
     7
100
AcDbSpline
 70
     0
 71
     3
 72
    14
 73
    10
 74
     0
 42
0.000000001
 43
0.0000001
 40
0.0
 40
0.0
 40
0.0
 40
0.0
 40
0.3799509066
 40
0.5515831282
 40
0.7020272295
 40
0.8254484769
 40
0.9173381866
 40
0.9749483193
 40
1.0
 40
1.0
 40
1.0
 40
1.0
 10
226.0933938928
 20
220.739704416
 30
0.0
 10
226.1023003691
 20
220.7388669411
 30
0.0
 10
226.1152585287
 20
220.7378722971
 30
0.0
 10
226.1317587251
 20
220.7371209912
 30
0.0
 10
226.1422784114
 20
220.7369360317
 30
0.0
 10
226.1508050701
 20
220.7370233577
 30
0.0
 10
226.1574273005
 20
220.7375797474
 30
0.0
 10
226.1610977665
 20
220.7380557702
 30
0.0
 10
226.1633938928
 20
220.7391145861
 30
0.0
 10
226.1633938928
 20
220.739704416
 30
0.0
  0
ARC
  5
2FB
330
222
100
AcDbEntity
  8
3_ALL_AXES
  6
Continuous
 62
     7
100
AcDbCircle
 10
226.513394
 20
225.20637
 30
0.0
 40
4.4863682417
100
AcDbArc
 50
250.467217
 51
264.628279
  0
ARC
  5
2FC
330
222
100
AcDbEntity
  8
3_ALL_AXES
  6
Continuous
 62
     7
100
AcDbCircle
 10
226.513394
 20
225.20637
 30
0.0
 40
4.5
100
AcDbArc
 50
289.532688
 51
308.478595
  0
LINE
  5
2FD
330
222
100
AcDbEntity
  8
3_ALL_AXES
  6
Continuous
 62
     7
100
AcDbLine
 10
229.313394
 20
222.90637
 30
0.0
 11
229.313394
 21
221.683587
 31
0.0
  0
LINE
  5
2FE
330
222
100
AcDbEntity
  8
3_ALL_AXES
  6
Continuous
 62
     7
100
AcDbLine
 10
227.012758
 20
222.90637
 30
0.0
 11
226.513394
 21
222.90637
 31
0.0
  0
ARC
  5
2FF
330
222
100
AcDbEntity
  8
3_ALL_AXES
  6
Continuous
 62
     7
100
AcDbCircle
 10
226.513394
 20
225.20637
 30
0.0
 40
4.5
100
AcDbArc
 50
231.521405
 51
250.467312
  0
LINE
  5
300
330
222
100
AcDbEntity
  8
3_ALL_AXES
  6
Continuous
 62
     7
100
AcDbLine
 10
225.013394
 20
220.963735
 30
0.0
 11
225.013394
 21
220.978191
 31
0.0
  0
LINE
  5
301
330
222
100
AcDbEntity
  8
3_ALL_AXES
  6
Continuous
 62
     7
100
AcDbLine
 10
223.713394
 20
222.90637
 30
0.0
 11
223.713394
 21
221.683587
 31
0.0
  0
LINE
  5
302
330
222
100
AcDbEntity
  8
3_ALL_AXES
  6
Continuous
 62
     7
100
AcDbLine
 10
226.01403
 20
222.90637
 30
0.0
 11
226.513394
 21
222.90637
 31
0.0
  0
SPLINE
  5
303
330
222
100
AcDbEntity
  8
3_ALL_AXES
  6
Continuous
 62
     7
100
AcDbSpline
 70
     0
 71
     3
 72
    14
 73
    10
 74
     0
 42
0.000000001
 43
0.0000001
 40
0.0
 40
0.0
 40
0.0
 40
0.0
 40
0.0250522634
 40
0.0826614775
 40
0.1745543994
 40
0.29798062
 40
0.4484197279
 40
0.6200504974
 40
1.0
 40
1.0
 40
1.0
 40
1.0
 10
226.8633938928
 20
220.739704416
 30
0.0
 10
226.8633938928
 20
220.7391145724
 30
0.0
 10
226.8656900533
 20
220.7380558086
 30
0.0
 10
226.8693605434
 20
220.7375796891
 30
0.0
 10
226.8759829781
 20
220.7370233803
 30
0.0
 10
226.8845096975
 20
220.7369360225
 30
0.0
 10
226.895029351
 20
220.737120994
 30
0.0
 10
226.9115293578
 20
220.7378723216
 30
0.0
 10
226.9244874505
 20
220.7388669443
 30
0.0
 10
226.9333938928
 20
220.739704416
 30
0.0
  0
LINE
  5
304
330
222
100
AcDbEntity
  8
3_ALL_AXES
  6
Continuous
 62
     7
100
AcDbLine
 10
229.313394
 20
221.683587
 30
0.0
 11
226.513394
 21
221.683587
 31
0.0
  0
LINE
  5
305
330
222
100
AcDbEntity
  8
3_ALL_AXES
  6
Continuous
 62
     7
100
AcDbLine
 10
223.713394
 20
221.683587
 30
0.0
 11
226.513394
 21
221.683587
 31
0.0
  0
LINE
  5
306
330
222
100
AcDbEntity
  8
3_ALL_AXES
  6
Continuous
 62
     7
100
AcDbLine
 10
248.013394
 20
220.978191
 30
0.0
 11
248.013394
 21
220.963735
 31
0.0
  0
ARC
  5
307
330
222
100
AcDbEntity
  8
3_ALL_AXES
  6
Continuous
 62
     7
100
AcDbCircle
 10
246.513394
 20
225.20637
 30
0.0
 40
4.4863682417
100
AcDbArc
 50
275.371721
 51
289.532783
  0
LINE
  5
308
330
222
100
AcDbEntity
  8
3_ALL_AXES
  6
Continuous
 62
     7
100
AcDbLine
 10
246.863394
 20
220.978191
 30
0.0
 11
246.863394
 21
220.739704
 31
0.0
  0
ARC
  5
309
330
222
100
AcDbEntity
  8
3_ALL_AXES
  6
Continuous
 62
     7
100
AcDbCircle
 10
246.513394
 20
225.20637
 30
0.0
 40
4.2426406871
100
AcDbArc
 50
270.0
 51
274.732038
  0
ARC
  5
30A
330
222
100
AcDbEntity
  8
3_ALL_AXES
  6
Continuous
 62
     7
100
AcDbCircle
 10
246.513394
 20
225.20637
 30
0.0
 40
4.2426406871
100
AcDbArc
 50
265.267962
 51
270.0
  0
LINE
  5
30B
330
222
100
AcDbEntity
  8
3_ALL_AXES
  6
Continuous
 62
     7
100
AcDbLine
 10
246.163394
 20
220.739704
 30
0.0
 11
246.163394
 21
220.978191
 31
0.0
  0
SPLINE
  5
30C
330
222
100
AcDbEntity
  8
3_ALL_AXES
  6
Continuous
 62
     7
100
AcDbSpline
 70
     0
 71
     3
 72
    14
 73
    10
 74
     0
 42
0.000000001
 43
0.0000001
 40
0.0
 40
0.0
 40
0.0
 40
0.0
 40
0.3799509066
 40
0.5515831282
 40
0.7020272295
 40
0.8254484769
 40
0.9173381866
 40
0.9749483193
 40
1.0
 40
1.0
 40
1.0
 40
1.0
 10
246.0933938928
 20
220.739704416
 30
0.0
 10
246.1023003691
 20
220.7388669411
 30
0.0
 10
246.1152585287
 20
220.7378722971
 30
0.0
 10
246.1317587251
 20
220.7371209912
 30
0.0
 10
246.1422784114
 20
220.7369360317
 30
0.0
 10
246.1508050701
 20
220.7370233577
 30
0.0
 10
246.1574273005
 20
220.7375797474
 30
0.0
 10
246.1610977665
 20
220.7380557702
 30
0.0
 10
246.1633938928
 20
220.7391145861
 30
0.0
 10
246.1633938928
 20
220.739704416
 30
0.0
  0
ARC
  5
30D
330
222
100
AcDbEntity
  8
3_ALL_AXES
  6
Continuous
 62
     7
100
AcDbCircle
 10
246.513394
 20
225.20637
 30
0.0
 40
4.4863682417
100
AcDbArc
 50
250.467217
 51
264.628279
  0
ARC
  5
30E
330
222
100
AcDbEntity
  8
3_ALL_AXES
  6
Continuous
 62
     7
100
AcDbCircle
 10
246.513394
 20
225.20637
 30
0.0
 40
4.5
100
AcDbArc
 50
289.532688
 51
308.478595
  0
LINE
  5
30F
330
222
100
AcDbEntity
  8
3_ALL_AXES
  6
Continuous
 62
     7
100
AcDbLine
 10
249.313394
 20
222.90637
 30
0.0
 11
249.313394
 21
221.683587
 31
0.0
  0
LINE
  5
310
330
222
100
AcDbEntity
  8
3_ALL_AXES
  6
Continuous
 62
     7
100
AcDbLine
 10
247.012758
 20
222.90637
 30
0.0
 11
246.513394
 21
222.90637
 31
0.0
  0
ARC
  5
311
330
222
100
AcDbEntity
  8
3_ALL_AXES
  6
Continuous
 62
     7
100
AcDbCircle
 10
246.513394
 20
225.20637
 30
0.0
 40
4.5
100
AcDbArc
 50
231.521405
 51
250.467312
  0
LINE
  5
312
330
222
100
AcDbEntity
  8
3_ALL_AXES
  6
Continuous
 62
     7
100
AcDbLine
 10
245.013394
 20
220.963735
 30
0.0
 11
245.013394
 21
220.978191
 31
0.0
  0
LINE
  5
313
330
222
100
AcDbEntity
  8
3_ALL_AXES
  6
Continuous
 62
     7
100
AcDbLine
 10
243.713394
 20
222.90637
 30
0.0
 11
243.713394
 21
221.683587
 31
0.0
  0
LINE
  5
314
330
222
100
AcDbEntity
  8
3_ALL_AXES
  6
Continuous
 62
     7
100
AcDbLine
 10
246.01403
 20
222.90637
 30
0.0
 11
246.513394
 21
222.90637
 31
0.0
  0
SPLINE
  5
315
330
222
100
AcDbEntity
  8
3_ALL_AXES
  6
Continuous
 62
     7
100
AcDbSpline
 70
     0
 71
     3
 72
    14
 73
    10
 74
     0
 42
0.000000001
 43
0.0000001
 40
0.0
 40
0.0
 40
0.0
 40
0.0
 40
0.0250522634
 40
0.0826614775
 40
0.1745543994
 40
0.29798062
 40
0.4484197279
 40
0.6200504974
 40
1.0
 40
1.0
 40
1.0
 40
1.0
 10
246.8633938928
 20
220.739704416
 30
0.0
 10
246.8633938928
 20
220.7391145724
 30
0.0
 10
246.8656900533
 20
220.7380558086
 30
0.0
 10
246.8693605434
 20
220.7375796891
 30
0.0
 10
246.8759829781
 20
220.7370233803
 30
0.0
 10
246.8845096975
 20
220.7369360225
 30
0.0
 10
246.895029351
 20
220.737120994
 30
0.0
 10
246.9115293578
 20
220.7378723216
 30
0.0
 10
246.9244874505
 20
220.7388669443
 30
0.0
 10
246.9333938928
 20
220.739704416
 30
0.0
  0
LINE
  5
316
330
222
100
AcDbEntity
  8
3_ALL_AXES
  6
Continuous
 62
     7
100
AcDbLine
 10
249.313394
 20
221.683587
 30
0.0
 11
246.513394
 21
221.683587
 31
0.0
  0
LINE
  5
317
330
222
100
AcDbEntity
  8
3_ALL_AXES
  6
Continuous
 62
     7
100
AcDbLine
 10
243.713394
 20
221.683587
 30
0.0
 11
246.513394
 21
221.683587
 31
0.0
  0
LINE
  5
318
330
222
100
AcDbEntity
  8
7_ALL_FEATURES
  6
Continuous
 62
     7
100
AcDbLine
 10
293.513394
 20
212.15637
 30
0.0
 11
293.513394
 21
215.65637
 31
0.0
  0
LINE
  5
319
330
222
100
AcDbEntity
  8
7_ALL_FEATURES
  6
Continuous
 62
     7
100
AcDbLine
 10
295.013394
 20
212.15637
 30
0.0
 11
293.513394
 21
212.15637
 31
0.0
  0
LINE
  5
31A
330
222
100
AcDbEntity
  8
7_ALL_FEATURES
  6
Continuous
 62
     7
100
AcDbLine
 10
293.513394
 20
224.251632
 30
0.0
 11
293.513394
 21
224.40637
 31
0.0
  0
LINE
  5
31B
330
222
100
AcDbEntity
  8
7_ALL_FEATURES
  6
Continuous
 62
     7
100
AcDbLine
 10
293.513394
 20
224.40637
 30
0.0
 11
293.513394
 21
227.15637
 31
0.0
  0
LINE
  5
31C
330
222
100
AcDbEntity
  8
7_ALL_FEATURES
  6
Continuous
 62
     7
100
AcDbLine
 10
293.513394
 20
223.283386
 30
0.0
 11
293.513394
 21
215.65637
 31
0.0
  0
LINE
  5
31D
330
222
100
AcDbEntity
  8
7_ALL_FEATURES
  6
Continuous
 62
     7
100
AcDbLine
 10
293.513394
 20
230.65637
 30
0.0
 11
293.513394
 21
232.65637
 31
0.0
  0
LINE
  5
31E
330
222
100
AcDbEntity
  8
7_ALL_FEATURES
  6
Continuous
 62
     7
100
AcDbLine
 10
295.013394
 20
230.65637
 30
0.0
 11
293.513394
 21
230.65637
 31
0.0
  0
LINE
  5
31F
330
222
100
AcDbEntity
  8
7_ALL_FEATURES
  6
Continuous
 62
     7
100
AcDbLine
 10
293.513394
 20
247.40637
 30
0.0
 11
293.513394
 21
248.40637
 31
0.0
  0
LINE
  5
320
330
222
100
AcDbEntity
  8
7_ALL_FEATURES
  6
Continuous
 62
     7
100
AcDbLine
 10
293.513394
 20
247.40637
 30
0.0
 11
293.513394
 21
232.65637
 31
0.0
  0
LINE
  5
321
330
222
100
AcDbEntity
  8
7_ALL_FEATURES
  6
Continuous
 62
     7
100
AcDbLine
 10
293.513394
 20
229.90637
 30
0.0
 11
293.513394
 21
227.15637
 31
0.0
  0
LINE
  5
322
330
222
100
AcDbEntity
  8
7_ALL_FEATURES
  6
Continuous
 62
     7
100
AcDbLine
 10
295.013394
 20
224.251632
 30
0.0
 11
295.013394
 21
223.283386
 31
0.0
  0
LINE
  5
323
330
222
100
AcDbEntity
  8
7_ALL_FEATURES
  6
Continuous
 62
     7
100
AcDbLine
 10
293.513394
 20
223.283386
 30
0.0
 11
293.513394
 21
224.251632
 31
0.0
  0
LINE
  5
324
330
222
100
AcDbEntity
  8
7_ALL_FEATURES
  6
Continuous
 62
     7
100
AcDbLine
 10
295.013394
 20
223.283386
 30
0.0
 11
295.013394
 21
215.65637
 31
0.0
  0
LINE
  5
325
330
222
100
AcDbEntity
  8
7_ALL_FEATURES
  6
Continuous
 62
     7
100
AcDbLine
 10
295.013394
 20
227.15637
 30
0.0
 11
295.013394
 21
225.906418
 31
0.0
  0
LINE
  5
326
330
222
100
AcDbEntity
  8
7_ALL_FEATURES
  6
Continuous
 62
     7
100
AcDbLine
 10
295.013394
 20
225.906418
 30
0.0
 11
295.013394
 21
224.251632
 31
0.0
  0
LINE
  5
327
330
222
100
AcDbEntity
  8
7_ALL_FEATURES
  6
Continuous
 62
     7
100
AcDbLine
 10
295.013394
 20
229.90637
 30
0.0
 11
295.013394
 21
227.15637
 31
0.0
  0
LINE
  5
328
330
222
100
AcDbEntity
  8
7_ALL_FEATURES
  6
Continuous
 62
     7
100
AcDbLine
 10
295.013394
 20
232.65637
 30
0.0
 11
295.013394
 21
230.65637
 31
0.0
  0
LINE
  5
329
330
222
100
AcDbEntity
  8
7_ALL_FEATURES
  6
Continuous
 62
     7
100
AcDbLine
 10
295.013394
 20
247.40637
 30
0.0
 11
295.013394
 21
232.65637
 31
0.0
  0
LINE
  5
32A
330
222
100
AcDbEntity
  8
7_ALL_FEATURES
  6
Continuous
 62
     7
100
AcDbLine
 10
295.013394
 20
248.40637
 30
0.0
 11
295.013394
 21
247.40637
 31
0.0
  0
LINE
  5
32B
330
222
100
AcDbEntity
  8
7_ALL_FEATURES
  6
Continuous
 62
     7
100
AcDbLine
 10
295.013394
 20
230.65637
 30
0.0
 11
295.013394
 21
229.90637
 31
0.0
  0
LINE
  5
32C
330
222
100
AcDbEntity
  8
7_ALL_FEATURES
  6
Continuous
 62
     7
100
AcDbLine
 10
293.513394
 20
229.90637
 30
0.0
 11
293.513394
 21
230.65637
 31
0.0
  0
LINE
  5
32D
330
222
100
AcDbEntity
  8
7_ALL_FEATURES
  6
Continuous
 62
     7
100
AcDbLine
 10
295.013394
 20
215.65637
 30
0.0
 11
295.013394
 21
212.15637
 31
0.0
  0
LINE
  5
32E
330
222
100
AcDbEntity
  8
7_ALL_FEATURES
  6
Continuous
 62
     7
100
AcDbLine
 10
295.013394
 20
248.40637
 30
0.0
 11
293.513394
 21
248.40637
 31
0.0
  0
LINE
  5
32F
330
222
100
AcDbEntity
  8
7_ALL_FEATURES
  6
Continuous
 62
     7
100
AcDbLine
 10
295.013394
 20
230.65637
 30
0.0
 11
293.513394
 21
230.65637
 31
0.0
  0
LINE
  5
330
330
222
100
AcDbEntity
  8
7_ALL_FEATURES
  6
Continuous
 62
     7
100
AcDbLine
 10
295.013394
 20
212.15637
 30
0.0
 11
293.513394
 21
212.15637
 31
0.0
  0
LINE
  5
331
330
222
100
AcDbEntity
  8
7_ALL_FEATURES
  6
Continuous
 62
     9
100
AcDbLine
 10
293.513394
 20
224.251632
 30
0.0
 11
295.013394
 21
224.251632
 31
0.0
  0
LINE
  5
332
330
222
100
AcDbEntity
  8
7_ALL_FEATURES
  6
Continuous
 62
     9
100
AcDbLine
 10
295.013394
 20
247.40637
 30
0.0
 11
293.513394
 21
247.40637
 31
0.0
  0
LINE
  5
333
330
222
100
AcDbEntity
  8
7_ALL_FEATURES
  6
Continuous
 62
     9
100
AcDbLine
 10
295.013394
 20
232.65637
 30
0.0
 11
293.513394
 21
232.65637
 31
0.0
  0
LINE
  5
334
330
222
100
AcDbEntity
  8
7_ALL_FEATURES
  6
Continuous
 62
     9
100
AcDbLine
 10
295.013394
 20
227.15637
 30
0.0
 11
293.513394
 21
227.15637
 31
0.0
  0
LINE
  5
335
330
222
100
AcDbEntity
  8
7_ALL_FEATURES
  6
Continuous
 62
     9
100
AcDbLine
 10
293.513394
 20
229.90637
 30
0.0
 11
295.013394
 21
229.90637
 31
0.0
  0
LINE
  5
336
330
222
100
AcDbEntity
  8
7_ALL_FEATURES
  6
Continuous
 62
     9
100
AcDbLine
 10
293.513394
 20
223.283386
 30
0.0
 11
295.013394
 21
223.283386
 31
0.0
  0
LINE
  5
337
330
222
100
AcDbEntity
  8
7_ALL_FEATURES
  6
Continuous
 62
     9
100
AcDbLine
 10
295.013394
 20
215.65637
 30
0.0
 11
293.513394
 21
215.65637
 31
0.0
  0
LINE
  5
338
330
222
100
AcDbEntity
  8
7_ALL_FEATURES
  6
Continuous
 62
     7
100
AcDbLine
 10
40.013394
 20
248.40637
 30
0.0
 11
40.013394
 21
247.40637
 31
0.0
  0
LINE
  5
339
330
222
100
AcDbEntity
  8
7_ALL_FEATURES
  6
Continuous
 62
     7
100
AcDbLine
 10
40.013394
 20
215.65637
 30
0.0
 11
40.013394
 21
212.15637
 31
0.0
  0
LINE
  5
33A
330
222
100
AcDbEntity
  8
7_ALL_FEATURES
  6
Continuous
 62
     7
100
AcDbLine
 10
40.013394
 20
215.65637
 30
0.0
 11
40.013394
 21
223.283386
 31
0.0
  0
LINE
  5
33B
330
222
100
AcDbEntity
  8
7_ALL_FEATURES
  6
Continuous
 62
     7
100
AcDbLine
 10
40.013394
 20
227.15637
 30
0.0
 11
40.013394
 21
224.40637
 31
0.0
  0
LINE
  5
33C
330
222
100
AcDbEntity
  8
7_ALL_FEATURES
  6
Continuous
 62
     7
100
AcDbLine
 10
40.013394
 20
224.40637
 30
0.0
 11
40.013394
 21
224.251632
 31
0.0
  0
LINE
  5
33D
330
222
100
AcDbEntity
  8
7_ALL_FEATURES
  6
Continuous
 62
     7
100
AcDbLine
 10
40.013394
 20
227.15637
 30
0.0
 11
40.013394
 21
229.90637
 31
0.0
  0
LINE
  5
33E
330
222
100
AcDbEntity
  8
7_ALL_FEATURES
  6
Continuous
 62
     7
100
AcDbLine
 10
38.513394
 20
248.40637
 30
0.0
 11
40.013394
 21
248.40637
 31
0.0
  0
LINE
  5
33F
330
222
100
AcDbEntity
  8
7_ALL_FEATURES
  6
Continuous
 62
     7
100
AcDbLine
 10
40.013394
 20
232.65637
 30
0.0
 11
40.013394
 21
230.65637
 31
0.0
  0
LINE
  5
340
330
222
100
AcDbEntity
  8
7_ALL_FEATURES
  6
Continuous
 62
     7
100
AcDbLine
 10
40.013394
 20
232.65637
 30
0.0
 11
40.013394
 21
247.40637
 31
0.0
  0
LINE
  5
341
330
222
100
AcDbEntity
  8
7_ALL_FEATURES
  6
Continuous
 62
     7
100
AcDbLine
 10
40.013394
 20
230.65637
 30
0.0
 11
40.013394
 21
229.90637
 31
0.0
  0
LINE
  5
342
330
222
100
AcDbEntity
  8
7_ALL_FEATURES
  6
Continuous
 62
     7
100
AcDbLine
 10
40.013394
 20
224.251632
 30
0.0
 11
40.013394
 21
223.283386
 31
0.0
  0
LINE
  5
343
330
222
100
AcDbEntity
  8
7_ALL_FEATURES
  6
Continuous
 62
     7
100
AcDbLine
 10
38.513394
 20
223.283386
 30
0.0
 11
38.513394
 21
224.251632
 31
0.0
  0
LINE
  5
344
330
222
100
AcDbEntity
  8
7_ALL_FEATURES
  6
Continuous
 62
     7
100
AcDbLine
 10
38.513394
 20
247.40637
 30
0.0
 11
38.513394
 21
248.40637
 31
0.0
  0
LINE
  5
345
330
222
100
AcDbEntity
  8
7_ALL_FEATURES
  6
Continuous
 62
     7
100
AcDbLine
 10
38.513394
 20
232.65637
 30
0.0
 11
38.513394
 21
247.40637
 31
0.0
  0
LINE
  5
346
330
222
100
AcDbEntity
  8
7_ALL_FEATURES
  6
Continuous
 62
     7
100
AcDbLine
 10
38.513394
 20
230.65637
 30
0.0
 11
38.513394
 21
232.65637
 31
0.0
  0
LINE
  5
347
330
222
100
AcDbEntity
  8
7_ALL_FEATURES
  6
Continuous
 62
     7
100
AcDbLine
 10
38.513394
 20
227.15637
 30
0.0
 11
38.513394
 21
229.90637
 31
0.0
  0
LINE
  5
348
330
222
100
AcDbEntity
  8
7_ALL_FEATURES
  6
Continuous
 62
     7
100
AcDbLine
 10
38.513394
 20
224.251632
 30
0.0
 11
38.513394
 21
225.906418
 31
0.0
  0
LINE
  5
349
330
222
100
AcDbEntity
  8
7_ALL_FEATURES
  6
Continuous
 62
     7
100
AcDbLine
 10
38.513394
 20
225.906418
 30
0.0
 11
38.513394
 21
227.15637
 31
0.0
  0
LINE
  5
34A
330
222
100
AcDbEntity
  8
7_ALL_FEATURES
  6
Continuous
 62
     7
100
AcDbLine
 10
38.513394
 20
215.65637
 30
0.0
 11
38.513394
 21
223.283386
 31
0.0
  0
LINE
  5
34B
330
222
100
AcDbEntity
  8
7_ALL_FEATURES
  6
Continuous
 62
     7
100
AcDbLine
 10
38.513394
 20
212.15637
 30
0.0
 11
38.513394
 21
215.65637
 31
0.0
  0
LINE
  5
34C
330
222
100
AcDbEntity
  8
7_ALL_FEATURES
  6
Continuous
 62
     7
100
AcDbLine
 10
38.513394
 20
229.90637
 30
0.0
 11
38.513394
 21
230.65637
 31
0.0
  0
LINE
  5
34D
330
222
100
AcDbEntity
  8
7_ALL_FEATURES
  6
Continuous
 62
     7
100
AcDbLine
 10
38.513394
 20
248.40637
 30
0.0
 11
40.013394
 21
248.40637
 31
0.0
  0
LINE
  5
34E
330
222
100
AcDbEntity
  8
7_ALL_FEATURES
  6
Continuous
 62
     7
100
AcDbLine
 10
38.513394
 20
212.15637
 30
0.0
 11
40.013394
 21
212.15637
 31
0.0
  0
LINE
  5
34F
330
222
100
AcDbEntity
  8
7_ALL_FEATURES
  6
Continuous
 62
     7
100
AcDbLine
 10
38.513394
 20
230.65637
 30
0.0
 11
40.013394
 21
230.65637
 31
0.0
  0
LINE
  5
350
330
222
100
AcDbEntity
  8
7_ALL_FEATURES
  6
Continuous
 62
     9
100
AcDbLine
 10
38.513394
 20
224.251632
 30
0.0
 11
40.013394
 21
224.251632
 31
0.0
  0
LINE
  5
351
330
222
100
AcDbEntity
  8
7_ALL_FEATURES
  6
Continuous
 62
     9
100
AcDbLine
 10
38.513394
 20
223.283386
 30
0.0
 11
40.013394
 21
223.283386
 31
0.0
  0
LINE
  5
352
330
222
100
AcDbEntity
  8
7_ALL_FEATURES
  6
Continuous
 62
     9
100
AcDbLine
 10
38.513394
 20
215.65637
 30
0.0
 11
40.013394
 21
215.65637
 31
0.0
  0
LINE
  5
353
330
222
100
AcDbEntity
  8
7_ALL_FEATURES
  6
Continuous
 62
     9
100
AcDbLine
 10
38.513394
 20
227.15637
 30
0.0
 11
40.013394
 21
227.15637
 31
0.0
  0
LINE
  5
354
330
222
100
AcDbEntity
  8
7_ALL_FEATURES
  6
Continuous
 62
     9
100
AcDbLine
 10
40.013394
 20
229.90637
 30
0.0
 11
38.513394
 21
229.90637
 31
0.0
  0
LINE
  5
355
330
222
100
AcDbEntity
  8
7_ALL_FEATURES
  6
Continuous
 62
     9
100
AcDbLine
 10
38.513394
 20
232.65637
 30
0.0
 11
40.013394
 21
232.65637
 31
0.0
  0
LINE
  5
356
330
222
100
AcDbEntity
  8
7_ALL_FEATURES
  6
Continuous
 62
     9
100
AcDbLine
 10
38.513394
 20
247.40637
 30
0.0
 11
40.013394
 21
247.40637
 31
0.0
  0
LINE
  5
357
330
222
100
AcDbEntity
  8
3_ALL_AXES
  6
Continuous
 62
     7
100
AcDbLine
 10
65.513394
 20
216.90637
 30
0.0
 11
65.513394
 21
219.90637
 31
0.0
  0
LINE
  5
358
330
222
100
AcDbEntity
  8
3_ALL_AXES
  6
Continuous
 62
     7
100
AcDbLine
 10
51.513394
 20
223.40637
 30
0.0
 11
51.513394
 21
219.90637
 31
0.0
  0
ARC
  5
359
330
222
100
AcDbEntity
  8
3_ALL_AXES
  6
Continuous
 62
     7
100
AcDbCircle
 10
63.013394
 20
210.90637
 30
0.0
 40
3.5
100
AcDbArc
 50
270.0
 51
280.669637
  0
ARC
  5
35A
330
222
100
AcDbEntity
  8
3_ALL_AXES
  6
Continuous
 62
     7
100
AcDbCircle
 10
63.013394
 20
210.90637
 30
0.0
 40
3.5
100
AcDbArc
 50
280.669637
 51
349.330363
  0
ARC
  5
35B
330
222
100
AcDbEntity
  8
3_ALL_AXES
  6
Continuous
 62
     7
100
AcDbCircle
 10
63.013394
 20
210.90637
 30
0.0
 40
3.5
100
AcDbArc
 50
349.330363
 51
360.0
  0
LINE
  5
35C
330
222
100
AcDbEntity
  8
3_ALL_AXES
  6
Continuous
 62
     7
100
AcDbLine
 10
51.513394
 20
216.90637
 30
0.0
 11
51.513394
 21
212.40637
 31
0.0
  0
LINE
  5
35D
330
222
100
AcDbEntity
  8
3_ALL_AXES
  6
Continuous
 62
     7
100
AcDbLine
 10
53.513394
 20
216.90637
 30
0.0
 11
53.513394
 21
219.90637
 31
0.0
  0
ARC
  5
35E
330
222
100
AcDbEntity
  8
3_ALL_AXES
  6
Continuous
 62
     7
100
AcDbCircle
 10
56.013394
 20
210.90637
 30
0.0
 40
3.5
100
AcDbArc
 50
259.330363
 51
268.724844
  0
ARC
  5
35F
330
222
100
AcDbEntity
  8
3_ALL_AXES
  6
Continuous
 62
     7
100
AcDbCircle
 10
56.013394
 20
210.90637
 30
0.0
 40
3.5
100
AcDbArc
 50
190.669637
 51
259.330363
  0
ARC
  5
360
330
222
100
AcDbEntity
  8
3_ALL_AXES
  6
Continuous
 62
     7
100
AcDbCircle
 10
56.013394
 20
210.90637
 30
0.0
 40
3.5
100
AcDbArc
 50
180.0
 51
190.669637
  0
LINE
  5
361
330
222
100
AcDbEntity
  8
3_ALL_AXES
  6
Continuous
 62
     7
100
AcDbLine
 10
56.013394
 20
207.40637
 30
0.0
 11
59.513394
 21
207.40637
 31
0.0
  0
LINE
  5
362
330
222
100
AcDbEntity
  8
3_ALL_AXES
  6
Continuous
 62
     7
100
AcDbLine
 10
59.513394
 20
207.40637
 30
0.0
 11
63.013394
 21
207.40637
 31
0.0
  0
LINE
  5
363
330
222
100
AcDbEntity
  8
3_ALL_AXES
  6
Continuous
 62
     7
100
AcDbLine
 10
66.513394
 20
210.90637
 30
0.0
 11
66.513394
 21
211.40637
 31
0.0
  0
LINE
  5
364
330
222
100
AcDbEntity
  8
3_ALL_AXES
  6
Continuous
 62
     7
100
AcDbLine
 10
52.513394
 20
210.90637
 30
0.0
 11
52.513394
 21
211.40637
 31
0.0
  0
LINE
  5
365
330
222
100
AcDbEntity
  8
3_ALL_AXES
  6
Continuous
 62
     7
100
AcDbLine
 10
66.513394
 20
211.40637
 30
0.0
 11
67.513394
 21
212.40637
 31
0.0
  0
LINE
  5
366
330
222
100
AcDbEntity
  8
3_ALL_AXES
  6
Continuous
 62
     7
100
AcDbLine
 10
52.513394
 20
211.40637
 30
0.0
 11
51.513394
 21
212.40637
 31
0.0
  0
LINE
  5
367
330
222
100
AcDbEntity
  8
3_ALL_AXES
  6
Continuous
 62
     7
100
AcDbLine
 10
65.513394
 20
219.90637
 30
0.0
 11
65.513394
 21
216.90637
 31
0.0
  0
LINE
  5
368
330
222
100
AcDbEntity
  8
3_ALL_AXES
  6
Continuous
 62
     7
100
AcDbLine
 10
53.513394
 20
219.90637
 30
0.0
 11
53.513394
 21
216.90637
 31
0.0
  0
ARC
  5
369
330
222
100
AcDbEntity
  8
7_ALL_FEATURES
  6
Continuous
 62
     7
100
AcDbCircle
 10
56.013394
 20
210.90637
 30
0.0
 40
3.5
100
AcDbArc
 50
180.0
 51
190.663695
  0
ARC
  5
36A
330
222
100
AcDbEntity
  8
7_ALL_FEATURES
  6
Continuous
 62
     7
100
AcDbCircle
 10
56.013394
 20
210.90637
 30
0.0
 40
3.5
100
AcDbArc
 50
190.663695
 51
259.336305
  0
ARC
  5
36B
330
222
100
AcDbEntity
  8
7_ALL_FEATURES
  6
Continuous
 62
     7
100
AcDbCircle
 10
56.013394
 20
210.90637
 30
0.0
 40
3.5
100
AcDbArc
 50
259.336305
 51
268.723119
  0
ARC
  5
36C
330
222
100
AcDbEntity
  8
7_ALL_FEATURES
  6
Continuous
 62
     7
100
AcDbCircle
 10
63.013394
 20
210.90637
 30
0.0
 40
3.5
100
AcDbArc
 50
349.336305
 51
360.0
  0
ARC
  5
36D
330
222
100
AcDbEntity
  8
7_ALL_FEATURES
  6
Continuous
 62
     7
100
AcDbCircle
 10
63.013394
 20
210.90637
 30
0.0
 40
3.5
100
AcDbArc
 50
280.663695
 51
349.336305
  0
ARC
  5
36E
330
222
100
AcDbEntity
  8
7_ALL_FEATURES
  6
Continuous
 62
     7
100
AcDbCircle
 10
63.013394
 20
210.90637
 30
0.0
 40
3.5
100
AcDbArc
 50
270.0
 51
280.663695
  0
LINE
  5
36F
330
222
100
AcDbEntity
  8
3_ALL_AXES
  6
Continuous
 62
     7
100
AcDbLine
 10
67.513394
 20
216.90637
 30
0.0
 11
65.513394
 21
216.90637
 31
0.0
  0
LINE
  5
370
330
222
100
AcDbEntity
  8
3_ALL_AXES
  6
Continuous
 62
     7
100
AcDbLine
 10
65.513394
 20
216.90637
 30
0.0
 11
63.513394
 21
216.90637
 31
0.0
  0
LINE
  5
371
330
222
100
AcDbEntity
  8
3_ALL_AXES
  6
Continuous
 62
     7
100
AcDbLine
 10
67.513394
 20
216.90637
 30
0.0
 11
67.513394
 21
212.40637
 31
0.0
  0
LINE
  5
372
330
222
100
AcDbEntity
  8
3_ALL_AXES
  6
Continuous
 62
     7
100
AcDbLine
 10
67.513394
 20
223.40637
 30
0.0
 11
67.513394
 21
219.90637
 31
0.0
  0
LINE
  5
373
330
222
100
AcDbEntity
  8
3_ALL_AXES
  6
Continuous
 62
     7
100
AcDbLine
 10
67.513394
 20
219.90637
 30
0.0
 11
65.513394
 21
219.90637
 31
0.0
  0
LINE
  5
374
330
222
100
AcDbEntity
  8
3_ALL_AXES
  6
Continuous
 62
     7
100
AcDbLine
 10
65.513394
 20
219.90637
 30
0.0
 11
63.513394
 21
219.90637
 31
0.0
  0
LINE
  5
375
330
222
100
AcDbEntity
  8
3_ALL_AXES
  6
Continuous
 62
     7
100
AcDbLine
 10
63.513394
 20
216.90637
 30
0.0
 11
55.513394
 21
216.90637
 31
0.0
  0
LINE
  5
376
330
222
100
AcDbEntity
  8
3_ALL_AXES
  6
Continuous
 62
     7
100
AcDbLine
 10
63.513394
 20
219.90637
 30
0.0
 11
55.513394
 21
219.90637
 31
0.0
  0
LINE
  5
377
330
222
100
AcDbEntity
  8
7_ALL_FEATURES
  6
Continuous
 62
     7
100
AcDbLine
 10
59.513394
 20
207.40637
 30
0.0
 11
63.013394
 21
207.40637
 31
0.0
  0
LINE
  5
378
330
222
100
AcDbEntity
  8
3_ALL_AXES
  6
Continuous
 62
     7
100
AcDbLine
 10
55.513394
 20
216.90637
 30
0.0
 11
53.513394
 21
216.90637
 31
0.0
  0
LINE
  5
379
330
222
100
AcDbEntity
  8
3_ALL_AXES
  6
Continuous
 62
     7
100
AcDbLine
 10
53.513394
 20
216.90637
 30
0.0
 11
51.513394
 21
216.90637
 31
0.0
  0
LINE
  5
37A
330
222
100
AcDbEntity
  8
3_ALL_AXES
  6
Continuous
 62
     7
100
AcDbLine
 10
55.513394
 20
219.90637
 30
0.0
 11
53.513394
 21
219.90637
 31
0.0
  0
LINE
  5
37B
330
222
100
AcDbEntity
  8
3_ALL_AXES
  6
Continuous
 62
     7
100
AcDbLine
 10
53.513394
 20
219.90637
 30
0.0
 11
51.513394
 21
219.90637
 31
0.0
  0
LINE
  5
37C
330
222
100
AcDbEntity
  8
3_ALL_AXES
  6
Continuous
 62
     7
100
AcDbLine
 10
66.013394
 20
210.90637
 30
0.0
 11
66.013394
 21
211.40637
 31
0.0
  0
SPLINE
  5
37D
330
222
100
AcDbEntity
  8
3_ALL_AXES
  6
Continuous
 62
     7
100
AcDbSpline
 70
     0
 71
     3
 72
    19
 73
    15
 74
     0
 42
0.000000001
 43
0.0000001
 40
0.0
 40
0.0
 40
0.0
 40
0.0
 40
0.1683075029
 40
0.2404576968
 40
0.3036660769
 40
0.4090527407
 40
0.4554823394
 40
0.5000445236
 40
0.5446094138
 40
0.5910415449
 40
0.6964181475
 40
0.7596236278
 40
0.8317654351
 40
1.0
 40
1.0
 40
1.0
 40
1.0
 10
65.0133938928
 20
210.9063698389
 30
0.0
 10
65.0133938928
 20
210.7997595065
 30
0.0
 10
65.0375688198
 20
210.6454283092
 30
0.0
 10
65.116391922
 20
210.4690303876
 30
0.0
 10
65.2023435295
 20
210.3424950668
 30
0.0
 10
65.3097879161
 20
210.251513669
 30
0.0
 10
65.427421934
 20
210.2080433889
 30
0.0
 10
65.5134827418
 20
210.1976692103
 30
0.0
 10
65.5995434933
 20
210.2080753409
 30
0.0
 10
65.7171448226
 20
210.2516239963
 30
0.0
 10
65.8245579082
 20
210.3426181477
 30
0.0
 10
65.9104731853
 20
210.4691642444
 30
0.0
 10
65.98923203
 20
210.6455307813
 30
0.0
 10
66.0133938928
 20
210.7998057074
 30
0.0
 10
66.0133938928
 20
210.9063698389
 30
0.0
  0
LINE
  5
37E
330
222
100
AcDbEntity
  8
3_ALL_AXES
  6
Continuous
 62
     7
100
AcDbLine
 10
65.013394
 20
210.90637
 30
0.0
 11
65.013394
 21
211.40637
 31
0.0
  0
SPLINE
  5
37F
330
222
100
AcDbEntity
  8
3_ALL_AXES
  6
Continuous
 62
     7
100
AcDbSpline
 70
     0
 71
     3
 72
    11
 73
     7
 74
     0
 42
0.000000001
 43
0.0000001
 40
0.0
 40
0.0
 40
0.0
 40
0.0
 40
0.2699449571
 40
0.5270499909
 40
0.7701654741
 40
1.0
 40
1.0
 40
1.0
 40
1.0
 10
51.5133938928
 20
212.4063698389
 30
0.0
 10
51.6292198577
 20
212.2905438739
 30
0.0
 10
51.8627544724
 20
212.0715435625
 30
0.0
 10
52.2312650737
 20
211.7827849169
 30
0.0
 10
52.6112658443
 20
211.5525979168
 30
0.0
 10
52.8792962695
 20
211.4446834455
 30
0.0
 10
53.0133938928
 20
211.4063698389
 30
0.0
  0
LINE
  5
380
330
222
100
AcDbEntity
  8
3_ALL_AXES
  6
Continuous
 62
     7
100
AcDbLine
 10
52.513394
 20
211.40637
 30
0.0
 11
53.013394
 21
211.40637
 31
0.0
  0
SPLINE
  5
381
330
222
100
AcDbEntity
  8
3_ALL_AXES
  6
Continuous
 62
     7
100
AcDbSpline
 70
     0
 71
     3
 72
    11
 73
     7
 74
     0
 42
0.000000001
 43
0.0000001
 40
0.0
 40
0.0
 40
0.0
 40
0.0
 40
0.2500103617
 40
0.5000189242
 40
0.7500124732
 40
1.0
 40
1.0
 40
1.0
 40
1.0
 10
55.5133938928
 20
212.4063698389
 30
0.0
 10
55.7500665705
 20
212.2880335
 30
0.0
 10
56.2298340829
 20
212.0638487645
 30
0.0
 10
56.9701248
 20
211.7754117666
 30
0.0
 10
57.7313420696
 20
211.5470613635
 30
0.0
 10
58.2514691656
 20
211.443787657
 30
0.0
 10
58.5133938928
 20
211.4063698389
 30
0.0
  0
LINE
  5
382
330
222
100
AcDbEntity
  8
3_ALL_AXES
  6
Continuous
 62
     9
100
AcDbLine
 10
66.013394
 20
210.90637
 30
0.0
 11
66.513394
 21
210.90637
 31
0.0
  0
LINE
  5
383
330
222
100
AcDbEntity
  8
3_ALL_AXES
  6
Continuous
 62
     7
100
AcDbLine
 10
63.513394
 20
216.90637
 30
0.0
 11
63.513394
 21
212.40637
 31
0.0
  0
SPLINE
  5
384
330
222
100
AcDbEntity
  8
3_ALL_AXES
  6
Continuous
 62
     7
100
AcDbSpline
 70
     0
 71
     3
 72
    11
 73
     7
 74
     0
 42
0.000000001
 43
0.0000001
 40
0.0
 40
0.0
 40
0.0
 40
0.0
 40
0.2499875457
 40
0.4999810974
 40
0.7499896465
 40
1.0
 40
1.0
 40
1.0
 40
1.0
 10
60.5133938928
 20
211.4063698389
 30
0.0
 10
60.7753186397
 20
211.4437876598
 30
0.0
 10
61.295445758
 20
211.5470613725
 30
0.0
 10
62.0566630337
 20
211.7754117856
 30
0.0
 10
62.7969537303
 20
212.0638487803
 30
0.0
 10
63.2767212229
 20
212.2880335039
 30
0.0
 10
63.5133938928
 20
212.4063698389
 30
0.0
  0
LINE
  5
385
330
222
100
AcDbEntity
  8
3_ALL_AXES
  6
Continuous
 62
     7
100
AcDbLine
 10
60.513394
 20
210.90637
 30
0.0
 11
60.513394
 21
211.40637
 31
0.0
  0
SPLINE
  5
386
330
222
100
AcDbEntity
  8
3_ALL_AXES
  6
Continuous
 62
     7
100
AcDbSpline
 70
     0
 71
     3
 72
    19
 73
    15
 74
     0
 42
0.000000001
 43
0.0000001
 40
0.0
 40
0.0
 40
0.0
 40
0.0
 40
0.062499569
 40
0.1250450196
 40
0.1876243679
 40
0.2502137548
 40
0.3750836247
 40
0.5000591496
 40
0.6250261711
 40
0.7498800617
 40
0.8124624827
 40
0.8750225901
 40
0.9375286272
 40
1.0
 40
1.0
 40
1.0
 40
1.0
 10
58.5133938928
 20
210.9063698389
 30
0.0
 10
58.5133938928
 20
210.8502962271
 30
0.0
 10
58.5329030078
 20
210.7373071332
 30
0.0
 10
58.612686978
 20
210.58658475
 30
0.0
 10
58.7277464325
 20
210.4615350411
 30
0.0
 10
58.9111901321
 20
210.3303691751
 30
0.0
 10
59.1765900695
 20
210.2272384238
 30
0.0
 10
59.5135477806
 20
210.1879820012
 30
0.0
 10
59.8504796137
 20
210.2273197133
 30
0.0
 10
60.1158338004
 20
210.3304880311
 30
0.0
 10
60.2992154277
 20
210.4616791874
 30
0.0
 10
60.4141861977
 20
210.5867292166
 30
0.0
 10
60.4939039734
 20
210.7373933199
 30
0.0
 10
60.5133938928
 20
210.8503215243
 30
0.0
 10
60.5133938928
 20
210.9063698389
 30
0.0
  0
LINE
  5
387
330
222
100
AcDbEntity
  8
3_ALL_AXES
  6
Continuous
 62
     7
100
AcDbLine
 10
58.513394
 20
210.90637
 30
0.0
 11
58.513394
 21
211.40637
 31
0.0
  0
LINE
  5
388
330
222
100
AcDbEntity
  8
3_ALL_AXES
  6
Continuous
 62
     9
100
AcDbLine
 10
60.513394
 20
210.90637
 30
0.0
 11
65.013394
 21
210.90637
 31
0.0
  0
LINE
  5
389
330
222
100
AcDbEntity
  8
3_ALL_AXES
  6
Continuous
 62
     7
100
AcDbLine
 10
63.513394
 20
223.40637
 30
0.0
 11
63.513394
 21
219.90637
 31
0.0
  0
LINE
  5
38A
330
222
100
AcDbEntity
  8
3_ALL_AXES
  6
Continuous
 62
     9
100
AcDbLine
 10
54.013394
 20
210.90637
 30
0.0
 11
58.513394
 21
210.90637
 31
0.0
  0
SPLINE
  5
38B
330
222
100
AcDbEntity
  8
3_ALL_AXES
  6
Continuous
 62
     7
100
AcDbSpline
 70
     0
 71
     3
 72
    11
 73
     7
 74
     0
 42
0.000000001
 43
0.0000001
 40
0.0
 40
0.0
 40
0.0
 40
0.0
 40
0.2699449571
 40
0.5270499909
 40
0.7701654741
 40
1.0
 40
1.0
 40
1.0
 40
1.0
 10
63.5133938928
 20
212.4063698389
 30
0.0
 10
63.6292198577
 20
212.2905438739
 30
0.0
 10
63.8627544724
 20
212.0715435625
 30
0.0
 10
64.2312650737
 20
211.7827849169
 30
0.0
 10
64.6112658443
 20
211.5525979168
 30
0.0
 10
64.8792962695
 20
211.4446834455
 30
0.0
 10
65.0133938928
 20
211.4063698389
 30
0.0
  0
LINE
  5
38C
330
222
100
AcDbEntity
  8
3_ALL_AXES
  6
Continuous
 62
     9
100
AcDbLine
 10
52.513394
 20
210.90637
 30
0.0
 11
53.013394
 21
210.90637
 31
0.0
  0
LINE
  5
38D
330
222
100
AcDbEntity
  8
3_ALL_AXES
  6
Continuous
 62
     7
100
AcDbLine
 10
55.513394
 20
216.90637
 30
0.0
 11
55.513394
 21
212.40637
 31
0.0
  0
SPLINE
  5
38E
330
222
100
AcDbEntity
  8
3_ALL_AXES
  6
Continuous
 62
     7
100
AcDbSpline
 70
     0
 71
     3
 72
    11
 73
     7
 74
     0
 42
0.000000001
 43
0.0000001
 40
0.0
 40
0.0
 40
0.0
 40
0.0
 40
0.2298345438
 40
0.4729500311
 40
0.7300550521
 40
1.0
 40
1.0
 40
1.0
 40
1.0
 10
54.0133938928
 20
211.4063698389
 30
0.0
 10
54.1474915265
 20
211.4446834485
 30
0.0
 10
54.4155219636
 20
211.5525979266
 30
0.0
 10
54.7955227352
 20
211.7827849357
 30
0.0
 10
55.1640333256
 20
212.0715435771
 30
0.0
 10
55.3975679318
 20
212.2905438779
 30
0.0
 10
55.5133938928
 20
212.4063698389
 30
0.0
  0
LINE
  5
38F
330
222
100
AcDbEntity
  8
3_ALL_AXES
  6
Continuous
 62
     7
100
AcDbLine
 10
54.013394
 20
210.90637
 30
0.0
 11
54.013394
 21
211.40637
 31
0.0
  0
SPLINE
  5
390
330
222
100
AcDbEntity
  8
3_ALL_AXES
  6
Continuous
 62
     7
100
AcDbSpline
 70
     0
 71
     3
 72
    19
 73
    15
 74
     0
 42
0.000000001
 43
0.0000001
 40
0.0
 40
0.0
 40
0.0
 40
0.0
 40
0.1683000113
 40
0.2404505744
 40
0.3036556532
 40
0.4090388234
 40
0.4554737865
 40
0.5000393211
 40
0.5446067335
 40
0.591042408
 40
0.696430429
 40
0.7596418824
 40
0.8317824151
 40
1.0
 40
1.0
 40
1.0
 40
1.0
 10
53.0133938928
 20
210.9063698389
 30
0.0
 10
53.0133938928
 20
210.7997641636
 30
0.0
 10
53.0375667576
 20
210.645437737
 30
0.0
 10
53.116383834
 20
210.4690440141
 30
0.0
 10
53.2023315873
 20
210.3425111502
 30
0.0
 10
53.3097684579
 20
210.2515234938
 30
0.0
 10
53.4274040192
 20
210.2080457924
 30
0.0
 10
53.5134718293
 20
210.1976697132
 30
0.0
 10
53.5995391149
 20
210.2080728009
 30
0.0
 10
53.717151158
 20
210.2516258108
 30
0.0
 10
53.8245739468
 20
210.3426309462
 30
0.0
 10
53.9104881717
 20
210.4691905657
 30
0.0
 10
53.9892342959
 20
210.645554083
 30
0.0
 10
54.0133938928
 20
210.7998163747
 30
0.0
 10
54.0133938928
 20
210.9063698389
 30
0.0
  0
LINE
  5
391
330
222
100
AcDbEntity
  8
3_ALL_AXES
  6
Continuous
 62
     7
100
AcDbLine
 10
53.013394
 20
210.90637
 30
0.0
 11
53.013394
 21
211.40637
 31
0.0
  0
LINE
  5
392
330
222
100
AcDbEntity
  8
3_ALL_AXES
  6
Continuous
 62
     7
100
AcDbLine
 10
55.513394
 20
223.40637
 30
0.0
 11
55.513394
 21
219.90637
 31
0.0
  0
SPLINE
  5
393
330
222
100
AcDbEntity
  8
3_ALL_AXES
  6
Continuous
 62
     7
100
AcDbSpline
 70
     0
 71
     3
 72
    11
 73
     7
 74
     0
 42
0.000000001
 43
0.0000001
 40
0.0
 40
0.0
 40
0.0
 40
0.0
 40
0.2298345438
 40
0.4729500311
 40
0.7300550521
 40
1.0
 40
1.0
 40
1.0
 40
1.0
 10
66.0133938928
 20
211.4063698389
 30
0.0
 10
66.1474915265
 20
211.4446834485
 30
0.0
 10
66.4155219636
 20
211.5525979266
 30
0.0
 10
66.7955227352
 20
211.7827849357
 30
0.0
 10
67.1640333256
 20
212.0715435771
 30
0.0
 10
67.3975679318
 20
212.2905438779
 30
0.0
 10
67.5133938928
 20
212.4063698389
 30
0.0
  0
LINE
  5
394
330
222
100
AcDbEntity
  8
3_ALL_AXES
  6
Continuous
 62
     7
100
AcDbLine
 10
54.013394
 20
211.40637
 30
0.0
 11
58.513394
 21
211.40637
 31
0.0
  0
LINE
  5
395
330
222
100
AcDbEntity
  8
3_ALL_AXES
  6
Continuous
 62
     7
100
AcDbLine
 10
66.013394
 20
211.40637
 30
0.0
 11
66.513394
 21
211.40637
 31
0.0
  0
LINE
  5
396
330
222
100
AcDbEntity
  8
3_ALL_AXES
  6
Continuous
 62
     7
100
AcDbLine
 10
60.513394
 20
211.40637
 30
0.0
 11
65.013394
 21
211.40637
 31
0.0
  0
LINE
  5
397
330
222
100
AcDbEntity
  8
7_ALL_FEATURES
  6
Continuous
 62
     7
100
AcDbLine
 10
91.013394
 20
222.40637
 30
0.0
 11
91.013394
 21
222.90637
 31
0.0
  0
LINE
  5
398
330
222
100
AcDbEntity
  8
7_ALL_FEATURES
  6
Continuous
 62
     7
100
AcDbLine
 10
91.013394
 20
222.90637
 30
0.0
 11
91.013394
 21
223.40637
 31
0.0
  0
LINE
  5
399
330
222
100
AcDbEntity
  8
7_ALL_FEATURES
  6
Continuous
 62
     7
100
AcDbLine
 10
103.013394
 20
223.40637
 30
0.0
 11
91.013394
 21
223.40637
 31
0.0
  0
LINE
  5
39A
330
222
100
AcDbEntity
  8
7_ALL_FEATURES
  6
Continuous
 62
     7
100
AcDbLine
 10
103.013394
 20
222.40637
 30
0.0
 11
103.013394
 21
222.90637
 31
0.0
  0
LINE
  5
39B
330
222
100
AcDbEntity
  8
7_ALL_FEATURES
  6
Continuous
 62
     7
100
AcDbLine
 10
103.013394
 20
222.90637
 30
0.0
 11
103.013394
 21
223.40637
 31
0.0
  0
LINE
  5
39C
330
222
100
AcDbEntity
  8
7_ALL_FEATURES
  6
Continuous
 62
     7
100
AcDbLine
 10
91.013394
 20
222.40637
 30
0.0
 11
91.013394
 21
214.738079
 31
0.0
  0
LINE
  5
39D
330
222
100
AcDbEntity
  8
7_ALL_FEATURES
  6
Continuous
 62
     7
100
AcDbLine
 10
103.013394
 20
214.738079
 30
0.0
 11
103.013394
 21
222.40637
 31
0.0
  0
LINE
  5
39E
330
222
100
AcDbEntity
  8
7_ALL_FEATURES
  6
Continuous
 62
     7
100
AcDbLine
 10
91.013394
 20
212.999229
 30
0.0
 11
91.013394
 21
214.32356
 31
0.0
  0
LINE
  5
39F
330
222
100
AcDbEntity
  8
7_ALL_FEATURES
  6
Continuous
 62
     7
100
AcDbLine
 10
103.013394
 20
214.32356
 30
0.0
 11
103.013394
 21
212.999229
 31
0.0
  0
LINE
  5
3A0
330
222
100
AcDbEntity
  8
7_ALL_FEATURES
  6
Continuous
 62
     7
100
AcDbLine
 10
91.013394
 20
214.32356
 30
0.0
 11
91.013394
 21
214.738079
 31
0.0
  0
LINE
  5
3A1
330
222
100
AcDbEntity
  8
7_ALL_FEATURES
  6
Continuous
 62
     7
100
AcDbLine
 10
103.013394
 20
214.32356
 30
0.0
 11
103.013394
 21
214.738079
 31
0.0
  0
SPLINE
  5
3A2
330
222
100
AcDbEntity
  8
7_ALL_FEATURES
  6
Continuous
 62
     7
100
AcDbSpline
 70
     0
 71
     3
 72
    11
 73
     7
 74
     0
 42
0.000000001
 43
0.0000001
 40
0.0
 40
0.0
 40
0.0
 40
0.0
 40
0.2615800956
 40
0.5139321934
 40
0.7589868382
 40
1.0
 40
1.0
 40
1.0
 40
1.0
 10
102.4276074552
 20
205.0945188804
 30
0.0
 10
102.518332964
 20
205.169733736
 30
0.0
 10
102.683138285
 20
205.3349299697
 30
0.0
 10
102.8708625645
 20
205.6238269345
 30
0.0
 10
102.9870878096
 20
205.9385358126
 30
0.0
 10
103.0133938928
 20
206.1583720043
 30
0.0
 10
103.0133938928
 20
206.2669550592
 30
0.0
  0
LINE
  5
3A3
330
222
100
AcDbEntity
  8
7_ALL_FEATURES
  6
Continuous
 62
     7
100
AcDbLine
 10
100.59918
 20
203.578684
 30
0.0
 11
102.427607
 21
205.094519
 31
0.0
  0
SPLINE
  5
3A4
330
222
100
AcDbEntity
  8
7_ALL_FEATURES
  6
Continuous
 62
     7
100
AcDbSpline
 70
     0
 71
     3
 72
     9
 73
     5
 74
     0
 42
0.000000001
 43
0.0000001
 40
0.0
 40
0.0
 40
0.0
 40
0.0
 40
0.5111887137
 40
1.0
 40
1.0
 40
1.0
 40
1.0
 10
99.184966768
 20
203.093045129
 30
0.0
 10
99.4435346774
 20
203.093045129
 30
0.0
 10
99.9528938987
 20
203.1741759003
 30
0.0
 10
100.4088368462
 20
203.4208821952
 30
0.0
 10
100.5991803304
 20
203.5786840953
 30
0.0
  0
LINE
  5
3A5
330
222
100
AcDbEntity
  8
7_ALL_FEATURES
  6
Continuous
 62
     7
100
AcDbLine
 10
94.841821
 20
203.093045
 30
0.0
 11
99.184967
 21
203.093045
 31
0.0
  0
SPLINE
  5
3A6
330
222
100
AcDbEntity
  8
7_ALL_FEATURES
  6
Continuous
 62
     7
100
AcDbSpline
 70
     0
 71
     3
 72
     9
 73
     5
 74
     0
 42
0.000000001
 43
0.0000001
 40
0.0
 40
0.0
 40
0.0
 40
0.0
 40
0.4888112863
 40
1.0
 40
1.0
 40
1.0
 40
1.0
 10
93.4276074552
 20
203.5786840953
 30
0.0
 10
93.6179509394
 20
203.4208821952
 30
0.0
 10
94.0738938869
 20
203.1741759003
 30
0.0
 10
94.5832531081
 20
203.093045129
 30
0.0
 10
94.8418210175
 20
203.093045129
 30
0.0
  0
LINE
  5
3A7
330
222
100
AcDbEntity
  8
7_ALL_FEATURES
  6
Continuous
 62
     7
100
AcDbLine
 10
91.59918
 20
205.094519
 30
0.0
 11
93.427607
 21
203.578684
 31
0.0
  0
LINE
  5
3A8
330
222
100
AcDbEntity
  8
7_ALL_FEATURES
  6
Continuous
 62
     7
100
AcDbLine
 10
91.013394
 20
210.222768
 30
0.0
 11
91.013394
 21
206.546552
 31
0.0
  0
LINE
  5
3A9
330
222
100
AcDbEntity
  8
7_ALL_FEATURES
  6
Continuous
 62
     7
100
AcDbLine
 10
91.013394
 20
206.546552
 30
0.0
 11
91.013394
 21
206.266955
 31
0.0
  0
LINE
  5
3AA
330
222
100
AcDbEntity
  8
7_ALL_FEATURES
  6
Continuous
 62
     7
100
AcDbLine
 10
103.013394
 20
206.266955
 30
0.0
 11
103.013394
 21
210.222768
 31
0.0
  0
LINE
  5
3AB
330
222
100
AcDbEntity
  8
7_ALL_FEATURES
  6
Continuous
 62
     7
100
AcDbLine
 10
91.013394
 20
210.222768
 30
0.0
 11
91.013394
 21
212.999229
 31
0.0
  0
LINE
  5
3AC
330
222
100
AcDbEntity
  8
7_ALL_FEATURES
  6
Continuous
 62
     7
100
AcDbLine
 10
103.013394
 20
210.222768
 30
0.0
 11
103.013394
 21
212.999229
 31
0.0
  0
LINE
  5
3AD
330
222
100
AcDbEntity
  8
7_ALL_FEATURES
  6
Continuous
 62
     7
100
AcDbLine
 10
84.013394
 20
223.40637
 30
0.0
 11
84.013394
 21
222.90637
 31
0.0
  0
LINE
  5
3AE
330
222
100
AcDbEntity
  8
7_ALL_FEATURES
  6
Continuous
 62
     7
100
AcDbLine
 10
110.013394
 20
223.40637
 30
0.0
 11
110.013394
 21
222.90637
 31
0.0
  0
LINE
  5
3AF
330
222
100
AcDbEntity
  8
7_ALL_FEATURES
  6
Continuous
 62
     7
100
AcDbLine
 10
90.960318
 20
223.40637
 30
0.0
 11
91.013394
 21
223.40637
 31
0.0
  0
LINE
  5
3B0
330
222
100
AcDbEntity
  8
7_ALL_FEATURES
  6
Continuous
 62
     7
100
AcDbLine
 10
103.013394
 20
223.40637
 30
0.0
 11
91.013394
 21
223.40637
 31
0.0
  0
SPLINE
  5
3B1
330
222
100
AcDbEntity
  8
7_ALL_FEATURES
  6
Continuous
 62
     7
100
AcDbSpline
 70
     0
 71
     3
 72
    11
 73
     7
 74
     0
 42
0.000000001
 43
0.0000001
 40
0.0
 40
0.0
 40
0.0
 40
0.0
 40
0.2410131618
 40
0.4860678066
 40
0.7384199044
 40
1.0
 40
1.0
 40
1.0
 40
1.0
 10
91.0133938928
 20
206.2669550592
 30
0.0
 10
91.0133938928
 20
206.1583720043
 30
0.0
 10
91.039699976
 20
205.9385358126
 30
0.0
 10
91.1559252211
 20
205.6238269345
 30
0.0
 10
91.3436495006
 20
205.3349299697
 30
0.0
 10
91.5084548216
 20
205.169733736
 30
0.0
 10
91.5991803304
 20
205.0945188804
 30
0.0
  0
LINE
  5
3B2
330
222
100
AcDbEntity
  8
7_ALL_FEATURES
  6
Continuous
 62
     7
100
AcDbLine
 10
110.013394
 20
223.40637
 30
0.0
 11
110.013394
 21
222.90637
 31
0.0
  0
LINE
  5
3B3
330
222
100
AcDbEntity
  8
7_ALL_FEATURES
  6
Continuous
 62
     7
100
AcDbLine
 10
103.013394
 20
223.40637
 30
0.0
 11
103.06647
 21
223.40637
 31
0.0
  0
LINE
  5
3B4
330
222
100
AcDbEntity
  8
7_ALL_FEATURES
  6
Continuous
 62
     9
100
AcDbLine
 10
103.013394
 20
212.999229
 30
0.0
 11
91.013394
 21
212.999229
 31
0.0
  0
LINE
  5
3B5
330
222
100
AcDbEntity
  8
7_ALL_FEATURES
  6
Continuous
 62
     9
100
AcDbLine
 10
91.013394
 20
214.738079
 30
0.0
 11
103.013394
 21
214.738079
 31
0.0
  0
LINE
  5
3B6
330
222
100
AcDbEntity
  8
7_ALL_FEATURES
  6
Continuous
 62
     9
100
AcDbLine
 10
90.563394
 20
222.90637
 30
0.0
 11
90.563394
 21
223.40637
 31
0.0
  0
LINE
  5
3B7
330
222
100
AcDbEntity
  8
7_ALL_FEATURES
  6
Continuous
 62
     9
100
AcDbLine
 10
86.013394
 20
223.40637
 30
0.0
 11
86.013394
 21
222.90637
 31
0.0
  0
LINE
  5
3B8
330
222
100
AcDbEntity
  8
7_ALL_FEATURES
  6
Continuous
 62
     9
100
AcDbLine
 10
91.013394
 20
214.32356
 30
0.0
 11
103.013394
 21
214.32356
 31
0.0
  0
LINE
  5
3B9
330
222
100
AcDbEntity
  8
7_ALL_FEATURES
  6
Continuous
 62
     9
100
AcDbLine
 10
103.463394
 20
222.90637
 30
0.0
 11
103.463394
 21
223.40637
 31
0.0
  0
LINE
  5
3BA
330
222
100
AcDbEntity
  8
7_ALL_FEATURES
  6
Continuous
 62
     9
100
AcDbLine
 10
108.013394
 20
223.40637
 30
0.0
 11
108.013394
 21
222.90637
 31
0.0
  0
LINE
  5
3BB
330
222
100
AcDbEntity
  8
7_ALL_FEATURES
  6
Continuous
 62
     9
100
AcDbLine
 10
103.013394
 20
210.222768
 30
0.0
 11
91.013394
 21
210.222768
 31
0.0
  0
LINE
  5
3BC
330
222
100
AcDbEntity
  8
7_ALL_FEATURES
  6
Continuous
 62
     9
100
AcDbLine
 10
103.013394
 20
222.40637
 30
0.0
 11
91.013394
 21
222.40637
 31
0.0
  0
LINE
  5
3BD
330
222
100
AcDbEntity
  8
7_ALL_FEATURES
  6
Continuous
 62
     7
100
AcDbLine
 10
230.513394
 20
222.40637
 30
0.0
 11
230.513394
 21
222.90637
 31
0.0
  0
LINE
  5
3BE
330
222
100
AcDbEntity
  8
7_ALL_FEATURES
  6
Continuous
 62
     7
100
AcDbLine
 10
230.513394
 20
222.90637
 30
0.0
 11
230.513394
 21
223.40637
 31
0.0
  0
LINE
  5
3BF
330
222
100
AcDbEntity
  8
7_ALL_FEATURES
  6
Continuous
 62
     7
100
AcDbLine
 10
242.513394
 20
223.40637
 30
0.0
 11
230.513394
 21
223.40637
 31
0.0
  0
LINE
  5
3C0
330
222
100
AcDbEntity
  8
7_ALL_FEATURES
  6
Continuous
 62
     7
100
AcDbLine
 10
242.513394
 20
222.40637
 30
0.0
 11
242.513394
 21
222.90637
 31
0.0
  0
LINE
  5
3C1
330
222
100
AcDbEntity
  8
7_ALL_FEATURES
  6
Continuous
 62
     7
100
AcDbLine
 10
242.513394
 20
222.90637
 30
0.0
 11
242.513394
 21
223.40637
 31
0.0
  0
LINE
  5
3C2
330
222
100
AcDbEntity
  8
7_ALL_FEATURES
  6
Continuous
 62
     7
100
AcDbLine
 10
230.513394
 20
222.40637
 30
0.0
 11
230.513394
 21
214.738079
 31
0.0
  0
LINE
  5
3C3
330
222
100
AcDbEntity
  8
7_ALL_FEATURES
  6
Continuous
 62
     7
100
AcDbLine
 10
242.513394
 20
214.738079
 30
0.0
 11
242.513394
 21
222.40637
 31
0.0
  0
LINE
  5
3C4
330
222
100
AcDbEntity
  8
7_ALL_FEATURES
  6
Continuous
 62
     7
100
AcDbLine
 10
230.513394
 20
212.999229
 30
0.0
 11
230.513394
 21
214.32356
 31
0.0
  0
LINE
  5
3C5
330
222
100
AcDbEntity
  8
7_ALL_FEATURES
  6
Continuous
 62
     7
100
AcDbLine
 10
242.513394
 20
214.32356
 30
0.0
 11
242.513394
 21
212.999229
 31
0.0
  0
LINE
  5
3C6
330
222
100
AcDbEntity
  8
7_ALL_FEATURES
  6
Continuous
 62
     7
100
AcDbLine
 10
230.513394
 20
214.32356
 30
0.0
 11
230.513394
 21
214.738079
 31
0.0
  0
LINE
  5
3C7
330
222
100
AcDbEntity
  8
7_ALL_FEATURES
  6
Continuous
 62
     7
100
AcDbLine
 10
242.513394
 20
214.32356
 30
0.0
 11
242.513394
 21
214.738079
 31
0.0
  0
SPLINE
  5
3C8
330
222
100
AcDbEntity
  8
7_ALL_FEATURES
  6
Continuous
 62
     7
100
AcDbSpline
 70
     0
 71
     3
 72
    11
 73
     7
 74
     0
 42
0.000000001
 43
0.0000001
 40
0.0
 40
0.0
 40
0.0
 40
0.0
 40
0.2615800956
 40
0.5139321934
 40
0.7589868382
 40
1.0
 40
1.0
 40
1.0
 40
1.0
 10
241.9276074552
 20
205.0945188804
 30
0.0
 10
242.018332964
 20
205.169733736
 30
0.0
 10
242.183138285
 20
205.3349299697
 30
0.0
 10
242.3708625645
 20
205.6238269345
 30
0.0
 10
242.4870878096
 20
205.9385358126
 30
0.0
 10
242.5133938928
 20
206.1583720043
 30
0.0
 10
242.5133938928
 20
206.2669550592
 30
0.0
  0
LINE
  5
3C9
330
222
100
AcDbEntity
  8
7_ALL_FEATURES
  6
Continuous
 62
     7
100
AcDbLine
 10
240.09918
 20
203.578684
 30
0.0
 11
241.927607
 21
205.094519
 31
0.0
  0
SPLINE
  5
3CA
330
222
100
AcDbEntity
  8
7_ALL_FEATURES
  6
Continuous
 62
     7
100
AcDbSpline
 70
     0
 71
     3
 72
     9
 73
     5
 74
     0
 42
0.000000001
 43
0.0000001
 40
0.0
 40
0.0
 40
0.0
 40
0.0
 40
0.5111887137
 40
1.0
 40
1.0
 40
1.0
 40
1.0
 10
238.684966768
 20
203.093045129
 30
0.0
 10
238.9435346774
 20
203.093045129
 30
0.0
 10
239.4528938987
 20
203.1741759003
 30
0.0
 10
239.9088368462
 20
203.4208821952
 30
0.0
 10
240.0991803304
 20
203.5786840953
 30
0.0
  0
LINE
  5
3CB
330
222
100
AcDbEntity
  8
7_ALL_FEATURES
  6
Continuous
 62
     7
100
AcDbLine
 10
234.341821
 20
203.093045
 30
0.0
 11
238.684967
 21
203.093045
 31
0.0
  0
SPLINE
  5
3CC
330
222
100
AcDbEntity
  8
7_ALL_FEATURES
  6
Continuous
 62
     7
100
AcDbSpline
 70
     0
 71
     3
 72
     9
 73
     5
 74
     0
 42
0.000000001
 43
0.0000001
 40
0.0
 40
0.0
 40
0.0
 40
0.0
 40
0.4888112863
 40
1.0
 40
1.0
 40
1.0
 40
1.0
 10
232.9276074552
 20
203.5786840953
 30
0.0
 10
233.1179509394
 20
203.4208821952
 30
0.0
 10
233.5738938869
 20
203.1741759003
 30
0.0
 10
234.0832531081
 20
203.093045129
 30
0.0
 10
234.3418210175
 20
203.093045129
 30
0.0
  0
LINE
  5
3CD
330
222
100
AcDbEntity
  8
7_ALL_FEATURES
  6
Continuous
 62
     7
100
AcDbLine
 10
231.09918
 20
205.094519
 30
0.0
 11
232.927607
 21
203.578684
 31
0.0
  0
LINE
  5
3CE
330
222
100
AcDbEntity
  8
7_ALL_FEATURES
  6
Continuous
 62
     7
100
AcDbLine
 10
230.513394
 20
210.222768
 30
0.0
 11
230.513394
 21
206.546552
 31
0.0
  0
LINE
  5
3CF
330
222
100
AcDbEntity
  8
7_ALL_FEATURES
  6
Continuous
 62
     7
100
AcDbLine
 10
230.513394
 20
206.546552
 30
0.0
 11
230.513394
 21
206.266955
 31
0.0
  0
LINE
  5
3D0
330
222
100
AcDbEntity
  8
7_ALL_FEATURES
  6
Continuous
 62
     7
100
AcDbLine
 10
242.513394
 20
206.266955
 30
0.0
 11
242.513394
 21
210.222768
 31
0.0
  0
LINE
  5
3D1
330
222
100
AcDbEntity
  8
7_ALL_FEATURES
  6
Continuous
 62
     7
100
AcDbLine
 10
230.513394
 20
210.222768
 30
0.0
 11
230.513394
 21
212.999229
 31
0.0
  0
LINE
  5
3D2
330
222
100
AcDbEntity
  8
7_ALL_FEATURES
  6
Continuous
 62
     7
100
AcDbLine
 10
242.513394
 20
210.222768
 30
0.0
 11
242.513394
 21
212.999229
 31
0.0
  0
LINE
  5
3D3
330
222
100
AcDbEntity
  8
7_ALL_FEATURES
  6
Continuous
 62
     7
100
AcDbLine
 10
223.513394
 20
223.40637
 30
0.0
 11
223.513394
 21
222.90637
 31
0.0
  0
LINE
  5
3D4
330
222
100
AcDbEntity
  8
7_ALL_FEATURES
  6
Continuous
 62
     7
100
AcDbLine
 10
249.513394
 20
223.40637
 30
0.0
 11
249.513394
 21
222.90637
 31
0.0
  0
LINE
  5
3D5
330
222
100
AcDbEntity
  8
7_ALL_FEATURES
  6
Continuous
 62
     7
100
AcDbLine
 10
230.460318
 20
223.40637
 30
0.0
 11
230.513394
 21
223.40637
 31
0.0
  0
LINE
  5
3D6
330
222
100
AcDbEntity
  8
7_ALL_FEATURES
  6
Continuous
 62
     7
100
AcDbLine
 10
242.513394
 20
223.40637
 30
0.0
 11
230.513394
 21
223.40637
 31
0.0
  0
SPLINE
  5
3D7
330
222
100
AcDbEntity
  8
7_ALL_FEATURES
  6
Continuous
 62
     7
100
AcDbSpline
 70
     0
 71
     3
 72
    11
 73
     7
 74
     0
 42
0.000000001
 43
0.0000001
 40
0.0
 40
0.0
 40
0.0
 40
0.0
 40
0.2410131618
 40
0.4860678066
 40
0.7384199044
 40
1.0
 40
1.0
 40
1.0
 40
1.0
 10
230.5133938928
 20
206.2669550592
 30
0.0
 10
230.5133938928
 20
206.1583720043
 30
0.0
 10
230.539699976
 20
205.9385358126
 30
0.0
 10
230.6559252211
 20
205.6238269345
 30
0.0
 10
230.8436495006
 20
205.3349299697
 30
0.0
 10
231.0084548216
 20
205.169733736
 30
0.0
 10
231.0991803304
 20
205.0945188804
 30
0.0
  0
LINE
  5
3D8
330
222
100
AcDbEntity
  8
7_ALL_FEATURES
  6
Continuous
 62
     7
100
AcDbLine
 10
249.513394
 20
223.40637
 30
0.0
 11
249.513394
 21
222.90637
 31
0.0
  0
LINE
  5
3D9
330
222
100
AcDbEntity
  8
7_ALL_FEATURES
  6
Continuous
 62
     7
100
AcDbLine
 10
242.513394
 20
223.40637
 30
0.0
 11
242.56647
 21
223.40637
 31
0.0
  0
LINE
  5
3DA
330
222
100
AcDbEntity
  8
7_ALL_FEATURES
  6
Continuous
 62
     9
100
AcDbLine
 10
242.513394
 20
212.999229
 30
0.0
 11
230.513394
 21
212.999229
 31
0.0
  0
LINE
  5
3DB
330
222
100
AcDbEntity
  8
7_ALL_FEATURES
  6
Continuous
 62
     9
100
AcDbLine
 10
230.513394
 20
214.738079
 30
0.0
 11
242.513394
 21
214.738079
 31
0.0
  0
LINE
  5
3DC
330
222
100
AcDbEntity
  8
7_ALL_FEATURES
  6
Continuous
 62
     9
100
AcDbLine
 10
230.063394
 20
222.90637
 30
0.0
 11
230.063394
 21
223.40637
 31
0.0
  0
LINE
  5
3DD
330
222
100
AcDbEntity
  8
7_ALL_FEATURES
  6
Continuous
 62
     9
100
AcDbLine
 10
225.513394
 20
223.40637
 30
0.0
 11
225.513394
 21
222.90637
 31
0.0
  0
LINE
  5
3DE
330
222
100
AcDbEntity
  8
7_ALL_FEATURES
  6
Continuous
 62
     9
100
AcDbLine
 10
230.513394
 20
214.32356
 30
0.0
 11
242.513394
 21
214.32356
 31
0.0
  0
LINE
  5
3DF
330
222
100
AcDbEntity
  8
7_ALL_FEATURES
  6
Continuous
 62
     9
100
AcDbLine
 10
242.963394
 20
222.90637
 30
0.0
 11
242.963394
 21
223.40637
 31
0.0
  0
LINE
  5
3E0
330
222
100
AcDbEntity
  8
7_ALL_FEATURES
  6
Continuous
 62
     9
100
AcDbLine
 10
247.513394
 20
223.40637
 30
0.0
 11
247.513394
 21
222.90637
 31
0.0
  0
LINE
  5
3E1
330
222
100
AcDbEntity
  8
7_ALL_FEATURES
  6
Continuous
 62
     9
100
AcDbLine
 10
242.513394
 20
210.222768
 30
0.0
 11
230.513394
 21
210.222768
 31
0.0
  0
LINE
  5
3E2
330
222
100
AcDbEntity
  8
7_ALL_FEATURES
  6
Continuous
 62
     9
100
AcDbLine
 10
242.513394
 20
222.40637
 30
0.0
 11
230.513394
 21
222.40637
 31
0.0
  0
LINE
  5
3E3
330
222
100
AcDbEntity
  8
3_ALL_AXES
  6
Continuous
 62
     7
100
AcDbLine
 10
55.935894
 20
206.13387
 30
0.0
 11
55.935894
 21
207.40637
 31
0.0
  0
LINE
  5
3E4
330
222
100
AcDbEntity
  8
3_ALL_AXES
  6
Continuous
 62
     7
100
AcDbLine
 10
62.235894
 20
206.13387
 30
0.0
 11
62.235894
 21
207.40637
 31
0.0
  0
LINE
  5
3E5
330
222
100
AcDbEntity
  8
7_ALL_FEATURES
  6
Continuous
 62
     7
100
AcDbLine
 10
170.313394
 20
193.20637
 30
0.0
 11
186.213394
 21
193.20637
 31
0.0
  0
LINE
  5
3E6
330
222
100
AcDbEntity
  8
3_ALL_AXES
  6
Continuous
 62
     7
100
AcDbLine
 10
187.013394
 20
195.05637
 30
0.0
 11
227.013394
 21
195.05637
 31
0.0
  0
LINE
  5
3E7
330
222
100
AcDbEntity
  8
3_ALL_AXES
  6
Continuous
 62
     7
100
AcDbLine
 10
227.013394
 20
201.355882
 30
0.0
 11
227.013394
 21
198.20637
 31
0.0
  0
LINE
  5
3E8
330
222
100
AcDbEntity
  8
7_ALL_FEATURES
  6
Continuous
 62
     7
100
AcDbLine
 10
117.813394
 20
193.20637
 30
0.0
 11
133.713394
 21
193.20637
 31
0.0
  0
LINE
  5
3E9
330
222
100
AcDbEntity
  8
7_ALL_FEATURES
  6
Continuous
 62
     7
100
AcDbLine
 10
133.713394
 20
193.20637
 30
0.0
 11
135.196634
 21
193.20637
 31
0.0
  0
LINE
  5
3EA
330
222
100
AcDbEntity
  8
7_ALL_FEATURES
  6
Continuous
 62
     7
100
AcDbLine
 10
135.196634
 20
193.20637
 30
0.0
 11
168.830154
 21
193.20637
 31
0.0
  0
LINE
  5
3EB
330
222
100
AcDbEntity
  8
7_ALL_FEATURES
  6
Continuous
 62
     7
100
AcDbLine
 10
168.830154
 20
193.20637
 30
0.0
 11
170.313394
 21
193.20637
 31
0.0
  0
LINE
  5
3EC
330
222
100
AcDbEntity
  8
7_ALL_FEATURES
  6
Continuous
 62
     7
100
AcDbLine
 10
133.713394
 20
203.20637
 30
0.0
 11
117.813394
 21
203.20637
 31
0.0
  0
LINE
  5
3ED
330
222
100
AcDbEntity
  8
3_ALL_AXES
  6
Continuous
 62
     7
100
AcDbLine
 10
187.013394
 20
201.35637
 30
0.0
 11
227.013394
 21
201.35637
 31
0.0
  0
LINE
  5
3EE
330
222
100
AcDbEntity
  8
7_ALL_FEATURES
  6
Continuous
 62
     7
100
AcDbLine
 10
135.196634
 20
193.20637
 30
0.0
 11
168.830154
 21
193.20637
 31
0.0
  0
LINE
  5
3EF
330
222
100
AcDbEntity
  8
7_ALL_FEATURES
  6
Continuous
 62
     7
100
AcDbLine
 10
170.313394
 20
193.20637
 30
0.0
 11
186.213394
 21
193.20637
 31
0.0
  0
LINE
  5
3F0
330
222
100
AcDbEntity
  8
7_ALL_FEATURES
  6
Continuous
 62
     7
100
AcDbLine
 10
186.213394
 20
203.20637
 30
0.0
 11
170.313394
 21
203.20637
 31
0.0
  0
LINE
  5
3F1
330
222
100
AcDbEntity
  8
7_ALL_FEATURES
  6
Continuous
 62
     7
100
AcDbLine
 10
170.313394
 20
203.20637
 30
0.0
 11
168.830154
 21
203.20637
 31
0.0
  0
LINE
  5
3F2
330
222
100
AcDbEntity
  8
7_ALL_FEATURES
  6
Continuous
 62
     7
100
AcDbLine
 10
168.830154
 20
203.20637
 30
0.0
 11
135.196634
 21
203.20637
 31
0.0
  0
LINE
  5
3F3
330
222
100
AcDbEntity
  8
7_ALL_FEATURES
  6
Continuous
 62
     7
100
AcDbLine
 10
135.196634
 20
203.20637
 30
0.0
 11
133.713394
 21
203.20637
 31
0.0
  0
LINE
  5
3F4
330
222
100
AcDbEntity
  8
7_ALL_FEATURES
  6
Continuous
 62
     7
100
AcDbLine
 10
187.013394
 20
202.40637
 30
0.0
 11
187.013394
 21
194.00637
 31
0.0
  0
LINE
  5
3F5
330
222
100
AcDbEntity
  8
7_ALL_FEATURES
  6
Continuous
 62
     7
100
AcDbLine
 10
168.830154
 20
203.20637
 30
0.0
 11
135.196634
 21
203.20637
 31
0.0
  0
LINE
  5
3F6
330
222
100
AcDbEntity
  8
7_ALL_FEATURES
  6
Continuous
 62
     7
100
AcDbLine
 10
133.713394
 20
203.20637
 30
0.0
 11
117.813394
 21
203.20637
 31
0.0
  0
ARC
  5
3F7
330
222
100
AcDbEntity
  8
7_ALL_FEATURES
  6
Continuous
 62
     7
100
AcDbCircle
 10
67.013394
 20
206.13387
 30
0.0
 40
4.7775
100
AcDbArc
 50
180.0
 51
194.034189
  0
ARC
  5
3F8
330
222
100
AcDbEntity
  8
7_ALL_FEATURES
  6
Continuous
 62
     7
100
AcDbCircle
 10
67.013394
 20
206.13387
 30
0.0
 40
4.7775
100
AcDbArc
 50
194.034189
 51
198.564761
  0
ARC
  5
3F9
330
222
100
AcDbEntity
  8
7_ALL_FEATURES
  6
Continuous
 62
     7
100
AcDbCircle
 10
67.013394
 20
206.13387
 30
0.0
 40
4.7775
100
AcDbArc
 50
198.564761
 51
208.107493
  0
ARC
  5
3FA
330
222
100
AcDbEntity
  8
7_ALL_FEATURES
  6
Continuous
 62
     7
100
AcDbCircle
 10
67.013394
 20
206.13387
 30
0.0
 40
4.7775
100
AcDbArc
 50
208.107493
 51
213.417764
  0
ARC
  5
3FB
330
222
100
AcDbEntity
  8
7_ALL_FEATURES
  6
Continuous
 62
     7
100
AcDbCircle
 10
67.013394
 20
206.13387
 30
0.0
 40
4.7775
100
AcDbArc
 50
213.417764
 51
222.257775
  0
ARC
  5
3FC
330
222
100
AcDbEntity
  8
7_ALL_FEATURES
  6
Continuous
 62
     7
100
AcDbCircle
 10
67.013394
 20
206.13387
 30
0.0
 40
4.7775
100
AcDbArc
 50
222.257775
 51
227.742225
  0
ARC
  5
3FD
330
222
100
AcDbEntity
  8
7_ALL_FEATURES
  6
Continuous
 62
     7
100
AcDbCircle
 10
67.013394
 20
206.13387
 30
0.0
 40
4.7775
100
AcDbArc
 50
227.742225
 51
236.582236
  0
ARC
  5
3FE
330
222
100
AcDbEntity
  8
7_ALL_FEATURES
  6
Continuous
 62
     7
100
AcDbCircle
 10
67.013394
 20
206.13387
 30
0.0
 40
4.7775
100
AcDbArc
 50
236.582236
 51
241.892507
  0
ARC
  5
3FF
330
222
100
AcDbEntity
  8
7_ALL_FEATURES
  6
Continuous
 62
     7
100
AcDbCircle
 10
67.013394
 20
206.13387
 30
0.0
 40
4.7775
100
AcDbArc
 50
241.892507
 51
251.435239
  0
ARC
  5
400
330
222
100
AcDbEntity
  8
7_ALL_FEATURES
  6
Continuous
 62
     7
100
AcDbCircle
 10
67.013394
 20
206.13387
 30
0.0
 40
4.7775
100
AcDbArc
 50
251.435239
 51
255.965811
  0
ARC
  5
401
330
222
100
AcDbEntity
  8
7_ALL_FEATURES
  6
Continuous
 62
     7
100
AcDbCircle
 10
67.013394
 20
206.13387
 30
0.0
 40
4.7775
100
AcDbArc
 50
255.965811
 51
270.0
  0
LINE
  5
402
330
222
100
AcDbEntity
  8
3_ALL_AXES
  6
Continuous
 62
     7
100
AcDbLine
 10
117.013394
 20
195.05637
 30
0.0
 11
67.013394
 21
195.05637
 31
0.0
  0
LINE
  5
403
330
222
100
AcDbEntity
  8
3_ALL_AXES
  6
Continuous
 62
     7
100
AcDbLine
 10
117.013394
 20
201.35637
 30
0.0
 11
67.013394
 21
201.35637
 31
0.0
  0
LINE
  5
404
330
222
100
AcDbEntity
  8
7_ALL_FEATURES
  6
Continuous
 62
     7
100
AcDbLine
 10
117.013394
 20
194.00637
 30
0.0
 11
117.013394
 21
202.40637
 31
0.0
  0
LINE
  5
405
330
222
100
AcDbEntity
  8
3_ALL_AXES
  6
Continuous
 62
     7
100
AcDbLine
 10
55.935894
 20
206.13387
 30
0.0
 11
55.935894
 21
207.40637
 31
0.0
  0
LINE
  5
406
330
222
100
AcDbEntity
  8
3_ALL_AXES
  6
Continuous
 62
     7
100
AcDbLine
 10
62.235894
 20
206.13387
 30
0.0
 11
62.235894
 21
207.40637
 31
0.0
  0
LINE
  5
407
330
222
100
AcDbEntity
  8
3_ALL_AXES
  6
Continuous
 62
     7
100
AcDbLine
 10
227.013394
 20
198.20637
 30
0.0
 11
227.013394
 21
195.056858
 31
0.0
  0
ARC
  5
408
330
222
100
AcDbEntity
  8
7_ALL_FEATURES
  6
Continuous
 62
     7
100
AcDbCircle
 10
186.213394
 20
194.00637
 30
0.0
 40
0.8
100
AcDbArc
 50
270.0
 51
360.0
  0
ARC
  5
409
330
222
100
AcDbEntity
  8
7_ALL_FEATURES
  6
Continuous
 62
     7
100
AcDbCircle
 10
186.213394
 20
194.00637
 30
0.0
 40
0.8
100
AcDbArc
 50
350.006909
 51
360.0
  0
ARC
  5
40A
330
222
100
AcDbEntity
  8
7_ALL_FEATURES
  6
Continuous
 62
     7
100
AcDbCircle
 10
186.213394
 20
194.00637
 30
0.0
 40
0.8
100
AcDbArc
 50
270.0
 51
279.991155
  0
ARC
  5
40B
330
222
100
AcDbEntity
  8
7_ALL_FEATURES
  6
Continuous
 62
     7
100
AcDbCircle
 10
186.213394
 20
202.40637
 30
0.0
 40
0.8
100
AcDbArc
 50
0.0
 51
90.0
  0
ARC
  5
40C
330
222
100
AcDbEntity
  8
7_ALL_FEATURES
  6
Continuous
 62
     7
100
AcDbCircle
 10
186.213394
 20
202.40637
 30
0.0
 40
0.8
100
AcDbArc
 50
80.008876
 51
90.0
  0
ARC
  5
40D
330
222
100
AcDbEntity
  8
7_ALL_FEATURES
  6
Continuous
 62
     7
100
AcDbCircle
 10
186.213394
 20
202.40637
 30
0.0
 40
0.8
100
AcDbArc
 50
9.993387
 51
80.008876
  0
ARC
  5
40E
330
222
100
AcDbEntity
  8
7_ALL_FEATURES
  6
Continuous
 62
     7
100
AcDbCircle
 10
186.213394
 20
202.40637
 30
0.0
 40
0.8
100
AcDbArc
 50
0.0
 51
9.993387
  0
ARC
  5
40F
330
222
100
AcDbEntity
  8
7_ALL_FEATURES
  6
Continuous
 62
     7
100
AcDbCircle
 10
117.813394
 20
202.40637
 30
0.0
 40
0.8
100
AcDbArc
 50
90.0
 51
180.0
  0
ARC
  5
410
330
222
100
AcDbEntity
  8
7_ALL_FEATURES
  6
Continuous
 62
     7
100
AcDbCircle
 10
117.813394
 20
202.40637
 30
0.0
 40
0.8
100
AcDbArc
 50
170.006909
 51
180.0
  0
ARC
  5
411
330
222
100
AcDbEntity
  8
7_ALL_FEATURES
  6
Continuous
 62
     7
100
AcDbCircle
 10
117.813394
 20
202.40637
 30
0.0
 40
0.8
100
AcDbArc
 50
90.0
 51
99.991155
  0
ARC
  5
412
330
222
100
AcDbEntity
  8
7_ALL_FEATURES
  6
Continuous
 62
     7
100
AcDbCircle
 10
117.813394
 20
194.00637
 30
0.0
 40
0.8
100
AcDbArc
 50
180.0
 51
270.0
  0
ARC
  5
413
330
222
100
AcDbEntity
  8
7_ALL_FEATURES
  6
Continuous
 62
     7
100
AcDbCircle
 10
117.813394
 20
194.00637
 30
0.0
 40
0.8
100
AcDbArc
 50
260.008876
 51
270.0
  0
ARC
  5
414
330
222
100
AcDbEntity
  8
7_ALL_FEATURES
  6
Continuous
 62
     7
100
AcDbCircle
 10
117.813394
 20
194.00637
 30
0.0
 40
0.8
100
AcDbArc
 50
189.993387
 51
260.008876
  0
ARC
  5
415
330
222
100
AcDbEntity
  8
3_ALL_AXES
  6
Continuous
 62
     7
100
AcDbCircle
 10
67.013394
 20
206.13387
 30
0.0
 40
11.0775
100
AcDbArc
 50
180.0
 51
270.0
  0
ARC
  5
416
330
222
100
AcDbEntity
  8
3_ALL_AXES
  6
Continuous
 62
     7
100
AcDbCircle
 10
67.013394
 20
206.13387
 30
0.0
 40
4.7775
100
AcDbArc
 50
180.0
 51
194.017754
  0
ARC
  5
417
330
222
100
AcDbEntity
  8
3_ALL_AXES
  6
Continuous
 62
     7
100
AcDbCircle
 10
67.013394
 20
206.13387
 30
0.0
 40
4.7775
100
AcDbArc
 50
194.017754
 51
198.5781
  0
ARC
  5
418
330
222
100
AcDbEntity
  8
3_ALL_AXES
  6
Continuous
 62
     7
100
AcDbCircle
 10
67.013394
 20
206.13387
 30
0.0
 40
4.7775
100
AcDbArc
 50
198.5781
 51
208.082976
  0
ARC
  5
419
330
222
100
AcDbEntity
  8
3_ALL_AXES
  6
Continuous
 62
     7
100
AcDbCircle
 10
67.013394
 20
206.13387
 30
0.0
 40
4.7775
100
AcDbArc
 50
208.082976
 51
213.439385
  0
ARC
  5
41A
330
222
100
AcDbEntity
  8
3_ALL_AXES
  6
Continuous
 62
     7
100
AcDbCircle
 10
67.013394
 20
206.13387
 30
0.0
 40
4.7775
100
AcDbArc
 50
213.439385
 51
222.232014
  0
ARC
  5
41B
330
222
100
AcDbEntity
  8
3_ALL_AXES
  6
Continuous
 62
     7
100
AcDbCircle
 10
67.013394
 20
206.13387
 30
0.0
 40
4.7775
100
AcDbArc
 50
222.232014
 51
227.767986
  0
ARC
  5
41C
330
222
100
AcDbEntity
  8
3_ALL_AXES
  6
Continuous
 62
     7
100
AcDbCircle
 10
67.013394
 20
206.13387
 30
0.0
 40
4.7775
100
AcDbArc
 50
227.767986
 51
236.560615
  0
ARC
  5
41D
330
222
100
AcDbEntity
  8
3_ALL_AXES
  6
Continuous
 62
     7
100
AcDbCircle
 10
67.013394
 20
206.13387
 30
0.0
 40
4.7775
100
AcDbArc
 50
236.560615
 51
241.917024
  0
ARC
  5
41E
330
222
100
AcDbEntity
  8
3_ALL_AXES
  6
Continuous
 62
     7
100
AcDbCircle
 10
67.013394
 20
206.13387
 30
0.0
 40
4.7775
100
AcDbArc
 50
241.917024
 51
251.4219
  0
ARC
  5
41F
330
222
100
AcDbEntity
  8
3_ALL_AXES
  6
Continuous
 62
     7
100
AcDbCircle
 10
67.013394
 20
206.13387
 30
0.0
 40
4.7775
100
AcDbArc
 50
251.4219
 51
255.982246
  0
ARC
  5
420
330
222
100
AcDbEntity
  8
3_ALL_AXES
  6
Continuous
 62
     7
100
AcDbCircle
 10
67.013394
 20
206.13387
 30
0.0
 40
4.7775
100
AcDbArc
 50
255.982246
 51
270.0
  0
SPLINE
  5
421
330
222
100
AcDbEntity
  8
7_ALL_FEATURES
  6
Continuous
 62
     9
100
AcDbSpline
 70
     0
 71
     3
 72
    11
 73
     7
 74
     0
 42
0.000000001
 43
0.0000001
 40
0.0
 40
0.0
 40
0.0
 40
0.0
 40
0.2586965025
 40
0.5123489006
 40
0.7587699169
 40
1.0
 40
1.0
 40
1.0
 40
1.0
 10
134.4550137475
 20
194.0063698389
 30
0.0
 10
134.4550137475
 20
193.9025944358
 30
0.0
 10
134.4926442328
 20
193.6950393558
 30
0.0
 10
134.6555672175
 20
193.4295344027
 30
0.0
 10
134.9018851184
 20
193.249173794
 30
0.0
 10
135.0998647941
 20
193.2063698389
 30
0.0
 10
135.1966335902
 20
193.2063698389
 30
0.0
  0
LINE
  5
422
330
222
100
AcDbEntity
  8
7_ALL_FEATURES
  6
Continuous
 62
     9
100
AcDbLine
 10
135.196634
 20
194.00637
 30
0.0
 11
135.196634
 21
193.20637
 31
0.0
  0
LINE
  5
423
330
222
100
AcDbEntity
  8
7_ALL_FEATURES
  6
Continuous
 62
     9
100
AcDbLine
 10
133.713394
 20
202.40637
 30
0.0
 11
117.813394
 21
202.40637
 31
0.0
  0
LINE
  5
424
330
222
100
AcDbEntity
  8
7_ALL_FEATURES
  6
Continuous
 62
     9
100
AcDbLine
 10
133.713394
 20
194.00637
 30
0.0
 11
133.713394
 21
202.40637
 31
0.0
  0
LINE
  5
425
330
222
100
AcDbEntity
  8
7_ALL_FEATURES
  6
Continuous
 62
     9
100
AcDbLine
 10
117.813394
 20
194.00637
 30
0.0
 11
133.713394
 21
194.00637
 31
0.0
  0
LINE
  5
426
330
222
100
AcDbEntity
  8
7_ALL_FEATURES
  6
Continuous
 62
     9
100
AcDbLine
 10
117.813394
 20
194.00637
 30
0.0
 11
117.813394
 21
202.40637
 31
0.0
  0
LINE
  5
427
330
222
100
AcDbEntity
  8
7_ALL_FEATURES
  6
Continuous
 62
     9
100
AcDbLine
 10
186.213394
 20
202.40637
 30
0.0
 11
170.313394
 21
202.40637
 31
0.0
  0
LINE
  5
428
330
222
100
AcDbEntity
  8
7_ALL_FEATURES
  6
Continuous
 62
     9
100
AcDbLine
 10
186.213394
 20
202.40637
 30
0.0
 11
186.213394
 21
194.00637
 31
0.0
  0
LINE
  5
429
330
222
100
AcDbEntity
  8
7_ALL_FEATURES
  6
Continuous
 62
     9
100
AcDbLine
 10
170.313394
 20
194.00637
 30
0.0
 11
186.213394
 21
194.00637
 31
0.0
  0
LINE
  5
42A
330
222
100
AcDbEntity
  8
7_ALL_FEATURES
  6
Continuous
 62
     9
100
AcDbLine
 10
170.313394
 20
202.40637
 30
0.0
 11
170.313394
 21
194.00637
 31
0.0
  0
LINE
  5
42B
330
222
100
AcDbEntity
  8
7_ALL_FEATURES
  6
Continuous
 62
     9
100
AcDbLine
 10
170.313394
 20
202.40637
 30
0.0
 11
169.571774
 21
202.40637
 31
0.0
  0
LINE
  5
42C
330
222
100
AcDbEntity
  8
7_ALL_FEATURES
  6
Continuous
 62
     9
100
AcDbLine
 10
169.571774
 20
194.00637
 30
0.0
 11
170.313394
 21
194.00637
 31
0.0
  0
LINE
  5
42D
330
222
100
AcDbEntity
  8
7_ALL_FEATURES
  6
Continuous
 62
     9
100
AcDbLine
 10
169.571774
 20
202.40637
 30
0.0
 11
169.571774
 21
194.00637
 31
0.0
  0
LINE
  5
42E
330
222
100
AcDbEntity
  8
7_ALL_FEATURES
  6
Continuous
 62
     9
100
AcDbLine
 10
168.830154
 20
194.00637
 30
0.0
 11
168.830154
 21
193.20637
 31
0.0
  0
SPLINE
  5
42F
330
222
100
AcDbEntity
  8
7_ALL_FEATURES
  6
Continuous
 62
     9
100
AcDbSpline
 70
     0
 71
     3
 72
    11
 73
     7
 74
     0
 42
0.000000001
 43
0.0000001
 40
0.0
 40
0.0
 40
0.0
 40
0.0
 40
0.2586965107
 40
0.5123489043
 40
0.7587699145
 40
1.0
 40
1.0
 40
1.0
 40
1.0
 10
169.5717740444
 20
194.0063698389
 30
0.0
 10
169.5717740444
 20
193.9025944325
 30
0.0
 10
169.5341435479
 20
193.6950393526
 30
0.0
 10
169.3712205667
 20
193.4295344003
 30
0.0
 10
169.1249026672
 20
193.2491737942
 30
0.0
 10
168.9269229931
 20
193.2063698389
 30
0.0
 10
168.830154196
 20
193.2063698389
 30
0.0
  0
LINE
  5
430
330
222
100
AcDbEntity
  8
7_ALL_FEATURES
  6
Continuous
 62
     9
100
AcDbLine
 10
170.313394
 20
194.00637
 30
0.0
 11
170.313394
 21
193.20637
 31
0.0
  0
LINE
  5
431
330
222
100
AcDbEntity
  8
7_ALL_FEATURES
  6
Continuous
 62
     9
100
AcDbLine
 10
186.213394
 20
194.00637
 30
0.0
 11
186.213394
 21
193.20637
 31
0.0
  0
LINE
  5
432
330
222
100
AcDbEntity
  8
7_ALL_FEATURES
  6
Continuous
 62
     9
100
AcDbLine
 10
186.213394
 20
202.40637
 30
0.0
 11
186.213394
 21
203.20637
 31
0.0
  0
LINE
  5
433
330
222
100
AcDbEntity
  8
7_ALL_FEATURES
  6
Continuous
 62
     9
100
AcDbLine
 10
170.313394
 20
202.40637
 30
0.0
 11
170.313394
 21
203.20637
 31
0.0
  0
LINE
  5
434
330
222
100
AcDbEntity
  8
7_ALL_FEATURES
  6
Continuous
 62
     9
100
AcDbLine
 10
134.455014
 20
202.40637
 30
0.0
 11
133.713394
 21
202.40637
 31
0.0
  0
LINE
  5
435
330
222
100
AcDbEntity
  8
7_ALL_FEATURES
  6
Continuous
 62
     9
100
AcDbLine
 10
134.455014
 20
194.00637
 30
0.0
 11
134.455014
 21
202.40637
 31
0.0
  0
LINE
  5
436
330
222
100
AcDbEntity
  8
7_ALL_FEATURES
  6
Continuous
 62
     9
100
AcDbLine
 10
133.713394
 20
194.00637
 30
0.0
 11
134.455014
 21
194.00637
 31
0.0
  0
LINE
  5
437
330
222
100
AcDbEntity
  8
7_ALL_FEATURES
  6
Continuous
 62
     9
100
AcDbLine
 10
187.013394
 20
202.40637
 30
0.0
 11
186.213394
 21
202.40637
 31
0.0
  0
LINE
  5
438
330
222
100
AcDbEntity
  8
7_ALL_FEATURES
  6
Continuous
 62
     9
100
AcDbLine
 10
186.213394
 20
194.00637
 30
0.0
 11
187.013394
 21
194.00637
 31
0.0
  0
LINE
  5
439
330
222
100
AcDbEntity
  8
7_ALL_FEATURES
  6
Continuous
 62
     9
100
AcDbLine
 10
135.196634
 20
194.00637
 30
0.0
 11
135.196634
 21
202.40637
 31
0.0
  0
LINE
  5
43A
330
222
100
AcDbEntity
  8
3_ALL_AXES
  6
Continuous
 62
     9
100
AcDbLine
 10
55.935894
 20
206.13387
 30
0.0
 11
59.085894
 21
206.13387
 31
0.0
  0
SPLINE
  5
43B
330
222
100
AcDbEntity
  8
7_ALL_FEATURES
  6
Continuous
 62
     9
100
AcDbSpline
 70
     0
 71
     3
 72
    11
 73
     7
 74
     0
 42
0.000000001
 43
0.0000001
 40
0.0
 40
0.0
 40
0.0
 40
0.0
 40
0.2586965025
 40
0.5123489006
 40
0.7587699169
 40
1.0
 40
1.0
 40
1.0
 40
1.0
 10
169.5717740381
 20
202.4063698389
 30
0.0
 10
169.5717740381
 20
202.5101452419
 30
0.0
 10
169.5341435528
 20
202.7177003219
 30
0.0
 10
169.3712205681
 20
202.983205275
 30
0.0
 10
169.1249026672
 20
203.1635658837
 30
0.0
 10
168.9269229915
 20
203.2063698389
 30
0.0
 10
168.8301541954
 20
203.2063698389
 30
0.0
  0
LINE
  5
43C
330
222
100
AcDbEntity
  8
7_ALL_FEATURES
  6
Continuous
 62
     9
100
AcDbLine
 10
168.830154
 20
202.40637
 30
0.0
 11
168.830154
 21
203.20637
 31
0.0
  0
LINE
  5
43D
330
222
100
AcDbEntity
  8
7_ALL_FEATURES
  6
Continuous
 62
     9
100
AcDbLine
 10
168.830154
 20
202.40637
 30
0.0
 11
135.196634
 21
202.40637
 31
0.0
  0
LINE
  5
43E
330
222
100
AcDbEntity
  8
7_ALL_FEATURES
  6
Continuous
 62
     9
100
AcDbLine
 10
168.830154
 20
202.40637
 30
0.0
 11
168.830154
 21
194.00637
 31
0.0
  0
LINE
  5
43F
330
222
100
AcDbEntity
  8
7_ALL_FEATURES
  6
Continuous
 62
     9
100
AcDbLine
 10
67.013394
 20
195.05637
 30
0.0
 11
67.013394
 21
198.20637
 31
0.0
  0
LINE
  5
440
330
222
100
AcDbEntity
  8
7_ALL_FEATURES
  6
Continuous
 62
     9
100
AcDbLine
 10
135.196634
 20
202.40637
 30
0.0
 11
135.196634
 21
203.20637
 31
0.0
  0
SPLINE
  5
441
330
222
100
AcDbEntity
  8
7_ALL_FEATURES
  6
Continuous
 62
     9
100
AcDbSpline
 70
     0
 71
     3
 72
    11
 73
     7
 74
     0
 42
0.000000001
 43
0.0000001
 40
0.0
 40
0.0
 40
0.0
 40
0.0
 40
0.2586965107
 40
0.5123489043
 40
0.7587699145
 40
1.0
 40
1.0
 40
1.0
 40
1.0
 10
134.4550137411
 20
202.4063698389
 30
0.0
 10
134.4550137411
 20
202.5101452452
 30
0.0
 10
134.4926442377
 20
202.7177003251
 30
0.0
 10
134.6555672189
 20
202.9832052774
 30
0.0
 10
134.9018851183
 20
203.1635658835
 30
0.0
 10
135.0998647925
 20
203.2063698389
 30
0.0
 10
135.1966335896
 20
203.2063698389
 30
0.0
  0
LINE
  5
442
330
222
100
AcDbEntity
  8
7_ALL_FEATURES
  6
Continuous
 62
     9
100
AcDbLine
 10
135.196634
 20
194.00637
 30
0.0
 11
168.830154
 21
194.00637
 31
0.0
  0
LINE
  5
443
330
222
100
AcDbEntity
  8
7_ALL_FEATURES
  6
Continuous
 62
     9
100
AcDbLine
 10
117.813394
 20
202.40637
 30
0.0
 11
117.013394
 21
202.40637
 31
0.0
  0
LINE
  5
444
330
222
100
AcDbEntity
  8
7_ALL_FEATURES
  6
Continuous
 62
     9
100
AcDbLine
 10
117.013394
 20
194.00637
 30
0.0
 11
117.813394
 21
194.00637
 31
0.0
  0
LINE
  5
445
330
222
100
AcDbEntity
  8
7_ALL_FEATURES
  6
Continuous
 62
     9
100
AcDbLine
 10
169.571774
 20
202.40637
 30
0.0
 11
168.830154
 21
202.40637
 31
0.0
  0
LINE
  5
446
330
222
100
AcDbEntity
  8
7_ALL_FEATURES
  6
Continuous
 62
     9
100
AcDbLine
 10
168.830154
 20
194.00637
 30
0.0
 11
169.571774
 21
194.00637
 31
0.0
  0
LINE
  5
447
330
222
100
AcDbEntity
  8
7_ALL_FEATURES
  6
Continuous
 62
     9
100
AcDbLine
 10
133.713394
 20
202.40637
 30
0.0
 11
133.713394
 21
203.20637
 31
0.0
  0
LINE
  5
448
330
222
100
AcDbEntity
  8
7_ALL_FEATURES
  6
Continuous
 62
     9
100
AcDbLine
 10
117.813394
 20
202.40637
 30
0.0
 11
117.813394
 21
203.20637
 31
0.0
  0
LINE
  5
449
330
222
100
AcDbEntity
  8
7_ALL_FEATURES
  6
Continuous
 62
     9
100
AcDbLine
 10
117.813394
 20
194.00637
 30
0.0
 11
117.813394
 21
193.20637
 31
0.0
  0
LINE
  5
44A
330
222
100
AcDbEntity
  8
7_ALL_FEATURES
  6
Continuous
 62
     9
100
AcDbLine
 10
133.713394
 20
194.00637
 30
0.0
 11
133.713394
 21
193.20637
 31
0.0
  0
LINE
  5
44B
330
222
100
AcDbEntity
  8
7_ALL_FEATURES
  6
Continuous
 62
     9
100
AcDbLine
 10
135.196634
 20
202.40637
 30
0.0
 11
134.455014
 21
202.40637
 31
0.0
  0
LINE
  5
44C
330
222
100
AcDbEntity
  8
7_ALL_FEATURES
  6
Continuous
 62
     9
100
AcDbLine
 10
134.455014
 20
194.00637
 30
0.0
 11
135.196634
 21
194.00637
 31
0.0
  0
LINE
  5
44D
330
222
100
AcDbEntity
  8
7_ALL_FEATURES
  6
Continuous
 62
     9
100
AcDbLine
 10
67.013394
 20
201.35637
 30
0.0
 11
67.013394
 21
198.20637
 31
0.0
  0
LINE
  5
44E
330
222
100
AcDbEntity
  8
3_ALL_AXES
  6
Continuous
 62
     9
100
AcDbLine
 10
59.085894
 20
206.13387
 30
0.0
 11
62.235894
 21
206.13387
 31
0.0
  0
LINE
  5
44F
330
222
100
AcDbEntity
  8
6_ALL_SURFS
  6
Continuous
 62
     7
100
AcDbLine
 10
37.013394
 20
257.90637
 30
0.0
 11
37.013394
 21
258.90637
 31
0.0
  0
LINE
  5
450
330
222
100
AcDbEntity
  8
6_ALL_SURFS
  6
Continuous
 62
     7
100
AcDbLine
 10
37.013394
 20
257.90637
 30
0.0
 11
37.013394
 21
248.65637
 31
0.0
  0
LINE
  5
451
330
222
100
AcDbEntity
  8
7_ALL_FEATURES
  6
Continuous
 62
     7
100
AcDbLine
 10
296.513394
 20
258.90637
 30
0.0
 11
37.013394
 21
258.90637
 31
0.0
  0
LINE
  5
452
330
222
100
AcDbEntity
  8
6_ALL_SURFS
  6
Continuous
 62
     7
100
AcDbLine
 10
40.513394
 20
231.15637
 30
0.0
 11
40.513394
 21
248.65637
 31
0.0
  0
LINE
  5
453
330
222
100
AcDbEntity
  8
6_ALL_SURFS
  6
Continuous
 62
     7
100
AcDbLine
 10
37.013394
 20
248.65637
 30
0.0
 11
40.513394
 21
248.65637
 31
0.0
  0
LINE
  5
454
330
222
100
AcDbEntity
  8
7_ALL_FEATURES
  6
Continuous
 62
     7
100
AcDbLine
 10
296.513394
 20
257.90637
 30
0.0
 11
296.513394
 21
248.65637
 31
0.0
  0
LINE
  5
455
330
222
100
AcDbEntity
  8
7_ALL_FEATURES
  6
Continuous
 62
     7
100
AcDbLine
 10
296.513394
 20
248.65637
 30
0.0
 11
293.013394
 21
248.65637
 31
0.0
  0
LINE
  5
456
330
222
100
AcDbEntity
  8
7_ALL_FEATURES
  6
Continuous
 62
     7
100
AcDbLine
 10
293.013394
 20
231.15637
 30
0.0
 11
293.013394
 21
248.65637
 31
0.0
  0
LINE
  5
457
330
222
100
AcDbEntity
  8
7_ALL_FEATURES
  6
Continuous
 62
     7
100
AcDbLine
 10
296.513394
 20
257.90637
 30
0.0
 11
296.513394
 21
258.90637
 31
0.0
  0
LINE
  5
458
330
222
100
AcDbEntity
  8
7_ALL_FEATURES
  6
Continuous
 62
     7
100
AcDbLine
 10
293.013394
 20
230.15637
 30
0.0
 11
40.513394
 21
230.15637
 31
0.0
  0
LINE
  5
459
330
222
100
AcDbEntity
  8
7_ALL_FEATURES
  6
Continuous
 62
     7
100
AcDbLine
 10
293.013394
 20
223.40637
 30
0.0
 11
242.963394
 21
223.40637
 31
0.0
  0
LINE
  5
45A
330
222
100
AcDbEntity
  8
7_ALL_FEATURES
  6
Continuous
 62
     7
100
AcDbLine
 10
242.963394
 20
223.40637
 30
0.0
 11
242.56647
 21
223.40637
 31
0.0
  0
LINE
  5
45B
330
222
100
AcDbEntity
  8
7_ALL_FEATURES
  6
Continuous
 62
     7
100
AcDbLine
 10
230.460318
 20
223.40637
 30
0.0
 11
230.063394
 21
223.40637
 31
0.0
  0
LINE
  5
45C
330
222
100
AcDbEntity
  8
7_ALL_FEATURES
  6
Continuous
 62
     7
100
AcDbLine
 10
230.063394
 20
223.40637
 30
0.0
 11
103.463394
 21
223.40637
 31
0.0
  0
LINE
  5
45D
330
222
100
AcDbEntity
  8
7_ALL_FEATURES
  6
Continuous
 62
     7
100
AcDbLine
 10
103.463394
 20
223.40637
 30
0.0
 11
103.06647
 21
223.40637
 31
0.0
  0
LINE
  5
45E
330
222
100
AcDbEntity
  8
7_ALL_FEATURES
  6
Continuous
 62
     7
100
AcDbLine
 10
90.960318
 20
223.40637
 30
0.0
 11
90.563394
 21
223.40637
 31
0.0
  0
LINE
  5
45F
330
222
100
AcDbEntity
  8
7_ALL_FEATURES
  6
Continuous
 62
     7
100
AcDbLine
 10
90.563394
 20
223.40637
 30
0.0
 11
40.513394
 21
223.40637
 31
0.0
  0
LINE
  5
460
330
222
100
AcDbEntity
  8
7_ALL_FEATURES
  6
Continuous
 62
     7
100
AcDbLine
 10
293.013394
 20
230.009923
 30
0.0
 11
293.013394
 21
228.65637
 31
0.0
  0
LINE
  5
461
330
222
100
AcDbEntity
  8
6_ALL_SURFS
  6
Continuous
 62
     7
100
AcDbLine
 10
40.513394
 20
230.009923
 30
0.0
 11
40.513394
 21
228.65637
 31
0.0
  0
LINE
  5
462
330
222
100
AcDbEntity
  8
7_ALL_FEATURES
  6
Continuous
 62
     7
100
AcDbLine
 10
293.013394
 20
225.90637
 30
0.0
 11
293.013394
 21
225.596916
 31
0.0
  0
LINE
  5
463
330
222
100
AcDbEntity
  8
6_ALL_SURFS
  6
Continuous
 62
     7
100
AcDbLine
 10
40.513394
 20
225.90637
 30
0.0
 11
40.513394
 21
225.596916
 31
0.0
  0
LINE
  5
464
330
222
100
AcDbEntity
  8
6_ALL_SURFS
  6
Continuous
 62
     7
100
AcDbLine
 10
40.513394
 20
230.009923
 30
0.0
 11
40.513394
 21
230.15637
 31
0.0
  0
LINE
  5
465
330
222
100
AcDbEntity
  8
7_ALL_FEATURES
  6
Continuous
 62
     7
100
AcDbLine
 10
293.013394
 20
230.009923
 30
0.0
 11
293.013394
 21
230.15637
 31
0.0
  0
LINE
  5
466
330
222
100
AcDbEntity
  8
6_ALL_SURFS
  6
Continuous
 62
     7
100
AcDbLine
 10
40.513394
 20
225.596916
 30
0.0
 11
40.513394
 21
225.126026
 31
0.0
  0
LINE
  5
467
330
222
100
AcDbEntity
  8
7_ALL_FEATURES
  6
Continuous
 62
     7
100
AcDbLine
 10
293.013394
 20
225.596916
 30
0.0
 11
293.013394
 21
225.126026
 31
0.0
  0
LINE
  5
468
330
222
100
AcDbEntity
  8
6_ALL_SURFS
  6
Continuous
 62
     7
100
AcDbLine
 10
40.513394
 20
223.40637
 30
0.0
 11
40.513394
 21
224.40637
 31
0.0
  0
LINE
  5
469
330
222
100
AcDbEntity
  8
6_ALL_SURFS
  6
Continuous
 62
     7
100
AcDbLine
 10
40.513394
 20
224.40637
 30
0.0
 11
40.513394
 21
224.465704
 31
0.0
  0
LINE
  5
46A
330
222
100
AcDbEntity
  8
6_ALL_SURFS
  6
Continuous
 62
     7
100
AcDbLine
 10
40.513394
 20
224.465704
 30
0.0
 11
40.513394
 21
225.126026
 31
0.0
  0
LINE
  5
46B
330
222
100
AcDbEntity
  8
7_ALL_FEATURES
  6
Continuous
 62
     7
100
AcDbLine
 10
293.013394
 20
223.40637
 30
0.0
 11
293.013394
 21
224.40637
 31
0.0
  0
LINE
  5
46C
330
222
100
AcDbEntity
  8
7_ALL_FEATURES
  6
Continuous
 62
     7
100
AcDbLine
 10
293.013394
 20
224.40637
 30
0.0
 11
293.013394
 21
224.424309
 31
0.0
  0
LINE
  5
46D
330
222
100
AcDbEntity
  8
7_ALL_FEATURES
  6
Continuous
 62
     7
100
AcDbLine
 10
293.013394
 20
224.424309
 30
0.0
 11
293.013394
 21
225.126026
 31
0.0
  0
LINE
  5
46E
330
222
100
AcDbEntity
  8
6_ALL_SURFS
  6
Continuous
 62
     7
100
AcDbLine
 10
293.013394
 20
223.40637
 30
0.0
 11
242.963394
 21
223.40637
 31
0.0
  0
LINE
  5
46F
330
222
100
AcDbEntity
  8
6_ALL_SURFS
  6
Continuous
 62
     7
100
AcDbLine
 10
242.963394
 20
223.40637
 30
0.0
 11
242.56647
 21
223.40637
 31
0.0
  0
LINE
  5
470
330
222
100
AcDbEntity
  8
6_ALL_SURFS
  6
Continuous
 62
     7
100
AcDbLine
 10
230.460318
 20
223.40637
 30
0.0
 11
230.063394
 21
223.40637
 31
0.0
  0
LINE
  5
471
330
222
100
AcDbEntity
  8
6_ALL_SURFS
  6
Continuous
 62
     7
100
AcDbLine
 10
230.063394
 20
223.40637
 30
0.0
 11
103.463394
 21
223.40637
 31
0.0
  0
LINE
  5
472
330
222
100
AcDbEntity
  8
6_ALL_SURFS
  6
Continuous
 62
     7
100
AcDbLine
 10
103.463394
 20
223.40637
 30
0.0
 11
103.06647
 21
223.40637
 31
0.0
  0
LINE
  5
473
330
222
100
AcDbEntity
  8
6_ALL_SURFS
  6
Continuous
 62
     7
100
AcDbLine
 10
90.960318
 20
223.40637
 30
0.0
 11
90.563394
 21
223.40637
 31
0.0
  0
LINE
  5
474
330
222
100
AcDbEntity
  8
6_ALL_SURFS
  6
Continuous
 62
     7
100
AcDbLine
 10
90.563394
 20
223.40637
 30
0.0
 11
40.513394
 21
223.40637
 31
0.0
  0
LINE
  5
475
330
222
100
AcDbEntity
  8
6_ALL_SURFS
  6
Continuous
 62
     7
100
AcDbLine
 10
40.513394
 20
230.15637
 30
0.0
 11
40.513394
 21
231.15637
 31
0.0
  0
LINE
  5
476
330
222
100
AcDbEntity
  8
7_ALL_FEATURES
  6
Continuous
 62
     7
100
AcDbLine
 10
293.013394
 20
230.15637
 30
0.0
 11
293.013394
 21
231.15637
 31
0.0
  0
LINE
  5
477
330
222
100
AcDbEntity
  8
6_ALL_SURFS
  6
Continuous
 62
     7
100
AcDbLine
 10
293.013394
 20
230.15637
 30
0.0
 11
40.513394
 21
230.15637
 31
0.0
  0
LINE
  5
478
330
222
100
AcDbEntity
  8
7_ALL_FEATURES
  6
Continuous
 62
     9
100
AcDbLine
 10
40.513394
 20
225.126026
 30
0.0
 11
293.013394
 21
225.126026
 31
0.0
  0
LINE
  5
479
330
222
100
AcDbEntity
  8
7_ALL_FEATURES
  6
Continuous
 62
     9
100
AcDbLine
 10
40.513394
 20
230.009923
 30
0.0
 11
293.013394
 21
230.009923
 31
0.0
  0
LINE
  5
47A
330
222
100
AcDbEntity
  8
7_ALL_FEATURES
  6
Continuous
 62
     9
100
AcDbLine
 10
40.513394
 20
227.634923
 30
0.0
 11
293.013394
 21
227.634923
 31
0.0
  0
LINE
  5
47B
330
222
100
AcDbEntity
  8
7_ALL_FEATURES
  6
Continuous
 62
     9
100
AcDbLine
 10
40.513394
 20
226.927816
 30
0.0
 11
293.013394
 21
226.927816
 31
0.0
  0
LINE
  5
47C
330
222
100
AcDbEntity
  8
7_ALL_FEATURES
  6
Continuous
 62
     9
100
AcDbLine
 10
40.513394
 20
225.596916
 30
0.0
 11
293.013394
 21
225.596916
 31
0.0
  0
LINE
  5
47D
330
222
100
AcDbEntity
  8
7_ALL_FEATURES
  6
Continuous
 62
     9
100
AcDbLine
 10
293.013394
 20
231.15637
 30
0.0
 11
40.513394
 21
231.15637
 31
0.0
  0
LINE
  5
47E
330
222
100
AcDbEntity
  8
7_ALL_FEATURES
  6
Continuous
 62
     9
100
AcDbLine
 10
296.513394
 20
257.90637
 30
0.0
 11
37.013394
 21
257.90637
 31
0.0
  0
LINE
  5
47F
330
222
100
AcDbEntity
  8
7_ALL_FEATURES
  6
Continuous
 62
     3
100
AcDbLine
 10
108.013394
 20
222.90637
 30
0.0
 11
107.512758
 21
222.90637
 31
0.0
  0
LINE
  5
480
330
222
100
AcDbEntity
  8
7_ALL_FEATURES
  6
Continuous
 62
     3
100
AcDbLine
 10
106.51403
 20
222.90637
 30
0.0
 11
104.213427
 21
222.90637
 31
0.0
  0
LINE
  5
481
330
222
100
AcDbEntity
  8
7_ALL_FEATURES
  6
Continuous
 62
     3
100
AcDbLine
 10
104.213427
 20
222.90637
 30
0.0
 11
103.463394
 21
222.90637
 31
0.0
  0
LINE
  5
482
330
222
100
AcDbEntity
  8
7_ALL_FEATURES
  6
Continuous
 62
     3
100
AcDbLine
 10
86.013394
 20
222.90637
 30
0.0
 11
84.213427
 21
222.90637
 31
0.0
  0
LINE
  5
483
330
222
100
AcDbEntity
  8
7_ALL_FEATURES
  6
Continuous
 62
     3
100
AcDbLine
 10
84.213427
 20
222.90637
 30
0.0
 11
84.013394
 21
222.90637
 31
0.0
  0
LINE
  5
484
330
222
100
AcDbEntity
  8
7_ALL_FEATURES
  6
Continuous
 62
     3
100
AcDbLine
 10
90.563394
 20
222.90637
 30
0.0
 11
89.813361
 21
222.90637
 31
0.0
  0
LINE
  5
485
330
222
100
AcDbEntity
  8
7_ALL_FEATURES
  6
Continuous
 62
     3
100
AcDbLine
 10
89.813361
 20
222.90637
 30
0.0
 11
87.512758
 21
222.90637
 31
0.0
  0
LINE
  5
486
330
222
100
AcDbEntity
  8
7_ALL_FEATURES
  6
Continuous
 62
     3
100
AcDbLine
 10
86.51403
 20
222.90637
 30
0.0
 11
86.013394
 21
222.90637
 31
0.0
  0
LINE
  5
487
330
222
100
AcDbEntity
  8
7_ALL_FEATURES
  6
Continuous
 62
     3
100
AcDbLine
 10
103.463394
 20
222.90637
 30
0.0
 11
103.013394
 21
222.90637
 31
0.0
  0
LINE
  5
488
330
222
100
AcDbEntity
  8
7_ALL_FEATURES
  6
Continuous
 62
     3
100
AcDbLine
 10
110.013394
 20
222.90637
 30
0.0
 11
109.815332
 21
222.90637
 31
0.0
  0
LINE
  5
489
330
222
100
AcDbEntity
  8
7_ALL_FEATURES
  6
Continuous
 62
     3
100
AcDbLine
 10
109.815332
 20
222.90637
 30
0.0
 11
108.013394
 21
222.90637
 31
0.0
  0
LINE
  5
48A
330
222
100
AcDbEntity
  8
7_ALL_FEATURES
  6
Continuous
 62
     3
100
AcDbLine
 10
91.013394
 20
222.90637
 30
0.0
 11
90.563394
 21
222.90637
 31
0.0
  0
LINE
  5
48B
330
222
100
AcDbEntity
  8
7_ALL_FEATURES
  6
Continuous
 62
     3
100
AcDbLine
 10
247.513394
 20
222.90637
 30
0.0
 11
247.012758
 21
222.90637
 31
0.0
  0
LINE
  5
48C
330
222
100
AcDbEntity
  8
7_ALL_FEATURES
  6
Continuous
 62
     3
100
AcDbLine
 10
246.01403
 20
222.90637
 30
0.0
 11
243.713427
 21
222.90637
 31
0.0
  0
LINE
  5
48D
330
222
100
AcDbEntity
  8
7_ALL_FEATURES
  6
Continuous
 62
     3
100
AcDbLine
 10
243.713427
 20
222.90637
 30
0.0
 11
242.963394
 21
222.90637
 31
0.0
  0
LINE
  5
48E
330
222
100
AcDbEntity
  8
7_ALL_FEATURES
  6
Continuous
 62
     3
100
AcDbLine
 10
225.513394
 20
222.90637
 30
0.0
 11
223.713427
 21
222.90637
 31
0.0
  0
LINE
  5
48F
330
222
100
AcDbEntity
  8
7_ALL_FEATURES
  6
Continuous
 62
     3
100
AcDbLine
 10
223.713427
 20
222.90637
 30
0.0
 11
223.513394
 21
222.90637
 31
0.0
  0
LINE
  5
490
330
222
100
AcDbEntity
  8
7_ALL_FEATURES
  6
Continuous
 62
     3
100
AcDbLine
 10
230.063394
 20
222.90637
 30
0.0
 11
229.313361
 21
222.90637
 31
0.0
  0
LINE
  5
491
330
222
100
AcDbEntity
  8
7_ALL_FEATURES
  6
Continuous
 62
     3
100
AcDbLine
 10
229.313361
 20
222.90637
 30
0.0
 11
227.012758
 21
222.90637
 31
0.0
  0
LINE
  5
492
330
222
100
AcDbEntity
  8
7_ALL_FEATURES
  6
Continuous
 62
     3
100
AcDbLine
 10
226.01403
 20
222.90637
 30
0.0
 11
225.513394
 21
222.90637
 31
0.0
  0
LINE
  5
493
330
222
100
AcDbEntity
  8
7_ALL_FEATURES
  6
Continuous
 62
     3
100
AcDbLine
 10
242.963394
 20
222.90637
 30
0.0
 11
242.513394
 21
222.90637
 31
0.0
  0
LINE
  5
494
330
222
100
AcDbEntity
  8
7_ALL_FEATURES
  6
Continuous
 62
     3
100
AcDbLine
 10
249.513394
 20
222.90637
 30
0.0
 11
249.315332
 21
222.90637
 31
0.0
  0
LINE
  5
495
330
222
100
AcDbEntity
  8
7_ALL_FEATURES
  6
Continuous
 62
     3
100
AcDbLine
 10
249.315332
 20
222.90637
 30
0.0
 11
247.513394
 21
222.90637
 31
0.0
  0
LINE
  5
496
330
222
100
AcDbEntity
  8
7_ALL_FEATURES
  6
Continuous
 62
     3
100
AcDbLine
 10
230.513394
 20
222.90637
 30
0.0
 11
230.063394
 21
222.90637
 31
0.0
  0
LINE
  5
497
330
222
100
AcDbEntity
  8
7_ALL_FEATURES
  6
Continuous
 62
     7
100
AcDbLine
 10
350.198257
 20
242.65637
 30
0.0
 11
350.198257
 21
243.53137
 31
0.0
  0
LINE
  5
498
330
222
100
AcDbEntity
  8
7_ALL_FEATURES
  6
Continuous
 62
     7
100
AcDbLine
 10
350.198257
 20
243.53137
 30
0.0
 11
351.073257
 21
243.53137
 31
0.0
  0
LINE
  5
499
330
222
100
AcDbEntity
  8
7_ALL_FEATURES
  6
Continuous
 62
     7
100
AcDbLine
 10
351.073257
 20
244.28137
 30
0.0
 11
350.198257
 21
244.28137
 31
0.0
  0
LINE
  5
49A
330
222
100
AcDbEntity
  8
7_ALL_FEATURES
  6
Continuous
 62
     7
100
AcDbLine
 10
350.198257
 20
244.28137
 30
0.0
 11
350.198257
 21
245.15637
 31
0.0
  0
LINE
  5
49B
330
222
100
AcDbEntity
  8
7_ALL_FEATURES
  6
Continuous
 62
     7
100
AcDbLine
 10
349.448257
 20
245.15637
 30
0.0
 11
349.448257
 21
244.28137
 31
0.0
  0
LINE
  5
49C
330
222
100
AcDbEntity
  8
7_ALL_FEATURES
  6
Continuous
 62
     7
100
AcDbLine
 10
349.448257
 20
244.28137
 30
0.0
 11
348.573257
 21
244.28137
 31
0.0
  0
LINE
  5
49D
330
222
100
AcDbEntity
  8
7_ALL_FEATURES
  6
Continuous
 62
     7
100
AcDbLine
 10
348.573257
 20
243.53137
 30
0.0
 11
349.448257
 21
243.53137
 31
0.0
  0
LINE
  5
49E
330
222
100
AcDbEntity
  8
7_ALL_FEATURES
  6
Continuous
 62
     7
100
AcDbLine
 10
349.448257
 20
243.53137
 30
0.0
 11
349.448257
 21
242.65637
 31
0.0
  0
ARC
  5
49F
330
222
100
AcDbEntity
  8
3_ALL_AXES
  6
Continuous
 62
     7
100
AcDbCircle
 10
349.823257
 20
243.90637
 30
0.0
 40
2.75
100
AcDbArc
 50
0.0
 51
180.0
  0
ARC
  5
4A0
330
222
100
AcDbEntity
  8
3_ALL_AXES
  6
Continuous
 62
     7
100
AcDbCircle
 10
349.823257
 20
243.90637
 30
0.0
 40
2.75
100
AcDbArc
 50
180.0
 51
360.0
  0
LINE
  5
4A1
330
222
100
AcDbEntity
  8
7_ALL_FEATURES
  6
Continuous
 62
     7
100
AcDbLine
 10
348.573257
 20
243.53137
 30
0.0
 11
348.573257
 21
244.28137
 31
0.0
  0
LINE
  5
4A2
330
222
100
AcDbEntity
  8
7_ALL_FEATURES
  6
Continuous
 62
     7
100
AcDbLine
 10
350.198257
 20
242.65637
 30
0.0
 11
349.448257
 21
242.65637
 31
0.0
  0
LINE
  5
4A3
330
222
100
AcDbEntity
  8
7_ALL_FEATURES
  6
Continuous
 62
     7
100
AcDbLine
 10
351.073257
 20
244.28137
 30
0.0
 11
351.073257
 21
243.53137
 31
0.0
  0
LINE
  5
4A4
330
222
100
AcDbEntity
  8
7_ALL_FEATURES
  6
Continuous
 62
     7
100
AcDbLine
 10
349.448257
 20
245.15637
 30
0.0
 11
350.198257
 21
245.15637
 31
0.0
  0
LINE
  5
4A5
330
222
100
AcDbEntity
  8
7_ALL_FEATURES
  6
Continuous
 62
     7
100
AcDbLine
 10
353.448257
 20
227.40637
 30
0.0
 11
353.448257
 21
228.28137
 31
0.0
  0
LINE
  5
4A6
330
222
100
AcDbEntity
  8
7_ALL_FEATURES
  6
Continuous
 62
     7
100
AcDbLine
 10
353.448257
 20
228.28137
 30
0.0
 11
354.323257
 21
228.28137
 31
0.0
  0
LINE
  5
4A7
330
222
100
AcDbEntity
  8
7_ALL_FEATURES
  6
Continuous
 62
     7
100
AcDbLine
 10
354.323257
 20
229.03137
 30
0.0
 11
353.448257
 21
229.03137
 31
0.0
  0
LINE
  5
4A8
330
222
100
AcDbEntity
  8
7_ALL_FEATURES
  6
Continuous
 62
     7
100
AcDbLine
 10
353.448257
 20
229.03137
 30
0.0
 11
353.448257
 21
229.90637
 31
0.0
  0
LINE
  5
4A9
330
222
100
AcDbEntity
  8
7_ALL_FEATURES
  6
Continuous
 62
     7
100
AcDbLine
 10
352.698257
 20
229.90637
 30
0.0
 11
352.698257
 21
229.03137
 31
0.0
  0
LINE
  5
4AA
330
222
100
AcDbEntity
  8
7_ALL_FEATURES
  6
Continuous
 62
     7
100
AcDbLine
 10
352.698257
 20
229.03137
 30
0.0
 11
351.823257
 21
229.03137
 31
0.0
  0
LINE
  5
4AB
330
222
100
AcDbEntity
  8
7_ALL_FEATURES
  6
Continuous
 62
     7
100
AcDbLine
 10
351.823257
 20
228.28137
 30
0.0
 11
352.698257
 21
228.28137
 31
0.0
  0
LINE
  5
4AC
330
222
100
AcDbEntity
  8
7_ALL_FEATURES
  6
Continuous
 62
     7
100
AcDbLine
 10
352.698257
 20
228.28137
 30
0.0
 11
352.698257
 21
227.40637
 31
0.0
  0
ARC
  5
4AD
330
222
100
AcDbEntity
  8
3_ALL_AXES
  6
Continuous
 62
     7
100
AcDbCircle
 10
353.073257
 20
228.65637
 30
0.0
 40
2.75
100
AcDbArc
 50
0.0
 51
180.0
  0
ARC
  5
4AE
330
222
100
AcDbEntity
  8
3_ALL_AXES
  6
Continuous
 62
     7
100
AcDbCircle
 10
353.073257
 20
228.65637
 30
0.0
 40
2.75
100
AcDbArc
 50
180.0
 51
360.0
  0
LINE
  5
4AF
330
222
100
AcDbEntity
  8
7_ALL_FEATURES
  6
Continuous
 62
     7
100
AcDbLine
 10
351.823257
 20
228.28137
 30
0.0
 11
351.823257
 21
229.03137
 31
0.0
  0
LINE
  5
4B0
330
222
100
AcDbEntity
  8
7_ALL_FEATURES
  6
Continuous
 62
     7
100
AcDbLine
 10
353.448257
 20
227.40637
 30
0.0
 11
352.698257
 21
227.40637
 31
0.0
  0
LINE
  5
4B1
330
222
100
AcDbEntity
  8
7_ALL_FEATURES
  6
Continuous
 62
     7
100
AcDbLine
 10
354.323257
 20
229.03137
 30
0.0
 11
354.323257
 21
228.28137
 31
0.0
  0
LINE
  5
4B2
330
222
100
AcDbEntity
  8
7_ALL_FEATURES
  6
Continuous
 62
     7
100
AcDbLine
 10
352.698257
 20
229.90637
 30
0.0
 11
353.448257
 21
229.90637
 31
0.0
  0
LINE
  5
4B3
330
222
100
AcDbEntity
  8
7_ALL_FEATURES
  6
Continuous
 62
     7
100
AcDbLine
 10
372.948257
 20
227.40637
 30
0.0
 11
372.948257
 21
228.28137
 31
0.0
  0
LINE
  5
4B4
330
222
100
AcDbEntity
  8
7_ALL_FEATURES
  6
Continuous
 62
     7
100
AcDbLine
 10
372.948257
 20
228.28137
 30
0.0
 11
373.823257
 21
228.28137
 31
0.0
  0
LINE
  5
4B5
330
222
100
AcDbEntity
  8
7_ALL_FEATURES
  6
Continuous
 62
     7
100
AcDbLine
 10
373.823257
 20
229.03137
 30
0.0
 11
372.948257
 21
229.03137
 31
0.0
  0
LINE
  5
4B6
330
222
100
AcDbEntity
  8
7_ALL_FEATURES
  6
Continuous
 62
     7
100
AcDbLine
 10
372.948257
 20
229.03137
 30
0.0
 11
372.948257
 21
229.90637
 31
0.0
  0
LINE
  5
4B7
330
222
100
AcDbEntity
  8
7_ALL_FEATURES
  6
Continuous
 62
     7
100
AcDbLine
 10
372.198257
 20
229.90637
 30
0.0
 11
372.198257
 21
229.03137
 31
0.0
  0
LINE
  5
4B8
330
222
100
AcDbEntity
  8
7_ALL_FEATURES
  6
Continuous
 62
     7
100
AcDbLine
 10
372.198257
 20
229.03137
 30
0.0
 11
371.323257
 21
229.03137
 31
0.0
  0
LINE
  5
4B9
330
222
100
AcDbEntity
  8
7_ALL_FEATURES
  6
Continuous
 62
     7
100
AcDbLine
 10
371.323257
 20
228.28137
 30
0.0
 11
372.198257
 21
228.28137
 31
0.0
  0
LINE
  5
4BA
330
222
100
AcDbEntity
  8
7_ALL_FEATURES
  6
Continuous
 62
     7
100
AcDbLine
 10
372.198257
 20
228.28137
 30
0.0
 11
372.198257
 21
227.40637
 31
0.0
  0
ARC
  5
4BB
330
222
100
AcDbEntity
  8
3_ALL_AXES
  6
Continuous
 62
     7
100
AcDbCircle
 10
372.573257
 20
228.65637
 30
0.0
 40
2.75
100
AcDbArc
 50
0.0
 51
180.0
  0
ARC
  5
4BC
330
222
100
AcDbEntity
  8
3_ALL_AXES
  6
Continuous
 62
     7
100
AcDbCircle
 10
372.573257
 20
228.65637
 30
0.0
 40
2.75
100
AcDbArc
 50
180.0
 51
360.0
  0
LINE
  5
4BD
330
222
100
AcDbEntity
  8
7_ALL_FEATURES
  6
Continuous
 62
     7
100
AcDbLine
 10
371.323257
 20
228.28137
 30
0.0
 11
371.323257
 21
229.03137
 31
0.0
  0
LINE
  5
4BE
330
222
100
AcDbEntity
  8
7_ALL_FEATURES
  6
Continuous
 62
     7
100
AcDbLine
 10
372.948257
 20
227.40637
 30
0.0
 11
372.198257
 21
227.40637
 31
0.0
  0
LINE
  5
4BF
330
222
100
AcDbEntity
  8
7_ALL_FEATURES
  6
Continuous
 62
     7
100
AcDbLine
 10
373.823257
 20
229.03137
 30
0.0
 11
373.823257
 21
228.28137
 31
0.0
  0
LINE
  5
4C0
330
222
100
AcDbEntity
  8
7_ALL_FEATURES
  6
Continuous
 62
     7
100
AcDbLine
 10
372.198257
 20
229.90637
 30
0.0
 11
372.948257
 21
229.90637
 31
0.0
  0
LINE
  5
4C1
330
222
100
AcDbEntity
  8
7_ALL_FEATURES
  6
Continuous
 62
     7
100
AcDbLine
 10
376.198257
 20
242.65637
 30
0.0
 11
376.198257
 21
243.53137
 31
0.0
  0
LINE
  5
4C2
330
222
100
AcDbEntity
  8
7_ALL_FEATURES
  6
Continuous
 62
     7
100
AcDbLine
 10
376.198257
 20
243.53137
 30
0.0
 11
377.073257
 21
243.53137
 31
0.0
  0
LINE
  5
4C3
330
222
100
AcDbEntity
  8
7_ALL_FEATURES
  6
Continuous
 62
     7
100
AcDbLine
 10
377.073257
 20
244.28137
 30
0.0
 11
376.198257
 21
244.28137
 31
0.0
  0
LINE
  5
4C4
330
222
100
AcDbEntity
  8
7_ALL_FEATURES
  6
Continuous
 62
     7
100
AcDbLine
 10
376.198257
 20
244.28137
 30
0.0
 11
376.198257
 21
245.15637
 31
0.0
  0
LINE
  5
4C5
330
222
100
AcDbEntity
  8
7_ALL_FEATURES
  6
Continuous
 62
     7
100
AcDbLine
 10
375.448257
 20
245.15637
 30
0.0
 11
375.448257
 21
244.28137
 31
0.0
  0
LINE
  5
4C6
330
222
100
AcDbEntity
  8
7_ALL_FEATURES
  6
Continuous
 62
     7
100
AcDbLine
 10
375.448257
 20
244.28137
 30
0.0
 11
374.573257
 21
244.28137
 31
0.0
  0
LINE
  5
4C7
330
222
100
AcDbEntity
  8
7_ALL_FEATURES
  6
Continuous
 62
     7
100
AcDbLine
 10
374.573257
 20
243.53137
 30
0.0
 11
375.448257
 21
243.53137
 31
0.0
  0
LINE
  5
4C8
330
222
100
AcDbEntity
  8
7_ALL_FEATURES
  6
Continuous
 62
     7
100
AcDbLine
 10
375.448257
 20
243.53137
 30
0.0
 11
375.448257
 21
242.65637
 31
0.0
  0
ARC
  5
4C9
330
222
100
AcDbEntity
  8
3_ALL_AXES
  6
Continuous
 62
     7
100
AcDbCircle
 10
375.823257
 20
243.90637
 30
0.0
 40
2.75
100
AcDbArc
 50
0.0
 51
180.0
  0
ARC
  5
4CA
330
222
100
AcDbEntity
  8
3_ALL_AXES
  6
Continuous
 62
     7
100
AcDbCircle
 10
375.823257
 20
243.90637
 30
0.0
 40
2.75
100
AcDbArc
 50
180.0
 51
360.0
  0
LINE
  5
4CB
330
222
100
AcDbEntity
  8
7_ALL_FEATURES
  6
Continuous
 62
     7
100
AcDbLine
 10
374.573257
 20
243.53137
 30
0.0
 11
374.573257
 21
244.28137
 31
0.0
  0
LINE
  5
4CC
330
222
100
AcDbEntity
  8
7_ALL_FEATURES
  6
Continuous
 62
     7
100
AcDbLine
 10
376.198257
 20
242.65637
 30
0.0
 11
375.448257
 21
242.65637
 31
0.0
  0
LINE
  5
4CD
330
222
100
AcDbEntity
  8
7_ALL_FEATURES
  6
Continuous
 62
     7
100
AcDbLine
 10
377.073257
 20
244.28137
 30
0.0
 11
377.073257
 21
243.53137
 31
0.0
  0
LINE
  5
4CE
330
222
100
AcDbEntity
  8
7_ALL_FEATURES
  6
Continuous
 62
     7
100
AcDbLine
 10
375.448257
 20
245.15637
 30
0.0
 11
376.198257
 21
245.15637
 31
0.0
  0
LINE
  5
4CF
330
222
100
AcDbEntity
  8
3_ALL_AXES
  6
Continuous
 62
     7
100
AcDbLine
 10
350.773257
 20
222.90637
 30
0.0
 11
350.823257
 21
222.90637
 31
0.0
  0
ARC
  5
4D0
330
222
100
AcDbEntity
  8
3_ALL_AXES
  6
Continuous
 62
     7
100
AcDbCircle
 10
353.573257
 20
225.20637
 30
0.0
 40
4.5
100
AcDbArc
 50
244.21569
 51
247.078181
  0
ARC
  5
4D1
330
222
100
AcDbEntity
  8
3_ALL_AXES
  6
Continuous
 62
     7
100
AcDbCircle
 10
353.573257
 20
225.20637
 30
0.0
 40
4.5
100
AcDbArc
 50
239.984189
 51
244.21569
  0
ARC
  5
4D2
330
222
100
AcDbEntity
  8
3_ALL_AXES
  6
Continuous
 62
     7
100
AcDbCircle
 10
353.573257
 20
225.20637
 30
0.0
 40
4.5
100
AcDbArc
 50
237.868548
 51
239.984189
  0
ARC
  5
4D3
330
222
100
AcDbEntity
  8
3_ALL_AXES
  6
Continuous
 62
     7
100
AcDbCircle
 10
353.573257
 20
225.20637
 30
0.0
 40
4.5
100
AcDbArc
 50
231.521405
 51
237.868548
  0
LINE
  5
4D4
330
222
100
AcDbEntity
  8
3_ALL_AXES
  6
Continuous
 62
     7
100
AcDbLine
 10
350.773257
 20
221.683587
 30
0.0
 11
350.773257
 21
222.90637
 31
0.0
  0
ARC
  5
4D5
330
222
100
AcDbEntity
  8
3_ALL_AXES
  6
Continuous
 62
     7
100
AcDbCircle
 10
353.573257
 20
225.20637
 30
0.0
 40
4.5
100
AcDbArc
 50
231.521405
 51
237.868502
  0
ARC
  5
4D6
330
222
100
AcDbEntity
  8
3_ALL_AXES
  6
Continuous
 62
     7
100
AcDbCircle
 10
353.573257
 20
225.20637
 30
0.0
 40
4.5
100
AcDbArc
 50
237.868502
 51
239.98422
  0
ARC
  5
4D7
330
222
100
AcDbEntity
  8
3_ALL_AXES
  6
Continuous
 62
     7
100
AcDbCircle
 10
353.573257
 20
225.20637
 30
0.0
 40
4.5
100
AcDbArc
 50
239.98422
 51
244.215599
  0
ARC
  5
4D8
330
222
100
AcDbEntity
  8
3_ALL_AXES
  6
Continuous
 62
     7
100
AcDbCircle
 10
353.573257
 20
225.20637
 30
0.0
 40
4.5
100
AcDbArc
 50
244.215599
 51
247.078774
  0
LINE
  5
4D9
330
222
100
AcDbEntity
  8
3_ALL_AXES
  6
Continuous
 62
     7
100
AcDbLine
 10
350.773257
 20
222.90637
 30
0.0
 11
350.773257
 21
221.683587
 31
0.0
  0
LINE
  5
4DA
330
222
100
AcDbEntity
  8
3_ALL_AXES
  6
Continuous
 62
     7
100
AcDbLine
 10
350.773257
 20
221.683587
 30
0.0
 11
351.823257
 21
221.683587
 31
0.0
  0
LINE
  5
4DB
330
222
100
AcDbEntity
  8
3_ALL_AXES
  6
Continuous
 62
     7
100
AcDbLine
 10
374.823257
 20
222.90637
 30
0.0
 11
374.873257
 21
222.90637
 31
0.0
  0
ARC
  5
4DC
330
222
100
AcDbEntity
  8
3_ALL_AXES
  6
Continuous
 62
     7
100
AcDbCircle
 10
372.073257
 20
225.20637
 30
0.0
 40
4.5
100
AcDbArc
 50
292.921819
 51
295.78431
  0
ARC
  5
4DD
330
222
100
AcDbEntity
  8
3_ALL_AXES
  6
Continuous
 62
     7
100
AcDbCircle
 10
372.073257
 20
225.20637
 30
0.0
 40
4.5
100
AcDbArc
 50
295.78431
 51
300.015811
  0
ARC
  5
4DE
330
222
100
AcDbEntity
  8
3_ALL_AXES
  6
Continuous
 62
     7
100
AcDbCircle
 10
372.073257
 20
225.20637
 30
0.0
 40
4.5
100
AcDbArc
 50
300.015811
 51
302.131452
  0
ARC
  5
4DF
330
222
100
AcDbEntity
  8
3_ALL_AXES
  6
Continuous
 62
     7
100
AcDbCircle
 10
372.073257
 20
225.20637
 30
0.0
 40
4.5
100
AcDbArc
 50
302.131452
 51
308.478595
  0
LINE
  5
4E0
330
222
100
AcDbEntity
  8
3_ALL_AXES
  6
Continuous
 62
     7
100
AcDbLine
 10
374.873257
 20
221.683587
 30
0.0
 11
374.873257
 21
222.90637
 31
0.0
  0
ARC
  5
4E1
330
222
100
AcDbEntity
  8
3_ALL_AXES
  6
Continuous
 62
     7
100
AcDbCircle
 10
372.073257
 20
225.20637
 30
0.0
 40
4.5
100
AcDbArc
 50
302.131498
 51
308.478595
  0
ARC
  5
4E2
330
222
100
AcDbEntity
  8
3_ALL_AXES
  6
Continuous
 62
     7
100
AcDbCircle
 10
372.073257
 20
225.20637
 30
0.0
 40
4.5
100
AcDbArc
 50
300.01578
 51
302.131498
  0
ARC
  5
4E3
330
222
100
AcDbEntity
  8
3_ALL_AXES
  6
Continuous
 62
     7
100
AcDbCircle
 10
372.073257
 20
225.20637
 30
0.0
 40
4.5
100
AcDbArc
 50
295.784401
 51
300.01578
  0
ARC
  5
4E4
330
222
100
AcDbEntity
  8
3_ALL_AXES
  6
Continuous
 62
     7
100
AcDbCircle
 10
372.073257
 20
225.20637
 30
0.0
 40
4.5
100
AcDbArc
 50
292.921226
 51
295.784401
  0
LINE
  5
4E5
330
222
100
AcDbEntity
  8
3_ALL_AXES
  6
Continuous
 62
     7
100
AcDbLine
 10
374.873257
 20
222.90637
 30
0.0
 11
374.873257
 21
221.683587
 31
0.0
  0
LINE
  5
4E6
330
222
100
AcDbEntity
  8
3_ALL_AXES
  6
Continuous
 62
     7
100
AcDbLine
 10
373.823257
 20
221.683587
 30
0.0
 11
374.873257
 21
221.683587
 31
0.0
  0
LINE
  5
4E7
330
222
100
AcDbEntity
  8
7_ALL_FEATURES
  6
Continuous
 62
     7
100
AcDbLine
 10
359.323257
 20
207.40637
 30
0.0
 11
359.37643
 21
207.40637
 31
0.0
  0
LINE
  5
4E8
330
222
100
AcDbEntity
  8
7_ALL_FEATURES
  6
Continuous
 62
     7
100
AcDbLine
 10
359.37643
 20
207.40637
 30
0.0
 11
362.823257
 21
207.40637
 31
0.0
  0
LINE
  5
4E9
330
222
100
AcDbEntity
  8
3_ALL_AXES
  6
Continuous
 62
     7
100
AcDbLine
 10
362.823257
 20
219.90637
 30
0.0
 11
361.030466
 21
219.90637
 31
0.0
  0
LINE
  5
4EA
330
222
100
AcDbEntity
  8
3_ALL_AXES
  6
Continuous
 62
     7
100
AcDbLine
 10
362.823257
 20
216.90637
 30
0.0
 11
359.323257
 21
216.90637
 31
0.0
  0
LINE
  5
4EB
330
222
100
AcDbEntity
  8
3_ALL_AXES
  6
Continuous
 62
     7
100
AcDbLine
 10
355.895053
 20
211.40637
 30
0.0
 11
355.895053
 21
212.15637
 31
0.0
  0
LINE
  5
4EC
330
222
100
AcDbEntity
  8
3_ALL_AXES
  6
Continuous
 62
     7
100
AcDbLine
 10
355.895053
 20
210.90637
 30
0.0
 11
355.895053
 21
211.40637
 31
0.0
  0
LINE
  5
4ED
330
222
100
AcDbEntity
  8
3_ALL_AXES
  6
Continuous
 62
     7
100
AcDbLine
 10
355.895053
 20
210.201208
 30
0.0
 11
355.895053
 21
210.90637
 31
0.0
  0
ARC
  5
4EE
330
222
100
AcDbEntity
  8
3_ALL_AXES
  6
Continuous
 62
     7
100
AcDbCircle
 10
359.323257
 20
210.90637
 30
0.0
 40
3.5
100
AcDbArc
 50
191.568365
 51
270.0
  0
LINE
  5
4EF
330
222
100
AcDbEntity
  8
3_ALL_AXES
  6
Continuous
 62
     7
100
AcDbLine
 10
359.323257
 20
207.40637
 30
0.0
 11
359.37643
 21
207.40637
 31
0.0
  0
LINE
  5
4F0
330
222
100
AcDbEntity
  8
3_ALL_AXES
  6
Continuous
 62
     7
100
AcDbLine
 10
359.37643
 20
207.40637
 30
0.0
 11
362.823257
 21
207.40637
 31
0.0
  0
ARC
  5
4F1
330
222
100
AcDbEntity
  8
3_ALL_AXES
  6
Continuous
 62
     7
100
AcDbCircle
 10
366.323257
 20
210.90637
 30
0.0
 40
3.5
100
AcDbArc
 50
270.0
 51
348.431635
  0
LINE
  5
4F2
330
222
100
AcDbEntity
  8
3_ALL_AXES
  6
Continuous
 62
     7
100
AcDbLine
 10
366.311302
 20
207.40637
 30
0.0
 11
366.323257
 21
207.40637
 31
0.0
  0
LINE
  5
4F3
330
222
100
AcDbEntity
  8
3_ALL_AXES
  6
Continuous
 62
     7
100
AcDbLine
 10
369.75146
 20
212.15637
 30
0.0
 11
369.75146
 21
211.40637
 31
0.0
  0
LINE
  5
4F4
330
222
100
AcDbEntity
  8
3_ALL_AXES
  6
Continuous
 62
     7
100
AcDbLine
 10
364.616047
 20
219.90637
 30
0.0
 11
362.823257
 21
219.90637
 31
0.0
  0
LINE
  5
4F5
330
222
100
AcDbEntity
  8
3_ALL_AXES
  6
Continuous
 62
     7
100
AcDbLine
 10
369.75146
 20
210.90637
 30
0.0
 11
369.75146
 21
210.201208
 31
0.0
  0
LINE
  5
4F6
330
222
100
AcDbEntity
  8
3_ALL_AXES
  6
Continuous
 62
     7
100
AcDbLine
 10
369.75146
 20
210.90637
 30
0.0
 11
369.75146
 21
211.40637
 31
0.0
  0
LINE
  5
4F7
330
222
100
AcDbEntity
  8
3_ALL_AXES
  6
Continuous
 62
     7
100
AcDbLine
 10
366.323257
 20
216.90637
 30
0.0
 11
362.823257
 21
216.90637
 31
0.0
  0
LINE
  5
4F8
330
222
100
AcDbEntity
  8
3_ALL_AXES
  6
Continuous
 62
     9
100
AcDbLine
 10
362.823257
 20
210.90637
 30
0.0
 11
360.22518
 21
210.90637
 31
0.0
  0
LINE
  5
4F9
330
222
100
AcDbEntity
  8
3_ALL_AXES
  6
Continuous
 62
     9
100
AcDbLine
 10
358.49313
 20
210.90637
 30
0.0
 11
355.895053
 21
210.90637
 31
0.0
  0
SPLINE
  5
4FA
330
222
100
AcDbEntity
  8
3_ALL_AXES
  6
Continuous
 62
     7
100
AcDbSpline
 70
     0
 71
     3
 72
     9
 73
     5
 74
     0
 42
0.000000001
 43
0.0000001
 40
0.0
 40
0.0
 40
0.0
 40
0.0
 40
0.4967979405
 40
1.0
 40
1.0
 40
1.0
 40
1.0
 10
360.2251804926
 20
211.4063698389
 30
0.0
 10
360.5950106151
 20
211.4673759876
 30
0.0
 10
361.3278418746
 20
211.666439603
 30
0.0
 10
362.0181077609
 20
211.9763919719
 30
0.0
 10
362.3555166677
 20
212.1504518959
 30
0.0
  0
LINE
  5
4FB
330
222
100
AcDbEntity
  8
3_ALL_AXES
  6
Continuous
 62
     9
100
AcDbLine
 10
367.153384
 20
210.90637
 30
0.0
 11
369.75146
 21
210.90637
 31
0.0
  0
LINE
  5
4FC
330
222
100
AcDbEntity
  8
3_ALL_AXES
  6
Continuous
 62
     9
100
AcDbLine
 10
362.823257
 20
210.90637
 30
0.0
 11
365.421333
 21
210.90637
 31
0.0
  0
LINE
  5
4FD
330
222
100
AcDbEntity
  8
3_ALL_AXES
  6
Continuous
 62
     7
100
AcDbLine
 10
360.22518
 20
210.90637
 30
0.0
 11
360.22518
 21
211.40637
 31
0.0
  0
LINE
  5
4FE
330
222
100
AcDbEntity
  8
3_ALL_AXES
  6
Continuous
 62
     7
100
AcDbLine
 10
360.22518
 20
211.40637
 30
0.0
 11
365.421333
 21
211.40637
 31
0.0
  0
LINE
  5
4FF
330
222
100
AcDbEntity
  8
3_ALL_AXES
  6
Continuous
 62
     7
100
AcDbLine
 10
367.153384
 20
211.40637
 30
0.0
 11
369.75146
 21
211.40637
 31
0.0
  0
SPLINE
  5
500
330
222
100
AcDbEntity
  8
3_ALL_AXES
  6
Continuous
 62
     7
100
AcDbSpline
 70
     0
 71
     3
 72
    19
 73
    15
 74
     0
 42
0.000000001
 43
0.0000001
 40
0.0
 40
0.0
 40
0.0
 40
0.0
 40
0.067939647
 40
0.1343369129
 40
0.1986396402
 40
0.2610648807
 40
0.3817414899
 40
0.5000607139
 40
0.6183763092
 40
0.739024176
 40
0.8014382043
 40
0.865725454
 40
0.9320917545
 40
1.0
 40
1.0
 40
1.0
 40
1.0
 10
358.493129685
 20
210.9063698389
 30
0.0
 10
358.493129685
 20
210.8504841883
 30
0.0
 10
358.5095165219
 20
210.7393392235
 30
0.0
 10
358.5776913022
 20
210.5888793362
 30
0.0
 10
358.677104337
 20
210.4631925726
 30
0.0
 10
358.8345482186
 20
210.332450739
 30
0.0
 10
359.0645394332
 20
210.2278104341
 30
0.0
 10
359.3593046542
 20
210.1878319497
 30
0.0
 10
359.6540333779
 20
210.2278963744
 30
0.0
 10
359.8839641908
 20
210.3325757776
 30
0.0
 10
360.0413432799
 20
210.4633256656
 30
0.0
 10
360.1406862059
 20
210.5890066563
 30
0.0
 10
360.208807214
 20
210.7394170477
 30
0.0
 10
360.2251804926
 20
210.8505100185
 30
0.0
 10
360.2251804926
 20
210.9063698389
 30
0.0
  0
LINE
  5
501
330
222
100
AcDbEntity
  8
3_ALL_AXES
  6
Continuous
 62
     7
100
AcDbLine
 10
358.49313
 20
211.40637
 30
0.0
 11
355.895053
 21
211.40637
 31
0.0
  0
LINE
  5
502
330
222
100
AcDbEntity
  8
3_ALL_AXES
  6
Continuous
 62
     7
100
AcDbLine
 10
358.49313
 20
210.90637
 30
0.0
 11
358.49313
 21
211.40637
 31
0.0
  0
SPLINE
  5
503
330
222
100
AcDbEntity
  8
3_ALL_AXES
  6
Continuous
 62
     7
100
AcDbSpline
 70
     0
 71
     3
 72
     9
 73
     5
 74
     0
 42
0.000000001
 43
0.0000001
 40
0.0
 40
0.0
 40
0.0
 40
0.0
 40
0.5032020783
 40
1.0
 40
1.0
 40
1.0
 40
1.0
 10
356.3627962504
 20
212.1504504792
 30
0.0
 10
356.7002047629
 20
211.9763908858
 30
0.0
 10
357.3904698008
 20
211.666439143
 30
0.0
 10
358.1233000794
 20
211.4673759024
 30
0.0
 10
358.493129685
 20
211.4063698389
 30
0.0
  0
LINE
  5
504
330
222
100
AcDbEntity
  8
3_ALL_AXES
  6
Continuous
 62
     7
100
AcDbLine
 10
362.823257
 20
220.387196
 30
0.0
 11
362.823257
 21
219.90637
 31
0.0
  0
LINE
  5
505
330
222
100
AcDbEntity
  8
3_ALL_AXES
  6
Continuous
 62
     7
100
AcDbLine
 10
362.823257
 20
216.90637
 30
0.0
 11
362.823257
 21
213.425543
 31
0.0
  0
LINE
  5
506
330
222
100
AcDbEntity
  8
3_ALL_AXES
  6
Continuous
 62
     7
100
AcDbLine
 10
365.421333
 20
210.90637
 30
0.0
 11
365.421333
 21
211.40637
 31
0.0
  0
SPLINE
  5
507
330
222
100
AcDbEntity
  8
3_ALL_AXES
  6
Continuous
 62
     7
100
AcDbSpline
 70
     0
 71
     3
 72
    19
 73
    15
 74
     0
 42
0.000000001
 43
0.0000001
 40
0.0
 40
0.0
 40
0.0
 40
0.0
 40
0.0679313718
 40
0.134330414
 40
0.1986328954
 40
0.2610542132
 40
0.3817238737
 40
0.5000536105
 40
0.6183773004
 40
0.7390372629
 40
0.8014553941
 40
0.8657396837
 40
0.9320963707
 40
1.0
 40
1.0
 40
1.0
 40
1.0
 10
365.4213329153
 20
210.9063698389
 30
0.0
 10
365.4213329153
 20
210.8504909874
 30
0.0
 10
365.437718656
 20
210.7393519754
 30
0.0
 10
365.5058839577
 20
210.5888938992
 30
0.0
 10
365.6052935203
 20
210.4632064126
 30
0.0
 10
365.7627278479
 20
210.3324680625
 30
0.0
 10
365.992712514
 20
210.2278149169
 30
0.0
 10
366.287488184
 20
210.1878312099
 30
0.0
 10
366.5822425309
 20
210.2278950246
 30
0.0
 10
366.8121921232
 20
210.3325858071
 30
0.0
 10
366.9695731278
 20
210.4633514175
 30
0.0
 10
367.0689018606
 20
210.5890343079
 30
0.0
 10
367.1370140495
 20
210.7394322949
 30
0.0
 10
367.1533837229
 20
210.8505138077
 30
0.0
 10
367.1533837229
 20
210.9063698389
 30
0.0
  0
LINE
  5
508
330
222
100
AcDbEntity
  8
3_ALL_AXES
  6
Continuous
 62
     7
100
AcDbLine
 10
367.153384
 20
210.90637
 30
0.0
 11
367.153384
 21
211.40637
 31
0.0
  0
SPLINE
  5
509
330
222
100
AcDbEntity
  8
3_ALL_AXES
  6
Continuous
 62
     7
100
AcDbSpline
 70
     0
 71
     3
 72
     9
 73
     5
 74
     0
 42
0.000000001
 43
0.0000001
 40
0.0
 40
0.0
 40
0.0
 40
0.0
 40
0.5032020783
 40
1.0
 40
1.0
 40
1.0
 40
1.0
 10
363.2909994807
 20
212.1504504792
 30
0.0
 10
363.6284079932
 20
211.9763908858
 30
0.0
 10
364.3186730311
 20
211.666439143
 30
0.0
 10
365.0515033097
 20
211.4673759024
 30
0.0
 10
365.4213329153
 20
211.4063698389
 30
0.0
  0
SPLINE
  5
50A
330
222
100
AcDbEntity
  8
3_ALL_AXES
  6
Continuous
 62
     7
100
AcDbSpline
 70
     0
 71
     3
 72
     9
 73
     5
 74
     0
 42
0.000000001
 43
0.0000001
 40
0.0
 40
0.0
 40
0.0
 40
0.0
 40
0.4967979405
 40
1.0
 40
1.0
 40
1.0
 40
1.0
 10
367.1533837229
 20
211.4063698389
 30
0.0
 10
367.5232138453
 20
211.4673759876
 30
0.0
 10
368.2560451049
 20
211.666439603
 30
0.0
 10
368.9463109912
 20
211.9763919719
 30
0.0
 10
369.283719898
 20
212.1504518959
 30
0.0
  0
LINE
  5
50B
330
222
100
AcDbEntity
  8
7_ALL_FEATURES
  6
Continuous
 62
     7
100
AcDbLine
 10
355.323257
 20
202.40637
 30
0.0
 11
355.323257
 21
194.00637
 31
0.0
  0
LINE
  5
50C
330
222
100
AcDbEntity
  8
3_ALL_AXES
  6
Continuous
 62
     7
100
AcDbLine
 10
359.673257
 20
206.13387
 30
0.0
 11
359.673257
 21
207.40637
 31
0.0
  0
ARC
  5
50D
330
222
100
AcDbEntity
  8
7_ALL_FEATURES
  6
Continuous
 62
     7
100
AcDbCircle
 10
357.123257
 20
194.00637
 30
0.0
 40
0.8
100
AcDbArc
 50
249.460634
 51
270.0
  0
ARC
  5
50E
330
222
100
AcDbEntity
  8
7_ALL_FEATURES
  6
Continuous
 62
     7
100
AcDbCircle
 10
357.123257
 20
194.00637
 30
0.0
 40
0.8
100
AcDbArc
 50
242.972119
 51
249.460634
  0
ARC
  5
50F
330
222
100
AcDbEntity
  8
7_ALL_FEATURES
  6
Continuous
 62
     7
100
AcDbCircle
 10
357.123257
 20
194.00637
 30
0.0
 40
0.8
100
AcDbArc
 50
228.639131
 51
242.972119
  0
ARC
  5
510
330
222
100
AcDbEntity
  8
7_ALL_FEATURES
  6
Continuous
 62
     7
100
AcDbCircle
 10
357.123257
 20
194.00637
 30
0.0
 40
0.8
100
AcDbArc
 50
221.360869
 51
228.639131
  0
ARC
  5
511
330
222
100
AcDbEntity
  8
7_ALL_FEATURES
  6
Continuous
 62
     7
100
AcDbCircle
 10
357.123257
 20
194.00637
 30
0.0
 40
0.8
100
AcDbArc
 50
207.027881
 51
221.360869
  0
ARC
  5
512
330
222
100
AcDbEntity
  8
7_ALL_FEATURES
  6
Continuous
 62
     7
100
AcDbCircle
 10
357.123257
 20
194.00637
 30
0.0
 40
0.8
100
AcDbArc
 50
200.539366
 51
207.027881
  0
ARC
  5
513
330
222
100
AcDbEntity
  8
7_ALL_FEATURES
  6
Continuous
 62
     7
100
AcDbCircle
 10
357.123257
 20
194.00637
 30
0.0
 40
0.8
100
AcDbArc
 50
180.0
 51
200.539366
  0
LINE
  5
514
330
222
100
AcDbEntity
  8
7_ALL_FEATURES
  6
Continuous
 62
     7
100
AcDbLine
 10
356.123257
 20
193.20637
 30
0.0
 11
357.123257
 21
193.20637
 31
0.0
  0
LINE
  5
515
330
222
100
AcDbEntity
  8
7_ALL_FEATURES
  6
Continuous
 62
     7
100
AcDbLine
 10
357.123257
 20
193.20637
 30
0.0
 11
368.523257
 21
193.20637
 31
0.0
  0
ARC
  5
516
330
222
100
AcDbEntity
  8
7_ALL_FEATURES
  6
Continuous
 62
     7
100
AcDbCircle
 10
368.523257
 20
202.40637
 30
0.0
 40
0.8
100
AcDbArc
 50
69.460634
 51
90.0
  0
ARC
  5
517
330
222
100
AcDbEntity
  8
7_ALL_FEATURES
  6
Continuous
 62
     7
100
AcDbCircle
 10
368.523257
 20
202.40637
 30
0.0
 40
0.8
100
AcDbArc
 50
62.972119
 51
69.460634
  0
ARC
  5
518
330
222
100
AcDbEntity
  8
7_ALL_FEATURES
  6
Continuous
 62
     7
100
AcDbCircle
 10
368.523257
 20
202.40637
 30
0.0
 40
0.8
100
AcDbArc
 50
48.639131
 51
62.972119
  0
ARC
  5
519
330
222
100
AcDbEntity
  8
7_ALL_FEATURES
  6
Continuous
 62
     7
100
AcDbCircle
 10
368.523257
 20
202.40637
 30
0.0
 40
0.8
100
AcDbArc
 50
41.360869
 51
48.639131
  0
ARC
  5
51A
330
222
100
AcDbEntity
  8
7_ALL_FEATURES
  6
Continuous
 62
     7
100
AcDbCircle
 10
368.523257
 20
202.40637
 30
0.0
 40
0.8
100
AcDbArc
 50
27.027881
 51
41.360869
  0
ARC
  5
51B
330
222
100
AcDbEntity
  8
7_ALL_FEATURES
  6
Continuous
 62
     7
100
AcDbCircle
 10
368.523257
 20
202.40637
 30
0.0
 40
0.8
100
AcDbArc
 50
20.539366
 51
27.027881
  0
ARC
  5
51C
330
222
100
AcDbEntity
  8
7_ALL_FEATURES
  6
Continuous
 62
     7
100
AcDbCircle
 10
368.523257
 20
202.40637
 30
0.0
 40
0.8
100
AcDbArc
 50
0.0
 51
20.539366
  0
LINE
  5
51D
330
222
100
AcDbEntity
  8
7_ALL_FEATURES
  6
Continuous
 62
     7
100
AcDbLine
 10
368.523257
 20
193.20637
 30
0.0
 11
369.523257
 21
193.20637
 31
0.0
  0
ARC
  5
51E
330
222
100
AcDbEntity
  8
7_ALL_FEATURES
  6
Continuous
 62
     7
100
AcDbCircle
 10
362.823257
 20
198.20637
 30
0.0
 40
3.15
100
AcDbArc
 50
180.0
 51
270.0
  0
ARC
  5
51F
330
222
100
AcDbEntity
  8
7_ALL_FEATURES
  6
Continuous
 62
     7
100
AcDbCircle
 10
362.823257
 20
198.20637
 30
0.0
 40
3.15
100
AcDbArc
 50
180.0
 51
270.0
  0
LINE
  5
520
330
222
100
AcDbEntity
  8
7_ALL_FEATURES
  6
Continuous
 62
     7
100
AcDbLine
 10
370.323257
 20
194.00637
 30
0.0
 11
370.323257
 21
202.40637
 31
0.0
  0
LINE
  5
521
330
222
100
AcDbEntity
  8
7_ALL_FEATURES
  6
Continuous
 62
     7
100
AcDbLine
 10
359.673257
 20
206.13387
 30
0.0
 11
359.673257
 21
198.20637
 31
0.0
  0
LINE
  5
522
330
222
100
AcDbEntity
  8
7_ALL_FEATURES
  6
Continuous
 62
     7
100
AcDbLine
 10
368.523257
 20
203.20637
 30
0.0
 11
365.973257
 21
203.20637
 31
0.0
  0
LINE
  5
523
330
222
100
AcDbEntity
  8
7_ALL_FEATURES
  6
Continuous
 62
     7
100
AcDbLine
 10
359.673257
 20
203.20637
 30
0.0
 11
357.123257
 21
203.20637
 31
0.0
  0
LINE
  5
524
330
222
100
AcDbEntity
  8
7_ALL_FEATURES
  6
Continuous
 62
     7
100
AcDbLine
 10
357.123257
 20
203.20637
 30
0.0
 11
356.123257
 21
203.20637
 31
0.0
  0
ARC
  5
525
330
222
100
AcDbEntity
  8
7_ALL_FEATURES
  6
Continuous
 62
     7
100
AcDbCircle
 10
362.823257
 20
198.20637
 30
0.0
 40
3.15
100
AcDbArc
 50
270.0
 51
360.0
  0
ARC
  5
526
330
222
100
AcDbEntity
  8
7_ALL_FEATURES
  6
Continuous
 62
     7
100
AcDbCircle
 10
362.823257
 20
198.20637
 30
0.0
 40
3.15
100
AcDbArc
 50
270.0
 51
360.0
  0
LINE
  5
527
330
222
100
AcDbEntity
  8
7_ALL_FEATURES
  6
Continuous
 62
     7
100
AcDbLine
 10
365.973257
 20
206.13387
 30
0.0
 11
365.973257
 21
198.20637
 31
0.0
  0
LINE
  5
528
330
222
100
AcDbEntity
  8
7_ALL_FEATURES
  6
Continuous
 62
     7
100
AcDbLine
 10
370.323257
 20
194.00637
 30
0.0
 11
370.323257
 21
202.40637
 31
0.0
  0
LINE
  5
529
330
222
100
AcDbEntity
  8
7_ALL_FEATURES
  6
Continuous
 62
     7
100
AcDbLine
 10
369.523257
 20
203.20637
 30
0.0
 11
368.523257
 21
203.20637
 31
0.0
  0
LINE
  5
52A
330
222
100
AcDbEntity
  8
7_ALL_FEATURES
  6
Continuous
 62
     7
100
AcDbLine
 10
355.323257
 20
202.40637
 30
0.0
 11
355.323257
 21
194.00637
 31
0.0
  0
LINE
  5
52B
330
222
100
AcDbEntity
  8
7_ALL_FEATURES
  6
Continuous
 62
     7
100
AcDbLine
 10
369.323257
 20
194.00637
 30
0.0
 11
369.323257
 21
202.40637
 31
0.0
  0
LINE
  5
52C
330
222
100
AcDbEntity
  8
7_ALL_FEATURES
  6
Continuous
 62
     7
100
AcDbLine
 10
357.123257
 20
193.20637
 30
0.0
 11
368.523257
 21
193.20637
 31
0.0
  0
LINE
  5
52D
330
222
100
AcDbEntity
  8
7_ALL_FEATURES
  6
Continuous
 62
     7
100
AcDbLine
 10
356.323257
 20
202.40637
 30
0.0
 11
356.323257
 21
194.00637
 31
0.0
  0
LINE
  5
52E
330
222
100
AcDbEntity
  8
7_ALL_FEATURES
  6
Continuous
 62
     7
100
AcDbLine
 10
368.523257
 20
203.20637
 30
0.0
 11
365.973257
 21
203.20637
 31
0.0
  0
LINE
  5
52F
330
222
100
AcDbEntity
  8
7_ALL_FEATURES
  6
Continuous
 62
     7
100
AcDbLine
 10
359.673257
 20
203.20637
 30
0.0
 11
357.123257
 21
203.20637
 31
0.0
  0
LINE
  5
530
330
222
100
AcDbEntity
  8
7_ALL_FEATURES
  6
Continuous
 62
     7
100
AcDbLine
 10
356.323257
 20
202.40637
 30
0.0
 11
356.323257
 21
194.00637
 31
0.0
  0
LINE
  5
531
330
222
100
AcDbEntity
  8
7_ALL_FEATURES
  6
Continuous
 62
     7
100
AcDbLine
 10
369.323257
 20
194.00637
 30
0.0
 11
369.323257
 21
202.40637
 31
0.0
  0
ARC
  5
532
330
222
100
AcDbEntity
  8
7_ALL_FEATURES
  6
Continuous
 62
     7
100
AcDbCircle
 10
356.123257
 20
194.00637
 30
0.0
 40
0.8
100
AcDbArc
 50
180.0
 51
197.853828
  0
ARC
  5
533
330
222
100
AcDbEntity
  8
7_ALL_FEATURES
  6
Continuous
 62
     7
100
AcDbCircle
 10
356.123257
 20
194.00637
 30
0.0
 40
0.8
100
AcDbArc
 50
197.853828
 51
209.079041
  0
ARC
  5
534
330
222
100
AcDbEntity
  8
7_ALL_FEATURES
  6
Continuous
 62
     7
100
AcDbCircle
 10
356.123257
 20
194.00637
 30
0.0
 40
0.8
100
AcDbArc
 50
209.079041
 51
215.844422
  0
ARC
  5
535
330
222
100
AcDbEntity
  8
7_ALL_FEATURES
  6
Continuous
 62
     7
100
AcDbCircle
 10
356.123257
 20
194.00637
 30
0.0
 40
0.8
100
AcDbArc
 50
215.844422
 51
233.907646
  0
ARC
  5
536
330
222
100
AcDbEntity
  8
7_ALL_FEATURES
  6
Continuous
 62
     7
100
AcDbCircle
 10
356.123257
 20
194.00637
 30
0.0
 40
0.8
100
AcDbArc
 50
233.907646
 51
239.891008
  0
ARC
  5
537
330
222
100
AcDbEntity
  8
7_ALL_FEATURES
  6
Continuous
 62
     7
100
AcDbCircle
 10
356.123257
 20
194.00637
 30
0.0
 40
0.8
100
AcDbArc
 50
239.891008
 51
251.942494
  0
ARC
  5
538
330
222
100
AcDbEntity
  8
7_ALL_FEATURES
  6
Continuous
 62
     7
100
AcDbCircle
 10
356.123257
 20
194.00637
 30
0.0
 40
0.8
100
AcDbArc
 50
251.942494
 51
270.0
  0
ARC
  5
539
330
222
100
AcDbEntity
  8
7_ALL_FEATURES
  6
Continuous
 62
     7
100
AcDbCircle
 10
356.123257
 20
194.00637
 30
0.0
 40
0.8
100
AcDbArc
 50
180.0
 51
270.0
  0
ARC
  5
53A
330
222
100
AcDbEntity
  8
7_ALL_FEATURES
  6
Continuous
 62
     7
100
AcDbCircle
 10
357.123257
 20
194.00637
 30
0.0
 40
0.8
100
AcDbArc
 50
180.0
 51
200.603432
  0
ARC
  5
53B
330
222
100
AcDbEntity
  8
7_ALL_FEATURES
  6
Continuous
 62
     7
100
AcDbCircle
 10
357.123257
 20
194.00637
 30
0.0
 40
0.8
100
AcDbArc
 50
200.603432
 51
206.97217
  0
ARC
  5
53C
330
222
100
AcDbEntity
  8
7_ALL_FEATURES
  6
Continuous
 62
     7
100
AcDbCircle
 10
357.123257
 20
194.00637
 30
0.0
 40
0.8
100
AcDbArc
 50
206.97217
 51
221.439058
  0
ARC
  5
53D
330
222
100
AcDbEntity
  8
7_ALL_FEATURES
  6
Continuous
 62
     7
100
AcDbCircle
 10
357.123257
 20
194.00637
 30
0.0
 40
0.8
100
AcDbArc
 50
221.439058
 51
228.560942
  0
ARC
  5
53E
330
222
100
AcDbEntity
  8
7_ALL_FEATURES
  6
Continuous
 62
     7
100
AcDbCircle
 10
357.123257
 20
194.00637
 30
0.0
 40
0.8
100
AcDbArc
 50
228.560942
 51
243.02783
  0
ARC
  5
53F
330
222
100
AcDbEntity
  8
7_ALL_FEATURES
  6
Continuous
 62
     7
100
AcDbCircle
 10
357.123257
 20
194.00637
 30
0.0
 40
0.8
100
AcDbArc
 50
243.02783
 51
249.396568
  0
ARC
  5
540
330
222
100
AcDbEntity
  8
7_ALL_FEATURES
  6
Continuous
 62
     7
100
AcDbCircle
 10
357.123257
 20
194.00637
 30
0.0
 40
0.8
100
AcDbArc
 50
249.396568
 51
270.0
  0
ARC
  5
541
330
222
100
AcDbEntity
  8
7_ALL_FEATURES
  6
Continuous
 62
     7
100
AcDbCircle
 10
357.123257
 20
194.00637
 30
0.0
 40
0.8
100
AcDbArc
 50
180.0
 51
200.603432
  0
ARC
  5
542
330
222
100
AcDbEntity
  8
7_ALL_FEATURES
  6
Continuous
 62
     7
100
AcDbCircle
 10
357.123257
 20
194.00637
 30
0.0
 40
0.8
100
AcDbArc
 50
200.603432
 51
206.97217
  0
ARC
  5
543
330
222
100
AcDbEntity
  8
7_ALL_FEATURES
  6
Continuous
 62
     7
100
AcDbCircle
 10
357.123257
 20
194.00637
 30
0.0
 40
0.8
100
AcDbArc
 50
206.97217
 51
221.439058
  0
ARC
  5
544
330
222
100
AcDbEntity
  8
7_ALL_FEATURES
  6
Continuous
 62
     7
100
AcDbCircle
 10
357.123257
 20
194.00637
 30
0.0
 40
0.8
100
AcDbArc
 50
221.439058
 51
228.560942
  0
ARC
  5
545
330
222
100
AcDbEntity
  8
7_ALL_FEATURES
  6
Continuous
 62
     7
100
AcDbCircle
 10
357.123257
 20
194.00637
 30
0.0
 40
0.8
100
AcDbArc
 50
228.560942
 51
243.02783
  0
ARC
  5
546
330
222
100
AcDbEntity
  8
7_ALL_FEATURES
  6
Continuous
 62
     7
100
AcDbCircle
 10
357.123257
 20
194.00637
 30
0.0
 40
0.8
100
AcDbArc
 50
243.02783
 51
249.396568
  0
ARC
  5
547
330
222
100
AcDbEntity
  8
7_ALL_FEATURES
  6
Continuous
 62
     7
100
AcDbCircle
 10
357.123257
 20
194.00637
 30
0.0
 40
0.8
100
AcDbArc
 50
249.396568
 51
270.0
  0
ARC
  5
548
330
222
100
AcDbEntity
  8
7_ALL_FEATURES
  6
Continuous
 62
     7
100
AcDbCircle
 10
368.523257
 20
194.00637
 30
0.0
 40
0.8
100
AcDbArc
 50
270.0
 51
360.0
  0
ARC
  5
549
330
222
100
AcDbEntity
  8
7_ALL_FEATURES
  6
Continuous
 62
     7
100
AcDbCircle
 10
368.523257
 20
194.00637
 30
0.0
 40
0.8
100
AcDbArc
 50
305.999999
 51
324.000006
  0
ARC
  5
54A
330
222
100
AcDbEntity
  8
7_ALL_FEATURES
  6
Continuous
 62
     7
100
AcDbCircle
 10
368.523257
 20
194.00637
 30
0.0
 40
0.8
100
AcDbArc
 50
302.916635
 51
305.999999
  0
ARC
  5
54B
330
222
100
AcDbEntity
  8
7_ALL_FEATURES
  6
Continuous
 62
     7
100
AcDbCircle
 10
368.523257
 20
194.00637
 30
0.0
 40
0.8
100
AcDbArc
 50
287.999994
 51
302.916635
  0
ARC
  5
54C
330
222
100
AcDbEntity
  8
7_ALL_FEATURES
  6
Continuous
 62
     7
100
AcDbCircle
 10
368.523257
 20
194.00637
 30
0.0
 40
0.8
100
AcDbArc
 50
270.0
 51
287.999994
  0
ARC
  5
54D
330
222
100
AcDbEntity
  8
7_ALL_FEATURES
  6
Continuous
 62
     7
100
AcDbCircle
 10
369.523257
 20
194.00637
 30
0.0
 40
0.8
100
AcDbArc
 50
270.0
 51
360.0
  0
ARC
  5
54E
330
222
100
AcDbEntity
  8
7_ALL_FEATURES
  6
Continuous
 62
     7
100
AcDbCircle
 10
369.523257
 20
194.00637
 30
0.0
 40
0.8
100
AcDbArc
 50
342.146171
 51
360.0
  0
ARC
  5
54F
330
222
100
AcDbEntity
  8
7_ALL_FEATURES
  6
Continuous
 62
     7
100
AcDbCircle
 10
369.523257
 20
194.00637
 30
0.0
 40
0.8
100
AcDbArc
 50
330.920969
 51
342.146171
  0
ARC
  5
550
330
222
100
AcDbEntity
  8
7_ALL_FEATURES
  6
Continuous
 62
     7
100
AcDbCircle
 10
369.523257
 20
194.00637
 30
0.0
 40
0.8
100
AcDbArc
 50
324.155577
 51
330.920969
  0
ARC
  5
551
330
222
100
AcDbEntity
  8
7_ALL_FEATURES
  6
Continuous
 62
     7
100
AcDbCircle
 10
369.523257
 20
194.00637
 30
0.0
 40
0.8
100
AcDbArc
 50
306.092354
 51
324.155577
  0
ARC
  5
552
330
222
100
AcDbEntity
  8
7_ALL_FEATURES
  6
Continuous
 62
     7
100
AcDbCircle
 10
369.523257
 20
194.00637
 30
0.0
 40
0.8
100
AcDbArc
 50
300.108986
 51
306.092354
  0
ARC
  5
553
330
222
100
AcDbEntity
  8
7_ALL_FEATURES
  6
Continuous
 62
     7
100
AcDbCircle
 10
369.523257
 20
194.00637
 30
0.0
 40
0.8
100
AcDbArc
 50
288.057507
 51
300.108986
  0
ARC
  5
554
330
222
100
AcDbEntity
  8
7_ALL_FEATURES
  6
Continuous
 62
     7
100
AcDbCircle
 10
369.523257
 20
194.00637
 30
0.0
 40
0.8
100
AcDbArc
 50
270.0
 51
288.057507
  0
ARC
  5
555
330
222
100
AcDbEntity
  8
7_ALL_FEATURES
  6
Continuous
 62
     7
100
AcDbCircle
 10
357.123257
 20
202.40637
 30
0.0
 40
0.8
100
AcDbArc
 50
90.0
 51
180.0
  0
ARC
  5
556
330
222
100
AcDbEntity
  8
7_ALL_FEATURES
  6
Continuous
 62
     7
100
AcDbCircle
 10
357.123257
 20
202.40637
 30
0.0
 40
0.8
100
AcDbArc
 50
162.000008
 51
180.0
  0
ARC
  5
557
330
222
100
AcDbEntity
  8
7_ALL_FEATURES
  6
Continuous
 62
     7
100
AcDbCircle
 10
357.123257
 20
202.40637
 30
0.0
 40
0.8
100
AcDbArc
 50
151.582074
 51
162.000008
  0
ARC
  5
558
330
222
100
AcDbEntity
  8
7_ALL_FEATURES
  6
Continuous
 62
     7
100
AcDbCircle
 10
357.123257
 20
202.40637
 30
0.0
 40
0.8
100
AcDbArc
 50
144.000006
 51
151.582074
  0
ARC
  5
559
330
222
100
AcDbEntity
  8
7_ALL_FEATURES
  6
Continuous
 62
     7
100
AcDbCircle
 10
357.123257
 20
202.40637
 30
0.0
 40
0.8
100
AcDbArc
 50
125.999999
 51
144.000006
  0
ARC
  5
55A
330
222
100
AcDbEntity
  8
7_ALL_FEATURES
  6
Continuous
 62
     7
100
AcDbCircle
 10
357.123257
 20
202.40637
 30
0.0
 40
0.8
100
AcDbArc
 50
122.916635
 51
125.999999
  0
ARC
  5
55B
330
222
100
AcDbEntity
  8
7_ALL_FEATURES
  6
Continuous
 62
     7
100
AcDbCircle
 10
356.123257
 20
202.40637
 30
0.0
 40
0.8
100
AcDbArc
 50
90.0
 51
180.0
  0
ARC
  5
55C
330
222
100
AcDbEntity
  8
7_ALL_FEATURES
  6
Continuous
 62
     7
100
AcDbCircle
 10
356.123257
 20
202.40637
 30
0.0
 40
0.8
100
AcDbArc
 50
162.146171
 51
180.0
  0
ARC
  5
55D
330
222
100
AcDbEntity
  8
7_ALL_FEATURES
  6
Continuous
 62
     7
100
AcDbCircle
 10
356.123257
 20
202.40637
 30
0.0
 40
0.8
100
AcDbArc
 50
150.920969
 51
162.146171
  0
ARC
  5
55E
330
222
100
AcDbEntity
  8
7_ALL_FEATURES
  6
Continuous
 62
     7
100
AcDbCircle
 10
356.123257
 20
202.40637
 30
0.0
 40
0.8
100
AcDbArc
 50
144.155577
 51
150.920969
  0
ARC
  5
55F
330
222
100
AcDbEntity
  8
7_ALL_FEATURES
  6
Continuous
 62
     7
100
AcDbCircle
 10
369.523257
 20
202.40637
 30
0.0
 40
0.8
100
AcDbArc
 50
0.0
 51
90.0
  0
ARC
  5
560
330
222
100
AcDbEntity
  8
7_ALL_FEATURES
  6
Continuous
 62
     7
100
AcDbCircle
 10
368.523257
 20
202.40637
 30
0.0
 40
0.8
100
AcDbArc
 50
0.0
 51
20.603432
  0
ARC
  5
561
330
222
100
AcDbEntity
  8
7_ALL_FEATURES
  6
Continuous
 62
     7
100
AcDbCircle
 10
368.523257
 20
202.40637
 30
0.0
 40
0.8
100
AcDbArc
 50
20.603432
 51
26.97217
  0
ARC
  5
562
330
222
100
AcDbEntity
  8
7_ALL_FEATURES
  6
Continuous
 62
     7
100
AcDbCircle
 10
368.523257
 20
202.40637
 30
0.0
 40
0.8
100
AcDbArc
 50
26.97217
 51
41.439058
  0
ARC
  5
563
330
222
100
AcDbEntity
  8
7_ALL_FEATURES
  6
Continuous
 62
     7
100
AcDbCircle
 10
368.523257
 20
202.40637
 30
0.0
 40
0.8
100
AcDbArc
 50
41.439058
 51
48.560942
  0
ARC
  5
564
330
222
100
AcDbEntity
  8
7_ALL_FEATURES
  6
Continuous
 62
     7
100
AcDbCircle
 10
368.523257
 20
202.40637
 30
0.0
 40
0.8
100
AcDbArc
 50
48.560942
 51
63.02783
  0
ARC
  5
565
330
222
100
AcDbEntity
  8
7_ALL_FEATURES
  6
Continuous
 62
     7
100
AcDbCircle
 10
368.523257
 20
202.40637
 30
0.0
 40
0.8
100
AcDbArc
 50
63.02783
 51
69.396568
  0
ARC
  5
566
330
222
100
AcDbEntity
  8
7_ALL_FEATURES
  6
Continuous
 62
     7
100
AcDbCircle
 10
368.523257
 20
202.40637
 30
0.0
 40
0.8
100
AcDbArc
 50
69.396568
 51
90.0
  0
LINE
  5
567
330
222
100
AcDbEntity
  8
7_ALL_FEATURES
  6
Continuous
 62
     9
100
AcDbLine
 10
370.323257
 20
202.40637
 30
0.0
 11
369.823257
 21
202.40637
 31
0.0
  0
LINE
  5
568
330
222
100
AcDbEntity
  8
7_ALL_FEATURES
  6
Continuous
 62
     9
100
AcDbLine
 10
355.823257
 20
194.00637
 30
0.0
 11
356.323257
 21
194.00637
 31
0.0
  0
LINE
  5
569
330
222
100
AcDbEntity
  8
7_ALL_FEATURES
  6
Continuous
 62
     9
100
AcDbLine
 10
355.823257
 20
202.40637
 30
0.0
 11
355.823257
 21
194.00637
 31
0.0
  0
LINE
  5
56A
330
222
100
AcDbEntity
  8
7_ALL_FEATURES
  6
Continuous
 62
     9
100
AcDbLine
 10
369.823257
 20
202.40637
 30
0.0
 11
369.323257
 21
202.40637
 31
0.0
  0
LINE
  5
56B
330
222
100
AcDbEntity
  8
7_ALL_FEATURES
  6
Continuous
 62
     9
100
AcDbLine
 10
369.823257
 20
194.00637
 30
0.0
 11
369.823257
 21
202.40637
 31
0.0
  0
LINE
  5
56C
330
222
100
AcDbEntity
  8
7_ALL_FEATURES
  6
Continuous
 62
     9
100
AcDbLine
 10
368.523257
 20
202.40637
 30
0.0
 11
365.973257
 21
202.40637
 31
0.0
  0
LINE
  5
56D
330
222
100
AcDbEntity
  8
7_ALL_FEATURES
  6
Continuous
 62
     9
100
AcDbLine
 10
359.673257
 20
202.40637
 30
0.0
 11
357.123257
 21
202.40637
 31
0.0
  0
SPLINE
  5
56E
330
222
100
AcDbEntity
  8
7_ALL_FEATURES
  6
Continuous
 62
     9
100
AcDbSpline
 70
     0
 71
     3
 72
    13
 73
     9
 74
     0
 42
0.000000001
 43
0.0000001
 40
0.0
 40
0.0
 40
0.0
 40
0.0
 40
0.3384465389
 40
0.6333438042
 40
0.7539495692
 40
0.8534936562
 40
0.9333389684
 40
1.0
 40
1.0
 40
1.0
 40
1.0
 10
369.8232567189
 20
194.0063698389
 30
0.0
 10
369.8232567189
 20
193.9040313762
 30
0.0
 10
369.8097700146
 20
193.7123672849
 30
0.0
 10
369.7586027366
 20
193.4884434153
 30
0.0
 10
369.6956152612
 20
193.3454210571
 30
0.0
 10
369.6448302457
 20
193.2695145843
 30
0.0
 10
369.5879531128
 20
193.2194936955
 30
0.0
 10
369.5434134694
 20
193.2063698389
 30
0.0
 10
369.523256704
 20
193.2063698389
 30
0.0
  0
LINE
  5
56F
330
222
100
AcDbEntity
  8
7_ALL_FEATURES
  6
Continuous
 62
     9
100
AcDbLine
 10
369.323257
 20
194.00637
 30
0.0
 11
369.823257
 21
194.00637
 31
0.0
  0
LINE
  5
570
330
222
100
AcDbEntity
  8
7_ALL_FEATURES
  6
Continuous
 62
     9
100
AcDbLine
 10
356.323257
 20
202.40637
 30
0.0
 11
355.823257
 21
202.40637
 31
0.0
  0
LINE
  5
571
330
222
100
AcDbEntity
  8
7_ALL_FEATURES
  6
Continuous
 62
     9
100
AcDbLine
 10
368.523257
 20
194.00637
 30
0.0
 11
368.523257
 21
202.40637
 31
0.0
  0
SPLINE
  5
572
330
222
100
AcDbEntity
  8
7_ALL_FEATURES
  6
Continuous
 62
     9
100
AcDbSpline
 70
     0
 71
     3
 72
    13
 73
     9
 74
     0
 42
0.000000001
 43
0.0000001
 40
0.0
 40
0.0
 40
0.0
 40
0.0
 40
0.3384465389
 40
0.6333438042
 40
0.7539495692
 40
0.8534936562
 40
0.9333389684
 40
1.0
 40
1.0
 40
1.0
 40
1.0
 10
355.8232566891
 20
202.4063698389
 30
0.0
 10
355.8232566891
 20
202.5087083015
 30
0.0
 10
355.8367433934
 20
202.7003723928
 30
0.0
 10
355.8879106713
 20
202.9242962624
 30
0.0
 10
355.9508981467
 20
203.0673186206
 30
0.0
 10
356.0016831622
 20
203.1432250934
 30
0.0
 10
356.0585602951
 20
203.1932459822
 30
0.0
 10
356.1030999386
 20
203.2063698389
 30
0.0
 10
356.123256704
 20
203.2063698389
 30
0.0
  0
LINE
  5
573
330
222
100
AcDbEntity
  8
7_ALL_FEATURES
  6
Continuous
 62
     9
100
AcDbLine
 10
357.123257
 20
194.00637
 30
0.0
 11
368.523257
 21
194.00637
 31
0.0
  0
LINE
  5
574
330
222
100
AcDbEntity
  8
7_ALL_FEATURES
  6
Continuous
 62
     9
100
AcDbLine
 10
357.123257
 20
202.40637
 30
0.0
 11
357.123257
 21
194.00637
 31
0.0
  0
LINE
  5
575
330
222
100
AcDbEntity
  8
7_ALL_FEATURES
  6
Continuous
 62
     9
100
AcDbLine
 10
357.123257
 20
202.40637
 30
0.0
 11
357.123257
 21
203.20637
 31
0.0
  0
LINE
  5
576
330
222
100
AcDbEntity
  8
7_ALL_FEATURES
  6
Continuous
 62
     9
100
AcDbLine
 10
357.123257
 20
202.40637
 30
0.0
 11
356.323257
 21
202.40637
 31
0.0
  0
LINE
  5
577
330
222
100
AcDbEntity
  8
7_ALL_FEATURES
  6
Continuous
 62
     9
100
AcDbLine
 10
368.523257
 20
203.20637
 30
0.0
 11
368.523257
 21
202.40637
 31
0.0
  0
LINE
  5
578
330
222
100
AcDbEntity
  8
7_ALL_FEATURES
  6
Continuous
 62
     9
100
AcDbLine
 10
368.523257
 20
194.00637
 30
0.0
 11
368.523257
 21
193.20637
 31
0.0
  0
LINE
  5
579
330
222
100
AcDbEntity
  8
7_ALL_FEATURES
  6
Continuous
 62
     9
100
AcDbLine
 10
369.323257
 20
202.40637
 30
0.0
 11
368.523257
 21
202.40637
 31
0.0
  0
LINE
  5
57A
330
222
100
AcDbEntity
  8
3_ALL_AXES
  6
Continuous
 62
     9
100
AcDbLine
 10
359.673257
 20
206.13387
 30
0.0
 11
362.823257
 21
206.13387
 31
0.0
  0
LINE
  5
57B
330
222
100
AcDbEntity
  8
7_ALL_FEATURES
  6
Continuous
 62
     9
100
AcDbLine
 10
368.523257
 20
194.00637
 30
0.0
 11
369.323257
 21
194.00637
 31
0.0
  0
LINE
  5
57C
330
222
100
AcDbEntity
  8
7_ALL_FEATURES
  6
Continuous
 62
     9
100
AcDbLine
 10
357.123257
 20
193.20637
 30
0.0
 11
357.123257
 21
194.00637
 31
0.0
  0
SPLINE
  5
57D
330
222
100
AcDbEntity
  8
7_ALL_FEATURES
  6
Continuous
 62
     9
100
AcDbSpline
 70
     0
 71
     3
 72
    13
 73
     9
 74
     0
 42
0.000000001
 43
0.0000001
 40
0.0
 40
0.0
 40
0.0
 40
0.0
 40
0.3384465467
 40
0.6333438068
 40
0.7539495676
 40
0.8534936529
 40
0.9333389664
 40
1.0
 40
1.0
 40
1.0
 40
1.0
 10
355.8232567049
 20
194.0063698389
 30
0.0
 10
355.8232567049
 20
193.9040313739
 30
0.0
 10
355.8367433829
 20
193.7123672794
 30
0.0
 10
355.8879106743
 20
193.4884434121
 30
0.0
 10
355.9508981468
 20
193.345421057
 30
0.0
 10
356.0016831607
 20
193.2695145842
 30
0.0
 10
356.0585602954
 20
193.219493697
 30
0.0
 10
356.1030999394
 20
193.2063698389
 30
0.0
 10
356.1232567054
 20
193.2063698389
 30
0.0
  0
SPLINE
  5
57E
330
222
100
AcDbEntity
  8
7_ALL_FEATURES
  6
Continuous
 62
     9
100
AcDbSpline
 70
     0
 71
     3
 72
    13
 73
     9
 74
     0
 42
0.000000001
 43
0.0000001
 40
0.0
 40
0.0
 40
0.0
 40
0.0
 40
0.3384465467
 40
0.6333438068
 40
0.7539495676
 40
0.8534936529
 40
0.9333389664
 40
1.0
 40
1.0
 40
1.0
 40
1.0
 10
369.8232567031
 20
202.4063698389
 30
0.0
 10
369.8232567031
 20
202.5087083038
 30
0.0
 10
369.809770025
 20
202.7003723983
 30
0.0
 10
369.7586027336
 20
202.9242962656
 30
0.0
 10
369.6956152611
 20
203.0673186207
 30
0.0
 10
369.6448302472
 20
203.1432250935
 30
0.0
 10
369.5879531125
 20
203.1932459807
 30
0.0
 10
369.5434134686
 20
203.2063698389
 30
0.0
 10
369.5232567026
 20
203.2063698389
 30
0.0
  0
LINE
  5
57F
330
222
100
AcDbEntity
  8
7_ALL_FEATURES
  6
Continuous
 62
     9
100
AcDbLine
 10
355.323257
 20
194.00637
 30
0.0
 11
355.823257
 21
194.00637
 31
0.0
  0
LINE
  5
580
330
222
100
AcDbEntity
  8
7_ALL_FEATURES
  6
Continuous
 62
     9
100
AcDbLine
 10
355.823257
 20
202.40637
 30
0.0
 11
355.323257
 21
202.40637
 31
0.0
  0
LINE
  5
581
330
222
100
AcDbEntity
  8
7_ALL_FEATURES
  6
Continuous
 62
     9
100
AcDbLine
 10
356.323257
 20
194.00637
 30
0.0
 11
357.123257
 21
194.00637
 31
0.0
  0
LINE
  5
582
330
222
100
AcDbEntity
  8
7_ALL_FEATURES
  6
Continuous
 62
     9
100
AcDbLine
 10
369.823257
 20
194.00637
 30
0.0
 11
370.323257
 21
194.00637
 31
0.0
  0
LINE
  5
583
330
222
100
AcDbEntity
  8
3_ALL_AXES
  6
Continuous
 62
     9
100
AcDbLine
 10
362.823257
 20
206.13387
 30
0.0
 11
365.973257
 21
206.13387
 31
0.0
  0
LINE
  5
584
330
222
100
AcDbEntity
  8
7_ALL_FEATURES
  6
Continuous
 62
     7
100
AcDbLine
 10
375.134199
 20
223.40637
 30
0.0
 11
375.273257
 21
223.40637
 31
0.0
  0
LINE
  5
585
330
222
100
AcDbEntity
  8
7_ALL_FEATURES
  6
Continuous
 62
     7
100
AcDbLine
 10
374.823257
 20
223.40637
 30
0.0
 11
374.823257
 21
222.90637
 31
0.0
  0
LINE
  5
586
330
222
100
AcDbEntity
  8
7_ALL_FEATURES
  6
Continuous
 62
     7
100
AcDbLine
 10
350.908821
 20
203.093045
 30
0.0
 11
350.581253
 21
203.578684
 31
0.0
  0
LINE
  5
587
330
222
100
AcDbEntity
  8
7_ALL_FEATURES
  6
Continuous
 62
     7
100
AcDbLine
 10
351.32334
 20
203.372642
 30
0.0
 11
350.908821
 21
203.093045
 31
0.0
  0
LINE
  5
588
330
222
100
AcDbEntity
  8
7_ALL_FEATURES
  6
Continuous
 62
     7
100
AcDbLine
 10
350.373257
 20
223.40637
 30
0.0
 11
350.512314
 21
223.40637
 31
0.0
  0
ARC
  5
589
330
222
100
AcDbEntity
  8
7_ALL_FEATURES
  6
Continuous
 62
     7
100
AcDbCircle
 10
375.823257
 20
222.40637
 30
0.0
 40
1.0
100
AcDbArc
 50
0.0
 51
90.0
  0
LINE
  5
58A
330
222
100
AcDbEntity
  8
7_ALL_FEATURES
  6
Continuous
 62
     7
100
AcDbLine
 10
350.373257
 20
223.40637
 30
0.0
 11
349.823257
 21
223.40637
 31
0.0
  0
LINE
  5
58B
330
222
100
AcDbEntity
  8
7_ALL_FEATURES
  6
Continuous
 62
     7
100
AcDbLine
 10
376.823257
 20
222.40637
 30
0.0
 11
376.823257
 21
214.738079
 31
0.0
  0
LINE
  5
58C
330
222
100
AcDbEntity
  8
7_ALL_FEATURES
  6
Continuous
 62
     7
100
AcDbLine
 10
375.823257
 20
223.40637
 30
0.0
 11
375.273257
 21
223.40637
 31
0.0
  0
LINE
  5
58D
330
222
100
AcDbEntity
  8
7_ALL_FEATURES
  6
Continuous
 62
     7
100
AcDbLine
 10
350.823257
 20
223.40637
 30
0.0
 11
350.823257
 21
222.90637
 31
0.0
  0
LINE
  5
58E
330
222
100
AcDbEntity
  8
7_ALL_FEATURES
  6
Continuous
 62
     7
100
AcDbLine
 10
379.007062
 20
212.999229
 30
0.0
 11
377.04366
 21
214.32356
 31
0.0
  0
ARC
  5
58F
330
222
100
AcDbEntity
  8
7_ALL_FEATURES
  6
Continuous
 62
     7
100
AcDbCircle
 10
377.323257
 20
214.738079
 30
0.0
 40
0.5
100
AcDbArc
 50
180.0
 51
236.0
  0
LINE
  5
590
330
222
100
AcDbEntity
  8
7_ALL_FEATURES
  6
Continuous
 62
     7
100
AcDbLine
 10
374.823257
 20
223.40637
 30
0.0
 11
374.823257
 21
222.90637
 31
0.0
  0
LINE
  5
591
330
222
100
AcDbEntity
  8
7_ALL_FEATURES
  6
Continuous
 62
     7
100
AcDbLine
 10
375.06526
 20
203.578684
 30
0.0
 11
374.737692
 21
203.093045
 31
0.0
  0
LINE
  5
592
330
222
100
AcDbEntity
  8
7_ALL_FEATURES
  6
Continuous
 62
     7
100
AcDbLine
 10
376.087704
 20
205.094519
 30
0.0
 11
375.06526
 21
203.578684
 31
0.0
  0
LINE
  5
593
330
222
100
AcDbEntity
  8
7_ALL_FEATURES
  6
Continuous
 62
     7
100
AcDbLine
 10
376.878522
 20
206.266955
 30
0.0
 11
376.087704
 21
205.094519
 31
0.0
  0
LINE
  5
594
330
222
100
AcDbEntity
  8
7_ALL_FEATURES
  6
Continuous
 62
     7
100
AcDbLine
 10
379.546751
 20
210.222768
 30
0.0
 11
376.878522
 21
206.266955
 31
0.0
  0
ARC
  5
595
330
222
100
AcDbEntity
  8
7_ALL_FEATURES
  6
Continuous
 62
     7
100
AcDbCircle
 10
377.888676
 20
211.341154
 30
0.0
 40
2.0
100
AcDbArc
 50
326.0
 51
56.0
  0
LINE
  5
596
330
222
100
AcDbEntity
  8
7_ALL_FEATURES
  6
Continuous
 62
     7
100
AcDbLine
 10
374.737692
 20
203.093045
 30
0.0
 11
374.323174
 21
203.372642
 31
0.0
  0
LINE
  5
597
330
222
100
AcDbEntity
  8
7_ALL_FEATURES
  6
Continuous
 62
     7
100
AcDbLine
 10
351.32334
 20
203.372642
 30
0.0
 11
350.908821
 21
203.093045
 31
0.0
  0
ARC
  5
598
330
222
100
AcDbEntity
  8
7_ALL_FEATURES
  6
Continuous
 62
     7
100
AcDbCircle
 10
347.757837
 20
211.341154
 30
0.0
 40
2.0
100
AcDbArc
 50
124.0
 51
214.0
  0
ARC
  5
599
330
222
100
AcDbEntity
  8
7_ALL_FEATURES
  6
Continuous
 62
     7
100
AcDbCircle
 10
349.823257
 20
222.40637
 30
0.0
 40
1.0
100
AcDbArc
 50
90.0
 51
180.0
  0
LINE
  5
59A
330
222
100
AcDbEntity
  8
7_ALL_FEATURES
  6
Continuous
 62
     7
100
AcDbLine
 10
350.581253
 20
203.578684
 30
0.0
 11
349.55881
 21
205.094519
 31
0.0
  0
LINE
  5
59B
330
222
100
AcDbEntity
  8
7_ALL_FEATURES
  6
Continuous
 62
     7
100
AcDbLine
 10
349.55881
 20
205.094519
 30
0.0
 11
348.767992
 21
206.266955
 31
0.0
  0
LINE
  5
59C
330
222
100
AcDbEntity
  8
7_ALL_FEATURES
  6
Continuous
 62
     7
100
AcDbLine
 10
348.767992
 20
206.266955
 30
0.0
 11
346.099762
 21
210.222768
 31
0.0
  0
ARC
  5
59D
330
222
100
AcDbEntity
  8
7_ALL_FEATURES
  6
Continuous
 62
     7
100
AcDbCircle
 10
348.323257
 20
214.738079
 30
0.0
 40
0.5
100
AcDbArc
 50
304.0
 51
360.0
  0
LINE
  5
59E
330
222
100
AcDbEntity
  8
7_ALL_FEATURES
  6
Continuous
 62
     7
100
AcDbLine
 10
348.602853
 20
214.32356
 30
0.0
 11
346.639451
 21
212.999229
 31
0.0
  0
LINE
  5
59F
330
222
100
AcDbEntity
  8
7_ALL_FEATURES
  6
Continuous
 62
     7
100
AcDbLine
 10
348.823257
 20
214.738079
 30
0.0
 11
348.823257
 21
222.40637
 31
0.0
  0
LINE
  5
5A0
330
222
100
AcDbEntity
  8
7_ALL_FEATURES
  6
Continuous
 62
     9
100
AcDbLine
 10
375.823257
 20
223.40637
 30
0.0
 11
375.823257
 21
222.90637
 31
0.0
  0
LINE
  5
5A1
330
222
100
AcDbEntity
  8
7_ALL_FEATURES
  6
Continuous
 62
     9
100
AcDbLine
 10
375.273257
 20
222.90637
 30
0.0
 11
375.273257
 21
223.40637
 31
0.0
  0
LINE
  5
5A2
330
222
100
AcDbEntity
  8
7_ALL_FEATURES
  6
Continuous
 62
     9
100
AcDbLine
 10
346.639451
 20
212.999229
 30
0.0
 11
346.919048
 21
212.58471
 31
0.0
  0
LINE
  5
5A3
330
222
100
AcDbEntity
  8
7_ALL_FEATURES
  6
Continuous
 62
     9
100
AcDbLine
 10
350.373257
 20
222.90637
 30
0.0
 11
350.373257
 21
223.40637
 31
0.0
  0
LINE
  5
5A4
330
222
100
AcDbEntity
  8
7_ALL_FEATURES
  6
Continuous
 62
     9
100
AcDbLine
 10
376.764064
 20
213.909042
 30
0.0
 11
377.04366
 21
214.32356
 31
0.0
  0
LINE
  5
5A5
330
222
100
AcDbEntity
  8
7_ALL_FEATURES
  6
Continuous
 62
     9
100
AcDbLine
 10
350.995772
 20
203.858281
 30
0.0
 11
350.581253
 21
203.578684
 31
0.0
  0
LINE
  5
5A6
330
222
100
AcDbEntity
  8
7_ALL_FEATURES
  6
Continuous
 62
     9
100
AcDbLine
 10
346.099762
 20
210.222768
 30
0.0
 11
346.514281
 21
210.502365
 31
0.0
  0
LINE
  5
5A7
330
222
100
AcDbEntity
  8
7_ALL_FEATURES
  6
Continuous
 62
     9
100
AcDbLine
 10
348.767992
 20
206.266955
 30
0.0
 11
349.18251
 21
206.546552
 31
0.0
  0
LINE
  5
5A8
330
222
100
AcDbEntity
  8
7_ALL_FEATURES
  6
Continuous
 62
     9
100
AcDbLine
 10
376.464003
 20
206.546552
 30
0.0
 11
376.878522
 21
206.266955
 31
0.0
  0
LINE
  5
5A9
330
222
100
AcDbEntity
  8
7_ALL_FEATURES
  6
Continuous
 62
     9
100
AcDbLine
 10
349.55881
 20
205.094519
 30
0.0
 11
349.973329
 21
205.374115
 31
0.0
  0
LINE
  5
5AA
330
222
100
AcDbEntity
  8
7_ALL_FEATURES
  6
Continuous
 62
     9
100
AcDbLine
 10
375.673185
 20
205.374115
 30
0.0
 11
376.087704
 21
205.094519
 31
0.0
  0
LINE
  5
5AB
330
222
100
AcDbEntity
  8
7_ALL_FEATURES
  6
Continuous
 62
     9
100
AcDbLine
 10
349.823257
 20
223.40637
 30
0.0
 11
349.823257
 21
222.90637
 31
0.0
  0
LINE
  5
5AC
330
222
100
AcDbEntity
  8
7_ALL_FEATURES
  6
Continuous
 62
     9
100
AcDbLine
 10
379.007062
 20
212.999229
 30
0.0
 11
378.727466
 21
212.58471
 31
0.0
  0
LINE
  5
5AD
330
222
100
AcDbEntity
  8
7_ALL_FEATURES
  6
Continuous
 62
     9
100
AcDbLine
 10
376.823257
 20
222.40637
 30
0.0
 11
376.323257
 21
222.40637
 31
0.0
  0
LINE
  5
5AE
330
222
100
AcDbEntity
  8
7_ALL_FEATURES
  6
Continuous
 62
     9
100
AcDbLine
 10
379.546751
 20
210.222768
 30
0.0
 11
379.132233
 21
210.502365
 31
0.0
  0
LINE
  5
5AF
330
222
100
AcDbEntity
  8
7_ALL_FEATURES
  6
Continuous
 62
     9
100
AcDbLine
 10
375.06526
 20
203.578684
 30
0.0
 11
374.650741
 21
203.858281
 31
0.0
  0
LINE
  5
5B0
330
222
100
AcDbEntity
  8
7_ALL_FEATURES
  6
Continuous
 62
     9
100
AcDbLine
 10
348.88245
 20
213.909042
 30
0.0
 11
348.602853
 21
214.32356
 31
0.0
  0
LINE
  5
5B1
330
222
100
AcDbEntity
  8
7_ALL_FEATURES
  6
Continuous
 62
     9
100
AcDbLine
 10
349.323257
 20
214.738079
 30
0.0
 11
348.823257
 21
214.738079
 31
0.0
  0
LINE
  5
5B2
330
222
100
AcDbEntity
  8
7_ALL_FEATURES
  6
Continuous
 62
     9
100
AcDbLine
 10
348.823257
 20
222.40637
 30
0.0
 11
349.323257
 21
222.40637
 31
0.0
  0
LINE
  5
5B3
330
222
100
AcDbEntity
  8
7_ALL_FEATURES
  6
Continuous
 62
     9
100
AcDbLine
 10
376.323257
 20
214.738079
 30
0.0
 11
376.823257
 21
214.738079
 31
0.0
  0
ARC
  5
5B4
330
222
100
AcDbEntity
  8
7_ALL_FEATURES
  6
Continuous
 62
     7
100
AcDbCircle
 10
374.823257
 20
225.90637
 30
0.0
 40
1.5
100
AcDbArc
 50
278.68828
 51
337.175301
  0
ARC
  5
5B5
330
222
100
AcDbEntity
  8
7_ALL_FEATURES
  6
Continuous
 62
     7
100
AcDbCircle
 10
350.823257
 20
225.90637
 30
0.0
 40
1.5
100
AcDbArc
 50
202.824699
 51
261.31172
  0
ARC
  5
5B6
330
222
100
AcDbEntity
  8
7_ALL_FEATURES
  6
Continuous
 62
     7
100
AcDbCircle
 10
350.823257
 20
223.283386
 30
0.0
 40
1.0
100
AcDbArc
 50
0.0
 51
75.522488
  0
ARC
  5
5B7
330
222
100
AcDbEntity
  8
7_ALL_FEATURES
  6
Continuous
 62
     7
100
AcDbCircle
 10
374.823257
 20
223.283386
 30
0.0
 40
1.0
100
AcDbArc
 50
104.477512
 51
180.0
  0
ARC
  5
5B8
330
222
100
AcDbEntity
  8
7_ALL_FEATURES
  6
Continuous
 62
     7
100
AcDbCircle
 10
348.073257
 20
229.90637
 30
0.0
 40
0.75
100
AcDbArc
 50
0.0
 51
90.0
  0
ARC
  5
5B9
330
222
100
AcDbEntity
  8
7_ALL_FEATURES
  6
Continuous
 62
     7
100
AcDbCircle
 10
377.573257
 20
229.90637
 30
0.0
 40
0.75
100
AcDbArc
 50
90.0
 51
180.0
  0
ARC
  5
5BA
330
222
100
AcDbEntity
  8
7_ALL_FEATURES
  6
Continuous
 62
     7
100
AcDbCircle
 10
355.323257
 20
215.65637
 30
0.0
 40
3.5
100
AcDbArc
 50
180.0
 51
270.0
  0
LINE
  5
5BB
330
222
100
AcDbEntity
  8
7_ALL_FEATURES
  6
Continuous
 62
     7
100
AcDbLine
 10
355.323257
 20
212.15637
 30
0.0
 11
370.323257
 21
212.15637
 31
0.0
  0
ARC
  5
5BC
330
222
100
AcDbEntity
  8
7_ALL_FEATURES
  6
Continuous
 62
     7
100
AcDbCircle
 10
370.323257
 20
215.65637
 30
0.0
 40
3.5
100
AcDbArc
 50
270.0
 51
360.0
  0
LINE
  5
5BD
330
222
100
AcDbEntity
  8
7_ALL_FEATURES
  6
Continuous
 62
     7
100
AcDbLine
 10
373.823257
 20
215.65637
 30
0.0
 11
373.823257
 21
223.283386
 31
0.0
  0
ARC
  5
5BE
330
222
100
AcDbEntity
  8
7_ALL_FEATURES
  6
Continuous
 62
     7
100
AcDbCircle
 10
373.823257
 20
227.15637
 30
0.0
 40
3.0
100
AcDbArc
 50
284.477512
 51
360.0
  0
LINE
  5
5BF
330
222
100
AcDbEntity
  8
7_ALL_FEATURES
  6
Continuous
 62
     7
100
AcDbLine
 10
376.823257
 20
227.15637
 30
0.0
 11
376.823257
 21
229.90637
 31
0.0
  0
LINE
  5
5C0
330
222
100
AcDbEntity
  8
7_ALL_FEATURES
  6
Continuous
 62
     7
100
AcDbLine
 10
377.573257
 20
230.65637
 30
0.0
 11
378.823257
 21
230.65637
 31
0.0
  0
ARC
  5
5C1
330
222
100
AcDbEntity
  8
7_ALL_FEATURES
  6
Continuous
 62
     7
100
AcDbCircle
 10
378.823257
 20
232.65637
 30
0.0
 40
2.0
100
AcDbArc
 50
270.0
 51
360.0
  0
ARC
  5
5C2
330
222
100
AcDbEntity
  8
3_ALL_AXES
  6
Continuous
 62
     7
100
AcDbCircle
 10
362.823257
 20
216.90637
 30
0.0
 40
3.5
100
AcDbArc
 50
0.0
 51
180.0
  0
ARC
  5
5C3
330
222
100
AcDbEntity
  8
3_ALL_AXES
  6
Continuous
 62
     7
100
AcDbCircle
 10
362.823257
 20
216.90637
 30
0.0
 40
3.5
100
AcDbArc
 50
180.0
 51
360.0
  0
LINE
  5
5C4
330
222
100
AcDbEntity
  8
7_ALL_FEATURES
  6
Continuous
 62
     7
100
AcDbLine
 10
351.823257
 20
223.283386
 30
0.0
 11
351.823257
 21
215.65637
 31
0.0
  0
ARC
  5
5C5
330
222
100
AcDbEntity
  8
7_ALL_FEATURES
  6
Continuous
 62
     7
100
AcDbCircle
 10
351.823257
 20
227.15637
 30
0.0
 40
3.0
100
AcDbArc
 50
180.0
 51
255.522488
  0
LINE
  5
5C6
330
222
100
AcDbEntity
  8
7_ALL_FEATURES
  6
Continuous
 62
     7
100
AcDbLine
 10
348.823257
 20
229.90637
 30
0.0
 11
348.823257
 21
227.15637
 31
0.0
  0
LINE
  5
5C7
330
222
100
AcDbEntity
  8
7_ALL_FEATURES
  6
Continuous
 62
     7
100
AcDbLine
 10
346.823257
 20
230.65637
 30
0.0
 11
348.073257
 21
230.65637
 31
0.0
  0
ARC
  5
5C8
330
222
100
AcDbEntity
  8
7_ALL_FEATURES
  6
Continuous
 62
     7
100
AcDbCircle
 10
346.823257
 20
232.65637
 30
0.0
 40
2.0
100
AcDbArc
 50
180.0
 51
270.0
  0
LINE
  5
5C9
330
222
100
AcDbEntity
  8
7_ALL_FEATURES
  6
Continuous
 62
     7
100
AcDbLine
 10
344.823257
 20
247.40637
 30
0.0
 11
344.823257
 21
232.65637
 31
0.0
  0
ARC
  5
5CA
330
222
100
AcDbEntity
  8
7_ALL_FEATURES
  6
Continuous
 62
     7
100
AcDbCircle
 10
345.823257
 20
247.40637
 30
0.0
 40
1.0
100
AcDbArc
 50
90.0
 51
180.0
  0
LINE
  5
5CB
330
222
100
AcDbEntity
  8
7_ALL_FEATURES
  6
Continuous
 62
     7
100
AcDbLine
 10
379.823257
 20
248.40637
 30
0.0
 11
345.823257
 21
248.40637
 31
0.0
  0
ARC
  5
5CC
330
222
100
AcDbEntity
  8
7_ALL_FEATURES
  6
Continuous
 62
     7
100
AcDbCircle
 10
379.823257
 20
247.40637
 30
0.0
 40
1.0
100
AcDbArc
 50
0.0
 51
90.0
  0
LINE
  5
5CD
330
222
100
AcDbEntity
  8
7_ALL_FEATURES
  6
Continuous
 62
     7
100
AcDbLine
 10
380.823257
 20
232.65637
 30
0.0
 11
380.823257
 21
247.40637
 31
0.0
  0
ARC
  5
5CE
330
222
100
AcDbEntity
  8
7_ALL_FEATURES
  6
Continuous
 62
     7
100
AcDbCircle
 10
353.073257
 20
228.65637
 30
0.0
 40
2.9
100
AcDbArc
 50
180.0
 51
360.0
  0
ARC
  5
5CF
330
222
100
AcDbEntity
  8
7_ALL_FEATURES
  6
Continuous
 62
     7
100
AcDbCircle
 10
353.073257
 20
228.65637
 30
0.0
 40
2.9
100
AcDbArc
 50
0.0
 51
180.0
  0
ARC
  5
5D0
330
222
100
AcDbEntity
  8
7_ALL_FEATURES
  6
Continuous
 62
     7
100
AcDbCircle
 10
375.823257
 20
243.90637
 30
0.0
 40
3.0
100
AcDbArc
 50
0.0
 51
180.0
  0
ARC
  5
5D1
330
222
100
AcDbEntity
  8
7_ALL_FEATURES
  6
Continuous
 62
     7
100
AcDbCircle
 10
375.823257
 20
243.90637
 30
0.0
 40
3.0
100
AcDbArc
 50
180.0
 51
360.0
  0
ARC
  5
5D2
330
222
100
AcDbEntity
  8
7_ALL_FEATURES
  6
Continuous
 62
     7
100
AcDbCircle
 10
372.573257
 20
228.65637
 30
0.0
 40
2.9
100
AcDbArc
 50
180.0
 51
360.0
  0
ARC
  5
5D3
330
222
100
AcDbEntity
  8
7_ALL_FEATURES
  6
Continuous
 62
     7
100
AcDbCircle
 10
372.573257
 20
228.65637
 30
0.0
 40
2.9
100
AcDbArc
 50
0.0
 51
180.0
  0
ARC
  5
5D4
330
222
100
AcDbEntity
  8
7_ALL_FEATURES
  6
Continuous
 62
     7
100
AcDbCircle
 10
349.823257
 20
243.90637
 30
0.0
 40
3.0
100
AcDbArc
 50
180.0
 51
360.0
  0
ARC
  5
5D5
330
222
100
AcDbEntity
  8
7_ALL_FEATURES
  6
Continuous
 62
     7
100
AcDbCircle
 10
349.823257
 20
243.90637
 30
0.0
 40
3.0
100
AcDbArc
 50
0.0
 51
180.0
  0
LINE
  5
5D6
330
222
100
AcDbEntity
  8
6_ALL_SURFS
  6
Continuous
 62
     7
100
AcDbLine
 10
381.423257
 20
248.65637
 30
0.0
 11
344.223257
 21
248.65637
 31
0.0
  0
LINE
  5
5D7
330
222
100
AcDbEntity
  8
6_ALL_SURFS
  6
Continuous
 62
     7
100
AcDbLine
 10
344.223257
 20
248.65637
 30
0.0
 11
344.223257
 21
257.90637
 31
0.0
  0
ARC
  5
5D8
330
222
100
AcDbEntity
  8
6_ALL_SURFS
  6
Continuous
 62
     7
100
AcDbCircle
 10
345.223257
 20
257.90637
 30
0.0
 40
1.0
100
AcDbArc
 50
90.0
 51
180.0
  0
LINE
  5
5D9
330
222
100
AcDbEntity
  8
6_ALL_SURFS
  6
Continuous
 62
     7
100
AcDbLine
 10
345.223257
 20
258.90637
 30
0.0
 11
380.423257
 21
258.90637
 31
0.0
  0
ARC
  5
5DA
330
222
100
AcDbEntity
  8
6_ALL_SURFS
  6
Continuous
 62
     7
100
AcDbCircle
 10
380.423257
 20
257.90637
 30
0.0
 40
1.0
100
AcDbArc
 50
0.0
 51
90.0
  0
LINE
  5
5DB
330
222
100
AcDbEntity
  8
6_ALL_SURFS
  6
Continuous
 62
     7
100
AcDbLine
 10
381.423257
 20
257.90637
 30
0.0
 11
381.423257
 21
248.65637
 31
0.0
  0
LINE
  5
5DC
330
222
100
AcDbEntity
  8
6_ALL_SURFS
  6
Continuous
 62
     7
100
AcDbLine
 10
344.223257
 20
231.15637
 30
0.0
 11
344.223257
 21
248.65637
 31
0.0
  0
LINE
  5
5DD
330
222
100
AcDbEntity
  8
6_ALL_SURFS
  6
Continuous
 62
     7
100
AcDbLine
 10
381.423257
 20
231.15637
 30
0.0
 11
381.423257
 21
248.65637
 31
0.0
  0
LINE
  5
5DE
330
222
100
AcDbEntity
  8
6_ALL_SURFS
  6
Continuous
 62
     7
100
AcDbLine
 10
347.61615
 20
230.15637
 30
0.0
 11
345.223257
 21
230.15637
 31
0.0
  0
ARC
  5
5DF
330
222
100
AcDbEntity
  8
6_ALL_SURFS
  6
Continuous
 62
     7
100
AcDbCircle
 10
345.223257
 20
231.15637
 30
0.0
 40
1.0
100
AcDbArc
 50
180.0
 51
270.0
  0
LINE
  5
5E0
330
222
100
AcDbEntity
  8
6_ALL_SURFS
  6
Continuous
 62
     7
100
AcDbLine
 10
380.423257
 20
230.15637
 30
0.0
 11
378.030363
 21
230.15637
 31
0.0
  0
LINE
  5
5E1
330
222
100
AcDbEntity
  8
6_ALL_SURFS
  6
Continuous
 62
     7
100
AcDbLine
 10
375.073257
 20
223.40637
 30
0.0
 11
373.839562
 21
223.40637
 31
0.0
  0
LINE
  5
5E2
330
222
100
AcDbEntity
  8
6_ALL_SURFS
  6
Continuous
 62
     7
100
AcDbLine
 10
351.806952
 20
223.40637
 30
0.0
 11
350.573257
 21
223.40637
 31
0.0
  0
ARC
  5
5E3
330
222
100
AcDbEntity
  8
6_ALL_SURFS
  6
Continuous
 62
     7
100
AcDbCircle
 10
380.423257
 20
231.15637
 30
0.0
 40
1.0
100
AcDbArc
 50
270.0
 51
360.0
  0
ARC
  5
5E4
330
222
100
AcDbEntity
  8
6_ALL_SURFS
  6
Continuous
 62
     7
100
AcDbCircle
 10
375.073257
 20
225.15637
 30
0.0
 40
1.75
100
AcDbArc
 50
270.0
 51
359.00647
  0
ARC
  5
5E5
330
222
100
AcDbEntity
  8
6_ALL_SURFS
  6
Continuous
 62
     7
100
AcDbCircle
 10
349.574994
 20
225.097447
 30
0.0
 40
0.75
100
AcDbArc
 50
135.0
 51
183.37798
  0
ARC
  5
5E6
330
222
100
AcDbEntity
  8
6_ALL_SURFS
  6
Continuous
 62
     7
100
AcDbCircle
 10
350.573257
 20
225.15637
 30
0.0
 40
1.75
100
AcDbArc
 50
183.37798
 51
270.0
  0
ARC
  5
5E7
330
222
100
AcDbEntity
  8
6_ALL_SURFS
  6
Continuous
 62
     7
100
AcDbCircle
 10
376.173091
 20
225.137296
 30
0.0
 40
0.65
100
AcDbArc
 50
359.00647
 51
45.0
  0
ARC
  5
5E8
330
222
100
AcDbEntity
  8
6_ALL_SURFS
  6
Continuous
 62
     7
100
AcDbCircle
 10
378.030363
 20
229.65637
 30
0.0
 40
0.5
100
AcDbArc
 50
90.0
 51
135.0
  0
LINE
  5
5E9
330
222
100
AcDbEntity
  8
6_ALL_SURFS
  6
Continuous
 62
     7
100
AcDbLine
 10
377.67681
 20
230.009923
 30
0.0
 11
376.823257
 21
229.15637
 31
0.0
  0
ARC
  5
5EA
330
222
100
AcDbEntity
  8
6_ALL_SURFS
  6
Continuous
 62
     7
100
AcDbCircle
 10
347.61615
 20
229.65637
 30
0.0
 40
0.5
100
AcDbArc
 50
45.0
 51
90.0
  0
LINE
  5
5EB
330
222
100
AcDbEntity
  8
6_ALL_SURFS
  6
Continuous
 62
     7
100
AcDbLine
 10
348.823257
 20
229.15637
 30
0.0
 11
347.969703
 21
230.009923
 31
0.0
  0
LINE
  5
5EC
330
222
100
AcDbEntity
  8
6_ALL_SURFS
  6
Continuous
 62
     7
100
AcDbLine
 10
376.466581
 20
225.763045
 30
0.0
 11
376.632711
 21
225.596916
 31
0.0
  0
LINE
  5
5ED
330
222
100
AcDbEntity
  8
6_ALL_SURFS
  6
Continuous
 62
     7
100
AcDbLine
 10
349.044664
 20
225.627777
 30
0.0
 11
349.179932
 21
225.763045
 31
0.0
  0
LINE
  5
5EE
330
222
100
AcDbEntity
  8
7_ALL_FEATURES
  6
Continuous
 62
     3
100
AcDbLine
 10
374.823257
 20
222.90637
 30
0.0
 11
373.823257
 21
222.90637
 31
0.0
  0
LINE
  5
5EF
330
222
100
AcDbEntity
  8
7_ALL_FEATURES
  6
Continuous
 62
     3
100
AcDbLine
 10
350.773257
 20
222.90637
 30
0.0
 11
350.373257
 21
222.90637
 31
0.0
  0
LINE
  5
5F0
330
222
100
AcDbEntity
  8
7_ALL_FEATURES
  6
Continuous
 62
     3
100
AcDbLine
 10
375.273257
 20
222.90637
 30
0.0
 11
374.873257
 21
222.90637
 31
0.0
  0
LINE
  5
5F1
330
222
100
AcDbEntity
  8
7_ALL_FEATURES
  6
Continuous
 62
     3
100
AcDbLine
 10
350.373257
 20
222.90637
 30
0.0
 11
349.823257
 21
222.90637
 31
0.0
  0
LINE
  5
5F2
330
222
100
AcDbEntity
  8
7_ALL_FEATURES
  6
Continuous
 62
     3
100
AcDbLine
 10
351.823257
 20
222.90637
 30
0.0
 11
350.823257
 21
222.90637
 31
0.0
  0
LINE
  5
5F3
330
222
100
AcDbEntity
  8
7_ALL_FEATURES
  6
Continuous
 62
     3
100
AcDbLine
 10
375.823257
 20
222.90637
 30
0.0
 11
375.273257
 21
222.90637
 31
0.0
  0
ARC
  5
5F4
330
222
100
AcDbEntity
  8
7_ALL_FEATURES
  6
Continuous
 62
     3
100
AcDbCircle
 10
375.823257
 20
222.40637
 30
0.0
 40
0.5
100
AcDbArc
 50
0.0
 51
90.0
  0
LINE
  5
5F5
330
222
100
AcDbEntity
  8
7_ALL_FEATURES
  6
Continuous
 62
     3
100
AcDbLine
 10
376.323257
 20
214.738079
 30
0.0
 11
376.323257
 21
222.40637
 31
0.0
  0
LINE
  5
5F6
330
222
100
AcDbEntity
  8
7_ALL_FEATURES
  6
Continuous
 62
     3
100
AcDbLine
 10
378.727466
 20
212.58471
 30
0.0
 11
376.764064
 21
213.909042
 31
0.0
  0
ARC
  5
5F7
330
222
100
AcDbEntity
  8
7_ALL_FEATURES
  6
Continuous
 62
     3
100
AcDbCircle
 10
377.323257
 20
214.738079
 30
0.0
 40
1.0
100
AcDbArc
 50
180.0
 51
236.0
  0
ARC
  5
5F8
330
222
100
AcDbEntity
  8
7_ALL_FEATURES
  6
Continuous
 62
     3
100
AcDbCircle
 10
347.757837
 20
211.341154
 30
0.0
 40
1.5
100
AcDbArc
 50
124.0
 51
214.0
  0
LINE
  5
5F9
330
222
100
AcDbEntity
  8
7_ALL_FEATURES
  6
Continuous
 62
     3
100
AcDbLine
 10
349.18251
 20
206.546552
 30
0.0
 11
346.514281
 21
210.502365
 31
0.0
  0
LINE
  5
5FA
330
222
100
AcDbEntity
  8
7_ALL_FEATURES
  6
Continuous
 62
     3
100
AcDbLine
 10
379.132233
 20
210.502365
 30
0.0
 11
376.464003
 21
206.546552
 31
0.0
  0
LINE
  5
5FB
330
222
100
AcDbEntity
  8
7_ALL_FEATURES
  6
Continuous
 62
     3
100
AcDbLine
 10
375.673185
 20
205.374115
 30
0.0
 11
376.464003
 21
206.546552
 31
0.0
  0
LINE
  5
5FC
330
222
100
AcDbEntity
  8
7_ALL_FEATURES
  6
Continuous
 62
     3
100
AcDbLine
 10
374.650741
 20
203.858281
 30
0.0
 11
375.673185
 21
205.374115
 31
0.0
  0
LINE
  5
5FD
330
222
100
AcDbEntity
  8
7_ALL_FEATURES
  6
Continuous
 62
     3
100
AcDbLine
 10
374.323174
 20
203.372642
 30
0.0
 11
374.650741
 21
203.858281
 31
0.0
  0
LINE
  5
5FE
330
222
100
AcDbEntity
  8
7_ALL_FEATURES
  6
Continuous
 62
     3
100
AcDbLine
 10
349.18251
 20
206.546552
 30
0.0
 11
349.973329
 21
205.374115
 31
0.0
  0
LINE
  5
5FF
330
222
100
AcDbEntity
  8
7_ALL_FEATURES
  6
Continuous
 62
     3
100
AcDbLine
 10
349.973329
 20
205.374115
 30
0.0
 11
350.995772
 21
203.858281
 31
0.0
  0
LINE
  5
600
330
222
100
AcDbEntity
  8
7_ALL_FEATURES
  6
Continuous
 62
     3
100
AcDbLine
 10
350.995772
 20
203.858281
 30
0.0
 11
351.32334
 21
203.372642
 31
0.0
  0
ARC
  5
601
330
222
100
AcDbEntity
  8
7_ALL_FEATURES
  6
Continuous
 62
     3
100
AcDbCircle
 10
377.888676
 20
211.341154
 30
0.0
 40
1.5
100
AcDbArc
 50
326.0
 51
56.0
  0
ARC
  5
602
330
222
100
AcDbEntity
  8
7_ALL_FEATURES
  6
Continuous
 62
     3
100
AcDbCircle
 10
349.823257
 20
222.40637
 30
0.0
 40
0.5
100
AcDbArc
 50
90.0
 51
180.0
  0
LINE
  5
603
330
222
100
AcDbEntity
  8
7_ALL_FEATURES
  6
Continuous
 62
     3
100
AcDbLine
 10
349.323257
 20
222.40637
 30
0.0
 11
349.323257
 21
214.738079
 31
0.0
  0
LINE
  5
604
330
222
100
AcDbEntity
  8
7_ALL_FEATURES
  6
Continuous
 62
     3
100
AcDbLine
 10
348.88245
 20
213.909042
 30
0.0
 11
346.919048
 21
212.58471
 31
0.0
  0
ARC
  5
605
330
222
100
AcDbEntity
  8
7_ALL_FEATURES
  6
Continuous
 62
     3
100
AcDbCircle
 10
348.323257
 20
214.738079
 30
0.0
 40
1.0
100
AcDbArc
 50
304.0
 51
360.0
  0
DIMENSION
  5
606
330
222
100
AcDbEntity
  8
0
  6
Continuous
 62
     2
100
AcDbDimension
280
     0
  2
*D1
 10
37.013394
 20
118.886917
 30
0.0
 11
166.334823
 21
118.886917
 31
0.0
 70
   160
  1
260
 71
     2
 42
259.5
 73
     0
 74
     0
 75
     0
  3
DIMSTYLE_1
100
AcDbAlignedDimension
 13
296.513394
 23
126.70364
 33
0.0
 14
37.013394
 24
133.886917
 34
0.0
 50
180.0
100
AcDbRotatedDimension
  0
DIMENSION
  5
607
330
222
100
AcDbEntity
  8
0
  6
Continuous
 62
     2
100
AcDbDimension
280
     0
  2
*D2
 10
311.513394
 20
133.886917
 30
0.0
 11
311.513394
 21
152.058344
 31
0.0
 70
   160
 71
     2
 42
37.2
 73
     0
 74
     0
 75
     0
  3
DIMSTYLE_2
100
AcDbAlignedDimension
 13
306.12237
 23
171.086917
 33
0.0
 14
306.12237
 24
133.886917
 34
0.0
 50
270.0
100
AcDbRotatedDimension
  0
DIMENSION
  5
608
330
222
100
AcDbEntity
  8
0
  6
Continuous
 62
     2
100
AcDbDimension
280
     0
  2
*D3
 10
311.513394
 20
212.15637
 30
0.0
 11
311.513394
 21
235.102794
 31
0.0
 70
   160
 71
     2
 42
46.75
 73
     0
 74
     0
 75
     0
  3
DIMSTYLE_2
100
AcDbAlignedDimension
 13
305.292955
 23
258.90637
 33
0.0
 14
306.12237
 24
212.15637
 34
0.0
 50
270.0
100
AcDbRotatedDimension
  0
DIMENSION
  5
609
330
222
100
AcDbEntity
  8
0
  6
Continuous
 62
     2
100
AcDbDimension
280
     0
  2
*D4
 10
394.659171
 20
203.093045
 30
0.0
 11
394.659171
 21
230.571132
 31
0.0
 70
   160
 71
     2
 42
55.813325
 73
     0
 74
     0
 75
     0
  3
DIMSTYLE_3
100
AcDbAlignedDimension
 13
388.269311
 23
258.90637
 33
0.0
 14
386.343314
 24
203.093045
 34
0.0
 50
270.0
100
AcDbRotatedDimension
  0
INSERT
  5
60A
330
222
100
AcDbEntity
  8
0
  6
Continuous
 62
     2
100
AcDbBlockReference
  2
LOGO2_BL0
 10
334.394648
 20
37.585341
 30
0.0
  0
ACAD_TABLE
  5
60B
102
{ACAD_XDICTIONARY
360
662
102
}
330
222
100
AcDbEntity
  8
0
  6
Continuous
 62
     2
160
              3296
310
E00C000017000000880000001D000000000000000000F03F000000000000000000000000000000003E4467FD180974400000000000000000000000000000F03F0000000000000000494C3B71EC8A494000000000000000000000000000000000000000000000F03F0000000000000000000000000000000000000000000000
310
000000000000000000000000000000F03F54000000200000000200000000000000000000000000000000000000000000000000000000000000008056400000000000000000000000000000000000000000000000000000000000000000000000000000F03F5400000020000000020000000000000000000000000000000000
310
00000000000000000000000000000000000000000000000044C0000000000000000000000000000000000000000000000000000000000000F03F5400000020000000020000000000000000003E4000000000000018C00000000000000000000000000080564000000000000018C00000000000000000000000000000000000
310
00000000000000000000000000F03F5400000020000000020000000000000000003E4000000000000028C00000000000000000000000000080564000000000000028C0000000000000000000000000000000000000000000000000000000000000F03F5400000020000000020000000000000000003E4000000000000036C0
310
0000000000000000000000000080564000000000000036C0000000000000000000000000000000000000000000000000000000000000F03F54000000200000000200000000000000000000000000000000003BC0000000000000000000000000008056400000000000003BC000000000000000000000000000000000000000
310
0000000000000000000000F03F540000002000000002000000000000000000000000000000000044C00000000000000000000000000080564000000000000044C0000000000000000000000000000000000000000000000000000000000000F03F5400000020000000020000000000000000003E4000000000000000000000
310
0000000000000000000000003E400000000000003BC0000000000000000000000000000000000000000000000000000000000000F03F540000002000000002000000000000000080514000000000000000000000000000000000000000000080514000000000000028C0000000000000000000000000000000000000000000
310
000000000000000000F03F540000002000000002000000000000000080564000000000000000000000000000000000000000000080564000000000000044C0000000000000000000000000000000000000000000000000000000000000F03F0C0000001000000024000000CC00000026000000C74B378941503F404E621058
310
393412C0000000000000000000000000000000000000000000000000000000000000F03F000000000000F03F000000000000000000000000000000003500370031005F0043005F00300037003800000012000000010000000000000000000840000000000000F03F0000000000000000000000000000F03F00000000000000
310
00000000000000000000000000000000000000000000000000000000000000000061007200690061006C002E00740074006600000000000000C800000026000000C2F5285C8FC6514075931804560E13C0000000000000000000000000000000000000000000000000000000000000F03F000000000000F03F000000000000
310
000000000000000000005200650076003A0030003100000000000C000000010000000000000000000C40000000000000F03F0000000000000000000000000000F03F0000000000000000000000000000000000000000000000000000000000000000000000000000000061007200690061006C002E00740074006600000000
310
000000CC00000026000000FA7E6ABC74433F405839B4C8769E26C0000000000000000000000000000000000000000000000000000000000000F03F000000000000F03F000000000000000000000000000000005300630061006C0065003A0031003A003100000012000000010000000000000000000C40000000000000F03F
310
0000000000000000000000000000F03F0000000000000000000000000000000000000000000000000000000000000000000000000000000061007200690061006C002E00740074006600000000000000C0000000260000003333333333DF5140BA490C022B8725C00000000000000000000000000000000000000000000000
310
00000000000000F03F000000000000F03F00000000000000000000000000000000410033000000000004000000010000000000000000000C40000000000000F03F0000000000000000000000000000F03F00000000000000000000000000000000000000000000000000000000000000000000000000000000610072006900
310
61006C002E00740074006600000000000000C8000000260000000AD7A3703D1A3F40AC1C5A643BCF32C0000000000000000000000000000000000000000000000000000000000000F03F000000000000F03F00000000000000000000000000000000520049004F00200032002E00300000000E000000010000000000000000
310
000C40000000000000F03F0000000000000000000000000000F03F0000000000000000000000000000000000000000000000000000000000000000000000000000000061007200690061006C002E00740074006600000000000000D40000002600000048E17A14AE373F40C3F5285C8FC239C0000000000000000000000000
310
000000000000000000000000000000000000F03F000000000000F03F0000000000000000000000000000000044004100540045003A00300039002E00300031002E003100390000001A000000010000000000000000000440000000000000F03F0000000000000000000000000000F03F000000000000000000000000000000
310
0000000000000000000000000000000000000000000000000061007200690061006C002E007400740066000000000000002401000026000000CDCCCCCCCCCCF73F0000000000903DC0000000000000000000000000000000000000000000000000000000000000F03F000000000000F03F0000000000000000000000000000
310
000041006E007900200069006E00740065006700720061006C0020006F00720020007000610072007400690061006C00200072006500700072006F00640075006300740069006F006E00730020006100720065002000700072006F006800690062006900740065006400000000006800000001000000000000000000024000
310
0000000000F03F0000000000000000000000000000F03F0000000000000000000000000000000000000000000000000000000000000000000000000000000061007200690061006C002E007400740066000000000000002C01000026000000FED478E926B1F73F37894160E57C40C000000000000000000000000000000000
310
0000000000000000000000000000F03F000000000000F03F0000000000000000000000000000000077006900740068006F007500740020007000720069006F007200200061007500740068006F007200690073006100740069006F006E0020006F00660020004C002000260020004C0020004C007500630065002000260020
310
004C006900670068007400200073002E0072002E006C002E002C00000072000000010000000000000000000240000000000000F03F0000000000000000000000000000F03F0000000000000000000000000000000000000000000000000000000000000000000000000000000061007200690061006C002E00740074006600
310
0000000000000401000026000000C1CAA145B673F43F4F1E166A4D3142C0000000000000000000000000000000000000000000000000000000000000F03F000000000000F03F0000000000000000000000000000000069006E0020006100630063006F007200640061006E0063006500200077006900740068002000740068
310
00650020006C0061007700200069006E00200066006F007200630065002E000000000048000000010000000000000000000240000000000000F03F0000000000000000000000000000F03F0000000000000000000000000000000000000000000000000000000000000000000000000000000061007200690061006C002E00
310
740074006600000000000000E400000026000000CDCCCCCCCCCCF73F302AA913D0E043C0000000000000000000000000000000000000000000000000000000000000F03F000000000000F03F0000000000000000000000000000000041006C006C002000720069006700680074007300200072006500730065007200760065
310
0064002E000000000028000000010000000000000000000240000000000000F03F0000000000000000000000000000F03F0000000000000000000000000000000000000000000000000000000000000000000000000000000061007200690061006C002E00740074006600000000000000080000001F000000
100
AcDbBlockReference
  2
*T6
 10
320.568601
 20
51.085341
 30
0.0
100
AcDbTable
342
634
343
22A
 11
1.0
 21
0.0
 31
0.0
 90
       22
 91
        5
 92
        5
 93
        0
 94
        0
 95
        0
 96
        0
141
6.0
141
6.0
141
10.0
141
5.0
141
13.0
142
10.0
142
10.0
142
10.0
142
40.0
142
20.0
171
     1
172
     0
173
     0
174
     0
175
     3
176
     4
 91
       32
178
     0
145
0.0
140
3.5
 92
        0
301
CELL_VALUE
 93
        2
 90
        4
  1
 
 94
        0
300

302
 
304
ACVALUE_END
171
     1
172
     0
173
     1
174
     0
175
     1
176
     1
 91
        0
178
     0
145
0.0
 92
        0
301
CELL_VALUE
 93
        3
 90
        0
 91
        0
 94
        0
300

302

304
ACVALUE_END
171
     1
172
     0
173
     1
174
     0
175
     1
176
     1
 91
        0
178
     0
145
0.0
 92
        0
301
CELL_VALUE
 93
        3
 90
        0
 91
        0
 94
        0
300

302

304
ACVALUE_END
171
     1
172
     0
173
     0
174
     0
175
     1
176
     1
 91
       49
178
     0
145
0.0
170
     4
  7
TEXTSTYLE_2
140
3.0
 92
        0
301
CELL_VALUE
 93
        2
 90
        4
  1
571_C_078
 94
        0
300

302
571_C_078
304
ACVALUE_END
171
     1
172
     0
173
     0
174
     0
175
     1
176
     1
 91
       49
178
     0
145
0.0
170
     4
  7
TEXTSTYLE_2
140
3.5
 92
        0
301
CELL_VALUE
 93
        2
 90
        4
  1
Rev:01
 94
        0
300

302
Rev:01
304
ACVALUE_END
171
     1
172
     0
173
     1
174
     0
175
     1
176
     1
 91
        0
178
     0
145
0.0
 92
        0
301
CELL_VALUE
 93
        3
 90
        0
 91
        0
 94
        0
300

302

304
ACVALUE_END
171
     1
172
     0
173
     1
174
     0
175
     1
176
     1
 91
        0
178
     0
145
0.0
 92
        0
301
CELL_VALUE
 93
        3
 90
        0
 91
        0
 94
        0
300

302

304
ACVALUE_END
171
     1
172
     0
173
     1
174
     0
175
     1
176
     1
 91
        0
178
     0
145
0.0
 92
        0
301
CELL_VALUE
 93
        3
 90
        0
 91
        0
 94
        0
300

302

304
ACVALUE_END
171
     1
172
     0
173
     0
174
     0
175
     1
176
     1
 91
       49
178
     0
145
0.0
170
     1
  7
TEXTSTYLE_2
140
3.5
 92
        0
301
CELL_VALUE
 93
        2
 90
        4
  1
Scale:1:1
 94
        0
300

302
Scale:1:1
304
ACVALUE_END
171
     1
172
     0
173
     0
174
     0
175
     1
176
     1
 91
       49
178
     0
145
0.0
170
     4
  7
TEXTSTYLE_2
140
3.5
 92
        0
301
CELL_VALUE
 93
        2
 90
        4
  1
A3
 94
        0
300

302
A3
304
ACVALUE_END
171
     1
172
     0
173
     1
174
     0
175
     1
176
     1
 91
        0
178
     0
145
0.0
 92
        0
301
CELL_VALUE
 93
        3
 90
        0
 91
        0
 94
        0
300

302

304
ACVALUE_END
171
     1
172
     0
173
     1
174
     0
175
     1
176
     1
 91
        0
178
     0
145
0.0
 92
        0
301
CELL_VALUE
 93
        3
 90
        0
 91
        0
 94
        0
300

302

304
ACVALUE_END
171
     1
172
     0
173
     1
174
     0
175
     1
176
     1
 91
        0
178
     0
145
0.0
 92
        0
301
CELL_VALUE
 93
        3
 90
        0
 91
        0
 94
        0
300

302

304
ACVALUE_END
171
     1
172
     0
173
     0
174
     0
175
     2
176
     1
 91
       49
178
     0
145
0.0
170
     4
  7
TEXTSTYLE_2
140
3.5
 92
        0
301
CELL_VALUE
 93
        2
 90
        4
  1
RIO 2.0
 94
        0
300

302
RIO 2.0
304
ACVALUE_END
171
     1
172
     0
173
     1
174
     0
175
     1
176
     1
 91
        0
178
     0
145
0.0
 92
        0
301
CELL_VALUE
 93
        3
 90
        0
 91
        0
 94
        0
300

302

304
ACVALUE_END
171
     1
172
     0
173
     1
174
     0
175
     1
176
     1
 91
        0
178
     0
145
0.0
 92
        0
301
CELL_VALUE
 93
        3
 90
        0
 91
        0
 94
        0
300

302

304
ACVALUE_END
171
     1
172
     0
173
     1
174
     0
175
     1
176
     1
 91
        0
178
     0
145
0.0
 92
        0
301
CELL_VALUE
 93
        3
 90
        0
 91
        0
 94
        0
300

302

304
ACVALUE_END
171
     1
172
     0
173
     1
174
     0
175
     1
176
     1
 91
        0
178
     0
145
0.0
 92
        0
301
CELL_VALUE
 93
        3
 90
        0
 91
        0
 94
        0
300

302

304
ACVALUE_END
171
     1
172
     0
173
     0
174
     0
175
     2
176
     1
 91
       49
178
     0
145
0.0
170
     4
  7
TEXTSTYLE_2
140
2.5
 92
        0
301
CELL_VALUE
 93
        2
 90
        4
  1
DATE:09.01.19
 94
        0
300

302
DATE:09.01.19
304
ACVALUE_END
171
     1
172
     0
173
     1
174
     0
175
     1
176
     1
 91
        0
178
     0
145
0.0
 92
        0
301
CELL_VALUE
 93
        3
 90
        0
 91
        0
 94
        0
300

302

304
ACVALUE_END
171
     1
172
     0
173
     0
174
     0
175
     5
176
     1
 91
       49
178
     0
145
0.0
170
     4
  7
TEXTSTYLE_2
140
2.25
 92
        0
301
CELL_VALUE
 93
        2
 90
        4
  1
Any integral or partial reproductions are prohibited \Pwithout prior authorisation of L & L Luce & Light s.r.l., \Pin accordance with the law in force. \PAll rights reserved.
 94
        0
300

302
Any integral or partial reproductions are prohibited \Pwithout prior authorisation of L & L Luce & Light s.r.l., \Pin accordance with the law in force. \PAll rights reserved.
304
ACVALUE_END
171
     1
172
     0
173
     1
174
     0
175
     1
176
     1
 91
        0
178
     0
145
0.0
 92
        0
301
CELL_VALUE
 93
        3
 90
        0
 91
        0
 94
        0
300

302

304
ACVALUE_END
171
     1
172
     0
173
     1
174
     0
175
     1
176
     1
 91
        0
178
     0
145
0.0
 92
        0
301
CELL_VALUE
 93
        3
 90
        0
 91
        0
 94
        0
300

302

304
ACVALUE_END
171
     1
172
     0
173
     1
174
     0
175
     1
176
     1
 91
        0
178
     0
145
0.0
 92
        0
301
CELL_VALUE
 93
        3
 90
        0
 91
        0
 94
        0
300

302

304
ACVALUE_END
171
     1
172
     0
173
     1
174
     0
175
     1
176
     1
 91
        0
178
     0
145
0.0
 92
        0
301
CELL_VALUE
 93
        3
 90
        0
 91
        0
 94
        0
300

302

304
ACVALUE_END
  0
ENDSEC
  0
SECTION
  2
OBJECTS
  0
DICTIONARY
  5
C
330
0
100
AcDbDictionary
281
     1
  3
ACAD_DETAILVIEWSTYLE
350
66B
  3
ACAD_GROUP
350
D
  3
ACAD_IMAGE_DICT
350
65B
  3
ACAD_LAYOUT
350
1A
  3
ACAD_MATERIAL
350
64F
  3
ACAD_MLEADERSTYLE
350
66A
  3
ACAD_MLINESTYLE
350
17
  3
ACAD_PLOTSETTINGS
350
19
  3
ACAD_PLOTSTYLENAME
350
E
  3
ACAD_SCALELIST
350
611
  3
ACAD_SECTIONVIEWSTYLE
350
66C
  3
ACAD_TABLESTYLE
350
633
  3
ACAD_VISUALSTYLE
350
636
  3
ACDB_RECOMPOSE_DATA
350
668
  3
AcDbVariableDictionary
350
664
  3
HOST_DOC_SETTINGS
350
659
  3
MCS_STREAM_DICT
350
655
  0
SUN
  5
658
330
1F4
100
AcDbSun
 90
        1
290
     0
 63
     7
421
 16777215
 40
1.0
291
     1
 91
  2455826
 92
 54000000
292
     0
 70
     2
 71
   256
280
     1
  0
DICTIONARY
  5
662
330
60B
100
AcDbDictionary
280
     1
281
     1
  3
ACAD_XREC_ROUNDTRIP
360
663
  0
DICTIONARY
  5
66B
102
{ACAD_REACTORS
330
C
102
}
330
C
100
AcDbDictionary
281
     1
  0
DICTIONARY
  5
D
102
{ACAD_REACTORS
330
C
102
}
330
C
100
AcDbDictionary
281
     1
  0
DICTIONARY
  5
65B
102
{ACAD_REACTORS
330
C
102
}
330
C
100
AcDbDictionary
281
     1
  0
DICTIONARY
  5
1A
102
{ACAD_REACTORS
330
C
102
}
330
C
100
AcDbDictionary
281
     1
  3
Layout1
350
60E
  3
Model
350
60D
  0
DICTIONARY
  5
64F
102
{ACAD_REACTORS
330
C
102
}
330
C
100
AcDbDictionary
281
     1
  3
ByBlock
350
651
  3
ByLayer
350
650
  3
Global
350
652
  0
DICTIONARY
  5
66A
102
{ACAD_REACTORS
330
C
102
}
330
C
100
AcDbDictionary
281
     1
  0
DICTIONARY
  5
17
102
{ACAD_REACTORS
330
C
102
}
330
C
100
AcDbDictionary
281
     1
  3
Standard
350
18
  0
DICTIONARY
  5
19
102
{ACAD_REACTORS
330
C
102
}
330
C
100
AcDbDictionary
281
     1
  0
ACDBDICTIONARYWDFLT
  5
E
102
{ACAD_REACTORS
330
C
102
}
330
C
100
AcDbDictionary
281
     1
  3
Normal
350
F
100
AcDbDictionaryWithDefault
340
F
  0
DICTIONARY
  5
611
102
{ACAD_REACTORS
330
C
102
}
330
C
100
AcDbDictionary
281
     1
  3
A0
350
612
  3
A1
350
613
  3
A2
350
614
  3
A3
350
615
  3
A4
350
616
  3
A5
350
617
  3
A6
350
618
  3
A7
350
619
  3
A8
350
61A
  3
A9
350
61B
  3
B0
350
61C
  3
B1
350
61D
  3
B2
350
61E
  3
B3
350
61F
  3
B4
350
620
  3
B5
350
621
  3
B6
350
622
  3
B7
350
623
  3
B8
350
624
  3
B9
350
625
  3
C0
350
626
  3
C1
350
627
  3
C2
350
628
  3
C3
350
629
  3
C4
350
62A
  3
C5
350
62B
  3
C6
350
62C
  3
C7
350
62D
  3
C8
350
62E
  3
C9
350
62F
  3
D0
350
630
  3
D1
350
631
  3
D2
350
632
  0
DICTIONARY
  5
66C
102
{ACAD_REACTORS
330
C
102
}
330
C
100
AcDbDictionary
281
     1
  0
DICTIONARY
  5
633
102
{ACAD_REACTORS
330
C
102
}
330
C
100
AcDbDictionary
281
     1
  3
Standard
350
634
  0
DICTIONARY
  5
636
102
{ACAD_REACTORS
330
C
102
}
330
C
100
AcDbDictionary
281
     1
  3
2dWireframe
350
63B
  3
Basic
350
63E
  3
Brighten
350
642
  3
ColorChange
350
646
  3
Conceptual
350
640
  3
Dim
350
641
  3
EdgeColorOff
350
649
  3
Facepattern
350
645
  3
Flat
350
637
  3
FlatWithEdges
350
638
  3
Gouraud
350
639
  3
GouraudWithEdges
350
63A
  3
Hidden
350
63D
  3
JitterOff
350
647
  3
Linepattern
350
644
  3
OverhangOff
350
648
  3
Realistic
350
63F
  3
Shaded
350
64E
  3
Shaded with edges
350
64D
  3
Shades of Gray
350
64A
  3
Sketchy
350
64B
  3
Thicken
350
643
  3
Wireframe
350
63C
  3
X-Ray
350
64C
  0
XRECORD
  5
668
102
{ACAD_REACTORS
330
C
102
}
330
C
100
AcDbXrecord
280
     1
 90
        1
330
60B
330
634
  0
DICTIONARY
  5
664
102
{ACAD_REACTORS
330
C
102
}
330
C
100
AcDbDictionary
281
     1
  3
CANNOSCALE
350
665
  3
CTABLESTYLE
350
669
  0
DICTIONARY
  5
659
102
{ACAD_REACTORS
330
C
102
}
330
C
100
AcDbDictionary
281
     1
  3
NCDocParameters
350
65A
  0
DICTIONARY
  5
655
102
{ACAD_REACTORS
330
C
102
}
330
C
100
AcDbDictionary
281
     1
  3
MC_VERSION_DATA
350
65E
  3
MCS_DOCUMENT_ID
350
656
  3
MCS_PARAMS_DATA
350
65C
  0
XRECORD
  5
663
102
{ACAD_REACTORS
330
662
102
}
330
662
100
AcDbXrecord
280
     1
102
ACAD_ROUNDTRIP_2008_TABLE_ENTITY
360
660
 70
     2
 90
        1
 10
0.0
 20
0.0
 30
0.0
 90
        0
 90
        4
361
661
  0
LAYOUT
  5
60E
102
{ACAD_REACTORS
330
1A
102
}
330
1A
100
AcDbPlotSettings
  1

  2
none_device
  4
ISO_A3_(420.00_x_297.00_MM)
  6

 40
0.0
 41
0.0
 42
0.0
 43
0.0
 44
420.0
 45
297.0
 46
0.0
 47
0.0
 48
0.0
 49
0.0
140
0.0
141
0.0
142
1.0
143
1.0
 70
     0
 72
     1
 73
     0
 74
     0
  7

 75
     0
 76
     0
 77
     2
 78
   300
147
1.0
148
0.0
149
0.0
100
AcDbLayout
  1
Layout1
 70
     0
 71
     1
 10
0.0
 20
0.0
 11
420.0
 21
297.0
 12
0.0
 22
0.0
 32
0.0
 14
0.0
 24
0.0
 34
0.0
 15
0.0
 25
0.0
 35
0.0
146
0.0
 13
0.0
 23
0.0
 33
0.0
 16
1.0
 26
0.0
 36
0.0
 17
0.0
 27
1.0
 37
0.0
 76
     0
330
223
  0
LAYOUT
  5
60D
102
{ACAD_REACTORS
330
1A
102
}
330
1A
100
AcDbPlotSettings
  1

  2
none_device
  4
ISO_A3_(420.00_x_297.00_MM)
  6

 40
0.0
 41
0.0
 42
0.0
 43
0.0
 44
420.0
 45
297.0
 46
0.0
 47
0.0
 48
0.0
 49
0.0
140
0.0
141
0.0
142
1.0
143
1.0
 70
  1024
 72
     1
 73
     0
 74
     0
  7

 75
     0
 76
     0
 77
     2
 78
   300
147
1.0
148
0.0
149
0.0
100
AcDbLayout
  1
Model
 70
     0
 71
     0
 10
0.0
 20
0.0
 11
420.0
 21
297.0
 12
0.0
 22
0.0
 32
0.0
 14
0.0
 24
0.0
 34
0.0
 15
0.0
 25
0.0
 35
0.0
146
0.0
 13
0.0
 23
0.0
 33
0.0
 16
1.0
 26
0.0
 36
0.0
 17
0.0
 27
1.0
 37
0.0
 76
     0
330
222
331
1F4
  0
MATERIAL
  5
651
102
{ACAD_REACTORS
330
64F
102
}
330
64F
100
AcDbMaterial
  1
ByBlock
 72
     1
 94
      127
  0
MATERIAL
  5
650
102
{ACAD_REACTORS
330
64F
102
}
330
64F
100
AcDbMaterial
  1
ByLayer
 72
     1
 94
      127
  0
MATERIAL
  5
652
102
{ACAD_REACTORS
330
64F
102
}
330
64F
100
AcDbMaterial
  1
Global
 72
     1
 94
      127
  0
MLINESTYLE
  5
18
102
{ACAD_REACTORS
330
17
102
}
330
17
100
AcDbMlineStyle
  2
STANDARD
 70
     0
  3

 62
   256
 51
90.0
 52
90.0
 71
     2
 49
0.5
 62
   256
  6
BYLAYER
 49
-0.5
 62
   256
  6
BYLAYER
  0
ACDBPLACEHOLDER
  5
F
102
{ACAD_REACTORS
330
E
102
}
330
E
  0
SCALE
  5
612
102
{ACAD_REACTORS
330
611
102
}
330
611
100
AcDbScale
 70
     0
300
1:1
140
1.0
141
1.0
290
     1
  0
SCALE
  5
613
102
{ACAD_REACTORS
330
611
102
}
330
611
100
AcDbScale
 70
     0
300
1:2
140
1.0
141
2.0
290
     0
  0
SCALE
  5
614
102
{ACAD_REACTORS
330
611
102
}
330
611
100
AcDbScale
 70
     0
300
1:4
140
1.0
141
4.0
290
     0
  0
SCALE
  5
615
102
{ACAD_REACTORS
330
611
102
}
330
611
100
AcDbScale
 70
     0
300
1:5
140
1.0
141
5.0
290
     0
  0
SCALE
  5
616
102
{ACAD_REACTORS
330
611
102
}
330
611
100
AcDbScale
 70
     0
300
1:8
140
1.0
141
8.0
290
     0
  0
SCALE
  5
617
102
{ACAD_REACTORS
330
611
102
}
330
611
100
AcDbScale
 70
     0
300
1:10
140
1.0
141
10.0
290
     0
  0
SCALE
  5
618
102
{ACAD_REACTORS
330
611
102
}
330
611
100
AcDbScale
 70
     0
300
1:16
140
1.0
141
16.0
290
     0
  0
SCALE
  5
619
102
{ACAD_REACTORS
330
611
102
}
330
611
100
AcDbScale
 70
     0
300
1:20
140
1.0
141
20.0
290
     0
  0
SCALE
  5
61A
102
{ACAD_REACTORS
330
611
102
}
330
611
100
AcDbScale
 70
     0
300
1:30
140
1.0
141
30.0
290
     0
  0
SCALE
  5
61B
102
{ACAD_REACTORS
330
611
102
}
330
611
100
AcDbScale
 70
     0
300
1:40
140
1.0
141
40.0
290
     0
  0
SCALE
  5
61C
102
{ACAD_REACTORS
330
611
102
}
330
611
100
AcDbScale
 70
     0
300
1:50
140
1.0
141
50.0
290
     0
  0
SCALE
  5
61D
102
{ACAD_REACTORS
330
611
102
}
330
611
100
AcDbScale
 70
     0
300
1:100
140
1.0
141
100.0
290
     0
  0
SCALE
  5
61E
102
{ACAD_REACTORS
330
611
102
}
330
611
100
AcDbScale
 70
     0
300
2:1
140
2.0
141
1.0
290
     0
  0
SCALE
  5
61F
102
{ACAD_REACTORS
330
611
102
}
330
611
100
AcDbScale
 70
     0
300
4:1
140
4.0
141
1.0
290
     0
  0
SCALE
  5
620
102
{ACAD_REACTORS
330
611
102
}
330
611
100
AcDbScale
 70
     0
300
8:1
140
8.0
141
1.0
290
     0
  0
SCALE
  5
621
102
{ACAD_REACTORS
330
611
102
}
330
611
100
AcDbScale
 70
     0
300
10:1
140
10.0
141
1.0
290
     0
  0
SCALE
  5
622
102
{ACAD_REACTORS
330
611
102
}
330
611
100
AcDbScale
 70
     0
300
100:1
140
100.0
141
1.0
290
     0
  0
SCALE
  5
623
102
{ACAD_REACTORS
330
611
102
}
330
611
100
AcDbScale
 70
     0
300
1/128" = 1'-0"
140
0.007812
141
12.0
290
     0
  0
SCALE
  5
624
102
{ACAD_REACTORS
330
611
102
}
330
611
100
AcDbScale
 70
     0
300
1/64" = 1'-0"
140
0.015625
141
12.0
290
     0
  0
SCALE
  5
625
102
{ACAD_REACTORS
330
611
102
}
330
611
100
AcDbScale
 70
     0
300
1/32" = 1'-0"
140
0.03125
141
12.0
290
     0
  0
SCALE
  5
626
102
{ACAD_REACTORS
330
611
102
}
330
611
100
AcDbScale
 70
     0
300
1/16" = 1'-0"
140
0.0625
141
12.0
290
     0
  0
SCALE
  5
627
102
{ACAD_REACTORS
330
611
102
}
330
611
100
AcDbScale
 70
     0
300
3/32" = 1'-0"
140
0.09375
141
12.0
290
     0
  0
SCALE
  5
628
102
{ACAD_REACTORS
330
611
102
}
330
611
100
AcDbScale
 70
     0
300
1/8" = 1'-0"
140
0.125
141
12.0
290
     0
  0
SCALE
  5
629
102
{ACAD_REACTORS
330
611
102
}
330
611
100
AcDbScale
 70
     0
300
3/16" = 1'-0"
140
0.1875
141
12.0
290
     0
  0
SCALE
  5
62A
102
{ACAD_REACTORS
330
611
102
}
330
611
100
AcDbScale
 70
     0
300
1/4" = 1'-0"
140
0.25
141
12.0
290
     0
  0
SCALE
  5
62B
102
{ACAD_REACTORS
330
611
102
}
330
611
100
AcDbScale
 70
     0
300
3/8" = 1'-0"
140
0.375
141
12.0
290
     0
  0
SCALE
  5
62C
102
{ACAD_REACTORS
330
611
102
}
330
611
100
AcDbScale
 70
     0
300
1/2" = 1'-0"
140
0.5
141
12.0
290
     0
  0
SCALE
  5
62D
102
{ACAD_REACTORS
330
611
102
}
330
611
100
AcDbScale
 70
     0
300
3/4" = 1'-0"
140
0.75
141
12.0
290
     0
  0
SCALE
  5
62E
102
{ACAD_REACTORS
330
611
102
}
330
611
100
AcDbScale
 70
     0
300
1" = 1'-0"
140
1.0
141
12.0
290
     0
  0
SCALE
  5
62F
102
{ACAD_REACTORS
330
611
102
}
330
611
100
AcDbScale
 70
     0
300
1-1/2" = 1'-0"
140
1.5
141
12.0
290
     0
  0
SCALE
  5
630
102
{ACAD_REACTORS
330
611
102
}
330
611
100
AcDbScale
 70
     0
300
3" = 1'-0"
140
3.0
141
12.0
290
     0
  0
SCALE
  5
631
102
{ACAD_REACTORS
330
611
102
}
330
611
100
AcDbScale
 70
     0
300
6" = 1'-0"
140
6.0
141
12.0
290
     0
  0
SCALE
  5
632
102
{ACAD_REACTORS
330
611
102
}
330
611
100
AcDbScale
 70
     0
300
1'-0" = 1'-0"
140
12.0
141
12.0
290
     0
  0
TABLESTYLE
  5
634
102
{ACAD_REACTORS
330
633
102
}
102
{ACAD_XDICTIONARY
360
666
102
}
330
633
100
AcDbTableStyle
  3
Standard
 70
     0
 71
     0
 40
0.06
 41
0.06
280
     0
281
     0
  7
STANDARD
140
4.5
170
     2
 62
     0
 63
   257
283
     0
 90
        4
 91
        0
  1

274
    -2
284
     1
 64
     0
275
    -2
285
     1
 65
     0
276
    -2
286
     1
 66
     0
277
    -2
287
     1
 67
     0
278
    -2
288
     1
 68
     0
279
    -2
289
     1
 69
     0
  7
STANDARD
140
6.0
170
     5
 62
     0
 63
   257
283
     0
 90
        4
 91
        0
  1

274
    -2
284
     1
 64
     0
275
    -2
285
     1
 65
     0
276
    -2
286
     1
 66
     0
277
    -2
287
     1
 67
     0
278
    -2
288
     1
 68
     0
279
    -2
289
     1
 69
     0
  7
STANDARD
140
4.5
170
     5
 62
     0
 63
   257
283
     0
 90
        4
 91
        0
  1

274
    -2
284
     1
 64
     0
275
    -2
285
     1
 65
     0
276
    -2
286
     1
 66
     0
277
    -2
287
     1
 67
     0
278
    -2
288
     1
 68
     0
279
    -2
289
     1
 69
     0
  0
VISUALSTYLE
  5
63B
102
{ACAD_REACTORS
330
636
102
}
330
636
100
AcDbVisualStyle
  2
2dWireframe
 70
     4
177
     3
291
     0
 70
    58
 90
        0
176
     1
 90
        2
176
     1
 90
        0
176
     1
 90
        0
176
     1
 40
0.6
176
     1
 40
30.0
176
     1
 62
     7
420
 16777215
176
     1
 90
        1
176
     1
 90
        4
176
     1
 62
     7
176
     1
 62
   257
176
     1
 90
        1
176
     1
 90
        1
176
     1
 40
1.0
176
     1
 90
        0
176
     1
 62
   257
176
     1
 40
1.0
176
     1
 90
        1
176
     1
 90
        6
176
     1
 90
        2
176
     1
 62
     7
176
     1
 90
        5
176
     1
 90
        0
176
     1
 90
        0
176
     1
290
     0
176
     1
 90
        1
176
     1
 40
0.0
176
     1
 90
        0
176
     1
290
     1
176
     1
290
     1
176
     1
290
     0
176
     1
290
     0
176
     1
290
     0
176
     1
290
     0
176
     1
290
     0
176
     1
290
     0
176
     1
290
     0
176
     1
 90
       50
176
     1
 40
0.0
176
     1
 40
1.0
176
     1
 90
        0
176
     1
 62
    18
420
        0
176
     1
 90
       50
176
     1
 90
        3
176
     1
 62
     5
420
      255
176
     1
290
     0
176
     1
 90
       50
176
     1
 90
       50
176
     1
 90
       50
176
     1
290
     0
176
     1
 90
       50
176
     1
 62
   256
176
     0
 40
1.0
176
     0
 90
        2
176
     1
  1
strokes_ogs.tif
176
     1
290
     0
176
     1
 40
1.0
176
     1
 40
1.0
176
     1
  0
VISUALSTYLE
  5
63E
102
{ACAD_REACTORS
330
636
102
}
330
636
100
AcDbVisualStyle
  2
Basic
 70
     7
177
     3
291
     1
 70
    58
 90
        1
176
     1
 90
        0
176
     1
 90
        1
176
     1
 90
        0
176
     1
 40
0.6
176
     1
 40
30.0
176
     1
 62
     7
420
 16777215
176
     1
 90
        0
176
     1
 90
        4
176
     1
 62
     7
176
     1
 62
   257
176
     1
 90
        1
176
     1
 90
        1
176
     1
 40
1.0
176
     1
 90
        8
176
     1
 62
     7
176
     1
 40
1.0
176
     1
 90
        1
176
     1
 90
        6
176
     1
 90
        2
176
     1
 62
     7
176
     1
 90
        5
176
     1
 90
        0
176
     1
 90
        0
176
     1
290
     0
176
     1
 90
        1
176
     1
 40
0.0
176
     1
 90
        0
176
     1
290
     0
176
     1
290
     1
176
     1
290
     1
176
     1
290
     0
176
     1
290
     0
176
     1
290
     0
176
     1
290
     0
176
     1
290
     0
176
     1
290
     0
176
     1
 90
       50
176
     1
 40
0.0
176
     1
 40
1.0
176
     1
 90
        0
176
     1
 62
    18
420
        0
176
     1
 90
       50
176
     1
 90
        3
176
     1
 62
     5
420
      255
176
     1
290
     0
176
     1
 90
       50
176
     1
 90
       50
176
     1
 90
       50
176
     1
290
     0
176
     1
 90
       50
176
     1
 62
   256
176
     0
 40
1.0
176
     0
 90
        2
176
     1
  1
strokes_ogs.tif
176
     1
290
     0
176
     1
 40
1.0
176
     1
 40
1.0
176
     1
  0
VISUALSTYLE
  5
642
102
{ACAD_REACTORS
330
636
102
}
330
636
100
AcDbVisualStyle
  2
Brighten
 70
    12
177
     3
291
     1
 70
    58
 90
        2
176
     1
 90
        2
176
     1
 90
        0
176
     1
 90
        0
176
     1
 40
0.6
176
     1
 40
30.0
176
     1
 62
     7
420
 16777215
176
     1
 90
        1
176
     1
 90
        4
176
     1
 62
     7
176
     1
 62
   257
176
     1
 90
        1
176
     1
 90
        1
176
     1
 40
1.0
176
     1
 90
        8
176
     1
 62
     7
176
     1
 40
1.0
176
     1
 90
        1
176
     1
 90
        6
176
     1
 90
        2
176
     1
 62
     7
176
     1
 90
        5
176
     1
 90
        0
176
     1
 90
        0
176
     1
290
     0
176
     1
 90
        1
176
     1
 40
50.0
176
     1
 90
        0
176
     1
290
     0
176
     1
290
     1
176
     1
290
     1
176
     1
290
     0
176
     1
290
     0
176
     1
290
     0
176
     1
290
     0
176
     1
290
     0
176
     1
290
     0
176
     1
 90
       50
176
     1
 40
0.0
176
     1
 40
1.0
176
     1
 90
        0
176
     1
 62
    18
420
        0
176
     1
 90
       50
176
     1
 90
        3
176
     1
 62
     5
420
      255
176
     1
290
     0
176
     1
 90
       50
176
     1
 90
       50
176
     1
 90
       50
176
     1
290
     0
176
     1
 90
       50
176
     1
 62
   256
176
     0
 40
1.0
176
     0
 90
        2
176
     1
  1
strokes_ogs.tif
176
     1
290
     0
176
     1
 40
1.0
176
     1
 40
1.0
176
     1
  0
VISUALSTYLE
  5
646
102
{ACAD_REACTORS
330
636
102
}
330
636
100
AcDbVisualStyle
  2
ColorChange
 70
    16
177
     3
291
     1
 70
    58
 90
        2
176
     1
 90
        2
176
     1
 90
        3
176
     1
 90
        0
176
     1
 40
0.6
176
     1
 40
30.0
176
     1
 62
     8
420
  8421504
176
     1
 90
        1
176
     1
 90
        4
176
     1
 62
     7
176
     1
 62
   257
176
     1
 90
        1
176
     1
 90
        1
176
     1
 40
1.0
176
     1
 90
        8
176
     1
 62
     8
420
  8421504
176
     1
 40
1.0
176
     1
 90
        1
176
     1
 90
        6
176
     1
 90
        2
176
     1
 62
     7
176
     1
 90
        5
176
     1
 90
        0
176
     1
 90
        0
176
     1
290
     0
176
     1
 90
        1
176
     1
 40
0.0
176
     1
 90
        0
176
     1
290
     0
176
     1
290
     1
176
     1
290
     1
176
     1
290
     0
176
     1
290
     0
176
     1
290
     0
176
     1
290
     0
176
     1
290
     0
176
     1
290
     0
176
     1
 90
       50
176
     1
 40
0.0
176
     1
 40
1.0
176
     1
 90
        0
176
     1
 62
    18
420
        0
176
     1
 90
       50
176
     1
 90
        3
176
     1
 62
     5
420
      255
176
     1
290
     0
176
     1
 90
       50
176
     1
 90
       50
176
     1
 90
       50
176
     1
290
     0
176
     1
 90
       50
176
     1
 62
   256
176
     0
 40
1.0
176
     0
 90
        2
176
     1
  1
strokes_ogs.tif
176
     1
290
     0
176
     1
 40
1.0
176
     1
 40
1.0
176
     1
  0
VISUALSTYLE
  5
640
102
{ACAD_REACTORS
330
636
102
}
330
636
100
AcDbVisualStyle
  2
Conceptual
 70
     9
177
     3
291
     0
 70
    58
 90
        3
176
     1
 90
        2
176
     1
 90
        0
176
     1
 90
        0
176
     1
 40
0.6
176
     1
 40
30.0
176
     1
 62
     7
420
 16777215
176
     1
 90
        2
176
     1
 90
        2
176
     1
 62
     7
176
     1
 62
   257
176
     1
 90
        1
176
     1
 90
        1
176
     1
 40
179.0
176
     1
 90
        8
176
     1
 62
     7
176
     1
 40
1.0
176
     1
 90
        1
176
     1
 90
        6
176
     1
 90
        2
176
     1
 62
     7
176
     1
 90
        3
176
     1
 90
        0
176
     1
 90
        0
176
     1
290
     0
176
     1
 90
        1
176
     1
 40
0.0
176
     1
 90
        0
176
     1
290
     0
176
     1
290
     1
176
     1
290
     1
176
     1
290
     0
176
     1
290
     0
176
     1
290
     0
176
     1
290
     0
176
     1
290
     0
176
     1
290
     0
176
     1
 90
       50
176
     1
 40
0.0
176
     1
 40
1.0
176
     1
 90
        0
176
     1
 62
    18
420
        0
176
     1
 90
       50
176
     1
 90
        3
176
     1
 62
     5
420
      255
176
     1
290
     0
176
     1
 90
       50
176
     1
 90
       50
176
     1
 90
       50
176
     1
290
     0
176
     1
 90
       50
176
     1
 62
   256
176
     0
 40
1.0
176
     0
 90
        2
176
     1
  1
strokes_ogs.tif
176
     1
290
     0
176
     1
 40
1.0
176
     1
 40
1.0
176
     1
  0
VISUALSTYLE
  5
641
102
{ACAD_REACTORS
330
636
102
}
330
636
100
AcDbVisualStyle
  2
Dim
 70
    11
177
     3
291
     1
 70
    58
 90
        2
176
     1
 90
        2
176
     1
 90
        0
176
     1
 90
        0
176
     1
 40
0.6
176
     1
 40
30.0
176
     1
 62
     7
420
 16777215
176
     1
 90
        1
176
     1
 90
        4
176
     1
 62
     7
176
     1
 62
   257
176
     1
 90
        1
176
     1
 90
        1
176
     1
 40
1.0
176
     1
 90
        8
176
     1
 62
     7
176
     1
 40
1.0
176
     1
 90
        1
176
     1
 90
        6
176
     1
 90
        2
176
     1
 62
     7
176
     1
 90
        5
176
     1
 90
        0
176
     1
 90
        0
176
     1
290
     0
176
     1
 90
        1
176
     1
 40
-50.0
176
     1
 90
        0
176
     1
290
     0
176
     1
290
     1
176
     1
290
     1
176
     1
290
     0
176
     1
290
     0
176
     1
290
     0
176
     1
290
     0
176
     1
290
     0
176
     1
290
     0
176
     1
 90
       50
176
     1
 40
0.0
176
     1
 40
1.0
176
     1
 90
        0
176
     1
 62
    18
420
        0
176
     1
 90
       50
176
     1
 90
        3
176
     1
 62
     5
420
      255
176
     1
290
     0
176
     1
 90
       50
176
     1
 90
       50
176
     1
 90
       50
176
     1
290
     0
176
     1
 90
       50
176
     1
 62
   256
176
     0
 40
1.0
176
     0
 90
        2
176
     1
  1
strokes_ogs.tif
176
     1
290
     0
176
     1
 40
1.0
176
     1
 40
1.0
176
     1
  0
VISUALSTYLE
  5
649
102
{ACAD_REACTORS
330
636
102
}
330
636
100
AcDbVisualStyle
  2
EdgeColorOff
 70
    22
177
     3
291
     1
 70
    58
 90
        2
176
     0
 90
        2
176
     0
 90
        0
176
     0
 90
        0
176
     0
 40
0.6
176
     0
 40
30.0
176
     0
 62
     7
420
 16777215
176
     0
 90
        1
176
     0
 90
        4
176
     0
 62
     7
176
     0
 62
   257
176
     0
 90
        1
176
     0
 90
        1
176
     0
 40
1.0
176
     0
 90
        8
176
     2
 62
     7
176
     0
 40
1.0
176
     0
 90
        1
176
     0
 90
        6
176
     0
 90
        2
176
     0
 62
     7
176
     0
 90
        5
176
     0
 90
        0
176
     0
 90
        0
176
     0
290
     0
176
     0
 90
        1
176
     0
 40
0.0
176
     0
 90
        0
176
     0
290
     0
176
     0
290
     1
176
     0
290
     1
176
     0
290
     0
176
     0
290
     0
176
     0
290
     0
176
     0
290
     0
176
     0
290
     0
176
     0
290
     0
176
     0
 90
       50
176
     0
 40
0.0
176
     0
 40
1.0
176
     0
 90
        0
176
     0
 62
    18
420
        0
176
     0
 90
       50
176
     0
 90
        3
176
     0
 62
     5
420
      255
176
     0
290
     0
176
     0
 90
       50
176
     0
 90
       50
176
     0
 90
       50
176
     0
290
     0
176
     0
 90
       50
176
     0
 62
   256
176
     0
 40
1.0
176
     0
 90
        2
176
     0
  1
strokes_ogs.tif
176
     0
290
     0
176
     0
 40
1.0
176
     0
 40
1.0
176
     0
  0
VISUALSTYLE
  5
645
102
{ACAD_REACTORS
330
636
102
}
330
636
100
AcDbVisualStyle
  2
Facepattern
 70
    15
177
     3
291
     1
 70
    58
 90
        2
176
     1
 90
        2
176
     1
 90
        0
176
     1
 90
        0
176
     1
 40
0.6
176
     1
 40
30.0
176
     1
 62
     7
420
 16777215
176
     1
 90
        1
176
     1
 90
        4
176
     1
 62
     7
176
     1
 62
   257
176
     1
 90
        1
176
     1
 90
        1
176
     1
 40
1.0
176
     1
 90
        8
176
     1
 62
     7
176
     1
 40
1.0
176
     1
 90
        1
176
     1
 90
        6
176
     1
 90
        2
176
     1
 62
     7
176
     1
 90
        5
176
     1
 90
        0
176
     1
 90
        0
176
     1
290
     0
176
     1
 90
        1
176
     1
 40
0.0
176
     1
 90
        0
176
     1
290
     0
176
     1
290
     1
176
     1
290
     1
176
     1
290
     0
176
     1
290
     0
176
     1
290
     0
176
     1
290
     0
176
     1
290
     0
176
     1
290
     0
176
     1
 90
       50
176
     1
 40
0.0
176
     1
 40
1.0
176
     1
 90
        0
176
     1
 62
    18
420
        0
176
     1
 90
       50
176
     1
 90
        3
176
     1
 62
     5
420
      255
176
     1
290
     0
176
     1
 90
       50
176
     1
 90
       50
176
     1
 90
       50
176
     1
290
     0
176
     1
 90
       50
176
     1
 62
   256
176
     0
 40
1.0
176
     0
 90
        2
176
     1
  1
strokes_ogs.tif
176
     1
290
     0
176
     1
 40
1.0
176
     1
 40
1.0
176
     1
  0
VISUALSTYLE
  5
637
102
{ACAD_REACTORS
330
636
102
}
330
636
100
AcDbVisualStyle
  2
Flat
 70
     0
177
     3
291
     1
 70
    58
 90
        2
176
     1
 90
        1
176
     1
 90
        1
176
     1
 90
        2
176
     1
 40
0.6
176
     1
 40
30.0
176
     1
 62
     7
420
 16777215
176
     1
 90
        0
176
     1
 90
        0
176
     1
 62
     7
176
     1
 62
   257
176
     1
 90
        1
176
     1
 90
        1
176
     1
 40
1.0
176
     1
 90
        8
176
     1
 62
     7
176
     1
 40
1.0
176
     1
 90
        1
176
     1
 90
        6
176
     1
 90
        2
176
     1
 62
     7
176
     1
 90
        5
176
     1
 90
        0
176
     1
 90
        0
176
     1
290
     0
176
     1
 90
       13
176
     1
 40
0.0
176
     1
 90
        0
176
     1
290
     0
176
     1
290
     1
176
     1
290
     1
176
     1
290
     0
176
     1
290
     0
176
     1
290
     0
176
     1
290
     0
176
     1
290
     0
176
     1
290
     0
176
     1
 90
       50
176
     1
 40
0.0
176
     1
 40
1.0
176
     1
 90
        0
176
     1
 62
    18
420
        0
176
     1
 90
       50
176
     1
 90
        3
176
     1
 62
     5
420
      255
176
     1
290
     0
176
     1
 90
       50
176
     1
 90
       50
176
     1
 90
       50
176
     1
290
     0
176
     1
 90
       50
176
     1
 62
   256
176
     0
 40
1.0
176
     0
 90
        2
176
     1
  1
strokes_ogs.tif
176
     1
290
     0
176
     1
 40
1.0
176
     1
 40
1.0
176
     1
  0
VISUALSTYLE
  5
638
102
{ACAD_REACTORS
330
636
102
}
330
636
100
AcDbVisualStyle
  2
FlatWithEdges
 70
     1
177
     3
291
     1
 70
    58
 90
        2
176
     1
 90
        1
176
     1
 90
        1
176
     1
 90
        2
176
     1
 40
0.6
176
     1
 40
30.0
176
     1
 62
     7
420
 16777215
176
     1
 90
        1
176
     1
 90
        0
176
     1
 62
     7
176
     1
 62
   257
176
     1
 90
        1
176
     1
 90
        1
176
     1
 40
1.0
176
     1
 90
        0
176
     1
 62
   257
176
     1
 40
1.0
176
     1
 90
        1
176
     1
 90
        6
176
     1
 90
        2
176
     1
 62
     7
176
     1
 90
        5
176
     1
 90
        0
176
     1
 90
        0
176
     1
290
     0
176
     1
 90
       13
176
     1
 40
0.0
176
     1
 90
        0
176
     1
290
     0
176
     1
290
     1
176
     1
290
     1
176
     1
290
     0
176
     1
290
     0
176
     1
290
     0
176
     1
290
     0
176
     1
290
     0
176
     1
290
     0
176
     1
 90
       50
176
     1
 40
0.0
176
     1
 40
1.0
176
     1
 90
        0
176
     1
 62
    18
420
        0
176
     1
 90
       50
176
     1
 90
        3
176
     1
 62
     5
420
      255
176
     1
290
     0
176
     1
 90
       50
176
     1
 90
       50
176
     1
 90
       50
176
     1
290
     0
176
     1
 90
       50
176
     1
 62
   256
176
     0
 40
1.0
176
     0
 90
        2
176
     1
  1
strokes_ogs.tif
176
     1
290
     0
176
     1
 40
1.0
176
     1
 40
1.0
176
     1
  0
VISUALSTYLE
  5
639
102
{ACAD_REACTORS
330
636
102
}
330
636
100
AcDbVisualStyle
  2
Gouraud
 70
     2
177
     3
291
     1
 70
    58
 90
        2
176
     1
 90
        2
176
     1
 90
        1
176
     1
 90
        2
176
     1
 40
0.6
176
     1
 40
30.0
176
     1
 62
     7
420
 16777215
176
     1
 90
        0
176
     1
 90
        0
176
     1
 62
     7
176
     1
 62
   257
176
     1
 90
        1
176
     1
 90
        1
176
     1
 40
1.0
176
     1
 90
        0
176
     1
 62
     7
176
     1
 40
1.0
176
     1
 90
        1
176
     1
 90
        6
176
     1
 90
        2
176
     1
 62
     7
176
     1
 90
        5
176
     1
 90
        0
176
     1
 90
        0
176
     1
290
     0
176
     1
 90
       13
176
     1
 40
0.0
176
     1
 90
        0
176
     1
290
     0
176
     1
290
     1
176
     1
290
     1
176
     1
290
     0
176
     1
290
     0
176
     1
290
     0
176
     1
290
     0
176
     1
290
     0
176
     1
290
     0
176
     1
 90
       50
176
     1
 40
0.0
176
     1
 40
1.0
176
     1
 90
        0
176
     1
 62
    18
420
        0
176
     1
 90
       50
176
     1
 90
        3
176
     1
 62
     5
420
      255
176
     1
290
     0
176
     1
 90
       50
176
     1
 90
       50
176
     1
 90
       50
176
     1
290
     0
176
     1
 90
       50
176
     1
 62
   256
176
     0
 40
1.0
176
     0
 90
        2
176
     1
  1
strokes_ogs.tif
176
     1
290
     0
176
     1
 40
1.0
176
     1
 40
1.0
176
     1
  0
VISUALSTYLE
  5
63A
102
{ACAD_REACTORS
330
636
102
}
330
636
100
AcDbVisualStyle
  2
GouraudWithEdges
 70
     3
177
     3
291
     1
 70
    58
 90
        2
176
     1
 90
        2
176
     1
 90
        1
176
     1
 90
        2
176
     1
 40
0.6
176
     1
 40
30.0
176
     1
 62
     7
420
 16777215
176
     1
 90
        1
176
     1
 90
        0
176
     1
 62
     7
176
     1
 62
   257
176
     1
 90
        1
176
     1
 90
        1
176
     1
 40
1.0
176
     1
 90
        0
176
     1
 62
   257
176
     1
 40
1.0
176
     1
 90
        1
176
     1
 90
        6
176
     1
 90
        2
176
     1
 62
     7
176
     1
 90
        5
176
     1
 90
        0
176
     1
 90
        0
176
     1
290
     0
176
     1
 90
       13
176
     1
 40
0.0
176
     1
 90
        0
176
     1
290
     0
176
     1
290
     1
176
     1
290
     1
176
     1
290
     0
176
     1
290
     0
176
     1
290
     0
176
     1
290
     0
176
     1
290
     0
176
     1
290
     0
176
     1
 90
       50
176
     1
 40
0.0
176
     1
 40
1.0
176
     1
 90
        0
176
     1
 62
    18
420
        0
176
     1
 90
       50
176
     1
 90
        3
176
     1
 62
     5
420
      255
176
     1
290
     0
176
     1
 90
       50
176
     1
 90
       50
176
     1
 90
       50
176
     1
290
     0
176
     1
 90
       50
176
     1
 62
   256
176
     0
 40
1.0
176
     0
 90
        2
176
     1
  1
strokes_ogs.tif
176
     1
290
     0
176
     1
 40
1.0
176
     1
 40
1.0
176
     1
  0
VISUALSTYLE
  5
63D
102
{ACAD_REACTORS
330
636
102
}
330
636
100
AcDbVisualStyle
  2
Hidden
 70
     6
177
     3
291
     0
 70
    58
 90
        1
176
     1
 90
        2
176
     1
 90
        2
176
     1
 90
        0
176
     1
 40
0.6
176
     1
 40
30.0
176
     1
 62
     7
420
 16777215
176
     1
 90
        2
176
     1
 90
        2
176
     1
 62
     7
176
     1
 62
   257
176
     1
 90
        2
176
     1
 90
        1
176
     1
 40
40.0
176
     1
 90
        0
176
     1
 62
   257
176
     1
 40
1.0
176
     1
 90
        1
176
     1
 90
        6
176
     1
 90
        2
176
     1
 62
     7
176
     1
 90
        3
176
     1
 90
        0
176
     1
 90
        0
176
     1
290
     0
176
     1
 90
        1
176
     1
 40
0.0
176
     1
 90
        0
176
     1
290
     0
176
     1
290
     1
176
     1
290
     1
176
     1
290
     0
176
     1
290
     0
176
     1
290
     0
176
     1
290
     0
176
     1
290
     0
176
     1
290
     0
176
     1
 90
       50
176
     1
 40
0.0
176
     1
 40
1.0
176
     1
 90
        0
176
     1
 62
    18
420
        0
176
     1
 90
       50
176
     1
 90
        3
176
     1
 62
     5
420
      255
176
     1
290
     0
176
     1
 90
       50
176
     1
 90
       50
176
     1
 90
       50
176
     1
290
     0
176
     1
 90
       50
176
     1
 62
   256
176
     0
 40
1.0
176
     0
 90
        2
176
     1
  1
strokes_ogs.tif
176
     1
290
     0
176
     1
 40
1.0
176
     1
 40
1.0
176
     1
  0
VISUALSTYLE
  5
647
102
{ACAD_REACTORS
330
636
102
}
330
636
100
AcDbVisualStyle
  2
JitterOff
 70
    20
177
     3
291
     1
 70
    58
 90
        2
176
     0
 90
        2
176
     0
 90
        0
176
     0
 90
        0
176
     0
 40
0.6
176
     0
 40
30.0
176
     0
 62
     7
420
 16777215
176
     0
 90
        1
176
     0
 90
        4
176
     0
 62
     7
176
     0
 62
   257
176
     0
 90
        1
176
     0
 90
        1
176
     0
 40
1.0
176
     0
 90
       10
176
     2
 62
     7
176
     0
 40
1.0
176
     0
 90
        1
176
     0
 90
        6
176
     0
 90
        2
176
     0
 62
     7
176
     0
 90
        5
176
     0
 90
        0
176
     0
 90
        0
176
     0
290
     0
176
     0
 90
        1
176
     0
 40
0.0
176
     0
 90
        0
176
     0
290
     0
176
     0
290
     1
176
     0
290
     1
176
     0
290
     0
176
     0
290
     0
176
     0
290
     0
176
     0
290
     0
176
     0
290
     0
176
     0
290
     0
176
     0
 90
       50
176
     0
 40
0.0
176
     0
 40
1.0
176
     0
 90
        0
176
     0
 62
    18
420
        0
176
     0
 90
       50
176
     0
 90
        3
176
     0
 62
     5
420
      255
176
     0
290
     0
176
     0
 90
       50
176
     0
 90
       50
176
     0
 90
       50
176
     0
290
     0
176
     0
 90
       50
176
     0
 62
   256
176
     0
 40
1.0
176
     0
 90
        2
176
     0
  1
strokes_ogs.tif
176
     0
290
     0
176
     0
 40
1.0
176
     0
 40
1.0
176
     0
  0
VISUALSTYLE
  5
644
102
{ACAD_REACTORS
330
636
102
}
330
636
100
AcDbVisualStyle
  2
Linepattern
 70
    14
177
     3
291
     1
 70
    58
 90
        2
176
     1
 90
        2
176
     1
 90
        0
176
     1
 90
        0
176
     1
 40
0.6
176
     1
 40
30.0
176
     1
 62
     7
420
 16777215
176
     1
 90
        1
176
     1
 90
        4
176
     1
 62
     7
176
     1
 62
   257
176
     1
 90
        7
176
     1
 90
        7
176
     1
 40
1.0
176
     1
 90
        8
176
     1
 62
     7
176
     1
 40
1.0
176
     1
 90
        1
176
     1
 90
        6
176
     1
 90
        2
176
     1
 62
     7
176
     1
 90
        5
176
     1
 90
        0
176
     1
 90
        0
176
     1
290
     0
176
     1
 90
        1
176
     1
 40
0.0
176
     1
 90
        0
176
     1
290
     0
176
     1
290
     1
176
     1
290
     1
176
     1
290
     0
176
     1
290
     0
176
     1
290
     0
176
     1
290
     0
176
     1
290
     0
176
     1
290
     0
176
     1
 90
       50
176
     1
 40
0.0
176
     1
 40
1.0
176
     1
 90
        0
176
     1
 62
    18
420
        0
176
     1
 90
       50
176
     1
 90
        3
176
     1
 62
     5
420
      255
176
     1
290
     0
176
     1
 90
       50
176
     1
 90
       50
176
     1
 90
       50
176
     1
290
     0
176
     1
 90
       50
176
     1
 62
   256
176
     0
 40
1.0
176
     0
 90
        2
176
     1
  1
strokes_ogs.tif
176
     1
290
     0
176
     1
 40
1.0
176
     1
 40
1.0
176
     1
  0
VISUALSTYLE
  5
648
102
{ACAD_REACTORS
330
636
102
}
330
636
100
AcDbVisualStyle
  2
OverhangOff
 70
    21
177
     3
291
     1
 70
    58
 90
        2
176
     0
 90
        2
176
     0
 90
        0
176
     0
 90
        0
176
     0
 40
0.6
176
     0
 40
30.0
176
     0
 62
     7
420
 16777215
176
     0
 90
        1
176
     0
 90
        4
176
     0
 62
     7
176
     0
 62
   257
176
     0
 90
        1
176
     0
 90
        1
176
     0
 40
1.0
176
     0
 90
        9
176
     2
 62
     7
176
     0
 40
1.0
176
     0
 90
        1
176
     0
 90
        6
176
     0
 90
        2
176
     0
 62
     7
176
     0
 90
        5
176
     0
 90
        0
176
     0
 90
        0
176
     0
290
     0
176
     0
 90
        1
176
     0
 40
0.0
176
     0
 90
        0
176
     0
290
     0
176
     0
290
     1
176
     0
290
     1
176
     0
290
     0
176
     0
290
     0
176
     0
290
     0
176
     0
290
     0
176
     0
290
     0
176
     0
290
     0
176
     0
 90
       50
176
     0
 40
0.0
176
     0
 40
1.0
176
     0
 90
        0
176
     0
 62
    18
420
        0
176
     0
 90
       50
176
     0
 90
        3
176
     0
 62
     5
420
      255
176
     0
290
     0
176
     0
 90
       50
176
     0
 90
       50
176
     0
 90
       50
176
     0
290
     0
176
     0
 90
       50
176
     0
 62
   256
176
     0
 40
1.0
176
     0
 90
        2
176
     0
  1
strokes_ogs.tif
176
     0
290
     0
176
     0
 40
1.0
176
     0
 40
1.0
176
     0
  0
VISUALSTYLE
  5
63F
102
{ACAD_REACTORS
330
636
102
}
330
636
100
AcDbVisualStyle
  2
Realistic
 70
     8
177
     3
291
     0
 70
    58
 90
        2
176
     1
 90
        3
176
     1
 90
        0
176
     1
 90
        2
176
     1
 40
0.6
176
     1
 40
30.0
176
     1
 62
     7
420
 16777215
176
     1
 90
        0
176
     1
 90
        0
176
     1
 62
     7
176
     1
 62
   257
176
     1
 90
        1
176
     1
 90
        1
176
     1
 40
1.0
176
     1
 90
        8
176
     1
 62
   257
176
     1
 40
1.0
176
     1
 90
        1
176
     1
 90
        6
176
     1
 90
        2
176
     1
 62
     7
176
     1
 90
        3
176
     1
 90
        0
176
     1
 90
        0
176
     1
290
     0
176
     1
 90
       13
176
     1
 40
0.0
176
     1
 90
        0
176
     1
290
     0
176
     1
290
     1
176
     1
290
     1
176
     1
290
     0
176
     1
290
     0
176
     1
290
     0
176
     1
290
     0
176
     1
290
     0
176
     1
290
     0
176
     1
 90
       50
176
     1
 40
0.0
176
     1
 40
1.0
176
     1
 90
        0
176
     1
 62
    18
420
        0
176
     1
 90
       50
176
     1
 90
        3
176
     1
 62
     5
420
      255
176
     1
290
     0
176
     1
 90
       50
176
     1
 90
       50
176
     1
 90
       50
176
     1
290
     0
176
     1
 90
       50
176
     1
 62
   256
176
     0
 40
1.0
176
     0
 90
        2
176
     1
  1
strokes_ogs.tif
176
     1
290
     0
176
     1
 40
1.0
176
     1
 40
1.0
176
     1
  0
VISUALSTYLE
  5
64E
102
{ACAD_REACTORS
330
636
102
}
330
636
100
AcDbVisualStyle
  2
Shaded
 70
    27
177
     3
291
     0
 70
    58
 90
        2
176
     1
 90
        2
176
     1
 90
        1
176
     1
 90
        2
176
     1
 40
0.6
176
     1
 40
30.0
176
     1
 62
     7
420
 16777215
176
     1
 90
        0
176
     1
 90
        4
176
     1
 62
     7
176
     1
 62
   257
176
     1
 90
        1
176
     1
 90
        1
176
     1
 40
1.0
176
     1
 90
        8
176
     1
 62
   257
176
     1
 40
1.0
176
     1
 90
        1
176
     1
 90
        6
176
     1
 90
        2
176
     1
 62
     8
420
  7895160
176
     1
 90
        3
176
     1
 90
        0
176
     1
 90
        0
176
     1
290
     0
176
     1
 90
        5
176
     1
 40
0.0
176
     1
 90
        0
176
     1
290
     0
176
     1
290
     1
176
     1
290
     1
176
     1
290
     0
176
     1
290
     0
176
     1
290
     0
176
     1
290
     0
176
     1
290
     0
176
     1
290
     0
176
     1
 90
       50
176
     1
 40
0.0
176
     1
 40
1.0
176
     1
 90
        0
176
     1
 62
    18
420
        0
176
     1
 90
       50
176
     1
 90
        3
176
     1
 62
     5
420
      255
176
     1
290
     0
176
     1
 90
       50
176
     1
 90
       50
176
     1
 90
       50
176
     1
290
     0
176
     1
 90
       50
176
     1
 62
   256
176
     0
 40
1.0
176
     0
 90
        2
176
     1
  1
strokes_ogs.tif
176
     1
290
     0
176
     1
 40
1.0
176
     1
 40
1.0
176
     1
  0
VISUALSTYLE
  5
64D
102
{ACAD_REACTORS
330
636
102
}
330
636
100
AcDbVisualStyle
  2
Shaded with edges
 70
    26
177
     3
291
     0
 70
    58
 90
        2
176
     1
 90
        2
176
     1
 90
        1
176
     1
 90
        2
176
     1
 40
0.6
176
     1
 40
30.0
176
     1
 62
     7
420
 16777215
176
     1
 90
        1
176
     1
 90
       10
176
     1
 62
     7
176
     1
 62
   257
176
     1
 90
        2
176
     1
 90
        1
176
     1
 40
1.0
176
     1
 90
        8
176
     1
 62
   257
176
     1
 40
1.0
176
     1
 90
        1
176
     1
 90
        6
176
     1
 90
        2
176
     1
 62
     7
176
     1
 90
        3
176
     1
 90
        0
176
     1
 90
        0
176
     1
290
     0
176
     1
 90
        5
176
     1
 40
0.0
176
     1
 90
        0
176
     1
290
     0
176
     1
290
     1
176
     1
290
     1
176
     1
290
     0
176
     1
290
     0
176
     1
290
     0
176
     1
290
     0
176
     1
290
     0
176
     1
290
     0
176
     1
 90
       50
176
     1
 40
0.0
176
     1
 40
1.0
176
     1
 90
        0
176
     1
 62
    18
420
        0
176
     1
 90
       50
176
     1
 90
        3
176
     1
 62
     5
420
      255
176
     1
290
     0
176
     1
 90
       50
176
     1
 90
       50
176
     1
 90
       50
176
     1
290
     0
176
     1
 90
       50
176
     1
 62
   256
176
     0
 40
1.0
176
     0
 90
        2
176
     1
  1
strokes_ogs.tif
176
     1
290
     0
176
     1
 40
1.0
176
     1
 40
1.0
176
     1
  0
VISUALSTYLE
  5
64A
102
{ACAD_REACTORS
330
636
102
}
330
636
100
AcDbVisualStyle
  2
Shades of Gray
 70
    23
177
     3
291
     0
 70
    58
 90
        2
176
     1
 90
        2
176
     1
 90
        3
176
     1
 90
        0
176
     1
 40
0.6
176
     1
 40
30.0
176
     1
 62
     7
420
 16777215
176
     1
 90
        2
176
     1
 90
        2
176
     1
 62
     7
176
     1
 62
     7
176
     1
 90
        1
176
     1
 90
        1
176
     1
 40
40.0
176
     1
 90
        8
176
     1
 62
     7
176
     1
 40
1.0
176
     1
 90
        1
176
     1
 90
        6
176
     1
 90
        2
176
     1
 62
     7
176
     1
 90
        3
176
     1
 90
        0
176
     1
 90
        0
176
     1
290
     0
176
     1
 90
        1
176
     1
 40
0.0
176
     1
 90
        0
176
     1
290
     0
176
     1
290
     1
176
     1
290
     1
176
     1
290
     0
176
     1
290
     0
176
     1
290
     0
176
     1
290
     0
176
     1
290
     0
176
     1
290
     0
176
     1
 90
       50
176
     1
 40
0.0
176
     1
 40
1.0
176
     1
 90
        0
176
     1
 62
    18
420
        0
176
     1
 90
       50
176
     1
 90
        3
176
     1
 62
     5
420
      255
176
     1
290
     0
176
     1
 90
       50
176
     1
 90
       50
176
     1
 90
       50
176
     1
290
     0
176
     1
 90
       50
176
     1
 62
   256
176
     0
 40
1.0
176
     0
 90
        2
176
     1
  1
strokes_ogs.tif
176
     1
290
     0
176
     1
 40
1.0
176
     1
 40
1.0
176
     1
  0
VISUALSTYLE
  5
64B
102
{ACAD_REACTORS
330
636
102
}
330
636
100
AcDbVisualStyle
  2
Sketchy
 70
    24
177
     3
291
     0
 70
    58
 90
        1
176
     1
 90
        2
176
     1
 90
        2
176
     1
 90
        0
176
     1
 40
0.6
176
     1
 40
30.0
176
     1
 62
     7
420
 16777215
176
     1
 90
        2
176
     1
 90
        2
176
     1
 62
     7
176
     1
 62
     7
176
     1
 90
        1
176
     1
 90
        1
176
     1
 40
40.0
176
     1
 90
       11
176
     1
 62
     7
176
     1
 40
1.0
176
     1
 90
        1
176
     1
 90
        6
176
     1
 90
        2
176
     1
 62
     7
176
     1
 90
        6
176
     1
 90
        0
176
     1
 90
        0
176
     1
290
     0
176
     1
 90
        1
176
     1
 40
0.0
176
     1
 90
        0
176
     1
290
     0
176
     1
290
     1
176
     1
290
     1
176
     1
290
     0
176
     1
290
     0
176
     1
290
     0
176
     1
290
     0
176
     1
290
     0
176
     1
290
     0
176
     1
 90
       50
176
     1
 40
0.0
176
     1
 40
1.0
176
     1
 90
        0
176
     1
 62
    18
420
        0
176
     1
 90
       50
176
     1
 90
        3
176
     1
 62
     5
420
      255
176
     1
290
     0
176
     1
 90
       50
176
     1
 90
       50
176
     1
 90
       50
176
     1
290
     0
176
     1
 90
       50
176
     1
 62
   256
176
     0
 40
1.0
176
     0
 90
        2
176
     1
  1
strokes_ogs.tif
176
     1
290
     0
176
     1
 40
1.0
176
     1
 40
1.0
176
     1
  0
VISUALSTYLE
  5
643
102
{ACAD_REACTORS
330
636
102
}
330
636
100
AcDbVisualStyle
  2
Thicken
 70
    13
177
     3
291
     1
 70
    58
 90
        2
176
     1
 90
        2
176
     1
 90
        0
176
     1
 90
        0
176
     1
 40
0.6
176
     1
 40
30.0
176
     1
 62
     7
420
 16777215
176
     1
 90
        1
176
     1
 90
        4
176
     1
 62
     7
176
     1
 62
   257
176
     1
 90
        1
176
     1
 90
        1
176
     1
 40
1.0
176
     1
 90
       12
176
     1
 62
     7
176
     1
 40
1.0
176
     1
 90
        1
176
     1
 90
        6
176
     1
 90
        2
176
     1
 62
     7
176
     1
 90
        5
176
     1
 90
        0
176
     1
 90
        0
176
     1
290
     0
176
     1
 90
        1
176
     1
 40
0.0
176
     1
 90
        0
176
     1
290
     0
176
     1
290
     1
176
     1
290
     1
176
     1
290
     0
176
     1
290
     0
176
     1
290
     0
176
     1
290
     0
176
     1
290
     0
176
     1
290
     0
176
     1
 90
       50
176
     1
 40
0.0
176
     1
 40
1.0
176
     1
 90
        0
176
     1
 62
    18
420
        0
176
     1
 90
       50
176
     1
 90
        3
176
     1
 62
     5
420
      255
176
     1
290
     0
176
     1
 90
       50
176
     1
 90
       50
176
     1
 90
       50
176
     1
290
     0
176
     1
 90
       50
176
     1
 62
   256
176
     0
 40
1.0
176
     0
 90
        2
176
     1
  1
strokes_ogs.tif
176
     1
290
     0
176
     1
 40
1.0
176
     1
 40
1.0
176
     1
  0
VISUALSTYLE
  5
63C
102
{ACAD_REACTORS
330
636
102
}
330
636
100
AcDbVisualStyle
  2
Wireframe
 70
     5
177
     3
291
     0
 70
    58
 90
        0
176
     1
 90
        2
176
     1
 90
        0
176
     1
 90
        0
176
     1
 40
0.6
176
     1
 40
30.0
176
     1
 62
     7
420
 16777215
176
     1
 90
        1
176
     1
 90
        4
176
     1
 62
     7
176
     1
 62
   257
176
     1
 90
        1
176
     1
 90
        1
176
     1
 40
1.0
176
     1
 90
        0
176
     1
 62
   257
176
     1
 40
1.0
176
     1
 90
        1
176
     1
 90
        6
176
     1
 90
        2
176
     1
 62
     7
176
     1
 90
        3
176
     1
 90
        0
176
     1
 90
        0
176
     1
290
     0
176
     1
 90
        1
176
     1
 40
0.0
176
     1
 90
        0
176
     1
290
     0
176
     1
290
     1
176
     1
290
     1
176
     1
290
     0
176
     1
290
     0
176
     1
290
     0
176
     1
290
     0
176
     1
290
     0
176
     1
290
     0
176
     1
 90
       50
176
     1
 40
0.0
176
     1
 40
1.0
176
     1
 90
        0
176
     1
 62
    18
420
        0
176
     1
 90
       50
176
     1
 90
        3
176
     1
 62
     5
420
      255
176
     1
290
     0
176
     1
 90
       50
176
     1
 90
       50
176
     1
 90
       50
176
     1
290
     0
176
     1
 90
       50
176
     1
 62
   256
176
     0
 40
1.0
176
     0
 90
        2
176
     1
  1
strokes_ogs.tif
176
     1
290
     0
176
     1
 40
1.0
176
     1
 40
1.0
176
     1
  0
VISUALSTYLE
  5
64C
102
{ACAD_REACTORS
330
636
102
}
330
636
100
AcDbVisualStyle
  2
X-Ray
 70
    25
177
     3
291
     0
 70
    58
 90
        2
176
     1
 90
        2
176
     1
 90
        1
176
     1
 90
        1
176
     1
 40
0.5
176
     1
 40
30.0
176
     1
 62
     7
420
 16777215
176
     1
 90
        1
176
     1
 90
        0
176
     1
 62
     7
176
     1
 62
   257
176
     1
 90
        1
176
     1
 90
        1
176
     1
 40
1.0
176
     1
 90
        8
176
     1
 62
     7
176
     1
 40
1.0
176
     1
 90
        1
176
     1
 90
        6
176
     1
 90
        2
176
     1
 62
     7
176
     1
 90
        3
176
     1
 90
        0
176
     1
 90
        0
176
     1
290
     0
176
     1
 90
       13
176
     1
 40
0.0
176
     1
 90
        0
176
     1
290
     0
176
     1
290
     1
176
     1
290
     1
176
     1
290
     0
176
     1
290
     0
176
     1
290
     0
176
     1
290
     0
176
     1
290
     0
176
     1
290
     0
176
     1
 90
       50
176
     1
 40
0.0
176
     1
 40
1.0
176
     1
 90
        0
176
     1
 62
    18
420
        0
176
     1
 90
       50
176
     1
 90
        3
176
     1
 62
     5
420
      255
176
     1
290
     0
176
     1
 90
       50
176
     1
 90
       50
176
     1
 90
       50
176
     1
290
     0
176
     1
 90
       50
176
     1
 62
   256
176
     0
 40
1.0
176
     0
 90
        2
176
     1
  1
strokes_ogs.tif
176
     1
290
     0
176
     1
 40
1.0
176
     1
 40
1.0
176
     1
  0
DICTIONARYVAR
  5
665
102
{ACAD_REACTORS
330
664
102
}
330
664
100
DictionaryVariables
280
     0
  1
1:1
  0
DICTIONARYVAR
  5
669
102
{ACAD_REACTORS
330
664
102
}
330
664
100
DictionaryVariables
280
     0
  1
Standard
  0
CSACDOCUMENTOPTIONS
  5
65A
102
{ACAD_REACTORS
330
659
102
}
330
659
  0
XRECORD
  5
65E
102
{ACAD_REACTORS
330
655
102
}
330
655
100
AcDbXrecord
280
     1
300
MC_VERSION_DATA
 90
       95
310
0600000002000000570000001C000000E404000000000000000000007801936764E5D8CF7A8393818115C460606066E0646662626666706006F214793899F8DE3171E725E6E53B3BBA2878E6951050AF75FEFFFFFF520032DE0F3057000000
  0
XRECORD
  5
656
102
{ACAD_REACTORS
330
655
102
}
330
655
100
AcDbXrecord
280
     1
300
MCS_DOCUMENT_ID
 90
       60
310
0600000002000000150000001C000000E404000000000000000000007801E30DEAE2D859BEF68CC3FCAAB4FD750CB1F3FE030100692F0B8E15000000
  0
XRECORD
  5
65C
102
{ACAD_REACTORS
330
655
102
}
330
655
100
AcDbXrecord
280
     1
300
MCS_PARAMS_DATA
 90
     3313
310
0600000002000000F64B00001C000000E404000000000000000000007801C55C5B905C45199EE99EBDCCE67E5DA218172C303B91307B4B8C459531245054850D55591F78B236BB49B9BAC9E6B22A082A9655BE5865596569A965F9209288CF16503EC8834088C10B092404211702988430422E9084CDAEFFD7A7FBF4DFA7CF
310
D9D99D9D39930798FF3F7DCEF7DFFAFBBBFBCC6CDBFC46297252EECB48F9CDF5ED5234493921A5206D76815820B252E4F3225F128D7D5F59BF69E3162948D9A2D485B3131313747328BF06593E960915079422437734AA3BDAA5CCD053F5ED4FD2557D257BAB94DF007A03479F859BB2B22193C9108EC1CDCADC0464C27506
310
28605703E48886E0B986E10F03BF91E33707F8E3140E7A9091C8268236920C1C662240B94888A1C8E07600AE99C32D5131CA8B3925D172EFE62D7D6D9DABBA8ADDD6F17CE16D13F0457AE8AC9268DE32DABF73B07FCFA013F9BF8491D7C17E2550D8E8FFCA8DFE4E98B3929B331718B291824FFF72EB941D9E8E2211D5A93C
310
784A44C557923911258BD0C8640531AEEC61A924855B11378280384364A422680C0A928DB9C10CD89D581114199665B722B26E4590C82B0222AB08FAA8A60626C028E0044F81BA246F5360E167F2D27C56A10E05C058C13C59DEC6207679103AFC5DEADF992F2B284F67B31C8EE359B64A9665A62453228F64269D98455E3B
310
A4B35817F7EC92C86FB8EFFE8DBD5BEEDBDCAB0CD3B5FC8E99065A7E55D536E39DE7826237F1C8BBBCB3CFADFC93302087C80397EE69C2FF69CA32234F0763E41851010DA578E8294D435524988818E84710A7B2643B4F7C034F6CE5C9368F203BE8094C6268541D70D35EE4B585DAE170F4942EB8D2D422560A9917F34B62
310
CE86919D9F1F6DDBB36DD770FFC0B6BC682E898607BEB5737424F8D83B323AF07529CFC0B69BB96D9FD3CFF9B410ED79B1A42416161FEA29AEEDEEEC5ADF532C76DEF3C5AEEEB5CAECF97A60330D2C1C3579EAD0DA7621F20269BD6768746FDBF0D0DE51F3B0EE356B3ABBD6F474F7740D76770EACED08FCFC92BEAF13F701
310
B5AF7FEBF0B6B691ED6D7D23C3DBF6F4EF840FDA9AD583C58E81E240FFEAADDD5BD70EAC0E669D2A25F27FB610851F9335859F059541B9E5971EC7A5A7E83F2CE53DB9A4040555A2661A4DDBF2C560B2E54E7D5483931EF871F7C88E5DFDA3435B878687461F6EDB313248FE3596847C70DBDEBC682809D13B22E56A5856E4
310
E9998738519B6E2A89DCE6EDDBDB542AF4E4380F8F61A4965F57116093E5A052A06AF588670205D9A715FB49B140D81A90855F902680EBB8B3A3187EEA96F2B224E392BAF898328CB1AD47DA34C1601A1B421AD816D190715CC3F276A5DE067C546F03AED6DB808FEB6DC0B57A1BB00853B49EB3E0937A47E07ABD0D188301
310
71CB797197D3603B1D06BFCB6DB024827C0C834324E60945463B3712E196397079076E990B47228783C8E09631B8F129C211385B3E540C97413DC70673C524DEAD70BD23917B079179B782793791AE77D944EFDCDC5529988B13E1069D6092C472A7F777A6F648E4C184C88239C8822913E16AE29D48176E29E0727C316496
310
EF2A967C95165E504B0C2B218EEE82DD5C63513CD614C5091F6D6FA7551865CC5C5030A1E0A3E84BEC86CFD04EC5DD01AA74CBDB05AB8C403295A124BB2908C4B032B4682A032283FB103E391B4E03172C7199C4E0F88E871E8855ADA1482D3238FA1846E0B807A77785BFF935FE1D74369F5647D0D171CA5F4F09337C2559
310
105132935A503D6DBC7A94B54D2B6DF1E0339960F436A97441791E5EC104D40283580888C4FDED577B1FD8B4B9AF6FE30605D8AAD7F1F34A62F6DD5BBEC62E92057A31FEA25A9DB3F5FBD3C1729D9CD723B0BF0DE8402BB05A67160DDE4416E59079C0D9EAA575B7321F67115FC018C76AB5B3A33D06B68CBD9BFBDC93C073
310
800CC384FD360C544F539B6F02B1820953BE9D01DE01C0D85A6C50369A5AC4065C7760793B965800321749E4B50891C0C2AB0CAE9808178444974C70F875952A9381563C01BE9D08EAFA481283ABD8C7EF7870DAABE068E68833DFAC8EA0A3E3F87C0B07AA507B2311F0889285BDC333294C4E2DB27C67BA70ABD2857B688A
310
70552AA7873DB8489E55063D5D2DCBE9BB9E49F1E554A5083C922EDCA3E9C27D2F5DB8EF7B705EE9D87E1E920E88313AAE6AECF4FBD668D3D30DB4E51ADA9BEDB0D7AFCEB4DDED85F7C4ECF6551B3BCE2AFF6E835E49458EC94883D6E73C45753FAE614C3C0A0362777435D915EC025C33F7578776011DE6F3D066954C59D6
310
D76F86AC9CD58A53F4122CF0552BAE070AEA3B5AF15752304F1F47569D50AB71F41A31FA5A51C904CD43C6B0F51D2ACEFC112ACC4CC1B0FF086CE7AD5A4D096A005126387AAD451EE384D9C035A925859E39C1AA865EE9A9B8DA21CEE289167F7CF1D4C4BC7A125EC5AED5D8BB0B5A9D9144D134CFA71BF85A8D44BE568348
310
F6AA55A2F3CAEA4F6982FD21118CC249D3CBF852A586F244BA70FBD285DB9F085793EDE56E143F0AD06C6B4CB2242BDD3DD1419166C2865E81F9CE1648F3CBD84597B22E28992A3DDCE24C77F3F311A01C8A722828EC3CF15F7D987933F818F8E59BC138E5CD4CE8AC24C94E68BA32F5C3CBAB808B6B06B9936E642F9F804C
310
903AF2F3709D37832318A078E4B37AEBDCFAA66859945B9EBB25776BAE2DD3995995E9CA1433DDFA4DAC7ECE6FE93696E96BB06712968ED2661884A9EE40230F60D0D73DE8C858453B9E8E4212D5A9B0784A762662599FEDD18C9299F4094C728A91F536658E91CDA6DFC8E89F363B15B4CB31404FD2581CF722BBF229B517
310
430944E56AB2E2A8E3461950730F2B7ECA7BC570E389706E8BA9D241C744225C40C29385944F707279EA277D998065D9EAD604B1263E66D38513E9C2490F4EE7CC6E8AA89C3D9DA588701CA708AB6414C194931EE3FC0D4515D71A4FBFE712F8CB4A26532A6E8DCF01CA61A3745BE3F3C09F6E6B442F0CD7BAD36A8D2F002E
310
AE359E3BE646F6B8926D6BBC0CD9926FBEF08C5220B9BAE91D0E14769FF44B52301E3C00E8FA74C117BD24F396E22C7F1005F2DA2902EB76053DE720B0D3EE397F2F036AE8B24A3DE750225C4DF8F8A544B81AF69C7F2482D6C4C77F067093EF36FE359541FF8E0E8A50399BA22F63681CEF0EBDEBB2C3834A9E09EF1E0654
310
1D79F708F0A7CBBB956F495E015C1CEFEE3EEC46B65FC996771F856C09285F58A7148C77872F6104D6DC9A8897D30896D457015D1FDE3DEA25B91CEFF2EBD6EB0A68F718A0D3A6DDD7CA805699768F27C2D584925E4F84AB9476A39B03E744D09CD6610FF59F44E89A78FA46BA70DDDE0ADC144A4DBCEBF1E0221D416DC23D
310
1D715254A766A8A7AC60C1FF26021ED7783E889CD89C52F24C1ACF0940D5B1F19C047E7A8DE714E0E21ACFD5436EE339AB64DB78E44B91C6730003ECCB897CE1D28548E3798246B0C6731AD0536D3CB3E90740046E0B5FD5161351555C247A084506FA9607AAEBD39C44F1E2B63A5BDCA18E17B755B2E2664A322602C34C3A
310
0393625B51C09BC60D77315EF1E1C8DB80730A9C37D5B8CD0EBF3EA3A6FB4EA2A7C18B1B2746D53A5F7BB70C687C78291FE10E3A386EE3054657F9CB297E9CF703B0E71DFC4DA3397B4068C3CF33A1A81F02C2C920DB8E7ABF712005813923946BAE06DE453454B45CC32AF6311810C751E3F85A979E7874424F9299B34AB2
310
210DC430A45A3473162283FB2F3218C7FE178FBB1CF59692CDAD957C0DECAC3739580882F7E26636C4FC0874E66F42CE013F2EB274A4C323CBB88082C5B980AE4CFD4DC879C0C5B1FFF5E7DDC89E57324556799F2F34BC006EC70CD18A8318C0D9FF0AB6807CDBB19F46B0A4BE07E8B4D9FF8207EA504E3D7E65FA3E4C7226
310
B329B0E8D703AAFEBAA304E869379E693123CD68457958A4FF2F11AE86ECFF4119D078F6E7138AD87FF2370F86D6E1E38789702D76FED2134932CCA824CB8C811832A3160D33426421BD980847AF6F0C11D33DEECB1CFE9B7175D1F926045DE5BD8DBFBDBE94081764D0049324E6DDB40A8607F372225C4D16463974B5B836
310
F393232E193EA2E499B49986C93A780A6DA631A981D7A6CD34012EAECDFCFC5937B23F52B26D33BF83CCDBCC56A5C0ECD07DE7A7A7226D661D8D6033A419D0536D33E07F56B8C4CA7C0D48229F9610695A461A0883CE7B494E8DD95B004DF38E8247AB09FE45AC1A52EDAC32A0861DD8DA85D8A76276989D08579353913989
310
700119397510D9BB4CAB9DF096393711B4263ECE4B176E7EBA700B3C389DB3F0B5335AA6A7234288EA142D784A9083AFB414616018456CF24C3293C4CD2F49D3E5A5F0410CEE7E0F2E6A6FEA11580893E29AEE529C2FC11C4DF48D4AA628982DB44A422820F8563073C8F989CF2240392BED74F7768B819FDEDE6E09E0E29A
310
EE72FA030B3CB273954C91D5916E87CC9BEEFB4FAB1E6B73B10CFB6CBEB73B4423589D2D05F4CC9AAE2E4C768646F0614DBB4BD40606DDEA2539B5A67B13A0D36EBACBCA809A9055A7E9E24B8E0D79912B896C91FE0C1655C17843E129FA335B3277F4E8510807513CB9CC44868E210AF7FE19028691B0917E39482B125CF8
310
D4FF01F0B312DAF64B0000
  0
TABLECONTENT
  5
660
330
663
100
AcDbLinkedData
  1

300

100
AcDbLinkedTableData
 90
        5
300
COLUMN
  1
LINKEDTABLEDATACOLUMN_BEGIN
300

 91
        0
301
CUSTOMDATA
  1
DATAMAP_BEGIN
 90
        0
309
DATAMAP_END
309
LINKEDTABLEDATACOLUMN_END
  1
FORMATTEDTABLEDATACOLUMN_BEGIN
300
COLUMNTABLEFORMAT
  1
TABLEFORMAT_BEGIN
 90
        3
170
     0
309
TABLEFORMAT_END
309
FORMATTEDTABLEDATACOLUMN_END
  1
TABLECOLUMN_BEGIN
 90
        0
 40
10.0
309
TABLECOLUMN_END
300
COLUMN
  1
LINKEDTABLEDATACOLUMN_BEGIN
300

 91
        0
301
CUSTOMDATA
  1
DATAMAP_BEGIN
 90
        0
309
DATAMAP_END
309
LINKEDTABLEDATACOLUMN_END
  1
FORMATTEDTABLEDATACOLUMN_BEGIN
300
COLUMNTABLEFORMAT
  1
TABLEFORMAT_BEGIN
 90
        3
170
     0
309
TABLEFORMAT_END
309
FORMATTEDTABLEDATACOLUMN_END
  1
TABLECOLUMN_BEGIN
 90
        0
 40
10.0
309
TABLECOLUMN_END
300
COLUMN
  1
LINKEDTABLEDATACOLUMN_BEGIN
300

 91
        0
301
CUSTOMDATA
  1
DATAMAP_BEGIN
 90
        0
309
DATAMAP_END
309
LINKEDTABLEDATACOLUMN_END
  1
FORMATTEDTABLEDATACOLUMN_BEGIN
300
COLUMNTABLEFORMAT
  1
TABLEFORMAT_BEGIN
 90
        3
170
     0
309
TABLEFORMAT_END
309
FORMATTEDTABLEDATACOLUMN_END
  1
TABLECOLUMN_BEGIN
 90
        0
 40
10.0
309
TABLECOLUMN_END
300
COLUMN
  1
LINKEDTABLEDATACOLUMN_BEGIN
300

 91
        0
301
CUSTOMDATA
  1
DATAMAP_BEGIN
 90
        0
309
DATAMAP_END
309
LINKEDTABLEDATACOLUMN_END
  1
FORMATTEDTABLEDATACOLUMN_BEGIN
300
COLUMNTABLEFORMAT
  1
TABLEFORMAT_BEGIN
 90
        3
170
     0
309
TABLEFORMAT_END
309
FORMATTEDTABLEDATACOLUMN_END
  1
TABLECOLUMN_BEGIN
 90
        0
 40
40.0
309
TABLECOLUMN_END
300
COLUMN
  1
LINKEDTABLEDATACOLUMN_BEGIN
300

 91
        0
301
CUSTOMDATA
  1
DATAMAP_BEGIN
 90
        0
309
DATAMAP_END
309
LINKEDTABLEDATACOLUMN_END
  1
FORMATTEDTABLEDATACOLUMN_BEGIN
300
COLUMNTABLEFORMAT
  1
TABLEFORMAT_BEGIN
 90
        3
170
     0
309
TABLEFORMAT_END
309
FORMATTEDTABLEDATACOLUMN_END
  1
TABLECOLUMN_BEGIN
 90
        0
 40
20.0
309
TABLECOLUMN_END
 91
        5
301
ROW
  1
LINKEDTABLEDATAROW_BEGIN
 90
        5
300
CELL
  1
LINKEDTABLEDATACELL_BEGIN
 90
        0
300

 91
        0
301
CUSTOMDATA
  1
DATAMAP_BEGIN
 90
        1
300
ACAD_ROUNDTRIP_2008_CELL_CHECKSUM
301
DATAMAP_VALUE
 93
        2
 90
        2
140
32.0
 94
        0
300

302

304
ACVALUE_END
309
DATAMAP_END
 92
        0
 95
        1
302
CONTENT
  1
CELLCONTENT_BEGIN
 90
        1
300
VALUE
 93
        2
 90
        4
  1
 
 94
        0
300

302
 
304
ACVALUE_END
 91
        0
309
CELLCONTENT_END
  1
FORMATTEDCELLCONTENT_BEGIN
170
     1
300
CONTENTFORMAT
  1
CONTENTFORMAT_BEGIN
 90
      132
 91
        0
 92
      512
 93
        0
300

 40
0.0
140
1.0
 94
        1
 62
     0
340
0
144
3.5
309
CONTENTFORMAT_END
309
FORMATTEDCELLCONTENT_END
309
LINKEDTABLEDATACELL_END
  1
FORMATTEDTABLEDATACELL_BEGIN
300
CELLTABLEFORMAT
  1
TABLEFORMAT_BEGIN
 90
        1
170
     1
 91
        0
 92
        0
 62
   257
 93
        1
300
CONTENTFORMAT
  1
CONTENTFORMAT_BEGIN
 90
        0
 91
        0
 92
      512
 93
        0
300

 40
0.0
140
1.0
 94
        1
 62
     0
340
0
144
0.18
309
CONTENTFORMAT_END
171
     0
 94
        0
309
TABLEFORMAT_END
309
FORMATTEDTABLEDATACELL_END
  1
TABLECELL_BEGIN
 90
        0
 91
        0
309
TABLECELL_END
300
CELL
  1
LINKEDTABLEDATACELL_BEGIN
 90
        0
300

 91
        0
301
CUSTOMDATA
  1
DATAMAP_BEGIN
 90
        0
309
DATAMAP_END
 92
        0
 95
        0
309
LINKEDTABLEDATACELL_END
  1
FORMATTEDTABLEDATACELL_BEGIN
300
CELLTABLEFORMAT
  1
TABLEFORMAT_BEGIN
 90
        1
170
     1
 91
        0
 92
        0
 62
   257
 93
        1
300
CONTENTFORMAT
  1
CONTENTFORMAT_BEGIN
 90
        0
 91
        0
 92
      512
 93
        0
300

 40
0.0
140
1.0
 94
        1
 62
     0
340
0
144
0.18
309
CONTENTFORMAT_END
171
     0
 94
        0
309
TABLEFORMAT_END
309
FORMATTEDTABLEDATACELL_END
  1
TABLECELL_BEGIN
 90
        0
 91
        0
309
TABLECELL_END
300
CELL
  1
LINKEDTABLEDATACELL_BEGIN
 90
        0
300

 91
        0
301
CUSTOMDATA
  1
DATAMAP_BEGIN
 90
        0
309
DATAMAP_END
 92
        0
 95
        0
309
LINKEDTABLEDATACELL_END
  1
FORMATTEDTABLEDATACELL_BEGIN
300
CELLTABLEFORMAT
  1
TABLEFORMAT_BEGIN
 90
        1
170
     1
 91
        0
 92
        0
 62
   257
 93
        1
300
CONTENTFORMAT
  1
CONTENTFORMAT_BEGIN
 90
        0
 91
        0
 92
      512
 93
        0
300

 40
0.0
140
1.0
 94
        1
 62
     0
340
0
144
0.18
309
CONTENTFORMAT_END
171
     0
 94
        0
309
TABLEFORMAT_END
309
FORMATTEDTABLEDATACELL_END
  1
TABLECELL_BEGIN
 90
        0
 91
        0
309
TABLECELL_END
300
CELL
  1
LINKEDTABLEDATACELL_BEGIN
 90
        0
300

 91
        0
301
CUSTOMDATA
  1
DATAMAP_BEGIN
 90
        1
300
ACAD_ROUNDTRIP_2008_CELL_CHECKSUM
301
DATAMAP_VALUE
 93
        2
 90
        2
140
2875.0
 94
        0
300

302

304
ACVALUE_END
309
DATAMAP_END
 92
        0
 95
        1
302
CONTENT
  1
CELLCONTENT_BEGIN
 90
        1
300
VALUE
 93
        2
 90
        4
  1
571_C_078
 94
        0
300

302
571_C_078
304
ACVALUE_END
 91
        0
309
CELLCONTENT_END
  1
FORMATTEDCELLCONTENT_BEGIN
170
     1
300
CONTENTFORMAT
  1
CONTENTFORMAT_BEGIN
 90
      196
 91
        0
 92
      512
 93
        0
300

 40
0.0
140
1.0
 94
        1
 62
     0
340
220
144
3.0
309
CONTENTFORMAT_END
309
FORMATTEDCELLCONTENT_END
309
LINKEDTABLEDATACELL_END
  1
FORMATTEDTABLEDATACELL_BEGIN
300
CELLTABLEFORMAT
  1
TABLEFORMAT_BEGIN
 90
        1
170
     1
 91
       16
 92
        0
 62
   257
 93
        1
300
CONTENTFORMAT
  1
CONTENTFORMAT_BEGIN
 90
       16
 91
        0
 92
      512
 93
        0
300

 40
0.0
140
1.0
 94
        4
 62
     0
340
0
144
0.18
309
CONTENTFORMAT_END
171
     0
 94
        4
 95
        1
302
GRIDFORMAT
  1
GRIDFORMAT_BEGIN
 90
       26
 91
        1
 62
     0
 92
       -2
340
0
 93
        0
 40
0.045
309
GRIDFORMAT_END
 95
        4
302
GRIDFORMAT
  1
GRIDFORMAT_BEGIN
 90
       26
 91
        1
 62
     0
 92
       -2
340
0
 93
        0
 40
0.045
309
GRIDFORMAT_END
 95
        8
302
GRIDFORMAT
  1
GRIDFORMAT_BEGIN
 90
       26
 91
        1
 62
     0
 92
       -2
340
0
 93
        0
 40
0.045
309
GRIDFORMAT_END
 95
       32
302
GRIDFORMAT
  1
GRIDFORMAT_BEGIN
 90
       26
 91
        1
 62
     0
 92
       -2
340
0
 93
        0
 40
0.045
309
GRIDFORMAT_END
309
TABLEFORMAT_END
309
FORMATTEDTABLEDATACELL_END
  1
TABLECELL_BEGIN
 90
        0
 91
        0
309
TABLECELL_END
300
CELL
  1
LINKEDTABLEDATACELL_BEGIN
 90
        0
300

 91
        0
301
CUSTOMDATA
  1
DATAMAP_BEGIN
 90
        1
300
ACAD_ROUNDTRIP_2008_CELL_CHECKSUM
301
DATAMAP_VALUE
 93
        2
 90
        2
140
1404.0
 94
        0
300

302

304
ACVALUE_END
309
DATAMAP_END
 92
        0
 95
        1
302
CONTENT
  1
CELLCONTENT_BEGIN
 90
        1
300
VALUE
 93
        2
 90
        4
  1
Rev:01
 94
        0
300

302
Rev:01
304
ACVALUE_END
 91
        0
309
CELLCONTENT_END
  1
FORMATTEDCELLCONTENT_BEGIN
170
     1
300
CONTENTFORMAT
  1
CONTENTFORMAT_BEGIN
 90
      196
 91
        0
 92
      512
 93
        0
300

 40
0.0
140
1.0
 94
        1
 62
     0
340
220
144
3.5
309
CONTENTFORMAT_END
309
FORMATTEDCELLCONTENT_END
309
LINKEDTABLEDATACELL_END
  1
FORMATTEDTABLEDATACELL_BEGIN
300
CELLTABLEFORMAT
  1
TABLEFORMAT_BEGIN
 90
        1
170
     1
 91
       16
 92
        0
 62
   257
 93
        1
300
CONTENTFORMAT
  1
CONTENTFORMAT_BEGIN
 90
       16
 91
        0
 92
      512
 93
        0
300

 40
0.0
140
1.0
 94
        4
 62
     0
340
0
144
0.18
309
CONTENTFORMAT_END
171
     0
 94
        4
 95
        1
302
GRIDFORMAT
  1
GRIDFORMAT_BEGIN
 90
       26
 91
        1
 62
     0
 92
       -2
340
0
 93
        0
 40
0.045
309
GRIDFORMAT_END
 95
        4
302
GRIDFORMAT
  1
GRIDFORMAT_BEGIN
 90
       26
 91
        1
 62
     0
 92
       -2
340
0
 93
        0
 40
0.045
309
GRIDFORMAT_END
 95
        8
302
GRIDFORMAT
  1
GRIDFORMAT_BEGIN
 90
       26
 91
        1
 62
     0
 92
       -2
340
0
 93
        0
 40
0.045
309
GRIDFORMAT_END
 95
       32
302
GRIDFORMAT
  1
GRIDFORMAT_BEGIN
 90
       26
 91
        1
 62
     0
 92
       -2
340
0
 93
        0
 40
0.045
309
GRIDFORMAT_END
309
TABLEFORMAT_END
309
FORMATTEDTABLEDATACELL_END
  1
TABLECELL_BEGIN
 90
        0
 91
        0
309
TABLECELL_END
 91
        0
301
CUSTOMDATA
  1
DATAMAP_BEGIN
 90
        0
309
DATAMAP_END
309
LINKEDTABLEDATAROW_END
  1
FORMATTEDTABLEDATAROW_BEGIN
300
ROWTABLEFORMAT
  1
TABLEFORMAT_BEGIN
 90
        2
170
     0
309
TABLEFORMAT_END
309
FORMATTEDTABLEDATAROW_END
  1
TABLEROW_BEGIN
 90
        1
 40
6.0
309
TABLEROW_END
301
ROW
  1
LINKEDTABLEDATAROW_BEGIN
 90
        5
300
CELL
  1
LINKEDTABLEDATACELL_BEGIN
 90
        0
300

 91
        0
301
CUSTOMDATA
  1
DATAMAP_BEGIN
 90
        0
309
DATAMAP_END
 92
        0
 95
        0
309
LINKEDTABLEDATACELL_END
  1
FORMATTEDTABLEDATACELL_BEGIN
300
CELLTABLEFORMAT
  1
TABLEFORMAT_BEGIN
 90
        1
170
     1
 91
        0
 92
        0
 62
   257
 93
        1
300
CONTENTFORMAT
  1
CONTENTFORMAT_BEGIN
 90
        0
 91
        0
 92
      512
 93
        0
300

 40
0.0
140
1.0
 94
        1
 62
     0
340
0
144
0.18
309
CONTENTFORMAT_END
171
     0
 94
        0
309
TABLEFORMAT_END
309
FORMATTEDTABLEDATACELL_END
  1
TABLECELL_BEGIN
 90
        0
 91
        0
309
TABLECELL_END
300
CELL
  1
LINKEDTABLEDATACELL_BEGIN
 90
        0
300

 91
        0
301
CUSTOMDATA
  1
DATAMAP_BEGIN
 90
        0
309
DATAMAP_END
 92
        0
 95
        0
309
LINKEDTABLEDATACELL_END
  1
FORMATTEDTABLEDATACELL_BEGIN
300
CELLTABLEFORMAT
  1
TABLEFORMAT_BEGIN
 90
        1
170
     1
 91
        0
 92
        0
 62
   257
 93
        1
300
CONTENTFORMAT
  1
CONTENTFORMAT_BEGIN
 90
        0
 91
        0
 92
      512
 93
        0
300

 40
0.0
140
1.0
 94
        1
 62
     0
340
0
144
0.18
309
CONTENTFORMAT_END
171
     0
 94
        0
309
TABLEFORMAT_END
309
FORMATTEDTABLEDATACELL_END
  1
TABLECELL_BEGIN
 90
        0
 91
        0
309
TABLECELL_END
300
CELL
  1
LINKEDTABLEDATACELL_BEGIN
 90
        0
300

 91
        0
301
CUSTOMDATA
  1
DATAMAP_BEGIN
 90
        0
309
DATAMAP_END
 92
        0
 95
        0
309
LINKEDTABLEDATACELL_END
  1
FORMATTEDTABLEDATACELL_BEGIN
300
CELLTABLEFORMAT
  1
TABLEFORMAT_BEGIN
 90
        1
170
     1
 91
        0
 92
        0
 62
   257
 93
        1
300
CONTENTFORMAT
  1
CONTENTFORMAT_BEGIN
 90
        0
 91
        0
 92
      512
 93
        0
300

 40
0.0
140
1.0
 94
        1
 62
     0
340
0
144
0.18
309
CONTENTFORMAT_END
171
     0
 94
        0
309
TABLEFORMAT_END
309
FORMATTEDTABLEDATACELL_END
  1
TABLECELL_BEGIN
 90
        0
 91
        0
309
TABLECELL_END
300
CELL
  1
LINKEDTABLEDATACELL_BEGIN
 90
        0
300

 91
        0
301
CUSTOMDATA
  1
DATAMAP_BEGIN
 90
        1
300
ACAD_ROUNDTRIP_2008_CELL_CHECKSUM
301
DATAMAP_VALUE
 93
        2
 90
        2
140
3105.0
 94
        0
300

302

304
ACVALUE_END
309
DATAMAP_END
 92
        0
 95
        1
302
CONTENT
  1
CELLCONTENT_BEGIN
 90
        1
300
VALUE
 93
        2
 90
        4
  1
Scale:1:1
 94
        0
300

302
Scale:1:1
304
ACVALUE_END
 91
        0
309
CELLCONTENT_END
  1
FORMATTEDCELLCONTENT_BEGIN
170
     1
300
CONTENTFORMAT
  1
CONTENTFORMAT_BEGIN
 90
      196
 91
        0
 92
      512
 93
        0
300

 40
0.0
140
1.0
 94
        1
 62
     0
340
220
144
3.5
309
CONTENTFORMAT_END
309
FORMATTEDCELLCONTENT_END
309
LINKEDTABLEDATACELL_END
  1
FORMATTEDTABLEDATACELL_BEGIN
300
CELLTABLEFORMAT
  1
TABLEFORMAT_BEGIN
 90
        1
170
     1
 91
       16
 92
        0
 62
   257
 93
        1
300
CONTENTFORMAT
  1
CONTENTFORMAT_BEGIN
 90
       16
 91
        0
 92
      512
 93
        0
300

 40
0.0
140
1.0
 94
        1
 62
     0
340
0
144
0.18
309
CONTENTFORMAT_END
171
     0
 94
        4
 95
        1
302
GRIDFORMAT
  1
GRIDFORMAT_BEGIN
 90
       26
 91
        1
 62
     0
 92
       -2
340
0
 93
        0
 40
0.045
309
GRIDFORMAT_END
 95
        4
302
GRIDFORMAT
  1
GRIDFORMAT_BEGIN
 90
       26
 91
        1
 62
     0
 92
       -2
340
0
 93
        0
 40
0.045
309
GRIDFORMAT_END
 95
        8
302
GRIDFORMAT
  1
GRIDFORMAT_BEGIN
 90
       26
 91
        1
 62
     0
 92
       -2
340
0
 93
        0
 40
0.045
309
GRIDFORMAT_END
 95
       32
302
GRIDFORMAT
  1
GRIDFORMAT_BEGIN
 90
       26
 91
        1
 62
     0
 92
       -2
340
0
 93
        0
 40
0.045
309
GRIDFORMAT_END
309
TABLEFORMAT_END
309
FORMATTEDTABLEDATACELL_END
  1
TABLECELL_BEGIN
 90
        0
 91
        0
309
TABLECELL_END
300
CELL
  1
LINKEDTABLEDATACELL_BEGIN
 90
        0
300

 91
        0
301
CUSTOMDATA
  1
DATAMAP_BEGIN
 90
        1
300
ACAD_ROUNDTRIP_2008_CELL_CHECKSUM
301
DATAMAP_VALUE
 93
        2
 90
        2
140
167.0
 94
        0
300

302

304
ACVALUE_END
309
DATAMAP_END
 92
        0
 95
        1
302
CONTENT
  1
CELLCONTENT_BEGIN
 90
        1
300
VALUE
 93
        2
 90
        4
  1
A3
 94
        0
300

302
A3
304
ACVALUE_END
 91
        0
309
CELLCONTENT_END
  1
FORMATTEDCELLCONTENT_BEGIN
170
     1
300
CONTENTFORMAT
  1
CONTENTFORMAT_BEGIN
 90
      196
 91
        0
 92
      512
 93
        0
300

 40
0.0
140
1.0
 94
        1
 62
     0
340
220
144
3.5
309
CONTENTFORMAT_END
309
FORMATTEDCELLCONTENT_END
309
LINKEDTABLEDATACELL_END
  1
FORMATTEDTABLEDATACELL_BEGIN
300
CELLTABLEFORMAT
  1
TABLEFORMAT_BEGIN
 90
        1
170
     1
 91
       16
 92
        0
 62
   257
 93
        1
300
CONTENTFORMAT
  1
CONTENTFORMAT_BEGIN
 90
       16
 91
        0
 92
      512
 93
        0
300

 40
0.0
140
1.0
 94
        4
 62
     0
340
0
144
0.18
309
CONTENTFORMAT_END
171
     0
 94
        4
 95
        1
302
GRIDFORMAT
  1
GRIDFORMAT_BEGIN
 90
       26
 91
        1
 62
     0
 92
       -2
340
0
 93
        0
 40
0.045
309
GRIDFORMAT_END
 95
        4
302
GRIDFORMAT
  1
GRIDFORMAT_BEGIN
 90
       26
 91
        1
 62
     0
 92
       -2
340
0
 93
        0
 40
0.045
309
GRIDFORMAT_END
 95
        8
302
GRIDFORMAT
  1
GRIDFORMAT_BEGIN
 90
       26
 91
        1
 62
     0
 92
       -2
340
0
 93
        0
 40
0.045
309
GRIDFORMAT_END
 95
       32
302
GRIDFORMAT
  1
GRIDFORMAT_BEGIN
 90
       26
 91
        1
 62
     0
 92
       -2
340
0
 93
        0
 40
0.045
309
GRIDFORMAT_END
309
TABLEFORMAT_END
309
FORMATTEDTABLEDATACELL_END
  1
TABLECELL_BEGIN
 90
        0
 91
        0
309
TABLECELL_END
 91
        0
301
CUSTOMDATA
  1
DATAMAP_BEGIN
 90
        0
309
DATAMAP_END
309
LINKEDTABLEDATAROW_END
  1
FORMATTEDTABLEDATAROW_BEGIN
300
ROWTABLEFORMAT
  1
TABLEFORMAT_BEGIN
 90
        2
170
     0
309
TABLEFORMAT_END
309
FORMATTEDTABLEDATAROW_END
  1
TABLEROW_BEGIN
 90
        2
 40
6.0
309
TABLEROW_END
301
ROW
  1
LINKEDTABLEDATAROW_BEGIN
 90
        5
300
CELL
  1
LINKEDTABLEDATACELL_BEGIN
 90
        0
300

 91
        0
301
CUSTOMDATA
  1
DATAMAP_BEGIN
 90
        0
309
DATAMAP_END
 92
        0
 95
        0
309
LINKEDTABLEDATACELL_END
  1
FORMATTEDTABLEDATACELL_BEGIN
300
CELLTABLEFORMAT
  1
TABLEFORMAT_BEGIN
 90
        1
170
     1
 91
        0
 92
        0
 62
   257
 93
        1
300
CONTENTFORMAT
  1
CONTENTFORMAT_BEGIN
 90
        0
 91
        0
 92
      512
 93
        0
300

 40
0.0
140
1.0
 94
        1
 62
     0
340
0
144
0.18
309
CONTENTFORMAT_END
171
     0
 94
        0
309
TABLEFORMAT_END
309
FORMATTEDTABLEDATACELL_END
  1
TABLECELL_BEGIN
 90
        0
 91
        0
309
TABLECELL_END
300
CELL
  1
LINKEDTABLEDATACELL_BEGIN
 90
        0
300

 91
        0
301
CUSTOMDATA
  1
DATAMAP_BEGIN
 90
        0
309
DATAMAP_END
 92
        0
 95
        0
309
LINKEDTABLEDATACELL_END
  1
FORMATTEDTABLEDATACELL_BEGIN
300
CELLTABLEFORMAT
  1
TABLEFORMAT_BEGIN
 90
        1
170
     1
 91
        0
 92
        0
 62
   257
 93
        1
300
CONTENTFORMAT
  1
CONTENTFORMAT_BEGIN
 90
        0
 91
        0
 92
      512
 93
        0
300

 40
0.0
140
1.0
 94
        1
 62
     0
340
0
144
0.18
309
CONTENTFORMAT_END
171
     0
 94
        0
309
TABLEFORMAT_END
309
FORMATTEDTABLEDATACELL_END
  1
TABLECELL_BEGIN
 90
        0
 91
        0
309
TABLECELL_END
300
CELL
  1
LINKEDTABLEDATACELL_BEGIN
 90
        0
300

 91
        0
301
CUSTOMDATA
  1
DATAMAP_BEGIN
 90
        0
309
DATAMAP_END
 92
        0
 95
        0
309
LINKEDTABLEDATACELL_END
  1
FORMATTEDTABLEDATACELL_BEGIN
300
CELLTABLEFORMAT
  1
TABLEFORMAT_BEGIN
 90
        1
170
     1
 91
        0
 92
        0
 62
   257
 93
        1
300
CONTENTFORMAT
  1
CONTENTFORMAT_BEGIN
 90
        0
 91
        0
 92
      512
 93
        0
300

 40
0.0
140
1.0
 94
        1
 62
     0
340
0
144
0.18
309
CONTENTFORMAT_END
171
     0
 94
        0
309
TABLEFORMAT_END
309
FORMATTEDTABLEDATACELL_END
  1
TABLECELL_BEGIN
 90
        0
 91
        0
309
TABLECELL_END
300
CELL
  1
LINKEDTABLEDATACELL_BEGIN
 90
        0
300

 91
        0
301
CUSTOMDATA
  1
DATAMAP_BEGIN
 90
        1
300
ACAD_ROUNDTRIP_2008_CELL_CHECKSUM
301
DATAMAP_VALUE
 93
        2
 90
        2
140
1455.0
 94
        0
300

302

304
ACVALUE_END
309
DATAMAP_END
 92
        0
 95
        1
302
CONTENT
  1
CELLCONTENT_BEGIN
 90
        1
300
VALUE
 93
        2
 90
        4
  1
RIO 2.0
 94
        0
300

302
RIO 2.0
304
ACVALUE_END
 91
        0
309
CELLCONTENT_END
  1
FORMATTEDCELLCONTENT_BEGIN
170
     1
300
CONTENTFORMAT
  1
CONTENTFORMAT_BEGIN
 90
      196
 91
        0
 92
      512
 93
        0
300

 40
0.0
140
1.0
 94
        1
 62
     0
340
220
144
3.5
309
CONTENTFORMAT_END
309
FORMATTEDCELLCONTENT_END
309
LINKEDTABLEDATACELL_END
  1
FORMATTEDTABLEDATACELL_BEGIN
300
CELLTABLEFORMAT
  1
TABLEFORMAT_BEGIN
 90
        1
170
     1
 91
       16
 92
        0
 62
   257
 93
        1
300
CONTENTFORMAT
  1
CONTENTFORMAT_BEGIN
 90
       16
 91
        0
 92
      512
 93
        0
300

 40
0.0
140
1.0
 94
        4
 62
     0
340
0
144
0.18
309
CONTENTFORMAT_END
171
     0
 94
        4
 95
        1
302
GRIDFORMAT
  1
GRIDFORMAT_BEGIN
 90
       26
 91
        1
 62
     0
 92
       -2
340
0
 93
        0
 40
0.045
309
GRIDFORMAT_END
 95
        4
302
GRIDFORMAT
  1
GRIDFORMAT_BEGIN
 90
       26
 91
        1
 62
     0
 92
       -2
340
0
 93
        0
 40
0.045
309
GRIDFORMAT_END
 95
        8
302
GRIDFORMAT
  1
GRIDFORMAT_BEGIN
 90
       26
 91
        1
 62
     0
 92
       -2
340
0
 93
        0
 40
0.045
309
GRIDFORMAT_END
 95
       32
302
GRIDFORMAT
  1
GRIDFORMAT_BEGIN
 90
       26
 91
        1
 62
     0
 92
       -2
340
0
 93
        0
 40
0.045
309
GRIDFORMAT_END
309
TABLEFORMAT_END
309
FORMATTEDTABLEDATACELL_END
  1
TABLECELL_BEGIN
 90
        0
 91
        0
309
TABLECELL_END
300
CELL
  1
LINKEDTABLEDATACELL_BEGIN
 90
        0
300

 91
        0
301
CUSTOMDATA
  1
DATAMAP_BEGIN
 90
        0
309
DATAMAP_END
 92
        0
 95
        0
309
LINKEDTABLEDATACELL_END
  1
FORMATTEDTABLEDATACELL_BEGIN
300
CELLTABLEFORMAT
  1
TABLEFORMAT_BEGIN
 90
        1
170
     1
 91
        0
 92
        0
 62
   257
 93
        1
300
CONTENTFORMAT
  1
CONTENTFORMAT_BEGIN
 90
        0
 91
        0
 92
      512
 93
        0
300

 40
0.0
140
1.0
 94
        1
 62
     0
340
0
144
0.18
309
CONTENTFORMAT_END
171
     0
 94
        0
309
TABLEFORMAT_END
309
FORMATTEDTABLEDATACELL_END
  1
TABLECELL_BEGIN
 90
        0
 91
        0
309
TABLECELL_END
 91
        0
301
CUSTOMDATA
  1
DATAMAP_BEGIN
 90
        0
309
DATAMAP_END
309
LINKEDTABLEDATAROW_END
  1
FORMATTEDTABLEDATAROW_BEGIN
300
ROWTABLEFORMAT
  1
TABLEFORMAT_BEGIN
 90
        2
170
     0
309
TABLEFORMAT_END
309
FORMATTEDTABLEDATAROW_END
  1
TABLEROW_BEGIN
 90
        3
 40
10.0
309
TABLEROW_END
301
ROW
  1
LINKEDTABLEDATAROW_BEGIN
 90
        5
300
CELL
  1
LINKEDTABLEDATACELL_BEGIN
 90
        0
300

 91
        0
301
CUSTOMDATA
  1
DATAMAP_BEGIN
 90
        0
309
DATAMAP_END
 92
        0
 95
        0
309
LINKEDTABLEDATACELL_END
  1
FORMATTEDTABLEDATACELL_BEGIN
300
CELLTABLEFORMAT
  1
TABLEFORMAT_BEGIN
 90
        1
170
     1
 91
        0
 92
        0
 62
   257
 93
        1
300
CONTENTFORMAT
  1
CONTENTFORMAT_BEGIN
 90
        0
 91
        0
 92
      512
 93
        0
300

 40
0.0
140
1.0
 94
        1
 62
     0
340
0
144
0.18
309
CONTENTFORMAT_END
171
     0
 94
        0
309
TABLEFORMAT_END
309
FORMATTEDTABLEDATACELL_END
  1
TABLECELL_BEGIN
 90
        0
 91
        0
309
TABLECELL_END
300
CELL
  1
LINKEDTABLEDATACELL_BEGIN
 90
        0
300

 91
        0
301
CUSTOMDATA
  1
DATAMAP_BEGIN
 90
        0
309
DATAMAP_END
 92
        0
 95
        0
309
LINKEDTABLEDATACELL_END
  1
FORMATTEDTABLEDATACELL_BEGIN
300
CELLTABLEFORMAT
  1
TABLEFORMAT_BEGIN
 90
        1
170
     1
 91
        0
 92
        0
 62
   257
 93
        1
300
CONTENTFORMAT
  1
CONTENTFORMAT_BEGIN
 90
        0
 91
        0
 92
      512
 93
        0
300

 40
0.0
140
1.0
 94
        1
 62
     0
340
0
144
0.18
309
CONTENTFORMAT_END
171
     0
 94
        0
309
TABLEFORMAT_END
309
FORMATTEDTABLEDATACELL_END
  1
TABLECELL_BEGIN
 90
        0
 91
        0
309
TABLECELL_END
300
CELL
  1
LINKEDTABLEDATACELL_BEGIN
 90
        0
300

 91
        0
301
CUSTOMDATA
  1
DATAMAP_BEGIN
 90
        0
309
DATAMAP_END
 92
        0
 95
        0
309
LINKEDTABLEDATACELL_END
  1
FORMATTEDTABLEDATACELL_BEGIN
300
CELLTABLEFORMAT
  1
TABLEFORMAT_BEGIN
 90
        1
170
     1
 91
        0
 92
        0
 62
   257
 93
        1
300
CONTENTFORMAT
  1
CONTENTFORMAT_BEGIN
 90
        0
 91
        0
 92
      512
 93
        0
300

 40
0.0
140
1.0
 94
        1
 62
     0
340
0
144
0.18
309
CONTENTFORMAT_END
171
     0
 94
        0
309
TABLEFORMAT_END
309
FORMATTEDTABLEDATACELL_END
  1
TABLECELL_BEGIN
 90
        0
 91
        0
309
TABLECELL_END
300
CELL
  1
LINKEDTABLEDATACELL_BEGIN
 90
        0
300

 91
        0
301
CUSTOMDATA
  1
DATAMAP_BEGIN
 90
        1
300
ACAD_ROUNDTRIP_2008_CELL_CHECKSUM
301
DATAMAP_VALUE
 93
        2
 90
        2
140
4828.0
 94
        0
300

302

304
ACVALUE_END
309
DATAMAP_END
 92
        0
 95
        1
302
CONTENT
  1
CELLCONTENT_BEGIN
 90
        1
300
VALUE
 93
        2
 90
        4
  1
DATE:09.01.19
 94
        0
300

302
DATE:09.01.19
304
ACVALUE_END
 91
        0
309
CELLCONTENT_END
  1
FORMATTEDCELLCONTENT_BEGIN
170
     1
300
CONTENTFORMAT
  1
CONTENTFORMAT_BEGIN
 90
      196
 91
        0
 92
      512
 93
        0
300

 40
0.0
140
1.0
 94
        1
 62
     0
340
220
144
2.5
309
CONTENTFORMAT_END
309
FORMATTEDCELLCONTENT_END
309
LINKEDTABLEDATACELL_END
  1
FORMATTEDTABLEDATACELL_BEGIN
300
CELLTABLEFORMAT
  1
TABLEFORMAT_BEGIN
 90
        1
170
     1
 91
       16
 92
        0
 62
   257
 93
        1
300
CONTENTFORMAT
  1
CONTENTFORMAT_BEGIN
 90
       16
 91
        0
 92
      512
 93
        0
300

 40
0.0
140
1.0
 94
        4
 62
     0
340
0
144
0.18
309
CONTENTFORMAT_END
171
     0
 94
        4
 95
        1
302
GRIDFORMAT
  1
GRIDFORMAT_BEGIN
 90
       26
 91
        1
 62
     0
 92
       -2
340
0
 93
        0
 40
0.045
309
GRIDFORMAT_END
 95
        4
302
GRIDFORMAT
  1
GRIDFORMAT_BEGIN
 90
       26
 91
        1
 62
     0
 92
       -2
340
0
 93
        0
 40
0.045
309
GRIDFORMAT_END
 95
        8
302
GRIDFORMAT
  1
GRIDFORMAT_BEGIN
 90
       26
 91
        1
 62
     0
 92
       -2
340
0
 93
        0
 40
0.045
309
GRIDFORMAT_END
 95
       32
302
GRIDFORMAT
  1
GRIDFORMAT_BEGIN
 90
       26
 91
        1
 62
     0
 92
       -2
340
0
 93
        0
 40
0.045
309
GRIDFORMAT_END
309
TABLEFORMAT_END
309
FORMATTEDTABLEDATACELL_END
  1
TABLECELL_BEGIN
 90
        0
 91
        0
309
TABLECELL_END
300
CELL
  1
LINKEDTABLEDATACELL_BEGIN
 90
        0
300

 91
        0
301
CUSTOMDATA
  1
DATAMAP_BEGIN
 90
        0
309
DATAMAP_END
 92
        0
 95
        0
309
LINKEDTABLEDATACELL_END
  1
FORMATTEDTABLEDATACELL_BEGIN
300
CELLTABLEFORMAT
  1
TABLEFORMAT_BEGIN
 90
        1
170
     1
 91
        0
 92
        0
 62
   257
 93
        1
300
CONTENTFORMAT
  1
CONTENTFORMAT_BEGIN
 90
        0
 91
        0
 92
      512
 93
        0
300

 40
0.0
140
1.0
 94
        1
 62
     0
340
0
144
0.18
309
CONTENTFORMAT_END
171
     0
 94
        0
309
TABLEFORMAT_END
309
FORMATTEDTABLEDATACELL_END
  1
TABLECELL_BEGIN
 90
        0
 91
        0
309
TABLECELL_END
 91
        0
301
CUSTOMDATA
  1
DATAMAP_BEGIN
 90
        0
309
DATAMAP_END
309
LINKEDTABLEDATAROW_END
  1
FORMATTEDTABLEDATAROW_BEGIN
300
ROWTABLEFORMAT
  1
TABLEFORMAT_BEGIN
 90
        2
170
     0
309
TABLEFORMAT_END
309
FORMATTEDTABLEDATAROW_END
  1
TABLEROW_BEGIN
 90
        3
 40
5.0
309
TABLEROW_END
301
ROW
  1
LINKEDTABLEDATAROW_BEGIN
 90
        5
300
CELL
  1
LINKEDTABLEDATACELL_BEGIN
 90
        0
300

 91
        0
301
CUSTOMDATA
  1
DATAMAP_BEGIN
 90
        1
300
ACAD_ROUNDTRIP_2008_CELL_CHECKSUM
301
DATAMAP_VALUE
 93
        2
 90
        2
140
1361482.0
 94
        0
300

302

304
ACVALUE_END
309
DATAMAP_END
 92
        0
 95
        1
302
CONTENT
  1
CELLCONTENT_BEGIN
 90
        1
300
VALUE
 93
        2
 90
        4
  1
Any integral or partial reproductions are prohibited \Pwithout prior authorisation of L & L Luce & Light s.r.l., \Pin accordance with the law in force. \PAll rights reserved.
 94
        0
300

302
Any integral or partial reproductions are prohibited \Pwithout prior authorisation of L & L Luce & Light s.r.l., \Pin accordance with the law in force. \PAll rights reserved.
304
ACVALUE_END
 91
        0
309
CELLCONTENT_END
  1
FORMATTEDCELLCONTENT_BEGIN
170
     1
300
CONTENTFORMAT
  1
CONTENTFORMAT_BEGIN
 90
      196
 91
        0
 92
      512
 93
        0
300

 40
0.0
140
1.0
 94
        1
 62
     0
340
220
144
2.25
309
CONTENTFORMAT_END
309
FORMATTEDCELLCONTENT_END
309
LINKEDTABLEDATACELL_END
  1
FORMATTEDTABLEDATACELL_BEGIN
300
CELLTABLEFORMAT
  1
TABLEFORMAT_BEGIN
 90
        1
170
     1
 91
       16
 92
        0
 62
   257
 93
        1
300
CONTENTFORMAT
  1
CONTENTFORMAT_BEGIN
 90
       16
 91
        0
 92
      512
 93
        0
300

 40
0.0
140
1.0
 94
        4
 62
     0
340
0
144
0.18
309
CONTENTFORMAT_END
171
     0
 94
        4
 95
        1
302
GRIDFORMAT
  1
GRIDFORMAT_BEGIN
 90
       26
 91
        1
 62
     0
 92
       -2
340
0
 93
        0
 40
0.045
309
GRIDFORMAT_END
 95
        4
302
GRIDFORMAT
  1
GRIDFORMAT_BEGIN
 90
       26
 91
        1
 62
     0
 92
       -2
340
0
 93
        0
 40
0.045
309
GRIDFORMAT_END
 95
        8
302
GRIDFORMAT
  1
GRIDFORMAT_BEGIN
 90
       26
 91
        1
 62
     0
 92
       -2
340
0
 93
        0
 40
0.045
309
GRIDFORMAT_END
 95
       32
302
GRIDFORMAT
  1
GRIDFORMAT_BEGIN
 90
       26
 91
        1
 62
     0
 92
       -2
340
0
 93
        0
 40
0.045
309
GRIDFORMAT_END
309
TABLEFORMAT_END
309
FORMATTEDTABLEDATACELL_END
  1
TABLECELL_BEGIN
 90
        0
 91
        0
309
TABLECELL_END
300
CELL
  1
LINKEDTABLEDATACELL_BEGIN
 90
        0
300

 91
        0
301
CUSTOMDATA
  1
DATAMAP_BEGIN
 90
        0
309
DATAMAP_END
 92
        0
 95
        0
309
LINKEDTABLEDATACELL_END
  1
FORMATTEDTABLEDATACELL_BEGIN
300
CELLTABLEFORMAT
  1
TABLEFORMAT_BEGIN
 90
        1
170
     1
 91
        0
 92
        0
 62
   257
 93
        1
300
CONTENTFORMAT
  1
CONTENTFORMAT_BEGIN
 90
        0
 91
        0
 92
      512
 93
        0
300

 40
0.0
140
1.0
 94
        1
 62
     0
340
0
144
0.18
309
CONTENTFORMAT_END
171
     0
 94
        0
309
TABLEFORMAT_END
309
FORMATTEDTABLEDATACELL_END
  1
TABLECELL_BEGIN
 90
        0
 91
        0
309
TABLECELL_END
300
CELL
  1
LINKEDTABLEDATACELL_BEGIN
 90
        0
300

 91
        0
301
CUSTOMDATA
  1
DATAMAP_BEGIN
 90
        0
309
DATAMAP_END
 92
        0
 95
        0
309
LINKEDTABLEDATACELL_END
  1
FORMATTEDTABLEDATACELL_BEGIN
300
CELLTABLEFORMAT
  1
TABLEFORMAT_BEGIN
 90
        1
170
     1
 91
        0
 92
        0
 62
   257
 93
        1
300
CONTENTFORMAT
  1
CONTENTFORMAT_BEGIN
 90
        0
 91
        0
 92
      512
 93
        0
300

 40
0.0
140
1.0
 94
        1
 62
     0
340
0
144
0.18
309
CONTENTFORMAT_END
171
     0
 94
        0
309
TABLEFORMAT_END
309
FORMATTEDTABLEDATACELL_END
  1
TABLECELL_BEGIN
 90
        0
 91
        0
309
TABLECELL_END
300
CELL
  1
LINKEDTABLEDATACELL_BEGIN
 90
        0
300

 91
        0
301
CUSTOMDATA
  1
DATAMAP_BEGIN
 90
        0
309
DATAMAP_END
 92
        0
 95
        0
309
LINKEDTABLEDATACELL_END
  1
FORMATTEDTABLEDATACELL_BEGIN
300
CELLTABLEFORMAT
  1
TABLEFORMAT_BEGIN
 90
        1
170
     1
 91
        0
 92
        0
 62
   257
 93
        1
300
CONTENTFORMAT
  1
CONTENTFORMAT_BEGIN
 90
        0
 91
        0
 92
      512
 93
        0
300

 40
0.0
140
1.0
 94
        1
 62
     0
340
0
144
0.18
309
CONTENTFORMAT_END
171
     0
 94
        0
309
TABLEFORMAT_END
309
FORMATTEDTABLEDATACELL_END
  1
TABLECELL_BEGIN
 90
        0
 91
        0
309
TABLECELL_END
300
CELL
  1
LINKEDTABLEDATACELL_BEGIN
 90
        0
300

 91
        0
301
CUSTOMDATA
  1
DATAMAP_BEGIN
 90
        0
309
DATAMAP_END
 92
        0
 95
        0
309
LINKEDTABLEDATACELL_END
  1
FORMATTEDTABLEDATACELL_BEGIN
300
CELLTABLEFORMAT
  1
TABLEFORMAT_BEGIN
 90
        1
170
     1
 91
        0
 92
        0
 62
   257
 93
        1
300
CONTENTFORMAT
  1
CONTENTFORMAT_BEGIN
 90
        0
 91
        0
 92
      512
 93
        0
300

 40
0.0
140
1.0
 94
        1
 62
     0
340
0
144
0.18
309
CONTENTFORMAT_END
171
     0
 94
        0
309
TABLEFORMAT_END
309
FORMATTEDTABLEDATACELL_END
  1
TABLECELL_BEGIN
 90
        0
 91
        0
309
TABLECELL_END
 91
        0
301
CUSTOMDATA
  1
DATAMAP_BEGIN
 90
        0
309
DATAMAP_END
309
LINKEDTABLEDATAROW_END
  1
FORMATTEDTABLEDATAROW_BEGIN
300
ROWTABLEFORMAT
  1
TABLEFORMAT_BEGIN
 90
        2
170
     0
309
TABLEFORMAT_END
309
FORMATTEDTABLEDATAROW_END
  1
TABLEROW_BEGIN
 90
        3
 40
13.0
309
TABLEROW_END
100
AcDbFormattedTableData
300
TABLEFORMAT
  1
TABLEFORMAT_BEGIN
 90
        4
170
     1
 91
    15360
 92
        0
 62
   257
 93
        1
300
CONTENTFORMAT
  1
CONTENTFORMAT_BEGIN
 90
        0
 91
        0
 92
      512
 93
        0
300

 40
0.0
140
1.0
 94
        1
 62
     0
340
0
144
0.18
309
CONTENTFORMAT_END
171
     1
301
MARGIN
  1
CELLMARGIN_BEGIN
 40
0.06
 40
0.06
 40
0.06
 40
0.06
 40
0.06
 40
0.06
309
CELLMARGIN_END
 94
        0
309
TABLEFORMAT_END
 90
        4
 91
        0
 92
        0
 93
        3
 94
        2
 91
        2
 92
        3
 93
        2
 94
        4
 91
        3
 92
        3
 93
        3
 94
        4
 91
        4
 92
        0
 93
        4
 94
        4
100
AcDbTableContent
340
634
  0
TABLEGEOMETRY
  5
661
330
663
100
AcDbTableGeometry
 90
        5
 91
        5
 92
       25
 93
        0
 40
0.0
 41
0.0
330
0
 94
        0
 93
        0
 40
0.0
 41
0.0
330
0
 94
        0
 93
        0
 40
0.0
 41
0.0
330
0
 94
        0
 93
        0
 40
0.0
 41
0.0
330
0
 94
        0
 93
        0
 40
0.0
 41
0.0
330
0
 94
        0
 93
        0
 40
0.0
 41
0.0
330
0
 94
        0
 93
        0
 40
0.0
 41
0.0
330
0
 94
        0
 93
        0
 40
0.0
 41
0.0
330
0
 94
        0
 93
        0
 40
0.0
 41
0.0
330
0
 94
        0
 93
        0
 40
0.0
 41
0.0
330
0
 94
        0
 93
        0
 40
0.0
 41
0.0
330
0
 94
        0
 93
        0
 40
0.0
 41
0.0
330
0
 94
        0
 93
        0
 40
0.0
 41
0.0
330
0
 94
        0
 93
        0
 40
0.0
 41
0.0
330
0
 94
        0
 93
        0
 40
0.0
 41
0.0
330
0
 94
        0
 93
        0
 40
0.0
 41
0.0
330
0
 94
        0
 93
        0
 40
0.0
 41
0.0
330
0
 94
        0
 93
        0
 40
0.0
 41
0.0
330
0
 94
        0
 93
        0
 40
0.0
 41
0.0
330
0
 94
        0
 93
        0
 40
0.0
 41
0.0
330
0
 94
        0
 93
        0
 40
0.0
 41
0.0
330
0
 94
        0
 93
        0
 40
0.0
 41
0.0
330
0
 94
        0
 93
        0
 40
0.0
 41
0.0
330
0
 94
        0
 93
        0
 40
0.0
 41
0.0
330
0
 94
        0
 93
        0
 40
0.0
 41
0.0
330
0
 94
        0
  0
DICTIONARY
  5
666
330
634
100
AcDbDictionary
280
     1
281
     1
  3
ACAD_ROUNDTRIP_2008_TABLESTYLE_CELLSTYLEMAP
360
667
  0
CELLSTYLEMAP
  5
667
102
{ACAD_REACTORS
330
666
102
}
330
666
100
AcDbCellStyleMap
 90
        3
300
CELLSTYLE
  1
TABLEFORMAT_BEGIN
 90
        5
170
     1
 91
        0
 92
        0
 62
   257
 93
        1
300
CONTENTFORMAT
  1
CONTENTFORMAT_BEGIN
 90
        0
 91
        0
 92
        4
 93
        0
300

 40
0.0
140
1.0
 94
        5
 62
     0
340
11
144
6.0
309
CONTENTFORMAT_END
171
     1
301
MARGIN
  1
CELLMARGIN_BEGIN
 40
1.5
 40
1.5
 40
1.5
 40
1.5
 40
1.5
 40
1.5
309
CELLMARGIN_END
 94
        6
 95
        1
302
GRIDFORMAT
  1
GRIDFORMAT_BEGIN
 90
        0
 91
        1
 62
     0
 92
       -2
340
14
 93
        0
 40
0.045
309
GRIDFORMAT_END
 95
        2
302
GRIDFORMAT
  1
GRIDFORMAT_BEGIN
 90
        0
 91
        1
 62
     0
 92
       -2
340
14
 93
        0
 40
0.045
309
GRIDFORMAT_END
 95
        4
302
GRIDFORMAT
  1
GRIDFORMAT_BEGIN
 90
        0
 91
        1
 62
     0
 92
       -2
340
14
 93
        0
 40
0.045
309
GRIDFORMAT_END
 95
        8
302
GRIDFORMAT
  1
GRIDFORMAT_BEGIN
 90
        0
 91
        1
 62
     0
 92
       -2
340
14
 93
        0
 40
0.045
309
GRIDFORMAT_END
 95
       16
302
GRIDFORMAT
  1
GRIDFORMAT_BEGIN
 90
        0
 91
        1
 62
     0
 92
       -2
340
14
 93
        0
 40
0.045
309
GRIDFORMAT_END
 95
       32
302
GRIDFORMAT
  1
GRIDFORMAT_BEGIN
 90
        0
 91
        1
 62
     0
 92
       -2
340
14
 93
        0
 40
0.045
309
GRIDFORMAT_END
309
TABLEFORMAT_END
  1
CELLSTYLE_BEGIN
 90
        1
 91
        1
300
_TITLE
309
CELLSTYLE_END
300
CELLSTYLE
  1
TABLEFORMAT_BEGIN
 90
        5
170
     1
 91
        0
 92
        0
 62
   257
 93
        1
300
CONTENTFORMAT
  1
CONTENTFORMAT_BEGIN
 90
        0
 91
        0
 92
        4
 93
        0
300

 40
0.0
140
1.0
 94
        5
 62
     0
340
11
144
4.5
309
CONTENTFORMAT_END
171
     1
301
MARGIN
  1
CELLMARGIN_BEGIN
 40
1.5
 40
1.5
 40
1.5
 40
1.5
 40
1.5
 40
1.5
309
CELLMARGIN_END
 94
        6
 95
        1
302
GRIDFORMAT
  1
GRIDFORMAT_BEGIN
 90
        0
 91
        1
 62
     0
 92
       -2
340
14
 93
        0
 40
0.045
309
GRIDFORMAT_END
 95
        2
302
GRIDFORMAT
  1
GRIDFORMAT_BEGIN
 90
        0
 91
        1
 62
     0
 92
       -2
340
14
 93
        0
 40
0.045
309
GRIDFORMAT_END
 95
        4
302
GRIDFORMAT
  1
GRIDFORMAT_BEGIN
 90
        0
 91
        1
 62
     0
 92
       -2
340
14
 93
        0
 40
0.045
309
GRIDFORMAT_END
 95
        8
302
GRIDFORMAT
  1
GRIDFORMAT_BEGIN
 90
        0
 91
        1
 62
     0
 92
       -2
340
14
 93
        0
 40
0.045
309
GRIDFORMAT_END
 95
       16
302
GRIDFORMAT
  1
GRIDFORMAT_BEGIN
 90
        0
 91
        1
 62
     0
 92
       -2
340
14
 93
        0
 40
0.045
309
GRIDFORMAT_END
 95
       32
302
GRIDFORMAT
  1
GRIDFORMAT_BEGIN
 90
        0
 91
        1
 62
     0
 92
       -2
340
14
 93
        0
 40
0.045
309
GRIDFORMAT_END
309
TABLEFORMAT_END
  1
CELLSTYLE_BEGIN
 90
        2
 91
        1
300
_HEADER
309
CELLSTYLE_END
300
CELLSTYLE
  1
TABLEFORMAT_BEGIN
 90
        5
170
     1
 91
        0
 92
        0
 62
   257
 93
        1
300
CONTENTFORMAT
  1
CONTENTFORMAT_BEGIN
 90
        0
 91
        0
 92
        4
 93
        0
300

 40
0.0
140
1.0
 94
        2
 62
     0
340
11
144
4.5
309
CONTENTFORMAT_END
171
     1
301
MARGIN
  1
CELLMARGIN_BEGIN
 40
1.5
 40
1.5
 40
1.5
 40
1.5
 40
1.5
 40
1.5
309
CELLMARGIN_END
 94
        6
 95
        1
302
GRIDFORMAT
  1
GRIDFORMAT_BEGIN
 90
        0
 91
        1
 62
     0
 92
       -2
340
14
 93
        0
 40
0.045
309
GRIDFORMAT_END
 95
        2
302
GRIDFORMAT
  1
GRIDFORMAT_BEGIN
 90
        0
 91
        1
 62
     0
 92
       -2
340
14
 93
        0
 40
0.045
309
GRIDFORMAT_END
 95
        4
302
GRIDFORMAT
  1
GRIDFORMAT_BEGIN
 90
        0
 91
        1
 62
     0
 92
       -2
340
14
 93
        0
 40
0.045
309
GRIDFORMAT_END
 95
        8
302
GRIDFORMAT
  1
GRIDFORMAT_BEGIN
 90
        0
 91
        1
 62
     0
 92
       -2
340
14
 93
        0
 40
0.045
309
GRIDFORMAT_END
 95
       16
302
GRIDFORMAT
  1
GRIDFORMAT_BEGIN
 90
        0
 91
        1
 62
     0
 92
       -2
340
14
 93
        0
 40
0.045
309
GRIDFORMAT_END
 95
       32
302
GRIDFORMAT
  1
GRIDFORMAT_BEGIN
 90
        0
 91
        1
 62
     0
 92
       -2
340
14
 93
        0
 40
0.045
309
GRIDFORMAT_END
309
TABLEFORMAT_END
  1
CELLSTYLE_BEGIN
 90
        3
 91
        2
300
_DATA
309
CELLSTYLE_END
  0
ENDSEC
  0
EOF
