  0
SECTION
  2
HEADER
  9
$ACADVER
  1
AC1027
  9
$ACADMAINTVER
 70
     8
  9
$DWGCODEPAGE
  3
ANSI_1252
  9
$REQUIREDVERSIONS
160
                 0
  9
$INSBASE
 10
0.0
 20
0.0
 30
0.0
  9
$EXTMIN
 10
0.0
 20
0.0
 30
0.0
  9
$EXTMAX
 10
420.0
 20
297.0
 30
0.0
  9
$LIMMIN
 10
0.0
 20
0.0
  9
$LIMMAX
 10
420.0
 20
297.0
  9
$ORTHOMODE
 70
     0
  9
$REGENMODE
 70
     1
  9
$FILLMODE
 70
     1
  9
$QTEXTMODE
 70
     0
  9
$MIRRTEXT
 70
     1
  9
$LTSCALE
 40
23.1
  9
$ATTMODE
 70
     1
  9
$TEXTSIZE
 40
0.2
  9
$TRACEWID
 40
0.05
  9
$TEXTSTYLE
  7
STANDARD
  9
$CLAYER
  8
0
  9
$CELTYPE
  6
BYLAYER
  9
$CECOLOR
 62
   256
  9
$CELTSCALE
 40
1.0
  9
$DISPSILH
 70
     0
  9
$DIMSCALE
 40
1.0
  9
$DIMASZ
 40
2.5
  9
$DIMEXO
 40
0.75
  9
$DIMDLI
 40
15.96
  9
$DIMRND
 40
0.0
  9
$DIMDLE
 40
0.0
  9
$DIMEXE
 40
0.75
  9
$DIMTP
 40
0.01
  9
$DIMTM
 40
0.01
  9
$DIMTXT
 40
3.0
  9
$DIMCEN
 40
3.78
  9
$DIMTSZ
 40
0.0
  9
$DIMTOL
 70
     1
  9
$DIMLIM
 70
     0
  9
$DIMTIH
 70
     1
  9
$DIMTOH
 70
     1
  9
$DIMSE1
 70
     0
  9
$DIMSE2
 70
     0
  9
$DIMTAD
 70
     0
  9
$DIMZIN
 70
     0
  9
$DIMBLK
  1
CLOSED
  9
$DIMASO
 70
     1
  9
$DIMSHO
 70
     1
  9
$DIMPOST
  1

  9
$DIMAPOST
  1

  9
$DIMALT
 70
     0
  9
$DIMALTD
 70
     2
  9
$DIMALTF
 40
25.4
  9
$DIMLFAC
 40
1.0
  9
$DIMTOFL
 70
     0
  9
$DIMTVP
 40
0.0
  9
$DIMTIX
 70
     0
  9
$DIMSOXD
 70
     0
  9
$DIMSAH
 70
     0
  9
$DIMBLK1
  1

  9
$DIMBLK2
  1

  9
$DIMSTYLE
  2
STANDARD
  9
$DIMCLRD
 70
     0
  9
$DIMCLRE
 70
     0
  9
$DIMCLRT
 70
     0
  9
$DIMTFAC
 40
1.0
  9
$DIMGAP
 40
0.625
  9
$DIMJUST
 70
     0
  9
$DIMSD1
 70
     0
  9
$DIMSD2
 70
     0
  9
$DIMTOLJ
 70
     1
  9
$DIMTZIN
 70
     0
  9
$DIMALTZ
 70
     0
  9
$DIMALTTZ
 70
     0
  9
$DIMUPT
 70
     0
  9
$DIMDEC
 70
     4
  9
$DIMTDEC
 70
     4
  9
$DIMALTU
 70
     2
  9
$DIMALTTD
 70
     2
  9
$DIMTXSTY
  7
STANDARD
  9
$DIMAUNIT
 70
     0
  9
$DIMADEC
 70
     0
  9
$DIMALTRND
 40
0.0
  9
$DIMAZIN
 70
     0
  9
$DIMDSEP
 70
    44
  9
$DIMATFIT
 70
     3
  9
$DIMFRAC
 70
     0
  9
$DIMLDRBLK
  1

  9
$DIMLUNIT
 70
     2
  9
$DIMLWD
 70
    -2
  9
$DIMLWE
 70
    -2
  9
$DIMTMOVE
 70
     0
  9
$DIMFXL
 40
1.0
  9
$DIMFXLON
 70
     0
  9
$DIMJOGANG
 40
0.785398
  9
$DIMTFILL
 70
     0
  9
$DIMTFILLCLR
 70
     0
  9
$DIMARCSYM
 70
     0
  9
$DIMLTYPE
  6

  9
$DIMLTEX1
  6

  9
$DIMLTEX2
  6

  9
$DIMTXTDIRECTION
 70
     0
  9
$LUNITS
 70
     2
  9
$LUPREC
 70
     4
  9
$SKETCHINC
 40
0.1
  9
$FILLETRAD
 40
0.5
  9
$AUNITS
 70
     0
  9
$AUPREC
 70
     0
  9
$MENU
  1
.
  9
$ELEVATION
 40
0.0
  9
$PELEVATION
 40
0.0
  9
$THICKNESS
 40
0.0
  9
$LIMCHECK
 70
     0
  9
$CHAMFERA
 40
0.0
  9
$CHAMFERB
 40
0.0
  9
$CHAMFERC
 40
0.0
  9
$CHAMFERD
 40
0.0
  9
$SKPOLY
 70
     0
  9
$TDCREATE
 40
2447893.041666667
  9
$TDUCREATE
 40
0.0
  9
$TDUPDATE
 40
2460273.583662813
  9
$TDUUPDATE
 40
2460273.541996146
  9
$TDINDWG
 40
0.0
  9
$TDUSRTIMER
 40
0.0
  9
$USRTIMER
 70
     1
  9
$ANGBASE
 50
0.0
  9
$ANGDIR
 70
     0
  9
$PDMODE
 70
     3
  9
$PDSIZE
 40
0.3125
  9
$PLINEWID
 40
0.0
  9
$SPLFRAME
 70
     0
  9
$SPLINETYPE
 70
     6
  9
$SPLINESEGS
 70
     8
  9
$HANDSEED
  5
5B7
  9
$SURFTAB1
 70
     6
  9
$SURFTAB2
 70
     6
  9
$SURFTYPE
 70
     6
  9
$SURFU
 70
     6
  9
$SURFV
 70
     6
  9
$UCSBASE
  2

  9
$UCSNAME
  2

  9
$UCSORG
 10
0.0
 20
0.0
 30
0.0
  9
$UCSXDIR
 10
1.0
 20
0.0
 30
0.0
  9
$UCSYDIR
 10
0.0
 20
1.0
 30
0.0
  9
$UCSORTHOREF
  2

  9
$UCSORTHOVIEW
 70
     0
  9
$UCSORGTOP
 10
0.0
 20
0.0
 30
0.0
  9
$UCSORGBOTTOM
 10
0.0
 20
0.0
 30
0.0
  9
$UCSORGLEFT
 10
0.0
 20
0.0
 30
0.0
  9
$UCSORGRIGHT
 10
0.0
 20
0.0
 30
0.0
  9
$UCSORGFRONT
 10
0.0
 20
0.0
 30
0.0
  9
$UCSORGBACK
 10
0.0
 20
0.0
 30
0.0
  9
$PUCSBASE
  2

  9
$PUCSNAME
  2

  9
$PUCSORG
 10
0.0
 20
0.0
 30
0.0
  9
$PUCSXDIR
 10
1.0
 20
0.0
 30
0.0
  9
$PUCSYDIR
 10
0.0
 20
1.0
 30
0.0
  9
$PUCSORTHOREF
  2

  9
$PUCSORTHOVIEW
 70
     0
  9
$PUCSORGTOP
 10
0.0
 20
0.0
 30
0.0
  9
$PUCSORGBOTTOM
 10
0.0
 20
0.0
 30
0.0
  9
$PUCSORGLEFT
 10
0.0
 20
0.0
 30
0.0
  9
$PUCSORGRIGHT
 10
0.0
 20
0.0
 30
0.0
  9
$PUCSORGFRONT
 10
0.0
 20
0.0
 30
0.0
  9
$PUCSORGBACK
 10
0.0
 20
0.0
 30
0.0
  9
$USERI1
 70
     0
  9
$USERI2
 70
     0
  9
$USERI3
 70
     0
  9
$USERI4
 70
     0
  9
$USERI5
 70
     0
  9
$USERR1
 40
0.0
  9
$USERR2
 40
0.0
  9
$USERR3
 40
0.0
  9
$USERR4
 40
0.0
  9
$USERR5
 40
0.0
  9
$WORLDVIEW
 70
     1
  9
$SHADEDGE
 70
     3
  9
$SHADEDIF
 70
    70
  9
$TILEMODE
 70
     1
  9
$MAXACTVP
 70
    64
  9
$PINSBASE
 10
0.0
 20
0.0
 30
0.0
  9
$PLIMCHECK
 70
     0
  9
$PEXTMIN
 10
1.000000E+20
 20
1.000000E+20
 30
1.000000E+20
  9
$PEXTMAX
 10
-1.000000E+20
 20
-1.000000E+20
 30
-1.000000E+20
  9
$PLIMMIN
 10
0.0
 20
0.0
  9
$PLIMMAX
 10
12.0
 20
9.0
  9
$UNITMODE
 70
     0
  9
$VISRETAIN
 70
     1
  9
$PLINEGEN
 70
     0
  9
$PSLTSCALE
 70
     0
  9
$TREEDEPTH
 70
  3020
  9
$CMLSTYLE
  2

  9
$CMLJUST
 70
     0
  9
$CMLSCALE
 40
1.0
  9
$PROXYGRAPHICS
 70
     1
  9
$MEASUREMENT
 70
     1
  9
$CELWEIGHT
370
    -1
  9
$ENDCAPS
280
     0
  9
$JOINSTYLE
280
     0
  9
$LWDISPLAY
290
     0
  9
$INSUNITS
 70
     4
  9
$HYPERLINKBASE
  1

  9
$STYLESHEET
  1

  9
$XEDIT
290
     1
  9
$CEPSNTYPE
380
     0
  9
$PSTYLEMODE
290
     1
  9
$FINGERPRINTGUID
  2
{6549BEF5-77BA-462D-B0B0-CD049E388997}
  9
$VERSIONGUID
  2
{FAEB1C32-E019-11D5-929B-00C0DF256EC4}
  9
$EXTNAMES
290
     1
  9
$PSVPSCALE
 40
0.0
  9
$OLESTARTUP
290
     0
  9
$SORTENTS
280
   127
  9
$INDEXCTL
280
     0
  9
$HIDETEXT
280
     1
  9
$XCLIPFRAME
280
     2
  9
$HALOGAP
280
     0
  9
$OBSCOLOR
 70
   257
  9
$OBSLTYPE
280
     0
  9
$INTERSECTIONDISPLAY
280
     0
  9
$INTERSECTIONCOLOR
 70
   257
  9
$DIMASSOC
280
     2
  9
$PROJECTNAME
  1

  9
$CAMERADISPLAY
290
     0
  9
$LENSLENGTH
 40
50.0
  9
$CAMERAHEIGHT
 40
0.0
  9
$STEPSPERSEC
 40
2.0
  9
$STEPSIZE
 40
6.0
  9
$3DDWFPREC
 40
2.0
  9
$PSOLWIDTH
 40
0.25
  9
$PSOLHEIGHT
 40
4.0
  9
$LOFTANG1
 40
1.570796
  9
$LOFTANG2
 40
1.570796
  9
$LOFTMAG1
 40
0.0
  9
$LOFTMAG2
 40
0.0
  9
$LOFTPARAM
 70
     7
  9
$LOFTNORMALS
280
     1
  9
$LATITUDE
 40
37.795
  9
$LONGITUDE
 40
-122.394
  9
$NORTHDIRECTION
 40
0.0
  9
$TIMEZONE
 70
 -8000
  9
$LIGHTGLYPHDISPLAY
280
     1
  9
$TILEMODELIGHTSYNCH
280
     1
  9
$SOLIDHIST
280
     1
  9
$SHOWHIST
280
     1
  9
$DWFFRAME
280
     2
  9
$DGNFRAME
280
     2
  9
$REALWORLDSCALE
290
     1
  9
$INTERFERECOLOR
 62
   256
  9
$CSHADOW
280
     0
  9
$SHADOWPLANELOCATION
 40
0.0
  0
ENDSEC
  0
SECTION
  2
CLASSES
  0
CLASS
  1
ACDBDICTIONARYWDFLT
  2
AcDbDictionaryWithDefault
  3
ObjectDBX Classes
 90
        0
 91
        6
280
     0
281
     0
  0
CLASS
  1
ACDBPLACEHOLDER
  2
AcDbPlaceHolder
  3
ObjectDBX Classes
 90
        0
 91
        1
280
     0
281
     0
  0
CLASS
  1
LAYOUT
  2
AcDbLayout
  3
ObjectDBX Classes
 90
        0
 91
        1
280
     0
281
     0
  0
CLASS
  1
TABLESTYLE
  2
AcDbTableStyle
  3
ObjectDBX Classes
 90
     4095
 91
        5
280
     0
281
     0
  0
CLASS
  1
ACAD_TABLE
  2
AcDbTable
  3
ObjectDBX Classes
 90
     1025
 91
        5
280
     0
281
     1
  0
CLASS
  1
SCALE
  2
AcDbScale
  3
ObjectDBX Classes
 90
     1153
 91
        5
280
     0
281
     0
  0
CLASS
  1
TABLEGEOMETRY
  2
AcDbTableGeometry
  3
ObjectDBX Classes
 90
     1152
 91
        4
280
     0
281
     0
  0
CLASS
  1
VISUALSTYLE
  2
AcDbVisualStyle
  3
ObjectDBX Classes
 90
     4095
 91
        5
280
     0
281
     0
  0
CLASS
  1
MATERIAL
  2
AcDbMaterial
  3
ObjectDBX Classes
 90
     1153
 91
        5
280
     0
281
     0
  0
CLASS
  1
SUN
  2
AcDbSun
  3
SCENEOE
 90
     1153
 91
        5
280
     0
281
     0
  0
CLASS
  1
CSACDOCUMENTOPTIONS
  2
CDocDataContainer
  3
"DERU003_CSAPP"
 90
     4095
 91
        4
280
     0
281
     0
  0
CLASS
  1
TABLECONTENT
  2
AcDbTableContent
  3
ObjectDBX Classes
 90
     1152
 91
        4
280
     0
281
     0
  0
CLASS
  1
DICTIONARYVAR
  2
AcDbDictionaryVar
  3
ObjectDBX Classes
 90
        0
 91
        4
280
     0
281
     0
  0
CLASS
  1
CELLSTYLEMAP
  2
AcDbCellStyleMap
  3
ObjectDBX Classes
 90
     1152
 91
        4
280
     0
281
     0
  0
ENDSEC
  0
SECTION
  2
TABLES
  0
TABLE
  2
VPORT
  5
8
330
0
100
AcDbSymbolTable
 70
     1
  0
VPORT
  5
1F4
330
8
100
AcDbSymbolTableRecord
100
AcDbViewportTableRecord
  2
*ACTIVE
 70
     0
 10
0.0
 20
0.0
 11
1.0
 21
1.0
 12
210.0
 22
148.5
 13
0.0
 23
0.0
 14
1.0
 24
1.0
 15
0.0
 25
0.0
 16
0.0
 26
0.0
 36
1.0
 17
0.0
 27
0.0
 37
0.0
 40
297.0
 41
1.980415
 42
50.0
 43
0.0
 44
0.0
 50
0.0
 51
0.0
 71
    16
 72
   100
 73
     1
 74
     1
 75
     0
 76
     0
 77
     0
 78
     0
281
     0
 65
     1
110
0.0
120
0.0
130
0.0
111
1.0
121
0.0
131
0.0
112
0.0
122
1.0
132
0.0
 79
     0
146
0.0
 60
     3
 61
     5
292
     1
282
     1
141
0.0
142
0.0
 63
   256
361
5A2
  0
ENDTAB
  0
TABLE
  2
LTYPE
  5
5
330
0
100
AcDbSymbolTable
 70
     6
  0
LTYPE
  5
14
330
5
100
AcDbSymbolTableRecord
100
AcDbLinetypeTableRecord
  2
BYBLOCK
 70
     0
  3

 72
    65
 73
     0
 40
0.0
  0
LTYPE
  5
15
330
5
100
AcDbSymbolTableRecord
100
AcDbLinetypeTableRecord
  2
BYLAYER
 70
     0
  3

 72
    65
 73
     0
 40
0.0
  0
LTYPE
  5
16
330
5
100
AcDbSymbolTableRecord
100
AcDbLinetypeTableRecord
  2
CONTINUOUS
 70
     0
  3
Solid line
 72
    65
 73
     0
 40
0.0
  0
LTYPE
  5
1F5
330
5
100
AcDbSymbolTableRecord
100
AcDbLinetypeTableRecord
  2
CENTER
 70
     0
  3
____ _ ____ _ ____ _ ____ _ ____ _ ____ _ ____
 72
    65
 73
     4
 40
0.6
 49
0.375
 74
     0
 49
-0.075
 74
     0
 49
0.075
 74
     0
 49
-0.075
 74
     0
  0
LTYPE
  5
1F6
330
5
100
AcDbSymbolTableRecord
100
AcDbLinetypeTableRecord
  2
HIDDEN
 70
     0
  3
- - - - - - - - - - - - - - - - - - - -
 72
    65
 73
     2
 40
0.2
 49
0.1
 74
     0
 49
-0.1
 74
     0
  0
LTYPE
  5
1F7
330
5
100
AcDbSymbolTableRecord
100
AcDbLinetypeTableRecord
  2
PHANTOM
 70
     0
  3
_____ _ _ _____ _ _ _____ _ _ _____
 72
    65
 73
     6
 40
0.8
 49
0.45
 74
     0
 49
-0.05
 74
     0
 49
0.1
 74
     0
 49
-0.05
 74
     0
 49
0.1
 74
     0
 49
-0.05
 74
     0
  0
LTYPE
  5
1F8
330
5
100
AcDbSymbolTableRecord
100
AcDbLinetypeTableRecord
  2
DOT
 70
     0
  3
. . . . . . . . . . . . . . . . . . . .
 72
    65
 73
     2
 40
0.2
 49
0.1
 74
     0
 49
-0.1
 74
     0
  0
LTYPE
  5
1F9
330
5
100
AcDbSymbolTableRecord
100
AcDbLinetypeTableRecord
  2
DASHED
 70
     0
  3
- - - - - - - - - - - - - - - - - - - -
 72
    65
 73
     2
 40
0.2
 49
0.1
 74
     0
 49
-0.1
 74
     0
  0
ENDTAB
  0
TABLE
  2
LAYER
  5
2
330
0
100
AcDbSymbolTable
 70
    41
  0
LAYER
  5
10
330
2
100
AcDbSymbolTableRecord
100
AcDbLayerTableRecord
  2
0
 70
     0
 62
     7
  6
CONTINUOUS
370
    -3
390
F
347
59C
348
0
  0
LAYER
  5
1FA
330
2
100
AcDbSymbolTableRecord
100
AcDbLayerTableRecord
  2
DEFAULT_1
 70
     0
 62
     7
  6
CENTER
370
    -3
390
F
347
59C
348
0
  0
LAYER
  5
1FB
330
2
100
AcDbSymbolTableRecord
100
AcDbLayerTableRecord
  2
DEFAULT_2
 70
     0
 62
     8
  6
HIDDEN
370
    -3
390
F
347
59C
348
0
  0
LAYER
  5
1FC
330
2
100
AcDbSymbolTableRecord
100
AcDbLayerTableRecord
  2
DEFAULT_3
 70
     0
 62
     7
  6
PHANTOM
370
    -3
390
F
347
59C
348
0
  0
LAYER
  5
1FD
330
2
100
AcDbSymbolTableRecord
100
AcDbLayerTableRecord
  2
01_ALL_DTM_PLN
 70
     0
 62
     7
  6
CONTINUOUS
370
    -3
390
F
347
59C
348
0
  0
LAYER
  5
1FE
330
2
100
AcDbSymbolTableRecord
100
AcDbLayerTableRecord
  2
01__ASM_ALL_DTM_PLN
 70
     0
 62
     7
  6
CONTINUOUS
370
    -3
390
F
347
59C
348
0
  0
LAYER
  5
1FF
330
2
100
AcDbSymbolTableRecord
100
AcDbLayerTableRecord
  2
01__ASM_DEF_DTM_PLN
 70
     0
 62
     7
  6
CONTINUOUS
370
    -3
390
F
347
59C
348
0
  0
LAYER
  5
200
330
2
100
AcDbSymbolTableRecord
100
AcDbLayerTableRecord
  2
01___PRT_ALL_DTM_PLN
 70
     0
 62
     7
  6
CONTINUOUS
370
    -3
390
F
347
59C
348
0
  0
LAYER
  5
201
330
2
100
AcDbSymbolTableRecord
100
AcDbLayerTableRecord
  2
01___PRT_DEF_DTM_PLN
 70
     0
 62
     7
  6
CONTINUOUS
370
    -3
390
F
347
59C
348
0
  0
LAYER
  5
202
330
2
100
AcDbSymbolTableRecord
100
AcDbLayerTableRecord
  2
02_ALL_AXES
 70
     0
 62
     7
  6
CONTINUOUS
370
    -3
390
F
347
59C
348
0
  0
LAYER
  5
203
330
2
100
AcDbSymbolTableRecord
100
AcDbLayerTableRecord
  2
02__ASM_ALL_AXES
 70
     0
 62
     7
  6
CONTINUOUS
370
    -3
390
F
347
59C
348
0
  0
LAYER
  5
204
330
2
100
AcDbSymbolTableRecord
100
AcDbLayerTableRecord
  2
02___PRT_ALL_AXES
 70
     0
 62
     7
  6
CONTINUOUS
370
    -3
390
F
347
59C
348
0
  0
LAYER
  5
205
330
2
100
AcDbSymbolTableRecord
100
AcDbLayerTableRecord
  2
03_ALL_CURVES
 70
     0
 62
     7
  6
CONTINUOUS
370
    -3
390
F
347
59C
348
0
  0
LAYER
  5
206
330
2
100
AcDbSymbolTableRecord
100
AcDbLayerTableRecord
  2
03__ASM_ALL_CURVES
 70
     0
 62
     7
  6
CONTINUOUS
370
    -3
390
F
347
59C
348
0
  0
LAYER
  5
207
330
2
100
AcDbSymbolTableRecord
100
AcDbLayerTableRecord
  2
03___PRT_ALL_CURVES
 70
     0
 62
     7
  6
CONTINUOUS
370
    -3
390
F
347
59C
348
0
  0
LAYER
  5
208
330
2
100
AcDbSymbolTableRecord
100
AcDbLayerTableRecord
  2
04_ALL_DTM_PNT
 70
     0
 62
     7
  6
CONTINUOUS
370
    -3
390
F
347
59C
348
0
  0
LAYER
  5
209
330
2
100
AcDbSymbolTableRecord
100
AcDbLayerTableRecord
  2
04__ASM_ALL_DTM_PNT
 70
     0
 62
     7
  6
CONTINUOUS
370
    -3
390
F
347
59C
348
0
  0
LAYER
  5
20A
330
2
100
AcDbSymbolTableRecord
100
AcDbLayerTableRecord
  2
04___PRT_ALL_DTM_PNT
 70
     0
 62
     7
  6
CONTINUOUS
370
    -3
390
F
347
59C
348
0
  0
LAYER
  5
20B
330
2
100
AcDbSymbolTableRecord
100
AcDbLayerTableRecord
  2
05_ALL_DTM_CSYS
 70
     0
 62
     7
  6
CONTINUOUS
370
    -3
390
F
347
59C
348
0
  0
LAYER
  5
20C
330
2
100
AcDbSymbolTableRecord
100
AcDbLayerTableRecord
  2
05__ASM_ALL_DTM_CSYS
 70
     0
 62
     7
  6
CONTINUOUS
370
    -3
390
F
347
59C
348
0
  0
LAYER
  5
20D
330
2
100
AcDbSymbolTableRecord
100
AcDbLayerTableRecord
  2
05__ASM_DEF_DTM_CSYS
 70
     0
 62
     7
  6
CONTINUOUS
370
    -3
390
F
347
59C
348
0
  0
LAYER
  5
20E
330
2
100
AcDbSymbolTableRecord
100
AcDbLayerTableRecord
  2
05___PRT_ALL_DTM_CSYS
 70
     0
 62
     7
  6
CONTINUOUS
370
    -3
390
F
347
59C
348
0
  0
LAYER
  5
20F
330
2
100
AcDbSymbolTableRecord
100
AcDbLayerTableRecord
  2
05___PRT_DEF_DTM_CSYS
 70
     0
 62
     7
  6
CONTINUOUS
370
    -3
390
F
347
59C
348
0
  0
LAYER
  5
210
330
2
100
AcDbSymbolTableRecord
100
AcDbLayerTableRecord
  2
06_ALL_SURFS
 70
     0
 62
     7
  6
CONTINUOUS
370
    -3
390
F
347
59C
348
0
  0
LAYER
  5
211
330
2
100
AcDbSymbolTableRecord
100
AcDbLayerTableRecord
  2
06__ASM_ALL_SURFS
 70
     0
 62
     7
  6
CONTINUOUS
370
    -3
390
F
347
59C
348
0
  0
LAYER
  5
212
330
2
100
AcDbSymbolTableRecord
100
AcDbLayerTableRecord
  2
06___PRT_ALL_SURFS
 70
     0
 62
     7
  6
CONTINUOUS
370
    -3
390
F
347
59C
348
0
  0
LAYER
  5
213
330
2
100
AcDbSymbolTableRecord
100
AcDbLayerTableRecord
  2
07__ASM_ALL_SKELETONS
 70
     0
 62
     7
  6
CONTINUOUS
370
    -3
390
F
347
59C
348
0
  0
LAYER
  5
214
330
2
100
AcDbSymbolTableRecord
100
AcDbLayerTableRecord
  2
1_ALL_PLANES
 70
     0
 62
     7
  6
CONTINUOUS
370
    -3
390
F
347
59C
348
0
  0
LAYER
  5
215
330
2
100
AcDbSymbolTableRecord
100
AcDbLayerTableRecord
  2
1__APPOGGIO
 70
     0
 62
     7
  6
CONTINUOUS
370
    -3
390
F
347
59C
348
0
  0
LAYER
  5
216
330
2
100
AcDbSymbolTableRecord
100
AcDbLayerTableRecord
  2
2_ALL_CSYS
 70
     0
 62
     7
  6
CONTINUOUS
370
    -3
390
F
347
59C
348
0
  0
LAYER
  5
217
330
2
100
AcDbSymbolTableRecord
100
AcDbLayerTableRecord
  2
3_ALL_AXES
 70
     0
 62
     7
  6
CONTINUOUS
370
    -3
390
F
347
59C
348
0
  0
LAYER
  5
218
330
2
100
AcDbSymbolTableRecord
100
AcDbLayerTableRecord
  2
4_ALL_POINTS
 70
     0
 62
     7
  6
CONTINUOUS
370
    -3
390
F
347
59C
348
0
  0
LAYER
  5
219
330
2
100
AcDbSymbolTableRecord
100
AcDbLayerTableRecord
  2
5_ALL_CURVES
 70
     0
 62
     7
  6
CONTINUOUS
370
    -3
390
F
347
59C
348
0
  0
LAYER
  5
21A
330
2
100
AcDbSymbolTableRecord
100
AcDbLayerTableRecord
  2
5__COSTRUZIONE
 70
     0
 62
     7
  6
CONTINUOUS
370
    -3
390
F
347
59C
348
0
  0
LAYER
  5
21B
330
2
100
AcDbSymbolTableRecord
100
AcDbLayerTableRecord
  2
6_ALL_SURFS
 70
     0
 62
     7
  6
CONTINUOUS
370
    -3
390
F
347
59C
348
0
  0
LAYER
  5
21C
330
2
100
AcDbSymbolTableRecord
100
AcDbLayerTableRecord
  2
7_ALL_FEATURES
 70
     0
 62
     7
  6
CONTINUOUS
370
    -3
390
F
347
59C
348
0
  0
LAYER
  5
21D
330
2
100
AcDbSymbolTableRecord
100
AcDbLayerTableRecord
  2
9_SOLID
 70
     0
 62
     7
  6
CONTINUOUS
370
    -3
390
F
347
59C
348
0
  0
LAYER
  5
21E
330
2
100
AcDbSymbolTableRecord
100
AcDbLayerTableRecord
  2
CLOSED_SHELL
 70
     0
 62
     7
  6
CONTINUOUS
370
    -3
390
F
347
59C
348
0
  0
LAYER
  5
21F
330
2
100
AcDbSymbolTableRecord
100
AcDbLayerTableRecord
  2
WHITE
 70
     0
 62
     7
  6
CONTINUOUS
370
    -3
390
F
347
59C
348
0
  0
LAYER
  5
220
330
2
100
AcDbSymbolTableRecord
100
AcDbLayerTableRecord
  2
XSEC_DATUMS
 70
     0
 62
     7
  6
CONTINUOUS
370
    -3
390
F
347
59C
348
0
  0
LAYER
  5
221
330
2
100
AcDbSymbolTableRecord
100
AcDbLayerTableRecord
  2
XXX_SOLIDO
 70
     0
 62
     7
  6
CONTINUOUS
370
    -3
390
F
347
59C
348
0
  0
ENDTAB
  0
TABLE
  2
STYLE
  5
3
330
0
100
AcDbSymbolTable
 70
     4
  0
STYLE
  5
11
330
3
100
AcDbSymbolTableRecord
100
AcDbTextStyleTableRecord
  2
STANDARD
 70
     0
 40
0.0
 41
1.0
 50
0.0
 71
     0
 42
0.2
  3
arial.ttf
  4

  0
STYLE
  5
222
330
3
100
AcDbSymbolTableRecord
100
AcDbTextStyleTableRecord
  2
TEXTSTYLE_1
 70
     0
 40
0.0
 41
0.8
 50
0.0
 71
     0
 42
0.2
  3
gdt
  4

  0
STYLE
  5
223
330
3
100
AcDbSymbolTableRecord
100
AcDbTextStyleTableRecord
  2
TEXTSTYLE_2
 70
     0
 40
0.0
 41
0.9
 50
0.0
 71
     0
 42
0.2
  3
txt
  4

  0
STYLE
  5
224
330
3
100
AcDbSymbolTableRecord
100
AcDbTextStyleTableRecord
  2
TEXTSTYLE_3
 70
     0
 40
0.0
 41
0.9
 50
0.0
 71
     0
 42
0.2
  3
txt
  4

  0
ENDTAB
  0
TABLE
  2
VIEW
  5
6
330
0
100
AcDbSymbolTable
 70
     0
  0
ENDTAB
  0
TABLE
  2
UCS
  5
7
330
0
100
AcDbSymbolTable
 70
     0
  0
ENDTAB
  0
TABLE
  2
APPID
  5
9
330
0
100
AcDbSymbolTable
 70
     6
  0
APPID
  5
225
330
9
100
AcDbSymbolTableRecord
100
AcDbRegAppTableRecord
  2
ACAD
 70
     0
  0
APPID
  5
59D
330
9
100
AcDbSymbolTableRecord
100
AcDbRegAppTableRecord
  2
MCS_DIM1
 70
     0
  0
APPID
  5
59E
330
9
100
AcDbSymbolTableRecord
100
AcDbRegAppTableRecord
  2
McsXdata5
 70
     0
  0
APPID
  5
5A1
330
9
100
AcDbSymbolTableRecord
100
AcDbRegAppTableRecord
  2
MCS_DOCUMENT_ID
 70
     0
  0
APPID
  5
5A7
330
9
100
AcDbSymbolTableRecord
100
AcDbRegAppTableRecord
  2
MCS_PARAMS_DATA
 70
     0
  0
APPID
  5
5A9
330
9
100
AcDbSymbolTableRecord
100
AcDbRegAppTableRecord
  2
MC_VERSION_DATA
 70
     0
  0
ENDTAB
  0
TABLE
  2
DIMSTYLE
  5
A
330
0
100
AcDbSymbolTable
 70
     2
100
AcDbDimStyleTable
  0
DIMSTYLE
105
232
330
A
100
AcDbSymbolTableRecord
100
AcDbDimStyleTableRecord
  2
STANDARD
 70
     0
 41
2.5
 42
0.75
 44
0.75
 47
0.01
 48
0.01
 71
     1
 73
     0
 74
     0
 77
     1
 78
     8
 79
     2
140
3.0
147
0.625
171
     1
178
     0
179
     2
271
     2
272
     2
278
    44
284
     8
340
11
341
228
342
228
343
228
344
228
  0
DIMSTYLE
105
233
330
A
100
AcDbSymbolTableRecord
100
AcDbDimStyleTableRecord
  2
DIMSTYLE_1
 70
     0
 41
2.5
 42
0.75
 44
0.75
 47
0.3
 48
0.3
 73
     0
 74
     0
 77
     1
 78
     8
 79
     2
140
3.0
147
0.75
171
     1
178
     0
179
     2
271
     2
272
     2
278
    44
284
     8
340
11
341
228
342
228
343
228
344
228
  0
ENDTAB
  0
TABLE
  2
BLOCK_RECORD
  5
1
330
0
100
AcDbSymbolTable
 70
    10
  0
BLOCK_RECORD
  5
226
330
1
100
AcDbSymbolTableRecord
100
AcDbBlockTableRecord
  2
*Model_Space
340
557
 70
     0
280
     1
281
     0
  0
BLOCK_RECORD
  5
227
330
1
100
AcDbSymbolTableRecord
100
AcDbBlockTableRecord
  2
*Paper_Space
340
558
 70
     0
280
     1
281
     0
  0
BLOCK_RECORD
  5
228
330
1
100
AcDbSymbolTableRecord
100
AcDbBlockTableRecord
  2
_CLOSED
340
0
102
{BLKREFS
331
27C
331
27D
331
285
331
286
331
28E
331
28F
331
297
331
298
331
2A0
331
2A1
331
2A9
331
2AA
331
2B2
331
2B3
102
}
 70
     0
280
     1
281
     0
  0
BLOCK_RECORD
  5
229
330
1
100
AcDbSymbolTableRecord
100
AcDbBlockTableRecord
  2
*D1
340
0
 70
     0
280
     1
281
     0
  0
BLOCK_RECORD
  5
22A
330
1
100
AcDbSymbolTableRecord
100
AcDbBlockTableRecord
  2
*D2
340
0
 70
     0
280
     1
281
     0
  0
BLOCK_RECORD
  5
22B
330
1
100
AcDbSymbolTableRecord
100
AcDbBlockTableRecord
  2
*D3
340
0
 70
     0
280
     1
281
     0
  0
BLOCK_RECORD
  5
22C
330
1
100
AcDbSymbolTableRecord
100
AcDbBlockTableRecord
  2
*D4
340
0
 70
     0
280
     1
281
     0
  0
BLOCK_RECORD
  5
22D
330
1
100
AcDbSymbolTableRecord
100
AcDbBlockTableRecord
  2
*D5
340
0
 70
     0
280
     1
281
     0
  0
BLOCK_RECORD
  5
22E
330
1
100
AcDbSymbolTableRecord
100
AcDbBlockTableRecord
  2
*D6
340
0
 70
     0
280
     1
281
     0
  0
BLOCK_RECORD
  5
22F
330
1
100
AcDbSymbolTableRecord
100
AcDbBlockTableRecord
  2
*D7
340
0
 70
     0
280
     1
281
     0
  0
BLOCK_RECORD
  5
230
330
1
100
AcDbSymbolTableRecord
100
AcDbBlockTableRecord
  2
LOGO2_BL0
340
0
102
{BLKREFS
331
554
102
}
 70
     0
280
     1
281
     0
  0
BLOCK_RECORD
  5
231
330
1
100
AcDbSymbolTableRecord
100
AcDbBlockTableRecord
  2
*T9
340
0
102
{BLKREFS
331
555
102
}
 70
     0
280
     1
281
     0
  0
ENDTAB
  0
ENDSEC
  0
SECTION
  2
BLOCKS
  0
BLOCK
  5
20
330
226
100
AcDbEntity
  8
0
100
AcDbBlockBegin
  2
*Model_Space
 70
     0
 10
0.0
 20
0.0
 30
0.0
  3
*Model_Space
  1
*Model_Space
  0
ENDBLK
  5
21
330
226
100
AcDbEntity
  8
0
100
AcDbBlockEnd
  0
BLOCK
  5
1C
330
227
100
AcDbEntity
 67
     1
  8
0
100
AcDbBlockBegin
  2
*Paper_Space
 70
     0
 10
0.0
 20
0.0
 30
0.0
  3
*Paper_Space
  1
*Paper_Space
  0
ENDBLK
  5
1D
330
227
100
AcDbEntity
 67
     1
  8
0
100
AcDbBlockEnd
  0
BLOCK
  5
270
330
228
100
AcDbEntity
  8
0
100
AcDbBlockBegin
  2
_CLOSED
 70
     0
 10
0.0
 20
0.0
 30
0.0
  3
_CLOSED
  1
_CLOSED
  0
LINE
  5
271
330
228
100
AcDbEntity
  8
0
  6
ByBlock
 62
     0
100
AcDbLine
 10
0.0
 20
0.0
 30
0.0
 11
-1.0
 21
0.2
 31
0.0
  0
LINE
  5
272
330
228
100
AcDbEntity
  8
0
  6
ByBlock
 62
     0
100
AcDbLine
 10
-1.0
 20
0.2
 30
0.0
 11
-1.0
 21
-0.2
 31
0.0
  0
LINE
  5
273
330
228
100
AcDbEntity
  8
0
  6
ByBlock
 62
     0
100
AcDbLine
 10
-1.0
 20
-0.2
 30
0.0
 11
0.0
 21
0.0
 31
0.0
  0
LINE
  5
274
330
228
100
AcDbEntity
  8
0
  6
ByBlock
 62
     0
100
AcDbLine
 10
-1.0
 20
0.0
 30
0.0
 11
0.0
 21
0.0
 31
0.0
  0
ENDBLK
  5
275
330
228
100
AcDbEntity
  8
0
  6
ByBlock
 62
     0
100
AcDbBlockEnd
  0
BLOCK
  5
276
330
229
100
AcDbEntity
  8
0
100
AcDbBlockBegin
  2
*D1
 70
     1
 10
0.0
 20
0.0
 30
0.0
  3
*D1
  1
*D1
  0
MTEXT
  5
277
330
229
100
AcDbEntity
  8
0
  6
Continuous
 62
     2
100
AcDbMText
 10
46.710539
 20
204.50612
 30
0.0
 40
3.0
 41
8.152416
 46
0.0
 71
     2
 72
     1
  1
97,5
 11
0.0
 21
1.0
 31
0.0
 73
     1
 44
0.9
  0
LINE
  5
278
330
229
100
AcDbEntity
  8
0
  6
Continuous
 62
     2
100
AcDbLine
 10
83.643325
 20
253.25612
 30
0.0
 11
49.710539
 21
253.25612
 31
0.0
  0
LINE
  5
279
330
229
100
AcDbEntity
  8
0
  6
Continuous
 62
     2
100
AcDbLine
 10
145.643325
 20
155.75612
 30
0.0
 11
49.710539
 21
155.75612
 31
0.0
  0
LINE
  5
27A
330
229
100
AcDbEntity
  8
0
  6
Continuous
 62
     2
100
AcDbLine
 10
50.460539
 20
253.25612
 30
0.0
 11
50.460539
 21
204.50612
 31
0.0
  0
LINE
  5
27B
330
229
100
AcDbEntity
  8
0
  6
Continuous
 62
     2
100
AcDbLine
 10
50.460539
 20
155.75612
 30
0.0
 11
50.460539
 21
204.50612
 31
0.0
  0
INSERT
  5
27C
330
229
100
AcDbEntity
  8
0
  6
Continuous
 62
     2
100
AcDbBlockReference
  2
_CLOSED
 10
50.460539
 20
253.25612
 30
0.0
 41
2.5
 42
2.5
 43
2.5
 50
90.0
  0
INSERT
  5
27D
330
229
100
AcDbEntity
  8
0
  6
Continuous
 62
     2
100
AcDbBlockReference
  2
_CLOSED
 10
50.460539
 20
155.75612
 30
0.0
 41
2.5
 42
2.5
 43
2.5
 50
270.0
  0
ENDBLK
  5
27E
330
229
100
AcDbEntity
  8
0
  6
ByBlock
 62
     0
100
AcDbBlockEnd
  0
BLOCK
  5
27F
330
22A
100
AcDbEntity
  8
0
100
AcDbBlockBegin
  2
*D2
 70
     1
 10
0.0
 20
0.0
 30
0.0
  3
*D2
  1
*D2
  0
MTEXT
  5
280
330
22A
100
AcDbEntity
  8
0
  6
Continuous
 62
     2
100
AcDbMText
 10
113.893325
 20
272.940135
 30
0.0
 40
3.0
 41
4.66171
 46
0.0
 71
     2
 72
     1
  1
60
 73
     1
 44
0.9
  0
LINE
  5
281
330
22A
100
AcDbEntity
  8
0
  6
Continuous
 62
     2
100
AcDbLine
 10
83.893325
 20
253.50612
 30
0.0
 11
83.893325
 21
269.940135
 31
0.0
  0
LINE
  5
282
330
22A
100
AcDbEntity
  8
0
  6
Continuous
 62
     2
100
AcDbLine
 10
143.893325
 20
253.50612
 30
0.0
 11
143.893325
 21
269.940135
 31
0.0
  0
LINE
  5
283
330
22A
100
AcDbEntity
  8
0
  6
Continuous
 62
     2
100
AcDbLine
 10
83.893325
 20
269.190135
 30
0.0
 11
113.893325
 21
269.190135
 31
0.0
  0
LINE
  5
284
330
22A
100
AcDbEntity
  8
0
  6
Continuous
 62
     2
100
AcDbLine
 10
143.893325
 20
269.190135
 30
0.0
 11
113.893325
 21
269.190135
 31
0.0
  0
INSERT
  5
285
330
22A
100
AcDbEntity
  8
0
  6
Continuous
 62
     2
100
AcDbBlockReference
  2
_CLOSED
 10
83.893325
 20
269.190135
 30
0.0
 41
2.5
 42
2.5
 43
2.5
 50
180.0
  0
INSERT
  5
286
330
22A
100
AcDbEntity
  8
0
  6
Continuous
 62
     2
100
AcDbBlockReference
  2
_CLOSED
 10
143.893325
 20
269.190135
 30
0.0
 41
2.5
 42
2.5
 43
2.5
  0
ENDBLK
  5
287
330
22A
100
AcDbEntity
  8
0
  6
ByBlock
 62
     0
100
AcDbBlockEnd
  0
BLOCK
  5
288
330
22B
100
AcDbEntity
  8
0
100
AcDbBlockBegin
  2
*D3
 70
     1
 10
0.0
 20
0.0
 30
0.0
  3
*D3
  1
*D3
  0
MTEXT
  5
289
330
22B
100
AcDbEntity
  8
0
  6
Continuous
 62
     2
100
AcDbMText
 10
127.643325
 20
123.077275
 30
0.0
 40
3.0
 41
8.152416
 46
0.0
 71
     2
 72
     1
  1
87,5
 73
     1
 44
0.9
  0
LINE
  5
28A
330
22B
100
AcDbEntity
  8
0
  6
Continuous
 62
     2
100
AcDbLine
 10
83.893325
 20
100.45294
 30
0.0
 11
83.893325
 21
120.077275
 31
0.0
  0
LINE
  5
28B
330
22B
100
AcDbEntity
  8
0
  6
Continuous
 62
     2
100
AcDbLine
 10
171.393325
 20
95.45294
 30
0.0
 11
171.393325
 21
120.077275
 31
0.0
  0
LINE
  5
28C
330
22B
100
AcDbEntity
  8
0
  6
Continuous
 62
     2
100
AcDbLine
 10
83.893325
 20
119.327275
 30
0.0
 11
127.643325
 21
119.327275
 31
0.0
  0
LINE
  5
28D
330
22B
100
AcDbEntity
  8
0
  6
Continuous
 62
     2
100
AcDbLine
 10
171.393325
 20
119.327275
 30
0.0
 11
127.643325
 21
119.327275
 31
0.0
  0
INSERT
  5
28E
330
22B
100
AcDbEntity
  8
0
  6
Continuous
 62
     2
100
AcDbBlockReference
  2
_CLOSED
 10
83.893325
 20
119.327275
 30
0.0
 41
2.5
 42
2.5
 43
2.5
 50
180.0
  0
INSERT
  5
28F
330
22B
100
AcDbEntity
  8
0
  6
Continuous
 62
     2
100
AcDbBlockReference
  2
_CLOSED
 10
171.393325
 20
119.327275
 30
0.0
 41
2.5
 42
2.5
 43
2.5
  0
ENDBLK
  5
290
330
22B
100
AcDbEntity
  8
0
  6
ByBlock
 62
     0
100
AcDbBlockEnd
  0
BLOCK
  5
291
330
22C
100
AcDbEntity
  8
0
100
AcDbBlockBegin
  2
*D4
 70
     1
 10
0.0
 20
0.0
 30
0.0
  3
*D4
  1
*D4
  0
MTEXT
  5
292
330
22C
100
AcDbEntity
  8
0
  6
Continuous
 62
     2
100
AcDbMText
 10
285.908288
 20
272.940135
 30
0.0
 40
3.0
 41
4.66171
 46
0.0
 71
     2
 72
     1
  1
55
 73
     1
 44
0.9
  0
LINE
  5
293
330
22C
100
AcDbEntity
  8
0
  6
Continuous
 62
     2
100
AcDbLine
 10
258.408288
 20
253.50612
 30
0.0
 11
258.408288
 21
269.940135
 31
0.0
  0
LINE
  5
294
330
22C
100
AcDbEntity
  8
0
  6
Continuous
 62
     2
100
AcDbLine
 10
313.408288
 20
253.50612
 30
0.0
 11
313.408288
 21
269.940135
 31
0.0
  0
LINE
  5
295
330
22C
100
AcDbEntity
  8
0
  6
Continuous
 62
     2
100
AcDbLine
 10
258.408288
 20
269.190135
 30
0.0
 11
285.908288
 21
269.190135
 31
0.0
  0
LINE
  5
296
330
22C
100
AcDbEntity
  8
0
  6
Continuous
 62
     2
100
AcDbLine
 10
313.408288
 20
269.190135
 30
0.0
 11
285.908288
 21
269.190135
 31
0.0
  0
INSERT
  5
297
330
22C
100
AcDbEntity
  8
0
  6
Continuous
 62
     2
100
AcDbBlockReference
  2
_CLOSED
 10
258.408288
 20
269.190135
 30
0.0
 41
2.5
 42
2.5
 43
2.5
 50
180.0
  0
INSERT
  5
298
330
22C
100
AcDbEntity
  8
0
  6
Continuous
 62
     2
100
AcDbBlockReference
  2
_CLOSED
 10
313.408288
 20
269.190135
 30
0.0
 41
2.5
 42
2.5
 43
2.5
  0
ENDBLK
  5
299
330
22C
100
AcDbEntity
  8
0
  6
ByBlock
 62
     0
100
AcDbBlockEnd
  0
BLOCK
  5
29A
330
22D
100
AcDbEntity
  8
0
100
AcDbBlockBegin
  2
*D5
 70
     1
 10
0.0
 20
0.0
 30
0.0
  3
*D5
  1
*D5
  0
MTEXT
  5
29B
330
22D
100
AcDbEntity
  8
0
  6
Continuous
 62
     2
100
AcDbMText
 10
236.582767
 20
225.75612
 30
0.0
 40
3.0
 41
4.66171
 46
0.0
 71
     2
 72
     1
  1
55
 11
0.0
 21
1.0
 31
0.0
 73
     1
 44
0.9
  0
LINE
  5
29C
330
22D
100
AcDbEntity
  8
0
  6
Continuous
 62
     2
100
AcDbLine
 10
258.158288
 20
253.25612
 30
0.0
 11
239.582767
 21
253.25612
 31
0.0
  0
LINE
  5
29D
330
22D
100
AcDbEntity
  8
0
  6
Continuous
 62
     2
100
AcDbLine
 10
258.158288
 20
198.25612
 30
0.0
 11
239.582767
 21
198.25612
 31
0.0
  0
LINE
  5
29E
330
22D
100
AcDbEntity
  8
0
  6
Continuous
 62
     2
100
AcDbLine
 10
240.332767
 20
253.25612
 30
0.0
 11
240.332767
 21
225.75612
 31
0.0
  0
LINE
  5
29F
330
22D
100
AcDbEntity
  8
0
  6
Continuous
 62
     2
100
AcDbLine
 10
240.332767
 20
198.25612
 30
0.0
 11
240.332767
 21
225.75612
 31
0.0
  0
INSERT
  5
2A0
330
22D
100
AcDbEntity
  8
0
  6
Continuous
 62
     2
100
AcDbBlockReference
  2
_CLOSED
 10
240.332767
 20
253.25612
 30
0.0
 41
2.5
 42
2.5
 43
2.5
 50
90.0
  0
INSERT
  5
2A1
330
22D
100
AcDbEntity
  8
0
  6
Continuous
 62
     2
100
AcDbBlockReference
  2
_CLOSED
 10
240.332767
 20
198.25612
 30
0.0
 41
2.5
 42
2.5
 43
2.5
 50
270.0
  0
ENDBLK
  5
2A2
330
22D
100
AcDbEntity
  8
0
  6
ByBlock
 62
     0
100
AcDbBlockEnd
  0
BLOCK
  5
2A3
330
22E
100
AcDbEntity
  8
0
100
AcDbBlockBegin
  2
*D6
 70
     1
 10
0.0
 20
0.0
 30
0.0
  3
*D6
  1
*D6
  0
MTEXT
  5
2A4
330
22E
100
AcDbEntity
  8
0
  6
Continuous
 62
     2
100
AcDbMText
 10
47.658528
 20
72.70294
 30
0.0
 40
3.0
 41
4.66171
 46
0.0
 71
     2
 72
     1
  1
61
 11
0.0
 21
1.0
 31
0.0
 73
     1
 44
0.9
  0
LINE
  5
2A5
330
22E
100
AcDbEntity
  8
0
  6
Continuous
 62
     2
100
AcDbLine
 10
129.518527
 20
103.20294
 30
0.0
 11
50.658528
 21
103.20294
 31
0.0
  0
LINE
  5
2A6
330
22E
100
AcDbEntity
  8
0
  6
Continuous
 62
     2
100
AcDbLine
 10
129.518527
 20
42.20294
 30
0.0
 11
50.658528
 21
42.20294
 31
0.0
  0
LINE
  5
2A7
330
22E
100
AcDbEntity
  8
0
  6
Continuous
 62
     2
100
AcDbLine
 10
51.408528
 20
103.20294
 30
0.0
 11
51.408528
 21
72.70294
 31
0.0
  0
LINE
  5
2A8
330
22E
100
AcDbEntity
  8
0
  6
Continuous
 62
     2
100
AcDbLine
 10
51.408528
 20
42.20294
 30
0.0
 11
51.408528
 21
72.70294
 31
0.0
  0
INSERT
  5
2A9
330
22E
100
AcDbEntity
  8
0
  6
Continuous
 62
     2
100
AcDbBlockReference
  2
_CLOSED
 10
51.408528
 20
103.20294
 30
0.0
 41
2.5
 42
2.5
 43
2.5
 50
90.0
  0
INSERT
  5
2AA
330
22E
100
AcDbEntity
  8
0
  6
Continuous
 62
     2
100
AcDbBlockReference
  2
_CLOSED
 10
51.408528
 20
42.20294
 30
0.0
 41
2.5
 42
2.5
 43
2.5
 50
270.0
  0
ENDBLK
  5
2AB
330
22E
100
AcDbEntity
  8
0
  6
ByBlock
 62
     0
100
AcDbBlockEnd
  0
BLOCK
  5
2AC
330
22F
100
AcDbEntity
  8
0
100
AcDbBlockBegin
  2
*D7
 70
     1
 10
0.0
 20
0.0
 30
0.0
  3
*D7
  1
*D7
  0
MTEXT
  5
2AD
330
22F
100
AcDbEntity
  8
0
  6
Continuous
 62
     2
100
AcDbMText
 10
285.908288
 20
142.305699
 30
0.0
 40
3.0
 41
4.66171
 46
0.0
 71
     2
 72
     1
  1
54
 73
     1
 44
0.9
  0
LINE
  5
2AE
330
22F
100
AcDbEntity
  8
0
  6
Continuous
 62
     2
100
AcDbLine
 10
258.908288
 20
168.751697
 30
0.0
 11
258.908288
 21
137.805699
 31
0.0
  0
LINE
  5
2AF
330
22F
100
AcDbEntity
  8
0
  6
Continuous
 62
     2
100
AcDbLine
 10
312.908288
 20
168.751697
 30
0.0
 11
312.908288
 21
137.805699
 31
0.0
  0
LINE
  5
2B0
330
22F
100
AcDbEntity
  8
0
  6
Continuous
 62
     2
100
AcDbLine
 10
258.908288
 20
138.555699
 30
0.0
 11
285.908288
 21
138.555699
 31
0.0
  0
LINE
  5
2B1
330
22F
100
AcDbEntity
  8
0
  6
Continuous
 62
     2
100
AcDbLine
 10
312.908288
 20
138.555699
 30
0.0
 11
285.908288
 21
138.555699
 31
0.0
  0
INSERT
  5
2B2
330
22F
100
AcDbEntity
  8
0
  6
Continuous
 62
     2
100
AcDbBlockReference
  2
_CLOSED
 10
258.908288
 20
138.555699
 30
0.0
 41
2.5
 42
2.5
 43
2.5
 50
180.0
  0
INSERT
  5
2B3
330
22F
100
AcDbEntity
  8
0
  6
Continuous
 62
     2
100
AcDbBlockReference
  2
_CLOSED
 10
312.908288
 20
138.555699
 30
0.0
 41
2.5
 42
2.5
 43
2.5
  0
ENDBLK
  5
2B4
330
22F
100
AcDbEntity
  8
0
  6
ByBlock
 62
     0
100
AcDbBlockEnd
  0
BLOCK
  5
234
330
230
100
AcDbEntity
  8
0
100
AcDbBlockBegin
  2
LOGO2_BL0
 70
     0
 10
332.658787
 20
37.966566
 30
0.0
  3
LOGO2_BL0
  1
LOGO2_BL0
  0
LINE
  5
235
330
230
100
AcDbEntity
  8
0
  6
Continuous
 62
     7
100
AcDbLine
 10
324.401712
 20
41.162058
 30
0.0
 11
323.097371
 21
41.162058
 31
0.0
  0
LINE
  5
236
330
230
100
AcDbEntity
  8
0
  6
Continuous
 62
     7
100
AcDbLine
 10
323.097371
 20
41.162058
 30
0.0
 11
323.097371
 21
30.702992
 31
0.0
  0
LINE
  5
237
330
230
100
AcDbEntity
  8
0
  6
Continuous
 62
     7
100
AcDbLine
 10
323.097371
 20
30.702992
 30
0.0
 11
327.578426
 21
30.702992
 31
0.0
  0
LINE
  5
238
330
230
100
AcDbEntity
  8
0
  6
Continuous
 62
     7
100
AcDbLine
 10
327.578426
 20
30.702992
 30
0.0
 11
327.578426
 21
31.895846
 31
0.0
  0
LINE
  5
239
330
230
100
AcDbEntity
  8
0
  6
Continuous
 62
     7
100
AcDbLine
 10
327.578426
 20
31.895846
 30
0.0
 11
324.401712
 21
31.895846
 31
0.0
  0
LINE
  5
23A
330
230
100
AcDbEntity
  8
0
  6
Continuous
 62
     7
100
AcDbLine
 10
324.401712
 20
31.895846
 30
0.0
 11
324.401712
 21
41.162058
 31
0.0
  0
LINE
  5
23B
330
230
100
AcDbEntity
  8
0
  6
Continuous
 62
     7
100
AcDbLine
 10
339.338039
 20
41.162058
 30
0.0
 11
338.034221
 21
41.162058
 31
0.0
  0
LINE
  5
23C
330
230
100
AcDbEntity
  8
0
  6
Continuous
 62
     7
100
AcDbLine
 10
338.034221
 20
41.162058
 30
0.0
 11
338.034221
 21
30.702992
 31
0.0
  0
LINE
  5
23D
330
230
100
AcDbEntity
  8
0
  6
Continuous
 62
     7
100
AcDbLine
 10
338.034221
 20
30.702992
 30
0.0
 11
342.515407
 21
30.702992
 31
0.0
  0
LINE
  5
23E
330
230
100
AcDbEntity
  8
0
  6
Continuous
 62
     7
100
AcDbLine
 10
342.515407
 20
30.702992
 30
0.0
 11
342.515407
 21
31.895846
 31
0.0
  0
LINE
  5
23F
330
230
100
AcDbEntity
  8
0
  6
Continuous
 62
     7
100
AcDbLine
 10
342.515407
 20
31.895846
 30
0.0
 11
339.338039
 21
31.895846
 31
0.0
  0
LINE
  5
240
330
230
100
AcDbEntity
  8
0
  6
Continuous
 62
     7
100
AcDbLine
 10
339.338039
 20
31.895846
 30
0.0
 11
339.338039
 21
41.162058
 31
0.0
  0
LWPOLYLINE
  5
241
330
230
100
AcDbEntity
  8
0
  6
Continuous
 62
     7
100
AcDbPolyline
 90
        2
 70
     0
 43
0.2
 10
321.451766
 20
27.35944
 10
321.451766
 20
25.502377
  0
LWPOLYLINE
  5
242
330
230
100
AcDbEntity
  8
0
  6
Continuous
 62
     7
100
AcDbPolyline
 90
        2
 70
     0
 43
0.2
 10
321.451766
 20
25.502377
 10
322.247482
 20
25.502377
  0
LWPOLYLINE
  5
243
330
230
100
AcDbEntity
  8
0
  6
Continuous
 62
     7
100
AcDbPolyline
 90
        2
 70
     0
 43
0.2
 10
322.247482
 20
25.502377
 10
322.247482
 20
25.714359
  0
LWPOLYLINE
  5
244
330
230
100
AcDbEntity
  8
0
  6
Continuous
 62
     7
100
AcDbPolyline
 90
        2
 70
     0
 43
0.2
 10
322.247482
 20
25.714359
 10
321.683376
 20
25.714359
  0
LWPOLYLINE
  5
245
330
230
100
AcDbEntity
  8
0
  6
Continuous
 62
     7
100
AcDbPolyline
 90
        2
 70
     0
 43
0.2
 10
321.683376
 20
25.714359
 10
321.683376
 20
27.35944
  0
LWPOLYLINE
  5
246
330
230
100
AcDbEntity
  8
0
  6
Continuous
 62
     7
100
AcDbPolyline
 90
        2
 70
     0
 43
0.2
 10
321.683376
 20
27.35944
 10
321.451766
 20
27.35944
  0
SPLINE
  5
247
330
230
100
AcDbEntity
  8
0
  6
Continuous
 62
     7
100
AcDbSpline
 70
     3
 71
     3
 72
    35
 73
    31
 74
     0
 42
0.000000001
 43
0.0000001
 40
0.0
 40
0.0
 40
0.0
 40
0.0
 40
1.0
 40
1.0
 40
1.0
 40
2.0
 40
2.0
 40
2.0
 40
3.0
 40
3.0
 40
3.0
 40
4.0
 40
4.0
 40
4.0
 40
5.0
 40
5.0
 40
5.0
 40
6.0
 40
6.0
 40
6.0
 40
7.0
 40
7.0
 40
7.0
 40
8.0
 40
8.0
 40
8.0
 40
9.0
 40
9.0
 40
9.0
 40
10.0
 40
10.0
 40
10.0
 40
10.0
 10
323.6457755513
 20
26.6549287406
 30
0.0
 10
323.6457755513
 20
26.6549287406
 30
0.0
 10
323.6457755513
 20
25.9928134615
 30
0.0
 10
323.6457755513
 20
25.9928134615
 30
0.0
 10
323.6457755513
 20
25.6777198662
 30
0.0
 10
323.7936392401
 20
25.4631212381
 30
0.0
 10
324.1337257244
 20
25.4631212381
 30
0.0
 10
324.4732887974
 20
25.4631212381
 30
0.0
 10
324.6214141919
 20
25.6777198662
 30
0.0
 10
324.6214141919
 20
25.9928134615
 30
0.0
 10
324.6214141919
 20
25.9928134615
 30
0.0
 10
324.6214141919
 20
26.6549287406
 30
0.0
 10
324.6214141919
 20
26.6549287406
 30
0.0
 10
324.6214141919
 20
26.6549287406
 30
0.0
 10
324.399356953
 20
26.6549287406
 30
0.0
 10
324.399356953
 20
26.6549287406
 30
0.0
 10
324.399356953
 20
26.6549287406
 30
0.0
 10
324.399356953
 20
26.0179372033
 30
0.0
 10
324.399356953
 20
26.0179372033
 30
0.0
 10
324.399356953
 20
25.8321261961
 30
0.0
 10
324.3526424956
 20
25.6693452855
 30
0.0
 10
324.1337257244
 20
25.6693452855
 30
0.0
 10
323.914285542
 20
25.6693452855
 30
0.0
 10
323.8675710845
 20
25.8321261961
 30
0.0
 10
323.8675710845
 20
26.0179372033
 30
0.0
 10
323.8675710845
 20
26.0179372033
 30
0.0
 10
323.8675710845
 20
26.6549287406
 30
0.0
 10
323.8675710845
 20
26.6549287406
 30
0.0
 10
323.8675710845
 20
26.6549287406
 30
0.0
 10
323.6457755513
 20
26.6549287406
 30
0.0
 10
323.6457755513
 20
26.6549287406
 30
0.0
  0
SPLINE
  5
248
330
230
100
AcDbEntity
  8
0
  6
Continuous
 62
     7
100
AcDbSpline
 70
     3
 71
     3
 72
    35
 73
    31
 74
     0
 42
0.000000001
 43
0.0000001
 40
0.0
 40
0.0
 40
0.0
 40
0.0
 40
1.0
 40
1.0
 40
1.0
 40
2.0
 40
2.0
 40
2.0
 40
3.0
 40
3.0
 40
3.0
 40
4.0
 40
4.0
 40
4.0
 40
5.0
 40
5.0
 40
5.0
 40
6.0
 40
6.0
 40
6.0
 40
7.0
 40
7.0
 40
7.0
 40
8.0
 40
8.0
 40
8.0
 40
9.0
 40
9.0
 40
9.0
 40
10.0
 40
10.0
 40
10.0
 40
10.0
 10
327.0445467491
 20
26.6135792489
 30
0.0
 10
326.9560902414
 20
26.6648735551
 30
0.0
 10
326.8426408448
 20
26.6899972969
 30
0.0
 10
326.7390054098
 20
26.6899972969
 30
0.0
 10
326.3841325566
 20
26.6899972969
 30
0.0
 10
326.1086873664
 20
26.4261980078
 30
0.0
 10
326.1086873664
 20
26.0687080982
 30
0.0
 10
326.1086873664
 20
25.7237800595
 30
0.0
 10
326.3871421715
 20
25.4636446494
 30
0.0
 10
326.7267052445
 20
25.4636446494
 30
0.0
 10
326.8426408448
 20
25.4636446494
 30
0.0
 10
326.9433975177
 20
25.4856279235
 30
0.0
 10
327.0445467491
 20
25.5395392862
 30
0.0
 10
327.0445467491
 20
25.5395392862
 30
0.0
 10
327.0445467491
 20
25.8221813816
 30
0.0
 10
327.0445467491
 20
25.8221813816
 30
0.0
 10
326.9606700902
 20
25.7290141724
 30
0.0
 10
326.857165508
 20
25.6698686968
 30
0.0
 10
326.7290605953
 20
25.6698686968
 30
0.0
 10
326.4953574553
 20
25.6698686968
 30
0.0
 10
326.3300903411
 20
25.8420710105
 30
0.0
 10
326.3300903411
 20
26.0786529127
 30
0.0
 10
326.3300903411
 20
26.2906344843
 30
0.0
 10
326.4978436589
 20
26.4827264269
 30
0.0
 10
326.7146667849
 20
26.4827264269
 30
0.0
 10
326.8474823992
 20
26.4827264269
 30
0.0
 10
326.9560902414
 20
26.4288150642
 30
0.0
 10
327.0445467491
 20
26.3277966857
 30
0.0
 10
327.0445467491
 20
26.3277966857
 30
0.0
 10
327.0445467491
 20
26.6135792489
 30
0.0
 10
327.0445467491
 20
26.6135792489
 30
0.0
  0
SPLINE
  5
249
330
230
100
AcDbEntity
  8
0
  6
Continuous
 62
     7
100
AcDbSpline
 70
     3
 71
     3
 72
    32
 73
    28
 74
     0
 42
0.000000001
 43
0.0000001
 40
0.0
 40
0.0
 40
0.0
 40
0.0
 40
1.0
 40
1.0
 40
1.0
 40
2.0
 40
2.0
 40
2.0
 40
3.0
 40
3.0
 40
3.0
 40
4.0
 40
4.0
 40
4.0
 40
5.0
 40
5.0
 40
5.0
 40
6.0
 40
6.0
 40
6.0
 40
7.0
 40
7.0
 40
7.0
 40
8.0
 40
8.0
 40
8.0
 40
9.0
 40
9.0
 40
9.0
 40
9.0
 10
329.5764180013
 20
26.0420141225
 30
0.0
 10
329.5764180013
 20
26.0420141225
 30
0.0
 10
329.5764180013
 20
26.0760358562
 30
0.0
 10
329.5764180013
 20
26.0760358562
 30
0.0
 10
329.5764180013
 20
26.4183468385
 30
0.0
 10
329.4035614235
 20
26.6899972969
 30
0.0
 10
329.0369118163
 20
26.6899972969
 30
0.0
 10
328.665289802
 20
26.6899972969
 30
0.0
 10
328.4755532101
 20
26.4235809514
 30
0.0
 10
328.4755532101
 20
26.0687080982
 30
0.0
 10
328.4755532101
 20
25.7290141724
 30
0.0
 10
328.6896284268
 20
25.4631212381
 30
0.0
 10
329.0417533708
 20
25.4631212381
 30
0.0
 10
329.265773402
 20
25.4631212381
 30
0.0
 10
329.4679410119
 20
25.5787951327
 30
0.0
 10
329.5764180013
 20
25.7782148334
 30
0.0
 10
329.5764180013
 20
25.7782148334
 30
0.0
 10
329.3887750546
 20
25.8849907362
 30
0.0
 10
329.3887750546
 20
25.8849907362
 30
0.0
 10
329.3052909542
 20
25.7462867449
 30
0.0
 10
329.2140865373
 20
25.6604472937
 30
0.0
 10
329.04450128
 20
25.6604472937
 30
0.0
 10
328.8325197084
 20
25.6604472937
 30
0.0
 10
328.6995732413
 20
25.8452114783
 30
0.0
 10
328.6972178905
 20
26.0420141225
 30
0.0
 10
328.6972178905
 20
26.0420141225
 30
0.0
 10
329.5764180013
 20
26.0420141225
 30
0.0
 10
329.5764180013
 20
26.0420141225
 30
0.0
  0
SPLINE
  5
24A
330
230
100
AcDbEntity
  8
0
  6
Continuous
 62
     7
100
AcDbSpline
 70
     3
 71
     3
 72
    14
 73
    10
 74
     0
 42
0.000000001
 43
0.0000001
 40
0.0
 40
0.0
 40
0.0
 40
0.0
 40
1.0
 40
1.0
 40
1.0
 40
2.0
 40
2.0
 40
2.0
 40
3.0
 40
3.0
 40
3.0
 40
3.0
 10
328.7092563501
 20
26.2095057346
 30
0.0
 10
328.7368662956
 20
26.3743802903
 30
0.0
 10
328.8647095026
 20
26.497381943
 30
0.0
 10
329.0369118163
 20
26.497381943
 30
0.0
 10
329.2140865373
 20
26.497381943
 30
0.0
 10
329.3275359339
 20
26.3817080483
 30
0.0
 10
329.3547533209
 20
26.2095057346
 30
0.0
 10
329.3547533209
 20
26.2095057346
 30
0.0
 10
328.7092563501
 20
26.2095057346
 30
0.0
 10
328.7092563501
 20
26.2095057346
 30
0.0
  0
SPLINE
  5
24B
330
230
100
AcDbEntity
  8
0
  6
Continuous
 62
     7
100
AcDbSpline
 70
     3
 71
     3
 72
    20
 73
    16
 74
     0
 42
0.000000001
 43
0.0000001
 40
0.0
 40
0.0
 40
0.0
 40
0.0
 40
1.0
 40
1.0
 40
1.0
 40
2.0
 40
2.0
 40
2.0
 40
3.0
 40
3.0
 40
3.0
 40
4.0
 40
4.0
 40
4.0
 40
5.0
 40
5.0
 40
5.0
 40
5.0
 10
331.6004494515
 20
26.4188702498
 30
0.0
 10
331.6004494515
 20
26.4188702498
 30
0.0
 10
332.0115890181
 20
25.9163954134
 30
0.0
 10
332.0115890181
 20
25.9163954134
 30
0.0
 10
331.895522565
 20
25.8007215188
 30
0.0
 10
331.7577345435
 20
25.6703921081
 30
0.0
 10
331.5857939355
 20
25.6703921081
 30
0.0
 10
331.4083575089
 20
25.6703921081
 30
0.0
 10
331.2408658967
 20
25.8347432525
 30
0.0
 10
331.2408658967
 20
26.0116562678
 30
0.0
 10
331.2408658967
 20
26.1896161057
 30
0.0
 10
331.4506229704
 20
26.3157582261
 30
0.0
 10
331.5782044718
 20
26.4036913224
 30
0.0
 10
331.5782044718
 20
26.4036913224
 30
0.0
 10
331.6004494515
 20
26.4188702498
 30
0.0
 10
331.6004494515
 20
26.4188702498
 30
0.0
  0
SPLINE
  5
24C
330
230
100
AcDbEntity
  8
0
  6
Continuous
 62
     7
100
AcDbSpline
 70
     3
 71
     3
 72
    23
 73
    19
 74
     0
 42
0.000000001
 43
0.0000001
 40
0.0
 40
0.0
 40
0.0
 40
0.0
 40
1.0
 40
1.0
 40
1.0
 40
2.0
 40
2.0
 40
2.0
 40
3.0
 40
3.0
 40
3.0
 40
4.0
 40
4.0
 40
4.0
 40
5.0
 40
5.0
 40
5.0
 40
6.0
 40
6.0
 40
6.0
 40
6.0
 10
331.6497809654
 20
26.7098869258
 30
0.0
 10
331.6497809654
 20
26.7098869258
 30
0.0
 10
331.5881492862
 20
26.788398619
 30
0.0
 10
331.5881492862
 20
26.788398619
 30
0.0
 10
331.5342379236
 20
26.8569654977
 30
0.0
 10
331.4774477989
 20
26.9260557877
 30
0.0
 10
331.4774477989
 20
27.0197464083
 30
0.0
 10
331.4774477989
 20
27.1385607706
 30
0.0
 10
331.5733629174
 20
27.2160256412
 30
0.0
 10
331.6843261104
 20
27.2160256412
 30
0.0
 10
331.8075894687
 20
27.2160256412
 30
0.0
 10
331.9008875308
 20
27.1448417061
 30
0.0
 10
331.9008875308
 20
27.0145122954
 30
0.0
 10
331.9008875308
 20
26.8794721831
 30
0.0
 10
331.772782618
 20
26.8030541351
 30
0.0
 10
331.6792228503
 20
26.7292531435
 30
0.0
 10
331.6792228503
 20
26.7292531435
 30
0.0
 10
331.6497809654
 20
26.7098869258
 30
0.0
 10
331.6497809654
 20
26.7098869258
 30
0.0
  0
SPLINE
  5
24D
330
230
100
AcDbEntity
  8
0
  6
Continuous
 62
     7
100
AcDbSpline
 70
     3
 71
     3
 72
    50
 73
    46
 74
     0
 42
0.000000001
 43
0.0000001
 40
0.0
 40
0.0
 40
0.0
 40
0.0
 40
1.0
 40
1.0
 40
1.0
 40
2.0
 40
2.0
 40
2.0
 40
3.0
 40
3.0
 40
3.0
 40
4.0
 40
4.0
 40
4.0
 40
5.0
 40
5.0
 40
5.0
 40
6.0
 40
6.0
 40
6.0
 40
7.0
 40
7.0
 40
7.0
 40
8.0
 40
8.0
 40
8.0
 40
9.0
 40
9.0
 40
9.0
 40
10.0
 40
10.0
 40
10.0
 40
11.0
 40
11.0
 40
11.0
 40
12.0
 40
12.0
 40
12.0
 40
13.0
 40
13.0
 40
13.0
 40
14.0
 40
14.0
 40
14.0
 40
15.0
 40
15.0
 40
15.0
 40
15.0
 10
332.3519372081
 20
25.502900496
 30
0.0
 10
332.3519372081
 20
25.502900496
 30
0.0
 10
332.6373272128
 20
25.502900496
 30
0.0
 10
332.6373272128
 20
25.502900496
 30
0.0
 10
332.6373272128
 20
25.502900496
 30
0.0
 10
332.304961045
 20
25.913778357
 30
0.0
 10
332.304961045
 20
25.913778357
 30
0.0
 10
332.304961045
 20
25.913778357
 30
0.0
 10
332.5314672798
 20
26.1796712912
 30
0.0
 10
332.5314672798
 20
26.1796712912
 30
0.0
 10
332.5314672798
 20
26.1796712912
 30
0.0
 10
332.3832110325
 20
26.3325073873
 30
0.0
 10
332.3832110325
 20
26.3325073873
 30
0.0
 10
332.3832110325
 20
26.3325073873
 30
0.0
 10
332.1673038763
 20
26.0812699691
 30
0.0
 10
332.1673038763
 20
26.0812699691
 30
0.0
 10
332.1673038763
 20
26.0812699691
 30
0.0
 10
331.7802412289
 20
26.5491996605
 30
0.0
 10
331.7802412289
 20
26.5491996605
 30
0.0
 10
331.9356943814
 20
26.6633033212
 30
0.0
 10
332.1179723624
 20
26.8030541351
 30
0.0
 10
332.1179723624
 20
27.0124186502
 30
0.0
 10
332.1179723624
 20
27.2563283104
 30
0.0
 10
331.9159356053
 20
27.3997430032
 30
0.0
 10
331.6894293705
 20
27.3997430032
 30
0.0
 10
331.4452580047
 20
27.3997430032
 30
0.0
 10
331.2608863785
 20
27.2490005523
 30
0.0
 10
331.2608863785
 20
26.9925290213
 30
0.0
 10
331.2608863785
 20
26.8349822236
 30
0.0
 10
331.3595494063
 20
26.6973250549
 30
0.0
 10
331.464885928
 20
26.5863618619
 30
0.0
 10
331.464885928
 20
26.5863618619
 30
0.0
 10
331.3493428862
 20
26.5026160558
 30
0.0
 10
331.3493428862
 20
26.5026160558
 30
0.0
 10
331.1716447539
 20
26.3743802903
 30
0.0
 10
331.0243044764
 20
26.2466679361
 30
0.0
 10
331.0243044764
 20
26.0095626227
 30
0.0
 10
331.0243044764
 20
25.6892349145
 30
0.0
 10
331.2828696526
 20
25.4631212381
 30
0.0
 10
331.5932525463
 20
25.4631212381
 30
0.0
 10
331.8121693175
 20
25.4631212381
 30
0.0
 10
332.0093645202
 20
25.5882165359
 30
0.0
 10
332.1496387453
 20
25.7541379142
 30
0.0
 10
332.1496387453
 20
25.7541379142
 30
0.0
 10
332.3519372081
 20
25.502900496
 30
0.0
 10
332.3519372081
 20
25.502900496
 30
0.0
  0
LWPOLYLINE
  5
24E
330
230
100
AcDbEntity
  8
0
  6
Continuous
 62
     7
100
AcDbPolyline
 90
        2
 70
     0
 43
0.2
 10
334.287381
 20
27.35944
 10
334.056034
 20
27.35944
  0
LWPOLYLINE
  5
24F
330
230
100
AcDbEntity
  8
0
  6
Continuous
 62
     7
100
AcDbPolyline
 90
        2
 70
     0
 43
0.2
 10
334.056034
 20
27.35944
 10
334.056034
 20
25.502377
  0
LWPOLYLINE
  5
250
330
230
100
AcDbEntity
  8
0
  6
Continuous
 62
     7
100
AcDbPolyline
 90
        2
 70
     0
 43
0.2
 10
334.056034
 20
25.502377
 10
334.851357
 20
25.502377
  0
LWPOLYLINE
  5
251
330
230
100
AcDbEntity
  8
0
  6
Continuous
 62
     7
100
AcDbPolyline
 90
        2
 70
     0
 43
0.2
 10
334.851357
 20
25.502377
 10
334.851357
 20
25.714359
  0
LWPOLYLINE
  5
252
330
230
100
AcDbEntity
  8
0
  6
Continuous
 62
     7
100
AcDbPolyline
 90
        2
 70
     0
 43
0.2
 10
334.851357
 20
25.714359
 10
334.287381
 20
25.714359
  0
LWPOLYLINE
  5
253
330
230
100
AcDbEntity
  8
0
  6
Continuous
 62
     7
100
AcDbPolyline
 90
        2
 70
     0
 43
0.2
 10
334.287381
 20
25.714359
 10
334.287381
 20
27.35944
  0
LWPOLYLINE
  5
254
330
230
100
AcDbEntity
  8
0
  6
Continuous
 62
     7
100
AcDbPolyline
 90
        2
 70
     0
 43
0.2
 10
336.53046
 20
26.654929
 10
336.309319
 20
26.654929
  0
LWPOLYLINE
  5
255
330
230
100
AcDbEntity
  8
0
  6
Continuous
 62
     7
100
AcDbPolyline
 90
        2
 70
     0
 43
0.2
 10
336.309319
 20
26.654929
 10
336.309319
 20
25.5029
  0
LWPOLYLINE
  5
256
330
230
100
AcDbEntity
  8
0
  6
Continuous
 62
     7
100
AcDbPolyline
 90
        2
 70
     0
 43
0.2
 10
336.309319
 20
25.5029
 10
336.53046
 20
25.5029
  0
LWPOLYLINE
  5
257
330
230
100
AcDbEntity
  8
0
  6
Continuous
 62
     7
100
AcDbPolyline
 90
        2
 70
     0
 43
0.2
 10
336.53046
 20
25.5029
 10
336.53046
 20
26.654929
  0
LWPOLYLINE
  5
258
330
230
100
AcDbEntity
  8
0
  6
Continuous
 62
     7
100
AcDbPolyline
 90
        2
 70
     1
 43
0.2
 10
336.267437
 20
27.184883
 42
1.0
 10
336.572604
 20
27.184883
 42
1.0
  0
SPLINE
  5
259
330
230
100
AcDbEntity
  8
0
  6
Continuous
 62
     7
100
AcDbSpline
 70
     3
 71
     3
 72
    17
 73
    13
 74
     0
 42
0.000000001
 43
0.0000001
 40
0.0
 40
0.0
 40
0.0
 40
0.0
 40
1.0
 40
1.0
 40
1.0
 40
2.0
 40
2.0
 40
2.0
 40
3.0
 40
3.0
 40
3.0
 40
4.0
 40
4.0
 40
4.0
 40
4.0
 10
338.6607443136
 20
25.6604472937
 30
0.0
 10
338.4267794679
 20
25.6604472937
 30
0.0
 10
338.2964500572
 20
25.8624840508
 30
0.0
 10
338.2964500572
 20
26.0786529127
 30
0.0
 10
338.2964500572
 20
26.2932515407
 30
0.0
 10
338.4322752864
 20
26.4921478301
 30
0.0
 10
338.6607443136
 20
26.4921478301
 30
0.0
 10
338.9002049778
 20
26.4921478301
 30
0.0
 10
339.0357685014
 20
26.3031963552
 30
0.0
 10
339.0357685014
 20
26.0786529127
 30
0.0
 10
339.0357685014
 20
25.8525392363
 30
0.0
 10
338.9025603286
 20
25.6604472937
 30
0.0
 10
338.6607443136
 20
25.6604472937
 30
0.0
  0
SPLINE
  5
25A
330
230
100
AcDbEntity
  8
0
  6
Continuous
 62
     7
100
AcDbSpline
 70
     3
 71
     3
 72
    50
 73
    46
 74
     0
 42
0.000000001
 43
0.0000001
 40
0.0
 40
0.0
 40
0.0
 40
0.0
 40
1.0
 40
1.0
 40
1.0
 40
2.0
 40
2.0
 40
2.0
 40
3.0
 40
3.0
 40
3.0
 40
4.0
 40
4.0
 40
4.0
 40
5.0
 40
5.0
 40
5.0
 40
6.0
 40
6.0
 40
6.0
 40
7.0
 40
7.0
 40
7.0
 40
8.0
 40
8.0
 40
8.0
 40
9.0
 40
9.0
 40
9.0
 40
10.0
 40
10.0
 40
10.0
 40
11.0
 40
11.0
 40
11.0
 40
12.0
 40
12.0
 40
12.0
 40
13.0
 40
13.0
 40
13.0
 40
14.0
 40
14.0
 40
14.0
 40
15.0
 40
15.0
 40
15.0
 40
15.0
 10
339.2448713109
 20
26.6554521519
 30
0.0
 10
339.2448713109
 20
26.6554521519
 30
0.0
 10
339.0232066304
 20
26.6554521519
 30
0.0
 10
339.0232066304
 20
26.6554521519
 30
0.0
 10
339.0232066304
 20
26.6554521519
 30
0.0
 10
339.0232066304
 20
26.4581260964
 30
0.0
 10
339.0232066304
 20
26.4581260964
 30
0.0
 10
339.0232066304
 20
26.4581260964
 30
0.0
 10
339.0184959289
 20
26.4581260964
 30
0.0
 10
339.0184959289
 20
26.4581260964
 30
0.0
 10
338.9271606591
 20
26.601017378
 30
0.0
 10
338.7892417848
 20
26.6894738856
 30
0.0
 10
338.6165160598
 20
26.6894738856
 30
0.0
 10
338.284149892
 20
26.6894738856
 30
0.0
 10
338.0750470825
 20
26.4015976773
 30
0.0
 10
338.0750470825
 20
26.0859806707
 30
0.0
 10
338.0750470825
 20
25.7562315593
 30
0.0
 10
338.2721114323
 20
25.4631212381
 30
0.0
 10
338.6269842855
 20
25.4631212381
 30
0.0
 10
338.7892417848
 20
25.4631212381
 30
0.0
 10
338.9292543043
 20
25.5515777458
 30
0.0
 10
339.0184959289
 20
25.6824305677
 30
0.0
 10
339.0184959289
 20
25.6824305677
 30
0.0
 10
339.0232066304
 20
25.6824305677
 30
0.0
 10
339.0232066304
 20
25.6824305677
 30
0.0
 10
339.0232066304
 20
25.6824305677
 30
0.0
 10
339.0232066304
 20
25.4631212381
 30
0.0
 10
339.0232066304
 20
25.4631212381
 30
0.0
 10
339.0232066304
 20
25.226539336
 30
0.0
 10
338.9666782114
 20
25.0396815062
 30
0.0
 10
338.6934575191
 20
25.0396815062
 30
0.0
 10
338.4911590563
 20
25.0396815062
 30
0.0
 10
338.3485294804
 20
25.1579724573
 30
0.0
 10
338.3485294804
 20
25.3641965047
 30
0.0
 10
338.3485294804
 20
25.3641965047
 30
0.0
 10
338.1268648
 20
25.3641965047
 30
0.0
 10
338.1268648
 20
25.3641965047
 30
0.0
 10
338.1318372072
 20
25.0396815062
 30
0.0
 10
338.3629232908
 20
24.842878862
 30
0.0
 10
338.683250999
 20
24.842878862
 30
0.0
 10
339.1312910614
 20
24.842878862
 30
0.0
 10
339.2448713109
 20
25.1281380139
 30
0.0
 10
339.2448713109
 20
25.5248837701
 30
0.0
 10
339.2448713109
 20
25.5248837701
 30
0.0
 10
339.2448713109
 20
26.6554521519
 30
0.0
 10
339.2448713109
 20
26.6554521519
 30
0.0
  0
SPLINE
  5
25B
330
230
100
AcDbEntity
  8
0
  6
Continuous
 62
     7
100
AcDbSpline
 70
     3
 71
     3
 72
    44
 73
    40
 74
     0
 42
0.000000001
 43
0.0000001
 40
0.0
 40
0.0
 40
0.0
 40
0.0
 40
1.0
 40
1.0
 40
1.0
 40
2.0
 40
2.0
 40
2.0
 40
3.0
 40
3.0
 40
3.0
 40
4.0
 40
4.0
 40
4.0
 40
5.0
 40
5.0
 40
5.0
 40
6.0
 40
6.0
 40
6.0
 40
7.0
 40
7.0
 40
7.0
 40
8.0
 40
8.0
 40
8.0
 40
9.0
 40
9.0
 40
9.0
 40
10.0
 40
10.0
 40
10.0
 40
11.0
 40
11.0
 40
11.0
 40
12.0
 40
12.0
 40
12.0
 40
13.0
 40
13.0
 40
13.0
 40
13.0
 10
340.8137966462
 20
27.6405121957
 30
0.0
 10
340.8137966462
 20
27.6405121957
 30
0.0
 10
340.8137966462
 20
25.5023770847
 30
0.0
 10
340.8137966462
 20
25.5023770847
 30
0.0
 10
340.8137966462
 20
25.5023770847
 30
0.0
 10
341.035199621
 20
25.5023770847
 30
0.0
 10
341.035199621
 20
25.5023770847
 30
0.0
 10
341.035199621
 20
25.5023770847
 30
0.0
 10
341.035199621
 20
26.032069308
 30
0.0
 10
341.035199621
 20
26.032069308
 30
0.0
 10
341.035199621
 20
26.2419572345
 30
0.0
 10
341.035199621
 20
26.4926712414
 30
0.0
 10
341.3204587729
 20
26.4926712414
 30
0.0
 10
341.5473575662
 20
26.4926712414
 30
0.0
 10
341.5743132475
 20
26.3597247743
 30
0.0
 10
341.5743132475
 20
26.1634455413
 30
0.0
 10
341.5743132475
 20
26.1634455413
 30
0.0
 10
341.5743132475
 20
25.5023770847
 30
0.0
 10
341.5743132475
 20
25.5023770847
 30
0.0
 10
341.5743132475
 20
25.5023770847
 30
0.0
 10
341.7962396336
 20
25.5023770847
 30
0.0
 10
341.7962396336
 20
25.5023770847
 30
0.0
 10
341.7962396336
 20
25.5023770847
 30
0.0
 10
341.7962396336
 20
26.1896161057
 30
0.0
 10
341.7962396336
 20
26.1896161057
 30
0.0
 10
341.7962396336
 20
26.470164556
 30
0.0
 10
341.7122321219
 20
26.6899972969
 30
0.0
 10
341.3871937121
 20
26.6899972969
 30
0.0
 10
341.2474428982
 20
26.6899972969
 30
0.0
 10
341.1092623182
 20
26.6235240633
 30
0.0
 10
341.0399103226
 20
26.5005224107
 30
0.0
 10
341.0399103226
 20
26.5005224107
 30
0.0
 10
341.035199621
 20
26.5005224107
 30
0.0
 10
341.035199621
 20
26.5005224107
 30
0.0
 10
341.035199621
 20
26.5005224107
 30
0.0
 10
341.035199621
 20
27.6405121957
 30
0.0
 10
341.035199621
 20
27.6405121957
 30
0.0
 10
341.035199621
 20
27.6405121957
 30
0.0
 10
340.8137966462
 20
27.6405121957
 30
0.0
 10
340.8137966462
 20
27.6405121957
 30
0.0
  0
LWPOLYLINE
  5
25C
330
230
100
AcDbEntity
  8
0
  6
Continuous
 62
     7
100
AcDbPolyline
 90
        2
 70
     0
 43
0.2
 10
343.63603
 20
26.448181
 10
343.852461
 20
26.448181
  0
LWPOLYLINE
  5
25D
330
230
100
AcDbEntity
  8
0
  6
Continuous
 62
     7
100
AcDbPolyline
 90
        2
 70
     0
 43
0.2
 10
343.852461
 20
26.448181
 10
343.852461
 20
26.654929
  0
LWPOLYLINE
  5
25E
330
230
100
AcDbEntity
  8
0
  6
Continuous
 62
     7
100
AcDbPolyline
 90
        2
 70
     0
 43
0.2
 10
343.852461
 20
26.654929
 10
343.63603
 20
26.654929
  0
LWPOLYLINE
  5
25F
330
230
100
AcDbEntity
  8
0
  6
Continuous
 62
     7
100
AcDbPolyline
 90
        2
 70
     0
 43
0.2
 10
343.63603
 20
26.654929
 10
343.63603
 20
27.095641
  0
LWPOLYLINE
  5
260
330
230
100
AcDbEntity
  8
0
  6
Continuous
 62
     7
100
AcDbPolyline
 90
        2
 70
     0
 43
0.2
 10
343.63603
 20
27.095641
 10
343.414366
 20
27.095641
  0
LWPOLYLINE
  5
261
330
230
100
AcDbEntity
  8
0
  6
Continuous
 62
     7
100
AcDbPolyline
 90
        2
 70
     0
 43
0.2
 10
343.414366
 20
27.095641
 10
343.414366
 20
26.654929
  0
LWPOLYLINE
  5
262
330
230
100
AcDbEntity
  8
0
  6
Continuous
 62
     7
100
AcDbPolyline
 90
        2
 70
     0
 43
0.2
 10
343.414366
 20
26.654929
 10
343.293719
 20
26.654929
  0
LWPOLYLINE
  5
263
330
230
100
AcDbEntity
  8
0
  6
Continuous
 62
     7
100
AcDbPolyline
 90
        2
 70
     0
 43
0.2
 10
343.293719
 20
26.654929
 10
343.293719
 20
26.448181
  0
LWPOLYLINE
  5
264
330
230
100
AcDbEntity
  8
0
  6
Continuous
 62
     7
100
AcDbPolyline
 90
        2
 70
     0
 43
0.2
 10
343.293719
 20
26.448181
 10
343.414366
 20
26.448181
  0
LWPOLYLINE
  5
265
330
230
100
AcDbEntity
  8
0
  6
Continuous
 62
     7
100
AcDbPolyline
 90
        2
 70
     0
 43
0.2
 10
343.414366
 20
26.448181
 10
343.414366
 20
25.502377
  0
LWPOLYLINE
  5
266
330
230
100
AcDbEntity
  8
0
  6
Continuous
 62
     7
100
AcDbPolyline
 90
        2
 70
     0
 43
0.2
 10
343.414366
 20
25.502377
 10
343.63603
 20
25.502377
  0
LWPOLYLINE
  5
267
330
230
100
AcDbEntity
  8
0
  6
Continuous
 62
     7
100
AcDbPolyline
 90
        2
 70
     0
 43
0.2
 10
343.63603
 20
25.502377
 10
343.63603
 20
26.448181
  0
SPLINE
  5
268
330
230
100
AcDbEntity
  8
0
  6
Continuous
 62
     7
100
AcDbSpline
 70
     3
 71
     3
 72
    20
 73
    16
 74
     0
 42
0.000000001
 43
0.0000001
 40
0.0
 40
0.0
 40
0.0
 40
0.0
 40
1.0
 40
1.0
 40
1.0
 40
2.0
 40
2.0
 40
2.0
 40
3.0
 40
3.0
 40
3.0
 40
4.0
 40
4.0
 40
4.0
 40
5.0
 40
5.0
 40
5.0
 40
5.0
 10
331.4180406177
 20
35.8633035281
 30
0.0
 10
331.4180406177
 20
35.8633035281
 30
0.0
 10
333.7343972722
 20
33.0337421059
 30
0.0
 10
333.7343972722
 20
33.0337421059
 30
0.0
 10
333.0827502188
 20
32.3815716412
 30
0.0
 10
332.3058770147
 20
31.6456553705
 30
0.0
 10
331.3346873701
 20
31.6456553705
 30
0.0
 10
330.3361494857
 20
31.6456553705
 30
0.0
 10
329.3928314921
 20
32.5752338177
 30
0.0
 10
329.3928314921
 20
33.5744259663
 30
0.0
 10
329.3928314921
 20
34.5736181148
 30
0.0
 10
330.5716845652
 20
35.2802233534
 30
0.0
 10
331.2932070255
 20
35.7800811333
 30
0.0
 10
331.2932070255
 20
35.7800811333
 30
0.0
 10
331.4180406177
 20
35.8633035281
 30
0.0
 10
331.4180406177
 20
35.8633035281
 30
0.0
  0
SPLINE
  5
269
330
230
100
AcDbEntity
  8
0
  6
Continuous
 62
     7
100
AcDbSpline
 70
     3
 71
     3
 72
    23
 73
    19
 74
     0
 42
0.000000001
 43
0.0000001
 40
0.0
 40
0.0
 40
0.0
 40
0.0
 40
1.0
 40
1.0
 40
1.0
 40
2.0
 40
2.0
 40
2.0
 40
3.0
 40
3.0
 40
3.0
 40
4.0
 40
4.0
 40
4.0
 40
5.0
 40
5.0
 40
5.0
 40
6.0
 40
6.0
 40
6.0
 40
6.0
 10
331.6954486003
 20
37.5010574479
 30
0.0
 10
331.6954486003
 20
37.5010574479
 30
0.0
 10
331.3489503277
 20
37.9443868087
 30
0.0
 10
331.3489503277
 20
37.9443868087
 30
0.0
 10
331.0431472828
 20
38.3324962786
 30
0.0
 10
330.7242589556
 20
38.7209983071
 30
0.0
 10
330.7242589556
 20
39.2479426211
 30
0.0
 10
330.7242589556
 20
39.9141143378
 30
0.0
 10
331.2655970801
 20
40.357836257
 30
0.0
 10
331.8895033352
 20
40.357836257
 30
0.0
 10
332.5832849973
 20
40.357836257
 30
0.0
 10
333.110491017
 20
39.9555946823
 30
0.0
 10
333.110491017
 20
39.2205943813
 30
0.0
 10
333.110491017
 20
38.4573298708
 30
0.0
 10
332.3892302623
 20
38.027216645
 30
0.0
 10
331.8621550954
 20
37.6114972296
 30
0.0
 10
331.8621550954
 20
37.6114972296
 30
0.0
 10
331.6954486003
 20
37.5010574479
 30
0.0
 10
331.6954486003
 20
37.5010574479
 30
0.0
  0
SPLINE
  5
26A
330
230
100
AcDbEntity
  8
0
  6
Continuous
 62
     7
100
AcDbSpline
 70
     3
 71
     3
 72
    50
 73
    46
 74
     0
 42
0.000000001
 43
0.0000001
 40
0.0
 40
0.0
 40
0.0
 40
0.0
 40
1.0
 40
1.0
 40
1.0
 40
2.0
 40
2.0
 40
2.0
 40
3.0
 40
3.0
 40
3.0
 40
4.0
 40
4.0
 40
4.0
 40
5.0
 40
5.0
 40
5.0
 40
6.0
 40
6.0
 40
6.0
 40
7.0
 40
7.0
 40
7.0
 40
8.0
 40
8.0
 40
8.0
 40
9.0
 40
9.0
 40
9.0
 40
10.0
 40
10.0
 40
10.0
 40
11.0
 40
11.0
 40
11.0
 40
12.0
 40
12.0
 40
12.0
 40
13.0
 40
13.0
 40
13.0
 40
14.0
 40
14.0
 40
14.0
 40
15.0
 40
15.0
 40
15.0
 40
15.0
 10
335.6490357632
 20
30.7024682297
 30
0.0
 10
335.6490357632
 20
30.7024682297
 30
0.0
 10
337.2582637677
 20
30.7024682297
 30
0.0
 10
337.2582637677
 20
30.7024682297
 30
0.0
 10
337.2582637677
 20
30.7024682297
 30
0.0
 10
335.3852364741
 20
33.0196100011
 30
0.0
 10
335.3852364741
 20
33.0196100011
 30
0.0
 10
335.3852364741
 20
33.0196100011
 30
0.0
 10
336.6615748996
 20
34.5170896957
 30
0.0
 10
336.6615748996
 20
34.5170896957
 30
0.0
 10
336.6615748996
 20
34.5170896957
 30
0.0
 10
335.8293509519
 20
35.3781012643
 30
0.0
 10
335.8293509519
 20
35.3781012643
 30
0.0
 10
335.8293509519
 20
35.3781012643
 30
0.0
 10
334.6087558285
 20
33.9627971419
 30
0.0
 10
334.6087558285
 20
33.9627971419
 30
0.0
 10
334.6087558285
 20
33.9627971419
 30
0.0
 10
332.4308414597
 20
36.5981729763
 30
0.0
 10
332.4308414597
 20
36.5981729763
 30
0.0
 10
333.3044148992
 20
37.2362113362
 30
0.0
 10
334.3310861403
 20
38.027216645
 30
0.0
 10
334.3310861403
 20
39.2060697181
 30
0.0
 10
334.3310861403
 20
40.5797626431
 30
0.0
 10
333.1931900005
 20
41.3842457926
 30
0.0
 10
331.9178983976
 20
41.3842457926
 30
0.0
 10
330.5444671782
 20
41.3842457926
 30
0.0
 10
329.5035329795
 20
40.5380205929
 30
0.0
 10
329.5035329795
 20
39.0953682307
 30
0.0
 10
329.5035329795
 20
38.2077935393
 30
0.0
 10
330.0588723559
 20
37.4309203353
 30
0.0
 10
330.6550378128
 20
36.8064906688
 30
0.0
 10
330.6550378128
 20
36.8064906688
 30
0.0
 10
330.0031290538
 20
36.3348970985
 30
0.0
 10
330.0031290538
 20
36.3348970985
 30
0.0
 10
329.0045911693
 20
35.6136363438
 30
0.0
 10
328.1717129575
 20
34.8923755891
 30
0.0
 10
328.1717129575
 20
33.5608172728
 30
0.0
 10
328.1717129575
 20
31.7571419748
 30
0.0
 10
329.6287591301
 20
30.4805418437
 30
0.0
 10
331.3762985675
 20
30.4805418437
 30
0.0
 10
332.6111566484
 20
30.4805418437
 30
0.0
 10
333.720526873
 20
31.1887173161
 30
0.0
 10
334.511401329
 20
32.1172489408
 30
0.0
 10
334.511401329
 20
32.1172489408
 30
0.0
 10
335.6490357632
 20
30.7024682297
 30
0.0
 10
335.6490357632
 20
30.7024682297
 30
0.0
  0
LINE
  5
26B
330
230
100
AcDbEntity
  8
0
  6
Continuous
 62
     7
100
AcDbLine
 10
321.451897
 20
28.676343
 30
0.0
 11
343.865808
 21
28.676343
 31
0.0
  0
LINE
  5
26C
330
230
100
AcDbEntity
  8
0
  6
Continuous
 62
     7
100
AcDbLine
 10
343.865808
 20
28.676343
 30
0.0
 11
343.865808
 21
51.090254
 31
0.0
  0
LINE
  5
26D
330
230
100
AcDbEntity
  8
0
  6
Continuous
 62
     7
100
AcDbLine
 10
343.865808
 20
51.090254
 30
0.0
 11
321.451897
 21
51.090254
 31
0.0
  0
LINE
  5
26E
330
230
100
AcDbEntity
  8
0
  6
Continuous
 62
     7
100
AcDbLine
 10
321.451897
 20
51.090254
 30
0.0
 11
321.451897
 21
28.676343
 31
0.0
  0
ENDBLK
  5
26F
330
230
100
AcDbEntity
  8
0
  6
ByBlock
 62
     0
100
AcDbBlockEnd
  0
BLOCK
  5
2B5
330
231
100
AcDbEntity
  8
0
100
AcDbBlockBegin
  2
*T9
 70
     1
 10
0.0
 20
0.0
 30
0.0
  3
*T9
  1
*T9
  0
LINE
  5
2B6
330
231
100
AcDbEntity
  8
0
  6
Continuous
 62
     2
100
AcDbLine
 10
0.0
 20
0.0
 30
0.0
 11
90.0
 21
0.0
 31
0.0
  0
LINE
  5
2B7
330
231
100
AcDbEntity
  8
0
  6
Continuous
 62
     2
100
AcDbLine
 10
0.0
 20
0.0
 30
0.0
 11
0.0
 21
-40.0
 31
0.0
  0
LINE
  5
2B8
330
231
100
AcDbEntity
  8
0
  6
Continuous
 62
     2
100
AcDbLine
 10
30.0
 20
-6.0
 30
0.0
 11
90.0
 21
-6.0
 31
0.0
  0
LINE
  5
2B9
330
231
100
AcDbEntity
  8
0
  6
Continuous
 62
     2
100
AcDbLine
 10
30.0
 20
-12.0
 30
0.0
 11
90.0
 21
-12.0
 31
0.0
  0
LINE
  5
2BA
330
231
100
AcDbEntity
  8
0
  6
Continuous
 62
     2
100
AcDbLine
 10
30.0
 20
-22.0
 30
0.0
 11
90.0
 21
-22.0
 31
0.0
  0
LINE
  5
2BB
330
231
100
AcDbEntity
  8
0
  6
Continuous
 62
     2
100
AcDbLine
 10
0.0
 20
-27.0
 30
0.0
 11
90.0
 21
-27.0
 31
0.0
  0
LINE
  5
2BC
330
231
100
AcDbEntity
  8
0
  6
Continuous
 62
     2
100
AcDbLine
 10
0.0
 20
-40.0
 30
0.0
 11
90.0
 21
-40.0
 31
0.0
  0
LINE
  5
2BD
330
231
100
AcDbEntity
  8
0
  6
Continuous
 62
     2
100
AcDbLine
 10
30.0
 20
0.0
 30
0.0
 11
30.0
 21
-27.0
 31
0.0
  0
LINE
  5
2BE
330
231
100
AcDbEntity
  8
0
  6
Continuous
 62
     2
100
AcDbLine
 10
70.0
 20
0.0
 30
0.0
 11
70.0
 21
-12.0
 31
0.0
  0
LINE
  5
2BF
330
231
100
AcDbEntity
  8
0
  6
Continuous
 62
     2
100
AcDbLine
 10
90.0
 20
0.0
 30
0.0
 11
90.0
 21
-40.0
 31
0.0
  0
MTEXT
  5
2C0
330
231
100
AcDbEntity
  8
9_SOLID
  6
Continuous
 62
     2
100
AcDbMText
 10
31.4875
 20
-1.5
 30
0.0
 40
3.0
 41
48.914498
 46
0.0
 71
     1
 72
     1
  1
A255_C_401
 73
     1
 44
0.9
  0
MTEXT
  5
2C1
330
231
100
AcDbEntity
  8
9_SOLID
  6
Continuous
 62
     2
100
AcDbMText
 10
71.4875
 20
-1.25
 30
0.0
 40
3.5
 41
30.966543
 46
0.0
 71
     1
 72
     1
  1
Rev:00
 73
     1
 44
0.9
  0
MTEXT
  5
2C2
330
231
100
AcDbEntity
  8
9_SOLID
  6
Continuous
 62
     2
100
AcDbMText
 10
31.4875
 20
-7.75
 30
0.0
 40
3.5
 41
40.724907
 46
0.0
 71
     1
 72
     1
  1
Scale:1:1
 73
     1
 44
0.9
  0
MTEXT
  5
2C3
330
231
100
AcDbEntity
  8
9_SOLID
  6
Continuous
 62
     2
100
AcDbMText
 10
71.4875
 20
-7.25
 30
0.0
 40
3.5
 41
11.944238
 46
0.0
 71
     1
 72
     1
  1
A3
 73
     1
 44
0.9
  0
MTEXT
  5
2C4
330
231
100
AcDbEntity
  8
9_SOLID
  6
Continuous
 62
     2
100
AcDbMText
 10
31.4875
 20
-15.25
 30
0.0
 40
3.5
 41
46.657993
 46
0.0
 71
     1
 72
     1
  1
REIKO 2.0
 73
     1
 44
0.9
  0
MTEXT
  5
2C5
330
231
100
AcDbEntity
  8
9_SOLID
  6
Continuous
 62
     2
100
AcDbMText
 10
31.4875
 20
-23.25
 30
0.0
 40
2.5
 41
47.695167
 46
0.0
 71
     1
 72
     1
  1
DATE:14.02.23
 73
     1
 44
0.9
  0
MTEXT
  5
2C6
330
231
100
AcDbEntity
  8
9_SOLID
  6
Continuous
 62
     2
100
AcDbMText
 10
1.4875
 20
-27.3125
 30
0.0
 40
2.25
 41
148.98513
 46
0.0
 71
     1
 72
     1
  1
Any integral or partial reproductions are prohibited \Pwithout prior authorisation of L & L Luce & Light s.r.l., \Pin accordance with the law in force. \PAll rights reserved.
 73
     1
 44
0.9
  0
ENDBLK
  5
2C7
330
231
100
AcDbEntity
  8
0
  6
ByBlock
 62
     0
100
AcDbBlockEnd
  0
ENDSEC
  0
SECTION
  2
ENTITIES
  0
LINE
  5
2C8
330
226
100
AcDbEntity
  8
0
  6
Continuous
 62
     7
100
AcDbLine
 10
0.0
 20
0.0
 30
0.0
 11
420.0
 21
0.0
 31
0.0
  0
LINE
  5
2C9
330
226
100
AcDbEntity
  8
0
  6
Continuous
 62
     7
100
AcDbLine
 10
420.0
 20
0.0
 30
0.0
 11
420.0
 21
297.0
 31
0.0
  0
LINE
  5
2CA
330
226
100
AcDbEntity
  8
0
  6
Continuous
 62
     7
100
AcDbLine
 10
0.0
 20
297.0
 30
0.0
 11
420.0
 21
297.0
 31
0.0
  0
LINE
  5
2CB
330
226
100
AcDbEntity
  8
0
  6
Continuous
 62
     7
100
AcDbLine
 10
0.0
 20
0.0
 30
0.0
 11
0.0
 21
297.0
 31
0.0
  0
LWPOLYLINE
  5
2CC
330
226
100
AcDbEntity
  8
0
  6
Continuous
 62
     7
100
AcDbPolyline
 90
        2
 70
     0
 43
0.5
 10
410.0
 20
10.031844
 10
410.0
 20
287.0
  0
LWPOLYLINE
  5
2CD
330
226
100
AcDbEntity
  8
0
  6
Continuous
 62
     7
100
AcDbPolyline
 90
        2
 70
     0
 43
0.5
 10
10.053631
 20
10.031844
 10
10.053631
 20
287.0
  0
LWPOLYLINE
  5
2CE
330
226
100
AcDbEntity
  8
0
  6
Continuous
 62
     7
100
AcDbPolyline
 90
        2
 70
     0
 43
0.5
 10
10.053631
 20
10.031844
 10
410.0
 20
10.031844
  0
LWPOLYLINE
  5
2CF
330
226
100
AcDbEntity
  8
0
  6
Continuous
 62
     7
100
AcDbPolyline
 90
        2
 70
     0
 43
0.1
 10
210.0
 20
10.0
 10
210.0
 20
0.0
  0
LWPOLYLINE
  5
2D0
330
226
100
AcDbEntity
  8
0
  6
Continuous
 62
     7
100
AcDbPolyline
 90
        2
 70
     0
 43
0.1
 10
210.0
 20
287.0
 10
210.0
 20
297.0
  0
LWPOLYLINE
  5
2D1
330
226
100
AcDbEntity
  8
0
  6
Continuous
 62
     7
100
AcDbPolyline
 90
        2
 70
     0
 43
0.1
 10
410.0
 20
148.5
 10
420.0
 20
148.5
  0
LWPOLYLINE
  5
2D2
330
226
100
AcDbEntity
  8
0
  6
Continuous
 62
     7
100
AcDbPolyline
 90
        2
 70
     0
 43
0.1
 10
10.0
 20
148.5
 10
0.0
 20
148.5
  0
LWPOLYLINE
  5
2D3
330
226
100
AcDbEntity
  8
0
  6
Continuous
 62
     7
100
AcDbPolyline
 90
        2
 70
     0
 43
0.5
 10
10.053631
 20
287.0
 10
410.0
 20
287.0
  0
LWPOLYLINE
  5
2D4
330
226
100
AcDbEntity
  8
0
  6
Continuous
 62
     7
100
AcDbPolyline
 90
        2
 70
     0
 43
0.1
 10
0.0
 20
290.0
 10
420.0
 20
290.0
  0
LWPOLYLINE
  5
2D5
330
226
100
AcDbEntity
  8
0
  6
Continuous
 62
     7
100
AcDbPolyline
 90
        2
 70
     0
 43
0.1
 10
7.053631
 20
0.0
 10
7.053631
 20
297.0
  0
LWPOLYLINE
  5
2D6
330
226
100
AcDbEntity
  8
0
  6
Continuous
 62
     7
100
AcDbPolyline
 90
        2
 70
     0
 43
0.1
 10
413.0
 20
0.0
 10
413.0
 20
297.0
  0
LWPOLYLINE
  5
2D7
330
226
100
AcDbEntity
  8
0
  6
Continuous
 62
     7
100
AcDbPolyline
 90
        2
 70
     0
 43
0.1
 10
0.0
 20
7.031844
 10
420.0
 20
7.031844
  0
LWPOLYLINE
  5
2D8
330
226
100
AcDbEntity
  8
0
  6
Continuous
 62
     7
100
AcDbPolyline
 90
        2
 70
     0
 43
0.1
 10
10.0
 20
202.968156
 10
0.0
 20
202.968156
  0
LINE
  5
2D9
330
226
100
AcDbEntity
  8
0
  6
Continuous
 62
     7
100
AcDbLine
 10
0.0
 20
99.968156
 30
0.0
 11
7.0
 21
99.968156
 31
0.0
  0
LINE
  5
2DA
330
226
100
AcDbEntity
  8
0
  6
Continuous
 62
     7
100
AcDbLine
 10
0.0
 20
199.968156
 30
0.0
 11
7.0
 21
199.968156
 31
0.0
  0
LWPOLYLINE
  5
2DB
330
226
100
AcDbEntity
  8
0
  6
Continuous
 62
     7
100
AcDbPolyline
 90
        2
 70
     0
 43
0.1
 10
410.0
 20
210.0
 10
420.0
 20
210.0
  0
LINE
  5
2DC
330
226
100
AcDbEntity
  8
0
  6
Continuous
 62
     7
100
AcDbLine
 10
413.0
 20
107.0
 30
0.0
 11
420.0
 21
107.0
 31
0.0
  0
LWPOLYLINE
  5
2DD
330
226
100
AcDbEntity
  8
0
  6
Continuous
 62
     7
100
AcDbPolyline
 90
        2
 70
     0
 43
0.1
 10
123.0
 20
10.0
 10
123.0
 20
0.0
  0
LINE
  5
2DE
330
226
100
AcDbEntity
  8
0
  6
Continuous
 62
     7
100
AcDbLine
 10
210.0
 20
0.0
 30
0.0
 11
210.0
 21
10.0
 31
0.0
  0
LINE
  5
2DF
330
226
100
AcDbEntity
  8
0
  6
Continuous
 62
     7
100
AcDbLine
 10
313.0
 20
7.0
 30
0.0
 11
313.0
 21
0.0
 31
0.0
  0
LINE
  5
2E0
330
226
100
AcDbEntity
  8
0
  6
Continuous
 62
     7
100
AcDbLine
 10
113.0
 20
7.0
 30
0.0
 11
113.0
 21
0.0
 31
0.0
  0
LWPOLYLINE
  5
2E1
330
226
100
AcDbEntity
  8
0
  6
Continuous
 62
     7
100
AcDbPolyline
 90
        2
 70
     0
 43
0.1
 10
123.0
 20
287.0
 10
123.0
 20
297.0
  0
LINE
  5
2E2
330
226
100
AcDbEntity
  8
0
  6
Continuous
 62
     7
100
AcDbLine
 10
210.0
 20
287.0
 30
0.0
 11
210.0
 21
297.0
 31
0.0
  0
LINE
  5
2E3
330
226
100
AcDbEntity
  8
0
  6
Continuous
 62
     7
100
AcDbLine
 10
313.0
 20
297.0
 30
0.0
 11
313.0
 21
290.0
 31
0.0
  0
LINE
  5
2E4
330
226
100
AcDbEntity
  8
0
  6
Continuous
 62
     7
100
AcDbLine
 10
113.0
 20
297.0
 30
0.0
 11
113.0
 21
290.0
 31
0.0
  0
MTEXT
  5
2E5
330
226
100
AcDbEntity
  8
0
  6
Continuous
 62
     2
100
AcDbMText
 10
1.646722
 20
53.595027
 30
0.0
 40
4.0
 41
3.428571
 46
0.0
 71
     1
 72
     1
  1
1
  7
TEXTSTYLE_2
 73
     1
 44
0.9
  0
MTEXT
  5
2E6
330
226
100
AcDbEntity
  8
0
  6
Continuous
 62
     2
100
AcDbMText
 10
1.646722
 20
153.595027
 30
0.0
 40
4.0
 41
4.714286
 46
0.0
 71
     1
 72
     1
  1
2
  7
TEXTSTYLE_2
 73
     1
 44
0.9
  0
MTEXT
  5
2E7
330
226
100
AcDbEntity
  8
0
  6
Continuous
 62
     2
100
AcDbMText
 10
1.646722
 20
253.595027
 30
0.0
 40
4.0
 41
4.285714
 46
0.0
 71
     1
 72
     1
  1
3
  7
TEXTSTYLE_2
 73
     1
 44
0.9
  0
MTEXT
  5
2E8
330
226
100
AcDbEntity
  8
0
  6
Continuous
 62
     2
100
AcDbMText
 10
414.646722
 20
60.626871
 30
0.0
 40
4.0
 41
3.428571
 46
0.0
 71
     1
 72
     1
  1
1
  7
TEXTSTYLE_2
 73
     1
 44
0.9
  0
MTEXT
  5
2E9
330
226
100
AcDbEntity
  8
0
  6
Continuous
 62
     2
100
AcDbMText
 10
414.646722
 20
160.626871
 30
0.0
 40
4.0
 41
4.714286
 46
0.0
 71
     1
 72
     1
  1
2
  7
TEXTSTYLE_2
 73
     1
 44
0.9
  0
MTEXT
  5
2EA
330
226
100
AcDbEntity
  8
0
  6
Continuous
 62
     2
100
AcDbMText
 10
414.646722
 20
260.626871
 30
0.0
 40
4.0
 41
4.285714
 46
0.0
 71
     1
 72
     1
  1
3
  7
TEXTSTYLE_2
 73
     1
 44
0.9
  0
MTEXT
  5
2EB
330
226
100
AcDbEntity
  8
0
  6
Continuous
 62
     2
100
AcDbMText
 10
362.154891
 20
5.35876
 30
0.0
 40
4.0
 41
3.6
 46
0.0
 71
     1
 72
     1
  1
A
  7
TEXTSTYLE_3
 73
     1
 44
0.9
  0
MTEXT
  5
2EC
330
226
100
AcDbEntity
  8
0
  6
Continuous
 62
     2
100
AcDbMText
 10
262.154891
 20
5.35876
 30
0.0
 40
4.0
 41
3.6
 46
0.0
 71
     1
 72
     1
  1
B
  7
TEXTSTYLE_3
 73
     1
 44
0.9
  0
MTEXT
  5
2ED
330
226
100
AcDbEntity
  8
0
  6
Continuous
 62
     2
100
AcDbMText
 10
162.154891
 20
5.35876
 30
0.0
 40
4.0
 41
3.6
 46
0.0
 71
     1
 72
     1
  1
C
  7
TEXTSTYLE_3
 73
     1
 44
0.9
  0
MTEXT
  5
2EE
330
226
100
AcDbEntity
  8
0
  6
Continuous
 62
     2
100
AcDbMText
 10
55.797869
 20
5.535344
 30
0.0
 40
4.0
 41
3.6
 46
0.0
 71
     1
 72
     1
  1
D
  7
TEXTSTYLE_3
 73
     1
 44
0.9
  0
MTEXT
  5
2EF
330
226
100
AcDbEntity
  8
0
  6
Continuous
 62
     2
100
AcDbMText
 10
362.154891
 20
295.35876
 30
0.0
 40
4.0
 41
3.6
 46
0.0
 71
     1
 72
     1
  1
A
  7
TEXTSTYLE_3
 73
     1
 44
0.9
  0
MTEXT
  5
2F0
330
226
100
AcDbEntity
  8
0
  6
Continuous
 62
     2
100
AcDbMText
 10
262.154891
 20
295.35876
 30
0.0
 40
4.0
 41
3.6
 46
0.0
 71
     1
 72
     1
  1
B
  7
TEXTSTYLE_3
 73
     1
 44
0.9
  0
MTEXT
  5
2F1
330
226
100
AcDbEntity
  8
0
  6
Continuous
 62
     2
100
AcDbMText
 10
162.154891
 20
295.35876
 30
0.0
 40
4.0
 41
3.6
 46
0.0
 71
     1
 72
     1
  1
C
  7
TEXTSTYLE_3
 73
     1
 44
0.9
  0
MTEXT
  5
2F2
330
226
100
AcDbEntity
  8
0
  6
Continuous
 62
     2
100
AcDbMText
 10
53.987883
 20
295.57949
 30
0.0
 40
4.0
 41
3.6
 46
0.0
 71
     1
 72
     1
  1
D
  7
TEXTSTYLE_3
 73
     1
 44
0.9
  0
ARC
  5
2F3
330
226
100
AcDbEntity
  8
3_ALL_AXES
  6
Continuous
 62
     7
100
AcDbCircle
 10
132.893325
 20
217.75612
 30
0.0
 40
2.1
100
AcDbArc
 50
90.0
 51
96.61621
  0
ARC
  5
2F4
330
226
100
AcDbEntity
  8
3_ALL_AXES
  6
Continuous
 62
     7
100
AcDbCircle
 10
132.893325
 20
217.75612
 30
0.0
 40
2.1
100
AcDbArc
 50
83.38379
 51
90.0
  0
LINE
  5
2F5
330
226
100
AcDbEntity
  8
7_ALL_FEATURES
  6
Continuous
 62
     7
100
AcDbLine
 10
133.75935
 20
212.25612
 30
0.0
 11
132.027299
 21
212.25612
 31
0.0
  0
LINE
  5
2F6
330
226
100
AcDbEntity
  8
7_ALL_FEATURES
  6
Continuous
 62
     7
100
AcDbLine
 10
132.027299
 20
212.25612
 30
0.0
 11
131.161274
 21
210.75612
 31
0.0
  0
LINE
  5
2F7
330
226
100
AcDbEntity
  8
7_ALL_FEATURES
  6
Continuous
 62
     7
100
AcDbLine
 10
131.161274
 20
210.75612
 30
0.0
 11
132.027299
 21
209.25612
 31
0.0
  0
LINE
  5
2F8
330
226
100
AcDbEntity
  8
7_ALL_FEATURES
  6
Continuous
 62
     7
100
AcDbLine
 10
132.027299
 20
209.25612
 30
0.0
 11
133.75935
 21
209.25612
 31
0.0
  0
LINE
  5
2F9
330
226
100
AcDbEntity
  8
7_ALL_FEATURES
  6
Continuous
 62
     7
100
AcDbLine
 10
133.75935
 20
209.25612
 30
0.0
 11
134.625375
 21
210.75612
 31
0.0
  0
LINE
  5
2FA
330
226
100
AcDbEntity
  8
7_ALL_FEATURES
  6
Continuous
 62
     7
100
AcDbLine
 10
134.625375
 20
210.75612
 30
0.0
 11
133.75935
 21
212.25612
 31
0.0
  0
ARC
  5
2FB
330
226
100
AcDbEntity
  8
7_ALL_FEATURES
  6
Continuous
 62
     7
100
AcDbCircle
 10
132.893325
 20
210.75612
 30
0.0
 40
7.5
100
AcDbArc
 50
270.0
 51
90.0
  0
ARC
  5
2FC
330
226
100
AcDbEntity
  8
7_ALL_FEATURES
  6
Continuous
 62
     7
100
AcDbCircle
 10
132.893325
 20
210.75612
 30
0.0
 40
7.5
100
AcDbArc
 50
90.0
 51
270.0
  0
ARC
  5
2FD
330
226
100
AcDbEntity
  8
7_ALL_FEATURES
  6
Continuous
 62
     7
100
AcDbCircle
 10
132.893325
 20
210.75612
 30
0.0
 40
7.5
100
AcDbArc
 50
90.0
 51
270.0
  0
ARC
  5
2FE
330
226
100
AcDbEntity
  8
7_ALL_FEATURES
  6
Continuous
 62
     9
100
AcDbCircle
 10
132.893325
 20
210.75612
 30
0.0
 40
7.0218346959
100
AcDbArc
 50
90.0
 51
270.0
  0
ARC
  5
2FF
330
226
100
AcDbEntity
  8
7_ALL_FEATURES
  6
Continuous
 62
     9
100
AcDbCircle
 10
132.893325
 20
210.75612
 30
0.0
 40
3.3496902606
100
AcDbArc
 50
90.0
 51
270.0
  0
ARC
  5
300
330
226
100
AcDbEntity
  8
7_ALL_FEATURES
  6
Continuous
 62
     9
100
AcDbCircle
 10
132.893325
 20
210.75612
 30
0.0
 40
7.0218346959
100
AcDbArc
 50
270.0
 51
90.0
  0
ARC
  5
301
330
226
100
AcDbEntity
  8
7_ALL_FEATURES
  6
Continuous
 62
     9
100
AcDbCircle
 10
132.893325
 20
210.75612
 30
0.0
 40
2.6247977383
100
AcDbArc
 50
90.0
 51
270.0
  0
ARC
  5
302
330
226
100
AcDbEntity
  8
7_ALL_FEATURES
  6
Continuous
 62
     9
100
AcDbCircle
 10
132.893325
 20
210.75612
 30
0.0
 40
2.6247977383
100
AcDbArc
 50
270.0
 51
90.0
  0
ARC
  5
303
330
226
100
AcDbEntity
  8
7_ALL_FEATURES
  6
Continuous
 62
     9
100
AcDbCircle
 10
132.893325
 20
210.75612
 30
0.0
 40
3.3496902606
100
AcDbArc
 50
270.0
 51
90.0
  0
ARC
  5
304
330
226
100
AcDbEntity
  8
7_ALL_FEATURES
  6
Continuous
 62
     7
100
AcDbCircle
 10
151.393325
 20
160.334166
 30
0.0
 40
20.0
100
AcDbArc
 50
0.0
 51
1.2089
  0
LINE
  5
305
330
226
100
AcDbEntity
  8
7_ALL_FEATURES
  6
Continuous
 62
     7
100
AcDbLine
 10
171.393325
 20
160.334166
 30
0.0
 11
171.393325
 21
157.75612
 31
0.0
  0
LINE
  5
306
330
226
100
AcDbEntity
  8
7_ALL_FEATURES
  6
Continuous
 62
     7
100
AcDbLine
 10
171.393325
 20
157.75612
 30
0.0
 11
171.393325
 21
155.75612
 31
0.0
  0
LINE
  5
307
330
226
100
AcDbEntity
  8
7_ALL_FEATURES
  6
Continuous
 62
     7
100
AcDbLine
 10
146.393325
 20
155.75612
 30
0.0
 11
171.393325
 21
155.75612
 31
0.0
  0
LINE
  5
308
330
226
100
AcDbEntity
  8
7_ALL_FEATURES
  6
Continuous
 62
     7
100
AcDbLine
 10
146.393325
 20
160.75612
 30
0.0
 11
146.393325
 21
157.75612
 31
0.0
  0
LINE
  5
309
330
226
100
AcDbEntity
  8
7_ALL_FEATURES
  6
Continuous
 62
     7
100
AcDbLine
 10
146.393325
 20
157.75612
 30
0.0
 11
146.393325
 21
155.75612
 31
0.0
  0
ARC
  5
30A
330
226
100
AcDbEntity
  8
7_ALL_FEATURES
  6
Continuous
 62
     7
100
AcDbCircle
 10
126.393325
 20
161.687074
 30
0.0
 40
20.0
100
AcDbArc
 50
0.0
 51
23.0
  0
ARC
  5
30B
330
226
100
AcDbEntity
  8
7_ALL_FEATURES
  6
Continuous
 62
     7
100
AcDbCircle
 10
132.893325
 20
210.75612
 30
0.0
 40
10.5
100
AcDbArc
 50
93.794577
 51
97.109529
  0
LINE
  5
30C
330
226
100
AcDbEntity
  8
7_ALL_FEATURES
  6
Continuous
 62
     7
100
AcDbLine
 10
131.593776
 20
221.175389
 30
0.0
 11
131.339294
 21
220.433283
 31
0.0
  0
LINE
  5
30D
330
226
100
AcDbEntity
  8
7_ALL_FEATURES
  6
Continuous
 62
     7
100
AcDbLine
 10
131.339294
 20
220.433283
 30
0.0
 11
131.191572
 21
220.407236
 31
0.0
  0
LINE
  5
30E
330
226
100
AcDbEntity
  8
7_ALL_FEATURES
  6
Continuous
 62
     7
100
AcDbLine
 10
131.191572
 20
220.407236
 30
0.0
 11
131.043851
 21
220.381189
 31
0.0
  0
LINE
  5
30F
330
226
100
AcDbEntity
  8
7_ALL_FEATURES
  6
Continuous
 62
     7
100
AcDbLine
 10
131.043851
 20
220.381189
 30
0.0
 11
130.550901
 21
220.991502
 31
0.0
  0
ARC
  5
310
330
226
100
AcDbEntity
  8
7_ALL_FEATURES
  6
Continuous
 62
     7
100
AcDbCircle
 10
132.893325
 20
210.75612
 30
0.0
 40
10.5
100
AcDbArc
 50
102.890471
 51
107.109529
  0
LINE
  5
311
330
226
100
AcDbEntity
  8
7_ALL_FEATURES
  6
Continuous
 62
     7
100
AcDbLine
 10
129.804232
 20
220.791433
 30
0.0
 11
129.682481
 21
220.016411
 31
0.0
  0
LINE
  5
312
330
226
100
AcDbEntity
  8
7_ALL_FEATURES
  6
Continuous
 62
     7
100
AcDbLine
 10
132.743325
 20
219.55612
 30
0.0
 11
132.19844
 21
221.233101
 31
0.0
  0
LINE
  5
313
330
226
100
AcDbEntity
  8
7_ALL_FEATURES
  6
Continuous
 62
     7
100
AcDbLine
 10
133.043325
 20
219.55612
 30
0.0
 11
132.743325
 21
219.55612
 31
0.0
  0
LINE
  5
314
330
226
100
AcDbEntity
  8
7_ALL_FEATURES
  6
Continuous
 62
     7
100
AcDbLine
 10
133.588209
 20
221.233101
 30
0.0
 11
133.043325
 21
219.55612
 31
0.0
  0
ARC
  5
315
330
226
100
AcDbEntity
  8
7_ALL_FEATURES
  6
Continuous
 62
     7
100
AcDbCircle
 10
132.893325
 20
210.75612
 30
0.0
 40
10.5
100
AcDbArc
 50
82.890471
 51
86.205423
  0
LINE
  5
316
330
226
100
AcDbEntity
  8
7_ALL_FEATURES
  6
Continuous
 62
     7
100
AcDbLine
 10
134.447356
 20
220.433283
 30
0.0
 11
134.192873
 21
221.175389
 31
0.0
  0
LINE
  5
317
330
226
100
AcDbEntity
  8
7_ALL_FEATURES
  6
Continuous
 62
     7
100
AcDbLine
 10
134.595077
 20
220.407236
 30
0.0
 11
134.447356
 21
220.433283
 31
0.0
  0
LINE
  5
318
330
226
100
AcDbEntity
  8
7_ALL_FEATURES
  6
Continuous
 62
     7
100
AcDbLine
 10
134.742798
 20
220.381189
 30
0.0
 11
134.595077
 21
220.407236
 31
0.0
  0
LINE
  5
319
330
226
100
AcDbEntity
  8
7_ALL_FEATURES
  6
Continuous
 62
     7
100
AcDbLine
 10
135.235748
 20
220.991502
 30
0.0
 11
134.742798
 21
220.381189
 31
0.0
  0
ARC
  5
31A
330
226
100
AcDbEntity
  8
7_ALL_FEATURES
  6
Continuous
 62
     7
100
AcDbCircle
 10
132.893325
 20
210.75612
 30
0.0
 40
10.5
100
AcDbArc
 50
72.890471
 51
77.109529
  0
LINE
  5
31B
330
226
100
AcDbEntity
  8
7_ALL_FEATURES
  6
Continuous
 62
     7
100
AcDbLine
 10
136.104168
 20
220.016411
 30
0.0
 11
135.982417
 21
220.791433
 31
0.0
  0
LINE
  5
31C
330
226
100
AcDbEntity
  8
7_ALL_FEATURES
  6
Continuous
 62
     7
100
AcDbLine
 10
136.245122
 20
219.965108
 30
0.0
 11
136.104168
 21
220.016411
 31
0.0
  0
LINE
  5
31D
330
226
100
AcDbEntity
  8
7_ALL_FEATURES
  6
Continuous
 62
     7
100
AcDbLine
 10
136.386076
 20
219.913805
 30
0.0
 11
136.245122
 21
219.965108
 31
0.0
  0
LINE
  5
31E
330
226
100
AcDbEntity
  8
7_ALL_FEATURES
  6
Continuous
 62
     7
100
AcDbLine
 10
136.977517
 20
220.429246
 30
0.0
 11
136.386076
 21
219.913805
 31
0.0
  0
ARC
  5
31F
330
226
100
AcDbEntity
  8
7_ALL_FEATURES
  6
Continuous
 62
     7
100
AcDbCircle
 10
132.893325
 20
210.75612
 30
0.0
 40
10.5
100
AcDbArc
 50
62.890471
 51
67.109529
  0
LINE
  5
320
330
226
100
AcDbEntity
  8
7_ALL_FEATURES
  6
Continuous
 62
     7
100
AcDbLine
 10
137.663421
 20
219.318169
 30
0.0
 11
137.678101
 21
220.102559
 31
0.0
  0
LINE
  5
321
330
226
100
AcDbEntity
  8
7_ALL_FEATURES
  6
Continuous
 62
     7
100
AcDbLine
 10
137.793325
 20
219.243169
 30
0.0
 11
137.663421
 21
219.318169
 31
0.0
  0
LINE
  5
322
330
226
100
AcDbEntity
  8
7_ALL_FEATURES
  6
Continuous
 62
     7
100
AcDbLine
 10
137.923228
 20
219.168169
 30
0.0
 11
137.793325
 21
219.243169
 31
0.0
  0
LINE
  5
323
330
226
100
AcDbEntity
  8
7_ALL_FEATURES
  6
Continuous
 62
     7
100
AcDbLine
 10
138.59519
 20
219.573077
 30
0.0
 11
137.923228
 21
219.168169
 31
0.0
  0
ARC
  5
324
330
226
100
AcDbEntity
  8
7_ALL_FEATURES
  6
Continuous
 62
     7
100
AcDbCircle
 10
132.893325
 20
210.75612
 30
0.0
 40
10.5
100
AcDbArc
 50
52.890471
 51
57.109529
  0
LINE
  5
325
330
226
100
AcDbEntity
  8
7_ALL_FEATURES
  6
Continuous
 62
     7
100
AcDbLine
 10
139.077736
 20
218.359774
 30
0.0
 11
139.228401
 21
219.129698
 31
0.0
  0
LINE
  5
326
330
226
100
AcDbEntity
  8
7_ALL_FEATURES
  6
Continuous
 62
     7
100
AcDbLine
 10
139.192643
 20
218.263356
 30
0.0
 11
139.077736
 21
218.359774
 31
0.0
  0
LINE
  5
327
330
226
100
AcDbEntity
  8
7_ALL_FEATURES
  6
Continuous
 62
     7
100
AcDbLine
 10
139.30755
 20
218.166937
 30
0.0
 11
139.192643
 21
218.263356
 31
0.0
  0
LINE
  5
328
330
226
100
AcDbEntity
  8
7_ALL_FEATURES
  6
Continuous
 62
     7
100
AcDbLine
 10
140.039614
 20
218.449009
 30
0.0
 11
139.30755
 21
218.166937
 31
0.0
  0
ARC
  5
329
330
226
100
AcDbEntity
  8
7_ALL_FEATURES
  6
Continuous
 62
     7
100
AcDbCircle
 10
132.893325
 20
210.75612
 30
0.0
 40
10.5
100
AcDbArc
 50
42.890471
 51
47.109529
  0
LINE
  5
32A
330
226
100
AcDbEntity
  8
7_ALL_FEATURES
  6
Continuous
 62
     7
100
AcDbLine
 10
140.304142
 20
217.170345
 30
0.0
 11
140.586214
 21
217.90241
 31
0.0
  0
LINE
  5
32B
330
226
100
AcDbEntity
  8
7_ALL_FEATURES
  6
Continuous
 62
     7
100
AcDbLine
 10
140.40056
 20
217.055439
 30
0.0
 11
140.304142
 21
217.170345
 31
0.0
  0
LINE
  5
32C
330
226
100
AcDbEntity
  8
7_ALL_FEATURES
  6
Continuous
 62
     7
100
AcDbLine
 10
140.496978
 20
216.940532
 30
0.0
 11
140.40056
 21
217.055439
 31
0.0
  0
LINE
  5
32D
330
226
100
AcDbEntity
  8
7_ALL_FEATURES
  6
Continuous
 62
     7
100
AcDbLine
 10
141.266902
 20
217.091197
 30
0.0
 11
140.496978
 21
216.940532
 31
0.0
  0
ARC
  5
32E
330
226
100
AcDbEntity
  8
7_ALL_FEATURES
  6
Continuous
 62
     7
100
AcDbCircle
 10
132.893325
 20
210.75612
 30
0.0
 40
10.5
100
AcDbArc
 50
30.336361
 51
37.109529
  0
LINE
  5
32F
330
226
100
AcDbEntity
  8
7_ALL_FEATURES
  6
Continuous
 62
     7
100
AcDbLine
 10
168.654828
 20
170.435675
 30
0.0
 11
141.955614
 21
216.059412
 31
0.0
  0
ARC
  5
330
330
226
100
AcDbEntity
  8
7_ALL_FEATURES
  6
Continuous
 62
     7
100
AcDbCircle
 10
151.393325
 20
160.334166
 30
0.0
 40
20.0
100
AcDbArc
 50
1.2089
 51
30.336361
  0
LINE
  5
331
330
226
100
AcDbEntity
  8
7_ALL_FEATURES
  6
Continuous
 62
     7
100
AcDbLine
 10
146.393325
 20
161.687074
 30
0.0
 11
146.393325
 21
160.75612
 31
0.0
  0
LINE
  5
332
330
226
100
AcDbEntity
  8
7_ALL_FEATURES
  6
Continuous
 62
     7
100
AcDbLine
 10
131.72108
 20
200.321761
 30
0.0
 11
144.803422
 21
169.501697
 31
0.0
  0
ARC
  5
333
330
226
100
AcDbEntity
  8
7_ALL_FEATURES
  6
Continuous
 62
     7
100
AcDbCircle
 10
132.893325
 20
210.75612
 30
0.0
 40
10.5
100
AcDbArc
 50
232.890471
 51
263.590004
  0
LINE
  5
334
330
226
100
AcDbEntity
  8
7_ALL_FEATURES
  6
Continuous
 62
     7
100
AcDbLine
 10
126.708913
 20
203.152466
 30
0.0
 11
126.558248
 21
202.382542
 31
0.0
  0
LINE
  5
335
330
226
100
AcDbEntity
  8
7_ALL_FEATURES
  6
Continuous
 62
     7
100
AcDbLine
 10
126.594006
 20
203.248885
 30
0.0
 11
126.708913
 21
203.152466
 31
0.0
  0
LINE
  5
336
330
226
100
AcDbEntity
  8
7_ALL_FEATURES
  6
Continuous
 62
     7
100
AcDbLine
 10
126.479099
 20
203.345303
 30
0.0
 11
126.594006
 21
203.248885
 31
0.0
  0
LINE
  5
337
330
226
100
AcDbEntity
  8
7_ALL_FEATURES
  6
Continuous
 62
     7
100
AcDbLine
 10
125.747035
 20
203.063231
 30
0.0
 11
126.479099
 21
203.345303
 31
0.0
  0
ARC
  5
338
330
226
100
AcDbEntity
  8
7_ALL_FEATURES
  6
Continuous
 62
     7
100
AcDbCircle
 10
132.893325
 20
210.75612
 30
0.0
 40
10.5
100
AcDbArc
 50
222.890471
 51
227.109529
  0
LINE
  5
339
330
226
100
AcDbEntity
  8
7_ALL_FEATURES
  6
Continuous
 62
     7
100
AcDbLine
 10
125.482507
 20
204.341895
 30
0.0
 11
125.200435
 21
203.60983
 31
0.0
  0
LINE
  5
33A
330
226
100
AcDbEntity
  8
7_ALL_FEATURES
  6
Continuous
 62
     7
100
AcDbLine
 10
125.386089
 20
204.456802
 30
0.0
 11
125.482507
 21
204.341895
 31
0.0
  0
LINE
  5
33B
330
226
100
AcDbEntity
  8
7_ALL_FEATURES
  6
Continuous
 62
     7
100
AcDbLine
 10
125.289671
 20
204.571708
 30
0.0
 11
125.386089
 21
204.456802
 31
0.0
  0
LINE
  5
33C
330
226
100
AcDbEntity
  8
7_ALL_FEATURES
  6
Continuous
 62
     7
100
AcDbLine
 10
124.519747
 20
204.421043
 30
0.0
 11
125.289671
 21
204.571708
 31
0.0
  0
ARC
  5
33D
330
226
100
AcDbEntity
  8
7_ALL_FEATURES
  6
Continuous
 62
     7
100
AcDbCircle
 10
132.893325
 20
210.75612
 30
0.0
 40
10.5
100
AcDbArc
 50
212.890471
 51
217.109529
  0
LINE
  5
33E
330
226
100
AcDbEntity
  8
7_ALL_FEATURES
  6
Continuous
 62
     7
100
AcDbLine
 10
124.481276
 20
205.726216
 30
0.0
 11
124.076368
 21
205.054255
 31
0.0
  0
LINE
  5
33F
330
226
100
AcDbEntity
  8
7_ALL_FEATURES
  6
Continuous
 62
     7
100
AcDbLine
 10
124.406276
 20
205.85612
 30
0.0
 11
124.481276
 21
205.726216
 31
0.0
  0
LINE
  5
340
330
226
100
AcDbEntity
  8
7_ALL_FEATURES
  6
Continuous
 62
     7
100
AcDbLine
 10
124.331276
 20
205.986024
 30
0.0
 11
124.406276
 21
205.85612
 31
0.0
  0
LINE
  5
341
330
226
100
AcDbEntity
  8
7_ALL_FEATURES
  6
Continuous
 62
     7
100
AcDbLine
 10
123.546886
 20
205.971344
 30
0.0
 11
124.331276
 21
205.986024
 31
0.0
  0
ARC
  5
342
330
226
100
AcDbEntity
  8
7_ALL_FEATURES
  6
Continuous
 62
     7
100
AcDbCircle
 10
132.893325
 20
210.75612
 30
0.0
 40
10.5
100
AcDbArc
 50
205.0
 51
207.109529
  0
ARC
  5
343
330
226
100
AcDbEntity
  8
7_ALL_FEATURES
  6
Continuous
 62
     7
100
AcDbCircle
 10
132.893325
 20
210.75612
 30
0.0
 40
10.5
100
AcDbArc
 50
202.890471
 51
205.0
  0
LINE
  5
344
330
226
100
AcDbEntity
  8
7_ALL_FEATURES
  6
Continuous
 62
     7
100
AcDbLine
 10
123.73564
 20
207.263369
 30
0.0
 11
123.220198
 21
206.671927
 31
0.0
  0
LINE
  5
345
330
226
100
AcDbEntity
  8
7_ALL_FEATURES
  6
Continuous
 62
     7
100
AcDbLine
 10
123.684337
 20
207.404323
 30
0.0
 11
123.73564
 21
207.263369
 31
0.0
  0
LINE
  5
346
330
226
100
AcDbEntity
  8
7_ALL_FEATURES
  6
Continuous
 62
     7
100
AcDbLine
 10
123.633034
 20
207.545277
 30
0.0
 11
123.684337
 21
207.404323
 31
0.0
  0
LINE
  5
347
330
226
100
AcDbEntity
  8
7_ALL_FEATURES
  6
Continuous
 62
     7
100
AcDbLine
 10
122.858011
 20
207.667028
 30
0.0
 11
123.633034
 21
207.545277
 31
0.0
  0
ARC
  5
348
330
226
100
AcDbEntity
  8
7_ALL_FEATURES
  6
Continuous
 62
     7
100
AcDbCircle
 10
132.893325
 20
210.75612
 30
0.0
 40
10.5
100
AcDbArc
 50
192.890471
 51
197.109529
  0
LINE
  5
349
330
226
100
AcDbEntity
  8
7_ALL_FEATURES
  6
Continuous
 62
     7
100
AcDbLine
 10
123.268256
 20
208.906647
 30
0.0
 11
122.657942
 21
208.413696
 31
0.0
  0
LINE
  5
34A
330
226
100
AcDbEntity
  8
7_ALL_FEATURES
  6
Continuous
 62
     7
100
AcDbLine
 10
123.242209
 20
209.054368
 30
0.0
 11
123.268256
 21
208.906647
 31
0.0
  0
LINE
  5
34B
330
226
100
AcDbEntity
  8
7_ALL_FEATURES
  6
Continuous
 62
     7
100
AcDbLine
 10
123.216161
 20
209.202089
 30
0.0
 11
123.242209
 21
209.054368
 31
0.0
  0
LINE
  5
34C
330
226
100
AcDbEntity
  8
7_ALL_FEATURES
  6
Continuous
 62
     7
100
AcDbLine
 10
122.474055
 20
209.456572
 30
0.0
 11
123.216161
 21
209.202089
 31
0.0
  0
ARC
  5
34D
330
226
100
AcDbEntity
  8
7_ALL_FEATURES
  6
Continuous
 62
     7
100
AcDbCircle
 10
132.893325
 20
210.75612
 30
0.0
 40
10.5
100
AcDbArc
 50
183.794577
 51
187.109529
  0
LINE
  5
34E
330
226
100
AcDbEntity
  8
7_ALL_FEATURES
  6
Continuous
 62
     7
100
AcDbLine
 10
124.093325
 20
210.60612
 30
0.0
 11
122.416343
 21
210.061236
 31
0.0
  0
LINE
  5
34F
330
226
100
AcDbEntity
  8
7_ALL_FEATURES
  6
Continuous
 62
     7
100
AcDbLine
 10
124.093325
 20
210.90612
 30
0.0
 11
124.093325
 21
210.60612
 31
0.0
  0
LINE
  5
350
330
226
100
AcDbEntity
  8
7_ALL_FEATURES
  6
Continuous
 62
     7
100
AcDbLine
 10
122.416343
 20
211.451004
 30
0.0
 11
124.093325
 21
210.90612
 31
0.0
  0
ARC
  5
351
330
226
100
AcDbEntity
  8
7_ALL_FEATURES
  6
Continuous
 62
     7
100
AcDbCircle
 10
132.893325
 20
210.75612
 30
0.0
 40
10.5
100
AcDbArc
 50
172.890471
 51
176.205423
  0
LINE
  5
352
330
226
100
AcDbEntity
  8
7_ALL_FEATURES
  6
Continuous
 62
     7
100
AcDbLine
 10
123.216161
 20
212.310151
 30
0.0
 11
122.474055
 21
212.055668
 31
0.0
  0
LINE
  5
353
330
226
100
AcDbEntity
  8
7_ALL_FEATURES
  6
Continuous
 62
     7
100
AcDbLine
 10
123.242209
 20
212.457872
 30
0.0
 11
123.216161
 21
212.310151
 31
0.0
  0
LINE
  5
354
330
226
100
AcDbEntity
  8
7_ALL_FEATURES
  6
Continuous
 62
     7
100
AcDbLine
 10
123.268256
 20
212.605593
 30
0.0
 11
123.242209
 21
212.457872
 31
0.0
  0
LINE
  5
355
330
226
100
AcDbEntity
  8
7_ALL_FEATURES
  6
Continuous
 62
     7
100
AcDbLine
 10
122.657942
 20
213.098544
 30
0.0
 11
123.268256
 21
212.605593
 31
0.0
  0
ARC
  5
356
330
226
100
AcDbEntity
  8
7_ALL_FEATURES
  6
Continuous
 62
     7
100
AcDbCircle
 10
132.893325
 20
210.75612
 30
0.0
 40
10.5
100
AcDbArc
 50
162.890471
 51
167.109529
  0
LINE
  5
357
330
226
100
AcDbEntity
  8
7_ALL_FEATURES
  6
Continuous
 62
     7
100
AcDbLine
 10
123.633034
 20
213.966964
 30
0.0
 11
122.858011
 21
213.845213
 31
0.0
  0
LINE
  5
358
330
226
100
AcDbEntity
  8
7_ALL_FEATURES
  6
Continuous
 62
     7
100
AcDbLine
 10
123.684337
 20
214.107917
 30
0.0
 11
123.633034
 21
213.966964
 31
0.0
  0
LINE
  5
359
330
226
100
AcDbEntity
  8
7_ALL_FEATURES
  6
Continuous
 62
     7
100
AcDbLine
 10
123.73564
 20
214.248871
 30
0.0
 11
123.684337
 21
214.107917
 31
0.0
  0
LINE
  5
35A
330
226
100
AcDbEntity
  8
7_ALL_FEATURES
  6
Continuous
 62
     7
100
AcDbLine
 10
123.220198
 20
214.840313
 30
0.0
 11
123.73564
 21
214.248871
 31
0.0
  0
ARC
  5
35B
330
226
100
AcDbEntity
  8
7_ALL_FEATURES
  6
Continuous
 62
     7
100
AcDbCircle
 10
132.893325
 20
210.75612
 30
0.0
 40
10.5
100
AcDbArc
 50
152.890471
 51
157.109529
  0
LINE
  5
35C
330
226
100
AcDbEntity
  8
7_ALL_FEATURES
  6
Continuous
 62
     7
100
AcDbLine
 10
124.331276
 20
215.526216
 30
0.0
 11
123.546886
 21
215.540896
 31
0.0
  0
LINE
  5
35D
330
226
100
AcDbEntity
  8
7_ALL_FEATURES
  6
Continuous
 62
     7
100
AcDbLine
 10
124.406276
 20
215.65612
 30
0.0
 11
124.331276
 21
215.526216
 31
0.0
  0
LINE
  5
35E
330
226
100
AcDbEntity
  8
7_ALL_FEATURES
  6
Continuous
 62
     7
100
AcDbLine
 10
124.481276
 20
215.786024
 30
0.0
 11
124.406276
 21
215.65612
 31
0.0
  0
LINE
  5
35F
330
226
100
AcDbEntity
  8
7_ALL_FEATURES
  6
Continuous
 62
     7
100
AcDbLine
 10
124.076368
 20
216.457985
 30
0.0
 11
124.481276
 21
215.786024
 31
0.0
  0
ARC
  5
360
330
226
100
AcDbEntity
  8
7_ALL_FEATURES
  6
Continuous
 62
     7
100
AcDbCircle
 10
132.893325
 20
210.75612
 30
0.0
 40
10.5
100
AcDbArc
 50
142.890471
 51
147.109529
  0
LINE
  5
361
330
226
100
AcDbEntity
  8
7_ALL_FEATURES
  6
Continuous
 62
     7
100
AcDbLine
 10
125.289671
 20
216.940532
 30
0.0
 11
124.519747
 21
217.091197
 31
0.0
  0
LINE
  5
362
330
226
100
AcDbEntity
  8
7_ALL_FEATURES
  6
Continuous
 62
     7
100
AcDbLine
 10
125.386089
 20
217.055439
 30
0.0
 11
125.289671
 21
216.940532
 31
0.0
  0
LINE
  5
363
330
226
100
AcDbEntity
  8
7_ALL_FEATURES
  6
Continuous
 62
     7
100
AcDbLine
 10
125.482507
 20
217.170345
 30
0.0
 11
125.386089
 21
217.055439
 31
0.0
  0
LINE
  5
364
330
226
100
AcDbEntity
  8
7_ALL_FEATURES
  6
Continuous
 62
     7
100
AcDbLine
 10
125.200435
 20
217.90241
 30
0.0
 11
125.482507
 21
217.170345
 31
0.0
  0
ARC
  5
365
330
226
100
AcDbEntity
  8
7_ALL_FEATURES
  6
Continuous
 62
     7
100
AcDbCircle
 10
132.893325
 20
210.75612
 30
0.0
 40
10.5
100
AcDbArc
 50
132.890471
 51
137.109529
  0
LINE
  5
366
330
226
100
AcDbEntity
  8
7_ALL_FEATURES
  6
Continuous
 62
     7
100
AcDbLine
 10
126.479099
 20
218.166937
 30
0.0
 11
125.747035
 21
218.449009
 31
0.0
  0
LINE
  5
367
330
226
100
AcDbEntity
  8
7_ALL_FEATURES
  6
Continuous
 62
     7
100
AcDbLine
 10
126.594006
 20
218.263356
 30
0.0
 11
126.479099
 21
218.166937
 31
0.0
  0
LINE
  5
368
330
226
100
AcDbEntity
  8
7_ALL_FEATURES
  6
Continuous
 62
     7
100
AcDbLine
 10
126.708913
 20
218.359774
 30
0.0
 11
126.594006
 21
218.263356
 31
0.0
  0
LINE
  5
369
330
226
100
AcDbEntity
  8
7_ALL_FEATURES
  6
Continuous
 62
     7
100
AcDbLine
 10
126.558248
 20
219.129698
 30
0.0
 11
126.708913
 21
218.359774
 31
0.0
  0
ARC
  5
36A
330
226
100
AcDbEntity
  8
7_ALL_FEATURES
  6
Continuous
 62
     7
100
AcDbCircle
 10
132.893325
 20
210.75612
 30
0.0
 40
10.5
100
AcDbArc
 50
122.890471
 51
127.109529
  0
LINE
  5
36B
330
226
100
AcDbEntity
  8
7_ALL_FEATURES
  6
Continuous
 62
     7
100
AcDbLine
 10
127.863421
 20
219.168169
 30
0.0
 11
127.191459
 21
219.573077
 31
0.0
  0
LINE
  5
36C
330
226
100
AcDbEntity
  8
7_ALL_FEATURES
  6
Continuous
 62
     7
100
AcDbLine
 10
127.993325
 20
219.243169
 30
0.0
 11
127.863421
 21
219.168169
 31
0.0
  0
LINE
  5
36D
330
226
100
AcDbEntity
  8
7_ALL_FEATURES
  6
Continuous
 62
     7
100
AcDbLine
 10
128.123228
 20
219.318169
 30
0.0
 11
127.993325
 21
219.243169
 31
0.0
  0
LINE
  5
36E
330
226
100
AcDbEntity
  8
7_ALL_FEATURES
  6
Continuous
 62
     7
100
AcDbLine
 10
128.108548
 20
220.102559
 30
0.0
 11
128.123228
 21
219.318169
 31
0.0
  0
ARC
  5
36F
330
226
100
AcDbEntity
  8
7_ALL_FEATURES
  6
Continuous
 62
     7
100
AcDbCircle
 10
132.893325
 20
210.75612
 30
0.0
 40
10.5
100
AcDbArc
 50
112.890471
 51
117.109529
  0
LINE
  5
370
330
226
100
AcDbEntity
  8
7_ALL_FEATURES
  6
Continuous
 62
     7
100
AcDbLine
 10
129.400573
 20
219.913805
 30
0.0
 11
128.809132
 21
220.429246
 31
0.0
  0
LINE
  5
371
330
226
100
AcDbEntity
  8
7_ALL_FEATURES
  6
Continuous
 62
     7
100
AcDbLine
 10
129.541527
 20
219.965108
 30
0.0
 11
129.400573
 21
219.913805
 31
0.0
  0
LINE
  5
372
330
226
100
AcDbEntity
  8
7_ALL_FEATURES
  6
Continuous
 62
     7
100
AcDbLine
 10
129.682481
 20
220.016411
 30
0.0
 11
129.541527
 21
219.965108
 31
0.0
  0
LINE
  5
373
330
226
100
AcDbEntity
  8
7_ALL_FEATURES
  6
Continuous
 62
     9
100
AcDbLine
 10
146.393325
 20
160.75612
 30
0.0
 11
171.388873
 21
160.75612
 31
0.0
  0
LINE
  5
374
330
226
100
AcDbEntity
  8
5_ALL_CURVES
  6
Continuous
 62
     4
100
AcDbLine
 10
133.062075
 20
218.945482
 30
0.0
 11
133.062075
 21
218.766758
 31
0.0
  0
LINE
  5
375
330
226
100
AcDbEntity
  8
5_ALL_CURVES
  6
Continuous
 62
     4
100
AcDbLine
 10
133.062075
 20
218.766758
 30
0.0
 11
133.080824
 21
218.613567
 31
0.0
  0
LINE
  5
376
330
226
100
AcDbEntity
  8
5_ALL_CURVES
  6
Continuous
 62
     4
100
AcDbLine
 10
133.080824
 20
218.613567
 30
0.0
 11
133.155825
 21
218.460375
 31
0.0
  0
LINE
  5
377
330
226
100
AcDbEntity
  8
5_ALL_CURVES
  6
Continuous
 62
     4
100
AcDbLine
 10
133.155825
 20
218.460375
 30
0.0
 11
133.212075
 21
218.409312
 31
0.0
  0
LINE
  5
378
330
226
100
AcDbEntity
  8
5_ALL_CURVES
  6
Continuous
 62
     4
100
AcDbLine
 10
133.212075
 20
218.409312
 30
0.0
 11
133.305824
 21
218.38378
 31
0.0
  0
LINE
  5
379
330
226
100
AcDbEntity
  8
5_ALL_CURVES
  6
Continuous
 62
     4
100
AcDbLine
 10
133.305824
 20
218.38378
 30
0.0
 11
133.399575
 21
218.409312
 31
0.0
  0
LINE
  5
37A
330
226
100
AcDbEntity
  8
5_ALL_CURVES
  6
Continuous
 62
     4
100
AcDbLine
 10
133.399575
 20
218.409312
 30
0.0
 11
133.455825
 21
218.460375
 31
0.0
  0
LINE
  5
37B
330
226
100
AcDbEntity
  8
5_ALL_CURVES
  6
Continuous
 62
     4
100
AcDbLine
 10
133.455825
 20
218.460375
 30
0.0
 11
133.530824
 21
218.613567
 31
0.0
  0
LINE
  5
37C
330
226
100
AcDbEntity
  8
5_ALL_CURVES
  6
Continuous
 62
     4
100
AcDbLine
 10
133.530824
 20
218.613567
 30
0.0
 11
133.549575
 21
218.766758
 31
0.0
  0
LINE
  5
37D
330
226
100
AcDbEntity
  8
5_ALL_CURVES
  6
Continuous
 62
     4
100
AcDbLine
 10
133.549575
 20
218.766758
 30
0.0
 11
133.549575
 21
218.945482
 31
0.0
  0
LINE
  5
37E
330
226
100
AcDbEntity
  8
5_ALL_CURVES
  6
Continuous
 62
     4
100
AcDbLine
 10
133.549575
 20
218.945482
 30
0.0
 11
133.530824
 21
219.098673
 31
0.0
  0
LINE
  5
37F
330
226
100
AcDbEntity
  8
5_ALL_CURVES
  6
Continuous
 62
     4
100
AcDbLine
 10
133.530824
 20
219.098673
 30
0.0
 11
133.455825
 21
219.251865
 31
0.0
  0
LINE
  5
380
330
226
100
AcDbEntity
  8
5_ALL_CURVES
  6
Continuous
 62
     4
100
AcDbLine
 10
133.455825
 20
219.251865
 30
0.0
 11
133.399575
 21
219.302929
 31
0.0
  0
LINE
  5
381
330
226
100
AcDbEntity
  8
5_ALL_CURVES
  6
Continuous
 62
     4
100
AcDbLine
 10
133.399575
 20
219.302929
 30
0.0
 11
133.305824
 21
219.328461
 31
0.0
  0
LINE
  5
382
330
226
100
AcDbEntity
  8
5_ALL_CURVES
  6
Continuous
 62
     4
100
AcDbLine
 10
133.305824
 20
219.328461
 30
0.0
 11
133.212075
 21
219.302929
 31
0.0
  0
LINE
  5
383
330
226
100
AcDbEntity
  8
5_ALL_CURVES
  6
Continuous
 62
     4
100
AcDbLine
 10
133.212075
 20
219.302929
 30
0.0
 11
133.155825
 21
219.251865
 31
0.0
  0
LINE
  5
384
330
226
100
AcDbEntity
  8
5_ALL_CURVES
  6
Continuous
 62
     4
100
AcDbLine
 10
133.155825
 20
219.251865
 30
0.0
 11
133.080824
 21
219.098673
 31
0.0
  0
LINE
  5
385
330
226
100
AcDbEntity
  8
5_ALL_CURVES
  6
Continuous
 62
     4
100
AcDbLine
 10
133.080824
 20
219.098673
 30
0.0
 11
133.062075
 21
218.945482
 31
0.0
  0
LINE
  5
386
330
226
100
AcDbEntity
  8
5_ALL_CURVES
  6
Continuous
 62
     4
100
AcDbLine
 10
132.987075
 20
219.098673
 30
0.0
 11
132.968325
 21
218.971014
 31
0.0
  0
LINE
  5
387
330
226
100
AcDbEntity
  8
5_ALL_CURVES
  6
Continuous
 62
     4
100
AcDbLine
 10
133.005825
 20
219.175269
 30
0.0
 11
132.987075
 21
219.098673
 31
0.0
  0
LINE
  5
388
330
226
100
AcDbEntity
  8
5_ALL_CURVES
  6
Continuous
 62
     4
100
AcDbLine
 10
133.043325
 20
219.277397
 30
0.0
 11
133.005825
 21
219.175269
 31
0.0
  0
LINE
  5
389
330
226
100
AcDbEntity
  8
5_ALL_CURVES
  6
Continuous
 62
     4
100
AcDbLine
 10
133.099575
 20
219.353992
 30
0.0
 11
133.043325
 21
219.277397
 31
0.0
  0
LINE
  5
38A
330
226
100
AcDbEntity
  8
5_ALL_CURVES
  6
Continuous
 62
     4
100
AcDbLine
 10
133.193324
 20
219.430588
 30
0.0
 11
133.099575
 21
219.353992
 31
0.0
  0
LINE
  5
38B
330
226
100
AcDbEntity
  8
5_ALL_CURVES
  6
Continuous
 62
     4
100
AcDbLine
 10
133.305824
 20
219.45612
 30
0.0
 11
133.193324
 21
219.430588
 31
0.0
  0
LINE
  5
38C
330
226
100
AcDbEntity
  8
5_ALL_CURVES
  6
Continuous
 62
     4
100
AcDbLine
 10
133.418324
 20
219.430588
 30
0.0
 11
133.305824
 21
219.45612
 31
0.0
  0
LINE
  5
38D
330
226
100
AcDbEntity
  8
5_ALL_CURVES
  6
Continuous
 62
     4
100
AcDbLine
 10
133.512075
 20
219.353992
 30
0.0
 11
133.418324
 21
219.430588
 31
0.0
  0
LINE
  5
38E
330
226
100
AcDbEntity
  8
5_ALL_CURVES
  6
Continuous
 62
     4
100
AcDbLine
 10
133.568325
 20
219.277397
 30
0.0
 11
133.512075
 21
219.353992
 31
0.0
  0
LINE
  5
38F
330
226
100
AcDbEntity
  8
5_ALL_CURVES
  6
Continuous
 62
     4
100
AcDbLine
 10
133.605825
 20
219.175269
 30
0.0
 11
133.568325
 21
219.277397
 31
0.0
  0
LINE
  5
390
330
226
100
AcDbEntity
  8
5_ALL_CURVES
  6
Continuous
 62
     4
100
AcDbLine
 10
133.624575
 20
219.098673
 30
0.0
 11
133.605825
 21
219.175269
 31
0.0
  0
LINE
  5
391
330
226
100
AcDbEntity
  8
5_ALL_CURVES
  6
Continuous
 62
     4
100
AcDbLine
 10
133.643324
 20
218.971014
 30
0.0
 11
133.624575
 21
219.098673
 31
0.0
  0
LINE
  5
392
330
226
100
AcDbEntity
  8
5_ALL_CURVES
  6
Continuous
 62
     4
100
AcDbLine
 10
133.643324
 20
218.741226
 30
0.0
 11
133.643324
 21
218.971014
 31
0.0
  0
LINE
  5
393
330
226
100
AcDbEntity
  8
5_ALL_CURVES
  6
Continuous
 62
     4
100
AcDbLine
 10
133.624575
 20
218.613567
 30
0.0
 11
133.643324
 21
218.741226
 31
0.0
  0
LINE
  5
394
330
226
100
AcDbEntity
  8
5_ALL_CURVES
  6
Continuous
 62
     4
100
AcDbLine
 10
133.605825
 20
218.536971
 30
0.0
 11
133.624575
 21
218.613567
 31
0.0
  0
LINE
  5
395
330
226
100
AcDbEntity
  8
5_ALL_CURVES
  6
Continuous
 62
     4
100
AcDbLine
 10
133.568325
 20
218.434843
 30
0.0
 11
133.605825
 21
218.536971
 31
0.0
  0
LINE
  5
396
330
226
100
AcDbEntity
  8
5_ALL_CURVES
  6
Continuous
 62
     4
100
AcDbLine
 10
133.512075
 20
218.358248
 30
0.0
 11
133.568325
 21
218.434843
 31
0.0
  0
LINE
  5
397
330
226
100
AcDbEntity
  8
5_ALL_CURVES
  6
Continuous
 62
     4
100
AcDbLine
 10
133.418324
 20
218.281652
 30
0.0
 11
133.512075
 21
218.358248
 31
0.0
  0
LINE
  5
398
330
226
100
AcDbEntity
  8
5_ALL_CURVES
  6
Continuous
 62
     4
100
AcDbLine
 10
133.305824
 20
218.25612
 30
0.0
 11
133.418324
 21
218.281652
 31
0.0
  0
LINE
  5
399
330
226
100
AcDbEntity
  8
5_ALL_CURVES
  6
Continuous
 62
     4
100
AcDbLine
 10
133.193324
 20
218.281652
 30
0.0
 11
133.305824
 21
218.25612
 31
0.0
  0
LINE
  5
39A
330
226
100
AcDbEntity
  8
5_ALL_CURVES
  6
Continuous
 62
     4
100
AcDbLine
 10
133.099575
 20
218.358248
 30
0.0
 11
133.193324
 21
218.281652
 31
0.0
  0
LINE
  5
39B
330
226
100
AcDbEntity
  8
5_ALL_CURVES
  6
Continuous
 62
     4
100
AcDbLine
 10
133.043325
 20
218.434843
 30
0.0
 11
133.099575
 21
218.358248
 31
0.0
  0
LINE
  5
39C
330
226
100
AcDbEntity
  8
5_ALL_CURVES
  6
Continuous
 62
     4
100
AcDbLine
 10
133.005825
 20
218.536971
 30
0.0
 11
133.043325
 21
218.434843
 31
0.0
  0
LINE
  5
39D
330
226
100
AcDbEntity
  8
5_ALL_CURVES
  6
Continuous
 62
     4
100
AcDbLine
 10
132.987075
 20
218.613567
 30
0.0
 11
133.005825
 21
218.536971
 31
0.0
  0
LINE
  5
39E
330
226
100
AcDbEntity
  8
5_ALL_CURVES
  6
Continuous
 62
     4
100
AcDbLine
 10
132.968325
 20
218.741226
 30
0.0
 11
132.987075
 21
218.613567
 31
0.0
  0
LINE
  5
39F
330
226
100
AcDbEntity
  8
5_ALL_CURVES
  6
Continuous
 62
     4
100
AcDbLine
 10
132.968325
 20
218.971014
 30
0.0
 11
132.968325
 21
218.741226
 31
0.0
  0
LINE
  5
3A0
330
226
100
AcDbEntity
  8
5_ALL_CURVES
  6
Continuous
 62
     4
100
AcDbLine
 10
132.705825
 20
219.047609
 30
0.0
 11
132.705825
 21
219.098673
 31
0.0
  0
LINE
  5
3A1
330
226
100
AcDbEntity
  8
5_ALL_CURVES
  6
Continuous
 62
     4
100
AcDbLine
 10
132.705825
 20
219.098673
 30
0.0
 11
132.687075
 21
219.175269
 31
0.0
  0
LINE
  5
3A2
330
226
100
AcDbEntity
  8
5_ALL_CURVES
  6
Continuous
 62
     4
100
AcDbLine
 10
132.687075
 20
219.175269
 30
0.0
 11
132.649575
 21
219.251865
 31
0.0
  0
LINE
  5
3A3
330
226
100
AcDbEntity
  8
5_ALL_CURVES
  6
Continuous
 62
     4
100
AcDbLine
 10
132.649575
 20
219.251865
 30
0.0
 11
132.593325
 21
219.302929
 31
0.0
  0
LINE
  5
3A4
330
226
100
AcDbEntity
  8
5_ALL_CURVES
  6
Continuous
 62
     4
100
AcDbLine
 10
132.593325
 20
219.302929
 30
0.0
 11
132.537075
 21
219.328461
 31
0.0
  0
LINE
  5
3A5
330
226
100
AcDbEntity
  8
5_ALL_CURVES
  6
Continuous
 62
     4
100
AcDbLine
 10
132.537075
 20
219.328461
 30
0.0
 11
132.405825
 21
219.328461
 31
0.0
  0
LINE
  5
3A6
330
226
100
AcDbEntity
  8
5_ALL_CURVES
  6
Continuous
 62
     4
100
AcDbLine
 10
132.405825
 20
219.328461
 30
0.0
 11
132.349575
 21
219.302929
 31
0.0
  0
LINE
  5
3A7
330
226
100
AcDbEntity
  8
5_ALL_CURVES
  6
Continuous
 62
     4
100
AcDbLine
 10
132.349575
 20
219.302929
 30
0.0
 11
132.293325
 21
219.251865
 31
0.0
  0
LINE
  5
3A8
330
226
100
AcDbEntity
  8
5_ALL_CURVES
  6
Continuous
 62
     4
100
AcDbLine
 10
132.293325
 20
219.251865
 30
0.0
 11
132.255825
 21
219.175269
 31
0.0
  0
LINE
  5
3A9
330
226
100
AcDbEntity
  8
5_ALL_CURVES
  6
Continuous
 62
     4
100
AcDbLine
 10
132.255825
 20
219.175269
 30
0.0
 11
132.237075
 21
219.098673
 31
0.0
  0
LINE
  5
3AA
330
226
100
AcDbEntity
  8
5_ALL_CURVES
  6
Continuous
 62
     4
100
AcDbLine
 10
132.237075
 20
219.098673
 30
0.0
 11
132.237075
 21
219.047609
 31
0.0
  0
LINE
  5
3AB
330
226
100
AcDbEntity
  8
5_ALL_CURVES
  6
Continuous
 62
     4
100
AcDbLine
 10
132.237075
 20
219.047609
 30
0.0
 11
132.255825
 21
218.971014
 31
0.0
  0
LINE
  5
3AC
330
226
100
AcDbEntity
  8
5_ALL_CURVES
  6
Continuous
 62
     4
100
AcDbLine
 10
132.255825
 20
218.971014
 30
0.0
 11
132.293325
 21
218.894418
 31
0.0
  0
LINE
  5
3AD
330
226
100
AcDbEntity
  8
5_ALL_CURVES
  6
Continuous
 62
     4
100
AcDbLine
 10
132.293325
 20
218.894418
 30
0.0
 11
132.349575
 21
218.843354
 31
0.0
  0
LINE
  5
3AE
330
226
100
AcDbEntity
  8
5_ALL_CURVES
  6
Continuous
 62
     4
100
AcDbLine
 10
132.349575
 20
218.843354
 30
0.0
 11
132.405825
 21
218.817822
 31
0.0
  0
LINE
  5
3AF
330
226
100
AcDbEntity
  8
5_ALL_CURVES
  6
Continuous
 62
     4
100
AcDbLine
 10
132.405825
 20
218.817822
 30
0.0
 11
132.537075
 21
218.817822
 31
0.0
  0
LINE
  5
3B0
330
226
100
AcDbEntity
  8
5_ALL_CURVES
  6
Continuous
 62
     4
100
AcDbLine
 10
132.537075
 20
218.817822
 30
0.0
 11
132.593325
 21
218.843354
 31
0.0
  0
LINE
  5
3B1
330
226
100
AcDbEntity
  8
5_ALL_CURVES
  6
Continuous
 62
     4
100
AcDbLine
 10
132.593325
 20
218.843354
 30
0.0
 11
132.649575
 21
218.894418
 31
0.0
  0
LINE
  5
3B2
330
226
100
AcDbEntity
  8
5_ALL_CURVES
  6
Continuous
 62
     4
100
AcDbLine
 10
132.649575
 20
218.894418
 30
0.0
 11
132.687075
 21
218.971014
 31
0.0
  0
LINE
  5
3B3
330
226
100
AcDbEntity
  8
5_ALL_CURVES
  6
Continuous
 62
     4
100
AcDbLine
 10
132.687075
 20
218.971014
 30
0.0
 11
132.705825
 21
219.047609
 31
0.0
  0
LINE
  5
3B4
330
226
100
AcDbEntity
  8
5_ALL_CURVES
  6
Continuous
 62
     4
100
AcDbLine
 10
132.274575
 20
218.536971
 30
0.0
 11
132.180825
 21
218.536971
 31
0.0
  0
LINE
  5
3B5
330
226
100
AcDbEntity
  8
5_ALL_CURVES
  6
Continuous
 62
     4
100
AcDbLine
 10
132.312075
 20
218.460375
 30
0.0
 11
132.274575
 21
218.536971
 31
0.0
  0
LINE
  5
3B6
330
226
100
AcDbEntity
  8
5_ALL_CURVES
  6
Continuous
 62
     4
100
AcDbLine
 10
132.368325
 20
218.409312
 30
0.0
 11
132.312075
 21
218.460375
 31
0.0
  0
LINE
  5
3B7
330
226
100
AcDbEntity
  8
5_ALL_CURVES
  6
Continuous
 62
     4
100
AcDbLine
 10
132.424575
 20
218.38378
 30
0.0
 11
132.368325
 21
218.409312
 31
0.0
  0
LINE
  5
3B8
330
226
100
AcDbEntity
  8
5_ALL_CURVES
  6
Continuous
 62
     4
100
AcDbLine
 10
132.537075
 20
218.38378
 30
0.0
 11
132.424575
 21
218.38378
 31
0.0
  0
LINE
  5
3B9
330
226
100
AcDbEntity
  8
5_ALL_CURVES
  6
Continuous
 62
     4
100
AcDbLine
 10
132.593325
 20
218.409312
 30
0.0
 11
132.537075
 21
218.38378
 31
0.0
  0
LINE
  5
3BA
330
226
100
AcDbEntity
  8
5_ALL_CURVES
  6
Continuous
 62
     4
100
AcDbLine
 10
132.649575
 20
218.460375
 30
0.0
 11
132.593325
 21
218.409312
 31
0.0
  0
LINE
  5
3BB
330
226
100
AcDbEntity
  8
5_ALL_CURVES
  6
Continuous
 62
     4
100
AcDbLine
 10
132.687075
 20
218.536971
 30
0.0
 11
132.649575
 21
218.460375
 31
0.0
  0
LINE
  5
3BC
330
226
100
AcDbEntity
  8
5_ALL_CURVES
  6
Continuous
 62
     4
100
AcDbLine
 10
132.705825
 20
218.613567
 30
0.0
 11
132.687075
 21
218.536971
 31
0.0
  0
LINE
  5
3BD
330
226
100
AcDbEntity
  8
5_ALL_CURVES
  6
Continuous
 62
     4
100
AcDbLine
 10
132.724575
 20
218.766758
 30
0.0
 11
132.705825
 21
218.613567
 31
0.0
  0
LINE
  5
3BE
330
226
100
AcDbEntity
  8
5_ALL_CURVES
  6
Continuous
 62
     4
100
AcDbLine
 10
132.724575
 20
218.817822
 30
0.0
 11
132.724575
 21
218.766758
 31
0.0
  0
LINE
  5
3BF
330
226
100
AcDbEntity
  8
5_ALL_CURVES
  6
Continuous
 62
     4
100
AcDbLine
 10
132.612075
 20
218.715695
 30
0.0
 11
132.724575
 21
218.817822
 31
0.0
  0
LINE
  5
3C0
330
226
100
AcDbEntity
  8
5_ALL_CURVES
  6
Continuous
 62
     4
100
AcDbLine
 10
132.518325
 20
218.690163
 30
0.0
 11
132.612075
 21
218.715695
 31
0.0
  0
LINE
  5
3C1
330
226
100
AcDbEntity
  8
5_ALL_CURVES
  6
Continuous
 62
     4
100
AcDbLine
 10
132.424575
 20
218.690163
 30
0.0
 11
132.518325
 21
218.690163
 31
0.0
  0
LINE
  5
3C2
330
226
100
AcDbEntity
  8
5_ALL_CURVES
  6
Continuous
 62
     4
100
AcDbLine
 10
132.330825
 20
218.715695
 30
0.0
 11
132.424575
 21
218.690163
 31
0.0
  0
LINE
  5
3C3
330
226
100
AcDbEntity
  8
5_ALL_CURVES
  6
Continuous
 62
     4
100
AcDbLine
 10
132.237075
 20
218.79229
 30
0.0
 11
132.330825
 21
218.715695
 31
0.0
  0
LINE
  5
3C4
330
226
100
AcDbEntity
  8
5_ALL_CURVES
  6
Continuous
 62
     4
100
AcDbLine
 10
132.180825
 20
218.894418
 30
0.0
 11
132.237075
 21
218.79229
 31
0.0
  0
LINE
  5
3C5
330
226
100
AcDbEntity
  8
5_ALL_CURVES
  6
Continuous
 62
     4
100
AcDbLine
 10
132.143325
 20
219.022078
 30
0.0
 11
132.180825
 21
218.894418
 31
0.0
  0
LINE
  5
3C6
330
226
100
AcDbEntity
  8
5_ALL_CURVES
  6
Continuous
 62
     4
100
AcDbLine
 10
132.143325
 20
219.124205
 30
0.0
 11
132.143325
 21
219.022078
 31
0.0
  0
LINE
  5
3C7
330
226
100
AcDbEntity
  8
5_ALL_CURVES
  6
Continuous
 62
     4
100
AcDbLine
 10
132.180825
 20
219.251865
 30
0.0
 11
132.143325
 21
219.124205
 31
0.0
  0
LINE
  5
3C8
330
226
100
AcDbEntity
  8
5_ALL_CURVES
  6
Continuous
 62
     4
100
AcDbLine
 10
132.237075
 20
219.353992
 30
0.0
 11
132.180825
 21
219.251865
 31
0.0
  0
LINE
  5
3C9
330
226
100
AcDbEntity
  8
5_ALL_CURVES
  6
Continuous
 62
     4
100
AcDbLine
 10
132.330825
 20
219.430588
 30
0.0
 11
132.237075
 21
219.353992
 31
0.0
  0
LINE
  5
3CA
330
226
100
AcDbEntity
  8
5_ALL_CURVES
  6
Continuous
 62
     4
100
AcDbLine
 10
132.424575
 20
219.45612
 30
0.0
 11
132.330825
 21
219.430588
 31
0.0
  0
LINE
  5
3CB
330
226
100
AcDbEntity
  8
5_ALL_CURVES
  6
Continuous
 62
     4
100
AcDbLine
 10
132.518325
 20
219.45612
 30
0.0
 11
132.424575
 21
219.45612
 31
0.0
  0
LINE
  5
3CC
330
226
100
AcDbEntity
  8
5_ALL_CURVES
  6
Continuous
 62
     4
100
AcDbLine
 10
132.612075
 20
219.430588
 30
0.0
 11
132.518325
 21
219.45612
 31
0.0
  0
LINE
  5
3CD
330
226
100
AcDbEntity
  8
5_ALL_CURVES
  6
Continuous
 62
     4
100
AcDbLine
 10
132.705825
 20
219.353992
 30
0.0
 11
132.612075
 21
219.430588
 31
0.0
  0
LINE
  5
3CE
330
226
100
AcDbEntity
  8
5_ALL_CURVES
  6
Continuous
 62
     4
100
AcDbLine
 10
132.762075
 20
219.251865
 30
0.0
 11
132.705825
 21
219.353992
 31
0.0
  0
LINE
  5
3CF
330
226
100
AcDbEntity
  8
5_ALL_CURVES
  6
Continuous
 62
     4
100
AcDbLine
 10
132.799575
 20
219.124205
 30
0.0
 11
132.762075
 21
219.251865
 31
0.0
  0
LINE
  5
3D0
330
226
100
AcDbEntity
  8
5_ALL_CURVES
  6
Continuous
 62
     4
100
AcDbLine
 10
132.818325
 20
218.945482
 30
0.0
 11
132.799575
 21
219.124205
 31
0.0
  0
LINE
  5
3D1
330
226
100
AcDbEntity
  8
5_ALL_CURVES
  6
Continuous
 62
     4
100
AcDbLine
 10
132.818325
 20
218.766758
 30
0.0
 11
132.818325
 21
218.945482
 31
0.0
  0
LINE
  5
3D2
330
226
100
AcDbEntity
  8
5_ALL_CURVES
  6
Continuous
 62
     4
100
AcDbLine
 10
132.799575
 20
218.588035
 30
0.0
 11
132.818325
 21
218.766758
 31
0.0
  0
LINE
  5
3D3
330
226
100
AcDbEntity
  8
5_ALL_CURVES
  6
Continuous
 62
     4
100
AcDbLine
 10
132.762075
 20
218.460375
 30
0.0
 11
132.799575
 21
218.588035
 31
0.0
  0
LINE
  5
3D4
330
226
100
AcDbEntity
  8
5_ALL_CURVES
  6
Continuous
 62
     4
100
AcDbLine
 10
132.705825
 20
218.358248
 30
0.0
 11
132.762075
 21
218.460375
 31
0.0
  0
LINE
  5
3D5
330
226
100
AcDbEntity
  8
5_ALL_CURVES
  6
Continuous
 62
     4
100
AcDbLine
 10
132.612075
 20
218.281652
 30
0.0
 11
132.705825
 21
218.358248
 31
0.0
  0
LINE
  5
3D6
330
226
100
AcDbEntity
  8
5_ALL_CURVES
  6
Continuous
 62
     4
100
AcDbLine
 10
132.518325
 20
218.25612
 30
0.0
 11
132.612075
 21
218.281652
 31
0.0
  0
LINE
  5
3D7
330
226
100
AcDbEntity
  8
5_ALL_CURVES
  6
Continuous
 62
     4
100
AcDbLine
 10
132.443325
 20
218.25612
 30
0.0
 11
132.518325
 21
218.25612
 31
0.0
  0
LINE
  5
3D8
330
226
100
AcDbEntity
  8
5_ALL_CURVES
  6
Continuous
 62
     4
100
AcDbLine
 10
132.349575
 20
218.281652
 30
0.0
 11
132.443325
 21
218.25612
 31
0.0
  0
LINE
  5
3D9
330
226
100
AcDbEntity
  8
5_ALL_CURVES
  6
Continuous
 62
     4
100
AcDbLine
 10
132.255825
 20
218.358248
 30
0.0
 11
132.349575
 21
218.281652
 31
0.0
  0
LINE
  5
3DA
330
226
100
AcDbEntity
  8
5_ALL_CURVES
  6
Continuous
 62
     4
100
AcDbLine
 10
132.199575
 20
218.460375
 30
0.0
 11
132.255825
 21
218.358248
 31
0.0
  0
LINE
  5
3DB
330
226
100
AcDbEntity
  8
5_ALL_CURVES
  6
Continuous
 62
     4
100
AcDbLine
 10
132.180825
 20
218.536971
 30
0.0
 11
132.199575
 21
218.460375
 31
0.0
  0
LINE
  5
3DC
330
226
100
AcDbEntity
  8
5_ALL_CURVES
  6
Continuous
 62
     4
100
AcDbLine
 10
124.703963
 20
210.51237
 30
0.0
 11
124.882686
 21
210.51237
 31
0.0
  0
LINE
  5
3DD
330
226
100
AcDbEntity
  8
5_ALL_CURVES
  6
Continuous
 62
     4
100
AcDbLine
 10
124.882686
 20
210.51237
 30
0.0
 11
125.035878
 21
210.53112
 31
0.0
  0
LINE
  5
3DE
330
226
100
AcDbEntity
  8
5_ALL_CURVES
  6
Continuous
 62
     4
100
AcDbLine
 10
125.035878
 20
210.53112
 30
0.0
 11
125.189069
 21
210.60612
 31
0.0
  0
LINE
  5
3DF
330
226
100
AcDbEntity
  8
5_ALL_CURVES
  6
Continuous
 62
     4
100
AcDbLine
 10
125.189069
 20
210.60612
 30
0.0
 11
125.240133
 21
210.66237
 31
0.0
  0
LINE
  5
3E0
330
226
100
AcDbEntity
  8
5_ALL_CURVES
  6
Continuous
 62
     4
100
AcDbLine
 10
125.240133
 20
210.66237
 30
0.0
 11
125.265665
 21
210.75612
 31
0.0
  0
LINE
  5
3E1
330
226
100
AcDbEntity
  8
5_ALL_CURVES
  6
Continuous
 62
     4
100
AcDbLine
 10
125.265665
 20
210.75612
 30
0.0
 11
125.240133
 21
210.84987
 31
0.0
  0
LINE
  5
3E2
330
226
100
AcDbEntity
  8
5_ALL_CURVES
  6
Continuous
 62
     4
100
AcDbLine
 10
125.240133
 20
210.84987
 30
0.0
 11
125.189069
 21
210.90612
 31
0.0
  0
LINE
  5
3E3
330
226
100
AcDbEntity
  8
5_ALL_CURVES
  6
Continuous
 62
     4
100
AcDbLine
 10
125.189069
 20
210.90612
 30
0.0
 11
125.035878
 21
210.98112
 31
0.0
  0
LINE
  5
3E4
330
226
100
AcDbEntity
  8
5_ALL_CURVES
  6
Continuous
 62
     4
100
AcDbLine
 10
125.035878
 20
210.98112
 30
0.0
 11
124.882686
 21
210.999869
 31
0.0
  0
LINE
  5
3E5
330
226
100
AcDbEntity
  8
5_ALL_CURVES
  6
Continuous
 62
     4
100
AcDbLine
 10
124.882686
 20
210.999869
 30
0.0
 11
124.703963
 21
210.999869
 31
0.0
  0
LINE
  5
3E6
330
226
100
AcDbEntity
  8
5_ALL_CURVES
  6
Continuous
 62
     4
100
AcDbLine
 10
124.703963
 20
210.999869
 30
0.0
 11
124.550771
 21
210.98112
 31
0.0
  0
LINE
  5
3E7
330
226
100
AcDbEntity
  8
5_ALL_CURVES
  6
Continuous
 62
     4
100
AcDbLine
 10
124.550771
 20
210.98112
 30
0.0
 11
124.39758
 21
210.90612
 31
0.0
  0
LINE
  5
3E8
330
226
100
AcDbEntity
  8
5_ALL_CURVES
  6
Continuous
 62
     4
100
AcDbLine
 10
124.39758
 20
210.90612
 30
0.0
 11
124.346516
 21
210.84987
 31
0.0
  0
LINE
  5
3E9
330
226
100
AcDbEntity
  8
5_ALL_CURVES
  6
Continuous
 62
     4
100
AcDbLine
 10
124.346516
 20
210.84987
 30
0.0
 11
124.320984
 21
210.75612
 31
0.0
  0
LINE
  5
3EA
330
226
100
AcDbEntity
  8
5_ALL_CURVES
  6
Continuous
 62
     4
100
AcDbLine
 10
124.320984
 20
210.75612
 30
0.0
 11
124.346516
 21
210.66237
 31
0.0
  0
LINE
  5
3EB
330
226
100
AcDbEntity
  8
5_ALL_CURVES
  6
Continuous
 62
     4
100
AcDbLine
 10
124.346516
 20
210.66237
 30
0.0
 11
124.39758
 21
210.60612
 31
0.0
  0
LINE
  5
3EC
330
226
100
AcDbEntity
  8
5_ALL_CURVES
  6
Continuous
 62
     4
100
AcDbLine
 10
124.39758
 20
210.60612
 30
0.0
 11
124.550771
 21
210.53112
 31
0.0
  0
LINE
  5
3ED
330
226
100
AcDbEntity
  8
5_ALL_CURVES
  6
Continuous
 62
     4
100
AcDbLine
 10
124.550771
 20
210.53112
 30
0.0
 11
124.703963
 21
210.51237
 31
0.0
  0
LINE
  5
3EE
330
226
100
AcDbEntity
  8
5_ALL_CURVES
  6
Continuous
 62
     4
100
AcDbLine
 10
124.550771
 20
210.43737
 30
0.0
 11
124.678431
 21
210.41862
 31
0.0
  0
LINE
  5
3EF
330
226
100
AcDbEntity
  8
5_ALL_CURVES
  6
Continuous
 62
     4
100
AcDbLine
 10
124.474176
 20
210.45612
 30
0.0
 11
124.550771
 21
210.43737
 31
0.0
  0
LINE
  5
3F0
330
226
100
AcDbEntity
  8
5_ALL_CURVES
  6
Continuous
 62
     4
100
AcDbLine
 10
124.372048
 20
210.49362
 30
0.0
 11
124.474176
 21
210.45612
 31
0.0
  0
LINE
  5
3F1
330
226
100
AcDbEntity
  8
5_ALL_CURVES
  6
Continuous
 62
     4
100
AcDbLine
 10
124.295452
 20
210.54987
 30
0.0
 11
124.372048
 21
210.49362
 31
0.0
  0
LINE
  5
3F2
330
226
100
AcDbEntity
  8
5_ALL_CURVES
  6
Continuous
 62
     4
100
AcDbLine
 10
124.218856
 20
210.64362
 30
0.0
 11
124.295452
 21
210.54987
 31
0.0
  0
LINE
  5
3F3
330
226
100
AcDbEntity
  8
5_ALL_CURVES
  6
Continuous
 62
     4
100
AcDbLine
 10
124.193325
 20
210.75612
 30
0.0
 11
124.218856
 21
210.64362
 31
0.0
  0
LINE
  5
3F4
330
226
100
AcDbEntity
  8
5_ALL_CURVES
  6
Continuous
 62
     4
100
AcDbLine
 10
124.218856
 20
210.86862
 30
0.0
 11
124.193325
 21
210.75612
 31
0.0
  0
LINE
  5
3F5
330
226
100
AcDbEntity
  8
5_ALL_CURVES
  6
Continuous
 62
     4
100
AcDbLine
 10
124.295452
 20
210.96237
 30
0.0
 11
124.218856
 21
210.86862
 31
0.0
  0
LINE
  5
3F6
330
226
100
AcDbEntity
  8
5_ALL_CURVES
  6
Continuous
 62
     4
100
AcDbLine
 10
124.372048
 20
211.01862
 30
0.0
 11
124.295452
 21
210.96237
 31
0.0
  0
LINE
  5
3F7
330
226
100
AcDbEntity
  8
5_ALL_CURVES
  6
Continuous
 62
     4
100
AcDbLine
 10
124.474176
 20
211.056119
 30
0.0
 11
124.372048
 21
211.01862
 31
0.0
  0
LINE
  5
3F8
330
226
100
AcDbEntity
  8
5_ALL_CURVES
  6
Continuous
 62
     4
100
AcDbLine
 10
124.550771
 20
211.07487
 30
0.0
 11
124.474176
 21
211.056119
 31
0.0
  0
LINE
  5
3F9
330
226
100
AcDbEntity
  8
5_ALL_CURVES
  6
Continuous
 62
     4
100
AcDbLine
 10
124.678431
 20
211.09362
 30
0.0
 11
124.550771
 21
211.07487
 31
0.0
  0
LINE
  5
3FA
330
226
100
AcDbEntity
  8
5_ALL_CURVES
  6
Continuous
 62
     4
100
AcDbLine
 10
124.908218
 20
211.09362
 30
0.0
 11
124.678431
 21
211.09362
 31
0.0
  0
LINE
  5
3FB
330
226
100
AcDbEntity
  8
5_ALL_CURVES
  6
Continuous
 62
     4
100
AcDbLine
 10
125.035878
 20
211.07487
 30
0.0
 11
124.908218
 21
211.09362
 31
0.0
  0
LINE
  5
3FC
330
226
100
AcDbEntity
  8
5_ALL_CURVES
  6
Continuous
 62
     4
100
AcDbLine
 10
125.112473
 20
211.056119
 30
0.0
 11
125.035878
 21
211.07487
 31
0.0
  0
LINE
  5
3FD
330
226
100
AcDbEntity
  8
5_ALL_CURVES
  6
Continuous
 62
     4
100
AcDbLine
 10
125.214601
 20
211.01862
 30
0.0
 11
125.112473
 21
211.056119
 31
0.0
  0
LINE
  5
3FE
330
226
100
AcDbEntity
  8
5_ALL_CURVES
  6
Continuous
 62
     4
100
AcDbLine
 10
125.291197
 20
210.96237
 30
0.0
 11
125.214601
 21
211.01862
 31
0.0
  0
LINE
  5
3FF
330
226
100
AcDbEntity
  8
5_ALL_CURVES
  6
Continuous
 62
     4
100
AcDbLine
 10
125.367793
 20
210.86862
 30
0.0
 11
125.291197
 21
210.96237
 31
0.0
  0
LINE
  5
400
330
226
100
AcDbEntity
  8
5_ALL_CURVES
  6
Continuous
 62
     4
100
AcDbLine
 10
125.393325
 20
210.75612
 30
0.0
 11
125.367793
 21
210.86862
 31
0.0
  0
LINE
  5
401
330
226
100
AcDbEntity
  8
5_ALL_CURVES
  6
Continuous
 62
     4
100
AcDbLine
 10
125.367793
 20
210.64362
 30
0.0
 11
125.393325
 21
210.75612
 31
0.0
  0
LINE
  5
402
330
226
100
AcDbEntity
  8
5_ALL_CURVES
  6
Continuous
 62
     4
100
AcDbLine
 10
125.291197
 20
210.54987
 30
0.0
 11
125.367793
 21
210.64362
 31
0.0
  0
LINE
  5
403
330
226
100
AcDbEntity
  8
5_ALL_CURVES
  6
Continuous
 62
     4
100
AcDbLine
 10
125.214601
 20
210.49362
 30
0.0
 11
125.291197
 21
210.54987
 31
0.0
  0
LINE
  5
404
330
226
100
AcDbEntity
  8
5_ALL_CURVES
  6
Continuous
 62
     4
100
AcDbLine
 10
125.112473
 20
210.45612
 30
0.0
 11
125.214601
 21
210.49362
 31
0.0
  0
LINE
  5
405
330
226
100
AcDbEntity
  8
5_ALL_CURVES
  6
Continuous
 62
     4
100
AcDbLine
 10
125.035878
 20
210.43737
 30
0.0
 11
125.112473
 21
210.45612
 31
0.0
  0
LINE
  5
406
330
226
100
AcDbEntity
  8
5_ALL_CURVES
  6
Continuous
 62
     4
100
AcDbLine
 10
124.908218
 20
210.41862
 30
0.0
 11
125.035878
 21
210.43737
 31
0.0
  0
LINE
  5
407
330
226
100
AcDbEntity
  8
5_ALL_CURVES
  6
Continuous
 62
     4
100
AcDbLine
 10
124.678431
 20
210.41862
 30
0.0
 11
124.908218
 21
210.41862
 31
0.0
  0
ARC
  5
408
330
226
100
AcDbEntity
  8
5_ALL_CURVES
  6
Continuous
 62
    40
100
AcDbCircle
 10
125.965564
 20
217.683881
 30
0.0
 40
0.2
100
AcDbArc
 50
45.0
 51
225.0
  0
LINE
  5
409
330
226
100
AcDbEntity
  8
5_ALL_CURVES
  6
Continuous
 62
    40
100
AcDbLine
 10
127.733331
 20
216.198956
 30
0.0
 11
126.106985
 21
217.825302
 31
0.0
  0
LINE
  5
40A
330
226
100
AcDbEntity
  8
5_ALL_CURVES
  6
Continuous
 62
    40
100
AcDbLine
 10
125.824143
 20
217.542459
 30
0.0
 11
127.450488
 21
215.916114
 31
0.0
  0
LINE
  5
40B
330
226
100
AcDbEntity
  8
7_ALL_FEATURES
  6
Continuous
 62
     7
100
AcDbLine
 10
83.893325
 20
198.75612
 30
0.0
 11
83.893325
 21
252.75612
 31
0.0
  0
LINE
  5
40C
330
226
100
AcDbEntity
  8
7_ALL_FEATURES
  6
Continuous
 62
     7
100
AcDbLine
 10
143.893325
 20
236.09222
 30
0.0
 11
143.893325
 21
212.748244
 31
0.0
  0
LINE
  5
40D
330
226
100
AcDbEntity
  8
7_ALL_FEATURES
  6
Continuous
 62
     7
100
AcDbLine
 10
143.893325
 20
236.09222
 30
0.0
 11
143.893325
 21
237.25612
 31
0.0
  0
LINE
  5
40E
330
226
100
AcDbEntity
  8
7_ALL_FEATURES
  6
Continuous
 62
     7
100
AcDbLine
 10
143.893325
 20
237.25612
 30
0.0
 11
143.893325
 21
252.75612
 31
0.0
  0
LINE
  5
40F
330
226
100
AcDbEntity
  8
7_ALL_FEATURES
  6
Continuous
 62
     7
100
AcDbLine
 10
111.026733
 20
198.25612
 30
0.0
 11
84.393325
 21
198.25612
 31
0.0
  0
LINE
  5
410
330
226
100
AcDbEntity
  8
7_ALL_FEATURES
  6
Continuous
 62
     7
100
AcDbLine
 10
111.026733
 20
198.25612
 30
0.0
 11
112.034371
 21
198.25612
 31
0.0
  0
LINE
  5
411
330
226
100
AcDbEntity
  8
7_ALL_FEATURES
  6
Continuous
 62
     7
100
AcDbLine
 10
112.034371
 20
198.25612
 30
0.0
 11
132.597893
 21
198.25612
 31
0.0
  0
LINE
  5
412
330
226
100
AcDbEntity
  8
7_ALL_FEATURES
  6
Continuous
 62
     7
100
AcDbLine
 10
143.393325
 20
253.25612
 30
0.0
 11
84.393325
 21
253.25612
 31
0.0
  0
LINE
  5
413
330
226
100
AcDbEntity
  8
7_ALL_FEATURES
  6
Continuous
 62
     7
100
AcDbLine
 10
118.386958
 20
222.010772
 30
0.0
 11
143.460453
 21
236.505875
 31
0.0
  0
ARC
  5
414
330
226
100
AcDbEntity
  8
7_ALL_FEATURES
  6
Continuous
 62
     7
100
AcDbCircle
 10
124.893325
 20
210.75612
 30
0.0
 40
13.0
100
AcDbArc
 50
120.032404
 51
180.0
  0
LINE
  5
415
330
226
100
AcDbEntity
  8
7_ALL_FEATURES
  6
Continuous
 62
     7
100
AcDbLine
 10
111.893325
 20
199.122711
 30
0.0
 11
111.893325
 21
210.75612
 31
0.0
  0
ARC
  5
416
330
226
100
AcDbEntity
  8
7_ALL_FEATURES
  6
Continuous
 62
     7
100
AcDbCircle
 10
117.893325
 20
210.75612
 30
0.0
 40
1.0
100
AcDbArc
 50
0.0
 51
180.0
  0
ARC
  5
417
330
226
100
AcDbEntity
  8
7_ALL_FEATURES
  6
Continuous
 62
     7
100
AcDbCircle
 10
117.893325
 20
210.75612
 30
0.0
 40
1.0
100
AcDbArc
 50
180.0
 51
360.0
  0
LINE
  5
418
330
226
100
AcDbEntity
  8
7_ALL_FEATURES
  6
Continuous
 62
     7
100
AcDbLine
 10
111.460029
 20
198.689416
 30
0.0
 11
111.893325
 21
199.122711
 31
0.0
  0
LINE
  5
419
330
226
100
AcDbEntity
  8
7_ALL_FEATURES
  6
Continuous
 62
     7
100
AcDbLine
 10
143.460453
 20
236.505875
 30
0.0
 11
143.676889
 21
236.880998
 31
0.0
  0
LINE
  5
41A
330
226
100
AcDbEntity
  8
7_ALL_FEATURES
  6
Continuous
 62
     7
100
AcDbLine
 10
143.643325
 20
253.00612
 30
0.0
 11
143.893325
 21
252.75612
 31
0.0
  0
LINE
  5
41B
330
226
100
AcDbEntity
  8
7_ALL_FEATURES
  6
Continuous
 62
     7
100
AcDbLine
 10
143.676889
 20
236.880998
 30
0.0
 11
143.893325
 21
237.25612
 31
0.0
  0
LINE
  5
41C
330
226
100
AcDbEntity
  8
7_ALL_FEATURES
  6
Continuous
 62
     7
100
AcDbLine
 10
84.143325
 20
253.00612
 30
0.0
 11
83.893325
 21
252.75612
 31
0.0
  0
LINE
  5
41D
330
226
100
AcDbEntity
  8
7_ALL_FEATURES
  6
Continuous
 62
     7
100
AcDbLine
 10
84.143325
 20
198.50612
 30
0.0
 11
83.893325
 21
198.75612
 31
0.0
  0
LINE
  5
41E
330
226
100
AcDbEntity
  8
7_ALL_FEATURES
  6
Continuous
 62
     7
100
AcDbLine
 10
84.143325
 20
198.50612
 30
0.0
 11
84.393325
 21
198.25612
 31
0.0
  0
LINE
  5
41F
330
226
100
AcDbEntity
  8
7_ALL_FEATURES
  6
Continuous
 62
     7
100
AcDbLine
 10
111.026733
 20
198.25612
 30
0.0
 11
111.460029
 21
198.689416
 31
0.0
  0
LINE
  5
420
330
226
100
AcDbEntity
  8
7_ALL_FEATURES
  6
Continuous
 62
     7
100
AcDbLine
 10
143.643325
 20
253.00612
 30
0.0
 11
143.393325
 21
253.25612
 31
0.0
  0
LINE
  5
421
330
226
100
AcDbEntity
  8
7_ALL_FEATURES
  6
Continuous
 62
     7
100
AcDbLine
 10
84.393325
 20
253.25612
 30
0.0
 11
84.143325
 21
253.00612
 31
0.0
  0
LINE
  5
422
330
226
100
AcDbEntity
  8
7_ALL_FEATURES
  6
Continuous
 62
     7
100
AcDbLine
 10
118.136713
 20
222.443644
 30
0.0
 11
143.393325
 21
237.044607
 31
0.0
  0
ARC
  5
423
330
226
100
AcDbEntity
  8
7_ALL_FEATURES
  6
Continuous
 62
     7
100
AcDbCircle
 10
124.893325
 20
210.75612
 30
0.0
 40
13.5
100
AcDbArc
 50
120.032404
 51
180.0
  0
LINE
  5
424
330
226
100
AcDbEntity
  8
7_ALL_FEATURES
  6
Continuous
 62
     7
100
AcDbLine
 10
111.393325
 20
198.75612
 30
0.0
 11
111.393325
 21
210.75612
 31
0.0
  0
ARC
  5
425
330
226
100
AcDbEntity
  8
7_ALL_FEATURES
  6
Continuous
 62
     9
100
AcDbCircle
 10
117.893325
 20
210.75612
 30
0.0
 40
0.8
100
AcDbArc
 50
180.0
 51
360.0
  0
ARC
  5
426
330
226
100
AcDbEntity
  8
7_ALL_FEATURES
  6
Continuous
 62
     9
100
AcDbCircle
 10
117.893325
 20
210.75612
 30
0.0
 40
0.8
100
AcDbArc
 50
0.0
 51
180.0
  0
LINE
  5
427
330
226
100
AcDbEntity
  8
7_ALL_FEATURES
  6
Continuous
 62
     7
100
AcDbLine
 10
111.393325
 20
198.75612
 30
0.0
 11
84.393325
 21
198.75612
 31
0.0
  0
LINE
  5
428
330
226
100
AcDbEntity
  8
7_ALL_FEATURES
  6
Continuous
 62
     7
100
AcDbLine
 10
84.393325
 20
198.75612
 30
0.0
 11
84.393325
 21
252.75612
 31
0.0
  0
LINE
  5
429
330
226
100
AcDbEntity
  8
7_ALL_FEATURES
  6
Continuous
 62
     7
100
AcDbLine
 10
143.393325
 20
252.75612
 30
0.0
 11
84.393325
 21
252.75612
 31
0.0
  0
LINE
  5
42A
330
226
100
AcDbEntity
  8
7_ALL_FEATURES
  6
Continuous
 62
     7
100
AcDbLine
 10
143.393325
 20
237.044607
 30
0.0
 11
143.393325
 21
252.75612
 31
0.0
  0
ARC
  5
42B
330
226
100
AcDbEntity
  8
7_ALL_FEATURES
  6
Continuous
 62
     7
100
AcDbCircle
 10
117.893325
 20
210.75612
 30
0.0
 40
1.2
100
AcDbArc
 50
180.0
 51
360.0
  0
ARC
  5
42C
330
226
100
AcDbEntity
  8
7_ALL_FEATURES
  6
Continuous
 62
     7
100
AcDbCircle
 10
117.893325
 20
210.75612
 30
0.0
 40
1.2
100
AcDbArc
 50
0.0
 51
180.0
  0
ARC
  5
42D
330
226
100
AcDbEntity
  8
7_ALL_FEATURES
  6
Continuous
 62
     7
100
AcDbCircle
 10
132.893325
 20
217.75612
 30
0.0
 40
2.5023651948
100
AcDbArc
 50
81.594706
 51
98.405293
  0
LINE
  5
42E
330
226
100
AcDbEntity
  8
7_ALL_FEATURES
  6
Continuous
 62
     7
100
AcDbLine
 10
143.026733
 20
235.677601
 30
0.0
 11
143.026733
 21
214.229079
 31
0.0
  0
LINE
  5
42F
330
226
100
AcDbEntity
  8
7_ALL_FEATURES
  6
Continuous
 62
     7
100
AcDbLine
 10
112.393325
 20
199.122711
 30
0.0
 11
112.034371
 21
198.25612
 31
0.0
  0
LINE
  5
430
330
226
100
AcDbEntity
  8
7_ALL_FEATURES
  6
Continuous
 62
     7
100
AcDbLine
 10
143.33342
 20
235.500651
 30
0.0
 11
143.893325
 21
236.09222
 31
0.0
  0
LINE
  5
431
330
226
100
AcDbEntity
  8
7_ALL_FEATURES
  6
Continuous
 62
     9
100
AcDbLine
 10
111.393325
 20
210.75612
 30
0.0
 11
111.893325
 21
210.75612
 31
0.0
  0
LINE
  5
432
330
226
100
AcDbEntity
  8
7_ALL_FEATURES
  6
Continuous
 62
     9
100
AcDbLine
 10
118.136713
 20
222.443644
 30
0.0
 11
118.386958
 21
222.010772
 31
0.0
  0
LINE
  5
433
330
226
100
AcDbEntity
  8
7_ALL_FEATURES
  6
Continuous
 62
     7
100
AcDbLine
 10
111.893325
 20
199.122711
 30
0.0
 11
112.393325
 21
199.122711
 31
0.0
  0
LINE
  5
434
330
226
100
AcDbEntity
  8
7_ALL_FEATURES
  6
Continuous
 62
     9
100
AcDbLine
 10
112.393325
 20
210.75612
 30
0.0
 11
111.893325
 21
210.75612
 31
0.0
  0
LINE
  5
435
330
226
100
AcDbEntity
  8
7_ALL_FEATURES
  6
Continuous
 62
     9
100
AcDbLine
 10
118.637203
 20
221.577901
 30
0.0
 11
118.386958
 21
222.010772
 31
0.0
  0
LINE
  5
436
330
226
100
AcDbEntity
  8
7_ALL_FEATURES
  6
Continuous
 62
     7
100
AcDbLine
 10
143.026733
 20
235.677601
 30
0.0
 11
143.33342
 21
235.500651
 31
0.0
  0
LINE
  5
437
330
226
100
AcDbEntity
  8
7_ALL_FEATURES
  6
Continuous
 62
     7
100
AcDbLine
 10
143.33342
 20
236.432436
 30
0.0
 11
143.33342
 21
235.500651
 31
0.0
  0
LINE
  5
438
330
226
100
AcDbEntity
  8
7_ALL_FEATURES
  6
Continuous
 62
     7
100
AcDbLine
 10
143.393325
 20
237.044607
 30
0.0
 11
143.676889
 21
236.880998
 31
0.0
  0
LINE
  5
439
330
226
100
AcDbEntity
  8
7_ALL_FEATURES
  6
Continuous
 62
     7
100
AcDbLine
 10
112.393325
 20
199.122711
 30
0.0
 11
132.230047
 21
199.122711
 31
0.0
  0
LINE
  5
43A
330
226
100
AcDbEntity
  8
7_ALL_FEATURES
  6
Continuous
 62
     7
100
AcDbLine
 10
111.460029
 20
198.689416
 30
0.0
 11
111.393325
 21
198.75612
 31
0.0
  0
LINE
  5
43B
330
226
100
AcDbEntity
  8
7_ALL_FEATURES
  6
Continuous
 62
     7
100
AcDbLine
 10
84.393325
 20
198.75612
 30
0.0
 11
84.143325
 21
198.50612
 31
0.0
  0
LINE
  5
43C
330
226
100
AcDbEntity
  8
7_ALL_FEATURES
  6
Continuous
 62
     7
100
AcDbLine
 10
112.393325
 20
199.122711
 30
0.0
 11
112.393325
 21
210.75612
 31
0.0
  0
LINE
  5
43D
330
226
100
AcDbEntity
  8
7_ALL_FEATURES
  6
Continuous
 62
     7
100
AcDbLine
 10
84.143325
 20
253.00612
 30
0.0
 11
84.393325
 21
252.75612
 31
0.0
  0
LINE
  5
43E
330
226
100
AcDbEntity
  8
7_ALL_FEATURES
  6
Continuous
 62
     7
100
AcDbLine
 10
143.393325
 20
252.75612
 30
0.0
 11
143.643325
 21
253.00612
 31
0.0
  0
ARC
  5
43F
330
226
100
AcDbEntity
  8
7_ALL_FEATURES
  6
Continuous
 62
     7
100
AcDbCircle
 10
132.893325
 20
217.75612
 30
0.0
 40
2.2988747135
100
AcDbArc
 50
82.454732
 51
97.545273
  0
ARC
  5
440
330
226
100
AcDbEntity
  8
7_ALL_FEATURES
  6
Continuous
 62
     9
100
AcDbCircle
 10
132.893325
 20
217.75612
 30
0.0
 40
2.2534300864
100
AcDbArc
 50
82.666758
 51
97.333242
  0
ARC
  5
441
330
226
100
AcDbEntity
  8
7_ALL_FEATURES
  6
Continuous
 62
     7
100
AcDbCircle
 10
124.893325
 20
210.75612
 30
0.0
 40
12.5
100
AcDbArc
 50
120.032404
 51
180.0
  0
LINE
  5
442
330
226
100
AcDbEntity
  8
7_ALL_FEATURES
  6
Continuous
 62
     7
100
AcDbLine
 10
118.637203
 20
221.577901
 30
0.0
 11
143.026733
 21
235.677601
 31
0.0
  0
ARC
  5
443
330
226
100
AcDbEntity
  8
7_ALL_FEATURES
  6
Continuous
 62
     7
100
AcDbCircle
 10
135.518122
 20
101.20294
 30
0.0
 40
2.0
100
AcDbArc
 50
68.749494
 51
90.0
  0
LINE
  5
444
330
226
100
AcDbEntity
  8
7_ALL_FEATURES
  6
Continuous
 62
     7
100
AcDbLine
 10
132.893325
 20
103.20294
 30
0.0
 11
133.75935
 21
103.20294
 31
0.0
  0
LINE
  5
445
330
226
100
AcDbEntity
  8
7_ALL_FEATURES
  6
Continuous
 62
     7
100
AcDbLine
 10
133.75935
 20
103.20294
 30
0.0
 11
134.625375
 21
103.20294
 31
0.0
  0
LINE
  5
446
330
226
100
AcDbEntity
  8
7_ALL_FEATURES
  6
Continuous
 62
     7
100
AcDbLine
 10
134.625375
 20
103.20294
 30
0.0
 11
135.518051
 21
103.20294
 31
0.0
  0
LINE
  5
447
330
226
100
AcDbEntity
  8
7_ALL_FEATURES
  6
Continuous
 62
     7
100
AcDbLine
 10
135.518122
 20
103.20294
 30
0.0
 11
134.625375
 21
103.20294
 31
0.0
  0
LINE
  5
448
330
226
100
AcDbEntity
  8
7_ALL_FEATURES
  6
Continuous
 62
     7
100
AcDbLine
 10
134.625375
 20
103.20294
 30
0.0
 11
133.75935
 21
103.20294
 31
0.0
  0
LINE
  5
449
330
226
100
AcDbEntity
  8
7_ALL_FEATURES
  6
Continuous
 62
     7
100
AcDbLine
 10
133.75935
 20
103.20294
 30
0.0
 11
132.893325
 21
103.20294
 31
0.0
  0
LINE
  5
44A
330
226
100
AcDbEntity
  8
7_ALL_FEATURES
  6
Continuous
 62
     7
100
AcDbLine
 10
130.268598
 20
103.20294
 30
0.0
 11
131.161274
 21
103.20294
 31
0.0
  0
LINE
  5
44B
330
226
100
AcDbEntity
  8
7_ALL_FEATURES
  6
Continuous
 62
     7
100
AcDbLine
 10
131.161274
 20
103.20294
 30
0.0
 11
132.027299
 21
103.20294
 31
0.0
  0
LINE
  5
44C
330
226
100
AcDbEntity
  8
7_ALL_FEATURES
  6
Continuous
 62
     7
100
AcDbLine
 10
132.027299
 20
103.20294
 30
0.0
 11
132.893325
 21
103.20294
 31
0.0
  0
ARC
  5
44D
330
226
100
AcDbEntity
  8
7_ALL_FEATURES
  6
Continuous
 62
     7
100
AcDbCircle
 10
130.268527
 20
101.20294
 30
0.0
 40
2.0
100
AcDbArc
 50
90.0
 51
111.250506
  0
LINE
  5
44E
330
226
100
AcDbEntity
  8
7_ALL_FEATURES
  6
Continuous
 62
     7
100
AcDbLine
 10
132.893325
 20
103.20294
 30
0.0
 11
132.027299
 21
103.20294
 31
0.0
  0
LINE
  5
44F
330
226
100
AcDbEntity
  8
7_ALL_FEATURES
  6
Continuous
 62
     7
100
AcDbLine
 10
132.027299
 20
103.20294
 30
0.0
 11
131.161274
 21
103.20294
 31
0.0
  0
LINE
  5
450
330
226
100
AcDbEntity
  8
7_ALL_FEATURES
  6
Continuous
 62
     7
100
AcDbLine
 10
131.161274
 20
103.20294
 30
0.0
 11
130.268527
 21
103.20294
 31
0.0
  0
ARC
  5
451
330
226
100
AcDbEntity
  8
7_ALL_FEATURES
  6
Continuous
 62
     7
100
AcDbCircle
 10
139.643325
 20
100.939889
 30
0.0
 40
0.75
100
AcDbArc
 50
0.0
 51
68.749494
  0
ARC
  5
452
330
226
100
AcDbEntity
  8
7_ALL_FEATURES
  6
Continuous
 62
     7
100
AcDbCircle
 10
126.143325
 20
100.939889
 30
0.0
 40
0.75
100
AcDbArc
 50
111.250506
 51
180.0
  0
LINE
  5
453
330
226
100
AcDbEntity
  8
7_ALL_FEATURES
  6
Continuous
 62
     7
100
AcDbLine
 10
136.243015
 20
103.066949
 30
0.0
 11
139.915159
 21
101.638893
 31
0.0
  0
LINE
  5
454
330
226
100
AcDbEntity
  8
7_ALL_FEATURES
  6
Continuous
 62
     7
100
AcDbLine
 10
129.543634
 20
103.066949
 30
0.0
 11
125.87149
 21
101.638893
 31
0.0
  0
ARC
  5
455
330
226
100
AcDbEntity
  8
7_ALL_FEATURES
  6
Continuous
 62
     7
100
AcDbCircle
 10
140.293325
 20
100.30294
 30
0.0
 40
0.1
100
AcDbArc
 50
270.0
 51
360.0
  0
ARC
  5
456
330
226
100
AcDbEntity
  8
7_ALL_FEATURES
  6
Continuous
 62
     7
100
AcDbCircle
 10
125.493325
 20
100.30294
 30
0.0
 40
0.1
100
AcDbArc
 50
180.0
 51
270.0
  0
LINE
  5
457
330
226
100
AcDbEntity
  8
3_ALL_AXES
  6
Continuous
 62
     7
100
AcDbLine
 10
125.393325
 20
100.30294
 30
0.0
 11
125.393325
 21
100.939889
 31
0.0
  0
LINE
  5
458
330
226
100
AcDbEntity
  8
3_ALL_AXES
  6
Continuous
 62
     7
100
AcDbLine
 10
140.393325
 20
100.30294
 30
0.0
 11
140.393325
 21
100.939889
 31
0.0
  0
LINE
  5
459
330
226
100
AcDbEntity
  8
7_ALL_FEATURES
  6
Continuous
 62
     9
100
AcDbLine
 10
132.893325
 20
100.30294
 30
0.0
 11
125.393325
 21
100.30294
 31
0.0
  0
LINE
  5
45A
330
226
100
AcDbEntity
  8
7_ALL_FEATURES
  6
Continuous
 62
     9
100
AcDbLine
 10
139.915159
 20
101.638893
 30
0.0
 11
132.893325
 21
101.638893
 31
0.0
  0
LINE
  5
45B
330
226
100
AcDbEntity
  8
7_ALL_FEATURES
  6
Continuous
 62
     9
100
AcDbLine
 10
132.893325
 20
100.939889
 30
0.0
 11
125.393325
 21
100.939889
 31
0.0
  0
LINE
  5
45C
330
226
100
AcDbEntity
  8
7_ALL_FEATURES
  6
Continuous
 62
     9
100
AcDbLine
 10
129.543634
 20
103.066949
 30
0.0
 11
132.893325
 21
103.066949
 31
0.0
  0
LINE
  5
45D
330
226
100
AcDbEntity
  8
7_ALL_FEATURES
  6
Continuous
 62
     9
100
AcDbLine
 10
132.893325
 20
101.638893
 30
0.0
 11
125.87149
 21
101.638893
 31
0.0
  0
LINE
  5
45E
330
226
100
AcDbEntity
  8
7_ALL_FEATURES
  6
Continuous
 62
     9
100
AcDbLine
 10
132.893325
 20
103.066949
 30
0.0
 11
136.243015
 21
103.066949
 31
0.0
  0
LINE
  5
45F
330
226
100
AcDbEntity
  8
7_ALL_FEATURES
  6
Continuous
 62
     9
100
AcDbLine
 10
140.393325
 20
100.30294
 30
0.0
 11
132.893325
 21
100.30294
 31
0.0
  0
LINE
  5
460
330
226
100
AcDbEntity
  8
7_ALL_FEATURES
  6
Continuous
 62
     9
100
AcDbLine
 10
140.393325
 20
100.939889
 30
0.0
 11
132.893325
 21
100.939889
 31
0.0
  0
LINE
  5
461
330
226
100
AcDbEntity
  8
7_ALL_FEATURES
  6
Continuous
 62
     7
100
AcDbLine
 10
135.518051
 20
42.20294
 30
0.0
 11
134.625375
 21
42.20294
 31
0.0
  0
LINE
  5
462
330
226
100
AcDbEntity
  8
7_ALL_FEATURES
  6
Continuous
 62
     7
100
AcDbLine
 10
134.625375
 20
42.20294
 30
0.0
 11
133.75935
 21
42.20294
 31
0.0
  0
LINE
  5
463
330
226
100
AcDbEntity
  8
7_ALL_FEATURES
  6
Continuous
 62
     7
100
AcDbLine
 10
133.75935
 20
42.20294
 30
0.0
 11
132.893325
 21
42.20294
 31
0.0
  0
ARC
  5
464
330
226
100
AcDbEntity
  8
7_ALL_FEATURES
  6
Continuous
 62
     7
100
AcDbCircle
 10
135.518122
 20
44.20294
 30
0.0
 40
2.0
100
AcDbArc
 50
270.0
 51
291.250506
  0
LINE
  5
465
330
226
100
AcDbEntity
  8
7_ALL_FEATURES
  6
Continuous
 62
     7
100
AcDbLine
 10
132.893325
 20
42.20294
 30
0.0
 11
133.75935
 21
42.20294
 31
0.0
  0
LINE
  5
466
330
226
100
AcDbEntity
  8
7_ALL_FEATURES
  6
Continuous
 62
     7
100
AcDbLine
 10
133.75935
 20
42.20294
 30
0.0
 11
134.625375
 21
42.20294
 31
0.0
  0
LINE
  5
467
330
226
100
AcDbEntity
  8
7_ALL_FEATURES
  6
Continuous
 62
     7
100
AcDbLine
 10
134.625375
 20
42.20294
 30
0.0
 11
135.518122
 21
42.20294
 31
0.0
  0
ARC
  5
468
330
226
100
AcDbEntity
  8
7_ALL_FEATURES
  6
Continuous
 62
     7
100
AcDbCircle
 10
130.268527
 20
44.20294
 30
0.0
 40
2.0
100
AcDbArc
 50
248.749494
 51
270.0
  0
LINE
  5
469
330
226
100
AcDbEntity
  8
7_ALL_FEATURES
  6
Continuous
 62
     7
100
AcDbLine
 10
132.893325
 20
42.20294
 30
0.0
 11
132.027299
 21
42.20294
 31
0.0
  0
LINE
  5
46A
330
226
100
AcDbEntity
  8
7_ALL_FEATURES
  6
Continuous
 62
     7
100
AcDbLine
 10
132.027299
 20
42.20294
 30
0.0
 11
131.161274
 21
42.20294
 31
0.0
  0
LINE
  5
46B
330
226
100
AcDbEntity
  8
7_ALL_FEATURES
  6
Continuous
 62
     7
100
AcDbLine
 10
131.161274
 20
42.20294
 30
0.0
 11
130.268598
 21
42.20294
 31
0.0
  0
LINE
  5
46C
330
226
100
AcDbEntity
  8
7_ALL_FEATURES
  6
Continuous
 62
     7
100
AcDbLine
 10
130.268527
 20
42.20294
 30
0.0
 11
131.161274
 21
42.20294
 31
0.0
  0
LINE
  5
46D
330
226
100
AcDbEntity
  8
7_ALL_FEATURES
  6
Continuous
 62
     7
100
AcDbLine
 10
131.161274
 20
42.20294
 30
0.0
 11
132.027299
 21
42.20294
 31
0.0
  0
LINE
  5
46E
330
226
100
AcDbEntity
  8
7_ALL_FEATURES
  6
Continuous
 62
     7
100
AcDbLine
 10
132.027299
 20
42.20294
 30
0.0
 11
132.893325
 21
42.20294
 31
0.0
  0
ARC
  5
46F
330
226
100
AcDbEntity
  8
7_ALL_FEATURES
  6
Continuous
 62
     7
100
AcDbCircle
 10
139.643325
 20
44.46599
 30
0.0
 40
0.75
100
AcDbArc
 50
291.250506
 51
360.0
  0
ARC
  5
470
330
226
100
AcDbEntity
  8
7_ALL_FEATURES
  6
Continuous
 62
     7
100
AcDbCircle
 10
126.143325
 20
44.46599
 30
0.0
 40
0.75
100
AcDbArc
 50
180.0
 51
248.749494
  0
LINE
  5
471
330
226
100
AcDbEntity
  8
7_ALL_FEATURES
  6
Continuous
 62
     7
100
AcDbLine
 10
136.243015
 20
42.33893
 30
0.0
 11
139.915159
 21
43.766986
 31
0.0
  0
LINE
  5
472
330
226
100
AcDbEntity
  8
7_ALL_FEATURES
  6
Continuous
 62
     7
100
AcDbLine
 10
129.543634
 20
42.33893
 30
0.0
 11
125.87149
 21
43.766986
 31
0.0
  0
ARC
  5
473
330
226
100
AcDbEntity
  8
7_ALL_FEATURES
  6
Continuous
 62
     7
100
AcDbCircle
 10
140.293325
 20
45.10294
 30
0.0
 40
0.1
100
AcDbArc
 50
0.0
 51
90.0
  0
ARC
  5
474
330
226
100
AcDbEntity
  8
7_ALL_FEATURES
  6
Continuous
 62
     7
100
AcDbCircle
 10
125.493325
 20
45.10294
 30
0.0
 40
0.1
100
AcDbArc
 50
90.0
 51
180.0
  0
LINE
  5
475
330
226
100
AcDbEntity
  8
3_ALL_AXES
  6
Continuous
 62
     7
100
AcDbLine
 10
125.393325
 20
45.10294
 30
0.0
 11
125.393325
 21
44.46599
 31
0.0
  0
LINE
  5
476
330
226
100
AcDbEntity
  8
3_ALL_AXES
  6
Continuous
 62
     7
100
AcDbLine
 10
140.393325
 20
45.10294
 30
0.0
 11
140.393325
 21
44.46599
 31
0.0
  0
LINE
  5
477
330
226
100
AcDbEntity
  8
7_ALL_FEATURES
  6
Continuous
 62
     9
100
AcDbLine
 10
132.893325
 20
44.46599
 30
0.0
 11
140.393325
 21
44.46599
 31
0.0
  0
LINE
  5
478
330
226
100
AcDbEntity
  8
7_ALL_FEATURES
  6
Continuous
 62
     9
100
AcDbLine
 10
136.243015
 20
42.33893
 30
0.0
 11
132.893325
 21
42.33893
 31
0.0
  0
LINE
  5
479
330
226
100
AcDbEntity
  8
7_ALL_FEATURES
  6
Continuous
 62
     9
100
AcDbLine
 10
132.893325
 20
45.10294
 30
0.0
 11
140.393325
 21
45.10294
 31
0.0
  0
LINE
  5
47A
330
226
100
AcDbEntity
  8
7_ALL_FEATURES
  6
Continuous
 62
     9
100
AcDbLine
 10
125.393325
 20
44.46599
 30
0.0
 11
132.893325
 21
44.46599
 31
0.0
  0
LINE
  5
47B
330
226
100
AcDbEntity
  8
7_ALL_FEATURES
  6
Continuous
 62
     9
100
AcDbLine
 10
125.393325
 20
45.10294
 30
0.0
 11
132.893325
 21
45.10294
 31
0.0
  0
LINE
  5
47C
330
226
100
AcDbEntity
  8
7_ALL_FEATURES
  6
Continuous
 62
     9
100
AcDbLine
 10
132.893325
 20
42.33893
 30
0.0
 11
129.543634
 21
42.33893
 31
0.0
  0
LINE
  5
47D
330
226
100
AcDbEntity
  8
7_ALL_FEATURES
  6
Continuous
 62
     9
100
AcDbLine
 10
125.87149
 20
43.766986
 30
0.0
 11
132.893325
 21
43.766986
 31
0.0
  0
LINE
  5
47E
330
226
100
AcDbEntity
  8
7_ALL_FEATURES
  6
Continuous
 62
     9
100
AcDbLine
 10
132.893325
 20
43.766986
 30
0.0
 11
139.915159
 21
43.766986
 31
0.0
  0
SPLINE
  5
47F
330
226
100
AcDbEntity
  8
7_ALL_FEATURES
  6
Continuous
 62
     7
100
AcDbSpline
 70
     0
 71
     3
 72
    11
 73
     7
 74
     0
 42
0.000000001
 43
0.0000001
 40
0.0
 40
0.0
 40
0.0
 40
0.0
 40
0.4104082047
 40
0.5726327916
 40
0.7069974701
 40
1.0
 40
1.0
 40
1.0
 40
1.0
 10
171.3933245238
 20
45.720776008
 30
0.0
 10
171.3933245238
 20
45.7181740331
 30
0.0
 10
171.3932517359
 20
45.7145716968
 30
0.0
 10
171.3927458922
 20
45.7100390036
 30
0.0
 10
171.3921515259
 20
45.706582737
 30
0.0
 10
171.3907305154
 20
45.7029396358
 30
0.0
 10
171.3888728887
 20
45.7029396358
 30
0.0
  0
LINE
  5
480
330
226
100
AcDbEntity
  8
7_ALL_FEATURES
  6
Continuous
 62
     7
100
AcDbLine
 10
171.393325
 20
47.70294
 30
0.0
 11
171.393325
 21
45.720776
 31
0.0
  0
SPLINE
  5
481
330
226
100
AcDbEntity
  8
7_ALL_FEATURES
  6
Continuous
 62
     7
100
AcDbSpline
 70
     0
 71
     3
 72
    11
 73
     7
 74
     0
 42
0.000000001
 43
0.0000001
 40
0.0
 40
0.0
 40
0.0
 40
0.0
 40
0.2930025298
 40
0.4273672084
 40
0.5895917953
 40
1.0
 40
1.0
 40
1.0
 40
1.0
 10
171.3888728887
 20
99.7029396358
 30
0.0
 10
171.3907305154
 20
99.7029396358
 30
0.0
 10
171.3921515259
 20
99.6992965346
 30
0.0
 10
171.3927458922
 20
99.695840268
 30
0.0
 10
171.3932517359
 20
99.6913075748
 30
0.0
 10
171.3933245238
 20
99.6877052385
 30
0.0
 10
171.3933245238
 20
99.6851032636
 30
0.0
  0
LINE
  5
482
330
226
100
AcDbEntity
  8
7_ALL_FEATURES
  6
Continuous
 62
     7
100
AcDbLine
 10
171.393325
 20
97.70294
 30
0.0
 11
171.393325
 21
99.685103
 31
0.0
  0
LINE
  5
483
330
226
100
AcDbEntity
  8
7_ALL_FEATURES
  6
Continuous
 62
     7
100
AcDbLine
 10
168.654828
 20
45.70294
 30
0.0
 11
143.893325
 21
45.70294
 31
0.0
  0
LINE
  5
484
330
226
100
AcDbEntity
  8
7_ALL_FEATURES
  6
Continuous
 62
     7
100
AcDbLine
 10
171.388873
 20
45.70294
 30
0.0
 11
168.654828
 21
45.70294
 31
0.0
  0
LINE
  5
485
330
226
100
AcDbEntity
  8
7_ALL_FEATURES
  6
Continuous
 62
     7
100
AcDbLine
 10
168.654828
 20
99.70294
 30
0.0
 11
171.388873
 21
99.70294
 31
0.0
  0
LINE
  5
486
330
226
100
AcDbEntity
  8
7_ALL_FEATURES
  6
Continuous
 62
     7
100
AcDbLine
 10
143.893325
 20
99.70294
 30
0.0
 11
168.654828
 21
99.70294
 31
0.0
  0
LINE
  5
487
330
226
100
AcDbEntity
  8
7_ALL_FEATURES
  6
Continuous
 62
     9
100
AcDbLine
 10
168.654828
 20
47.70294
 30
0.0
 11
168.654828
 21
45.70294
 31
0.0
  0
LINE
  5
488
330
226
100
AcDbEntity
  8
7_ALL_FEATURES
  6
Continuous
 62
     9
100
AcDbLine
 10
168.654828
 20
97.70294
 30
0.0
 11
168.654828
 21
99.70294
 31
0.0
  0
LINE
  5
489
330
226
100
AcDbEntity
  8
7_ALL_FEATURES
  6
Continuous
 62
     7
100
AcDbLine
 10
83.893325
 20
45.70294
 30
0.0
 11
83.893325
 21
99.70294
 31
0.0
  0
LINE
  5
48A
330
226
100
AcDbEntity
  8
7_ALL_FEATURES
  6
Continuous
 62
     7
100
AcDbLine
 10
143.893325
 20
45.70294
 30
0.0
 11
143.893325
 21
99.70294
 31
0.0
  0
LINE
  5
48B
330
226
100
AcDbEntity
  8
7_ALL_FEATURES
  6
Continuous
 62
     7
100
AcDbLine
 10
143.393325
 20
45.20294
 30
0.0
 11
84.393325
 21
45.20294
 31
0.0
  0
LINE
  5
48C
330
226
100
AcDbEntity
  8
7_ALL_FEATURES
  6
Continuous
 62
     7
100
AcDbLine
 10
84.393325
 20
100.20294
 30
0.0
 11
143.393325
 21
100.20294
 31
0.0
  0
LINE
  5
48D
330
226
100
AcDbEntity
  8
7_ALL_FEATURES
  6
Continuous
 62
     7
100
AcDbLine
 10
143.643325
 20
99.95294
 30
0.0
 11
143.893325
 21
99.70294
 31
0.0
  0
LINE
  5
48E
330
226
100
AcDbEntity
  8
7_ALL_FEATURES
  6
Continuous
 62
     7
100
AcDbLine
 10
143.643325
 20
45.45294
 30
0.0
 11
143.893325
 21
45.70294
 31
0.0
  0
LINE
  5
48F
330
226
100
AcDbEntity
  8
7_ALL_FEATURES
  6
Continuous
 62
     7
100
AcDbLine
 10
84.143325
 20
45.45294
 30
0.0
 11
83.893325
 21
45.70294
 31
0.0
  0
LINE
  5
490
330
226
100
AcDbEntity
  8
7_ALL_FEATURES
  6
Continuous
 62
     7
100
AcDbLine
 10
84.143325
 20
99.95294
 30
0.0
 11
83.893325
 21
99.70294
 31
0.0
  0
LINE
  5
491
330
226
100
AcDbEntity
  8
7_ALL_FEATURES
  6
Continuous
 62
     7
100
AcDbLine
 10
84.393325
 20
100.20294
 30
0.0
 11
84.143325
 21
99.95294
 31
0.0
  0
LINE
  5
492
330
226
100
AcDbEntity
  8
7_ALL_FEATURES
  6
Continuous
 62
     7
100
AcDbLine
 10
143.643325
 20
99.95294
 30
0.0
 11
143.393325
 21
100.20294
 31
0.0
  0
LINE
  5
493
330
226
100
AcDbEntity
  8
7_ALL_FEATURES
  6
Continuous
 62
     7
100
AcDbLine
 10
84.143325
 20
45.45294
 30
0.0
 11
84.393325
 21
45.20294
 31
0.0
  0
LINE
  5
494
330
226
100
AcDbEntity
  8
7_ALL_FEATURES
  6
Continuous
 62
     7
100
AcDbLine
 10
143.393325
 20
45.20294
 30
0.0
 11
143.643325
 21
45.45294
 31
0.0
  0
LINE
  5
495
330
226
100
AcDbEntity
  8
7_ALL_FEATURES
  6
Continuous
 62
     7
100
AcDbLine
 10
84.393325
 20
99.70294
 30
0.0
 11
143.393325
 21
99.70294
 31
0.0
  0
LINE
  5
496
330
226
100
AcDbEntity
  8
7_ALL_FEATURES
  6
Continuous
 62
     7
100
AcDbLine
 10
143.393325
 20
45.70294
 30
0.0
 11
143.393325
 21
99.70294
 31
0.0
  0
LINE
  5
497
330
226
100
AcDbEntity
  8
7_ALL_FEATURES
  6
Continuous
 62
     7
100
AcDbLine
 10
84.143325
 20
99.95294
 30
0.0
 11
84.393325
 21
99.70294
 31
0.0
  0
LINE
  5
498
330
226
100
AcDbEntity
  8
7_ALL_FEATURES
  6
Continuous
 62
     7
100
AcDbLine
 10
143.393325
 20
99.70294
 30
0.0
 11
143.643325
 21
99.95294
 31
0.0
  0
LINE
  5
499
330
226
100
AcDbEntity
  8
7_ALL_FEATURES
  6
Continuous
 62
     7
100
AcDbLine
 10
143.643325
 20
45.45294
 30
0.0
 11
143.393325
 21
45.70294
 31
0.0
  0
LINE
  5
49A
330
226
100
AcDbEntity
  8
7_ALL_FEATURES
  6
Continuous
 62
     7
100
AcDbLine
 10
84.393325
 20
45.70294
 30
0.0
 11
84.143325
 21
45.45294
 31
0.0
  0
LINE
  5
49B
330
226
100
AcDbEntity
  8
7_ALL_FEATURES
  6
Continuous
 62
     7
100
AcDbLine
 10
143.393325
 20
45.70294
 30
0.0
 11
84.393325
 21
45.70294
 31
0.0
  0
LINE
  5
49C
330
226
100
AcDbEntity
  8
7_ALL_FEATURES
  6
Continuous
 62
     7
100
AcDbLine
 10
84.393325
 20
45.70294
 30
0.0
 11
84.393325
 21
99.70294
 31
0.0
  0
LINE
  5
49D
330
226
100
AcDbEntity
  8
7_ALL_FEATURES
  6
Continuous
 62
     3
100
AcDbLine
 10
146.393325
 20
94.70294
 30
0.0
 11
146.393325
 21
50.70294
 31
0.0
  0
LINE
  5
49E
330
226
100
AcDbEntity
  8
7_ALL_FEATURES
  6
Continuous
 62
     3
100
AcDbLine
 10
171.393325
 20
50.70294
 30
0.0
 11
171.393325
 21
94.70294
 31
0.0
  0
ARC
  5
49F
330
226
100
AcDbEntity
  8
3_ALL_AXES
  6
Continuous
 62
     3
100
AcDbCircle
 10
158.893325
 20
72.70294
 30
0.0
 40
8.6
100
AcDbArc
 50
90.0
 51
270.0
  0
ARC
  5
4A0
330
226
100
AcDbEntity
  8
3_ALL_AXES
  6
Continuous
 62
     3
100
AcDbCircle
 10
158.893325
 20
72.70294
 30
0.0
 40
8.6
100
AcDbArc
 50
270.0
 51
90.0
  0
ARC
  5
4A1
330
226
100
AcDbEntity
  8
3_ALL_AXES
  6
Continuous
 62
     3
100
AcDbCircle
 10
158.893325
 20
72.70294
 30
0.0
 40
12.25
100
AcDbArc
 50
240.0
 51
300.0
  0
ARC
  5
4A2
330
226
100
AcDbEntity
  8
3_ALL_AXES
  6
Continuous
 62
     3
100
AcDbCircle
 10
151.393325
 20
59.712559
 30
0.0
 40
2.75
100
AcDbArc
 50
60.0
 51
240.0
  0
ARC
  5
4A3
330
226
100
AcDbEntity
  8
3_ALL_AXES
  6
Continuous
 62
     3
100
AcDbCircle
 10
158.893325
 20
72.70294
 30
0.0
 40
17.75
100
AcDbArc
 50
240.0
 51
300.0
  0
ARC
  5
4A4
330
226
100
AcDbEntity
  8
3_ALL_AXES
  6
Continuous
 62
     3
100
AcDbCircle
 10
166.393325
 20
59.712559
 30
0.0
 40
2.75
100
AcDbArc
 50
300.0
 51
120.0
  0
ARC
  5
4A5
330
226
100
AcDbEntity
  8
3_ALL_AXES
  6
Continuous
 62
     3
100
AcDbCircle
 10
158.893325
 20
72.70294
 30
0.0
 40
17.75
100
AcDbArc
 50
60.0
 51
120.0
  0
ARC
  5
4A6
330
226
100
AcDbEntity
  8
3_ALL_AXES
  6
Continuous
 62
     3
100
AcDbCircle
 10
151.393325
 20
85.693321
 30
0.0
 40
2.75
100
AcDbArc
 50
120.0
 51
300.0
  0
ARC
  5
4A7
330
226
100
AcDbEntity
  8
3_ALL_AXES
  6
Continuous
 62
     3
100
AcDbCircle
 10
158.893325
 20
72.70294
 30
0.0
 40
12.25
100
AcDbArc
 50
60.0
 51
120.0
  0
ARC
  5
4A8
330
226
100
AcDbEntity
  8
3_ALL_AXES
  6
Continuous
 62
     3
100
AcDbCircle
 10
166.393325
 20
85.693321
 30
0.0
 40
2.75
100
AcDbArc
 50
240.0
 51
60.0
  0
LINE
  5
4A9
330
226
100
AcDbEntity
  8
7_ALL_FEATURES
  6
Continuous
 62
     3
100
AcDbLine
 10
168.654828
 20
47.70294
 30
0.0
 11
171.388873
 21
47.70294
 31
0.0
  0
LINE
  5
4AA
330
226
100
AcDbEntity
  8
7_ALL_FEATURES
  6
Continuous
 62
     3
100
AcDbLine
 10
168.654828
 20
47.70294
 30
0.0
 11
143.893325
 21
47.70294
 31
0.0
  0
LINE
  5
4AB
330
226
100
AcDbEntity
  8
7_ALL_FEATURES
  6
Continuous
 62
     3
100
AcDbLine
 10
146.393325
 20
47.70294
 30
0.0
 11
146.393325
 21
50.70294
 31
0.0
  0
LINE
  5
4AC
330
226
100
AcDbEntity
  8
7_ALL_FEATURES
  6
Continuous
 62
     3
100
AcDbLine
 10
171.393325
 20
47.732762
 30
0.0
 11
171.393325
 21
50.70294
 31
0.0
  0
LINE
  5
4AD
330
226
100
AcDbEntity
  8
7_ALL_FEATURES
  6
Continuous
 62
     3
100
AcDbLine
 10
143.893325
 20
97.70294
 30
0.0
 11
168.654828
 21
97.70294
 31
0.0
  0
LINE
  5
4AE
330
226
100
AcDbEntity
  8
7_ALL_FEATURES
  6
Continuous
 62
     3
100
AcDbLine
 10
171.388873
 20
97.70294
 30
0.0
 11
168.654828
 21
97.70294
 31
0.0
  0
LINE
  5
4AF
330
226
100
AcDbEntity
  8
7_ALL_FEATURES
  6
Continuous
 62
     3
100
AcDbLine
 10
171.393325
 20
97.673117
 30
0.0
 11
171.393325
 21
94.70294
 31
0.0
  0
LINE
  5
4B0
330
226
100
AcDbEntity
  8
7_ALL_FEATURES
  6
Continuous
 62
     3
100
AcDbLine
 10
146.393325
 20
97.70294
 30
0.0
 11
146.393325
 21
94.70294
 31
0.0
  0
SPLINE
  5
4B1
330
226
100
AcDbEntity
  8
7_ALL_FEATURES
  6
Continuous
 62
     3
100
AcDbSpline
 70
     0
 71
     3
 72
    13
 73
     9
 74
     0
 42
0.000000001
 43
0.0000001
 40
0.0
 40
0.0
 40
0.0
 40
0.0
 40
0.0874657477
 40
0.1669671502
 40
0.2746188247
 40
0.41142681
 40
0.5778190779
 40
1.0
 40
1.0
 40
1.0
 40
1.0
 10
171.3888728887
 20
47.7029396358
 30
0.0
 10
171.3897732516
 20
47.7029396358
 30
0.0
 10
171.3909825826
 20
47.7047983353
 30
0.0
 10
171.3916836596
 20
47.7073705494
 30
0.0
 10
171.3923148732
 20
47.7107099381
 30
0.0
 10
171.3927606201
 20
47.7148957977
 30
0.0
 10
171.3932439791
 20
47.7223589813
 30
0.0
 10
171.3933245238
 20
47.7284162458
 30
0.0
 10
171.3933245238
 20
47.7327621303
 30
0.0
  0
LINE
  5
4B2
330
226
100
AcDbEntity
  8
7_ALL_FEATURES
  6
Continuous
 62
     9
100
AcDbLine
 10
146.393325
 20
50.70294
 30
0.0
 11
171.393325
 21
50.70294
 31
0.0
  0
SPLINE
  5
4B3
330
226
100
AcDbEntity
  8
7_ALL_FEATURES
  6
Continuous
 62
     3
100
AcDbSpline
 70
     0
 71
     3
 72
    13
 73
     9
 74
     0
 42
0.000000001
 43
0.0000001
 40
0.0
 40
0.0
 40
0.0
 40
0.0
 40
0.4221809221
 40
0.5885731902
 40
0.725381176
 40
0.8330328505
 40
0.9125342528
 40
1.0
 40
1.0
 40
1.0
 40
1.0
 10
171.3933245238
 20
97.6731171413
 30
0.0
 10
171.3933245238
 20
97.6774630258
 30
0.0
 10
171.3932439791
 20
97.6835202903
 30
0.0
 10
171.39276062
 20
97.6909834739
 30
0.0
 10
171.3923148732
 20
97.6951693334
 30
0.0
 10
171.3916836597
 20
97.6985087222
 30
0.0
 10
171.3909825826
 20
97.7010809362
 30
0.0
 10
171.3897732516
 20
97.7029396358
 30
0.0
 10
171.3888728887
 20
97.7029396358
 30
0.0
  0
LINE
  5
4B4
330
226
100
AcDbEntity
  8
7_ALL_FEATURES
  6
Continuous
 62
     9
100
AcDbLine
 10
171.393325
 20
94.70294
 30
0.0
 11
146.393325
 21
94.70294
 31
0.0
  0
ARC
  5
4B5
330
226
100
AcDbEntity
  8
7_ALL_FEATURES
  6
Continuous
 62
     7
100
AcDbCircle
 10
257.408288
 20
213.380918
 30
0.0
 40
2.0
100
AcDbArc
 50
158.749494
 51
180.0
  0
ARC
  5
4B6
330
226
100
AcDbEntity
  8
7_ALL_FEATURES
  6
Continuous
 62
     7
100
AcDbCircle
 10
257.408288
 20
208.131322
 30
0.0
 40
2.0
100
AcDbArc
 50
180.0
 51
201.250506
  0
ARC
  5
4B7
330
226
100
AcDbEntity
  8
7_ALL_FEATURES
  6
Continuous
 62
     7
100
AcDbCircle
 10
257.671338
 20
204.00612
 30
0.0
 40
0.75
100
AcDbArc
 50
201.250506
 51
270.0
  0
ARC
  5
4B8
330
226
100
AcDbEntity
  8
7_ALL_FEATURES
  6
Continuous
 62
     7
100
AcDbCircle
 10
257.671338
 20
217.50612
 30
0.0
 40
0.75
100
AcDbArc
 50
90.0
 51
158.749494
  0
LINE
  5
4B9
330
226
100
AcDbEntity
  8
7_ALL_FEATURES
  6
Continuous
 62
     7
100
AcDbLine
 10
256.972335
 20
203.734285
 30
0.0
 11
255.544279
 21
207.40643
 31
0.0
  0
LINE
  5
4BA
330
226
100
AcDbEntity
  8
7_ALL_FEATURES
  6
Continuous
 62
     7
100
AcDbLine
 10
256.972335
 20
217.777955
 30
0.0
 11
255.544279
 21
214.10581
 31
0.0
  0
LINE
  5
4BB
330
226
100
AcDbEntity
  8
7_ALL_FEATURES
  6
Continuous
 62
     7
100
AcDbLine
 10
255.408288
 20
208.131322
 30
0.0
 11
255.408288
 21
213.380918
 31
0.0
  0
ARC
  5
4BC
330
226
100
AcDbEntity
  8
7_ALL_FEATURES
  6
Continuous
 62
     7
100
AcDbCircle
 10
258.308288
 20
203.35612
 30
0.0
 40
0.1
100
AcDbArc
 50
270.0
 51
360.0
  0
LINE
  5
4BD
330
226
100
AcDbEntity
  8
7_ALL_FEATURES
  6
Continuous
 62
     7
100
AcDbLine
 10
257.671338
 20
218.25612
 30
0.0
 11
258.308288
 21
218.25612
 31
0.0
  0
LINE
  5
4BE
330
226
100
AcDbEntity
  8
7_ALL_FEATURES
  6
Continuous
 62
     7
100
AcDbLine
 10
257.671338
 20
203.25612
 30
0.0
 11
258.308288
 21
203.25612
 31
0.0
  0
ARC
  5
4BF
330
226
100
AcDbEntity
  8
7_ALL_FEATURES
  6
Continuous
 62
     7
100
AcDbCircle
 10
258.308288
 20
218.15612
 30
0.0
 40
0.1
100
AcDbArc
 50
0.0
 51
90.0
  0
LINE
  5
4C0
330
226
100
AcDbEntity
  8
7_ALL_FEATURES
  6
Continuous
 62
     9
100
AcDbLine
 10
257.671338
 20
218.25612
 30
0.0
 11
257.671338
 21
203.25612
 31
0.0
  0
LINE
  5
4C1
330
226
100
AcDbEntity
  8
7_ALL_FEATURES
  6
Continuous
 62
     9
100
AcDbLine
 10
258.308288
 20
218.25612
 30
0.0
 11
258.308288
 21
203.25612
 31
0.0
  0
LINE
  5
4C2
330
226
100
AcDbEntity
  8
7_ALL_FEATURES
  6
Continuous
 62
     9
100
AcDbLine
 10
256.972335
 20
217.777955
 30
0.0
 11
256.972335
 21
203.734285
 31
0.0
  0
LINE
  5
4C3
330
226
100
AcDbEntity
  8
7_ALL_FEATURES
  6
Continuous
 62
     9
100
AcDbLine
 10
255.544279
 20
207.40643
 30
0.0
 11
255.544279
 21
214.10581
 31
0.0
  0
ARC
  5
4C4
330
226
100
AcDbEntity
  8
7_ALL_FEATURES
  6
Continuous
 62
     7
100
AcDbCircle
 10
314.408288
 20
208.131322
 30
0.0
 40
2.0
100
AcDbArc
 50
338.749494
 51
360.0
  0
ARC
  5
4C5
330
226
100
AcDbEntity
  8
7_ALL_FEATURES
  6
Continuous
 62
     7
100
AcDbCircle
 10
314.408288
 20
213.380918
 30
0.0
 40
2.0
100
AcDbArc
 50
0.0
 51
21.250506
  0
ARC
  5
4C6
330
226
100
AcDbEntity
  8
7_ALL_FEATURES
  6
Continuous
 62
     7
100
AcDbCircle
 10
314.145238
 20
217.50612
 30
0.0
 40
0.75
100
AcDbArc
 50
21.250506
 51
90.0
  0
ARC
  5
4C7
330
226
100
AcDbEntity
  8
7_ALL_FEATURES
  6
Continuous
 62
     7
100
AcDbCircle
 10
314.145238
 20
204.00612
 30
0.0
 40
0.75
100
AcDbArc
 50
270.0
 51
338.749494
  0
LINE
  5
4C8
330
226
100
AcDbEntity
  8
7_ALL_FEATURES
  6
Continuous
 62
     7
100
AcDbLine
 10
314.844241
 20
217.777955
 30
0.0
 11
316.272297
 21
214.10581
 31
0.0
  0
LINE
  5
4C9
330
226
100
AcDbEntity
  8
7_ALL_FEATURES
  6
Continuous
 62
     7
100
AcDbLine
 10
314.844241
 20
203.734285
 30
0.0
 11
316.272297
 21
207.40643
 31
0.0
  0
LINE
  5
4CA
330
226
100
AcDbEntity
  8
7_ALL_FEATURES
  6
Continuous
 62
     7
100
AcDbLine
 10
316.408288
 20
213.380918
 30
0.0
 11
316.408288
 21
208.131322
 31
0.0
  0
ARC
  5
4CB
330
226
100
AcDbEntity
  8
7_ALL_FEATURES
  6
Continuous
 62
     7
100
AcDbCircle
 10
313.508288
 20
218.15612
 30
0.0
 40
0.1
100
AcDbArc
 50
90.0
 51
180.0
  0
LINE
  5
4CC
330
226
100
AcDbEntity
  8
7_ALL_FEATURES
  6
Continuous
 62
     7
100
AcDbLine
 10
314.145238
 20
203.25612
 30
0.0
 11
313.508288
 21
203.25612
 31
0.0
  0
LINE
  5
4CD
330
226
100
AcDbEntity
  8
7_ALL_FEATURES
  6
Continuous
 62
     7
100
AcDbLine
 10
314.145238
 20
218.25612
 30
0.0
 11
313.508288
 21
218.25612
 31
0.0
  0
ARC
  5
4CE
330
226
100
AcDbEntity
  8
7_ALL_FEATURES
  6
Continuous
 62
     7
100
AcDbCircle
 10
313.508288
 20
203.35612
 30
0.0
 40
0.1
100
AcDbArc
 50
180.0
 51
270.0
  0
LINE
  5
4CF
330
226
100
AcDbEntity
  8
7_ALL_FEATURES
  6
Continuous
 62
     9
100
AcDbLine
 10
314.145238
 20
203.25612
 30
0.0
 11
314.145238
 21
218.25612
 31
0.0
  0
LINE
  5
4D0
330
226
100
AcDbEntity
  8
7_ALL_FEATURES
  6
Continuous
 62
     9
100
AcDbLine
 10
313.508288
 20
203.25612
 30
0.0
 11
313.508288
 21
218.25612
 31
0.0
  0
LINE
  5
4D1
330
226
100
AcDbEntity
  8
7_ALL_FEATURES
  6
Continuous
 62
     9
100
AcDbLine
 10
314.844241
 20
203.734285
 30
0.0
 11
314.844241
 21
217.777955
 31
0.0
  0
LINE
  5
4D2
330
226
100
AcDbEntity
  8
7_ALL_FEATURES
  6
Continuous
 62
     9
100
AcDbLine
 10
316.272297
 20
214.10581
 30
0.0
 11
316.272297
 21
207.40643
 31
0.0
  0
ARC
  5
4D3
330
226
100
AcDbEntity
  8
7_ALL_FEATURES
  6
Continuous
 62
     7
100
AcDbCircle
 10
307.908288
 20
160.75612
 30
0.0
 40
5.0
100
AcDbArc
 50
270.0
 51
360.0
  0
ARC
  5
4D4
330
226
100
AcDbEntity
  8
7_ALL_FEATURES
  6
Continuous
 62
     7
100
AcDbCircle
 10
263.908288
 20
160.75612
 30
0.0
 40
5.0
100
AcDbArc
 50
180.0
 51
270.0
  0
LINE
  5
4D5
330
226
100
AcDbEntity
  8
7_ALL_FEATURES
  6
Continuous
 62
     7
100
AcDbLine
 10
312.908288
 20
169.501697
 30
0.0
 11
312.908288
 21
161.687074
 31
0.0
  0
LINE
  5
4D6
330
226
100
AcDbEntity
  8
7_ALL_FEATURES
  6
Continuous
 62
     7
100
AcDbLine
 10
258.908288
 20
161.687074
 30
0.0
 11
258.908288
 21
169.501697
 31
0.0
  0
LINE
  5
4D7
330
226
100
AcDbEntity
  8
7_ALL_FEATURES
  6
Continuous
 62
     7
100
AcDbLine
 10
312.908288
 20
161.687074
 30
0.0
 11
312.908288
 21
160.75612
 31
0.0
  0
LINE
  5
4D8
330
226
100
AcDbEntity
  8
7_ALL_FEATURES
  6
Continuous
 62
     7
100
AcDbLine
 10
312.908288
 20
198.25612
 30
0.0
 11
312.908288
 21
169.501697
 31
0.0
  0
LINE
  5
4D9
330
226
100
AcDbEntity
  8
7_ALL_FEATURES
  6
Continuous
 62
     7
100
AcDbLine
 10
258.908288
 20
169.501697
 30
0.0
 11
258.908288
 21
198.25612
 31
0.0
  0
LINE
  5
4DA
330
226
100
AcDbEntity
  8
7_ALL_FEATURES
  6
Continuous
 62
     7
100
AcDbLine
 10
258.908288
 20
160.75612
 30
0.0
 11
258.908288
 21
161.687074
 31
0.0
  0
LINE
  5
4DB
330
226
100
AcDbEntity
  8
7_ALL_FEATURES
  6
Continuous
 62
     7
100
AcDbLine
 10
263.908288
 20
155.75612
 30
0.0
 11
307.908288
 21
155.75612
 31
0.0
  0
LINE
  5
4DC
330
226
100
AcDbEntity
  8
7_ALL_FEATURES
  6
Continuous
 62
     9
100
AcDbLine
 10
307.908288
 20
155.75612
 30
0.0
 11
307.908288
 21
157.75612
 31
0.0
  0
LINE
  5
4DD
330
226
100
AcDbEntity
  8
7_ALL_FEATURES
  6
Continuous
 62
     9
100
AcDbLine
 10
258.908288
 20
161.687074
 30
0.0
 11
260.908288
 21
161.687074
 31
0.0
  0
LINE
  5
4DE
330
226
100
AcDbEntity
  8
7_ALL_FEATURES
  6
Continuous
 62
     9
100
AcDbLine
 10
312.908288
 20
169.501697
 30
0.0
 11
310.908288
 21
169.501697
 31
0.0
  0
LINE
  5
4DF
330
226
100
AcDbEntity
  8
7_ALL_FEATURES
  6
Continuous
 62
     9
100
AcDbLine
 10
258.908288
 20
169.501697
 30
0.0
 11
260.908288
 21
169.501697
 31
0.0
  0
LINE
  5
4E0
330
226
100
AcDbEntity
  8
7_ALL_FEATURES
  6
Continuous
 62
     9
100
AcDbLine
 10
312.908288
 20
160.75612
 30
0.0
 11
310.908288
 21
160.75612
 31
0.0
  0
LINE
  5
4E1
330
226
100
AcDbEntity
  8
7_ALL_FEATURES
  6
Continuous
 62
     9
100
AcDbLine
 10
312.908288
 20
161.687074
 30
0.0
 11
310.908288
 21
161.687074
 31
0.0
  0
LINE
  5
4E2
330
226
100
AcDbEntity
  8
7_ALL_FEATURES
  6
Continuous
 62
     9
100
AcDbLine
 10
263.908288
 20
155.75612
 30
0.0
 11
263.908288
 21
157.75612
 31
0.0
  0
LINE
  5
4E3
330
226
100
AcDbEntity
  8
7_ALL_FEATURES
  6
Continuous
 62
     9
100
AcDbLine
 10
258.908288
 20
160.75612
 30
0.0
 11
260.908288
 21
160.75612
 31
0.0
  0
LINE
  5
4E4
330
226
100
AcDbEntity
  8
7_ALL_FEATURES
  6
Continuous
 62
     7
100
AcDbLine
 10
310.908288
 20
201.25612
 30
0.0
 11
310.908288
 21
250.25612
 31
0.0
  0
LINE
  5
4E5
330
226
100
AcDbEntity
  8
7_ALL_FEATURES
  6
Continuous
 62
     7
100
AcDbLine
 10
310.408288
 20
250.75612
 30
0.0
 11
261.408288
 21
250.75612
 31
0.0
  0
LINE
  5
4E6
330
226
100
AcDbEntity
  8
7_ALL_FEATURES
  6
Continuous
 62
     7
100
AcDbLine
 10
310.658288
 20
201.00612
 30
0.0
 11
310.908288
 21
201.25612
 31
0.0
  0
LINE
  5
4E7
330
226
100
AcDbEntity
  8
7_ALL_FEATURES
  6
Continuous
 62
     7
100
AcDbLine
 10
310.908288
 20
250.25612
 30
0.0
 11
310.658288
 21
250.50612
 31
0.0
  0
LINE
  5
4E8
330
226
100
AcDbEntity
  8
7_ALL_FEATURES
  6
Continuous
 62
     7
100
AcDbLine
 10
260.908288
 20
250.25612
 30
0.0
 11
260.908288
 21
201.25612
 31
0.0
  0
LINE
  5
4E9
330
226
100
AcDbEntity
  8
7_ALL_FEATURES
  6
Continuous
 62
     7
100
AcDbLine
 10
261.158288
 20
201.00612
 30
0.0
 11
261.408288
 21
200.75612
 31
0.0
  0
LINE
  5
4EA
330
226
100
AcDbEntity
  8
7_ALL_FEATURES
  6
Continuous
 62
     7
100
AcDbLine
 10
310.408288
 20
200.75612
 30
0.0
 11
310.658288
 21
201.00612
 31
0.0
  0
LINE
  5
4EB
330
226
100
AcDbEntity
  8
7_ALL_FEATURES
  6
Continuous
 62
     7
100
AcDbLine
 10
260.908288
 20
201.25612
 30
0.0
 11
261.158288
 21
201.00612
 31
0.0
  0
LINE
  5
4EC
330
226
100
AcDbEntity
  8
7_ALL_FEATURES
  6
Continuous
 62
     7
100
AcDbLine
 10
261.408288
 20
200.75612
 30
0.0
 11
310.408288
 21
200.75612
 31
0.0
  0
LINE
  5
4ED
330
226
100
AcDbEntity
  8
7_ALL_FEATURES
  6
Continuous
 62
     7
100
AcDbLine
 10
261.158288
 20
250.50612
 30
0.0
 11
260.908288
 21
250.25612
 31
0.0
  0
LINE
  5
4EE
330
226
100
AcDbEntity
  8
7_ALL_FEATURES
  6
Continuous
 62
     7
100
AcDbLine
 10
261.408288
 20
250.75612
 30
0.0
 11
261.158288
 21
250.50612
 31
0.0
  0
LINE
  5
4EF
330
226
100
AcDbEntity
  8
7_ALL_FEATURES
  6
Continuous
 62
     7
100
AcDbLine
 10
310.658288
 20
250.50612
 30
0.0
 11
310.408288
 21
250.75612
 31
0.0
  0
LINE
  5
4F0
330
226
100
AcDbEntity
  8
7_ALL_FEATURES
  6
Continuous
 62
     7
100
AcDbLine
 10
310.408288
 20
250.25612
 30
0.0
 11
310.658288
 21
250.50612
 31
0.0
  0
LINE
  5
4F1
330
226
100
AcDbEntity
  8
7_ALL_FEATURES
  6
Continuous
 62
     7
100
AcDbLine
 10
261.408288
 20
201.25612
 30
0.0
 11
310.408288
 21
201.25612
 31
0.0
  0
LINE
  5
4F2
330
226
100
AcDbEntity
  8
7_ALL_FEATURES
  6
Continuous
 62
     7
100
AcDbLine
 10
261.408288
 20
201.25612
 30
0.0
 11
261.158288
 21
201.00612
 31
0.0
  0
LINE
  5
4F3
330
226
100
AcDbEntity
  8
7_ALL_FEATURES
  6
Continuous
 62
     7
100
AcDbLine
 10
261.408288
 20
250.25612
 30
0.0
 11
261.408288
 21
201.25612
 31
0.0
  0
LINE
  5
4F4
330
226
100
AcDbEntity
  8
7_ALL_FEATURES
  6
Continuous
 62
     7
100
AcDbLine
 10
310.408288
 20
250.25612
 30
0.0
 11
261.408288
 21
250.25612
 31
0.0
  0
LINE
  5
4F5
330
226
100
AcDbEntity
  8
7_ALL_FEATURES
  6
Continuous
 62
     7
100
AcDbLine
 10
310.658288
 20
201.00612
 30
0.0
 11
310.408288
 21
201.25612
 31
0.0
  0
LINE
  5
4F6
330
226
100
AcDbEntity
  8
7_ALL_FEATURES
  6
Continuous
 62
     7
100
AcDbLine
 10
261.408288
 20
250.25612
 30
0.0
 11
261.158288
 21
250.50612
 31
0.0
  0
LINE
  5
4F7
330
226
100
AcDbEntity
  8
7_ALL_FEATURES
  6
Continuous
 62
     7
100
AcDbLine
 10
310.408288
 20
201.25612
 30
0.0
 11
310.408288
 21
250.25612
 31
0.0
  0
LINE
  5
4F8
330
226
100
AcDbEntity
  8
7_ALL_FEATURES
  6
Continuous
 62
     7
100
AcDbLine
 10
313.408288
 20
198.75612
 30
0.0
 11
313.408288
 21
252.75612
 31
0.0
  0
LINE
  5
4F9
330
226
100
AcDbEntity
  8
7_ALL_FEATURES
  6
Continuous
 62
     7
100
AcDbLine
 10
258.908288
 20
198.25612
 30
0.0
 11
312.908288
 21
198.25612
 31
0.0
  0
LINE
  5
4FA
330
226
100
AcDbEntity
  8
7_ALL_FEATURES
  6
Continuous
 62
     7
100
AcDbLine
 10
258.408288
 20
252.75612
 30
0.0
 11
258.408288
 21
198.75612
 31
0.0
  0
LINE
  5
4FB
330
226
100
AcDbEntity
  8
7_ALL_FEATURES
  6
Continuous
 62
     7
100
AcDbLine
 10
312.908288
 20
253.25612
 30
0.0
 11
258.908288
 21
253.25612
 31
0.0
  0
LINE
  5
4FC
330
226
100
AcDbEntity
  8
7_ALL_FEATURES
  6
Continuous
 62
     7
100
AcDbLine
 10
258.908288
 20
198.25612
 30
0.0
 11
258.658288
 21
198.50612
 31
0.0
  0
LINE
  5
4FD
330
226
100
AcDbEntity
  8
7_ALL_FEATURES
  6
Continuous
 62
     7
100
AcDbLine
 10
258.658288
 20
198.50612
 30
0.0
 11
258.408288
 21
198.75612
 31
0.0
  0
LINE
  5
4FE
330
226
100
AcDbEntity
  8
7_ALL_FEATURES
  6
Continuous
 62
     7
100
AcDbLine
 10
313.408288
 20
198.75612
 30
0.0
 11
313.158288
 21
198.50612
 31
0.0
  0
LINE
  5
4FF
330
226
100
AcDbEntity
  8
7_ALL_FEATURES
  6
Continuous
 62
     7
100
AcDbLine
 10
313.158288
 20
198.50612
 30
0.0
 11
312.908288
 21
198.25612
 31
0.0
  0
LINE
  5
500
330
226
100
AcDbEntity
  8
7_ALL_FEATURES
  6
Continuous
 62
     7
100
AcDbLine
 10
258.408288
 20
252.75612
 30
0.0
 11
258.658288
 21
253.00612
 31
0.0
  0
LINE
  5
501
330
226
100
AcDbEntity
  8
7_ALL_FEATURES
  6
Continuous
 62
     7
100
AcDbLine
 10
258.658288
 20
253.00612
 30
0.0
 11
258.908288
 21
253.25612
 31
0.0
  0
LINE
  5
502
330
226
100
AcDbEntity
  8
7_ALL_FEATURES
  6
Continuous
 62
     7
100
AcDbLine
 10
312.908288
 20
253.25612
 30
0.0
 11
313.158288
 21
253.00612
 31
0.0
  0
LINE
  5
503
330
226
100
AcDbEntity
  8
7_ALL_FEATURES
  6
Continuous
 62
     7
100
AcDbLine
 10
313.158288
 20
253.00612
 30
0.0
 11
313.408288
 21
252.75612
 31
0.0
  0
LINE
  5
504
330
226
100
AcDbEntity
  8
7_ALL_FEATURES
  6
Continuous
 62
     7
100
AcDbLine
 10
312.908288
 20
198.75612
 30
0.0
 11
312.908288
 21
252.75612
 31
0.0
  0
LINE
  5
505
330
226
100
AcDbEntity
  8
7_ALL_FEATURES
  6
Continuous
 62
     7
100
AcDbLine
 10
258.908288
 20
198.75612
 30
0.0
 11
312.908288
 21
198.75612
 31
0.0
  0
SPLINE
  5
506
330
226
100
AcDbEntity
  8
7_ALL_FEATURES
  6
Continuous
 62
     9
100
AcDbSpline
 70
     0
 71
     3
 72
    11
 73
     7
 74
     0
 42
0.000000001
 43
0.0000001
 40
0.0
 40
0.0
 40
0.0
 40
0.0
 40
0.2500950548
 40
0.5000975051
 40
0.7499858512
 40
1.0
 40
1.0
 40
1.0
 40
1.0
 10
259.916939223
 20
250.7476210177
 30
0.0
 10
259.9169562342
 20
250.8777126616
 30
0.0
 10
259.9689789787
 20
251.1406999409
 30
0.0
 10
260.1915475989
 20
251.4730028731
 30
0.0
 10
260.5238523486
 20
251.6954721613
 30
0.0
 10
260.7867373586
 20
251.7474558314
 30
0.0
 10
260.9167869182
 20
251.7474687129
 30
0.0
  0
LINE
  5
507
330
226
100
AcDbEntity
  8
7_ALL_FEATURES
  6
Continuous
 62
     9
100
AcDbLine
 10
259.916939
 20
200.764619
 30
0.0
 11
259.916939
 21
250.747621
 31
0.0
  0
SPLINE
  5
508
330
226
100
AcDbEntity
  8
7_ALL_FEATURES
  6
Continuous
 62
     9
100
AcDbSpline
 70
     0
 71
     3
 72
    11
 73
     7
 74
     0
 42
0.000000001
 43
0.0000001
 40
0.0
 40
0.0
 40
0.0
 40
0.0
 40
0.2500950548
 40
0.5000975051
 40
0.7499858512
 40
1.0
 40
1.0
 40
1.0
 40
1.0
 10
260.9167869182
 20
199.7647714498
 30
0.0
 10
260.7866952743
 20
199.764788461
 30
0.0
 10
260.523707995
 20
199.8168112055
 30
0.0
 10
260.1914050628
 20
200.0393798257
 30
0.0
 10
259.9689357747
 20
200.3716845754
 30
0.0
 10
259.9169521045
 20
200.6345695854
 30
0.0
 10
259.916939223
 20
200.7646191449
 30
0.0
  0
LINE
  5
509
330
226
100
AcDbEntity
  8
7_ALL_FEATURES
  6
Continuous
 62
     9
100
AcDbLine
 10
310.899789
 20
199.764771
 30
0.0
 11
260.916787
 21
199.764771
 31
0.0
  0
SPLINE
  5
50A
330
226
100
AcDbEntity
  8
7_ALL_FEATURES
  6
Continuous
 62
     9
100
AcDbSpline
 70
     0
 71
     3
 72
    11
 73
     7
 74
     0
 42
0.000000001
 43
0.0000001
 40
0.0
 40
0.0
 40
0.0
 40
0.0
 40
0.2500161995
 40
0.4999886021
 40
0.7499788961
 40
1.0
 40
1.0
 40
1.0
 40
1.0
 10
311.8996364861
 20
200.7646191449
 30
0.0
 10
311.8996147885
 20
200.6345695578
 30
0.0
 10
311.8476593535
 20
200.3716260687
 30
0.0
 10
311.6250556541
 20
200.0393658161
 30
0.0
 10
311.2927959012
 20
199.8167534307
 30
0.0
 10
311.029840929
 20
199.7647945676
 30
0.0
 10
310.899788791
 20
199.7647714498
 30
0.0
  0
LINE
  5
50B
330
226
100
AcDbEntity
  8
7_ALL_FEATURES
  6
Continuous
 62
     9
100
AcDbLine
 10
311.899636
 20
250.747621
 30
0.0
 11
311.899636
 21
200.764619
 31
0.0
  0
SPLINE
  5
50C
330
226
100
AcDbEntity
  8
7_ALL_FEATURES
  6
Continuous
 62
     9
100
AcDbSpline
 70
     0
 71
     3
 72
    11
 73
     7
 74
     0
 42
0.000000001
 43
0.0000001
 40
0.0
 40
0.0
 40
0.0
 40
0.0
 40
0.2500950548
 40
0.5000975051
 40
0.7499858512
 40
1.0
 40
1.0
 40
1.0
 40
1.0
 10
310.899788791
 20
251.7474687129
 30
0.0
 10
311.0298804348
 20
251.7474517017
 30
0.0
 10
311.2928677141
 20
251.6954289572
 30
0.0
 10
311.6251706463
 20
251.472860337
 30
0.0
 10
311.8476399345
 20
251.1405555873
 30
0.0
 10
311.8996236046
 20
250.8776705773
 30
0.0
 10
311.8996364861
 20
250.7476210177
 30
0.0
  0
LINE
  5
50D
330
226
100
AcDbEntity
  8
7_ALL_FEATURES
  6
Continuous
 62
     9
100
AcDbLine
 10
260.916787
 20
251.747469
 30
0.0
 11
310.899789
 21
251.747469
 31
0.0
  0
LINE
  5
50E
330
226
100
AcDbEntity
  8
7_ALL_FEATURES
  6
Continuous
 62
     7
100
AcDbLine
 10
258.908288
 20
252.75612
 30
0.0
 11
258.908288
 21
198.75612
 31
0.0
  0
SPLINE
  5
50F
330
226
100
AcDbEntity
  8
7_ALL_FEATURES
  6
Continuous
 62
     9
100
AcDbSpline
 70
     0
 71
     3
 72
    11
 73
     7
 74
     0
 42
0.000000001
 43
0.0000001
 40
0.0
 40
0.0
 40
0.0
 40
0.0
 40
0.2500450139
 40
0.4999620842
 40
0.7498884458
 40
1.0
 40
1.0
 40
1.0
 40
1.0
 10
260.7008301643
 20
250.6636234631
 30
0.0
 10
260.7008373031
 20
250.7026429758
 30
0.0
 10
260.7164222881
 20
250.781523161
 30
0.0
 10
260.7831975911
 20
250.8811862203
 30
0.0
 10
260.8828615689
 20
250.9479804227
 30
0.0
 10
260.9617545765
 20
250.9635703855
 30
0.0
 10
261.0007844728
 20
250.9635777716
 30
0.0
  0
LINE
  5
510
330
226
100
AcDbEntity
  8
7_ALL_FEATURES
  6
Continuous
 62
     9
100
AcDbLine
 10
261.000784
 20
250.963578
 30
0.0
 11
310.815791
 21
250.963578
 31
0.0
  0
SPLINE
  5
511
330
226
100
AcDbEntity
  8
7_ALL_FEATURES
  6
Continuous
 62
     9
100
AcDbSpline
 70
     0
 71
     3
 72
    11
 73
     7
 74
     0
 42
0.000000001
 43
0.0000001
 40
0.0
 40
0.0
 40
0.0
 40
0.0
 40
0.2500450139
 40
0.4999620842
 40
0.7498884458
 40
1.0
 40
1.0
 40
1.0
 40
1.0
 10
310.8157912363
 20
250.9635777716
 30
0.0
 10
310.854810749
 20
250.9635706328
 30
0.0
 10
310.9336909342
 20
250.9479856478
 30
0.0
 10
311.0333539935
 20
250.8812103448
 30
0.0
 10
311.100148196
 20
250.781546367
 30
0.0
 10
311.1157381587
 20
250.7026533594
 30
0.0
 10
311.1157455448
 20
250.6636234631
 30
0.0
  0
LINE
  5
512
330
226
100
AcDbEntity
  8
7_ALL_FEATURES
  6
Continuous
 62
     9
100
AcDbLine
 10
311.115746
 20
250.663623
 30
0.0
 11
311.115746
 21
200.848617
 31
0.0
  0
ARC
  5
513
330
226
100
AcDbEntity
  8
7_ALL_FEATURES
  6
Continuous
 62
     9
100
AcDbCircle
 10
310.815809
 20
200.848599
 30
0.0
 40
0.2999360608
100
AcDbArc
 50
269.996609
 51
0.003391
  0
LINE
  5
514
330
226
100
AcDbEntity
  8
7_ALL_FEATURES
  6
Continuous
 62
     9
100
AcDbLine
 10
310.815791
 20
200.548662
 30
0.0
 11
261.000784
 21
200.548662
 31
0.0
  0
SPLINE
  5
515
330
226
100
AcDbEntity
  8
7_ALL_FEATURES
  6
Continuous
 62
     9
100
AcDbSpline
 70
     0
 71
     3
 72
    11
 73
     7
 74
     0
 42
0.000000001
 43
0.0000001
 40
0.0
 40
0.0
 40
0.0
 40
0.0
 40
0.2500450139
 40
0.4999620842
 40
0.7498884458
 40
1.0
 40
1.0
 40
1.0
 40
1.0
 10
261.0007844728
 20
200.5486623911
 30
0.0
 10
260.9617649601
 20
200.5486695299
 30
0.0
 10
260.8828847749
 20
200.5642545149
 30
0.0
 10
260.7832217156
 20
200.6310298179
 30
0.0
 10
260.7164275132
 20
200.7306937957
 30
0.0
 10
260.7008375504
 20
200.8095868033
 30
0.0
 10
260.7008301643
 20
200.8486166996
 30
0.0
  0
LINE
  5
516
330
226
100
AcDbEntity
  8
7_ALL_FEATURES
  6
Continuous
 62
     9
100
AcDbLine
 10
260.70083
 20
200.848617
 30
0.0
 11
260.70083
 21
250.663623
 31
0.0
  0
LINE
  5
517
330
226
100
AcDbEntity
  8
7_ALL_FEATURES
  6
Continuous
 62
     7
100
AcDbLine
 10
312.908288
 20
252.75612
 30
0.0
 11
258.908288
 21
252.75612
 31
0.0
  0
LINE
  5
518
330
226
100
AcDbEntity
  8
7_ALL_FEATURES
  6
Continuous
 62
     9
100
AcDbLine
 10
260.70083
 20
200.848617
 30
0.0
 11
260.500861
 21
200.848617
 31
0.0
  0
LINE
  5
519
330
226
100
AcDbEntity
  8
7_ALL_FEATURES
  6
Continuous
 62
     9
100
AcDbLine
 10
261.000784
 20
200.548662
 30
0.0
 11
261.000784
 21
200.348693
 31
0.0
  0
LINE
  5
51A
330
226
100
AcDbEntity
  8
7_ALL_FEATURES
  6
Continuous
 62
     9
100
AcDbLine
 10
310.815791
 20
200.548662
 30
0.0
 11
310.815791
 21
200.348693
 31
0.0
  0
LINE
  5
51B
330
226
100
AcDbEntity
  8
7_ALL_FEATURES
  6
Continuous
 62
     9
100
AcDbLine
 10
311.115746
 20
200.848617
 30
0.0
 11
311.315715
 21
200.848617
 31
0.0
  0
LINE
  5
51C
330
226
100
AcDbEntity
  8
7_ALL_FEATURES
  6
Continuous
 62
     9
100
AcDbLine
 10
311.115746
 20
250.663623
 30
0.0
 11
311.315715
 21
250.663623
 31
0.0
  0
LINE
  5
51D
330
226
100
AcDbEntity
  8
7_ALL_FEATURES
  6
Continuous
 62
     9
100
AcDbLine
 10
310.815791
 20
250.963578
 30
0.0
 11
310.815791
 21
251.163547
 31
0.0
  0
LINE
  5
51E
330
226
100
AcDbEntity
  8
7_ALL_FEATURES
  6
Continuous
 62
     9
100
AcDbLine
 10
261.000784
 20
250.963578
 30
0.0
 11
261.000784
 21
251.163547
 31
0.0
  0
LINE
  5
51F
330
226
100
AcDbEntity
  8
7_ALL_FEATURES
  6
Continuous
 62
     9
100
AcDbLine
 10
260.70083
 20
250.663623
 30
0.0
 11
260.500861
 21
250.663623
 31
0.0
  0
LINE
  5
520
330
226
100
AcDbEntity
  8
7_ALL_FEATURES
  6
Continuous
 62
     9
100
AcDbLine
 10
259.916939
 20
200.764619
 30
0.0
 11
260.416863
 21
200.764619
 31
0.0
  0
LINE
  5
521
330
226
100
AcDbEntity
  8
7_ALL_FEATURES
  6
Continuous
 62
     9
100
AcDbLine
 10
260.916787
 20
199.764771
 30
0.0
 11
260.916787
 21
200.264695
 31
0.0
  0
LINE
  5
522
330
226
100
AcDbEntity
  8
7_ALL_FEATURES
  6
Continuous
 62
     9
100
AcDbLine
 10
310.899789
 20
199.764771
 30
0.0
 11
310.899789
 21
200.264695
 31
0.0
  0
LINE
  5
523
330
226
100
AcDbEntity
  8
7_ALL_FEATURES
  6
Continuous
 62
     9
100
AcDbLine
 10
311.899636
 20
200.764619
 30
0.0
 11
311.399713
 21
200.764619
 31
0.0
  0
LINE
  5
524
330
226
100
AcDbEntity
  8
7_ALL_FEATURES
  6
Continuous
 62
     9
100
AcDbLine
 10
311.899636
 20
250.747621
 30
0.0
 11
311.399713
 21
250.747621
 31
0.0
  0
LINE
  5
525
330
226
100
AcDbEntity
  8
7_ALL_FEATURES
  6
Continuous
 62
     9
100
AcDbLine
 10
310.899789
 20
251.747469
 30
0.0
 11
310.899789
 21
251.247545
 31
0.0
  0
LINE
  5
526
330
226
100
AcDbEntity
  8
7_ALL_FEATURES
  6
Continuous
 62
     9
100
AcDbLine
 10
260.916787
 20
251.747469
 30
0.0
 11
260.916787
 21
251.247545
 31
0.0
  0
LINE
  5
527
330
226
100
AcDbEntity
  8
7_ALL_FEATURES
  6
Continuous
 62
     9
100
AcDbLine
 10
259.916939
 20
250.747621
 30
0.0
 11
260.416863
 21
250.747621
 31
0.0
  0
SPLINE
  5
528
330
226
100
AcDbEntity
  8
7_ALL_FEATURES
  6
Continuous
 62
     9
100
AcDbSpline
 70
     0
 71
     3
 72
    11
 73
     7
 74
     0
 42
0.000000001
 43
0.0000001
 40
0.0
 40
0.0
 40
0.0
 40
0.0
 40
0.250006759
 40
0.4999886077
 40
0.7499883169
 40
1.0
 40
1.0
 40
1.0
 40
1.0
 10
311.3997126385
 20
200.7646191449
 30
0.0
 10
311.3997262939
 20
200.6995899771
 30
0.0
 10
311.3737838185
 20
200.5680951958
 30
0.0
 10
311.2624954582
 20
200.4019192229
 30
0.0
 10
311.0963197389
 20
200.2906268298
 30
0.0
 10
310.9648192398
 20
200.2646820571
 30
0.0
 10
310.899788791
 20
200.2646952974
 30
0.0
  0
ARC
  5
529
330
226
100
AcDbEntity
  8
7_ALL_FEATURES
  6
Continuous
 62
     9
100
AcDbCircle
 10
310.815736
 20
200.848672
 30
0.0
 40
0.499979556
100
AcDbArc
 50
270.006384
 51
359.993616
  0
SPLINE
  5
52A
330
226
100
AcDbEntity
  8
7_ALL_FEATURES
  6
Continuous
 62
     9
100
AcDbSpline
 70
     0
 71
     3
 72
    11
 73
     7
 74
     0
 42
0.000000001
 43
0.0000001
 40
0.0
 40
0.0
 40
0.0
 40
0.0
 40
0.2500858239
 40
0.5000976
 40
0.7499952363
 40
1.0
 40
1.0
 40
1.0
 40
1.0
 10
310.899788791
 20
251.2475448653
 30
0.0
 10
310.9648390657
 20
251.2475597971
 30
0.0
 10
311.0963560647
 20
251.221585514
 30
0.0
 10
311.2625524799
 20
251.1103134046
 30
0.0
 10
311.3737758556
 20
250.944116096
 30
0.0
 10
311.3997287612
 20
250.8126502074
 30
0.0
 10
311.3997126385
 20
250.7476210177
 30
0.0
  0
SPLINE
  5
52B
330
226
100
AcDbEntity
  8
7_ALL_FEATURES
  6
Continuous
 62
     9
100
AcDbSpline
 70
     0
 71
     3
 72
    11
 73
     7
 74
     0
 42
0.000000001
 43
0.0000001
 40
0.0
 40
0.0
 40
0.0
 40
0.0
 40
0.2500435471
 40
0.4999620975
 40
0.7498899208
 40
1.0
 40
1.0
 40
1.0
 40
1.0
 10
310.8157912363
 20
251.1635473106
 30
0.0
 10
310.8808205908
 20
251.1635367875
 30
0.0
 10
311.0122769889
 20
251.137529981
 30
0.0
 10
311.1783695334
 20
251.0262419034
 30
0.0
 10
311.2896889199
 20
250.8601479069
 30
0.0
 10
311.3157045491
 20
250.7286701207
 30
0.0
 10
311.3157150839
 20
250.6636234631
 30
0.0
  0
SPLINE
  5
52C
330
226
100
AcDbEntity
  8
7_ALL_FEATURES
  6
Continuous
 62
     9
100
AcDbSpline
 70
     0
 71
     3
 72
    11
 73
     7
 74
     0
 42
0.000000001
 43
0.0000001
 40
0.0
 40
0.0
 40
0.0
 40
0.0
 40
0.2500858239
 40
0.5000976
 40
0.7499952363
 40
1.0
 40
1.0
 40
1.0
 40
1.0
 10
260.4168630706
 20
250.7476210177
 30
0.0
 10
260.4168481388
 20
250.8126712924
 30
0.0
 10
260.4428224219
 20
250.9441882915
 30
0.0
 10
260.5540945313
 20
251.1103847067
 30
0.0
 10
260.7202918399
 20
251.2216080824
 30
0.0
 10
260.8517577285
 20
251.247560988
 30
0.0
 10
260.9167869182
 20
251.2475448653
 30
0.0
  0
SPLINE
  5
52D
330
226
100
AcDbEntity
  8
7_ALL_FEATURES
  6
Continuous
 62
     9
100
AcDbSpline
 70
     0
 71
     3
 72
    11
 73
     7
 74
     0
 42
0.000000001
 43
0.0000001
 40
0.0
 40
0.0
 40
0.0
 40
0.0
 40
0.2500435471
 40
0.4999620975
 40
0.7498899208
 40
1.0
 40
1.0
 40
1.0
 40
1.0
 10
260.5008606253
 20
250.6636234631
 30
0.0
 10
260.5008711484
 20
250.7286528176
 30
0.0
 10
260.5268779549
 20
250.8601092157
 30
0.0
 10
260.6381660325
 20
251.0262017602
 30
0.0
 10
260.804260029
 20
251.1375211467
 30
0.0
 10
260.9357378152
 20
251.1635367758
 30
0.0
 10
261.0007844728
 20
251.1635473106
 30
0.0
  0
SPLINE
  5
52E
330
226
100
AcDbEntity
  8
7_ALL_FEATURES
  6
Continuous
 62
     9
100
AcDbSpline
 70
     0
 71
     3
 72
    11
 73
     7
 74
     0
 42
0.000000001
 43
0.0000001
 40
0.0
 40
0.0
 40
0.0
 40
0.0
 40
0.2500858239
 40
0.5000976
 40
0.7499952363
 40
1.0
 40
1.0
 40
1.0
 40
1.0
 10
260.9167869182
 20
200.2646952974
 30
0.0
 10
260.8517366435
 20
200.2646803656
 30
0.0
 10
260.7202196444
 20
200.2906546486
 30
0.0
 10
260.5540232293
 20
200.4019267581
 30
0.0
 10
260.4427998535
 20
200.5681240667
 30
0.0
 10
260.4168469479
 20
200.6995899553
 30
0.0
 10
260.4168630706
 20
200.7646191449
 30
0.0
  0
SPLINE
  5
52F
330
226
100
AcDbEntity
  8
7_ALL_FEATURES
  6
Continuous
 62
     9
100
AcDbSpline
 70
     0
 71
     3
 72
    11
 73
     7
 74
     0
 42
0.000000001
 43
0.0000001
 40
0.0
 40
0.0
 40
0.0
 40
0.0
 40
0.2500435471
 40
0.4999620975
 40
0.7498899208
 40
1.0
 40
1.0
 40
1.0
 40
1.0
 10
261.0007844728
 20
200.348692852
 30
0.0
 10
260.9357551183
 20
200.3487033752
 30
0.0
 10
260.8042987202
 20
200.3747101817
 30
0.0
 10
260.6382061757
 20
200.4859982593
 30
0.0
 10
260.5268867892
 20
200.6520922558
 30
0.0
 10
260.5008711601
 20
200.7835700419
 30
0.0
 10
260.5008606253
 20
200.8486166996
 30
0.0
  0
LINE
  5
530
330
226
100
AcDbEntity
  8
7_ALL_FEATURES
  6
Continuous
 62
     7
100
AcDbLine
 10
313.158288
 20
253.00612
 30
0.0
 11
312.908288
 21
252.75612
 31
0.0
  0
LINE
  5
531
330
226
100
AcDbEntity
  8
7_ALL_FEATURES
  6
Continuous
 62
     7
100
AcDbLine
 10
313.158288
 20
198.50612
 30
0.0
 11
312.908288
 21
198.75612
 31
0.0
  0
LINE
  5
532
330
226
100
AcDbEntity
  8
7_ALL_FEATURES
  6
Continuous
 62
     7
100
AcDbLine
 10
258.658288
 20
198.50612
 30
0.0
 11
258.908288
 21
198.75612
 31
0.0
  0
LINE
  5
533
330
226
100
AcDbEntity
  8
7_ALL_FEATURES
  6
Continuous
 62
     7
100
AcDbLine
 10
258.658288
 20
253.00612
 30
0.0
 11
258.908288
 21
252.75612
 31
0.0
  0
LINE
  5
534
330
226
100
AcDbEntity
  8
7_ALL_FEATURES
  6
Continuous
 62
     9
100
AcDbLine
 10
311.315715
 20
250.663623
 30
0.0
 11
311.315715
 21
200.848617
 31
0.0
  0
LINE
  5
535
330
226
100
AcDbEntity
  8
7_ALL_FEATURES
  6
Continuous
 62
     9
100
AcDbLine
 10
311.399713
 20
250.747621
 30
0.0
 11
311.315715
 21
250.663623
 31
0.0
  0
LINE
  5
536
330
226
100
AcDbEntity
  8
7_ALL_FEATURES
  6
Continuous
 62
     9
100
AcDbLine
 10
311.399713
 20
250.747621
 30
0.0
 11
311.399713
 21
200.764619
 31
0.0
  0
LINE
  5
537
330
226
100
AcDbEntity
  8
7_ALL_FEATURES
  6
Continuous
 62
     9
100
AcDbLine
 10
311.315715
 20
200.848617
 30
0.0
 11
311.399713
 21
200.764619
 31
0.0
  0
LINE
  5
538
330
226
100
AcDbEntity
  8
7_ALL_FEATURES
  6
Continuous
 62
     9
100
AcDbLine
 10
261.000784
 20
251.163547
 30
0.0
 11
310.815791
 21
251.163547
 31
0.0
  0
LINE
  5
539
330
226
100
AcDbEntity
  8
7_ALL_FEATURES
  6
Continuous
 62
     9
100
AcDbLine
 10
260.916787
 20
251.247545
 30
0.0
 11
261.000784
 21
251.163547
 31
0.0
  0
LINE
  5
53A
330
226
100
AcDbEntity
  8
7_ALL_FEATURES
  6
Continuous
 62
     9
100
AcDbLine
 10
260.916787
 20
251.247545
 30
0.0
 11
310.899789
 21
251.247545
 31
0.0
  0
LINE
  5
53B
330
226
100
AcDbEntity
  8
7_ALL_FEATURES
  6
Continuous
 62
     9
100
AcDbLine
 10
310.899789
 20
251.247545
 30
0.0
 11
310.815791
 21
251.163547
 31
0.0
  0
LINE
  5
53C
330
226
100
AcDbEntity
  8
7_ALL_FEATURES
  6
Continuous
 62
     9
100
AcDbLine
 10
260.500861
 20
200.848617
 30
0.0
 11
260.500861
 21
250.663623
 31
0.0
  0
LINE
  5
53D
330
226
100
AcDbEntity
  8
7_ALL_FEATURES
  6
Continuous
 62
     9
100
AcDbLine
 10
260.416863
 20
200.764619
 30
0.0
 11
260.500861
 21
200.848617
 31
0.0
  0
LINE
  5
53E
330
226
100
AcDbEntity
  8
7_ALL_FEATURES
  6
Continuous
 62
     9
100
AcDbLine
 10
260.416863
 20
200.764619
 30
0.0
 11
260.416863
 21
250.747621
 31
0.0
  0
LINE
  5
53F
330
226
100
AcDbEntity
  8
7_ALL_FEATURES
  6
Continuous
 62
     9
100
AcDbLine
 10
260.416863
 20
250.747621
 30
0.0
 11
260.500861
 21
250.663623
 31
0.0
  0
LINE
  5
540
330
226
100
AcDbEntity
  8
7_ALL_FEATURES
  6
Continuous
 62
     9
100
AcDbLine
 10
310.815791
 20
200.348693
 30
0.0
 11
261.000784
 21
200.348693
 31
0.0
  0
LINE
  5
541
330
226
100
AcDbEntity
  8
7_ALL_FEATURES
  6
Continuous
 62
     9
100
AcDbLine
 10
310.815791
 20
200.348693
 30
0.0
 11
310.899789
 21
200.264695
 31
0.0
  0
LINE
  5
542
330
226
100
AcDbEntity
  8
7_ALL_FEATURES
  6
Continuous
 62
     9
100
AcDbLine
 10
310.899789
 20
200.264695
 30
0.0
 11
260.916787
 21
200.264695
 31
0.0
  0
LINE
  5
543
330
226
100
AcDbEntity
  8
7_ALL_FEATURES
  6
Continuous
 62
     9
100
AcDbLine
 10
260.916787
 20
200.264695
 30
0.0
 11
261.000784
 21
200.348693
 31
0.0
  0
LINE
  5
544
330
226
100
AcDbEntity
  8
7_ALL_FEATURES
  6
Continuous
 62
     3
100
AcDbLine
 10
263.908288
 20
157.75612
 30
0.0
 11
307.908288
 21
157.75612
 31
0.0
  0
LINE
  5
545
330
226
100
AcDbEntity
  8
7_ALL_FEATURES
  6
Continuous
 62
     3
100
AcDbLine
 10
310.908288
 20
198.25612
 30
0.0
 11
310.908288
 21
169.501697
 31
0.0
  0
LINE
  5
546
330
226
100
AcDbEntity
  8
7_ALL_FEATURES
  6
Continuous
 62
     3
100
AcDbLine
 10
310.908288
 20
161.687074
 30
0.0
 11
310.908288
 21
160.75612
 31
0.0
  0
ARC
  5
547
330
226
100
AcDbEntity
  8
7_ALL_FEATURES
  6
Continuous
 62
     3
100
AcDbCircle
 10
307.908288
 20
160.75612
 30
0.0
 40
3.0
100
AcDbArc
 50
270.0
 51
360.0
  0
LINE
  5
548
330
226
100
AcDbEntity
  8
7_ALL_FEATURES
  6
Continuous
 62
     3
100
AcDbLine
 10
260.908288
 20
160.75612
 30
0.0
 11
260.908288
 21
161.687074
 31
0.0
  0
LINE
  5
549
330
226
100
AcDbEntity
  8
7_ALL_FEATURES
  6
Continuous
 62
     3
100
AcDbLine
 10
260.908288
 20
169.501697
 30
0.0
 11
260.908288
 21
198.25612
 31
0.0
  0
ARC
  5
54A
330
226
100
AcDbEntity
  8
7_ALL_FEATURES
  6
Continuous
 62
     3
100
AcDbCircle
 10
263.908288
 20
160.75612
 30
0.0
 40
3.0
100
AcDbArc
 50
180.0
 51
270.0
  0
LINE
  5
54B
330
226
100
AcDbEntity
  8
7_ALL_FEATURES
  6
Continuous
 62
     3
100
AcDbLine
 10
310.908288
 20
161.687074
 30
0.0
 11
310.908288
 21
169.501697
 31
0.0
  0
LINE
  5
54C
330
226
100
AcDbEntity
  8
7_ALL_FEATURES
  6
Continuous
 62
     3
100
AcDbLine
 10
260.908288
 20
169.501697
 30
0.0
 11
260.908288
 21
161.687074
 31
0.0
  0
DIMENSION
  5
54D
330
226
100
AcDbEntity
  8
0
  6
Continuous
 62
     2
100
AcDbDimension
280
     0
  2
*D1
 10
50.460539
 20
155.75612
 30
0.0
 11
50.460539
 21
204.507799
 31
0.0
 70
   160
 71
     2
 42
97.5
 73
     0
 74
     0
 75
     0
  3
DIMSTYLE_1
100
AcDbAlignedDimension
 13
84.393325
 23
253.25612
 33
0.0
 14
146.393325
 24
155.75612
 34
0.0
 50
270.0
100
AcDbRotatedDimension
  0
DIMENSION
  5
54E
330
226
100
AcDbEntity
  8
0
  6
Continuous
 62
     2
100
AcDbDimension
280
     0
  2
*D2
 10
143.893325
 20
269.190135
 30
0.0
 11
113.874128
 21
269.190135
 31
0.0
 70
   160
 71
     2
 42
60.0
 73
     0
 74
     0
 75
     0
  3
DIMSTYLE_1
100
AcDbAlignedDimension
 13
83.893325
 23
252.75612
 33
0.0
 14
143.893325
 24
252.75612
 34
0.0
100
AcDbRotatedDimension
  0
DIMENSION
  5
54F
330
226
100
AcDbEntity
  8
0
  6
Continuous
 62
     2
100
AcDbDimension
280
     0
  2
*D3
 10
171.393325
 20
119.327275
 30
0.0
 11
127.639427
 21
119.327275
 31
0.0
 70
   160
 71
     2
 42
87.5
 73
     0
 74
     0
 75
     0
  3
DIMSTYLE_1
100
AcDbAlignedDimension
 13
83.893325
 23
99.70294
 33
0.0
 14
171.393325
 24
94.70294
 34
0.0
100
AcDbRotatedDimension
  0
DIMENSION
  5
550
330
226
100
AcDbEntity
  8
0
  6
Continuous
 62
     2
100
AcDbDimension
280
     0
  2
*D4
 10
313.408288
 20
269.190135
 30
0.0
 11
285.911385
 21
269.190135
 31
0.0
 70
   160
 71
     2
 42
55.0
 73
     0
 74
     0
 75
     0
  3
DIMSTYLE_1
100
AcDbAlignedDimension
 13
258.408288
 23
252.75612
 33
0.0
 14
313.408288
 24
252.75612
 34
0.0
100
AcDbRotatedDimension
  0
DIMENSION
  5
551
330
226
100
AcDbEntity
  8
0
  6
Continuous
 62
     2
100
AcDbDimension
280
     0
  2
*D5
 10
240.332767
 20
198.25612
 30
0.0
 11
240.332767
 21
225.759217
 31
0.0
 70
   160
 71
     2
 42
55.0
 73
     0
 74
     0
 75
     0
  3
DIMSTYLE_1
100
AcDbAlignedDimension
 13
258.908288
 23
253.25612
 33
0.0
 14
258.908288
 24
198.25612
 34
0.0
 50
270.0
100
AcDbRotatedDimension
  0
DIMENSION
  5
552
330
226
100
AcDbEntity
  8
0
  6
Continuous
 62
     2
100
AcDbDimension
280
     0
  2
*D6
 10
51.408528
 20
42.20294
 30
0.0
 11
51.408528
 21
72.393779
 31
0.0
 70
   160
 71
     2
 42
61.0
 73
     0
 74
     0
 75
     0
  3
DIMSTYLE_1
100
AcDbAlignedDimension
 13
130.268527
 23
103.20294
 33
0.0
 14
130.268527
 24
42.20294
 34
0.0
 50
270.0
100
AcDbRotatedDimension
  0
DIMENSION
  5
553
330
226
100
AcDbEntity
  8
0
  6
Continuous
 62
     2
100
AcDbDimension
280
     0
  2
*D7
 10
312.908288
 20
138.555699
 30
0.0
 11
285.900234
 21
138.555699
 31
0.0
 70
   160
 71
     2
 42
54.0
 73
     0
 74
     0
 75
     0
  3
DIMSTYLE_1
100
AcDbAlignedDimension
 13
258.908288
 23
169.501697
 33
0.0
 14
312.908288
 24
169.501697
 34
0.0
100
AcDbRotatedDimension
  0
INSERT
  5
554
330
226
100
AcDbEntity
  8
0
  6
Continuous
 62
     2
100
AcDbBlockReference
  2
LOGO2_BL0
 10
332.658787
 20
37.966566
 30
0.0
  0
ACAD_TABLE
  5
555
102
{ACAD_XDICTIONARY
360
5AC
102
}
330
226
100
AcDbEntity
  8
0
  6
Continuous
 62
     2
160
              3304
310
E80C000017000000880000001D000000000000000000F03F00000000000000000000000000000000B2E535E752ED73400000000000000000000000000000F03F0000000000000000131A5172B8BB494000000000000000000000000000000000000000000000F03F0000000000000000000000000000000000000000000000
310
000000000000000000000000000000F03F54000000200000000200000000000000000000000000000000000000000000000000000000000000008056400000000000000000000000000000000000000000000000000000000000000000000000000000F03F5400000020000000020000000000000000000000000000000000
310
00000000000000000000000000000000000000000000000044C0000000000000000000000000000000000000000000000000000000000000F03F5400000020000000020000000000000000003E4000000000000018C00000000000000000000000000080564000000000000018C00000000000000000000000000000000000
310
00000000000000000000000000F03F5400000020000000020000000000000000003E4000000000000028C00000000000000000000000000080564000000000000028C0000000000000000000000000000000000000000000000000000000000000F03F5400000020000000020000000000000000003E4000000000000036C0
310
0000000000000000000000000080564000000000000036C0000000000000000000000000000000000000000000000000000000000000F03F54000000200000000200000000000000000000000000000000003BC0000000000000000000000000008056400000000000003BC000000000000000000000000000000000000000
310
0000000000000000000000F03F540000002000000002000000000000000000000000000000000044C00000000000000000000000000080564000000000000044C0000000000000000000000000000000000000000000000000000000000000F03F5400000020000000020000000000000000003E4000000000000000000000
310
0000000000000000000000003E400000000000003BC0000000000000000000000000000000000000000000000000000000000000F03F540000002000000002000000000000000080514000000000000000000000000000000000000000000080514000000000000028C0000000000000000000000000000000000000000000
310
000000000000000000F03F540000002000000002000000000000000080564000000000000000000000000000000000000000000080564000000000000044C0000000000000000000000000000000000000000000000000000000000000F03F0C0000001000000024000000D000000026000000CDCCCCCCCC7C3F404E621058
310
393412C0000000000000000000000000000000000000000000000000000000000000F03F000000000000F03F0000000000000000000000000000000041003200350035005F0043005F003400300031000000000014000000010000000000000000000840000000000000F03F0000000000000000000000000000F03F000000
310
0000000000000000000000000000000000000000000000000000000000000000000000000061007200690061006C002E00740074006600000000000000C800000026000000C2F5285C8FC6514075931804560E13C0000000000000000000000000000000000000000000000000000000000000F03F000000000000F03F0000
310
00000000000000000000000000005200650076003A0030003000000000000C000000010000000000000000000C40000000000000F03F0000000000000000000000000000F03F0000000000000000000000000000000000000000000000000000000000000000000000000000000061007200690061006C002E007400740066
310
00000000000000CC00000026000000FA7E6ABC74433F405839B4C8769E26C0000000000000000000000000000000000000000000000000000000000000F03F000000000000F03F000000000000000000000000000000005300630061006C0065003A0031003A003100000012000000010000000000000000000C4000000000
310
0000F03F0000000000000000000000000000F03F0000000000000000000000000000000000000000000000000000000000000000000000000000000061007200690061006C002E00740074006600000000000000C0000000260000003333333333DF5140BA490C022B8725C000000000000000000000000000000000000000
310
0000000000000000000000F03F000000000000F03F00000000000000000000000000000000410033000000000004000000010000000000000000000C40000000000000F03F0000000000000000000000000000F03F000000000000000000000000000000000000000000000000000000000000000000000000000000006100
310
7200690061006C002E00740074006600000000000000CC000000260000000AD7A3703D1A3F40AC1C5A643BCF32C0000000000000000000000000000000000000000000000000000000000000F03F000000000000F03F000000000000000000000000000000005200450049004B004F00200032002E00300000001200000001
310
0000000000000000000C40000000000000F03F0000000000000000000000000000F03F0000000000000000000000000000000000000000000000000000000000000000000000000000000061007200690061006C002E00740074006600000000000000D40000002600000048E17A14AE373F40C3F5285C8FC239C000000000
310
0000000000000000000000000000000000000000000000000000F03F000000000000F03F0000000000000000000000000000000044004100540045003A00310034002E00300032002E003200330000001A000000010000000000000000000440000000000000F03F0000000000000000000000000000F03F00000000000000
310
00000000000000000000000000000000000000000000000000000000000000000061007200690061006C002E007400740066000000000000002401000026000000CDCCCCCCCCCCF73F0000000000903DC0000000000000000000000000000000000000000000000000000000000000F03F000000000000F03F000000000000
310
0000000000000000000041006E007900200069006E00740065006700720061006C0020006F00720020007000610072007400690061006C00200072006500700072006F00640075006300740069006F006E00730020006100720065002000700072006F00680069006200690074006500640000000000680000000100000000
310
00000000000240000000000000F03F0000000000000000000000000000F03F0000000000000000000000000000000000000000000000000000000000000000000000000000000061007200690061006C002E007400740066000000000000002C01000026000000FED478E926B1F73F37894160E57C40C00000000000000000
310
00000000000000000000000000000000000000000000F03F000000000000F03F0000000000000000000000000000000077006900740068006F007500740020007000720069006F007200200061007500740068006F007200690073006100740069006F006E0020006F00660020004C002000260020004C0020004C00750063
310
0065002000260020004C006900670068007400200073002E0072002E006C002E002C00000072000000010000000000000000000240000000000000F03F0000000000000000000000000000F03F0000000000000000000000000000000000000000000000000000000000000000000000000000000061007200690061006C00
310
2E007400740066000000000000000401000026000000C1CAA145B673F43F4F1E166A4D3142C0000000000000000000000000000000000000000000000000000000000000F03F000000000000F03F0000000000000000000000000000000069006E0020006100630063006F007200640061006E006300650020007700690074
310
006800200074006800650020006C0061007700200069006E00200066006F007200630065002E000000000048000000010000000000000000000240000000000000F03F0000000000000000000000000000F03F0000000000000000000000000000000000000000000000000000000000000000000000000000000061007200
310
690061006C002E00740074006600000000000000E400000026000000CDCCCCCCCCCCF73F302AA913D0E043C0000000000000000000000000000000000000000000000000000000000000F03F000000000000F03F0000000000000000000000000000000041006C006C00200072006900670068007400730020007200650073
310
00650072007600650064002E000000000028000000010000000000000000000240000000000000F03F0000000000000000000000000000F03F0000000000000000000000000000000000000000000000000000000000000000000000000000000061007200690061006C002E00740074006600000000000000080000001F00
310
0000
100
AcDbBlockReference
  2
*T9
 10
318.83274
 20
51.466566
 30
0.0
100
AcDbTable
342
57E
343
231
 11
1.0
 21
0.0
 31
0.0
 90
       22
 91
        5
 92
        5
 93
        0
 94
        0
 95
        0
 96
        0
141
6.0
141
6.0
141
10.0
141
5.0
141
13.0
142
10.0
142
10.0
142
10.0
142
40.0
142
20.0
171
     1
172
     0
173
     0
174
     0
175
     3
176
     4
 91
       32
178
     0
145
0.0
140
3.5
 92
        0
301
CELL_VALUE
 93
        2
 90
        4
  1
 
 94
        0
300

302
 
304
ACVALUE_END
171
     1
172
     0
173
     1
174
     0
175
     1
176
     1
 91
        0
178
     0
145
0.0
 92
        0
301
CELL_VALUE
 93
        3
 90
        0
 91
        0
 94
        0
300

302

304
ACVALUE_END
171
     1
172
     0
173
     1
174
     0
175
     1
176
     1
 91
        0
178
     0
145
0.0
 92
        0
301
CELL_VALUE
 93
        3
 90
        0
 91
        0
 94
        0
300

302

304
ACVALUE_END
171
     1
172
     0
173
     0
174
     0
175
     1
176
     1
 91
       33
178
     0
145
0.0
170
     4
140
3.0
 92
        0
301
CELL_VALUE
 93
        2
 90
        4
  1
A255_C_401
 94
        0
300

302
A255_C_401
304
ACVALUE_END
171
     1
172
     0
173
     0
174
     0
175
     1
176
     1
 91
       33
178
     0
145
0.0
170
     4
140
3.5
 92
        0
301
CELL_VALUE
 93
        2
 90
        4
  1
Rev:00
 94
        0
300

302
Rev:00
304
ACVALUE_END
171
     1
172
     0
173
     1
174
     0
175
     1
176
     1
 91
        0
178
     0
145
0.0
 92
        0
301
CELL_VALUE
 93
        3
 90
        0
 91
        0
 94
        0
300

302

304
ACVALUE_END
171
     1
172
     0
173
     1
174
     0
175
     1
176
     1
 91
        0
178
     0
145
0.0
 92
        0
301
CELL_VALUE
 93
        3
 90
        0
 91
        0
 94
        0
300

302

304
ACVALUE_END
171
     1
172
     0
173
     1
174
     0
175
     1
176
     1
 91
        0
178
     0
145
0.0
 92
        0
301
CELL_VALUE
 93
        3
 90
        0
 91
        0
 94
        0
300

302

304
ACVALUE_END
171
     1
172
     0
173
     0
174
     0
175
     1
176
     1
 91
       33
178
     0
145
0.0
170
     1
140
3.5
 92
        0
301
CELL_VALUE
 93
        2
 90
        4
  1
Scale:1:1
 94
        0
300

302
Scale:1:1
304
ACVALUE_END
171
     1
172
     0
173
     0
174
     0
175
     1
176
     1
 91
       33
178
     0
145
0.0
170
     4
140
3.5
 92
        0
301
CELL_VALUE
 93
        2
 90
        4
  1
A3
 94
        0
300

302
A3
304
ACVALUE_END
171
     1
172
     0
173
     1
174
     0
175
     1
176
     1
 91
        0
178
     0
145
0.0
 92
        0
301
CELL_VALUE
 93
        3
 90
        0
 91
        0
 94
        0
300

302

304
ACVALUE_END
171
     1
172
     0
173
     1
174
     0
175
     1
176
     1
 91
        0
178
     0
145
0.0
 92
        0
301
CELL_VALUE
 93
        3
 90
        0
 91
        0
 94
        0
300

302

304
ACVALUE_END
171
     1
172
     0
173
     1
174
     0
175
     1
176
     1
 91
        0
178
     0
145
0.0
 92
        0
301
CELL_VALUE
 93
        3
 90
        0
 91
        0
 94
        0
300

302

304
ACVALUE_END
171
     1
172
     0
173
     0
174
     0
175
     2
176
     1
 91
       33
178
     0
145
0.0
170
     4
140
3.5
 92
        0
301
CELL_VALUE
 93
        2
 90
        4
  1
REIKO 2.0
 94
        0
300

302
REIKO 2.0
304
ACVALUE_END
171
     1
172
     0
173
     1
174
     0
175
     1
176
     1
 91
        0
178
     0
145
0.0
 92
        0
301
CELL_VALUE
 93
        3
 90
        0
 91
        0
 94
        0
300

302

304
ACVALUE_END
171
     1
172
     0
173
     1
174
     0
175
     1
176
     1
 91
        0
178
     0
145
0.0
 92
        0
301
CELL_VALUE
 93
        3
 90
        0
 91
        0
 94
        0
300

302

304
ACVALUE_END
171
     1
172
     0
173
     1
174
     0
175
     1
176
     1
 91
        0
178
     0
145
0.0
 92
        0
301
CELL_VALUE
 93
        3
 90
        0
 91
        0
 94
        0
300

302

304
ACVALUE_END
171
     1
172
     0
173
     1
174
     0
175
     1
176
     1
 91
        0
178
     0
145
0.0
 92
        0
301
CELL_VALUE
 93
        3
 90
        0
 91
        0
 94
        0
300

302

304
ACVALUE_END
171
     1
172
     0
173
     0
174
     0
175
     2
176
     1
 91
       33
178
     0
145
0.0
170
     4
140
2.5
 92
        0
301
CELL_VALUE
 93
        2
 90
        4
  1
DATE:14.02.23
 94
        0
300

302
DATE:14.02.23
304
ACVALUE_END
171
     1
172
     0
173
     1
174
     0
175
     1
176
     1
 91
        0
178
     0
145
0.0
 92
        0
301
CELL_VALUE
 93
        3
 90
        0
 91
        0
 94
        0
300

302

304
ACVALUE_END
171
     1
172
     0
173
     0
174
     0
175
     5
176
     1
 91
       33
178
     0
145
0.0
170
     4
140
2.25
 92
        0
301
CELL_VALUE
 93
        2
 90
        4
  1
Any integral or partial reproductions are prohibited \Pwithout prior authorisation of L & L Luce & Light s.r.l., \Pin accordance with the law in force. \PAll rights reserved.
 94
        0
300

302
Any integral or partial reproductions are prohibited \Pwithout prior authorisation of L & L Luce & Light s.r.l., \Pin accordance with the law in force. \PAll rights reserved.
304
ACVALUE_END
171
     1
172
     0
173
     1
174
     0
175
     1
176
     1
 91
        0
178
     0
145
0.0
 92
        0
301
CELL_VALUE
 93
        3
 90
        0
 91
        0
 94
        0
300

302

304
ACVALUE_END
171
     1
172
     0
173
     1
174
     0
175
     1
176
     1
 91
        0
178
     0
145
0.0
 92
        0
301
CELL_VALUE
 93
        3
 90
        0
 91
        0
 94
        0
300

302

304
ACVALUE_END
171
     1
172
     0
173
     1
174
     0
175
     1
176
     1
 91
        0
178
     0
145
0.0
 92
        0
301
CELL_VALUE
 93
        3
 90
        0
 91
        0
 94
        0
300

302

304
ACVALUE_END
171
     1
172
     0
173
     1
174
     0
175
     1
176
     1
 91
        0
178
     0
145
0.0
 92
        0
301
CELL_VALUE
 93
        3
 90
        0
 91
        0
 94
        0
300

302

304
ACVALUE_END
  0
ENDSEC
  0
SECTION
  2
OBJECTS
  0
DICTIONARY
  5
C
330
0
100
AcDbDictionary
281
     1
  3
ACAD_DETAILVIEWSTYLE
350
5B5
  3
ACAD_GROUP
350
D
  3
ACAD_IMAGE_DICT
350
5A5
  3
ACAD_LAYOUT
350
1A
  3
ACAD_MATERIAL
350
599
  3
ACAD_MLEADERSTYLE
350
5B4
  3
ACAD_MLINESTYLE
350
17
  3
ACAD_PLOTSETTINGS
350
19
  3
ACAD_PLOTSTYLENAME
350
E
  3
ACAD_SCALELIST
350
55B
  3
ACAD_SECTIONVIEWSTYLE
350
5B6
  3
ACAD_TABLESTYLE
350
57D
  3
ACAD_VISUALSTYLE
350
580
  3
ACDB_RECOMPOSE_DATA
350
5B2
  3
AcDbVariableDictionary
350
5AE
  3
HOST_DOC_SETTINGS
350
5A3
  3
MCS_STREAM_DICT
350
59F
  0
SUN
  5
5A2
330
1F4
100
AcDbSun
 90
        1
290
     0
 63
     7
421
 16777215
 40
1.0
291
     1
 91
  2455826
 92
 54000000
292
     0
 70
     2
 71
   256
280
     1
  0
DICTIONARY
  5
5AC
330
555
100
AcDbDictionary
280
     1
281
     1
  3
ACAD_XREC_ROUNDTRIP
360
5AD
  0
DICTIONARY
  5
5B5
102
{ACAD_REACTORS
330
C
102
}
330
C
100
AcDbDictionary
281
     1
  0
DICTIONARY
  5
D
102
{ACAD_REACTORS
330
C
102
}
330
C
100
AcDbDictionary
281
     1
  0
DICTIONARY
  5
5A5
102
{ACAD_REACTORS
330
C
102
}
330
C
100
AcDbDictionary
281
     1
  0
DICTIONARY
  5
1A
102
{ACAD_REACTORS
330
C
102
}
330
C
100
AcDbDictionary
281
     1
  3
Layout1
350
558
  3
Model
350
557
  0
DICTIONARY
  5
599
102
{ACAD_REACTORS
330
C
102
}
330
C
100
AcDbDictionary
281
     1
  3
ByBlock
350
59B
  3
ByLayer
350
59A
  3
Global
350
59C
  0
DICTIONARY
  5
5B4
102
{ACAD_REACTORS
330
C
102
}
330
C
100
AcDbDictionary
281
     1
  0
DICTIONARY
  5
17
102
{ACAD_REACTORS
330
C
102
}
330
C
100
AcDbDictionary
281
     1
  3
Standard
350
18
  0
DICTIONARY
  5
19
102
{ACAD_REACTORS
330
C
102
}
330
C
100
AcDbDictionary
281
     1
  0
ACDBDICTIONARYWDFLT
  5
E
102
{ACAD_REACTORS
330
C
102
}
330
C
100
AcDbDictionary
281
     1
  3
Normal
350
F
100
AcDbDictionaryWithDefault
340
F
  0
DICTIONARY
  5
55B
102
{ACAD_REACTORS
330
C
102
}
330
C
100
AcDbDictionary
281
     1
  3
A0
350
55C
  3
A1
350
55D
  3
A2
350
55E
  3
A3
350
55F
  3
A4
350
560
  3
A5
350
561
  3
A6
350
562
  3
A7
350
563
  3
A8
350
564
  3
A9
350
565
  3
B0
350
566
  3
B1
350
567
  3
B2
350
568
  3
B3
350
569
  3
B4
350
56A
  3
B5
350
56B
  3
B6
350
56C
  3
B7
350
56D
  3
B8
350
56E
  3
B9
350
56F
  3
C0
350
570
  3
C1
350
571
  3
C2
350
572
  3
C3
350
573
  3
C4
350
574
  3
C5
350
575
  3
C6
350
576
  3
C7
350
577
  3
C8
350
578
  3
C9
350
579
  3
D0
350
57A
  3
D1
350
57B
  3
D2
350
57C
  0
DICTIONARY
  5
5B6
102
{ACAD_REACTORS
330
C
102
}
330
C
100
AcDbDictionary
281
     1
  0
DICTIONARY
  5
57D
102
{ACAD_REACTORS
330
C
102
}
330
C
100
AcDbDictionary
281
     1
  3
Standard
350
57E
  0
DICTIONARY
  5
580
102
{ACAD_REACTORS
330
C
102
}
330
C
100
AcDbDictionary
281
     1
  3
2dWireframe
350
585
  3
Basic
350
588
  3
Brighten
350
58C
  3
ColorChange
350
590
  3
Conceptual
350
58A
  3
Dim
350
58B
  3
EdgeColorOff
350
593
  3
Facepattern
350
58F
  3
Flat
350
581
  3
FlatWithEdges
350
582
  3
Gouraud
350
583
  3
GouraudWithEdges
350
584
  3
Hidden
350
587
  3
JitterOff
350
591
  3
Linepattern
350
58E
  3
OverhangOff
350
592
  3
Realistic
350
589
  3
Shaded
350
598
  3
Shaded with edges
350
597
  3
Shades of Gray
350
594
  3
Sketchy
350
595
  3
Thicken
350
58D
  3
Wireframe
350
586
  3
X-Ray
350
596
  0
XRECORD
  5
5B2
102
{ACAD_REACTORS
330
C
102
}
330
C
100
AcDbXrecord
280
     1
 90
        1
330
555
330
57E
  0
DICTIONARY
  5
5AE
102
{ACAD_REACTORS
330
C
102
}
330
C
100
AcDbDictionary
281
     1
  3
CANNOSCALE
350
5AF
  3
CTABLESTYLE
350
5B3
  0
DICTIONARY
  5
5A3
102
{ACAD_REACTORS
330
C
102
}
330
C
100
AcDbDictionary
281
     1
  3
NCDocParameters
350
5A4
  0
DICTIONARY
  5
59F
102
{ACAD_REACTORS
330
C
102
}
330
C
100
AcDbDictionary
281
     1
  3
MC_VERSION_DATA
350
5A8
  3
MCS_DOCUMENT_ID
350
5A0
  3
MCS_PARAMS_DATA
350
5A6
  0
XRECORD
  5
5AD
102
{ACAD_REACTORS
330
5AC
102
}
330
5AC
100
AcDbXrecord
280
     1
102
ACAD_ROUNDTRIP_2008_TABLE_ENTITY
360
5AA
 70
     2
 90
        1
 10
0.0
 20
0.0
 30
0.0
 90
        0
 90
        4
361
5AB
  0
LAYOUT
  5
558
102
{ACAD_REACTORS
330
1A
102
}
330
1A
100
AcDbPlotSettings
  1

  2
none_device
  4
ISO_A3_(420.00_x_297.00_MM)
  6

 40
0.0
 41
0.0
 42
0.0
 43
0.0
 44
420.0
 45
297.0
 46
0.0
 47
0.0
 48
0.0
 49
0.0
140
0.0
141
0.0
142
1.0
143
1.0
 70
     0
 72
     1
 73
     0
 74
     0
  7

 75
     0
 76
     0
 77
     2
 78
   300
147
1.0
148
0.0
149
0.0
100
AcDbLayout
  1
Layout1
 70
     0
 71
     1
 10
0.0
 20
0.0
 11
420.0
 21
297.0
 12
0.0
 22
0.0
 32
0.0
 14
0.0
 24
0.0
 34
0.0
 15
0.0
 25
0.0
 35
0.0
146
0.0
 13
0.0
 23
0.0
 33
0.0
 16
1.0
 26
0.0
 36
0.0
 17
0.0
 27
1.0
 37
0.0
 76
     0
330
227
  0
LAYOUT
  5
557
102
{ACAD_REACTORS
330
1A
102
}
330
1A
100
AcDbPlotSettings
  1

  2
none_device
  4
ISO_A3_(420.00_x_297.00_MM)
  6

 40
0.0
 41
0.0
 42
0.0
 43
0.0
 44
420.0
 45
297.0
 46
0.0
 47
0.0
 48
0.0
 49
0.0
140
0.0
141
0.0
142
1.0
143
1.0
 70
  1024
 72
     1
 73
     0
 74
     0
  7

 75
     0
 76
     0
 77
     2
 78
   300
147
1.0
148
0.0
149
0.0
100
AcDbLayout
  1
Model
 70
     0
 71
     0
 10
0.0
 20
0.0
 11
420.0
 21
297.0
 12
0.0
 22
0.0
 32
0.0
 14
0.0
 24
0.0
 34
0.0
 15
0.0
 25
0.0
 35
0.0
146
0.0
 13
0.0
 23
0.0
 33
0.0
 16
1.0
 26
0.0
 36
0.0
 17
0.0
 27
1.0
 37
0.0
 76
     0
330
226
331
1F4
  0
MATERIAL
  5
59B
102
{ACAD_REACTORS
330
599
102
}
330
599
100
AcDbMaterial
  1
ByBlock
 72
     1
 94
      127
  0
MATERIAL
  5
59A
102
{ACAD_REACTORS
330
599
102
}
330
599
100
AcDbMaterial
  1
ByLayer
 72
     1
 94
      127
  0
MATERIAL
  5
59C
102
{ACAD_REACTORS
330
599
102
}
330
599
100
AcDbMaterial
  1
Global
 72
     1
 94
      127
  0
MLINESTYLE
  5
18
102
{ACAD_REACTORS
330
17
102
}
330
17
100
AcDbMlineStyle
  2
STANDARD
 70
     0
  3

 62
   256
 51
90.0
 52
90.0
 71
     2
 49
0.5
 62
   256
  6
BYLAYER
 49
-0.5
 62
   256
  6
BYLAYER
  0
ACDBPLACEHOLDER
  5
F
102
{ACAD_REACTORS
330
E
102
}
330
E
  0
SCALE
  5
55C
102
{ACAD_REACTORS
330
55B
102
}
330
55B
100
AcDbScale
 70
     0
300
1:1
140
1.0
141
1.0
290
     1
  0
SCALE
  5
55D
102
{ACAD_REACTORS
330
55B
102
}
330
55B
100
AcDbScale
 70
     0
300
1:2
140
1.0
141
2.0
290
     0
  0
SCALE
  5
55E
102
{ACAD_REACTORS
330
55B
102
}
330
55B
100
AcDbScale
 70
     0
300
1:4
140
1.0
141
4.0
290
     0
  0
SCALE
  5
55F
102
{ACAD_REACTORS
330
55B
102
}
330
55B
100
AcDbScale
 70
     0
300
1:5
140
1.0
141
5.0
290
     0
  0
SCALE
  5
560
102
{ACAD_REACTORS
330
55B
102
}
330
55B
100
AcDbScale
 70
     0
300
1:8
140
1.0
141
8.0
290
     0
  0
SCALE
  5
561
102
{ACAD_REACTORS
330
55B
102
}
330
55B
100
AcDbScale
 70
     0
300
1:10
140
1.0
141
10.0
290
     0
  0
SCALE
  5
562
102
{ACAD_REACTORS
330
55B
102
}
330
55B
100
AcDbScale
 70
     0
300
1:16
140
1.0
141
16.0
290
     0
  0
SCALE
  5
563
102
{ACAD_REACTORS
330
55B
102
}
330
55B
100
AcDbScale
 70
     0
300
1:20
140
1.0
141
20.0
290
     0
  0
SCALE
  5
564
102
{ACAD_REACTORS
330
55B
102
}
330
55B
100
AcDbScale
 70
     0
300
1:30
140
1.0
141
30.0
290
     0
  0
SCALE
  5
565
102
{ACAD_REACTORS
330
55B
102
}
330
55B
100
AcDbScale
 70
     0
300
1:40
140
1.0
141
40.0
290
     0
  0
SCALE
  5
566
102
{ACAD_REACTORS
330
55B
102
}
330
55B
100
AcDbScale
 70
     0
300
1:50
140
1.0
141
50.0
290
     0
  0
SCALE
  5
567
102
{ACAD_REACTORS
330
55B
102
}
330
55B
100
AcDbScale
 70
     0
300
1:100
140
1.0
141
100.0
290
     0
  0
SCALE
  5
568
102
{ACAD_REACTORS
330
55B
102
}
330
55B
100
AcDbScale
 70
     0
300
2:1
140
2.0
141
1.0
290
     0
  0
SCALE
  5
569
102
{ACAD_REACTORS
330
55B
102
}
330
55B
100
AcDbScale
 70
     0
300
4:1
140
4.0
141
1.0
290
     0
  0
SCALE
  5
56A
102
{ACAD_REACTORS
330
55B
102
}
330
55B
100
AcDbScale
 70
     0
300
8:1
140
8.0
141
1.0
290
     0
  0
SCALE
  5
56B
102
{ACAD_REACTORS
330
55B
102
}
330
55B
100
AcDbScale
 70
     0
300
10:1
140
10.0
141
1.0
290
     0
  0
SCALE
  5
56C
102
{ACAD_REACTORS
330
55B
102
}
330
55B
100
AcDbScale
 70
     0
300
100:1
140
100.0
141
1.0
290
     0
  0
SCALE
  5
56D
102
{ACAD_REACTORS
330
55B
102
}
330
55B
100
AcDbScale
 70
     0
300
1/128" = 1'-0"
140
0.007812
141
12.0
290
     0
  0
SCALE
  5
56E
102
{ACAD_REACTORS
330
55B
102
}
330
55B
100
AcDbScale
 70
     0
300
1/64" = 1'-0"
140
0.015625
141
12.0
290
     0
  0
SCALE
  5
56F
102
{ACAD_REACTORS
330
55B
102
}
330
55B
100
AcDbScale
 70
     0
300
1/32" = 1'-0"
140
0.03125
141
12.0
290
     0
  0
SCALE
  5
570
102
{ACAD_REACTORS
330
55B
102
}
330
55B
100
AcDbScale
 70
     0
300
1/16" = 1'-0"
140
0.0625
141
12.0
290
     0
  0
SCALE
  5
571
102
{ACAD_REACTORS
330
55B
102
}
330
55B
100
AcDbScale
 70
     0
300
3/32" = 1'-0"
140
0.09375
141
12.0
290
     0
  0
SCALE
  5
572
102
{ACAD_REACTORS
330
55B
102
}
330
55B
100
AcDbScale
 70
     0
300
1/8" = 1'-0"
140
0.125
141
12.0
290
     0
  0
SCALE
  5
573
102
{ACAD_REACTORS
330
55B
102
}
330
55B
100
AcDbScale
 70
     0
300
3/16" = 1'-0"
140
0.1875
141
12.0
290
     0
  0
SCALE
  5
574
102
{ACAD_REACTORS
330
55B
102
}
330
55B
100
AcDbScale
 70
     0
300
1/4" = 1'-0"
140
0.25
141
12.0
290
     0
  0
SCALE
  5
575
102
{ACAD_REACTORS
330
55B
102
}
330
55B
100
AcDbScale
 70
     0
300
3/8" = 1'-0"
140
0.375
141
12.0
290
     0
  0
SCALE
  5
576
102
{ACAD_REACTORS
330
55B
102
}
330
55B
100
AcDbScale
 70
     0
300
1/2" = 1'-0"
140
0.5
141
12.0
290
     0
  0
SCALE
  5
577
102
{ACAD_REACTORS
330
55B
102
}
330
55B
100
AcDbScale
 70
     0
300
3/4" = 1'-0"
140
0.75
141
12.0
290
     0
  0
SCALE
  5
578
102
{ACAD_REACTORS
330
55B
102
}
330
55B
100
AcDbScale
 70
     0
300
1" = 1'-0"
140
1.0
141
12.0
290
     0
  0
SCALE
  5
579
102
{ACAD_REACTORS
330
55B
102
}
330
55B
100
AcDbScale
 70
     0
300
1-1/2" = 1'-0"
140
1.5
141
12.0
290
     0
  0
SCALE
  5
57A
102
{ACAD_REACTORS
330
55B
102
}
330
55B
100
AcDbScale
 70
     0
300
3" = 1'-0"
140
3.0
141
12.0
290
     0
  0
SCALE
  5
57B
102
{ACAD_REACTORS
330
55B
102
}
330
55B
100
AcDbScale
 70
     0
300
6" = 1'-0"
140
6.0
141
12.0
290
     0
  0
SCALE
  5
57C
102
{ACAD_REACTORS
330
55B
102
}
330
55B
100
AcDbScale
 70
     0
300
1'-0" = 1'-0"
140
12.0
141
12.0
290
     0
  0
TABLESTYLE
  5
57E
102
{ACAD_REACTORS
330
57D
102
}
102
{ACAD_XDICTIONARY
360
5B0
102
}
330
57D
100
AcDbTableStyle
  3
Standard
 70
     0
 71
     0
 40
0.06
 41
0.06
280
     0
281
     0
  7
STANDARD
140
4.5
170
     2
 62
     0
 63
   257
283
     0
 90
        4
 91
        0
  1

274
    -2
284
     1
 64
     0
275
    -2
285
     1
 65
     0
276
    -2
286
     1
 66
     0
277
    -2
287
     1
 67
     0
278
    -2
288
     1
 68
     0
279
    -2
289
     1
 69
     0
  7
STANDARD
140
6.0
170
     5
 62
     0
 63
   257
283
     0
 90
        4
 91
        0
  1

274
    -2
284
     1
 64
     0
275
    -2
285
     1
 65
     0
276
    -2
286
     1
 66
     0
277
    -2
287
     1
 67
     0
278
    -2
288
     1
 68
     0
279
    -2
289
     1
 69
     0
  7
STANDARD
140
4.5
170
     5
 62
     0
 63
   257
283
     0
 90
        4
 91
        0
  1

274
    -2
284
     1
 64
     0
275
    -2
285
     1
 65
     0
276
    -2
286
     1
 66
     0
277
    -2
287
     1
 67
     0
278
    -2
288
     1
 68
     0
279
    -2
289
     1
 69
     0
  0
VISUALSTYLE
  5
585
102
{ACAD_REACTORS
330
580
102
}
330
580
100
AcDbVisualStyle
  2
2dWireframe
 70
     4
177
     3
291
     0
 70
    58
 90
        0
176
     1
 90
        2
176
     1
 90
        0
176
     1
 90
        0
176
     1
 40
0.6
176
     1
 40
30.0
176
     1
 62
     7
420
 16777215
176
     1
 90
        1
176
     1
 90
        4
176
     1
 62
     7
176
     1
 62
   257
176
     1
 90
        1
176
     1
 90
        1
176
     1
 40
1.0
176
     1
 90
        0
176
     1
 62
   257
176
     1
 40
1.0
176
     1
 90
        1
176
     1
 90
        6
176
     1
 90
        2
176
     1
 62
     7
176
     1
 90
        5
176
     1
 90
        0
176
     1
 90
        0
176
     1
290
     0
176
     1
 90
        1
176
     1
 40
0.0
176
     1
 90
        0
176
     1
290
     1
176
     1
290
     1
176
     1
290
     0
176
     1
290
     0
176
     1
290
     0
176
     1
290
     0
176
     1
290
     0
176
     1
290
     0
176
     1
290
     0
176
     1
 90
       50
176
     1
 40
0.0
176
     1
 40
1.0
176
     1
 90
        0
176
     1
 62
    18
420
        0
176
     1
 90
       50
176
     1
 90
        3
176
     1
 62
     5
420
      255
176
     1
290
     0
176
     1
 90
       50
176
     1
 90
       50
176
     1
 90
       50
176
     1
290
     0
176
     1
 90
       50
176
     1
 62
   256
176
     0
 40
1.0
176
     0
 90
        2
176
     1
  1
strokes_ogs.tif
176
     1
290
     0
176
     1
 40
1.0
176
     1
 40
1.0
176
     1
  0
VISUALSTYLE
  5
588
102
{ACAD_REACTORS
330
580
102
}
330
580
100
AcDbVisualStyle
  2
Basic
 70
     7
177
     3
291
     1
 70
    58
 90
        1
176
     1
 90
        0
176
     1
 90
        1
176
     1
 90
        0
176
     1
 40
0.6
176
     1
 40
30.0
176
     1
 62
     7
420
 16777215
176
     1
 90
        0
176
     1
 90
        4
176
     1
 62
     7
176
     1
 62
   257
176
     1
 90
        1
176
     1
 90
        1
176
     1
 40
1.0
176
     1
 90
        8
176
     1
 62
     7
176
     1
 40
1.0
176
     1
 90
        1
176
     1
 90
        6
176
     1
 90
        2
176
     1
 62
     7
176
     1
 90
        5
176
     1
 90
        0
176
     1
 90
        0
176
     1
290
     0
176
     1
 90
        1
176
     1
 40
0.0
176
     1
 90
        0
176
     1
290
     0
176
     1
290
     1
176
     1
290
     1
176
     1
290
     0
176
     1
290
     0
176
     1
290
     0
176
     1
290
     0
176
     1
290
     0
176
     1
290
     0
176
     1
 90
       50
176
     1
 40
0.0
176
     1
 40
1.0
176
     1
 90
        0
176
     1
 62
    18
420
        0
176
     1
 90
       50
176
     1
 90
        3
176
     1
 62
     5
420
      255
176
     1
290
     0
176
     1
 90
       50
176
     1
 90
       50
176
     1
 90
       50
176
     1
290
     0
176
     1
 90
       50
176
     1
 62
   256
176
     0
 40
1.0
176
     0
 90
        2
176
     1
  1
strokes_ogs.tif
176
     1
290
     0
176
     1
 40
1.0
176
     1
 40
1.0
176
     1
  0
VISUALSTYLE
  5
58C
102
{ACAD_REACTORS
330
580
102
}
330
580
100
AcDbVisualStyle
  2
Brighten
 70
    12
177
     3
291
     1
 70
    58
 90
        2
176
     1
 90
        2
176
     1
 90
        0
176
     1
 90
        0
176
     1
 40
0.6
176
     1
 40
30.0
176
     1
 62
     7
420
 16777215
176
     1
 90
        1
176
     1
 90
        4
176
     1
 62
     7
176
     1
 62
   257
176
     1
 90
        1
176
     1
 90
        1
176
     1
 40
1.0
176
     1
 90
        8
176
     1
 62
     7
176
     1
 40
1.0
176
     1
 90
        1
176
     1
 90
        6
176
     1
 90
        2
176
     1
 62
     7
176
     1
 90
        5
176
     1
 90
        0
176
     1
 90
        0
176
     1
290
     0
176
     1
 90
        1
176
     1
 40
50.0
176
     1
 90
        0
176
     1
290
     0
176
     1
290
     1
176
     1
290
     1
176
     1
290
     0
176
     1
290
     0
176
     1
290
     0
176
     1
290
     0
176
     1
290
     0
176
     1
290
     0
176
     1
 90
       50
176
     1
 40
0.0
176
     1
 40
1.0
176
     1
 90
        0
176
     1
 62
    18
420
        0
176
     1
 90
       50
176
     1
 90
        3
176
     1
 62
     5
420
      255
176
     1
290
     0
176
     1
 90
       50
176
     1
 90
       50
176
     1
 90
       50
176
     1
290
     0
176
     1
 90
       50
176
     1
 62
   256
176
     0
 40
1.0
176
     0
 90
        2
176
     1
  1
strokes_ogs.tif
176
     1
290
     0
176
     1
 40
1.0
176
     1
 40
1.0
176
     1
  0
VISUALSTYLE
  5
590
102
{ACAD_REACTORS
330
580
102
}
330
580
100
AcDbVisualStyle
  2
ColorChange
 70
    16
177
     3
291
     1
 70
    58
 90
        2
176
     1
 90
        2
176
     1
 90
        3
176
     1
 90
        0
176
     1
 40
0.6
176
     1
 40
30.0
176
     1
 62
     8
420
  8421504
176
     1
 90
        1
176
     1
 90
        4
176
     1
 62
     7
176
     1
 62
   257
176
     1
 90
        1
176
     1
 90
        1
176
     1
 40
1.0
176
     1
 90
        8
176
     1
 62
     8
420
  8421504
176
     1
 40
1.0
176
     1
 90
        1
176
     1
 90
        6
176
     1
 90
        2
176
     1
 62
     7
176
     1
 90
        5
176
     1
 90
        0
176
     1
 90
        0
176
     1
290
     0
176
     1
 90
        1
176
     1
 40
0.0
176
     1
 90
        0
176
     1
290
     0
176
     1
290
     1
176
     1
290
     1
176
     1
290
     0
176
     1
290
     0
176
     1
290
     0
176
     1
290
     0
176
     1
290
     0
176
     1
290
     0
176
     1
 90
       50
176
     1
 40
0.0
176
     1
 40
1.0
176
     1
 90
        0
176
     1
 62
    18
420
        0
176
     1
 90
       50
176
     1
 90
        3
176
     1
 62
     5
420
      255
176
     1
290
     0
176
     1
 90
       50
176
     1
 90
       50
176
     1
 90
       50
176
     1
290
     0
176
     1
 90
       50
176
     1
 62
   256
176
     0
 40
1.0
176
     0
 90
        2
176
     1
  1
strokes_ogs.tif
176
     1
290
     0
176
     1
 40
1.0
176
     1
 40
1.0
176
     1
  0
VISUALSTYLE
  5
58A
102
{ACAD_REACTORS
330
580
102
}
330
580
100
AcDbVisualStyle
  2
Conceptual
 70
     9
177
     3
291
     0
 70
    58
 90
        3
176
     1
 90
        2
176
     1
 90
        0
176
     1
 90
        0
176
     1
 40
0.6
176
     1
 40
30.0
176
     1
 62
     7
420
 16777215
176
     1
 90
        2
176
     1
 90
        2
176
     1
 62
     7
176
     1
 62
   257
176
     1
 90
        1
176
     1
 90
        1
176
     1
 40
179.0
176
     1
 90
        8
176
     1
 62
     7
176
     1
 40
1.0
176
     1
 90
        1
176
     1
 90
        6
176
     1
 90
        2
176
     1
 62
     7
176
     1
 90
        3
176
     1
 90
        0
176
     1
 90
        0
176
     1
290
     0
176
     1
 90
        1
176
     1
 40
0.0
176
     1
 90
        0
176
     1
290
     0
176
     1
290
     1
176
     1
290
     1
176
     1
290
     0
176
     1
290
     0
176
     1
290
     0
176
     1
290
     0
176
     1
290
     0
176
     1
290
     0
176
     1
 90
       50
176
     1
 40
0.0
176
     1
 40
1.0
176
     1
 90
        0
176
     1
 62
    18
420
        0
176
     1
 90
       50
176
     1
 90
        3
176
     1
 62
     5
420
      255
176
     1
290
     0
176
     1
 90
       50
176
     1
 90
       50
176
     1
 90
       50
176
     1
290
     0
176
     1
 90
       50
176
     1
 62
   256
176
     0
 40
1.0
176
     0
 90
        2
176
     1
  1
strokes_ogs.tif
176
     1
290
     0
176
     1
 40
1.0
176
     1
 40
1.0
176
     1
  0
VISUALSTYLE
  5
58B
102
{ACAD_REACTORS
330
580
102
}
330
580
100
AcDbVisualStyle
  2
Dim
 70
    11
177
     3
291
     1
 70
    58
 90
        2
176
     1
 90
        2
176
     1
 90
        0
176
     1
 90
        0
176
     1
 40
0.6
176
     1
 40
30.0
176
     1
 62
     7
420
 16777215
176
     1
 90
        1
176
     1
 90
        4
176
     1
 62
     7
176
     1
 62
   257
176
     1
 90
        1
176
     1
 90
        1
176
     1
 40
1.0
176
     1
 90
        8
176
     1
 62
     7
176
     1
 40
1.0
176
     1
 90
        1
176
     1
 90
        6
176
     1
 90
        2
176
     1
 62
     7
176
     1
 90
        5
176
     1
 90
        0
176
     1
 90
        0
176
     1
290
     0
176
     1
 90
        1
176
     1
 40
-50.0
176
     1
 90
        0
176
     1
290
     0
176
     1
290
     1
176
     1
290
     1
176
     1
290
     0
176
     1
290
     0
176
     1
290
     0
176
     1
290
     0
176
     1
290
     0
176
     1
290
     0
176
     1
 90
       50
176
     1
 40
0.0
176
     1
 40
1.0
176
     1
 90
        0
176
     1
 62
    18
420
        0
176
     1
 90
       50
176
     1
 90
        3
176
     1
 62
     5
420
      255
176
     1
290
     0
176
     1
 90
       50
176
     1
 90
       50
176
     1
 90
       50
176
     1
290
     0
176
     1
 90
       50
176
     1
 62
   256
176
     0
 40
1.0
176
     0
 90
        2
176
     1
  1
strokes_ogs.tif
176
     1
290
     0
176
     1
 40
1.0
176
     1
 40
1.0
176
     1
  0
VISUALSTYLE
  5
593
102
{ACAD_REACTORS
330
580
102
}
330
580
100
AcDbVisualStyle
  2
EdgeColorOff
 70
    22
177
     3
291
     1
 70
    58
 90
        2
176
     0
 90
        2
176
     0
 90
        0
176
     0
 90
        0
176
     0
 40
0.6
176
     0
 40
30.0
176
     0
 62
     7
420
 16777215
176
     0
 90
        1
176
     0
 90
        4
176
     0
 62
     7
176
     0
 62
   257
176
     0
 90
        1
176
     0
 90
        1
176
     0
 40
1.0
176
     0
 90
        8
176
     2
 62
     7
176
     0
 40
1.0
176
     0
 90
        1
176
     0
 90
        6
176
     0
 90
        2
176
     0
 62
     7
176
     0
 90
        5
176
     0
 90
        0
176
     0
 90
        0
176
     0
290
     0
176
     0
 90
        1
176
     0
 40
0.0
176
     0
 90
        0
176
     0
290
     0
176
     0
290
     1
176
     0
290
     1
176
     0
290
     0
176
     0
290
     0
176
     0
290
     0
176
     0
290
     0
176
     0
290
     0
176
     0
290
     0
176
     0
 90
       50
176
     0
 40
0.0
176
     0
 40
1.0
176
     0
 90
        0
176
     0
 62
    18
420
        0
176
     0
 90
       50
176
     0
 90
        3
176
     0
 62
     5
420
      255
176
     0
290
     0
176
     0
 90
       50
176
     0
 90
       50
176
     0
 90
       50
176
     0
290
     0
176
     0
 90
       50
176
     0
 62
   256
176
     0
 40
1.0
176
     0
 90
        2
176
     0
  1
strokes_ogs.tif
176
     0
290
     0
176
     0
 40
1.0
176
     0
 40
1.0
176
     0
  0
VISUALSTYLE
  5
58F
102
{ACAD_REACTORS
330
580
102
}
330
580
100
AcDbVisualStyle
  2
Facepattern
 70
    15
177
     3
291
     1
 70
    58
 90
        2
176
     1
 90
        2
176
     1
 90
        0
176
     1
 90
        0
176
     1
 40
0.6
176
     1
 40
30.0
176
     1
 62
     7
420
 16777215
176
     1
 90
        1
176
     1
 90
        4
176
     1
 62
     7
176
     1
 62
   257
176
     1
 90
        1
176
     1
 90
        1
176
     1
 40
1.0
176
     1
 90
        8
176
     1
 62
     7
176
     1
 40
1.0
176
     1
 90
        1
176
     1
 90
        6
176
     1
 90
        2
176
     1
 62
     7
176
     1
 90
        5
176
     1
 90
        0
176
     1
 90
        0
176
     1
290
     0
176
     1
 90
        1
176
     1
 40
0.0
176
     1
 90
        0
176
     1
290
     0
176
     1
290
     1
176
     1
290
     1
176
     1
290
     0
176
     1
290
     0
176
     1
290
     0
176
     1
290
     0
176
     1
290
     0
176
     1
290
     0
176
     1
 90
       50
176
     1
 40
0.0
176
     1
 40
1.0
176
     1
 90
        0
176
     1
 62
    18
420
        0
176
     1
 90
       50
176
     1
 90
        3
176
     1
 62
     5
420
      255
176
     1
290
     0
176
     1
 90
       50
176
     1
 90
       50
176
     1
 90
       50
176
     1
290
     0
176
     1
 90
       50
176
     1
 62
   256
176
     0
 40
1.0
176
     0
 90
        2
176
     1
  1
strokes_ogs.tif
176
     1
290
     0
176
     1
 40
1.0
176
     1
 40
1.0
176
     1
  0
VISUALSTYLE
  5
581
102
{ACAD_REACTORS
330
580
102
}
330
580
100
AcDbVisualStyle
  2
Flat
 70
     0
177
     3
291
     1
 70
    58
 90
        2
176
     1
 90
        1
176
     1
 90
        1
176
     1
 90
        2
176
     1
 40
0.6
176
     1
 40
30.0
176
     1
 62
     7
420
 16777215
176
     1
 90
        0
176
     1
 90
        0
176
     1
 62
     7
176
     1
 62
   257
176
     1
 90
        1
176
     1
 90
        1
176
     1
 40
1.0
176
     1
 90
        8
176
     1
 62
     7
176
     1
 40
1.0
176
     1
 90
        1
176
     1
 90
        6
176
     1
 90
        2
176
     1
 62
     7
176
     1
 90
        5
176
     1
 90
        0
176
     1
 90
        0
176
     1
290
     0
176
     1
 90
       13
176
     1
 40
0.0
176
     1
 90
        0
176
     1
290
     0
176
     1
290
     1
176
     1
290
     1
176
     1
290
     0
176
     1
290
     0
176
     1
290
     0
176
     1
290
     0
176
     1
290
     0
176
     1
290
     0
176
     1
 90
       50
176
     1
 40
0.0
176
     1
 40
1.0
176
     1
 90
        0
176
     1
 62
    18
420
        0
176
     1
 90
       50
176
     1
 90
        3
176
     1
 62
     5
420
      255
176
     1
290
     0
176
     1
 90
       50
176
     1
 90
       50
176
     1
 90
       50
176
     1
290
     0
176
     1
 90
       50
176
     1
 62
   256
176
     0
 40
1.0
176
     0
 90
        2
176
     1
  1
strokes_ogs.tif
176
     1
290
     0
176
     1
 40
1.0
176
     1
 40
1.0
176
     1
  0
VISUALSTYLE
  5
582
102
{ACAD_REACTORS
330
580
102
}
330
580
100
AcDbVisualStyle
  2
FlatWithEdges
 70
     1
177
     3
291
     1
 70
    58
 90
        2
176
     1
 90
        1
176
     1
 90
        1
176
     1
 90
        2
176
     1
 40
0.6
176
     1
 40
30.0
176
     1
 62
     7
420
 16777215
176
     1
 90
        1
176
     1
 90
        0
176
     1
 62
     7
176
     1
 62
   257
176
     1
 90
        1
176
     1
 90
        1
176
     1
 40
1.0
176
     1
 90
        0
176
     1
 62
   257
176
     1
 40
1.0
176
     1
 90
        1
176
     1
 90
        6
176
     1
 90
        2
176
     1
 62
     7
176
     1
 90
        5
176
     1
 90
        0
176
     1
 90
        0
176
     1
290
     0
176
     1
 90
       13
176
     1
 40
0.0
176
     1
 90
        0
176
     1
290
     0
176
     1
290
     1
176
     1
290
     1
176
     1
290
     0
176
     1
290
     0
176
     1
290
     0
176
     1
290
     0
176
     1
290
     0
176
     1
290
     0
176
     1
 90
       50
176
     1
 40
0.0
176
     1
 40
1.0
176
     1
 90
        0
176
     1
 62
    18
420
        0
176
     1
 90
       50
176
     1
 90
        3
176
     1
 62
     5
420
      255
176
     1
290
     0
176
     1
 90
       50
176
     1
 90
       50
176
     1
 90
       50
176
     1
290
     0
176
     1
 90
       50
176
     1
 62
   256
176
     0
 40
1.0
176
     0
 90
        2
176
     1
  1
strokes_ogs.tif
176
     1
290
     0
176
     1
 40
1.0
176
     1
 40
1.0
176
     1
  0
VISUALSTYLE
  5
583
102
{ACAD_REACTORS
330
580
102
}
330
580
100
AcDbVisualStyle
  2
Gouraud
 70
     2
177
     3
291
     1
 70
    58
 90
        2
176
     1
 90
        2
176
     1
 90
        1
176
     1
 90
        2
176
     1
 40
0.6
176
     1
 40
30.0
176
     1
 62
     7
420
 16777215
176
     1
 90
        0
176
     1
 90
        0
176
     1
 62
     7
176
     1
 62
   257
176
     1
 90
        1
176
     1
 90
        1
176
     1
 40
1.0
176
     1
 90
        0
176
     1
 62
     7
176
     1
 40
1.0
176
     1
 90
        1
176
     1
 90
        6
176
     1
 90
        2
176
     1
 62
     7
176
     1
 90
        5
176
     1
 90
        0
176
     1
 90
        0
176
     1
290
     0
176
     1
 90
       13
176
     1
 40
0.0
176
     1
 90
        0
176
     1
290
     0
176
     1
290
     1
176
     1
290
     1
176
     1
290
     0
176
     1
290
     0
176
     1
290
     0
176
     1
290
     0
176
     1
290
     0
176
     1
290
     0
176
     1
 90
       50
176
     1
 40
0.0
176
     1
 40
1.0
176
     1
 90
        0
176
     1
 62
    18
420
        0
176
     1
 90
       50
176
     1
 90
        3
176
     1
 62
     5
420
      255
176
     1
290
     0
176
     1
 90
       50
176
     1
 90
       50
176
     1
 90
       50
176
     1
290
     0
176
     1
 90
       50
176
     1
 62
   256
176
     0
 40
1.0
176
     0
 90
        2
176
     1
  1
strokes_ogs.tif
176
     1
290
     0
176
     1
 40
1.0
176
     1
 40
1.0
176
     1
  0
VISUALSTYLE
  5
584
102
{ACAD_REACTORS
330
580
102
}
330
580
100
AcDbVisualStyle
  2
GouraudWithEdges
 70
     3
177
     3
291
     1
 70
    58
 90
        2
176
     1
 90
        2
176
     1
 90
        1
176
     1
 90
        2
176
     1
 40
0.6
176
     1
 40
30.0
176
     1
 62
     7
420
 16777215
176
     1
 90
        1
176
     1
 90
        0
176
     1
 62
     7
176
     1
 62
   257
176
     1
 90
        1
176
     1
 90
        1
176
     1
 40
1.0
176
     1
 90
        0
176
     1
 62
   257
176
     1
 40
1.0
176
     1
 90
        1
176
     1
 90
        6
176
     1
 90
        2
176
     1
 62
     7
176
     1
 90
        5
176
     1
 90
        0
176
     1
 90
        0
176
     1
290
     0
176
     1
 90
       13
176
     1
 40
0.0
176
     1
 90
        0
176
     1
290
     0
176
     1
290
     1
176
     1
290
     1
176
     1
290
     0
176
     1
290
     0
176
     1
290
     0
176
     1
290
     0
176
     1
290
     0
176
     1
290
     0
176
     1
 90
       50
176
     1
 40
0.0
176
     1
 40
1.0
176
     1
 90
        0
176
     1
 62
    18
420
        0
176
     1
 90
       50
176
     1
 90
        3
176
     1
 62
     5
420
      255
176
     1
290
     0
176
     1
 90
       50
176
     1
 90
       50
176
     1
 90
       50
176
     1
290
     0
176
     1
 90
       50
176
     1
 62
   256
176
     0
 40
1.0
176
     0
 90
        2
176
     1
  1
strokes_ogs.tif
176
     1
290
     0
176
     1
 40
1.0
176
     1
 40
1.0
176
     1
  0
VISUALSTYLE
  5
587
102
{ACAD_REACTORS
330
580
102
}
330
580
100
AcDbVisualStyle
  2
Hidden
 70
     6
177
     3
291
     0
 70
    58
 90
        1
176
     1
 90
        2
176
     1
 90
        2
176
     1
 90
        0
176
     1
 40
0.6
176
     1
 40
30.0
176
     1
 62
     7
420
 16777215
176
     1
 90
        2
176
     1
 90
        2
176
     1
 62
     7
176
     1
 62
   257
176
     1
 90
        2
176
     1
 90
        1
176
     1
 40
40.0
176
     1
 90
        0
176
     1
 62
   257
176
     1
 40
1.0
176
     1
 90
        1
176
     1
 90
        6
176
     1
 90
        2
176
     1
 62
     7
176
     1
 90
        3
176
     1
 90
        0
176
     1
 90
        0
176
     1
290
     0
176
     1
 90
        1
176
     1
 40
0.0
176
     1
 90
        0
176
     1
290
     0
176
     1
290
     1
176
     1
290
     1
176
     1
290
     0
176
     1
290
     0
176
     1
290
     0
176
     1
290
     0
176
     1
290
     0
176
     1
290
     0
176
     1
 90
       50
176
     1
 40
0.0
176
     1
 40
1.0
176
     1
 90
        0
176
     1
 62
    18
420
        0
176
     1
 90
       50
176
     1
 90
        3
176
     1
 62
     5
420
      255
176
     1
290
     0
176
     1
 90
       50
176
     1
 90
       50
176
     1
 90
       50
176
     1
290
     0
176
     1
 90
       50
176
     1
 62
   256
176
     0
 40
1.0
176
     0
 90
        2
176
     1
  1
strokes_ogs.tif
176
     1
290
     0
176
     1
 40
1.0
176
     1
 40
1.0
176
     1
  0
VISUALSTYLE
  5
591
102
{ACAD_REACTORS
330
580
102
}
330
580
100
AcDbVisualStyle
  2
JitterOff
 70
    20
177
     3
291
     1
 70
    58
 90
        2
176
     0
 90
        2
176
     0
 90
        0
176
     0
 90
        0
176
     0
 40
0.6
176
     0
 40
30.0
176
     0
 62
     7
420
 16777215
176
     0
 90
        1
176
     0
 90
        4
176
     0
 62
     7
176
     0
 62
   257
176
     0
 90
        1
176
     0
 90
        1
176
     0
 40
1.0
176
     0
 90
       10
176
     2
 62
     7
176
     0
 40
1.0
176
     0
 90
        1
176
     0
 90
        6
176
     0
 90
        2
176
     0
 62
     7
176
     0
 90
        5
176
     0
 90
        0
176
     0
 90
        0
176
     0
290
     0
176
     0
 90
        1
176
     0
 40
0.0
176
     0
 90
        0
176
     0
290
     0
176
     0
290
     1
176
     0
290
     1
176
     0
290
     0
176
     0
290
     0
176
     0
290
     0
176
     0
290
     0
176
     0
290
     0
176
     0
290
     0
176
     0
 90
       50
176
     0
 40
0.0
176
     0
 40
1.0
176
     0
 90
        0
176
     0
 62
    18
420
        0
176
     0
 90
       50
176
     0
 90
        3
176
     0
 62
     5
420
      255
176
     0
290
     0
176
     0
 90
       50
176
     0
 90
       50
176
     0
 90
       50
176
     0
290
     0
176
     0
 90
       50
176
     0
 62
   256
176
     0
 40
1.0
176
     0
 90
        2
176
     0
  1
strokes_ogs.tif
176
     0
290
     0
176
     0
 40
1.0
176
     0
 40
1.0
176
     0
  0
VISUALSTYLE
  5
58E
102
{ACAD_REACTORS
330
580
102
}
330
580
100
AcDbVisualStyle
  2
Linepattern
 70
    14
177
     3
291
     1
 70
    58
 90
        2
176
     1
 90
        2
176
     1
 90
        0
176
     1
 90
        0
176
     1
 40
0.6
176
     1
 40
30.0
176
     1
 62
     7
420
 16777215
176
     1
 90
        1
176
     1
 90
        4
176
     1
 62
     7
176
     1
 62
   257
176
     1
 90
        7
176
     1
 90
        7
176
     1
 40
1.0
176
     1
 90
        8
176
     1
 62
     7
176
     1
 40
1.0
176
     1
 90
        1
176
     1
 90
        6
176
     1
 90
        2
176
     1
 62
     7
176
     1
 90
        5
176
     1
 90
        0
176
     1
 90
        0
176
     1
290
     0
176
     1
 90
        1
176
     1
 40
0.0
176
     1
 90
        0
176
     1
290
     0
176
     1
290
     1
176
     1
290
     1
176
     1
290
     0
176
     1
290
     0
176
     1
290
     0
176
     1
290
     0
176
     1
290
     0
176
     1
290
     0
176
     1
 90
       50
176
     1
 40
0.0
176
     1
 40
1.0
176
     1
 90
        0
176
     1
 62
    18
420
        0
176
     1
 90
       50
176
     1
 90
        3
176
     1
 62
     5
420
      255
176
     1
290
     0
176
     1
 90
       50
176
     1
 90
       50
176
     1
 90
       50
176
     1
290
     0
176
     1
 90
       50
176
     1
 62
   256
176
     0
 40
1.0
176
     0
 90
        2
176
     1
  1
strokes_ogs.tif
176
     1
290
     0
176
     1
 40
1.0
176
     1
 40
1.0
176
     1
  0
VISUALSTYLE
  5
592
102
{ACAD_REACTORS
330
580
102
}
330
580
100
AcDbVisualStyle
  2
OverhangOff
 70
    21
177
     3
291
     1
 70
    58
 90
        2
176
     0
 90
        2
176
     0
 90
        0
176
     0
 90
        0
176
     0
 40
0.6
176
     0
 40
30.0
176
     0
 62
     7
420
 16777215
176
     0
 90
        1
176
     0
 90
        4
176
     0
 62
     7
176
     0
 62
   257
176
     0
 90
        1
176
     0
 90
        1
176
     0
 40
1.0
176
     0
 90
        9
176
     2
 62
     7
176
     0
 40
1.0
176
     0
 90
        1
176
     0
 90
        6
176
     0
 90
        2
176
     0
 62
     7
176
     0
 90
        5
176
     0
 90
        0
176
     0
 90
        0
176
     0
290
     0
176
     0
 90
        1
176
     0
 40
0.0
176
     0
 90
        0
176
     0
290
     0
176
     0
290
     1
176
     0
290
     1
176
     0
290
     0
176
     0
290
     0
176
     0
290
     0
176
     0
290
     0
176
     0
290
     0
176
     0
290
     0
176
     0
 90
       50
176
     0
 40
0.0
176
     0
 40
1.0
176
     0
 90
        0
176
     0
 62
    18
420
        0
176
     0
 90
       50
176
     0
 90
        3
176
     0
 62
     5
420
      255
176
     0
290
     0
176
     0
 90
       50
176
     0
 90
       50
176
     0
 90
       50
176
     0
290
     0
176
     0
 90
       50
176
     0
 62
   256
176
     0
 40
1.0
176
     0
 90
        2
176
     0
  1
strokes_ogs.tif
176
     0
290
     0
176
     0
 40
1.0
176
     0
 40
1.0
176
     0
  0
VISUALSTYLE
  5
589
102
{ACAD_REACTORS
330
580
102
}
330
580
100
AcDbVisualStyle
  2
Realistic
 70
     8
177
     3
291
     0
 70
    58
 90
        2
176
     1
 90
        3
176
     1
 90
        0
176
     1
 90
        2
176
     1
 40
0.6
176
     1
 40
30.0
176
     1
 62
     7
420
 16777215
176
     1
 90
        0
176
     1
 90
        0
176
     1
 62
     7
176
     1
 62
   257
176
     1
 90
        1
176
     1
 90
        1
176
     1
 40
1.0
176
     1
 90
        8
176
     1
 62
   257
176
     1
 40
1.0
176
     1
 90
        1
176
     1
 90
        6
176
     1
 90
        2
176
     1
 62
     7
176
     1
 90
        3
176
     1
 90
        0
176
     1
 90
        0
176
     1
290
     0
176
     1
 90
       13
176
     1
 40
0.0
176
     1
 90
        0
176
     1
290
     0
176
     1
290
     1
176
     1
290
     1
176
     1
290
     0
176
     1
290
     0
176
     1
290
     0
176
     1
290
     0
176
     1
290
     0
176
     1
290
     0
176
     1
 90
       50
176
     1
 40
0.0
176
     1
 40
1.0
176
     1
 90
        0
176
     1
 62
    18
420
        0
176
     1
 90
       50
176
     1
 90
        3
176
     1
 62
     5
420
      255
176
     1
290
     0
176
     1
 90
       50
176
     1
 90
       50
176
     1
 90
       50
176
     1
290
     0
176
     1
 90
       50
176
     1
 62
   256
176
     0
 40
1.0
176
     0
 90
        2
176
     1
  1
strokes_ogs.tif
176
     1
290
     0
176
     1
 40
1.0
176
     1
 40
1.0
176
     1
  0
VISUALSTYLE
  5
598
102
{ACAD_REACTORS
330
580
102
}
330
580
100
AcDbVisualStyle
  2
Shaded
 70
    27
177
     3
291
     0
 70
    58
 90
        2
176
     1
 90
        2
176
     1
 90
        1
176
     1
 90
        2
176
     1
 40
0.6
176
     1
 40
30.0
176
     1
 62
     7
420
 16777215
176
     1
 90
        0
176
     1
 90
        4
176
     1
 62
     7
176
     1
 62
   257
176
     1
 90
        1
176
     1
 90
        1
176
     1
 40
1.0
176
     1
 90
        8
176
     1
 62
   257
176
     1
 40
1.0
176
     1
 90
        1
176
     1
 90
        6
176
     1
 90
        2
176
     1
 62
     8
420
  7895160
176
     1
 90
        3
176
     1
 90
        0
176
     1
 90
        0
176
     1
290
     0
176
     1
 90
        5
176
     1
 40
0.0
176
     1
 90
        0
176
     1
290
     0
176
     1
290
     1
176
     1
290
     1
176
     1
290
     0
176
     1
290
     0
176
     1
290
     0
176
     1
290
     0
176
     1
290
     0
176
     1
290
     0
176
     1
 90
       50
176
     1
 40
0.0
176
     1
 40
1.0
176
     1
 90
        0
176
     1
 62
    18
420
        0
176
     1
 90
       50
176
     1
 90
        3
176
     1
 62
     5
420
      255
176
     1
290
     0
176
     1
 90
       50
176
     1
 90
       50
176
     1
 90
       50
176
     1
290
     0
176
     1
 90
       50
176
     1
 62
   256
176
     0
 40
1.0
176
     0
 90
        2
176
     1
  1
strokes_ogs.tif
176
     1
290
     0
176
     1
 40
1.0
176
     1
 40
1.0
176
     1
  0
VISUALSTYLE
  5
597
102
{ACAD_REACTORS
330
580
102
}
330
580
100
AcDbVisualStyle
  2
Shaded with edges
 70
    26
177
     3
291
     0
 70
    58
 90
        2
176
     1
 90
        2
176
     1
 90
        1
176
     1
 90
        2
176
     1
 40
0.6
176
     1
 40
30.0
176
     1
 62
     7
420
 16777215
176
     1
 90
        1
176
     1
 90
       10
176
     1
 62
     7
176
     1
 62
   257
176
     1
 90
        2
176
     1
 90
        1
176
     1
 40
1.0
176
     1
 90
        8
176
     1
 62
   257
176
     1
 40
1.0
176
     1
 90
        1
176
     1
 90
        6
176
     1
 90
        2
176
     1
 62
     7
176
     1
 90
        3
176
     1
 90
        0
176
     1
 90
        0
176
     1
290
     0
176
     1
 90
        5
176
     1
 40
0.0
176
     1
 90
        0
176
     1
290
     0
176
     1
290
     1
176
     1
290
     1
176
     1
290
     0
176
     1
290
     0
176
     1
290
     0
176
     1
290
     0
176
     1
290
     0
176
     1
290
     0
176
     1
 90
       50
176
     1
 40
0.0
176
     1
 40
1.0
176
     1
 90
        0
176
     1
 62
    18
420
        0
176
     1
 90
       50
176
     1
 90
        3
176
     1
 62
     5
420
      255
176
     1
290
     0
176
     1
 90
       50
176
     1
 90
       50
176
     1
 90
       50
176
     1
290
     0
176
     1
 90
       50
176
     1
 62
   256
176
     0
 40
1.0
176
     0
 90
        2
176
     1
  1
strokes_ogs.tif
176
     1
290
     0
176
     1
 40
1.0
176
     1
 40
1.0
176
     1
  0
VISUALSTYLE
  5
594
102
{ACAD_REACTORS
330
580
102
}
330
580
100
AcDbVisualStyle
  2
Shades of Gray
 70
    23
177
     3
291
     0
 70
    58
 90
        2
176
     1
 90
        2
176
     1
 90
        3
176
     1
 90
        0
176
     1
 40
0.6
176
     1
 40
30.0
176
     1
 62
     7
420
 16777215
176
     1
 90
        2
176
     1
 90
        2
176
     1
 62
     7
176
     1
 62
     7
176
     1
 90
        1
176
     1
 90
        1
176
     1
 40
40.0
176
     1
 90
        8
176
     1
 62
     7
176
     1
 40
1.0
176
     1
 90
        1
176
     1
 90
        6
176
     1
 90
        2
176
     1
 62
     7
176
     1
 90
        3
176
     1
 90
        0
176
     1
 90
        0
176
     1
290
     0
176
     1
 90
        1
176
     1
 40
0.0
176
     1
 90
        0
176
     1
290
     0
176
     1
290
     1
176
     1
290
     1
176
     1
290
     0
176
     1
290
     0
176
     1
290
     0
176
     1
290
     0
176
     1
290
     0
176
     1
290
     0
176
     1
 90
       50
176
     1
 40
0.0
176
     1
 40
1.0
176
     1
 90
        0
176
     1
 62
    18
420
        0
176
     1
 90
       50
176
     1
 90
        3
176
     1
 62
     5
420
      255
176
     1
290
     0
176
     1
 90
       50
176
     1
 90
       50
176
     1
 90
       50
176
     1
290
     0
176
     1
 90
       50
176
     1
 62
   256
176
     0
 40
1.0
176
     0
 90
        2
176
     1
  1
strokes_ogs.tif
176
     1
290
     0
176
     1
 40
1.0
176
     1
 40
1.0
176
     1
  0
VISUALSTYLE
  5
595
102
{ACAD_REACTORS
330
580
102
}
330
580
100
AcDbVisualStyle
  2
Sketchy
 70
    24
177
     3
291
     0
 70
    58
 90
        1
176
     1
 90
        2
176
     1
 90
        2
176
     1
 90
        0
176
     1
 40
0.6
176
     1
 40
30.0
176
     1
 62
     7
420
 16777215
176
     1
 90
        2
176
     1
 90
        2
176
     1
 62
     7
176
     1
 62
     7
176
     1
 90
        1
176
     1
 90
        1
176
     1
 40
40.0
176
     1
 90
       11
176
     1
 62
     7
176
     1
 40
1.0
176
     1
 90
        1
176
     1
 90
        6
176
     1
 90
        2
176
     1
 62
     7
176
     1
 90
        6
176
     1
 90
        0
176
     1
 90
        0
176
     1
290
     0
176
     1
 90
        1
176
     1
 40
0.0
176
     1
 90
        0
176
     1
290
     0
176
     1
290
     1
176
     1
290
     1
176
     1
290
     0
176
     1
290
     0
176
     1
290
     0
176
     1
290
     0
176
     1
290
     0
176
     1
290
     0
176
     1
 90
       50
176
     1
 40
0.0
176
     1
 40
1.0
176
     1
 90
        0
176
     1
 62
    18
420
        0
176
     1
 90
       50
176
     1
 90
        3
176
     1
 62
     5
420
      255
176
     1
290
     0
176
     1
 90
       50
176
     1
 90
       50
176
     1
 90
       50
176
     1
290
     0
176
     1
 90
       50
176
     1
 62
   256
176
     0
 40
1.0
176
     0
 90
        2
176
     1
  1
strokes_ogs.tif
176
     1
290
     0
176
     1
 40
1.0
176
     1
 40
1.0
176
     1
  0
VISUALSTYLE
  5
58D
102
{ACAD_REACTORS
330
580
102
}
330
580
100
AcDbVisualStyle
  2
Thicken
 70
    13
177
     3
291
     1
 70
    58
 90
        2
176
     1
 90
        2
176
     1
 90
        0
176
     1
 90
        0
176
     1
 40
0.6
176
     1
 40
30.0
176
     1
 62
     7
420
 16777215
176
     1
 90
        1
176
     1
 90
        4
176
     1
 62
     7
176
     1
 62
   257
176
     1
 90
        1
176
     1
 90
        1
176
     1
 40
1.0
176
     1
 90
       12
176
     1
 62
     7
176
     1
 40
1.0
176
     1
 90
        1
176
     1
 90
        6
176
     1
 90
        2
176
     1
 62
     7
176
     1
 90
        5
176
     1
 90
        0
176
     1
 90
        0
176
     1
290
     0
176
     1
 90
        1
176
     1
 40
0.0
176
     1
 90
        0
176
     1
290
     0
176
     1
290
     1
176
     1
290
     1
176
     1
290
     0
176
     1
290
     0
176
     1
290
     0
176
     1
290
     0
176
     1
290
     0
176
     1
290
     0
176
     1
 90
       50
176
     1
 40
0.0
176
     1
 40
1.0
176
     1
 90
        0
176
     1
 62
    18
420
        0
176
     1
 90
       50
176
     1
 90
        3
176
     1
 62
     5
420
      255
176
     1
290
     0
176
     1
 90
       50
176
     1
 90
       50
176
     1
 90
       50
176
     1
290
     0
176
     1
 90
       50
176
     1
 62
   256
176
     0
 40
1.0
176
     0
 90
        2
176
     1
  1
strokes_ogs.tif
176
     1
290
     0
176
     1
 40
1.0
176
     1
 40
1.0
176
     1
  0
VISUALSTYLE
  5
586
102
{ACAD_REACTORS
330
580
102
}
330
580
100
AcDbVisualStyle
  2
Wireframe
 70
     5
177
     3
291
     0
 70
    58
 90
        0
176
     1
 90
        2
176
     1
 90
        0
176
     1
 90
        0
176
     1
 40
0.6
176
     1
 40
30.0
176
     1
 62
     7
420
 16777215
176
     1
 90
        1
176
     1
 90
        4
176
     1
 62
     7
176
     1
 62
   257
176
     1
 90
        1
176
     1
 90
        1
176
     1
 40
1.0
176
     1
 90
        0
176
     1
 62
   257
176
     1
 40
1.0
176
     1
 90
        1
176
     1
 90
        6
176
     1
 90
        2
176
     1
 62
     7
176
     1
 90
        3
176
     1
 90
        0
176
     1
 90
        0
176
     1
290
     0
176
     1
 90
        1
176
     1
 40
0.0
176
     1
 90
        0
176
     1
290
     0
176
     1
290
     1
176
     1
290
     1
176
     1
290
     0
176
     1
290
     0
176
     1
290
     0
176
     1
290
     0
176
     1
290
     0
176
     1
290
     0
176
     1
 90
       50
176
     1
 40
0.0
176
     1
 40
1.0
176
     1
 90
        0
176
     1
 62
    18
420
        0
176
     1
 90
       50
176
     1
 90
        3
176
     1
 62
     5
420
      255
176
     1
290
     0
176
     1
 90
       50
176
     1
 90
       50
176
     1
 90
       50
176
     1
290
     0
176
     1
 90
       50
176
     1
 62
   256
176
     0
 40
1.0
176
     0
 90
        2
176
     1
  1
strokes_ogs.tif
176
     1
290
     0
176
     1
 40
1.0
176
     1
 40
1.0
176
     1
  0
VISUALSTYLE
  5
596
102
{ACAD_REACTORS
330
580
102
}
330
580
100
AcDbVisualStyle
  2
X-Ray
 70
    25
177
     3
291
     0
 70
    58
 90
        2
176
     1
 90
        2
176
     1
 90
        1
176
     1
 90
        1
176
     1
 40
0.5
176
     1
 40
30.0
176
     1
 62
     7
420
 16777215
176
     1
 90
        1
176
     1
 90
        0
176
     1
 62
     7
176
     1
 62
   257
176
     1
 90
        1
176
     1
 90
        1
176
     1
 40
1.0
176
     1
 90
        8
176
     1
 62
     7
176
     1
 40
1.0
176
     1
 90
        1
176
     1
 90
        6
176
     1
 90
        2
176
     1
 62
     7
176
     1
 90
        3
176
     1
 90
        0
176
     1
 90
        0
176
     1
290
     0
176
     1
 90
       13
176
     1
 40
0.0
176
     1
 90
        0
176
     1
290
     0
176
     1
290
     1
176
     1
290
     1
176
     1
290
     0
176
     1
290
     0
176
     1
290
     0
176
     1
290
     0
176
     1
290
     0
176
     1
290
     0
176
     1
 90
       50
176
     1
 40
0.0
176
     1
 40
1.0
176
     1
 90
        0
176
     1
 62
    18
420
        0
176
     1
 90
       50
176
     1
 90
        3
176
     1
 62
     5
420
      255
176
     1
290
     0
176
     1
 90
       50
176
     1
 90
       50
176
     1
 90
       50
176
     1
290
     0
176
     1
 90
       50
176
     1
 62
   256
176
     0
 40
1.0
176
     0
 90
        2
176
     1
  1
strokes_ogs.tif
176
     1
290
     0
176
     1
 40
1.0
176
     1
 40
1.0
176
     1
  0
DICTIONARYVAR
  5
5AF
102
{ACAD_REACTORS
330
5AE
102
}
330
5AE
100
DictionaryVariables
280
     0
  1
1:1
  0
DICTIONARYVAR
  5
5B3
102
{ACAD_REACTORS
330
5AE
102
}
330
5AE
100
DictionaryVariables
280
     0
  1
Standard
  0
CSACDOCUMENTOPTIONS
  5
5A4
102
{ACAD_REACTORS
330
5A3
102
}
330
5A3
  0
XRECORD
  5
5A8
102
{ACAD_REACTORS
330
59F
102
}
330
59F
100
AcDbXrecord
280
     1
300
MC_VERSION_DATA
 90
       95
310
0600000002000000570000001C000000E404000000000000000000007801936764E5D8CF7A8393818115C460606066E0646662626666706006F214793899F8DE3171E725E6E53B3BBA2878E6951050AF75FEFFFFFF520032DE0F3057000000
  0
XRECORD
  5
5A0
102
{ACAD_REACTORS
330
59F
102
}
330
59F
100
AcDbXrecord
280
     1
300
MCS_DOCUMENT_ID
 90
       60
310
0600000002000000150000001C000000E404000000000000000000007801E3E52D616934B14F729BA5B22D61BDB8CE8BFF4000004C5909D915000000
  0
XRECORD
  5
5A6
102
{ACAD_REACTORS
330
59F
102
}
330
59F
100
AcDbXrecord
280
     1
300
MCS_PARAMS_DATA
 90
     3313
310
0600000002000000F64B00001C000000E404000000000000000000007801C55C5B905C45199EE99EBDCCE67E5DA218172C303B91307B4B8C459531245054850D55591F78B236BB49B9BAC9E6B22A082A9655BE5865596569A965F9209288CF16503EC8834088C10B092404211702988430422E9084CDAEFFD7A7FBF4DFA7CF
310
D9D99D9D39930798FF3F7DCEF7DFFAFBBBFBCC6CDBFC46297252EECB48F9CDF5ED5234493921A5206D76815820B252E4F3225F128D7D5F59BF69E3162948D9A2D485B3131313747328BF06593E960915079422437734AA3BDAA5CCD053F5ED4FD2557D257BAB94DF007A03479F859BB2B22193C9108EC1CDCADC0464C27506
310
28605703E48886E0B986E10F03BF91E33707F8E3140E7A9091C8268236920C1C662240B94888A1C8E07600AE99C32D5131CA8B3925D172EFE62D7D6D9DABBA8ADDD6F17CE16D13F0457AE8AC9268DE32DABF73B07FCFA013F9BF8491D7C17E2550D8E8FFCA8DFE4E98B3929B331718B291824FFF72EB941D9E8E2211D5A93C
310
784A44C557923911258BD0C8640531AEEC61A924855B11378280384364A422680C0A928DB9C10CD89D581114199665B722B26E4590C82B0222AB08FAA8A60626C028E0044F81BA246F5360E167F2D27C56A10E05C058C13C59DEC6207679103AFC5DEADF992F2B284F67B31C8EE359B64A9665A62453228F64269D98455E3B
310
A4B35817F7EC92C86FB8EFFE8DBD5BEEDBDCAB0CD3B5FC8E99065A7E55D536E39DE7826237F1C8BBBCB3CFADFC93302087C80397EE69C2FF69CA32234F0763E41851010DA578E8294D435524988818E84710A7B2643B4F7C034F6CE5C9368F203BE8094C6268541D70D35EE4B585DAE170F4942EB8D2D422560A9917F34B62
310
CE86919D9F1F6DDBB36DD770FFC0B6BC682E898607BEB5737424F8D83B323AF07529CFC0B69BB96D9FD3CFF9B410ED79B1A42416161FEA29AEEDEEEC5ADF532C76DEF3C5AEEEB5CAECF97A60330D2C1C3579EAD0DA7621F20269BD6768746FDBF0D0DE51F3B0EE356B3ABBD6F474F7740D76770EACED08FCFC92BEAF13F701
310
B5AF7FEBF0B6B691ED6D7D23C3DBF6F4EF840FDA9AD583C58E81E240FFEAADDD5BD70EAC0E669D2A25F27FB610851F9335859F059541B9E5971EC7A5A7E83F2CE53DB9A4040555A2661A4DDBF2C560B2E54E7D5483931EF871F7C88E5DFDA3435B878687461F6EDB313248FE3596847C70DBDEBC682809D13B22E56A5856E4
310
E9998738519B6E2A89DCE6EDDBDB542AF4E4380F8F61A4965F57116093E5A052A06AF588670205D9A715FB49B140D81A90855F902680EBB8B3A3187EEA96F2B224E392BAF898328CB1AD47DA34C1601A1B421AD816D190715CC3F276A5DE067C546F03AED6DB808FEB6DC0B57A1BB00853B49EB3E0937A47E07ABD0D188301
310
71CB797197D3603B1D06BFCB6DB024827C0C834324E60945463B3712E196397079076E990B47228783C8E09631B8F129C211385B3E540C97413DC70673C524DEAD70BD23917B079179B782793791AE77D944EFDCDC5529988B13E1069D6092C472A7F777A6F648E4C184C88239C8822913E16AE29D48176E29E0727C316496
310
EF2A967C95165E504B0C2B218EEE82DD5C63513CD614C5091F6D6FA7551865CC5C5030A1E0A3E84BEC86CFD04EC5DD01AA74CBDB05AB8C403295A124BB2908C4B032B4682A032283FB103E391B4E03172C7199C4E0F88E871E8855ADA1482D3238FA1846E0B807A77785BFF935FE1D74369F5647D0D171CA5F4F09337C2559
310
105132935A503D6DBC7A94B54D2B6DF1E0339960F436A97441791E5EC104D40283580888C4FDED577B1FD8B4B9AF6FE30605D8AAD7F1F34A62F6DD5BBEC62E92057A31FEA25A9DB3F5FBD3C1729D9CD723B0BF0DE8402BB05A67160DDE4416E59079C0D9EAA575B7321F67115FC018C76AB5B3A33D06B68CBD9BFBDC93C073
310
800CC384FD360C544F539B6F02B1820953BE9D01DE01C0D85A6C50369A5AC4065C7760793B965800321749E4B50891C0C2AB0CAE9808178444974C70F875952A9381563C01BE9D08EAFA481283ABD8C7EF7870DAABE068E68833DFAC8EA0A3E3F87C0B07AA507B2311F0889285BDC333294C4E2DB27C67BA70ABD2857B688A
310
70552AA7873DB8489E55063D5D2DCBE9BB9E49F1E554A5083C922EDCA3E9C27D2F5DB8EF7B705EE9D87E1E920E88313AAE6AECF4FBD668D3D30DB4E51ADA9BEDB0D7AFCEB4DDED85F7C4ECF6551B3BCE2AFF6E835E49458EC94883D6E73C45753FAE614C3C0A0362777435D915EC025C33F7578776011DE6F3D066954C59D6
310
D76F86AC9CD58A53F4122CF0552BAE070AEA3B5AF15752304F1F47569D50AB71F41A31FA5A51C904CD43C6B0F51D2ACEFC112ACC4CC1B0FF086CE7AD5A4D096A005126387AAD451EE384D9C035A925859E39C1AA865EE9A9B8DA21CEE289167F7CF1D4C4BC7A125EC5AED5D8BB0B5A9D9144D134CFA71BF85A8D44BE568348
310
F6AA55A2F3CAEA4F6982FD21118CC249D3CBF852A586F244BA70FBD285DB9F085793EDE56E143F0AD06C6B4CB2242BDD3DD1419166C2865E81F9CE1648F3CBD84597B22E28992A3DDCE24C77F3F311A01C8A722828EC3CF15F7D987933F818F8E59BC138E5CD4CE8AC24C94E68BA32F5C3CBAB808B6B06B9936E642F9F804C
310
903AF2F3709D37832318A078E4B37AEBDCFAA66859945B9EBB25776BAE2DD3995995E9CA1433DDFA4DAC7ECE6FE93696E96BB06712968ED2661884A9EE40230F60D0D73DE8C858453B9E8E4212D5A9B0784A762662599FEDD18C9299F4094C728A91F536658E91CDA6DFC8E89F363B15B4CB31404FD2581CF722BBF229B517
310
430944E56AB2E2A8E3461950730F2B7ECA7BC570E389706E8BA9D241C744225C40C29385944F707279EA277D998065D9EAD604B1263E66D38513E9C2490F4EE7CC6E8AA89C3D9DA588701CA708AB6414C194931EE3FC0D4515D71A4FBFE712F8CB4A26532A6E8DCF01CA61A3745BE3F3C09F6E6B442F0CD7BAD36A8D2F002E
310
AE359E3BE646F6B8926D6BBC0CD9926FBEF08C5220B9BAE91D0E14769FF44B52301E3C00E8FA74C117BD24F396E22C7F1005F2DA2902EB76053DE720B0D3EE397F2F036AE8B24A3DE750225C4DF8F8A544B81AF69C7F2482D6C4C77F067093EF36FE359541FF8E0E8A50399BA22F63681CEF0EBDEBB2C3834A9E09EF1E0654
310
1D79F708F0A7CBBB956F495E015C1CEFEE3EEC46B65FC996771F856C09285F58A7148C77872F6104D6DC9A8897D30896D457015D1FDE3DEA25B91CEFF2EBD6EB0A68F718A0D3A6DDD7CA805699768F27C2D584925E4F84AB9476A39B03E744D09CD6610FF59F44E89A78FA46BA70DDDE0ADC144A4DBCEBF1E0221D416DC23D
310
1D715254A766A8A7AC60C1FF26021ED7783E889CD89C52F24C1ACF0940D5B1F19C047E7A8DE714E0E21ACFD5436EE339AB64DB78E44B91C6730003ECCB897CE1D28548E3798246B0C6731AD0536D3CB3E90740046E0B5FD5161351555C247A084506FA9607AAEBD39C44F1E2B63A5BDCA18E17B755B2E2664A322602C34C3A
310
0393625B51C09BC60D77315EF1E1C8DB80730A9C37D5B8CD0EBF3EA3A6FB4EA2A7C18B1B2746D53A5F7BB70C687C78291FE10E3A386EE3054657F9CB297E9CF703B0E71DFC4DA3397B4068C3CF33A1A81F02C2C920DB8E7ABF712005813923946BAE06DE453454B45CC32AF6311810C751E3F85A979E7874424F9299B34AB2
310
210DC430A45A3473162283FB2F3218C7FE178FBB1CF59692CDAD957C0DECAC3739580882F7E26636C4FC0874E66F42CE013F2EB274A4C323CBB88082C5B980AE4CFD4DC879C0C5B1FFF5E7DDC89E57324556799F2F34BC006EC70CD18A8318C0D9FF0AB6807CDBB19F46B0A4BE07E8B4D9FF8207EA504E3D7E65FA3E4C7226
310
B329B0E8D703AAFEBAA304E869379E693123CD68457958A4FF2F11AE86ECFF4119D078F6E7138AD87FF2370F86D6E1E38789702D76FED2134932CCA824CB8C811832A3160D33426421BD980847AF6F0C11D33DEECB1CFE9B7175D1F926045DE5BD8DBFBDBE94081764D0049324E6DDB40A8607F372225C4D16463974B5B836
310
F393232E193EA2E499B49986C93A780A6DA631A981D7A6CD34012EAECDFCFC5937B23F52B26D33BF83CCDBCC56A5C0ECD07DE7A7A7226D661D8D6033A419D0536D33E07F56B8C4CA7C0D48229F9610695A461A0883CE7B494E8DD95B004DF38E8247AB09FE45AC1A52EDAC32A0861DD8DA85D8A76276989D08579353913989
310
700119397510D9BB4CAB9DF096393711B4263ECE4B176E7EBA700B3C389DB3F0B5335AA6A7234288EA142D784A9083AFB414616018456CF24C3293C4CD2F49D3E5A5F0410CEE7E0F2E6A6FEA11580893E29AEE529C2FC11C4DF48D4AA628982DB44A422820F8563073C8F989CF2240392BED74F7768B819FDEDE6E09E0E29A
310
EE72FA030B3CB273954C91D5916E87CC9BEEFB4FAB1E6B73B10CFB6CBEB73B4423589D2D05F4CC9AAE2E4C768646F0614DBB4BD40606DDEA2539B5A67B13A0D36EBACBCA809A9055A7E9E24B8E0D79912B896C91FE0C1655C17843E129FA335B3277F4E8510807513CB9CC44868E210AF7FE19028691B0917E39482B125CF8
310
D4FF01F0B312DAF64B0000
  0
TABLECONTENT
  5
5AA
330
5AD
100
AcDbLinkedData
  1

300

100
AcDbLinkedTableData
 90
        5
300
COLUMN
  1
LINKEDTABLEDATACOLUMN_BEGIN
300

 91
        0
301
CUSTOMDATA
  1
DATAMAP_BEGIN
 90
        0
309
DATAMAP_END
309
LINKEDTABLEDATACOLUMN_END
  1
FORMATTEDTABLEDATACOLUMN_BEGIN
300
COLUMNTABLEFORMAT
  1
TABLEFORMAT_BEGIN
 90
        3
170
     0
309
TABLEFORMAT_END
309
FORMATTEDTABLEDATACOLUMN_END
  1
TABLECOLUMN_BEGIN
 90
        0
 40
10.0
309
TABLECOLUMN_END
300
COLUMN
  1
LINKEDTABLEDATACOLUMN_BEGIN
300

 91
        0
301
CUSTOMDATA
  1
DATAMAP_BEGIN
 90
        0
309
DATAMAP_END
309
LINKEDTABLEDATACOLUMN_END
  1
FORMATTEDTABLEDATACOLUMN_BEGIN
300
COLUMNTABLEFORMAT
  1
TABLEFORMAT_BEGIN
 90
        3
170
     0
309
TABLEFORMAT_END
309
FORMATTEDTABLEDATACOLUMN_END
  1
TABLECOLUMN_BEGIN
 90
        0
 40
10.0
309
TABLECOLUMN_END
300
COLUMN
  1
LINKEDTABLEDATACOLUMN_BEGIN
300

 91
        0
301
CUSTOMDATA
  1
DATAMAP_BEGIN
 90
        0
309
DATAMAP_END
309
LINKEDTABLEDATACOLUMN_END
  1
FORMATTEDTABLEDATACOLUMN_BEGIN
300
COLUMNTABLEFORMAT
  1
TABLEFORMAT_BEGIN
 90
        3
170
     0
309
TABLEFORMAT_END
309
FORMATTEDTABLEDATACOLUMN_END
  1
TABLECOLUMN_BEGIN
 90
        0
 40
10.0
309
TABLECOLUMN_END
300
COLUMN
  1
LINKEDTABLEDATACOLUMN_BEGIN
300

 91
        0
301
CUSTOMDATA
  1
DATAMAP_BEGIN
 90
        0
309
DATAMAP_END
309
LINKEDTABLEDATACOLUMN_END
  1
FORMATTEDTABLEDATACOLUMN_BEGIN
300
COLUMNTABLEFORMAT
  1
TABLEFORMAT_BEGIN
 90
        3
170
     0
309
TABLEFORMAT_END
309
FORMATTEDTABLEDATACOLUMN_END
  1
TABLECOLUMN_BEGIN
 90
        0
 40
40.0
309
TABLECOLUMN_END
300
COLUMN
  1
LINKEDTABLEDATACOLUMN_BEGIN
300

 91
        0
301
CUSTOMDATA
  1
DATAMAP_BEGIN
 90
        0
309
DATAMAP_END
309
LINKEDTABLEDATACOLUMN_END
  1
FORMATTEDTABLEDATACOLUMN_BEGIN
300
COLUMNTABLEFORMAT
  1
TABLEFORMAT_BEGIN
 90
        3
170
     0
309
TABLEFORMAT_END
309
FORMATTEDTABLEDATACOLUMN_END
  1
TABLECOLUMN_BEGIN
 90
        0
 40
20.0
309
TABLECOLUMN_END
 91
        5
301
ROW
  1
LINKEDTABLEDATAROW_BEGIN
 90
        5
300
CELL
  1
LINKEDTABLEDATACELL_BEGIN
 90
        0
300

 91
        0
301
CUSTOMDATA
  1
DATAMAP_BEGIN
 90
        1
300
ACAD_ROUNDTRIP_2008_CELL_CHECKSUM
301
DATAMAP_VALUE
 93
        2
 90
        2
140
32.0
 94
        0
300

302

304
ACVALUE_END
309
DATAMAP_END
 92
        0
 95
        1
302
CONTENT
  1
CELLCONTENT_BEGIN
 90
        1
300
VALUE
 93
        2
 90
        4
  1
 
 94
        0
300

302
 
304
ACVALUE_END
 91
        0
309
CELLCONTENT_END
  1
FORMATTEDCELLCONTENT_BEGIN
170
     1
300
CONTENTFORMAT
  1
CONTENTFORMAT_BEGIN
 90
      132
 91
        0
 92
      512
 93
        0
300

 40
0.0
140
1.0
 94
        1
 62
     0
340
0
144
3.5
309
CONTENTFORMAT_END
309
FORMATTEDCELLCONTENT_END
309
LINKEDTABLEDATACELL_END
  1
FORMATTEDTABLEDATACELL_BEGIN
300
CELLTABLEFORMAT
  1
TABLEFORMAT_BEGIN
 90
        1
170
     1
 91
        0
 92
        0
 62
   257
 93
        1
300
CONTENTFORMAT
  1
CONTENTFORMAT_BEGIN
 90
        0
 91
        0
 92
      512
 93
        0
300

 40
0.0
140
1.0
 94
        1
 62
     0
340
0
144
0.18
309
CONTENTFORMAT_END
171
     0
 94
        0
309
TABLEFORMAT_END
309
FORMATTEDTABLEDATACELL_END
  1
TABLECELL_BEGIN
 90
        0
 91
        0
309
TABLECELL_END
300
CELL
  1
LINKEDTABLEDATACELL_BEGIN
 90
        0
300

 91
        0
301
CUSTOMDATA
  1
DATAMAP_BEGIN
 90
        0
309
DATAMAP_END
 92
        0
 95
        0
309
LINKEDTABLEDATACELL_END
  1
FORMATTEDTABLEDATACELL_BEGIN
300
CELLTABLEFORMAT
  1
TABLEFORMAT_BEGIN
 90
        1
170
     1
 91
        0
 92
        0
 62
   257
 93
        1
300
CONTENTFORMAT
  1
CONTENTFORMAT_BEGIN
 90
        0
 91
        0
 92
      512
 93
        0
300

 40
0.0
140
1.0
 94
        1
 62
     0
340
0
144
0.18
309
CONTENTFORMAT_END
171
     0
 94
        0
309
TABLEFORMAT_END
309
FORMATTEDTABLEDATACELL_END
  1
TABLECELL_BEGIN
 90
        0
 91
        0
309
TABLECELL_END
300
CELL
  1
LINKEDTABLEDATACELL_BEGIN
 90
        0
300

 91
        0
301
CUSTOMDATA
  1
DATAMAP_BEGIN
 90
        0
309
DATAMAP_END
 92
        0
 95
        0
309
LINKEDTABLEDATACELL_END
  1
FORMATTEDTABLEDATACELL_BEGIN
300
CELLTABLEFORMAT
  1
TABLEFORMAT_BEGIN
 90
        1
170
     1
 91
        0
 92
        0
 62
   257
 93
        1
300
CONTENTFORMAT
  1
CONTENTFORMAT_BEGIN
 90
        0
 91
        0
 92
      512
 93
        0
300

 40
0.0
140
1.0
 94
        1
 62
     0
340
0
144
0.18
309
CONTENTFORMAT_END
171
     0
 94
        0
309
TABLEFORMAT_END
309
FORMATTEDTABLEDATACELL_END
  1
TABLECELL_BEGIN
 90
        0
 91
        0
309
TABLECELL_END
300
CELL
  1
LINKEDTABLEDATACELL_BEGIN
 90
        0
300

 91
        0
301
CUSTOMDATA
  1
DATAMAP_BEGIN
 90
        1
300
ACAD_ROUNDTRIP_2008_CELL_CHECKSUM
301
DATAMAP_VALUE
 93
        2
 90
        2
140
3416.0
 94
        0
300

302

304
ACVALUE_END
309
DATAMAP_END
 92
        0
 95
        1
302
CONTENT
  1
CELLCONTENT_BEGIN
 90
        1
300
VALUE
 93
        2
 90
        4
  1
A255_C_401
 94
        0
300

302
A255_C_401
304
ACVALUE_END
 91
        0
309
CELLCONTENT_END
  1
FORMATTEDCELLCONTENT_BEGIN
170
     1
300
CONTENTFORMAT
  1
CONTENTFORMAT_BEGIN
 90
      132
 91
        0
 92
      512
 93
        0
300

 40
0.0
140
1.0
 94
        1
 62
     0
340
0
144
3.0
309
CONTENTFORMAT_END
309
FORMATTEDCELLCONTENT_END
309
LINKEDTABLEDATACELL_END
  1
FORMATTEDTABLEDATACELL_BEGIN
300
CELLTABLEFORMAT
  1
TABLEFORMAT_BEGIN
 90
        1
170
     1
 91
       16
 92
        0
 62
   257
 93
        1
300
CONTENTFORMAT
  1
CONTENTFORMAT_BEGIN
 90
       16
 91
        0
 92
      512
 93
        0
300

 40
0.0
140
1.0
 94
        4
 62
     0
340
0
144
0.18
309
CONTENTFORMAT_END
171
     0
 94
        4
 95
        1
302
GRIDFORMAT
  1
GRIDFORMAT_BEGIN
 90
       26
 91
        1
 62
     0
 92
       -2
340
0
 93
        0
 40
0.045
309
GRIDFORMAT_END
 95
        4
302
GRIDFORMAT
  1
GRIDFORMAT_BEGIN
 90
       26
 91
        1
 62
     0
 92
       -2
340
0
 93
        0
 40
0.045
309
GRIDFORMAT_END
 95
        8
302
GRIDFORMAT
  1
GRIDFORMAT_BEGIN
 90
       26
 91
        1
 62
     0
 92
       -2
340
0
 93
        0
 40
0.045
309
GRIDFORMAT_END
 95
       32
302
GRIDFORMAT
  1
GRIDFORMAT_BEGIN
 90
       26
 91
        1
 62
     0
 92
       -2
340
0
 93
        0
 40
0.045
309
GRIDFORMAT_END
309
TABLEFORMAT_END
309
FORMATTEDTABLEDATACELL_END
  1
TABLECELL_BEGIN
 90
        0
 91
        0
309
TABLECELL_END
300
CELL
  1
LINKEDTABLEDATACELL_BEGIN
 90
        0
300

 91
        0
301
CUSTOMDATA
  1
DATAMAP_BEGIN
 90
        1
300
ACAD_ROUNDTRIP_2008_CELL_CHECKSUM
301
DATAMAP_VALUE
 93
        2
 90
        2
140
1398.0
 94
        0
300

302

304
ACVALUE_END
309
DATAMAP_END
 92
        0
 95
        1
302
CONTENT
  1
CELLCONTENT_BEGIN
 90
        1
300
VALUE
 93
        2
 90
        4
  1
Rev:00
 94
        0
300

302
Rev:00
304
ACVALUE_END
 91
        0
309
CELLCONTENT_END
  1
FORMATTEDCELLCONTENT_BEGIN
170
     1
300
CONTENTFORMAT
  1
CONTENTFORMAT_BEGIN
 90
      132
 91
        0
 92
      512
 93
        0
300

 40
0.0
140
1.0
 94
        1
 62
     0
340
0
144
3.5
309
CONTENTFORMAT_END
309
FORMATTEDCELLCONTENT_END
309
LINKEDTABLEDATACELL_END
  1
FORMATTEDTABLEDATACELL_BEGIN
300
CELLTABLEFORMAT
  1
TABLEFORMAT_BEGIN
 90
        1
170
     1
 91
       16
 92
        0
 62
   257
 93
        1
300
CONTENTFORMAT
  1
CONTENTFORMAT_BEGIN
 90
       16
 91
        0
 92
      512
 93
        0
300

 40
0.0
140
1.0
 94
        4
 62
     0
340
0
144
0.18
309
CONTENTFORMAT_END
171
     0
 94
        4
 95
        1
302
GRIDFORMAT
  1
GRIDFORMAT_BEGIN
 90
       26
 91
        1
 62
     0
 92
       -2
340
0
 93
        0
 40
0.045
309
GRIDFORMAT_END
 95
        4
302
GRIDFORMAT
  1
GRIDFORMAT_BEGIN
 90
       26
 91
        1
 62
     0
 92
       -2
340
0
 93
        0
 40
0.045
309
GRIDFORMAT_END
 95
        8
302
GRIDFORMAT
  1
GRIDFORMAT_BEGIN
 90
       26
 91
        1
 62
     0
 92
       -2
340
0
 93
        0
 40
0.045
309
GRIDFORMAT_END
 95
       32
302
GRIDFORMAT
  1
GRIDFORMAT_BEGIN
 90
       26
 91
        1
 62
     0
 92
       -2
340
0
 93
        0
 40
0.045
309
GRIDFORMAT_END
309
TABLEFORMAT_END
309
FORMATTEDTABLEDATACELL_END
  1
TABLECELL_BEGIN
 90
        0
 91
        0
309
TABLECELL_END
 91
        0
301
CUSTOMDATA
  1
DATAMAP_BEGIN
 90
        0
309
DATAMAP_END
309
LINKEDTABLEDATAROW_END
  1
FORMATTEDTABLEDATAROW_BEGIN
300
ROWTABLEFORMAT
  1
TABLEFORMAT_BEGIN
 90
        2
170
     0
309
TABLEFORMAT_END
309
FORMATTEDTABLEDATAROW_END
  1
TABLEROW_BEGIN
 90
        1
 40
6.0
309
TABLEROW_END
301
ROW
  1
LINKEDTABLEDATAROW_BEGIN
 90
        5
300
CELL
  1
LINKEDTABLEDATACELL_BEGIN
 90
        0
300

 91
        0
301
CUSTOMDATA
  1
DATAMAP_BEGIN
 90
        0
309
DATAMAP_END
 92
        0
 95
        0
309
LINKEDTABLEDATACELL_END
  1
FORMATTEDTABLEDATACELL_BEGIN
300
CELLTABLEFORMAT
  1
TABLEFORMAT_BEGIN
 90
        1
170
     1
 91
        0
 92
        0
 62
   257
 93
        1
300
CONTENTFORMAT
  1
CONTENTFORMAT_BEGIN
 90
        0
 91
        0
 92
      512
 93
        0
300

 40
0.0
140
1.0
 94
        1
 62
     0
340
0
144
0.18
309
CONTENTFORMAT_END
171
     0
 94
        0
309
TABLEFORMAT_END
309
FORMATTEDTABLEDATACELL_END
  1
TABLECELL_BEGIN
 90
        0
 91
        0
309
TABLECELL_END
300
CELL
  1
LINKEDTABLEDATACELL_BEGIN
 90
        0
300

 91
        0
301
CUSTOMDATA
  1
DATAMAP_BEGIN
 90
        0
309
DATAMAP_END
 92
        0
 95
        0
309
LINKEDTABLEDATACELL_END
  1
FORMATTEDTABLEDATACELL_BEGIN
300
CELLTABLEFORMAT
  1
TABLEFORMAT_BEGIN
 90
        1
170
     1
 91
        0
 92
        0
 62
   257
 93
        1
300
CONTENTFORMAT
  1
CONTENTFORMAT_BEGIN
 90
        0
 91
        0
 92
      512
 93
        0
300

 40
0.0
140
1.0
 94
        1
 62
     0
340
0
144
0.18
309
CONTENTFORMAT_END
171
     0
 94
        0
309
TABLEFORMAT_END
309
FORMATTEDTABLEDATACELL_END
  1
TABLECELL_BEGIN
 90
        0
 91
        0
309
TABLECELL_END
300
CELL
  1
LINKEDTABLEDATACELL_BEGIN
 90
        0
300

 91
        0
301
CUSTOMDATA
  1
DATAMAP_BEGIN
 90
        0
309
DATAMAP_END
 92
        0
 95
        0
309
LINKEDTABLEDATACELL_END
  1
FORMATTEDTABLEDATACELL_BEGIN
300
CELLTABLEFORMAT
  1
TABLEFORMAT_BEGIN
 90
        1
170
     1
 91
        0
 92
        0
 62
   257
 93
        1
300
CONTENTFORMAT
  1
CONTENTFORMAT_BEGIN
 90
        0
 91
        0
 92
      512
 93
        0
300

 40
0.0
140
1.0
 94
        1
 62
     0
340
0
144
0.18
309
CONTENTFORMAT_END
171
     0
 94
        0
309
TABLEFORMAT_END
309
FORMATTEDTABLEDATACELL_END
  1
TABLECELL_BEGIN
 90
        0
 91
        0
309
TABLECELL_END
300
CELL
  1
LINKEDTABLEDATACELL_BEGIN
 90
        0
300

 91
        0
301
CUSTOMDATA
  1
DATAMAP_BEGIN
 90
        1
300
ACAD_ROUNDTRIP_2008_CELL_CHECKSUM
301
DATAMAP_VALUE
 93
        2
 90
        2
140
3105.0
 94
        0
300

302

304
ACVALUE_END
309
DATAMAP_END
 92
        0
 95
        1
302
CONTENT
  1
CELLCONTENT_BEGIN
 90
        1
300
VALUE
 93
        2
 90
        4
  1
Scale:1:1
 94
        0
300

302
Scale:1:1
304
ACVALUE_END
 91
        0
309
CELLCONTENT_END
  1
FORMATTEDCELLCONTENT_BEGIN
170
     1
300
CONTENTFORMAT
  1
CONTENTFORMAT_BEGIN
 90
      132
 91
        0
 92
      512
 93
        0
300

 40
0.0
140
1.0
 94
        1
 62
     0
340
0
144
3.5
309
CONTENTFORMAT_END
309
FORMATTEDCELLCONTENT_END
309
LINKEDTABLEDATACELL_END
  1
FORMATTEDTABLEDATACELL_BEGIN
300
CELLTABLEFORMAT
  1
TABLEFORMAT_BEGIN
 90
        1
170
     1
 91
       16
 92
        0
 62
   257
 93
        1
300
CONTENTFORMAT
  1
CONTENTFORMAT_BEGIN
 90
       16
 91
        0
 92
      512
 93
        0
300

 40
0.0
140
1.0
 94
        1
 62
     0
340
0
144
0.18
309
CONTENTFORMAT_END
171
     0
 94
        4
 95
        1
302
GRIDFORMAT
  1
GRIDFORMAT_BEGIN
 90
       26
 91
        1
 62
     0
 92
       -2
340
0
 93
        0
 40
0.045
309
GRIDFORMAT_END
 95
        4
302
GRIDFORMAT
  1
GRIDFORMAT_BEGIN
 90
       26
 91
        1
 62
     0
 92
       -2
340
0
 93
        0
 40
0.045
309
GRIDFORMAT_END
 95
        8
302
GRIDFORMAT
  1
GRIDFORMAT_BEGIN
 90
       26
 91
        1
 62
     0
 92
       -2
340
0
 93
        0
 40
0.045
309
GRIDFORMAT_END
 95
       32
302
GRIDFORMAT
  1
GRIDFORMAT_BEGIN
 90
       26
 91
        1
 62
     0
 92
       -2
340
0
 93
        0
 40
0.045
309
GRIDFORMAT_END
309
TABLEFORMAT_END
309
FORMATTEDTABLEDATACELL_END
  1
TABLECELL_BEGIN
 90
        0
 91
        0
309
TABLECELL_END
300
CELL
  1
LINKEDTABLEDATACELL_BEGIN
 90
        0
300

 91
        0
301
CUSTOMDATA
  1
DATAMAP_BEGIN
 90
        1
300
ACAD_ROUNDTRIP_2008_CELL_CHECKSUM
301
DATAMAP_VALUE
 93
        2
 90
        2
140
167.0
 94
        0
300

302

304
ACVALUE_END
309
DATAMAP_END
 92
        0
 95
        1
302
CONTENT
  1
CELLCONTENT_BEGIN
 90
        1
300
VALUE
 93
        2
 90
        4
  1
A3
 94
        0
300

302
A3
304
ACVALUE_END
 91
        0
309
CELLCONTENT_END
  1
FORMATTEDCELLCONTENT_BEGIN
170
     1
300
CONTENTFORMAT
  1
CONTENTFORMAT_BEGIN
 90
      132
 91
        0
 92
      512
 93
        0
300

 40
0.0
140
1.0
 94
        1
 62
     0
340
0
144
3.5
309
CONTENTFORMAT_END
309
FORMATTEDCELLCONTENT_END
309
LINKEDTABLEDATACELL_END
  1
FORMATTEDTABLEDATACELL_BEGIN
300
CELLTABLEFORMAT
  1
TABLEFORMAT_BEGIN
 90
        1
170
     1
 91
       16
 92
        0
 62
   257
 93
        1
300
CONTENTFORMAT
  1
CONTENTFORMAT_BEGIN
 90
       16
 91
        0
 92
      512
 93
        0
300

 40
0.0
140
1.0
 94
        4
 62
     0
340
0
144
0.18
309
CONTENTFORMAT_END
171
     0
 94
        4
 95
        1
302
GRIDFORMAT
  1
GRIDFORMAT_BEGIN
 90
       26
 91
        1
 62
     0
 92
       -2
340
0
 93
        0
 40
0.045
309
GRIDFORMAT_END
 95
        4
302
GRIDFORMAT
  1
GRIDFORMAT_BEGIN
 90
       26
 91
        1
 62
     0
 92
       -2
340
0
 93
        0
 40
0.045
309
GRIDFORMAT_END
 95
        8
302
GRIDFORMAT
  1
GRIDFORMAT_BEGIN
 90
       26
 91
        1
 62
     0
 92
       -2
340
0
 93
        0
 40
0.045
309
GRIDFORMAT_END
 95
       32
302
GRIDFORMAT
  1
GRIDFORMAT_BEGIN
 90
       26
 91
        1
 62
     0
 92
       -2
340
0
 93
        0
 40
0.045
309
GRIDFORMAT_END
309
TABLEFORMAT_END
309
FORMATTEDTABLEDATACELL_END
  1
TABLECELL_BEGIN
 90
        0
 91
        0
309
TABLECELL_END
 91
        0
301
CUSTOMDATA
  1
DATAMAP_BEGIN
 90
        0
309
DATAMAP_END
309
LINKEDTABLEDATAROW_END
  1
FORMATTEDTABLEDATAROW_BEGIN
300
ROWTABLEFORMAT
  1
TABLEFORMAT_BEGIN
 90
        2
170
     0
309
TABLEFORMAT_END
309
FORMATTEDTABLEDATAROW_END
  1
TABLEROW_BEGIN
 90
        2
 40
6.0
309
TABLEROW_END
301
ROW
  1
LINKEDTABLEDATAROW_BEGIN
 90
        5
300
CELL
  1
LINKEDTABLEDATACELL_BEGIN
 90
        0
300

 91
        0
301
CUSTOMDATA
  1
DATAMAP_BEGIN
 90
        0
309
DATAMAP_END
 92
        0
 95
        0
309
LINKEDTABLEDATACELL_END
  1
FORMATTEDTABLEDATACELL_BEGIN
300
CELLTABLEFORMAT
  1
TABLEFORMAT_BEGIN
 90
        1
170
     1
 91
        0
 92
        0
 62
   257
 93
        1
300
CONTENTFORMAT
  1
CONTENTFORMAT_BEGIN
 90
        0
 91
        0
 92
      512
 93
        0
300

 40
0.0
140
1.0
 94
        1
 62
     0
340
0
144
0.18
309
CONTENTFORMAT_END
171
     0
 94
        0
309
TABLEFORMAT_END
309
FORMATTEDTABLEDATACELL_END
  1
TABLECELL_BEGIN
 90
        0
 91
        0
309
TABLECELL_END
300
CELL
  1
LINKEDTABLEDATACELL_BEGIN
 90
        0
300

 91
        0
301
CUSTOMDATA
  1
DATAMAP_BEGIN
 90
        0
309
DATAMAP_END
 92
        0
 95
        0
309
LINKEDTABLEDATACELL_END
  1
FORMATTEDTABLEDATACELL_BEGIN
300
CELLTABLEFORMAT
  1
TABLEFORMAT_BEGIN
 90
        1
170
     1
 91
        0
 92
        0
 62
   257
 93
        1
300
CONTENTFORMAT
  1
CONTENTFORMAT_BEGIN
 90
        0
 91
        0
 92
      512
 93
        0
300

 40
0.0
140
1.0
 94
        1
 62
     0
340
0
144
0.18
309
CONTENTFORMAT_END
171
     0
 94
        0
309
TABLEFORMAT_END
309
FORMATTEDTABLEDATACELL_END
  1
TABLECELL_BEGIN
 90
        0
 91
        0
309
TABLECELL_END
300
CELL
  1
LINKEDTABLEDATACELL_BEGIN
 90
        0
300

 91
        0
301
CUSTOMDATA
  1
DATAMAP_BEGIN
 90
        0
309
DATAMAP_END
 92
        0
 95
        0
309
LINKEDTABLEDATACELL_END
  1
FORMATTEDTABLEDATACELL_BEGIN
300
CELLTABLEFORMAT
  1
TABLEFORMAT_BEGIN
 90
        1
170
     1
 91
        0
 92
        0
 62
   257
 93
        1
300
CONTENTFORMAT
  1
CONTENTFORMAT_BEGIN
 90
        0
 91
        0
 92
      512
 93
        0
300

 40
0.0
140
1.0
 94
        1
 62
     0
340
0
144
0.18
309
CONTENTFORMAT_END
171
     0
 94
        0
309
TABLEFORMAT_END
309
FORMATTEDTABLEDATACELL_END
  1
TABLECELL_BEGIN
 90
        0
 91
        0
309
TABLECELL_END
300
CELL
  1
LINKEDTABLEDATACELL_BEGIN
 90
        0
300

 91
        0
301
CUSTOMDATA
  1
DATAMAP_BEGIN
 90
        1
300
ACAD_ROUNDTRIP_2008_CELL_CHECKSUM
301
DATAMAP_VALUE
 93
        2
 90
        2
140
2476.0
 94
        0
300

302

304
ACVALUE_END
309
DATAMAP_END
 92
        0
 95
        1
302
CONTENT
  1
CELLCONTENT_BEGIN
 90
        1
300
VALUE
 93
        2
 90
        4
  1
REIKO 2.0
 94
        0
300

302
REIKO 2.0
304
ACVALUE_END
 91
        0
309
CELLCONTENT_END
  1
FORMATTEDCELLCONTENT_BEGIN
170
     1
300
CONTENTFORMAT
  1
CONTENTFORMAT_BEGIN
 90
      132
 91
        0
 92
      512
 93
        0
300

 40
0.0
140
1.0
 94
        1
 62
     0
340
0
144
3.5
309
CONTENTFORMAT_END
309
FORMATTEDCELLCONTENT_END
309
LINKEDTABLEDATACELL_END
  1
FORMATTEDTABLEDATACELL_BEGIN
300
CELLTABLEFORMAT
  1
TABLEFORMAT_BEGIN
 90
        1
170
     1
 91
       16
 92
        0
 62
   257
 93
        1
300
CONTENTFORMAT
  1
CONTENTFORMAT_BEGIN
 90
       16
 91
        0
 92
      512
 93
        0
300

 40
0.0
140
1.0
 94
        4
 62
     0
340
0
144
0.18
309
CONTENTFORMAT_END
171
     0
 94
        4
 95
        1
302
GRIDFORMAT
  1
GRIDFORMAT_BEGIN
 90
       26
 91
        1
 62
     0
 92
       -2
340
0
 93
        0
 40
0.045
309
GRIDFORMAT_END
 95
        4
302
GRIDFORMAT
  1
GRIDFORMAT_BEGIN
 90
       26
 91
        1
 62
     0
 92
       -2
340
0
 93
        0
 40
0.045
309
GRIDFORMAT_END
 95
        8
302
GRIDFORMAT
  1
GRIDFORMAT_BEGIN
 90
       26
 91
        1
 62
     0
 92
       -2
340
0
 93
        0
 40
0.045
309
GRIDFORMAT_END
 95
       32
302
GRIDFORMAT
  1
GRIDFORMAT_BEGIN
 90
       26
 91
        1
 62
     0
 92
       -2
340
0
 93
        0
 40
0.045
309
GRIDFORMAT_END
309
TABLEFORMAT_END
309
FORMATTEDTABLEDATACELL_END
  1
TABLECELL_BEGIN
 90
        0
 91
        0
309
TABLECELL_END
300
CELL
  1
LINKEDTABLEDATACELL_BEGIN
 90
        0
300

 91
        0
301
CUSTOMDATA
  1
DATAMAP_BEGIN
 90
        0
309
DATAMAP_END
 92
        0
 95
        0
309
LINKEDTABLEDATACELL_END
  1
FORMATTEDTABLEDATACELL_BEGIN
300
CELLTABLEFORMAT
  1
TABLEFORMAT_BEGIN
 90
        1
170
     1
 91
        0
 92
        0
 62
   257
 93
        1
300
CONTENTFORMAT
  1
CONTENTFORMAT_BEGIN
 90
        0
 91
        0
 92
      512
 93
        0
300

 40
0.0
140
1.0
 94
        1
 62
     0
340
0
144
0.18
309
CONTENTFORMAT_END
171
     0
 94
        0
309
TABLEFORMAT_END
309
FORMATTEDTABLEDATACELL_END
  1
TABLECELL_BEGIN
 90
        0
 91
        0
309
TABLECELL_END
 91
        0
301
CUSTOMDATA
  1
DATAMAP_BEGIN
 90
        0
309
DATAMAP_END
309
LINKEDTABLEDATAROW_END
  1
FORMATTEDTABLEDATAROW_BEGIN
300
ROWTABLEFORMAT
  1
TABLEFORMAT_BEGIN
 90
        2
170
     0
309
TABLEFORMAT_END
309
FORMATTEDTABLEDATAROW_END
  1
TABLEROW_BEGIN
 90
        3
 40
10.0
309
TABLEROW_END
301
ROW
  1
LINKEDTABLEDATAROW_BEGIN
 90
        5
300
CELL
  1
LINKEDTABLEDATACELL_BEGIN
 90
        0
300

 91
        0
301
CUSTOMDATA
  1
DATAMAP_BEGIN
 90
        0
309
DATAMAP_END
 92
        0
 95
        0
309
LINKEDTABLEDATACELL_END
  1
FORMATTEDTABLEDATACELL_BEGIN
300
CELLTABLEFORMAT
  1
TABLEFORMAT_BEGIN
 90
        1
170
     1
 91
        0
 92
        0
 62
   257
 93
        1
300
CONTENTFORMAT
  1
CONTENTFORMAT_BEGIN
 90
        0
 91
        0
 92
      512
 93
        0
300

 40
0.0
140
1.0
 94
        1
 62
     0
340
0
144
0.18
309
CONTENTFORMAT_END
171
     0
 94
        0
309
TABLEFORMAT_END
309
FORMATTEDTABLEDATACELL_END
  1
TABLECELL_BEGIN
 90
        0
 91
        0
309
TABLECELL_END
300
CELL
  1
LINKEDTABLEDATACELL_BEGIN
 90
        0
300

 91
        0
301
CUSTOMDATA
  1
DATAMAP_BEGIN
 90
        0
309
DATAMAP_END
 92
        0
 95
        0
309
LINKEDTABLEDATACELL_END
  1
FORMATTEDTABLEDATACELL_BEGIN
300
CELLTABLEFORMAT
  1
TABLEFORMAT_BEGIN
 90
        1
170
     1
 91
        0
 92
        0
 62
   257
 93
        1
300
CONTENTFORMAT
  1
CONTENTFORMAT_BEGIN
 90
        0
 91
        0
 92
      512
 93
        0
300

 40
0.0
140
1.0
 94
        1
 62
     0
340
0
144
0.18
309
CONTENTFORMAT_END
171
     0
 94
        0
309
TABLEFORMAT_END
309
FORMATTEDTABLEDATACELL_END
  1
TABLECELL_BEGIN
 90
        0
 91
        0
309
TABLECELL_END
300
CELL
  1
LINKEDTABLEDATACELL_BEGIN
 90
        0
300

 91
        0
301
CUSTOMDATA
  1
DATAMAP_BEGIN
 90
        0
309
DATAMAP_END
 92
        0
 95
        0
309
LINKEDTABLEDATACELL_END
  1
FORMATTEDTABLEDATACELL_BEGIN
300
CELLTABLEFORMAT
  1
TABLEFORMAT_BEGIN
 90
        1
170
     1
 91
        0
 92
        0
 62
   257
 93
        1
300
CONTENTFORMAT
  1
CONTENTFORMAT_BEGIN
 90
        0
 91
        0
 92
      512
 93
        0
300

 40
0.0
140
1.0
 94
        1
 62
     0
340
0
144
0.18
309
CONTENTFORMAT_END
171
     0
 94
        0
309
TABLEFORMAT_END
309
FORMATTEDTABLEDATACELL_END
  1
TABLECELL_BEGIN
 90
        0
 91
        0
309
TABLECELL_END
300
CELL
  1
LINKEDTABLEDATACELL_BEGIN
 90
        0
300

 91
        0
301
CUSTOMDATA
  1
DATAMAP_BEGIN
 90
        1
300
ACAD_ROUNDTRIP_2008_CELL_CHECKSUM
301
DATAMAP_VALUE
 93
        2
 90
        2
140
4743.0
 94
        0
300

302

304
ACVALUE_END
309
DATAMAP_END
 92
        0
 95
        1
302
CONTENT
  1
CELLCONTENT_BEGIN
 90
        1
300
VALUE
 93
        2
 90
        4
  1
DATE:14.02.23
 94
        0
300

302
DATE:14.02.23
304
ACVALUE_END
 91
        0
309
CELLCONTENT_END
  1
FORMATTEDCELLCONTENT_BEGIN
170
     1
300
CONTENTFORMAT
  1
CONTENTFORMAT_BEGIN
 90
      132
 91
        0
 92
      512
 93
        0
300

 40
0.0
140
1.0
 94
        1
 62
     0
340
0
144
2.5
309
CONTENTFORMAT_END
309
FORMATTEDCELLCONTENT_END
309
LINKEDTABLEDATACELL_END
  1
FORMATTEDTABLEDATACELL_BEGIN
300
CELLTABLEFORMAT
  1
TABLEFORMAT_BEGIN
 90
        1
170
     1
 91
       16
 92
        0
 62
   257
 93
        1
300
CONTENTFORMAT
  1
CONTENTFORMAT_BEGIN
 90
       16
 91
        0
 92
      512
 93
        0
300

 40
0.0
140
1.0
 94
        4
 62
     0
340
0
144
0.18
309
CONTENTFORMAT_END
171
     0
 94
        4
 95
        1
302
GRIDFORMAT
  1
GRIDFORMAT_BEGIN
 90
       26
 91
        1
 62
     0
 92
       -2
340
0
 93
        0
 40
0.045
309
GRIDFORMAT_END
 95
        4
302
GRIDFORMAT
  1
GRIDFORMAT_BEGIN
 90
       26
 91
        1
 62
     0
 92
       -2
340
0
 93
        0
 40
0.045
309
GRIDFORMAT_END
 95
        8
302
GRIDFORMAT
  1
GRIDFORMAT_BEGIN
 90
       26
 91
        1
 62
     0
 92
       -2
340
0
 93
        0
 40
0.045
309
GRIDFORMAT_END
 95
       32
302
GRIDFORMAT
  1
GRIDFORMAT_BEGIN
 90
       26
 91
        1
 62
     0
 92
       -2
340
0
 93
        0
 40
0.045
309
GRIDFORMAT_END
309
TABLEFORMAT_END
309
FORMATTEDTABLEDATACELL_END
  1
TABLECELL_BEGIN
 90
        0
 91
        0
309
TABLECELL_END
300
CELL
  1
LINKEDTABLEDATACELL_BEGIN
 90
        0
300

 91
        0
301
CUSTOMDATA
  1
DATAMAP_BEGIN
 90
        0
309
DATAMAP_END
 92
        0
 95
        0
309
LINKEDTABLEDATACELL_END
  1
FORMATTEDTABLEDATACELL_BEGIN
300
CELLTABLEFORMAT
  1
TABLEFORMAT_BEGIN
 90
        1
170
     1
 91
        0
 92
        0
 62
   257
 93
        1
300
CONTENTFORMAT
  1
CONTENTFORMAT_BEGIN
 90
        0
 91
        0
 92
      512
 93
        0
300

 40
0.0
140
1.0
 94
        1
 62
     0
340
0
144
0.18
309
CONTENTFORMAT_END
171
     0
 94
        0
309
TABLEFORMAT_END
309
FORMATTEDTABLEDATACELL_END
  1
TABLECELL_BEGIN
 90
        0
 91
        0
309
TABLECELL_END
 91
        0
301
CUSTOMDATA
  1
DATAMAP_BEGIN
 90
        0
309
DATAMAP_END
309
LINKEDTABLEDATAROW_END
  1
FORMATTEDTABLEDATAROW_BEGIN
300
ROWTABLEFORMAT
  1
TABLEFORMAT_BEGIN
 90
        2
170
     0
309
TABLEFORMAT_END
309
FORMATTEDTABLEDATAROW_END
  1
TABLEROW_BEGIN
 90
        3
 40
5.0
309
TABLEROW_END
301
ROW
  1
LINKEDTABLEDATAROW_BEGIN
 90
        5
300
CELL
  1
LINKEDTABLEDATACELL_BEGIN
 90
        0
300

 91
        0
301
CUSTOMDATA
  1
DATAMAP_BEGIN
 90
        1
300
ACAD_ROUNDTRIP_2008_CELL_CHECKSUM
301
DATAMAP_VALUE
 93
        2
 90
        2
140
1361482.0
 94
        0
300

302

304
ACVALUE_END
309
DATAMAP_END
 92
        0
 95
        1
302
CONTENT
  1
CELLCONTENT_BEGIN
 90
        1
300
VALUE
 93
        2
 90
        4
  1
Any integral or partial reproductions are prohibited \Pwithout prior authorisation of L & L Luce & Light s.r.l., \Pin accordance with the law in force. \PAll rights reserved.
 94
        0
300

302
Any integral or partial reproductions are prohibited \Pwithout prior authorisation of L & L Luce & Light s.r.l., \Pin accordance with the law in force. \PAll rights reserved.
304
ACVALUE_END
 91
        0
309
CELLCONTENT_END
  1
FORMATTEDCELLCONTENT_BEGIN
170
     1
300
CONTENTFORMAT
  1
CONTENTFORMAT_BEGIN
 90
      132
 91
        0
 92
      512
 93
        0
300

 40
0.0
140
1.0
 94
        1
 62
     0
340
0
144
2.25
309
CONTENTFORMAT_END
309
FORMATTEDCELLCONTENT_END
309
LINKEDTABLEDATACELL_END
  1
FORMATTEDTABLEDATACELL_BEGIN
300
CELLTABLEFORMAT
  1
TABLEFORMAT_BEGIN
 90
        1
170
     1
 91
       16
 92
        0
 62
   257
 93
        1
300
CONTENTFORMAT
  1
CONTENTFORMAT_BEGIN
 90
       16
 91
        0
 92
      512
 93
        0
300

 40
0.0
140
1.0
 94
        4
 62
     0
340
0
144
0.18
309
CONTENTFORMAT_END
171
     0
 94
        4
 95
        1
302
GRIDFORMAT
  1
GRIDFORMAT_BEGIN
 90
       26
 91
        1
 62
     0
 92
       -2
340
0
 93
        0
 40
0.045
309
GRIDFORMAT_END
 95
        4
302
GRIDFORMAT
  1
GRIDFORMAT_BEGIN
 90
       26
 91
        1
 62
     0
 92
       -2
340
0
 93
        0
 40
0.045
309
GRIDFORMAT_END
 95
        8
302
GRIDFORMAT
  1
GRIDFORMAT_BEGIN
 90
       26
 91
        1
 62
     0
 92
       -2
340
0
 93
        0
 40
0.045
309
GRIDFORMAT_END
 95
       32
302
GRIDFORMAT
  1
GRIDFORMAT_BEGIN
 90
       26
 91
        1
 62
     0
 92
       -2
340
0
 93
        0
 40
0.045
309
GRIDFORMAT_END
309
TABLEFORMAT_END
309
FORMATTEDTABLEDATACELL_END
  1
TABLECELL_BEGIN
 90
        0
 91
        0
309
TABLECELL_END
300
CELL
  1
LINKEDTABLEDATACELL_BEGIN
 90
        0
300

 91
        0
301
CUSTOMDATA
  1
DATAMAP_BEGIN
 90
        0
309
DATAMAP_END
 92
        0
 95
        0
309
LINKEDTABLEDATACELL_END
  1
FORMATTEDTABLEDATACELL_BEGIN
300
CELLTABLEFORMAT
  1
TABLEFORMAT_BEGIN
 90
        1
170
     1
 91
        0
 92
        0
 62
   257
 93
        1
300
CONTENTFORMAT
  1
CONTENTFORMAT_BEGIN
 90
        0
 91
        0
 92
      512
 93
        0
300

 40
0.0
140
1.0
 94
        1
 62
     0
340
0
144
0.18
309
CONTENTFORMAT_END
171
     0
 94
        0
309
TABLEFORMAT_END
309
FORMATTEDTABLEDATACELL_END
  1
TABLECELL_BEGIN
 90
        0
 91
        0
309
TABLECELL_END
300
CELL
  1
LINKEDTABLEDATACELL_BEGIN
 90
        0
300

 91
        0
301
CUSTOMDATA
  1
DATAMAP_BEGIN
 90
        0
309
DATAMAP_END
 92
        0
 95
        0
309
LINKEDTABLEDATACELL_END
  1
FORMATTEDTABLEDATACELL_BEGIN
300
CELLTABLEFORMAT
  1
TABLEFORMAT_BEGIN
 90
        1
170
     1
 91
        0
 92
        0
 62
   257
 93
        1
300
CONTENTFORMAT
  1
CONTENTFORMAT_BEGIN
 90
        0
 91
        0
 92
      512
 93
        0
300

 40
0.0
140
1.0
 94
        1
 62
     0
340
0
144
0.18
309
CONTENTFORMAT_END
171
     0
 94
        0
309
TABLEFORMAT_END
309
FORMATTEDTABLEDATACELL_END
  1
TABLECELL_BEGIN
 90
        0
 91
        0
309
TABLECELL_END
300
CELL
  1
LINKEDTABLEDATACELL_BEGIN
 90
        0
300

 91
        0
301
CUSTOMDATA
  1
DATAMAP_BEGIN
 90
        0
309
DATAMAP_END
 92
        0
 95
        0
309
LINKEDTABLEDATACELL_END
  1
FORMATTEDTABLEDATACELL_BEGIN
300
CELLTABLEFORMAT
  1
TABLEFORMAT_BEGIN
 90
        1
170
     1
 91
        0
 92
        0
 62
   257
 93
        1
300
CONTENTFORMAT
  1
CONTENTFORMAT_BEGIN
 90
        0
 91
        0
 92
      512
 93
        0
300

 40
0.0
140
1.0
 94
        1
 62
     0
340
0
144
0.18
309
CONTENTFORMAT_END
171
     0
 94
        0
309
TABLEFORMAT_END
309
FORMATTEDTABLEDATACELL_END
  1
TABLECELL_BEGIN
 90
        0
 91
        0
309
TABLECELL_END
300
CELL
  1
LINKEDTABLEDATACELL_BEGIN
 90
        0
300

 91
        0
301
CUSTOMDATA
  1
DATAMAP_BEGIN
 90
        0
309
DATAMAP_END
 92
        0
 95
        0
309
LINKEDTABLEDATACELL_END
  1
FORMATTEDTABLEDATACELL_BEGIN
300
CELLTABLEFORMAT
  1
TABLEFORMAT_BEGIN
 90
        1
170
     1
 91
        0
 92
        0
 62
   257
 93
        1
300
CONTENTFORMAT
  1
CONTENTFORMAT_BEGIN
 90
        0
 91
        0
 92
      512
 93
        0
300

 40
0.0
140
1.0
 94
        1
 62
     0
340
0
144
0.18
309
CONTENTFORMAT_END
171
     0
 94
        0
309
TABLEFORMAT_END
309
FORMATTEDTABLEDATACELL_END
  1
TABLECELL_BEGIN
 90
        0
 91
        0
309
TABLECELL_END
 91
        0
301
CUSTOMDATA
  1
DATAMAP_BEGIN
 90
        0
309
DATAMAP_END
309
LINKEDTABLEDATAROW_END
  1
FORMATTEDTABLEDATAROW_BEGIN
300
ROWTABLEFORMAT
  1
TABLEFORMAT_BEGIN
 90
        2
170
     0
309
TABLEFORMAT_END
309
FORMATTEDTABLEDATAROW_END
  1
TABLEROW_BEGIN
 90
        3
 40
13.0
309
TABLEROW_END
100
AcDbFormattedTableData
300
TABLEFORMAT
  1
TABLEFORMAT_BEGIN
 90
        4
170
     1
 91
    15360
 92
        0
 62
   257
 93
        1
300
CONTENTFORMAT
  1
CONTENTFORMAT_BEGIN
 90
        0
 91
        0
 92
      512
 93
        0
300

 40
0.0
140
1.0
 94
        1
 62
     0
340
0
144
0.18
309
CONTENTFORMAT_END
171
     1
301
MARGIN
  1
CELLMARGIN_BEGIN
 40
0.06
 40
0.06
 40
0.06
 40
0.06
 40
0.06
 40
0.06
309
CELLMARGIN_END
 94
        0
309
TABLEFORMAT_END
 90
        4
 91
        0
 92
        0
 93
        3
 94
        2
 91
        2
 92
        3
 93
        2
 94
        4
 91
        3
 92
        3
 93
        3
 94
        4
 91
        4
 92
        0
 93
        4
 94
        4
100
AcDbTableContent
340
57E
  0
TABLEGEOMETRY
  5
5AB
330
5AD
100
AcDbTableGeometry
 90
        5
 91
        5
 92
       25
 93
        0
 40
0.0
 41
0.0
330
0
 94
        0
 93
        0
 40
0.0
 41
0.0
330
0
 94
        0
 93
        0
 40
0.0
 41
0.0
330
0
 94
        0
 93
        0
 40
0.0
 41
0.0
330
0
 94
        0
 93
        0
 40
0.0
 41
0.0
330
0
 94
        0
 93
        0
 40
0.0
 41
0.0
330
0
 94
        0
 93
        0
 40
0.0
 41
0.0
330
0
 94
        0
 93
        0
 40
0.0
 41
0.0
330
0
 94
        0
 93
        0
 40
0.0
 41
0.0
330
0
 94
        0
 93
        0
 40
0.0
 41
0.0
330
0
 94
        0
 93
        0
 40
0.0
 41
0.0
330
0
 94
        0
 93
        0
 40
0.0
 41
0.0
330
0
 94
        0
 93
        0
 40
0.0
 41
0.0
330
0
 94
        0
 93
        0
 40
0.0
 41
0.0
330
0
 94
        0
 93
        0
 40
0.0
 41
0.0
330
0
 94
        0
 93
        0
 40
0.0
 41
0.0
330
0
 94
        0
 93
        0
 40
0.0
 41
0.0
330
0
 94
        0
 93
        0
 40
0.0
 41
0.0
330
0
 94
        0
 93
        0
 40
0.0
 41
0.0
330
0
 94
        0
 93
        0
 40
0.0
 41
0.0
330
0
 94
        0
 93
        0
 40
0.0
 41
0.0
330
0
 94
        0
 93
        0
 40
0.0
 41
0.0
330
0
 94
        0
 93
        0
 40
0.0
 41
0.0
330
0
 94
        0
 93
        0
 40
0.0
 41
0.0
330
0
 94
        0
 93
        0
 40
0.0
 41
0.0
330
0
 94
        0
  0
DICTIONARY
  5
5B0
330
57E
100
AcDbDictionary
280
     1
281
     1
  3
ACAD_ROUNDTRIP_2008_TABLESTYLE_CELLSTYLEMAP
360
5B1
  0
CELLSTYLEMAP
  5
5B1
102
{ACAD_REACTORS
330
5B0
102
}
330
5B0
100
AcDbCellStyleMap
 90
        3
300
CELLSTYLE
  1
TABLEFORMAT_BEGIN
 90
        5
170
     1
 91
        0
 92
        0
 62
   257
 93
        1
300
CONTENTFORMAT
  1
CONTENTFORMAT_BEGIN
 90
        0
 91
        0
 92
        4
 93
        0
300

 40
0.0
140
1.0
 94
        5
 62
     0
340
11
144
6.0
309
CONTENTFORMAT_END
171
     1
301
MARGIN
  1
CELLMARGIN_BEGIN
 40
1.5
 40
1.5
 40
1.5
 40
1.5
 40
1.5
 40
1.5
309
CELLMARGIN_END
 94
        6
 95
        1
302
GRIDFORMAT
  1
GRIDFORMAT_BEGIN
 90
        0
 91
        1
 62
     0
 92
       -2
340
14
 93
        0
 40
0.045
309
GRIDFORMAT_END
 95
        2
302
GRIDFORMAT
  1
GRIDFORMAT_BEGIN
 90
        0
 91
        1
 62
     0
 92
       -2
340
14
 93
        0
 40
0.045
309
GRIDFORMAT_END
 95
        4
302
GRIDFORMAT
  1
GRIDFORMAT_BEGIN
 90
        0
 91
        1
 62
     0
 92
       -2
340
14
 93
        0
 40
0.045
309
GRIDFORMAT_END
 95
        8
302
GRIDFORMAT
  1
GRIDFORMAT_BEGIN
 90
        0
 91
        1
 62
     0
 92
       -2
340
14
 93
        0
 40
0.045
309
GRIDFORMAT_END
 95
       16
302
GRIDFORMAT
  1
GRIDFORMAT_BEGIN
 90
        0
 91
        1
 62
     0
 92
       -2
340
14
 93
        0
 40
0.045
309
GRIDFORMAT_END
 95
       32
302
GRIDFORMAT
  1
GRIDFORMAT_BEGIN
 90
        0
 91
        1
 62
     0
 92
       -2
340
14
 93
        0
 40
0.045
309
GRIDFORMAT_END
309
TABLEFORMAT_END
  1
CELLSTYLE_BEGIN
 90
        1
 91
        1
300
_TITLE
309
CELLSTYLE_END
300
CELLSTYLE
  1
TABLEFORMAT_BEGIN
 90
        5
170
     1
 91
        0
 92
        0
 62
   257
 93
        1
300
CONTENTFORMAT
  1
CONTENTFORMAT_BEGIN
 90
        0
 91
        0
 92
        4
 93
        0
300

 40
0.0
140
1.0
 94
        5
 62
     0
340
11
144
4.5
309
CONTENTFORMAT_END
171
     1
301
MARGIN
  1
CELLMARGIN_BEGIN
 40
1.5
 40
1.5
 40
1.5
 40
1.5
 40
1.5
 40
1.5
309
CELLMARGIN_END
 94
        6
 95
        1
302
GRIDFORMAT
  1
GRIDFORMAT_BEGIN
 90
        0
 91
        1
 62
     0
 92
       -2
340
14
 93
        0
 40
0.045
309
GRIDFORMAT_END
 95
        2
302
GRIDFORMAT
  1
GRIDFORMAT_BEGIN
 90
        0
 91
        1
 62
     0
 92
       -2
340
14
 93
        0
 40
0.045
309
GRIDFORMAT_END
 95
        4
302
GRIDFORMAT
  1
GRIDFORMAT_BEGIN
 90
        0
 91
        1
 62
     0
 92
       -2
340
14
 93
        0
 40
0.045
309
GRIDFORMAT_END
 95
        8
302
GRIDFORMAT
  1
GRIDFORMAT_BEGIN
 90
        0
 91
        1
 62
     0
 92
       -2
340
14
 93
        0
 40
0.045
309
GRIDFORMAT_END
 95
       16
302
GRIDFORMAT
  1
GRIDFORMAT_BEGIN
 90
        0
 91
        1
 62
     0
 92
       -2
340
14
 93
        0
 40
0.045
309
GRIDFORMAT_END
 95
       32
302
GRIDFORMAT
  1
GRIDFORMAT_BEGIN
 90
        0
 91
        1
 62
     0
 92
       -2
340
14
 93
        0
 40
0.045
309
GRIDFORMAT_END
309
TABLEFORMAT_END
  1
CELLSTYLE_BEGIN
 90
        2
 91
        1
300
_HEADER
309
CELLSTYLE_END
300
CELLSTYLE
  1
TABLEFORMAT_BEGIN
 90
        5
170
     1
 91
        0
 92
        0
 62
   257
 93
        1
300
CONTENTFORMAT
  1
CONTENTFORMAT_BEGIN
 90
        0
 91
        0
 92
        4
 93
        0
300

 40
0.0
140
1.0
 94
        2
 62
     0
340
11
144
4.5
309
CONTENTFORMAT_END
171
     1
301
MARGIN
  1
CELLMARGIN_BEGIN
 40
1.5
 40
1.5
 40
1.5
 40
1.5
 40
1.5
 40
1.5
309
CELLMARGIN_END
 94
        6
 95
        1
302
GRIDFORMAT
  1
GRIDFORMAT_BEGIN
 90
        0
 91
        1
 62
     0
 92
       -2
340
14
 93
        0
 40
0.045
309
GRIDFORMAT_END
 95
        2
302
GRIDFORMAT
  1
GRIDFORMAT_BEGIN
 90
        0
 91
        1
 62
     0
 92
       -2
340
14
 93
        0
 40
0.045
309
GRIDFORMAT_END
 95
        4
302
GRIDFORMAT
  1
GRIDFORMAT_BEGIN
 90
        0
 91
        1
 62
     0
 92
       -2
340
14
 93
        0
 40
0.045
309
GRIDFORMAT_END
 95
        8
302
GRIDFORMAT
  1
GRIDFORMAT_BEGIN
 90
        0
 91
        1
 62
     0
 92
       -2
340
14
 93
        0
 40
0.045
309
GRIDFORMAT_END
 95
       16
302
GRIDFORMAT
  1
GRIDFORMAT_BEGIN
 90
        0
 91
        1
 62
     0
 92
       -2
340
14
 93
        0
 40
0.045
309
GRIDFORMAT_END
 95
       32
302
GRIDFORMAT
  1
GRIDFORMAT_BEGIN
 90
        0
 91
        1
 62
     0
 92
       -2
340
14
 93
        0
 40
0.045
309
GRIDFORMAT_END
309
TABLEFORMAT_END
  1
CELLSTYLE_BEGIN
 90
        3
 91
        2
300
_DATA
309
CELLSTYLE_END
  0
ENDSEC
  0
EOF
