  0
SECTION
  2
HEADER
  9
$ACADVER
  1
AC1027
  9
$ACADMAINTVER
 70
     8
  9
$DWGCODEPAGE
  3
ANSI_1252
  9
$REQUIREDVERSIONS
160
                 0
  9
$INSBASE
 10
0.0
 20
0.0
 30
0.0
  9
$EXTMIN
 10
0.0
 20
0.0
 30
0.0
  9
$EXTMAX
 10
297.0
 20
210.0
 30
0.0
  9
$LIMMIN
 10
0.0
 20
0.0
  9
$LIMMAX
 10
297.0
 20
210.0
  9
$ORTHOMODE
 70
     0
  9
$REGENMODE
 70
     1
  9
$FILLMODE
 70
     1
  9
$QTEXTMODE
 70
     0
  9
$MIRRTEXT
 70
     1
  9
$LTSCALE
 40
16.335
  9
$ATTMODE
 70
     1
  9
$TEXTSIZE
 40
0.2
  9
$TRACEWID
 40
0.05
  9
$TEXTSTYLE
  7
STANDARD
  9
$CLAYER
  8
0
  9
$CELTYPE
  6
BYLAYER
  9
$CECOLOR
 62
   256
  9
$CELTSCALE
 40
1.0
  9
$DISPSILH
 70
     0
  9
$DIMSCALE
 40
1.0
  9
$DIMASZ
 40
2.5
  9
$DIMEXO
 40
0.75
  9
$DIMDLI
 40
11.286
  9
$DIMRND
 40
0.0
  9
$DIMDLE
 40
0.0
  9
$DIMEXE
 40
0.75
  9
$DIMTP
 40
0.01
  9
$DIMTM
 40
0.01
  9
$DIMTXT
 40
3.0
  9
$DIMCEN
 40
2.673
  9
$DIMTSZ
 40
0.0
  9
$DIMTOL
 70
     1
  9
$DIMLIM
 70
     0
  9
$DIMTIH
 70
     1
  9
$DIMTOH
 70
     1
  9
$DIMSE1
 70
     0
  9
$DIMSE2
 70
     0
  9
$DIMTAD
 70
     0
  9
$DIMZIN
 70
     0
  9
$DIMBLK
  1
CLOSED
  9
$DIMASO
 70
     1
  9
$DIMSHO
 70
     1
  9
$DIMPOST
  1

  9
$DIMAPOST
  1

  9
$DIMALT
 70
     0
  9
$DIMALTD
 70
     2
  9
$DIMALTF
 40
25.4
  9
$DIMLFAC
 40
1.0
  9
$DIMTOFL
 70
     0
  9
$DIMTVP
 40
0.0
  9
$DIMTIX
 70
     0
  9
$DIMSOXD
 70
     0
  9
$DIMSAH
 70
     0
  9
$DIMBLK1
  1

  9
$DIMBLK2
  1

  9
$DIMSTYLE
  2
STANDARD
  9
$DIMCLRD
 70
     0
  9
$DIMCLRE
 70
     0
  9
$DIMCLRT
 70
     0
  9
$DIMTFAC
 40
1.0
  9
$DIMGAP
 40
0.625
  9
$DIMJUST
 70
     0
  9
$DIMSD1
 70
     0
  9
$DIMSD2
 70
     0
  9
$DIMTOLJ
 70
     1
  9
$DIMTZIN
 70
     0
  9
$DIMALTZ
 70
     0
  9
$DIMALTTZ
 70
     0
  9
$DIMUPT
 70
     0
  9
$DIMDEC
 70
     4
  9
$DIMTDEC
 70
     4
  9
$DIMALTU
 70
     2
  9
$DIMALTTD
 70
     2
  9
$DIMTXSTY
  7
STANDARD
  9
$DIMAUNIT
 70
     0
  9
$DIMADEC
 70
     0
  9
$DIMALTRND
 40
0.0
  9
$DIMAZIN
 70
     0
  9
$DIMDSEP
 70
    44
  9
$DIMATFIT
 70
     3
  9
$DIMFRAC
 70
     0
  9
$DIMLDRBLK
  1

  9
$DIMLUNIT
 70
     2
  9
$DIMLWD
 70
    -2
  9
$DIMLWE
 70
    -2
  9
$DIMTMOVE
 70
     0
  9
$DIMFXL
 40
1.0
  9
$DIMFXLON
 70
     0
  9
$DIMJOGANG
 40
0.785398
  9
$DIMTFILL
 70
     0
  9
$DIMTFILLCLR
 70
     0
  9
$DIMARCSYM
 70
     0
  9
$DIMLTYPE
  6

  9
$DIMLTEX1
  6

  9
$DIMLTEX2
  6

  9
$DIMTXTDIRECTION
 70
     0
  9
$LUNITS
 70
     2
  9
$LUPREC
 70
     4
  9
$SKETCHINC
 40
0.1
  9
$FILLETRAD
 40
0.5
  9
$AUNITS
 70
     0
  9
$AUPREC
 70
     0
  9
$MENU
  1
.
  9
$ELEVATION
 40
0.0
  9
$PELEVATION
 40
0.0
  9
$THICKNESS
 40
0.0
  9
$LIMCHECK
 70
     0
  9
$CHAMFERA
 40
0.0
  9
$CHAMFERB
 40
0.0
  9
$CHAMFERC
 40
0.0
  9
$CHAMFERD
 40
0.0
  9
$SKPOLY
 70
     0
  9
$TDCREATE
 40
2447893.041666667
  9
$TDUCREATE
 40
0.0
  9
$TDUPDATE
 40
2460273.582760197
  9
$TDUUPDATE
 40
2460273.54109353
  9
$TDINDWG
 40
0.0
  9
$TDUSRTIMER
 40
0.0
  9
$USRTIMER
 70
     1
  9
$ANGBASE
 50
0.0
  9
$ANGDIR
 70
     0
  9
$PDMODE
 70
     3
  9
$PDSIZE
 40
0.3125
  9
$PLINEWID
 40
0.0
  9
$SPLFRAME
 70
     0
  9
$SPLINETYPE
 70
     6
  9
$SPLINESEGS
 70
     8
  9
$HANDSEED
  5
505
  9
$SURFTAB1
 70
     6
  9
$SURFTAB2
 70
     6
  9
$SURFTYPE
 70
     6
  9
$SURFU
 70
     6
  9
$SURFV
 70
     6
  9
$UCSBASE
  2

  9
$UCSNAME
  2

  9
$UCSORG
 10
0.0
 20
0.0
 30
0.0
  9
$UCSXDIR
 10
1.0
 20
0.0
 30
0.0
  9
$UCSYDIR
 10
0.0
 20
1.0
 30
0.0
  9
$UCSORTHOREF
  2

  9
$UCSORTHOVIEW
 70
     0
  9
$UCSORGTOP
 10
0.0
 20
0.0
 30
0.0
  9
$UCSORGBOTTOM
 10
0.0
 20
0.0
 30
0.0
  9
$UCSORGLEFT
 10
0.0
 20
0.0
 30
0.0
  9
$UCSORGRIGHT
 10
0.0
 20
0.0
 30
0.0
  9
$UCSORGFRONT
 10
0.0
 20
0.0
 30
0.0
  9
$UCSORGBACK
 10
0.0
 20
0.0
 30
0.0
  9
$PUCSBASE
  2

  9
$PUCSNAME
  2

  9
$PUCSORG
 10
0.0
 20
0.0
 30
0.0
  9
$PUCSXDIR
 10
1.0
 20
0.0
 30
0.0
  9
$PUCSYDIR
 10
0.0
 20
1.0
 30
0.0
  9
$PUCSORTHOREF
  2

  9
$PUCSORTHOVIEW
 70
     0
  9
$PUCSORGTOP
 10
0.0
 20
0.0
 30
0.0
  9
$PUCSORGBOTTOM
 10
0.0
 20
0.0
 30
0.0
  9
$PUCSORGLEFT
 10
0.0
 20
0.0
 30
0.0
  9
$PUCSORGRIGHT
 10
0.0
 20
0.0
 30
0.0
  9
$PUCSORGFRONT
 10
0.0
 20
0.0
 30
0.0
  9
$PUCSORGBACK
 10
0.0
 20
0.0
 30
0.0
  9
$USERI1
 70
     0
  9
$USERI2
 70
     0
  9
$USERI3
 70
     0
  9
$USERI4
 70
     0
  9
$USERI5
 70
     0
  9
$USERR1
 40
0.0
  9
$USERR2
 40
0.0
  9
$USERR3
 40
0.0
  9
$USERR4
 40
0.0
  9
$USERR5
 40
0.0
  9
$WORLDVIEW
 70
     1
  9
$SHADEDGE
 70
     3
  9
$SHADEDIF
 70
    70
  9
$TILEMODE
 70
     1
  9
$MAXACTVP
 70
    64
  9
$PINSBASE
 10
0.0
 20
0.0
 30
0.0
  9
$PLIMCHECK
 70
     0
  9
$PEXTMIN
 10
1.000000E+20
 20
1.000000E+20
 30
1.000000E+20
  9
$PEXTMAX
 10
-1.000000E+20
 20
-1.000000E+20
 30
-1.000000E+20
  9
$PLIMMIN
 10
0.0
 20
0.0
  9
$PLIMMAX
 10
12.0
 20
9.0
  9
$UNITMODE
 70
     0
  9
$VISRETAIN
 70
     1
  9
$PLINEGEN
 70
     0
  9
$PSLTSCALE
 70
     0
  9
$TREEDEPTH
 70
  3020
  9
$CMLSTYLE
  2

  9
$CMLJUST
 70
     0
  9
$CMLSCALE
 40
1.0
  9
$PROXYGRAPHICS
 70
     1
  9
$MEASUREMENT
 70
     1
  9
$CELWEIGHT
370
    -1
  9
$ENDCAPS
280
     0
  9
$JOINSTYLE
280
     0
  9
$LWDISPLAY
290
     0
  9
$INSUNITS
 70
     4
  9
$HYPERLINKBASE
  1

  9
$STYLESHEET
  1

  9
$XEDIT
290
     1
  9
$CEPSNTYPE
380
     0
  9
$PSTYLEMODE
290
     1
  9
$FINGERPRINTGUID
  2
{D2C6734A-F1C7-4AB8-BF49-3C38D57606D0}
  9
$VERSIONGUID
  2
{FAEB1C32-E019-11D5-929B-00C0DF256EC4}
  9
$EXTNAMES
290
     1
  9
$PSVPSCALE
 40
0.0
  9
$OLESTARTUP
290
     0
  9
$SORTENTS
280
   127
  9
$INDEXCTL
280
     0
  9
$HIDETEXT
280
     1
  9
$XCLIPFRAME
280
     2
  9
$HALOGAP
280
     0
  9
$OBSCOLOR
 70
   257
  9
$OBSLTYPE
280
     0
  9
$INTERSECTIONDISPLAY
280
     0
  9
$INTERSECTIONCOLOR
 70
   257
  9
$DIMASSOC
280
     2
  9
$PROJECTNAME
  1

  9
$CAMERADISPLAY
290
     0
  9
$LENSLENGTH
 40
50.0
  9
$CAMERAHEIGHT
 40
0.0
  9
$STEPSPERSEC
 40
2.0
  9
$STEPSIZE
 40
6.0
  9
$3DDWFPREC
 40
2.0
  9
$PSOLWIDTH
 40
0.25
  9
$PSOLHEIGHT
 40
4.0
  9
$LOFTANG1
 40
1.570796
  9
$LOFTANG2
 40
1.570796
  9
$LOFTMAG1
 40
0.0
  9
$LOFTMAG2
 40
0.0
  9
$LOFTPARAM
 70
     7
  9
$LOFTNORMALS
280
     1
  9
$LATITUDE
 40
37.795
  9
$LONGITUDE
 40
-122.394
  9
$NORTHDIRECTION
 40
0.0
  9
$TIMEZONE
 70
 -8000
  9
$LIGHTGLYPHDISPLAY
280
     1
  9
$TILEMODELIGHTSYNCH
280
     1
  9
$SOLIDHIST
280
     1
  9
$SHOWHIST
280
     1
  9
$DWFFRAME
280
     2
  9
$DGNFRAME
280
     2
  9
$REALWORLDSCALE
290
     1
  9
$INTERFERECOLOR
 62
   256
  9
$CSHADOW
280
     0
  9
$SHADOWPLANELOCATION
 40
0.0
  0
ENDSEC
  0
SECTION
  2
CLASSES
  0
CLASS
  1
ACDBDICTIONARYWDFLT
  2
AcDbDictionaryWithDefault
  3
ObjectDBX Classes
 90
        0
 91
        6
280
     0
281
     0
  0
CLASS
  1
ACDBPLACEHOLDER
  2
AcDbPlaceHolder
  3
ObjectDBX Classes
 90
        0
 91
        1
280
     0
281
     0
  0
CLASS
  1
LAYOUT
  2
AcDbLayout
  3
ObjectDBX Classes
 90
        0
 91
        1
280
     0
281
     0
  0
CLASS
  1
TABLESTYLE
  2
AcDbTableStyle
  3
ObjectDBX Classes
 90
     4095
 91
        5
280
     0
281
     0
  0
CLASS
  1
ACAD_TABLE
  2
AcDbTable
  3
ObjectDBX Classes
 90
     1025
 91
        5
280
     0
281
     1
  0
CLASS
  1
SCALE
  2
AcDbScale
  3
ObjectDBX Classes
 90
     1153
 91
        5
280
     0
281
     0
  0
CLASS
  1
TABLEGEOMETRY
  2
AcDbTableGeometry
  3
ObjectDBX Classes
 90
     1152
 91
        4
280
     0
281
     0
  0
CLASS
  1
VISUALSTYLE
  2
AcDbVisualStyle
  3
ObjectDBX Classes
 90
     4095
 91
        5
280
     0
281
     0
  0
CLASS
  1
MATERIAL
  2
AcDbMaterial
  3
ObjectDBX Classes
 90
     1153
 91
        5
280
     0
281
     0
  0
CLASS
  1
SUN
  2
AcDbSun
  3
SCENEOE
 90
     1153
 91
        5
280
     0
281
     0
  0
CLASS
  1
CSACDOCUMENTOPTIONS
  2
CDocDataContainer
  3
"DERU003_CSAPP"
 90
     4095
 91
        4
280
     0
281
     0
  0
CLASS
  1
TABLECONTENT
  2
AcDbTableContent
  3
ObjectDBX Classes
 90
     1152
 91
        4
280
     0
281
     0
  0
CLASS
  1
DICTIONARYVAR
  2
AcDbDictionaryVar
  3
ObjectDBX Classes
 90
        0
 91
        4
280
     0
281
     0
  0
CLASS
  1
CELLSTYLEMAP
  2
AcDbCellStyleMap
  3
ObjectDBX Classes
 90
     1152
 91
        4
280
     0
281
     0
  0
ENDSEC
  0
SECTION
  2
TABLES
  0
TABLE
  2
VPORT
  5
8
330
0
100
AcDbSymbolTable
 70
     1
  0
VPORT
  5
1F4
330
8
100
AcDbSymbolTableRecord
100
AcDbViewportTableRecord
  2
*ACTIVE
 70
     0
 10
0.0
 20
0.0
 11
1.0
 21
1.0
 12
148.5
 22
105.0
 13
0.0
 23
0.0
 14
1.0
 24
1.0
 15
0.0
 25
0.0
 16
0.0
 26
0.0
 36
1.0
 17
0.0
 27
0.0
 37
0.0
 40
210.0
 41
1.980415
 42
50.0
 43
0.0
 44
0.0
 50
0.0
 51
0.0
 71
    16
 72
   100
 73
     1
 74
     1
 75
     0
 76
     0
 77
     0
 78
     0
281
     0
 65
     1
110
0.0
120
0.0
130
0.0
111
1.0
121
0.0
131
0.0
112
0.0
122
1.0
132
0.0
 79
     0
146
0.0
 60
     3
 61
     5
292
     1
282
     1
141
0.0
142
0.0
 63
   256
361
4F0
  0
ENDTAB
  0
TABLE
  2
LTYPE
  5
5
330
0
100
AcDbSymbolTable
 70
     6
  0
LTYPE
  5
14
330
5
100
AcDbSymbolTableRecord
100
AcDbLinetypeTableRecord
  2
BYBLOCK
 70
     0
  3

 72
    65
 73
     0
 40
0.0
  0
LTYPE
  5
15
330
5
100
AcDbSymbolTableRecord
100
AcDbLinetypeTableRecord
  2
BYLAYER
 70
     0
  3

 72
    65
 73
     0
 40
0.0
  0
LTYPE
  5
16
330
5
100
AcDbSymbolTableRecord
100
AcDbLinetypeTableRecord
  2
CONTINUOUS
 70
     0
  3
Solid line
 72
    65
 73
     0
 40
0.0
  0
LTYPE
  5
1F5
330
5
100
AcDbSymbolTableRecord
100
AcDbLinetypeTableRecord
  2
CENTER
 70
     0
  3
____ _ ____ _ ____ _ ____ _ ____ _ ____ _ ____
 72
    65
 73
     4
 40
0.6
 49
0.375
 74
     0
 49
-0.075
 74
     0
 49
0.075
 74
     0
 49
-0.075
 74
     0
  0
LTYPE
  5
1F6
330
5
100
AcDbSymbolTableRecord
100
AcDbLinetypeTableRecord
  2
HIDDEN
 70
     0
  3
- - - - - - - - - - - - - - - - - - - -
 72
    65
 73
     2
 40
0.2
 49
0.1
 74
     0
 49
-0.1
 74
     0
  0
LTYPE
  5
1F7
330
5
100
AcDbSymbolTableRecord
100
AcDbLinetypeTableRecord
  2
PHANTOM
 70
     0
  3
_____ _ _ _____ _ _ _____ _ _ _____
 72
    65
 73
     6
 40
0.8
 49
0.45
 74
     0
 49
-0.05
 74
     0
 49
0.1
 74
     0
 49
-0.05
 74
     0
 49
0.1
 74
     0
 49
-0.05
 74
     0
  0
LTYPE
  5
1F8
330
5
100
AcDbSymbolTableRecord
100
AcDbLinetypeTableRecord
  2
DOT
 70
     0
  3
. . . . . . . . . . . . . . . . . . . .
 72
    65
 73
     2
 40
0.2
 49
0.1
 74
     0
 49
-0.1
 74
     0
  0
LTYPE
  5
1F9
330
5
100
AcDbSymbolTableRecord
100
AcDbLinetypeTableRecord
  2
DASHED
 70
     0
  3
- - - - - - - - - - - - - - - - - - - -
 72
    65
 73
     2
 40
0.2
 49
0.1
 74
     0
 49
-0.1
 74
     0
  0
ENDTAB
  0
TABLE
  2
LAYER
  5
2
330
0
100
AcDbSymbolTable
 70
    24
  0
LAYER
  5
10
330
2
100
AcDbSymbolTableRecord
100
AcDbLayerTableRecord
  2
0
 70
     0
 62
     7
  6
CONTINUOUS
370
    -3
390
F
347
4EA
348
0
  0
LAYER
  5
1FA
330
2
100
AcDbSymbolTableRecord
100
AcDbLayerTableRecord
  2
DEFAULT_1
 70
     0
 62
     7
  6
CENTER
370
    -3
390
F
347
4EA
348
0
  0
LAYER
  5
1FB
330
2
100
AcDbSymbolTableRecord
100
AcDbLayerTableRecord
  2
DEFAULT_2
 70
     0
 62
     8
  6
HIDDEN
370
    -3
390
F
347
4EA
348
0
  0
LAYER
  5
1FC
330
2
100
AcDbSymbolTableRecord
100
AcDbLayerTableRecord
  2
DEFAULT_3
 70
     0
 62
     7
  6
PHANTOM
370
    -3
390
F
347
4EA
348
0
  0
LAYER
  5
1FD
330
2
100
AcDbSymbolTableRecord
100
AcDbLayerTableRecord
  2
01___PRT_ALL_DTM_PLN
 70
     0
 62
     7
  6
CONTINUOUS
370
    -3
390
F
347
4EA
348
0
  0
LAYER
  5
1FE
330
2
100
AcDbSymbolTableRecord
100
AcDbLayerTableRecord
  2
01___PRT_DEF_DTM_PLN
 70
     0
 62
     7
  6
CONTINUOUS
370
    -3
390
F
347
4EA
348
0
  0
LAYER
  5
1FF
330
2
100
AcDbSymbolTableRecord
100
AcDbLayerTableRecord
  2
02___PRT_ALL_AXES
 70
     0
 62
     7
  6
CONTINUOUS
370
    -3
390
F
347
4EA
348
0
  0
LAYER
  5
200
330
2
100
AcDbSymbolTableRecord
100
AcDbLayerTableRecord
  2
03___PRT_ALL_CURVES
 70
     0
 62
     7
  6
CONTINUOUS
370
    -3
390
F
347
4EA
348
0
  0
LAYER
  5
201
330
2
100
AcDbSymbolTableRecord
100
AcDbLayerTableRecord
  2
04___PRT_ALL_DTM_PNT
 70
     0
 62
     7
  6
CONTINUOUS
370
    -3
390
F
347
4EA
348
0
  0
LAYER
  5
202
330
2
100
AcDbSymbolTableRecord
100
AcDbLayerTableRecord
  2
05___PRT_ALL_DTM_CSYS
 70
     0
 62
     7
  6
CONTINUOUS
370
    -3
390
F
347
4EA
348
0
  0
LAYER
  5
203
330
2
100
AcDbSymbolTableRecord
100
AcDbLayerTableRecord
  2
05___PRT_DEF_DTM_CSYS
 70
     0
 62
     7
  6
CONTINUOUS
370
    -3
390
F
347
4EA
348
0
  0
LAYER
  5
204
330
2
100
AcDbSymbolTableRecord
100
AcDbLayerTableRecord
  2
06___PRT_ALL_SURFS
 70
     0
 62
     7
  6
CONTINUOUS
370
    -3
390
F
347
4EA
348
0
  0
LAYER
  5
205
330
2
100
AcDbSymbolTableRecord
100
AcDbLayerTableRecord
  2
1_ALL_PLANES
 70
     0
 62
     7
  6
CONTINUOUS
370
    -3
390
F
347
4EA
348
0
  0
LAYER
  5
206
330
2
100
AcDbSymbolTableRecord
100
AcDbLayerTableRecord
  2
2_ALL_CSYS
 70
     0
 62
     7
  6
CONTINUOUS
370
    -3
390
F
347
4EA
348
0
  0
LAYER
  5
207
330
2
100
AcDbSymbolTableRecord
100
AcDbLayerTableRecord
  2
3_ALL_AXES
 70
     0
 62
     7
  6
CONTINUOUS
370
    -3
390
F
347
4EA
348
0
  0
LAYER
  5
208
330
2
100
AcDbSymbolTableRecord
100
AcDbLayerTableRecord
  2
4_ALL_POINTS
 70
     0
 62
     7
  6
CONTINUOUS
370
    -3
390
F
347
4EA
348
0
  0
LAYER
  5
209
330
2
100
AcDbSymbolTableRecord
100
AcDbLayerTableRecord
  2
5_ALL_CURVES
 70
     0
 62
     7
  6
CONTINUOUS
370
    -3
390
F
347
4EA
348
0
  0
LAYER
  5
20A
330
2
100
AcDbSymbolTableRecord
100
AcDbLayerTableRecord
  2
5__COSTRUZIONE
 70
     0
 62
     7
  6
CONTINUOUS
370
    -3
390
F
347
4EA
348
0
  0
LAYER
  5
20B
330
2
100
AcDbSymbolTableRecord
100
AcDbLayerTableRecord
  2
6_ALL_SURFS
 70
     0
 62
     7
  6
CONTINUOUS
370
    -3
390
F
347
4EA
348
0
  0
LAYER
  5
20C
330
2
100
AcDbSymbolTableRecord
100
AcDbLayerTableRecord
  2
7_ALL_FEATURES
 70
     0
 62
     7
  6
CONTINUOUS
370
    -3
390
F
347
4EA
348
0
  0
LAYER
  5
20D
330
2
100
AcDbSymbolTableRecord
100
AcDbLayerTableRecord
  2
9_SOLID
 70
     0
 62
     7
  6
CONTINUOUS
370
    -3
390
F
347
4EA
348
0
  0
LAYER
  5
20E
330
2
100
AcDbSymbolTableRecord
100
AcDbLayerTableRecord
  2
CLOSED_SHELL
 70
     0
 62
     7
  6
CONTINUOUS
370
    -3
390
F
347
4EA
348
0
  0
LAYER
  5
20F
330
2
100
AcDbSymbolTableRecord
100
AcDbLayerTableRecord
  2
WHITE
 70
     0
 62
     7
  6
CONTINUOUS
370
    -3
390
F
347
4EA
348
0
  0
LAYER
  5
210
330
2
100
AcDbSymbolTableRecord
100
AcDbLayerTableRecord
  2
XXX_SOLIDO
 70
     0
 62
     7
  6
CONTINUOUS
370
    -3
390
F
347
4EA
348
0
  0
ENDTAB
  0
TABLE
  2
STYLE
  5
3
330
0
100
AcDbSymbolTable
 70
     2
  0
STYLE
  5
11
330
3
100
AcDbSymbolTableRecord
100
AcDbTextStyleTableRecord
  2
STANDARD
 70
     0
 40
0.0
 41
1.0
 50
0.0
 71
     0
 42
0.2
  3
arial.ttf
  4

  0
STYLE
  5
211
330
3
100
AcDbSymbolTableRecord
100
AcDbTextStyleTableRecord
  2
TEXTSTYLE_1
 70
     0
 40
0.0
 41
0.8
 50
0.0
 71
     0
 42
0.2
  3
gdt
  4

  0
ENDTAB
  0
TABLE
  2
VIEW
  5
6
330
0
100
AcDbSymbolTable
 70
     0
  0
ENDTAB
  0
TABLE
  2
UCS
  5
7
330
0
100
AcDbSymbolTable
 70
     0
  0
ENDTAB
  0
TABLE
  2
APPID
  5
9
330
0
100
AcDbSymbolTable
 70
     6
  0
APPID
  5
212
330
9
100
AcDbSymbolTableRecord
100
AcDbRegAppTableRecord
  2
ACAD
 70
     0
  0
APPID
  5
4EB
330
9
100
AcDbSymbolTableRecord
100
AcDbRegAppTableRecord
  2
MCS_DIM1
 70
     0
  0
APPID
  5
4EC
330
9
100
AcDbSymbolTableRecord
100
AcDbRegAppTableRecord
  2
McsXdata5
 70
     0
  0
APPID
  5
4EF
330
9
100
AcDbSymbolTableRecord
100
AcDbRegAppTableRecord
  2
MCS_DOCUMENT_ID
 70
     0
  0
APPID
  5
4F5
330
9
100
AcDbSymbolTableRecord
100
AcDbRegAppTableRecord
  2
MCS_PARAMS_DATA
 70
     0
  0
APPID
  5
4F7
330
9
100
AcDbSymbolTableRecord
100
AcDbRegAppTableRecord
  2
MC_VERSION_DATA
 70
     0
  0
ENDTAB
  0
TABLE
  2
DIMSTYLE
  5
A
330
0
100
AcDbSymbolTable
 70
     2
100
AcDbDimStyleTable
  0
DIMSTYLE
105
21D
330
A
100
AcDbSymbolTableRecord
100
AcDbDimStyleTableRecord
  2
STANDARD
 70
     0
 41
2.5
 42
0.75
 44
0.75
 47
0.01
 48
0.01
 71
     1
 73
     0
 74
     0
 77
     1
 78
     8
 79
     2
140
3.0
147
0.625
171
     1
178
     0
179
     2
271
     2
272
     2
278
    44
284
     8
340
11
341
215
342
215
343
215
344
215
  0
DIMSTYLE
105
21E
330
A
100
AcDbSymbolTableRecord
100
AcDbDimStyleTableRecord
  2
DIMSTYLE_1
 70
     0
 41
2.5
 42
0.75
 44
0.75
 47
0.3
 48
0.3
 73
     0
 74
     0
 77
     1
 78
     8
 79
     2
140
3.0
147
0.75
171
     1
178
     0
179
     2
271
     2
272
     2
278
    44
284
     8
340
11
341
215
342
215
343
215
344
215
  0
ENDTAB
  0
TABLE
  2
BLOCK_RECORD
  5
1
330
0
100
AcDbSymbolTable
 70
     8
  0
BLOCK_RECORD
  5
213
330
1
100
AcDbSymbolTableRecord
100
AcDbBlockTableRecord
  2
*Model_Space
340
4A5
 70
     0
280
     1
281
     0
  0
BLOCK_RECORD
  5
214
330
1
100
AcDbSymbolTableRecord
100
AcDbBlockTableRecord
  2
*Paper_Space
340
4A6
 70
     0
280
     1
281
     0
  0
BLOCK_RECORD
  5
215
330
1
100
AcDbSymbolTableRecord
100
AcDbBlockTableRecord
  2
_CLOSED
340
0
102
{BLKREFS
331
267
331
268
331
270
331
271
331
279
331
27A
331
282
331
283
331
28B
331
28C
102
}
 70
     0
280
     1
281
     0
  0
BLOCK_RECORD
  5
216
330
1
100
AcDbSymbolTableRecord
100
AcDbBlockTableRecord
  2
*D1
340
0
 70
     0
280
     1
281
     0
  0
BLOCK_RECORD
  5
217
330
1
100
AcDbSymbolTableRecord
100
AcDbBlockTableRecord
  2
*D2
340
0
 70
     0
280
     1
281
     0
  0
BLOCK_RECORD
  5
218
330
1
100
AcDbSymbolTableRecord
100
AcDbBlockTableRecord
  2
*D3
340
0
 70
     0
280
     1
281
     0
  0
BLOCK_RECORD
  5
219
330
1
100
AcDbSymbolTableRecord
100
AcDbBlockTableRecord
  2
*D4
340
0
 70
     0
280
     1
281
     0
  0
BLOCK_RECORD
  5
21A
330
1
100
AcDbSymbolTableRecord
100
AcDbBlockTableRecord
  2
*D5
340
0
 70
     0
280
     1
281
     0
  0
BLOCK_RECORD
  5
21B
330
1
100
AcDbSymbolTableRecord
100
AcDbBlockTableRecord
  2
LOGO2_BL0
340
0
102
{BLKREFS
331
4A2
102
}
 70
     0
280
     1
281
     0
  0
BLOCK_RECORD
  5
21C
330
1
100
AcDbSymbolTableRecord
100
AcDbBlockTableRecord
  2
*T7
340
0
102
{BLKREFS
331
4A3
102
}
 70
     0
280
     1
281
     0
  0
ENDTAB
  0
ENDSEC
  0
SECTION
  2
BLOCKS
  0
BLOCK
  5
20
330
213
100
AcDbEntity
  8
0
100
AcDbBlockBegin
  2
*Model_Space
 70
     0
 10
0.0
 20
0.0
 30
0.0
  3
*Model_Space
  1
*Model_Space
  0
ENDBLK
  5
21
330
213
100
AcDbEntity
  8
0
100
AcDbBlockEnd
  0
BLOCK
  5
1C
330
214
100
AcDbEntity
 67
     1
  8
0
100
AcDbBlockBegin
  2
*Paper_Space
 70
     0
 10
0.0
 20
0.0
 30
0.0
  3
*Paper_Space
  1
*Paper_Space
  0
ENDBLK
  5
1D
330
214
100
AcDbEntity
 67
     1
  8
0
100
AcDbBlockEnd
  0
BLOCK
  5
25B
330
215
100
AcDbEntity
  8
0
100
AcDbBlockBegin
  2
_CLOSED
 70
     0
 10
0.0
 20
0.0
 30
0.0
  3
_CLOSED
  1
_CLOSED
  0
LINE
  5
25C
330
215
100
AcDbEntity
  8
0
  6
ByBlock
 62
     0
100
AcDbLine
 10
0.0
 20
0.0
 30
0.0
 11
-1.0
 21
0.2
 31
0.0
  0
LINE
  5
25D
330
215
100
AcDbEntity
  8
0
  6
ByBlock
 62
     0
100
AcDbLine
 10
-1.0
 20
0.2
 30
0.0
 11
-1.0
 21
-0.2
 31
0.0
  0
LINE
  5
25E
330
215
100
AcDbEntity
  8
0
  6
ByBlock
 62
     0
100
AcDbLine
 10
-1.0
 20
-0.2
 30
0.0
 11
0.0
 21
0.0
 31
0.0
  0
LINE
  5
25F
330
215
100
AcDbEntity
  8
0
  6
ByBlock
 62
     0
100
AcDbLine
 10
-1.0
 20
0.0
 30
0.0
 11
0.0
 21
0.0
 31
0.0
  0
ENDBLK
  5
260
330
215
100
AcDbEntity
  8
0
  6
ByBlock
 62
     0
100
AcDbBlockEnd
  0
BLOCK
  5
261
330
216
100
AcDbEntity
  8
0
100
AcDbBlockBegin
  2
*D1
 70
     1
 10
0.0
 20
0.0
 30
0.0
  3
*D1
  1
*D1
  0
MTEXT
  5
262
330
216
100
AcDbEntity
  8
0
  6
Continuous
 62
     2
100
AcDbMText
 10
84.700594
 20
187.274694
 30
0.0
 40
3.0
 41
4.66171
 46
0.0
 71
     2
 72
     1
  1
50
 73
     1
 44
0.9
  0
LINE
  5
263
330
216
100
AcDbEntity
  8
0
  6
Continuous
 62
     2
100
AcDbLine
 10
59.700594
 20
172.515783
 30
0.0
 11
59.700594
 21
184.274694
 31
0.0
  0
LINE
  5
264
330
216
100
AcDbEntity
  8
0
  6
Continuous
 62
     2
100
AcDbLine
 10
109.700594
 20
172.515783
 30
0.0
 11
109.700594
 21
184.274694
 31
0.0
  0
LINE
  5
265
330
216
100
AcDbEntity
  8
0
  6
Continuous
 62
     2
100
AcDbLine
 10
59.700594
 20
183.524694
 30
0.0
 11
84.700594
 21
183.524694
 31
0.0
  0
LINE
  5
266
330
216
100
AcDbEntity
  8
0
  6
Continuous
 62
     2
100
AcDbLine
 10
109.700594
 20
183.524694
 30
0.0
 11
84.700594
 21
183.524694
 31
0.0
  0
INSERT
  5
267
330
216
100
AcDbEntity
  8
0
  6
Continuous
 62
     2
100
AcDbBlockReference
  2
_CLOSED
 10
59.700594
 20
183.524694
 30
0.0
 41
2.5
 42
2.5
 43
2.5
 50
180.0
  0
INSERT
  5
268
330
216
100
AcDbEntity
  8
0
  6
Continuous
 62
     2
100
AcDbBlockReference
  2
_CLOSED
 10
109.700594
 20
183.524694
 30
0.0
 41
2.5
 42
2.5
 43
2.5
  0
ENDBLK
  5
269
330
216
100
AcDbEntity
  8
0
  6
ByBlock
 62
     0
100
AcDbBlockEnd
  0
BLOCK
  5
26A
330
217
100
AcDbEntity
  8
0
100
AcDbBlockBegin
  2
*D2
 70
     1
 10
0.0
 20
0.0
 30
0.0
  3
*D2
  1
*D2
  0
MTEXT
  5
26B
330
217
100
AcDbEntity
  8
0
  6
Continuous
 62
     2
100
AcDbMText
 10
36.000166
 20
136.015783
 30
0.0
 40
3.0
 41
8.152416
 46
0.0
 71
     2
 72
     1
  1
72,5
 11
0.0
 21
1.0
 31
0.0
 73
     1
 44
0.9
  0
LINE
  5
26C
330
217
100
AcDbEntity
  8
0
  6
Continuous
 62
     2
100
AcDbLine
 10
59.450594
 20
172.265783
 30
0.0
 11
39.000166
 21
172.265783
 31
0.0
  0
LINE
  5
26D
330
217
100
AcDbEntity
  8
0
  6
Continuous
 62
     2
100
AcDbLine
 10
111.950594
 20
99.765783
 30
0.0
 11
39.000166
 21
99.765783
 31
0.0
  0
LINE
  5
26E
330
217
100
AcDbEntity
  8
0
  6
Continuous
 62
     2
100
AcDbLine
 10
39.750166
 20
172.265783
 30
0.0
 11
39.750166
 21
136.015783
 31
0.0
  0
LINE
  5
26F
330
217
100
AcDbEntity
  8
0
  6
Continuous
 62
     2
100
AcDbLine
 10
39.750166
 20
99.765783
 30
0.0
 11
39.750166
 21
136.015783
 31
0.0
  0
INSERT
  5
270
330
217
100
AcDbEntity
  8
0
  6
Continuous
 62
     2
100
AcDbBlockReference
  2
_CLOSED
 10
39.750166
 20
172.265783
 30
0.0
 41
2.5
 42
2.5
 43
2.5
 50
90.0
  0
INSERT
  5
271
330
217
100
AcDbEntity
  8
0
  6
Continuous
 62
     2
100
AcDbBlockReference
  2
_CLOSED
 10
39.750166
 20
99.765783
 30
0.0
 41
2.5
 42
2.5
 43
2.5
 50
270.0
  0
ENDBLK
  5
272
330
217
100
AcDbEntity
  8
0
  6
ByBlock
 62
     0
100
AcDbBlockEnd
  0
BLOCK
  5
273
330
218
100
AcDbEntity
  8
0
100
AcDbBlockBegin
  2
*D3
 70
     1
 10
0.0
 20
0.0
 30
0.0
  3
*D3
  1
*D3
  0
MTEXT
  5
274
330
218
100
AcDbEntity
  8
0
  6
Continuous
 62
     2
100
AcDbMText
 10
207.911596
 20
189.945937
 30
0.0
 40
3.0
 41
4.66171
 46
0.0
 71
     2
 72
     1
  1
35
 73
     1
 44
0.9
  0
LINE
  5
275
330
218
100
AcDbEntity
  8
0
  6
Continuous
 62
     2
100
AcDbLine
 10
190.411596
 20
172.515783
 30
0.0
 11
190.411596
 21
186.945937
 31
0.0
  0
LINE
  5
276
330
218
100
AcDbEntity
  8
0
  6
Continuous
 62
     2
100
AcDbLine
 10
225.411596
 20
172.515783
 30
0.0
 11
225.411596
 21
186.945937
 31
0.0
  0
LINE
  5
277
330
218
100
AcDbEntity
  8
0
  6
Continuous
 62
     2
100
AcDbLine
 10
190.411596
 20
186.195937
 30
0.0
 11
207.911596
 21
186.195937
 31
0.0
  0
LINE
  5
278
330
218
100
AcDbEntity
  8
0
  6
Continuous
 62
     2
100
AcDbLine
 10
225.411596
 20
186.195937
 30
0.0
 11
207.911596
 21
186.195937
 31
0.0
  0
INSERT
  5
279
330
218
100
AcDbEntity
  8
0
  6
Continuous
 62
     2
100
AcDbBlockReference
  2
_CLOSED
 10
190.411596
 20
186.195937
 30
0.0
 41
2.5
 42
2.5
 43
2.5
 50
180.0
  0
INSERT
  5
27A
330
218
100
AcDbEntity
  8
0
  6
Continuous
 62
     2
100
AcDbBlockReference
  2
_CLOSED
 10
225.411596
 20
186.195937
 30
0.0
 41
2.5
 42
2.5
 43
2.5
  0
ENDBLK
  5
27B
330
218
100
AcDbEntity
  8
0
  6
ByBlock
 62
     0
100
AcDbBlockEnd
  0
BLOCK
  5
27C
330
219
100
AcDbEntity
  8
0
100
AcDbBlockBegin
  2
*D4
 70
     1
 10
0.0
 20
0.0
 30
0.0
  3
*D4
  1
*D4
  0
MTEXT
  5
27D
330
219
100
AcDbEntity
  8
0
  6
Continuous
 62
     2
100
AcDbMText
 10
175.503352
 20
154.765783
 30
0.0
 40
3.0
 41
4.66171
 46
0.0
 71
     2
 72
     1
  1
35
 11
0.0
 21
1.0
 31
0.0
 73
     1
 44
0.9
  0
LINE
  5
27E
330
219
100
AcDbEntity
  8
0
  6
Continuous
 62
     2
100
AcDbLine
 10
190.161596
 20
172.265783
 30
0.0
 11
178.503352
 21
172.265783
 31
0.0
  0
LINE
  5
27F
330
219
100
AcDbEntity
  8
0
  6
Continuous
 62
     2
100
AcDbLine
 10
190.161596
 20
137.265783
 30
0.0
 11
178.503352
 21
137.265783
 31
0.0
  0
LINE
  5
280
330
219
100
AcDbEntity
  8
0
  6
Continuous
 62
     2
100
AcDbLine
 10
179.253352
 20
172.265783
 30
0.0
 11
179.253352
 21
154.765783
 31
0.0
  0
LINE
  5
281
330
219
100
AcDbEntity
  8
0
  6
Continuous
 62
     2
100
AcDbLine
 10
179.253352
 20
137.265783
 30
0.0
 11
179.253352
 21
154.765783
 31
0.0
  0
INSERT
  5
282
330
219
100
AcDbEntity
  8
0
  6
Continuous
 62
     2
100
AcDbBlockReference
  2
_CLOSED
 10
179.253352
 20
172.265783
 30
0.0
 41
2.5
 42
2.5
 43
2.5
 50
90.0
  0
INSERT
  5
283
330
219
100
AcDbEntity
  8
0
  6
Continuous
 62
     2
100
AcDbBlockReference
  2
_CLOSED
 10
179.253352
 20
137.265783
 30
0.0
 41
2.5
 42
2.5
 43
2.5
 50
270.0
  0
ENDBLK
  5
284
330
219
100
AcDbEntity
  8
0
  6
ByBlock
 62
     0
100
AcDbBlockEnd
  0
BLOCK
  5
285
330
21A
100
AcDbEntity
  8
0
100
AcDbBlockBegin
  2
*D5
 70
     1
 10
0.0
 20
0.0
 30
0.0
  3
*D5
  1
*D5
  0
MTEXT
  5
286
330
21A
100
AcDbEntity
  8
0
  6
Continuous
 62
     2
100
AcDbMText
 10
96.200594
 20
83.704585
 30
0.0
 40
3.0
 41
4.66171
 46
0.0
 71
     2
 72
     1
  1
73
 73
     1
 44
0.9
  0
LINE
  5
287
330
21A
100
AcDbEntity
  8
0
  6
Continuous
 62
     2
100
AcDbLine
 10
59.700594
 20
65.565463
 30
0.0
 11
59.700594
 21
80.704585
 31
0.0
  0
LINE
  5
288
330
21A
100
AcDbEntity
  8
0
  6
Continuous
 62
     2
100
AcDbLine
 10
132.700594
 20
54.315463
 30
0.0
 11
132.700594
 21
80.704585
 31
0.0
  0
LINE
  5
289
330
21A
100
AcDbEntity
  8
0
  6
Continuous
 62
     2
100
AcDbLine
 10
59.700594
 20
79.954585
 30
0.0
 11
96.200594
 21
79.954585
 31
0.0
  0
LINE
  5
28A
330
21A
100
AcDbEntity
  8
0
  6
Continuous
 62
     2
100
AcDbLine
 10
132.700594
 20
79.954585
 30
0.0
 11
96.200594
 21
79.954585
 31
0.0
  0
INSERT
  5
28B
330
21A
100
AcDbEntity
  8
0
  6
Continuous
 62
     2
100
AcDbBlockReference
  2
_CLOSED
 10
59.700594
 20
79.954585
 30
0.0
 41
2.5
 42
2.5
 43
2.5
 50
180.0
  0
INSERT
  5
28C
330
21A
100
AcDbEntity
  8
0
  6
Continuous
 62
     2
100
AcDbBlockReference
  2
_CLOSED
 10
132.700594
 20
79.954585
 30
0.0
 41
2.5
 42
2.5
 43
2.5
  0
ENDBLK
  5
28D
330
21A
100
AcDbEntity
  8
0
  6
ByBlock
 62
     0
100
AcDbBlockEnd
  0
BLOCK
  5
21F
330
21B
100
AcDbEntity
  8
0
100
AcDbBlockBegin
  2
LOGO2_BL0
 70
     0
 10
206.879621
 20
40.834383
 30
0.0
  3
LOGO2_BL0
  1
LOGO2_BL0
  0
LINE
  5
220
330
21B
100
AcDbEntity
  8
0
  6
Continuous
 62
     7
100
AcDbLine
 10
198.622547
 20
44.029874
 30
0.0
 11
197.318206
 21
44.029874
 31
0.0
  0
LINE
  5
221
330
21B
100
AcDbEntity
  8
0
  6
Continuous
 62
     7
100
AcDbLine
 10
197.318206
 20
44.029874
 30
0.0
 11
197.318206
 21
33.570808
 31
0.0
  0
LINE
  5
222
330
21B
100
AcDbEntity
  8
0
  6
Continuous
 62
     7
100
AcDbLine
 10
197.318206
 20
33.570808
 30
0.0
 11
201.799261
 21
33.570808
 31
0.0
  0
LINE
  5
223
330
21B
100
AcDbEntity
  8
0
  6
Continuous
 62
     7
100
AcDbLine
 10
201.799261
 20
33.570808
 30
0.0
 11
201.799261
 21
34.763663
 31
0.0
  0
LINE
  5
224
330
21B
100
AcDbEntity
  8
0
  6
Continuous
 62
     7
100
AcDbLine
 10
201.799261
 20
34.763663
 30
0.0
 11
198.622547
 21
34.763663
 31
0.0
  0
LINE
  5
225
330
21B
100
AcDbEntity
  8
0
  6
Continuous
 62
     7
100
AcDbLine
 10
198.622547
 20
34.763663
 30
0.0
 11
198.622547
 21
44.029874
 31
0.0
  0
LINE
  5
226
330
21B
100
AcDbEntity
  8
0
  6
Continuous
 62
     7
100
AcDbLine
 10
213.558873
 20
44.029874
 30
0.0
 11
212.255055
 21
44.029874
 31
0.0
  0
LINE
  5
227
330
21B
100
AcDbEntity
  8
0
  6
Continuous
 62
     7
100
AcDbLine
 10
212.255055
 20
44.029874
 30
0.0
 11
212.255055
 21
33.570808
 31
0.0
  0
LINE
  5
228
330
21B
100
AcDbEntity
  8
0
  6
Continuous
 62
     7
100
AcDbLine
 10
212.255055
 20
33.570808
 30
0.0
 11
216.736241
 21
33.570808
 31
0.0
  0
LINE
  5
229
330
21B
100
AcDbEntity
  8
0
  6
Continuous
 62
     7
100
AcDbLine
 10
216.736241
 20
33.570808
 30
0.0
 11
216.736241
 21
34.763663
 31
0.0
  0
LINE
  5
22A
330
21B
100
AcDbEntity
  8
0
  6
Continuous
 62
     7
100
AcDbLine
 10
216.736241
 20
34.763663
 30
0.0
 11
213.558873
 21
34.763663
 31
0.0
  0
LINE
  5
22B
330
21B
100
AcDbEntity
  8
0
  6
Continuous
 62
     7
100
AcDbLine
 10
213.558873
 20
34.763663
 30
0.0
 11
213.558873
 21
44.029874
 31
0.0
  0
LWPOLYLINE
  5
22C
330
21B
100
AcDbEntity
  8
0
  6
Continuous
 62
     7
100
AcDbPolyline
 90
        2
 70
     0
 43
0.2
 10
195.672601
 20
30.227257
 10
195.672601
 20
28.370194
  0
LWPOLYLINE
  5
22D
330
21B
100
AcDbEntity
  8
0
  6
Continuous
 62
     7
100
AcDbPolyline
 90
        2
 70
     0
 43
0.2
 10
195.672601
 20
28.370194
 10
196.468317
 20
28.370194
  0
LWPOLYLINE
  5
22E
330
21B
100
AcDbEntity
  8
0
  6
Continuous
 62
     7
100
AcDbPolyline
 90
        2
 70
     0
 43
0.2
 10
196.468317
 20
28.370194
 10
196.468317
 20
28.582175
  0
LWPOLYLINE
  5
22F
330
21B
100
AcDbEntity
  8
0
  6
Continuous
 62
     7
100
AcDbPolyline
 90
        2
 70
     0
 43
0.2
 10
196.468317
 20
28.582175
 10
195.90421
 20
28.582175
  0
LWPOLYLINE
  5
230
330
21B
100
AcDbEntity
  8
0
  6
Continuous
 62
     7
100
AcDbPolyline
 90
        2
 70
     0
 43
0.2
 10
195.90421
 20
28.582175
 10
195.90421
 20
30.227257
  0
LWPOLYLINE
  5
231
330
21B
100
AcDbEntity
  8
0
  6
Continuous
 62
     7
100
AcDbPolyline
 90
        2
 70
     0
 43
0.2
 10
195.90421
 20
30.227257
 10
195.672601
 20
30.227257
  0
SPLINE
  5
232
330
21B
100
AcDbEntity
  8
0
  6
Continuous
 62
     7
100
AcDbSpline
 70
     3
 71
     3
 72
    35
 73
    31
 74
     0
 42
0.000000001
 43
0.0000001
 40
0.0
 40
0.0
 40
0.0
 40
0.0
 40
1.0
 40
1.0
 40
1.0
 40
2.0
 40
2.0
 40
2.0
 40
3.0
 40
3.0
 40
3.0
 40
4.0
 40
4.0
 40
4.0
 40
5.0
 40
5.0
 40
5.0
 40
6.0
 40
6.0
 40
6.0
 40
7.0
 40
7.0
 40
7.0
 40
8.0
 40
8.0
 40
8.0
 40
9.0
 40
9.0
 40
9.0
 40
10.0
 40
10.0
 40
10.0
 40
10.0
 10
197.8666098145
 20
29.5227454017
 30
0.0
 10
197.8666098145
 20
29.5227454017
 30
0.0
 10
197.8666098145
 20
28.8606301226
 30
0.0
 10
197.8666098145
 20
28.8606301226
 30
0.0
 10
197.8666098145
 20
28.5455365273
 30
0.0
 10
198.0144735033
 20
28.3309378992
 30
0.0
 10
198.3545599876
 20
28.3309378992
 30
0.0
 10
198.6941230606
 20
28.3309378992
 30
0.0
 10
198.842248455
 20
28.5455365273
 30
0.0
 10
198.842248455
 20
28.8606301226
 30
0.0
 10
198.842248455
 20
28.8606301226
 30
0.0
 10
198.842248455
 20
29.5227454017
 30
0.0
 10
198.842248455
 20
29.5227454017
 30
0.0
 10
198.842248455
 20
29.5227454017
 30
0.0
 10
198.6201912162
 20
29.5227454017
 30
0.0
 10
198.6201912162
 20
29.5227454017
 30
0.0
 10
198.6201912162
 20
29.5227454017
 30
0.0
 10
198.6201912162
 20
28.8857538644
 30
0.0
 10
198.6201912162
 20
28.8857538644
 30
0.0
 10
198.6201912162
 20
28.6999428572
 30
0.0
 10
198.5734767587
 20
28.5371619467
 30
0.0
 10
198.3545599876
 20
28.5371619467
 30
0.0
 10
198.1351198051
 20
28.5371619467
 30
0.0
 10
198.0884053477
 20
28.6999428572
 30
0.0
 10
198.0884053477
 20
28.8857538644
 30
0.0
 10
198.0884053477
 20
28.8857538644
 30
0.0
 10
198.0884053477
 20
29.5227454017
 30
0.0
 10
198.0884053477
 20
29.5227454017
 30
0.0
 10
198.0884053477
 20
29.5227454017
 30
0.0
 10
197.8666098145
 20
29.5227454017
 30
0.0
 10
197.8666098145
 20
29.5227454017
 30
0.0
  0
SPLINE
  5
233
330
21B
100
AcDbEntity
  8
0
  6
Continuous
 62
     7
100
AcDbSpline
 70
     3
 71
     3
 72
    35
 73
    31
 74
     0
 42
0.000000001
 43
0.0000001
 40
0.0
 40
0.0
 40
0.0
 40
0.0
 40
1.0
 40
1.0
 40
1.0
 40
2.0
 40
2.0
 40
2.0
 40
3.0
 40
3.0
 40
3.0
 40
4.0
 40
4.0
 40
4.0
 40
5.0
 40
5.0
 40
5.0
 40
6.0
 40
6.0
 40
6.0
 40
7.0
 40
7.0
 40
7.0
 40
8.0
 40
8.0
 40
8.0
 40
9.0
 40
9.0
 40
9.0
 40
10.0
 40
10.0
 40
10.0
 40
10.0
 10
201.2653810122
 20
29.48139591
 30
0.0
 10
201.1769245046
 20
29.5326902162
 30
0.0
 10
201.0634751079
 20
29.557813958
 30
0.0
 10
200.9598396729
 20
29.557813958
 30
0.0
 10
200.6049668198
 20
29.557813958
 30
0.0
 10
200.3295216295
 20
29.2940146689
 30
0.0
 10
200.3295216295
 20
28.9365247593
 30
0.0
 10
200.3295216295
 20
28.5915967206
 30
0.0
 10
200.6079764347
 20
28.3314613105
 30
0.0
 10
200.9475395077
 20
28.3314613105
 30
0.0
 10
201.0634751079
 20
28.3314613105
 30
0.0
 10
201.1642317809
 20
28.3534445846
 30
0.0
 10
201.2653810122
 20
28.4073559473
 30
0.0
 10
201.2653810122
 20
28.4073559473
 30
0.0
 10
201.2653810122
 20
28.6899980427
 30
0.0
 10
201.2653810122
 20
28.6899980427
 30
0.0
 10
201.1815043534
 20
28.5968308335
 30
0.0
 10
201.0779997712
 20
28.5376853579
 30
0.0
 10
200.9498948585
 20
28.5376853579
 30
0.0
 10
200.7161917184
 20
28.5376853579
 30
0.0
 10
200.5509246043
 20
28.7098876717
 30
0.0
 10
200.5509246043
 20
28.9464695738
 30
0.0
 10
200.5509246043
 20
29.1584511454
 30
0.0
 10
200.7186779221
 20
29.350543088
 30
0.0
 10
200.9355010481
 20
29.350543088
 30
0.0
 10
201.0683166624
 20
29.350543088
 30
0.0
 10
201.1769245046
 20
29.2966317254
 30
0.0
 10
201.2653810122
 20
29.1956133468
 30
0.0
 10
201.2653810122
 20
29.1956133468
 30
0.0
 10
201.2653810122
 20
29.48139591
 30
0.0
 10
201.2653810122
 20
29.48139591
 30
0.0
  0
SPLINE
  5
234
330
21B
100
AcDbEntity
  8
0
  6
Continuous
 62
     7
100
AcDbSpline
 70
     3
 71
     3
 72
    32
 73
    28
 74
     0
 42
0.000000001
 43
0.0000001
 40
0.0
 40
0.0
 40
0.0
 40
0.0
 40
1.0
 40
1.0
 40
1.0
 40
2.0
 40
2.0
 40
2.0
 40
3.0
 40
3.0
 40
3.0
 40
4.0
 40
4.0
 40
4.0
 40
5.0
 40
5.0
 40
5.0
 40
6.0
 40
6.0
 40
6.0
 40
7.0
 40
7.0
 40
7.0
 40
8.0
 40
8.0
 40
8.0
 40
9.0
 40
9.0
 40
9.0
 40
9.0
 10
203.7972522645
 20
28.9098307836
 30
0.0
 10
203.7972522645
 20
28.9098307836
 30
0.0
 10
203.7972522645
 20
28.9438525173
 30
0.0
 10
203.7972522645
 20
28.9438525173
 30
0.0
 10
203.7972522645
 20
29.2861634996
 30
0.0
 10
203.6243956867
 20
29.557813958
 30
0.0
 10
203.2577460795
 20
29.557813958
 30
0.0
 10
202.8861240651
 20
29.557813958
 30
0.0
 10
202.6963874733
 20
29.2913976125
 30
0.0
 10
202.6963874733
 20
28.9365247593
 30
0.0
 10
202.6963874733
 20
28.5968308335
 30
0.0
 10
202.91046269
 20
28.3309378992
 30
0.0
 10
203.2625876339
 20
28.3309378992
 30
0.0
 10
203.4866076651
 20
28.3309378992
 30
0.0
 10
203.6887752751
 20
28.4466117939
 30
0.0
 10
203.7972522645
 20
28.6460314945
 30
0.0
 10
203.7972522645
 20
28.6460314945
 30
0.0
 10
203.6096093178
 20
28.7528073973
 30
0.0
 10
203.6096093178
 20
28.7528073973
 30
0.0
 10
203.5261252174
 20
28.614103406
 30
0.0
 10
203.4349208005
 20
28.5282639548
 30
0.0
 10
203.2653355432
 20
28.5282639548
 30
0.0
 10
203.0533539716
 20
28.5282639548
 30
0.0
 10
202.9204075045
 20
28.7130281394
 30
0.0
 10
202.9180521537
 20
28.9098307836
 30
0.0
 10
202.9180521537
 20
28.9098307836
 30
0.0
 10
203.7972522645
 20
28.9098307836
 30
0.0
 10
203.7972522645
 20
28.9098307836
 30
0.0
  0
SPLINE
  5
235
330
21B
100
AcDbEntity
  8
0
  6
Continuous
 62
     7
100
AcDbSpline
 70
     3
 71
     3
 72
    14
 73
    10
 74
     0
 42
0.000000001
 43
0.0000001
 40
0.0
 40
0.0
 40
0.0
 40
0.0
 40
1.0
 40
1.0
 40
1.0
 40
2.0
 40
2.0
 40
2.0
 40
3.0
 40
3.0
 40
3.0
 40
3.0
 10
202.9300906133
 20
29.0773223957
 30
0.0
 10
202.9577005587
 20
29.2421969514
 30
0.0
 10
203.0855437658
 20
29.3651986041
 30
0.0
 10
203.2577460795
 20
29.3651986041
 30
0.0
 10
203.4349208005
 20
29.3651986041
 30
0.0
 10
203.5483701971
 20
29.2495247094
 30
0.0
 10
203.5755875841
 20
29.0773223957
 30
0.0
 10
203.5755875841
 20
29.0773223957
 30
0.0
 10
202.9300906133
 20
29.0773223957
 30
0.0
 10
202.9300906133
 20
29.0773223957
 30
0.0
  0
SPLINE
  5
236
330
21B
100
AcDbEntity
  8
0
  6
Continuous
 62
     7
100
AcDbSpline
 70
     3
 71
     3
 72
    20
 73
    16
 74
     0
 42
0.000000001
 43
0.0000001
 40
0.0
 40
0.0
 40
0.0
 40
0.0
 40
1.0
 40
1.0
 40
1.0
 40
2.0
 40
2.0
 40
2.0
 40
3.0
 40
3.0
 40
3.0
 40
4.0
 40
4.0
 40
4.0
 40
5.0
 40
5.0
 40
5.0
 40
5.0
 10
205.8212837147
 20
29.2866869109
 30
0.0
 10
205.8212837147
 20
29.2866869109
 30
0.0
 10
206.2324232813
 20
28.7842120745
 30
0.0
 10
206.2324232813
 20
28.7842120745
 30
0.0
 10
206.1163568282
 20
28.6685381799
 30
0.0
 10
205.9785688067
 20
28.5382087692
 30
0.0
 10
205.8066281986
 20
28.5382087692
 30
0.0
 10
205.629191772
 20
28.5382087692
 30
0.0
 10
205.4617001599
 20
28.7025599136
 30
0.0
 10
205.4617001599
 20
28.8794729289
 30
0.0
 10
205.4617001599
 20
29.0574327668
 30
0.0
 10
205.6714572335
 20
29.1835748872
 30
0.0
 10
205.7990387349
 20
29.2715079835
 30
0.0
 10
205.7990387349
 20
29.2715079835
 30
0.0
 10
205.8212837147
 20
29.2866869109
 30
0.0
 10
205.8212837147
 20
29.2866869109
 30
0.0
  0
SPLINE
  5
237
330
21B
100
AcDbEntity
  8
0
  6
Continuous
 62
     7
100
AcDbSpline
 70
     3
 71
     3
 72
    23
 73
    19
 74
     0
 42
0.000000001
 43
0.0000001
 40
0.0
 40
0.0
 40
0.0
 40
0.0
 40
1.0
 40
1.0
 40
1.0
 40
2.0
 40
2.0
 40
2.0
 40
3.0
 40
3.0
 40
3.0
 40
4.0
 40
4.0
 40
4.0
 40
5.0
 40
5.0
 40
5.0
 40
6.0
 40
6.0
 40
6.0
 40
6.0
 10
205.8706152286
 20
29.5777035869
 30
0.0
 10
205.8706152286
 20
29.5777035869
 30
0.0
 10
205.8089835494
 20
29.6562152801
 30
0.0
 10
205.8089835494
 20
29.6562152801
 30
0.0
 10
205.7550721868
 20
29.7247821588
 30
0.0
 10
205.698282062
 20
29.7938724488
 30
0.0
 10
205.698282062
 20
29.8875630694
 30
0.0
 10
205.698282062
 20
30.0063774317
 30
0.0
 10
205.7941971805
 20
30.0838423023
 30
0.0
 10
205.9051603736
 20
30.0838423023
 30
0.0
 10
206.0284237319
 20
30.0838423023
 30
0.0
 10
206.1217217939
 20
30.0126583672
 30
0.0
 10
206.1217217939
 20
29.8823289565
 30
0.0
 10
206.1217217939
 20
29.7472888442
 30
0.0
 10
205.9936168812
 20
29.6708707962
 30
0.0
 10
205.9000571135
 20
29.5970698046
 30
0.0
 10
205.9000571135
 20
29.5970698046
 30
0.0
 10
205.8706152286
 20
29.5777035869
 30
0.0
 10
205.8706152286
 20
29.5777035869
 30
0.0
  0
SPLINE
  5
238
330
21B
100
AcDbEntity
  8
0
  6
Continuous
 62
     7
100
AcDbSpline
 70
     3
 71
     3
 72
    50
 73
    46
 74
     0
 42
0.000000001
 43
0.0000001
 40
0.0
 40
0.0
 40
0.0
 40
0.0
 40
1.0
 40
1.0
 40
1.0
 40
2.0
 40
2.0
 40
2.0
 40
3.0
 40
3.0
 40
3.0
 40
4.0
 40
4.0
 40
4.0
 40
5.0
 40
5.0
 40
5.0
 40
6.0
 40
6.0
 40
6.0
 40
7.0
 40
7.0
 40
7.0
 40
8.0
 40
8.0
 40
8.0
 40
9.0
 40
9.0
 40
9.0
 40
10.0
 40
10.0
 40
10.0
 40
11.0
 40
11.0
 40
11.0
 40
12.0
 40
12.0
 40
12.0
 40
13.0
 40
13.0
 40
13.0
 40
14.0
 40
14.0
 40
14.0
 40
15.0
 40
15.0
 40
15.0
 40
15.0
 10
206.5727714712
 20
28.3707171571
 30
0.0
 10
206.5727714712
 20
28.3707171571
 30
0.0
 10
206.858161476
 20
28.3707171571
 30
0.0
 10
206.858161476
 20
28.3707171571
 30
0.0
 10
206.858161476
 20
28.3707171571
 30
0.0
 10
206.5257953082
 20
28.7815950181
 30
0.0
 10
206.5257953082
 20
28.7815950181
 30
0.0
 10
206.5257953082
 20
28.7815950181
 30
0.0
 10
206.752301543
 20
29.0474879523
 30
0.0
 10
206.752301543
 20
29.0474879523
 30
0.0
 10
206.752301543
 20
29.0474879523
 30
0.0
 10
206.6040452957
 20
29.2003240484
 30
0.0
 10
206.6040452957
 20
29.2003240484
 30
0.0
 10
206.6040452957
 20
29.2003240484
 30
0.0
 10
206.3881381394
 20
28.9490866302
 30
0.0
 10
206.3881381394
 20
28.9490866302
 30
0.0
 10
206.3881381394
 20
28.9490866302
 30
0.0
 10
206.0010754921
 20
29.4170163216
 30
0.0
 10
206.0010754921
 20
29.4170163216
 30
0.0
 10
206.1565286446
 20
29.5311199823
 30
0.0
 10
206.3388066256
 20
29.6708707962
 30
0.0
 10
206.3388066256
 20
29.8802353113
 30
0.0
 10
206.3388066256
 20
30.1241449715
 30
0.0
 10
206.1367698684
 20
30.2675596644
 30
0.0
 10
205.9102636336
 20
30.2675596644
 30
0.0
 10
205.6660922678
 20
30.2675596644
 30
0.0
 10
205.4817206417
 20
30.1168172134
 30
0.0
 10
205.4817206417
 20
29.8603456824
 30
0.0
 10
205.4817206417
 20
29.7027988847
 30
0.0
 10
205.5803836694
 20
29.565141716
 30
0.0
 10
205.6857201911
 20
29.454178523
 30
0.0
 10
205.6857201911
 20
29.454178523
 30
0.0
 10
205.5701771493
 20
29.3704327169
 30
0.0
 10
205.5701771493
 20
29.3704327169
 30
0.0
 10
205.3924790171
 20
29.2421969514
 30
0.0
 10
205.2451387396
 20
29.1144845972
 30
0.0
 10
205.2451387396
 20
28.8773792838
 30
0.0
 10
205.2451387396
 20
28.5570515756
 30
0.0
 10
205.5037039158
 20
28.3309378992
 30
0.0
 10
205.8140868095
 20
28.3309378992
 30
0.0
 10
206.0330035806
 20
28.3309378992
 30
0.0
 10
206.2301987833
 20
28.456033197
 30
0.0
 10
206.3704730085
 20
28.6219545753
 30
0.0
 10
206.3704730085
 20
28.6219545753
 30
0.0
 10
206.5727714712
 20
28.3707171571
 30
0.0
 10
206.5727714712
 20
28.3707171571
 30
0.0
  0
LWPOLYLINE
  5
239
330
21B
100
AcDbEntity
  8
0
  6
Continuous
 62
     7
100
AcDbPolyline
 90
        2
 70
     0
 43
0.2
 10
208.508216
 20
30.227257
 10
208.276868
 20
30.227257
  0
LWPOLYLINE
  5
23A
330
21B
100
AcDbEntity
  8
0
  6
Continuous
 62
     7
100
AcDbPolyline
 90
        2
 70
     0
 43
0.2
 10
208.276868
 20
30.227257
 10
208.276868
 20
28.370194
  0
LWPOLYLINE
  5
23B
330
21B
100
AcDbEntity
  8
0
  6
Continuous
 62
     7
100
AcDbPolyline
 90
        2
 70
     0
 43
0.2
 10
208.276868
 20
28.370194
 10
209.072191
 20
28.370194
  0
LWPOLYLINE
  5
23C
330
21B
100
AcDbEntity
  8
0
  6
Continuous
 62
     7
100
AcDbPolyline
 90
        2
 70
     0
 43
0.2
 10
209.072191
 20
28.370194
 10
209.072191
 20
28.582175
  0
LWPOLYLINE
  5
23D
330
21B
100
AcDbEntity
  8
0
  6
Continuous
 62
     7
100
AcDbPolyline
 90
        2
 70
     0
 43
0.2
 10
209.072191
 20
28.582175
 10
208.508216
 20
28.582175
  0
LWPOLYLINE
  5
23E
330
21B
100
AcDbEntity
  8
0
  6
Continuous
 62
     7
100
AcDbPolyline
 90
        2
 70
     0
 43
0.2
 10
208.508216
 20
28.582175
 10
208.508216
 20
30.227257
  0
LWPOLYLINE
  5
23F
330
21B
100
AcDbEntity
  8
0
  6
Continuous
 62
     7
100
AcDbPolyline
 90
        2
 70
     0
 43
0.2
 10
210.751295
 20
29.522745
 10
210.530153
 20
29.522745
  0
LWPOLYLINE
  5
240
330
21B
100
AcDbEntity
  8
0
  6
Continuous
 62
     7
100
AcDbPolyline
 90
        2
 70
     0
 43
0.2
 10
210.530153
 20
29.522745
 10
210.530153
 20
28.370717
  0
LWPOLYLINE
  5
241
330
21B
100
AcDbEntity
  8
0
  6
Continuous
 62
     7
100
AcDbPolyline
 90
        2
 70
     0
 43
0.2
 10
210.530153
 20
28.370717
 10
210.751295
 20
28.370717
  0
LWPOLYLINE
  5
242
330
21B
100
AcDbEntity
  8
0
  6
Continuous
 62
     7
100
AcDbPolyline
 90
        2
 70
     0
 43
0.2
 10
210.751295
 20
28.370717
 10
210.751295
 20
29.522745
  0
SPLINE
  5
243
330
21B
100
AcDbEntity
  8
0
  6
Continuous
 62
     7
100
AcDbSpline
 70
     3
 71
     3
 72
    17
 73
    13
 74
     0
 42
0.000000001
 43
0.0000001
 40
0.0
 40
0.0
 40
0.0
 40
0.0
 40
1.0
 40
1.0
 40
1.0
 40
2.0
 40
2.0
 40
2.0
 40
3.0
 40
3.0
 40
3.0
 40
4.0
 40
4.0
 40
4.0
 40
4.0
 10
210.6408548534
 20
30.2052737211
 30
0.0
 10
210.5568473417
 20
30.2052737211
 30
0.0
 10
210.488280463
 20
30.1361834311
 30
0.0
 10
210.488280463
 20
30.0503439799
 30
0.0
 10
210.488280463
 20
29.9660747625
 30
0.0
 10
210.5568473417
 20
29.9001249403
 30
0.0
 10
210.6408548534
 20
29.9001249403
 30
0.0
 10
210.7246006594
 20
29.9001249403
 30
0.0
 10
210.7934292438
 20
29.9660747625
 30
0.0
 10
210.7934292438
 20
30.0503439799
 30
0.0
 10
210.7934292438
 20
30.1361834311
 30
0.0
 10
210.7246006594
 20
30.2052737211
 30
0.0
 10
210.6408548534
 20
30.2052737211
 30
0.0
  0
SPLINE
  5
244
330
21B
100
AcDbEntity
  8
0
  6
Continuous
 62
     7
100
AcDbSpline
 70
     3
 71
     3
 72
    17
 73
    13
 74
     0
 42
0.000000001
 43
0.0000001
 40
0.0
 40
0.0
 40
0.0
 40
0.0
 40
1.0
 40
1.0
 40
1.0
 40
2.0
 40
2.0
 40
2.0
 40
3.0
 40
3.0
 40
3.0
 40
4.0
 40
4.0
 40
4.0
 40
4.0
 10
212.8815785768
 20
28.5282639548
 30
0.0
 10
212.6476137311
 20
28.5282639548
 30
0.0
 10
212.5172843204
 20
28.7303007119
 30
0.0
 10
212.5172843204
 20
28.9464695738
 30
0.0
 10
212.5172843204
 20
29.1610682018
 30
0.0
 10
212.6531095496
 20
29.3599644912
 30
0.0
 10
212.8815785768
 20
29.3599644912
 30
0.0
 10
213.121039241
 20
29.3599644912
 30
0.0
 10
213.2566027645
 20
29.1710130163
 30
0.0
 10
213.2566027645
 20
28.9464695738
 30
0.0
 10
213.2566027645
 20
28.7203558974
 30
0.0
 10
213.1233945918
 20
28.5282639548
 30
0.0
 10
212.8815785768
 20
28.5282639548
 30
0.0
  0
SPLINE
  5
245
330
21B
100
AcDbEntity
  8
0
  6
Continuous
 62
     7
100
AcDbSpline
 70
     3
 71
     3
 72
    50
 73
    46
 74
     0
 42
0.000000001
 43
0.0000001
 40
0.0
 40
0.0
 40
0.0
 40
0.0
 40
1.0
 40
1.0
 40
1.0
 40
2.0
 40
2.0
 40
2.0
 40
3.0
 40
3.0
 40
3.0
 40
4.0
 40
4.0
 40
4.0
 40
5.0
 40
5.0
 40
5.0
 40
6.0
 40
6.0
 40
6.0
 40
7.0
 40
7.0
 40
7.0
 40
8.0
 40
8.0
 40
8.0
 40
9.0
 40
9.0
 40
9.0
 40
10.0
 40
10.0
 40
10.0
 40
11.0
 40
11.0
 40
11.0
 40
12.0
 40
12.0
 40
12.0
 40
13.0
 40
13.0
 40
13.0
 40
14.0
 40
14.0
 40
14.0
 40
15.0
 40
15.0
 40
15.0
 40
15.0
 10
213.465705574
 20
29.523268813
 30
0.0
 10
213.465705574
 20
29.523268813
 30
0.0
 10
213.2440408936
 20
29.523268813
 30
0.0
 10
213.2440408936
 20
29.523268813
 30
0.0
 10
213.2440408936
 20
29.523268813
 30
0.0
 10
213.2440408936
 20
29.3259427575
 30
0.0
 10
213.2440408936
 20
29.3259427575
 30
0.0
 10
213.2440408936
 20
29.3259427575
 30
0.0
 10
213.239330192
 20
29.3259427575
 30
0.0
 10
213.239330192
 20
29.3259427575
 30
0.0
 10
213.1479949223
 20
29.4688340391
 30
0.0
 10
213.0100760479
 20
29.5572905467
 30
0.0
 10
212.8373503229
 20
29.5572905467
 30
0.0
 10
212.5049841551
 20
29.5572905467
 30
0.0
 10
212.2958813456
 20
29.2694143384
 30
0.0
 10
212.2958813456
 20
28.9537973318
 30
0.0
 10
212.2958813456
 20
28.6240482204
 30
0.0
 10
212.4929456955
 20
28.3309378992
 30
0.0
 10
212.8478185487
 20
28.3309378992
 30
0.0
 10
213.0100760479
 20
28.3309378992
 30
0.0
 10
213.1500885674
 20
28.4193944069
 30
0.0
 10
213.239330192
 20
28.5502472289
 30
0.0
 10
213.239330192
 20
28.5502472289
 30
0.0
 10
213.2440408936
 20
28.5502472289
 30
0.0
 10
213.2440408936
 20
28.5502472289
 30
0.0
 10
213.2440408936
 20
28.5502472289
 30
0.0
 10
213.2440408936
 20
28.3309378992
 30
0.0
 10
213.2440408936
 20
28.3309378992
 30
0.0
 10
213.2440408936
 20
28.0943559971
 30
0.0
 10
213.1875124745
 20
27.9074981673
 30
0.0
 10
212.9142917823
 20
27.9074981673
 30
0.0
 10
212.7119933195
 20
27.9074981673
 30
0.0
 10
212.5693637435
 20
28.0257891184
 30
0.0
 10
212.5693637435
 20
28.2320131658
 30
0.0
 10
212.5693637435
 20
28.2320131658
 30
0.0
 10
212.3476990631
 20
28.2320131658
 30
0.0
 10
212.3476990631
 20
28.2320131658
 30
0.0
 10
212.3526714704
 20
27.9074981673
 30
0.0
 10
212.583757554
 20
27.7106955231
 30
0.0
 10
212.9040852621
 20
27.7106955231
 30
0.0
 10
213.3521253246
 20
27.7106955231
 30
0.0
 10
213.465705574
 20
27.995954675
 30
0.0
 10
213.465705574
 20
28.3927004312
 30
0.0
 10
213.465705574
 20
28.3927004312
 30
0.0
 10
213.465705574
 20
29.523268813
 30
0.0
 10
213.465705574
 20
29.523268813
 30
0.0
  0
SPLINE
  5
246
330
21B
100
AcDbEntity
  8
0
  6
Continuous
 62
     7
100
AcDbSpline
 70
     3
 71
     3
 72
    44
 73
    40
 74
     0
 42
0.000000001
 43
0.0000001
 40
0.0
 40
0.0
 40
0.0
 40
0.0
 40
1.0
 40
1.0
 40
1.0
 40
2.0
 40
2.0
 40
2.0
 40
3.0
 40
3.0
 40
3.0
 40
4.0
 40
4.0
 40
4.0
 40
5.0
 40
5.0
 40
5.0
 40
6.0
 40
6.0
 40
6.0
 40
7.0
 40
7.0
 40
7.0
 40
8.0
 40
8.0
 40
8.0
 40
9.0
 40
9.0
 40
9.0
 40
10.0
 40
10.0
 40
10.0
 40
11.0
 40
11.0
 40
11.0
 40
12.0
 40
12.0
 40
12.0
 40
13.0
 40
13.0
 40
13.0
 40
13.0
 10
215.0346309094
 20
30.5083288568
 30
0.0
 10
215.0346309094
 20
30.5083288568
 30
0.0
 10
215.0346309094
 20
28.3701937458
 30
0.0
 10
215.0346309094
 20
28.3701937458
 30
0.0
 10
215.0346309094
 20
28.3701937458
 30
0.0
 10
215.2560338842
 20
28.3701937458
 30
0.0
 10
215.2560338842
 20
28.3701937458
 30
0.0
 10
215.2560338842
 20
28.3701937458
 30
0.0
 10
215.2560338842
 20
28.8998859691
 30
0.0
 10
215.2560338842
 20
28.8998859691
 30
0.0
 10
215.2560338842
 20
29.1097738956
 30
0.0
 10
215.2560338842
 20
29.3604879025
 30
0.0
 10
215.5412930361
 20
29.3604879025
 30
0.0
 10
215.7681918294
 20
29.3604879025
 30
0.0
 10
215.7951475107
 20
29.2275414354
 30
0.0
 10
215.7951475107
 20
29.0312622024
 30
0.0
 10
215.7951475107
 20
29.0312622024
 30
0.0
 10
215.7951475107
 20
28.3701937458
 30
0.0
 10
215.7951475107
 20
28.3701937458
 30
0.0
 10
215.7951475107
 20
28.3701937458
 30
0.0
 10
216.0170738967
 20
28.3701937458
 30
0.0
 10
216.0170738967
 20
28.3701937458
 30
0.0
 10
216.0170738967
 20
28.3701937458
 30
0.0
 10
216.0170738967
 20
29.0574327668
 30
0.0
 10
216.0170738967
 20
29.0574327668
 30
0.0
 10
216.0170738967
 20
29.3379812171
 30
0.0
 10
215.933066385
 20
29.557813958
 30
0.0
 10
215.6080279753
 20
29.557813958
 30
0.0
 10
215.4682771614
 20
29.557813958
 30
0.0
 10
215.3300965814
 20
29.4913407244
 30
0.0
 10
215.2607445858
 20
29.3683390718
 30
0.0
 10
215.2607445858
 20
29.3683390718
 30
0.0
 10
215.2560338842
 20
29.3683390718
 30
0.0
 10
215.2560338842
 20
29.3683390718
 30
0.0
 10
215.2560338842
 20
29.3683390718
 30
0.0
 10
215.2560338842
 20
30.5083288568
 30
0.0
 10
215.2560338842
 20
30.5083288568
 30
0.0
 10
215.2560338842
 20
30.5083288568
 30
0.0
 10
215.0346309094
 20
30.5083288568
 30
0.0
 10
215.0346309094
 20
30.5083288568
 30
0.0
  0
LWPOLYLINE
  5
247
330
21B
100
AcDbEntity
  8
0
  6
Continuous
 62
     7
100
AcDbPolyline
 90
        2
 70
     0
 43
0.2
 10
217.856865
 20
29.315998
 10
218.073295
 20
29.315998
  0
LWPOLYLINE
  5
248
330
21B
100
AcDbEntity
  8
0
  6
Continuous
 62
     7
100
AcDbPolyline
 90
        2
 70
     0
 43
0.2
 10
218.073295
 20
29.315998
 10
218.073295
 20
29.522745
  0
LWPOLYLINE
  5
249
330
21B
100
AcDbEntity
  8
0
  6
Continuous
 62
     7
100
AcDbPolyline
 90
        2
 70
     0
 43
0.2
 10
218.073295
 20
29.522745
 10
217.856865
 20
29.522745
  0
LWPOLYLINE
  5
24A
330
21B
100
AcDbEntity
  8
0
  6
Continuous
 62
     7
100
AcDbPolyline
 90
        2
 70
     0
 43
0.2
 10
217.856865
 20
29.522745
 10
217.856865
 20
29.963458
  0
LWPOLYLINE
  5
24B
330
21B
100
AcDbEntity
  8
0
  6
Continuous
 62
     7
100
AcDbPolyline
 90
        2
 70
     0
 43
0.2
 10
217.856865
 20
29.963458
 10
217.6352
 20
29.963458
  0
LWPOLYLINE
  5
24C
330
21B
100
AcDbEntity
  8
0
  6
Continuous
 62
     7
100
AcDbPolyline
 90
        2
 70
     0
 43
0.2
 10
217.6352
 20
29.963458
 10
217.6352
 20
29.522745
  0
LWPOLYLINE
  5
24D
330
21B
100
AcDbEntity
  8
0
  6
Continuous
 62
     7
100
AcDbPolyline
 90
        2
 70
     0
 43
0.2
 10
217.6352
 20
29.522745
 10
217.514554
 20
29.522745
  0
LWPOLYLINE
  5
24E
330
21B
100
AcDbEntity
  8
0
  6
Continuous
 62
     7
100
AcDbPolyline
 90
        2
 70
     0
 43
0.2
 10
217.514554
 20
29.522745
 10
217.514554
 20
29.315998
  0
LWPOLYLINE
  5
24F
330
21B
100
AcDbEntity
  8
0
  6
Continuous
 62
     7
100
AcDbPolyline
 90
        2
 70
     0
 43
0.2
 10
217.514554
 20
29.315998
 10
217.6352
 20
29.315998
  0
LWPOLYLINE
  5
250
330
21B
100
AcDbEntity
  8
0
  6
Continuous
 62
     7
100
AcDbPolyline
 90
        2
 70
     0
 43
0.2
 10
217.6352
 20
29.315998
 10
217.6352
 20
28.370194
  0
LWPOLYLINE
  5
251
330
21B
100
AcDbEntity
  8
0
  6
Continuous
 62
     7
100
AcDbPolyline
 90
        2
 70
     0
 43
0.2
 10
217.6352
 20
28.370194
 10
217.856865
 20
28.370194
  0
LWPOLYLINE
  5
252
330
21B
100
AcDbEntity
  8
0
  6
Continuous
 62
     7
100
AcDbPolyline
 90
        2
 70
     0
 43
0.2
 10
217.856865
 20
28.370194
 10
217.856865
 20
29.315998
  0
SPLINE
  5
253
330
21B
100
AcDbEntity
  8
0
  6
Continuous
 62
     7
100
AcDbSpline
 70
     3
 71
     3
 72
    20
 73
    16
 74
     0
 42
0.000000001
 43
0.0000001
 40
0.0
 40
0.0
 40
0.0
 40
0.0
 40
1.0
 40
1.0
 40
1.0
 40
2.0
 40
2.0
 40
2.0
 40
3.0
 40
3.0
 40
3.0
 40
4.0
 40
4.0
 40
4.0
 40
5.0
 40
5.0
 40
5.0
 40
5.0
 10
205.6388748809
 20
38.7311201892
 30
0.0
 10
205.6388748809
 20
38.7311201892
 30
0.0
 10
207.9552315353
 20
35.901558767
 30
0.0
 10
207.9552315353
 20
35.901558767
 30
0.0
 10
207.3035844819
 20
35.2493883023
 30
0.0
 10
206.5267112779
 20
34.5134720316
 30
0.0
 10
205.5555216333
 20
34.5134720316
 30
0.0
 10
204.5569837488
 20
34.5134720316
 30
0.0
 10
203.6136657553
 20
35.4430504788
 30
0.0
 10
203.6136657553
 20
36.4422426274
 30
0.0
 10
203.6136657553
 20
37.4414347759
 30
0.0
 10
204.7925188284
 20
38.1480400145
 30
0.0
 10
205.5140412887
 20
38.6478977944
 30
0.0
 10
205.5140412887
 20
38.6478977944
 30
0.0
 10
205.6388748809
 20
38.7311201892
 30
0.0
 10
205.6388748809
 20
38.7311201892
 30
0.0
  0
SPLINE
  5
254
330
21B
100
AcDbEntity
  8
0
  6
Continuous
 62
     7
100
AcDbSpline
 70
     3
 71
     3
 72
    23
 73
    19
 74
     0
 42
0.000000001
 43
0.0000001
 40
0.0
 40
0.0
 40
0.0
 40
0.0
 40
1.0
 40
1.0
 40
1.0
 40
2.0
 40
2.0
 40
2.0
 40
3.0
 40
3.0
 40
3.0
 40
4.0
 40
4.0
 40
4.0
 40
5.0
 40
5.0
 40
5.0
 40
6.0
 40
6.0
 40
6.0
 40
6.0
 10
205.9162828634
 20
40.368874109
 30
0.0
 10
205.9162828634
 20
40.368874109
 30
0.0
 10
205.5697845909
 20
40.8122034698
 30
0.0
 10
205.5697845909
 20
40.8122034698
 30
0.0
 10
205.2639815459
 20
41.2003129397
 30
0.0
 10
204.9450932188
 20
41.5888149682
 30
0.0
 10
204.9450932188
 20
42.1157592822
 30
0.0
 10
204.9450932188
 20
42.7819309989
 30
0.0
 10
205.4864313433
 20
43.2256529182
 30
0.0
 10
206.1103375984
 20
43.2256529182
 30
0.0
 10
206.8041192605
 20
43.2256529182
 30
0.0
 10
207.3313252802
 20
42.8234113434
 30
0.0
 10
207.3313252802
 20
42.0884110424
 30
0.0
 10
207.3313252802
 20
41.3251465319
 30
0.0
 10
206.6100645255
 20
40.8950333061
 30
0.0
 10
206.0829893586
 20
40.4793138907
 30
0.0
 10
206.0829893586
 20
40.4793138907
 30
0.0
 10
205.9162828634
 20
40.368874109
 30
0.0
 10
205.9162828634
 20
40.368874109
 30
0.0
  0
SPLINE
  5
255
330
21B
100
AcDbEntity
  8
0
  6
Continuous
 62
     7
100
AcDbSpline
 70
     3
 71
     3
 72
    50
 73
    46
 74
     0
 42
0.000000001
 43
0.0000001
 40
0.0
 40
0.0
 40
0.0
 40
0.0
 40
1.0
 40
1.0
 40
1.0
 40
2.0
 40
2.0
 40
2.0
 40
3.0
 40
3.0
 40
3.0
 40
4.0
 40
4.0
 40
4.0
 40
5.0
 40
5.0
 40
5.0
 40
6.0
 40
6.0
 40
6.0
 40
7.0
 40
7.0
 40
7.0
 40
8.0
 40
8.0
 40
8.0
 40
9.0
 40
9.0
 40
9.0
 40
10.0
 40
10.0
 40
10.0
 40
11.0
 40
11.0
 40
11.0
 40
12.0
 40
12.0
 40
12.0
 40
13.0
 40
13.0
 40
13.0
 40
14.0
 40
14.0
 40
14.0
 40
15.0
 40
15.0
 40
15.0
 40
15.0
 10
209.8698700264
 20
33.5702848908
 30
0.0
 10
209.8698700264
 20
33.5702848908
 30
0.0
 10
211.4790980309
 20
33.5702848908
 30
0.0
 10
211.4790980309
 20
33.5702848908
 30
0.0
 10
211.4790980309
 20
33.5702848908
 30
0.0
 10
209.6060707373
 20
35.8874266622
 30
0.0
 10
209.6060707373
 20
35.8874266622
 30
0.0
 10
209.6060707373
 20
35.8874266622
 30
0.0
 10
210.8824091627
 20
37.3849063568
 30
0.0
 10
210.8824091627
 20
37.3849063568
 30
0.0
 10
210.8824091627
 20
37.3849063568
 30
0.0
 10
210.050185215
 20
38.2459179254
 30
0.0
 10
210.050185215
 20
38.2459179254
 30
0.0
 10
210.050185215
 20
38.2459179254
 30
0.0
 10
208.8295900917
 20
36.830613803
 30
0.0
 10
208.8295900917
 20
36.830613803
 30
0.0
 10
208.8295900917
 20
36.830613803
 30
0.0
 10
206.6516757229
 20
39.4659896374
 30
0.0
 10
206.6516757229
 20
39.4659896374
 30
0.0
 10
207.5252491623
 20
40.1040279973
 30
0.0
 10
208.5519204035
 20
40.8950333061
 30
0.0
 10
208.5519204035
 20
42.0738863792
 30
0.0
 10
208.5519204035
 20
43.4475793042
 30
0.0
 10
207.4140242637
 20
44.2520624537
 30
0.0
 10
206.1387326608
 20
44.2520624537
 30
0.0
 10
204.7653014414
 20
44.2520624537
 30
0.0
 10
203.7243672427
 20
43.405837254
 30
0.0
 10
203.7243672427
 20
41.9631848918
 30
0.0
 10
203.7243672427
 20
41.0756102004
 30
0.0
 10
204.2797066191
 20
40.2987369964
 30
0.0
 10
204.875872076
 20
39.67430733
 30
0.0
 10
204.875872076
 20
39.67430733
 30
0.0
 10
204.2239633169
 20
39.2027137596
 30
0.0
 10
204.2239633169
 20
39.2027137596
 30
0.0
 10
203.2254254325
 20
38.4814530049
 30
0.0
 10
202.3925472207
 20
37.7601922502
 30
0.0
 10
202.3925472207
 20
36.4286339339
 30
0.0
 10
202.3925472207
 20
34.6249586359
 30
0.0
 10
203.8495933933
 20
33.3483585048
 30
0.0
 10
205.5971328307
 20
33.3483585048
 30
0.0
 10
206.8319909116
 20
33.3483585048
 30
0.0
 10
207.9413611362
 20
34.0565339772
 30
0.0
 10
208.7322355922
 20
34.9850656019
 30
0.0
 10
208.7322355922
 20
34.9850656019
 30
0.0
 10
209.8698700264
 20
33.5702848908
 30
0.0
 10
209.8698700264
 20
33.5702848908
 30
0.0
  0
LINE
  5
256
330
21B
100
AcDbEntity
  8
0
  6
Continuous
 62
     7
100
AcDbLine
 10
195.672731
 20
31.54416
 30
0.0
 11
218.086642
 21
31.54416
 31
0.0
  0
LINE
  5
257
330
21B
100
AcDbEntity
  8
0
  6
Continuous
 62
     7
100
AcDbLine
 10
218.086642
 20
31.54416
 30
0.0
 11
218.086642
 21
53.958071
 31
0.0
  0
LINE
  5
258
330
21B
100
AcDbEntity
  8
0
  6
Continuous
 62
     7
100
AcDbLine
 10
218.086642
 20
53.958071
 30
0.0
 11
195.672731
 21
53.958071
 31
0.0
  0
LINE
  5
259
330
21B
100
AcDbEntity
  8
0
  6
Continuous
 62
     7
100
AcDbLine
 10
195.672731
 20
53.958071
 30
0.0
 11
195.672731
 21
31.54416
 31
0.0
  0
ENDBLK
  5
25A
330
21B
100
AcDbEntity
  8
0
  6
ByBlock
 62
     0
100
AcDbBlockEnd
  0
BLOCK
  5
28E
330
21C
100
AcDbEntity
  8
0
100
AcDbBlockBegin
  2
*T7
 70
     1
 10
0.0
 20
0.0
 30
0.0
  3
*T7
  1
*T7
  0
LINE
  5
28F
330
21C
100
AcDbEntity
  8
0
  6
Continuous
 62
     2
100
AcDbLine
 10
0.0
 20
0.0
 30
0.0
 11
90.0
 21
0.0
 31
0.0
  0
LINE
  5
290
330
21C
100
AcDbEntity
  8
0
  6
Continuous
 62
     2
100
AcDbLine
 10
0.0
 20
0.0
 30
0.0
 11
0.0
 21
-40.0
 31
0.0
  0
LINE
  5
291
330
21C
100
AcDbEntity
  8
0
  6
Continuous
 62
     2
100
AcDbLine
 10
30.0
 20
-6.0
 30
0.0
 11
90.0
 21
-6.0
 31
0.0
  0
LINE
  5
292
330
21C
100
AcDbEntity
  8
0
  6
Continuous
 62
     2
100
AcDbLine
 10
30.0
 20
-12.0
 30
0.0
 11
90.0
 21
-12.0
 31
0.0
  0
LINE
  5
293
330
21C
100
AcDbEntity
  8
0
  6
Continuous
 62
     2
100
AcDbLine
 10
30.0
 20
-22.0
 30
0.0
 11
90.0
 21
-22.0
 31
0.0
  0
LINE
  5
294
330
21C
100
AcDbEntity
  8
0
  6
Continuous
 62
     2
100
AcDbLine
 10
0.0
 20
-27.0
 30
0.0
 11
90.0
 21
-27.0
 31
0.0
  0
LINE
  5
295
330
21C
100
AcDbEntity
  8
0
  6
Continuous
 62
     2
100
AcDbLine
 10
0.0
 20
-40.0
 30
0.0
 11
90.0
 21
-40.0
 31
0.0
  0
LINE
  5
296
330
21C
100
AcDbEntity
  8
0
  6
Continuous
 62
     2
100
AcDbLine
 10
30.0
 20
0.0
 30
0.0
 11
30.0
 21
-27.0
 31
0.0
  0
LINE
  5
297
330
21C
100
AcDbEntity
  8
0
  6
Continuous
 62
     2
100
AcDbLine
 10
70.0
 20
0.0
 30
0.0
 11
70.0
 21
-12.0
 31
0.0
  0
LINE
  5
298
330
21C
100
AcDbEntity
  8
0
  6
Continuous
 62
     2
100
AcDbLine
 10
90.0
 20
0.0
 30
0.0
 11
90.0
 21
-40.0
 31
0.0
  0
MTEXT
  5
299
330
21C
100
AcDbEntity
  8
9_SOLID
  6
Continuous
 62
     2
100
AcDbMText
 10
31.4875
 20
-1.5
 30
0.0
 40
3.0
 41
48.914498
 46
0.0
 71
     1
 72
     1
  1
A254_C_401
 73
     1
 44
0.9
  0
MTEXT
  5
29A
330
21C
100
AcDbEntity
  8
9_SOLID
  6
Continuous
 62
     2
100
AcDbMText
 10
71.4875
 20
-1.25
 30
0.0
 40
3.5
 41
30.966543
 46
0.0
 71
     1
 72
     1
  1
Rev:00
 73
     1
 44
0.9
  0
MTEXT
  5
29B
330
21C
100
AcDbEntity
  8
9_SOLID
  6
Continuous
 62
     2
100
AcDbMText
 10
31.4875
 20
-7.75
 30
0.0
 40
3.5
 41
40.724907
 46
0.0
 71
     1
 72
     1
  1
Scale:1:1
 73
     1
 44
0.9
  0
MTEXT
  5
29C
330
21C
100
AcDbEntity
  8
9_SOLID
  6
Continuous
 62
     2
100
AcDbMText
 10
71.4875
 20
-7.25
 30
0.0
 40
3.5
 41
11.944238
 46
0.0
 71
     1
 72
     1
  1
A4
 73
     1
 44
0.9
  0
MTEXT
  5
29D
330
21C
100
AcDbEntity
  8
9_SOLID
  6
Continuous
 62
     2
100
AcDbMText
 10
31.4875
 20
-15.25
 30
0.0
 40
3.5
 41
46.657993
 46
0.0
 71
     1
 72
     1
  1
REIKO 1.0
 73
     1
 44
0.9
  0
MTEXT
  5
29E
330
21C
100
AcDbEntity
  8
9_SOLID
  6
Continuous
 62
     2
100
AcDbMText
 10
31.4875
 20
-23.25
 30
0.0
 40
2.5
 41
47.695167
 46
0.0
 71
     1
 72
     1
  1
DATE:14.02.23
 73
     1
 44
0.9
  0
MTEXT
  5
29F
330
21C
100
AcDbEntity
  8
9_SOLID
  6
Continuous
 62
     2
100
AcDbMText
 10
1.4875
 20
-27.3125
 30
0.0
 40
2.25
 41
148.98513
 46
0.0
 71
     1
 72
     1
  1
Any integral or partial reproductions are prohibited \Pwithout prior authorisation of L & L Luce & Light s.r.l., \Pin accordance with the law in force. \PAll rights reserved.
 73
     1
 44
0.9
  0
ENDBLK
  5
2A0
330
21C
100
AcDbEntity
  8
0
  6
ByBlock
 62
     0
100
AcDbBlockEnd
  0
ENDSEC
  0
SECTION
  2
ENTITIES
  0
LWPOLYLINE
  5
2A1
330
213
100
AcDbEntity
  8
0
  6
Continuous
 62
     7
100
AcDbPolyline
 90
        2
 70
     0
 43
0.5
 10
284.0
 20
13.0
 10
284.0
 20
197.0
  0
LWPOLYLINE
  5
2A2
330
213
100
AcDbEntity
  8
0
  6
Continuous
 62
     7
100
AcDbPolyline
 90
        2
 70
     0
 43
0.5
 10
13.0
 20
13.0
 10
13.0
 20
197.0
  0
LWPOLYLINE
  5
2A3
330
213
100
AcDbEntity
  8
0
  6
Continuous
 62
     7
100
AcDbPolyline
 90
        2
 70
     0
 43
0.5
 10
13.0
 20
13.0
 10
284.0
 20
13.0
  0
LWPOLYLINE
  5
2A4
330
213
100
AcDbEntity
  8
0
  6
Continuous
 62
     7
100
AcDbPolyline
 90
        2
 70
     0
 43
0.1
 10
148.5
 20
197.0
 10
148.5
 20
200.0
  0
LWPOLYLINE
  5
2A5
330
213
100
AcDbEntity
  8
0
  6
Continuous
 62
     7
100
AcDbPolyline
 90
        2
 70
     0
 43
0.1
 10
284.0
 20
105.0
 10
287.0
 20
105.0
  0
LWPOLYLINE
  5
2A6
330
213
100
AcDbEntity
  8
0
  6
Continuous
 62
     7
100
AcDbPolyline
 90
        2
 70
     0
 43
0.1
 10
13.0
 20
105.0
 10
10.0
 20
105.0
  0
LWPOLYLINE
  5
2A7
330
213
100
AcDbEntity
  8
0
  6
Continuous
 62
     7
100
AcDbPolyline
 90
        2
 70
     0
 43
0.5
 10
13.0
 20
197.0
 10
284.0
 20
197.0
  0
LWPOLYLINE
  5
2A8
330
213
100
AcDbEntity
  8
0
  6
Continuous
 62
     7
100
AcDbPolyline
 90
        2
 70
     0
 43
0.1
 10
10.0
 20
200.0
 10
287.0
 20
200.0
  0
LWPOLYLINE
  5
2A9
330
213
100
AcDbEntity
  8
0
  6
Continuous
 62
     7
100
AcDbPolyline
 90
        2
 70
     0
 43
0.1
 10
10.0
 20
10.0
 10
10.0
 20
200.0
  0
LWPOLYLINE
  5
2AA
330
213
100
AcDbEntity
  8
0
  6
Continuous
 62
     7
100
AcDbPolyline
 90
        2
 70
     0
 43
0.1
 10
287.0
 20
10.0
 10
287.0
 20
200.0
  0
LWPOLYLINE
  5
2AB
330
213
100
AcDbEntity
  8
0
  6
Continuous
 62
     7
100
AcDbPolyline
 90
        2
 70
     0
 43
0.1
 10
10.0
 20
10.0
 10
287.0
 20
10.0
  0
LWPOLYLINE
  5
2AC
330
213
100
AcDbEntity
  8
0
  6
Continuous
 62
     7
100
AcDbPolyline
 90
        2
 70
     0
 43
0.1
 10
148.5
 20
13.0
 10
148.5
 20
10.0
  0
ARC
  5
2AD
330
213
100
AcDbEntity
  8
3_ALL_AXES
  6
Continuous
 62
     7
100
AcDbCircle
 10
98.200594
 20
143.265783
 30
0.0
 40
2.1
100
AcDbArc
 50
203.637756
 51
204.045678
  0
ARC
  5
2AE
330
213
100
AcDbEntity
  8
3_ALL_AXES
  6
Continuous
 62
     7
100
AcDbCircle
 10
98.200594
 20
143.265783
 30
0.0
 40
2.1
100
AcDbArc
 50
202.98779
 51
203.637756
  0
LINE
  5
2AF
330
213
100
AcDbEntity
  8
7_ALL_FEATURES
  6
Continuous
 62
     7
100
AcDbLine
 10
103.950594
 20
145.487471
 30
0.0
 11
102.700594
 21
146.209159
 31
0.0
  0
LINE
  5
2B0
330
213
100
AcDbEntity
  8
7_ALL_FEATURES
  6
Continuous
 62
     7
100
AcDbLine
 10
102.700594
 20
146.209159
 30
0.0
 11
101.450594
 21
145.487471
 31
0.0
  0
LINE
  5
2B1
330
213
100
AcDbEntity
  8
7_ALL_FEATURES
  6
Continuous
 62
     7
100
AcDbLine
 10
101.450594
 20
145.487471
 30
0.0
 11
101.450594
 21
144.044095
 31
0.0
  0
LINE
  5
2B2
330
213
100
AcDbEntity
  8
7_ALL_FEATURES
  6
Continuous
 62
     7
100
AcDbLine
 10
101.450594
 20
144.044095
 30
0.0
 11
102.700594
 21
143.322407
 31
0.0
  0
LINE
  5
2B3
330
213
100
AcDbEntity
  8
7_ALL_FEATURES
  6
Continuous
 62
     7
100
AcDbLine
 10
102.700594
 20
143.322407
 30
0.0
 11
103.950594
 21
144.044095
 31
0.0
  0
LINE
  5
2B4
330
213
100
AcDbEntity
  8
7_ALL_FEATURES
  6
Continuous
 62
     7
100
AcDbLine
 10
103.950594
 20
144.044095
 30
0.0
 11
103.950594
 21
145.487471
 31
0.0
  0
ARC
  5
2B5
330
213
100
AcDbEntity
  8
3_ALL_AXES
  6
Continuous
 62
     7
100
AcDbCircle
 10
102.700594
 20
144.765783
 30
0.0
 40
3.8
100
AcDbArc
 50
270.0
 51
90.0
  0
ARC
  5
2B6
330
213
100
AcDbEntity
  8
3_ALL_AXES
  6
Continuous
 62
     7
100
AcDbCircle
 10
102.700594
 20
144.765783
 30
0.0
 40
3.8
100
AcDbArc
 50
90.0
 51
270.0
  0
ARC
  5
2B7
330
213
100
AcDbEntity
  8
3_ALL_AXES
  6
Continuous
 62
     7
100
AcDbCircle
 10
102.700594
 20
144.765783
 30
0.0
 40
1.965
100
AcDbArc
 50
270.0
 51
90.0
  0
ARC
  5
2B8
330
213
100
AcDbEntity
  8
3_ALL_AXES
  6
Continuous
 62
     7
100
AcDbCircle
 10
102.700594
 20
144.765783
 30
0.0
 40
1.965
100
AcDbArc
 50
90.0
 51
270.0
  0
ARC
  5
2B9
330
213
100
AcDbEntity
  8
3_ALL_AXES
  6
Continuous
 62
     7
100
AcDbCircle
 10
102.700594
 20
144.765783
 30
0.0
 40
5.0
100
AcDbArc
 50
90.0
 51
270.0
  0
ARC
  5
2BA
330
213
100
AcDbEntity
  8
3_ALL_AXES
  6
Continuous
 62
     7
100
AcDbCircle
 10
102.700594
 20
144.765783
 30
0.0
 40
5.0
100
AcDbArc
 50
270.0
 51
90.0
  0
LINE
  5
2BB
330
213
100
AcDbEntity
  8
7_ALL_FEATURES
  6
Continuous
 62
     7
100
AcDbLine
 10
59.700594
 20
137.765783
 30
0.0
 11
59.700594
 21
171.765783
 31
0.0
  0
LINE
  5
2BC
330
213
100
AcDbEntity
  8
7_ALL_FEATURES
  6
Continuous
 62
     7
100
AcDbLine
 10
109.700594
 20
147.56737
 30
0.0
 11
109.700594
 21
160.722234
 31
0.0
  0
LINE
  5
2BD
330
213
100
AcDbEntity
  8
7_ALL_FEATURES
  6
Continuous
 62
     7
100
AcDbLine
 10
109.700594
 20
160.722234
 30
0.0
 11
109.700594
 21
161.617898
 31
0.0
  0
LINE
  5
2BE
330
213
100
AcDbEntity
  8
7_ALL_FEATURES
  6
Continuous
 62
     7
100
AcDbLine
 10
109.700594
 20
171.765783
 30
0.0
 11
109.700594
 21
161.617898
 31
0.0
  0
LINE
  5
2BF
330
213
100
AcDbEntity
  8
7_ALL_FEATURES
  6
Continuous
 62
     7
100
AcDbLine
 10
89.993487
 20
137.265783
 30
0.0
 11
102.45741
 21
137.265783
 31
0.0
  0
LINE
  5
2C0
330
213
100
AcDbEntity
  8
7_ALL_FEATURES
  6
Continuous
 62
     7
100
AcDbLine
 10
89.200594
 20
137.265783
 30
0.0
 11
60.200594
 21
137.265783
 31
0.0
  0
LINE
  5
2C1
330
213
100
AcDbEntity
  8
7_ALL_FEATURES
  6
Continuous
 62
     7
100
AcDbLine
 10
89.200594
 20
137.265783
 30
0.0
 11
89.993487
 21
137.265783
 31
0.0
  0
LINE
  5
2C2
330
213
100
AcDbEntity
  8
7_ALL_FEATURES
  6
Continuous
 62
     7
100
AcDbLine
 10
109.200594
 20
172.265783
 30
0.0
 11
60.200594
 21
172.265783
 31
0.0
  0
LINE
  5
2C3
330
213
100
AcDbEntity
  8
7_ALL_FEATURES
  6
Continuous
 62
     7
100
AcDbLine
 10
89.450594
 20
137.515783
 30
0.0
 11
89.700594
 21
137.765783
 31
0.0
  0
LINE
  5
2C4
330
213
100
AcDbEntity
  8
7_ALL_FEATURES
  6
Continuous
 62
     7
100
AcDbLine
 10
109.433144
 20
161.175269
 30
0.0
 11
109.566869
 21
161.396583
 31
0.0
  0
LINE
  5
2C5
330
213
100
AcDbEntity
  8
7_ALL_FEATURES
  6
Continuous
 62
     7
100
AcDbLine
 10
59.950594
 20
172.015783
 30
0.0
 11
59.700594
 21
171.765783
 31
0.0
  0
LINE
  5
2C6
330
213
100
AcDbEntity
  8
7_ALL_FEATURES
  6
Continuous
 62
     7
100
AcDbLine
 10
59.950594
 20
137.515783
 30
0.0
 11
59.700594
 21
137.765783
 31
0.0
  0
LINE
  5
2C7
330
213
100
AcDbEntity
  8
7_ALL_FEATURES
  6
Continuous
 62
     7
100
AcDbLine
 10
109.450594
 20
172.015783
 30
0.0
 11
109.700594
 21
171.765783
 31
0.0
  0
LINE
  5
2C8
330
213
100
AcDbEntity
  8
7_ALL_FEATURES
  6
Continuous
 62
     7
100
AcDbLine
 10
109.566869
 20
161.396583
 30
0.0
 11
109.700594
 21
161.617898
 31
0.0
  0
LINE
  5
2C9
330
213
100
AcDbEntity
  8
7_ALL_FEATURES
  6
Continuous
 62
     7
100
AcDbLine
 10
59.950594
 20
137.515783
 30
0.0
 11
60.200594
 21
137.265783
 31
0.0
  0
LINE
  5
2CA
330
213
100
AcDbEntity
  8
7_ALL_FEATURES
  6
Continuous
 62
     7
100
AcDbLine
 10
89.200594
 20
137.265783
 30
0.0
 11
89.450594
 21
137.515783
 31
0.0
  0
LINE
  5
2CB
330
213
100
AcDbEntity
  8
7_ALL_FEATURES
  6
Continuous
 62
     7
100
AcDbLine
 10
109.450594
 20
172.015783
 30
0.0
 11
109.200594
 21
172.265783
 31
0.0
  0
LINE
  5
2CC
330
213
100
AcDbEntity
  8
7_ALL_FEATURES
  6
Continuous
 62
     7
100
AcDbLine
 10
60.200594
 20
172.265783
 30
0.0
 11
59.950594
 21
172.015783
 31
0.0
  0
ARC
  5
2CD
330
213
100
AcDbEntity
  8
7_ALL_FEATURES
  6
Continuous
 62
     7
100
AcDbCircle
 10
99.700594
 20
144.765783
 30
0.0
 40
10.0
100
AcDbArc
 50
117.716771
 51
180.0
  0
LINE
  5
2CE
330
213
100
AcDbEntity
  8
7_ALL_FEATURES
  6
Continuous
 62
     7
100
AcDbLine
 10
89.700594
 20
137.765783
 30
0.0
 11
89.700594
 21
144.765783
 31
0.0
  0
LINE
  5
2CF
330
213
100
AcDbEntity
  8
7_ALL_FEATURES
  6
Continuous
 62
     7
100
AcDbLine
 10
95.049582
 20
153.618358
 30
0.0
 11
109.433144
 21
161.175269
 31
0.0
  0
LINE
  5
2D0
330
213
100
AcDbEntity
  8
7_ALL_FEATURES
  6
Continuous
 62
     7
100
AcDbLine
 10
109.200594
 20
171.765783
 30
0.0
 11
109.450594
 21
172.015783
 31
0.0
  0
LINE
  5
2D1
330
213
100
AcDbEntity
  8
7_ALL_FEATURES
  6
Continuous
 62
     7
100
AcDbLine
 10
109.200594
 20
171.765783
 30
0.0
 11
109.200594
 21
161.617898
 31
0.0
  0
LINE
  5
2D2
330
213
100
AcDbEntity
  8
7_ALL_FEATURES
  6
Continuous
 62
     7
100
AcDbLine
 10
59.950594
 20
172.015783
 30
0.0
 11
60.200594
 21
171.765783
 31
0.0
  0
LINE
  5
2D3
330
213
100
AcDbEntity
  8
7_ALL_FEATURES
  6
Continuous
 62
     9
100
AcDbLine
 10
89.200594
 20
144.765783
 30
0.0
 11
89.700594
 21
144.765783
 31
0.0
  0
LINE
  5
2D4
330
213
100
AcDbEntity
  8
7_ALL_FEATURES
  6
Continuous
 62
     9
100
AcDbLine
 10
94.817031
 20
154.060987
 30
0.0
 11
95.049582
 21
153.618358
 31
0.0
  0
LINE
  5
2D5
330
213
100
AcDbEntity
  8
7_ALL_FEATURES
  6
Continuous
 62
     7
100
AcDbLine
 10
94.817031
 20
154.060987
 30
0.0
 11
109.200594
 21
161.617898
 31
0.0
  0
ARC
  5
2D6
330
213
100
AcDbEntity
  8
7_ALL_FEATURES
  6
Continuous
 62
     7
100
AcDbCircle
 10
99.700594
 20
144.765783
 30
0.0
 40
10.5
100
AcDbArc
 50
117.716771
 51
180.0
  0
LINE
  5
2D7
330
213
100
AcDbEntity
  8
7_ALL_FEATURES
  6
Continuous
 62
     7
100
AcDbLine
 10
109.200594
 20
148.49523
 30
0.0
 11
109.200594
 21
160.488283
 31
0.0
  0
LINE
  5
2D8
330
213
100
AcDbEntity
  8
7_ALL_FEATURES
  6
Continuous
 62
     7
100
AcDbLine
 10
90.200594
 20
137.765783
 30
0.0
 11
100.040984
 21
137.765783
 31
0.0
  0
LINE
  5
2D9
330
213
100
AcDbEntity
  8
7_ALL_FEATURES
  6
Continuous
 62
     7
100
AcDbLine
 10
90.200594
 20
137.765783
 30
0.0
 11
90.200594
 21
144.765783
 31
0.0
  0
ARC
  5
2DA
330
213
100
AcDbEntity
  8
7_ALL_FEATURES
  6
Continuous
 62
     7
100
AcDbCircle
 10
99.700594
 20
144.765783
 30
0.0
 40
9.5
100
AcDbArc
 50
117.716771
 51
180.0
  0
LINE
  5
2DB
330
213
100
AcDbEntity
  8
7_ALL_FEATURES
  6
Continuous
 62
     7
100
AcDbLine
 10
95.282132
 20
153.17573
 30
0.0
 11
109.200594
 21
160.488283
 31
0.0
  0
ARC
  5
2DC
330
213
100
AcDbEntity
  8
7_ALL_FEATURES
  6
Continuous
 62
     7
100
AcDbCircle
 10
98.200594
 20
143.265783
 30
0.0
 40
2.5023651948
100
AcDbArc
 50
233.528639
 51
234.186391
  0
ARC
  5
2DD
330
213
100
AcDbEntity
  8
7_ALL_FEATURES
  6
Continuous
 62
     7
100
AcDbCircle
 10
98.200594
 20
143.265783
 30
0.0
 40
2.5023651948
100
AcDbArc
 50
229.873726
 51
233.528639
  0
ARC
  5
2DE
330
213
100
AcDbEntity
  8
7_ALL_FEATURES
  6
Continuous
 62
     7
100
AcDbCircle
 10
98.200594
 20
143.265783
 30
0.0
 40
2.5023651948
100
AcDbArc
 50
197.298234
 51
208.468146
  0
ARC
  5
2DF
330
213
100
AcDbEntity
  8
7_ALL_FEATURES
  6
Continuous
 62
     7
100
AcDbCircle
 10
98.200594
 20
143.265783
 30
0.0
 40
2.5023651948
100
AcDbArc
 50
170.431398
 51
178.360299
  0
ARC
  5
2E0
330
213
100
AcDbEntity
  8
7_ALL_FEATURES
  6
Continuous
 62
     7
100
AcDbCircle
 10
92.700594
 20
144.765783
 30
0.0
 40
1.2261825974
100
AcDbArc
 50
180.0
 51
360.0
  0
ARC
  5
2E1
330
213
100
AcDbEntity
  8
7_ALL_FEATURES
  6
Continuous
 62
     7
100
AcDbCircle
 10
92.700594
 20
144.765783
 30
0.0
 40
1.2261825974
100
AcDbArc
 50
0.0
 51
180.0
  0
LINE
  5
2E2
330
213
100
AcDbEntity
  8
7_ALL_FEATURES
  6
Continuous
 62
     7
100
AcDbLine
 10
109.365032
 20
160.388925
 30
0.0
 11
109.700594
 21
160.722234
 31
0.0
  0
LINE
  5
2E3
330
213
100
AcDbEntity
  8
7_ALL_FEATURES
  6
Continuous
 62
     7
100
AcDbLine
 10
89.200594
 20
137.765783
 30
0.0
 11
89.200594
 21
144.765783
 31
0.0
  0
LINE
  5
2E4
330
213
100
AcDbEntity
  8
7_ALL_FEATURES
  6
Continuous
 62
     9
100
AcDbLine
 10
95.282132
 20
153.17573
 30
0.0
 11
95.049582
 21
153.618358
 31
0.0
  0
LINE
  5
2E5
330
213
100
AcDbEntity
  8
7_ALL_FEATURES
  6
Continuous
 62
     7
100
AcDbLine
 10
109.200594
 20
160.488283
 30
0.0
 11
109.365032
 21
160.388925
 31
0.0
  0
LINE
  5
2E6
330
213
100
AcDbEntity
  8
7_ALL_FEATURES
  6
Continuous
 62
     7
100
AcDbLine
 10
109.365032
 20
161.139484
 30
0.0
 11
109.365032
 21
160.388925
 31
0.0
  0
LINE
  5
2E7
330
213
100
AcDbEntity
  8
7_ALL_FEATURES
  6
Continuous
 62
     9
100
AcDbLine
 10
90.200594
 20
144.765783
 30
0.0
 11
89.700594
 21
144.765783
 31
0.0
  0
LINE
  5
2E8
330
213
100
AcDbEntity
  8
7_ALL_FEATURES
  6
Continuous
 62
     7
100
AcDbLine
 10
89.700594
 20
137.765783
 30
0.0
 11
90.200594
 21
137.765783
 31
0.0
  0
LINE
  5
2E9
330
213
100
AcDbEntity
  8
7_ALL_FEATURES
  6
Continuous
 62
     7
100
AcDbLine
 10
89.200594
 20
137.765783
 30
0.0
 11
60.200594
 21
137.765783
 31
0.0
  0
LINE
  5
2EA
330
213
100
AcDbEntity
  8
7_ALL_FEATURES
  6
Continuous
 62
     7
100
AcDbLine
 10
60.200594
 20
137.765783
 30
0.0
 11
60.200594
 21
171.765783
 31
0.0
  0
ARC
  5
2EB
330
213
100
AcDbEntity
  8
7_ALL_FEATURES
  6
Continuous
 62
     9
100
AcDbCircle
 10
92.700594
 20
144.765783
 30
0.0
 40
0.8034605474
100
AcDbArc
 50
180.0
 51
360.0
  0
ARC
  5
2EC
330
213
100
AcDbEntity
  8
7_ALL_FEATURES
  6
Continuous
 62
     9
100
AcDbCircle
 10
92.700594
 20
144.765783
 30
0.0
 40
0.8034605474
100
AcDbArc
 50
0.0
 51
180.0
  0
ARC
  5
2ED
330
213
100
AcDbEntity
  8
7_ALL_FEATURES
  6
Continuous
 62
     9
100
AcDbCircle
 10
98.200594
 20
143.265783
 30
0.0
 40
2.2534300864
100
AcDbArc
 50
203.366615
 51
205.892451
  0
ARC
  5
2EE
330
213
100
AcDbEntity
  8
7_ALL_FEATURES
  6
Continuous
 62
     9
100
AcDbCircle
 10
98.200594
 20
143.265783
 30
0.0
 40
2.2534300864
100
AcDbArc
 50
200.679162
 51
203.366615
  0
ARC
  5
2EF
330
213
100
AcDbEntity
  8
7_ALL_FEATURES
  6
Continuous
 62
     7
100
AcDbCircle
 10
98.200594
 20
143.265783
 30
0.0
 40
2.2988747135
100
AcDbArc
 50
200.009546
 51
206.422059
  0
ARC
  5
2F0
330
213
100
AcDbEntity
  8
7_ALL_FEATURES
  6
Continuous
 62
     9
100
AcDbCircle
 10
98.200594
 20
143.265783
 30
0.0
 40
2.2534300864
100
AcDbArc
 50
171.74943
 51
172.235985
  0
ARC
  5
2F1
330
213
100
AcDbEntity
  8
7_ALL_FEATURES
  6
Continuous
 62
     7
100
AcDbCircle
 10
98.200594
 20
143.265783
 30
0.0
 40
2.2988747135
100
AcDbArc
 50
171.776116
 51
173.458679
  0
ARC
  5
2F2
330
213
100
AcDbEntity
  8
7_ALL_FEATURES
  6
Continuous
 62
     7
100
AcDbCircle
 10
98.200594
 20
143.265783
 30
0.0
 40
2.2988747135
100
AcDbArc
 50
171.410593
 51
171.776116
  0
ARC
  5
2F3
330
213
100
AcDbEntity
  8
7_ALL_FEATURES
  6
Continuous
 62
     9
100
AcDbCircle
 10
92.700594
 20
144.765783
 30
0.0
 40
1.0034300864
100
AcDbArc
 50
180.0
 51
360.0
  0
ARC
  5
2F4
330
213
100
AcDbEntity
  8
7_ALL_FEATURES
  6
Continuous
 62
     7
100
AcDbCircle
 10
92.700594
 20
144.765783
 30
0.0
 40
1.0226921161
100
AcDbArc
 50
180.0
 51
360.0
  0
ARC
  5
2F5
330
213
100
AcDbEntity
  8
7_ALL_FEATURES
  6
Continuous
 62
     9
100
AcDbCircle
 10
92.700594
 20
144.765783
 30
0.0
 40
1.0034300864
100
AcDbArc
 50
0.0
 51
180.0
  0
ARC
  5
2F6
330
213
100
AcDbEntity
  8
7_ALL_FEATURES
  6
Continuous
 62
     7
100
AcDbCircle
 10
92.700594
 20
144.765783
 30
0.0
 40
1.0226921161
100
AcDbArc
 50
0.0
 51
180.0
  0
LINE
  5
2F7
330
213
100
AcDbEntity
  8
7_ALL_FEATURES
  6
Continuous
 62
     7
100
AcDbLine
 10
109.200594
 20
161.617898
 30
0.0
 11
109.566869
 21
161.396583
 31
0.0
  0
LINE
  5
2F8
330
213
100
AcDbEntity
  8
7_ALL_FEATURES
  6
Continuous
 62
     7
100
AcDbLine
 10
89.450594
 20
137.515783
 30
0.0
 11
89.200594
 21
137.765783
 31
0.0
  0
LINE
  5
2F9
330
213
100
AcDbEntity
  8
7_ALL_FEATURES
  6
Continuous
 62
     7
100
AcDbLine
 10
109.200594
 20
171.765783
 30
0.0
 11
60.200594
 21
171.765783
 31
0.0
  0
LINE
  5
2FA
330
213
100
AcDbEntity
  8
7_ALL_FEATURES
  6
Continuous
 62
     7
100
AcDbLine
 10
60.200594
 20
137.765783
 30
0.0
 11
59.950594
 21
137.515783
 31
0.0
  0
LINE
  5
2FB
330
213
100
AcDbEntity
  8
7_ALL_FEATURES
  6
Continuous
 62
     7
100
AcDbLine
 10
90.200594
 20
137.765783
 30
0.0
 11
89.993487
 21
137.265783
 31
0.0
  0
ARC
  5
2FC
330
213
100
AcDbEntity
  8
7_ALL_FEATURES
  6
Continuous
 62
     7
100
AcDbCircle
 10
127.700594
 20
102.532864
 30
0.0
 40
5.0
100
AcDbArc
 50
0.0
 51
2.670018
  0
LINE
  5
2FD
330
213
100
AcDbEntity
  8
7_ALL_FEATURES
  6
Continuous
 62
     7
100
AcDbLine
 10
132.700594
 20
102.532864
 30
0.0
 11
132.700594
 21
101.265783
 31
0.0
  0
LINE
  5
2FE
330
213
100
AcDbEntity
  8
7_ALL_FEATURES
  6
Continuous
 62
     7
100
AcDbLine
 10
132.700594
 20
101.265783
 30
0.0
 11
132.700594
 21
99.765783
 31
0.0
  0
LINE
  5
2FF
330
213
100
AcDbEntity
  8
7_ALL_FEATURES
  6
Continuous
 62
     7
100
AcDbLine
 10
112.700594
 20
99.765783
 30
0.0
 11
132.700594
 21
99.765783
 31
0.0
  0
LINE
  5
300
330
213
100
AcDbEntity
  8
7_ALL_FEATURES
  6
Continuous
 62
     7
100
AcDbLine
 10
112.700594
 20
102.765783
 30
0.0
 11
112.700594
 21
101.265783
 31
0.0
  0
LINE
  5
301
330
213
100
AcDbEntity
  8
7_ALL_FEATURES
  6
Continuous
 62
     7
100
AcDbLine
 10
112.700594
 20
101.265783
 30
0.0
 11
112.700594
 21
99.765783
 31
0.0
  0
ARC
  5
302
330
213
100
AcDbEntity
  8
7_ALL_FEATURES
  6
Continuous
 62
     7
100
AcDbCircle
 10
107.700594
 20
103.018528
 30
0.0
 40
5.0
100
AcDbArc
 50
0.0
 51
17.0
  0
LINE
  5
303
330
213
100
AcDbEntity
  8
7_ALL_FEATURES
  6
Continuous
 62
     7
100
AcDbLine
 10
107.909696
 20
149.136739
 30
0.0
 11
108.181973
 21
149.884814
 31
0.0
  0
LINE
  5
304
330
213
100
AcDbEntity
  8
7_ALL_FEATURES
  6
Continuous
 62
     7
100
AcDbLine
 10
108.693687
 20
149.274978
 30
0.0
 11
107.909696
 21
149.136739
 31
0.0
  0
ARC
  5
305
330
213
100
AcDbEntity
  8
7_ALL_FEATURES
  6
Continuous
 62
     7
100
AcDbCircle
 10
102.700594
 20
144.765783
 30
0.0
 40
7.5
100
AcDbArc
 50
27.703746
 51
36.957749
  0
LINE
  5
306
330
213
100
AcDbEntity
  8
7_ALL_FEATURES
  6
Continuous
 62
     7
100
AcDbLine
 10
132.12741
 20
104.857364
 30
0.0
 11
109.340818
 21
148.252533
 31
0.0
  0
ARC
  5
307
330
213
100
AcDbEntity
  8
7_ALL_FEATURES
  6
Continuous
 62
     7
100
AcDbCircle
 10
127.700594
 20
102.532864
 30
0.0
 40
5.0
100
AcDbArc
 50
2.670018
 51
27.703746
  0
LINE
  5
308
330
213
100
AcDbEntity
  8
7_ALL_FEATURES
  6
Continuous
 62
     7
100
AcDbLine
 10
112.700594
 20
103.018528
 30
0.0
 11
112.700594
 21
102.765783
 31
0.0
  0
LINE
  5
309
330
213
100
AcDbEntity
  8
7_ALL_FEATURES
  6
Continuous
 62
     7
100
AcDbLine
 10
102.45741
 20
137.269727
 30
0.0
 11
112.482118
 21
104.480387
 31
0.0
  0
ARC
  5
30A
330
213
100
AcDbEntity
  8
7_ALL_FEATURES
  6
Continuous
 62
     7
100
AcDbCircle
 10
102.700594
 20
144.765783
 30
0.0
 40
7.5
100
AcDbArc
 50
233.042251
 51
268.141889
  0
LINE
  5
30B
330
213
100
AcDbEntity
  8
7_ALL_FEATURES
  6
Continuous
 62
     7
100
AcDbLine
 10
98.329638
 20
139.556681
 30
0.0
 11
98.191399
 21
138.77269
 31
0.0
  0
LINE
  5
30C
330
213
100
AcDbEntity
  8
7_ALL_FEATURES
  6
Continuous
 62
     7
100
AcDbLine
 10
97.581563
 20
139.284404
 30
0.0
 11
98.329638
 21
139.556681
 31
0.0
  0
ARC
  5
30D
330
213
100
AcDbEntity
  8
7_ALL_FEATURES
  6
Continuous
 62
     7
100
AcDbCircle
 10
102.700594
 20
144.765783
 30
0.0
 40
7.5
100
AcDbArc
 50
223.042251
 51
226.957749
  0
LINE
  5
30E
330
213
100
AcDbEntity
  8
7_ALL_FEATURES
  6
Continuous
 62
     7
100
AcDbLine
 10
97.491492
 20
140.394827
 30
0.0
 11
97.219214
 21
139.646752
 31
0.0
  0
LINE
  5
30F
330
213
100
AcDbEntity
  8
7_ALL_FEATURES
  6
Continuous
 62
     7
100
AcDbLine
 10
96.707501
 20
140.256589
 30
0.0
 11
97.491492
 21
140.394827
 31
0.0
  0
ARC
  5
310
330
213
100
AcDbEntity
  8
7_ALL_FEATURES
  6
Continuous
 62
     7
100
AcDbCircle
 10
102.700594
 20
144.765783
 30
0.0
 40
7.5
100
AcDbArc
 50
213.042251
 51
216.957749
  0
LINE
  5
311
330
213
100
AcDbEntity
  8
7_ALL_FEATURES
  6
Continuous
 62
     7
100
AcDbLine
 10
96.811621
 20
141.365783
 30
0.0
 11
96.413578
 21
140.676353
 31
0.0
  0
LINE
  5
312
330
213
100
AcDbEntity
  8
7_ALL_FEATURES
  6
Continuous
 62
     7
100
AcDbLine
 10
96.015536
 20
141.365783
 30
0.0
 11
96.811621
 21
141.365783
 31
0.0
  0
ARC
  5
313
330
213
100
AcDbEntity
  8
7_ALL_FEATURES
  6
Continuous
 62
     7
100
AcDbCircle
 10
102.700594
 20
144.765783
 30
0.0
 40
7.5
100
AcDbArc
 50
203.042251
 51
206.957749
  0
LINE
  5
314
330
213
100
AcDbEntity
  8
7_ALL_FEATURES
  6
Continuous
 62
     7
100
AcDbLine
 10
96.310684
 20
142.440046
 30
0.0
 11
95.79897
 21
141.830209
 31
0.0
  0
LINE
  5
315
330
213
100
AcDbEntity
  8
7_ALL_FEATURES
  6
Continuous
 62
     7
100
AcDbLine
 10
95.526693
 20
142.578285
 30
0.0
 11
96.310684
 21
142.440046
 31
0.0
  0
ARC
  5
316
330
213
100
AcDbEntity
  8
7_ALL_FEATURES
  6
Continuous
 62
     7
100
AcDbCircle
 10
102.700594
 20
144.765783
 30
0.0
 40
7.5
100
AcDbArc
 50
193.042251
 51
196.957749
  0
LINE
  5
317
330
213
100
AcDbEntity
  8
7_ALL_FEATURES
  6
Continuous
 62
     7
100
AcDbLine
 10
96.003901
 20
143.584975
 30
0.0
 11
95.394064
 21
143.073262
 31
0.0
  0
LINE
  5
318
330
213
100
AcDbEntity
  8
7_ALL_FEATURES
  6
Continuous
 62
     7
100
AcDbLine
 10
95.255826
 20
143.857253
 30
0.0
 11
96.003901
 21
143.584975
 31
0.0
  0
ARC
  5
319
330
213
100
AcDbEntity
  8
7_ALL_FEATURES
  6
Continuous
 62
     7
100
AcDbCircle
 10
102.700594
 20
144.765783
 30
0.0
 40
7.5
100
AcDbArc
 50
183.042251
 51
186.957749
  0
LINE
  5
31A
330
213
100
AcDbEntity
  8
7_ALL_FEATURES
  6
Continuous
 62
     7
100
AcDbLine
 10
95.900594
 20
144.765783
 30
0.0
 11
95.211164
 21
144.36774
 31
0.0
  0
LINE
  5
31B
330
213
100
AcDbEntity
  8
7_ALL_FEATURES
  6
Continuous
 62
     7
100
AcDbLine
 10
95.211164
 20
145.163826
 30
0.0
 11
95.900594
 21
144.765783
 31
0.0
  0
ARC
  5
31C
330
213
100
AcDbEntity
  8
7_ALL_FEATURES
  6
Continuous
 62
     7
100
AcDbCircle
 10
102.700594
 20
144.765783
 30
0.0
 40
7.5
100
AcDbArc
 50
173.042251
 51
176.957749
  0
LINE
  5
31D
330
213
100
AcDbEntity
  8
7_ALL_FEATURES
  6
Continuous
 62
     7
100
AcDbLine
 10
96.003901
 20
145.946591
 30
0.0
 11
95.255826
 21
145.674314
 31
0.0
  0
LINE
  5
31E
330
213
100
AcDbEntity
  8
7_ALL_FEATURES
  6
Continuous
 62
     7
100
AcDbLine
 10
95.394064
 20
146.458304
 30
0.0
 11
96.003901
 21
145.946591
 31
0.0
  0
ARC
  5
31F
330
213
100
AcDbEntity
  8
7_ALL_FEATURES
  6
Continuous
 62
     7
100
AcDbCircle
 10
102.700594
 20
144.765783
 30
0.0
 40
7.5
100
AcDbArc
 50
163.042251
 51
166.957749
  0
LINE
  5
320
330
213
100
AcDbEntity
  8
7_ALL_FEATURES
  6
Continuous
 62
     7
100
AcDbLine
 10
96.310684
 20
147.09152
 30
0.0
 11
95.526693
 21
146.953281
 31
0.0
  0
LINE
  5
321
330
213
100
AcDbEntity
  8
7_ALL_FEATURES
  6
Continuous
 62
     7
100
AcDbLine
 10
95.79897
 20
147.701357
 30
0.0
 11
96.310684
 21
147.09152
 31
0.0
  0
ARC
  5
322
330
213
100
AcDbEntity
  8
7_ALL_FEATURES
  6
Continuous
 62
     7
100
AcDbCircle
 10
102.700594
 20
144.765783
 30
0.0
 40
7.5
100
AcDbArc
 50
153.042251
 51
156.957749
  0
LINE
  5
323
330
213
100
AcDbEntity
  8
7_ALL_FEATURES
  6
Continuous
 62
     7
100
AcDbLine
 10
96.811621
 20
148.165783
 30
0.0
 11
96.015536
 21
148.165783
 31
0.0
  0
LINE
  5
324
330
213
100
AcDbEntity
  8
7_ALL_FEATURES
  6
Continuous
 62
     7
100
AcDbLine
 10
96.413578
 20
148.855213
 30
0.0
 11
96.811621
 21
148.165783
 31
0.0
  0
ARC
  5
325
330
213
100
AcDbEntity
  8
7_ALL_FEATURES
  6
Continuous
 62
     7
100
AcDbCircle
 10
102.700594
 20
144.765783
 30
0.0
 40
7.5
100
AcDbArc
 50
143.042251
 51
146.957749
  0
LINE
  5
326
330
213
100
AcDbEntity
  8
7_ALL_FEATURES
  6
Continuous
 62
     7
100
AcDbLine
 10
97.491492
 20
149.136739
 30
0.0
 11
96.707501
 21
149.274978
 31
0.0
  0
LINE
  5
327
330
213
100
AcDbEntity
  8
7_ALL_FEATURES
  6
Continuous
 62
     7
100
AcDbLine
 10
97.219214
 20
149.884814
 30
0.0
 11
97.491492
 21
149.136739
 31
0.0
  0
ARC
  5
328
330
213
100
AcDbEntity
  8
7_ALL_FEATURES
  6
Continuous
 62
     7
100
AcDbCircle
 10
102.700594
 20
144.765783
 30
0.0
 40
7.5
100
AcDbArc
 50
133.042251
 51
136.957749
  0
LINE
  5
329
330
213
100
AcDbEntity
  8
7_ALL_FEATURES
  6
Continuous
 62
     7
100
AcDbLine
 10
98.329638
 20
149.974885
 30
0.0
 11
97.581563
 21
150.247162
 31
0.0
  0
LINE
  5
32A
330
213
100
AcDbEntity
  8
7_ALL_FEATURES
  6
Continuous
 62
     7
100
AcDbLine
 10
98.191399
 20
150.758876
 30
0.0
 11
98.329638
 21
149.974885
 31
0.0
  0
ARC
  5
32B
330
213
100
AcDbEntity
  8
7_ALL_FEATURES
  6
Continuous
 62
     7
100
AcDbCircle
 10
102.700594
 20
144.765783
 30
0.0
 40
7.5
100
AcDbArc
 50
123.042251
 51
126.957749
  0
LINE
  5
32C
330
213
100
AcDbEntity
  8
7_ALL_FEATURES
  6
Continuous
 62
     7
100
AcDbLine
 10
99.300594
 20
150.654756
 30
0.0
 11
98.611164
 21
151.052798
 31
0.0
  0
LINE
  5
32D
330
213
100
AcDbEntity
  8
7_ALL_FEATURES
  6
Continuous
 62
     7
100
AcDbLine
 10
99.300594
 20
151.450841
 30
0.0
 11
99.300594
 21
150.654756
 31
0.0
  0
ARC
  5
32E
330
213
100
AcDbEntity
  8
7_ALL_FEATURES
  6
Continuous
 62
     7
100
AcDbCircle
 10
102.700594
 20
144.765783
 30
0.0
 40
7.5
100
AcDbArc
 50
113.042251
 51
116.957749
  0
LINE
  5
32F
330
213
100
AcDbEntity
  8
7_ALL_FEATURES
  6
Continuous
 62
     7
100
AcDbLine
 10
100.374857
 20
151.155693
 30
0.0
 11
99.76502
 21
151.667407
 31
0.0
  0
LINE
  5
330
330
213
100
AcDbEntity
  8
7_ALL_FEATURES
  6
Continuous
 62
     7
100
AcDbLine
 10
100.513096
 20
151.939684
 30
0.0
 11
100.374857
 21
151.155693
 31
0.0
  0
ARC
  5
331
330
213
100
AcDbEntity
  8
7_ALL_FEATURES
  6
Continuous
 62
     7
100
AcDbCircle
 10
102.700594
 20
144.765783
 30
0.0
 40
7.5
100
AcDbArc
 50
103.042251
 51
106.957749
  0
LINE
  5
332
330
213
100
AcDbEntity
  8
7_ALL_FEATURES
  6
Continuous
 62
     7
100
AcDbLine
 10
101.519786
 20
151.462476
 30
0.0
 11
101.008072
 21
152.072312
 31
0.0
  0
LINE
  5
333
330
213
100
AcDbEntity
  8
7_ALL_FEATURES
  6
Continuous
 62
     7
100
AcDbLine
 10
101.792063
 20
152.210551
 30
0.0
 11
101.519786
 21
151.462476
 31
0.0
  0
ARC
  5
334
330
213
100
AcDbEntity
  8
7_ALL_FEATURES
  6
Continuous
 62
     7
100
AcDbCircle
 10
102.700594
 20
144.765783
 30
0.0
 40
7.5
100
AcDbArc
 50
93.042251
 51
96.957749
  0
LINE
  5
335
330
213
100
AcDbEntity
  8
7_ALL_FEATURES
  6
Continuous
 62
     7
100
AcDbLine
 10
102.700594
 20
151.565783
 30
0.0
 11
102.302551
 21
152.255213
 31
0.0
  0
LINE
  5
336
330
213
100
AcDbEntity
  8
7_ALL_FEATURES
  6
Continuous
 62
     7
100
AcDbLine
 10
103.098636
 20
152.255213
 30
0.0
 11
102.700594
 21
151.565783
 31
0.0
  0
ARC
  5
337
330
213
100
AcDbEntity
  8
7_ALL_FEATURES
  6
Continuous
 62
     7
100
AcDbCircle
 10
102.700594
 20
144.765783
 30
0.0
 40
7.5
100
AcDbArc
 50
83.042251
 51
86.957749
  0
LINE
  5
338
330
213
100
AcDbEntity
  8
7_ALL_FEATURES
  6
Continuous
 62
     7
100
AcDbLine
 10
103.881401
 20
151.462476
 30
0.0
 11
103.609124
 21
152.210551
 31
0.0
  0
LINE
  5
339
330
213
100
AcDbEntity
  8
7_ALL_FEATURES
  6
Continuous
 62
     7
100
AcDbLine
 10
104.393115
 20
152.072312
 30
0.0
 11
103.881401
 21
151.462476
 31
0.0
  0
ARC
  5
33A
330
213
100
AcDbEntity
  8
7_ALL_FEATURES
  6
Continuous
 62
     7
100
AcDbCircle
 10
102.700594
 20
144.765783
 30
0.0
 40
7.5
100
AcDbArc
 50
73.042251
 51
76.957749
  0
LINE
  5
33B
330
213
100
AcDbEntity
  8
7_ALL_FEATURES
  6
Continuous
 62
     7
100
AcDbLine
 10
105.026331
 20
151.155693
 30
0.0
 11
104.888092
 21
151.939684
 31
0.0
  0
LINE
  5
33C
330
213
100
AcDbEntity
  8
7_ALL_FEATURES
  6
Continuous
 62
     7
100
AcDbLine
 10
105.636167
 20
151.667407
 30
0.0
 11
105.026331
 21
151.155693
 31
0.0
  0
ARC
  5
33D
330
213
100
AcDbEntity
  8
7_ALL_FEATURES
  6
Continuous
 62
     7
100
AcDbCircle
 10
102.700594
 20
144.765783
 30
0.0
 40
7.5
100
AcDbArc
 50
63.042251
 51
66.957749
  0
LINE
  5
33E
330
213
100
AcDbEntity
  8
7_ALL_FEATURES
  6
Continuous
 62
     7
100
AcDbLine
 10
106.100594
 20
150.654756
 30
0.0
 11
106.100594
 21
151.450841
 31
0.0
  0
LINE
  5
33F
330
213
100
AcDbEntity
  8
7_ALL_FEATURES
  6
Continuous
 62
     7
100
AcDbLine
 10
106.790024
 20
151.052798
 30
0.0
 11
106.100594
 21
150.654756
 31
0.0
  0
ARC
  5
340
330
213
100
AcDbEntity
  8
7_ALL_FEATURES
  6
Continuous
 62
     7
100
AcDbCircle
 10
102.700594
 20
144.765783
 30
0.0
 40
7.5
100
AcDbArc
 50
53.042251
 51
56.957749
  0
LINE
  5
341
330
213
100
AcDbEntity
  8
7_ALL_FEATURES
  6
Continuous
 62
     7
100
AcDbLine
 10
107.07155
 20
149.974885
 30
0.0
 11
107.209788
 21
150.758876
 31
0.0
  0
LINE
  5
342
330
213
100
AcDbEntity
  8
7_ALL_FEATURES
  6
Continuous
 62
     7
100
AcDbLine
 10
107.819625
 20
150.247162
 30
0.0
 11
107.07155
 21
149.974885
 31
0.0
  0
ARC
  5
343
330
213
100
AcDbEntity
  8
7_ALL_FEATURES
  6
Continuous
 62
     7
100
AcDbCircle
 10
102.700594
 20
144.765783
 30
0.0
 40
7.5
100
AcDbArc
 50
43.042251
 51
46.957749
  0
LINE
  5
344
330
213
100
AcDbEntity
  8
7_ALL_FEATURES
  6
Continuous
 62
     9
100
AcDbLine
 10
112.700594
 20
102.765783
 30
0.0
 11
132.695166
 21
102.765783
 31
0.0
  0
LINE
  5
345
330
213
100
AcDbEntity
  8
03___PRT_ALL_CURVES
  6
Continuous
 62
    40
100
AcDbLine
 10
102.370594
 20
149.976421
 30
0.0
 11
102.308719
 21
149.941315
 31
0.0
  0
LINE
  5
346
330
213
100
AcDbEntity
  8
03___PRT_ALL_CURVES
  6
Continuous
 62
    40
100
AcDbLine
 10
102.432469
 20
150.046634
 30
0.0
 11
102.370594
 21
149.976421
 31
0.0
  0
LINE
  5
347
330
213
100
AcDbEntity
  8
03___PRT_ALL_CURVES
  6
Continuous
 62
    40
100
AcDbLine
 10
102.473719
 20
150.151953
 30
0.0
 11
102.432469
 21
150.046634
 31
0.0
  0
LINE
  5
348
330
213
100
AcDbEntity
  8
03___PRT_ALL_CURVES
  6
Continuous
 62
    40
100
AcDbLine
 10
102.494344
 20
150.257272
 30
0.0
 11
102.473719
 21
150.151953
 31
0.0
  0
LINE
  5
349
330
213
100
AcDbEntity
  8
03___PRT_ALL_CURVES
  6
Continuous
 62
    40
100
AcDbLine
 10
102.514969
 20
150.467911
 30
0.0
 11
102.494344
 21
150.257272
 31
0.0
  0
LINE
  5
34A
330
213
100
AcDbEntity
  8
03___PRT_ALL_CURVES
  6
Continuous
 62
    40
100
AcDbLine
 10
102.514969
 20
150.538124
 30
0.0
 11
102.514969
 21
150.467911
 31
0.0
  0
LINE
  5
34B
330
213
100
AcDbEntity
  8
03___PRT_ALL_CURVES
  6
Continuous
 62
    40
100
AcDbLine
 10
102.391219
 20
150.397698
 30
0.0
 11
102.514969
 21
150.538124
 31
0.0
  0
LINE
  5
34C
330
213
100
AcDbEntity
  8
03___PRT_ALL_CURVES
  6
Continuous
 62
    40
100
AcDbLine
 10
102.288094
 20
150.362592
 30
0.0
 11
102.391219
 21
150.397698
 31
0.0
  0
LINE
  5
34D
330
213
100
AcDbEntity
  8
03___PRT_ALL_CURVES
  6
Continuous
 62
    40
100
AcDbLine
 10
102.184969
 20
150.362592
 30
0.0
 11
102.288094
 21
150.362592
 31
0.0
  0
LINE
  5
34E
330
213
100
AcDbEntity
  8
03___PRT_ALL_CURVES
  6
Continuous
 62
    40
100
AcDbLine
 10
102.081844
 20
150.397698
 30
0.0
 11
102.184969
 21
150.362592
 31
0.0
  0
LINE
  5
34F
330
213
100
AcDbEntity
  8
03___PRT_ALL_CURVES
  6
Continuous
 62
    40
100
AcDbLine
 10
101.978719
 20
150.503017
 30
0.0
 11
102.081844
 21
150.397698
 31
0.0
  0
LINE
  5
350
330
213
100
AcDbEntity
  8
03___PRT_ALL_CURVES
  6
Continuous
 62
    40
100
AcDbLine
 10
101.916844
 20
150.643443
 30
0.0
 11
101.978719
 21
150.503017
 31
0.0
  0
LINE
  5
351
330
213
100
AcDbEntity
  8
03___PRT_ALL_CURVES
  6
Continuous
 62
    40
100
AcDbLine
 10
101.875594
 20
150.818975
 30
0.0
 11
101.916844
 21
150.643443
 31
0.0
  0
LINE
  5
352
330
213
100
AcDbEntity
  8
03___PRT_ALL_CURVES
  6
Continuous
 62
    40
100
AcDbLine
 10
101.875594
 20
150.9594
 30
0.0
 11
101.875594
 21
150.818975
 31
0.0
  0
LINE
  5
353
330
213
100
AcDbEntity
  8
03___PRT_ALL_CURVES
  6
Continuous
 62
    40
100
AcDbLine
 10
101.916844
 20
151.134932
 30
0.0
 11
101.875594
 21
150.9594
 31
0.0
  0
LINE
  5
354
330
213
100
AcDbEntity
  8
03___PRT_ALL_CURVES
  6
Continuous
 62
    40
100
AcDbLine
 10
101.978719
 20
151.275358
 30
0.0
 11
101.916844
 21
151.134932
 31
0.0
  0
LINE
  5
355
330
213
100
AcDbEntity
  8
03___PRT_ALL_CURVES
  6
Continuous
 62
    40
100
AcDbLine
 10
102.081844
 20
151.380677
 30
0.0
 11
101.978719
 21
151.275358
 31
0.0
  0
LINE
  5
356
330
213
100
AcDbEntity
  8
03___PRT_ALL_CURVES
  6
Continuous
 62
    40
100
AcDbLine
 10
102.184969
 20
151.415783
 30
0.0
 11
102.081844
 21
151.380677
 31
0.0
  0
LINE
  5
357
330
213
100
AcDbEntity
  8
03___PRT_ALL_CURVES
  6
Continuous
 62
    40
100
AcDbLine
 10
103.319344
 20
150.046634
 30
0.0
 11
103.401844
 21
150.257272
 31
0.0
  0
LINE
  5
358
330
213
100
AcDbEntity
  8
03___PRT_ALL_CURVES
  6
Continuous
 62
    40
100
AcDbLine
 10
102.288094
 20
151.415783
 30
0.0
 11
102.184969
 21
151.415783
 31
0.0
  0
LINE
  5
359
330
213
100
AcDbEntity
  8
03___PRT_ALL_CURVES
  6
Continuous
 62
    40
100
AcDbLine
 10
102.391219
 20
151.380677
 30
0.0
 11
102.288094
 21
151.415783
 31
0.0
  0
LINE
  5
35A
330
213
100
AcDbEntity
  8
03___PRT_ALL_CURVES
  6
Continuous
 62
    40
100
AcDbLine
 10
102.494344
 20
151.275358
 30
0.0
 11
102.391219
 21
151.380677
 31
0.0
  0
LINE
  5
35B
330
213
100
AcDbEntity
  8
03___PRT_ALL_CURVES
  6
Continuous
 62
    40
100
AcDbLine
 10
102.556219
 20
151.134932
 30
0.0
 11
102.494344
 21
151.275358
 31
0.0
  0
LINE
  5
35C
330
213
100
AcDbEntity
  8
03___PRT_ALL_CURVES
  6
Continuous
 62
    40
100
AcDbLine
 10
102.597469
 20
150.9594
 30
0.0
 11
102.556219
 21
151.134932
 31
0.0
  0
LINE
  5
35D
330
213
100
AcDbEntity
  8
03___PRT_ALL_CURVES
  6
Continuous
 62
    40
100
AcDbLine
 10
102.618094
 20
150.713655
 30
0.0
 11
102.597469
 21
150.9594
 31
0.0
  0
LINE
  5
35E
330
213
100
AcDbEntity
  8
03___PRT_ALL_CURVES
  6
Continuous
 62
    40
100
AcDbLine
 10
102.618094
 20
150.467911
 30
0.0
 11
102.618094
 21
150.713655
 31
0.0
  0
LINE
  5
35F
330
213
100
AcDbEntity
  8
03___PRT_ALL_CURVES
  6
Continuous
 62
    40
100
AcDbLine
 10
102.597469
 20
150.222166
 30
0.0
 11
102.618094
 21
150.467911
 31
0.0
  0
LINE
  5
360
330
213
100
AcDbEntity
  8
03___PRT_ALL_CURVES
  6
Continuous
 62
    40
100
AcDbLine
 10
102.556219
 20
150.046634
 30
0.0
 11
102.597469
 21
150.222166
 31
0.0
  0
LINE
  5
361
330
213
100
AcDbEntity
  8
03___PRT_ALL_CURVES
  6
Continuous
 62
    40
100
AcDbLine
 10
102.494344
 20
149.906209
 30
0.0
 11
102.556219
 21
150.046634
 31
0.0
  0
LINE
  5
362
330
213
100
AcDbEntity
  8
03___PRT_ALL_CURVES
  6
Continuous
 62
    40
100
AcDbLine
 10
102.391219
 20
149.800889
 30
0.0
 11
102.494344
 21
149.906209
 31
0.0
  0
LINE
  5
363
330
213
100
AcDbEntity
  8
03___PRT_ALL_CURVES
  6
Continuous
 62
    40
100
AcDbLine
 10
102.288094
 20
149.765783
 30
0.0
 11
102.391219
 21
149.800889
 31
0.0
  0
LINE
  5
364
330
213
100
AcDbEntity
  8
03___PRT_ALL_CURVES
  6
Continuous
 62
    40
100
AcDbLine
 10
102.205594
 20
149.765783
 30
0.0
 11
102.288094
 21
149.765783
 31
0.0
  0
LINE
  5
365
330
213
100
AcDbEntity
  8
03___PRT_ALL_CURVES
  6
Continuous
 62
    40
100
AcDbLine
 10
102.102469
 20
149.800889
 30
0.0
 11
102.205594
 21
149.765783
 31
0.0
  0
LINE
  5
366
330
213
100
AcDbEntity
  8
03___PRT_ALL_CURVES
  6
Continuous
 62
    40
100
AcDbLine
 10
101.999344
 20
149.906209
 30
0.0
 11
102.102469
 21
149.800889
 31
0.0
  0
LINE
  5
367
330
213
100
AcDbEntity
  8
03___PRT_ALL_CURVES
  6
Continuous
 62
    40
100
AcDbLine
 10
101.937469
 20
150.046634
 30
0.0
 11
101.999344
 21
149.906209
 31
0.0
  0
LINE
  5
368
330
213
100
AcDbEntity
  8
03___PRT_ALL_CURVES
  6
Continuous
 62
    40
100
AcDbLine
 10
101.916844
 20
150.151953
 30
0.0
 11
101.937469
 21
150.046634
 31
0.0
  0
LINE
  5
369
330
213
100
AcDbEntity
  8
03___PRT_ALL_CURVES
  6
Continuous
 62
    40
100
AcDbLine
 10
96.752721
 20
144.497658
 30
0.0
 11
96.998466
 21
144.497658
 31
0.0
  0
LINE
  5
36A
330
213
100
AcDbEntity
  8
03___PRT_ALL_CURVES
  6
Continuous
 62
    40
100
AcDbLine
 10
96.998466
 20
144.497658
 30
0.0
 11
97.209104
 21
144.518283
 31
0.0
  0
LINE
  5
36B
330
213
100
AcDbEntity
  8
03___PRT_ALL_CURVES
  6
Continuous
 62
    40
100
AcDbLine
 10
97.209104
 20
144.518283
 30
0.0
 11
97.419743
 21
144.600783
 31
0.0
  0
LINE
  5
36C
330
213
100
AcDbEntity
  8
03___PRT_ALL_CURVES
  6
Continuous
 62
    40
100
AcDbLine
 10
97.419743
 20
144.600783
 30
0.0
 11
97.489955
 21
144.662658
 31
0.0
  0
LINE
  5
36D
330
213
100
AcDbEntity
  8
03___PRT_ALL_CURVES
  6
Continuous
 62
    40
100
AcDbLine
 10
97.489955
 20
144.662658
 30
0.0
 11
97.525062
 21
144.765783
 31
0.0
  0
LINE
  5
36E
330
213
100
AcDbEntity
  8
03___PRT_ALL_CURVES
  6
Continuous
 62
    40
100
AcDbLine
 10
97.525062
 20
144.765783
 30
0.0
 11
97.489955
 21
144.868908
 31
0.0
  0
LINE
  5
36F
330
213
100
AcDbEntity
  8
03___PRT_ALL_CURVES
  6
Continuous
 62
    40
100
AcDbLine
 10
97.489955
 20
144.868908
 30
0.0
 11
97.419743
 21
144.930783
 31
0.0
  0
LINE
  5
370
330
213
100
AcDbEntity
  8
03___PRT_ALL_CURVES
  6
Continuous
 62
    40
100
AcDbLine
 10
97.419743
 20
144.930783
 30
0.0
 11
97.209104
 21
145.013283
 31
0.0
  0
LINE
  5
371
330
213
100
AcDbEntity
  8
03___PRT_ALL_CURVES
  6
Continuous
 62
    40
100
AcDbLine
 10
97.209104
 20
145.013283
 30
0.0
 11
96.998466
 21
145.033908
 31
0.0
  0
LINE
  5
372
330
213
100
AcDbEntity
  8
03___PRT_ALL_CURVES
  6
Continuous
 62
    40
100
AcDbLine
 10
96.998466
 20
145.033908
 30
0.0
 11
96.752721
 21
145.033908
 31
0.0
  0
LINE
  5
373
330
213
100
AcDbEntity
  8
03___PRT_ALL_CURVES
  6
Continuous
 62
    40
100
AcDbLine
 10
96.752721
 20
145.033908
 30
0.0
 11
96.542083
 21
145.013283
 31
0.0
  0
LINE
  5
374
330
213
100
AcDbEntity
  8
03___PRT_ALL_CURVES
  6
Continuous
 62
    40
100
AcDbLine
 10
96.542083
 20
145.013283
 30
0.0
 11
96.331445
 21
144.930783
 31
0.0
  0
LINE
  5
375
330
213
100
AcDbEntity
  8
03___PRT_ALL_CURVES
  6
Continuous
 62
    40
100
AcDbLine
 10
96.331445
 20
144.930783
 30
0.0
 11
96.261232
 21
144.868908
 31
0.0
  0
LINE
  5
376
330
213
100
AcDbEntity
  8
03___PRT_ALL_CURVES
  6
Continuous
 62
    40
100
AcDbLine
 10
96.261232
 20
144.868908
 30
0.0
 11
96.226126
 21
144.765783
 31
0.0
  0
LINE
  5
377
330
213
100
AcDbEntity
  8
03___PRT_ALL_CURVES
  6
Continuous
 62
    40
100
AcDbLine
 10
96.226126
 20
144.765783
 30
0.0
 11
96.261232
 21
144.662658
 31
0.0
  0
LINE
  5
378
330
213
100
AcDbEntity
  8
03___PRT_ALL_CURVES
  6
Continuous
 62
    40
100
AcDbLine
 10
96.261232
 20
144.662658
 30
0.0
 11
96.331445
 21
144.600783
 31
0.0
  0
LINE
  5
379
330
213
100
AcDbEntity
  8
03___PRT_ALL_CURVES
  6
Continuous
 62
    40
100
AcDbLine
 10
96.331445
 20
144.600783
 30
0.0
 11
96.542083
 21
144.518283
 31
0.0
  0
LINE
  5
37A
330
213
100
AcDbEntity
  8
03___PRT_ALL_CURVES
  6
Continuous
 62
    40
100
AcDbLine
 10
96.542083
 20
144.518283
 30
0.0
 11
96.752721
 21
144.497658
 31
0.0
  0
LINE
  5
37B
330
213
100
AcDbEntity
  8
03___PRT_ALL_CURVES
  6
Continuous
 62
    40
100
AcDbLine
 10
96.542083
 20
144.415158
 30
0.0
 11
96.717615
 21
144.394533
 31
0.0
  0
LINE
  5
37C
330
213
100
AcDbEntity
  8
03___PRT_ALL_CURVES
  6
Continuous
 62
    40
100
AcDbLine
 10
96.436764
 20
144.435783
 30
0.0
 11
96.542083
 21
144.415158
 31
0.0
  0
LINE
  5
37D
330
213
100
AcDbEntity
  8
03___PRT_ALL_CURVES
  6
Continuous
 62
    40
100
AcDbLine
 10
96.296338
 20
144.477033
 30
0.0
 11
96.436764
 21
144.435783
 31
0.0
  0
LINE
  5
37E
330
213
100
AcDbEntity
  8
03___PRT_ALL_CURVES
  6
Continuous
 62
    40
100
AcDbLine
 10
96.191019
 20
144.538908
 30
0.0
 11
96.296338
 21
144.477033
 31
0.0
  0
LINE
  5
37F
330
213
100
AcDbEntity
  8
03___PRT_ALL_CURVES
  6
Continuous
 62
    40
100
AcDbLine
 10
96.0857
 20
144.642033
 30
0.0
 11
96.191019
 21
144.538908
 31
0.0
  0
LINE
  5
380
330
213
100
AcDbEntity
  8
03___PRT_ALL_CURVES
  6
Continuous
 62
    40
100
AcDbLine
 10
96.050594
 20
144.765783
 30
0.0
 11
96.0857
 21
144.642033
 31
0.0
  0
LINE
  5
381
330
213
100
AcDbEntity
  8
03___PRT_ALL_CURVES
  6
Continuous
 62
    40
100
AcDbLine
 10
96.0857
 20
144.889533
 30
0.0
 11
96.050594
 21
144.765783
 31
0.0
  0
LINE
  5
382
330
213
100
AcDbEntity
  8
03___PRT_ALL_CURVES
  6
Continuous
 62
    40
100
AcDbLine
 10
96.191019
 20
144.992658
 30
0.0
 11
96.0857
 21
144.889533
 31
0.0
  0
LINE
  5
383
330
213
100
AcDbEntity
  8
03___PRT_ALL_CURVES
  6
Continuous
 62
    40
100
AcDbLine
 10
96.296338
 20
145.054533
 30
0.0
 11
96.191019
 21
144.992658
 31
0.0
  0
LINE
  5
384
330
213
100
AcDbEntity
  8
03___PRT_ALL_CURVES
  6
Continuous
 62
    40
100
AcDbLine
 10
96.436764
 20
145.095783
 30
0.0
 11
96.296338
 21
145.054533
 31
0.0
  0
LINE
  5
385
330
213
100
AcDbEntity
  8
03___PRT_ALL_CURVES
  6
Continuous
 62
    40
100
AcDbLine
 10
96.542083
 20
145.116408
 30
0.0
 11
96.436764
 21
145.095783
 31
0.0
  0
LINE
  5
386
330
213
100
AcDbEntity
  8
03___PRT_ALL_CURVES
  6
Continuous
 62
    40
100
AcDbLine
 10
96.717615
 20
145.137033
 30
0.0
 11
96.542083
 21
145.116408
 31
0.0
  0
LINE
  5
387
330
213
100
AcDbEntity
  8
03___PRT_ALL_CURVES
  6
Continuous
 62
    40
100
AcDbLine
 10
97.033572
 20
145.137033
 30
0.0
 11
96.717615
 21
145.137033
 31
0.0
  0
LINE
  5
388
330
213
100
AcDbEntity
  8
03___PRT_ALL_CURVES
  6
Continuous
 62
    40
100
AcDbLine
 10
97.209104
 20
145.116408
 30
0.0
 11
97.033572
 21
145.137033
 31
0.0
  0
LINE
  5
389
330
213
100
AcDbEntity
  8
03___PRT_ALL_CURVES
  6
Continuous
 62
    40
100
AcDbLine
 10
97.314424
 20
145.095783
 30
0.0
 11
97.209104
 21
145.116408
 31
0.0
  0
LINE
  5
38A
330
213
100
AcDbEntity
  8
03___PRT_ALL_CURVES
  6
Continuous
 62
    40
100
AcDbLine
 10
97.454849
 20
145.054533
 30
0.0
 11
97.314424
 21
145.095783
 31
0.0
  0
LINE
  5
38B
330
213
100
AcDbEntity
  8
03___PRT_ALL_CURVES
  6
Continuous
 62
    40
100
AcDbLine
 10
97.560168
 20
144.992658
 30
0.0
 11
97.454849
 21
145.054533
 31
0.0
  0
LINE
  5
38C
330
213
100
AcDbEntity
  8
03___PRT_ALL_CURVES
  6
Continuous
 62
    40
100
AcDbLine
 10
97.665487
 20
144.889533
 30
0.0
 11
97.560168
 21
144.992658
 31
0.0
  0
LINE
  5
38D
330
213
100
AcDbEntity
  8
03___PRT_ALL_CURVES
  6
Continuous
 62
    40
100
AcDbLine
 10
97.700594
 20
144.765783
 30
0.0
 11
97.665487
 21
144.889533
 31
0.0
  0
LINE
  5
38E
330
213
100
AcDbEntity
  8
03___PRT_ALL_CURVES
  6
Continuous
 62
    40
100
AcDbLine
 10
97.665487
 20
144.642033
 30
0.0
 11
97.700594
 21
144.765783
 31
0.0
  0
LINE
  5
38F
330
213
100
AcDbEntity
  8
03___PRT_ALL_CURVES
  6
Continuous
 62
    40
100
AcDbLine
 10
97.560168
 20
144.538908
 30
0.0
 11
97.665487
 21
144.642033
 31
0.0
  0
LINE
  5
390
330
213
100
AcDbEntity
  8
03___PRT_ALL_CURVES
  6
Continuous
 62
    40
100
AcDbLine
 10
97.454849
 20
144.477033
 30
0.0
 11
97.560168
 21
144.538908
 31
0.0
  0
LINE
  5
391
330
213
100
AcDbEntity
  8
03___PRT_ALL_CURVES
  6
Continuous
 62
    40
100
AcDbLine
 10
97.314424
 20
144.435783
 30
0.0
 11
97.454849
 21
144.477033
 31
0.0
  0
LINE
  5
392
330
213
100
AcDbEntity
  8
03___PRT_ALL_CURVES
  6
Continuous
 62
    40
100
AcDbLine
 10
97.209104
 20
144.415158
 30
0.0
 11
97.314424
 21
144.435783
 31
0.0
  0
LINE
  5
393
330
213
100
AcDbEntity
  8
03___PRT_ALL_CURVES
  6
Continuous
 62
    40
100
AcDbLine
 10
97.033572
 20
144.394533
 30
0.0
 11
97.209104
 21
144.415158
 31
0.0
  0
LINE
  5
394
330
213
100
AcDbEntity
  8
03___PRT_ALL_CURVES
  6
Continuous
 62
    40
100
AcDbLine
 10
96.717615
 20
144.394533
 30
0.0
 11
97.033572
 21
144.394533
 31
0.0
  0
ARC
  5
395
330
213
100
AcDbEntity
  8
03___PRT_ALL_CURVES
  6
Continuous
 62
    40
100
AcDbCircle
 10
97.773877
 20
149.6925
 30
0.0
 40
0.2
100
AcDbArc
 50
45.0
 51
225.0
  0
LINE
  5
396
330
213
100
AcDbEntity
  8
03___PRT_ALL_CURVES
  6
Continuous
 62
    40
100
AcDbLine
 10
99.309311
 20
148.439909
 30
0.0
 11
97.915298
 21
149.833921
 31
0.0
  0
LINE
  5
397
330
213
100
AcDbEntity
  8
03___PRT_ALL_CURVES
  6
Continuous
 62
    40
100
AcDbLine
 10
103.401844
 20
150.257272
 30
0.0
 11
103.422469
 21
150.467911
 31
0.0
  0
LINE
  5
398
330
213
100
AcDbEntity
  8
03___PRT_ALL_CURVES
  6
Continuous
 62
    40
100
AcDbLine
 10
97.632455
 20
149.551079
 30
0.0
 11
99.026468
 21
148.157066
 31
0.0
  0
LINE
  5
399
330
213
100
AcDbEntity
  8
03___PRT_ALL_CURVES
  6
Continuous
 62
    40
100
AcDbLine
 10
102.886219
 20
150.713655
 30
0.0
 11
102.886219
 21
150.467911
 31
0.0
  0
LINE
  5
39A
330
213
100
AcDbEntity
  8
03___PRT_ALL_CURVES
  6
Continuous
 62
    40
100
AcDbLine
 10
103.422469
 20
150.467911
 30
0.0
 11
103.422469
 21
150.713655
 31
0.0
  0
LINE
  5
39B
330
213
100
AcDbEntity
  8
03___PRT_ALL_CURVES
  6
Continuous
 62
    40
100
AcDbLine
 10
103.422469
 20
150.713655
 30
0.0
 11
103.401844
 21
150.924294
 31
0.0
  0
LINE
  5
39C
330
213
100
AcDbEntity
  8
03___PRT_ALL_CURVES
  6
Continuous
 62
    40
100
AcDbLine
 10
103.401844
 20
150.924294
 30
0.0
 11
103.319344
 21
151.134932
 31
0.0
  0
LINE
  5
39D
330
213
100
AcDbEntity
  8
03___PRT_ALL_CURVES
  6
Continuous
 62
    40
100
AcDbLine
 10
103.319344
 20
151.134932
 30
0.0
 11
103.257469
 21
151.205145
 31
0.0
  0
LINE
  5
39E
330
213
100
AcDbEntity
  8
03___PRT_ALL_CURVES
  6
Continuous
 62
    40
100
AcDbLine
 10
103.257469
 20
151.205145
 30
0.0
 11
103.154344
 21
151.240251
 31
0.0
  0
LINE
  5
39F
330
213
100
AcDbEntity
  8
03___PRT_ALL_CURVES
  6
Continuous
 62
    40
100
AcDbLine
 10
103.154344
 20
151.240251
 30
0.0
 11
103.051219
 21
151.205145
 31
0.0
  0
LINE
  5
3A0
330
213
100
AcDbEntity
  8
03___PRT_ALL_CURVES
  6
Continuous
 62
    40
100
AcDbLine
 10
102.886219
 20
150.467911
 30
0.0
 11
102.906844
 21
150.257272
 31
0.0
  0
LINE
  5
3A1
330
213
100
AcDbEntity
  8
03___PRT_ALL_CURVES
  6
Continuous
 62
    40
100
AcDbLine
 10
102.906844
 20
150.257272
 30
0.0
 11
102.989344
 21
150.046634
 31
0.0
  0
LINE
  5
3A2
330
213
100
AcDbEntity
  8
03___PRT_ALL_CURVES
  6
Continuous
 62
    40
100
AcDbLine
 10
102.989344
 20
150.046634
 30
0.0
 11
103.051219
 21
149.976421
 31
0.0
  0
LINE
  5
3A3
330
213
100
AcDbEntity
  8
03___PRT_ALL_CURVES
  6
Continuous
 62
    40
100
AcDbLine
 10
103.051219
 20
149.976421
 30
0.0
 11
103.154344
 21
149.941315
 31
0.0
  0
LINE
  5
3A4
330
213
100
AcDbEntity
  8
03___PRT_ALL_CURVES
  6
Continuous
 62
    40
100
AcDbLine
 10
103.154344
 20
149.941315
 30
0.0
 11
103.257469
 21
149.976421
 31
0.0
  0
LINE
  5
3A5
330
213
100
AcDbEntity
  8
03___PRT_ALL_CURVES
  6
Continuous
 62
    40
100
AcDbLine
 10
103.257469
 20
149.976421
 30
0.0
 11
103.319344
 21
150.046634
 31
0.0
  0
LINE
  5
3A6
330
213
100
AcDbEntity
  8
03___PRT_ALL_CURVES
  6
Continuous
 62
    40
100
AcDbLine
 10
103.051219
 20
151.205145
 30
0.0
 11
102.989344
 21
151.134932
 31
0.0
  0
LINE
  5
3A7
330
213
100
AcDbEntity
  8
03___PRT_ALL_CURVES
  6
Continuous
 62
    40
100
AcDbLine
 10
102.989344
 20
151.134932
 30
0.0
 11
102.906844
 21
150.924294
 31
0.0
  0
LINE
  5
3A8
330
213
100
AcDbEntity
  8
03___PRT_ALL_CURVES
  6
Continuous
 62
    40
100
AcDbLine
 10
102.906844
 20
150.924294
 30
0.0
 11
102.886219
 21
150.713655
 31
0.0
  0
LINE
  5
3A9
330
213
100
AcDbEntity
  8
03___PRT_ALL_CURVES
  6
Continuous
 62
    40
100
AcDbLine
 10
102.803719
 20
150.924294
 30
0.0
 11
102.783094
 21
150.748762
 31
0.0
  0
LINE
  5
3AA
330
213
100
AcDbEntity
  8
03___PRT_ALL_CURVES
  6
Continuous
 62
    40
100
AcDbLine
 10
102.824344
 20
151.029613
 30
0.0
 11
102.803719
 21
150.924294
 31
0.0
  0
LINE
  5
3AB
330
213
100
AcDbEntity
  8
03___PRT_ALL_CURVES
  6
Continuous
 62
    40
100
AcDbLine
 10
102.865594
 20
151.170038
 30
0.0
 11
102.824344
 21
151.029613
 31
0.0
  0
LINE
  5
3AC
330
213
100
AcDbEntity
  8
03___PRT_ALL_CURVES
  6
Continuous
 62
    40
100
AcDbLine
 10
102.927469
 20
151.275358
 30
0.0
 11
102.865594
 21
151.170038
 31
0.0
  0
LINE
  5
3AD
330
213
100
AcDbEntity
  8
03___PRT_ALL_CURVES
  6
Continuous
 62
    40
100
AcDbLine
 10
103.030594
 20
151.380677
 30
0.0
 11
102.927469
 21
151.275358
 31
0.0
  0
LINE
  5
3AE
330
213
100
AcDbEntity
  8
03___PRT_ALL_CURVES
  6
Continuous
 62
    40
100
AcDbLine
 10
103.154344
 20
151.415783
 30
0.0
 11
103.030594
 21
151.380677
 31
0.0
  0
LINE
  5
3AF
330
213
100
AcDbEntity
  8
03___PRT_ALL_CURVES
  6
Continuous
 62
    40
100
AcDbLine
 10
103.278094
 20
151.380677
 30
0.0
 11
103.154344
 21
151.415783
 31
0.0
  0
LINE
  5
3B0
330
213
100
AcDbEntity
  8
03___PRT_ALL_CURVES
  6
Continuous
 62
    40
100
AcDbLine
 10
103.381219
 20
151.275358
 30
0.0
 11
103.278094
 21
151.380677
 31
0.0
  0
LINE
  5
3B1
330
213
100
AcDbEntity
  8
03___PRT_ALL_CURVES
  6
Continuous
 62
    40
100
AcDbLine
 10
103.443094
 20
151.170038
 30
0.0
 11
103.381219
 21
151.275358
 31
0.0
  0
LINE
  5
3B2
330
213
100
AcDbEntity
  8
03___PRT_ALL_CURVES
  6
Continuous
 62
    40
100
AcDbLine
 10
103.484344
 20
151.029613
 30
0.0
 11
103.443094
 21
151.170038
 31
0.0
  0
LINE
  5
3B3
330
213
100
AcDbEntity
  8
03___PRT_ALL_CURVES
  6
Continuous
 62
    40
100
AcDbLine
 10
103.504969
 20
150.924294
 30
0.0
 11
103.484344
 21
151.029613
 31
0.0
  0
LINE
  5
3B4
330
213
100
AcDbEntity
  8
03___PRT_ALL_CURVES
  6
Continuous
 62
    40
100
AcDbLine
 10
103.525594
 20
150.748762
 30
0.0
 11
103.504969
 21
150.924294
 31
0.0
  0
LINE
  5
3B5
330
213
100
AcDbEntity
  8
03___PRT_ALL_CURVES
  6
Continuous
 62
    40
100
AcDbLine
 10
103.525594
 20
150.432804
 30
0.0
 11
103.525594
 21
150.748762
 31
0.0
  0
LINE
  5
3B6
330
213
100
AcDbEntity
  8
03___PRT_ALL_CURVES
  6
Continuous
 62
    40
100
AcDbLine
 10
103.504969
 20
150.257272
 30
0.0
 11
103.525594
 21
150.432804
 31
0.0
  0
LINE
  5
3B7
330
213
100
AcDbEntity
  8
03___PRT_ALL_CURVES
  6
Continuous
 62
    40
100
AcDbLine
 10
103.484344
 20
150.151953
 30
0.0
 11
103.504969
 21
150.257272
 31
0.0
  0
LINE
  5
3B8
330
213
100
AcDbEntity
  8
03___PRT_ALL_CURVES
  6
Continuous
 62
    40
100
AcDbLine
 10
103.443094
 20
150.011528
 30
0.0
 11
103.484344
 21
150.151953
 31
0.0
  0
LINE
  5
3B9
330
213
100
AcDbEntity
  8
03___PRT_ALL_CURVES
  6
Continuous
 62
    40
100
AcDbLine
 10
103.381219
 20
149.906209
 30
0.0
 11
103.443094
 21
150.011528
 31
0.0
  0
LINE
  5
3BA
330
213
100
AcDbEntity
  8
03___PRT_ALL_CURVES
  6
Continuous
 62
    40
100
AcDbLine
 10
103.278094
 20
149.800889
 30
0.0
 11
103.381219
 21
149.906209
 31
0.0
  0
LINE
  5
3BB
330
213
100
AcDbEntity
  8
03___PRT_ALL_CURVES
  6
Continuous
 62
    40
100
AcDbLine
 10
103.154344
 20
149.765783
 30
0.0
 11
103.278094
 21
149.800889
 31
0.0
  0
LINE
  5
3BC
330
213
100
AcDbEntity
  8
03___PRT_ALL_CURVES
  6
Continuous
 62
    40
100
AcDbLine
 10
103.030594
 20
149.800889
 30
0.0
 11
103.154344
 21
149.765783
 31
0.0
  0
LINE
  5
3BD
330
213
100
AcDbEntity
  8
03___PRT_ALL_CURVES
  6
Continuous
 62
    40
100
AcDbLine
 10
102.927469
 20
149.906209
 30
0.0
 11
103.030594
 21
149.800889
 31
0.0
  0
LINE
  5
3BE
330
213
100
AcDbEntity
  8
03___PRT_ALL_CURVES
  6
Continuous
 62
    40
100
AcDbLine
 10
102.865594
 20
150.011528
 30
0.0
 11
102.927469
 21
149.906209
 31
0.0
  0
LINE
  5
3BF
330
213
100
AcDbEntity
  8
03___PRT_ALL_CURVES
  6
Continuous
 62
    40
100
AcDbLine
 10
102.824344
 20
150.151953
 30
0.0
 11
102.865594
 21
150.011528
 31
0.0
  0
LINE
  5
3C0
330
213
100
AcDbEntity
  8
03___PRT_ALL_CURVES
  6
Continuous
 62
    40
100
AcDbLine
 10
102.803719
 20
150.257272
 30
0.0
 11
102.824344
 21
150.151953
 31
0.0
  0
LINE
  5
3C1
330
213
100
AcDbEntity
  8
03___PRT_ALL_CURVES
  6
Continuous
 62
    40
100
AcDbLine
 10
102.783094
 20
150.432804
 30
0.0
 11
102.803719
 21
150.257272
 31
0.0
  0
LINE
  5
3C2
330
213
100
AcDbEntity
  8
03___PRT_ALL_CURVES
  6
Continuous
 62
    40
100
AcDbLine
 10
102.783094
 20
150.748762
 30
0.0
 11
102.783094
 21
150.432804
 31
0.0
  0
LINE
  5
3C3
330
213
100
AcDbEntity
  8
03___PRT_ALL_CURVES
  6
Continuous
 62
    40
100
AcDbLine
 10
102.494344
 20
150.854081
 30
0.0
 11
102.494344
 21
150.924294
 31
0.0
  0
LINE
  5
3C4
330
213
100
AcDbEntity
  8
03___PRT_ALL_CURVES
  6
Continuous
 62
    40
100
AcDbLine
 10
102.494344
 20
150.924294
 30
0.0
 11
102.473719
 21
151.029613
 31
0.0
  0
LINE
  5
3C5
330
213
100
AcDbEntity
  8
03___PRT_ALL_CURVES
  6
Continuous
 62
    40
100
AcDbLine
 10
102.473719
 20
151.029613
 30
0.0
 11
102.432469
 21
151.134932
 31
0.0
  0
LINE
  5
3C6
330
213
100
AcDbEntity
  8
03___PRT_ALL_CURVES
  6
Continuous
 62
    40
100
AcDbLine
 10
102.432469
 20
151.134932
 30
0.0
 11
102.370594
 21
151.205145
 31
0.0
  0
LINE
  5
3C7
330
213
100
AcDbEntity
  8
03___PRT_ALL_CURVES
  6
Continuous
 62
    40
100
AcDbLine
 10
102.370594
 20
151.205145
 30
0.0
 11
102.308719
 21
151.240251
 31
0.0
  0
LINE
  5
3C8
330
213
100
AcDbEntity
  8
03___PRT_ALL_CURVES
  6
Continuous
 62
    40
100
AcDbLine
 10
102.308719
 20
151.240251
 30
0.0
 11
102.164344
 21
151.240251
 31
0.0
  0
LINE
  5
3C9
330
213
100
AcDbEntity
  8
03___PRT_ALL_CURVES
  6
Continuous
 62
    40
100
AcDbLine
 10
102.164344
 20
151.240251
 30
0.0
 11
102.102469
 21
151.205145
 31
0.0
  0
LINE
  5
3CA
330
213
100
AcDbEntity
  8
03___PRT_ALL_CURVES
  6
Continuous
 62
    40
100
AcDbLine
 10
102.102469
 20
151.205145
 30
0.0
 11
102.040594
 21
151.134932
 31
0.0
  0
LINE
  5
3CB
330
213
100
AcDbEntity
  8
03___PRT_ALL_CURVES
  6
Continuous
 62
    40
100
AcDbLine
 10
102.040594
 20
151.134932
 30
0.0
 11
101.999344
 21
151.029613
 31
0.0
  0
LINE
  5
3CC
330
213
100
AcDbEntity
  8
03___PRT_ALL_CURVES
  6
Continuous
 62
    40
100
AcDbLine
 10
101.999344
 20
151.029613
 30
0.0
 11
101.978719
 21
150.924294
 31
0.0
  0
LINE
  5
3CD
330
213
100
AcDbEntity
  8
03___PRT_ALL_CURVES
  6
Continuous
 62
    40
100
AcDbLine
 10
101.978719
 20
150.924294
 30
0.0
 11
101.978719
 21
150.854081
 31
0.0
  0
LINE
  5
3CE
330
213
100
AcDbEntity
  8
03___PRT_ALL_CURVES
  6
Continuous
 62
    40
100
AcDbLine
 10
101.978719
 20
150.854081
 30
0.0
 11
101.999344
 21
150.748762
 31
0.0
  0
LINE
  5
3CF
330
213
100
AcDbEntity
  8
03___PRT_ALL_CURVES
  6
Continuous
 62
    40
100
AcDbLine
 10
101.999344
 20
150.748762
 30
0.0
 11
102.040594
 21
150.643443
 31
0.0
  0
LINE
  5
3D0
330
213
100
AcDbEntity
  8
03___PRT_ALL_CURVES
  6
Continuous
 62
    40
100
AcDbLine
 10
102.040594
 20
150.643443
 30
0.0
 11
102.102469
 21
150.57323
 31
0.0
  0
LINE
  5
3D1
330
213
100
AcDbEntity
  8
03___PRT_ALL_CURVES
  6
Continuous
 62
    40
100
AcDbLine
 10
102.102469
 20
150.57323
 30
0.0
 11
102.164344
 21
150.538124
 31
0.0
  0
LINE
  5
3D2
330
213
100
AcDbEntity
  8
03___PRT_ALL_CURVES
  6
Continuous
 62
    40
100
AcDbLine
 10
102.164344
 20
150.538124
 30
0.0
 11
102.308719
 21
150.538124
 31
0.0
  0
LINE
  5
3D3
330
213
100
AcDbEntity
  8
03___PRT_ALL_CURVES
  6
Continuous
 62
    40
100
AcDbLine
 10
102.308719
 20
150.538124
 30
0.0
 11
102.370594
 21
150.57323
 31
0.0
  0
LINE
  5
3D4
330
213
100
AcDbEntity
  8
03___PRT_ALL_CURVES
  6
Continuous
 62
    40
100
AcDbLine
 10
102.370594
 20
150.57323
 30
0.0
 11
102.432469
 21
150.643443
 31
0.0
  0
LINE
  5
3D5
330
213
100
AcDbEntity
  8
03___PRT_ALL_CURVES
  6
Continuous
 62
    40
100
AcDbLine
 10
102.432469
 20
150.643443
 30
0.0
 11
102.473719
 21
150.748762
 31
0.0
  0
LINE
  5
3D6
330
213
100
AcDbEntity
  8
03___PRT_ALL_CURVES
  6
Continuous
 62
    40
100
AcDbLine
 10
102.473719
 20
150.748762
 30
0.0
 11
102.494344
 21
150.854081
 31
0.0
  0
LINE
  5
3D7
330
213
100
AcDbEntity
  8
03___PRT_ALL_CURVES
  6
Continuous
 62
    40
100
AcDbLine
 10
102.019969
 20
150.151953
 30
0.0
 11
101.916844
 21
150.151953
 31
0.0
  0
LINE
  5
3D8
330
213
100
AcDbEntity
  8
03___PRT_ALL_CURVES
  6
Continuous
 62
    40
100
AcDbLine
 10
102.061219
 20
150.046634
 30
0.0
 11
102.019969
 21
150.151953
 31
0.0
  0
LINE
  5
3D9
330
213
100
AcDbEntity
  8
03___PRT_ALL_CURVES
  6
Continuous
 62
    40
100
AcDbLine
 10
102.123094
 20
149.976421
 30
0.0
 11
102.061219
 21
150.046634
 31
0.0
  0
LINE
  5
3DA
330
213
100
AcDbEntity
  8
03___PRT_ALL_CURVES
  6
Continuous
 62
    40
100
AcDbLine
 10
102.184969
 20
149.941315
 30
0.0
 11
102.123094
 21
149.976421
 31
0.0
  0
LINE
  5
3DB
330
213
100
AcDbEntity
  8
03___PRT_ALL_CURVES
  6
Continuous
 62
    40
100
AcDbLine
 10
102.308719
 20
149.941315
 30
0.0
 11
102.184969
 21
149.941315
 31
0.0
  0
LINE
  5
3DC
330
213
100
AcDbEntity
  8
3_ALL_AXES
  6
Continuous
 62
     7
100
AcDbLine
 10
107.700594
 20
30.215463
 30
0.0
 11
107.700594
 21
30.315463
 31
0.0
  0
LINE
  5
3DD
330
213
100
AcDbEntity
  8
3_ALL_AXES
  6
Continuous
 62
     7
100
AcDbLine
 10
102.700594
 20
30.215463
 30
0.0
 11
104.700594
 21
30.215463
 31
0.0
  0
LINE
  5
3DE
330
213
100
AcDbEntity
  8
3_ALL_AXES
  6
Continuous
 62
     7
100
AcDbLine
 10
104.700594
 20
30.215463
 30
0.0
 11
105.350547
 21
30.215463
 31
0.0
  0
LINE
  5
3DF
330
213
100
AcDbEntity
  8
3_ALL_AXES
  6
Continuous
 62
     7
100
AcDbLine
 10
105.350547
 20
30.215463
 30
0.0
 11
106.479342
 21
30.215463
 31
0.0
  0
LINE
  5
3E0
330
213
100
AcDbEntity
  8
3_ALL_AXES
  6
Continuous
 62
     7
100
AcDbLine
 10
106.479342
 20
30.215463
 30
0.0
 11
106.500594
 21
30.215463
 31
0.0
  0
LINE
  5
3E1
330
213
100
AcDbEntity
  8
3_ALL_AXES
  6
Continuous
 62
     7
100
AcDbLine
 10
106.500594
 20
30.215463
 30
0.0
 11
107.700594
 21
30.215463
 31
0.0
  0
LINE
  5
3E2
330
213
100
AcDbEntity
  8
3_ALL_AXES
  6
Continuous
 62
     7
100
AcDbLine
 10
97.700594
 20
30.215463
 30
0.0
 11
98.900594
 21
30.215463
 31
0.0
  0
LINE
  5
3E3
330
213
100
AcDbEntity
  8
3_ALL_AXES
  6
Continuous
 62
     7
100
AcDbLine
 10
98.900594
 20
30.215463
 30
0.0
 11
98.921846
 21
30.215463
 31
0.0
  0
LINE
  5
3E4
330
213
100
AcDbEntity
  8
3_ALL_AXES
  6
Continuous
 62
     7
100
AcDbLine
 10
98.921846
 20
30.215463
 30
0.0
 11
100.05064
 21
30.215463
 31
0.0
  0
LINE
  5
3E5
330
213
100
AcDbEntity
  8
3_ALL_AXES
  6
Continuous
 62
     7
100
AcDbLine
 10
100.05064
 20
30.215463
 30
0.0
 11
100.700594
 21
30.215463
 31
0.0
  0
LINE
  5
3E6
330
213
100
AcDbEntity
  8
3_ALL_AXES
  6
Continuous
 62
     7
100
AcDbLine
 10
100.700594
 20
30.215463
 30
0.0
 11
102.700594
 21
30.215463
 31
0.0
  0
LINE
  5
3E7
330
213
100
AcDbEntity
  8
3_ALL_AXES
  6
Continuous
 62
     7
100
AcDbLine
 10
97.700594
 20
30.215463
 30
0.0
 11
97.700594
 21
30.315463
 31
0.0
  0
LINE
  5
3E8
330
213
100
AcDbEntity
  8
3_ALL_AXES
  6
Continuous
 62
     7
100
AcDbLine
 10
98.900594
 20
30.215463
 30
0.0
 11
98.900594
 21
29.835463
 31
0.0
  0
LINE
  5
3E9
330
213
100
AcDbEntity
  8
3_ALL_AXES
  6
Continuous
 62
     7
100
AcDbLine
 10
100.735594
 20
28.015463
 30
0.0
 11
102.700594
 21
28.015463
 31
0.0
  0
ARC
  5
3EA
330
213
100
AcDbEntity
  8
3_ALL_AXES
  6
Continuous
 62
     7
100
AcDbCircle
 10
102.558151
 20
31.688103
 30
0.0
 40
4.1
100
AcDbArc
 50
206.863303
 51
243.606974
  0
LINE
  5
3EB
330
213
100
AcDbEntity
  8
3_ALL_AXES
  6
Continuous
 62
     7
100
AcDbLine
 10
106.500594
 20
30.215463
 30
0.0
 11
106.500594
 21
29.835463
 31
0.0
  0
LINE
  5
3EC
330
213
100
AcDbEntity
  8
3_ALL_AXES
  6
Continuous
 62
     7
100
AcDbLine
 10
104.665594
 20
28.015463
 30
0.0
 11
102.700594
 21
28.015463
 31
0.0
  0
ARC
  5
3ED
330
213
100
AcDbEntity
  8
3_ALL_AXES
  6
Continuous
 62
     7
100
AcDbCircle
 10
102.843037
 20
31.688103
 30
0.0
 40
4.1
100
AcDbArc
 50
296.393026
 51
333.136697
  0
LINE
  5
3EE
330
213
100
AcDbEntity
  8
3_ALL_AXES
  6
Continuous
 62
     7
100
AcDbLine
 10
98.900594
 20
29.835463
 30
0.0
 11
102.700594
 21
29.835463
 31
0.0
  0
LINE
  5
3EF
330
213
100
AcDbEntity
  8
3_ALL_AXES
  6
Continuous
 62
     7
100
AcDbLine
 10
106.500594
 20
29.835463
 30
0.0
 11
102.700594
 21
29.835463
 31
0.0
  0
SPLINE
  5
3F0
330
213
100
AcDbEntity
  8
7_ALL_FEATURES
  6
Continuous
 62
     7
100
AcDbSpline
 70
     0
 71
     3
 72
     9
 73
     5
 74
     0
 42
0.000000001
 43
0.0000001
 40
0.0
 40
0.0
 40
0.0
 40
0.0
 40
0.597806097
 40
1.0
 40
1.0
 40
1.0
 40
1.0
 10
132.7005937615
 20
31.3245188869
 30
0.0
 10
132.7005937615
 20
31.3222102579
 30
0.0
 10
132.7006553484
 20
31.3179008935
 30
0.0
 10
132.6967189086
 20
31.3154633642
 30
0.0
 10
132.6951657018
 20
31.3154633642
 30
0.0
  0
LINE
  5
3F1
330
213
100
AcDbEntity
  8
7_ALL_FEATURES
  6
Continuous
 62
     7
100
AcDbLine
 10
132.700594
 20
32.815463
 30
0.0
 11
132.700594
 21
31.324519
 31
0.0
  0
LINE
  5
3F2
330
213
100
AcDbEntity
  8
7_ALL_FEATURES
  6
Continuous
 62
     7
100
AcDbLine
 10
132.12741
 20
31.315463
 30
0.0
 11
109.700594
 21
31.315463
 31
0.0
  0
LINE
  5
3F3
330
213
100
AcDbEntity
  8
7_ALL_FEATURES
  6
Continuous
 62
     7
100
AcDbLine
 10
132.695166
 20
31.315463
 30
0.0
 11
132.12741
 21
31.315463
 31
0.0
  0
LINE
  5
3F4
330
213
100
AcDbEntity
  8
7_ALL_FEATURES
  6
Continuous
 62
     9
100
AcDbLine
 10
132.12741
 20
32.815463
 30
0.0
 11
132.12741
 21
31.315463
 31
0.0
  0
LINE
  5
3F5
330
213
100
AcDbEntity
  8
7_ALL_FEATURES
  6
Continuous
 62
     7
100
AcDbLine
 10
59.700594
 20
30.815463
 30
0.0
 11
59.700594
 21
64.815463
 31
0.0
  0
LINE
  5
3F6
330
213
100
AcDbEntity
  8
7_ALL_FEATURES
  6
Continuous
 62
     7
100
AcDbLine
 10
109.700594
 20
64.815463
 30
0.0
 11
109.700594
 21
30.815463
 31
0.0
  0
LINE
  5
3F7
330
213
100
AcDbEntity
  8
7_ALL_FEATURES
  6
Continuous
 62
     7
100
AcDbLine
 10
109.200594
 20
30.315463
 30
0.0
 11
60.200594
 21
30.315463
 31
0.0
  0
LINE
  5
3F8
330
213
100
AcDbEntity
  8
7_ALL_FEATURES
  6
Continuous
 62
     7
100
AcDbLine
 10
109.200594
 20
65.315463
 30
0.0
 11
60.200594
 21
65.315463
 31
0.0
  0
LINE
  5
3F9
330
213
100
AcDbEntity
  8
7_ALL_FEATURES
  6
Continuous
 62
     7
100
AcDbLine
 10
59.950594
 20
30.565463
 30
0.0
 11
59.700594
 21
30.815463
 31
0.0
  0
LINE
  5
3FA
330
213
100
AcDbEntity
  8
7_ALL_FEATURES
  6
Continuous
 62
     7
100
AcDbLine
 10
59.950594
 20
65.065463
 30
0.0
 11
59.700594
 21
64.815463
 31
0.0
  0
LINE
  5
3FB
330
213
100
AcDbEntity
  8
7_ALL_FEATURES
  6
Continuous
 62
     7
100
AcDbLine
 10
109.450594
 20
65.065463
 30
0.0
 11
109.700594
 21
64.815463
 31
0.0
  0
LINE
  5
3FC
330
213
100
AcDbEntity
  8
7_ALL_FEATURES
  6
Continuous
 62
     7
100
AcDbLine
 10
109.450594
 20
30.565463
 30
0.0
 11
109.700594
 21
30.815463
 31
0.0
  0
LINE
  5
3FD
330
213
100
AcDbEntity
  8
7_ALL_FEATURES
  6
Continuous
 62
     7
100
AcDbLine
 10
109.450594
 20
65.065463
 30
0.0
 11
109.200594
 21
65.315463
 31
0.0
  0
LINE
  5
3FE
330
213
100
AcDbEntity
  8
7_ALL_FEATURES
  6
Continuous
 62
     7
100
AcDbLine
 10
60.200594
 20
65.315463
 30
0.0
 11
59.950594
 21
65.065463
 31
0.0
  0
LINE
  5
3FF
330
213
100
AcDbEntity
  8
7_ALL_FEATURES
  6
Continuous
 62
     7
100
AcDbLine
 10
109.200594
 20
30.315463
 30
0.0
 11
109.450594
 21
30.565463
 31
0.0
  0
LINE
  5
400
330
213
100
AcDbEntity
  8
7_ALL_FEATURES
  6
Continuous
 62
     7
100
AcDbLine
 10
59.950594
 20
30.565463
 30
0.0
 11
60.200594
 21
30.315463
 31
0.0
  0
LINE
  5
401
330
213
100
AcDbEntity
  8
7_ALL_FEATURES
  6
Continuous
 62
     7
100
AcDbLine
 10
59.950594
 20
65.065463
 30
0.0
 11
60.200594
 21
64.815463
 31
0.0
  0
LINE
  5
402
330
213
100
AcDbEntity
  8
7_ALL_FEATURES
  6
Continuous
 62
     7
100
AcDbLine
 10
60.200594
 20
30.815463
 30
0.0
 11
60.200594
 21
64.815463
 31
0.0
  0
LINE
  5
403
330
213
100
AcDbEntity
  8
7_ALL_FEATURES
  6
Continuous
 62
     7
100
AcDbLine
 10
109.200594
 20
64.815463
 30
0.0
 11
109.450594
 21
65.065463
 31
0.0
  0
LINE
  5
404
330
213
100
AcDbEntity
  8
7_ALL_FEATURES
  6
Continuous
 62
     7
100
AcDbLine
 10
109.200594
 20
64.815463
 30
0.0
 11
60.200594
 21
64.815463
 31
0.0
  0
LINE
  5
405
330
213
100
AcDbEntity
  8
7_ALL_FEATURES
  6
Continuous
 62
     7
100
AcDbLine
 10
109.200594
 20
64.815463
 30
0.0
 11
109.200594
 21
30.815463
 31
0.0
  0
LINE
  5
406
330
213
100
AcDbEntity
  8
7_ALL_FEATURES
  6
Continuous
 62
     7
100
AcDbLine
 10
109.450594
 20
30.565463
 30
0.0
 11
109.200594
 21
30.815463
 31
0.0
  0
LINE
  5
407
330
213
100
AcDbEntity
  8
7_ALL_FEATURES
  6
Continuous
 62
     7
100
AcDbLine
 10
60.200594
 20
30.815463
 30
0.0
 11
59.950594
 21
30.565463
 31
0.0
  0
LINE
  5
408
330
213
100
AcDbEntity
  8
7_ALL_FEATURES
  6
Continuous
 62
     7
100
AcDbLine
 10
109.200594
 20
30.815463
 30
0.0
 11
60.200594
 21
30.815463
 31
0.0
  0
ARC
  5
409
330
213
100
AcDbEntity
  8
7_ALL_FEATURES
  6
Continuous
 62
     3
100
AcDbCircle
 10
122.700594
 20
48.315463
 30
0.0
 40
2.75
100
AcDbArc
 50
270.0
 51
90.0
  0
ARC
  5
40A
330
213
100
AcDbEntity
  8
7_ALL_FEATURES
  6
Continuous
 62
     3
100
AcDbCircle
 10
122.700594
 20
48.315463
 30
0.0
 40
2.75
100
AcDbArc
 50
90.0
 51
270.0
  0
ARC
  5
40B
330
213
100
AcDbEntity
  8
7_ALL_FEATURES
  6
Continuous
 62
     3
100
AcDbCircle
 10
127.700594
 20
53.565463
 30
0.0
 40
5.0
100
AcDbArc
 50
0.0
 51
90.0
  0
LINE
  5
40C
330
213
100
AcDbEntity
  8
7_ALL_FEATURES
  6
Continuous
 62
     3
100
AcDbLine
 10
132.700594
 20
34.315463
 30
0.0
 11
132.700594
 21
53.565463
 31
0.0
  0
LINE
  5
40D
330
213
100
AcDbEntity
  8
7_ALL_FEATURES
  6
Continuous
 62
     3
100
AcDbLine
 10
112.700594
 20
53.565463
 30
0.0
 11
112.700594
 21
34.315463
 31
0.0
  0
ARC
  5
40E
330
213
100
AcDbEntity
  8
7_ALL_FEATURES
  6
Continuous
 62
     3
100
AcDbCircle
 10
117.700594
 20
53.565463
 30
0.0
 40
5.0
100
AcDbArc
 50
90.0
 51
180.0
  0
LINE
  5
40F
330
213
100
AcDbEntity
  8
7_ALL_FEATURES
  6
Continuous
 62
     3
100
AcDbLine
 10
127.700594
 20
58.565463
 30
0.0
 11
117.700594
 21
58.565463
 31
0.0
  0
LINE
  5
410
330
213
100
AcDbEntity
  8
7_ALL_FEATURES
  6
Continuous
 62
     3
100
AcDbLine
 10
132.12741
 20
32.815463
 30
0.0
 11
132.695166
 21
32.815463
 31
0.0
  0
LINE
  5
411
330
213
100
AcDbEntity
  8
7_ALL_FEATURES
  6
Continuous
 62
     3
100
AcDbLine
 10
132.12741
 20
32.815463
 30
0.0
 11
109.700594
 21
32.815463
 31
0.0
  0
LINE
  5
412
330
213
100
AcDbEntity
  8
7_ALL_FEATURES
  6
Continuous
 62
     3
100
AcDbLine
 10
112.700594
 20
32.815463
 30
0.0
 11
112.700594
 21
34.315463
 31
0.0
  0
LINE
  5
413
330
213
100
AcDbEntity
  8
7_ALL_FEATURES
  6
Continuous
 62
     3
100
AcDbLine
 10
132.700594
 20
32.833657
 30
0.0
 11
132.700594
 21
34.315463
 31
0.0
  0
SPLINE
  5
414
330
213
100
AcDbEntity
  8
7_ALL_FEATURES
  6
Continuous
 62
     3
100
AcDbSpline
 70
     0
 71
     3
 72
    10
 73
     6
 74
     0
 42
0.000000001
 43
0.0000001
 40
0.0
 40
0.0
 40
0.0
 40
0.0
 40
0.3079482088
 40
0.5990442991
 40
1.0
 40
1.0
 40
1.0
 40
1.0
 10
132.6951657018
 20
32.8154633642
 30
0.0
 10
132.6972033617
 20
32.8154633642
 30
0.0
 10
132.6997500983
 20
32.820148108
 30
0.0
 10
132.7003570384
 20
32.826303449
 30
0.0
 10
132.7005937615
 20
32.8310043361
 30
0.0
 10
132.7005937615
 20
32.8336574165
 30
0.0
  0
LINE
  5
415
330
213
100
AcDbEntity
  8
7_ALL_FEATURES
  6
Continuous
 62
     9
100
AcDbLine
 10
112.700594
 20
34.315463
 30
0.0
 11
132.700594
 21
34.315463
 31
0.0
  0
LINE
  5
416
330
213
100
AcDbEntity
  8
3_ALL_AXES
  6
Continuous
 62
     7
100
AcDbLine
 10
225.511596
 20
149.765783
 30
0.0
 11
225.411596
 21
149.765783
 31
0.0
  0
LINE
  5
417
330
213
100
AcDbEntity
  8
3_ALL_AXES
  6
Continuous
 62
     7
100
AcDbLine
 10
225.511596
 20
139.765783
 30
0.0
 11
225.511596
 21
140.965783
 31
0.0
  0
LINE
  5
418
330
213
100
AcDbEntity
  8
3_ALL_AXES
  6
Continuous
 62
     7
100
AcDbLine
 10
225.511596
 20
140.965783
 30
0.0
 11
225.511596
 21
140.987035
 31
0.0
  0
LINE
  5
419
330
213
100
AcDbEntity
  8
3_ALL_AXES
  6
Continuous
 62
     7
100
AcDbLine
 10
225.511596
 20
140.987035
 30
0.0
 11
225.511596
 21
142.115783
 31
0.0
  0
LINE
  5
41A
330
213
100
AcDbEntity
  8
3_ALL_AXES
  6
Continuous
 62
     7
100
AcDbLine
 10
225.511596
 20
142.115783
 30
0.0
 11
225.511596
 21
142.765783
 31
0.0
  0
LINE
  5
41B
330
213
100
AcDbEntity
  8
3_ALL_AXES
  6
Continuous
 62
     7
100
AcDbLine
 10
225.511596
 20
142.765783
 30
0.0
 11
225.511596
 21
146.765783
 31
0.0
  0
LINE
  5
41C
330
213
100
AcDbEntity
  8
3_ALL_AXES
  6
Continuous
 62
     7
100
AcDbLine
 10
225.511596
 20
146.765783
 30
0.0
 11
225.511596
 21
147.415783
 31
0.0
  0
LINE
  5
41D
330
213
100
AcDbEntity
  8
3_ALL_AXES
  6
Continuous
 62
     7
100
AcDbLine
 10
225.511596
 20
147.415783
 30
0.0
 11
225.511596
 21
148.544531
 31
0.0
  0
LINE
  5
41E
330
213
100
AcDbEntity
  8
3_ALL_AXES
  6
Continuous
 62
     7
100
AcDbLine
 10
225.511596
 20
148.544531
 30
0.0
 11
225.511596
 21
148.565783
 31
0.0
  0
LINE
  5
41F
330
213
100
AcDbEntity
  8
3_ALL_AXES
  6
Continuous
 62
     7
100
AcDbLine
 10
225.511596
 20
148.565783
 30
0.0
 11
225.511596
 21
149.765783
 31
0.0
  0
LINE
  5
420
330
213
100
AcDbEntity
  8
3_ALL_AXES
  6
Continuous
 62
     7
100
AcDbLine
 10
225.511596
 20
139.765783
 30
0.0
 11
225.411596
 21
139.765783
 31
0.0
  0
ARC
  5
421
330
213
100
AcDbEntity
  8
3_ALL_AXES
  6
Continuous
 62
     7
100
AcDbCircle
 10
224.038956
 20
144.62334
 30
0.0
 40
4.1
100
AcDbArc
 50
296.863303
 51
333.606974
  0
ARC
  5
422
330
213
100
AcDbEntity
  8
3_ALL_AXES
  6
Continuous
 62
     7
100
AcDbCircle
 10
224.038956
 20
144.908226
 30
0.0
 40
4.1
100
AcDbArc
 50
26.393026
 51
63.136697
  0
LINE
  5
423
330
213
100
AcDbEntity
  8
3_ALL_AXES
  6
Continuous
 62
     7
100
AcDbLine
 10
227.711596
 20
142.800783
 30
0.0
 11
227.711596
 21
143.322407
 31
0.0
  0
LINE
  5
424
330
213
100
AcDbEntity
  8
3_ALL_AXES
  6
Continuous
 62
     7
100
AcDbLine
 10
227.711596
 20
143.322407
 30
0.0
 11
227.711596
 21
144.044095
 31
0.0
  0
LINE
  5
425
330
213
100
AcDbEntity
  8
3_ALL_AXES
  6
Continuous
 62
     7
100
AcDbLine
 10
227.711596
 20
144.044095
 30
0.0
 11
227.711596
 21
145.487471
 31
0.0
  0
LINE
  5
426
330
213
100
AcDbEntity
  8
3_ALL_AXES
  6
Continuous
 62
     7
100
AcDbLine
 10
227.711596
 20
145.487471
 30
0.0
 11
227.711596
 21
146.209159
 31
0.0
  0
LINE
  5
427
330
213
100
AcDbEntity
  8
3_ALL_AXES
  6
Continuous
 62
     7
100
AcDbLine
 10
227.711596
 20
146.209159
 30
0.0
 11
227.711596
 21
146.730783
 31
0.0
  0
LINE
  5
428
330
213
100
AcDbEntity
  8
3_ALL_AXES
  6
Continuous
 62
     7
100
AcDbLine
 10
225.891596
 20
140.965783
 30
0.0
 11
225.511596
 21
140.965783
 31
0.0
  0
LINE
  5
429
330
213
100
AcDbEntity
  8
3_ALL_AXES
  6
Continuous
 62
     7
100
AcDbLine
 10
225.891596
 20
148.565783
 30
0.0
 11
225.511596
 21
148.565783
 31
0.0
  0
LINE
  5
42A
330
213
100
AcDbEntity
  8
3_ALL_AXES
  6
Continuous
 62
     7
100
AcDbLine
 10
225.891596
 20
140.965783
 30
0.0
 11
225.891596
 21
148.565783
 31
0.0
  0
LINE
  5
42B
330
213
100
AcDbEntity
  8
7_ALL_FEATURES
  6
Continuous
 62
     7
100
AcDbLine
 10
197.161596
 20
99.765783
 30
0.0
 11
197.161596
 21
101.265783
 31
0.0
  0
LINE
  5
42C
330
213
100
AcDbEntity
  8
7_ALL_FEATURES
  6
Continuous
 62
     7
100
AcDbLine
 10
202.161596
 20
99.765783
 30
0.0
 11
197.161596
 21
99.765783
 31
0.0
  0
LINE
  5
42D
330
213
100
AcDbEntity
  8
7_ALL_FEATURES
  6
Continuous
 62
     7
100
AcDbLine
 10
202.161596
 20
99.765783
 30
0.0
 11
221.411596
 21
99.765783
 31
0.0
  0
ARC
  5
42E
330
213
100
AcDbEntity
  8
7_ALL_FEATURES
  6
Continuous
 62
     7
100
AcDbCircle
 10
221.411596
 20
102.765783
 30
0.0
 40
3.0
100
AcDbArc
 50
270.0
 51
360.0
  0
LINE
  5
42F
330
213
100
AcDbEntity
  8
7_ALL_FEATURES
  6
Continuous
 62
     7
100
AcDbLine
 10
224.411596
 20
104.480387
 30
0.0
 11
224.411596
 21
103.018528
 31
0.0
  0
LINE
  5
430
330
213
100
AcDbEntity
  8
7_ALL_FEATURES
  6
Continuous
 62
     7
100
AcDbLine
 10
224.411596
 20
103.018528
 30
0.0
 11
224.411596
 21
102.765783
 31
0.0
  0
LINE
  5
431
330
213
100
AcDbEntity
  8
7_ALL_FEATURES
  6
Continuous
 62
     7
100
AcDbLine
 10
224.411596
 20
137.269727
 30
0.0
 11
224.411596
 21
104.480387
 31
0.0
  0
LINE
  5
432
330
213
100
AcDbEntity
  8
7_ALL_FEATURES
  6
Continuous
 62
     9
100
AcDbLine
 10
221.411596
 20
99.765783
 30
0.0
 11
221.411596
 21
101.265783
 31
0.0
  0
LINE
  5
433
330
213
100
AcDbEntity
  8
7_ALL_FEATURES
  6
Continuous
 62
     9
100
AcDbLine
 10
202.161596
 20
99.765783
 30
0.0
 11
202.161596
 21
101.265783
 31
0.0
  0
LINE
  5
434
330
213
100
AcDbEntity
  8
7_ALL_FEATURES
  6
Continuous
 62
     9
100
AcDbLine
 10
224.411596
 20
104.480387
 30
0.0
 11
222.911596
 21
104.480387
 31
0.0
  0
LINE
  5
435
330
213
100
AcDbEntity
  8
7_ALL_FEATURES
  6
Continuous
 62
     9
100
AcDbLine
 10
224.411596
 20
103.018528
 30
0.0
 11
222.911596
 21
103.018528
 31
0.0
  0
LINE
  5
436
330
213
100
AcDbEntity
  8
7_ALL_FEATURES
  6
Continuous
 62
     9
100
AcDbLine
 10
224.411596
 20
102.765783
 30
0.0
 11
222.911596
 21
102.765783
 31
0.0
  0
LINE
  5
437
330
213
100
AcDbEntity
  8
7_ALL_FEATURES
  6
Continuous
 62
     7
100
AcDbLine
 10
192.411596
 20
169.765783
 30
0.0
 11
192.411596
 21
139.765783
 31
0.0
  0
LINE
  5
438
330
213
100
AcDbEntity
  8
7_ALL_FEATURES
  6
Continuous
 62
     7
100
AcDbLine
 10
192.911596
 20
139.265783
 30
0.0
 11
222.911596
 21
139.265783
 31
0.0
  0
LINE
  5
439
330
213
100
AcDbEntity
  8
7_ALL_FEATURES
  6
Continuous
 62
     7
100
AcDbLine
 10
223.411596
 20
139.765783
 30
0.0
 11
223.411596
 21
169.765783
 31
0.0
  0
LINE
  5
43A
330
213
100
AcDbEntity
  8
7_ALL_FEATURES
  6
Continuous
 62
     7
100
AcDbLine
 10
222.911596
 20
170.265783
 30
0.0
 11
223.161596
 21
170.015783
 31
0.0
  0
LINE
  5
43B
330
213
100
AcDbEntity
  8
7_ALL_FEATURES
  6
Continuous
 62
     7
100
AcDbLine
 10
223.161596
 20
170.015783
 30
0.0
 11
223.411596
 21
169.765783
 31
0.0
  0
LINE
  5
43C
330
213
100
AcDbEntity
  8
7_ALL_FEATURES
  6
Continuous
 62
     7
100
AcDbLine
 10
223.411596
 20
139.765783
 30
0.0
 11
223.161596
 21
139.515783
 31
0.0
  0
LINE
  5
43D
330
213
100
AcDbEntity
  8
7_ALL_FEATURES
  6
Continuous
 62
     7
100
AcDbLine
 10
222.911596
 20
170.265783
 30
0.0
 11
192.911596
 21
170.265783
 31
0.0
  0
LINE
  5
43E
330
213
100
AcDbEntity
  8
7_ALL_FEATURES
  6
Continuous
 62
     7
100
AcDbLine
 10
223.161596
 20
139.515783
 30
0.0
 11
222.911596
 21
139.265783
 31
0.0
  0
LINE
  5
43F
330
213
100
AcDbEntity
  8
7_ALL_FEATURES
  6
Continuous
 62
     7
100
AcDbLine
 10
192.911596
 20
139.265783
 30
0.0
 11
192.661596
 21
139.515783
 31
0.0
  0
LINE
  5
440
330
213
100
AcDbEntity
  8
7_ALL_FEATURES
  6
Continuous
 62
     7
100
AcDbLine
 10
192.661596
 20
170.015783
 30
0.0
 11
192.911596
 21
170.265783
 31
0.0
  0
LINE
  5
441
330
213
100
AcDbEntity
  8
7_ALL_FEATURES
  6
Continuous
 62
     7
100
AcDbLine
 10
192.411596
 20
169.765783
 30
0.0
 11
192.661596
 21
170.015783
 31
0.0
  0
LINE
  5
442
330
213
100
AcDbEntity
  8
7_ALL_FEATURES
  6
Continuous
 62
     7
100
AcDbLine
 10
192.661596
 20
139.515783
 30
0.0
 11
192.411596
 21
139.765783
 31
0.0
  0
LINE
  5
443
330
213
100
AcDbEntity
  8
7_ALL_FEATURES
  6
Continuous
 62
     7
100
AcDbLine
 10
192.911596
 20
139.765783
 30
0.0
 11
222.911596
 21
139.765783
 31
0.0
  0
LINE
  5
444
330
213
100
AcDbEntity
  8
7_ALL_FEATURES
  6
Continuous
 62
     7
100
AcDbLine
 10
192.661596
 20
170.015783
 30
0.0
 11
192.911596
 21
169.765783
 31
0.0
  0
LINE
  5
445
330
213
100
AcDbEntity
  8
7_ALL_FEATURES
  6
Continuous
 62
     7
100
AcDbLine
 10
192.911596
 20
169.765783
 30
0.0
 11
192.911596
 21
139.765783
 31
0.0
  0
LINE
  5
446
330
213
100
AcDbEntity
  8
7_ALL_FEATURES
  6
Continuous
 62
     7
100
AcDbLine
 10
223.161596
 20
170.015783
 30
0.0
 11
222.911596
 21
169.765783
 31
0.0
  0
LINE
  5
447
330
213
100
AcDbEntity
  8
7_ALL_FEATURES
  6
Continuous
 62
     7
100
AcDbLine
 10
223.161596
 20
139.515783
 30
0.0
 11
222.911596
 21
139.765783
 31
0.0
  0
LINE
  5
448
330
213
100
AcDbEntity
  8
7_ALL_FEATURES
  6
Continuous
 62
     7
100
AcDbLine
 10
192.661596
 20
139.515783
 30
0.0
 11
192.911596
 21
139.765783
 31
0.0
  0
LINE
  5
449
330
213
100
AcDbEntity
  8
7_ALL_FEATURES
  6
Continuous
 62
     7
100
AcDbLine
 10
222.911596
 20
169.765783
 30
0.0
 11
192.911596
 21
169.765783
 31
0.0
  0
LINE
  5
44A
330
213
100
AcDbEntity
  8
7_ALL_FEATURES
  6
Continuous
 62
     7
100
AcDbLine
 10
222.911596
 20
139.765783
 30
0.0
 11
222.911596
 21
169.765783
 31
0.0
  0
LINE
  5
44B
330
213
100
AcDbEntity
  8
7_ALL_FEATURES
  6
Continuous
 62
     7
100
AcDbLine
 10
225.411596
 20
137.765783
 30
0.0
 11
225.411596
 21
171.765783
 31
0.0
  0
LINE
  5
44C
330
213
100
AcDbEntity
  8
7_ALL_FEATURES
  6
Continuous
 62
     7
100
AcDbLine
 10
190.911596
 20
137.265783
 30
0.0
 11
224.911596
 21
137.265783
 31
0.0
  0
LINE
  5
44D
330
213
100
AcDbEntity
  8
7_ALL_FEATURES
  6
Continuous
 62
     7
100
AcDbLine
 10
190.411596
 20
171.765783
 30
0.0
 11
190.411596
 21
137.765783
 31
0.0
  0
LINE
  5
44E
330
213
100
AcDbEntity
  8
7_ALL_FEATURES
  6
Continuous
 62
     7
100
AcDbLine
 10
224.911596
 20
172.265783
 30
0.0
 11
190.911596
 21
172.265783
 31
0.0
  0
LINE
  5
44F
330
213
100
AcDbEntity
  8
7_ALL_FEATURES
  6
Continuous
 62
     7
100
AcDbLine
 10
190.911596
 20
137.265783
 30
0.0
 11
190.661596
 21
137.515783
 31
0.0
  0
LINE
  5
450
330
213
100
AcDbEntity
  8
7_ALL_FEATURES
  6
Continuous
 62
     7
100
AcDbLine
 10
190.661596
 20
137.515783
 30
0.0
 11
190.411596
 21
137.765783
 31
0.0
  0
LINE
  5
451
330
213
100
AcDbEntity
  8
7_ALL_FEATURES
  6
Continuous
 62
     7
100
AcDbLine
 10
225.411596
 20
137.765783
 30
0.0
 11
225.161596
 21
137.515783
 31
0.0
  0
LINE
  5
452
330
213
100
AcDbEntity
  8
7_ALL_FEATURES
  6
Continuous
 62
     7
100
AcDbLine
 10
225.161596
 20
137.515783
 30
0.0
 11
224.911596
 21
137.265783
 31
0.0
  0
LINE
  5
453
330
213
100
AcDbEntity
  8
7_ALL_FEATURES
  6
Continuous
 62
     7
100
AcDbLine
 10
190.661596
 20
172.015783
 30
0.0
 11
190.911596
 21
172.265783
 31
0.0
  0
LINE
  5
454
330
213
100
AcDbEntity
  8
7_ALL_FEATURES
  6
Continuous
 62
     7
100
AcDbLine
 10
190.411596
 20
171.765783
 30
0.0
 11
190.661596
 21
172.015783
 31
0.0
  0
LINE
  5
455
330
213
100
AcDbEntity
  8
7_ALL_FEATURES
  6
Continuous
 62
     7
100
AcDbLine
 10
224.911596
 20
172.265783
 30
0.0
 11
225.161596
 21
172.015783
 31
0.0
  0
LINE
  5
456
330
213
100
AcDbEntity
  8
7_ALL_FEATURES
  6
Continuous
 62
     7
100
AcDbLine
 10
225.161596
 20
172.015783
 30
0.0
 11
225.411596
 21
171.765783
 31
0.0
  0
LINE
  5
457
330
213
100
AcDbEntity
  8
7_ALL_FEATURES
  6
Continuous
 62
     7
100
AcDbLine
 10
224.911596
 20
171.765783
 30
0.0
 11
190.911596
 21
171.765783
 31
0.0
  0
LINE
  5
458
330
213
100
AcDbEntity
  8
7_ALL_FEATURES
  6
Continuous
 62
     7
100
AcDbLine
 10
224.911596
 20
137.765783
 30
0.0
 11
224.911596
 21
171.765783
 31
0.0
  0
LINE
  5
459
330
213
100
AcDbEntity
  8
7_ALL_FEATURES
  6
Continuous
 62
     7
100
AcDbLine
 10
190.911596
 20
137.765783
 30
0.0
 11
224.911596
 21
137.765783
 31
0.0
  0
SPLINE
  5
45A
330
213
100
AcDbEntity
  8
7_ALL_FEATURES
  6
Continuous
 62
     9
100
AcDbSpline
 70
     0
 71
     3
 72
    11
 73
     7
 74
     0
 42
0.000000001
 43
0.0000001
 40
0.0
 40
0.0
 40
0.0
 40
0.0
 40
0.2502620606
 40
0.5002559708
 40
0.7500867986
 40
1.0
 40
1.0
 40
1.0
 40
1.0
 10
191.4202478124
 20
170.2572840098
 30
0.0
 10
191.4202643974
 20
170.3874627201
 30
0.0
 10
191.4723331416
 20
170.6505397984
 30
0.0
 10
191.6950230336
 20
170.9828284322
 30
0.0
 10
192.0273001721
 20
171.2051655166
 30
0.0
 10
192.2900982624
 20
171.2571251564
 30
0.0
 10
192.4200955076
 20
171.257131705
 30
0.0
  0
LINE
  5
45B
330
213
100
AcDbEntity
  8
7_ALL_FEATURES
  6
Continuous
 62
     9
100
AcDbLine
 10
191.420248
 20
139.274282
 30
0.0
 11
191.420248
 21
170.257284
 31
0.0
  0
LINE
  5
45C
330
213
100
AcDbEntity
  8
7_ALL_FEATURES
  6
Continuous
 62
     9
100
AcDbLine
 10
192.504093
 20
170.473241
 30
0.0
 11
223.3191
 21
170.473241
 31
0.0
  0
SPLINE
  5
45D
330
213
100
AcDbEntity
  8
7_ALL_FEATURES
  6
Continuous
 62
     9
100
AcDbSpline
 70
     0
 71
     3
 72
    11
 73
     7
 74
     0
 42
0.000000001
 43
0.0000001
 40
0.0
 40
0.0
 40
0.0
 40
0.0
 40
0.2500102912
 40
0.4999365157
 40
0.7499088344
 40
1.0
 40
1.0
 40
1.0
 40
1.0
 10
223.3190998257
 20
170.4732407637
 30
0.0
 10
223.3581138603
 20
170.4732342088
 30
0.0
 10
223.4369897316
 20
170.4576516379
 30
0.0
 10
223.536658106
 20
170.3908786528
 30
0.0
 10
223.6034566139
 20
170.2912096597
 30
0.0
 10
223.6190465418
 20
170.21231311
 30
0.0
 10
223.6190541342
 20
170.1732864552
 30
0.0
  0
LINE
  5
45E
330
213
100
AcDbEntity
  8
7_ALL_FEATURES
  6
Continuous
 62
     9
100
AcDbLine
 10
223.619054
 20
170.173286
 30
0.0
 11
223.619054
 21
139.35828
 31
0.0
  0
ARC
  5
45F
330
213
100
AcDbEntity
  8
7_ALL_FEATURES
  6
Continuous
 62
     9
100
AcDbCircle
 10
223.319112
 20
139.358268
 30
0.0
 40
0.2999429064
100
AcDbArc
 50
269.997588
 51
0.002304
  0
LINE
  5
460
330
213
100
AcDbEntity
  8
7_ALL_FEATURES
  6
Continuous
 62
     9
100
AcDbLine
 10
223.3191
 20
139.058325
 30
0.0
 11
192.504093
 21
139.058325
 31
0.0
  0
SPLINE
  5
461
330
213
100
AcDbEntity
  8
7_ALL_FEATURES
  6
Continuous
 62
     9
100
AcDbSpline
 70
     0
 71
     3
 72
    11
 73
     7
 74
     0
 42
0.000000001
 43
0.0000001
 40
0.0
 40
0.0
 40
0.0
 40
0.0
 40
0.2500102912
 40
0.4999365157
 40
0.7499088344
 40
1.0
 40
1.0
 40
1.0
 40
1.0
 10
192.5040930622
 20
139.0583253832
 30
0.0
 10
192.4650790277
 20
139.0583319381
 30
0.0
 10
192.3862031563
 20
139.0739145089
 30
0.0
 10
192.286534782
 20
139.1406874941
 30
0.0
 10
192.219736274
 20
139.2403564872
 30
0.0
 10
192.2041463461
 20
139.3192530369
 30
0.0
 10
192.2041387537
 20
139.3582796917
 30
0.0
  0
LINE
  5
462
330
213
100
AcDbEntity
  8
7_ALL_FEATURES
  6
Continuous
 62
     9
100
AcDbLine
 10
192.204139
 20
139.35828
 30
0.0
 11
192.204139
 21
170.173286
 31
0.0
  0
SPLINE
  5
463
330
213
100
AcDbEntity
  8
7_ALL_FEATURES
  6
Continuous
 62
     9
100
AcDbSpline
 70
     0
 71
     3
 72
    11
 73
     7
 74
     0
 42
0.000000001
 43
0.0000001
 40
0.0
 40
0.0
 40
0.0
 40
0.0
 40
0.2500102912
 40
0.4999365157
 40
0.7499088344
 40
1.0
 40
1.0
 40
1.0
 40
1.0
 10
192.2041387537
 20
170.1732864552
 30
0.0
 10
192.2041453086
 20
170.2123004897
 30
0.0
 10
192.2197278795
 20
170.2911763611
 30
0.0
 10
192.2865008646
 20
170.3908447354
 30
0.0
 10
192.3861698577
 20
170.4576432434
 30
0.0
 10
192.4650664074
 20
170.4732331713
 30
0.0
 10
192.5040930622
 20
170.4732407637
 30
0.0
  0
LINE
  5
464
330
213
100
AcDbEntity
  8
7_ALL_FEATURES
  6
Continuous
 62
     7
100
AcDbLine
 10
225.161596
 20
172.015783
 30
0.0
 11
224.911596
 21
171.765783
 31
0.0
  0
LINE
  5
465
330
213
100
AcDbEntity
  8
7_ALL_FEATURES
  6
Continuous
 62
     7
100
AcDbLine
 10
225.161596
 20
137.515783
 30
0.0
 11
224.911596
 21
137.765783
 31
0.0
  0
LINE
  5
466
330
213
100
AcDbEntity
  8
7_ALL_FEATURES
  6
Continuous
 62
     7
100
AcDbLine
 10
190.661596
 20
137.515783
 30
0.0
 11
190.911596
 21
137.765783
 31
0.0
  0
LINE
  5
467
330
213
100
AcDbEntity
  8
7_ALL_FEATURES
  6
Continuous
 62
     7
100
AcDbLine
 10
190.661596
 20
172.015783
 30
0.0
 11
190.911596
 21
171.765783
 31
0.0
  0
SPLINE
  5
468
330
213
100
AcDbEntity
  8
7_ALL_FEATURES
  6
Continuous
 62
     9
100
AcDbSpline
 70
     0
 71
     3
 72
    11
 73
     7
 74
     0
 42
0.000000001
 43
0.0000001
 40
0.0
 40
0.0
 40
0.0
 40
0.0
 40
0.2502620606
 40
0.5002559708
 40
0.7500867986
 40
1.0
 40
1.0
 40
1.0
 40
1.0
 10
192.4200955076
 20
138.2744344419
 30
0.0
 10
192.2899167973
 20
138.2744510268
 30
0.0
 10
192.0268397191
 20
138.3265197711
 30
0.0
 10
191.6945510852
 20
138.5492096631
 30
0.0
 10
191.4722140008
 20
138.8814868016
 30
0.0
 10
191.420254361
 20
139.1442848918
 30
0.0
 10
191.4202478124
 20
139.274282137
 30
0.0
  0
LINE
  5
469
330
213
100
AcDbEntity
  8
7_ALL_FEATURES
  6
Continuous
 62
     9
100
AcDbLine
 10
223.403097
 20
138.274434
 30
0.0
 11
192.420096
 21
138.274434
 31
0.0
  0
SPLINE
  5
46A
330
213
100
AcDbEntity
  8
7_ALL_FEATURES
  6
Continuous
 62
     9
100
AcDbSpline
 70
     0
 71
     3
 72
    11
 73
     7
 74
     0
 42
0.000000001
 43
0.0000001
 40
0.0
 40
0.0
 40
0.0
 40
0.0
 40
0.2500052835
 40
0.4999811746
 40
0.7499768405
 40
1.0
 40
1.0
 40
1.0
 40
1.0
 10
224.4029450755
 20
139.274282137
 30
0.0
 10
224.4029311837
 20
139.1442372802
 30
0.0
 10
224.3509344005
 20
138.8813149815
 30
0.0
 10
224.1284334543
 20
138.5489752076
 30
0.0
 10
223.7960937677
 20
138.3264534178
 30
0.0
 10
223.5331515356
 20
138.2744492227
 30
0.0
 10
223.4030973804
 20
138.2744344419
 30
0.0
  0
LINE
  5
46B
330
213
100
AcDbEntity
  8
7_ALL_FEATURES
  6
Continuous
 62
     9
100
AcDbLine
 10
192.420096
 20
171.257132
 30
0.0
 11
223.403097
 21
171.257132
 31
0.0
  0
LINE
  5
46C
330
213
100
AcDbEntity
  8
7_ALL_FEATURES
  6
Continuous
 62
     7
100
AcDbLine
 10
190.911596
 20
171.765783
 30
0.0
 11
190.911596
 21
137.765783
 31
0.0
  0
LINE
  5
46D
330
213
100
AcDbEntity
  8
7_ALL_FEATURES
  6
Continuous
 62
     9
100
AcDbLine
 10
224.402945
 20
170.257284
 30
0.0
 11
224.402945
 21
139.274282
 31
0.0
  0
LINE
  5
46E
330
213
100
AcDbEntity
  8
7_ALL_FEATURES
  6
Continuous
 62
     9
100
AcDbLine
 10
191.420248
 20
139.274282
 30
0.0
 11
191.920172
 21
139.274282
 31
0.0
  0
LINE
  5
46F
330
213
100
AcDbEntity
  8
7_ALL_FEATURES
  6
Continuous
 62
     9
100
AcDbLine
 10
192.420096
 20
138.274434
 30
0.0
 11
192.420096
 21
138.774358
 31
0.0
  0
LINE
  5
470
330
213
100
AcDbEntity
  8
7_ALL_FEATURES
  6
Continuous
 62
     9
100
AcDbLine
 10
223.403097
 20
138.274434
 30
0.0
 11
223.403097
 21
138.774358
 31
0.0
  0
LINE
  5
471
330
213
100
AcDbEntity
  8
7_ALL_FEATURES
  6
Continuous
 62
     9
100
AcDbLine
 10
224.402945
 20
139.274282
 30
0.0
 11
223.903021
 21
139.274282
 31
0.0
  0
LINE
  5
472
330
213
100
AcDbEntity
  8
7_ALL_FEATURES
  6
Continuous
 62
     9
100
AcDbLine
 10
224.402945
 20
170.257284
 30
0.0
 11
223.903021
 21
170.257284
 31
0.0
  0
LINE
  5
473
330
213
100
AcDbEntity
  8
7_ALL_FEATURES
  6
Continuous
 62
     9
100
AcDbLine
 10
223.403097
 20
171.257132
 30
0.0
 11
223.403097
 21
170.757208
 31
0.0
  0
LINE
  5
474
330
213
100
AcDbEntity
  8
7_ALL_FEATURES
  6
Continuous
 62
     9
100
AcDbLine
 10
192.420096
 20
171.257132
 30
0.0
 11
192.420096
 21
170.757208
 31
0.0
  0
LINE
  5
475
330
213
100
AcDbEntity
  8
7_ALL_FEATURES
  6
Continuous
 62
     9
100
AcDbLine
 10
191.420248
 20
170.257284
 30
0.0
 11
191.920172
 21
170.257284
 31
0.0
  0
LINE
  5
476
330
213
100
AcDbEntity
  8
7_ALL_FEATURES
  6
Continuous
 62
     9
100
AcDbLine
 10
192.204139
 20
139.35828
 30
0.0
 11
192.004169
 21
139.35828
 31
0.0
  0
LINE
  5
477
330
213
100
AcDbEntity
  8
7_ALL_FEATURES
  6
Continuous
 62
     9
100
AcDbLine
 10
192.504093
 20
139.058325
 30
0.0
 11
192.504093
 21
138.858356
 31
0.0
  0
LINE
  5
478
330
213
100
AcDbEntity
  8
7_ALL_FEATURES
  6
Continuous
 62
     9
100
AcDbLine
 10
223.3191
 20
139.058325
 30
0.0
 11
223.3191
 21
138.858356
 31
0.0
  0
LINE
  5
479
330
213
100
AcDbEntity
  8
7_ALL_FEATURES
  6
Continuous
 62
     9
100
AcDbLine
 10
223.619054
 20
139.35828
 30
0.0
 11
223.819024
 21
139.35828
 31
0.0
  0
LINE
  5
47A
330
213
100
AcDbEntity
  8
7_ALL_FEATURES
  6
Continuous
 62
     9
100
AcDbLine
 10
223.619054
 20
170.173286
 30
0.0
 11
223.819024
 21
170.173286
 31
0.0
  0
LINE
  5
47B
330
213
100
AcDbEntity
  8
7_ALL_FEATURES
  6
Continuous
 62
     9
100
AcDbLine
 10
223.3191
 20
170.473241
 30
0.0
 11
223.3191
 21
170.67321
 31
0.0
  0
LINE
  5
47C
330
213
100
AcDbEntity
  8
7_ALL_FEATURES
  6
Continuous
 62
     9
100
AcDbLine
 10
192.504093
 20
170.473241
 30
0.0
 11
192.504093
 21
170.67321
 31
0.0
  0
LINE
  5
47D
330
213
100
AcDbEntity
  8
7_ALL_FEATURES
  6
Continuous
 62
     9
100
AcDbLine
 10
192.204139
 20
170.173286
 30
0.0
 11
192.004169
 21
170.173286
 31
0.0
  0
SPLINE
  5
47E
330
213
100
AcDbEntity
  8
7_ALL_FEATURES
  6
Continuous
 62
     9
100
AcDbSpline
 70
     0
 71
     3
 72
    11
 73
     7
 74
     0
 42
0.000000001
 43
0.0000001
 40
0.0
 40
0.0
 40
0.0
 40
0.0
 40
0.2500088186
 40
0.4999365819
 40
0.7499102881
 40
1.0
 40
1.0
 40
1.0
 40
1.0
 10
192.5040930622
 20
138.8583558441
 30
0.0
 10
192.4390728399
 20
138.8583660792
 30
0.0
 10
192.3076236156
 20
138.8843678093
 30
0.0
 10
192.1415221928
 20
138.9956524661
 30
0.0
 10
192.0301958296
 20
139.1617547576
 30
0.0
 10
192.0041799547
 20
139.2932384313
 30
0.0
 10
192.0041692147
 20
139.3582796917
 30
0.0
  0
SPLINE
  5
47F
330
213
100
AcDbEntity
  8
7_ALL_FEATURES
  6
Continuous
 62
     9
100
AcDbSpline
 70
     0
 71
     3
 72
    11
 73
     7
 74
     0
 42
0.000000001
 43
0.0000001
 40
0.0
 40
0.0
 40
0.0
 40
0.0
 40
0.2502528787
 40
0.5002561905
 40
0.750096204
 40
1.0
 40
1.0
 40
1.0
 40
1.0
 10
192.4200955076
 20
138.7743582895
 30
0.0
 10
192.3550016697
 20
138.7743431825
 30
0.0
 10
192.2234395264
 20
138.8003399399
 30
0.0
 10
192.0572506883
 20
138.9116732456
 30
0.0
 10
191.9460925747
 20
139.0778566542
 30
0.0
 10
191.9201537636
 20
139.2092791006
 30
0.0
 10
191.92017166
 20
139.274282137
 30
0.0
  0
SPLINE
  5
480
330
213
100
AcDbEntity
  8
7_ALL_FEATURES
  6
Continuous
 62
     9
100
AcDbSpline
 70
     0
 71
     3
 72
    11
 73
     7
 74
     0
 42
0.000000001
 43
0.0000001
 40
0.0
 40
0.0
 40
0.0
 40
0.0
 40
0.2502701446
 40
0.5002799401
 40
0.750089236
 40
1.0
 40
1.0
 40
1.0
 40
1.0
 10
223.8190236733
 20
139.3582796917
 30
0.0
 10
223.8190127163
 20
139.2931910855
 30
0.0
 10
223.7929556856
 20
139.1616537609
 30
0.0
 10
223.6815937469
 20
138.995536199
 30
0.0
 10
223.5154801463
 20
138.8843589023
 30
0.0
 10
223.3840949668
 20
138.8583649234
 30
0.0
 10
223.3190998257
 20
138.8583558441
 30
0.0
  0
SPLINE
  5
481
330
213
100
AcDbEntity
  8
7_ALL_FEATURES
  6
Continuous
 62
     9
100
AcDbSpline
 70
     0
 71
     3
 72
    11
 73
     7
 74
     0
 42
0.000000001
 43
0.0000001
 40
0.0
 40
0.0
 40
0.0
 40
0.0
 40
0.2499959745
 40
0.499981159
 40
0.749986125
 40
1.0
 40
1.0
 40
1.0
 40
1.0
 10
223.9030212279
 20
139.274282137
 30
0.0
 10
223.9030370423
 20
139.2092552842
 30
0.0
 10
223.8770769306
 20
139.077770808
 30
0.0
 10
223.7658381686
 20
138.9115559204
 30
0.0
 10
223.5996233327
 20
138.8003069065
 30
0.0
 10
223.4681288894
 20
138.7743427284
 30
0.0
 10
223.4030973804
 20
138.7743582895
 30
0.0
  0
SPLINE
  5
482
330
213
100
AcDbEntity
  8
7_ALL_FEATURES
  6
Continuous
 62
     9
100
AcDbSpline
 70
     0
 71
     3
 72
    11
 73
     7
 74
     0
 42
0.000000001
 43
0.0000001
 40
0.0
 40
0.0
 40
0.0
 40
0.0
 40
0.2500088186
 40
0.4999365819
 40
0.7499102881
 40
1.0
 40
1.0
 40
1.0
 40
1.0
 10
223.3190998257
 20
170.6732103027
 30
0.0
 10
223.3841200481
 20
170.6732000677
 30
0.0
 10
223.5155692723
 20
170.6471983376
 30
0.0
 10
223.6816706952
 20
170.5359136808
 30
0.0
 10
223.7929970583
 20
170.3698113892
 30
0.0
 10
223.8190129332
 20
170.2383277155
 30
0.0
 10
223.8190236733
 20
170.1732864552
 30
0.0
  0
SPLINE
  5
483
330
213
100
AcDbEntity
  8
7_ALL_FEATURES
  6
Continuous
 62
     9
100
AcDbSpline
 70
     0
 71
     3
 72
    11
 73
     7
 74
     0
 42
0.000000001
 43
0.0000001
 40
0.0
 40
0.0
 40
0.0
 40
0.0
 40
0.2502528787
 40
0.5002561905
 40
0.750096204
 40
1.0
 40
1.0
 40
1.0
 40
1.0
 10
223.4030973804
 20
170.7572078574
 30
0.0
 10
223.4681912182
 20
170.7572229644
 30
0.0
 10
223.5997533616
 20
170.7312262069
 30
0.0
 10
223.7659421996
 20
170.6198929013
 30
0.0
 10
223.8771003132
 20
170.4537094926
 30
0.0
 10
223.9030391243
 20
170.3222870463
 30
0.0
 10
223.9030212279
 20
170.2572840098
 30
0.0
  0
SPLINE
  5
484
330
213
100
AcDbEntity
  8
7_ALL_FEATURES
  6
Continuous
 62
     9
100
AcDbSpline
 70
     0
 71
     3
 72
    11
 73
     7
 74
     0
 42
0.000000001
 43
0.0000001
 40
0.0
 40
0.0
 40
0.0
 40
0.0
 40
0.2500088186
 40
0.4999365819
 40
0.7499102881
 40
1.0
 40
1.0
 40
1.0
 40
1.0
 10
192.0041692147
 20
170.1732864552
 30
0.0
 10
192.0041794497
 20
170.2383066775
 30
0.0
 10
192.0301811798
 20
170.3697559018
 30
0.0
 10
192.1414658367
 20
170.5358573246
 30
0.0
 10
192.3075681282
 20
170.6471836878
 30
0.0
 10
192.4390518019
 20
170.6731995627
 30
0.0
 10
192.5040930622
 20
170.6732103027
 30
0.0
  0
SPLINE
  5
485
330
213
100
AcDbEntity
  8
7_ALL_FEATURES
  6
Continuous
 62
     9
100
AcDbSpline
 70
     0
 71
     3
 72
    11
 73
     7
 74
     0
 42
0.000000001
 43
0.0000001
 40
0.0
 40
0.0
 40
0.0
 40
0.0
 40
0.2502528787
 40
0.5002561905
 40
0.750096204
 40
1.0
 40
1.0
 40
1.0
 40
1.0
 10
191.92017166
 20
170.2572840098
 30
0.0
 10
191.920156553
 20
170.3223778477
 30
0.0
 10
191.9461533105
 20
170.453939991
 30
0.0
 10
192.0574866161
 20
170.6201288291
 30
0.0
 10
192.2236700248
 20
170.7312869427
 30
0.0
 10
192.3550924711
 20
170.7572257538
 30
0.0
 10
192.4200955076
 20
170.7572078574
 30
0.0
  0
SPLINE
  5
486
330
213
100
AcDbEntity
  8
7_ALL_FEATURES
  6
Continuous
 62
     9
100
AcDbSpline
 70
     0
 71
     3
 72
    11
 73
     7
 74
     0
 42
0.000000001
 43
0.0000001
 40
0.0
 40
0.0
 40
0.0
 40
0.0
 40
0.2502620606
 40
0.5002559708
 40
0.7500867986
 40
1.0
 40
1.0
 40
1.0
 40
1.0
 10
223.4030973804
 20
171.257131705
 30
0.0
 10
223.5332760907
 20
171.25711512
 30
0.0
 10
223.7963531689
 20
171.2050463758
 30
0.0
 10
224.1286418027
 20
170.9823564838
 30
0.0
 10
224.3509788871
 20
170.6500793453
 30
0.0
 10
224.402938527
 20
170.387281255
 30
0.0
 10
224.4029450755
 20
170.2572840098
 30
0.0
  0
LINE
  5
487
330
213
100
AcDbEntity
  8
7_ALL_FEATURES
  6
Continuous
 62
     9
100
AcDbLine
 10
223.3191
 20
138.858356
 30
0.0
 11
223.403097
 21
138.774358
 31
0.0
  0
LINE
  5
488
330
213
100
AcDbEntity
  8
7_ALL_FEATURES
  6
Continuous
 62
     9
100
AcDbLine
 10
223.3191
 20
138.858356
 30
0.0
 11
192.504093
 21
138.858356
 31
0.0
  0
LINE
  5
489
330
213
100
AcDbEntity
  8
7_ALL_FEATURES
  6
Continuous
 62
     9
100
AcDbLine
 10
192.420096
 20
138.774358
 30
0.0
 11
192.504093
 21
138.858356
 31
0.0
  0
LINE
  5
48A
330
213
100
AcDbEntity
  8
7_ALL_FEATURES
  6
Continuous
 62
     9
100
AcDbLine
 10
223.403097
 20
138.774358
 30
0.0
 11
192.420096
 21
138.774358
 31
0.0
  0
LINE
  5
48B
330
213
100
AcDbEntity
  8
7_ALL_FEATURES
  6
Continuous
 62
     9
100
AcDbLine
 10
191.920172
 20
139.274282
 30
0.0
 11
192.004169
 21
139.35828
 31
0.0
  0
LINE
  5
48C
330
213
100
AcDbEntity
  8
7_ALL_FEATURES
  6
Continuous
 62
     9
100
AcDbLine
 10
192.004169
 20
139.35828
 30
0.0
 11
192.004169
 21
170.173286
 31
0.0
  0
LINE
  5
48D
330
213
100
AcDbEntity
  8
7_ALL_FEATURES
  6
Continuous
 62
     9
100
AcDbLine
 10
191.920172
 20
170.257284
 30
0.0
 11
192.004169
 21
170.173286
 31
0.0
  0
LINE
  5
48E
330
213
100
AcDbEntity
  8
7_ALL_FEATURES
  6
Continuous
 62
     9
100
AcDbLine
 10
191.920172
 20
139.274282
 30
0.0
 11
191.920172
 21
170.257284
 31
0.0
  0
LINE
  5
48F
330
213
100
AcDbEntity
  8
7_ALL_FEATURES
  6
Continuous
 62
     9
100
AcDbLine
 10
192.420096
 20
170.757208
 30
0.0
 11
192.504093
 21
170.67321
 31
0.0
  0
LINE
  5
490
330
213
100
AcDbEntity
  8
7_ALL_FEATURES
  6
Continuous
 62
     9
100
AcDbLine
 10
192.504093
 20
170.67321
 30
0.0
 11
223.3191
 21
170.67321
 31
0.0
  0
LINE
  5
491
330
213
100
AcDbEntity
  8
7_ALL_FEATURES
  6
Continuous
 62
     9
100
AcDbLine
 10
223.403097
 20
170.757208
 30
0.0
 11
223.3191
 21
170.67321
 31
0.0
  0
LINE
  5
492
330
213
100
AcDbEntity
  8
7_ALL_FEATURES
  6
Continuous
 62
     9
100
AcDbLine
 10
192.420096
 20
170.757208
 30
0.0
 11
223.403097
 21
170.757208
 31
0.0
  0
LINE
  5
493
330
213
100
AcDbEntity
  8
7_ALL_FEATURES
  6
Continuous
 62
     9
100
AcDbLine
 10
223.903021
 20
170.257284
 30
0.0
 11
223.819024
 21
170.173286
 31
0.0
  0
LINE
  5
494
330
213
100
AcDbEntity
  8
7_ALL_FEATURES
  6
Continuous
 62
     9
100
AcDbLine
 10
223.819024
 20
170.173286
 30
0.0
 11
223.819024
 21
139.35828
 31
0.0
  0
LINE
  5
495
330
213
100
AcDbEntity
  8
7_ALL_FEATURES
  6
Continuous
 62
     9
100
AcDbLine
 10
223.819024
 20
139.35828
 30
0.0
 11
223.903021
 21
139.274282
 31
0.0
  0
LINE
  5
496
330
213
100
AcDbEntity
  8
7_ALL_FEATURES
  6
Continuous
 62
     9
100
AcDbLine
 10
223.903021
 20
170.257284
 30
0.0
 11
223.903021
 21
139.274282
 31
0.0
  0
LINE
  5
497
330
213
100
AcDbEntity
  8
7_ALL_FEATURES
  6
Continuous
 62
     3
100
AcDbLine
 10
202.161596
 20
101.265783
 30
0.0
 11
221.411596
 21
101.265783
 31
0.0
  0
LINE
  5
498
330
213
100
AcDbEntity
  8
7_ALL_FEATURES
  6
Continuous
 62
     3
100
AcDbLine
 10
197.161596
 20
101.265783
 30
0.0
 11
202.161596
 21
101.265783
 31
0.0
  0
LINE
  5
499
330
213
100
AcDbEntity
  8
7_ALL_FEATURES
  6
Continuous
 62
     3
100
AcDbLine
 10
222.911596
 20
137.269727
 30
0.0
 11
222.911596
 21
104.480387
 31
0.0
  0
LINE
  5
49A
330
213
100
AcDbEntity
  8
7_ALL_FEATURES
  6
Continuous
 62
     3
100
AcDbLine
 10
222.911596
 20
103.018528
 30
0.0
 11
222.911596
 21
102.765783
 31
0.0
  0
ARC
  5
49B
330
213
100
AcDbEntity
  8
7_ALL_FEATURES
  6
Continuous
 62
     3
100
AcDbCircle
 10
221.411596
 20
102.765783
 30
0.0
 40
1.5
100
AcDbArc
 50
270.0
 51
360.0
  0
LINE
  5
49C
330
213
100
AcDbEntity
  8
7_ALL_FEATURES
  6
Continuous
 62
     3
100
AcDbLine
 10
222.911596
 20
103.018528
 30
0.0
 11
222.911596
 21
104.480387
 31
0.0
  0
DIMENSION
  5
49D
330
213
100
AcDbEntity
  8
0
  6
Continuous
 62
     2
100
AcDbDimension
280
     0
  2
*D1
 10
109.700594
 20
183.524694
 30
0.0
 11
84.692548
 21
183.524694
 31
0.0
 70
   160
 71
     2
 42
50.0
 73
     0
 74
     0
 75
     0
  3
DIMSTYLE_1
100
AcDbAlignedDimension
 13
59.700594
 23
171.765783
 33
0.0
 14
109.700594
 24
171.765783
 34
0.0
100
AcDbRotatedDimension
  0
DIMENSION
  5
49E
330
213
100
AcDbEntity
  8
0
  6
Continuous
 62
     2
100
AcDbDimension
280
     0
  2
*D2
 10
39.750166
 20
99.765783
 30
0.0
 11
39.750166
 21
136.028616
 31
0.0
 70
   160
 71
     2
 42
72.5
 73
     0
 74
     0
 75
     0
  3
DIMSTYLE_1
100
AcDbAlignedDimension
 13
60.200594
 23
172.265783
 33
0.0
 14
112.700594
 24
99.765783
 34
0.0
 50
270.0
100
AcDbRotatedDimension
  0
DIMENSION
  5
49F
330
213
100
AcDbEntity
  8
0
  6
Continuous
 62
     2
100
AcDbDimension
280
     0
  2
*D3
 10
225.411596
 20
186.195937
 30
0.0
 11
207.920276
 21
186.195937
 31
0.0
 70
   160
 71
     2
 42
35.0
 73
     0
 74
     0
 75
     0
  3
DIMSTYLE_1
100
AcDbAlignedDimension
 13
190.411596
 23
171.765783
 33
0.0
 14
225.411596
 24
171.765783
 34
0.0
100
AcDbRotatedDimension
  0
DIMENSION
  5
4A0
330
213
100
AcDbEntity
  8
0
  6
Continuous
 62
     2
100
AcDbDimension
280
     0
  2
*D4
 10
179.253352
 20
137.265783
 30
0.0
 11
179.253352
 21
154.774467
 31
0.0
 70
   160
 71
     2
 42
35.0
 73
     0
 74
     0
 75
     0
  3
DIMSTYLE_1
100
AcDbAlignedDimension
 13
190.911596
 23
172.265783
 33
0.0
 14
190.911596
 24
137.265783
 34
0.0
 50
270.0
100
AcDbRotatedDimension
  0
DIMENSION
  5
4A1
330
213
100
AcDbEntity
  8
0
  6
Continuous
 62
     2
100
AcDbDimension
280
     0
  2
*D5
 10
132.700594
 20
79.954585
 30
0.0
 11
96.2037
 21
79.954585
 31
0.0
 70
   160
 71
     2
 42
73.0
 73
     0
 74
     0
 75
     0
  3
DIMSTYLE_1
100
AcDbAlignedDimension
 13
59.700594
 23
64.815463
 33
0.0
 14
132.700594
 24
53.565463
 34
0.0
100
AcDbRotatedDimension
  0
INSERT
  5
4A2
330
213
100
AcDbEntity
  8
0
  6
Continuous
 62
     2
100
AcDbBlockReference
  2
LOGO2_BL0
 10
206.879621
 20
40.834383
 30
0.0
  0
ACAD_TABLE
  5
4A3
102
{ACAD_XDICTIONARY
360
4FA
102
}
330
213
100
AcDbEntity
  8
0
  6
Continuous
 62
     2
160
              3304
310
E80C000017000000880000001D000000000000000000F03F000000000000000000000000000000005C1470E1B62168400000000000000000000000000000F03F0000000000000000AC461A10CD2A4B4000000000000000000000000000000000000000000000F03F0000000000000000000000000000000000000000000000
310
000000000000000000000000000000F03F54000000200000000200000000000000000000000000000000000000000000000000000000000000008056400000000000000000000000000000000000000000000000000000000000000000000000000000F03F5400000020000000020000000000000000000000000000000000
310
00000000000000000000000000000000000000000000000044C0000000000000000000000000000000000000000000000000000000000000F03F5400000020000000020000000000000000003E4000000000000018C00000000000000000000000000080564000000000000018C00000000000000000000000000000000000
310
00000000000000000000000000F03F5400000020000000020000000000000000003E4000000000000028C00000000000000000000000000080564000000000000028C0000000000000000000000000000000000000000000000000000000000000F03F5400000020000000020000000000000000003E4000000000000036C0
310
0000000000000000000000000080564000000000000036C0000000000000000000000000000000000000000000000000000000000000F03F54000000200000000200000000000000000000000000000000003BC0000000000000000000000000008056400000000000003BC000000000000000000000000000000000000000
310
0000000000000000000000F03F540000002000000002000000000000000000000000000000000044C00000000000000000000000000080564000000000000044C0000000000000000000000000000000000000000000000000000000000000F03F5400000020000000020000000000000000003E4000000000000000000000
310
0000000000000000000000003E400000000000003BC0000000000000000000000000000000000000000000000000000000000000F03F540000002000000002000000000000000080514000000000000000000000000000000000000000000080514000000000000028C0000000000000000000000000000000000000000000
310
000000000000000000F03F540000002000000002000000000000000080564000000000000000000000000000000000000000000080564000000000000044C0000000000000000000000000000000000000000000000000000000000000F03F0C0000001000000014000000D000000026000000CDCCCCCCCC7C3F404E621058
310
393412C0000000000000000000000000000000000000000000000000000000000000F03F000000000000F03F0000000000000000000000000000000041003200350034005F0043005F003400300031000000000014000000010000000000000000000840000000000000F03F0000000000000000000000000000F03F000000
310
0000000000000000000000000000000000000000000000000000000000000000000000000061007200690061006C002E00740074006600000000000000C800000026000000C2F5285C8FC6514075931804560E13C0000000000000000000000000000000000000000000000000000000000000F03F000000000000F03F0000
310
00000000000000000000000000005200650076003A0030003000000000000C000000010000000000000000000C40000000000000F03F0000000000000000000000000000F03F0000000000000000000000000000000000000000000000000000000000000000000000000000000061007200690061006C002E007400740066
310
00000000000000CC00000026000000FA7E6ABC74433F405839B4C8769E26C0000000000000000000000000000000000000000000000000000000000000F03F000000000000F03F000000000000000000000000000000005300630061006C0065003A0031003A003100000012000000010000000000000000000C4000000000
310
0000F03F0000000000000000000000000000F03F0000000000000000000000000000000000000000000000000000000000000000000000000000000061007200690061006C002E00740074006600000000000000C0000000260000003333333333DF514000000000008025C000000000000000000000000000000000000000
310
0000000000000000000000F03F000000000000F03F00000000000000000000000000000000410034000000000004000000010000000000000000000C40000000000000F03F0000000000000000000000000000F03F000000000000000000000000000000000000000000000000000000000000000000000000000000006100
310
7200690061006C002E00740074006600000000000000CC000000260000000AD7A3703D1A3F40AC1C5A643BCF32C0000000000000000000000000000000000000000000000000000000000000F03F000000000000F03F000000000000000000000000000000005200450049004B004F00200031002E00300000001200000001
310
0000000000000000000C40000000000000F03F0000000000000000000000000000F03F0000000000000000000000000000000000000000000000000000000000000000000000000000000061007200690061006C002E00740074006600000000000000D40000002600000048E17A14AE373F40C3F5285C8FC239C000000000
310
0000000000000000000000000000000000000000000000000000F03F000000000000F03F0000000000000000000000000000000044004100540045003A00310034002E00300032002E003200330000001A000000010000000000000000000440000000000000F03F0000000000000000000000000000F03F00000000000000
310
00000000000000000000000000000000000000000000000000000000000000000061007200690061006C002E007400740066000000000000002401000026000000CDCCCCCCCCCCF73F0000000000903DC0000000000000000000000000000000000000000000000000000000000000F03F000000000000F03F000000000000
310
0000000000000000000041006E007900200069006E00740065006700720061006C0020006F00720020007000610072007400690061006C00200072006500700072006F00640075006300740069006F006E00730020006100720065002000700072006F00680069006200690074006500640000000000680000000100000000
310
00000000000240000000000000F03F0000000000000000000000000000F03F0000000000000000000000000000000000000000000000000000000000000000000000000000000061007200690061006C002E007400740066000000000000002C01000026000000FED478E926B1F73F37894160E57C40C00000000000000000
310
00000000000000000000000000000000000000000000F03F000000000000F03F0000000000000000000000000000000077006900740068006F007500740020007000720069006F007200200061007500740068006F007200690073006100740069006F006E0020006F00660020004C002000260020004C0020004C00750063
310
0065002000260020004C006900670068007400200073002E0072002E006C002E002C00000072000000010000000000000000000240000000000000F03F0000000000000000000000000000F03F0000000000000000000000000000000000000000000000000000000000000000000000000000000061007200690061006C00
310
2E007400740066000000000000000401000026000000C1CAA145B673F43F4F1E166A4D3142C0000000000000000000000000000000000000000000000000000000000000F03F000000000000F03F0000000000000000000000000000000069006E0020006100630063006F007200640061006E006300650020007700690074
310
006800200074006800650020006C0061007700200069006E00200066006F007200630065002E000000000048000000010000000000000000000240000000000000F03F0000000000000000000000000000F03F0000000000000000000000000000000000000000000000000000000000000000000000000000000061007200
310
690061006C002E00740074006600000000000000E400000026000000CDCCCCCCCCCCF73F302AA913D0E043C0000000000000000000000000000000000000000000000000000000000000F03F000000000000F03F0000000000000000000000000000000041006C006C00200072006900670068007400730020007200650073
310
00650072007600650064002E000000000028000000010000000000000000000240000000000000F03F0000000000000000000000000000F03F0000000000000000000000000000000000000000000000000000000000000000000000000000000061007200690061006C002E00740074006600000000000000080000001F00
310
0000
100
AcDbBlockReference
  2
*T7
 10
193.053574
 20
54.334383
 30
0.0
100
AcDbTable
342
4CC
343
21C
 11
1.0
 21
0.0
 31
0.0
 90
       22
 91
        5
 92
        5
 93
        0
 94
        0
 95
        0
 96
        0
141
6.0
141
6.0
141
10.0
141
5.0
141
13.0
142
10.0
142
10.0
142
10.0
142
40.0
142
20.0
171
     1
172
     0
173
     0
174
     0
175
     3
176
     4
 91
       32
178
     0
145
0.0
140
3.5
 92
        0
301
CELL_VALUE
 93
        2
 90
        4
  1
 
 94
        0
300

302
 
304
ACVALUE_END
171
     1
172
     0
173
     1
174
     0
175
     1
176
     1
 91
        0
178
     0
145
0.0
 92
        0
301
CELL_VALUE
 93
        3
 90
        0
 91
        0
 94
        0
300

302

304
ACVALUE_END
171
     1
172
     0
173
     1
174
     0
175
     1
176
     1
 91
        0
178
     0
145
0.0
 92
        0
301
CELL_VALUE
 93
        3
 90
        0
 91
        0
 94
        0
300

302

304
ACVALUE_END
171
     1
172
     0
173
     0
174
     0
175
     1
176
     1
 91
       33
178
     0
145
0.0
170
     4
140
3.0
 92
        0
301
CELL_VALUE
 93
        2
 90
        4
  1
A254_C_401
 94
        0
300

302
A254_C_401
304
ACVALUE_END
171
     1
172
     0
173
     0
174
     0
175
     1
176
     1
 91
       33
178
     0
145
0.0
170
     4
140
3.5
 92
        0
301
CELL_VALUE
 93
        2
 90
        4
  1
Rev:00
 94
        0
300

302
Rev:00
304
ACVALUE_END
171
     1
172
     0
173
     1
174
     0
175
     1
176
     1
 91
        0
178
     0
145
0.0
 92
        0
301
CELL_VALUE
 93
        3
 90
        0
 91
        0
 94
        0
300

302

304
ACVALUE_END
171
     1
172
     0
173
     1
174
     0
175
     1
176
     1
 91
        0
178
     0
145
0.0
 92
        0
301
CELL_VALUE
 93
        3
 90
        0
 91
        0
 94
        0
300

302

304
ACVALUE_END
171
     1
172
     0
173
     1
174
     0
175
     1
176
     1
 91
        0
178
     0
145
0.0
 92
        0
301
CELL_VALUE
 93
        3
 90
        0
 91
        0
 94
        0
300

302

304
ACVALUE_END
171
     1
172
     0
173
     0
174
     0
175
     1
176
     1
 91
       33
178
     0
145
0.0
170
     1
140
3.5
 92
        0
301
CELL_VALUE
 93
        2
 90
        4
  1
Scale:1:1
 94
        0
300

302
Scale:1:1
304
ACVALUE_END
171
     1
172
     0
173
     0
174
     0
175
     1
176
     1
 91
       33
178
     0
145
0.0
170
     4
140
3.5
 92
        0
301
CELL_VALUE
 93
        2
 90
        4
  1
A4
 94
        0
300

302
A4
304
ACVALUE_END
171
     1
172
     0
173
     1
174
     0
175
     1
176
     1
 91
        0
178
     0
145
0.0
 92
        0
301
CELL_VALUE
 93
        3
 90
        0
 91
        0
 94
        0
300

302

304
ACVALUE_END
171
     1
172
     0
173
     1
174
     0
175
     1
176
     1
 91
        0
178
     0
145
0.0
 92
        0
301
CELL_VALUE
 93
        3
 90
        0
 91
        0
 94
        0
300

302

304
ACVALUE_END
171
     1
172
     0
173
     1
174
     0
175
     1
176
     1
 91
        0
178
     0
145
0.0
 92
        0
301
CELL_VALUE
 93
        3
 90
        0
 91
        0
 94
        0
300

302

304
ACVALUE_END
171
     1
172
     0
173
     0
174
     0
175
     2
176
     1
 91
       33
178
     0
145
0.0
170
     4
140
3.5
 92
        0
301
CELL_VALUE
 93
        2
 90
        4
  1
REIKO 1.0
 94
        0
300

302
REIKO 1.0
304
ACVALUE_END
171
     1
172
     0
173
     1
174
     0
175
     1
176
     1
 91
        0
178
     0
145
0.0
 92
        0
301
CELL_VALUE
 93
        3
 90
        0
 91
        0
 94
        0
300

302

304
ACVALUE_END
171
     1
172
     0
173
     1
174
     0
175
     1
176
     1
 91
        0
178
     0
145
0.0
 92
        0
301
CELL_VALUE
 93
        3
 90
        0
 91
        0
 94
        0
300

302

304
ACVALUE_END
171
     1
172
     0
173
     1
174
     0
175
     1
176
     1
 91
        0
178
     0
145
0.0
 92
        0
301
CELL_VALUE
 93
        3
 90
        0
 91
        0
 94
        0
300

302

304
ACVALUE_END
171
     1
172
     0
173
     1
174
     0
175
     1
176
     1
 91
        0
178
     0
145
0.0
 92
        0
301
CELL_VALUE
 93
        3
 90
        0
 91
        0
 94
        0
300

302

304
ACVALUE_END
171
     1
172
     0
173
     0
174
     0
175
     2
176
     1
 91
       33
178
     0
145
0.0
170
     4
140
2.5
 92
        0
301
CELL_VALUE
 93
        2
 90
        4
  1
DATE:14.02.23
 94
        0
300

302
DATE:14.02.23
304
ACVALUE_END
171
     1
172
     0
173
     1
174
     0
175
     1
176
     1
 91
        0
178
     0
145
0.0
 92
        0
301
CELL_VALUE
 93
        3
 90
        0
 91
        0
 94
        0
300

302

304
ACVALUE_END
171
     1
172
     0
173
     0
174
     0
175
     5
176
     1
 91
       33
178
     0
145
0.0
170
     4
140
2.25
 92
        0
301
CELL_VALUE
 93
        2
 90
        4
  1
Any integral or partial reproductions are prohibited \Pwithout prior authorisation of L & L Luce & Light s.r.l., \Pin accordance with the law in force. \PAll rights reserved.
 94
        0
300

302
Any integral or partial reproductions are prohibited \Pwithout prior authorisation of L & L Luce & Light s.r.l., \Pin accordance with the law in force. \PAll rights reserved.
304
ACVALUE_END
171
     1
172
     0
173
     1
174
     0
175
     1
176
     1
 91
        0
178
     0
145
0.0
 92
        0
301
CELL_VALUE
 93
        3
 90
        0
 91
        0
 94
        0
300

302

304
ACVALUE_END
171
     1
172
     0
173
     1
174
     0
175
     1
176
     1
 91
        0
178
     0
145
0.0
 92
        0
301
CELL_VALUE
 93
        3
 90
        0
 91
        0
 94
        0
300

302

304
ACVALUE_END
171
     1
172
     0
173
     1
174
     0
175
     1
176
     1
 91
        0
178
     0
145
0.0
 92
        0
301
CELL_VALUE
 93
        3
 90
        0
 91
        0
 94
        0
300

302

304
ACVALUE_END
171
     1
172
     0
173
     1
174
     0
175
     1
176
     1
 91
        0
178
     0
145
0.0
 92
        0
301
CELL_VALUE
 93
        3
 90
        0
 91
        0
 94
        0
300

302

304
ACVALUE_END
  0
ENDSEC
  0
SECTION
  2
OBJECTS
  0
DICTIONARY
  5
C
330
0
100
AcDbDictionary
281
     1
  3
ACAD_DETAILVIEWSTYLE
350
503
  3
ACAD_GROUP
350
D
  3
ACAD_IMAGE_DICT
350
4F3
  3
ACAD_LAYOUT
350
1A
  3
ACAD_MATERIAL
350
4E7
  3
ACAD_MLEADERSTYLE
350
502
  3
ACAD_MLINESTYLE
350
17
  3
ACAD_PLOTSETTINGS
350
19
  3
ACAD_PLOTSTYLENAME
350
E
  3
ACAD_SCALELIST
350
4A9
  3
ACAD_SECTIONVIEWSTYLE
350
504
  3
ACAD_TABLESTYLE
350
4CB
  3
ACAD_VISUALSTYLE
350
4CE
  3
ACDB_RECOMPOSE_DATA
350
500
  3
AcDbVariableDictionary
350
4FC
  3
HOST_DOC_SETTINGS
350
4F1
  3
MCS_STREAM_DICT
350
4ED
  0
SUN
  5
4F0
330
1F4
100
AcDbSun
 90
        1
290
     0
 63
     7
421
 16777215
 40
1.0
291
     1
 91
  2455826
 92
 54000000
292
     0
 70
     2
 71
   256
280
     1
  0
DICTIONARY
  5
4FA
330
4A3
100
AcDbDictionary
280
     1
281
     1
  3
ACAD_XREC_ROUNDTRIP
360
4FB
  0
DICTIONARY
  5
503
102
{ACAD_REACTORS
330
C
102
}
330
C
100
AcDbDictionary
281
     1
  0
DICTIONARY
  5
D
102
{ACAD_REACTORS
330
C
102
}
330
C
100
AcDbDictionary
281
     1
  0
DICTIONARY
  5
4F3
102
{ACAD_REACTORS
330
C
102
}
330
C
100
AcDbDictionary
281
     1
  0
DICTIONARY
  5
1A
102
{ACAD_REACTORS
330
C
102
}
330
C
100
AcDbDictionary
281
     1
  3
Layout1
350
4A6
  3
Model
350
4A5
  0
DICTIONARY
  5
4E7
102
{ACAD_REACTORS
330
C
102
}
330
C
100
AcDbDictionary
281
     1
  3
ByBlock
350
4E9
  3
ByLayer
350
4E8
  3
Global
350
4EA
  0
DICTIONARY
  5
502
102
{ACAD_REACTORS
330
C
102
}
330
C
100
AcDbDictionary
281
     1
  0
DICTIONARY
  5
17
102
{ACAD_REACTORS
330
C
102
}
330
C
100
AcDbDictionary
281
     1
  3
Standard
350
18
  0
DICTIONARY
  5
19
102
{ACAD_REACTORS
330
C
102
}
330
C
100
AcDbDictionary
281
     1
  0
ACDBDICTIONARYWDFLT
  5
E
102
{ACAD_REACTORS
330
C
102
}
330
C
100
AcDbDictionary
281
     1
  3
Normal
350
F
100
AcDbDictionaryWithDefault
340
F
  0
DICTIONARY
  5
4A9
102
{ACAD_REACTORS
330
C
102
}
330
C
100
AcDbDictionary
281
     1
  3
A0
350
4AA
  3
A1
350
4AB
  3
A2
350
4AC
  3
A3
350
4AD
  3
A4
350
4AE
  3
A5
350
4AF
  3
A6
350
4B0
  3
A7
350
4B1
  3
A8
350
4B2
  3
A9
350
4B3
  3
B0
350
4B4
  3
B1
350
4B5
  3
B2
350
4B6
  3
B3
350
4B7
  3
B4
350
4B8
  3
B5
350
4B9
  3
B6
350
4BA
  3
B7
350
4BB
  3
B8
350
4BC
  3
B9
350
4BD
  3
C0
350
4BE
  3
C1
350
4BF
  3
C2
350
4C0
  3
C3
350
4C1
  3
C4
350
4C2
  3
C5
350
4C3
  3
C6
350
4C4
  3
C7
350
4C5
  3
C8
350
4C6
  3
C9
350
4C7
  3
D0
350
4C8
  3
D1
350
4C9
  3
D2
350
4CA
  0
DICTIONARY
  5
504
102
{ACAD_REACTORS
330
C
102
}
330
C
100
AcDbDictionary
281
     1
  0
DICTIONARY
  5
4CB
102
{ACAD_REACTORS
330
C
102
}
330
C
100
AcDbDictionary
281
     1
  3
Standard
350
4CC
  0
DICTIONARY
  5
4CE
102
{ACAD_REACTORS
330
C
102
}
330
C
100
AcDbDictionary
281
     1
  3
2dWireframe
350
4D3
  3
Basic
350
4D6
  3
Brighten
350
4DA
  3
ColorChange
350
4DE
  3
Conceptual
350
4D8
  3
Dim
350
4D9
  3
EdgeColorOff
350
4E1
  3
Facepattern
350
4DD
  3
Flat
350
4CF
  3
FlatWithEdges
350
4D0
  3
Gouraud
350
4D1
  3
GouraudWithEdges
350
4D2
  3
Hidden
350
4D5
  3
JitterOff
350
4DF
  3
Linepattern
350
4DC
  3
OverhangOff
350
4E0
  3
Realistic
350
4D7
  3
Shaded
350
4E6
  3
Shaded with edges
350
4E5
  3
Shades of Gray
350
4E2
  3
Sketchy
350
4E3
  3
Thicken
350
4DB
  3
Wireframe
350
4D4
  3
X-Ray
350
4E4
  0
XRECORD
  5
500
102
{ACAD_REACTORS
330
C
102
}
330
C
100
AcDbXrecord
280
     1
 90
        1
330
4A3
330
4CC
  0
DICTIONARY
  5
4FC
102
{ACAD_REACTORS
330
C
102
}
330
C
100
AcDbDictionary
281
     1
  3
CANNOSCALE
350
4FD
  3
CTABLESTYLE
350
501
  0
DICTIONARY
  5
4F1
102
{ACAD_REACTORS
330
C
102
}
330
C
100
AcDbDictionary
281
     1
  3
NCDocParameters
350
4F2
  0
DICTIONARY
  5
4ED
102
{ACAD_REACTORS
330
C
102
}
330
C
100
AcDbDictionary
281
     1
  3
MC_VERSION_DATA
350
4F6
  3
MCS_DOCUMENT_ID
350
4EE
  3
MCS_PARAMS_DATA
350
4F4
  0
XRECORD
  5
4FB
102
{ACAD_REACTORS
330
4FA
102
}
330
4FA
100
AcDbXrecord
280
     1
102
ACAD_ROUNDTRIP_2008_TABLE_ENTITY
360
4F8
 70
     2
 90
        1
 10
0.0
 20
0.0
 30
0.0
 90
        0
 90
        4
361
4F9
  0
LAYOUT
  5
4A6
102
{ACAD_REACTORS
330
1A
102
}
330
1A
100
AcDbPlotSettings
  1

  2
none_device
  4
ISO_A4_(297.00_x_210.00_MM)
  6

 40
0.0
 41
0.0
 42
0.0
 43
0.0
 44
297.0
 45
210.0
 46
0.0
 47
0.0
 48
0.0
 49
0.0
140
0.0
141
0.0
142
1.0
143
1.0
 70
     0
 72
     1
 73
     0
 74
     0
  7

 75
     0
 76
     0
 77
     2
 78
   300
147
1.0
148
0.0
149
0.0
100
AcDbLayout
  1
Layout1
 70
     0
 71
     1
 10
0.0
 20
0.0
 11
297.0
 21
210.0
 12
0.0
 22
0.0
 32
0.0
 14
0.0
 24
0.0
 34
0.0
 15
0.0
 25
0.0
 35
0.0
146
0.0
 13
0.0
 23
0.0
 33
0.0
 16
1.0
 26
0.0
 36
0.0
 17
0.0
 27
1.0
 37
0.0
 76
     0
330
214
  0
LAYOUT
  5
4A5
102
{ACAD_REACTORS
330
1A
102
}
330
1A
100
AcDbPlotSettings
  1

  2
none_device
  4
ISO_A4_(297.00_x_210.00_MM)
  6

 40
0.0
 41
0.0
 42
0.0
 43
0.0
 44
297.0
 45
210.0
 46
0.0
 47
0.0
 48
0.0
 49
0.0
140
0.0
141
0.0
142
1.0
143
1.0
 70
  1024
 72
     1
 73
     0
 74
     0
  7

 75
     0
 76
     0
 77
     2
 78
   300
147
1.0
148
0.0
149
0.0
100
AcDbLayout
  1
Model
 70
     0
 71
     0
 10
0.0
 20
0.0
 11
297.0
 21
210.0
 12
0.0
 22
0.0
 32
0.0
 14
0.0
 24
0.0
 34
0.0
 15
0.0
 25
0.0
 35
0.0
146
0.0
 13
0.0
 23
0.0
 33
0.0
 16
1.0
 26
0.0
 36
0.0
 17
0.0
 27
1.0
 37
0.0
 76
     0
330
213
331
1F4
  0
MATERIAL
  5
4E9
102
{ACAD_REACTORS
330
4E7
102
}
330
4E7
100
AcDbMaterial
  1
ByBlock
 72
     1
 94
      127
  0
MATERIAL
  5
4E8
102
{ACAD_REACTORS
330
4E7
102
}
330
4E7
100
AcDbMaterial
  1
ByLayer
 72
     1
 94
      127
  0
MATERIAL
  5
4EA
102
{ACAD_REACTORS
330
4E7
102
}
330
4E7
100
AcDbMaterial
  1
Global
 72
     1
 94
      127
  0
MLINESTYLE
  5
18
102
{ACAD_REACTORS
330
17
102
}
330
17
100
AcDbMlineStyle
  2
STANDARD
 70
     0
  3

 62
   256
 51
90.0
 52
90.0
 71
     2
 49
0.5
 62
   256
  6
BYLAYER
 49
-0.5
 62
   256
  6
BYLAYER
  0
ACDBPLACEHOLDER
  5
F
102
{ACAD_REACTORS
330
E
102
}
330
E
  0
SCALE
  5
4AA
102
{ACAD_REACTORS
330
4A9
102
}
330
4A9
100
AcDbScale
 70
     0
300
1:1
140
1.0
141
1.0
290
     1
  0
SCALE
  5
4AB
102
{ACAD_REACTORS
330
4A9
102
}
330
4A9
100
AcDbScale
 70
     0
300
1:2
140
1.0
141
2.0
290
     0
  0
SCALE
  5
4AC
102
{ACAD_REACTORS
330
4A9
102
}
330
4A9
100
AcDbScale
 70
     0
300
1:4
140
1.0
141
4.0
290
     0
  0
SCALE
  5
4AD
102
{ACAD_REACTORS
330
4A9
102
}
330
4A9
100
AcDbScale
 70
     0
300
1:5
140
1.0
141
5.0
290
     0
  0
SCALE
  5
4AE
102
{ACAD_REACTORS
330
4A9
102
}
330
4A9
100
AcDbScale
 70
     0
300
1:8
140
1.0
141
8.0
290
     0
  0
SCALE
  5
4AF
102
{ACAD_REACTORS
330
4A9
102
}
330
4A9
100
AcDbScale
 70
     0
300
1:10
140
1.0
141
10.0
290
     0
  0
SCALE
  5
4B0
102
{ACAD_REACTORS
330
4A9
102
}
330
4A9
100
AcDbScale
 70
     0
300
1:16
140
1.0
141
16.0
290
     0
  0
SCALE
  5
4B1
102
{ACAD_REACTORS
330
4A9
102
}
330
4A9
100
AcDbScale
 70
     0
300
1:20
140
1.0
141
20.0
290
     0
  0
SCALE
  5
4B2
102
{ACAD_REACTORS
330
4A9
102
}
330
4A9
100
AcDbScale
 70
     0
300
1:30
140
1.0
141
30.0
290
     0
  0
SCALE
  5
4B3
102
{ACAD_REACTORS
330
4A9
102
}
330
4A9
100
AcDbScale
 70
     0
300
1:40
140
1.0
141
40.0
290
     0
  0
SCALE
  5
4B4
102
{ACAD_REACTORS
330
4A9
102
}
330
4A9
100
AcDbScale
 70
     0
300
1:50
140
1.0
141
50.0
290
     0
  0
SCALE
  5
4B5
102
{ACAD_REACTORS
330
4A9
102
}
330
4A9
100
AcDbScale
 70
     0
300
1:100
140
1.0
141
100.0
290
     0
  0
SCALE
  5
4B6
102
{ACAD_REACTORS
330
4A9
102
}
330
4A9
100
AcDbScale
 70
     0
300
2:1
140
2.0
141
1.0
290
     0
  0
SCALE
  5
4B7
102
{ACAD_REACTORS
330
4A9
102
}
330
4A9
100
AcDbScale
 70
     0
300
4:1
140
4.0
141
1.0
290
     0
  0
SCALE
  5
4B8
102
{ACAD_REACTORS
330
4A9
102
}
330
4A9
100
AcDbScale
 70
     0
300
8:1
140
8.0
141
1.0
290
     0
  0
SCALE
  5
4B9
102
{ACAD_REACTORS
330
4A9
102
}
330
4A9
100
AcDbScale
 70
     0
300
10:1
140
10.0
141
1.0
290
     0
  0
SCALE
  5
4BA
102
{ACAD_REACTORS
330
4A9
102
}
330
4A9
100
AcDbScale
 70
     0
300
100:1
140
100.0
141
1.0
290
     0
  0
SCALE
  5
4BB
102
{ACAD_REACTORS
330
4A9
102
}
330
4A9
100
AcDbScale
 70
     0
300
1/128" = 1'-0"
140
0.007812
141
12.0
290
     0
  0
SCALE
  5
4BC
102
{ACAD_REACTORS
330
4A9
102
}
330
4A9
100
AcDbScale
 70
     0
300
1/64" = 1'-0"
140
0.015625
141
12.0
290
     0
  0
SCALE
  5
4BD
102
{ACAD_REACTORS
330
4A9
102
}
330
4A9
100
AcDbScale
 70
     0
300
1/32" = 1'-0"
140
0.03125
141
12.0
290
     0
  0
SCALE
  5
4BE
102
{ACAD_REACTORS
330
4A9
102
}
330
4A9
100
AcDbScale
 70
     0
300
1/16" = 1'-0"
140
0.0625
141
12.0
290
     0
  0
SCALE
  5
4BF
102
{ACAD_REACTORS
330
4A9
102
}
330
4A9
100
AcDbScale
 70
     0
300
3/32" = 1'-0"
140
0.09375
141
12.0
290
     0
  0
SCALE
  5
4C0
102
{ACAD_REACTORS
330
4A9
102
}
330
4A9
100
AcDbScale
 70
     0
300
1/8" = 1'-0"
140
0.125
141
12.0
290
     0
  0
SCALE
  5
4C1
102
{ACAD_REACTORS
330
4A9
102
}
330
4A9
100
AcDbScale
 70
     0
300
3/16" = 1'-0"
140
0.1875
141
12.0
290
     0
  0
SCALE
  5
4C2
102
{ACAD_REACTORS
330
4A9
102
}
330
4A9
100
AcDbScale
 70
     0
300
1/4" = 1'-0"
140
0.25
141
12.0
290
     0
  0
SCALE
  5
4C3
102
{ACAD_REACTORS
330
4A9
102
}
330
4A9
100
AcDbScale
 70
     0
300
3/8" = 1'-0"
140
0.375
141
12.0
290
     0
  0
SCALE
  5
4C4
102
{ACAD_REACTORS
330
4A9
102
}
330
4A9
100
AcDbScale
 70
     0
300
1/2" = 1'-0"
140
0.5
141
12.0
290
     0
  0
SCALE
  5
4C5
102
{ACAD_REACTORS
330
4A9
102
}
330
4A9
100
AcDbScale
 70
     0
300
3/4" = 1'-0"
140
0.75
141
12.0
290
     0
  0
SCALE
  5
4C6
102
{ACAD_REACTORS
330
4A9
102
}
330
4A9
100
AcDbScale
 70
     0
300
1" = 1'-0"
140
1.0
141
12.0
290
     0
  0
SCALE
  5
4C7
102
{ACAD_REACTORS
330
4A9
102
}
330
4A9
100
AcDbScale
 70
     0
300
1-1/2" = 1'-0"
140
1.5
141
12.0
290
     0
  0
SCALE
  5
4C8
102
{ACAD_REACTORS
330
4A9
102
}
330
4A9
100
AcDbScale
 70
     0
300
3" = 1'-0"
140
3.0
141
12.0
290
     0
  0
SCALE
  5
4C9
102
{ACAD_REACTORS
330
4A9
102
}
330
4A9
100
AcDbScale
 70
     0
300
6" = 1'-0"
140
6.0
141
12.0
290
     0
  0
SCALE
  5
4CA
102
{ACAD_REACTORS
330
4A9
102
}
330
4A9
100
AcDbScale
 70
     0
300
1'-0" = 1'-0"
140
12.0
141
12.0
290
     0
  0
TABLESTYLE
  5
4CC
102
{ACAD_REACTORS
330
4CB
102
}
102
{ACAD_XDICTIONARY
360
4FE
102
}
330
4CB
100
AcDbTableStyle
  3
Standard
 70
     0
 71
     0
 40
0.06
 41
0.06
280
     0
281
     0
  7
STANDARD
140
4.5
170
     2
 62
     0
 63
   257
283
     0
 90
        4
 91
        0
  1

274
    -2
284
     1
 64
     0
275
    -2
285
     1
 65
     0
276
    -2
286
     1
 66
     0
277
    -2
287
     1
 67
     0
278
    -2
288
     1
 68
     0
279
    -2
289
     1
 69
     0
  7
STANDARD
140
6.0
170
     5
 62
     0
 63
   257
283
     0
 90
        4
 91
        0
  1

274
    -2
284
     1
 64
     0
275
    -2
285
     1
 65
     0
276
    -2
286
     1
 66
     0
277
    -2
287
     1
 67
     0
278
    -2
288
     1
 68
     0
279
    -2
289
     1
 69
     0
  7
STANDARD
140
4.5
170
     5
 62
     0
 63
   257
283
     0
 90
        4
 91
        0
  1

274
    -2
284
     1
 64
     0
275
    -2
285
     1
 65
     0
276
    -2
286
     1
 66
     0
277
    -2
287
     1
 67
     0
278
    -2
288
     1
 68
     0
279
    -2
289
     1
 69
     0
  0
VISUALSTYLE
  5
4D3
102
{ACAD_REACTORS
330
4CE
102
}
330
4CE
100
AcDbVisualStyle
  2
2dWireframe
 70
     4
177
     3
291
     0
 70
    58
 90
        0
176
     1
 90
        2
176
     1
 90
        0
176
     1
 90
        0
176
     1
 40
0.6
176
     1
 40
30.0
176
     1
 62
     7
420
 16777215
176
     1
 90
        1
176
     1
 90
        4
176
     1
 62
     7
176
     1
 62
   257
176
     1
 90
        1
176
     1
 90
        1
176
     1
 40
1.0
176
     1
 90
        0
176
     1
 62
   257
176
     1
 40
1.0
176
     1
 90
        1
176
     1
 90
        6
176
     1
 90
        2
176
     1
 62
     7
176
     1
 90
        5
176
     1
 90
        0
176
     1
 90
        0
176
     1
290
     0
176
     1
 90
        1
176
     1
 40
0.0
176
     1
 90
        0
176
     1
290
     1
176
     1
290
     1
176
     1
290
     0
176
     1
290
     0
176
     1
290
     0
176
     1
290
     0
176
     1
290
     0
176
     1
290
     0
176
     1
290
     0
176
     1
 90
       50
176
     1
 40
0.0
176
     1
 40
1.0
176
     1
 90
        0
176
     1
 62
    18
420
        0
176
     1
 90
       50
176
     1
 90
        3
176
     1
 62
     5
420
      255
176
     1
290
     0
176
     1
 90
       50
176
     1
 90
       50
176
     1
 90
       50
176
     1
290
     0
176
     1
 90
       50
176
     1
 62
   256
176
     0
 40
1.0
176
     0
 90
        2
176
     1
  1
strokes_ogs.tif
176
     1
290
     0
176
     1
 40
1.0
176
     1
 40
1.0
176
     1
  0
VISUALSTYLE
  5
4D6
102
{ACAD_REACTORS
330
4CE
102
}
330
4CE
100
AcDbVisualStyle
  2
Basic
 70
     7
177
     3
291
     1
 70
    58
 90
        1
176
     1
 90
        0
176
     1
 90
        1
176
     1
 90
        0
176
     1
 40
0.6
176
     1
 40
30.0
176
     1
 62
     7
420
 16777215
176
     1
 90
        0
176
     1
 90
        4
176
     1
 62
     7
176
     1
 62
   257
176
     1
 90
        1
176
     1
 90
        1
176
     1
 40
1.0
176
     1
 90
        8
176
     1
 62
     7
176
     1
 40
1.0
176
     1
 90
        1
176
     1
 90
        6
176
     1
 90
        2
176
     1
 62
     7
176
     1
 90
        5
176
     1
 90
        0
176
     1
 90
        0
176
     1
290
     0
176
     1
 90
        1
176
     1
 40
0.0
176
     1
 90
        0
176
     1
290
     0
176
     1
290
     1
176
     1
290
     1
176
     1
290
     0
176
     1
290
     0
176
     1
290
     0
176
     1
290
     0
176
     1
290
     0
176
     1
290
     0
176
     1
 90
       50
176
     1
 40
0.0
176
     1
 40
1.0
176
     1
 90
        0
176
     1
 62
    18
420
        0
176
     1
 90
       50
176
     1
 90
        3
176
     1
 62
     5
420
      255
176
     1
290
     0
176
     1
 90
       50
176
     1
 90
       50
176
     1
 90
       50
176
     1
290
     0
176
     1
 90
       50
176
     1
 62
   256
176
     0
 40
1.0
176
     0
 90
        2
176
     1
  1
strokes_ogs.tif
176
     1
290
     0
176
     1
 40
1.0
176
     1
 40
1.0
176
     1
  0
VISUALSTYLE
  5
4DA
102
{ACAD_REACTORS
330
4CE
102
}
330
4CE
100
AcDbVisualStyle
  2
Brighten
 70
    12
177
     3
291
     1
 70
    58
 90
        2
176
     1
 90
        2
176
     1
 90
        0
176
     1
 90
        0
176
     1
 40
0.6
176
     1
 40
30.0
176
     1
 62
     7
420
 16777215
176
     1
 90
        1
176
     1
 90
        4
176
     1
 62
     7
176
     1
 62
   257
176
     1
 90
        1
176
     1
 90
        1
176
     1
 40
1.0
176
     1
 90
        8
176
     1
 62
     7
176
     1
 40
1.0
176
     1
 90
        1
176
     1
 90
        6
176
     1
 90
        2
176
     1
 62
     7
176
     1
 90
        5
176
     1
 90
        0
176
     1
 90
        0
176
     1
290
     0
176
     1
 90
        1
176
     1
 40
50.0
176
     1
 90
        0
176
     1
290
     0
176
     1
290
     1
176
     1
290
     1
176
     1
290
     0
176
     1
290
     0
176
     1
290
     0
176
     1
290
     0
176
     1
290
     0
176
     1
290
     0
176
     1
 90
       50
176
     1
 40
0.0
176
     1
 40
1.0
176
     1
 90
        0
176
     1
 62
    18
420
        0
176
     1
 90
       50
176
     1
 90
        3
176
     1
 62
     5
420
      255
176
     1
290
     0
176
     1
 90
       50
176
     1
 90
       50
176
     1
 90
       50
176
     1
290
     0
176
     1
 90
       50
176
     1
 62
   256
176
     0
 40
1.0
176
     0
 90
        2
176
     1
  1
strokes_ogs.tif
176
     1
290
     0
176
     1
 40
1.0
176
     1
 40
1.0
176
     1
  0
VISUALSTYLE
  5
4DE
102
{ACAD_REACTORS
330
4CE
102
}
330
4CE
100
AcDbVisualStyle
  2
ColorChange
 70
    16
177
     3
291
     1
 70
    58
 90
        2
176
     1
 90
        2
176
     1
 90
        3
176
     1
 90
        0
176
     1
 40
0.6
176
     1
 40
30.0
176
     1
 62
     8
420
  8421504
176
     1
 90
        1
176
     1
 90
        4
176
     1
 62
     7
176
     1
 62
   257
176
     1
 90
        1
176
     1
 90
        1
176
     1
 40
1.0
176
     1
 90
        8
176
     1
 62
     8
420
  8421504
176
     1
 40
1.0
176
     1
 90
        1
176
     1
 90
        6
176
     1
 90
        2
176
     1
 62
     7
176
     1
 90
        5
176
     1
 90
        0
176
     1
 90
        0
176
     1
290
     0
176
     1
 90
        1
176
     1
 40
0.0
176
     1
 90
        0
176
     1
290
     0
176
     1
290
     1
176
     1
290
     1
176
     1
290
     0
176
     1
290
     0
176
     1
290
     0
176
     1
290
     0
176
     1
290
     0
176
     1
290
     0
176
     1
 90
       50
176
     1
 40
0.0
176
     1
 40
1.0
176
     1
 90
        0
176
     1
 62
    18
420
        0
176
     1
 90
       50
176
     1
 90
        3
176
     1
 62
     5
420
      255
176
     1
290
     0
176
     1
 90
       50
176
     1
 90
       50
176
     1
 90
       50
176
     1
290
     0
176
     1
 90
       50
176
     1
 62
   256
176
     0
 40
1.0
176
     0
 90
        2
176
     1
  1
strokes_ogs.tif
176
     1
290
     0
176
     1
 40
1.0
176
     1
 40
1.0
176
     1
  0
VISUALSTYLE
  5
4D8
102
{ACAD_REACTORS
330
4CE
102
}
330
4CE
100
AcDbVisualStyle
  2
Conceptual
 70
     9
177
     3
291
     0
 70
    58
 90
        3
176
     1
 90
        2
176
     1
 90
        0
176
     1
 90
        0
176
     1
 40
0.6
176
     1
 40
30.0
176
     1
 62
     7
420
 16777215
176
     1
 90
        2
176
     1
 90
        2
176
     1
 62
     7
176
     1
 62
   257
176
     1
 90
        1
176
     1
 90
        1
176
     1
 40
179.0
176
     1
 90
        8
176
     1
 62
     7
176
     1
 40
1.0
176
     1
 90
        1
176
     1
 90
        6
176
     1
 90
        2
176
     1
 62
     7
176
     1
 90
        3
176
     1
 90
        0
176
     1
 90
        0
176
     1
290
     0
176
     1
 90
        1
176
     1
 40
0.0
176
     1
 90
        0
176
     1
290
     0
176
     1
290
     1
176
     1
290
     1
176
     1
290
     0
176
     1
290
     0
176
     1
290
     0
176
     1
290
     0
176
     1
290
     0
176
     1
290
     0
176
     1
 90
       50
176
     1
 40
0.0
176
     1
 40
1.0
176
     1
 90
        0
176
     1
 62
    18
420
        0
176
     1
 90
       50
176
     1
 90
        3
176
     1
 62
     5
420
      255
176
     1
290
     0
176
     1
 90
       50
176
     1
 90
       50
176
     1
 90
       50
176
     1
290
     0
176
     1
 90
       50
176
     1
 62
   256
176
     0
 40
1.0
176
     0
 90
        2
176
     1
  1
strokes_ogs.tif
176
     1
290
     0
176
     1
 40
1.0
176
     1
 40
1.0
176
     1
  0
VISUALSTYLE
  5
4D9
102
{ACAD_REACTORS
330
4CE
102
}
330
4CE
100
AcDbVisualStyle
  2
Dim
 70
    11
177
     3
291
     1
 70
    58
 90
        2
176
     1
 90
        2
176
     1
 90
        0
176
     1
 90
        0
176
     1
 40
0.6
176
     1
 40
30.0
176
     1
 62
     7
420
 16777215
176
     1
 90
        1
176
     1
 90
        4
176
     1
 62
     7
176
     1
 62
   257
176
     1
 90
        1
176
     1
 90
        1
176
     1
 40
1.0
176
     1
 90
        8
176
     1
 62
     7
176
     1
 40
1.0
176
     1
 90
        1
176
     1
 90
        6
176
     1
 90
        2
176
     1
 62
     7
176
     1
 90
        5
176
     1
 90
        0
176
     1
 90
        0
176
     1
290
     0
176
     1
 90
        1
176
     1
 40
-50.0
176
     1
 90
        0
176
     1
290
     0
176
     1
290
     1
176
     1
290
     1
176
     1
290
     0
176
     1
290
     0
176
     1
290
     0
176
     1
290
     0
176
     1
290
     0
176
     1
290
     0
176
     1
 90
       50
176
     1
 40
0.0
176
     1
 40
1.0
176
     1
 90
        0
176
     1
 62
    18
420
        0
176
     1
 90
       50
176
     1
 90
        3
176
     1
 62
     5
420
      255
176
     1
290
     0
176
     1
 90
       50
176
     1
 90
       50
176
     1
 90
       50
176
     1
290
     0
176
     1
 90
       50
176
     1
 62
   256
176
     0
 40
1.0
176
     0
 90
        2
176
     1
  1
strokes_ogs.tif
176
     1
290
     0
176
     1
 40
1.0
176
     1
 40
1.0
176
     1
  0
VISUALSTYLE
  5
4E1
102
{ACAD_REACTORS
330
4CE
102
}
330
4CE
100
AcDbVisualStyle
  2
EdgeColorOff
 70
    22
177
     3
291
     1
 70
    58
 90
        2
176
     0
 90
        2
176
     0
 90
        0
176
     0
 90
        0
176
     0
 40
0.6
176
     0
 40
30.0
176
     0
 62
     7
420
 16777215
176
     0
 90
        1
176
     0
 90
        4
176
     0
 62
     7
176
     0
 62
   257
176
     0
 90
        1
176
     0
 90
        1
176
     0
 40
1.0
176
     0
 90
        8
176
     2
 62
     7
176
     0
 40
1.0
176
     0
 90
        1
176
     0
 90
        6
176
     0
 90
        2
176
     0
 62
     7
176
     0
 90
        5
176
     0
 90
        0
176
     0
 90
        0
176
     0
290
     0
176
     0
 90
        1
176
     0
 40
0.0
176
     0
 90
        0
176
     0
290
     0
176
     0
290
     1
176
     0
290
     1
176
     0
290
     0
176
     0
290
     0
176
     0
290
     0
176
     0
290
     0
176
     0
290
     0
176
     0
290
     0
176
     0
 90
       50
176
     0
 40
0.0
176
     0
 40
1.0
176
     0
 90
        0
176
     0
 62
    18
420
        0
176
     0
 90
       50
176
     0
 90
        3
176
     0
 62
     5
420
      255
176
     0
290
     0
176
     0
 90
       50
176
     0
 90
       50
176
     0
 90
       50
176
     0
290
     0
176
     0
 90
       50
176
     0
 62
   256
176
     0
 40
1.0
176
     0
 90
        2
176
     0
  1
strokes_ogs.tif
176
     0
290
     0
176
     0
 40
1.0
176
     0
 40
1.0
176
     0
  0
VISUALSTYLE
  5
4DD
102
{ACAD_REACTORS
330
4CE
102
}
330
4CE
100
AcDbVisualStyle
  2
Facepattern
 70
    15
177
     3
291
     1
 70
    58
 90
        2
176
     1
 90
        2
176
     1
 90
        0
176
     1
 90
        0
176
     1
 40
0.6
176
     1
 40
30.0
176
     1
 62
     7
420
 16777215
176
     1
 90
        1
176
     1
 90
        4
176
     1
 62
     7
176
     1
 62
   257
176
     1
 90
        1
176
     1
 90
        1
176
     1
 40
1.0
176
     1
 90
        8
176
     1
 62
     7
176
     1
 40
1.0
176
     1
 90
        1
176
     1
 90
        6
176
     1
 90
        2
176
     1
 62
     7
176
     1
 90
        5
176
     1
 90
        0
176
     1
 90
        0
176
     1
290
     0
176
     1
 90
        1
176
     1
 40
0.0
176
     1
 90
        0
176
     1
290
     0
176
     1
290
     1
176
     1
290
     1
176
     1
290
     0
176
     1
290
     0
176
     1
290
     0
176
     1
290
     0
176
     1
290
     0
176
     1
290
     0
176
     1
 90
       50
176
     1
 40
0.0
176
     1
 40
1.0
176
     1
 90
        0
176
     1
 62
    18
420
        0
176
     1
 90
       50
176
     1
 90
        3
176
     1
 62
     5
420
      255
176
     1
290
     0
176
     1
 90
       50
176
     1
 90
       50
176
     1
 90
       50
176
     1
290
     0
176
     1
 90
       50
176
     1
 62
   256
176
     0
 40
1.0
176
     0
 90
        2
176
     1
  1
strokes_ogs.tif
176
     1
290
     0
176
     1
 40
1.0
176
     1
 40
1.0
176
     1
  0
VISUALSTYLE
  5
4CF
102
{ACAD_REACTORS
330
4CE
102
}
330
4CE
100
AcDbVisualStyle
  2
Flat
 70
     0
177
     3
291
     1
 70
    58
 90
        2
176
     1
 90
        1
176
     1
 90
        1
176
     1
 90
        2
176
     1
 40
0.6
176
     1
 40
30.0
176
     1
 62
     7
420
 16777215
176
     1
 90
        0
176
     1
 90
        0
176
     1
 62
     7
176
     1
 62
   257
176
     1
 90
        1
176
     1
 90
        1
176
     1
 40
1.0
176
     1
 90
        8
176
     1
 62
     7
176
     1
 40
1.0
176
     1
 90
        1
176
     1
 90
        6
176
     1
 90
        2
176
     1
 62
     7
176
     1
 90
        5
176
     1
 90
        0
176
     1
 90
        0
176
     1
290
     0
176
     1
 90
       13
176
     1
 40
0.0
176
     1
 90
        0
176
     1
290
     0
176
     1
290
     1
176
     1
290
     1
176
     1
290
     0
176
     1
290
     0
176
     1
290
     0
176
     1
290
     0
176
     1
290
     0
176
     1
290
     0
176
     1
 90
       50
176
     1
 40
0.0
176
     1
 40
1.0
176
     1
 90
        0
176
     1
 62
    18
420
        0
176
     1
 90
       50
176
     1
 90
        3
176
     1
 62
     5
420
      255
176
     1
290
     0
176
     1
 90
       50
176
     1
 90
       50
176
     1
 90
       50
176
     1
290
     0
176
     1
 90
       50
176
     1
 62
   256
176
     0
 40
1.0
176
     0
 90
        2
176
     1
  1
strokes_ogs.tif
176
     1
290
     0
176
     1
 40
1.0
176
     1
 40
1.0
176
     1
  0
VISUALSTYLE
  5
4D0
102
{ACAD_REACTORS
330
4CE
102
}
330
4CE
100
AcDbVisualStyle
  2
FlatWithEdges
 70
     1
177
     3
291
     1
 70
    58
 90
        2
176
     1
 90
        1
176
     1
 90
        1
176
     1
 90
        2
176
     1
 40
0.6
176
     1
 40
30.0
176
     1
 62
     7
420
 16777215
176
     1
 90
        1
176
     1
 90
        0
176
     1
 62
     7
176
     1
 62
   257
176
     1
 90
        1
176
     1
 90
        1
176
     1
 40
1.0
176
     1
 90
        0
176
     1
 62
   257
176
     1
 40
1.0
176
     1
 90
        1
176
     1
 90
        6
176
     1
 90
        2
176
     1
 62
     7
176
     1
 90
        5
176
     1
 90
        0
176
     1
 90
        0
176
     1
290
     0
176
     1
 90
       13
176
     1
 40
0.0
176
     1
 90
        0
176
     1
290
     0
176
     1
290
     1
176
     1
290
     1
176
     1
290
     0
176
     1
290
     0
176
     1
290
     0
176
     1
290
     0
176
     1
290
     0
176
     1
290
     0
176
     1
 90
       50
176
     1
 40
0.0
176
     1
 40
1.0
176
     1
 90
        0
176
     1
 62
    18
420
        0
176
     1
 90
       50
176
     1
 90
        3
176
     1
 62
     5
420
      255
176
     1
290
     0
176
     1
 90
       50
176
     1
 90
       50
176
     1
 90
       50
176
     1
290
     0
176
     1
 90
       50
176
     1
 62
   256
176
     0
 40
1.0
176
     0
 90
        2
176
     1
  1
strokes_ogs.tif
176
     1
290
     0
176
     1
 40
1.0
176
     1
 40
1.0
176
     1
  0
VISUALSTYLE
  5
4D1
102
{ACAD_REACTORS
330
4CE
102
}
330
4CE
100
AcDbVisualStyle
  2
Gouraud
 70
     2
177
     3
291
     1
 70
    58
 90
        2
176
     1
 90
        2
176
     1
 90
        1
176
     1
 90
        2
176
     1
 40
0.6
176
     1
 40
30.0
176
     1
 62
     7
420
 16777215
176
     1
 90
        0
176
     1
 90
        0
176
     1
 62
     7
176
     1
 62
   257
176
     1
 90
        1
176
     1
 90
        1
176
     1
 40
1.0
176
     1
 90
        0
176
     1
 62
     7
176
     1
 40
1.0
176
     1
 90
        1
176
     1
 90
        6
176
     1
 90
        2
176
     1
 62
     7
176
     1
 90
        5
176
     1
 90
        0
176
     1
 90
        0
176
     1
290
     0
176
     1
 90
       13
176
     1
 40
0.0
176
     1
 90
        0
176
     1
290
     0
176
     1
290
     1
176
     1
290
     1
176
     1
290
     0
176
     1
290
     0
176
     1
290
     0
176
     1
290
     0
176
     1
290
     0
176
     1
290
     0
176
     1
 90
       50
176
     1
 40
0.0
176
     1
 40
1.0
176
     1
 90
        0
176
     1
 62
    18
420
        0
176
     1
 90
       50
176
     1
 90
        3
176
     1
 62
     5
420
      255
176
     1
290
     0
176
     1
 90
       50
176
     1
 90
       50
176
     1
 90
       50
176
     1
290
     0
176
     1
 90
       50
176
     1
 62
   256
176
     0
 40
1.0
176
     0
 90
        2
176
     1
  1
strokes_ogs.tif
176
     1
290
     0
176
     1
 40
1.0
176
     1
 40
1.0
176
     1
  0
VISUALSTYLE
  5
4D2
102
{ACAD_REACTORS
330
4CE
102
}
330
4CE
100
AcDbVisualStyle
  2
GouraudWithEdges
 70
     3
177
     3
291
     1
 70
    58
 90
        2
176
     1
 90
        2
176
     1
 90
        1
176
     1
 90
        2
176
     1
 40
0.6
176
     1
 40
30.0
176
     1
 62
     7
420
 16777215
176
     1
 90
        1
176
     1
 90
        0
176
     1
 62
     7
176
     1
 62
   257
176
     1
 90
        1
176
     1
 90
        1
176
     1
 40
1.0
176
     1
 90
        0
176
     1
 62
   257
176
     1
 40
1.0
176
     1
 90
        1
176
     1
 90
        6
176
     1
 90
        2
176
     1
 62
     7
176
     1
 90
        5
176
     1
 90
        0
176
     1
 90
        0
176
     1
290
     0
176
     1
 90
       13
176
     1
 40
0.0
176
     1
 90
        0
176
     1
290
     0
176
     1
290
     1
176
     1
290
     1
176
     1
290
     0
176
     1
290
     0
176
     1
290
     0
176
     1
290
     0
176
     1
290
     0
176
     1
290
     0
176
     1
 90
       50
176
     1
 40
0.0
176
     1
 40
1.0
176
     1
 90
        0
176
     1
 62
    18
420
        0
176
     1
 90
       50
176
     1
 90
        3
176
     1
 62
     5
420
      255
176
     1
290
     0
176
     1
 90
       50
176
     1
 90
       50
176
     1
 90
       50
176
     1
290
     0
176
     1
 90
       50
176
     1
 62
   256
176
     0
 40
1.0
176
     0
 90
        2
176
     1
  1
strokes_ogs.tif
176
     1
290
     0
176
     1
 40
1.0
176
     1
 40
1.0
176
     1
  0
VISUALSTYLE
  5
4D5
102
{ACAD_REACTORS
330
4CE
102
}
330
4CE
100
AcDbVisualStyle
  2
Hidden
 70
     6
177
     3
291
     0
 70
    58
 90
        1
176
     1
 90
        2
176
     1
 90
        2
176
     1
 90
        0
176
     1
 40
0.6
176
     1
 40
30.0
176
     1
 62
     7
420
 16777215
176
     1
 90
        2
176
     1
 90
        2
176
     1
 62
     7
176
     1
 62
   257
176
     1
 90
        2
176
     1
 90
        1
176
     1
 40
40.0
176
     1
 90
        0
176
     1
 62
   257
176
     1
 40
1.0
176
     1
 90
        1
176
     1
 90
        6
176
     1
 90
        2
176
     1
 62
     7
176
     1
 90
        3
176
     1
 90
        0
176
     1
 90
        0
176
     1
290
     0
176
     1
 90
        1
176
     1
 40
0.0
176
     1
 90
        0
176
     1
290
     0
176
     1
290
     1
176
     1
290
     1
176
     1
290
     0
176
     1
290
     0
176
     1
290
     0
176
     1
290
     0
176
     1
290
     0
176
     1
290
     0
176
     1
 90
       50
176
     1
 40
0.0
176
     1
 40
1.0
176
     1
 90
        0
176
     1
 62
    18
420
        0
176
     1
 90
       50
176
     1
 90
        3
176
     1
 62
     5
420
      255
176
     1
290
     0
176
     1
 90
       50
176
     1
 90
       50
176
     1
 90
       50
176
     1
290
     0
176
     1
 90
       50
176
     1
 62
   256
176
     0
 40
1.0
176
     0
 90
        2
176
     1
  1
strokes_ogs.tif
176
     1
290
     0
176
     1
 40
1.0
176
     1
 40
1.0
176
     1
  0
VISUALSTYLE
  5
4DF
102
{ACAD_REACTORS
330
4CE
102
}
330
4CE
100
AcDbVisualStyle
  2
JitterOff
 70
    20
177
     3
291
     1
 70
    58
 90
        2
176
     0
 90
        2
176
     0
 90
        0
176
     0
 90
        0
176
     0
 40
0.6
176
     0
 40
30.0
176
     0
 62
     7
420
 16777215
176
     0
 90
        1
176
     0
 90
        4
176
     0
 62
     7
176
     0
 62
   257
176
     0
 90
        1
176
     0
 90
        1
176
     0
 40
1.0
176
     0
 90
       10
176
     2
 62
     7
176
     0
 40
1.0
176
     0
 90
        1
176
     0
 90
        6
176
     0
 90
        2
176
     0
 62
     7
176
     0
 90
        5
176
     0
 90
        0
176
     0
 90
        0
176
     0
290
     0
176
     0
 90
        1
176
     0
 40
0.0
176
     0
 90
        0
176
     0
290
     0
176
     0
290
     1
176
     0
290
     1
176
     0
290
     0
176
     0
290
     0
176
     0
290
     0
176
     0
290
     0
176
     0
290
     0
176
     0
290
     0
176
     0
 90
       50
176
     0
 40
0.0
176
     0
 40
1.0
176
     0
 90
        0
176
     0
 62
    18
420
        0
176
     0
 90
       50
176
     0
 90
        3
176
     0
 62
     5
420
      255
176
     0
290
     0
176
     0
 90
       50
176
     0
 90
       50
176
     0
 90
       50
176
     0
290
     0
176
     0
 90
       50
176
     0
 62
   256
176
     0
 40
1.0
176
     0
 90
        2
176
     0
  1
strokes_ogs.tif
176
     0
290
     0
176
     0
 40
1.0
176
     0
 40
1.0
176
     0
  0
VISUALSTYLE
  5
4DC
102
{ACAD_REACTORS
330
4CE
102
}
330
4CE
100
AcDbVisualStyle
  2
Linepattern
 70
    14
177
     3
291
     1
 70
    58
 90
        2
176
     1
 90
        2
176
     1
 90
        0
176
     1
 90
        0
176
     1
 40
0.6
176
     1
 40
30.0
176
     1
 62
     7
420
 16777215
176
     1
 90
        1
176
     1
 90
        4
176
     1
 62
     7
176
     1
 62
   257
176
     1
 90
        7
176
     1
 90
        7
176
     1
 40
1.0
176
     1
 90
        8
176
     1
 62
     7
176
     1
 40
1.0
176
     1
 90
        1
176
     1
 90
        6
176
     1
 90
        2
176
     1
 62
     7
176
     1
 90
        5
176
     1
 90
        0
176
     1
 90
        0
176
     1
290
     0
176
     1
 90
        1
176
     1
 40
0.0
176
     1
 90
        0
176
     1
290
     0
176
     1
290
     1
176
     1
290
     1
176
     1
290
     0
176
     1
290
     0
176
     1
290
     0
176
     1
290
     0
176
     1
290
     0
176
     1
290
     0
176
     1
 90
       50
176
     1
 40
0.0
176
     1
 40
1.0
176
     1
 90
        0
176
     1
 62
    18
420
        0
176
     1
 90
       50
176
     1
 90
        3
176
     1
 62
     5
420
      255
176
     1
290
     0
176
     1
 90
       50
176
     1
 90
       50
176
     1
 90
       50
176
     1
290
     0
176
     1
 90
       50
176
     1
 62
   256
176
     0
 40
1.0
176
     0
 90
        2
176
     1
  1
strokes_ogs.tif
176
     1
290
     0
176
     1
 40
1.0
176
     1
 40
1.0
176
     1
  0
VISUALSTYLE
  5
4E0
102
{ACAD_REACTORS
330
4CE
102
}
330
4CE
100
AcDbVisualStyle
  2
OverhangOff
 70
    21
177
     3
291
     1
 70
    58
 90
        2
176
     0
 90
        2
176
     0
 90
        0
176
     0
 90
        0
176
     0
 40
0.6
176
     0
 40
30.0
176
     0
 62
     7
420
 16777215
176
     0
 90
        1
176
     0
 90
        4
176
     0
 62
     7
176
     0
 62
   257
176
     0
 90
        1
176
     0
 90
        1
176
     0
 40
1.0
176
     0
 90
        9
176
     2
 62
     7
176
     0
 40
1.0
176
     0
 90
        1
176
     0
 90
        6
176
     0
 90
        2
176
     0
 62
     7
176
     0
 90
        5
176
     0
 90
        0
176
     0
 90
        0
176
     0
290
     0
176
     0
 90
        1
176
     0
 40
0.0
176
     0
 90
        0
176
     0
290
     0
176
     0
290
     1
176
     0
290
     1
176
     0
290
     0
176
     0
290
     0
176
     0
290
     0
176
     0
290
     0
176
     0
290
     0
176
     0
290
     0
176
     0
 90
       50
176
     0
 40
0.0
176
     0
 40
1.0
176
     0
 90
        0
176
     0
 62
    18
420
        0
176
     0
 90
       50
176
     0
 90
        3
176
     0
 62
     5
420
      255
176
     0
290
     0
176
     0
 90
       50
176
     0
 90
       50
176
     0
 90
       50
176
     0
290
     0
176
     0
 90
       50
176
     0
 62
   256
176
     0
 40
1.0
176
     0
 90
        2
176
     0
  1
strokes_ogs.tif
176
     0
290
     0
176
     0
 40
1.0
176
     0
 40
1.0
176
     0
  0
VISUALSTYLE
  5
4D7
102
{ACAD_REACTORS
330
4CE
102
}
330
4CE
100
AcDbVisualStyle
  2
Realistic
 70
     8
177
     3
291
     0
 70
    58
 90
        2
176
     1
 90
        3
176
     1
 90
        0
176
     1
 90
        2
176
     1
 40
0.6
176
     1
 40
30.0
176
     1
 62
     7
420
 16777215
176
     1
 90
        0
176
     1
 90
        0
176
     1
 62
     7
176
     1
 62
   257
176
     1
 90
        1
176
     1
 90
        1
176
     1
 40
1.0
176
     1
 90
        8
176
     1
 62
   257
176
     1
 40
1.0
176
     1
 90
        1
176
     1
 90
        6
176
     1
 90
        2
176
     1
 62
     7
176
     1
 90
        3
176
     1
 90
        0
176
     1
 90
        0
176
     1
290
     0
176
     1
 90
       13
176
     1
 40
0.0
176
     1
 90
        0
176
     1
290
     0
176
     1
290
     1
176
     1
290
     1
176
     1
290
     0
176
     1
290
     0
176
     1
290
     0
176
     1
290
     0
176
     1
290
     0
176
     1
290
     0
176
     1
 90
       50
176
     1
 40
0.0
176
     1
 40
1.0
176
     1
 90
        0
176
     1
 62
    18
420
        0
176
     1
 90
       50
176
     1
 90
        3
176
     1
 62
     5
420
      255
176
     1
290
     0
176
     1
 90
       50
176
     1
 90
       50
176
     1
 90
       50
176
     1
290
     0
176
     1
 90
       50
176
     1
 62
   256
176
     0
 40
1.0
176
     0
 90
        2
176
     1
  1
strokes_ogs.tif
176
     1
290
     0
176
     1
 40
1.0
176
     1
 40
1.0
176
     1
  0
VISUALSTYLE
  5
4E6
102
{ACAD_REACTORS
330
4CE
102
}
330
4CE
100
AcDbVisualStyle
  2
Shaded
 70
    27
177
     3
291
     0
 70
    58
 90
        2
176
     1
 90
        2
176
     1
 90
        1
176
     1
 90
        2
176
     1
 40
0.6
176
     1
 40
30.0
176
     1
 62
     7
420
 16777215
176
     1
 90
        0
176
     1
 90
        4
176
     1
 62
     7
176
     1
 62
   257
176
     1
 90
        1
176
     1
 90
        1
176
     1
 40
1.0
176
     1
 90
        8
176
     1
 62
   257
176
     1
 40
1.0
176
     1
 90
        1
176
     1
 90
        6
176
     1
 90
        2
176
     1
 62
     8
420
  7895160
176
     1
 90
        3
176
     1
 90
        0
176
     1
 90
        0
176
     1
290
     0
176
     1
 90
        5
176
     1
 40
0.0
176
     1
 90
        0
176
     1
290
     0
176
     1
290
     1
176
     1
290
     1
176
     1
290
     0
176
     1
290
     0
176
     1
290
     0
176
     1
290
     0
176
     1
290
     0
176
     1
290
     0
176
     1
 90
       50
176
     1
 40
0.0
176
     1
 40
1.0
176
     1
 90
        0
176
     1
 62
    18
420
        0
176
     1
 90
       50
176
     1
 90
        3
176
     1
 62
     5
420
      255
176
     1
290
     0
176
     1
 90
       50
176
     1
 90
       50
176
     1
 90
       50
176
     1
290
     0
176
     1
 90
       50
176
     1
 62
   256
176
     0
 40
1.0
176
     0
 90
        2
176
     1
  1
strokes_ogs.tif
176
     1
290
     0
176
     1
 40
1.0
176
     1
 40
1.0
176
     1
  0
VISUALSTYLE
  5
4E5
102
{ACAD_REACTORS
330
4CE
102
}
330
4CE
100
AcDbVisualStyle
  2
Shaded with edges
 70
    26
177
     3
291
     0
 70
    58
 90
        2
176
     1
 90
        2
176
     1
 90
        1
176
     1
 90
        2
176
     1
 40
0.6
176
     1
 40
30.0
176
     1
 62
     7
420
 16777215
176
     1
 90
        1
176
     1
 90
       10
176
     1
 62
     7
176
     1
 62
   257
176
     1
 90
        2
176
     1
 90
        1
176
     1
 40
1.0
176
     1
 90
        8
176
     1
 62
   257
176
     1
 40
1.0
176
     1
 90
        1
176
     1
 90
        6
176
     1
 90
        2
176
     1
 62
     7
176
     1
 90
        3
176
     1
 90
        0
176
     1
 90
        0
176
     1
290
     0
176
     1
 90
        5
176
     1
 40
0.0
176
     1
 90
        0
176
     1
290
     0
176
     1
290
     1
176
     1
290
     1
176
     1
290
     0
176
     1
290
     0
176
     1
290
     0
176
     1
290
     0
176
     1
290
     0
176
     1
290
     0
176
     1
 90
       50
176
     1
 40
0.0
176
     1
 40
1.0
176
     1
 90
        0
176
     1
 62
    18
420
        0
176
     1
 90
       50
176
     1
 90
        3
176
     1
 62
     5
420
      255
176
     1
290
     0
176
     1
 90
       50
176
     1
 90
       50
176
     1
 90
       50
176
     1
290
     0
176
     1
 90
       50
176
     1
 62
   256
176
     0
 40
1.0
176
     0
 90
        2
176
     1
  1
strokes_ogs.tif
176
     1
290
     0
176
     1
 40
1.0
176
     1
 40
1.0
176
     1
  0
VISUALSTYLE
  5
4E2
102
{ACAD_REACTORS
330
4CE
102
}
330
4CE
100
AcDbVisualStyle
  2
Shades of Gray
 70
    23
177
     3
291
     0
 70
    58
 90
        2
176
     1
 90
        2
176
     1
 90
        3
176
     1
 90
        0
176
     1
 40
0.6
176
     1
 40
30.0
176
     1
 62
     7
420
 16777215
176
     1
 90
        2
176
     1
 90
        2
176
     1
 62
     7
176
     1
 62
     7
176
     1
 90
        1
176
     1
 90
        1
176
     1
 40
40.0
176
     1
 90
        8
176
     1
 62
     7
176
     1
 40
1.0
176
     1
 90
        1
176
     1
 90
        6
176
     1
 90
        2
176
     1
 62
     7
176
     1
 90
        3
176
     1
 90
        0
176
     1
 90
        0
176
     1
290
     0
176
     1
 90
        1
176
     1
 40
0.0
176
     1
 90
        0
176
     1
290
     0
176
     1
290
     1
176
     1
290
     1
176
     1
290
     0
176
     1
290
     0
176
     1
290
     0
176
     1
290
     0
176
     1
290
     0
176
     1
290
     0
176
     1
 90
       50
176
     1
 40
0.0
176
     1
 40
1.0
176
     1
 90
        0
176
     1
 62
    18
420
        0
176
     1
 90
       50
176
     1
 90
        3
176
     1
 62
     5
420
      255
176
     1
290
     0
176
     1
 90
       50
176
     1
 90
       50
176
     1
 90
       50
176
     1
290
     0
176
     1
 90
       50
176
     1
 62
   256
176
     0
 40
1.0
176
     0
 90
        2
176
     1
  1
strokes_ogs.tif
176
     1
290
     0
176
     1
 40
1.0
176
     1
 40
1.0
176
     1
  0
VISUALSTYLE
  5
4E3
102
{ACAD_REACTORS
330
4CE
102
}
330
4CE
100
AcDbVisualStyle
  2
Sketchy
 70
    24
177
     3
291
     0
 70
    58
 90
        1
176
     1
 90
        2
176
     1
 90
        2
176
     1
 90
        0
176
     1
 40
0.6
176
     1
 40
30.0
176
     1
 62
     7
420
 16777215
176
     1
 90
        2
176
     1
 90
        2
176
     1
 62
     7
176
     1
 62
     7
176
     1
 90
        1
176
     1
 90
        1
176
     1
 40
40.0
176
     1
 90
       11
176
     1
 62
     7
176
     1
 40
1.0
176
     1
 90
        1
176
     1
 90
        6
176
     1
 90
        2
176
     1
 62
     7
176
     1
 90
        6
176
     1
 90
        0
176
     1
 90
        0
176
     1
290
     0
176
     1
 90
        1
176
     1
 40
0.0
176
     1
 90
        0
176
     1
290
     0
176
     1
290
     1
176
     1
290
     1
176
     1
290
     0
176
     1
290
     0
176
     1
290
     0
176
     1
290
     0
176
     1
290
     0
176
     1
290
     0
176
     1
 90
       50
176
     1
 40
0.0
176
     1
 40
1.0
176
     1
 90
        0
176
     1
 62
    18
420
        0
176
     1
 90
       50
176
     1
 90
        3
176
     1
 62
     5
420
      255
176
     1
290
     0
176
     1
 90
       50
176
     1
 90
       50
176
     1
 90
       50
176
     1
290
     0
176
     1
 90
       50
176
     1
 62
   256
176
     0
 40
1.0
176
     0
 90
        2
176
     1
  1
strokes_ogs.tif
176
     1
290
     0
176
     1
 40
1.0
176
     1
 40
1.0
176
     1
  0
VISUALSTYLE
  5
4DB
102
{ACAD_REACTORS
330
4CE
102
}
330
4CE
100
AcDbVisualStyle
  2
Thicken
 70
    13
177
     3
291
     1
 70
    58
 90
        2
176
     1
 90
        2
176
     1
 90
        0
176
     1
 90
        0
176
     1
 40
0.6
176
     1
 40
30.0
176
     1
 62
     7
420
 16777215
176
     1
 90
        1
176
     1
 90
        4
176
     1
 62
     7
176
     1
 62
   257
176
     1
 90
        1
176
     1
 90
        1
176
     1
 40
1.0
176
     1
 90
       12
176
     1
 62
     7
176
     1
 40
1.0
176
     1
 90
        1
176
     1
 90
        6
176
     1
 90
        2
176
     1
 62
     7
176
     1
 90
        5
176
     1
 90
        0
176
     1
 90
        0
176
     1
290
     0
176
     1
 90
        1
176
     1
 40
0.0
176
     1
 90
        0
176
     1
290
     0
176
     1
290
     1
176
     1
290
     1
176
     1
290
     0
176
     1
290
     0
176
     1
290
     0
176
     1
290
     0
176
     1
290
     0
176
     1
290
     0
176
     1
 90
       50
176
     1
 40
0.0
176
     1
 40
1.0
176
     1
 90
        0
176
     1
 62
    18
420
        0
176
     1
 90
       50
176
     1
 90
        3
176
     1
 62
     5
420
      255
176
     1
290
     0
176
     1
 90
       50
176
     1
 90
       50
176
     1
 90
       50
176
     1
290
     0
176
     1
 90
       50
176
     1
 62
   256
176
     0
 40
1.0
176
     0
 90
        2
176
     1
  1
strokes_ogs.tif
176
     1
290
     0
176
     1
 40
1.0
176
     1
 40
1.0
176
     1
  0
VISUALSTYLE
  5
4D4
102
{ACAD_REACTORS
330
4CE
102
}
330
4CE
100
AcDbVisualStyle
  2
Wireframe
 70
     5
177
     3
291
     0
 70
    58
 90
        0
176
     1
 90
        2
176
     1
 90
        0
176
     1
 90
        0
176
     1
 40
0.6
176
     1
 40
30.0
176
     1
 62
     7
420
 16777215
176
     1
 90
        1
176
     1
 90
        4
176
     1
 62
     7
176
     1
 62
   257
176
     1
 90
        1
176
     1
 90
        1
176
     1
 40
1.0
176
     1
 90
        0
176
     1
 62
   257
176
     1
 40
1.0
176
     1
 90
        1
176
     1
 90
        6
176
     1
 90
        2
176
     1
 62
     7
176
     1
 90
        3
176
     1
 90
        0
176
     1
 90
        0
176
     1
290
     0
176
     1
 90
        1
176
     1
 40
0.0
176
     1
 90
        0
176
     1
290
     0
176
     1
290
     1
176
     1
290
     1
176
     1
290
     0
176
     1
290
     0
176
     1
290
     0
176
     1
290
     0
176
     1
290
     0
176
     1
290
     0
176
     1
 90
       50
176
     1
 40
0.0
176
     1
 40
1.0
176
     1
 90
        0
176
     1
 62
    18
420
        0
176
     1
 90
       50
176
     1
 90
        3
176
     1
 62
     5
420
      255
176
     1
290
     0
176
     1
 90
       50
176
     1
 90
       50
176
     1
 90
       50
176
     1
290
     0
176
     1
 90
       50
176
     1
 62
   256
176
     0
 40
1.0
176
     0
 90
        2
176
     1
  1
strokes_ogs.tif
176
     1
290
     0
176
     1
 40
1.0
176
     1
 40
1.0
176
     1
  0
VISUALSTYLE
  5
4E4
102
{ACAD_REACTORS
330
4CE
102
}
330
4CE
100
AcDbVisualStyle
  2
X-Ray
 70
    25
177
     3
291
     0
 70
    58
 90
        2
176
     1
 90
        2
176
     1
 90
        1
176
     1
 90
        1
176
     1
 40
0.5
176
     1
 40
30.0
176
     1
 62
     7
420
 16777215
176
     1
 90
        1
176
     1
 90
        0
176
     1
 62
     7
176
     1
 62
   257
176
     1
 90
        1
176
     1
 90
        1
176
     1
 40
1.0
176
     1
 90
        8
176
     1
 62
     7
176
     1
 40
1.0
176
     1
 90
        1
176
     1
 90
        6
176
     1
 90
        2
176
     1
 62
     7
176
     1
 90
        3
176
     1
 90
        0
176
     1
 90
        0
176
     1
290
     0
176
     1
 90
       13
176
     1
 40
0.0
176
     1
 90
        0
176
     1
290
     0
176
     1
290
     1
176
     1
290
     1
176
     1
290
     0
176
     1
290
     0
176
     1
290
     0
176
     1
290
     0
176
     1
290
     0
176
     1
290
     0
176
     1
 90
       50
176
     1
 40
0.0
176
     1
 40
1.0
176
     1
 90
        0
176
     1
 62
    18
420
        0
176
     1
 90
       50
176
     1
 90
        3
176
     1
 62
     5
420
      255
176
     1
290
     0
176
     1
 90
       50
176
     1
 90
       50
176
     1
 90
       50
176
     1
290
     0
176
     1
 90
       50
176
     1
 62
   256
176
     0
 40
1.0
176
     0
 90
        2
176
     1
  1
strokes_ogs.tif
176
     1
290
     0
176
     1
 40
1.0
176
     1
 40
1.0
176
     1
  0
DICTIONARYVAR
  5
4FD
102
{ACAD_REACTORS
330
4FC
102
}
330
4FC
100
DictionaryVariables
280
     0
  1
1:1
  0
DICTIONARYVAR
  5
501
102
{ACAD_REACTORS
330
4FC
102
}
330
4FC
100
DictionaryVariables
280
     0
  1
Standard
  0
CSACDOCUMENTOPTIONS
  5
4F2
102
{ACAD_REACTORS
330
4F1
102
}
330
4F1
  0
XRECORD
  5
4F6
102
{ACAD_REACTORS
330
4ED
102
}
330
4ED
100
AcDbXrecord
280
     1
300
MC_VERSION_DATA
 90
       95
310
0600000002000000570000001C000000E404000000000000000000007801936764E5D8CF7A8393818115C460606066E0646662626666706006F214793899F8DE3171E725E6E53B3BBA2878E6951050AF75FEFFFFFF520032DE0F3057000000
  0
XRECORD
  5
4EE
102
{ACAD_REACTORS
330
4ED
102
}
330
4ED
100
AcDbXrecord
280
     1
300
MCS_DOCUMENT_ID
 90
       60
310
0600000002000000150000001C000000E404000000000000000000007801E3EDD7BD59F5BEA1C5733FEBB5AFDB1EF67BFD0702007D1F0D5415000000
  0
XRECORD
  5
4F4
102
{ACAD_REACTORS
330
4ED
102
}
330
4ED
100
AcDbXrecord
280
     1
300
MCS_PARAMS_DATA
 90
     3313
310
0600000002000000F64B00001C000000E404000000000000000000007801C55C5B905C45199EE99EBDCCE67E5DA218172C303B91307B4B8C459531245054850D55591F78B236BB49B9BAC9E6B22A082A9655BE5865596569A965F9209288CF16503EC8834088C10B092404211702988430422E9084CDAEFFD7A7FBF4DFA7CF
310
D9D99D9D39930798FF3F7DCEF7DFFAFBBBFBCC6CDBFC46297252EECB48F9CDF5ED5234493921A5206D76815820B252E4F3225F128D7D5F59BF69E3162948D9A2D485B3131313747328BF06593E960915079422437734AA3BDAA5CCD053F5ED4FD2557D257BAB94DF007A03479F859BB2B22193C9108EC1CDCADC0464C27506
310
28605703E48886E0B986E10F03BF91E33707F8E3140E7A9091C8268236920C1C662240B94888A1C8E07600AE99C32D5131CA8B3925D172EFE62D7D6D9DABBA8ADDD6F17CE16D13F0457AE8AC9268DE32DABF73B07FCFA013F9BF8491D7C17E2550D8E8FFCA8DFE4E98B3929B331718B291824FFF72EB941D9E8E2211D5A93C
310
784A44C557923911258BD0C8640531AEEC61A924855B11378280384364A422680C0A928DB9C10CD89D581114199665B722B26E4590C82B0222AB08FAA8A60626C028E0044F81BA246F5360E167F2D27C56A10E05C058C13C59DEC6207679103AFC5DEADF992F2B284F67B31C8EE359B64A9665A62453228F64269D98455E3B
310
A4B35817F7EC92C86FB8EFFE8DBD5BEEDBDCAB0CD3B5FC8E99065A7E55D536E39DE7826237F1C8BBBCB3CFADFC93302087C80397EE69C2FF69CA32234F0763E41851010DA578E8294D435524988818E84710A7B2643B4F7C034F6CE5C9368F203BE8094C6268541D70D35EE4B585DAE170F4942EB8D2D422560A9917F34B62
310
CE86919D9F1F6DDBB36DD770FFC0B6BC682E898607BEB5737424F8D83B323AF07529CFC0B69BB96D9FD3CFF9B410ED79B1A42416161FEA29AEEDEEEC5ADF532C76DEF3C5AEEEB5CAECF97A60330D2C1C3579EAD0DA7621F20269BD6768746FDBF0D0DE51F3B0EE356B3ABBD6F474F7740D76770EACED08FCFC92BEAF13F701
310
B5AF7FEBF0B6B691ED6D7D23C3DBF6F4EF840FDA9AD583C58E81E240FFEAADDD5BD70EAC0E669D2A25F27FB610851F9335859F059541B9E5971EC7A5A7E83F2CE53DB9A4040555A2661A4DDBF2C560B2E54E7D5483931EF871F7C88E5DFDA3435B878687461F6EDB313248FE3596847C70DBDEBC682809D13B22E56A5856E4
310
E9998738519B6E2A89DCE6EDDBDB542AF4E4380F8F61A4965F57116093E5A052A06AF588670205D9A715FB49B140D81A90855F902680EBB8B3A3187EEA96F2B224E392BAF898328CB1AD47DA34C1601A1B421AD816D190715CC3F276A5DE067C546F03AED6DB808FEB6DC0B57A1BB00853B49EB3E0937A47E07ABD0D188301
310
71CB797197D3603B1D06BFCB6DB024827C0C834324E60945463B3712E196397079076E990B47228783C8E09631B8F129C211385B3E540C97413DC70673C524DEAD70BD23917B079179B782793791AE77D944EFDCDC5529988B13E1069D6092C472A7F777A6F648E4C184C88239C8822913E16AE29D48176E29E0727C316496
310
EF2A967C95165E504B0C2B218EEE82DD5C63513CD614C5091F6D6FA7551865CC5C5030A1E0A3E84BEC86CFD04EC5DD01AA74CBDB05AB8C403295A124BB2908C4B032B4682A032283FB103E391B4E03172C7199C4E0F88E871E8855ADA1482D3238FA1846E0B807A77785BFF935FE1D74369F5647D0D171CA5F4F09337C2559
310
105132935A503D6DBC7A94B54D2B6DF1E0339960F436A97441791E5EC104D40283580888C4FDED577B1FD8B4B9AF6FE30605D8AAD7F1F34A62F6DD5BBEC62E92057A31FEA25A9DB3F5FBD3C1729D9CD723B0BF0DE8402BB05A67160DDE4416E59079C0D9EAA575B7321F67115FC018C76AB5B3A33D06B68CBD9BFBDC93C073
310
800CC384FD360C544F539B6F02B1820953BE9D01DE01C0D85A6C50369A5AC4065C7760793B965800321749E4B50891C0C2AB0CAE9808178444974C70F875952A9381563C01BE9D08EAFA481283ABD8C7EF7870DAABE068E68833DFAC8EA0A3E3F87C0B07AA507B2311F0889285BDC333294C4E2DB27C67BA70ABD2857B688A
310
70552AA7873DB8489E55063D5D2DCBE9BB9E49F1E554A5083C922EDCA3E9C27D2F5DB8EF7B705EE9D87E1E920E88313AAE6AECF4FBD668D3D30DB4E51ADA9BEDB0D7AFCEB4DDED85F7C4ECF6551B3BCE2AFF6E835E49458EC94883D6E73C45753FAE614C3C0A0362777435D915EC025C33F7578776011DE6F3D066954C59D6
310
D76F86AC9CD58A53F4122CF0552BAE070AEA3B5AF15752304F1F47569D50AB71F41A31FA5A51C904CD43C6B0F51D2ACEFC112ACC4CC1B0FF086CE7AD5A4D096A005126387AAD451EE384D9C035A925859E39C1AA865EE9A9B8DA21CEE289167F7CF1D4C4BC7A125EC5AED5D8BB0B5A9D9144D134CFA71BF85A8D44BE568348
310
F6AA55A2F3CAEA4F6982FD21118CC249D3CBF852A586F244BA70FBD285DB9F085793EDE56E143F0AD06C6B4CB2242BDD3DD1419166C2865E81F9CE1648F3CBD84597B22E28992A3DDCE24C77F3F311A01C8A722828EC3CF15F7D987933F818F8E59BC138E5CD4CE8AC24C94E68BA32F5C3CBAB808B6B06B9936E642F9F804C
310
903AF2F3709D37832318A078E4B37AEBDCFAA66859945B9EBB25776BAE2DD3995995E9CA1433DDFA4DAC7ECE6FE93696E96BB06712968ED2661884A9EE40230F60D0D73DE8C858453B9E8E4212D5A9B0784A762662599FEDD18C9299F4094C728A91F536658E91CDA6DFC8E89F363B15B4CB31404FD2581CF722BBF229B517
310
430944E56AB2E2A8E3461950730F2B7ECA7BC570E389706E8BA9D241C744225C40C29385944F707279EA277D998065D9EAD604B1263E66D38513E9C2490F4EE7CC6E8AA89C3D9DA588701CA708AB6414C194931EE3FC0D4515D71A4FBFE712F8CB4A26532A6E8DCF01CA61A3745BE3F3C09F6E6B442F0CD7BAD36A8D2F002E
310
AE359E3BE646F6B8926D6BBC0CD9926FBEF08C5220B9BAE91D0E14769FF44B52301E3C00E8FA74C117BD24F396E22C7F1005F2DA2902EB76053DE720B0D3EE397F2F036AE8B24A3DE750225C4DF8F8A544B81AF69C7F2482D6C4C77F067093EF36FE359541FF8E0E8A50399BA22F63681CEF0EBDEBB2C3834A9E09EF1E0654
310
1D79F708F0A7CBBB956F495E015C1CEFEE3EEC46B65FC996771F856C09285F58A7148C77872F6104D6DC9A8897D30896D457015D1FDE3DEA25B91CEFF2EBD6EB0A68F718A0D3A6DDD7CA805699768F27C2D584925E4F84AB9476A39B03E744D09CD6610FF59F44E89A78FA46BA70DDDE0ADC144A4DBCEBF1E0221D416DC23D
310
1D715254A766A8A7AC60C1FF26021ED7783E889CD89C52F24C1ACF0940D5B1F19C047E7A8DE714E0E21ACFD5436EE339AB64DB78E44B91C6730003ECCB897CE1D28548E3798246B0C6731AD0536D3CB3E90740046E0B5FD5161351555C247A084506FA9607AAEBD39C44F1E2B63A5BDCA18E17B755B2E2664A322602C34C3A
310
0393625B51C09BC60D77315EF1E1C8DB80730A9C37D5B8CD0EBF3EA3A6FB4EA2A7C18B1B2746D53A5F7BB70C687C78291FE10E3A386EE3054657F9CB297E9CF703B0E71DFC4DA3397B4068C3CF33A1A81F02C2C920DB8E7ABF712005813923946BAE06DE453454B45CC32AF6311810C751E3F85A979E7874424F9299B34AB2
310
210DC430A45A3473162283FB2F3218C7FE178FBB1CF59692CDAD957C0DECAC3739580882F7E26636C4FC0874E66F42CE013F2EB274A4C323CBB88082C5B980AE4CFD4DC879C0C5B1FFF5E7DDC89E57324556799F2F34BC006EC70CD18A8318C0D9FF0AB6807CDBB19F46B0A4BE07E8B4D9FF8207EA504E3D7E65FA3E4C7226
310
B329B0E8D703AAFEBAA304E869379E693123CD68457958A4FF2F11AE86ECFF4119D078F6E7138AD87FF2370F86D6E1E38789702D76FED2134932CCA824CB8C811832A3160D33426421BD980847AF6F0C11D33DEECB1CFE9B7175D1F926045DE5BD8DBFBDBE94081764D0049324E6DDB40A8607F372225C4D16463974B5B836
310
F393232E193EA2E499B49986C93A780A6DA631A981D7A6CD34012EAECDFCFC5937B23F52B26D33BF83CCDBCC56A5C0ECD07DE7A7A7226D661D8D6033A419D0536D33E07F56B8C4CA7C0D48229F9610695A461A0883CE7B494E8DD95B004DF38E8247AB09FE45AC1A52EDAC32A0861DD8DA85D8A76276989D08579353913989
310
700119397510D9BB4CAB9DF096393711B4263ECE4B176E7EBA700B3C389DB3F0B5335AA6A7234288EA142D784A9083AFB414616018456CF24C3293C4CD2F49D3E5A5F0410CEE7E0F2E6A6FEA11580893E29AEE529C2FC11C4DF48D4AA628982DB44A422820F8563073C8F989CF2240392BED74F7768B819FDEDE6E09E0E29A
310
EE72FA030B3CB273954C91D5916E87CC9BEEFB4FAB1E6B73B10CFB6CBEB73B4423589D2D05F4CC9AAE2E4C768646F0614DBB4BD40606DDEA2539B5A67B13A0D36EBACBCA809A9055A7E9E24B8E0D79912B896C91FE0C1655C17843E129FA335B3277F4E8510807513CB9CC44868E210AF7FE19028691B0917E39482B125CF8
310
D4FF01F0B312DAF64B0000
  0
TABLECONTENT
  5
4F8
330
4FB
100
AcDbLinkedData
  1

300

100
AcDbLinkedTableData
 90
        5
300
COLUMN
  1
LINKEDTABLEDATACOLUMN_BEGIN
300

 91
        0
301
CUSTOMDATA
  1
DATAMAP_BEGIN
 90
        0
309
DATAMAP_END
309
LINKEDTABLEDATACOLUMN_END
  1
FORMATTEDTABLEDATACOLUMN_BEGIN
300
COLUMNTABLEFORMAT
  1
TABLEFORMAT_BEGIN
 90
        3
170
     0
309
TABLEFORMAT_END
309
FORMATTEDTABLEDATACOLUMN_END
  1
TABLECOLUMN_BEGIN
 90
        0
 40
10.0
309
TABLECOLUMN_END
300
COLUMN
  1
LINKEDTABLEDATACOLUMN_BEGIN
300

 91
        0
301
CUSTOMDATA
  1
DATAMAP_BEGIN
 90
        0
309
DATAMAP_END
309
LINKEDTABLEDATACOLUMN_END
  1
FORMATTEDTABLEDATACOLUMN_BEGIN
300
COLUMNTABLEFORMAT
  1
TABLEFORMAT_BEGIN
 90
        3
170
     0
309
TABLEFORMAT_END
309
FORMATTEDTABLEDATACOLUMN_END
  1
TABLECOLUMN_BEGIN
 90
        0
 40
10.0
309
TABLECOLUMN_END
300
COLUMN
  1
LINKEDTABLEDATACOLUMN_BEGIN
300

 91
        0
301
CUSTOMDATA
  1
DATAMAP_BEGIN
 90
        0
309
DATAMAP_END
309
LINKEDTABLEDATACOLUMN_END
  1
FORMATTEDTABLEDATACOLUMN_BEGIN
300
COLUMNTABLEFORMAT
  1
TABLEFORMAT_BEGIN
 90
        3
170
     0
309
TABLEFORMAT_END
309
FORMATTEDTABLEDATACOLUMN_END
  1
TABLECOLUMN_BEGIN
 90
        0
 40
10.0
309
TABLECOLUMN_END
300
COLUMN
  1
LINKEDTABLEDATACOLUMN_BEGIN
300

 91
        0
301
CUSTOMDATA
  1
DATAMAP_BEGIN
 90
        0
309
DATAMAP_END
309
LINKEDTABLEDATACOLUMN_END
  1
FORMATTEDTABLEDATACOLUMN_BEGIN
300
COLUMNTABLEFORMAT
  1
TABLEFORMAT_BEGIN
 90
        3
170
     0
309
TABLEFORMAT_END
309
FORMATTEDTABLEDATACOLUMN_END
  1
TABLECOLUMN_BEGIN
 90
        0
 40
40.0
309
TABLECOLUMN_END
300
COLUMN
  1
LINKEDTABLEDATACOLUMN_BEGIN
300

 91
        0
301
CUSTOMDATA
  1
DATAMAP_BEGIN
 90
        0
309
DATAMAP_END
309
LINKEDTABLEDATACOLUMN_END
  1
FORMATTEDTABLEDATACOLUMN_BEGIN
300
COLUMNTABLEFORMAT
  1
TABLEFORMAT_BEGIN
 90
        3
170
     0
309
TABLEFORMAT_END
309
FORMATTEDTABLEDATACOLUMN_END
  1
TABLECOLUMN_BEGIN
 90
        0
 40
20.0
309
TABLECOLUMN_END
 91
        5
301
ROW
  1
LINKEDTABLEDATAROW_BEGIN
 90
        5
300
CELL
  1
LINKEDTABLEDATACELL_BEGIN
 90
        0
300

 91
        0
301
CUSTOMDATA
  1
DATAMAP_BEGIN
 90
        1
300
ACAD_ROUNDTRIP_2008_CELL_CHECKSUM
301
DATAMAP_VALUE
 93
        2
 90
        2
140
32.0
 94
        0
300

302

304
ACVALUE_END
309
DATAMAP_END
 92
        0
 95
        1
302
CONTENT
  1
CELLCONTENT_BEGIN
 90
        1
300
VALUE
 93
        2
 90
        4
  1
 
 94
        0
300

302
 
304
ACVALUE_END
 91
        0
309
CELLCONTENT_END
  1
FORMATTEDCELLCONTENT_BEGIN
170
     1
300
CONTENTFORMAT
  1
CONTENTFORMAT_BEGIN
 90
      132
 91
        0
 92
      512
 93
        0
300

 40
0.0
140
1.0
 94
        1
 62
     0
340
0
144
3.5
309
CONTENTFORMAT_END
309
FORMATTEDCELLCONTENT_END
309
LINKEDTABLEDATACELL_END
  1
FORMATTEDTABLEDATACELL_BEGIN
300
CELLTABLEFORMAT
  1
TABLEFORMAT_BEGIN
 90
        1
170
     1
 91
        0
 92
        0
 62
   257
 93
        1
300
CONTENTFORMAT
  1
CONTENTFORMAT_BEGIN
 90
        0
 91
        0
 92
      512
 93
        0
300

 40
0.0
140
1.0
 94
        1
 62
     0
340
0
144
0.18
309
CONTENTFORMAT_END
171
     0
 94
        0
309
TABLEFORMAT_END
309
FORMATTEDTABLEDATACELL_END
  1
TABLECELL_BEGIN
 90
        0
 91
        0
309
TABLECELL_END
300
CELL
  1
LINKEDTABLEDATACELL_BEGIN
 90
        0
300

 91
        0
301
CUSTOMDATA
  1
DATAMAP_BEGIN
 90
        0
309
DATAMAP_END
 92
        0
 95
        0
309
LINKEDTABLEDATACELL_END
  1
FORMATTEDTABLEDATACELL_BEGIN
300
CELLTABLEFORMAT
  1
TABLEFORMAT_BEGIN
 90
        1
170
     1
 91
        0
 92
        0
 62
   257
 93
        1
300
CONTENTFORMAT
  1
CONTENTFORMAT_BEGIN
 90
        0
 91
        0
 92
      512
 93
        0
300

 40
0.0
140
1.0
 94
        1
 62
     0
340
0
144
0.18
309
CONTENTFORMAT_END
171
     0
 94
        0
309
TABLEFORMAT_END
309
FORMATTEDTABLEDATACELL_END
  1
TABLECELL_BEGIN
 90
        0
 91
        0
309
TABLECELL_END
300
CELL
  1
LINKEDTABLEDATACELL_BEGIN
 90
        0
300

 91
        0
301
CUSTOMDATA
  1
DATAMAP_BEGIN
 90
        0
309
DATAMAP_END
 92
        0
 95
        0
309
LINKEDTABLEDATACELL_END
  1
FORMATTEDTABLEDATACELL_BEGIN
300
CELLTABLEFORMAT
  1
TABLEFORMAT_BEGIN
 90
        1
170
     1
 91
        0
 92
        0
 62
   257
 93
        1
300
CONTENTFORMAT
  1
CONTENTFORMAT_BEGIN
 90
        0
 91
        0
 92
      512
 93
        0
300

 40
0.0
140
1.0
 94
        1
 62
     0
340
0
144
0.18
309
CONTENTFORMAT_END
171
     0
 94
        0
309
TABLEFORMAT_END
309
FORMATTEDTABLEDATACELL_END
  1
TABLECELL_BEGIN
 90
        0
 91
        0
309
TABLECELL_END
300
CELL
  1
LINKEDTABLEDATACELL_BEGIN
 90
        0
300

 91
        0
301
CUSTOMDATA
  1
DATAMAP_BEGIN
 90
        1
300
ACAD_ROUNDTRIP_2008_CELL_CHECKSUM
301
DATAMAP_VALUE
 93
        2
 90
        2
140
3412.0
 94
        0
300

302

304
ACVALUE_END
309
DATAMAP_END
 92
        0
 95
        1
302
CONTENT
  1
CELLCONTENT_BEGIN
 90
        1
300
VALUE
 93
        2
 90
        4
  1
A254_C_401
 94
        0
300

302
A254_C_401
304
ACVALUE_END
 91
        0
309
CELLCONTENT_END
  1
FORMATTEDCELLCONTENT_BEGIN
170
     1
300
CONTENTFORMAT
  1
CONTENTFORMAT_BEGIN
 90
      132
 91
        0
 92
      512
 93
        0
300

 40
0.0
140
1.0
 94
        1
 62
     0
340
0
144
3.0
309
CONTENTFORMAT_END
309
FORMATTEDCELLCONTENT_END
309
LINKEDTABLEDATACELL_END
  1
FORMATTEDTABLEDATACELL_BEGIN
300
CELLTABLEFORMAT
  1
TABLEFORMAT_BEGIN
 90
        1
170
     1
 91
       16
 92
        0
 62
   257
 93
        1
300
CONTENTFORMAT
  1
CONTENTFORMAT_BEGIN
 90
       16
 91
        0
 92
      512
 93
        0
300

 40
0.0
140
1.0
 94
        4
 62
     0
340
0
144
0.18
309
CONTENTFORMAT_END
171
     0
 94
        4
 95
        1
302
GRIDFORMAT
  1
GRIDFORMAT_BEGIN
 90
       26
 91
        1
 62
     0
 92
       -2
340
0
 93
        0
 40
0.045
309
GRIDFORMAT_END
 95
        4
302
GRIDFORMAT
  1
GRIDFORMAT_BEGIN
 90
       26
 91
        1
 62
     0
 92
       -2
340
0
 93
        0
 40
0.045
309
GRIDFORMAT_END
 95
        8
302
GRIDFORMAT
  1
GRIDFORMAT_BEGIN
 90
       26
 91
        1
 62
     0
 92
       -2
340
0
 93
        0
 40
0.045
309
GRIDFORMAT_END
 95
       32
302
GRIDFORMAT
  1
GRIDFORMAT_BEGIN
 90
       26
 91
        1
 62
     0
 92
       -2
340
0
 93
        0
 40
0.045
309
GRIDFORMAT_END
309
TABLEFORMAT_END
309
FORMATTEDTABLEDATACELL_END
  1
TABLECELL_BEGIN
 90
        0
 91
        0
309
TABLECELL_END
300
CELL
  1
LINKEDTABLEDATACELL_BEGIN
 90
        0
300

 91
        0
301
CUSTOMDATA
  1
DATAMAP_BEGIN
 90
        1
300
ACAD_ROUNDTRIP_2008_CELL_CHECKSUM
301
DATAMAP_VALUE
 93
        2
 90
        2
140
1398.0
 94
        0
300

302

304
ACVALUE_END
309
DATAMAP_END
 92
        0
 95
        1
302
CONTENT
  1
CELLCONTENT_BEGIN
 90
        1
300
VALUE
 93
        2
 90
        4
  1
Rev:00
 94
        0
300

302
Rev:00
304
ACVALUE_END
 91
        0
309
CELLCONTENT_END
  1
FORMATTEDCELLCONTENT_BEGIN
170
     1
300
CONTENTFORMAT
  1
CONTENTFORMAT_BEGIN
 90
      132
 91
        0
 92
      512
 93
        0
300

 40
0.0
140
1.0
 94
        1
 62
     0
340
0
144
3.5
309
CONTENTFORMAT_END
309
FORMATTEDCELLCONTENT_END
309
LINKEDTABLEDATACELL_END
  1
FORMATTEDTABLEDATACELL_BEGIN
300
CELLTABLEFORMAT
  1
TABLEFORMAT_BEGIN
 90
        1
170
     1
 91
       16
 92
        0
 62
   257
 93
        1
300
CONTENTFORMAT
  1
CONTENTFORMAT_BEGIN
 90
       16
 91
        0
 92
      512
 93
        0
300

 40
0.0
140
1.0
 94
        4
 62
     0
340
0
144
0.18
309
CONTENTFORMAT_END
171
     0
 94
        4
 95
        1
302
GRIDFORMAT
  1
GRIDFORMAT_BEGIN
 90
       26
 91
        1
 62
     0
 92
       -2
340
0
 93
        0
 40
0.045
309
GRIDFORMAT_END
 95
        4
302
GRIDFORMAT
  1
GRIDFORMAT_BEGIN
 90
       26
 91
        1
 62
     0
 92
       -2
340
0
 93
        0
 40
0.045
309
GRIDFORMAT_END
 95
        8
302
GRIDFORMAT
  1
GRIDFORMAT_BEGIN
 90
       26
 91
        1
 62
     0
 92
       -2
340
0
 93
        0
 40
0.045
309
GRIDFORMAT_END
 95
       32
302
GRIDFORMAT
  1
GRIDFORMAT_BEGIN
 90
       26
 91
        1
 62
     0
 92
       -2
340
0
 93
        0
 40
0.045
309
GRIDFORMAT_END
309
TABLEFORMAT_END
309
FORMATTEDTABLEDATACELL_END
  1
TABLECELL_BEGIN
 90
        0
 91
        0
309
TABLECELL_END
 91
        0
301
CUSTOMDATA
  1
DATAMAP_BEGIN
 90
        0
309
DATAMAP_END
309
LINKEDTABLEDATAROW_END
  1
FORMATTEDTABLEDATAROW_BEGIN
300
ROWTABLEFORMAT
  1
TABLEFORMAT_BEGIN
 90
        2
170
     0
309
TABLEFORMAT_END
309
FORMATTEDTABLEDATAROW_END
  1
TABLEROW_BEGIN
 90
        1
 40
6.0
309
TABLEROW_END
301
ROW
  1
LINKEDTABLEDATAROW_BEGIN
 90
        5
300
CELL
  1
LINKEDTABLEDATACELL_BEGIN
 90
        0
300

 91
        0
301
CUSTOMDATA
  1
DATAMAP_BEGIN
 90
        0
309
DATAMAP_END
 92
        0
 95
        0
309
LINKEDTABLEDATACELL_END
  1
FORMATTEDTABLEDATACELL_BEGIN
300
CELLTABLEFORMAT
  1
TABLEFORMAT_BEGIN
 90
        1
170
     1
 91
        0
 92
        0
 62
   257
 93
        1
300
CONTENTFORMAT
  1
CONTENTFORMAT_BEGIN
 90
        0
 91
        0
 92
      512
 93
        0
300

 40
0.0
140
1.0
 94
        1
 62
     0
340
0
144
0.18
309
CONTENTFORMAT_END
171
     0
 94
        0
309
TABLEFORMAT_END
309
FORMATTEDTABLEDATACELL_END
  1
TABLECELL_BEGIN
 90
        0
 91
        0
309
TABLECELL_END
300
CELL
  1
LINKEDTABLEDATACELL_BEGIN
 90
        0
300

 91
        0
301
CUSTOMDATA
  1
DATAMAP_BEGIN
 90
        0
309
DATAMAP_END
 92
        0
 95
        0
309
LINKEDTABLEDATACELL_END
  1
FORMATTEDTABLEDATACELL_BEGIN
300
CELLTABLEFORMAT
  1
TABLEFORMAT_BEGIN
 90
        1
170
     1
 91
        0
 92
        0
 62
   257
 93
        1
300
CONTENTFORMAT
  1
CONTENTFORMAT_BEGIN
 90
        0
 91
        0
 92
      512
 93
        0
300

 40
0.0
140
1.0
 94
        1
 62
     0
340
0
144
0.18
309
CONTENTFORMAT_END
171
     0
 94
        0
309
TABLEFORMAT_END
309
FORMATTEDTABLEDATACELL_END
  1
TABLECELL_BEGIN
 90
        0
 91
        0
309
TABLECELL_END
300
CELL
  1
LINKEDTABLEDATACELL_BEGIN
 90
        0
300

 91
        0
301
CUSTOMDATA
  1
DATAMAP_BEGIN
 90
        0
309
DATAMAP_END
 92
        0
 95
        0
309
LINKEDTABLEDATACELL_END
  1
FORMATTEDTABLEDATACELL_BEGIN
300
CELLTABLEFORMAT
  1
TABLEFORMAT_BEGIN
 90
        1
170
     1
 91
        0
 92
        0
 62
   257
 93
        1
300
CONTENTFORMAT
  1
CONTENTFORMAT_BEGIN
 90
        0
 91
        0
 92
      512
 93
        0
300

 40
0.0
140
1.0
 94
        1
 62
     0
340
0
144
0.18
309
CONTENTFORMAT_END
171
     0
 94
        0
309
TABLEFORMAT_END
309
FORMATTEDTABLEDATACELL_END
  1
TABLECELL_BEGIN
 90
        0
 91
        0
309
TABLECELL_END
300
CELL
  1
LINKEDTABLEDATACELL_BEGIN
 90
        0
300

 91
        0
301
CUSTOMDATA
  1
DATAMAP_BEGIN
 90
        1
300
ACAD_ROUNDTRIP_2008_CELL_CHECKSUM
301
DATAMAP_VALUE
 93
        2
 90
        2
140
3105.0
 94
        0
300

302

304
ACVALUE_END
309
DATAMAP_END
 92
        0
 95
        1
302
CONTENT
  1
CELLCONTENT_BEGIN
 90
        1
300
VALUE
 93
        2
 90
        4
  1
Scale:1:1
 94
        0
300

302
Scale:1:1
304
ACVALUE_END
 91
        0
309
CELLCONTENT_END
  1
FORMATTEDCELLCONTENT_BEGIN
170
     1
300
CONTENTFORMAT
  1
CONTENTFORMAT_BEGIN
 90
      132
 91
        0
 92
      512
 93
        0
300

 40
0.0
140
1.0
 94
        1
 62
     0
340
0
144
3.5
309
CONTENTFORMAT_END
309
FORMATTEDCELLCONTENT_END
309
LINKEDTABLEDATACELL_END
  1
FORMATTEDTABLEDATACELL_BEGIN
300
CELLTABLEFORMAT
  1
TABLEFORMAT_BEGIN
 90
        1
170
     1
 91
       16
 92
        0
 62
   257
 93
        1
300
CONTENTFORMAT
  1
CONTENTFORMAT_BEGIN
 90
       16
 91
        0
 92
      512
 93
        0
300

 40
0.0
140
1.0
 94
        1
 62
     0
340
0
144
0.18
309
CONTENTFORMAT_END
171
     0
 94
        4
 95
        1
302
GRIDFORMAT
  1
GRIDFORMAT_BEGIN
 90
       26
 91
        1
 62
     0
 92
       -2
340
0
 93
        0
 40
0.045
309
GRIDFORMAT_END
 95
        4
302
GRIDFORMAT
  1
GRIDFORMAT_BEGIN
 90
       26
 91
        1
 62
     0
 92
       -2
340
0
 93
        0
 40
0.045
309
GRIDFORMAT_END
 95
        8
302
GRIDFORMAT
  1
GRIDFORMAT_BEGIN
 90
       26
 91
        1
 62
     0
 92
       -2
340
0
 93
        0
 40
0.045
309
GRIDFORMAT_END
 95
       32
302
GRIDFORMAT
  1
GRIDFORMAT_BEGIN
 90
       26
 91
        1
 62
     0
 92
       -2
340
0
 93
        0
 40
0.045
309
GRIDFORMAT_END
309
TABLEFORMAT_END
309
FORMATTEDTABLEDATACELL_END
  1
TABLECELL_BEGIN
 90
        0
 91
        0
309
TABLECELL_END
300
CELL
  1
LINKEDTABLEDATACELL_BEGIN
 90
        0
300

 91
        0
301
CUSTOMDATA
  1
DATAMAP_BEGIN
 90
        1
300
ACAD_ROUNDTRIP_2008_CELL_CHECKSUM
301
DATAMAP_VALUE
 93
        2
 90
        2
140
169.0
 94
        0
300

302

304
ACVALUE_END
309
DATAMAP_END
 92
        0
 95
        1
302
CONTENT
  1
CELLCONTENT_BEGIN
 90
        1
300
VALUE
 93
        2
 90
        4
  1
A4
 94
        0
300

302
A4
304
ACVALUE_END
 91
        0
309
CELLCONTENT_END
  1
FORMATTEDCELLCONTENT_BEGIN
170
     1
300
CONTENTFORMAT
  1
CONTENTFORMAT_BEGIN
 90
      132
 91
        0
 92
      512
 93
        0
300

 40
0.0
140
1.0
 94
        1
 62
     0
340
0
144
3.5
309
CONTENTFORMAT_END
309
FORMATTEDCELLCONTENT_END
309
LINKEDTABLEDATACELL_END
  1
FORMATTEDTABLEDATACELL_BEGIN
300
CELLTABLEFORMAT
  1
TABLEFORMAT_BEGIN
 90
        1
170
     1
 91
       16
 92
        0
 62
   257
 93
        1
300
CONTENTFORMAT
  1
CONTENTFORMAT_BEGIN
 90
       16
 91
        0
 92
      512
 93
        0
300

 40
0.0
140
1.0
 94
        4
 62
     0
340
0
144
0.18
309
CONTENTFORMAT_END
171
     0
 94
        4
 95
        1
302
GRIDFORMAT
  1
GRIDFORMAT_BEGIN
 90
       26
 91
        1
 62
     0
 92
       -2
340
0
 93
        0
 40
0.045
309
GRIDFORMAT_END
 95
        4
302
GRIDFORMAT
  1
GRIDFORMAT_BEGIN
 90
       26
 91
        1
 62
     0
 92
       -2
340
0
 93
        0
 40
0.045
309
GRIDFORMAT_END
 95
        8
302
GRIDFORMAT
  1
GRIDFORMAT_BEGIN
 90
       26
 91
        1
 62
     0
 92
       -2
340
0
 93
        0
 40
0.045
309
GRIDFORMAT_END
 95
       32
302
GRIDFORMAT
  1
GRIDFORMAT_BEGIN
 90
       26
 91
        1
 62
     0
 92
       -2
340
0
 93
        0
 40
0.045
309
GRIDFORMAT_END
309
TABLEFORMAT_END
309
FORMATTEDTABLEDATACELL_END
  1
TABLECELL_BEGIN
 90
        0
 91
        0
309
TABLECELL_END
 91
        0
301
CUSTOMDATA
  1
DATAMAP_BEGIN
 90
        0
309
DATAMAP_END
309
LINKEDTABLEDATAROW_END
  1
FORMATTEDTABLEDATAROW_BEGIN
300
ROWTABLEFORMAT
  1
TABLEFORMAT_BEGIN
 90
        2
170
     0
309
TABLEFORMAT_END
309
FORMATTEDTABLEDATAROW_END
  1
TABLEROW_BEGIN
 90
        2
 40
6.0
309
TABLEROW_END
301
ROW
  1
LINKEDTABLEDATAROW_BEGIN
 90
        5
300
CELL
  1
LINKEDTABLEDATACELL_BEGIN
 90
        0
300

 91
        0
301
CUSTOMDATA
  1
DATAMAP_BEGIN
 90
        0
309
DATAMAP_END
 92
        0
 95
        0
309
LINKEDTABLEDATACELL_END
  1
FORMATTEDTABLEDATACELL_BEGIN
300
CELLTABLEFORMAT
  1
TABLEFORMAT_BEGIN
 90
        1
170
     1
 91
        0
 92
        0
 62
   257
 93
        1
300
CONTENTFORMAT
  1
CONTENTFORMAT_BEGIN
 90
        0
 91
        0
 92
      512
 93
        0
300

 40
0.0
140
1.0
 94
        1
 62
     0
340
0
144
0.18
309
CONTENTFORMAT_END
171
     0
 94
        0
309
TABLEFORMAT_END
309
FORMATTEDTABLEDATACELL_END
  1
TABLECELL_BEGIN
 90
        0
 91
        0
309
TABLECELL_END
300
CELL
  1
LINKEDTABLEDATACELL_BEGIN
 90
        0
300

 91
        0
301
CUSTOMDATA
  1
DATAMAP_BEGIN
 90
        0
309
DATAMAP_END
 92
        0
 95
        0
309
LINKEDTABLEDATACELL_END
  1
FORMATTEDTABLEDATACELL_BEGIN
300
CELLTABLEFORMAT
  1
TABLEFORMAT_BEGIN
 90
        1
170
     1
 91
        0
 92
        0
 62
   257
 93
        1
300
CONTENTFORMAT
  1
CONTENTFORMAT_BEGIN
 90
        0
 91
        0
 92
      512
 93
        0
300

 40
0.0
140
1.0
 94
        1
 62
     0
340
0
144
0.18
309
CONTENTFORMAT_END
171
     0
 94
        0
309
TABLEFORMAT_END
309
FORMATTEDTABLEDATACELL_END
  1
TABLECELL_BEGIN
 90
        0
 91
        0
309
TABLECELL_END
300
CELL
  1
LINKEDTABLEDATACELL_BEGIN
 90
        0
300

 91
        0
301
CUSTOMDATA
  1
DATAMAP_BEGIN
 90
        0
309
DATAMAP_END
 92
        0
 95
        0
309
LINKEDTABLEDATACELL_END
  1
FORMATTEDTABLEDATACELL_BEGIN
300
CELLTABLEFORMAT
  1
TABLEFORMAT_BEGIN
 90
        1
170
     1
 91
        0
 92
        0
 62
   257
 93
        1
300
CONTENTFORMAT
  1
CONTENTFORMAT_BEGIN
 90
        0
 91
        0
 92
      512
 93
        0
300

 40
0.0
140
1.0
 94
        1
 62
     0
340
0
144
0.18
309
CONTENTFORMAT_END
171
     0
 94
        0
309
TABLEFORMAT_END
309
FORMATTEDTABLEDATACELL_END
  1
TABLECELL_BEGIN
 90
        0
 91
        0
309
TABLECELL_END
300
CELL
  1
LINKEDTABLEDATACELL_BEGIN
 90
        0
300

 91
        0
301
CUSTOMDATA
  1
DATAMAP_BEGIN
 90
        1
300
ACAD_ROUNDTRIP_2008_CELL_CHECKSUM
301
DATAMAP_VALUE
 93
        2
 90
        2
140
2469.0
 94
        0
300

302

304
ACVALUE_END
309
DATAMAP_END
 92
        0
 95
        1
302
CONTENT
  1
CELLCONTENT_BEGIN
 90
        1
300
VALUE
 93
        2
 90
        4
  1
REIKO 1.0
 94
        0
300

302
REIKO 1.0
304
ACVALUE_END
 91
        0
309
CELLCONTENT_END
  1
FORMATTEDCELLCONTENT_BEGIN
170
     1
300
CONTENTFORMAT
  1
CONTENTFORMAT_BEGIN
 90
      132
 91
        0
 92
      512
 93
        0
300

 40
0.0
140
1.0
 94
        1
 62
     0
340
0
144
3.5
309
CONTENTFORMAT_END
309
FORMATTEDCELLCONTENT_END
309
LINKEDTABLEDATACELL_END
  1
FORMATTEDTABLEDATACELL_BEGIN
300
CELLTABLEFORMAT
  1
TABLEFORMAT_BEGIN
 90
        1
170
     1
 91
       16
 92
        0
 62
   257
 93
        1
300
CONTENTFORMAT
  1
CONTENTFORMAT_BEGIN
 90
       16
 91
        0
 92
      512
 93
        0
300

 40
0.0
140
1.0
 94
        4
 62
     0
340
0
144
0.18
309
CONTENTFORMAT_END
171
     0
 94
        4
 95
        1
302
GRIDFORMAT
  1
GRIDFORMAT_BEGIN
 90
       26
 91
        1
 62
     0
 92
       -2
340
0
 93
        0
 40
0.045
309
GRIDFORMAT_END
 95
        4
302
GRIDFORMAT
  1
GRIDFORMAT_BEGIN
 90
       26
 91
        1
 62
     0
 92
       -2
340
0
 93
        0
 40
0.045
309
GRIDFORMAT_END
 95
        8
302
GRIDFORMAT
  1
GRIDFORMAT_BEGIN
 90
       26
 91
        1
 62
     0
 92
       -2
340
0
 93
        0
 40
0.045
309
GRIDFORMAT_END
 95
       32
302
GRIDFORMAT
  1
GRIDFORMAT_BEGIN
 90
       26
 91
        1
 62
     0
 92
       -2
340
0
 93
        0
 40
0.045
309
GRIDFORMAT_END
309
TABLEFORMAT_END
309
FORMATTEDTABLEDATACELL_END
  1
TABLECELL_BEGIN
 90
        0
 91
        0
309
TABLECELL_END
300
CELL
  1
LINKEDTABLEDATACELL_BEGIN
 90
        0
300

 91
        0
301
CUSTOMDATA
  1
DATAMAP_BEGIN
 90
        0
309
DATAMAP_END
 92
        0
 95
        0
309
LINKEDTABLEDATACELL_END
  1
FORMATTEDTABLEDATACELL_BEGIN
300
CELLTABLEFORMAT
  1
TABLEFORMAT_BEGIN
 90
        1
170
     1
 91
        0
 92
        0
 62
   257
 93
        1
300
CONTENTFORMAT
  1
CONTENTFORMAT_BEGIN
 90
        0
 91
        0
 92
      512
 93
        0
300

 40
0.0
140
1.0
 94
        1
 62
     0
340
0
144
0.18
309
CONTENTFORMAT_END
171
     0
 94
        0
309
TABLEFORMAT_END
309
FORMATTEDTABLEDATACELL_END
  1
TABLECELL_BEGIN
 90
        0
 91
        0
309
TABLECELL_END
 91
        0
301
CUSTOMDATA
  1
DATAMAP_BEGIN
 90
        0
309
DATAMAP_END
309
LINKEDTABLEDATAROW_END
  1
FORMATTEDTABLEDATAROW_BEGIN
300
ROWTABLEFORMAT
  1
TABLEFORMAT_BEGIN
 90
        2
170
     0
309
TABLEFORMAT_END
309
FORMATTEDTABLEDATAROW_END
  1
TABLEROW_BEGIN
 90
        3
 40
10.0
309
TABLEROW_END
301
ROW
  1
LINKEDTABLEDATAROW_BEGIN
 90
        5
300
CELL
  1
LINKEDTABLEDATACELL_BEGIN
 90
        0
300

 91
        0
301
CUSTOMDATA
  1
DATAMAP_BEGIN
 90
        0
309
DATAMAP_END
 92
        0
 95
        0
309
LINKEDTABLEDATACELL_END
  1
FORMATTEDTABLEDATACELL_BEGIN
300
CELLTABLEFORMAT
  1
TABLEFORMAT_BEGIN
 90
        1
170
     1
 91
        0
 92
        0
 62
   257
 93
        1
300
CONTENTFORMAT
  1
CONTENTFORMAT_BEGIN
 90
        0
 91
        0
 92
      512
 93
        0
300

 40
0.0
140
1.0
 94
        1
 62
     0
340
0
144
0.18
309
CONTENTFORMAT_END
171
     0
 94
        0
309
TABLEFORMAT_END
309
FORMATTEDTABLEDATACELL_END
  1
TABLECELL_BEGIN
 90
        0
 91
        0
309
TABLECELL_END
300
CELL
  1
LINKEDTABLEDATACELL_BEGIN
 90
        0
300

 91
        0
301
CUSTOMDATA
  1
DATAMAP_BEGIN
 90
        0
309
DATAMAP_END
 92
        0
 95
        0
309
LINKEDTABLEDATACELL_END
  1
FORMATTEDTABLEDATACELL_BEGIN
300
CELLTABLEFORMAT
  1
TABLEFORMAT_BEGIN
 90
        1
170
     1
 91
        0
 92
        0
 62
   257
 93
        1
300
CONTENTFORMAT
  1
CONTENTFORMAT_BEGIN
 90
        0
 91
        0
 92
      512
 93
        0
300

 40
0.0
140
1.0
 94
        1
 62
     0
340
0
144
0.18
309
CONTENTFORMAT_END
171
     0
 94
        0
309
TABLEFORMAT_END
309
FORMATTEDTABLEDATACELL_END
  1
TABLECELL_BEGIN
 90
        0
 91
        0
309
TABLECELL_END
300
CELL
  1
LINKEDTABLEDATACELL_BEGIN
 90
        0
300

 91
        0
301
CUSTOMDATA
  1
DATAMAP_BEGIN
 90
        0
309
DATAMAP_END
 92
        0
 95
        0
309
LINKEDTABLEDATACELL_END
  1
FORMATTEDTABLEDATACELL_BEGIN
300
CELLTABLEFORMAT
  1
TABLEFORMAT_BEGIN
 90
        1
170
     1
 91
        0
 92
        0
 62
   257
 93
        1
300
CONTENTFORMAT
  1
CONTENTFORMAT_BEGIN
 90
        0
 91
        0
 92
      512
 93
        0
300

 40
0.0
140
1.0
 94
        1
 62
     0
340
0
144
0.18
309
CONTENTFORMAT_END
171
     0
 94
        0
309
TABLEFORMAT_END
309
FORMATTEDTABLEDATACELL_END
  1
TABLECELL_BEGIN
 90
        0
 91
        0
309
TABLECELL_END
300
CELL
  1
LINKEDTABLEDATACELL_BEGIN
 90
        0
300

 91
        0
301
CUSTOMDATA
  1
DATAMAP_BEGIN
 90
        1
300
ACAD_ROUNDTRIP_2008_CELL_CHECKSUM
301
DATAMAP_VALUE
 93
        2
 90
        2
140
4743.0
 94
        0
300

302

304
ACVALUE_END
309
DATAMAP_END
 92
        0
 95
        1
302
CONTENT
  1
CELLCONTENT_BEGIN
 90
        1
300
VALUE
 93
        2
 90
        4
  1
DATE:14.02.23
 94
        0
300

302
DATE:14.02.23
304
ACVALUE_END
 91
        0
309
CELLCONTENT_END
  1
FORMATTEDCELLCONTENT_BEGIN
170
     1
300
CONTENTFORMAT
  1
CONTENTFORMAT_BEGIN
 90
      132
 91
        0
 92
      512
 93
        0
300

 40
0.0
140
1.0
 94
        1
 62
     0
340
0
144
2.5
309
CONTENTFORMAT_END
309
FORMATTEDCELLCONTENT_END
309
LINKEDTABLEDATACELL_END
  1
FORMATTEDTABLEDATACELL_BEGIN
300
CELLTABLEFORMAT
  1
TABLEFORMAT_BEGIN
 90
        1
170
     1
 91
       16
 92
        0
 62
   257
 93
        1
300
CONTENTFORMAT
  1
CONTENTFORMAT_BEGIN
 90
       16
 91
        0
 92
      512
 93
        0
300

 40
0.0
140
1.0
 94
        4
 62
     0
340
0
144
0.18
309
CONTENTFORMAT_END
171
     0
 94
        4
 95
        1
302
GRIDFORMAT
  1
GRIDFORMAT_BEGIN
 90
       26
 91
        1
 62
     0
 92
       -2
340
0
 93
        0
 40
0.045
309
GRIDFORMAT_END
 95
        4
302
GRIDFORMAT
  1
GRIDFORMAT_BEGIN
 90
       26
 91
        1
 62
     0
 92
       -2
340
0
 93
        0
 40
0.045
309
GRIDFORMAT_END
 95
        8
302
GRIDFORMAT
  1
GRIDFORMAT_BEGIN
 90
       26
 91
        1
 62
     0
 92
       -2
340
0
 93
        0
 40
0.045
309
GRIDFORMAT_END
 95
       32
302
GRIDFORMAT
  1
GRIDFORMAT_BEGIN
 90
       26
 91
        1
 62
     0
 92
       -2
340
0
 93
        0
 40
0.045
309
GRIDFORMAT_END
309
TABLEFORMAT_END
309
FORMATTEDTABLEDATACELL_END
  1
TABLECELL_BEGIN
 90
        0
 91
        0
309
TABLECELL_END
300
CELL
  1
LINKEDTABLEDATACELL_BEGIN
 90
        0
300

 91
        0
301
CUSTOMDATA
  1
DATAMAP_BEGIN
 90
        0
309
DATAMAP_END
 92
        0
 95
        0
309
LINKEDTABLEDATACELL_END
  1
FORMATTEDTABLEDATACELL_BEGIN
300
CELLTABLEFORMAT
  1
TABLEFORMAT_BEGIN
 90
        1
170
     1
 91
        0
 92
        0
 62
   257
 93
        1
300
CONTENTFORMAT
  1
CONTENTFORMAT_BEGIN
 90
        0
 91
        0
 92
      512
 93
        0
300

 40
0.0
140
1.0
 94
        1
 62
     0
340
0
144
0.18
309
CONTENTFORMAT_END
171
     0
 94
        0
309
TABLEFORMAT_END
309
FORMATTEDTABLEDATACELL_END
  1
TABLECELL_BEGIN
 90
        0
 91
        0
309
TABLECELL_END
 91
        0
301
CUSTOMDATA
  1
DATAMAP_BEGIN
 90
        0
309
DATAMAP_END
309
LINKEDTABLEDATAROW_END
  1
FORMATTEDTABLEDATAROW_BEGIN
300
ROWTABLEFORMAT
  1
TABLEFORMAT_BEGIN
 90
        2
170
     0
309
TABLEFORMAT_END
309
FORMATTEDTABLEDATAROW_END
  1
TABLEROW_BEGIN
 90
        3
 40
5.0
309
TABLEROW_END
301
ROW
  1
LINKEDTABLEDATAROW_BEGIN
 90
        5
300
CELL
  1
LINKEDTABLEDATACELL_BEGIN
 90
        0
300

 91
        0
301
CUSTOMDATA
  1
DATAMAP_BEGIN
 90
        1
300
ACAD_ROUNDTRIP_2008_CELL_CHECKSUM
301
DATAMAP_VALUE
 93
        2
 90
        2
140
1361482.0
 94
        0
300

302

304
ACVALUE_END
309
DATAMAP_END
 92
        0
 95
        1
302
CONTENT
  1
CELLCONTENT_BEGIN
 90
        1
300
VALUE
 93
        2
 90
        4
  1
Any integral or partial reproductions are prohibited \Pwithout prior authorisation of L & L Luce & Light s.r.l., \Pin accordance with the law in force. \PAll rights reserved.
 94
        0
300

302
Any integral or partial reproductions are prohibited \Pwithout prior authorisation of L & L Luce & Light s.r.l., \Pin accordance with the law in force. \PAll rights reserved.
304
ACVALUE_END
 91
        0
309
CELLCONTENT_END
  1
FORMATTEDCELLCONTENT_BEGIN
170
     1
300
CONTENTFORMAT
  1
CONTENTFORMAT_BEGIN
 90
      132
 91
        0
 92
      512
 93
        0
300

 40
0.0
140
1.0
 94
        1
 62
     0
340
0
144
2.25
309
CONTENTFORMAT_END
309
FORMATTEDCELLCONTENT_END
309
LINKEDTABLEDATACELL_END
  1
FORMATTEDTABLEDATACELL_BEGIN
300
CELLTABLEFORMAT
  1
TABLEFORMAT_BEGIN
 90
        1
170
     1
 91
       16
 92
        0
 62
   257
 93
        1
300
CONTENTFORMAT
  1
CONTENTFORMAT_BEGIN
 90
       16
 91
        0
 92
      512
 93
        0
300

 40
0.0
140
1.0
 94
        4
 62
     0
340
0
144
0.18
309
CONTENTFORMAT_END
171
     0
 94
        4
 95
        1
302
GRIDFORMAT
  1
GRIDFORMAT_BEGIN
 90
       26
 91
        1
 62
     0
 92
       -2
340
0
 93
        0
 40
0.045
309
GRIDFORMAT_END
 95
        4
302
GRIDFORMAT
  1
GRIDFORMAT_BEGIN
 90
       26
 91
        1
 62
     0
 92
       -2
340
0
 93
        0
 40
0.045
309
GRIDFORMAT_END
 95
        8
302
GRIDFORMAT
  1
GRIDFORMAT_BEGIN
 90
       26
 91
        1
 62
     0
 92
       -2
340
0
 93
        0
 40
0.045
309
GRIDFORMAT_END
 95
       32
302
GRIDFORMAT
  1
GRIDFORMAT_BEGIN
 90
       26
 91
        1
 62
     0
 92
       -2
340
0
 93
        0
 40
0.045
309
GRIDFORMAT_END
309
TABLEFORMAT_END
309
FORMATTEDTABLEDATACELL_END
  1
TABLECELL_BEGIN
 90
        0
 91
        0
309
TABLECELL_END
300
CELL
  1
LINKEDTABLEDATACELL_BEGIN
 90
        0
300

 91
        0
301
CUSTOMDATA
  1
DATAMAP_BEGIN
 90
        0
309
DATAMAP_END
 92
        0
 95
        0
309
LINKEDTABLEDATACELL_END
  1
FORMATTEDTABLEDATACELL_BEGIN
300
CELLTABLEFORMAT
  1
TABLEFORMAT_BEGIN
 90
        1
170
     1
 91
        0
 92
        0
 62
   257
 93
        1
300
CONTENTFORMAT
  1
CONTENTFORMAT_BEGIN
 90
        0
 91
        0
 92
      512
 93
        0
300

 40
0.0
140
1.0
 94
        1
 62
     0
340
0
144
0.18
309
CONTENTFORMAT_END
171
     0
 94
        0
309
TABLEFORMAT_END
309
FORMATTEDTABLEDATACELL_END
  1
TABLECELL_BEGIN
 90
        0
 91
        0
309
TABLECELL_END
300
CELL
  1
LINKEDTABLEDATACELL_BEGIN
 90
        0
300

 91
        0
301
CUSTOMDATA
  1
DATAMAP_BEGIN
 90
        0
309
DATAMAP_END
 92
        0
 95
        0
309
LINKEDTABLEDATACELL_END
  1
FORMATTEDTABLEDATACELL_BEGIN
300
CELLTABLEFORMAT
  1
TABLEFORMAT_BEGIN
 90
        1
170
     1
 91
        0
 92
        0
 62
   257
 93
        1
300
CONTENTFORMAT
  1
CONTENTFORMAT_BEGIN
 90
        0
 91
        0
 92
      512
 93
        0
300

 40
0.0
140
1.0
 94
        1
 62
     0
340
0
144
0.18
309
CONTENTFORMAT_END
171
     0
 94
        0
309
TABLEFORMAT_END
309
FORMATTEDTABLEDATACELL_END
  1
TABLECELL_BEGIN
 90
        0
 91
        0
309
TABLECELL_END
300
CELL
  1
LINKEDTABLEDATACELL_BEGIN
 90
        0
300

 91
        0
301
CUSTOMDATA
  1
DATAMAP_BEGIN
 90
        0
309
DATAMAP_END
 92
        0
 95
        0
309
LINKEDTABLEDATACELL_END
  1
FORMATTEDTABLEDATACELL_BEGIN
300
CELLTABLEFORMAT
  1
TABLEFORMAT_BEGIN
 90
        1
170
     1
 91
        0
 92
        0
 62
   257
 93
        1
300
CONTENTFORMAT
  1
CONTENTFORMAT_BEGIN
 90
        0
 91
        0
 92
      512
 93
        0
300

 40
0.0
140
1.0
 94
        1
 62
     0
340
0
144
0.18
309
CONTENTFORMAT_END
171
     0
 94
        0
309
TABLEFORMAT_END
309
FORMATTEDTABLEDATACELL_END
  1
TABLECELL_BEGIN
 90
        0
 91
        0
309
TABLECELL_END
300
CELL
  1
LINKEDTABLEDATACELL_BEGIN
 90
        0
300

 91
        0
301
CUSTOMDATA
  1
DATAMAP_BEGIN
 90
        0
309
DATAMAP_END
 92
        0
 95
        0
309
LINKEDTABLEDATACELL_END
  1
FORMATTEDTABLEDATACELL_BEGIN
300
CELLTABLEFORMAT
  1
TABLEFORMAT_BEGIN
 90
        1
170
     1
 91
        0
 92
        0
 62
   257
 93
        1
300
CONTENTFORMAT
  1
CONTENTFORMAT_BEGIN
 90
        0
 91
        0
 92
      512
 93
        0
300

 40
0.0
140
1.0
 94
        1
 62
     0
340
0
144
0.18
309
CONTENTFORMAT_END
171
     0
 94
        0
309
TABLEFORMAT_END
309
FORMATTEDTABLEDATACELL_END
  1
TABLECELL_BEGIN
 90
        0
 91
        0
309
TABLECELL_END
 91
        0
301
CUSTOMDATA
  1
DATAMAP_BEGIN
 90
        0
309
DATAMAP_END
309
LINKEDTABLEDATAROW_END
  1
FORMATTEDTABLEDATAROW_BEGIN
300
ROWTABLEFORMAT
  1
TABLEFORMAT_BEGIN
 90
        2
170
     0
309
TABLEFORMAT_END
309
FORMATTEDTABLEDATAROW_END
  1
TABLEROW_BEGIN
 90
        3
 40
13.0
309
TABLEROW_END
100
AcDbFormattedTableData
300
TABLEFORMAT
  1
TABLEFORMAT_BEGIN
 90
        4
170
     1
 91
    15360
 92
        0
 62
   257
 93
        1
300
CONTENTFORMAT
  1
CONTENTFORMAT_BEGIN
 90
        0
 91
        0
 92
      512
 93
        0
300

 40
0.0
140
1.0
 94
        1
 62
     0
340
0
144
0.18
309
CONTENTFORMAT_END
171
     1
301
MARGIN
  1
CELLMARGIN_BEGIN
 40
0.06
 40
0.06
 40
0.06
 40
0.06
 40
0.06
 40
0.06
309
CELLMARGIN_END
 94
        0
309
TABLEFORMAT_END
 90
        4
 91
        0
 92
        0
 93
        3
 94
        2
 91
        2
 92
        3
 93
        2
 94
        4
 91
        3
 92
        3
 93
        3
 94
        4
 91
        4
 92
        0
 93
        4
 94
        4
100
AcDbTableContent
340
4CC
  0
TABLEGEOMETRY
  5
4F9
330
4FB
100
AcDbTableGeometry
 90
        5
 91
        5
 92
       25
 93
        0
 40
0.0
 41
0.0
330
0
 94
        0
 93
        0
 40
0.0
 41
0.0
330
0
 94
        0
 93
        0
 40
0.0
 41
0.0
330
0
 94
        0
 93
        0
 40
0.0
 41
0.0
330
0
 94
        0
 93
        0
 40
0.0
 41
0.0
330
0
 94
        0
 93
        0
 40
0.0
 41
0.0
330
0
 94
        0
 93
        0
 40
0.0
 41
0.0
330
0
 94
        0
 93
        0
 40
0.0
 41
0.0
330
0
 94
        0
 93
        0
 40
0.0
 41
0.0
330
0
 94
        0
 93
        0
 40
0.0
 41
0.0
330
0
 94
        0
 93
        0
 40
0.0
 41
0.0
330
0
 94
        0
 93
        0
 40
0.0
 41
0.0
330
0
 94
        0
 93
        0
 40
0.0
 41
0.0
330
0
 94
        0
 93
        0
 40
0.0
 41
0.0
330
0
 94
        0
 93
        0
 40
0.0
 41
0.0
330
0
 94
        0
 93
        0
 40
0.0
 41
0.0
330
0
 94
        0
 93
        0
 40
0.0
 41
0.0
330
0
 94
        0
 93
        0
 40
0.0
 41
0.0
330
0
 94
        0
 93
        0
 40
0.0
 41
0.0
330
0
 94
        0
 93
        0
 40
0.0
 41
0.0
330
0
 94
        0
 93
        0
 40
0.0
 41
0.0
330
0
 94
        0
 93
        0
 40
0.0
 41
0.0
330
0
 94
        0
 93
        0
 40
0.0
 41
0.0
330
0
 94
        0
 93
        0
 40
0.0
 41
0.0
330
0
 94
        0
 93
        0
 40
0.0
 41
0.0
330
0
 94
        0
  0
DICTIONARY
  5
4FE
330
4CC
100
AcDbDictionary
280
     1
281
     1
  3
ACAD_ROUNDTRIP_2008_TABLESTYLE_CELLSTYLEMAP
360
4FF
  0
CELLSTYLEMAP
  5
4FF
102
{ACAD_REACTORS
330
4FE
102
}
330
4FE
100
AcDbCellStyleMap
 90
        3
300
CELLSTYLE
  1
TABLEFORMAT_BEGIN
 90
        5
170
     1
 91
        0
 92
        0
 62
   257
 93
        1
300
CONTENTFORMAT
  1
CONTENTFORMAT_BEGIN
 90
        0
 91
        0
 92
        4
 93
        0
300

 40
0.0
140
1.0
 94
        5
 62
     0
340
11
144
6.0
309
CONTENTFORMAT_END
171
     1
301
MARGIN
  1
CELLMARGIN_BEGIN
 40
1.5
 40
1.5
 40
1.5
 40
1.5
 40
1.5
 40
1.5
309
CELLMARGIN_END
 94
        6
 95
        1
302
GRIDFORMAT
  1
GRIDFORMAT_BEGIN
 90
        0
 91
        1
 62
     0
 92
       -2
340
14
 93
        0
 40
0.045
309
GRIDFORMAT_END
 95
        2
302
GRIDFORMAT
  1
GRIDFORMAT_BEGIN
 90
        0
 91
        1
 62
     0
 92
       -2
340
14
 93
        0
 40
0.045
309
GRIDFORMAT_END
 95
        4
302
GRIDFORMAT
  1
GRIDFORMAT_BEGIN
 90
        0
 91
        1
 62
     0
 92
       -2
340
14
 93
        0
 40
0.045
309
GRIDFORMAT_END
 95
        8
302
GRIDFORMAT
  1
GRIDFORMAT_BEGIN
 90
        0
 91
        1
 62
     0
 92
       -2
340
14
 93
        0
 40
0.045
309
GRIDFORMAT_END
 95
       16
302
GRIDFORMAT
  1
GRIDFORMAT_BEGIN
 90
        0
 91
        1
 62
     0
 92
       -2
340
14
 93
        0
 40
0.045
309
GRIDFORMAT_END
 95
       32
302
GRIDFORMAT
  1
GRIDFORMAT_BEGIN
 90
        0
 91
        1
 62
     0
 92
       -2
340
14
 93
        0
 40
0.045
309
GRIDFORMAT_END
309
TABLEFORMAT_END
  1
CELLSTYLE_BEGIN
 90
        1
 91
        1
300
_TITLE
309
CELLSTYLE_END
300
CELLSTYLE
  1
TABLEFORMAT_BEGIN
 90
        5
170
     1
 91
        0
 92
        0
 62
   257
 93
        1
300
CONTENTFORMAT
  1
CONTENTFORMAT_BEGIN
 90
        0
 91
        0
 92
        4
 93
        0
300

 40
0.0
140
1.0
 94
        5
 62
     0
340
11
144
4.5
309
CONTENTFORMAT_END
171
     1
301
MARGIN
  1
CELLMARGIN_BEGIN
 40
1.5
 40
1.5
 40
1.5
 40
1.5
 40
1.5
 40
1.5
309
CELLMARGIN_END
 94
        6
 95
        1
302
GRIDFORMAT
  1
GRIDFORMAT_BEGIN
 90
        0
 91
        1
 62
     0
 92
       -2
340
14
 93
        0
 40
0.045
309
GRIDFORMAT_END
 95
        2
302
GRIDFORMAT
  1
GRIDFORMAT_BEGIN
 90
        0
 91
        1
 62
     0
 92
       -2
340
14
 93
        0
 40
0.045
309
GRIDFORMAT_END
 95
        4
302
GRIDFORMAT
  1
GRIDFORMAT_BEGIN
 90
        0
 91
        1
 62
     0
 92
       -2
340
14
 93
        0
 40
0.045
309
GRIDFORMAT_END
 95
        8
302
GRIDFORMAT
  1
GRIDFORMAT_BEGIN
 90
        0
 91
        1
 62
     0
 92
       -2
340
14
 93
        0
 40
0.045
309
GRIDFORMAT_END
 95
       16
302
GRIDFORMAT
  1
GRIDFORMAT_BEGIN
 90
        0
 91
        1
 62
     0
 92
       -2
340
14
 93
        0
 40
0.045
309
GRIDFORMAT_END
 95
       32
302
GRIDFORMAT
  1
GRIDFORMAT_BEGIN
 90
        0
 91
        1
 62
     0
 92
       -2
340
14
 93
        0
 40
0.045
309
GRIDFORMAT_END
309
TABLEFORMAT_END
  1
CELLSTYLE_BEGIN
 90
        2
 91
        1
300
_HEADER
309
CELLSTYLE_END
300
CELLSTYLE
  1
TABLEFORMAT_BEGIN
 90
        5
170
     1
 91
        0
 92
        0
 62
   257
 93
        1
300
CONTENTFORMAT
  1
CONTENTFORMAT_BEGIN
 90
        0
 91
        0
 92
        4
 93
        0
300

 40
0.0
140
1.0
 94
        2
 62
     0
340
11
144
4.5
309
CONTENTFORMAT_END
171
     1
301
MARGIN
  1
CELLMARGIN_BEGIN
 40
1.5
 40
1.5
 40
1.5
 40
1.5
 40
1.5
 40
1.5
309
CELLMARGIN_END
 94
        6
 95
        1
302
GRIDFORMAT
  1
GRIDFORMAT_BEGIN
 90
        0
 91
        1
 62
     0
 92
       -2
340
14
 93
        0
 40
0.045
309
GRIDFORMAT_END
 95
        2
302
GRIDFORMAT
  1
GRIDFORMAT_BEGIN
 90
        0
 91
        1
 62
     0
 92
       -2
340
14
 93
        0
 40
0.045
309
GRIDFORMAT_END
 95
        4
302
GRIDFORMAT
  1
GRIDFORMAT_BEGIN
 90
        0
 91
        1
 62
     0
 92
       -2
340
14
 93
        0
 40
0.045
309
GRIDFORMAT_END
 95
        8
302
GRIDFORMAT
  1
GRIDFORMAT_BEGIN
 90
        0
 91
        1
 62
     0
 92
       -2
340
14
 93
        0
 40
0.045
309
GRIDFORMAT_END
 95
       16
302
GRIDFORMAT
  1
GRIDFORMAT_BEGIN
 90
        0
 91
        1
 62
     0
 92
       -2
340
14
 93
        0
 40
0.045
309
GRIDFORMAT_END
 95
       32
302
GRIDFORMAT
  1
GRIDFORMAT_BEGIN
 90
        0
 91
        1
 62
     0
 92
       -2
340
14
 93
        0
 40
0.045
309
GRIDFORMAT_END
309
TABLEFORMAT_END
  1
CELLSTYLE_BEGIN
 90
        3
 91
        2
300
_DATA
309
CELLSTYLE_END
  0
ENDSEC
  0
EOF
