  0
SECTION
  2
HEADER
  9
$ACADVER
  1
AC1015
  9
$ACADMAINTVER
 70
     6
  9
$DWGCODEPAGE
  3
ANSI_1252
  9
$INSBASE
 10
0.0
 20
0.0
 30
0.0
  9
$EXTMIN
 10
0.0
 20
0.0
 30
0.0
  9
$EXTMAX
 10
420.0
 20
297.0
 30
0.0
  9
$LIMMIN
 10
0.0
 20
0.0
  9
$LIMMAX
 10
420.0
 20
297.0
  9
$ORTHOMODE
 70
     0
  9
$REGENMODE
 70
     1
  9
$FILLMODE
 70
     1
  9
$QTEXTMODE
 70
     0
  9
$MIRRTEXT
 70
     1
  9
$LTSCALE
 40
23.1
  9
$ATTMODE
 70
     1
  9
$TEXTSIZE
 40
0.2
  9
$TRACEWID
 40
0.05
  9
$TEXTSTYLE
  7
STANDARD
  9
$CLAYER
  8
0
  9
$CELTYPE
  6
BYLAYER
  9
$CECOLOR
 62
   256
  9
$CELTSCALE
 40
1.0
  9
$DISPSILH
 70
     0
  9
$DIMSCALE
 40
1.0
  9
$DIMASZ
 40
2.5
  9
$DIMEXO
 40
2.625
  9
$DIMDLI
 40
15.96
  9
$DIMRND
 40
0.0
  9
$DIMDLE
 40
0.0
  9
$DIMEXE
 40
7.56
  9
$DIMTP
 40
0.01
  9
$DIMTM
 40
0.01
  9
$DIMTXT
 40
3.0
  9
$DIMCEN
 40
3.78
  9
$DIMTSZ
 40
0.0
  9
$DIMTOL
 70
     1
  9
$DIMLIM
 70
     0
  9
$DIMTIH
 70
     1
  9
$DIMTOH
 70
     1
  9
$DIMSE1
 70
     0
  9
$DIMSE2
 70
     0
  9
$DIMTAD
 70
     0
  9
$DIMZIN
 70
     0
  9
$DIMBLK
  1
CLOSED
  9
$DIMASO
 70
     1
  9
$DIMSHO
 70
     1
  9
$DIMPOST
  1

  9
$DIMAPOST
  1

  9
$DIMALT
 70
     0
  9
$DIMALTD
 70
     2
  9
$DIMALTF
 40
25.4
  9
$DIMLFAC
 40
1.0
  9
$DIMTOFL
 70
     0
  9
$DIMTVP
 40
0.0
  9
$DIMTIX
 70
     0
  9
$DIMSOXD
 70
     0
  9
$DIMSAH
 70
     0
  9
$DIMBLK1
  1

  9
$DIMBLK2
  1

  9
$DIMSTYLE
  2
STANDARD
  9
$DIMCLRD
 70
     0
  9
$DIMCLRE
 70
     0
  9
$DIMCLRT
 70
     0
  9
$DIMTFAC
 40
1.0
  9
$DIMGAP
 40
0.09
  9
$DIMJUST
 70
     0
  9
$DIMSD1
 70
     0
  9
$DIMSD2
 70
     0
  9
$DIMTOLJ
 70
     1
  9
$DIMTZIN
 70
     0
  9
$DIMALTZ
 70
     0
  9
$DIMALTTZ
 70
     0
  9
$DIMUPT
 70
     0
  9
$DIMDEC
 70
     4
  9
$DIMTDEC
 70
     4
  9
$DIMALTU
 70
     2
  9
$DIMALTTD
 70
     2
  9
$DIMTXSTY
  7
STANDARD
  9
$DIMAUNIT
 70
     0
  9
$DIMADEC
 70
     0
  9
$DIMALTRND
 40
0.0
  9
$DIMAZIN
 70
     0
  9
$DIMDSEP
 70
    46
  9
$DIMATFIT
 70
     3
  9
$DIMFRAC
 70
     0
  9
$DIMLDRBLK
  1

  9
$DIMLUNIT
 70
     2
  9
$DIMLWD
 70
    -2
  9
$DIMLWE
 70
    -2
  9
$DIMTMOVE
 70
     0
  9
$LUNITS
 70
     2
  9
$LUPREC
 70
     4
  9
$SKETCHINC
 40
0.1
  9
$FILLETRAD
 40
0.5
  9
$AUNITS
 70
     0
  9
$AUPREC
 70
     0
  9
$MENU
  1
.
  9
$ELEVATION
 40
0.0
  9
$PELEVATION
 40
0.0
  9
$THICKNESS
 40
0.0
  9
$LIMCHECK
 70
     0
  9
$CHAMFERA
 40
0.0
  9
$CHAMFERB
 40
0.0
  9
$CHAMFERC
 40
0.0
  9
$CHAMFERD
 40
0.0
  9
$SKPOLY
 70
     0
  9
$TDCREATE
 40
2447893.083333333
  9
$TDUCREATE
 40
0.0
  9
$TDUPDATE
 40
2456749.476403588
  9
$TDUUPDATE
 40
2456749.393070254
  9
$TDINDWG
 40
0.0007653241
  9
$TDUSRTIMER
 40
2456749.392305046
  9
$USRTIMER
 70
     1
  9
$ANGBASE
 50
0.0
  9
$ANGDIR
 70
     0
  9
$PDMODE
 70
     3
  9
$PDSIZE
 40
0.3125
  9
$PLINEWID
 40
0.0
  9
$SPLFRAME
 70
     0
  9
$SPLINETYPE
 70
     6
  9
$SPLINESEGS
 70
     8
  9
$HANDSEED
  5
4FE
  9
$SURFTAB1
 70
     6
  9
$SURFTAB2
 70
     6
  9
$SURFTYPE
 70
     6
  9
$SURFU
 70
     6
  9
$SURFV
 70
     6
  9
$UCSBASE
  2

  9
$UCSNAME
  2

  9
$UCSORG
 10
0.0
 20
0.0
 30
0.0
  9
$UCSXDIR
 10
1.0
 20
0.0
 30
0.0
  9
$UCSYDIR
 10
0.0
 20
1.0
 30
0.0
  9
$UCSORTHOREF
  2

  9
$UCSORTHOVIEW
 70
     0
  9
$UCSORGTOP
 10
0.0
 20
0.0
 30
0.0
  9
$UCSORGBOTTOM
 10
0.0
 20
0.0
 30
0.0
  9
$UCSORGLEFT
 10
0.0
 20
0.0
 30
0.0
  9
$UCSORGRIGHT
 10
0.0
 20
0.0
 30
0.0
  9
$UCSORGFRONT
 10
0.0
 20
0.0
 30
0.0
  9
$UCSORGBACK
 10
0.0
 20
0.0
 30
0.0
  9
$PUCSBASE
  2

  9
$PUCSNAME
  2

  9
$PUCSORG
 10
0.0
 20
0.0
 30
0.0
  9
$PUCSXDIR
 10
1.0
 20
0.0
 30
0.0
  9
$PUCSYDIR
 10
0.0
 20
1.0
 30
0.0
  9
$PUCSORTHOREF
  2

  9
$PUCSORTHOVIEW
 70
     0
  9
$PUCSORGTOP
 10
0.0
 20
0.0
 30
0.0
  9
$PUCSORGBOTTOM
 10
0.0
 20
0.0
 30
0.0
  9
$PUCSORGLEFT
 10
0.0
 20
0.0
 30
0.0
  9
$PUCSORGRIGHT
 10
0.0
 20
0.0
 30
0.0
  9
$PUCSORGFRONT
 10
0.0
 20
0.0
 30
0.0
  9
$PUCSORGBACK
 10
0.0
 20
0.0
 30
0.0
  9
$USERI1
 70
     0
  9
$USERI2
 70
     0
  9
$USERI3
 70
     0
  9
$USERI4
 70
     0
  9
$USERI5
 70
     0
  9
$USERR1
 40
0.0
  9
$USERR2
 40
0.0
  9
$USERR3
 40
0.0
  9
$USERR4
 40
0.0
  9
$USERR5
 40
0.0
  9
$WORLDVIEW
 70
     1
  9
$SHADEDGE
 70
     3
  9
$SHADEDIF
 70
    70
  9
$TILEMODE
 70
     1
  9
$MAXACTVP
 70
    64
  9
$PINSBASE
 10
0.0
 20
0.0
 30
0.0
  9
$PLIMCHECK
 70
     0
  9
$PEXTMIN
 10
1.000000000000000E+20
 20
1.000000000000000E+20
 30
1.000000000000000E+20
  9
$PEXTMAX
 10
-1.000000000000000E+20
 20
-1.000000000000000E+20
 30
-1.000000000000000E+20
  9
$PLIMMIN
 10
0.0
 20
0.0
  9
$PLIMMAX
 10
420.0
 20
297.0
  9
$UNITMODE
 70
     0
  9
$VISRETAIN
 70
     1
  9
$PLINEGEN
 70
     0
  9
$PSLTSCALE
 70
     1
  9
$TREEDEPTH
 70
  3020
  9
$CMLSTYLE
  2

  9
$CMLJUST
 70
     0
  9
$CMLSCALE
 40
1.0
  9
$PROXYGRAPHICS
 70
     1
  9
$MEASUREMENT
 70
     1
  9
$CELWEIGHT
370
    -1
  9
$ENDCAPS
280
     0
  9
$JOINSTYLE
280
     0
  9
$LWDISPLAY
290
     0
  9
$INSUNITS
 70
     4
  9
$HYPERLINKBASE
  1

  9
$STYLESHEET
  1

  9
$XEDIT
290
     1
  9
$CEPSNTYPE
380
     0
  9
$PSTYLEMODE
290
     1
  9
$FINGERPRINTGUID
  2
{39AD966B-ED1B-47F5-9655-D528585113F6}
  9
$VERSIONGUID
  2
{FAEB1C32-E019-11D5-929B-00C0DF256EC4}
  9
$EXTNAMES
290
     1
  9
$PSVPSCALE
 40
0.0
  9
$OLESTARTUP
290
     0
  0
ENDSEC
  0
SECTION
  2
CLASSES
  0
CLASS
  1
ACDBDICTIONARYWDFLT
  2
AcDbDictionaryWithDefault
  3
ObjectDBX Classes
 90
        0
280
     0
281
     0
  0
CLASS
  1
ACDBPLACEHOLDER
  2
AcDbPlaceHolder
  3
ObjectDBX Classes
 90
        0
280
     0
281
     0
  0
CLASS
  1
LAYOUT
  2
AcDbLayout
  3
ObjectDBX Classes
 90
        0
280
     0
281
     0
  0
CLASS
  1
TABLESTYLE
  2
AcDbTableStyle
  3
ObjectDBX Classes
 90
     4095
280
     0
281
     0
  0
CLASS
  1
ACAD_TABLE
  2
AcDbTable
  3
ObjectDBX Classes
 90
     1025
280
     0
281
     1
  0
CLASS
  1
SCALE
  2
AcDbScale
  3
ObjectDBX Classes
 90
     1153
280
     0
281
     0
  0
CLASS
  1
TABLEGEOMETRY
  2
AcDbTableGeometry
  3
ObjectDBX Classes
 90
     1152
280
     0
281
     0
  0
CLASS
  1
VISUALSTYLE
  2
AcDbVisualStyle
  3
ObjectDBX Classes
 90
     4095
280
     0
281
     0
  0
CLASS
  1
MATERIAL
  2
AcDbMaterial
  3
ObjectDBX Classes
 90
     1153
280
     0
281
     0
  0
CLASS
  1
SUN
  2
AcDbSun
  3
SCENEOE
 90
     1153
280
     0
281
     0
  0
CLASS
  1
RASTERVARIABLES
  2
AcDbRasterVariables
  3
ISM
 90
        0
280
     0
281
     0
  0
ENDSEC
  0
SECTION
  2
TABLES
  0
TABLE
  2
VPORT
  5
8
330
0
100
AcDbSymbolTable
 70
     1
  0
VPORT
  5
1F4
330
8
100
AcDbSymbolTableRecord
100
AcDbViewportTableRecord
  2
*ACTIVE
 70
     0
 10
0.0
 20
0.0
 11
1.0
 21
1.0
 12
342.0346755333537
 22
165.7410243642954
 13
0.0
 23
0.0
 14
1.0
 24
1.0
 15
0.0
 25
0.0
 16
0.0
 26
0.0
 36
1.0
 17
0.0
 27
0.0
 37
0.0
 40
580.0781250000001
 41
1.732905982905983
 42
50.0
 43
0.0
 44
0.0
 50
0.0
 51
0.0
 71
    16
 72
   100
 73
     1
 74
     1
 75
     0
 76
     0
 77
     0
 78
     0
281
     0
 65
     1
110
0.0
120
0.0
130
0.0
111
1.0
121
0.0
131
0.0
112
0.0
122
1.0
132
0.0
 79
     0
146
0.0
  0
ENDTAB
  0
TABLE
  2
LTYPE
  5
5
330
0
100
AcDbSymbolTable
 70
     6
  0
LTYPE
  5
14
330
5
100
AcDbSymbolTableRecord
100
AcDbLinetypeTableRecord
  2
BYBLOCK
 70
     0
  3

 72
    65
 73
     0
 40
0.0
  0
LTYPE
  5
15
330
5
100
AcDbSymbolTableRecord
100
AcDbLinetypeTableRecord
  2
BYLAYER
 70
     0
  3

 72
    65
 73
     0
 40
0.0
  0
LTYPE
  5
16
330
5
100
AcDbSymbolTableRecord
100
AcDbLinetypeTableRecord
  2
CONTINUOUS
 70
     0
  3
Solid line
 72
    65
 73
     0
 40
0.0
  0
LTYPE
  5
1F5
330
5
100
AcDbSymbolTableRecord
100
AcDbLinetypeTableRecord
  2
CENTER
 70
     0
  3
____ _ ____ _ ____ _ ____ _ ____ _ ____ _ ____
 72
    65
 73
     4
 40
0.6
 49
0.375
 74
     0
 49
-0.075
 74
     0
 49
0.075
 74
     0
 49
-0.075
 74
     0
  0
LTYPE
  5
1F6
330
5
100
AcDbSymbolTableRecord
100
AcDbLinetypeTableRecord
  2
HIDDEN
 70
     0
  3
- - - - - - - - - - - - - - - - - - - -
 72
    65
 73
     2
 40
0.2
 49
0.1
 74
     0
 49
-0.1
 74
     0
  0
LTYPE
  5
1F7
330
5
100
AcDbSymbolTableRecord
100
AcDbLinetypeTableRecord
  2
PHANTOM
 70
     0
  3
_____ _ _ _____ _ _ _____ _ _ _____
 72
    65
 73
     6
 40
0.8
 49
0.45
 74
     0
 49
-0.05
 74
     0
 49
0.1
 74
     0
 49
-0.05
 74
     0
 49
0.1
 74
     0
 49
-0.05
 74
     0
  0
LTYPE
  5
1F8
330
5
100
AcDbSymbolTableRecord
100
AcDbLinetypeTableRecord
  2
DOT
 70
     0
  3
. . . . . . . . . . . . . . . . . . . .
 72
    65
 73
     2
 40
0.2
 49
0.1
 74
     0
 49
-0.1
 74
     0
  0
LTYPE
  5
1F9
330
5
100
AcDbSymbolTableRecord
100
AcDbLinetypeTableRecord
  2
DASHED
 70
     0
  3
- - - - - - - - - - - - - - - - - - - -
 72
    65
 73
     2
 40
0.2
 49
0.1
 74
     0
 49
-0.1
 74
     0
  0
ENDTAB
  0
TABLE
  2
LAYER
  5
2
330
0
100
AcDbSymbolTable
 70
    47
  0
LAYER
  5
10
330
2
100
AcDbSymbolTableRecord
100
AcDbLayerTableRecord
  2
0
 70
     0
 62
     7
  6
CONTINUOUS
370
    -3
390
F
  0
LAYER
  5
1FA
330
2
100
AcDbSymbolTableRecord
100
AcDbLayerTableRecord
  2
DEFAULT_1
 70
     0
 62
     7
  6
CENTER
370
    -3
390
F
  0
LAYER
  5
1FB
330
2
100
AcDbSymbolTableRecord
100
AcDbLayerTableRecord
  2
DEFAULT_2
 70
     0
 62
     8
  6
HIDDEN
370
    -3
390
F
  0
LAYER
  5
1FC
330
2
100
AcDbSymbolTableRecord
100
AcDbLayerTableRecord
  2
DEFAULT_3
 70
     0
 62
     7
  6
PHANTOM
370
    -3
390
F
  0
LAYER
  5
1FD
330
2
100
AcDbSymbolTableRecord
100
AcDbLayerTableRecord
  2
000_SOLIDO
 70
     0
 62
     7
  6
CONTINUOUS
370
    -3
390
F
  0
LAYER
  5
1FE
330
2
100
AcDbSymbolTableRecord
100
AcDbLayerTableRecord
  2
01_ALL_DTM_PLN
 70
     0
 62
     7
  6
CONTINUOUS
370
    -3
390
F
  0
LAYER
  5
1FF
330
2
100
AcDbSymbolTableRecord
100
AcDbLayerTableRecord
  2
01__ASM_ALL_DTM_PLN
 70
     0
 62
     7
  6
CONTINUOUS
370
    -3
390
F
  0
LAYER
  5
200
330
2
100
AcDbSymbolTableRecord
100
AcDbLayerTableRecord
  2
01__ASM_DEF_DTM_PLN
 70
     0
 62
     7
  6
CONTINUOUS
370
    -3
390
F
  0
LAYER
  5
201
330
2
100
AcDbSymbolTableRecord
100
AcDbLayerTableRecord
  2
01___PRT_ALL_DTM_PLN
 70
     0
 62
     7
  6
CONTINUOUS
370
    -3
390
F
  0
LAYER
  5
202
330
2
100
AcDbSymbolTableRecord
100
AcDbLayerTableRecord
  2
01___PRT_DEF_DTM_PLN
 70
     0
 62
     7
  6
CONTINUOUS
370
    -3
390
F
  0
LAYER
  5
203
330
2
100
AcDbSymbolTableRecord
100
AcDbLayerTableRecord
  2
02_ALL_AXES
 70
     0
 62
     7
  6
CONTINUOUS
370
    -3
390
F
  0
LAYER
  5
204
330
2
100
AcDbSymbolTableRecord
100
AcDbLayerTableRecord
  2
02__ASM_ALL_AXES
 70
     0
 62
     7
  6
CONTINUOUS
370
    -3
390
F
  0
LAYER
  5
205
330
2
100
AcDbSymbolTableRecord
100
AcDbLayerTableRecord
  2
02___PRT_ALL_AXES
 70
     0
 62
     7
  6
CONTINUOUS
370
    -3
390
F
  0
LAYER
  5
206
330
2
100
AcDbSymbolTableRecord
100
AcDbLayerTableRecord
  2
03_ALL_CURVES
 70
     0
 62
     7
  6
CONTINUOUS
370
    -3
390
F
  0
LAYER
  5
207
330
2
100
AcDbSymbolTableRecord
100
AcDbLayerTableRecord
  2
03__ASM_ALL_CURVES
 70
     0
 62
     7
  6
CONTINUOUS
370
    -3
390
F
  0
LAYER
  5
208
330
2
100
AcDbSymbolTableRecord
100
AcDbLayerTableRecord
  2
03___PRT_ALL_CURVES
 70
     0
 62
     7
  6
CONTINUOUS
370
    -3
390
F
  0
LAYER
  5
209
330
2
100
AcDbSymbolTableRecord
100
AcDbLayerTableRecord
  2
04_ALL_DTM_PNT
 70
     0
 62
     7
  6
CONTINUOUS
370
    -3
390
F
  0
LAYER
  5
20A
330
2
100
AcDbSymbolTableRecord
100
AcDbLayerTableRecord
  2
04__ASM_ALL_DTM_PNT
 70
     0
 62
     7
  6
CONTINUOUS
370
    -3
390
F
  0
LAYER
  5
20B
330
2
100
AcDbSymbolTableRecord
100
AcDbLayerTableRecord
  2
04___PRT_ALL_DTM_PNT
 70
     0
 62
     7
  6
CONTINUOUS
370
    -3
390
F
  0
LAYER
  5
20C
330
2
100
AcDbSymbolTableRecord
100
AcDbLayerTableRecord
  2
05_ALL_DTM_CSYS
 70
     0
 62
     7
  6
CONTINUOUS
370
    -3
390
F
  0
LAYER
  5
20D
330
2
100
AcDbSymbolTableRecord
100
AcDbLayerTableRecord
  2
05__ASM_ALL_DTM_CSYS
 70
     0
 62
     7
  6
CONTINUOUS
370
    -3
390
F
  0
LAYER
  5
20E
330
2
100
AcDbSymbolTableRecord
100
AcDbLayerTableRecord
  2
05__ASM_DEF_DTM_CSYS
 70
     0
 62
     7
  6
CONTINUOUS
370
    -3
390
F
  0
LAYER
  5
20F
330
2
100
AcDbSymbolTableRecord
100
AcDbLayerTableRecord
  2
05___PRT_ALL_DTM_CSYS
 70
     0
 62
     7
  6
CONTINUOUS
370
    -3
390
F
  0
LAYER
  5
210
330
2
100
AcDbSymbolTableRecord
100
AcDbLayerTableRecord
  2
05___PRT_DEF_DTM_CSYS
 70
     0
 62
     7
  6
CONTINUOUS
370
    -3
390
F
  0
LAYER
  5
211
330
2
100
AcDbSymbolTableRecord
100
AcDbLayerTableRecord
  2
06_ALL_SURFS
 70
     0
 62
     7
  6
CONTINUOUS
370
    -3
390
F
  0
LAYER
  5
212
330
2
100
AcDbSymbolTableRecord
100
AcDbLayerTableRecord
  2
06__ASM_ALL_SURFS
 70
     0
 62
     7
  6
CONTINUOUS
370
    -3
390
F
  0
LAYER
  5
213
330
2
100
AcDbSymbolTableRecord
100
AcDbLayerTableRecord
  2
06___PRT_ALL_SURFS
 70
     0
 62
     7
  6
CONTINUOUS
370
    -3
390
F
  0
LAYER
  5
214
330
2
100
AcDbSymbolTableRecord
100
AcDbLayerTableRecord
  2
07__ASM_ALL_SKELETONS
 70
     0
 62
     7
  6
CONTINUOUS
370
    -3
390
F
  0
LAYER
  5
215
330
2
100
AcDbSymbolTableRecord
100
AcDbLayerTableRecord
  2
1_ALL_PLANES
 70
     0
 62
     7
  6
CONTINUOUS
370
    -3
390
F
  0
LAYER
  5
216
330
2
100
AcDbSymbolTableRecord
100
AcDbLayerTableRecord
  2
2_ALL_CSYS
 70
     0
 62
     7
  6
CONTINUOUS
370
    -3
390
F
  0
LAYER
  5
217
330
2
100
AcDbSymbolTableRecord
100
AcDbLayerTableRecord
  2
3_ALL_AXES
 70
     0
 62
     7
  6
CONTINUOUS
370
    -3
390
F
  0
LAYER
  5
218
330
2
100
AcDbSymbolTableRecord
100
AcDbLayerTableRecord
  2
4_ALL_POINTS
 70
     0
 62
     7
  6
CONTINUOUS
370
    -3
390
F
  0
LAYER
  5
219
330
2
100
AcDbSymbolTableRecord
100
AcDbLayerTableRecord
  2
5_ALL_CURVES
 70
     0
 62
     7
  6
CONTINUOUS
370
    -3
390
F
  0
LAYER
  5
21A
330
2
100
AcDbSymbolTableRecord
100
AcDbLayerTableRecord
  2
6_ALL_SURFS
 70
     0
 62
     7
  6
CONTINUOUS
370
    -3
390
F
  0
LAYER
  5
21B
330
2
100
AcDbSymbolTableRecord
100
AcDbLayerTableRecord
  2
6__COPIA
 70
     0
 62
     7
  6
CONTINUOUS
370
    -3
390
F
  0
LAYER
  5
21C
330
2
100
AcDbSymbolTableRecord
100
AcDbLayerTableRecord
  2
7_ALL_FEATURES
 70
     0
 62
     7
  6
CONTINUOUS
370
    -3
390
F
  0
LAYER
  5
21D
330
2
100
AcDbSymbolTableRecord
100
AcDbLayerTableRecord
  2
8_ALL_NOTES_BALLOONS_SYMBOLS_GT
 70
     0
 62
     7
  6
CONTINUOUS
370
    -3
390
F
  0
LAYER
  5
21E
330
2
100
AcDbSymbolTableRecord
100
AcDbLayerTableRecord
  2
COLOR1
 70
     0
 62
     7
  6
CONTINUOUS
370
    -3
390
F
  0
LAYER
  5
21F
330
2
100
AcDbSymbolTableRecord
100
AcDbLayerTableRecord
  2
COLOR8
 70
     0
 62
     7
  6
CONTINUOUS
370
    -3
390
F
  0
LAYER
  5
220
330
2
100
AcDbSymbolTableRecord
100
AcDbLayerTableRecord
  2
LED_CREE
 70
     0
 62
     7
  6
CONTINUOUS
370
    -3
390
F
  0
LAYER
  5
221
330
2
100
AcDbSymbolTableRecord
100
AcDbLayerTableRecord
  2
LED_CREE_1
 70
     0
 62
     7
  6
CONTINUOUS
370
    -3
390
F
  0
LAYER
  5
222
330
2
100
AcDbSymbolTableRecord
100
AcDbLayerTableRecord
  2
LED_CREE_2
 70
     0
 62
     7
  6
CONTINUOUS
370
    -3
390
F
  0
LAYER
  5
223
330
2
100
AcDbSymbolTableRecord
100
AcDbLayerTableRecord
  2
MIXEDCOLOR
 70
     0
 62
     7
  6
CONTINUOUS
370
    -3
390
F
  0
LAYER
  5
224
330
2
100
AcDbSymbolTableRecord
100
AcDbLayerTableRecord
  2
PCBMC_34_3LED
 70
     0
 62
     7
  6
CONTINUOUS
370
    -3
390
F
  0
LAYER
  5
225
330
2
100
AcDbSymbolTableRecord
100
AcDbLayerTableRecord
  2
RGB
 70
     0
 62
     7
  6
CONTINUOUS
370
    -3
390
F
  0
LAYER
  5
226
330
2
100
AcDbSymbolTableRecord
100
AcDbLayerTableRecord
  2
XSEC_DATUMS
 70
     0
 62
     7
  6
CONTINUOUS
370
    -3
390
F
  0
LAYER
  5
4D9
330
2
100
AcDbSymbolTableRecord
100
AcDbLayerTableRecord
  2
Defpoints
 70
     0
 62
     7
  6
CONTINUOUS
290
     0
370
    -3
390
F
  0
ENDTAB
  0
TABLE
  2
STYLE
  5
3
330
0
100
AcDbSymbolTable
 70
     5
  0
STYLE
  5
11
330
3
100
AcDbSymbolTableRecord
100
AcDbTextStyleTableRecord
  2
STANDARD
 70
     0
 40
0.0
 41
0.85
 50
0.0
 71
     0
 42
0.2
  3
txt
  4

  0
STYLE
  5
227
330
3
100
AcDbSymbolTableRecord
100
AcDbTextStyleTableRecord
  2
TEXTSTYLE_1
 70
     0
 40
0.0
 41
0.8
 50
0.0
 71
     0
 42
0.2
  3
gdt
  4

  0
STYLE
  5
228
330
3
100
AcDbSymbolTableRecord
100
AcDbTextStyleTableRecord
  2
TEXTSTYLE_2
 70
     0
 40
0.0
 41
0.9
 50
0.0
 71
     0
 42
0.2
  3
txt
  4

  0
STYLE
  5
229
330
3
100
AcDbSymbolTableRecord
100
AcDbTextStyleTableRecord
  2
TEXTSTYLE_3
 70
     0
 40
0.0
 41
0.9
 50
0.0
 71
     0
 42
0.2
  3
txt
  4

  0
STYLE
  5
22A
330
3
100
AcDbSymbolTableRecord
100
AcDbTextStyleTableRecord
  2
TEXTSTYLE_4
 70
     0
 40
0.0
 41
0.85
 50
0.0
 71
     0
 42
0.2
  3
txt
  4

  0
ENDTAB
  0
TABLE
  2
VIEW
  5
6
330
0
100
AcDbSymbolTable
 70
     0
  0
ENDTAB
  0
TABLE
  2
UCS
  5
7
330
0
100
AcDbSymbolTable
 70
     0
  0
ENDTAB
  0
TABLE
  2
APPID
  5
9
330
0
100
AcDbSymbolTable
 70
     1
  0
APPID
  5
22B
330
9
100
AcDbSymbolTableRecord
100
AcDbRegAppTableRecord
  2
ACAD
 70
     0
  0
ENDTAB
  0
TABLE
  2
DIMSTYLE
  5
A
330
0
100
AcDbSymbolTable
 70
     3
100
AcDbDimStyleTable
  0
DIMSTYLE
105
235
330
A
100
AcDbSymbolTableRecord
100
AcDbDimStyleTableRecord
  2
STANDARD
 70
     0
 41
2.5
 47
0.01
 48
0.01
 71
     1
 73
     0
 74
     0
 77
     1
 78
     8
140
3.0
178
     0
271
     2
272
     2
284
     8
340
11
341
22E
342
22E
343
22E
344
22E
  0
DIMSTYLE
105
236
330
A
100
AcDbSymbolTableRecord
100
AcDbDimStyleTableRecord
  2
DIMSTYLE_1
 70
     0
 41
2.5
 47
0.3
 48
0.3
 73
     0
 74
     0
 77
     1
 78
     8
140
3.0
178
     0
271
     2
272
     2
284
     8
340
11
341
22E
342
22E
343
22E
344
22E
  0
DIMSTYLE
105
237
330
A
100
AcDbSymbolTableRecord
100
AcDbDimStyleTableRecord
  2
DIMSTYLE_2
 70
     0
 41
2.5
 47
0.3
 48
0.3
 73
     0
 74
     0
 77
     1
 78
     8
140
3.0
178
     0
271
     0
272
     0
284
     8
340
11
341
22E
342
22E
343
22E
344
22E
  0
ENDTAB
  0
TABLE
  2
BLOCK_RECORD
  5
1
330
0
100
AcDbSymbolTable
 70
     7
  0
BLOCK_RECORD
  5
22C
330
1
100
AcDbSymbolTableRecord
100
AcDbBlockTableRecord
  2
*Model_Space
340
490
  0
BLOCK_RECORD
  5
22D
330
1
100
AcDbSymbolTableRecord
100
AcDbBlockTableRecord
  2
*Paper_Space
340
491
  0
BLOCK_RECORD
  5
22E
330
1
100
AcDbSymbolTableRecord
100
AcDbBlockTableRecord
  2
_CLOSED
340
0
102
{BLKREFS
331
0
331
0
331
0
331
0
331
0
331
0
331
0
331
0
331
29A
331
299
331
27F
331
27E
331
288
331
287
331
291
331
290
102
}
  0
BLOCK_RECORD
  5
22F
330
1
100
AcDbSymbolTableRecord
100
AcDbBlockTableRecord
  2
*D1
340
0
  0
BLOCK_RECORD
  5
230
330
1
100
AcDbSymbolTableRecord
100
AcDbBlockTableRecord
  2
*D2
340
0
  0
BLOCK_RECORD
  5
231
330
1
100
AcDbSymbolTableRecord
100
AcDbBlockTableRecord
  2
*D3
340
0
  0
BLOCK_RECORD
  5
232
330
1
100
AcDbSymbolTableRecord
100
AcDbBlockTableRecord
  2
*D4
340
0
  0
BLOCK_RECORD
  5
233
330
1
100
AcDbSymbolTableRecord
100
AcDbBlockTableRecord
  2
LOGO2_BL0
340
0
102
{BLKREFS
331
2C3
102
}
  0
BLOCK_RECORD
  5
234
330
1
100
AcDbSymbolTableRecord
100
AcDbBlockTableRecord
  2
*T6
340
0
102
{BLKREFS
331
2C4
331
2C4
102
}
  0
ENDTAB
  0
ENDSEC
  0
SECTION
  2
BLOCKS
  0
BLOCK
  5
20
330
22C
100
AcDbEntity
  8
0
100
AcDbBlockBegin
  2
*Model_Space
 70
     0
 10
0.0
 20
0.0
 30
0.0
  3
*Model_Space
  1
*Model_Space
  0
ENDBLK
  5
21
330
22C
100
AcDbEntity
  8
0
100
AcDbBlockEnd
  0
BLOCK
  5
1C
330
22D
100
AcDbEntity
 67
     1
  8
0
100
AcDbBlockBegin
  2
*Paper_Space
 70
     0
 10
0.0
 20
0.0
 30
0.0
  3
*Paper_Space
  1
*Paper_Space
  0
ENDBLK
  5
1D
330
22D
100
AcDbEntity
 67
     1
  8
0
100
AcDbBlockEnd
  0
BLOCK
  5
274
330
22E
100
AcDbEntity
  8
0
100
AcDbBlockBegin
  2
_CLOSED
 70
     0
 10
0.0
 20
0.0
 30
0.0
  3
_CLOSED
  1
_CLOSED
  0
LINE
  5
275
330
22E
100
AcDbEntity
  8
0
  6
ByBlock
 62
     0
100
AcDbLine
 10
0.0
 20
0.0
 30
0.0
 11
-1.0
 21
0.2
 31
0.0
  0
LINE
  5
276
330
22E
100
AcDbEntity
  8
0
  6
ByBlock
 62
     0
100
AcDbLine
 10
-1.0
 20
0.2
 30
0.0
 11
-1.0
 21
-0.2
 31
0.0
  0
LINE
  5
277
330
22E
100
AcDbEntity
  8
0
  6
ByBlock
 62
     0
100
AcDbLine
 10
-1.0
 20
-0.2
 30
0.0
 11
0.0
 21
0.0
 31
0.0
  0
LINE
  5
278
330
22E
100
AcDbEntity
  8
0
  6
ByBlock
 62
     0
100
AcDbLine
 10
-1.0
 20
0.0
 30
0.0
 11
0.0
 21
0.0
 31
0.0
  0
ENDBLK
  5
279
330
22E
100
AcDbEntity
  8
0
  6
ByBlock
 62
     0
100
AcDbBlockEnd
  0
BLOCK
  5
27A
330
22F
100
AcDbEntity
  8
0
100
AcDbBlockBegin
  2
*D1
 70
     1
 10
0.0
 20
0.0
 30
0.0
  3
*D1
  1
*D1
  0
LINE
  5
27B
330
22F
100
AcDbEntity
  8
0
  6
Continuous
 62
     0
370
    -2
100
AcDbLine
 10
44.7590997869
 20
186.1166663761
 30
0.0
 11
44.7590997869
 21
175.6671679688
 31
0.0
  0
LINE
  5
27C
330
22F
100
AcDbEntity
  8
0
  6
Continuous
 62
     0
370
    -2
100
AcDbLine
 10
104.7590997869
 20
185.9155900124
 30
0.0
 11
104.7590997869
 21
175.6671679688
 31
0.0
  0
LINE
  5
27D
330
22F
100
AcDbEntity
  8
0
  6
Continuous
 62
     0
370
    -2
100
AcDbLine
 10
47.2590997869
 20
175.8471679688
 30
0.0
 11
102.2590997869
 21
175.8471679688
 31
0.0
  0
INSERT
  5
27E
330
22F
100
AcDbEntity
  8
0
 62
     0
370
    -2
100
AcDbBlockReference
  2
_CLOSED
 10
44.7590997869
 20
175.8471679688
 30
0.0
 41
2.5
 42
2.5
 43
2.5
 50
180.0
  0
INSERT
  5
27F
330
22F
100
AcDbEntity
  8
0
 62
     0
370
    -2
100
AcDbBlockReference
  2
_CLOSED
 10
104.7590997869
 20
175.8471679688
 30
0.0
 41
2.5
 42
2.5
 43
2.5
  0
MTEXT
  5
280
330
22F
100
AcDbEntity
  8
0
 62
     0
100
AcDbMText
 10
74.7590997869
 20
180.8471679688
 30
0.0
 40
3.0
 41
0.0
 71
     2
 72
     1
  1
\A1;60
 73
     1
 44
1.0
  0
POINT
  5
281
330
22F
100
AcDbEntity
  8
Defpoints
 62
     0
100
AcDbPoint
 10
44.7590997869
 20
186.1791663761
 30
0.0
  0
POINT
  5
4DC
330
22F
100
AcDbEntity
  8
Defpoints
 62
     0
100
AcDbPoint
 10
104.7590997869
 20
185.9780900124
 30
0.0
  0
POINT
  5
4DD
330
22F
100
AcDbEntity
  8
Defpoints
 62
     0
100
AcDbPoint
 10
104.7590997869
 20
175.8471679688
 30
0.0
  0
ENDBLK
  5
282
330
22F
100
AcDbEntity
  8
0
  6
ByBlock
 62
     0
100
AcDbBlockEnd
  0
BLOCK
  5
283
330
230
100
AcDbEntity
  8
0
100
AcDbBlockBegin
  2
*D2
 70
     1
 10
0.0
 20
0.0
 30
0.0
  3
*D2
  1
*D2
  0
LINE
  5
284
330
230
100
AcDbEntity
  8
0
  6
Continuous
 62
     0
370
    -2
100
AcDbLine
 10
114.7771825822
 20
248.5971679687
 30
0.0
 11
125.8032658962
 21
248.5971679687
 31
0.0
  0
LINE
  5
285
330
230
100
AcDbEntity
  8
0
  6
Continuous
 62
     0
370
    -2
100
AcDbLine
 10
114.2055496276
 20
188.5971679688
 30
0.0
 11
125.8032658962
 21
188.5971679688
 31
0.0
  0
LINE
  5
286
330
230
100
AcDbEntity
  8
0
  6
Continuous
 62
     0
370
    -2
100
AcDbLine
 10
125.6232658962
 20
246.0971679687
 30
0.0
 11
125.6232658962
 21
191.0971679688
 31
0.0
  0
INSERT
  5
287
330
230
100
AcDbEntity
  8
0
 62
     0
370
    -2
100
AcDbBlockReference
  2
_CLOSED
 10
125.6232658962
 20
248.5971679687
 30
0.0
 41
2.5
 42
2.5
 43
2.5
 50
89.99999999999999
  0
INSERT
  5
288
330
230
100
AcDbEntity
  8
0
 62
     0
370
    -2
100
AcDbBlockReference
  2
_CLOSED
 10
125.6232658962
 20
188.5971679688
 30
0.0
 41
2.5
 42
2.5
 43
2.5
 50
270.0
  0
MTEXT
  5
289
330
230
100
AcDbEntity
  8
0
 62
     0
100
AcDbMText
 10
120.6232658962
 20
218.59716796875
 30
0.0
 40
3.0
 41
0.0
 71
     2
 72
     1
  1
\A1;60
 11
2.368475785870947E-16
 21
1.0
 31
0.0
 73
     1
 44
1.0
  0
POINT
  5
28A
330
230
100
AcDbEntity
  8
Defpoints
 62
     0
100
AcDbPoint
 10
114.7146825822
 20
248.5971679687
 30
0.0
  0
POINT
  5
4DE
330
230
100
AcDbEntity
  8
Defpoints
 62
     0
100
AcDbPoint
 10
114.1430496276
 20
188.5971679688
 30
0.0
  0
POINT
  5
4DF
330
230
100
AcDbEntity
  8
Defpoints
 62
     0
100
AcDbPoint
 10
125.6232658962
 20
188.5971679688
 30
0.0
  0
ENDBLK
  5
28B
330
230
100
AcDbEntity
  8
0
  6
ByBlock
 62
     0
100
AcDbBlockEnd
  0
BLOCK
  5
28C
330
231
100
AcDbEntity
  8
0
100
AcDbBlockBegin
  2
*D3
 70
     1
 10
0.0
 20
0.0
 30
0.0
  3
*D3
  1
*D3
  0
LINE
  5
28D
330
231
100
AcDbEntity
  8
0
  6
Continuous
 62
     0
370
    -2
100
AcDbLine
 10
164.6625644004
 20
240.2971679688
 30
0.0
 11
150.5985070345
 21
240.2971679688
 31
0.0
  0
LINE
  5
28E
330
231
100
AcDbEntity
  8
0
  6
Continuous
 62
     0
370
    -2
100
AcDbLine
 10
165.0395825822
 20
196.8971679687
 30
0.0
 11
150.5985070345
 21
196.8971679687
 31
0.0
  0
LINE
  5
28F
330
231
100
AcDbEntity
  8
0
  6
Continuous
 62
     0
370
    -2
100
AcDbLine
 10
150.7785070345
 20
237.7971679688
 30
0.0
 11
150.7785070345
 21
199.3971679687
 31
0.0
  0
INSERT
  5
290
330
231
100
AcDbEntity
  8
0
 62
     0
370
    -2
100
AcDbBlockReference
  2
_CLOSED
 10
150.7785070345
 20
240.2971679688
 30
0.0
 41
2.5
 42
2.5
 43
2.5
 50
90.0
  0
INSERT
  5
291
330
231
100
AcDbEntity
  8
0
 62
     0
370
    -2
100
AcDbBlockReference
  2
_CLOSED
 10
150.7785070345
 20
196.8971679687
 30
0.0
 41
2.5
 42
2.5
 43
2.5
 50
270.0
  0
MTEXT
  5
292
330
231
100
AcDbEntity
  8
0
 62
     0
100
AcDbMText
 10
145.7785070345
 20
218.59716796875
 30
0.0
 40
3.0
 41
0.0
 71
     2
 72
     1
  1
\A1;43
 11
0.0
 21
1.0
 31
0.0
 73
     1
 44
1.0
  0
POINT
  5
293
330
231
100
AcDbEntity
  8
Defpoints
 62
     0
100
AcDbPoint
 10
164.7250644004
 20
240.2971679688
 30
0.0
  0
POINT
  5
4E0
330
231
100
AcDbEntity
  8
Defpoints
 62
     0
100
AcDbPoint
 10
165.1020825822
 20
196.8971679687
 30
0.0
  0
POINT
  5
4E1
330
231
100
AcDbEntity
  8
Defpoints
 62
     0
100
AcDbPoint
 10
150.7785070345
 20
196.8971679687
 30
0.0
  0
ENDBLK
  5
294
330
231
100
AcDbEntity
  8
0
  6
ByBlock
 62
     0
100
AcDbBlockEnd
  0
BLOCK
  5
295
330
232
100
AcDbEntity
  8
0
100
AcDbBlockBegin
  2
*D4
 70
     1
 10
0.0
 20
0.0
 30
0.0
  3
*D4
  1
*D4
  0
LINE
  5
296
330
232
100
AcDbEntity
  8
0
  6
Continuous
 62
     0
370
    -2
100
AcDbLine
 10
115.4507466731
 20
119.8098832564
 30
0.0
 11
125.8032658962
 21
119.8098832564
 31
0.0
  0
LINE
  5
297
330
232
100
AcDbEntity
  8
0
  6
Continuous
 62
     0
370
    -2
100
AcDbLine
 10
115.4507466731
 20
40.6098832564
 30
0.0
 11
125.8032658962
 21
40.60988325639999
 31
0.0
  0
LINE
  5
298
330
232
100
AcDbEntity
  8
0
  6
Continuous
 62
     0
370
    -2
100
AcDbLine
 10
125.6232658962
 20
117.3098832564
 30
0.0
 11
125.6232658962
 21
43.10988325639999
 31
0.0
  0
INSERT
  5
299
330
232
100
AcDbEntity
  8
0
 62
     0
370
    -2
100
AcDbBlockReference
  2
_CLOSED
 10
125.6232658962
 20
119.8098832564
 30
0.0
 41
2.5
 42
2.5
 43
2.5
 50
89.99999999999999
  0
INSERT
  5
29A
330
232
100
AcDbEntity
  8
0
 62
     0
370
    -2
100
AcDbBlockReference
  2
_CLOSED
 10
125.6232658962
 20
40.60988325639999
 30
0.0
 41
2.5
 42
2.5
 43
2.5
 50
270.0
  0
MTEXT
  5
29B
330
232
100
AcDbEntity
  8
0
 62
     0
100
AcDbMText
 10
120.6232658962
 20
80.20988325639999
 30
0.0
 40
3.0
 41
0.0
 71
     2
 72
     1
  1
\A1;79
 11
1.794299837778031E-16
 21
1.0
 31
0.0
 73
     1
 44
1.0
  0
POINT
  5
29C
330
232
100
AcDbEntity
  8
Defpoints
 62
     0
100
AcDbPoint
 10
115.3882466731
 20
119.8098832564
 30
0.0
  0
POINT
  5
4DA
330
232
100
AcDbEntity
  8
Defpoints
 62
     0
100
AcDbPoint
 10
115.3882466731
 20
40.6098832564
 30
0.0
  0
POINT
  5
4DB
330
232
100
AcDbEntity
  8
Defpoints
 62
     0
100
AcDbPoint
 10
125.6232658962
 20
40.6098832564
 30
0.0
  0
ENDBLK
  5
29D
330
232
100
AcDbEntity
  8
0
  6
ByBlock
 62
     0
100
AcDbBlockEnd
  0
BLOCK
  5
238
330
233
100
AcDbEntity
  8
0
100
AcDbBlockBegin
  2
LOGO2_BL0
 70
     0
 10
333.1473869546
 20
37.5239270671
 30
0.0
  3
LOGO2_BL0
  1
LOGO2_BL0
  0
LINE
  5
239
330
233
100
AcDbEntity
  8
0
  6
Continuous
 62
     7
100
AcDbLine
 10
324.8903121828
 20
40.7194184059
 30
0.0
 11
323.5859712535
 21
40.7194184059
 31
0.0
  0
LINE
  5
23A
330
233
100
AcDbEntity
  8
0
  6
Continuous
 62
     7
100
AcDbLine
 10
323.5859712535
 20
40.7194184059
 30
0.0
 11
323.5859712535
 21
30.260352346
 31
0.0
  0
LINE
  5
23B
330
233
100
AcDbEntity
  8
0
  6
Continuous
 62
     7
100
AcDbLine
 10
323.5859712535
 20
30.260352346
 30
0.0
 11
328.0670261417
 21
30.260352346
 31
0.0
  0
LINE
  5
23C
330
233
100
AcDbEntity
  8
0
  6
Continuous
 62
     7
100
AcDbLine
 10
328.0670261417
 20
30.260352346
 30
0.0
 11
328.0670261417
 21
31.4532066711
 31
0.0
  0
LINE
  5
23D
330
233
100
AcDbEntity
  8
0
  6
Continuous
 62
     7
100
AcDbLine
 10
328.0670261417
 20
31.4532066711
 30
0.0
 11
324.8903121828
 21
31.4532066711
 31
0.0
  0
LINE
  5
23E
330
233
100
AcDbEntity
  8
0
  6
Continuous
 62
     7
100
AcDbLine
 10
324.8903121828
 20
31.4532066711
 30
0.0
 11
324.8903121828
 21
40.7194184059
 31
0.0
  0
LINE
  5
23F
330
233
100
AcDbEntity
  8
0
  6
Continuous
 62
     7
100
AcDbLine
 10
339.8266383991
 20
40.7194184059
 30
0.0
 11
338.522820881
 21
40.7194184059
 31
0.0
  0
LINE
  5
240
330
233
100
AcDbEntity
  8
0
  6
Continuous
 62
     7
100
AcDbLine
 10
338.522820881
 20
40.7194184059
 30
0.0
 11
338.522820881
 21
30.260352346
 31
0.0
  0
LINE
  5
241
330
233
100
AcDbEntity
  8
0
  6
Continuous
 62
     7
100
AcDbLine
 10
338.522820881
 20
30.260352346
 30
0.0
 11
343.0040066221
 21
30.260352346
 31
0.0
  0
LINE
  5
242
330
233
100
AcDbEntity
  8
0
  6
Continuous
 62
     7
100
AcDbLine
 10
343.0040066221
 20
30.260352346
 30
0.0
 11
343.0040066221
 21
31.4532066711
 31
0.0
  0
LINE
  5
243
330
233
100
AcDbEntity
  8
0
  6
Continuous
 62
     7
100
AcDbLine
 10
343.0040066221
 20
31.4532066711
 30
0.0
 11
339.8266383991
 21
31.4532066711
 31
0.0
  0
LINE
  5
244
330
233
100
AcDbEntity
  8
0
  6
Continuous
 62
     7
100
AcDbLine
 10
339.8266383991
 20
31.4532066711
 30
0.0
 11
339.8266383991
 21
40.7194184059
 31
0.0
  0
LWPOLYLINE
  5
245
330
233
100
AcDbEntity
  8
0
  6
Continuous
 62
     7
100
AcDbPolyline
 90
        2
 70
     0
 43
0.2
 10
321.9403661644
 20
26.9168010391
 10
321.9403661644
 20
25.0597377898
  0
LWPOLYLINE
  5
246
330
233
100
AcDbEntity
  8
0
  6
Continuous
 62
     7
100
AcDbPolyline
 90
        2
 70
     0
 43
0.2
 10
321.9403661644
 20
25.0597377898
 10
322.7360821748
 20
25.0597377898
  0
LWPOLYLINE
  5
247
330
233
100
AcDbEntity
  8
0
  6
Continuous
 62
     7
100
AcDbPolyline
 90
        2
 70
     0
 43
0.2
 10
322.7360821748
 20
25.0597377898
 10
322.7360821748
 20
25.2717193614
  0
LWPOLYLINE
  5
248
330
233
100
AcDbEntity
  8
0
  6
Continuous
 62
     7
100
AcDbPolyline
 90
        2
 70
     0
 43
0.2
 10
322.7360821748
 20
25.2717193614
 10
322.1719756593
 20
25.2717193614
  0
LWPOLYLINE
  5
249
330
233
100
AcDbEntity
  8
0
  6
Continuous
 62
     7
100
AcDbPolyline
 90
        2
 70
     0
 43
0.2
 10
322.1719756593
 20
25.2717193614
 10
322.1719756593
 20
26.9168010391
  0
LWPOLYLINE
  5
24A
330
233
100
AcDbEntity
  8
0
  6
Continuous
 62
     7
100
AcDbPolyline
 90
        2
 70
     0
 43
0.2
 10
322.1719756593
 20
26.9168010391
 10
321.9403661644
 20
26.9168010391
  0
SPLINE
  5
24B
330
233
100
AcDbEntity
  8
0
  6
Continuous
 62
     7
100
AcDbSpline
 70
     3
 71
     3
 72
    35
 73
    31
 74
     0
 42
0.000000001
 43
0.0000001
 40
0.0
 40
0.0
 40
0.0
 40
0.0
 40
1.0
 40
1.0
 40
1.0
 40
2.0
 40
2.0
 40
2.0
 40
3.0
 40
3.0
 40
3.0
 40
4.0
 40
4.0
 40
4.0
 40
5.0
 40
5.0
 40
5.0
 40
6.0
 40
6.0
 40
6.0
 40
7.0
 40
7.0
 40
7.0
 40
8.0
 40
8.0
 40
8.0
 40
9.0
 40
9.0
 40
9.0
 40
10.0
 40
10.0
 40
10.0
 40
10.0
 10
324.1343754303
 20
26.2122894457
 30
0.0
 10
324.1343754303
 20
26.2122894457
 30
0.0
 10
324.1343754303
 20
25.5501741665
 30
0.0
 10
324.1343754303
 20
25.5501741665
 30
0.0
 10
324.1343754303
 20
25.2350805712
 30
0.0
 10
324.2822391191
 20
25.0204819432
 30
0.0
 10
324.6223256034
 20
25.0204819432
 30
0.0
 10
324.9618886764
 20
25.0204819432
 30
0.0
 10
325.1100140709
 20
25.2350805712
 30
0.0
 10
325.1100140709
 20
25.5501741665
 30
0.0
 10
325.1100140709
 20
25.5501741665
 30
0.0
 10
325.1100140709
 20
26.2122894457
 30
0.0
 10
325.1100140709
 20
26.2122894457
 30
0.0
 10
325.1100140709
 20
26.2122894457
 30
0.0
 10
324.887956832
 20
26.2122894457
 30
0.0
 10
324.887956832
 20
26.2122894457
 30
0.0
 10
324.887956832
 20
26.2122894457
 30
0.0
 10
324.887956832
 20
25.5752979083
 30
0.0
 10
324.887956832
 20
25.5752979083
 30
0.0
 10
324.887956832
 20
25.3894869011
 30
0.0
 10
324.8412423746
 20
25.2267059906
 30
0.0
 10
324.6223256034
 20
25.2267059906
 30
0.0
 10
324.402885421
 20
25.2267059906
 30
0.0
 10
324.3561709636
 20
25.3894869011
 30
0.0
 10
324.3561709636
 20
25.5752979083
 30
0.0
 10
324.3561709636
 20
25.5752979083
 30
0.0
 10
324.3561709636
 20
26.2122894457
 30
0.0
 10
324.3561709636
 20
26.2122894457
 30
0.0
 10
324.3561709636
 20
26.2122894457
 30
0.0
 10
324.1343754303
 20
26.2122894457
 30
0.0
 10
324.1343754303
 20
26.2122894457
 30
0.0
  0
SPLINE
  5
24C
330
233
100
AcDbEntity
  8
0
  6
Continuous
 62
     7
100
AcDbSpline
 70
     3
 71
     3
 72
    35
 73
    31
 74
     0
 42
0.000000001
 43
0.0000001
 40
0.0
 40
0.0
 40
0.0
 40
0.0
 40
1.0
 40
1.0
 40
1.0
 40
2.0
 40
2.0
 40
2.0
 40
3.0
 40
3.0
 40
3.0
 40
4.0
 40
4.0
 40
4.0
 40
5.0
 40
5.0
 40
5.0
 40
6.0
 40
6.0
 40
6.0
 40
7.0
 40
7.0
 40
7.0
 40
8.0
 40
8.0
 40
8.0
 40
9.0
 40
9.0
 40
9.0
 40
10.0
 40
10.0
 40
10.0
 40
10.0
 10
327.5331466281
 20
26.1709399539
 30
0.0
 10
327.4446901205
 20
26.2222342601
 30
0.0
 10
327.3312407238
 20
26.2473580019
 30
0.0
 10
327.2276052888
 20
26.2473580019
 30
0.0
 10
326.8727324356
 20
26.2473580019
 30
0.0
 10
326.5972872454
 20
25.9835587129
 30
0.0
 10
326.5972872454
 20
25.6260688032
 30
0.0
 10
326.5972872454
 20
25.2811407645
 30
0.0
 10
326.8757420505
 20
25.0210053545
 30
0.0
 10
327.2153051235
 20
25.0210053545
 30
0.0
 10
327.3312407238
 20
25.0210053545
 30
0.0
 10
327.4319973967
 20
25.0429886286
 30
0.0
 10
327.5331466281
 20
25.0968999912
 30
0.0
 10
327.5331466281
 20
25.0968999912
 30
0.0
 10
327.5331466281
 20
25.3795420867
 30
0.0
 10
327.5331466281
 20
25.3795420867
 30
0.0
 10
327.4492699692
 20
25.2863748774
 30
0.0
 10
327.345765387
 20
25.2272294019
 30
0.0
 10
327.2176604743
 20
25.2272294019
 30
0.0
 10
326.9839573343
 20
25.2272294019
 30
0.0
 10
326.8186902202
 20
25.3994317156
 30
0.0
 10
326.8186902202
 20
25.6360136177
 30
0.0
 10
326.8186902202
 20
25.8479951893
 30
0.0
 10
326.9864435379
 20
26.040087132
 30
0.0
 10
327.2032666639
 20
26.040087132
 30
0.0
 10
327.3360822782
 20
26.040087132
 30
0.0
 10
327.4446901205
 20
25.9861757693
 30
0.0
 10
327.5331466281
 20
25.8851573907
 30
0.0
 10
327.5331466281
 20
25.8851573907
 30
0.0
 10
327.5331466281
 20
26.1709399539
 30
0.0
 10
327.5331466281
 20
26.1709399539
 30
0.0
  0
SPLINE
  5
24D
330
233
100
AcDbEntity
  8
0
  6
Continuous
 62
     7
100
AcDbSpline
 70
     3
 71
     3
 72
    32
 73
    28
 74
     0
 42
0.000000001
 43
0.0000001
 40
0.0
 40
0.0
 40
0.0
 40
0.0
 40
1.0
 40
1.0
 40
1.0
 40
2.0
 40
2.0
 40
2.0
 40
3.0
 40
3.0
 40
3.0
 40
4.0
 40
4.0
 40
4.0
 40
5.0
 40
5.0
 40
5.0
 40
6.0
 40
6.0
 40
6.0
 40
7.0
 40
7.0
 40
7.0
 40
8.0
 40
8.0
 40
8.0
 40
9.0
 40
9.0
 40
9.0
 40
9.0
 10
330.0650178804
 20
25.5993748276
 30
0.0
 10
330.0650178804
 20
25.5993748276
 30
0.0
 10
330.0650178804
 20
25.6333965613
 30
0.0
 10
330.0650178804
 20
25.6333965613
 30
0.0
 10
330.0650178804
 20
25.9757075435
 30
0.0
 10
329.8921613025
 20
26.2473580019
 30
0.0
 10
329.5255116954
 20
26.2473580019
 30
0.0
 10
329.153889681
 20
26.2473580019
 30
0.0
 10
328.9641530891
 20
25.9809416564
 30
0.0
 10
328.9641530891
 20
25.6260688032
 30
0.0
 10
328.9641530891
 20
25.2863748774
 30
0.0
 10
329.1782283059
 20
25.0204819432
 30
0.0
 10
329.5303532498
 20
25.0204819432
 30
0.0
 10
329.754373281
 20
25.0204819432
 30
0.0
 10
329.9565408909
 20
25.1361558378
 30
0.0
 10
330.0650178804
 20
25.3355755385
 30
0.0
 10
330.0650178804
 20
25.3355755385
 30
0.0
 10
329.8773749337
 20
25.4423514412
 30
0.0
 10
329.8773749337
 20
25.4423514412
 30
0.0
 10
329.7938908332
 20
25.3036474499
 30
0.0
 10
329.7026864163
 20
25.2178079987
 30
0.0
 10
329.5331011591
 20
25.2178079987
 30
0.0
 10
329.3211195875
 20
25.2178079987
 30
0.0
 10
329.1881731204
 20
25.4025721833
 30
0.0
 10
329.1858177696
 20
25.5993748276
 30
0.0
 10
329.1858177696
 20
25.5993748276
 30
0.0
 10
330.0650178804
 20
25.5993748276
 30
0.0
 10
330.0650178804
 20
25.5993748276
 30
0.0
  0
SPLINE
  5
24E
330
233
100
AcDbEntity
  8
0
  6
Continuous
 62
     7
100
AcDbSpline
 70
     3
 71
     3
 72
    14
 73
    10
 74
     0
 42
0.000000001
 43
0.0000001
 40
0.0
 40
0.0
 40
0.0
 40
0.0
 40
1.0
 40
1.0
 40
1.0
 40
2.0
 40
2.0
 40
2.0
 40
3.0
 40
3.0
 40
3.0
 40
3.0
 10
329.1978562292
 20
25.7668664397
 30
0.0
 10
329.2254661746
 20
25.9317409954
 30
0.0
 10
329.3533093817
 20
26.054742648
 30
0.0
 10
329.5255116954
 20
26.054742648
 30
0.0
 10
329.7026864163
 20
26.054742648
 30
0.0
 10
329.816135813
 20
25.9390687534
 30
0.0
 10
329.8433531999
 20
25.7668664397
 30
0.0
 10
329.8433531999
 20
25.7668664397
 30
0.0
 10
329.1978562292
 20
25.7668664397
 30
0.0
 10
329.1978562292
 20
25.7668664397
 30
0.0
  0
SPLINE
  5
24F
330
233
100
AcDbEntity
  8
0
  6
Continuous
 62
     7
100
AcDbSpline
 70
     3
 71
     3
 72
    20
 73
    16
 74
     0
 42
0.000000001
 43
0.0000001
 40
0.0
 40
0.0
 40
0.0
 40
0.0
 40
1.0
 40
1.0
 40
1.0
 40
2.0
 40
2.0
 40
2.0
 40
3.0
 40
3.0
 40
3.0
 40
4.0
 40
4.0
 40
4.0
 40
5.0
 40
5.0
 40
5.0
 40
5.0
 10
332.0890493306
 20
25.9762309548
 30
0.0
 10
332.0890493306
 20
25.9762309548
 30
0.0
 10
332.5001888972
 20
25.4737561185
 30
0.0
 10
332.5001888972
 20
25.4737561185
 30
0.0
 10
332.3841224441
 20
25.3580822239
 30
0.0
 10
332.2463344226
 20
25.2277528132
 30
0.0
 10
332.0743938145
 20
25.2277528132
 30
0.0
 10
331.8969573879
 20
25.2277528132
 30
0.0
 10
331.7294657758
 20
25.3921039576
 30
0.0
 10
331.7294657758
 20
25.5690169729
 30
0.0
 10
331.7294657758
 20
25.7469768107
 30
0.0
 10
331.9392228494
 20
25.8731189311
 30
0.0
 10
332.0668043508
 20
25.9610520275
 30
0.0
 10
332.0668043508
 20
25.9610520275
 30
0.0
 10
332.0890493306
 20
25.9762309548
 30
0.0
 10
332.0890493306
 20
25.9762309548
 30
0.0
  0
SPLINE
  5
250
330
233
100
AcDbEntity
  8
0
  6
Continuous
 62
     7
100
AcDbSpline
 70
     3
 71
     3
 72
    23
 73
    19
 74
     0
 42
0.000000001
 43
0.0000001
 40
0.0
 40
0.0
 40
0.0
 40
0.0
 40
1.0
 40
1.0
 40
1.0
 40
2.0
 40
2.0
 40
2.0
 40
3.0
 40
3.0
 40
3.0
 40
4.0
 40
4.0
 40
4.0
 40
5.0
 40
5.0
 40
5.0
 40
6.0
 40
6.0
 40
6.0
 40
6.0
 10
332.1383808444
 20
26.2672476309
 30
0.0
 10
332.1383808444
 20
26.2672476309
 30
0.0
 10
332.0767491653
 20
26.3457593241
 30
0.0
 10
332.0767491653
 20
26.3457593241
 30
0.0
 10
332.0228378026
 20
26.4143262028
 30
0.0
 10
331.9660476779
 20
26.4834164928
 30
0.0
 10
331.9660476779
 20
26.5771071133
 30
0.0
 10
331.9660476779
 20
26.6959214757
 30
0.0
 10
332.0619627964
 20
26.7733863463
 30
0.0
 10
332.1729259894
 20
26.7733863463
 30
0.0
 10
332.2961893477
 20
26.7733863463
 30
0.0
 10
332.3894874098
 20
26.7022024111
 30
0.0
 10
332.3894874098
 20
26.5718730004
 30
0.0
 10
332.3894874098
 20
26.4368328882
 30
0.0
 10
332.2613824971
 20
26.3604148401
 30
0.0
 10
332.1678227294
 20
26.2866138485
 30
0.0
 10
332.1678227294
 20
26.2866138485
 30
0.0
 10
332.1383808444
 20
26.2672476309
 30
0.0
 10
332.1383808444
 20
26.2672476309
 30
0.0
  0
SPLINE
  5
251
330
233
100
AcDbEntity
  8
0
  6
Continuous
 62
     7
100
AcDbSpline
 70
     3
 71
     3
 72
    50
 73
    46
 74
     0
 42
0.000000001
 43
0.0000001
 40
0.0
 40
0.0
 40
0.0
 40
0.0
 40
1.0
 40
1.0
 40
1.0
 40
2.0
 40
2.0
 40
2.0
 40
3.0
 40
3.0
 40
3.0
 40
4.0
 40
4.0
 40
4.0
 40
5.0
 40
5.0
 40
5.0
 40
6.0
 40
6.0
 40
6.0
 40
7.0
 40
7.0
 40
7.0
 40
8.0
 40
8.0
 40
8.0
 40
9.0
 40
9.0
 40
9.0
 40
10.0
 40
10.0
 40
10.0
 40
11.0
 40
11.0
 40
11.0
 40
12.0
 40
12.0
 40
12.0
 40
13.0
 40
13.0
 40
13.0
 40
14.0
 40
14.0
 40
14.0
 40
15.0
 40
15.0
 40
15.0
 40
15.0
 10
332.8405370871
 20
25.0602612011
 30
0.0
 10
332.8405370871
 20
25.0602612011
 30
0.0
 10
333.1259270918
 20
25.0602612011
 30
0.0
 10
333.1259270918
 20
25.0602612011
 30
0.0
 10
333.1259270918
 20
25.0602612011
 30
0.0
 10
332.793560924
 20
25.471139062
 30
0.0
 10
332.793560924
 20
25.471139062
 30
0.0
 10
332.793560924
 20
25.471139062
 30
0.0
 10
333.0200671588
 20
25.7370319963
 30
0.0
 10
333.0200671588
 20
25.7370319963
 30
0.0
 10
333.0200671588
 20
25.7370319963
 30
0.0
 10
332.8718109116
 20
25.8898680923
 30
0.0
 10
332.8718109116
 20
25.8898680923
 30
0.0
 10
332.8718109116
 20
25.8898680923
 30
0.0
 10
332.6559037553
 20
25.6386306742
 30
0.0
 10
332.6559037553
 20
25.6386306742
 30
0.0
 10
332.6559037553
 20
25.6386306742
 30
0.0
 10
332.2688411079
 20
26.1065603655
 30
0.0
 10
332.2688411079
 20
26.1065603655
 30
0.0
 10
332.4242942604
 20
26.2206640263
 30
0.0
 10
332.6065722414
 20
26.3604148401
 30
0.0
 10
332.6065722414
 20
26.5697793553
 30
0.0
 10
332.6065722414
 20
26.8136890154
 30
0.0
 10
332.4045354843
 20
26.9571037083
 30
0.0
 10
332.1780292495
 20
26.9571037083
 30
0.0
 10
331.9338578837
 20
26.9571037083
 30
0.0
 10
331.7494862575
 20
26.8063612574
 30
0.0
 10
331.7494862575
 20
26.5498897263
 30
0.0
 10
331.7494862575
 20
26.3923429287
 30
0.0
 10
331.8481492853
 20
26.25468576
 30
0.0
 10
331.953485807
 20
26.1437225669
 30
0.0
 10
331.953485807
 20
26.1437225669
 30
0.0
 10
331.8379427652
 20
26.0599767609
 30
0.0
 10
331.8379427652
 20
26.0599767609
 30
0.0
 10
331.660244633
 20
25.9317409954
 30
0.0
 10
331.5129043554
 20
25.8040286411
 30
0.0
 10
331.5129043554
 20
25.5669233277
 30
0.0
 10
331.5129043554
 20
25.2465956195
 30
0.0
 10
331.7714695316
 20
25.0204819432
 30
0.0
 10
332.0818524253
 20
25.0204819432
 30
0.0
 10
332.3007691965
 20
25.0204819432
 30
0.0
 10
332.4979643992
 20
25.145577241
 30
0.0
 10
332.6382386243
 20
25.3114986192
 30
0.0
 10
332.6382386243
 20
25.3114986192
 30
0.0
 10
332.8405370871
 20
25.0602612011
 30
0.0
 10
332.8405370871
 20
25.0602612011
 30
0.0
  0
LWPOLYLINE
  5
252
330
233
100
AcDbEntity
  8
0
  6
Continuous
 62
     7
100
AcDbPolyline
 90
        2
 70
     0
 43
0.2
 10
334.7759811768
 20
26.9168010391
 10
334.5446333876
 20
26.9168010391
  0
LWPOLYLINE
  5
253
330
233
100
AcDbEntity
  8
0
  6
Continuous
 62
     7
100
AcDbPolyline
 90
        2
 70
     0
 43
0.2
 10
334.5446333876
 20
26.9168010391
 10
334.5446333876
 20
25.0597377898
  0
LWPOLYLINE
  5
254
330
233
100
AcDbEntity
  8
0
  6
Continuous
 62
     7
100
AcDbPolyline
 90
        2
 70
     0
 43
0.2
 10
334.5446333876
 20
25.0597377898
 10
335.3399568395
 20
25.0597377898
  0
LWPOLYLINE
  5
255
330
233
100
AcDbEntity
  8
0
  6
Continuous
 62
     7
100
AcDbPolyline
 90
        2
 70
     0
 43
0.2
 10
335.3399568395
 20
25.0597377898
 10
335.3399568395
 20
25.2717193614
  0
LWPOLYLINE
  5
256
330
233
100
AcDbEntity
  8
0
  6
Continuous
 62
     7
100
AcDbPolyline
 90
        2
 70
     0
 43
0.2
 10
335.3399568395
 20
25.2717193614
 10
334.7759811768
 20
25.2717193614
  0
LWPOLYLINE
  5
257
330
233
100
AcDbEntity
  8
0
  6
Continuous
 62
     7
100
AcDbPolyline
 90
        2
 70
     0
 43
0.2
 10
334.7759811768
 20
25.2717193614
 10
334.7759811768
 20
26.9168010391
  0
LWPOLYLINE
  5
258
330
233
100
AcDbEntity
  8
0
  6
Continuous
 62
     7
100
AcDbPolyline
 90
        2
 70
     0
 43
0.2
 10
337.019060251
 20
26.2122894457
 10
336.7979189819
 20
26.2122894457
  0
LWPOLYLINE
  5
259
330
233
100
AcDbEntity
  8
0
  6
Continuous
 62
     7
100
AcDbPolyline
 90
        2
 70
     0
 43
0.2
 10
336.7979189819
 20
26.2122894457
 10
336.7979189819
 20
25.0602612011
  0
LWPOLYLINE
  5
25A
330
233
100
AcDbEntity
  8
0
  6
Continuous
 62
     7
100
AcDbPolyline
 90
        2
 70
     0
 43
0.2
 10
336.7979189819
 20
25.0602612011
 10
337.019060251
 20
25.0602612011
  0
LWPOLYLINE
  5
25B
330
233
100
AcDbEntity
  8
0
  6
Continuous
 62
     7
100
AcDbPolyline
 90
        2
 70
     0
 43
0.2
 10
337.019060251
 20
25.0602612011
 10
337.019060251
 20
26.2122894457
  0
SPLINE
  5
25C
330
233
100
AcDbEntity
  8
0
  6
Continuous
 62
     7
100
AcDbSpline
 70
     3
 71
     3
 72
    17
 73
    13
 74
     0
 42
0.000000001
 43
0.0000001
 40
0.0
 40
0.0
 40
0.0
 40
0.0
 40
1.0
 40
1.0
 40
1.0
 40
2.0
 40
2.0
 40
2.0
 40
3.0
 40
3.0
 40
3.0
 40
4.0
 40
4.0
 40
4.0
 40
4.0
 10
336.9086204693
 20
26.894817765
 30
0.0
 10
336.8246129576
 20
26.894817765
 30
0.0
 10
336.7560460788
 20
26.825727475
 30
0.0
 10
336.7560460788
 20
26.7398880238
 30
0.0
 10
336.7560460788
 20
26.6556188065
 30
0.0
 10
336.8246129576
 20
26.5896689842
 30
0.0
 10
336.9086204693
 20
26.5896689842
 30
0.0
 10
336.9923662753
 20
26.5896689842
 30
0.0
 10
337.0611948597
 20
26.6556188065
 30
0.0
 10
337.0611948597
 20
26.7398880238
 30
0.0
 10
337.0611948597
 20
26.825727475
 30
0.0
 10
336.9923662753
 20
26.894817765
 30
0.0
 10
336.9086204693
 20
26.894817765
 30
0.0
  0
SPLINE
  5
25D
330
233
100
AcDbEntity
  8
0
  6
Continuous
 62
     7
100
AcDbSpline
 70
     3
 71
     3
 72
    17
 73
    13
 74
     0
 42
0.000000001
 43
0.0000001
 40
0.0
 40
0.0
 40
0.0
 40
0.0
 40
1.0
 40
1.0
 40
1.0
 40
2.0
 40
2.0
 40
2.0
 40
3.0
 40
3.0
 40
3.0
 40
4.0
 40
4.0
 40
4.0
 40
4.0
 10
339.1493441926
 20
25.2178079987
 30
0.0
 10
338.915379347
 20
25.2178079987
 30
0.0
 10
338.7850499363
 20
25.4198447558
 30
0.0
 10
338.7850499363
 20
25.6360136177
 30
0.0
 10
338.7850499363
 20
25.8506122457
 30
0.0
 10
338.9208751655
 20
26.0495085351
 30
0.0
 10
339.1493441926
 20
26.0495085351
 30
0.0
 10
339.3888048568
 20
26.0495085351
 30
0.0
 10
339.5243683804
 20
25.8605570602
 30
0.0
 10
339.5243683804
 20
25.6360136177
 30
0.0
 10
339.5243683804
 20
25.4098999414
 30
0.0
 10
339.3911602076
 20
25.2178079987
 30
0.0
 10
339.1493441926
 20
25.2178079987
 30
0.0
  0
SPLINE
  5
25E
330
233
100
AcDbEntity
  8
0
  6
Continuous
 62
     7
100
AcDbSpline
 70
     3
 71
     3
 72
    50
 73
    46
 74
     0
 42
0.000000001
 43
0.0000001
 40
0.0
 40
0.0
 40
0.0
 40
0.0
 40
1.0
 40
1.0
 40
1.0
 40
2.0
 40
2.0
 40
2.0
 40
3.0
 40
3.0
 40
3.0
 40
4.0
 40
4.0
 40
4.0
 40
5.0
 40
5.0
 40
5.0
 40
6.0
 40
6.0
 40
6.0
 40
7.0
 40
7.0
 40
7.0
 40
8.0
 40
8.0
 40
8.0
 40
9.0
 40
9.0
 40
9.0
 40
10.0
 40
10.0
 40
10.0
 40
11.0
 40
11.0
 40
11.0
 40
12.0
 40
12.0
 40
12.0
 40
13.0
 40
13.0
 40
13.0
 40
14.0
 40
14.0
 40
14.0
 40
15.0
 40
15.0
 40
15.0
 40
15.0
 10
339.7334711899
 20
26.2128128569
 30
0.0
 10
339.7334711899
 20
26.2128128569
 30
0.0
 10
339.5118065095
 20
26.2128128569
 30
0.0
 10
339.5118065095
 20
26.2128128569
 30
0.0
 10
339.5118065095
 20
26.2128128569
 30
0.0
 10
339.5118065095
 20
26.0154868014
 30
0.0
 10
339.5118065095
 20
26.0154868014
 30
0.0
 10
339.5118065095
 20
26.0154868014
 30
0.0
 10
339.5070958079
 20
26.0154868014
 30
0.0
 10
339.5070958079
 20
26.0154868014
 30
0.0
 10
339.4157605382
 20
26.158378083
 30
0.0
 10
339.2778416638
 20
26.2468345907
 30
0.0
 10
339.1051159388
 20
26.2468345907
 30
0.0
 10
338.772749771
 20
26.2468345907
 30
0.0
 10
338.5636469615
 20
25.9589583823
 30
0.0
 10
338.5636469615
 20
25.6433413757
 30
0.0
 10
338.5636469615
 20
25.3135922644
 30
0.0
 10
338.7607113114
 20
25.0204819432
 30
0.0
 10
339.1155841646
 20
25.0204819432
 30
0.0
 10
339.2778416638
 20
25.0204819432
 30
0.0
 10
339.4178541833
 20
25.1089384508
 30
0.0
 10
339.5070958079
 20
25.2397912728
 30
0.0
 10
339.5070958079
 20
25.2397912728
 30
0.0
 10
339.5118065095
 20
25.2397912728
 30
0.0
 10
339.5118065095
 20
25.2397912728
 30
0.0
 10
339.5118065095
 20
25.2397912728
 30
0.0
 10
339.5118065095
 20
25.0204819432
 30
0.0
 10
339.5118065095
 20
25.0204819432
 30
0.0
 10
339.5118065095
 20
24.7839000411
 30
0.0
 10
339.4552780904
 20
24.5970422113
 30
0.0
 10
339.1820573981
 20
24.5970422113
 30
0.0
 10
338.9797589354
 20
24.5970422113
 30
0.0
 10
338.8371293594
 20
24.7153331624
 30
0.0
 10
338.8371293594
 20
24.9215572098
 30
0.0
 10
338.8371293594
 20
24.9215572098
 30
0.0
 10
338.615464679
 20
24.9215572098
 30
0.0
 10
338.615464679
 20
24.9215572098
 30
0.0
 10
338.6204370862
 20
24.5970422113
 30
0.0
 10
338.8515231698
 20
24.4002395671
 30
0.0
 10
339.171850878
 20
24.4002395671
 30
0.0
 10
339.6198909404
 20
24.4002395671
 30
0.0
 10
339.7334711899
 20
24.6854987189
 30
0.0
 10
339.7334711899
 20
25.0822444751
 30
0.0
 10
339.7334711899
 20
25.0822444751
 30
0.0
 10
339.7334711899
 20
26.2128128569
 30
0.0
 10
339.7334711899
 20
26.2128128569
 30
0.0
  0
SPLINE
  5
25F
330
233
100
AcDbEntity
  8
0
  6
Continuous
 62
     7
100
AcDbSpline
 70
     3
 71
     3
 72
    44
 73
    40
 74
     0
 42
0.000000001
 43
0.0000001
 40
0.0
 40
0.0
 40
0.0
 40
0.0
 40
1.0
 40
1.0
 40
1.0
 40
2.0
 40
2.0
 40
2.0
 40
3.0
 40
3.0
 40
3.0
 40
4.0
 40
4.0
 40
4.0
 40
5.0
 40
5.0
 40
5.0
 40
6.0
 40
6.0
 40
6.0
 40
7.0
 40
7.0
 40
7.0
 40
8.0
 40
8.0
 40
8.0
 40
9.0
 40
9.0
 40
9.0
 40
10.0
 40
10.0
 40
10.0
 40
11.0
 40
11.0
 40
11.0
 40
12.0
 40
12.0
 40
12.0
 40
13.0
 40
13.0
 40
13.0
 40
13.0
 10
341.3023965253
 20
27.1978729007
 30
0.0
 10
341.3023965253
 20
27.1978729007
 30
0.0
 10
341.3023965253
 20
25.0597377898
 30
0.0
 10
341.3023965253
 20
25.0597377898
 30
0.0
 10
341.3023965253
 20
25.0597377898
 30
0.0
 10
341.5237995001
 20
25.0597377898
 30
0.0
 10
341.5237995001
 20
25.0597377898
 30
0.0
 10
341.5237995001
 20
25.0597377898
 30
0.0
 10
341.5237995001
 20
25.5894300131
 30
0.0
 10
341.5237995001
 20
25.5894300131
 30
0.0
 10
341.5237995001
 20
25.7993179395
 30
0.0
 10
341.5237995001
 20
26.0500319464
 30
0.0
 10
341.8090586519
 20
26.0500319464
 30
0.0
 10
342.0359574452
 20
26.0500319464
 30
0.0
 10
342.0629131266
 20
25.9170854793
 30
0.0
 10
342.0629131266
 20
25.7208062464
 30
0.0
 10
342.0629131266
 20
25.7208062464
 30
0.0
 10
342.0629131266
 20
25.0597377898
 30
0.0
 10
342.0629131266
 20
25.0597377898
 30
0.0
 10
342.0629131266
 20
25.0597377898
 30
0.0
 10
342.2848395126
 20
25.0597377898
 30
0.0
 10
342.2848395126
 20
25.0597377898
 30
0.0
 10
342.2848395126
 20
25.0597377898
 30
0.0
 10
342.2848395126
 20
25.7469768107
 30
0.0
 10
342.2848395126
 20
25.7469768107
 30
0.0
 10
342.2848395126
 20
26.027525261
 30
0.0
 10
342.2008320009
 20
26.2473580019
 30
0.0
 10
341.8757935911
 20
26.2473580019
 30
0.0
 10
341.7360427773
 20
26.2473580019
 30
0.0
 10
341.5978621973
 20
26.1808847684
 30
0.0
 10
341.5285102016
 20
26.0578831157
 30
0.0
 10
341.5285102016
 20
26.0578831157
 30
0.0
 10
341.5237995001
 20
26.0578831157
 30
0.0
 10
341.5237995001
 20
26.0578831157
 30
0.0
 10
341.5237995001
 20
26.0578831157
 30
0.0
 10
341.5237995001
 20
27.1978729007
 30
0.0
 10
341.5237995001
 20
27.1978729007
 30
0.0
 10
341.5237995001
 20
27.1978729007
 30
0.0
 10
341.3023965253
 20
27.1978729007
 30
0.0
 10
341.3023965253
 20
27.1978729007
 30
0.0
  0
LWPOLYLINE
  5
260
330
233
100
AcDbEntity
  8
0
  6
Continuous
 62
     7
100
AcDbPolyline
 90
        2
 70
     0
 43
0.2
 10
344.1246301895
 20
26.005541987
 10
344.341060757
 20
26.005541987
  0
LWPOLYLINE
  5
261
330
233
100
AcDbEntity
  8
0
  6
Continuous
 62
     7
100
AcDbPolyline
 90
        2
 70
     0
 43
0.2
 10
344.341060757
 20
26.005541987
 10
344.341060757
 20
26.2122894457
  0
LWPOLYLINE
  5
262
330
233
100
AcDbEntity
  8
0
  6
Continuous
 62
     7
100
AcDbPolyline
 90
        2
 70
     0
 43
0.2
 10
344.341060757
 20
26.2122894457
 10
344.1246301895
 20
26.2122894457
  0
LWPOLYLINE
  5
263
330
233
100
AcDbEntity
  8
0
  6
Continuous
 62
     7
100
AcDbPolyline
 90
        2
 70
     0
 43
0.2
 10
344.1246301895
 20
26.2122894457
 10
344.1246301895
 20
26.65300175
  0
LWPOLYLINE
  5
264
330
233
100
AcDbEntity
  8
0
  6
Continuous
 62
     7
100
AcDbPolyline
 90
        2
 70
     0
 43
0.2
 10
344.1246301895
 20
26.65300175
 10
343.9029655091
 20
26.65300175
  0
LWPOLYLINE
  5
265
330
233
100
AcDbEntity
  8
0
  6
Continuous
 62
     7
100
AcDbPolyline
 90
        2
 70
     0
 43
0.2
 10
343.9029655091
 20
26.65300175
 10
343.9029655091
 20
26.2122894457
  0
LWPOLYLINE
  5
266
330
233
100
AcDbEntity
  8
0
  6
Continuous
 62
     7
100
AcDbPolyline
 90
        2
 70
     0
 43
0.2
 10
343.9029655091
 20
26.2122894457
 10
343.7823192072
 20
26.2122894457
  0
LWPOLYLINE
  5
267
330
233
100
AcDbEntity
  8
0
  6
Continuous
 62
     7
100
AcDbPolyline
 90
        2
 70
     0
 43
0.2
 10
343.7823192072
 20
26.2122894457
 10
343.7823192072
 20
26.005541987
  0
LWPOLYLINE
  5
268
330
233
100
AcDbEntity
  8
0
  6
Continuous
 62
     7
100
AcDbPolyline
 90
        2
 70
     0
 43
0.2
 10
343.7823192072
 20
26.005541987
 10
343.9029655091
 20
26.005541987
  0
LWPOLYLINE
  5
269
330
233
100
AcDbEntity
  8
0
  6
Continuous
 62
     7
100
AcDbPolyline
 90
        2
 70
     0
 43
0.2
 10
343.9029655091
 20
26.005541987
 10
343.9029655091
 20
25.0597377898
  0
LWPOLYLINE
  5
26A
330
233
100
AcDbEntity
  8
0
  6
Continuous
 62
     7
100
AcDbPolyline
 90
        2
 70
     0
 43
0.2
 10
343.9029655091
 20
25.0597377898
 10
344.1246301895
 20
25.0597377898
  0
LWPOLYLINE
  5
26B
330
233
100
AcDbEntity
  8
0
  6
Continuous
 62
     7
100
AcDbPolyline
 90
        2
 70
     0
 43
0.2
 10
344.1246301895
 20
25.0597377898
 10
344.1246301895
 20
26.005541987
  0
SPLINE
  5
26C
330
233
100
AcDbEntity
  8
0
  6
Continuous
 62
     7
100
AcDbSpline
 70
     3
 71
     3
 72
    20
 73
    16
 74
     0
 42
0.000000001
 43
0.0000001
 40
0.0
 40
0.0
 40
0.0
 40
0.0
 40
1.0
 40
1.0
 40
1.0
 40
2.0
 40
2.0
 40
2.0
 40
3.0
 40
3.0
 40
3.0
 40
4.0
 40
4.0
 40
4.0
 40
5.0
 40
5.0
 40
5.0
 40
5.0
 10
331.9066404967
 20
35.4206642332
 30
0.0
 10
331.9066404967
 20
35.4206642332
 30
0.0
 10
334.2229971512
 20
32.5911028109
 30
0.0
 10
334.2229971512
 20
32.5911028109
 30
0.0
 10
333.5713500978
 20
31.9389323462
 30
0.0
 10
332.7944768938
 20
31.2030160755
 30
0.0
 10
331.8232872491
 20
31.2030160755
 30
0.0
 10
330.8247493647
 20
31.2030160755
 30
0.0
 10
329.8814313711
 20
32.1325945228
 30
0.0
 10
329.8814313711
 20
33.1317866713
 30
0.0
 10
329.8814313711
 20
34.1309788198
 30
0.0
 10
331.0602844442
 20
34.8375840585
 30
0.0
 10
331.7818069046
 20
35.3374418384
 30
0.0
 10
331.7818069046
 20
35.3374418384
 30
0.0
 10
331.9066404967
 20
35.4206642332
 30
0.0
 10
331.9066404967
 20
35.4206642332
 30
0.0
  0
SPLINE
  5
26D
330
233
100
AcDbEntity
  8
0
  6
Continuous
 62
     7
100
AcDbSpline
 70
     3
 71
     3
 72
    23
 73
    19
 74
     0
 42
0.000000001
 43
0.0000001
 40
0.0
 40
0.0
 40
0.0
 40
0.0
 40
1.0
 40
1.0
 40
1.0
 40
2.0
 40
2.0
 40
2.0
 40
3.0
 40
3.0
 40
3.0
 40
4.0
 40
4.0
 40
4.0
 40
5.0
 40
5.0
 40
5.0
 40
6.0
 40
6.0
 40
6.0
 40
6.0
 10
332.1840484793
 20
37.0584181529
 30
0.0
 10
332.1840484793
 20
37.0584181529
 30
0.0
 10
331.8375502067
 20
37.5017475137
 30
0.0
 10
331.8375502067
 20
37.5017475137
 30
0.0
 10
331.5317471618
 20
37.8898569837
 30
0.0
 10
331.2128588347
 20
38.2783590121
 30
0.0
 10
331.2128588347
 20
38.8053033262
 30
0.0
 10
331.2128588347
 20
39.4714750428
 30
0.0
 10
331.7541969591
 20
39.9151969621
 30
0.0
 10
332.3781032143
 20
39.9151969621
 30
0.0
 10
333.0718848763
 20
39.9151969621
 30
0.0
 10
333.5990908961
 20
39.5129553874
 30
0.0
 10
333.5990908961
 20
38.7779550864
 30
0.0
 10
333.5990908961
 20
38.0146905758
 30
0.0
 10
332.8778301414
 20
37.58457735
 30
0.0
 10
332.3507549745
 20
37.1688579346
 30
0.0
 10
332.3507549745
 20
37.1688579346
 30
0.0
 10
332.1840484793
 20
37.0584181529
 30
0.0
 10
332.1840484793
 20
37.0584181529
 30
0.0
  0
SPLINE
  5
26E
330
233
100
AcDbEntity
  8
0
  6
Continuous
 62
     7
100
AcDbSpline
 70
     3
 71
     3
 72
    50
 73
    46
 74
     0
 42
0.000000001
 43
0.0000001
 40
0.0
 40
0.0
 40
0.0
 40
0.0
 40
1.0
 40
1.0
 40
1.0
 40
2.0
 40
2.0
 40
2.0
 40
3.0
 40
3.0
 40
3.0
 40
4.0
 40
4.0
 40
4.0
 40
5.0
 40
5.0
 40
5.0
 40
6.0
 40
6.0
 40
6.0
 40
7.0
 40
7.0
 40
7.0
 40
8.0
 40
8.0
 40
8.0
 40
9.0
 40
9.0
 40
9.0
 40
10.0
 40
10.0
 40
10.0
 40
11.0
 40
11.0
 40
11.0
 40
12.0
 40
12.0
 40
12.0
 40
13.0
 40
13.0
 40
13.0
 40
14.0
 40
14.0
 40
14.0
 40
15.0
 40
15.0
 40
15.0
 40
15.0
 10
336.1376356422
 20
30.2598289348
 30
0.0
 10
336.1376356422
 20
30.2598289348
 30
0.0
 10
337.7468636468
 20
30.2598289348
 30
0.0
 10
337.7468636468
 20
30.2598289348
 30
0.0
 10
337.7468636468
 20
30.2598289348
 30
0.0
 10
335.8738363531
 20
32.5769707062
 30
0.0
 10
335.8738363531
 20
32.5769707062
 30
0.0
 10
335.8738363531
 20
32.5769707062
 30
0.0
 10
337.1501747786
 20
34.0744504008
 30
0.0
 10
337.1501747786
 20
34.0744504008
 30
0.0
 10
337.1501747786
 20
34.0744504008
 30
0.0
 10
336.3179508309
 20
34.9354619693
 30
0.0
 10
336.3179508309
 20
34.9354619693
 30
0.0
 10
336.3179508309
 20
34.9354619693
 30
0.0
 10
335.0973557076
 20
33.5201578469
 30
0.0
 10
335.0973557076
 20
33.5201578469
 30
0.0
 10
335.0973557076
 20
33.5201578469
 30
0.0
 10
332.9194413388
 20
36.1555336813
 30
0.0
 10
332.9194413388
 20
36.1555336813
 30
0.0
 10
333.7930147782
 20
36.7935720412
 30
0.0
 10
334.8196860194
 20
37.58457735
 30
0.0
 10
334.8196860194
 20
38.7634304231
 30
0.0
 10
334.8196860194
 20
40.1371233482
 30
0.0
 10
333.6817898795
 20
40.9416064976
 30
0.0
 10
332.4064982766
 20
40.9416064976
 30
0.0
 10
331.0330670573
 20
40.9416064976
 30
0.0
 10
329.9921328585
 20
40.0953812979
 30
0.0
 10
329.9921328585
 20
38.6527289358
 30
0.0
 10
329.9921328585
 20
37.7651542444
 30
0.0
 10
330.547472235
 20
36.9882810403
 30
0.0
 10
331.1436376918
 20
36.3638513739
 30
0.0
 10
331.1436376918
 20
36.3638513739
 30
0.0
 10
330.4917289328
 20
35.8922578035
 30
0.0
 10
330.4917289328
 20
35.8922578035
 30
0.0
 10
329.4931910484
 20
35.1709970488
 30
0.0
 10
328.6603128365
 20
34.4497362942
 30
0.0
 10
328.6603128365
 20
33.1181779778
 30
0.0
 10
328.6603128365
 20
31.3145026798
 30
0.0
 10
330.1173590091
 20
30.0379025487
 30
0.0
 10
331.8648984465
 20
30.0379025487
 30
0.0
 10
333.0997565274
 20
30.0379025487
 30
0.0
 10
334.2091267521
 20
30.7460780212
 30
0.0
 10
335.000001208
 20
31.6746096459
 30
0.0
 10
335.000001208
 20
31.6746096459
 30
0.0
 10
336.1376356422
 20
30.2598289348
 30
0.0
 10
336.1376356422
 20
30.2598289348
 30
0.0
  0
LINE
  5
26F
330
233
100
AcDbEntity
  8
0
  6
Continuous
 62
     7
100
AcDbLine
 10
321.9404970172
 20
28.2337038394
 30
0.0
 11
344.3544077449
 21
28.2337038394
 31
0.0
  0
LINE
  5
270
330
233
100
AcDbEntity
  8
0
  6
Continuous
 62
     7
100
AcDbLine
 10
344.3544077449
 20
28.2337038394
 30
0.0
 11
344.3544077449
 21
50.6476145671
 31
0.0
  0
LINE
  5
271
330
233
100
AcDbEntity
  8
0
  6
Continuous
 62
     7
100
AcDbLine
 10
344.3544077449
 20
50.6476145671
 30
0.0
 11
321.9404970172
 21
50.6476145671
 31
0.0
  0
LINE
  5
272
330
233
100
AcDbEntity
  8
0
  6
Continuous
 62
     7
100
AcDbLine
 10
321.9404970172
 20
50.6476145671
 30
0.0
 11
321.9404970172
 21
28.2337038394
 31
0.0
  0
ENDBLK
  5
273
330
233
100
AcDbEntity
  8
0
  6
ByBlock
 62
     0
100
AcDbBlockEnd
  0
BLOCK
  5
29E
330
234
100
AcDbEntity
  8
0
100
AcDbBlockBegin
  2
*T6
 70
     1
 10
0.0
 20
0.0
 30
0.0
  3
*T6
  1
*T6
  0
MTEXT
  5
29F
330
234
100
AcDbEntity
  8
0
  6
Continuous
 62
     0
100
AcDbMText
 10
30.06
 20
-3.0
 30
0.0
 40
3.0
 41
39.88
 71
     4
 72
     5
  1
6A2_C_010
 73
     1
 44
1.0
  0
MTEXT
  5
2A0
330
234
100
AcDbEntity
  8
0
  6
Continuous
 62
     0
100
AcDbMText
 10
70.06
 20
-0.06
 30
0.0
 40
3.5
 41
19.88
 71
     1
 72
     5
  1
Rev:00
 73
     1
 44
1.0
  0
MTEXT
  5
2A1
330
234
100
AcDbEntity
  8
0
  6
Continuous
 62
     0
100
AcDbMText
 10
30.06
 20
-6.06
 30
0.0
 40
3.5
 41
39.88
 71
     1
 72
     5
  1
Scale:1:1
 73
     1
 44
1.0
  0
MTEXT
  5
2A2
330
234
100
AcDbEntity
  8
0
  6
Continuous
 62
     0
100
AcDbMText
 10
70.06
 20
-9.0
 30
0.0
 40
3.5
 41
19.88
 71
     4
 72
     5
  1
A3
 73
     1
 44
1.0
  0
MTEXT
  5
2A3
330
234
100
AcDbEntity
  8
0
  6
Continuous
 62
     0
100
AcDbMText
 10
30.06
 20
-17.0
 30
0.0
 40
3.5
 41
59.88
 71
     4
 72
     5
  1
QUAD 1.2 
 73
     1
 44
1.0
  0
MTEXT
  5
2A4
330
234
100
AcDbEntity
  8
0
  6
Continuous
 62
     0
100
AcDbMText
 10
30.06
 20
-24.5
 30
0.0
 40
2.5
 41
59.88
 71
     4
 72
     5
  1
DATE:01/04/2014
 73
     1
 44
1.0
  0
MTEXT
  5
2A5
330
234
100
AcDbEntity
  8
0
  6
Continuous
 62
     0
100
AcDbMText
 10
0.06
 20
-27.06
 30
0.0
 40
1.85
 41
89.88
 71
     1
 72
     5
  1
Any integral or partial reproductions are prohibited \Pwithout prior authorisation of L & L Luce & Light s.r.l., \Pin accordance with the law in force. \PAll rights reserved.
 73
     1
 44
1.0
  0
LINE
  5
2A6
330
234
100
AcDbEntity
  8
0
  6
Continuous
 62
     0
370
    -2
100
AcDbLine
 10
0.0
 20
0.0
 30
0.0
 11
10.0
 21
0.0
 31
0.0
  0
LINE
  5
2A7
330
234
100
AcDbEntity
  8
0
  6
Continuous
 62
     0
370
    -2
100
AcDbLine
 10
10.0
 20
0.0
 30
0.0
 11
20.0
 21
0.0
 31
0.0
  0
LINE
  5
2A8
330
234
100
AcDbEntity
  8
0
  6
Continuous
 62
     0
370
    -2
100
AcDbLine
 10
20.0
 20
0.0
 30
0.0
 11
30.0
 21
0.0
 31
0.0
  0
LINE
  5
2A9
330
234
100
AcDbEntity
  8
0
  6
Continuous
 62
     0
370
    -2
100
AcDbLine
 10
0.0
 20
0.0
 30
0.0
 11
0.0
 21
-6.0
 31
0.0
  0
LINE
  5
2AA
330
234
100
AcDbEntity
  8
0
  6
Continuous
 62
     0
370
    -2
100
AcDbLine
 10
0.0
 20
-6.0
 30
0.0
 11
0.0
 21
-12.0
 31
0.0
  0
LINE
  5
2AB
330
234
100
AcDbEntity
  8
0
  6
Continuous
 62
     0
370
    -2
100
AcDbLine
 10
0.0
 20
-12.0
 30
0.0
 11
0.0
 21
-22.0
 31
0.0
  0
LINE
  5
2AC
330
234
100
AcDbEntity
  8
0
  6
Continuous
 62
     0
370
    -2
100
AcDbLine
 10
0.0
 20
-22.0
 30
0.0
 11
0.0
 21
-27.0
 31
0.0
  0
LINE
  5
2AD
330
234
100
AcDbEntity
  8
0
  6
Continuous
 62
     0
370
    -2
100
AcDbLine
 10
30.0
 20
0.0
 30
0.0
 11
70.0
 21
0.0
 31
0.0
  0
LINE
  5
2AE
330
234
100
AcDbEntity
  8
0
  6
Continuous
 62
     0
370
    -2
100
AcDbLine
 10
30.0
 20
0.0
 30
0.0
 11
30.0
 21
-6.0
 31
0.0
  0
LINE
  5
2AF
330
234
100
AcDbEntity
  8
0
  6
Continuous
 62
     0
370
    -2
100
AcDbLine
 10
70.0
 20
0.0
 30
0.0
 11
90.0
 21
0.0
 31
0.0
  0
LINE
  5
4E2
330
234
100
AcDbEntity
  8
0
  6
Continuous
 62
     0
370
    -2
100
AcDbLine
 10
70.0
 20
0.0
 30
0.0
 11
70.0
 21
-6.0
 31
0.0
  0
LINE
  5
4E3
330
234
100
AcDbEntity
  8
0
  6
Continuous
 62
     0
370
    -2
100
AcDbLine
 10
90.0
 20
0.0
 30
0.0
 11
90.0
 21
-6.0
 31
0.0
  0
LINE
  5
4E4
330
234
100
AcDbEntity
  8
0
  6
Continuous
 62
     0
370
    -2
100
AcDbLine
 10
30.0
 20
-6.0
 30
0.0
 11
70.0
 21
-6.0
 31
0.0
  0
LINE
  5
4E5
330
234
100
AcDbEntity
  8
0
  6
Continuous
 62
     0
370
    -2
100
AcDbLine
 10
30.0
 20
-6.0
 30
0.0
 11
30.0
 21
-12.0
 31
0.0
  0
LINE
  5
4E6
330
234
100
AcDbEntity
  8
0
  6
Continuous
 62
     0
370
    -2
100
AcDbLine
 10
70.0
 20
-6.0
 30
0.0
 11
90.0
 21
-6.0
 31
0.0
  0
LINE
  5
4E7
330
234
100
AcDbEntity
  8
0
  6
Continuous
 62
     0
370
    -2
100
AcDbLine
 10
70.0
 20
-6.0
 30
0.0
 11
70.0
 21
-12.0
 31
0.0
  0
LINE
  5
4E8
330
234
100
AcDbEntity
  8
0
  6
Continuous
 62
     0
370
    -2
100
AcDbLine
 10
90.0
 20
-6.0
 30
0.0
 11
90.0
 21
-12.0
 31
0.0
  0
LINE
  5
4E9
330
234
100
AcDbEntity
  8
0
  6
Continuous
 62
     0
370
    -2
100
AcDbLine
 10
30.0
 20
-12.0
 30
0.0
 11
70.0
 21
-12.0
 31
0.0
  0
LINE
  5
4EA
330
234
100
AcDbEntity
  8
0
  6
Continuous
 62
     0
370
    -2
100
AcDbLine
 10
70.0
 20
-12.0
 30
0.0
 11
90.0
 21
-12.0
 31
0.0
  0
LINE
  5
4EB
330
234
100
AcDbEntity
  8
0
  6
Continuous
 62
     0
370
    -2
100
AcDbLine
 10
30.0
 20
-12.0
 30
0.0
 11
30.0
 21
-22.0
 31
0.0
  0
LINE
  5
4EC
330
234
100
AcDbEntity
  8
0
  6
Continuous
 62
     0
370
    -2
100
AcDbLine
 10
90.0
 20
-12.0
 30
0.0
 11
90.0
 21
-22.0
 31
0.0
  0
LINE
  5
4ED
330
234
100
AcDbEntity
  8
0
  6
Continuous
 62
     0
370
    -2
100
AcDbLine
 10
30.0
 20
-22.0
 30
0.0
 11
70.0
 21
-22.0
 31
0.0
  0
LINE
  5
4EE
330
234
100
AcDbEntity
  8
0
  6
Continuous
 62
     0
370
    -2
100
AcDbLine
 10
70.0
 20
-22.0
 30
0.0
 11
90.0
 21
-22.0
 31
0.0
  0
LINE
  5
4EF
330
234
100
AcDbEntity
  8
0
  6
Continuous
 62
     0
370
    -2
100
AcDbLine
 10
30.0
 20
-22.0
 30
0.0
 11
30.0
 21
-27.0
 31
0.0
  0
LINE
  5
4F0
330
234
100
AcDbEntity
  8
0
  6
Continuous
 62
     0
370
    -2
100
AcDbLine
 10
90.0
 20
-22.0
 30
0.0
 11
90.0
 21
-27.0
 31
0.0
  0
LINE
  5
4F1
330
234
100
AcDbEntity
  8
0
  6
Continuous
 62
     0
370
    -2
100
AcDbLine
 10
0.0
 20
-27.0
 30
0.0
 11
10.0
 21
-27.0
 31
0.0
  0
LINE
  5
4F2
330
234
100
AcDbEntity
  8
0
  6
Continuous
 62
     0
370
    -2
100
AcDbLine
 10
10.0
 20
-27.0
 30
0.0
 11
20.0
 21
-27.0
 31
0.0
  0
LINE
  5
4F3
330
234
100
AcDbEntity
  8
0
  6
Continuous
 62
     0
370
    -2
100
AcDbLine
 10
20.0
 20
-27.0
 30
0.0
 11
30.0
 21
-27.0
 31
0.0
  0
LINE
  5
4F4
330
234
100
AcDbEntity
  8
0
  6
Continuous
 62
     0
370
    -2
100
AcDbLine
 10
30.0
 20
-27.0
 30
0.0
 11
70.0
 21
-27.0
 31
0.0
  0
LINE
  5
4F5
330
234
100
AcDbEntity
  8
0
  6
Continuous
 62
     0
370
    -2
100
AcDbLine
 10
70.0
 20
-27.0
 30
0.0
 11
90.0
 21
-27.0
 31
0.0
  0
LINE
  5
4F6
330
234
100
AcDbEntity
  8
0
  6
Continuous
 62
     0
370
    -2
100
AcDbLine
 10
0.0
 20
-27.0
 30
0.0
 11
0.0
 21
-40.0
 31
0.0
  0
LINE
  5
4F7
330
234
100
AcDbEntity
  8
0
  6
Continuous
 62
     0
370
    -2
100
AcDbLine
 10
90.0
 20
-27.0
 30
0.0
 11
90.0
 21
-40.0
 31
0.0
  0
LINE
  5
4F8
330
234
100
AcDbEntity
  8
0
  6
Continuous
 62
     0
370
    -2
100
AcDbLine
 10
0.0
 20
-40.0
 30
0.0
 11
10.0
 21
-40.0
 31
0.0
  0
LINE
  5
4F9
330
234
100
AcDbEntity
  8
0
  6
Continuous
 62
     0
370
    -2
100
AcDbLine
 10
10.0
 20
-40.0
 30
0.0
 11
20.0
 21
-40.0
 31
0.0
  0
LINE
  5
4FA
330
234
100
AcDbEntity
  8
0
  6
Continuous
 62
     0
370
    -2
100
AcDbLine
 10
20.0
 20
-40.0
 30
0.0
 11
30.0
 21
-40.0
 31
0.0
  0
LINE
  5
4FB
330
234
100
AcDbEntity
  8
0
  6
Continuous
 62
     0
370
    -2
100
AcDbLine
 10
30.0
 20
-40.0
 30
0.0
 11
70.0
 21
-40.0
 31
0.0
  0
LINE
  5
4FC
330
234
100
AcDbEntity
  8
0
  6
Continuous
 62
     0
370
    -2
100
AcDbLine
 10
70.0
 20
-40.0
 30
0.0
 11
90.0
 21
-40.0
 31
0.0
  0
ENDBLK
  5
2B0
330
234
100
AcDbEntity
  8
0
100
AcDbBlockEnd
  0
ENDSEC
  0
SECTION
  2
ENTITIES
  0
MTEXT
  5
2B1
330
22C
100
AcDbEntity
  8
0
  6
Continuous
 62
     2
100
AcDbMText
 10
1.6467220993
 20
53.595027386
 30
0.0
 40
4.0
 41
2.2857142857
 71
     1
 72
     1
  1
1
  7
TEXTSTYLE_2
 73
     1
 44
0.9
  0
MTEXT
  5
2B2
330
22C
100
AcDbEntity
  8
0
  6
Continuous
 62
     2
100
AcDbMText
 10
1.6467220993
 20
153.595027386
 30
0.0
 40
4.0
 41
3.1428571429
 71
     1
 72
     1
  1
2
  7
TEXTSTYLE_2
 73
     1
 44
0.9
  0
MTEXT
  5
2B3
330
22C
100
AcDbEntity
  8
0
  6
Continuous
 62
     2
100
AcDbMText
 10
1.6467220993
 20
253.595027386
 30
0.0
 40
4.0
 41
2.8571428571
 71
     1
 72
     1
  1
3
  7
TEXTSTYLE_2
 73
     1
 44
0.9
  0
MTEXT
  5
2B4
330
22C
100
AcDbEntity
  8
0
  6
Continuous
 62
     2
100
AcDbMText
 10
414.6467220993
 20
60.6268709614
 30
0.0
 40
4.0
 41
2.2857142857
 71
     1
 72
     1
  1
1
  7
TEXTSTYLE_2
 73
     1
 44
0.9
  0
MTEXT
  5
2B5
330
22C
100
AcDbEntity
  8
0
  6
Continuous
 62
     2
100
AcDbMText
 10
414.6467220993
 20
160.6268709614
 30
0.0
 40
4.0
 41
3.1428571429
 71
     1
 72
     1
  1
2
  7
TEXTSTYLE_2
 73
     1
 44
0.9
  0
MTEXT
  5
2B6
330
22C
100
AcDbEntity
  8
0
  6
Continuous
 62
     2
100
AcDbMText
 10
414.6467220993
 20
260.6268709614
 30
0.0
 40
4.0
 41
2.8571428571
 71
     1
 72
     1
  1
3
  7
TEXTSTYLE_2
 73
     1
 44
0.9
  0
MTEXT
  5
2B7
330
22C
100
AcDbEntity
  8
0
  6
Continuous
 62
     2
100
AcDbMText
 10
362.154890719
 20
5.35876025
 30
0.0
 40
4.0
 41
3.6
 71
     1
 72
     1
  1
A
  7
TEXTSTYLE_3
 73
     1
 44
0.9
  0
MTEXT
  5
2B8
330
22C
100
AcDbEntity
  8
0
  6
Continuous
 62
     2
100
AcDbMText
 10
262.154890719
 20
5.35876025
 30
0.0
 40
4.0
 41
3.6
 71
     1
 72
     1
  1
B
  7
TEXTSTYLE_3
 73
     1
 44
0.9
  0
MTEXT
  5
2B9
330
22C
100
AcDbEntity
  8
0
  6
Continuous
 62
     2
100
AcDbMText
 10
162.154890719
 20
5.35876025
 30
0.0
 40
4.0
 41
3.6
 71
     1
 72
     1
  1
C
  7
TEXTSTYLE_3
 73
     1
 44
0.9
  0
MTEXT
  5
2BA
330
22C
100
AcDbEntity
  8
0
  6
Continuous
 62
     2
100
AcDbMText
 10
55.7978688212
 20
5.5353441916
 30
0.0
 40
4.0
 41
3.6
 71
     1
 72
     1
  1
D
  7
TEXTSTYLE_3
 73
     1
 44
0.9
  0
MTEXT
  5
2BB
330
22C
100
AcDbEntity
  8
0
  6
Continuous
 62
     2
100
AcDbMText
 10
362.154890719
 20
295.35876025
 30
0.0
 40
4.0
 41
3.6
 71
     1
 72
     1
  1
A
  7
TEXTSTYLE_3
 73
     1
 44
0.9
  0
MTEXT
  5
2BC
330
22C
100
AcDbEntity
  8
0
  6
Continuous
 62
     2
100
AcDbMText
 10
262.154890719
 20
295.35876025
 30
0.0
 40
4.0
 41
3.6
 71
     1
 72
     1
  1
B
  7
TEXTSTYLE_3
 73
     1
 44
0.9
  0
MTEXT
  5
2BD
330
22C
100
AcDbEntity
  8
0
  6
Continuous
 62
     2
100
AcDbMText
 10
162.154890719
 20
295.35876025
 30
0.0
 40
4.0
 41
3.6
 71
     1
 72
     1
  1
C
  7
TEXTSTYLE_3
 73
     1
 44
0.9
  0
MTEXT
  5
2BE
330
22C
100
AcDbEntity
  8
0
  6
Continuous
 62
     2
100
AcDbMText
 10
53.9878834197
 20
295.579490177
 30
0.0
 40
4.0
 41
3.6
 71
     1
 72
     1
  1
D
  7
TEXTSTYLE_3
 73
     1
 44
0.9
  0
DIMENSION
  5
2BF
330
22C
100
AcDbEntity
  8
0
  6
Continuous
 62
     2
100
AcDbDimension
  2
*D1
 10
104.7590997869
 20
175.8471679688
 30
0.0
 11
74.7590997869
 21
175.8471679688
 31
0.0
 70
   160
 71
     2
 42
59.99999999999999
  3
DIMSTYLE_1
100
AcDbAlignedDimension
 13
44.7590997869
 23
186.1791663761
 33
0.0
 14
104.7590997869
 24
185.9780900124
 34
0.0
100
AcDbRotatedDimension
1001
ACAD
1000
DSTYLE
1002
{
1070
   147
1040
2.0
1002
}
  0
DIMENSION
  5
2C0
330
22C
100
AcDbEntity
  8
0
  6
Continuous
 62
     2
100
AcDbDimension
  2
*D2
 10
125.6232658962
 20
188.5971679688
 30
0.0
 11
125.6232658962
 21
218.59716796875
 31
0.0
 70
   160
 71
     2
 42
59.99999999990001
  3
DIMSTYLE_1
100
AcDbAlignedDimension
 13
114.7146825822
 23
248.5971679687
 33
0.0
 14
114.1430496276
 24
188.5971679688
 34
0.0
 50
270.0
100
AcDbRotatedDimension
1001
ACAD
1000
DSTYLE
1002
{
1070
   147
1040
2.0
1002
}
  0
DIMENSION
  5
2C1
330
22C
100
AcDbEntity
  8
0
  6
Continuous
 62
     2
100
AcDbDimension
  2
*D3
 10
150.7785070345
 20
196.8971679687
 30
0.0
 11
150.7785070345
 21
218.59716796875
 31
0.0
 70
   160
 71
     2
 42
43.40000000010002
  3
DIMSTYLE_2
100
AcDbAlignedDimension
 13
164.7250644004
 23
240.2971679688
 33
0.0
 14
165.1020825822
 24
196.8971679687
 34
0.0
 50
270.0
100
AcDbRotatedDimension
1001
ACAD
1000
DSTYLE
1002
{
1070
   147
1040
2.0
1002
}
  0
DIMENSION
  5
2C2
330
22C
100
AcDbEntity
  8
0
  6
Continuous
 62
     2
100
AcDbDimension
  2
*D4
 10
125.6232658962
 20
40.60988325639999
 30
0.0
 11
125.6232658962
 21
80.20988325639999
 31
0.0
 70
   160
 71
     2
 42
79.19999999999999
  3
DIMSTYLE_2
100
AcDbAlignedDimension
 13
115.3882466731
 23
119.8098832564
 33
0.0
 14
115.3882466731
 24
40.6098832564
 34
0.0
 50
270.0
100
AcDbRotatedDimension
1001
ACAD
1000
DSTYLE
1002
{
1070
   147
1040
2.0
1002
}
  0
INSERT
  5
2C3
330
22C
100
AcDbEntity
  8
0
  6
Continuous
 62
     2
100
AcDbBlockReference
  2
LOGO2_BL0
 10
333.1473869546
 20
37.5239270671
 30
0.0
  0
INSERT
  5
2C4
330
22C
100
AcDbEntity
  8
0
  6
Continuous
 62
     2
100
AcDbBlockReference
  2
*T6
 10
319.3213399098
 20
51.0239270671
 30
0.0
  0
LINE
  5
2C5
330
22C
100
AcDbEntity
  8
0
  6
Continuous
 62
     7
100
AcDbLine
 10
0.0
 20
0.0
 30
0.0
 11
0.0
 21
297.0
 31
0.0
  0
LWPOLYLINE
  5
2C6
330
22C
100
AcDbEntity
  8
0
  6
Continuous
 62
     7
100
AcDbPolyline
 90
        2
 70
     0
 43
0.1000000003
 10
7.0536312849
 20
0.0
 10
7.0536312849
 20
297.0
  0
LWPOLYLINE
  5
2C7
330
22C
100
AcDbEntity
  8
0
  6
Continuous
 62
     7
100
AcDbPolyline
 90
        2
 70
     0
 43
0.4999999952
 10
10.0536312849
 20
10.0318435754
 10
10.0536312849
 20
287.0
  0
LINE
  5
2C8
330
22C
100
AcDbEntity
  8
0
  6
Continuous
 62
     7
100
AcDbLine
 10
0.0
 20
0.0
 30
0.0
 11
420.0
 21
0.0
 31
0.0
  0
LWPOLYLINE
  5
2C9
330
22C
100
AcDbEntity
  8
0
  6
Continuous
 62
     7
100
AcDbPolyline
 90
        2
 70
     0
 43
0.1000000003
 10
0.0
 20
7.0318435754
 10
420.0
 20
7.0318435754
  0
LWPOLYLINE
  5
2CA
330
22C
100
AcDbEntity
  8
0
  6
Continuous
 62
     7
100
AcDbPolyline
 90
        2
 70
     0
 43
0.4999999952
 10
10.0536312849
 20
10.0318435754
 10
410.0
 20
10.0318435754
  0
LINE
  5
2CB
330
22C
100
AcDbEntity
  8
0
  6
Continuous
 62
     7
100
AcDbLine
 10
113.0
 20
297.0
 30
0.0
 11
113.0
 21
290.0
 31
0.0
  0
LINE
  5
2CC
330
22C
100
AcDbEntity
  8
0
  6
Continuous
 62
     7
100
AcDbLine
 10
113.0
 20
7.0
 30
0.0
 11
113.0
 21
0.0
 31
0.0
  0
LWPOLYLINE
  5
2CD
330
22C
100
AcDbEntity
  8
0
  6
Continuous
 62
     7
100
AcDbPolyline
 90
        2
 70
     0
 43
0.1000000003
 10
123.0
 20
10.0
 10
123.0
 20
0.0
  0
LWPOLYLINE
  5
2CE
330
22C
100
AcDbEntity
  8
0
  6
Continuous
 62
     7
100
AcDbPolyline
 90
        2
 70
     0
 43
0.1000000003
 10
123.0
 20
287.0
 10
123.0
 20
297.0
  0
LINE
  5
2CF
330
22C
100
AcDbEntity
  8
0
  6
Continuous
 62
     7
100
AcDbLine
 10
0.0
 20
99.9681564246
 30
0.0
 11
7.0
 21
99.9681564246
 31
0.0
  0
LINE
  5
2D0
330
22C
100
AcDbEntity
  8
0
  6
Continuous
 62
     7
100
AcDbLine
 10
413.0
 20
107.0
 30
0.0
 11
420.0
 21
107.0
 31
0.0
  0
LWPOLYLINE
  5
2D1
330
22C
100
AcDbEntity
  8
0
  6
Continuous
 62
     7
100
AcDbPolyline
 90
        2
 70
     0
 43
0.1000000003
 10
210.0
 20
10.0
 10
210.0
 20
0.0
  0
LWPOLYLINE
  5
2D2
330
22C
100
AcDbEntity
  8
0
  6
Continuous
 62
     7
100
AcDbPolyline
 90
        2
 70
     0
 43
0.1000000003
 10
210.0
 20
287.0
 10
210.0
 20
297.0
  0
LWPOLYLINE
  5
2D3
330
22C
100
AcDbEntity
  8
0
  6
Continuous
 62
     7
100
AcDbPolyline
 90
        2
 70
     0
 43
0.1000000003
 10
10.0
 20
148.5
 10
0.0
 20
148.5
  0
LWPOLYLINE
  5
2D4
330
22C
100
AcDbEntity
  8
0
  6
Continuous
 62
     7
100
AcDbPolyline
 90
        2
 70
     0
 43
0.1000000003
 10
410.0
 20
148.5
 10
420.0
 20
148.5
  0
LINE
  5
2D5
330
22C
100
AcDbEntity
  8
0
  6
Continuous
 62
     7
100
AcDbLine
 10
0.0
 20
199.9681564246
 30
0.0
 11
7.0
 21
199.9681564246
 31
0.0
  0
LWPOLYLINE
  5
2D6
330
22C
100
AcDbEntity
  8
0
  6
Continuous
 62
     7
100
AcDbPolyline
 90
        2
 70
     0
 43
0.1000000003
 10
10.0
 20
202.9681564246
 10
0.0
 20
202.9681564246
  0
LWPOLYLINE
  5
2D7
330
22C
100
AcDbEntity
  8
0
  6
Continuous
 62
     7
100
AcDbPolyline
 90
        2
 70
     0
 43
0.1000000003
 10
410.0
 20
210.0
 10
420.0
 20
210.0
  0
LINE
  5
2D8
330
22C
100
AcDbEntity
  8
0
  6
Continuous
 62
     7
100
AcDbLine
 10
313.0
 20
297.0
 30
0.0
 11
313.0
 21
290.0
 31
0.0
  0
LINE
  5
2D9
330
22C
100
AcDbEntity
  8
0
  6
Continuous
 62
     7
100
AcDbLine
 10
313.0
 20
7.0
 30
0.0
 11
313.0
 21
0.0
 31
0.0
  0
LWPOLYLINE
  5
2DA
330
22C
100
AcDbEntity
  8
0
  6
Continuous
 62
     7
100
AcDbPolyline
 90
        2
 70
     0
 43
0.4999999952
 10
10.0536312849
 20
287.0
 10
410.0
 20
287.0
  0
LWPOLYLINE
  5
2DB
330
22C
100
AcDbEntity
  8
0
  6
Continuous
 62
     7
100
AcDbPolyline
 90
        2
 70
     0
 43
0.1000000003
 10
0.0
 20
290.0
 10
420.0
 20
290.0
  0
LINE
  5
2DC
330
22C
100
AcDbEntity
  8
0
  6
Continuous
 62
     7
100
AcDbLine
 10
0.0
 20
297.0
 30
0.0
 11
420.0
 21
297.0
 31
0.0
  0
LWPOLYLINE
  5
2DD
330
22C
100
AcDbEntity
  8
0
  6
Continuous
 62
     7
100
AcDbPolyline
 90
        2
 70
     0
 43
0.4999999952
 10
410.0
 20
10.0318435754
 10
410.0
 20
287.0
  0
LWPOLYLINE
  5
2DE
330
22C
100
AcDbEntity
  8
0
  6
Continuous
 62
     7
100
AcDbPolyline
 90
        2
 70
     0
 43
0.1000000003
 10
413.0
 20
0.0
 10
413.0
 20
297.0
  0
LINE
  5
2DF
330
22C
100
AcDbEntity
  8
0
  6
Continuous
 62
     7
100
AcDbLine
 10
420.0
 20
0.0
 30
0.0
 11
420.0
 21
297.0
 31
0.0
  0
LINE
  5
2E0
330
22C
100
AcDbEntity
  8
7_ALL_FEATURES
  6
Continuous
 62
     7
100
AcDbLine
 10
37.7011072014
 20
233.5971679687
 30
0.0
 11
37.7011072014
 21
203.5971679687
 31
0.0
  0
LINE
  5
2E1
330
22C
100
AcDbEntity
  8
7_ALL_FEATURES
  6
Continuous
 62
     7
100
AcDbLine
 10
39.7111347398
 20
231.5971679688
 30
0.0
 11
39.7111347398
 21
205.5971679687
 31
0.0
  0
LINE
  5
2E2
330
22C
100
AcDbEntity
  8
7_ALL_FEATURES
  6
Continuous
 62
     7
100
AcDbLine
 10
40.057064834
 20
205.5971679687
 30
0.0
 11
40.057064834
 21
231.5971679687
 31
0.0
  0
LINE
  5
2E3
330
22C
100
AcDbEntity
  8
7_ALL_FEATURES
  6
Continuous
 62
     7
100
AcDbLine
 10
44.7590997869
 20
248.5971679687
 30
0.0
 11
44.7590997869
 21
188.5971679688
 31
0.0
  0
LINE
  5
2E4
330
22C
100
AcDbEntity
  8
7_ALL_FEATURES
  6
Continuous
 62
     7
100
AcDbLine
 10
44.7590997869
 20
188.5971679688
 30
0.0
 11
104.7590997869
 21
188.5971679688
 31
0.0
  0
LINE
  5
2E5
330
22C
100
AcDbEntity
  8
7_ALL_FEATURES
  6
Continuous
 62
     7
100
AcDbLine
 10
57.2590997869
 20
236.0971679688
 30
0.0
 11
57.2590997869
 21
201.0971679687
 31
0.0
  0
LINE
  5
2E6
330
22C
100
AcDbEntity
  8
7_ALL_FEATURES
  6
Continuous
 62
     7
100
AcDbLine
 10
57.2590997869
 20
201.0971679687
 30
0.0
 11
92.2590997869
 21
201.0971679687
 31
0.0
  0
LINE
  5
2E7
330
22C
100
AcDbEntity
  8
7_ALL_FEATURES
  6
Continuous
 62
     7
100
AcDbLine
 10
37.7011072014
 20
203.5971679687
 30
0.0
 11
44.7590997869
 21
203.5971679687
 31
0.0
  0
LINE
  5
2E8
330
22C
100
AcDbEntity
  8
7_ALL_FEATURES
  6
Continuous
 62
     7
100
AcDbLine
 10
104.7590997869
 20
203.5971679687
 30
0.0
 11
111.8170923725
 21
203.5971679687
 31
0.0
  0
LINE
  5
2E9
330
22C
100
AcDbEntity
  8
7_ALL_FEATURES
  6
Continuous
 62
     9
100
AcDbLine
 10
109.807064834
 20
205.5971679687
 30
0.0
 11
109.4611347398
 21
205.5971679687
 31
0.0
  0
LINE
  5
2EA
330
22C
100
AcDbEntity
  8
7_ALL_FEATURES
  6
Continuous
 62
     9
100
AcDbLine
 10
40.057064834
 20
205.5971679687
 30
0.0
 11
39.7111347398
 21
205.5971679687
 31
0.0
  0
LINE
  5
2EB
330
22C
100
AcDbEntity
  8
7_ALL_FEATURES
  6
Continuous
 62
     9
100
AcDbLine
 10
39.7111347398
 20
231.5971679687
 30
0.0
 11
40.057064834
 21
231.5971679687
 31
0.0
  0
LINE
  5
2EC
330
22C
100
AcDbEntity
  8
7_ALL_FEATURES
  6
Continuous
 62
     9
100
AcDbLine
 10
109.4611347398
 20
231.5971679687
 30
0.0
 11
109.807064834
 21
231.5971679687
 31
0.0
  0
LINE
  5
2ED
330
22C
100
AcDbEntity
  8
7_ALL_FEATURES
  6
Continuous
 62
     7
100
AcDbLine
 10
37.7011072014
 20
233.5971679687
 30
0.0
 11
44.7590997869
 21
233.5971679687
 31
0.0
  0
LINE
  5
2EE
330
22C
100
AcDbEntity
  8
7_ALL_FEATURES
  6
Continuous
 62
     7
100
AcDbLine
 10
104.7590997869
 20
233.5971679687
 30
0.0
 11
111.8170923725
 21
233.5971679687
 31
0.0
  0
LINE
  5
2EF
330
22C
100
AcDbEntity
  8
7_ALL_FEATURES
  6
Continuous
 62
     7
100
AcDbLine
 10
92.2590997869
 20
201.0971679687
 30
0.0
 11
92.2590997869
 21
236.0971679688
 31
0.0
  0
LINE
  5
2F0
330
22C
100
AcDbEntity
  8
7_ALL_FEATURES
  6
Continuous
 62
     7
100
AcDbLine
 10
92.2590997869
 20
236.0971679688
 30
0.0
 11
57.2590997869
 21
236.0971679688
 31
0.0
  0
LINE
  5
2F1
330
22C
100
AcDbEntity
  8
7_ALL_FEATURES
  6
Continuous
 62
     7
100
AcDbLine
 10
104.7590997869
 20
188.5971679688
 30
0.0
 11
104.7590997869
 21
248.5971679687
 31
0.0
  0
LINE
  5
2F2
330
22C
100
AcDbEntity
  8
7_ALL_FEATURES
  6
Continuous
 62
     7
100
AcDbLine
 10
104.7590997869
 20
248.5971679687
 30
0.0
 11
44.7590997869
 21
248.5971679687
 31
0.0
  0
LINE
  5
2F3
330
22C
100
AcDbEntity
  8
7_ALL_FEATURES
  6
Continuous
 62
     7
100
AcDbLine
 10
109.4611347398
 20
231.5971679687
 30
0.0
 11
109.4611347398
 21
205.5971679687
 31
0.0
  0
LINE
  5
2F4
330
22C
100
AcDbEntity
  8
7_ALL_FEATURES
  6
Continuous
 62
     7
100
AcDbLine
 10
109.807064834
 20
205.5971679687
 30
0.0
 11
109.807064834
 21
231.5971679687
 31
0.0
  0
LINE
  5
2F5
330
22C
100
AcDbEntity
  8
7_ALL_FEATURES
  6
Continuous
 62
     7
100
AcDbLine
 10
111.8170923725
 20
203.5971679687
 30
0.0
 11
111.8170923725
 21
233.5971679687
 31
0.0
  0
LINE
  5
2F6
330
22C
100
AcDbEntity
  8
7_ALL_FEATURES
  6
Continuous
 62
     7
100
AcDbLine
 10
104.7590997869
 20
40.6098832564
 30
0.0
 11
44.7590997869
 21
40.6098832564
 31
0.0
  0
LINE
  5
2F7
330
22C
100
AcDbEntity
  8
7_ALL_FEATURES
  6
Continuous
 62
     7
100
AcDbLine
 10
39.7111347398
 20
46.2832732491
 30
0.0
 11
37.7011072014
 21
59.3484522491
 31
0.0
  0
LINE
  5
2F8
330
22C
100
AcDbEntity
  8
7_ALL_FEATURES
  6
Continuous
 62
     7
100
AcDbLine
 10
38.0670923725
 20
59.2713142637
 30
0.0
 11
40.057064834
 21
46.3364932636
 31
0.0
  0
LINE
  5
2F9
330
22C
100
AcDbEntity
  8
7_ALL_FEATURES
  6
Continuous
 62
     7
100
AcDbLine
 10
44.7590997869
 20
41.8098832564
 30
0.0
 11
104.7590997869
 21
41.8098832564
 31
0.0
  0
LINE
  5
2FA
330
22C
100
AcDbEntity
  8
7_ALL_FEATURES
  6
Continuous
 62
     7
100
AcDbLine
 10
44.7590997869
 20
40.6098832564
 30
0.0
 11
44.7590997869
 21
41.8098832564
 31
0.0
  0
LINE
  5
2FB
330
22C
100
AcDbEntity
  8
7_ALL_FEATURES
  6
Continuous
 62
     7
100
AcDbLine
 10
39.7111347398
 20
46.2832732491
 30
0.0
 11
40.057064834
 21
46.3364932636
 31
0.0
  0
LINE
  5
2FC
330
22C
100
AcDbEntity
  8
7_ALL_FEATURES
  6
Continuous
 62
     9
100
AcDbLine
 10
39.4070203713
 20
48.2600166444
 30
0.0
 11
39.7529504655
 21
48.3132366589
 31
0.0
  0
LINE
  5
2FD
330
22C
100
AcDbEntity
  8
7_ALL_FEATURES
  6
Continuous
 62
     7
100
AcDbLine
 10
109.4611347398
 20
46.3364932636
 30
0.0
 11
109.807064834
 21
46.2832732491
 31
0.0
  0
LINE
  5
2FE
330
22C
100
AcDbEntity
  8
7_ALL_FEATURES
  6
Continuous
 62
     9
100
AcDbLine
 10
109.7652491084
 20
48.3132366589
 30
0.0
 11
110.1111792025
 21
48.2600166444
 31
0.0
  0
LINE
  5
2FF
330
22C
100
AcDbEntity
  8
02___PRT_ALL_AXES
  6
Continuous
 62
     7
100
AcDbLine
 10
50.5090997869
 20
84.8449176019
 30
0.0
 11
50.5090997869
 21
88.7748489109
 31
0.0
  0
LINE
  5
300
330
22C
100
AcDbEntity
  8
02___PRT_ALL_AXES
  6
Continuous
 62
     7
100
AcDbLine
 10
52.3290997869
 20
83.0098832564
 30
0.0
 11
52.3290997869
 21
90.6098832564
 31
0.0
  0
LINE
  5
301
330
22C
100
AcDbEntity
  8
7_ALL_FEATURES
  6
Continuous
 62
     7
100
AcDbLine
 10
52.7090997869
 20
91.4848832564
 30
0.0
 11
52.7090997869
 21
82.8609739664
 31
0.0
  0
LINE
  5
302
330
22C
100
AcDbEntity
  8
7_ALL_FEATURES
  6
Continuous
 62
     7
100
AcDbLine
 10
52.8590997869
 20
82.3098832564
 30
0.0
 11
52.8590997869
 21
81.1098832564
 31
0.0
  0
LINE
  5
303
330
22C
100
AcDbEntity
  8
7_ALL_FEATURES
  6
Continuous
 62
     7
100
AcDbLine
 10
53.0590997869
 20
91.8098832564
 30
0.0
 11
53.0590997869
 21
41.8098832564
 31
0.0
  0
LINE
  5
304
330
22C
100
AcDbEntity
  8
7_ALL_FEATURES
  6
Continuous
 62
     7
100
AcDbLine
 10
53.0590997869
 20
56.8098832564
 30
0.0
 11
54.2590997869
 21
56.8098832564
 31
0.0
  0
LINE
  5
305
330
22C
100
AcDbEntity
  8
7_ALL_FEATURES
  6
Continuous
 62
     7
100
AcDbLine
 10
54.2590997869
 20
57.3098832564
 30
0.0
 11
53.0590997869
 21
57.3098832564
 31
0.0
  0
LINE
  5
306
330
22C
100
AcDbEntity
  8
7_ALL_FEATURES
  6
Continuous
 62
     7
100
AcDbLine
 10
54.2590997869
 20
56.8098832564
 30
0.0
 11
54.2590997869
 21
76.8098832564
 31
0.0
  0
LINE
  5
307
330
22C
100
AcDbEntity
  8
02___PRT_ALL_AXES
  6
Continuous
 62
     7
100
AcDbLine
 10
55.2590997869
 20
109.8098832564
 30
0.0
 11
55.2590997869
 21
107.2098832564
 31
0.0
  0
LINE
  5
308
330
22C
100
AcDbEntity
  8
02___PRT_ALL_AXES
  6
Continuous
 62
     7
100
AcDbLine
 10
55.2590997869
 20
104.7098832564
 30
0.0
 11
55.2590997869
 21
102.2098832564
 31
0.0
  0
LINE
  5
309
330
22C
100
AcDbEntity
  8
02___PRT_ALL_AXES
  6
Continuous
 62
     7
100
AcDbLine
 10
55.2590997869
 20
99.7098832564
 30
0.0
 11
55.2590997869
 21
97.2098832564
 31
0.0
  0
LINE
  5
30A
330
22C
100
AcDbEntity
  8
02___PRT_ALL_AXES
  6
Continuous
 62
     7
100
AcDbLine
 10
55.2590997869
 20
94.7098832564
 30
0.0
 11
55.2590997869
 21
92.9571264428
 31
0.0
  0
LINE
  5
30B
330
22C
100
AcDbEntity
  8
02___PRT_ALL_AXES
  6
Continuous
 62
     7
100
AcDbLine
 10
55.2590997869
 20
92.5529812544
 30
0.0
 11
55.2590997869
 21
92.2098832564
 31
0.0
  0
LINE
  5
30C
330
22C
100
AcDbEntity
  8
7_ALL_FEATURES
  6
Continuous
 62
     7
100
AcDbLine
 10
52.7090997869
 20
82.8609739664
 30
0.0
 11
37.7011072014
 21
59.3484522491
 31
0.0
  0
LINE
  5
30D
330
22C
100
AcDbEntity
  8
7_ALL_FEATURES
  6
Continuous
 62
     7
100
AcDbLine
 10
53.0590997869
 20
82.7587925463
 30
0.0
 11
38.0670923725
 21
59.2713142637
 31
0.0
  0
LINE
  5
30E
330
22C
100
AcDbEntity
  8
7_ALL_FEATURES
  6
Continuous
 62
     7
100
AcDbLine
 10
53.0590997869
 20
91.6869558506
 30
0.0
 11
52.7090997869
 21
91.4848832564
 31
0.0
  0
LINE
  5
30F
330
22C
100
AcDbEntity
  8
7_ALL_FEATURES
  6
Continuous
 62
     7
100
AcDbLine
 10
53.2720162994
 20
91.8098832564
 30
0.0
 11
56.7090997869
 21
93.7942843332
 31
0.0
  0
LINE
  5
310
330
22C
100
AcDbEntity
  8
7_ALL_FEATURES
  6
Continuous
 62
     7
100
AcDbLine
 10
53.9720162994
 20
91.8098832564
 30
0.0
 11
56.8840997869
 21
93.4911754418
 31
0.0
  0
LINE
  5
311
330
22C
100
AcDbEntity
  8
02___PRT_ALL_AXES
  6
Continuous
 62
     7
100
AcDbLine
 10
59.7501712155
 20
91.8098832564
 30
0.0
 11
59.7501712155
 21
92.2098832564
 31
0.0
  0
LINE
  5
312
330
22C
100
AcDbEntity
  8
02___PRT_ALL_AXES
  6
Continuous
 62
     7
100
AcDbLine
 10
61.409209722
 20
91.8098832564
 30
0.0
 11
61.409209722
 21
92.2098832564
 31
0.0
  0
LINE
  5
313
330
22C
100
AcDbEntity
  8
02___PRT_ALL_AXES
  6
Continuous
 62
     7
100
AcDbLine
 10
61.8215997869
 20
94.7098832564
 30
0.0
 11
61.8215997869
 21
97.2098832564
 31
0.0
  0
LINE
  5
314
330
22C
100
AcDbEntity
  8
02___PRT_ALL_AXES
  6
Continuous
 62
     7
100
AcDbLine
 10
62.8840858855
 20
94.7098832564
 30
0.0
 11
62.8840858855
 21
97.2098832564
 31
0.0
  0
LINE
  5
315
330
22C
100
AcDbEntity
  8
02___PRT_ALL_AXES
  6
Continuous
 62
     7
100
AcDbLine
 10
63.6073140726
 20
99.7098832564
 30
0.0
 11
63.6073140726
 21
102.2098832564
 31
0.0
  0
LINE
  5
316
330
22C
100
AcDbEntity
  8
7_ALL_FEATURES
  6
Continuous
 62
     9
100
AcDbLine
 10
55.1520489794
 20
92.4911754418
 30
0.0
 11
54.9770489794
 21
92.7942843332
 31
0.0
  0
LINE
  5
317
330
22C
100
AcDbEntity
  8
7_ALL_FEATURES
  6
Continuous
 62
     7
100
AcDbLine
 10
64.7590997869
 20
82.4598832564
 30
0.0
 11
64.7590997869
 21
80.9598832564
 31
0.0
  0
LINE
  5
318
330
22C
100
AcDbEntity
  8
02___PRT_ALL_AXES
  6
Continuous
 62
     7
100
AcDbLine
 10
64.8876866967
 20
99.7098832564
 30
0.0
 11
64.8876866967
 21
102.2098832564
 31
0.0
  0
LINE
  5
319
330
22C
100
AcDbEntity
  8
7_ALL_FEATURES
  6
Continuous
 62
     7
100
AcDbLine
 10
65.2590997869
 20
104.7098832564
 30
0.0
 11
65.2590997869
 21
107.2098832564
 31
0.0
  0
LINE
  5
31A
330
22C
100
AcDbEntity
  8
02___PRT_ALL_AXES
  6
Continuous
 62
     7
100
AcDbLine
 10
66.8831595095
 20
91.8098832564
 30
0.0
 11
66.8831595095
 21
92.2098832564
 31
0.0
  0
LINE
  5
31B
330
22C
100
AcDbEntity
  8
7_ALL_FEATURES
  6
Continuous
 62
     7
100
AcDbLine
 10
67.2590997869
 20
82.3098832564
 30
0.0
 11
67.2590997869
 21
81.1098832564
 31
0.0
  0
LINE
  5
31C
330
22C
100
AcDbEntity
  8
7_ALL_FEATURES
  6
Continuous
 62
     7
100
AcDbLine
 10
56.8840997869
 20
93.4911754418
 30
0.0
 11
56.7090997869
 21
93.7942843332
 31
0.0
  0
LINE
  5
31D
330
22C
100
AcDbEntity
  8
02___PRT_ALL_AXES
  6
Continuous
 62
     7
100
AcDbLine
 10
68.3377257251
 20
94.7098832564
 30
0.0
 11
68.3377257251
 21
97.2098832564
 31
0.0
  0
LINE
  5
31E
330
22C
100
AcDbEntity
  8
02___PRT_ALL_AXES
  6
Continuous
 62
     7
100
AcDbLine
 10
68.7590997869
 20
119.8098832564
 30
0.0
 11
68.7590997869
 21
109.8098832564
 31
0.0
  0
LINE
  5
31F
330
22C
100
AcDbEntity
  8
02___PRT_ALL_AXES
  6
Continuous
 62
     7
100
AcDbLine
 10
68.8595062753
 20
99.7098832564
 30
0.0
 11
68.8595062753
 21
102.2098832564
 31
0.0
  0
LINE
  5
320
330
22C
100
AcDbEntity
  8
02___PRT_ALL_AXES
  6
Continuous
 62
     7
100
AcDbLine
 10
70.8884327724
 20
91.8098832564
 30
0.0
 11
70.8884327724
 21
92.2098832564
 31
0.0
  0
LINE
  5
321
330
22C
100
AcDbEntity
  8
02___PRT_ALL_AXES
  6
Continuous
 62
     7
100
AcDbLine
 10
70.9027940742
 20
94.7098832564
 30
0.0
 11
70.9027940742
 21
97.2098832564
 31
0.0
  0
LINE
  5
322
330
22C
100
AcDbEntity
  8
7_ALL_FEATURES
  6
Continuous
 62
     7
100
AcDbLine
 10
53.0590997869
 20
76.3098832564
 30
0.0
 11
54.2590997869
 21
76.3098832564
 31
0.0
  0
LINE
  5
323
330
22C
100
AcDbEntity
  8
7_ALL_FEATURES
  6
Continuous
 62
     7
100
AcDbLine
 10
54.2590997869
 20
76.8098832564
 30
0.0
 11
53.0590997869
 21
76.8098832564
 31
0.0
  0
LINE
  5
324
330
22C
100
AcDbEntity
  8
02___PRT_ALL_AXES
  6
Continuous
 62
     7
100
AcDbLine
 10
71.9505992292
 20
99.7098832564
 30
0.0
 11
71.9505992292
 21
102.2098832564
 31
0.0
  0
LINE
  5
325
330
22C
100
AcDbEntity
  8
7_ALL_FEATURES
  6
Continuous
 62
     9
100
AcDbLine
 10
76.3691249127
 20
119.8098832564
 30
0.0
 11
76.3691249127
 21
109.8098832564
 31
0.0
  0
LINE
  5
326
330
22C
100
AcDbEntity
  8
02___PRT_ALL_AXES
  6
Continuous
 62
     7
100
AcDbLine
 10
77.5676003446
 20
99.7098832564
 30
0.0
 11
77.5676003446
 21
102.2098832564
 31
0.0
  0
LINE
  5
327
330
22C
100
AcDbEntity
  8
02___PRT_ALL_AXES
  6
Continuous
 62
     7
100
AcDbLine
 10
78.6154054997
 20
94.7098832564
 30
0.0
 11
78.6154054997
 21
97.2098832564
 31
0.0
  0
LINE
  5
328
330
22C
100
AcDbEntity
  8
02___PRT_ALL_AXES
  6
Continuous
 62
     7
100
AcDbLine
 10
78.6297668015
 20
91.8098832564
 30
0.0
 11
78.6297668015
 21
92.2098832564
 31
0.0
  0
LINE
  5
329
330
22C
100
AcDbEntity
  8
7_ALL_FEATURES
  6
Continuous
 62
     7
100
AcDbLine
 10
64.7590997869
 20
80.9598832564
 30
0.0
 11
84.7590997869
 21
80.9598832564
 31
0.0
  0
LINE
  5
32A
330
22C
100
AcDbEntity
  8
7_ALL_FEATURES
  6
Continuous
 62
     7
100
AcDbLine
 10
52.8590997869
 20
81.1098832564
 30
0.0
 11
53.0590997869
 21
81.1098832564
 31
0.0
  0
LINE
  5
32B
330
22C
100
AcDbEntity
  8
7_ALL_FEATURES
  6
Continuous
 62
     7
100
AcDbLine
 10
64.7590997869
 20
81.1098832564
 30
0.0
 11
84.7590997869
 21
81.1098832564
 31
0.0
  0
LINE
  5
32C
330
22C
100
AcDbEntity
  8
7_ALL_FEATURES
  6
Continuous
 62
     7
100
AcDbLine
 10
96.4590997869
 20
81.1098832564
 30
0.0
 11
96.6590997869
 21
81.1098832564
 31
0.0
  0
LINE
  5
32D
330
22C
100
AcDbEntity
  8
7_ALL_FEATURES
  6
Continuous
 62
     7
100
AcDbLine
 10
96.6590997869
 20
82.3098832564
 30
0.0
 11
96.4590997869
 21
82.3098832564
 31
0.0
  0
LINE
  5
32E
330
22C
100
AcDbEntity
  8
7_ALL_FEATURES
  6
Continuous
 62
     7
100
AcDbLine
 10
84.7590997869
 20
82.3098832564
 30
0.0
 11
64.7590997869
 21
82.3098832564
 31
0.0
  0
LINE
  5
32F
330
22C
100
AcDbEntity
  8
7_ALL_FEATURES
  6
Continuous
 62
     7
100
AcDbLine
 10
53.0590997869
 20
82.3098832564
 30
0.0
 11
52.8590997869
 21
82.3098832564
 31
0.0
  0
LINE
  5
330
330
22C
100
AcDbEntity
  8
7_ALL_FEATURES
  6
Continuous
 62
     7
100
AcDbLine
 10
84.7590997869
 20
82.4598832564
 30
0.0
 11
64.7590997869
 21
82.4598832564
 31
0.0
  0
LINE
  5
331
330
22C
100
AcDbEntity
  8
02___PRT_ALL_AXES
  6
Continuous
 62
     7
100
AcDbLine
 10
52.7090997869
 20
83.0098832564
 30
0.0
 11
52.3290997869
 21
83.0098832564
 31
0.0
  0
LINE
  5
332
330
22C
100
AcDbEntity
  8
02___PRT_ALL_AXES
  6
Continuous
 62
     7
100
AcDbLine
 10
96.8090997869
 20
83.0098832564
 30
0.0
 11
97.1890997869
 21
83.0098832564
 31
0.0
  0
LINE
  5
333
330
22C
100
AcDbEntity
  8
02___PRT_ALL_AXES
  6
Continuous
 62
     7
100
AcDbLine
 10
80.6586932985
 20
99.7098832564
 30
0.0
 11
80.6586932985
 21
102.2098832564
 31
0.0
  0
LINE
  5
334
330
22C
100
AcDbEntity
  8
02___PRT_ALL_AXES
  6
Continuous
 62
     7
100
AcDbLine
 10
81.1804738487
 20
94.7098832564
 30
0.0
 11
81.1804738487
 21
97.2098832564
 31
0.0
  0
LINE
  5
335
330
22C
100
AcDbEntity
  8
7_ALL_FEATURES
  6
Continuous
 62
     7
100
AcDbLine
 10
82.2590997869
 20
82.3098832564
 30
0.0
 11
82.2590997869
 21
81.1098832564
 31
0.0
  0
LINE
  5
336
330
22C
100
AcDbEntity
  8
02___PRT_ALL_AXES
  6
Continuous
 62
     7
100
AcDbLine
 10
82.6350400644
 20
91.8098832564
 30
0.0
 11
82.6350400644
 21
92.2098832564
 31
0.0
  0
LINE
  5
337
330
22C
100
AcDbEntity
  8
7_ALL_FEATURES
  6
Continuous
 62
     7
100
AcDbLine
 10
82.7590997869
 20
119.8098832564
 30
0.0
 11
82.7590997869
 21
109.8098832564
 31
0.0
  0
LINE
  5
338
330
22C
100
AcDbEntity
  8
7_ALL_FEATURES
  6
Continuous
 62
     7
100
AcDbLine
 10
84.2590997869
 20
104.7098832564
 30
0.0
 11
84.2590997869
 21
107.2098832564
 31
0.0
  0
LINE
  5
339
330
22C
100
AcDbEntity
  8
02___PRT_ALL_AXES
  6
Continuous
 62
     7
100
AcDbLine
 10
84.6305128772
 20
99.7098832564
 30
0.0
 11
84.6305128772
 21
102.2098832564
 31
0.0
  0
LINE
  5
33A
330
22C
100
AcDbEntity
  8
7_ALL_FEATURES
  6
Continuous
 62
     7
100
AcDbLine
 10
84.7590997869
 20
80.9598832564
 30
0.0
 11
84.7590997869
 21
82.4598832564
 31
0.0
  0
LINE
  5
33B
330
22C
100
AcDbEntity
  8
02___PRT_ALL_AXES
  6
Continuous
 62
     7
100
AcDbLine
 10
85.9108855012
 20
99.7098832564
 30
0.0
 11
85.9108855012
 21
102.2098832564
 31
0.0
  0
LINE
  5
33C
330
22C
100
AcDbEntity
  8
7_ALL_FEATURES
  6
Continuous
 62
     7
100
AcDbLine
 10
92.8090997869
 20
93.7942843332
 30
0.0
 11
92.6340997869
 21
93.4911754418
 31
0.0
  0
LINE
  5
33D
330
22C
100
AcDbEntity
  8
7_ALL_FEATURES
  6
Continuous
 62
     9
100
AcDbLine
 10
94.5411505945
 20
92.7942843332
 30
0.0
 11
94.3661505945
 21
92.4911754418
 31
0.0
  0
LINE
  5
33E
330
22C
100
AcDbEntity
  8
02___PRT_ALL_AXES
  6
Continuous
 62
     7
100
AcDbLine
 10
52.7090997869
 20
90.6098832564
 30
0.0
 11
52.3290997869
 21
90.6098832564
 31
0.0
  0
LINE
  5
33F
330
22C
100
AcDbEntity
  8
02___PRT_ALL_AXES
  6
Continuous
 62
     7
100
AcDbLine
 10
96.8090997869
 20
90.6098832564
 30
0.0
 11
97.1890997869
 21
90.6098832564
 31
0.0
  0
LINE
  5
340
330
22C
100
AcDbEntity
  8
02___PRT_ALL_AXES
  6
Continuous
 62
     7
100
AcDbLine
 10
86.6341136883
 20
94.7098832564
 30
0.0
 11
86.6341136883
 21
97.2098832564
 31
0.0
  0
LINE
  5
341
330
22C
100
AcDbEntity
  8
02___PRT_ALL_AXES
  6
Continuous
 62
     7
100
AcDbLine
 10
87.6965997869
 20
94.7098832564
 30
0.0
 11
87.6965997869
 21
97.2098832564
 31
0.0
  0
LINE
  5
342
330
22C
100
AcDbEntity
  8
02___PRT_ALL_AXES
  6
Continuous
 62
     7
100
AcDbLine
 10
88.1089898519
 20
91.8098832564
 30
0.0
 11
88.1089898519
 21
92.2098832564
 31
0.0
  0
LINE
  5
343
330
22C
100
AcDbEntity
  8
7_ALL_FEATURES
  6
Continuous
 62
     7
100
AcDbLine
 10
53.0590997869
 20
91.8098832564
 30
0.0
 11
96.4590997869
 21
91.8098832564
 31
0.0
  0
LINE
  5
344
330
22C
100
AcDbEntity
  8
7_ALL_FEATURES
  6
Continuous
 62
     7
100
AcDbLine
 10
94.2590997869
 20
92.2098832564
 30
0.0
 11
55.2590997869
 21
92.2098832564
 31
0.0
  0
LINE
  5
345
330
22C
100
AcDbEntity
  8
7_ALL_FEATURES
  6
Continuous
 62
     7
100
AcDbLine
 10
94.2590997869
 20
94.7098832564
 30
0.0
 11
55.2590997869
 21
94.7098832564
 31
0.0
  0
LINE
  5
346
330
22C
100
AcDbEntity
  8
02___PRT_ALL_AXES
  6
Continuous
 62
     7
100
AcDbLine
 10
89.7680283584
 20
91.8098832564
 30
0.0
 11
89.7680283584
 21
92.2098832564
 31
0.0
  0
LINE
  5
347
330
22C
100
AcDbEntity
  8
7_ALL_FEATURES
  6
Continuous
 62
     7
100
AcDbLine
 10
94.2590997869
 20
97.2098832564
 30
0.0
 11
55.2590997869
 21
97.2098832564
 31
0.0
  0
LINE
  5
348
330
22C
100
AcDbEntity
  8
02___PRT_ALL_AXES
  6
Continuous
 62
     7
100
AcDbLine
 10
94.2590997869
 20
109.8098832564
 30
0.0
 11
94.2590997869
 21
107.2098832564
 31
0.0
  0
LINE
  5
349
330
22C
100
AcDbEntity
  8
02___PRT_ALL_AXES
  6
Continuous
 62
     7
100
AcDbLine
 10
94.2590997869
 20
104.7098832564
 30
0.0
 11
94.2590997869
 21
102.2098832564
 31
0.0
  0
LINE
  5
34A
330
22C
100
AcDbEntity
  8
02___PRT_ALL_AXES
  6
Continuous
 62
     7
100
AcDbLine
 10
94.2590997869
 20
99.7098832564
 30
0.0
 11
94.2590997869
 21
97.2098832564
 31
0.0
  0
LINE
  5
34B
330
22C
100
AcDbEntity
  8
02___PRT_ALL_AXES
  6
Continuous
 62
     7
100
AcDbLine
 10
94.2590997869
 20
94.7098832564
 30
0.0
 11
94.2590997869
 21
92.9571264428
 31
0.0
  0
LINE
  5
34C
330
22C
100
AcDbEntity
  8
02___PRT_ALL_AXES
  6
Continuous
 62
     7
100
AcDbLine
 10
94.2590997869
 20
92.5529812544
 30
0.0
 11
94.2590997869
 21
92.2098832564
 31
0.0
  0
LINE
  5
34D
330
22C
100
AcDbEntity
  8
7_ALL_FEATURES
  6
Continuous
 62
     9
100
AcDbLine
 10
95.1590997869
 20
91.8098832564
 30
0.0
 11
95.1590997869
 21
41.8098832564
 31
0.0
  0
LINE
  5
34E
330
22C
100
AcDbEntity
  8
7_ALL_FEATURES
  6
Continuous
 62
     7
100
AcDbLine
 10
96.4590997869
 20
91.8098832564
 30
0.0
 11
96.4590997869
 21
41.8098832564
 31
0.0
  0
LINE
  5
34F
330
22C
100
AcDbEntity
  8
7_ALL_FEATURES
  6
Continuous
 62
     7
100
AcDbLine
 10
96.6590997869
 20
82.3098832564
 30
0.0
 11
96.6590997869
 21
81.1098832564
 31
0.0
  0
LINE
  5
350
330
22C
100
AcDbEntity
  8
7_ALL_FEATURES
  6
Continuous
 62
     7
100
AcDbLine
 10
96.8090997869
 20
91.4848832564
 30
0.0
 11
96.8090997869
 21
82.8609739664
 31
0.0
  0
LINE
  5
351
330
22C
100
AcDbEntity
  8
7_ALL_FEATURES
  6
Continuous
 62
     7
100
AcDbLine
 10
94.2590997869
 20
99.7098832564
 30
0.0
 11
55.2590997869
 21
99.7098832564
 31
0.0
  0
LINE
  5
352
330
22C
100
AcDbEntity
  8
7_ALL_FEATURES
  6
Continuous
 62
     7
100
AcDbLine
 10
94.2590997869
 20
102.2098832564
 30
0.0
 11
55.2590997869
 21
102.2098832564
 31
0.0
  0
LINE
  5
353
330
22C
100
AcDbEntity
  8
7_ALL_FEATURES
  6
Continuous
 62
     7
100
AcDbLine
 10
95.5461832745
 20
91.8098832564
 30
0.0
 11
92.6340997869
 21
93.4911754418
 31
0.0
  0
LINE
  5
354
330
22C
100
AcDbEntity
  8
7_ALL_FEATURES
  6
Continuous
 62
     7
100
AcDbLine
 10
92.8090997869
 20
93.7942843332
 30
0.0
 11
96.2461832745
 21
91.8098832564
 31
0.0
  0
LINE
  5
355
330
22C
100
AcDbEntity
  8
7_ALL_FEATURES
  6
Continuous
 62
     7
100
AcDbLine
 10
96.4590997869
 20
91.6869558506
 30
0.0
 11
96.8090997869
 21
91.4848832564
 31
0.0
  0
LINE
  5
356
330
22C
100
AcDbEntity
  8
7_ALL_FEATURES
  6
Continuous
 62
     7
100
AcDbLine
 10
96.4590997869
 20
82.7587925463
 30
0.0
 11
111.4511072014
 21
59.2713142637
 31
0.0
  0
LINE
  5
357
330
22C
100
AcDbEntity
  8
7_ALL_FEATURES
  6
Continuous
 62
     7
100
AcDbLine
 10
96.8090997869
 20
82.8609739664
 30
0.0
 11
111.8170923725
 21
59.3484522491
 31
0.0
  0
LINE
  5
358
330
22C
100
AcDbEntity
  8
02___PRT_ALL_AXES
  6
Continuous
 62
     7
100
AcDbLine
 10
97.1890997869
 20
83.0098832564
 30
0.0
 11
97.1890997869
 21
90.6098832564
 31
0.0
  0
LINE
  5
359
330
22C
100
AcDbEntity
  8
02___PRT_ALL_AXES
  6
Continuous
 62
     7
100
AcDbLine
 10
99.0090997869
 20
84.8449176019
 30
0.0
 11
99.0090997869
 21
88.7748489109
 31
0.0
  0
LINE
  5
35A
330
22C
100
AcDbEntity
  8
7_ALL_FEATURES
  6
Continuous
 62
     7
100
AcDbLine
 10
94.2590997869
 20
104.7098832564
 30
0.0
 11
55.2590997869
 21
104.7098832564
 31
0.0
  0
LINE
  5
35B
330
22C
100
AcDbEntity
  8
7_ALL_FEATURES
  6
Continuous
 62
     7
100
AcDbLine
 10
94.2590997869
 20
107.2098832564
 30
0.0
 11
55.2590997869
 21
107.2098832564
 31
0.0
  0
LINE
  5
35C
330
22C
100
AcDbEntity
  8
7_ALL_FEATURES
  6
Continuous
 62
     7
100
AcDbLine
 10
104.7590997869
 20
41.8098832564
 30
0.0
 11
104.7590997869
 21
40.6098832564
 31
0.0
  0
LINE
  5
35D
330
22C
100
AcDbEntity
  8
02___PRT_ALL_AXES
  6
Continuous
 62
     7
100
AcDbLine
 10
55.2590997869
 20
109.8098832564
 30
0.0
 11
94.2590997869
 21
109.8098832564
 31
0.0
  0
LINE
  5
35E
330
22C
100
AcDbEntity
  8
7_ALL_FEATURES
  6
Continuous
 62
     7
100
AcDbLine
 10
109.4611347398
 20
46.3364932636
 30
0.0
 11
111.4511072014
 21
59.2713142637
 31
0.0
  0
LINE
  5
35F
330
22C
100
AcDbEntity
  8
7_ALL_FEATURES
  6
Continuous
 62
     7
100
AcDbLine
 10
111.8170923725
 20
59.3484522491
 30
0.0
 11
109.807064834
 21
46.2832732491
 31
0.0
  0
LINE
  5
360
330
22C
100
AcDbEntity
  8
7_ALL_FEATURES
  6
Continuous
 62
     7
100
AcDbLine
 10
68.7591660476
 20
119.8098832564
 30
0.0
 11
82.7590997869
 21
119.8098832564
 31
0.0
  0
LINE
  5
361
330
22C
100
AcDbEntity
  8
7_ALL_FEATURES
  6
Continuous
 62
     7
100
AcDbLine
 10
167.0203413982
 20
212.5971851421
 30
0.0
 11
167.0203413982
 21
224.5971494214
 31
0.0
  0
LINE
  5
362
330
22C
100
AcDbEntity
  8
02___PRT_ALL_AXES
  6
Continuous
 62
     7
100
AcDbLine
 10
177.0203413982
 20
238.0971679687
 30
0.0
 11
177.0203413982
 21
199.0971679687
 31
0.0
  0
LINE
  5
363
330
22C
100
AcDbEntity
  8
7_ALL_FEATURES
  6
Continuous
 62
     7
100
AcDbLine
 10
245.0203413982
 20
188.5971679688
 30
0.0
 11
246.2203413982
 21
188.5971679688
 31
0.0
  0
LINE
  5
364
330
22C
100
AcDbEntity
  8
7_ALL_FEATURES
  6
Continuous
 62
     7
100
AcDbLine
 10
179.6203413982
 20
238.0971679687
 30
0.0
 11
179.6203413982
 21
199.0971679687
 31
0.0
  0
LINE
  5
365
330
22C
100
AcDbEntity
  8
7_ALL_FEATURES
  6
Continuous
 62
     7
100
AcDbLine
 10
182.1203413982
 20
238.0971679687
 30
0.0
 11
182.1203413982
 21
199.0971679687
 31
0.0
  0
LINE
  5
366
330
22C
100
AcDbEntity
  8
7_ALL_FEATURES
  6
Continuous
 62
     7
100
AcDbLine
 10
184.6203413982
 20
238.0971679687
 30
0.0
 11
184.6203413982
 21
199.0971679687
 31
0.0
  0
LINE
  5
367
330
22C
100
AcDbEntity
  8
7_ALL_FEATURES
  6
Continuous
 62
     7
100
AcDbLine
 10
187.1203413982
 20
238.0971679687
 30
0.0
 11
187.1203413982
 21
199.0971679687
 31
0.0
  0
LINE
  5
368
330
22C
100
AcDbEntity
  8
7_ALL_FEATURES
  6
Continuous
 62
     7
100
AcDbLine
 10
204.5203413982
 20
196.6971679687
 30
0.0
 11
205.7203413982
 21
196.6971679687
 31
0.0
  0
LINE
  5
369
330
22C
100
AcDbEntity
  8
7_ALL_FEATURES
  6
Continuous
 62
     7
100
AcDbLine
 10
195.0203413982
 20
196.8971679687
 30
0.0
 11
245.0203413982
 21
196.8971679687
 31
0.0
  0
LINE
  5
36A
330
22C
100
AcDbEntity
  8
7_ALL_FEATURES
  6
Continuous
 62
     9
100
AcDbLine
 10
245.0203413982
 20
198.1971679688
 30
0.0
 11
195.0203413982
 21
198.1971679688
 31
0.0
  0
LINE
  5
36B
330
22C
100
AcDbEntity
  8
7_ALL_FEATURES
  6
Continuous
 62
     7
100
AcDbLine
 10
179.6203413982
 20
199.0971679687
 30
0.0
 11
177.0203413982
 21
199.0971679687
 31
0.0
  0
LINE
  5
36C
330
22C
100
AcDbEntity
  8
02___PRT_ALL_AXES
  6
Continuous
 62
     7
100
AcDbLine
 10
177.0203413982
 20
199.0971679687
 30
0.0
 11
179.6203413982
 21
199.0971679687
 31
0.0
  0
LINE
  5
36D
330
22C
100
AcDbEntity
  8
02___PRT_ALL_AXES
  6
Continuous
 62
     7
100
AcDbLine
 10
182.1203413982
 20
199.0971679687
 30
0.0
 11
184.6203413982
 21
199.0971679687
 31
0.0
  0
LINE
  5
36E
330
22C
100
AcDbEntity
  8
02___PRT_ALL_AXES
  6
Continuous
 62
     7
100
AcDbLine
 10
187.1203413982
 20
199.0971679687
 30
0.0
 11
189.6203413982
 21
199.0971679687
 31
0.0
  0
LINE
  5
36F
330
22C
100
AcDbEntity
  8
02___PRT_ALL_AXES
  6
Continuous
 62
     7
100
AcDbLine
 10
192.1203413982
 20
199.0971679687
 30
0.0
 11
194.6203413982
 21
199.0971679687
 31
0.0
  0
LINE
  5
370
330
22C
100
AcDbEntity
  8
7_ALL_FEATURES
  6
Continuous
 62
     7
100
AcDbLine
 10
189.6203413982
 20
238.0971679687
 30
0.0
 11
189.6203413982
 21
199.0971679687
 31
0.0
  0
LINE
  5
371
330
22C
100
AcDbEntity
  8
7_ALL_FEATURES
  6
Continuous
 62
     7
100
AcDbLine
 10
192.1203413982
 20
238.0971679687
 30
0.0
 11
192.1203413982
 21
199.0971679687
 31
0.0
  0
LINE
  5
372
330
22C
100
AcDbEntity
  8
02___PRT_ALL_AXES
  6
Continuous
 62
     7
100
AcDbLine
 10
195.0203413982
 20
203.5882393973
 30
0.0
 11
194.6203413982
 21
203.5882393973
 31
0.0
  0
LINE
  5
373
330
22C
100
AcDbEntity
  8
7_ALL_FEATURES
  6
Continuous
 62
     7
100
AcDbLine
 10
194.0359403215
 20
203.5971679687
 30
0.0
 11
238.5702080102
 21
203.5971679687
 31
0.0
  0
LINE
  5
374
330
22C
100
AcDbEntity
  8
02___PRT_ALL_AXES
  6
Continuous
 62
     7
100
AcDbLine
 10
192.1203413982
 20
205.6596679687
 30
0.0
 11
189.6203413982
 21
205.6596679687
 31
0.0
  0
LINE
  5
375
330
22C
100
AcDbEntity
  8
7_ALL_FEATURES
  6
Continuous
 62
     7
100
AcDbLine
 10
194.6203413982
 20
238.0971679687
 30
0.0
 11
194.6203413982
 21
233.5971679687
 31
0.0
  0
LINE
  5
376
330
22C
100
AcDbEntity
  8
7_ALL_FEATURES
  6
Continuous
 62
     7
100
AcDbLine
 10
194.6203413982
 20
203.5971679687
 30
0.0
 11
194.6203413982
 21
199.0971679687
 31
0.0
  0
LINE
  5
377
330
22C
100
AcDbEntity
  8
7_ALL_FEATURES
  6
Continuous
 62
     7
100
AcDbLine
 10
195.0203413982
 20
196.8971679687
 30
0.0
 11
195.0203413982
 21
240.2971679688
 31
0.0
  0
LINE
  5
378
330
22C
100
AcDbEntity
  8
7_ALL_FEATURES
  6
Continuous
 62
     7
100
AcDbLine
 10
195.3453413982
 20
203.5971679687
 30
0.0
 11
195.3453413982
 21
233.5971679687
 31
0.0
  0
LINE
  5
379
330
22C
100
AcDbEntity
  8
02___PRT_ALL_AXES
  6
Continuous
 62
     7
100
AcDbLine
 10
192.1203413982
 20
206.7221540674
 30
0.0
 11
189.6203413982
 21
206.7221540674
 31
0.0
  0
LINE
  5
37A
330
22C
100
AcDbEntity
  8
02___PRT_ALL_AXES
  6
Continuous
 62
     7
100
AcDbLine
 10
187.1203413982
 20
207.4453822545
 30
0.0
 11
184.6203413982
 21
207.4453822545
 31
0.0
  0
LINE
  5
37B
330
22C
100
AcDbEntity
  8
02___PRT_ALL_AXES
  6
Continuous
 62
     7
100
AcDbLine
 10
187.1203413982
 20
208.7257548785
 30
0.0
 11
184.6203413982
 21
208.7257548785
 31
0.0
  0
LINE
  5
37C
330
22C
100
AcDbEntity
  8
7_ALL_FEATURES
  6
Continuous
 62
     7
100
AcDbLine
 10
182.1203413982
 20
209.0971679687
 30
0.0
 11
179.6203413982
 21
209.0971679687
 31
0.0
  0
LINE
  5
37D
330
22C
100
AcDbEntity
  8
7_ALL_FEATURES
  6
Continuous
 62
     7
100
AcDbLine
 10
198.7703413982
 20
219.3188558052
 30
0.0
 11
198.7703413982
 21
217.8754801323
 31
0.0
  0
LINE
  5
37E
330
22C
100
AcDbEntity
  8
02___PRT_ALL_AXES
  6
Continuous
 62
     7
100
AcDbLine
 10
192.1203413982
 20
212.1757939069
 30
0.0
 11
189.6203413982
 21
212.1757939069
 31
0.0
  0
LINE
  5
37F
330
22C
100
AcDbEntity
  8
7_ALL_FEATURES
  6
Continuous
 62
     7
100
AcDbLine
 10
201.2703413982
 20
217.8754801323
 30
0.0
 11
201.2703413982
 21
219.3188558052
 31
0.0
  0
LINE
  5
380
330
22C
100
AcDbEntity
  8
7_ALL_FEATURES
  6
Continuous
 62
     7
100
AcDbLine
 10
200.0203413982
 20
220.0405436417
 30
0.0
 11
198.7703413982
 21
219.3188558052
 31
0.0
  0
LINE
  5
381
330
22C
100
AcDbEntity
  8
02___PRT_ALL_AXES
  6
Continuous
 62
     7
100
AcDbLine
 10
167.0203413982
 20
212.5971679687
 30
0.0
 11
177.0203413982
 21
212.5971679687
 31
0.0
  0
LINE
  5
382
330
22C
100
AcDbEntity
  8
02___PRT_ALL_AXES
  6
Continuous
 62
     7
100
AcDbLine
 10
187.1203413982
 20
212.6975744572
 30
0.0
 11
184.6203413982
 21
212.6975744572
 31
0.0
  0
LINE
  5
383
330
22C
100
AcDbEntity
  8
02___PRT_ALL_AXES
  6
Continuous
 62
     7
100
AcDbLine
 10
192.1203413982
 20
214.740862256
 30
0.0
 11
189.6203413982
 21
214.740862256
 31
0.0
  0
LINE
  5
384
330
22C
100
AcDbEntity
  8
7_ALL_FEATURES
  6
Continuous
 62
     7
100
AcDbLine
 10
198.7703413982
 20
217.8754801323
 30
0.0
 11
200.0203413982
 21
217.1537922958
 31
0.0
  0
LINE
  5
385
330
22C
100
AcDbEntity
  8
7_ALL_FEATURES
  6
Continuous
 62
     7
100
AcDbLine
 10
203.9692506882
 20
233.5971679687
 30
0.0
 11
203.9692506882
 21
203.5971679687
 31
0.0
  0
LINE
  5
386
330
22C
100
AcDbEntity
  8
7_ALL_FEATURES
  6
Continuous
 62
     7
100
AcDbLine
 10
204.5203413982
 20
240.4971679687
 30
0.0
 11
204.5203413982
 21
240.2971679688
 31
0.0
  0
LINE
  5
387
330
22C
100
AcDbEntity
  8
7_ALL_FEATURES
  6
Continuous
 62
     7
100
AcDbLine
 10
204.5203413982
 20
196.8971679687
 30
0.0
 11
204.5203413982
 21
196.6971679687
 31
0.0
  0
LINE
  5
388
330
22C
100
AcDbEntity
  8
7_ALL_FEATURES
  6
Continuous
 62
     7
100
AcDbLine
 10
205.7203413982
 20
196.6971679687
 30
0.0
 11
205.7203413982
 21
196.8971679687
 31
0.0
  0
LINE
  5
389
330
22C
100
AcDbEntity
  8
7_ALL_FEATURES
  6
Continuous
 62
     7
100
AcDbLine
 10
205.7203413982
 20
240.2971679688
 30
0.0
 11
205.7203413982
 21
240.4971679687
 31
0.0
  0
LINE
  5
38A
330
22C
100
AcDbEntity
  8
7_ALL_FEATURES
  6
Continuous
 62
     7
100
AcDbLine
 10
200.0203413982
 20
217.1537922958
 30
0.0
 11
201.2703413982
 21
217.8754801323
 31
0.0
  0
LINE
  5
38B
330
22C
100
AcDbEntity
  8
02___PRT_ALL_AXES
  6
Continuous
 62
     7
100
AcDbLine
 10
187.1203413982
 20
215.788667411
 30
0.0
 11
184.6203413982
 21
215.788667411
 31
0.0
  0
LINE
  5
38C
330
22C
100
AcDbEntity
  8
7_ALL_FEATURES
  6
Continuous
 62
     7
100
AcDbLine
 10
201.2703413982
 20
219.3188558052
 30
0.0
 11
200.0203413982
 21
220.0405436417
 31
0.0
  0
LINE
  5
38D
330
22C
100
AcDbEntity
  8
7_ALL_FEATURES
  6
Continuous
 62
     7
100
AcDbLine
 10
210.0203413982
 20
240.2971679688
 30
0.0
 11
210.0203413982
 21
239.0971679688
 31
0.0
  0
LINE
  5
38E
330
22C
100
AcDbEntity
  8
02___PRT_ALL_AXES
  6
Continuous
 62
     7
100
AcDbLine
 10
187.1203413982
 20
221.4056685265
 30
0.0
 11
184.6203413982
 21
221.4056685265
 31
0.0
  0
LINE
  5
38F
330
22C
100
AcDbEntity
  8
7_ALL_FEATURES
  6
Continuous
 62
     7
100
AcDbLine
 10
210.5203413982
 20
239.0971679688
 30
0.0
 11
210.5203413982
 21
240.2971679688
 31
0.0
  0
LINE
  5
390
330
22C
100
AcDbEntity
  8
02___PRT_ALL_AXES
  6
Continuous
 62
     7
100
AcDbLine
 10
192.1203413982
 20
222.4534736815
 30
0.0
 11
189.6203413982
 21
222.4534736815
 31
0.0
  0
LINE
  5
391
330
22C
100
AcDbEntity
  8
02___PRT_ALL_AXES
  6
Continuous
 62
     7
100
AcDbLine
 10
187.1203413982
 20
224.4967614803
 30
0.0
 11
184.6203413982
 21
224.4967614803
 31
0.0
  0
LINE
  5
392
330
22C
100
AcDbEntity
  8
02___PRT_ALL_AXES
  6
Continuous
 62
     7
100
AcDbLine
 10
167.0203413982
 20
224.5971679687
 30
0.0
 11
177.0203413982
 21
224.5971679687
 31
0.0
  0
LINE
  5
393
330
22C
100
AcDbEntity
  8
02___PRT_ALL_AXES
  6
Continuous
 62
     7
100
AcDbLine
 10
192.1203413982
 20
225.0185420306
 30
0.0
 11
189.6203413982
 21
225.0185420306
 31
0.0
  0
LINE
  5
394
330
22C
100
AcDbEntity
  8
7_ALL_FEATURES
  6
Continuous
 62
     7
100
AcDbLine
 10
182.1203413982
 20
228.0971679687
 30
0.0
 11
179.6203413982
 21
228.0971679687
 31
0.0
  0
LINE
  5
395
330
22C
100
AcDbEntity
  8
02___PRT_ALL_AXES
  6
Continuous
 62
     7
100
AcDbLine
 10
187.1203413982
 20
228.468581059
 30
0.0
 11
184.6203413982
 21
228.468581059
 31
0.0
  0
LINE
  5
396
330
22C
100
AcDbEntity
  8
02___PRT_ALL_AXES
  6
Continuous
 62
     7
100
AcDbLine
 10
187.1203413982
 20
229.748953683
 30
0.0
 11
184.6203413982
 21
229.748953683
 31
0.0
  0
LINE
  5
397
330
22C
100
AcDbEntity
  8
02___PRT_ALL_AXES
  6
Continuous
 62
     7
100
AcDbLine
 10
192.1203413982
 20
230.4721818701
 30
0.0
 11
189.6203413982
 21
230.4721818701
 31
0.0
  0
LINE
  5
398
330
22C
100
AcDbEntity
  8
02___PRT_ALL_AXES
  6
Continuous
 62
     7
100
AcDbLine
 10
192.1203413982
 20
231.5346679687
 30
0.0
 11
189.6203413982
 21
231.5346679687
 31
0.0
  0
LINE
  5
399
330
22C
100
AcDbEntity
  8
7_ALL_FEATURES
  6
Continuous
 62
     7
100
AcDbLine
 10
194.0359403215
 20
233.5971679687
 30
0.0
 11
238.5702080102
 21
233.5971679687
 31
0.0
  0
LINE
  5
39A
330
22C
100
AcDbEntity
  8
02___PRT_ALL_AXES
  6
Continuous
 62
     7
100
AcDbLine
 10
195.0203413982
 20
233.6060965402
 30
0.0
 11
194.6203413982
 21
233.6060965402
 31
0.0
  0
LINE
  5
39B
330
22C
100
AcDbEntity
  8
7_ALL_FEATURES
  6
Continuous
 62
     7
100
AcDbLine
 10
194.6203413982
 20
238.0971679687
 30
0.0
 11
192.1203413982
 21
238.0971679687
 31
0.0
  0
LINE
  5
39C
330
22C
100
AcDbEntity
  8
7_ALL_FEATURES
  6
Continuous
 62
     7
100
AcDbLine
 10
189.6203413982
 20
238.0971679687
 30
0.0
 11
187.1203413982
 21
238.0971679687
 31
0.0
  0
LINE
  5
39D
330
22C
100
AcDbEntity
  8
7_ALL_FEATURES
  6
Continuous
 62
     7
100
AcDbLine
 10
184.6203413982
 20
238.0971679687
 30
0.0
 11
182.1203413982
 21
238.0971679687
 31
0.0
  0
LINE
  5
39E
330
22C
100
AcDbEntity
  8
7_ALL_FEATURES
  6
Continuous
 62
     7
100
AcDbLine
 10
179.6203413982
 20
238.0971679687
 30
0.0
 11
177.0203413982
 21
238.0971679687
 31
0.0
  0
LINE
  5
39F
330
22C
100
AcDbEntity
  8
02___PRT_ALL_AXES
  6
Continuous
 62
     7
100
AcDbLine
 10
177.0203413982
 20
238.0971679687
 30
0.0
 11
179.6203413982
 21
238.0971679687
 31
0.0
  0
LINE
  5
3A0
330
22C
100
AcDbEntity
  8
02___PRT_ALL_AXES
  6
Continuous
 62
     7
100
AcDbLine
 10
182.1203413982
 20
238.0971679687
 30
0.0
 11
184.6203413982
 21
238.0971679687
 31
0.0
  0
LINE
  5
3A1
330
22C
100
AcDbEntity
  8
02___PRT_ALL_AXES
  6
Continuous
 62
     7
100
AcDbLine
 10
192.1203413982
 20
238.0971679687
 30
0.0
 11
194.6203413982
 21
238.0971679687
 31
0.0
  0
LINE
  5
3A2
330
22C
100
AcDbEntity
  8
7_ALL_FEATURES
  6
Continuous
 62
     7
100
AcDbLine
 10
227.4817724055
 20
233.5971679687
 30
0.0
 11
227.4817724055
 21
203.5971679687
 31
0.0
  0
LINE
  5
3A3
330
22C
100
AcDbEntity
  8
7_ALL_FEATURES
  6
Continuous
 62
     7
100
AcDbLine
 10
229.5203413982
 20
240.2971679688
 30
0.0
 11
229.5203413982
 21
239.0971679688
 31
0.0
  0
LINE
  5
3A4
330
22C
100
AcDbEntity
  8
7_ALL_FEATURES
  6
Continuous
 62
     7
100
AcDbLine
 10
230.0203413982
 20
239.0971679688
 30
0.0
 11
230.0203413982
 21
240.2971679688
 31
0.0
  0
LINE
  5
3A5
330
22C
100
AcDbEntity
  8
7_ALL_FEATURES
  6
Continuous
 62
     7
100
AcDbLine
 10
195.0203413982
 20
239.0971679688
 30
0.0
 11
210.5203413982
 21
239.0971679687
 31
0.0
  0
LINE
  5
3A6
330
22C
100
AcDbEntity
  8
7_ALL_FEATURES
  6
Continuous
 62
     7
100
AcDbLine
 10
229.5203413982
 20
239.0971679687
 30
0.0
 11
245.0203413982
 21
239.0971679688
 31
0.0
  0
LINE
  5
3A7
330
22C
100
AcDbEntity
  8
7_ALL_FEATURES
  6
Continuous
 62
     7
100
AcDbLine
 10
195.0203413982
 20
240.2971679688
 30
0.0
 11
245.0203413982
 21
240.2971679688
 31
0.0
  0
LINE
  5
3A8
330
22C
100
AcDbEntity
  8
7_ALL_FEATURES
  6
Continuous
 62
     7
100
AcDbLine
 10
204.5203413982
 20
240.4971679687
 30
0.0
 11
205.7203413982
 21
240.4971679687
 31
0.0
  0
LINE
  5
3A9
330
22C
100
AcDbEntity
  8
7_ALL_FEATURES
  6
Continuous
 62
     7
100
AcDbLine
 10
246.2203413982
 20
248.5971679687
 30
0.0
 11
245.0203413982
 21
248.5971679687
 31
0.0
  0
LINE
  5
3AA
330
22C
100
AcDbEntity
  8
7_ALL_FEATURES
  6
Continuous
 62
     7
100
AcDbLine
 10
240.5469514055
 20
231.5971679688
 30
0.0
 11
240.5469514055
 21
205.5971679687
 31
0.0
  0
LINE
  5
3AB
330
22C
100
AcDbEntity
  8
7_ALL_FEATURES
  6
Continuous
 62
     7
100
AcDbLine
 10
245.0203413982
 20
188.5971679688
 30
0.0
 11
245.0203413982
 21
248.5971679687
 31
0.0
  0
LINE
  5
3AC
330
22C
100
AcDbEntity
  8
7_ALL_FEATURES
  6
Continuous
 62
     7
100
AcDbLine
 10
246.2203413982
 20
248.5971679687
 30
0.0
 11
246.2203413982
 21
188.5971679688
 31
0.0
  0
LINE
  5
3AD
330
22C
100
AcDbEntity
  8
7_ALL_FEATURES
  6
Continuous
 62
     7
100
AcDbLine
 10
287.6214298573
 20
101.5408480451
 30
0.0
 11
287.6214298573
 21
100.5016175606
 31
0.0
  0
LINE
  5
3AE
330
22C
100
AcDbEntity
  8
7_ALL_FEATURES
  6
Continuous
 62
     7
100
AcDbLine
 10
287.6214298573
 20
100.5016175606
 30
0.0
 11
330.0478367285
 21
79.288414125
 31
0.0
  0
LINE
  5
3AF
330
22C
100
AcDbEntity
  8
7_ALL_FEATURES
  6
Continuous
 62
     7
100
AcDbLine
 10
305.299099387
 20
100.5016175606
 30
0.0
 11
330.0478367285
 21
88.1272488898
 31
0.0
  0
LINE
  5
3B0
330
22C
100
AcDbEntity
  8
7_ALL_FEATURES
  6
Continuous
 62
     7
100
AcDbLine
 10
293.2372771563
 20
124.5283724071
 30
0.0
 11
294.4435399269
 21
114.3223741
 31
0.0
  0
LINE
  5
3B1
330
22C
100
AcDbEntity
  8
7_ALL_FEATURES
  6
Continuous
 62
     7
100
AcDbLine
 10
299.8978800561
 20
144.8421182344
 30
0.0
 11
299.8978800561
 21
133.9782157695
 31
0.0
  0
LINE
  5
3B2
330
22C
100
AcDbEntity
  8
7_ALL_FEATURES
  6
Continuous
 62
     7
100
AcDbLine
 10
299.8978800561
 20
114.9240732044
 30
0.0
 11
299.8978800561
 21
107.6790731445
 31
0.0
  0
LINE
  5
3B3
330
22C
100
AcDbEntity
  8
7_ALL_FEATURES
  6
Continuous
 62
     9
100
AcDbLine
 10
300.2786412406
 20
107.8694537368
 30
0.0
 11
300.2786412406
 21
115.1144537966
 31
0.0
  0
LINE
  5
3B4
330
22C
100
AcDbEntity
  8
7_ALL_FEATURES
  6
Continuous
 62
     9
100
AcDbLine
 10
300.2786412406
 20
134.5184271597
 30
0.0
 11
300.2786412406
 21
145.3017376421
 31
0.0
  0
LINE
  5
3B5
330
22C
100
AcDbEntity
  8
7_ALL_FEATURES
  6
Continuous
 62
     7
100
AcDbLine
 10
303.8495304856
 20
139.5846868568
 30
0.0
 11
293.2372771563
 21
124.5283724071
 31
0.0
  0
LINE
  5
3B6
330
22C
100
AcDbEntity
  8
7_ALL_FEATURES
  6
Continuous
 62
     7
100
AcDbLine
 10
300.2786412406
 20
145.3017376421
 30
0.0
 11
330.0478367285
 21
160.1863353861
 31
0.0
  0
LINE
  5
3B7
330
22C
100
AcDbEntity
  8
7_ALL_FEATURES
  6
Continuous
 62
     7
100
AcDbLine
 10
303.8495304856
 20
147.0532113818
 30
0.0
 11
325.0627339212
 21
157.6598130996
 31
0.0
  0
LINE
  5
3B8
330
22C
100
AcDbEntity
  8
7_ALL_FEATURES
  6
Continuous
 62
     7
100
AcDbLine
 10
325.557708668
 20
157.4123257262
 30
0.0
 11
325.3102212946
 21
157.2885820395
 31
0.0
  0
LINE
  5
3B9
330
22C
100
AcDbEntity
  8
7_ALL_FEATURES
  6
Continuous
 62
     7
100
AcDbLine
 10
325.3102212946
 20
156.5688859749
 30
0.0
 11
326.6006911703
 21
157.2141209127
 31
0.0
  0
LINE
  5
3BA
330
22C
100
AcDbEntity
  8
7_ALL_FEATURES
  6
Continuous
 62
     7
100
AcDbLine
 10
313.4108076478
 20
150.4233478736
 30
0.0
 11
312.3901869217
 21
149.9130375105
 31
0.0
  0
LINE
  5
3BB
330
22C
100
AcDbEntity
  8
7_ALL_FEATURES
  6
Continuous
 62
     7
100
AcDbLine
 10
330.0478367285
 20
89.1664793744
 30
0.0
 11
306.3383298716
 21
101.0212328029
 31
0.0
  0
LINE
  5
3BC
330
22C
100
AcDbEntity
  8
7_ALL_FEATURES
  6
Continuous
 62
     7
100
AcDbLine
 10
303.8495304856
 20
147.0532113818
 30
0.0
 11
303.8495304856
 21
139.5846868568
 31
0.0
  0
LINE
  5
3BD
330
22C
100
AcDbEntity
  8
7_ALL_FEATURES
  6
Continuous
 62
     7
100
AcDbLine
 10
312.3901869217
 20
149.9130375105
 30
0.0
 11
311.8798765586
 21
148.5753505742
 31
0.0
  0
LINE
  5
3BE
330
22C
100
AcDbEntity
  8
7_ALL_FEATURES
  6
Continuous
 62
     7
100
AcDbLine
 10
312.3901869217
 20
147.7479740011
 30
0.0
 11
313.4108076478
 21
148.2582843641
 31
0.0
  0
LINE
  5
3BF
330
22C
100
AcDbEntity
  8
7_ALL_FEATURES
  6
Continuous
 62
     7
100
AcDbLine
 10
313.4108076478
 20
148.2582843641
 30
0.0
 11
313.9211180109
 21
149.5959713004
 31
0.0
  0
LINE
  5
3C0
330
22C
100
AcDbEntity
  8
7_ALL_FEATURES
  6
Continuous
 62
     7
100
AcDbLine
 10
325.0627339212
 20
150.1912885746
 30
0.0
 11
303.8495304856
 21
139.5846868568
 31
0.0
  0
LINE
  5
3C1
330
22C
100
AcDbEntity
  8
7_ALL_FEATURES
  6
Continuous
 62
     7
100
AcDbLine
 10
295.5074176226
 20
113.0438053532
 30
0.0
 11
295.2628081071
 21
113.1200202264
 31
0.0
  0
LINE
  5
3C2
330
22C
100
AcDbEntity
  8
7_ALL_FEATURES
  6
Continuous
 62
     9
100
AcDbLine
 10
296.3174043369
 20
113.1338353448
 30
0.0
 11
296.0727948215
 21
113.210050218
 31
0.0
  0
LINE
  5
3C3
330
22C
100
AcDbEntity
  8
02___PRT_ALL_AXES
  6
Continuous
 62
     7
100
AcDbLine
 10
310.5478367285
 20
160.4305755025
 30
0.0
 11
310.5478367285
 21
158.1789094526
 31
0.0
  0
LINE
  5
3C4
330
22C
100
AcDbEntity
  8
02___PRT_ALL_AXES
  6
Continuous
 62
     7
100
AcDbLine
 10
310.5478367285
 20
156.0138459432
 30
0.0
 11
310.5478367285
 21
153.8487824337
 31
0.0
  0
LINE
  5
3C5
330
22C
100
AcDbEntity
  8
02___PRT_ALL_AXES
  6
Continuous
 62
     7
100
AcDbLine
 10
310.5478367285
 20
151.6837189243
 30
0.0
 11
310.5478367285
 21
150.4363353861
 31
0.0
  0
LINE
  5
3C6
330
22C
100
AcDbEntity
  8
7_ALL_FEATURES
  6
Continuous
 62
     7
100
AcDbLine
 10
325.0627339212
 20
150.1912885746
 30
0.0
 11
314.4504805919
 21
135.1349741249
 31
0.0
  0
LINE
  5
3C7
330
22C
100
AcDbEntity
  8
7_ALL_FEATURES
  6
Continuous
 62
     7
100
AcDbLine
 10
325.3102212946
 20
149.9790531823
 30
0.0
 11
314.7092711882
 21
134.9387753718
 31
0.0
  0
LINE
  5
3C8
330
22C
100
AcDbEntity
  8
7_ALL_FEATURES
  6
Continuous
 62
     7
100
AcDbLine
 10
330.0478367285
 20
147.1959543293
 30
0.0
 11
329.1993085911
 21
146.7716902606
 31
0.0
  0
LINE
  5
3C9
330
22C
100
AcDbEntity
  8
7_ALL_FEATURES
  6
Continuous
 62
     7
100
AcDbLine
 10
329.1993085911
 20
146.3386775587
 30
0.0
 11
330.0478367285
 21
146.7629416275
 31
0.0
  0
LINE
  5
3CA
330
22C
100
AcDbEntity
  8
7_ALL_FEATURES
  6
Continuous
 62
     7
100
AcDbLine
 10
330.4633521641
 20
146.5551839097
 30
0.0
 11
330.896364866
 21
146.7716902606
 31
0.0
  0
LINE
  5
3CB
330
22C
100
AcDbEntity
  8
7_ALL_FEATURES
  6
Continuous
 62
     7
100
AcDbLine
 10
314.4504805919
 20
135.1349741249
 30
0.0
 11
293.2372771563
 21
124.5283724071
 31
0.0
  0
LINE
  5
3CC
330
22C
100
AcDbEntity
  8
7_ALL_FEATURES
  6
Continuous
 62
     7
100
AcDbLine
 10
340.2301743776
 20
147.0093465819
 30
0.0
 11
339.1695142058
 21
146.479016496
 31
0.0
  0
LINE
  5
3CD
330
22C
100
AcDbEntity
  8
7_ALL_FEATURES
  6
Continuous
 62
     7
100
AcDbLine
 10
339.9588492108
 20
145.8344535139
 30
0.0
 11
340.2301743776
 21
145.9701160973
 31
0.0
  0
LINE
  5
3CE
330
22C
100
AcDbEntity
  8
7_ALL_FEATURES
  6
Continuous
 62
     7
100
AcDbLine
 10
314.4504805919
 20
135.1349741249
 30
0.0
 11
315.6567433625
 21
124.9289758178
 31
0.0
  0
LINE
  5
3CF
330
22C
100
AcDbEntity
  8
7_ALL_FEATURES
  6
Continuous
 62
     7
100
AcDbLine
 10
314.7092711882
 20
134.9387753718
 30
0.0
 11
315.9013528779
 21
124.8527609446
 31
0.0
  0
LINE
  5
3D0
330
22C
100
AcDbEntity
  8
02___PRT_ALL_AXES
  6
Continuous
 62
     7
100
AcDbLine
 10
320.1764236383
 20
155.7419236279
 30
0.0
 11
320.1764236383
 21
156.4594404765
 31
0.0
  0
LINE
  5
3D1
330
22C
100
AcDbEntity
  8
7_ALL_FEATURES
  6
Continuous
 62
     7
100
AcDbLine
 10
354.7965740701
 20
100.5016175606
 30
0.0
 11
330.0478367285
 21
112.8759862314
 31
0.0
  0
LINE
  5
3D2
330
22C
100
AcDbEntity
  8
7_ALL_FEATURES
  6
Continuous
 62
     7
100
AcDbLine
 10
325.0627339212
 20
157.6598130996
 30
0.0
 11
325.0627339212
 21
150.1912885746
 31
0.0
  0
LINE
  5
3D3
330
22C
100
AcDbEntity
  8
7_ALL_FEATURES
  6
Continuous
 62
     7
100
AcDbLine
 10
325.3102212946
 20
149.9790531823
 30
0.0
 11
325.3102212946
 21
157.3845149672
 31
0.0
  0
LINE
  5
3D4
330
22C
100
AcDbEntity
  8
7_ALL_FEATURES
  6
Continuous
 62
     7
100
AcDbLine
 10
350.8367760954
 20
140.7408989035
 30
0.0
 11
350.9418772318
 21
140.7934494717
 31
0.0
  0
LINE
  5
3D5
330
22C
100
AcDbEntity
  8
7_ALL_FEATURES
  6
Continuous
 62
     7
100
AcDbLine
 10
330.0478367285
 20
130.3084589555
 30
0.0
 11
329.1993085911
 21
129.8841948868
 31
0.0
  0
LINE
  5
3D6
330
22C
100
AcDbEntity
  8
7_ALL_FEATURES
  6
Continuous
 62
     7
100
AcDbLine
 10
350.8367760954
 20
140.6668152384
 30
0.0
 11
350.5654509286
 21
140.531152655
 31
0.0
  0
LINE
  5
3D7
330
22C
100
AcDbEntity
  8
7_ALL_FEATURES
  6
Continuous
 62
     7
100
AcDbLine
 10
314.4575711324
 20
122.4024383734
 30
0.0
 11
296.0727948215
 21
113.210050218
 31
0.0
  0
LINE
  5
3D8
330
22C
100
AcDbEntity
  8
7_ALL_FEATURES
  6
Continuous
 62
     7
100
AcDbLine
 10
296.3174043369
 20
113.1338353448
 30
0.0
 11
314.7021806478
 21
122.3262235002
 31
0.0
  0
LINE
  5
3D9
330
22C
100
AcDbEntity
  8
7_ALL_FEATURES
  6
Continuous
 62
     7
100
AcDbLine
 10
329.1993085911
 20
129.4511821849
 30
0.0
 11
330.0478367285
 21
129.8754462537
 31
0.0
  0
LINE
  5
3DA
330
22C
100
AcDbEntity
  8
7_ALL_FEATURES
  6
Continuous
 62
     9
100
AcDbLine
 10
314.4575711324
 20
122.4024383734
 30
0.0
 11
314.7021806478
 21
122.3262235002
 31
0.0
  0
LINE
  5
3DB
330
22C
100
AcDbEntity
  8
7_ALL_FEATURES
  6
Continuous
 62
     9
100
AcDbLine
 10
315.6567433625
 20
124.9289758178
 30
0.0
 11
315.9013528779
 21
124.8527609446
 31
0.0
  0
LINE
  5
3DC
330
22C
100
AcDbEntity
  8
7_ALL_FEATURES
  6
Continuous
 62
     7
100
AcDbLine
 10
329.1993085911
 20
159.7620713174
 30
0.0
 11
329.1993085911
 21
146.3386775587
 31
0.0
  0
LINE
  5
3DD
330
22C
100
AcDbEntity
  8
7_ALL_FEATURES
  6
Continuous
 62
     7
100
AcDbLine
 10
329.1993085911
 20
129.8841948868
 30
0.0
 11
329.1993085911
 21
122.329787412
 31
0.0
  0
LINE
  5
3DE
330
22C
100
AcDbEntity
  8
7_ALL_FEATURES
  6
Continuous
 62
     7
100
AcDbLine
 10
330.0478367285
 20
160.1863353861
 30
0.0
 11
330.0478367285
 21
147.1959543293
 31
0.0
  0
LINE
  5
3DF
330
22C
100
AcDbEntity
  8
7_ALL_FEATURES
  6
Continuous
 62
     7
100
AcDbLine
 10
330.0478367285
 20
146.7629416275
 30
0.0
 11
330.0478367285
 21
130.3084589555
 31
0.0
  0
LINE
  5
3E0
330
22C
100
AcDbEntity
  8
7_ALL_FEATURES
  6
Continuous
 62
     7
100
AcDbLine
 10
330.0478367285
 20
88.1272488898
 30
0.0
 11
330.0478367285
 21
89.1664793744
 31
0.0
  0
LINE
  5
3E1
330
22C
100
AcDbEntity
  8
7_ALL_FEATURES
  6
Continuous
 62
     7
100
AcDbLine
 10
330.0478367285
 20
121.7148209962
 30
0.0
 11
330.0478367285
 21
129.8754462537
 31
0.0
  0
LINE
  5
3E2
330
22C
100
AcDbEntity
  8
7_ALL_FEATURES
  6
Continuous
 62
     7
100
AcDbLine
 10
352.4631216922
 20
140.8813553789
 30
0.0
 11
351.6145935547
 21
140.4570913102
 31
0.0
  0
LINE
  5
3E3
330
22C
100
AcDbEntity
  8
7_ALL_FEATURES
  6
Continuous
 62
     7
100
AcDbLine
 10
330.4633521641
 20
129.6676885359
 30
0.0
 11
330.896364866
 21
129.8841948868
 31
0.0
  0
LINE
  5
3E4
330
22C
100
AcDbEntity
  8
7_ALL_FEATURES
  6
Continuous
 62
     7
100
AcDbLine
 10
372.4742435997
 20
100.5016175606
 30
0.0
 11
330.0478367285
 21
121.7148209962
 31
0.0
  0
LINE
  5
3E5
330
22C
100
AcDbEntity
  8
7_ALL_FEATURES
  6
Continuous
 62
     7
100
AcDbLine
 10
330.0478367285
 20
122.7540514807
 30
0.0
 11
372.4742435997
 21
101.5408480451
 31
0.0
  0
LINE
  5
3E6
330
22C
100
AcDbEntity
  8
7_ALL_FEATURES
  6
Continuous
 62
     7
100
AcDbLine
 10
311.8798765586
 20
148.5753505742
 30
0.0
 11
312.3901869217
 21
147.7479740011
 31
0.0
  0
LINE
  5
3E7
330
22C
100
AcDbEntity
  8
7_ALL_FEATURES
  6
Continuous
 62
     7
100
AcDbLine
 10
313.9211180109
 20
149.5959713004
 30
0.0
 11
313.4108076478
 21
150.4233478736
 31
0.0
  0
LINE
  5
3E8
330
22C
100
AcDbEntity
  8
7_ALL_FEATURES
  6
Continuous
 62
     7
100
AcDbLine
 10
330.896364866
 20
129.4511821849
 30
0.0
 11
330.896364866
 21
146.7716902606
 31
0.0
  0
LINE
  5
3E9
330
22C
100
AcDbEntity
  8
7_ALL_FEATURES
  6
Continuous
 62
     7
100
AcDbLine
 10
287.6214298573
 20
101.5408480451
 30
0.0
 11
330.0478367285
 21
122.7540514807
 31
0.0
  0
LINE
  5
3EA
330
22C
100
AcDbEntity
  8
7_ALL_FEATURES
  6
Continuous
 62
     7
100
AcDbLine
 10
330.0478367285
 20
121.7148209962
 30
0.0
 11
287.6214298573
 21
100.5016175606
 31
0.0
  0
LINE
  5
3EB
330
22C
100
AcDbEntity
  8
7_ALL_FEATURES
  6
Continuous
 62
     7
100
AcDbLine
 10
329.1993085911
 20
129.8841948868
 30
0.0
 11
329.632321293
 21
129.6676885359
 31
0.0
  0
LINE
  5
3EC
330
22C
100
AcDbEntity
  8
7_ALL_FEATURES
  6
Continuous
 62
     7
100
AcDbLine
 10
330.0478367285
 20
129.8754462537
 30
0.0
 11
330.896364866
 21
129.4511821849
 31
0.0
  0
LINE
  5
3ED
330
22C
100
AcDbEntity
  8
7_ALL_FEATURES
  6
Continuous
 62
     7
100
AcDbLine
 10
330.896364866
 20
129.8841948868
 30
0.0
 11
330.0478367285
 21
130.3084589555
 31
0.0
  0
LINE
  5
3EE
330
22C
100
AcDbEntity
  8
7_ALL_FEATURES
  6
Continuous
 62
     9
100
AcDbLine
 10
335.2733380749
 20
170.5651205292
 30
0.0
 11
335.2733380749
 21
169.7991289334
 31
0.0
  0
LINE
  5
3EF
330
22C
100
AcDbEntity
  8
7_ALL_FEATURES
  6
Continuous
 62
     7
100
AcDbLine
 10
338.3209860684
 20
147.9524231908
 30
0.0
 11
338.3209860684
 21
146.6533850851
 31
0.0
  0
LINE
  5
3F0
330
22C
100
AcDbEntity
  8
7_ALL_FEATURES
  6
Continuous
 62
     7
100
AcDbLine
 10
338.5331181028
 20
164.9877783573
 30
0.0
 11
338.5331181028
 21
164.7676073785
 31
0.0
  0
LINE
  5
3F1
330
22C
100
AcDbEntity
  8
7_ALL_FEATURES
  6
Continuous
 62
     9
100
AcDbLine
 10
326.7901598612
 20
157.6675747258
 30
0.0
 11
326.6664161745
 21
157.9919465692
 31
0.0
  0
LINE
  5
3F2
330
22C
100
AcDbEntity
  8
7_ALL_FEATURES
  6
Continuous
 62
     7
100
AcDbLine
 10
339.1695142058
 20
146.479016496
 30
0.0
 11
339.1695142058
 21
146.2291210164
 31
0.0
  0
LINE
  5
3F3
330
22C
100
AcDbEntity
  8
02___PRT_ALL_AXES
  6
Continuous
 62
     7
100
AcDbLine
 10
339.9192498188
 20
155.7419236279
 30
0.0
 11
339.9192498188
 21
156.4638257033
 31
0.0
  0
LINE
  5
3F4
330
22C
100
AcDbEntity
  8
7_ALL_FEATURES
  6
Continuous
 62
     7
100
AcDbLine
 10
340.2301743776
 20
147.0093465819
 30
0.0
 11
340.2301743776
 21
145.9701160973
 31
0.0
  0
LINE
  5
3F5
330
22C
100
AcDbEntity
  8
7_ALL_FEATURES
  6
Continuous
 62
     7
100
AcDbLine
 10
330.0478367285
 20
112.8759862314
 30
0.0
 11
305.299099387
 21
100.5016175606
 31
0.0
  0
LINE
  5
3F6
330
22C
100
AcDbEntity
  8
02___PRT_ALL_AXES
  6
Continuous
 62
     7
100
AcDbLine
 10
312.7567205405
 20
144.9090201522
 30
0.0
 11
312.4880199636
 21
145.0433704406
 31
0.0
  0
LINE
  5
3F7
330
22C
100
AcDbEntity
  8
7_ALL_FEATURES
  6
Continuous
 62
     7
100
AcDbLine
 10
311.8798765586
 20
148.5753505742
 30
0.0
 11
312.9624083133
 21
148.0340846969
 31
0.0
  0
LINE
  5
3F8
330
22C
100
AcDbEntity
  8
7_ALL_FEATURES
  6
Continuous
 62
     7
100
AcDbLine
 10
312.3901869217
 20
149.9130375105
 30
0.0
 11
313.7774610693
 21
149.2194004367
 31
0.0
  0
LINE
  5
3F9
330
22C
100
AcDbEntity
  8
02___PRT_ALL_AXES
  6
Continuous
 62
     7
100
AcDbLine
 10
316.1555438663
 20
151.7066668038
 30
0.0
 11
315.8868432894
 21
151.8410170922
 31
0.0
  0
LINE
  5
3FA
330
22C
100
AcDbEntity
  8
02___PRT_ALL_AXES
  6
Continuous
 62
     7
100
AcDbLine
 10
349.5478367285
 20
160.4305755025
 30
0.0
 11
349.5478367285
 21
158.1789094526
 31
0.0
  0
LINE
  5
3FB
330
22C
100
AcDbEntity
  8
02___PRT_ALL_AXES
  6
Continuous
 62
     7
100
AcDbLine
 10
349.5478367285
 20
156.0138459432
 30
0.0
 11
349.5478367285
 21
153.8487824337
 31
0.0
  0
LINE
  5
3FC
330
22C
100
AcDbEntity
  8
02___PRT_ALL_AXES
  6
Continuous
 62
     7
100
AcDbLine
 10
349.5478367285
 20
151.6837189243
 30
0.0
 11
349.5478367285
 21
150.4363353861
 31
0.0
  0
LINE
  5
3FD
330
22C
100
AcDbEntity
  8
7_ALL_FEATURES
  6
Continuous
 62
     7
100
AcDbLine
 10
350.8367760954
 20
141.706045723
 30
0.0
 11
350.8367760954
 21
140.6668152384
 31
0.0
  0
LINE
  5
3FE
330
22C
100
AcDbEntity
  8
7_ALL_FEATURES
  6
Continuous
 62
     7
100
AcDbLine
 10
329.1993085911
 20
146.7716902606
 30
0.0
 11
329.632321293
 21
146.5551839097
 31
0.0
  0
LINE
  5
3FF
330
22C
100
AcDbEntity
  8
7_ALL_FEATURES
  6
Continuous
 62
     7
100
AcDbLine
 10
330.0478367285
 20
146.7629416275
 30
0.0
 11
330.896364866
 21
146.3386775587
 31
0.0
  0
LINE
  5
400
330
22C
100
AcDbEntity
  8
7_ALL_FEATURES
  6
Continuous
 62
     7
100
AcDbLine
 10
330.896364866
 20
146.7716902606
 30
0.0
 11
330.0478367285
 21
147.1959543293
 31
0.0
  0
LINE
  5
401
330
22C
100
AcDbEntity
  8
7_ALL_FEATURES
  6
Continuous
 62
     7
100
AcDbLine
 10
351.6145935547
 20
140.4570913102
 30
0.0
 11
351.6145935547
 21
140.006581342
 31
0.0
  0
LINE
  5
402
330
22C
100
AcDbEntity
  8
7_ALL_FEATURES
  6
Continuous
 62
     7
100
AcDbLine
 10
352.4631216922
 20
139.5823172732
 30
0.0
 11
352.4631216922
 21
140.8813553789
 31
0.0
  0
LINE
  5
403
330
22C
100
AcDbEntity
  8
7_ALL_FEATURES
  6
Continuous
 62
     7
100
AcDbLine
 10
338.3209860684
 20
146.6533850851
 30
0.0
 11
352.4631216922
 21
139.5823172732
 31
0.0
  0
LINE
  5
404
330
22C
100
AcDbEntity
  8
7_ALL_FEATURES
  6
Continuous
 62
     7
100
AcDbLine
 10
351.6145935547
 20
140.2564768215
 30
0.0
 11
350.8153464082
 21
140.6561003948
 31
0.0
  0
LINE
  5
405
330
22C
100
AcDbEntity
  8
7_ALL_FEATURES
  6
Continuous
 62
     7
100
AcDbLine
 10
339.1695142058
 20
146.479016496
 30
0.0
 11
338.3209860684
 21
146.9032805647
 31
0.0
  0
LINE
  5
406
330
22C
100
AcDbEntity
  8
7_ALL_FEATURES
  6
Continuous
 62
     7
100
AcDbLine
 10
340.2301743776
 20
145.9701160973
 30
0.0
 11
350.8367760954
 21
140.6668152384
 31
0.0
  0
LINE
  5
407
330
22C
100
AcDbEntity
  8
7_ALL_FEATURES
  6
Continuous
 62
     7
100
AcDbLine
 10
338.3209860684
 20
147.1038950534
 30
0.0
 11
339.3701286945
 21
146.5793237403
 31
0.0
  0
LINE
  5
408
330
22C
100
AcDbEntity
  8
7_ALL_FEATURES
  6
Continuous
 62
     7
100
AcDbLine
 10
350.8367760954
 20
140.8460000399
 30
0.0
 11
351.6145935547
 21
140.4570913102
 31
0.0
  0
LINE
  5
409
330
22C
100
AcDbEntity
  8
7_ALL_FEATURES
  6
Continuous
 62
     7
100
AcDbLine
 10
352.4631216922
 20
140.8813553789
 30
0.0
 11
350.8321690772
 21
141.6968316864
 31
0.0
  0
LINE
  5
40A
330
22C
100
AcDbEntity
  8
7_ALL_FEATURES
  6
Continuous
 62
     7
100
AcDbLine
 10
340.218656832
 20
147.003587809
 30
0.0
 11
338.3209860684
 21
147.9524231908
 31
0.0
  0
LINE
  5
40B
330
22C
100
AcDbEntity
  8
7_ALL_FEATURES
  6
Continuous
 62
     7
100
AcDbLine
 10
350.8367760954
 20
141.706045723
 30
0.0
 11
340.2301743776
 21
147.0093465819
 31
0.0
  0
LINE
  5
40C
330
22C
100
AcDbEntity
  8
7_ALL_FEATURES
  6
Continuous
 62
     9
100
AcDbLine
 10
359.8170322165
 20
145.3017376421
 30
0.0
 11
359.8170322165
 21
107.8694537368
 31
0.0
  0
LINE
  5
40D
330
22C
100
AcDbEntity
  8
7_ALL_FEATURES
  6
Continuous
 62
     7
100
AcDbLine
 10
360.197793401
 20
124.4781002307
 30
0.0
 11
366.5996057044
 21
108.9936081137
 31
0.0
  0
LINE
  5
40E
330
22C
100
AcDbEntity
  8
7_ALL_FEATURES
  6
Continuous
 62
     7
100
AcDbLine
 10
360.197793401
 20
125.0414625327
 30
0.0
 11
366.8583963007
 21
108.9310162705
 31
0.0
  0
LINE
  5
40F
330
22C
100
AcDbEntity
  8
7_ALL_FEATURES
  6
Continuous
 62
     7
100
AcDbLine
 10
360.197793401
 20
144.8421182344
 30
0.0
 11
360.197793401
 21
107.6790731445
 31
0.0
  0
LINE
  5
410
330
22C
100
AcDbEntity
  8
7_ALL_FEATURES
  6
Continuous
 62
     7
100
AcDbLine
 10
366.5996057044
 20
108.9936081137
 30
0.0
 11
362.0841645835
 21
106.7358875533
 31
0.0
  0
LINE
  5
411
330
22C
100
AcDbEntity
  8
7_ALL_FEATURES
  6
Continuous
 62
     7
100
AcDbLine
 10
353.7573435855
 20
101.0212328029
 30
0.0
 11
330.0478367285
 21
89.1664793744
 31
0.0
  0
LINE
  5
412
330
22C
100
AcDbEntity
  8
7_ALL_FEATURES
  6
Continuous
 62
     7
100
AcDbLine
 10
330.0478367285
 20
88.1272488898
 30
0.0
 11
354.7965740701
 21
100.5016175606
 31
0.0
  0
LINE
  5
413
330
22C
100
AcDbEntity
  8
7_ALL_FEATURES
  6
Continuous
 62
     7
100
AcDbLine
 10
325.557708668
 20
157.4123257262
 30
0.0
 11
326.7901598612
 21
157.6675747258
 31
0.0
  0
LINE
  5
414
330
22C
100
AcDbEntity
  8
7_ALL_FEATURES
  6
Continuous
 62
     7
100
AcDbLine
 10
326.6664161745
 20
157.9919465692
 30
0.0
 11
325.0627339212
 21
157.6598130996
 31
0.0
  0
LINE
  5
415
330
22C
100
AcDbEntity
  8
7_ALL_FEATURES
  6
Continuous
 62
     7
100
AcDbLine
 10
325.557708668
 20
157.4123257262
 30
0.0
 11
325.3102212946
 21
157.3845149672
 31
0.0
  0
LINE
  5
416
330
22C
100
AcDbEntity
  8
7_ALL_FEATURES
  6
Continuous
 62
     7
100
AcDbLine
 10
359.8170322165
 20
145.3017376421
 30
0.0
 11
330.0478367285
 21
160.1863353861
 31
0.0
  0
LINE
  5
417
330
22C
100
AcDbEntity
  8
7_ALL_FEATURES
  6
Continuous
 62
     7
100
AcDbLine
 10
335.2733380749
 20
170.5651205292
 30
0.0
 11
336.3094547254
 21
169.6470132842
 31
0.0
  0
LINE
  5
418
330
22C
100
AcDbEntity
  8
7_ALL_FEATURES
  6
Continuous
 62
     7
100
AcDbLine
 10
372.4742435997
 20
101.5408480451
 30
0.0
 11
372.4742435997
 21
100.5016175606
 31
0.0
  0
LINE
  5
419
330
22C
100
AcDbEntity
  8
7_ALL_FEATURES
  6
Continuous
 62
     7
100
AcDbLine
 10
366.5996057044
 20
108.9936081137
 30
0.0
 11
366.0323992065
 21
104.7617702418
 31
0.0
  0
LINE
  5
41A
330
22C
100
AcDbEntity
  8
7_ALL_FEATURES
  6
Continuous
 62
     7
100
AcDbLine
 10
366.8583963007
 20
108.9310162705
 30
0.0
 11
366.2827982962
 21
104.6365706969
 31
0.0
  0
LINE
  5
41B
330
22C
100
AcDbEntity
  8
7_ALL_FEATURES
  6
Continuous
 62
     7
100
AcDbLine
 10
330.0478367285
 20
79.288414125
 30
0.0
 11
372.4742435997
 21
100.5016175606
 31
0.0
  0
ARC
  5
41C
330
22C
100
AcDbEntity
  8
02___PRT_ALL_AXES
  6
Continuous
 62
     7
100
AcDbCircle
 10
54.1817398786
 20
86.667440459
 30
0.0
 40
4.1
100
AcDbArc
 50
206.3930257743
 51
243.1366968699
  0
ARC
  5
41D
330
22C
100
AcDbEntity
  8
02___PRT_ALL_AXES
  6
Continuous
 62
     7
100
AcDbCircle
 10
54.1817398786
 20
86.9523260537
 30
0.0
 40
4.1
100
AcDbArc
 50
116.8633031301
 51
153.6069742257
  0
ARC
  5
41E
330
22C
100
AcDbEntity
  8
02___PRT_ALL_AXES
  6
Continuous
 62
     7
100
AcDbCircle
 10
95.3364596952
 20
86.667440459
 30
0.0
 40
4.1
100
AcDbArc
 50
296.8633031301
 51
333.6069742257001
  0
ARC
  5
41F
330
22C
100
AcDbEntity
  8
02___PRT_ALL_AXES
  6
Continuous
 62
     7
100
AcDbCircle
 10
95.3364596952
 20
86.9523260537
 30
0.0
 40
4.1
100
AcDbArc
 50
26.3930257743
 51
63.13669686989999
  0
CIRCLE
  5
420
330
22C
100
AcDbEntity
  8
02___PRT_ALL_AXES
  6
Continuous
 62
     7
100
AcDbCircle
 10
200.0203413982
 20
218.5971679687
 30
0.0
 40
3.8
  0
CIRCLE
  5
421
330
22C
100
AcDbEntity
  8
02___PRT_ALL_AXES
  6
Continuous
 62
     7
100
AcDbCircle
 10
200.0203413982
 20
218.5971679687
 30
0.0
 40
1.965
  0
ARC
  5
422
330
22C
100
AcDbEntity
  8
7_ALL_FEATURES
  6
Continuous
 62
     7
100
AcDbCircle
 10
329.9622547283
 20
121.8569439545
 30
0.0
 40
37.4093155778
100
AcDbArc
 50
92.88938984010001
 51
98.95957492339998
  0
ARC
  5
423
330
22C
100
AcDbEntity
  8
7_ALL_FEATURES
  6
Continuous
 62
     7
100
AcDbCircle
 10
330.1950032495
 20
122.4502219334
 30
0.0
 40
36.8137008173
100
AcDbArc
 50
80.99130068190001
 51
87.1597919288
  0
ARC
  5
424
330
22C
100
AcDbEntity
  8
02___PRT_ALL_AXES
  6
Continuous
 62
     7
100
AcDbCircle
 10
343.9747554927
 20
148.5907889333
 30
0.0
 40
7.2539290264
100
AcDbArc
 50
98.02279432149999
 51
99.3831023615
  0
ARC
  5
425
330
22C
100
AcDbEntity
  8
02___PRT_ALL_AXES
  6
Continuous
 62
     7
100
AcDbCircle
 10
343.9721868241
 20
152.93890434
 30
0.0
 40
7.2357674798
100
AcDbArc
 50
98.05588576460002
 51
99.3415794711
  0
ARC
  5
426
330
22C
100
AcDbEntity
  8
7_ALL_FEATURES
  6
Continuous
 62
     7
100
AcDbCircle
 10
334.6843890499
 20
156.4083536538
 30
0.0
 40
5.4844050685
100
AcDbArc
 50
48.2571513282
 51
49.7848371699
  0
ARC
  5
427
330
22C
100
AcDbEntity
  8
7_ALL_FEATURES
  6
Continuous
 62
     7
100
AcDbCircle
 10
344.5709204271
 20
158.1851841496
 30
0.0
 40
4.9768993982
100
AcDbArc
 50
347.3367349475001
 51
359.9277635086
  0
ARC
  5
428
330
22C
100
AcDbEntity
  8
7_ALL_FEATURES
  6
Continuous
 62
     7
100
AcDbCircle
 10
344.5709204271
 20
153.8550571307
 30
0.0
 40
4.9768993982
100
AcDbArc
 50
347.3367349475001
 51
359.9277635086
  0
ARC
  5
429
330
22C
100
AcDbEntity
  8
02___PRT_ALL_AXES
  6
Continuous
 62
     7
100
AcDbCircle
 10
315.2389626711
 20
150.5479829991
 30
0.0
 40
1.4462629122
100
AcDbArc
 50
51.71696010559999
 51
63.38663199399999
  0
ARC
  5
42A
330
22C
100
AcDbEntity
  8
02___PRT_ALL_AXES
  6
Continuous
 62
     7
100
AcDbCircle
 10
342.8766717953
 20
163.1406392807
 30
0.0
 40
1.071781092
100
AcDbArc
 50
345.5567085729
 51
346.3210690436
  0
ARC
  5
42B
330
22C
100
AcDbEntity
  8
02___PRT_ALL_AXES
  6
Continuous
 62
     7
100
AcDbCircle
 10
342.8771296457
 20
154.4801912245
 30
0.0
 40
1.0712876127
100
AcDbArc
 50
345.5742749961
 51
346.4870896014999
  0
ARC
  5
42C
330
22C
100
AcDbEntity
  8
02___PRT_ALL_AXES
  6
Continuous
 62
     7
100
AcDbCircle
 10
342.8783309916
 20
158.8098969488
 30
0.0
 40
1.0700249678
100
AcDbArc
 50
345.5173011718
 51
346.7161634893
  0
SPLINE
  5
42D
330
22C
100
AcDbEntity
  8
7_ALL_FEATURES
  6
Continuous
 62
     7
100
AcDbSpline
 70
     0
 71
     3
 72
    18
 73
    14
 74
     0
 42
0.000000001
 43
0.0000001
 40
0.0
 40
0.0
 40
0.0
 40
0.0
 40
0.034282231
 40
0.0613478504
 40
0.0961947449
 40
0.1389493222
 40
0.1894470087
 40
0.247330262
 40
0.3121531219
 40
0.4602928785
 40
0.6285502418
 40
0.8107538896
 40
1.0
 40
1.0
 40
1.0
 40
1.0
 10
109.7652491084
 20
203.5971679687
 30
0.0
 10
109.741689066
 20
203.5971679687
 30
0.0
 10
109.7050136306
 20
203.630993704
 30
0.0
 10
109.6737575836
 20
203.6871567561
 30
0.0
 10
109.645768856
 20
203.7542717568
 30
0.0
 10
109.619571951
 20
203.8381554385
 30
0.0
 10
109.594339741
 20
203.9390329387
 30
0.0
 10
109.5707238571
 20
204.0557063179
 30
0.0
 10
109.5402375058
 20
204.2393677873
 30
0.0
 10
109.5087854831
 20
204.4995780339
 30
0.0
 10
109.4816318312
 20
204.8412279155
 30
0.0
 10
109.4648908818
 20
205.2118201692
 30
0.0
 10
109.4611347398
 20
205.4671109029
 30
0.0
 10
109.4611347398
 20
205.5971679687
 30
0.0
  0
SPLINE
  5
42E
330
22C
100
AcDbEntity
  8
7_ALL_FEATURES
  6
Continuous
 62
     7
100
AcDbSpline
 70
     0
 71
     3
 72
    18
 73
    14
 74
     0
 42
0.000000001
 43
0.0000001
 40
0.0
 40
0.0
 40
0.0
 40
0.0
 40
0.1892461104
 40
0.3714497582
 40
0.5397071215
 40
0.6878468781
 40
0.752669738
 40
0.8105529913
 40
0.8610506778
 40
0.9038052551
 40
0.9386521496
 40
0.965717769
 40
1.0
 40
1.0
 40
1.0
 40
1.0
 10
109.4611347398
 20
231.5971679687
 30
0.0
 10
109.4611347398
 20
231.7272250346
 30
0.0
 10
109.4648908818
 20
231.9825157683
 30
0.0
 10
109.4816318312
 20
232.353108022
 30
0.0
 10
109.5087854831
 20
232.6947579036
 30
0.0
 10
109.5402375058
 20
232.9549681502
 30
0.0
 10
109.5707238571
 20
233.1386296196
 30
0.0
 10
109.594339741
 20
233.2553029988
 30
0.0
 10
109.619571951
 20
233.356180499
 30
0.0
 10
109.645768856
 20
233.4400641807
 30
0.0
 10
109.6737575836
 20
233.5071791814
 30
0.0
 10
109.7050136306
 20
233.5633422335
 30
0.0
 10
109.741689066
 20
233.5971679687
 30
0.0
 10
109.7652491084
 20
233.5971679687
 30
0.0
  0
SPLINE
  5
42F
330
22C
100
AcDbEntity
  8
7_ALL_FEATURES
  6
Continuous
 62
     7
100
AcDbSpline
 70
     0
 71
     3
 72
    18
 73
    14
 74
     0
 42
0.000000001
 43
0.0000001
 40
0.0
 40
0.0
 40
0.0
 40
0.0
 40
0.1892461104
 40
0.3714497582
 40
0.5397071215
 40
0.6878468781
 40
0.752669738
 40
0.8105529913
 40
0.8610506778
 40
0.9038052551
 40
0.9386521496
 40
0.965717769
 40
1.0
 40
1.0
 40
1.0
 40
1.0
 10
109.807064834
 20
205.5971679687
 30
0.0
 10
109.807064834
 20
205.4671109029
 30
0.0
 10
109.810820976
 20
205.2118201692
 30
0.0
 10
109.8275619254
 20
204.8412279155
 30
0.0
 10
109.8547155773
 20
204.4995780339
 30
0.0
 10
109.8861675999
 20
204.2393677873
 30
0.0
 10
109.9166539512
 20
204.0557063179
 30
0.0
 10
109.9402698352
 20
203.9390329387
 30
0.0
 10
109.9655020452
 20
203.8381554385
 30
0.0
 10
109.9916989502
 20
203.7542717568
 30
0.0
 10
110.0196876777
 20
203.6871567561
 30
0.0
 10
110.0509437248
 20
203.630993704
 30
0.0
 10
110.0876191602
 20
203.5971679687
 30
0.0
 10
110.1111792025
 20
203.5971679687
 30
0.0
  0
SPLINE
  5
430
330
22C
100
AcDbEntity
  8
7_ALL_FEATURES
  6
Continuous
 62
     7
100
AcDbSpline
 70
     0
 71
     3
 72
    18
 73
    14
 74
     0
 42
0.000000001
 43
0.0000001
 40
0.0
 40
0.0
 40
0.0
 40
0.0
 40
0.034282231
 40
0.0613478504
 40
0.0961947449
 40
0.1389493222
 40
0.1894470087
 40
0.247330262
 40
0.3121531219
 40
0.4602928785
 40
0.6285502418
 40
0.8107538896
 40
1.0
 40
1.0
 40
1.0
 40
1.0
 10
110.1111792025
 20
233.5971679687
 30
0.0
 10
110.0876191602
 20
233.5971679687
 30
0.0
 10
110.0509437248
 20
233.5633422335
 30
0.0
 10
110.0196876777
 20
233.5071791814
 30
0.0
 10
109.9916989502
 20
233.4400641807
 30
0.0
 10
109.9655020452
 20
233.356180499
 30
0.0
 10
109.9402698352
 20
233.2553029988
 30
0.0
 10
109.9166539512
 20
233.1386296196
 30
0.0
 10
109.8861675999
 20
232.9549681502
 30
0.0
 10
109.8547155773
 20
232.6947579036
 30
0.0
 10
109.8275619254
 20
232.353108022
 30
0.0
 10
109.810820976
 20
231.9825157683
 30
0.0
 10
109.807064834
 20
231.7272250346
 30
0.0
 10
109.807064834
 20
231.5971679687
 30
0.0
  0
SPLINE
  5
431
330
22C
100
AcDbEntity
  8
7_ALL_FEATURES
  6
Continuous
 62
     7
100
AcDbSpline
 70
     0
 71
     3
 72
    18
 73
    14
 74
     0
 42
0.000000001
 43
0.0000001
 40
0.0
 40
0.0
 40
0.0
 40
0.0
 40
0.034282231
 40
0.0613478504
 40
0.0961947449
 40
0.1389493222
 40
0.1894470087
 40
0.247330262
 40
0.3121531219
 40
0.4602928785
 40
0.6285502418
 40
0.8107538896
 40
1.0
 40
1.0
 40
1.0
 40
1.0
 10
39.7529504655
 20
233.5971679687
 30
0.0
 10
39.7765105078
 20
233.5971679687
 30
0.0
 10
39.8131859433
 20
233.5633422335
 30
0.0
 10
39.8444419903
 20
233.5071791814
 30
0.0
 10
39.8724307178
 20
233.4400641807
 30
0.0
 10
39.8986276228
 20
233.356180499
 30
0.0
 10
39.9238598328
 20
233.2553029988
 30
0.0
 10
39.9474757168
 20
233.1386296196
 30
0.0
 10
39.9779620681
 20
232.9549681502
 30
0.0
 10
40.0094140907
 20
232.6947579036
 30
0.0
 10
40.0365677427
 20
232.353108022
 30
0.0
 10
40.053308692
 20
231.9825157683
 30
0.0
 10
40.057064834
 20
231.7272250346
 30
0.0
 10
40.057064834
 20
231.5971679687
 30
0.0
  0
SPLINE
  5
432
330
22C
100
AcDbEntity
  8
7_ALL_FEATURES
  6
Continuous
 62
     7
100
AcDbSpline
 70
     0
 71
     3
 72
    18
 73
    14
 74
     0
 42
0.000000001
 43
0.0000001
 40
0.0
 40
0.0
 40
0.0
 40
0.0
 40
0.1892461104
 40
0.3714497582
 40
0.5397071215
 40
0.6878468781
 40
0.752669738
 40
0.8105529913
 40
0.8610506778
 40
0.9038052551
 40
0.9386521496
 40
0.965717769
 40
1.0
 40
1.0
 40
1.0
 40
1.0
 10
40.057064834
 20
205.5971679687
 30
0.0
 10
40.057064834
 20
205.4671109029
 30
0.0
 10
40.053308692
 20
205.2118201692
 30
0.0
 10
40.0365677427
 20
204.8412279155
 30
0.0
 10
40.0094140907
 20
204.4995780339
 30
0.0
 10
39.9779620681
 20
204.2393677873
 30
0.0
 10
39.9474757168
 20
204.0557063179
 30
0.0
 10
39.9238598328
 20
203.9390329387
 30
0.0
 10
39.8986276228
 20
203.8381554385
 30
0.0
 10
39.8724307178
 20
203.7542717568
 30
0.0
 10
39.8444419903
 20
203.6871567561
 30
0.0
 10
39.8131859433
 20
203.630993704
 30
0.0
 10
39.7765105078
 20
203.5971679687
 30
0.0
 10
39.7529504655
 20
203.5971679687
 30
0.0
  0
SPLINE
  5
433
330
22C
100
AcDbEntity
  8
7_ALL_FEATURES
  6
Continuous
 62
     7
100
AcDbSpline
 70
     0
 71
     3
 72
    18
 73
    14
 74
     0
 42
0.000000001
 43
0.0000001
 40
0.0
 40
0.0
 40
0.0
 40
0.0
 40
0.1892461104
 40
0.3714497582
 40
0.5397071215
 40
0.6878468781
 40
0.752669738
 40
0.8105529913
 40
0.8610506778
 40
0.9038052551
 40
0.9386521496
 40
0.965717769
 40
1.0
 40
1.0
 40
1.0
 40
1.0
 10
39.7111347398
 20
231.5971679688
 30
0.0
 10
39.7111347398
 20
231.7272250346
 30
0.0
 10
39.7073785979
 20
231.9825157683
 30
0.0
 10
39.6906376485
 20
232.353108022
 30
0.0
 10
39.6634839966
 20
232.6947579036
 30
0.0
 10
39.6320319739
 20
232.9549681502
 30
0.0
 10
39.6015456226
 20
233.1386296196
 30
0.0
 10
39.5779297387
 20
233.2553029988
 30
0.0
 10
39.5526975287
 20
233.356180499
 30
0.0
 10
39.5265006236
 20
233.4400641807
 30
0.0
 10
39.4985118961
 20
233.5071791814
 30
0.0
 10
39.4672558491
 20
233.5633422335
 30
0.0
 10
39.4305804137
 20
233.5971679687
 30
0.0
 10
39.4070203713
 20
233.5971679687
 30
0.0
  0
SPLINE
  5
434
330
22C
100
AcDbEntity
  8
7_ALL_FEATURES
  6
Continuous
 62
     7
100
AcDbSpline
 70
     0
 71
     3
 72
    18
 73
    14
 74
     0
 42
0.000000001
 43
0.0000001
 40
0.0
 40
0.0
 40
0.0
 40
0.0
 40
0.034282231
 40
0.0613478504
 40
0.0961947449
 40
0.1389493222
 40
0.1894470087
 40
0.247330262
 40
0.3121531219
 40
0.4602928785
 40
0.6285502418
 40
0.8107538896
 40
1.0
 40
1.0
 40
1.0
 40
1.0
 10
39.4070203713
 20
203.5971679687
 30
0.0
 10
39.4305804137
 20
203.5971679687
 30
0.0
 10
39.4672558491
 20
203.630993704
 30
0.0
 10
39.4985118961
 20
203.6871567561
 30
0.0
 10
39.5265006236
 20
203.7542717568
 30
0.0
 10
39.5526975287
 20
203.8381554385
 30
0.0
 10
39.5779297387
 20
203.9390329387
 30
0.0
 10
39.6015456226
 20
204.0557063179
 30
0.0
 10
39.6320319739
 20
204.2393677873
 30
0.0
 10
39.6634839966
 20
204.4995780339
 30
0.0
 10
39.6906376485
 20
204.8412279155
 30
0.0
 10
39.7073785979
 20
205.2118201692
 30
0.0
 10
39.7111347398
 20
205.4671109029
 30
0.0
 10
39.7111347398
 20
205.5971679687
 30
0.0
  0
SPLINE
  5
435
330
22C
100
AcDbEntity
  8
7_ALL_FEATURES
  6
Continuous
 62
     7
100
AcDbSpline
 70
     0
 71
     3
 72
    15
 73
    11
 74
     0
 42
0.000000001
 43
0.0000001
 40
0.0
 40
0.0
 40
0.0
 40
0.0
 40
0.1242655485
 40
0.2486784514
 40
0.3732708631
 40
0.4981260791
 40
0.6232667556
 40
0.7486715474
 40
0.8743006059
 40
1.0
 40
1.0
 40
1.0
 40
1.0
 10
238.5702080102
 20
203.5971679687
 30
0.0
 10
238.6993748853
 20
203.5971679687
 30
0.0
 10
238.9585902744
 20
203.6229930692
 30
0.0
 10
239.3318193383
 20
203.7376006972
 30
0.0
 10
239.6758501394
 20
203.9237708285
 30
0.0
 10
239.9773051899
 20
204.1741579494
 30
0.0
 10
240.2246016004
 20
204.4792183954
 30
0.0
 10
240.4083847385
 20
204.8271927139
 30
0.0
 10
240.5214795576
 20
205.2045644457
 30
0.0
 10
240.5469514055
 20
205.4665106937
 30
0.0
 10
240.5469514055
 20
205.5971679687
 30
0.0
  0
SPLINE
  5
436
330
22C
100
AcDbEntity
  8
7_ALL_FEATURES
  6
Continuous
 62
     7
100
AcDbSpline
 70
     0
 71
     3
 72
    15
 73
    11
 74
     0
 42
0.000000001
 43
0.0000001
 40
0.0
 40
0.0
 40
0.0
 40
0.0
 40
0.1256993941
 40
0.2513284526
 40
0.3767332444
 40
0.5018739209
 40
0.6267291369
 40
0.7513215486
 40
0.8757344515
 40
1.0
 40
1.0
 40
1.0
 40
1.0
 10
240.5469514055
 20
231.5971679688
 30
0.0
 10
240.5469514055
 20
231.7278252438
 30
0.0
 10
240.5214795576
 20
231.9897714918
 30
0.0
 10
240.4083847385
 20
232.3671432236
 30
0.0
 10
240.2246016004
 20
232.7151175421
 30
0.0
 10
239.9773051899
 20
233.0201779881
 30
0.0
 10
239.6758501394
 20
233.270565109
 30
0.0
 10
239.3318193383
 20
233.4567352403
 30
0.0
 10
238.9585902744
 20
233.5713428683
 30
0.0
 10
238.6993748853
 20
233.5971679687
 30
0.0
 10
238.5702080102
 20
233.5971679687
 30
0.0
  0
SPLINE
  5
437
330
22C
100
AcDbEntity
  8
02___PRT_ALL_AXES
  6
Continuous
 62
     7
100
AcDbSpline
 70
     0
 71
     3
 72
    23
 73
    19
 74
     0
 42
0.000000001
 43
0.0000001
 40
0.0
 40
0.0
 40
0.0
 40
0.0
 40
0.0647513438
 40
0.132604356
 40
0.2028841556
 40
0.2747974845
 40
0.3474799909
 40
0.4200336838
 40
0.4915662571
 40
0.5612295027
 40
0.6282597894
 40
0.6920218718
 40
0.7520581389
 40
0.8081449682
 40
0.8603556487
 40
0.9091221243
 40
0.9552722828
 40
1.0
 40
1.0
 40
1.0
 40
1.0
 10
317.1431379719
 20
149.6513463623
 30
0.0
 10
317.1431379719
 20
149.4925268338
 30
0.0
 10
317.1239816784
 20
149.1670745836
 30
0.0
 10
317.0436833306
 20
148.6752097738
 30
0.0
 10
316.9126840469
 20
148.1761827765
 30
0.0
 10
316.7335526097
 20
147.6798028617
 30
0.0
 10
316.5098000436
 20
147.1957401852
 30
0.0
 10
316.2458026991
 20
146.7334693347
 30
0.0
 10
315.9467214852
 20
146.3020302984
 30
0.0
 10
315.6183866159
 20
145.9098540293
 30
0.0
 10
315.2671674228
 20
145.564591004
 30
0.0
 10
314.8998199641
 20
145.2729713528
 30
0.0
 10
314.5233248899
 20
145.0407033131
 30
0.0
 10
314.1447173734
 20
144.8724409557
 30
0.0
 10
313.7710111293
 20
144.7718145298
 30
0.0
 10
313.4091476755
 20
144.7415742965
 30
0.0
 10
313.0666338424
 20
144.783350516
 30
0.0
 10
312.8548406277
 20
144.8599637131
 30
0.0
 10
312.7567163784
 20
144.909026118
 30
0.0
  0
SPLINE
  5
438
330
22C
100
AcDbEntity
  8
02___PRT_ALL_AXES
  6
Continuous
 62
     7
100
AcDbSpline
 70
     0
 71
     3
 72
    14
 73
    10
 74
     0
 42
0.000000001
 43
0.0000001
 40
0.0
 40
0.0
 40
0.0
 40
0.0
 40
0.2891563281
 40
0.4227168678
 40
0.5489646988
 40
0.6685093264
 40
0.782437558
 40
0.8922924572
 40
1.0
 40
1.0
 40
1.0
 40
1.0
 10
317.1431379719
 20
149.6513463623
 30
0.0
 10
317.1431379719
 20
149.8824614026
 30
0.0
 10
317.1143103761
 20
150.2221565757
 30
0.0
 10
317.0040996949
 20
150.6477127822
 30
0.0
 10
316.8921911549
 20
150.9304730451
 30
0.0
 10
316.7500328612
 20
151.1815461158
 30
0.0
 10
316.5790644722
 20
151.3977344042
 30
0.0
 10
316.3813103979
 20
151.5759716031
 30
0.0
 10
316.2325472125
 20
151.6681610261
 30
0.0
 10
316.1555480284
 20
151.706660838
 30
0.0
  0
SPLINE
  5
439
330
22C
100
AcDbEntity
  8
02___PRT_ALL_AXES
  6
Continuous
 62
     7
100
AcDbSpline
 70
     0
 71
     3
 72
    11
 73
     7
 74
     0
 42
0.000000001
 43
0.0000001
 40
0.0
 40
0.0
 40
0.0
 40
0.0
 40
0.2405253585
 40
0.4850393074
 40
0.7371867397
 40
1.0
 40
1.0
 40
1.0
 40
1.0
 10
312.4880215175
 20
145.0433735484
 30
0.0
 10
312.4179724767
 20
145.0783978765
 30
0.0
 10
312.2823205227
 20
145.1609073387
 30
0.0
 10
312.0994681304
 20
145.3179142223
 30
0.0
 10
311.9383672823
 20
145.5067173613
 30
0.0
 10
311.8486002331
 20
145.649065546
 30
0.0
 10
311.8076690701
 20
145.7242160148
 30
0.0
  0
SPLINE
  5
43A
330
22C
100
AcDbEntity
  8
02___PRT_ALL_AXES
  6
Continuous
 62
     7
100
AcDbSpline
 70
     0
 71
     3
 72
    11
 73
     7
 74
     0
 42
0.000000001
 43
0.0000001
 40
0.0
 40
0.0
 40
0.0
 40
0.0
 40
0.2499995493
 40
0.4999945965
 40
0.7499949539
 40
1.0
 40
1.0
 40
1.0
 40
1.0
 10
311.2967237305
 20
147.7368254465
 30
0.0
 10
311.2967237305
 20
147.5620935177
 30
0.0
 10
311.3183241986
 20
147.2122472894
 30
0.0
 10
311.4154466577
 20
146.6957978451
 30
0.0
 10
311.5760618047
 20
146.1954285575
 30
0.0
 10
311.7240886185
 20
145.8776649206
 30
0.0
 10
311.8076672649
 20
145.7242139531
 30
0.0
  0
SPLINE
  5
43B
330
22C
100
AcDbEntity
  8
02___PRT_ALL_AXES
  6
Continuous
 62
     7
100
AcDbSpline
 70
     0
 71
     3
 72
    11
 73
     7
 74
     0
 42
0.000000001
 43
0.0000001
 40
0.0
 40
0.0
 40
0.0
 40
0.0
 40
0.2405252056
 40
0.4850389912
 40
0.7371859825
 40
1.0
 40
1.0
 40
1.0
 40
1.0
 10
315.8868417355
 20
151.8410139844
 30
0.0
 10
315.8167927287
 20
151.8760382955
 30
0.0
 10
315.669394449
 20
151.9350550519
 30
0.0
 10
315.434077451
 20
151.9871319847
 30
0.0
 10
315.1863744467
 20
152.0027310588
 30
0.0
 10
315.0186354667
 20
151.9891358454
 30
0.0
 10
314.9339562007
 20
151.9767900208
 30
0.0
  0
SPLINE
  5
43C
330
22C
100
AcDbEntity
  8
02___PRT_ALL_AXES
  6
Continuous
 62
     7
100
AcDbSpline
 70
     0
 71
     3
 72
    18
 73
    14
 74
     0
 42
0.000000001
 43
0.0000001
 40
0.0
 40
0.0
 40
0.0
 40
0.0
 40
0.1249537348
 40
0.2499148401
 40
0.312460516
 40
0.3750024499
 40
0.4375414251
 40
0.500079612
 40
0.6250375899
 40
0.7499962245
 40
0.81253234
 40
0.8750615989
 40
1.0
 40
1.0
 40
1.0
 40
1.0
 10
314.9339568602
 20
151.9767931438
 30
0.0
 10
314.6833548198
 20
151.940258725
 30
0.0
 10
314.1876994094
 20
151.8212027395
 30
0.0
 10
313.6055339897
 20
151.5629541054
 30
0.0
 10
313.1736481634
 20
151.2966868404
 30
0.0
 10
312.8687048579
 20
151.068616405
 30
0.0
 10
312.5853321081
 20
150.8142718958
 30
0.0
 10
312.2393054319
 20
150.4432762863
 30
0.0
 10
311.8703153552
 20
149.9243087066
 30
0.0
 10
311.5978056377
 20
149.3488587633
 30
0.0
 10
311.4428128772
 20
148.8657740208
 30
0.0
 10
311.330909927
 20
148.3711109054
 30
0.0
 10
311.2967237305
 20
147.9900455216
 30
0.0
 10
311.2967237305
 20
147.7368254465
 30
0.0
  0
SPLINE
  5
43D
330
22C
100
AcDbEntity
  8
02___PRT_ALL_AXES
  6
Continuous
 62
     7
100
AcDbSpline
 70
     0
 71
     3
 72
    26
 73
    22
 74
     0
 42
0.000000001
 43
0.0000001
 40
0.0
 40
0.0
 40
0.0
 40
0.0
 40
0.0634091744
 40
0.1210430142
 40
0.1732789248
 40
0.1978421627
 40
0.2216888584
 40
0.2451568575
 40
0.2686153368
 40
0.2924342293
 40
0.3169534192
 40
0.3690649047
 40
0.426555281
 40
0.4898180563
 40
0.5583790924
 40
0.6311398944
 40
0.7065875808
 40
0.7829721163
 40
0.8584669098
 40
0.9313135652
 40
1.0
 40
1.0
 40
1.0
 40
1.0
 10
314.2899621098
 20
149.7803933498
 30
0.0
 10
314.2899621098
 20
149.8869836254
 30
0.0
 10
314.2744496951
 20
150.0910627658
 30
0.0
 10
314.197748068
 20
150.3740704828
 30
0.0
 10
314.0885931014
 20
150.5751565663
 30
0.0
 10
313.9776066117
 20
150.703591658
 30
0.0
 10
313.8853744136
 20
150.7824062752
 30
0.0
 10
313.7834164729
 20
150.84469529
 30
0.0
 10
313.6728206316
 20
150.8897853469
 30
0.0
 10
313.5547734272
 20
150.9171815386
 30
0.0
 10
313.3858522855
 20
150.9301633248
 30
0.0
 10
313.1597851133
 20
150.8984000655
 30
0.0
 10
312.8873676074
 20
150.7916104486
 30
0.0
 10
312.6169214576
 20
150.6208554422
 30
0.0
 10
312.3579229923
 20
150.3927297196
 30
0.0
 10
312.1195540919
 20
150.1157446695
 30
0.0
 10
311.9105798039
 20
149.8001885968
 30
0.0
 10
311.7387591477
 20
149.4578538656
 30
0.0
 10
311.6105261956
 20
149.1015026556
 30
0.0
 10
311.5306675464
 20
148.7445475902
 30
0.0
 10
311.5110324597
 20
148.5063898297
 30
0.0
 10
311.5110324597
 20
148.3909285248
 30
0.0
  0
SPLINE
  5
43E
330
22C
100
AcDbEntity
  8
02___PRT_ALL_AXES
  6
Continuous
 62
     7
100
AcDbSpline
 70
     0
 71
     3
 72
    13
 73
     9
 74
     0
 42
0.000000001
 43
0.0000001
 40
0.0
 40
0.0
 40
0.0
 40
0.0
 40
0.2849308693
 40
0.4181554357
 40
0.5451313333
 40
0.7813019497
 40
0.8923581682
 40
1.0
 40
1.0
 40
1.0
 40
1.0
 10
316.874437395
 20
149.7856966507
 30
0.0
 10
316.874437395
 20
149.9854759346
 30
0.0
 10
316.852788837
 20
150.2797177502
 30
0.0
 10
316.7716132318
 20
150.6537947722
 30
0.0
 10
316.6638833482
 20
150.9851072286
 30
0.0
 10
316.5092084086
 20
151.2839624728
 30
0.0
 10
316.3075444518
 20
151.5321620366
 30
0.0
 10
316.1942556447
 20
151.6365103227
 30
0.0
 10
316.1349900904
 20
151.6832412407
 30
0.0
  0
SPLINE
  5
43F
330
22C
100
AcDbEntity
  8
02___PRT_ALL_AXES
  6
Continuous
 62
     7
100
AcDbSpline
 70
     0
 71
     3
 72
    26
 73
    22
 74
     0
 42
0.000000001
 43
0.0000001
 40
0.0
 40
0.0
 40
0.0
 40
0.0
 40
0.0686864348
 40
0.1415330902
 40
0.2170278837
 40
0.2934124192
 40
0.3688601056
 40
0.4416209076
 40
0.5101819437
 40
0.573444719
 40
0.6309350953
 40
0.6830465808
 40
0.7075657707
 40
0.7313846632
 40
0.7548431425
 40
0.7783111416
 40
0.8021578373
 40
0.8267210752
 40
0.8789569858
 40
0.9365908256
 40
1.0
 40
1.0
 40
1.0
 40
1.0
 10
314.2899621098
 20
149.7803933498
 30
0.0
 10
314.2899621098
 20
149.6649320449
 30
0.0
 10
314.2703270232
 20
149.4267742844
 30
0.0
 10
314.1904683739
 20
149.069819219
 30
0.0
 10
314.0622354219
 20
148.713468009
 30
0.0
 10
313.8904147656
 20
148.3711332779
 30
0.0
 10
313.6814404776
 20
148.0555772051
 30
0.0
 10
313.4430715772
 20
147.7785921551
 30
0.0
 10
313.184073112
 20
147.5504664325
 30
0.0
 10
312.9136269621
 20
147.379711426
 30
0.0
 10
312.6412094562
 20
147.2729218091
 30
0.0
 10
312.415142284
 20
147.2411585498
 30
0.0
 10
312.2462211423
 20
147.2541403361
 30
0.0
 10
312.1281739379
 20
147.2815365277
 30
0.0
 10
312.0175780967
 20
147.3266265846
 30
0.0
 10
311.915620156
 20
147.3889155994
 30
0.0
 10
311.8233879578
 20
147.4677302167
 30
0.0
 10
311.7124014681
 20
147.5961653083
 30
0.0
 10
311.6032465015
 20
147.7972513919
 30
0.0
 10
311.5265448744
 20
148.0802591089
 30
0.0
 10
311.5110324597
 20
148.2843382493
 30
0.0
 10
311.5110324597
 20
148.3909285248
 30
0.0
  0
SPLINE
  5
440
330
22C
100
AcDbEntity
  8
02___PRT_ALL_AXES
  6
Continuous
 62
     7
100
AcDbSpline
 70
     0
 71
     3
 72
    23
 73
    19
 74
     0
 42
0.000000001
 43
0.0000001
 40
0.0
 40
0.0
 40
0.0
 40
0.0
 40
0.0647513191
 40
0.1326043023
 40
0.2028840711
 40
0.2747973696
 40
0.3474798487
 40
0.4200335201
 40
0.4915660798
 40
0.5612293217
 40
0.6282596157
 40
0.6920217166
 40
0.7520580123
 40
0.8081448774
 40
0.8603555964
 40
0.9091221058
 40
0.9552722846
 40
1.0
 40
1.0
 40
1.0
 40
1.0
 10
316.874437395
 20
149.7856966507
 30
0.0
 10
316.874437395
 20
149.6268773204
 30
0.0
 10
316.8552811495
 20
149.3014254837
 30
0.0
 10
316.7749829959
 20
148.8095612909
 30
0.0
 10
316.6439840232
 20
148.3105349038
 30
0.0
 10
316.4648530017
 20
147.8141555568
 30
0.0
 10
316.2411009395
 20
147.3300933714
 30
0.0
 10
315.9771041668
 20
146.867822903
 30
0.0
 10
315.6780235689
 20
146.4363841108
 30
0.0
 10
315.3496893343
 20
146.0442079227
 30
0.0
 10
314.9984707674
 20
145.6989447957
 30
0.0
 10
314.6311238992
 20
145.4073248459
 30
0.0
 10
314.2546293535
 20
145.1750563023
 30
0.0
 10
313.8760222791
 20
145.006793232
 30
0.0
 10
313.502316367
 20
144.9061658833
 30
0.0
 10
313.1404531089
 20
144.8759245191
 30
0.0
 10
312.7979392997
 20
144.9176994108
 30
0.0
 10
312.5861458977
 20
144.9943116278
 30
0.0
 10
312.4880215175
 20
145.0433735484
 30
0.0
  0
SPLINE
  5
441
330
22C
100
AcDbEntity
  8
7_ALL_FEATURES
  6
Continuous
 62
     7
100
AcDbSpline
 70
     0
 71
     3
 72
    23
 73
    19
 74
     0
 42
0.000000001
 43
0.0000001
 40
0.0
 40
0.0
 40
0.0
 40
0.0
 40
0.0413717086
 40
0.0874569276
 40
0.1390148664
 40
0.1961654482
 40
0.2585554685
 40
0.3254904627
 40
0.3960321028
 40
0.4690728783
 40
0.5433977553
 40
0.6177390509
 40
0.6908284047
 40
0.7614487965
 40
0.8284890952
 40
0.8910061095
 40
0.9482971194
 40
1.0
 40
1.0
 40
1.0
 40
1.0
 10
324.1762644612
 20
169.7081937699
 30
0.0
 10
324.2413473512
 20
169.8629477528
 30
0.0
 10
324.4255802835
 20
170.1712813477
 30
0.0
 10
324.8161996152
 20
170.5827720662
 30
0.0
 10
325.3229940277
 20
170.9582506885
 30
0.0
 10
325.9347057571
 20
171.290510255
 30
0.0
 10
326.6382007276
 20
171.5731010135
 30
0.0
 10
327.4180847975
 20
171.7999215542
 30
0.0
 10
328.2570681471
 20
171.9659632908
 30
0.0
 10
329.1363749698
 20
172.0674775844
 30
0.0
 10
330.0362284023
 20
172.1021580858
 30
0.0
 10
330.9363440863
 20
172.0692125831
 30
0.0
 10
331.8164293223
 20
171.9693948901
 30
0.0
 10
332.6566933866
 20
171.804967718
 30
0.0
 10
333.4383093478
 20
171.5796618324
 30
0.0
 10
334.1440107331
 20
171.2984001546
 30
0.0
 10
334.758118619
 20
170.9674381387
 30
0.0
 10
335.1163104799
 20
170.7042633299
 30
0.0
 10
335.2733380749
 20
170.5651205292
 30
0.0
  0
SPLINE
  5
442
330
22C
100
AcDbEntity
  8
7_ALL_FEATURES
  6
Continuous
 62
     7
100
AcDbSpline
 70
     0
 71
     3
 72
    13
 73
     9
 74
     0
 42
0.000000001
 43
0.0000001
 40
0.0
 40
0.0
 40
0.0
 40
0.0
 40
0.3975679943
 40
0.5597938784
 40
0.696327667
 40
0.8070661668
 40
0.8926154644
 40
1.0
 40
1.0
 40
1.0
 40
1.0
 10
326.6664161745
 20
157.9919465692
 30
0.0
 10
326.7271471774
 20
158.0045243717
 30
0.0
 10
326.8130823469
 20
158.0204082363
 30
0.0
 10
326.9210929169
 20
158.0329931674
 30
0.0
 10
326.9847353165
 20
158.0368260944
 30
0.0
 10
327.0372151224
 20
158.0352889868
 30
0.0
 10
327.0827623276
 20
158.0288876511
 30
0.0
 10
327.1148975247
 20
158.0133204508
 30
0.0
 10
327.1208586215
 20
157.9976651921
 30
0.0
  0
SPLINE
  5
443
330
22C
100
AcDbEntity
  8
7_ALL_FEATURES
  6
Continuous
 62
     7
100
AcDbSpline
 70
     0
 71
     3
 72
    11
 73
     7
 74
     0
 42
0.000000001
 43
0.0000001
 40
0.0
 40
0.0
 40
0.0
 40
0.0
 40
0.2838894473
 40
0.5427193589
 40
0.778468717
 40
1.0
 40
1.0
 40
1.0
 40
1.0
 10
294.4435399269
 20
114.3223741
 30
0.0
 10
294.4605617475
 20
114.178355171
 30
0.0
 10
294.5196037418
 20
113.9049402518
 30
0.0
 10
294.6936807582
 20
113.5425460139
 30
0.0
 10
294.9427189741
 20
113.2665830577
 30
0.0
 10
295.1541877211
 20
113.153955895
 30
0.0
 10
295.2622109214
 20
113.1202269931
 30
0.0
  0
SPLINE
  5
444
330
22C
100
AcDbEntity
  8
7_ALL_FEATURES
  6
Continuous
 62
     7
100
AcDbSpline
 70
     0
 71
     3
 72
    12
 73
     8
 74
     0
 42
0.000000001
 43
0.0000001
 40
0.0
 40
0.0
 40
0.0
 40
0.0
 40
0.254765641
 40
0.5196450768
 40
0.6494985095
 40
0.7741166961
 40
1.0
 40
1.0
 40
1.0
 40
1.0
 10
315.9013528779
 20
124.8527609446
 30
0.0
 10
315.9307173687
 20
124.6043126379
 30
0.0
 10
315.907647851
 20
124.0862749374
 30
0.0
 10
315.7118716911
 20
123.4715416049
 30
0.0
 10
315.4618875257
 20
123.0249382614
 30
0.0
 10
315.1745875011
 20
122.6501591751
 30
0.0
 10
314.9005783785
 20
122.4254223656
 30
0.0
 10
314.7021806478
 20
122.3262235002
 30
0.0
  0
SPLINE
  5
445
330
22C
100
AcDbEntity
  8
7_ALL_FEATURES
  6
Continuous
 62
     7
100
AcDbSpline
 70
     0
 71
     3
 72
    16
 73
    12
 74
     0
 42
0.000000001
 43
0.0000001
 40
0.0
 40
0.0
 40
0.0
 40
0.0
 40
0.2106302898
 40
0.3999269363
 40
0.5652300402
 40
0.704789949
 40
0.817332142
 40
0.9023999433
 40
0.9349055159
 40
0.9612736239
 40
1.0
 40
1.0
 40
1.0
 40
1.0
 10
326.6006911703
 20
157.2141209127
 30
0.0
 10
326.6515805281
 20
157.2395655916
 30
0.0
 10
326.7476832737
 20
157.2889337772
 30
0.0
 10
326.8815723496
 20
157.3623709143
 30
0.0
 10
326.9963249736
 20
157.4306149231
 30
0.0
 10
327.0905635267
 20
157.4926450826
 30
0.0
 10
327.1631059728
 20
157.5478151644
 30
0.0
 10
327.2087948986
 20
157.5903003697
 30
0.0
 10
327.2325717697
 20
157.6213497923
 30
0.0
 10
327.2453504907
 20
157.6441759555
 30
0.0
 10
327.2483247977
 20
157.6635172055
 30
0.0
 10
327.2446023082
 20
157.6732933488
 30
0.0
  0
SPLINE
  5
446
330
22C
100
AcDbEntity
  8
7_ALL_FEATURES
  6
Continuous
 62
     7
100
AcDbSpline
 70
     0
 71
     3
 72
    10
 73
     6
 74
     0
 42
0.000000001
 43
0.0000001
 40
0.0
 40
0.0
 40
0.0
 40
0.0
 40
0.518985772
 40
0.7622663508
 40
1.0
 40
1.0
 40
1.0
 40
1.0
 10
296.3174043369
 20
113.1338353448
 30
0.0
 10
296.1884739898
 20
113.0693701712
 30
0.0
 10
295.9813812977
 20
113.0021397383
 30
0.0
 10
295.7021201789
 20
112.998163379
 30
0.0
 10
295.5698500472
 20
113.0243319073
 30
0.0
 10
295.5068204368
 20
113.0440121199
 30
0.0
  0
SPLINE
  5
447
330
22C
100
AcDbEntity
  8
7_ALL_FEATURES
  6
Continuous
 62
     7
100
AcDbSpline
 70
     0
 71
     3
 72
    12
 73
     8
 74
     0
 42
0.000000001
 43
0.0000001
 40
0.0
 40
0.0
 40
0.0
 40
0.0
 40
0.2258833039
 40
0.3505014905
 40
0.4803549232
 40
0.745234359
 40
1.0
 40
1.0
 40
1.0
 40
1.0
 10
314.4575711324
 20
122.4024383734
 30
0.0
 10
314.6559688631
 20
122.5016372388
 30
0.0
 10
314.9299779857
 20
122.7263740483
 30
0.0
 10
315.2172780103
 20
123.1011531346
 30
0.0
 10
315.4672621756
 20
123.547756478
 30
0.0
 10
315.6630383356
 20
124.1624898106
 30
0.0
 10
315.6861078533
 20
124.680527511
 30
0.0
 10
315.6567433625
 20
124.9289758178
 30
0.0
  0
SPLINE
  5
448
330
22C
100
AcDbEntity
  8
7_ALL_FEATURES
  6
Continuous
 62
     7
100
AcDbSpline
 70
     0
 71
     3
 72
    13
 73
     9
 74
     0
 42
0.000000001
 43
0.0000001
 40
0.0
 40
0.0
 40
0.0
 40
0.0
 40
0.1073845356
 40
0.1929338332
 40
0.303672333
 40
0.4402061216
 40
0.6024320057
 40
1.0
 40
1.0
 40
1.0
 40
1.0
 10
327.2446023082
 20
157.6732933488
 30
0.0
 10
327.2386412114
 20
157.6889486075
 30
0.0
 10
327.2065060143
 20
157.7045158077
 30
0.0
 10
327.1609588091
 20
157.7109171435
 30
0.0
 10
327.1084790032
 20
157.712454251
 30
0.0
 10
327.0448366036
 20
157.7086213241
 30
0.0
 10
326.9368260336
 20
157.6960363929
 30
0.0
 10
326.8508908641
 20
157.6801525283
 30
0.0
 10
326.7901598612
 20
157.6675747258
 30
0.0
  0
SPLINE
  5
449
330
22C
100
AcDbEntity
  8
7_ALL_FEATURES
  6
Continuous
 62
     7
100
AcDbSpline
 70
     0
 71
     3
 72
     9
 73
     5
 74
     0
 42
0.000000001
 43
0.0000001
 40
0.0
 40
0.0
 40
0.0
 40
0.0
 40
0.2488713609
 40
1.0
 40
1.0
 40
1.0
 40
1.0
 10
295.2622109214
 20
113.1202269931
 30
0.0
 10
295.281618004
 20
113.1141673727
 30
0.0
 10
295.3603759755
 20
113.0923667611
 30
0.0
 10
295.441992173
 20
113.081030902
 30
0.0
 10
295.5032974252
 20
113.0783895971
 30
0.0
  0
SPLINE
  5
44A
330
22C
100
AcDbEntity
  8
7_ALL_FEATURES
  6
Continuous
 62
     7
100
AcDbSpline
 70
     0
 71
     3
 72
     9
 73
     5
 74
     0
 42
0.000000001
 43
0.0000001
 40
0.0
 40
0.0
 40
0.0
 40
0.0
 40
0.4830924263
 40
1.0
 40
1.0
 40
1.0
 40
1.0
 10
295.5032974252
 20
113.0783895971
 30
0.0
 10
295.5980984436
 20
113.0743051445
 30
0.0
 10
295.7962621819
 20
113.0948262801
 30
0.0
 10
295.9819827937
 20
113.1646442041
 30
0.0
 10
296.0727948215
 20
113.210050218
 30
0.0
  0
SPLINE
  5
44B
330
22C
100
AcDbEntity
  8
02___PRT_ALL_AXES
  6
Continuous
 62
     7
100
AcDbSpline
 70
     0
 71
     3
 72
    15
 73
    11
 74
     0
 42
0.000000001
 43
0.0000001
 40
0.0
 40
0.0
 40
0.0
 40
0.0
 40
0.1559888327
 40
0.3021556783
 40
0.4383305255
 40
0.5648874776
 40
0.6826428771
 40
0.7929886227
 40
0.8979276599
 40
1.0
 40
1.0
 40
1.0
 40
1.0
 10
343.8364189617
 20
167.3248666191
 30
0.0
 10
344.2739423977
 20
167.1061049011
 30
0.0
 10
345.1058770861
 20
166.6499210995
 30
0.0
 10
346.2497734921
 20
165.8841906933
 30
0.0
 10
347.2396161679
 20
165.0650810731
 30
0.0
 10
348.0657738299
 20
164.1998259764
 30
0.0
 10
348.7199805968
 20
163.2955567658
 30
0.0
 10
349.1946648968
 20
162.3597436228
 30
0.0
 10
349.4830026427
 20
161.4015368571
 30
0.0
 10
349.5478159548
 20
160.7506646063
 30
0.0
 10
349.5478158698
 20
160.4305755025
 30
0.0
  0
SPLINE
  5
44C
330
22C
100
AcDbEntity
  8
02___PRT_ALL_AXES
  6
Continuous
 62
     7
100
AcDbSpline
 70
     0
 71
     3
 72
    25
 73
    21
 74
     0
 42
0.000000001
 43
0.0000001
 40
0.0
 40
0.0
 40
0.0
 40
0.0
 40
0.062594952
 40
0.1298612819
 40
0.2009392439
 40
0.2747922574
 40
0.3502702617
 40
0.426158799
 40
0.5012279077
 40
0.5742790895
 40
0.644194224
 40
0.7099888627
 40
0.7708744757
 40
0.8263366399
 40
0.8762391202
 40
0.9209618614
 40
0.941719255
 40
0.9616398661
 40
0.9809721988
 40
1.0
 40
1.0
 40
1.0
 40
1.0
 10
343.8364189617
 20
167.3248666191
 30
0.0
 10
343.1310411257
 20
167.677555537
 30
0.0
 10
341.6223901957
 20
168.3205639541
 30
0.0
 10
339.2034203527
 20
169.0785684975
 30
0.0
 10
336.5890620435
 20
169.6527044878
 30
0.0
 10
333.8351783509
 20
170.0304994377
 30
0.0
 10
331.0003288779
 20
170.2039001171
 30
0.0
 10
328.1451200727
 20
170.1691344536
 30
0.0
 10
325.3305907977
 20
169.9269636175
 30
0.0
 10
322.6168424247
 20
169.482609913
 30
0.0
 10
320.0616201444
 20
168.845620762
 30
0.0
 10
317.7189204217
 20
168.0294787149
 30
0.0
 10
315.6377559048
 20
167.0511870774
 30
0.0
 10
313.8608758891
 20
165.9297742572
 30
0.0
 10
312.4250646379
 20
164.6865961451
 30
0.0
 10
311.516582006
 20
163.5359571777
 30
0.0
 10
311.0108903773
 20
162.583329358
 30
0.0
 10
310.7445522169
 20
161.8732308679
 30
0.0
 10
310.5837459248
 20
161.1543482672
 30
0.0
 10
310.5478576509
 20
160.6703075589
 30
0.0
 10
310.5478575872
 20
160.4305755025
 30
0.0
  0
SPLINE
  5
44D
330
22C
100
AcDbEntity
  8
02___PRT_ALL_AXES
  6
Continuous
 62
     7
100
AcDbSpline
 70
     0
 71
     3
 72
     9
 73
     5
 74
     0
 42
0.000000001
 43
0.0000001
 40
0.0
 40
0.0
 40
0.0
 40
0.0
 40
0.2385268733
 40
1.0
 40
1.0
 40
1.0
 40
1.0
 10
317.3199146672
 20
163.9661094084
 30
0.0
 10
317.3753010933
 20
163.9384161953
 30
0.0
 10
317.610244634
 20
163.8278229095
 30
0.0
 10
317.854735906
 20
163.738015785
 30
0.0
 10
318.0435887336
 20
163.6795836846
 30
0.0
  0
SPLINE
  5
44E
330
22C
100
AcDbEntity
  8
02___PRT_ALL_AXES
  6
Continuous
 62
     7
100
AcDbSpline
 70
     0
 71
     3
 72
     9
 73
     5
 74
     0
 42
0.000000001
 43
0.0000001
 40
0.0
 40
0.0
 40
0.0
 40
0.0
 40
0.2370054218
 40
1.0
 40
1.0
 40
1.0
 40
1.0
 10
327.2194096038
 20
166.0163619401
 30
0.0
 10
327.2843151746
 20
165.9839091547
 30
0.0
 10
327.5619591393
 20
165.8545882084
 30
0.0
 10
327.8524525224
 20
165.7537409815
 30
0.0
 10
328.0772367758
 20
165.6901181601
 30
0.0
  0
SPLINE
  5
44F
330
22C
100
AcDbEntity
  8
02___PRT_ALL_AXES
  6
Continuous
 62
     7
100
AcDbSpline
 70
     0
 71
     3
 72
     9
 73
     5
 74
     0
 42
0.000000001
 43
0.0000001
 40
0.0
 40
0.0
 40
0.0
 40
0.0
 40
0.5323842137
 40
1.0
 40
1.0
 40
1.0
 40
1.0
 10
332.0221345404
 20
165.6911737457
 30
0.0
 10
332.2731442366
 20
165.7624129173
 30
0.0
 10
332.7367051987
 20
165.9269948025
 30
0.0
 10
333.1677621116
 20
166.1682714968
 30
0.0
 10
333.352577837
 20
166.3037948961
 30
0.0
  0
SPLINE
  5
450
330
22C
100
AcDbEntity
  8
02___PRT_ALL_AXES
  6
Continuous
 62
     7
100
AcDbSpline
 70
     0
 71
     3
 72
     9
 73
     5
 74
     0
 42
0.000000001
 43
0.0000001
 40
0.0
 40
0.0
 40
0.0
 40
0.0
 40
0.5304822023
 40
1.0
 40
1.0
 40
1.0
 40
1.0
 10
342.0486912544
 20
163.6785488917
 30
0.0
 10
342.274788275
 20
163.7483516271
 30
0.0
 10
342.6935097313
 20
163.9064097904
 30
0.0
 10
343.0831813258
 20
164.129696068
 30
0.0
 10
343.2520727736
 20
164.2535423644
 30
0.0
  0
SPLINE
  5
451
330
22C
100
AcDbEntity
  8
02___PRT_ALL_AXES
  6
Continuous
 62
     7
100
AcDbSpline
 70
     0
 71
     3
 72
     9
 73
     5
 74
     0
 42
0.000000001
 43
0.0000001
 40
0.0
 40
0.0
 40
0.0
 40
0.0
 40
0.476178693
 40
1.0
 40
1.0
 40
1.0
 40
1.0
 10
318.7988469858
 20
159.6307941187
 30
0.0
 10
318.5480590102
 20
159.749560022
 30
0.0
 10
317.9966506377
 20
159.9475221605
 30
0.0
 10
317.4237126817
 20
160.0634034903
 30
0.0
 10
317.121379839
 20
160.1055175374
 30
0.0
  0
SPLINE
  5
452
330
22C
100
AcDbEntity
  8
02___PRT_ALL_AXES
  6
Continuous
 62
     7
100
AcDbSpline
 70
     0
 71
     3
 72
    17
 73
    13
 74
     0
 42
0.000000001
 43
0.0000001
 40
0.0
 40
0.0
 40
0.0
 40
0.0
 40
0.1448513401
 40
0.296605112
 40
0.4477685354
 40
0.5909329858
 40
0.7197009398
 40
0.8298305893
 40
0.877728556
 40
0.9213139877
 40
0.9615733443
 40
1.0
 40
1.0
 40
1.0
 40
1.0
 10
322.0549171872
 20
164.8868509382
 30
0.0
 10
321.739757221
 20
164.9722847875
 30
0.0
 10
321.0798909458
 20
165.0958954536
 30
0.0
 10
320.0694010457
 20
165.1499139597
 30
0.0
 10
319.0637192313
 20
165.0762172369
 30
0.0
 10
318.1269692936
 20
164.8794366333
 30
0.0
 10
317.3183283971
 20
164.5725038428
 30
0.0
 10
316.7653251337
 20
164.2231150582
 30
0.0
 10
316.4444345382
 20
163.89852012
 30
0.0
 10
316.2758071177
 20
163.6516490723
 30
0.0
 10
316.1720642688
 20
163.3937002967
 30
0.0
 10
316.148365261
 20
163.2155689684
 30
0.0
 10
316.1483514346
 20
163.1289448011
 30
0.0
  0
SPLINE
  5
453
330
22C
100
AcDbEntity
  8
02___PRT_ALL_AXES
  6
Continuous
 62
     7
100
AcDbSpline
 70
     0
 71
     3
 72
    16
 73
    12
 74
     0
 42
0.000000001
 43
0.0000001
 40
0.0
 40
0.0
 40
0.0
 40
0.0
 40
0.1249289274
 40
0.2638536995
 40
0.4098921952
 40
0.5551508468
 40
0.6918510811
 40
0.8134132665
 40
0.8672177794
 40
0.9160708756
 40
1.0
 40
1.0
 40
1.0
 40
1.0
 10
332.8762638533
 20
166.593123015
 30
0.0
 10
332.6023028776
 20
166.7301035029
 30
0.0
 10
331.9906010588
 20
166.954158819
 30
0.0
 10
331.0008626579
 20
167.1456135333
 30
0.0
 10
329.9443057606
 20
167.2019286601
 30
0.0
 10
328.8949773913
 20
167.1187419042
 30
0.0
 10
327.9261684923
 20
166.902017964
 30
0.0
 10
327.2123590821
 20
166.6119329047
 30
0.0
 10
326.7455479843
 20
166.3180802365
 30
0.0
 10
326.3949598523
 20
166.0241473203
 30
0.0
 10
326.1955638781
 20
165.7517958579
 30
0.0
 10
326.121123537
 20
165.5599570229
 30
0.0
  0
SPLINE
  5
454
330
22C
100
AcDbEntity
  8
02___PRT_ALL_AXES
  6
Continuous
 62
     7
100
AcDbSpline
 70
     0
 71
     3
 72
    12
 73
     8
 74
     0
 42
0.000000001
 43
0.0000001
 40
0.0
 40
0.0
 40
0.0
 40
0.0
 40
0.1096051173
 40
0.2280115448
 40
0.483046951
 40
0.7470794682
 40
1.0
 40
1.0
 40
1.0
 40
1.0
 10
342.7757587899
 20
164.5428704833
 30
0.0
 10
342.6175170143
 20
164.6219913711
 30
0.0
 10
342.2771876796
 20
164.7647987393
 30
0.0
 10
341.529171146
 20
164.9885162306
 30
0.0
 10
340.5058784175
 20
165.1422167692
 30
0.0
 10
339.2555476606
 20
165.1319048992
 30
0.0
 10
338.4276543324
 20
164.9922554881
 30
0.0
 10
338.0337570244
 20
164.8849454633
 30
0.0
  0
SPLINE
  5
455
330
22C
100
AcDbEntity
  8
02___PRT_ALL_AXES
  6
Continuous
 62
     7
100
AcDbSpline
 70
     0
 71
     3
 72
     9
 73
     5
 74
     0
 42
0.000000001
 43
0.0000001
 40
0.0
 40
0.0
 40
0.0
 40
0.0
 40
0.5225722897
 40
1.0
 40
1.0
 40
1.0
 40
1.0
 10
342.7976774927
 20
160.0787123803
 30
0.0
 10
342.5281890308
 20
160.0343679243
 30
0.0
 10
342.0167552835
 20
159.9201971058
 30
0.0
 10
341.5242683886
 20
159.7383968105
 30
0.0
 10
341.298720261
 20
159.6316842766
 30
0.0
  0
SPLINE
  5
456
330
22C
100
AcDbEntity
  8
7_ALL_FEATURES
  6
Continuous
 62
     7
100
AcDbSpline
 70
     0
 71
     3
 72
    11
 73
     7
 74
     0
 42
0.000000001
 43
0.0000001
 40
0.0
 40
0.0
 40
0.0
 40
0.0
 40
0.2303190786
 40
0.4751531257
 40
0.7324842829
 40
1.0
 40
1.0
 40
1.0
 40
1.0
 10
343.8364189617
 20
162.9081370597
 30
0.0
 10
343.268167951
 20
163.1922625651
 30
0.0
 10
342.0665801386
 20
163.720980284
 30
0.0
 10
340.1542208182
 20
164.3791384197
 30
0.0
 10
338.0991283097
 20
164.9192656365
 30
0.0
 10
336.6759107255
 20
165.191307984
 30
0.0
 10
335.9471013526
 20
165.3069634683
 30
0.0
  0
SPLINE
  5
457
330
22C
100
AcDbEntity
  8
7_ALL_FEATURES
  6
Continuous
 62
     7
100
AcDbSpline
 70
     0
 71
     3
 72
    11
 73
     7
 74
     0
 42
0.000000001
 43
0.0000001
 40
0.0
 40
0.0
 40
0.0
 40
0.0
 40
0.2477804416
 40
0.4999999047
 40
0.7522191153
 40
1.0
 40
1.0
 40
1.0
 40
1.0
 10
335.9471013526
 20
165.3069634683
 30
0.0
 10
334.9810334468
 20
165.4602697452
 30
0.0
 10
333.017938253
 20
165.6885291932
 30
0.0
 10
330.0477975947
 20
165.8018239815
 30
0.0
 10
327.0776551158
 20
165.6885250412
 30
0.0
 10
325.1145601643
 20
165.4602571731
 30
0.0
 10
324.1484908305
 20
165.3069487319
 30
0.0
  0
SPLINE
  5
458
330
22C
100
AcDbEntity
  8
7_ALL_FEATURES
  6
Continuous
 62
     7
100
AcDbSpline
 70
     0
 71
     3
 72
    18
 73
    14
 74
     0
 42
0.000000001
 43
0.0000001
 40
0.0
 40
0.0
 40
0.0
 40
0.0
 40
0.1644762629
 40
0.3200027898
 40
0.4642369687
 40
0.5955089996
 40
0.7131033142
 40
0.7669724002
 40
0.8177994788
 40
0.8659509879
 40
0.9119280353
 40
0.9563646215
 40
1.0
 40
1.0
 40
1.0
 40
1.0
 10
324.1484908305
 20
165.3069487319
 30
0.0
 10
323.1911123441
 20
165.1550194674
 30
0.0
 10
321.3394210097
 20
164.7823458828
 30
0.0
 10
318.7141780017
 20
163.9971210582
 30
0.0
 10
316.3646283225
 20
163.0165574965
 30
0.0
 10
314.3473957146
 20
161.8638598983
 30
0.0
 10
312.9422366233
 20
160.748070936
 30
0.0
 10
312.0467245916
 20
159.78884564
 30
0.0
 10
311.5062690236
 20
159.065618846
 30
0.0
 10
311.0810772694
 20
158.3219158139
 30
0.0
 10
310.7745383548
 20
157.5619769306
 30
0.0
 10
310.5892618934
 20
156.7909834726
 30
0.0
 10
310.5478576555
 20
156.2710157501
 30
0.0
 10
310.5478575872
 20
156.0138459432
 30
0.0
  0
SPLINE
  5
459
330
22C
100
AcDbEntity
  8
02___PRT_ALL_AXES
  6
Continuous
 62
     7
100
AcDbSpline
 70
     0
 71
     3
 72
     9
 73
     5
 74
     0
 42
0.000000001
 43
0.0000001
 40
0.0
 40
0.0
 40
0.0
 40
0.0
 40
0.2399606922
 40
1.0
 40
1.0
 40
1.0
 40
1.0
 10
317.3199146672
 20
159.5493798491
 30
0.0
 10
317.3669452769
 20
159.5258645443
 30
0.0
 10
317.5649033335
 20
159.4318154363
 30
0.0
 10
317.7698676527
 20
159.352796099
 30
0.0
 10
317.9278436592
 20
159.3000626766
 30
0.0
  0
SPLINE
  5
45A
330
22C
100
AcDbEntity
  8
02___PRT_ALL_AXES
  6
Continuous
 62
     7
100
AcDbSpline
 70
     0
 71
     3
 72
     9
 73
     5
 74
     0
 42
0.000000001
 43
0.0000001
 40
0.0
 40
0.0
 40
0.0
 40
0.0
 40
0.2398763523
 40
1.0
 40
1.0
 40
1.0
 40
1.0
 10
327.2194096038
 20
161.5996323808
 30
0.0
 10
327.2669165197
 20
161.5758789228
 30
0.0
 10
327.466969835
 20
161.480884376
 30
0.0
 10
327.674164938
 20
161.4012229819
 30
0.0
 10
327.8338828015
 20
161.3481353682
 30
0.0
  0
SPLINE
  5
45B
330
22C
100
AcDbEntity
  8
02___PRT_ALL_AXES
  6
Continuous
 62
     7
100
AcDbSpline
 70
     0
 71
     3
 72
     9
 73
     5
 74
     0
 42
0.000000001
 43
0.0000001
 40
0.0
 40
0.0
 40
0.0
 40
0.0
 40
0.5314967054
 40
1.0
 40
1.0
 40
1.0
 40
1.0
 10
332.2451922536
 20
161.3426587309
 30
0.0
 10
332.4664524794
 20
161.4153879045
 30
0.0
 10
332.8747838411
 20
161.5786475104
 30
0.0
 10
333.2522747169
 20
161.8074771559
 30
0.0
 10
333.4142267989
 20
161.9336543069
 30
0.0
  0
SPLINE
  5
45C
330
22C
100
AcDbEntity
  8
02___PRT_ALL_AXES
  6
Continuous
 62
     7
100
AcDbSpline
 70
     0
 71
     3
 72
     9
 73
     5
 74
     0
 42
0.000000001
 43
0.0000001
 40
0.0
 40
0.0
 40
0.0
 40
0.0
 40
0.5311670734
 40
1.0
 40
1.0
 40
1.0
 40
1.0
 10
342.1639804068
 20
159.2987879143
 30
0.0
 10
342.3814141216
 20
159.3711615676
 30
0.0
 10
342.7828836626
 20
159.5331941699
 30
0.0
 10
343.1541026033
 20
159.7590493473
 30
0.0
 10
343.313665412
 20
159.8833578947
 30
0.0
  0
SPLINE
  5
45D
330
22C
100
AcDbEntity
  8
02___PRT_ALL_AXES
  6
Continuous
 62
     7
100
AcDbSpline
 70
     0
 71
     3
 72
     9
 73
     5
 74
     0
 42
0.000000001
 43
0.0000001
 40
0.0
 40
0.0
 40
0.0
 40
0.0
 40
0.5224941333
 40
1.0
 40
1.0
 40
1.0
 40
1.0
 10
342.7921112041
 20
155.747662469
 30
0.0
 10
342.5233476523
 20
155.7032341014
 30
0.0
 10
342.0132255512
 20
155.5889993897
 30
0.0
 10
341.5220608603
 20
155.4073147273
 30
0.0
 10
341.2970545337
 20
155.3007735077
 30
0.0
  0
SPLINE
  5
45E
330
22C
100
AcDbEntity
  8
02___PRT_ALL_AXES
  6
Continuous
 62
     7
100
AcDbSpline
 70
     0
 71
     3
 72
    12
 73
     8
 74
     0
 42
0.000000001
 43
0.0000001
 40
0.0
 40
0.0
 40
0.0
 40
0.0
 40
0.1095998757
 40
0.2279749122
 40
0.4829654868
 40
0.7469914259
 40
1.0
 40
1.0
 40
1.0
 40
1.0
 10
342.7757587899
 20
160.2127434644
 30
0.0
 10
342.6177329341
 20
160.2917563923
 30
0.0
 10
342.2779255986
 20
160.4343924963
 30
0.0
 10
341.5310634265
 20
160.657918966
 30
0.0
 10
340.5093209237
 20
160.8117534638
 30
0.0
 10
339.2605763665
 20
160.8021511785
 30
0.0
 10
338.4335669228
 20
160.6632635057
 30
0.0
 10
338.0399335162
 20
160.5564908913
 30
0.0
  0
SPLINE
  5
45F
330
22C
100
AcDbEntity
  8
02___PRT_ALL_AXES
  6
Continuous
 62
     7
100
AcDbSpline
 70
     0
 71
     3
 72
    16
 73
    12
 74
     0
 42
0.000000001
 43
0.0000001
 40
0.0
 40
0.0
 40
0.0
 40
0.0
 40
0.1249289274
 40
0.2638536995
 40
0.4098921952
 40
0.5551508468
 40
0.6918510811
 40
0.8134132665
 40
0.8672177794
 40
0.9160708756
 40
1.0
 40
1.0
 40
1.0
 40
1.0
 10
332.8762638533
 20
162.2629959961
 30
0.0
 10
332.6023028776
 20
162.399976484
 30
0.0
 10
331.9906010588
 20
162.6240318001
 30
0.0
 10
331.0008626579
 20
162.8154865144
 30
0.0
 10
329.9443057606
 20
162.8718016411
 30
0.0
 10
328.8949773913
 20
162.7886148853
 30
0.0
 10
327.9261684923
 20
162.571890945
 30
0.0
 10
327.2123590821
 20
162.2818058858
 30
0.0
 10
326.7455479843
 20
161.9879532176
 30
0.0
 10
326.3949598523
 20
161.6940203013
 30
0.0
 10
326.1955638781
 20
161.421668839
 30
0.0
 10
326.121123537
 20
161.2298300039
 30
0.0
  0
SPLINE
  5
460
330
22C
100
AcDbEntity
  8
02___PRT_ALL_AXES
  6
Continuous
 62
     7
100
AcDbSpline
 70
     0
 71
     3
 72
    17
 73
    13
 74
     0
 42
0.000000001
 43
0.0000001
 40
0.0
 40
0.0
 40
0.0
 40
0.0
 40
0.1448513401
 40
0.296605112
 40
0.4477685354
 40
0.5909329858
 40
0.7197009398
 40
0.8298305893
 40
0.877728556
 40
0.9213139877
 40
0.9615733443
 40
1.0
 40
1.0
 40
1.0
 40
1.0
 10
322.0549171872
 20
160.5567239192
 30
0.0
 10
321.739757221
 20
160.6421577686
 30
0.0
 10
321.0798909458
 20
160.7657684346
 30
0.0
 10
320.0694010457
 20
160.8197869407
 30
0.0
 10
319.0637192313
 20
160.746090218
 30
0.0
 10
318.1269692936
 20
160.5493096143
 30
0.0
 10
317.3183283971
 20
160.2423768239
 30
0.0
 10
316.7653251337
 20
159.8929880393
 30
0.0
 10
316.4444345382
 20
159.5683931011
 30
0.0
 10
316.2758071177
 20
159.3215220534
 30
0.0
 10
316.1720642688
 20
159.0635732778
 30
0.0
 10
316.148365261
 20
158.8854419495
 30
0.0
 10
316.1483514346
 20
158.7988177822
 30
0.0
  0
SPLINE
  5
461
330
22C
100
AcDbEntity
  8
02___PRT_ALL_AXES
  6
Continuous
 62
     7
100
AcDbSpline
 70
     0
 71
     3
 72
     9
 73
     5
 74
     0
 42
0.000000001
 43
0.0000001
 40
0.0
 40
0.0
 40
0.0
 40
0.0
 40
0.476178693
 40
1.0
 40
1.0
 40
1.0
 40
1.0
 10
318.7988469858
 20
155.3006670998
 30
0.0
 10
318.5480590102
 20
155.4194330031
 30
0.0
 10
317.9966506377
 20
155.6173951416
 30
0.0
 10
317.4237126817
 20
155.7332764714
 30
0.0
 10
317.121379839
 20
155.7753905185
 30
0.0
  0
SPLINE
  5
462
330
22C
100
AcDbEntity
  8
02___PRT_ALL_AXES
  6
Continuous
 62
     7
100
AcDbSpline
 70
     0
 71
     3
 72
    12
 73
     8
 74
     0
 42
0.000000001
 43
0.0000001
 40
0.0
 40
0.0
 40
0.0
 40
0.0
 40
0.1022225401
 40
0.2073135347
 40
0.4350360039
 40
0.6977116301
 40
1.0
 40
1.0
 40
1.0
 40
1.0
 10
343.9473276543
 20
154.4681430323
 30
0.0
 10
343.9473373671
 20
154.5338120332
 30
0.0
 10
343.9340544033
 20
154.6673474008
 30
0.0
 10
343.8532259356
 20
154.93643003
 30
0.0
 10
343.6444694111
 20
155.265543911
 30
0.0
 10
343.2633708825
 20
155.6093451151
 30
0.0
 10
342.9494509344
 20
155.7957703732
 30
0.0
 10
342.7757587899
 20
155.8826164455
 30
0.0
  0
SPLINE
  5
463
330
22C
100
AcDbEntity
  8
02___PRT_ALL_AXES
  6
Continuous
 62
     7
100
AcDbSpline
 70
     0
 71
     3
 72
    12
 73
     8
 74
     0
 42
0.000000001
 43
0.0000001
 40
0.0
 40
0.0
 40
0.0
 40
0.0
 40
0.1022208767
 40
0.2073117483
 40
0.4350430985
 40
0.6977109591
 40
1.0
 40
1.0
 40
1.0
 40
1.0
 10
343.9473316844
 20
158.7984982673
 30
0.0
 10
343.9473335232
 20
158.864158557
 30
0.0
 10
343.9340042705
 20
158.9976726796
 30
0.0
 10
343.8531594908
 20
159.2667182617
 30
0.0
 10
343.6443715001
 20
159.5957603667
 30
0.0
 10
343.2633166386
 20
159.9395136593
 30
0.0
 10
342.9494311033
 20
160.1259073077
 30
0.0
 10
342.7757587899
 20
160.2127434644
 30
0.0
  0
SPLINE
  5
464
330
22C
100
AcDbEntity
  8
02___PRT_ALL_AXES
  6
Continuous
 62
     7
100
AcDbSpline
 70
     0
 71
     3
 72
    12
 73
     8
 74
     0
 42
0.000000001
 43
0.0000001
 40
0.0
 40
0.0
 40
0.0
 40
0.0
 40
0.102222809
 40
0.2073151015
 40
0.4350331508
 40
0.69771584
 40
1.0
 40
1.0
 40
1.0
 40
1.0
 10
343.9473220225
 20
163.1283690407
 30
0.0
 10
343.9473325043
 20
163.194039095
 30
0.0
 10
343.9340684174
 20
163.3275796302
 30
0.0
 10
343.8532205637
 20
163.5966597378
 30
0.0
 10
343.6444858086
 20
163.9257919548
 30
0.0
 10
343.2633720229
 20
164.2695915527
 30
0.0
 10
342.9494508449
 20
164.4560244558
 30
0.0
 10
342.7757587899
 20
164.5428704833
 30
0.0
  0
SPLINE
  5
465
330
22C
100
AcDbEntity
  8
7_ALL_FEATURES
  6
Continuous
 62
     7
100
AcDbSpline
 70
     0
 71
     3
 72
    11
 73
     7
 74
     0
 42
0.000000001
 43
0.0000001
 40
0.0
 40
0.0
 40
0.0
 40
0.0
 40
0.2303364677
 40
0.4751722154
 40
0.7324949897
 40
1.0
 40
1.0
 40
1.0
 40
1.0
 10
343.8364189617
 20
158.5780100408
 30
0.0
 10
343.2689859084
 20
158.8617265675
 30
0.0
 10
342.0692117979
 20
159.3897458939
 30
0.0
 10
340.159837248
 20
160.0472399033
 30
0.0
 10
338.1080435825
 20
160.5870518997
 30
0.0
 10
336.6871242472
 20
160.8591323449
 30
0.0
 10
335.959489366
 20
160.9748683118
 30
0.0
  0
SPLINE
  5
466
330
22C
100
AcDbEntity
  8
7_ALL_FEATURES
  6
Continuous
 62
     7
100
AcDbSpline
 70
     0
 71
     3
 72
    11
 73
     7
 74
     0
 42
0.000000001
 43
0.0000001
 40
0.0
 40
0.0
 40
0.0
 40
0.0
 40
0.2477707861
 40
0.4999999059
 40
0.7522287732
 40
1.0
 40
1.0
 40
1.0
 40
1.0
 10
335.959489366
 20
160.9748683118
 30
0.0
 10
334.9914694673
 20
161.1288393787
 30
0.0
 10
333.0242656357
 20
161.3580814572
 30
0.0
 10
330.0477975943
 20
161.471860205
 30
0.0
 10
327.0713277346
 20
161.3580773066
 30
0.0
 10
325.1041241635
 20
161.1288267547
 30
0.0
 10
324.1361028386
 20
160.9748535542
 30
0.0
  0
SPLINE
  5
467
330
22C
100
AcDbEntity
  8
7_ALL_FEATURES
  6
Continuous
 62
     7
100
AcDbSpline
 70
     0
 71
     3
 72
    18
 73
    14
 74
     0
 42
0.000000001
 43
0.0000001
 40
0.0
 40
0.0
 40
0.0
 40
0.0
 40
0.1644761223
 40
0.3199959656
 40
0.464220857
 40
0.5954847483
 40
0.713075341
 40
0.7669449799
 40
0.8177744416
 40
0.8659301749
 40
0.9119130913
 40
0.9563568067
 40
1.0
 40
1.0
 40
1.0
 40
1.0
 10
324.1361028386
 20
160.9748535542
 30
0.0
 10
323.1794580605
 20
160.822689904
 30
0.0
 10
321.32924916
 20
160.449644785
 30
0.0
 10
318.7062233928
 20
159.6641182026
 30
0.0
 10
316.3587971903
 20
158.6835225096
 30
0.0
 10
314.3434836327
 20
157.5310374148
 30
0.0
 10
312.9397363074
 20
156.4156268365
 30
0.0
 10
312.0451517098
 20
155.4568156164
 30
0.0
 10
311.5052558657
 20
154.7339179089
 30
0.0
 10
311.0805094633
 20
153.9905766074
 30
0.0
 10
310.7742956484
 20
153.2310255996
 30
0.0
 10
310.589217179
 20
152.4604389572
 30
0.0
 10
310.5478576555
 20
151.9407524915
 30
0.0
 10
310.5478575872
 20
151.6837189243
 30
0.0
  0
SPLINE
  5
468
330
22C
100
AcDbEntity
  8
02___PRT_ALL_AXES
  6
Continuous
 62
     7
100
AcDbSpline
 70
     0
 71
     3
 72
     9
 73
     5
 74
     0
 42
0.000000001
 43
0.0000001
 40
0.0
 40
0.0
 40
0.0
 40
0.0
 40
0.237250848
 40
1.0
 40
1.0
 40
1.0
 40
1.0
 10
326.697271216
 20
161.9214055104
 30
0.0
 10
326.7357993497
 20
161.8918706615
 30
0.0
 10
326.9016796569
 20
161.7719440805
 30
0.0
 10
327.0798134826
 20
161.6694304414
 30
0.0
 10
327.2194096038
 20
161.5996323808
 30
0.0
  0
SPLINE
  5
469
330
22C
100
AcDbEntity
  8
02___PRT_ALL_AXES
  6
Continuous
 62
     7
100
AcDbSpline
 70
     0
 71
     3
 72
     9
 73
     5
 74
     0
 42
0.000000001
 43
0.0000001
 40
0.0
 40
0.0
 40
0.0
 40
0.0
 40
0.2389250231
 40
1.0
 40
1.0
 40
1.0
 40
1.0
 10
326.7523326707
 20
166.2970486363
 30
0.0
 10
326.7874655083
 20
166.271522198
 30
0.0
 10
326.9370377353
 20
166.1681729451
 30
0.0
 10
327.095680492
 20
166.078226496
 30
0.0
 10
327.2194096038
 20
166.0163619401
 30
0.0
  0
SPLINE
  5
46A
330
22C
100
AcDbEntity
  8
02___PRT_ALL_AXES
  6
Continuous
 62
     7
100
AcDbSpline
 70
     0
 71
     3
 72
    10
 73
     6
 74
     0
 42
0.000000001
 43
0.0000001
 40
0.0
 40
0.0
 40
0.0
 40
0.0
 40
0.4450045575
 40
0.7082443451
 40
1.0
 40
1.0
 40
1.0
 40
1.0
 10
333.9757670028
 20
161.2267258222
 30
0.0
 10
333.893825236
 20
161.4396247543
 30
0.0
 10
333.6625626876
 20
161.7396003254
 30
0.0
 10
333.2580499773
 20
162.0539358136
 30
0.0
 10
333.0100373765
 20
162.1961092345
 30
0.0
 10
332.8762638533
 20
162.2629959961
 30
0.0
  0
SPLINE
  5
46B
330
22C
100
AcDbEntity
  8
02___PRT_ALL_AXES
  6
Continuous
 62
     7
100
AcDbSpline
 70
     0
 71
     3
 72
    11
 73
     7
 74
     0
 42
0.000000001
 43
0.0000001
 40
0.0
 40
0.0
 40
0.0
 40
0.0
 40
0.2117196636
 40
0.4466148727
 40
0.7091430825
 40
1.0
 40
1.0
 40
1.0
 40
1.0
 10
333.9750605769
 20
165.5586591617
 30
0.0
 10
333.9358300117
 20
165.6600336905
 30
0.0
 10
333.8227140248
 20
165.8626907995
 30
0.0
 10
333.5778159892
 20
166.1350572893
 30
0.0
 10
333.2572147738
 20
166.3847988999
 30
0.0
 10
333.0098296796
 20
166.5263401019
 30
0.0
 10
332.8762638533
 20
166.593123015
 30
0.0
  0
SPLINE
  5
46C
330
22C
100
AcDbEntity
  8
02___PRT_ALL_AXES
  6
Continuous
 62
     7
100
AcDbSpline
 70
     0
 71
     3
 72
     9
 73
     5
 74
     0
 42
0.000000001
 43
0.0000001
 40
0.0
 40
0.0
 40
0.0
 40
0.0
 40
0.2400004606
 40
1.0
 40
1.0
 40
1.0
 40
1.0
 10
317.3199146672
 20
155.2192528302
 30
0.0
 10
317.3668781849
 20
155.1957710714
 30
0.0
 10
317.5645162789
 20
155.1018621988
 30
0.0
 10
317.7691402619
 20
155.0229346655
 30
0.0
 10
317.9268486253
 20
154.9702643252
 30
0.0
  0
SPLINE
  5
46D
330
22C
100
AcDbEntity
  8
02___PRT_ALL_AXES
  6
Continuous
 62
     7
100
AcDbSpline
 70
     0
 71
     3
 72
     9
 73
     5
 74
     0
 42
0.000000001
 43
0.0000001
 40
0.0
 40
0.0
 40
0.0
 40
0.0
 40
0.530968334
 40
1.0
 40
1.0
 40
1.0
 40
1.0
 10
342.1685254315
 20
154.9701639795
 30
0.0
 10
342.3844188208
 20
155.0422404917
 30
0.0
 10
342.7832010872
 20
155.2034672235
 30
0.0
 10
343.1521016755
 20
155.4276870685
 30
0.0
 10
343.3108714334
 20
155.5510406222
 30
0.0
  0
SPLINE
  5
46E
330
22C
100
AcDbEntity
  8
02___PRT_ALL_AXES
  6
Continuous
 62
     7
100
AcDbSpline
 70
     0
 71
     3
 72
     9
 73
     5
 74
     0
 42
0.000000001
 43
0.0000001
 40
0.0
 40
0.0
 40
0.0
 40
0.0
 40
0.237250848
 40
1.0
 40
1.0
 40
1.0
 40
1.0
 10
316.7977762794
 20
155.5410259598
 30
0.0
 10
316.8363044131
 20
155.5114911109
 30
0.0
 10
317.0021847203
 20
155.3915645299
 30
0.0
 10
317.180318546
 20
155.2890508908
 30
0.0
 10
317.3199146672
 20
155.2192528302
 30
0.0
  0
SPLINE
  5
46F
330
22C
100
AcDbEntity
  8
02___PRT_ALL_AXES
  6
Continuous
 62
     7
100
AcDbSpline
 70
     0
 71
     3
 72
    12
 73
     8
 74
     0
 42
0.000000001
 43
0.0000001
 40
0.0
 40
0.0
 40
0.0
 40
0.0
 40
0.1095993042
 40
0.2279860108
 40
0.4829878941
 40
0.7470156463
 40
1.0
 40
1.0
 40
1.0
 40
1.0
 10
342.7757587899
 20
155.8826164455
 30
0.0
 10
342.6176743932
 20
155.9616586438
 30
0.0
 10
342.2777163056
 20
156.1043413683
 30
0.0
 10
341.5305282825
 20
156.3279265457
 30
0.0
 10
340.5083410499
 20
156.4817273071
 30
0.0
 10
339.2591486904
 20
156.4719049146
 30
0.0
 10
338.4318789301
 20
156.3328281849
 30
0.0
 10
338.0381734127
 20
156.2258854396
 30
0.0
  0
SPLINE
  5
470
330
22C
100
AcDbEntity
  8
02___PRT_ALL_AXES
  6
Continuous
 62
     7
100
AcDbSpline
 70
     0
 71
     3
 72
    17
 73
    13
 74
     0
 42
0.000000001
 43
0.0000001
 40
0.0
 40
0.0
 40
0.0
 40
0.0
 40
0.1448513401
 40
0.296605112
 40
0.4477685354
 40
0.5909329858
 40
0.7197009398
 40
0.8298305893
 40
0.877728556
 40
0.9213139877
 40
0.9615733443
 40
1.0
 40
1.0
 40
1.0
 40
1.0
 10
322.0549171872
 20
156.2265969003
 30
0.0
 10
321.739757221
 20
156.3120307496
 30
0.0
 10
321.0798909458
 20
156.4356414157
 30
0.0
 10
320.0694010457
 20
156.4896599218
 30
0.0
 10
319.0637192313
 20
156.4159631991
 30
0.0
 10
318.1269692936
 20
156.2191825954
 30
0.0
 10
317.3183283971
 20
155.912249805
 30
0.0
 10
316.7653251337
 20
155.5628610203
 30
0.0
 10
316.4444345382
 20
155.2382660821
 30
0.0
 10
316.2758071177
 20
154.9913950345
 30
0.0
 10
316.1720642688
 20
154.7334462589
 30
0.0
 10
316.148365261
 20
154.5553149306
 30
0.0
 10
316.1483514346
 20
154.4686907633
 30
0.0
  0
SPLINE
  5
471
330
22C
100
AcDbEntity
  8
02___PRT_ALL_AXES
  6
Continuous
 62
     7
100
AcDbSpline
 70
     0
 71
     3
 72
     9
 73
     5
 74
     0
 42
0.000000001
 43
0.0000001
 40
0.0
 40
0.0
 40
0.0
 40
0.0
 40
0.237250848
 40
1.0
 40
1.0
 40
1.0
 40
1.0
 10
316.7977762794
 20
159.8711529787
 30
0.0
 10
316.8363044131
 20
159.8416181298
 30
0.0
 10
317.0021847203
 20
159.7216915488
 30
0.0
 10
317.180318546
 20
159.6191779097
 30
0.0
 10
317.3199146672
 20
159.5493798491
 30
0.0
  0
SPLINE
  5
472
330
22C
100
AcDbEntity
  8
02___PRT_ALL_AXES
  6
Continuous
 62
     7
100
AcDbSpline
 70
     0
 71
     3
 72
     9
 73
     5
 74
     0
 42
0.000000001
 43
0.0000001
 40
0.0
 40
0.0
 40
0.0
 40
0.0
 40
0.2389250231
 40
1.0
 40
1.0
 40
1.0
 40
1.0
 10
316.8528377341
 20
164.2467961046
 30
0.0
 10
316.8879705717
 20
164.2212696663
 30
0.0
 10
317.0375427987
 20
164.1179204134
 30
0.0
 10
317.1961855554
 20
164.0279739643
 30
0.0
 10
317.3199146672
 20
163.9661094084
 30
0.0
  0
SPLINE
  5
473
330
22C
100
AcDbEntity
  8
7_ALL_FEATURES
  6
Continuous
 62
     7
100
AcDbSpline
 70
     0
 71
     3
 72
     9
 73
     5
 74
     0
 42
0.000000001
 43
0.0000001
 40
0.0
 40
0.0
 40
0.0
 40
0.0
 40
0.2411131159
 40
1.0
 40
1.0
 40
1.0
 40
1.0
 10
343.8364189617
 20
154.2478830219
 30
0.0
 10
343.6340463133
 20
154.3490693461
 30
0.0
 10
342.7873243066
 20
154.7538777821
 30
0.0
 10
341.9137113539
 20
155.1015759394
 30
0.0
 10
341.2416655659
 20
155.3371440963
 30
0.0
  0
SPLINE
  5
474
330
22C
100
AcDbEntity
  8
7_ALL_FEATURES
  6
Continuous
 62
     7
100
AcDbSpline
 70
     0
 71
     3
 72
     9
 73
     5
 74
     0
 42
0.000000001
 43
0.0000001
 40
0.0
 40
0.0
 40
0.0
 40
0.0
 40
0.2427372517
 40
1.0
 40
1.0
 40
1.0
 40
1.0
 10
341.2416655659
 20
155.3371440963
 30
0.0
 10
340.9804199324
 20
155.4287169526
 30
0.0
 10
339.8980524958
 20
155.7884041042
 30
0.0
 10
338.7934656562
 20
156.0801744393
 30
0.0
 10
337.9503080571
 20
156.2670623934
 30
0.0
  0
SPLINE
  5
475
330
22C
100
AcDbEntity
  8
7_ALL_FEATURES
  6
Continuous
 62
     7
100
AcDbSpline
 70
     0
 71
     3
 72
     9
 73
     5
 74
     0
 42
0.000000001
 43
0.0000001
 40
0.0
 40
0.0
 40
0.0
 40
0.0
 40
0.2570124077
 40
1.0
 40
1.0
 40
1.0
 40
1.0
 10
322.145362139
 20
156.2670663555
 30
0.0
 10
321.859201534
 20
156.2036389676
 30
0.0
 10
320.7492742177
 20
155.9415924155
 30
0.0
 10
319.6536479021
 20
155.6174165949
 30
0.0
 10
318.8540174021
 20
155.3371378538
 30
0.0
  0
SPLINE
  5
476
330
22C
100
AcDbEntity
  8
7_ALL_FEATURES
  6
Continuous
 62
     7
100
AcDbSpline
 70
     0
 71
     3
 72
    11
 73
     7
 74
     0
 42
0.000000001
 43
0.0000001
 40
0.0
 40
0.0
 40
0.0
 40
0.0
 40
0.2827149261
 40
0.544359269
 40
0.7834618329
 40
1.0
 40
1.0
 40
1.0
 40
1.0
 10
318.8540174021
 20
155.3371378538
 30
0.0
 10
318.1570003095
 20
155.0928261707
 30
0.0
 10
316.8341490831
 20
154.5640448086
 30
0.0
 10
315.0176519554
 20
153.6116944412
 30
0.0
 10
313.4711293522
 20
152.5446923541
 30
0.0
 10
312.5961811196
 20
151.728124873
 30
0.0
 10
312.2208878282
 20
151.3048292001
 30
0.0
  0
SPLINE
  5
477
330
22C
100
AcDbEntity
  8
7_ALL_FEATURES
  6
Continuous
 62
     7
100
AcDbSpline
 70
     0
 71
     3
 72
    10
 73
     6
 74
     0
 42
0.000000001
 43
0.0000001
 40
0.0
 40
0.0
 40
0.0
 40
0.0
 40
0.4671125314
 40
0.7254936079
 40
1.0
 40
1.0
 40
1.0
 40
1.0
 10
347.8747777047
 20
151.3048275696
 30
0.0
 10
347.3560792989
 20
151.8898632725
 30
0.0
 10
346.4307171683
 20
152.695053574
 30
0.0
 10
345.0316238709
 20
153.6146515405
 30
0.0
 10
344.2473873293
 20
154.0423988381
 30
0.0
 10
343.8364189617
 20
154.2478830219
 30
0.0
  0
SPLINE
  5
478
330
22C
100
AcDbEntity
  8
7_ALL_FEATURES
  6
Continuous
 62
     7
100
AcDbSpline
 70
     0
 71
     3
 72
    15
 73
    11
 74
     0
 42
0.000000001
 43
0.0000001
 40
0.0
 40
0.0
 40
0.0
 40
0.0
 40
0.1020723401
 40
0.2070113773
 40
0.3173571229
 40
0.4351125224
 40
0.5616694745
 40
0.6978443217
 40
0.8440111673
 40
1.0
 40
1.0
 40
1.0
 40
1.0
 10
349.5478158698
 20
151.6837189242
 30
0.0
 10
349.5478159548
 20
152.0038080281
 30
0.0
 10
349.4830026427
 20
152.6546802789
 30
0.0
 10
349.1946648968
 20
153.6128870446
 30
0.0
 10
348.7199805968
 20
154.5487001875
 30
0.0
 10
348.0657738299
 20
155.4529693982
 30
0.0
 10
347.2396161679
 20
156.3182244949
 30
0.0
 10
346.2497734921
 20
157.1373341151
 30
0.0
 10
345.1058770861
 20
157.9030645213
 30
0.0
 10
344.2739423977
 20
158.3592483228
 30
0.0
 10
343.8364189617
 20
158.5780100408
 30
0.0
  0
SPLINE
  5
479
330
22C
100
AcDbEntity
  8
7_ALL_FEATURES
  6
Continuous
 62
     7
100
AcDbSpline
 70
     0
 71
     3
 72
    15
 73
    11
 74
     0
 42
0.000000001
 43
0.0000001
 40
0.0
 40
0.0
 40
0.0
 40
0.0
 40
0.1020723401
 40
0.2070113773
 40
0.3173571229
 40
0.4351125224
 40
0.5616694745
 40
0.6978443217
 40
0.8440111673
 40
1.0
 40
1.0
 40
1.0
 40
1.0
 10
349.5478158698
 20
156.0138459432
 30
0.0
 10
349.5478159548
 20
156.333935047
 30
0.0
 10
349.4830026427
 20
156.9848072978
 30
0.0
 10
349.1946648968
 20
157.9430140635
 30
0.0
 10
348.7199805968
 20
158.8788272065
 30
0.0
 10
348.0657738299
 20
159.7830964171
 30
0.0
 10
347.2396161679
 20
160.6483515138
 30
0.0
 10
346.2497734921
 20
161.467461134
 30
0.0
 10
345.1058770861
 20
162.2331915402
 30
0.0
 10
344.2739423977
 20
162.6893753418
 30
0.0
 10
343.8364189617
 20
162.9081370597
 30
0.0
  0
SPLINE
  5
47A
330
22C
100
AcDbEntity
  8
7_ALL_FEATURES
  6
Continuous
 62
     7
100
AcDbSpline
 70
     0
 71
     3
 72
     9
 73
     5
 74
     0
 42
0.000000001
 43
0.0000001
 40
0.0
 40
0.0
 40
0.0
 40
0.0
 40
0.2487519379
 40
1.0
 40
1.0
 40
1.0
 40
1.0
 10
310.5478575872
 20
153.8487824337
 30
0.0
 10
310.5478575632
 20
153.7581743181
 30
0.0
 10
310.5579646938
 20
153.393977937
 30
0.0
 10
310.6091143837
 20
153.031046159
 30
0.0
 10
310.6689158481
 20
152.764017781
 30
0.0
  0
SPLINE
  5
47B
330
22C
100
AcDbEntity
  8
7_ALL_FEATURES
  6
Continuous
 62
     7
100
AcDbSpline
 70
     0
 71
     3
 72
     9
 73
     5
 74
     0
 42
0.000000001
 43
0.0000001
 40
0.0
 40
0.0
 40
0.0
 40
0.0
 40
0.2487519379
 40
1.0
 40
1.0
 40
1.0
 40
1.0
 10
310.5478575872
 20
158.1789094527
 30
0.0
 10
310.5478575632
 20
158.088301337
 30
0.0
 10
310.5579646938
 20
157.7241049559
 30
0.0
 10
310.6091143837
 20
157.3611731779
 30
0.0
 10
310.6689158481
 20
157.0941447999
 30
0.0
  0
SPLINE
  5
47C
330
22C
100
AcDbEntity
  8
7_ALL_FEATURES
  6
Continuous
 62
     7
100
AcDbSpline
 70
     0
 71
     3
 72
    25
 73
    21
 74
     0
 42
0.000000001
 43
0.0000001
 40
0.0
 40
0.0
 40
0.0
 40
0.0
 40
0.062594952
 40
0.1298612819
 40
0.2009392439
 40
0.2747922574
 40
0.3502702617
 40
0.426158799
 40
0.5012279077
 40
0.5742790895
 40
0.644194224
 40
0.7099888627
 40
0.7708744757
 40
0.8263366399
 40
0.8762391202
 40
0.9209618614
 40
0.941719255
 40
0.9616398661
 40
0.9809721988
 40
1.0
 40
1.0
 40
1.0
 40
1.0
 10
343.8364189617
 20
165.0732005692
 30
0.0
 10
343.1310411257
 20
165.4258894872
 30
0.0
 10
341.6223901957
 20
166.0688979042
 30
0.0
 10
339.2034203527
 20
166.8269024476
 30
0.0
 10
336.5890620435
 20
167.401038438
 30
0.0
 10
333.8351783509
 20
167.7788333878
 30
0.0
 10
331.0003288779
 20
167.9522340673
 30
0.0
 10
328.1451200727
 20
167.9174684037
 30
0.0
 10
325.3305907977
 20
167.6752975677
 30
0.0
 10
322.6168424247
 20
167.2309438632
 30
0.0
 10
320.0616201444
 20
166.5939547121
 30
0.0
 10
317.7189204217
 20
165.7778126651
 30
0.0
 10
315.6377559048
 20
164.7995210275
 30
0.0
 10
313.8608758891
 20
163.6781082073
 30
0.0
 10
312.4250646379
 20
162.4349300953
 30
0.0
 10
311.516582006
 20
161.2842911279
 30
0.0
 10
311.0108903773
 20
160.3316633081
 30
0.0
 10
310.7445522169
 20
159.6215648181
 30
0.0
 10
310.5837459248
 20
158.9026822173
 30
0.0
 10
310.5478576509
 20
158.4186415091
 30
0.0
 10
310.5478575872
 20
158.1789094527
 30
0.0
  0
SPLINE
  5
47D
330
22C
100
AcDbEntity
  8
02___PRT_ALL_AXES
  6
Continuous
 62
     7
100
AcDbSpline
 70
     0
 71
     3
 72
     9
 73
     5
 74
     0
 42
0.000000001
 43
0.0000001
 40
0.0
 40
0.0
 40
0.0
 40
0.0
 40
0.2365926635
 40
1.0
 40
1.0
 40
1.0
 40
1.0
 10
318.9484154526
 20
155.3531725841
 30
0.0
 10
319.0012981203
 20
155.4507026065
 30
0.0
 10
319.2428393679
 20
155.853143072
 30
0.0
 10
319.5505525541
 20
156.2137741206
 30
0.0
 10
319.806359034
 20
156.4642016421
 30
0.0
  0
SPLINE
  5
47E
330
22C
100
AcDbEntity
  8
02___PRT_ALL_AXES
  6
Continuous
 62
     7
100
AcDbSpline
 70
     0
 71
     3
 72
     9
 73
     5
 74
     0
 42
0.000000001
 43
0.0000001
 40
0.0
 40
0.0
 40
0.0
 40
0.0
 40
0.2646744639
 40
1.0
 40
1.0
 40
1.0
 40
1.0
 10
340.2951125948
 20
156.4585175868
 30
0.0
 10
340.3831596618
 20
156.3720855848
 30
0.0
 10
340.7054590088
 20
156.0354413221
 30
0.0
 10
340.9838700947
 20
155.6545046514
 30
0.0
 10
341.1472587052
 20
155.3531712988
 30
0.0
  0
SPLINE
  5
47F
330
22C
100
AcDbEntity
  8
02___PRT_ALL_AXES
  6
Continuous
 62
     7
100
AcDbSpline
 70
     0
 71
     3
 72
     9
 73
     5
 74
     0
 42
0.000000001
 43
0.0000001
 40
0.0
 40
0.0
 40
0.0
 40
0.0
 40
0.2525850897
 40
1.0
 40
1.0
 40
1.0
 40
1.0
 10
343.9180530443
 20
162.8871835578
 30
0.0
 10
343.9228966924
 20
162.9070855435
 30
0.0
 10
343.9398144212
 20
162.9864091571
 30
0.0
 10
343.9473123482
 20
163.0677588172
 30
0.0
 10
343.9473220225
 20
163.1283690407
 30
0.0
  0
SPLINE
  5
480
330
22C
100
AcDbEntity
  8
02___PRT_ALL_AXES
  6
Continuous
 62
     7
100
AcDbSpline
 70
     0
 71
     3
 72
     9
 73
     5
 74
     0
 42
0.000000001
 43
0.0000001
 40
0.0
 40
0.0
 40
0.0
 40
0.0
 40
0.248285079
 40
1.0
 40
1.0
 40
1.0
 40
1.0
 10
316.1483514346
 20
154.4686907633
 30
0.0
 10
316.1483479445
 20
154.446824821
 30
0.0
 10
316.1512085448
 20
154.3587730653
 30
0.0
 10
316.1657566018
 20
154.2711564178
 30
0.0
 10
316.1826203249
 20
154.2071383543
 30
0.0
  0
SPLINE
  5
481
330
22C
100
AcDbEntity
  8
7_ALL_FEATURES
  6
Continuous
 62
     7
100
AcDbSpline
 70
     0
 71
     3
 72
    11
 73
     7
 74
     0
 42
0.000000001
 43
0.0000001
 40
0.0
 40
0.0
 40
0.0
 40
0.0
 40
0.2303364201
 40
0.4751721631
 40
0.7324949603
 40
1.0
 40
1.0
 40
1.0
 40
1.0
 10
343.8364189617
 20
156.4129465314
 30
0.0
 10
343.2689836688
 20
156.6966641778
 30
0.0
 10
342.0692045925
 20
157.2246854168
 30
0.0
 10
340.1598218708
 20
157.8821812457
 30
0.0
 10
338.1080191737
 20
158.421994107
 30
0.0
 10
336.687093546
 20
158.6940744495
 30
0.0
 10
335.9594554491
 20
158.809810197
 30
0.0
  0
SPLINE
  5
482
330
22C
100
AcDbEntity
  8
7_ALL_FEATURES
  6
Continuous
 62
     7
100
AcDbSpline
 70
     0
 71
     3
 72
    16
 73
    12
 74
     0
 42
0.000000001
 43
0.0000001
 40
0.0
 40
0.0
 40
0.0
 40
0.0
 40
0.1606199313
 40
0.3133954765
 40
0.4563417066
 40
0.5879544625
 40
0.7073939424
 40
0.8147304714
 40
0.911258975
 40
0.9563817525
 40
1.0
 40
1.0
 40
1.0
 40
1.0
 10
324.1362191251
 20
158.809808541
 30
0.0
 10
323.2545211428
 20
158.6695689433
 30
0.0
 10
321.543665974
 20
158.3303017371
 30
0.0
 10
319.1027451674
 20
157.6289174355
 30
0.0
 10
316.8879440731
 20
156.7594717374
 30
0.0
 10
314.9442966157
 20
155.7393897466
 30
0.0
 10
313.3104676308
 20
154.5874725924
 30
0.0
 10
312.0195935951
 20
153.3244042144
 30
0.0
 10
311.2365452079
 20
152.1673115483
 30
0.0
 10
310.8290713806
 20
151.2188235041
 30
0.0
 10
310.6960400222
 20
150.7418971365
 30
0.0
 10
310.6477447479
 20
150.5043106951
 30
0.0
  0
SPLINE
  5
483
330
22C
100
AcDbEntity
  8
02___PRT_ALL_AXES
  6
Continuous
 62
     7
100
AcDbSpline
 70
     0
 71
     3
 72
     9
 73
     5
 74
     0
 42
0.000000001
 43
0.0000001
 40
0.0
 40
0.0
 40
0.0
 40
0.0
 40
0.2525220445
 40
1.0
 40
1.0
 40
1.0
 40
1.0
 10
343.9187611181
 20
154.2298693819
 30
0.0
 10
343.9234870691
 20
154.2495358927
 30
0.0
 10
343.93999401
 20
154.3279280452
 30
0.0
 10
343.947318799
 20
154.4082719443
 30
0.0
 10
343.9473276543
 20
154.4681430323
 30
0.0
  0
SPLINE
  5
484
330
22C
100
AcDbEntity
  8
7_ALL_FEATURES
  6
Continuous
 62
     7
100
AcDbSpline
 70
     0
 71
     3
 72
    13
 73
     9
 74
     0
 42
0.000000001
 43
0.0000001
 40
0.0
 40
0.0
 40
0.0
 40
0.0
 40
0.1020811474
 40
0.2085620809
 40
0.3209941666
 40
0.440542442
 40
0.7034167368
 40
1.0
 40
1.0
 40
1.0
 40
1.0
 10
349.4479282681
 20
150.5043106873
 30
0.0
 10
349.3908964484
 20
150.7848737085
 30
0.0
 10
349.2255862563
 20
151.3491292725
 30
0.0
 10
348.8400144815
 20
152.166090661
 30
0.0
 10
348.3170402721
 20
152.9617236329
 30
0.0
 10
347.4139361762
 20
154.0195818175
 30
0.0
 10
345.9418026245
 20
155.2485265443
 30
0.0
 10
344.5804120273
 20
156.0409499986
 30
0.0
 10
343.8364189617
 20
156.4129465314
 30
0.0
  0
SPLINE
  5
485
330
22C
100
AcDbEntity
  8
7_ALL_FEATURES
  6
Continuous
 62
     7
100
AcDbSpline
 70
     0
 71
     3
 72
    11
 73
     7
 74
     0
 42
0.000000001
 43
0.0000001
 40
0.0
 40
0.0
 40
0.0
 40
0.0
 40
0.2303364677
 40
0.4751722154
 40
0.7324949897
 40
1.0
 40
1.0
 40
1.0
 40
1.0
 10
343.8364189617
 20
160.7430735503
 30
0.0
 10
343.2689859084
 20
161.0267900769
 30
0.0
 10
342.0692117979
 20
161.5548094034
 30
0.0
 10
340.159837248
 20
162.2123034127
 30
0.0
 10
338.1080435825
 20
162.7521154092
 30
0.0
 10
336.6871242472
 20
163.0241958543
 30
0.0
 10
335.959489366
 20
163.1399318212
 30
0.0
  0
SPLINE
  5
486
330
22C
100
AcDbEntity
  8
7_ALL_FEATURES
  6
Continuous
 62
     7
100
AcDbSpline
 70
     0
 71
     3
 72
    11
 73
     7
 74
     0
 42
0.000000001
 43
0.0000001
 40
0.0
 40
0.0
 40
0.0
 40
0.0
 40
0.2477707861
 40
0.4999999059
 40
0.7522287732
 40
1.0
 40
1.0
 40
1.0
 40
1.0
 10
335.959489366
 20
163.1399318212
 30
0.0
 10
334.9914694673
 20
163.2939028881
 30
0.0
 10
333.0242656357
 20
163.5231449667
 30
0.0
 10
330.0477975943
 20
163.6369237144
 30
0.0
 10
327.0713277346
 20
163.5231408161
 30
0.0
 10
325.1041241635
 20
163.2938902642
 30
0.0
 10
324.1361028386
 20
163.1399170637
 30
0.0
  0
SPLINE
  5
487
330
22C
100
AcDbEntity
  8
7_ALL_FEATURES
  6
Continuous
 62
     7
100
AcDbSpline
 70
     0
 71
     3
 72
    18
 73
    14
 74
     0
 42
0.000000001
 43
0.0000001
 40
0.0
 40
0.0
 40
0.0
 40
0.0
 40
0.1644761223
 40
0.3199959656
 40
0.464220857
 40
0.5954847483
 40
0.713075341
 40
0.7669449799
 40
0.8177744416
 40
0.8659301749
 40
0.9119130913
 40
0.9563568067
 40
1.0
 40
1.0
 40
1.0
 40
1.0
 10
324.1361028386
 20
163.1399170637
 30
0.0
 10
323.1794580605
 20
162.9877534135
 30
0.0
 10
321.32924916
 20
162.6147082944
 30
0.0
 10
318.7062233928
 20
161.829181712
 30
0.0
 10
316.3587971903
 20
160.848586019
 30
0.0
 10
314.3434836327
 20
159.6961009243
 30
0.0
 10
312.9397363074
 20
158.580690346
 30
0.0
 10
312.0451517098
 20
157.6218791259
 30
0.0
 10
311.5052558657
 20
156.8989814184
 30
0.0
 10
311.0805094633
 20
156.1556401168
 30
0.0
 10
310.7742956484
 20
155.396089109
 30
0.0
 10
310.589217179
 20
154.6255024666
 30
0.0
 10
310.5478576555
 20
154.105816001
 30
0.0
 10
310.5478575872
 20
153.8487824337
 30
0.0
  0
SPLINE
  5
488
330
22C
100
AcDbEntity
  8
7_ALL_FEATURES
  6
Continuous
 62
     7
100
AcDbSpline
 70
     0
 71
     3
 72
    15
 73
    11
 74
     0
 42
0.000000001
 43
0.0000001
 40
0.0
 40
0.0
 40
0.0
 40
0.0
 40
0.1020723401
 40
0.2070113773
 40
0.3173571229
 40
0.4351125224
 40
0.5616694745
 40
0.6978443217
 40
0.8440111673
 40
1.0
 40
1.0
 40
1.0
 40
1.0
 10
349.5478158698
 20
153.8487824337
 30
0.0
 10
349.5478159548
 20
154.1688715376
 30
0.0
 10
349.4830026427
 20
154.8197437884
 30
0.0
 10
349.1946648968
 20
155.777950554
 30
0.0
 10
348.7199805968
 20
156.713763697
 30
0.0
 10
348.0657738299
 20
157.6180329077
 30
0.0
 10
347.2396161679
 20
158.4832880044
 30
0.0
 10
346.2497734921
 20
159.3023976245
 30
0.0
 10
345.1058770861
 20
160.0681280307
 30
0.0
 10
344.2739423977
 20
160.5243118323
 30
0.0
 10
343.8364189617
 20
160.7430735503
 30
0.0
  0
SPLINE
  5
489
330
22C
100
AcDbEntity
  8
7_ALL_FEATURES
  6
Continuous
 62
     7
100
AcDbSpline
 70
     0
 71
     3
 72
    15
 73
    11
 74
     0
 42
0.000000001
 43
0.0000001
 40
0.0
 40
0.0
 40
0.0
 40
0.0
 40
0.1020723401
 40
0.2070113773
 40
0.3173571229
 40
0.4351125224
 40
0.5616694745
 40
0.6978443217
 40
0.8440111673
 40
1.0
 40
1.0
 40
1.0
 40
1.0
 10
349.5478158698
 20
158.1789094526
 30
0.0
 10
349.5478159548
 20
158.4989985565
 30
0.0
 10
349.4830026427
 20
159.1498708073
 30
0.0
 10
349.1946648968
 20
160.1080775729
 30
0.0
 10
348.7199805968
 20
161.0438907159
 30
0.0
 10
348.0657738299
 20
161.9481599266
 30
0.0
 10
347.2396161679
 20
162.8134150233
 30
0.0
 10
346.2497734921
 20
163.6325246435
 30
0.0
 10
345.1058770861
 20
164.3982550497
 30
0.0
 10
344.2739423977
 20
164.8544388512
 30
0.0
 10
343.8364189617
 20
165.0732005692
 30
0.0
  0
SPLINE
  5
48A
330
22C
100
AcDbEntity
  8
02___PRT_ALL_AXES
  6
Continuous
 62
     7
100
AcDbSpline
 70
     0
 71
     3
 72
     9
 73
     5
 74
     0
 42
0.000000001
 43
0.0000001
 40
0.0
 40
0.0
 40
0.0
 40
0.0
 40
0.248285079
 40
1.0
 40
1.0
 40
1.0
 40
1.0
 10
316.1483514346
 20
158.7988177822
 30
0.0
 10
316.1483479445
 20
158.7769518399
 30
0.0
 10
316.1512085448
 20
158.6889000842
 30
0.0
 10
316.1657566018
 20
158.6012834367
 30
0.0
 10
316.1826203249
 20
158.5372653732
 30
0.0
  0
SPLINE
  5
48B
330
22C
100
AcDbEntity
  8
02___PRT_ALL_AXES
  6
Continuous
 62
     7
100
AcDbSpline
 70
     0
 71
     3
 72
     9
 73
     5
 74
     0
 42
0.000000001
 43
0.0000001
 40
0.0
 40
0.0
 40
0.0
 40
0.0
 40
0.2524354163
 40
1.0
 40
1.0
 40
1.0
 40
1.0
 10
343.9197260851
 20
158.5640317603
 30
0.0
 10
343.9242960429
 20
158.5833901485
 30
0.0
 10
343.9402548879
 20
158.6605649049
 30
0.0
 10
343.9473300348
 20
158.7395943773
 30
0.0
 10
343.9473316844
 20
158.7984982673
 30
0.0
  0
SPLINE
  5
48C
330
22C
100
AcDbEntity
  8
02___PRT_ALL_AXES
  6
Continuous
 62
     7
100
AcDbSpline
 70
     0
 71
     3
 72
     9
 73
     5
 74
     0
 42
0.000000001
 43
0.0000001
 40
0.0
 40
0.0
 40
0.0
 40
0.0
 40
0.248285079
 40
1.0
 40
1.0
 40
1.0
 40
1.0
 10
316.1483514346
 20
163.1289448011
 30
0.0
 10
316.1483479445
 20
163.1070788589
 30
0.0
 10
316.1512085448
 20
163.0190271031
 30
0.0
 10
316.1657566018
 20
162.9314104556
 30
0.0
 10
316.1826203249
 20
162.8673923921
 30
0.0
  0
SPLINE
  5
48D
330
22C
100
AcDbEntity
  8
7_ALL_FEATURES
  6
Continuous
 62
     7
100
AcDbSpline
 70
     0
 71
     3
 72
    14
 73
    10
 74
     0
 42
0.000000001
 43
0.0000001
 40
0.0
 40
0.0
 40
0.0
 40
0.0
 40
0.1021299571
 40
0.2071856394
 40
0.3176273456
 40
0.4353943391
 40
0.6977875643
 40
0.8441056407
 40
1.0
 40
1.0
 40
1.0
 40
1.0
 10
299.8979603685
 20
144.8420165805
 30
0.0
 10
299.8979648428
 20
144.8633549165
 30
0.0
 10
299.9023859222
 20
144.9067534551
 30
0.0
 10
299.9217426403
 20
144.9706017524
 30
0.0
 10
299.9533914
 20
145.0329885877
 30
0.0
 10
300.0135409422
 20
145.1164007414
 30
0.0
 10
300.0959768951
 20
145.1911237233
 30
0.0
 10
300.1940576578
 20
145.2567461772
 30
0.0
 10
300.2495084019
 20
145.2871712228
 30
0.0
 10
300.2786412406
 20
145.3017376421
 30
0.0
  0
SPLINE
  5
48E
330
22C
100
AcDbEntity
  8
7_ALL_FEATURES
  6
Continuous
 62
     7
100
AcDbSpline
 70
     0
 71
     3
 72
    14
 73
    10
 74
     0
 42
0.000000001
 43
0.0000001
 40
0.0
 40
0.0
 40
0.0
 40
0.0
 40
0.1558902391
 40
0.3021807243
 40
0.5645449634
 40
0.6823398318
 40
0.7928069114
 40
0.8978705606
 40
1.0
 40
1.0
 40
1.0
 40
1.0
 10
359.8170322165
 20
145.3017376421
 30
0.0
 10
359.8461554382
 20
145.2871760313
 30
0.0
 10
359.901584145
 20
145.2567650617
 30
0.0
 10
359.999625907
 20
145.1911690891
 30
0.0
 10
360.0820224363
 20
145.1164704061
 30
0.0
 10
360.1422107682
 20
145.0331208189
 30
0.0
 10
360.1739030479
 20
144.9707654738
 30
0.0
 10
360.1932978944
 20
144.9069412865
 30
0.0
 10
360.1977175615
 20
144.8635516359
 30
0.0
 10
360.1977130886
 20
144.8422198882
 30
0.0
  0
ENDSEC
  0
SECTION
  2
OBJECTS
  0
DICTIONARY
  5
C
330
0
100
AcDbDictionary
281
     1
  3
ACAD_GROUP
350
D
  3
ACAD_IMAGE_VARS
350
4D8
  3
ACAD_LAYOUT
350
1A
  3
ACAD_MLINESTYLE
350
17
  3
ACAD_PLOTSETTINGS
350
19
  3
ACAD_PLOTSTYLENAME
350
E
  3
ACAD_SCALELIST
350
494
  3
APPDATA
350
4D6
  3
DWGPROPS
350
4FD
  0
DICTIONARY
  5
D
102
{ACAD_REACTORS
330
C
102
}
330
C
100
AcDbDictionary
281
     1
  0
RASTERVARIABLES
  5
4D8
102
{ACAD_REACTORS
330
C
102
}
330
C
100
AcDbRasterVariables
 90
        0
 70
     1
 71
     1
 72
     1
  0
DICTIONARY
  5
1A
102
{ACAD_REACTORS
330
C
102
}
330
C
100
AcDbDictionary
281
     1
  3
Layout1
350
491
  3
Model
350
490
  0
DICTIONARY
  5
17
102
{ACAD_REACTORS
330
C
102
}
330
C
100
AcDbDictionary
281
     1
  3
Standard
350
18
  0
DICTIONARY
  5
19
102
{ACAD_REACTORS
330
C
102
}
330
C
100
AcDbDictionary
281
     1
  0
ACDBDICTIONARYWDFLT
  5
E
102
{ACAD_REACTORS
330
C
102
}
330
C
100
AcDbDictionary
281
     1
  3
Normal
350
F
100
AcDbDictionaryWithDefault
340
F
  0
DICTIONARY
  5
494
102
{ACAD_REACTORS
330
C
102
}
330
C
100
AcDbDictionary
281
     1
  3
A0
350
495
  3
A1
350
496
  3
A2
350
497
  3
A3
350
498
  3
A4
350
499
  3
A5
350
49A
  3
A6
350
49B
  3
A7
350
49C
  3
A8
350
49D
  3
A9
350
49E
  3
B0
350
49F
  3
B1
350
4A0
  3
B2
350
4A1
  3
B3
350
4A2
  3
B4
350
4A3
  3
B5
350
4A4
  3
B6
350
4A5
  3
B7
350
4A6
  3
B8
350
4A7
  3
B9
350
4A8
  3
C0
350
4A9
  3
C1
350
4AA
  3
C2
350
4AB
  3
C3
350
4AC
  3
C4
350
4AD
  3
C5
350
4AE
  3
C6
350
4AF
  3
C7
350
4B0
  3
C8
350
4B1
  3
C9
350
4B2
  3
D0
350
4B3
  3
D1
350
4B4
  3
D2
350
4B5
  0
DICTIONARY
  5
4D6
102
{ACAD_REACTORS
330
C
102
}
330
C
100
AcDbDictionary
281
     1
  0
XRECORD
  5
4FD
102
{ACAD_REACTORS
330
C
102
}
330
C
100
AcDbXrecord
280
     1
  1
DWGPROPS COOKIE
  2

  3

  4

  6

  7

  8
andrea.faggionato
  9

300
=
301
=
302
=
303
=
304
=
305
=
306
=
307
=
308
=
309
=
 40
0.0
 41
0.0
 42
2456749.393070254
  1

 90
        0
  0
LAYOUT
  5
491
102
{ACAD_REACTORS
330
1A
102
}
330
1A
100
AcDbPlotSettings
  1

  2
none_device
  4
ISO_A3_(420.00_x_297.00_MM)
  6

 40
0.0
 41
0.0
 42
0.0
 43
0.0
 44
420.0
 45
297.0
 46
0.0
 47
0.0
 48
0.0
 49
0.0
140
0.0
141
0.0
142
1.0
143
1.0
 70
     0
 72
     1
 73
     0
 74
     0
  7

 75
     0
147
1.0
148
0.0
149
0.0
100
AcDbLayout
  1
Layout1
 70
     0
 71
     1
 10
0.0
 20
0.0
 11
420.0
 21
297.0
 12
0.0
 22
0.0
 32
0.0
 14
0.0
 24
0.0
 34
0.0
 15
0.0
 25
0.0
 35
0.0
146
0.0
 13
0.0
 23
0.0
 33
0.0
 16
1.0
 26
0.0
 36
0.0
 17
0.0
 27
1.0
 37
0.0
 76
     0
330
22D
  0
LAYOUT
  5
490
102
{ACAD_REACTORS
330
1A
102
}
330
1A
100
AcDbPlotSettings
  1

  2
none_device
  4
ISO_A3_(420.00_x_297.00_MM)
  6

 40
0.0
 41
0.0
 42
0.0
 43
0.0
 44
420.0
 45
297.0
 46
0.0
 47
0.0
 48
0.0
 49
0.0
140
0.0
141
0.0
142
1.0
143
1.0
 70
  1024
 72
     1
 73
     0
 74
     0
  7

 75
     0
147
1.0
148
0.0
149
0.0
100
AcDbLayout
  1
Model
 70
     0
 71
     0
 10
0.0
 20
0.0
 11
420.0
 21
297.0
 12
0.0
 22
0.0
 32
0.0
 14
0.0
 24
0.0
 34
0.0
 15
0.0
 25
0.0
 35
0.0
146
0.0
 13
0.0
 23
0.0
 33
0.0
 16
1.0
 26
0.0
 36
0.0
 17
0.0
 27
1.0
 37
0.0
 76
     0
330
22C
331
1F4
  0
MLINESTYLE
  5
18
102
{ACAD_REACTORS
330
17
102
}
330
17
100
AcDbMlineStyle
  2
STANDARD
 70
     0
  3

 62
   256
 51
90.0
 52
90.0
 71
     2
 49
0.5
 62
   256
  6
BYLAYER
 49
-0.5
 62
   256
  6
BYLAYER
  0
ACDBPLACEHOLDER
  5
F
102
{ACAD_REACTORS
330
E
102
}
330
E
  0
SCALE
  5
495
102
{ACAD_REACTORS
330
494
102
}
330
494
100
AcDbScale
 70
     0
300
1:1
140
1.0
141
1.0
290
     1
  0
SCALE
  5
496
102
{ACAD_REACTORS
330
494
102
}
330
494
100
AcDbScale
 70
     0
300
1:2
140
1.0
141
2.0
290
     0
  0
SCALE
  5
497
102
{ACAD_REACTORS
330
494
102
}
330
494
100
AcDbScale
 70
     0
300
1:4
140
1.0
141
4.0
290
     0
  0
SCALE
  5
498
102
{ACAD_REACTORS
330
494
102
}
330
494
100
AcDbScale
 70
     0
300
1:5
140
1.0
141
5.0
290
     0
  0
SCALE
  5
499
102
{ACAD_REACTORS
330
494
102
}
330
494
100
AcDbScale
 70
     0
300
1:8
140
1.0
141
8.0
290
     0
  0
SCALE
  5
49A
102
{ACAD_REACTORS
330
494
102
}
330
494
100
AcDbScale
 70
     0
300
1:10
140
1.0
141
10.0
290
     0
  0
SCALE
  5
49B
102
{ACAD_REACTORS
330
494
102
}
330
494
100
AcDbScale
 70
     0
300
1:16
140
1.0
141
16.0
290
     0
  0
SCALE
  5
49C
102
{ACAD_REACTORS
330
494
102
}
330
494
100
AcDbScale
 70
     0
300
1:20
140
1.0
141
20.0
290
     0
  0
SCALE
  5
49D
102
{ACAD_REACTORS
330
494
102
}
330
494
100
AcDbScale
 70
     0
300
1:30
140
1.0
141
30.0
290
     0
  0
SCALE
  5
49E
102
{ACAD_REACTORS
330
494
102
}
330
494
100
AcDbScale
 70
     0
300
1:40
140
1.0
141
40.0
290
     0
  0
SCALE
  5
49F
102
{ACAD_REACTORS
330
494
102
}
330
494
100
AcDbScale
 70
     0
300
1:50
140
1.0
141
50.0
290
     0
  0
SCALE
  5
4A0
102
{ACAD_REACTORS
330
494
102
}
330
494
100
AcDbScale
 70
     0
300
1:100
140
1.0
141
100.0
290
     0
  0
SCALE
  5
4A1
102
{ACAD_REACTORS
330
494
102
}
330
494
100
AcDbScale
 70
     0
300
2:1
140
2.0
141
1.0
290
     0
  0
SCALE
  5
4A2
102
{ACAD_REACTORS
330
494
102
}
330
494
100
AcDbScale
 70
     0
300
4:1
140
4.0
141
1.0
290
     0
  0
SCALE
  5
4A3
102
{ACAD_REACTORS
330
494
102
}
330
494
100
AcDbScale
 70
     0
300
8:1
140
8.0
141
1.0
290
     0
  0
SCALE
  5
4A4
102
{ACAD_REACTORS
330
494
102
}
330
494
100
AcDbScale
 70
     0
300
10:1
140
10.0
141
1.0
290
     0
  0
SCALE
  5
4A5
102
{ACAD_REACTORS
330
494
102
}
330
494
100
AcDbScale
 70
     0
300
100:1
140
100.0
141
1.0
290
     0
  0
SCALE
  5
4A6
102
{ACAD_REACTORS
330
494
102
}
330
494
100
AcDbScale
 70
     0
300
1/128" = 1'-0"
140
0.0078125
141
12.0
290
     0
  0
SCALE
  5
4A7
102
{ACAD_REACTORS
330
494
102
}
330
494
100
AcDbScale
 70
     0
300
1/64" = 1'-0"
140
0.015625
141
12.0
290
     0
  0
SCALE
  5
4A8
102
{ACAD_REACTORS
330
494
102
}
330
494
100
AcDbScale
 70
     0
300
1/32" = 1'-0"
140
0.03125
141
12.0
290
     0
  0
SCALE
  5
4A9
102
{ACAD_REACTORS
330
494
102
}
330
494
100
AcDbScale
 70
     0
300
1/16" = 1'-0"
140
0.0625
141
12.0
290
     0
  0
SCALE
  5
4AA
102
{ACAD_REACTORS
330
494
102
}
330
494
100
AcDbScale
 70
     0
300
3/32" = 1'-0"
140
0.09375
141
12.0
290
     0
  0
SCALE
  5
4AB
102
{ACAD_REACTORS
330
494
102
}
330
494
100
AcDbScale
 70
     0
300
1/8" = 1'-0"
140
0.125
141
12.0
290
     0
  0
SCALE
  5
4AC
102
{ACAD_REACTORS
330
494
102
}
330
494
100
AcDbScale
 70
     0
300
3/16" = 1'-0"
140
0.1875
141
12.0
290
     0
  0
SCALE
  5
4AD
102
{ACAD_REACTORS
330
494
102
}
330
494
100
AcDbScale
 70
     0
300
1/4" = 1'-0"
140
0.25
141
12.0
290
     0
  0
SCALE
  5
4AE
102
{ACAD_REACTORS
330
494
102
}
330
494
100
AcDbScale
 70
     0
300
3/8" = 1'-0"
140
0.375
141
12.0
290
     0
  0
SCALE
  5
4AF
102
{ACAD_REACTORS
330
494
102
}
330
494
100
AcDbScale
 70
     0
300
1/2" = 1'-0"
140
0.5
141
12.0
290
     0
  0
SCALE
  5
4B0
102
{ACAD_REACTORS
330
494
102
}
330
494
100
AcDbScale
 70
     0
300
3/4" = 1'-0"
140
0.75
141
12.0
290
     0
  0
SCALE
  5
4B1
102
{ACAD_REACTORS
330
494
102
}
330
494
100
AcDbScale
 70
     0
300
1" = 1'-0"
140
1.0
141
12.0
290
     0
  0
SCALE
  5
4B2
102
{ACAD_REACTORS
330
494
102
}
330
494
100
AcDbScale
 70
     0
300
1-1/2" = 1'-0"
140
1.5
141
12.0
290
     0
  0
SCALE
  5
4B3
102
{ACAD_REACTORS
330
494
102
}
330
494
100
AcDbScale
 70
     0
300
3" = 1'-0"
140
3.0
141
12.0
290
     0
  0
SCALE
  5
4B4
102
{ACAD_REACTORS
330
494
102
}
330
494
100
AcDbScale
 70
     0
300
6" = 1'-0"
140
6.0
141
12.0
290
     0
  0
SCALE
  5
4B5
102
{ACAD_REACTORS
330
494
102
}
330
494
100
AcDbScale
 70
     0
300
1'-0" = 1'-0"
140
12.0
141
12.0
290
     0
  0
ENDSEC
  0
EOF
