999
DXF file: 3x0_c_030.dxf
999
Pro/ENGINEER 2016360 by Parametric Technology Corporation
  0
SECTION
  2
HEADER
  9
$ACADVER
  1
AC1014
  9
$DWGCODEPAGE
  3
ANSI_1252
  9
$EXTMAX
 10
841.0
 20
1189.0
 30
0.0
  9
$EXTMIN
 10
0.0
 20
0.0
 30
0.0
  9
$LIMMIN
 10
0.0
 20
0.0
  9
$LIMMAX
 10
841.0
 20
1189.0
  9
$VIEWCTR
 10
420.5
 20
594.5
  9
$VIEWSIZE
 40
1189.0
  9
$CLAYER
  8
0
  9
$LTSCALE
 40
77.5051851852
  9
$CELTYPE
  6
BYLAYER
  9
$DIMSCALE
 40
1.0
  9
$DIMASZ
 40
2.5
  9
$DIMEXO
 40
0.75
  9
$DIMDLI
 40
53.549037037
  9
$DIMEXE
 40
0.75
  9
$DIMCEN
 40
12.6826666667
  9
$DIMLFAC
 40
1.0
  9
$DIMBLK
  1
_CLOSED
  9
$DIMALT
 70
0
  9
$DIMALTF
 40
25.4
  9
$DIMTXT
 40
3.0
  9
$DIMTOL
 70
1
  9
$DIMLIM
 70
0
  9
$DIMTFAC
 40
1.0
  9
$DIMTP
 40
0.01
  9
$DIMTM
 40
0.01
  9
$DIMGAP
 40
0.625
  9
$AUNITS
 70
0
  9
$PDMODE
 70
3
  9
$PDSIZE
 40
0.3125
  9
$HANDSEED
  5
31D
  9
$TILEMODE
 70
1
  9
$MEASUREMENT
 70
1
  0
ENDSEC
  0
SECTION
  2
CLASSES
  0
ENDSEC
  0
SECTION
  2
TABLES
  0
TABLE
  2
VPORT
  5
8
100
AcDbSymbolTable
 70
2
  0
VPORT
  5
1F4
100
AcDbSymbolTableRecord
100
AcDbViewportTableRecord
  2
*ACTIVE
 70
0
 10
0.0
 20
0.0
 11
1.0
 21
1.0
 12
420.5
 22
594.5
 13
0.0
 23
0.0
 14
1.0
 24
1.0
 15
0.0
 25
0.0
 16
0.0
 26
0.0
 36
1.0
 17
0.0
 27
0.0
 37
0.0
 40
1189.0
 41
0.7073170732
 42
50.0
 43
0.0
 44
0.0
 50
0.0
 51
0.0
 71
0
 72
100
 73
1
 74
1
 75
0
 76
0
 77
0
 78
0
  0
ENDTAB
  0
TABLE
  2
LTYPE
  5
5
100
AcDbSymbolTable
 70
6
  0
LTYPE
  5
14
100
AcDbSymbolTableRecord
100
AcDbLinetypeTableRecord
  2
BYBLOCK
 70
0
  3

 72
65
 73
0
 40
0.0
  0
LTYPE
  5
15
100
AcDbSymbolTableRecord
100
AcDbLinetypeTableRecord
  2
BYLAYER
 70
0
  3

 72
65
 73
0
 40
0.0
  0
LTYPE
  5
16
100
AcDbSymbolTableRecord
100
AcDbLinetypeTableRecord
  2
CONTINUOUS
 70
64
  3
Solid line
 72
65
 73
0
 40
0.0
  0
LTYPE
  5
1F5
100
AcDbSymbolTableRecord
100
AcDbLinetypeTableRecord
  2
CENTER
 70
64
  3
____ _ ____ _ ____ _ ____ _ ____ _ ____ _ ____
 72
65
 73
4
 40
0.6
 49
0.375
 74
0
 49
-0.075
 74
0
 49
0.075
 74
0
 49
-0.075
 74
0
  0
LTYPE
  5
1F6
100
AcDbSymbolTableRecord
100
AcDbLinetypeTableRecord
  2
HIDDEN
 70
64
  3
- - - - - - - - - - - - - - - - - - - -
 72
65
 73
2
 40
0.2
 49
0.1
 74
0
 49
-0.1
 74
0
  0
LTYPE
  5
1F7
100
AcDbSymbolTableRecord
100
AcDbLinetypeTableRecord
  2
PHANTOM
 70
64
  3
_____ _ _ _____ _ _ _____ _ _ _____
 72
65
 73
6
 40
0.8
 49
0.45
 74
0
 49
-0.05
 74
0
 49
0.1
 74
0
 49
-0.05
 74
0
 49
0.1
 74
0
 49
-0.05
 74
0
  0
LTYPE
  5
1F8
100
AcDbSymbolTableRecord
100
AcDbLinetypeTableRecord
  2
DOT
 70
64
  3
. . . . . . . . . . . . . . . . . . . .
 72
65
 73
2
 40
0.2
 49
0.1
 74
0
 49
-0.1
 74
0
  0
LTYPE
  5
1F9
100
AcDbSymbolTableRecord
100
AcDbLinetypeTableRecord
  2
DASHED
 70
64
  3
- - - - - - - - - - - - - - - - - - - -
 72
65
 73
2
 40
0.2
 49
0.1
 74
0
 49
-0.1
 74
0
  0
ENDTAB
  0
TABLE
  2
LAYER
  5
2
100
AcDbSymbolTable
 70
36
  0
LAYER
  5
10
100
AcDbSymbolTableRecord
100
AcDbLayerTableRecord
  2
0
 70
0
 62
7
  6
CONTINUOUS
  0
LAYER
  5
1FA
100
AcDbSymbolTableRecord
100
AcDbLayerTableRecord
  2
DEFAULT_1
 70
0
 62
7
  6
CENTER
  0
LAYER
  5
1FB
100
AcDbSymbolTableRecord
100
AcDbLayerTableRecord
  2
DEFAULT_2
 70
0
 62
8
  6
HIDDEN
  0
LAYER
  5
1FC
100
AcDbSymbolTableRecord
100
AcDbLayerTableRecord
  2
DEFAULT_3
 70
0
 62
7
  6
PHANTOM
  0
LAYER
  5
1FD
100
AcDbSymbolTableRecord
100
AcDbLayerTableRecord
  2
01_ALL_DTM_PLN
 70
0
 62
7
  6
CONTINUOUS
  0
LAYER
  5
1FE
100
AcDbSymbolTableRecord
100
AcDbLayerTableRecord
  2
01__ASM_ALL_DTM_PLN
 70
0
 62
7
  6
CONTINUOUS
  0
LAYER
  5
1FF
100
AcDbSymbolTableRecord
100
AcDbLayerTableRecord
  2
01__ASM_DEF_DTM_PLN
 70
0
 62
7
  6
CONTINUOUS
  0
LAYER
  5
200
100
AcDbSymbolTableRecord
100
AcDbLayerTableRecord
  2
01___PRT_ALL_DTM_PLN
 70
0
 62
7
  6
CONTINUOUS
  0
LAYER
  5
201
100
AcDbSymbolTableRecord
100
AcDbLayerTableRecord
  2
01___PRT_DEF_DTM_PLN
 70
0
 62
7
  6
CONTINUOUS
  0
LAYER
  5
202
100
AcDbSymbolTableRecord
100
AcDbLayerTableRecord
  2
02_ALL_AXES
 70
0
 62
7
  6
CONTINUOUS
  0
LAYER
  5
203
100
AcDbSymbolTableRecord
100
AcDbLayerTableRecord
  2
02__ASM_ALL_AXES
 70
0
 62
7
  6
CONTINUOUS
  0
LAYER
  5
204
100
AcDbSymbolTableRecord
100
AcDbLayerTableRecord
  2
02___PRT_ALL_AXES
 70
0
 62
7
  6
CONTINUOUS
  0
LAYER
  5
205
100
AcDbSymbolTableRecord
100
AcDbLayerTableRecord
  2
03_ALL_CURVES
 70
0
 62
7
  6
CONTINUOUS
  0
LAYER
  5
206
100
AcDbSymbolTableRecord
100
AcDbLayerTableRecord
  2
03__ASM_ALL_CURVES
 70
0
 62
7
  6
CONTINUOUS
  0
LAYER
  5
207
100
AcDbSymbolTableRecord
100
AcDbLayerTableRecord
  2
03___PRT_ALL_CURVES
 70
0
 62
7
  6
CONTINUOUS
  0
LAYER
  5
208
100
AcDbSymbolTableRecord
100
AcDbLayerTableRecord
  2
04_ALL_DTM_PNT
 70
0
 62
7
  6
CONTINUOUS
  0
LAYER
  5
209
100
AcDbSymbolTableRecord
100
AcDbLayerTableRecord
  2
04__ASM_ALL_DTM_PNT
 70
0
 62
7
  6
CONTINUOUS
  0
LAYER
  5
20A
100
AcDbSymbolTableRecord
100
AcDbLayerTableRecord
  2
04___PRT_ALL_DTM_PNT
 70
0
 62
7
  6
CONTINUOUS
  0
LAYER
  5
20B
100
AcDbSymbolTableRecord
100
AcDbLayerTableRecord
  2
05_ALL_DTM_CSYS
 70
0
 62
7
  6
CONTINUOUS
  0
LAYER
  5
20C
100
AcDbSymbolTableRecord
100
AcDbLayerTableRecord
  2
05__ASM_ALL_DTM_CSYS
 70
0
 62
7
  6
CONTINUOUS
  0
LAYER
  5
20D
100
AcDbSymbolTableRecord
100
AcDbLayerTableRecord
  2
05__ASM_DEF_DTM_CSYS
 70
0
 62
7
  6
CONTINUOUS
  0
LAYER
  5
20E
100
AcDbSymbolTableRecord
100
AcDbLayerTableRecord
  2
05___PRT_ALL_DTM_CSYS
 70
0
 62
7
  6
CONTINUOUS
  0
LAYER
  5
20F
100
AcDbSymbolTableRecord
100
AcDbLayerTableRecord
  2
05___PRT_DEF_DTM_CSYS
 70
0
 62
7
  6
CONTINUOUS
  0
LAYER
  5
210
100
AcDbSymbolTableRecord
100
AcDbLayerTableRecord
  2
06_ALL_SURFS
 70
0
 62
7
  6
CONTINUOUS
  0
LAYER
  5
211
100
AcDbSymbolTableRecord
100
AcDbLayerTableRecord
  2
06__ASM_ALL_SURFS
 70
0
 62
7
  6
CONTINUOUS
  0
LAYER
  5
212
100
AcDbSymbolTableRecord
100
AcDbLayerTableRecord
  2
06___PRT_ALL_SURFS
 70
0
 62
7
  6
CONTINUOUS
  0
LAYER
  5
213
100
AcDbSymbolTableRecord
100
AcDbLayerTableRecord
  2
07__ASM_ALL_SKELETONS
 70
0
 62
7
  6
CONTINUOUS
  0
LAYER
  5
214
100
AcDbSymbolTableRecord
100
AcDbLayerTableRecord
  2
1_ALL_PLANES
 70
0
 62
7
  6
CONTINUOUS
  0
LAYER
  5
215
100
AcDbSymbolTableRecord
100
AcDbLayerTableRecord
  2
2_ALL_CSYS
 70
0
 62
7
  6
CONTINUOUS
  0
LAYER
  5
216
100
AcDbSymbolTableRecord
100
AcDbLayerTableRecord
  2
3_ALL_AXES
 70
0
 62
7
  6
CONTINUOUS
  0
LAYER
  5
217
100
AcDbSymbolTableRecord
100
AcDbLayerTableRecord
  2
4_ALL_POINTS
 70
0
 62
7
  6
CONTINUOUS
  0
LAYER
  5
218
100
AcDbSymbolTableRecord
100
AcDbLayerTableRecord
  2
5_ALL_CURVES
 70
0
 62
7
  6
CONTINUOUS
  0
LAYER
  5
219
100
AcDbSymbolTableRecord
100
AcDbLayerTableRecord
  2
5__COSTRUZIONE
 70
0
 62
7
  6
CONTINUOUS
  0
LAYER
  5
21A
100
AcDbSymbolTableRecord
100
AcDbLayerTableRecord
  2
6_ALL_SURFS
 70
0
 62
7
  6
CONTINUOUS
  0
LAYER
  5
21B
100
AcDbSymbolTableRecord
100
AcDbLayerTableRecord
  2
7_ALL_FEATURES
 70
0
 62
7
  6
CONTINUOUS
  0
LAYER
  5
21C
100
AcDbSymbolTableRecord
100
AcDbLayerTableRecord
  2
9_SOLID
 70
0
 62
7
  6
CONTINUOUS
  0
LAYER
  5
21D
100
AcDbSymbolTableRecord
100
AcDbLayerTableRecord
  2
INTFCLR_2
 70
0
 62
7
  6
CONTINUOUS
  0
LAYER
  5
21E
100
AcDbSymbolTableRecord
100
AcDbLayerTableRecord
  2
LIVELLO_1
 70
0
 62
7
  6
CONTINUOUS
  0
LAYER
  5
21F
100
AcDbSymbolTableRecord
100
AcDbLayerTableRecord
  2
WHITE
 70
0
 62
7
  6
CONTINUOUS
  0
LAYER
  5
220
100
AcDbSymbolTableRecord
100
AcDbLayerTableRecord
  2
XXX_SOLIDO
 70
0
 62
7
  6
CONTINUOUS
  0
ENDTAB
  0
TABLE
  2
STYLE
  5
3
100
AcDbSymbolTable
 70
1
  0
STYLE
  5
11
100
AcDbSymbolTableRecord
100
AcDbTextStyleTableRecord
  2
STANDARD
 70
0
 40
0.0
 41
1.0
 50
0.0
 71
0
 42
0.2
  3
arial.ttf
  4

  0
STYLE
  5
221
100
AcDbSymbolTableRecord
100
AcDbTextStyleTableRecord
  2
TEXTSTYLE_1
 70
0
 40
0.0
 41
0.8
 50
0.0
 71
0
 42
0.2
  3
gdt
  4

  0
STYLE
  5
222
100
AcDbSymbolTableRecord
100
AcDbTextStyleTableRecord
  2
TEXTSTYLE_2
 70
0
 40
0.0
 41
0.85
 50
0.0
 71
0
 42
0.2
  3
gdt
  4

  0
STYLE
  5
223
100
AcDbSymbolTableRecord
100
AcDbTextStyleTableRecord
  2
TEXTSTYLE_3
 70
0
 40
0.0
 41
0.85
 50
0.0
 71
0
 42
0.2
  3
txt
  4

  0
ENDTAB
  0
TABLE
  2
VIEW
  5
6
100
AcDbSymbolTable
 70
0
  0
ENDTAB
  0
TABLE
  2
UCS
  5
7
100
AcDbSymbolTable
 70
0
  0
ENDTAB
  0
TABLE
  2
APPID
  5
9
100
AcDbSymbolTable
 70
1
  0
APPID
  5
224
100
AcDbSymbolTableRecord
100
AcDbRegAppTableRecord
  2
ACAD
 70
0
  0
ENDTAB
  0
TABLE
  2
BLOCK_RECORD
  5
1
100
AcDbSymbolTable
 70
0
  0
BLOCK_RECORD
  5
1F
100
AcDbSymbolTableRecord
100
AcDbBlockTableRecord
  2
*MODEL_SPACE
  0
BLOCK_RECORD
  5
1B
100
AcDbSymbolTableRecord
100
AcDbBlockTableRecord
  2
*PAPER_SPACE
  0
BLOCK_RECORD
  5
225
100
AcDbSymbolTableRecord
100
AcDbBlockTableRecord
  2
_CLOSED
  0
BLOCK_RECORD
  5
226
100
AcDbSymbolTableRecord
100
AcDbBlockTableRecord
  2
*D0
  0
BLOCK_RECORD
  5
227
100
AcDbSymbolTableRecord
100
AcDbBlockTableRecord
  2
*D1
  0
BLOCK_RECORD
  5
228
100
AcDbSymbolTableRecord
100
AcDbBlockTableRecord
  2
*D2
  0
BLOCK_RECORD
  5
229
100
AcDbSymbolTableRecord
100
AcDbBlockTableRecord
  2
LOGO2_BL0
  0
ENDTAB
  0
TABLE
  2
DIMSTYLE
  5
A
100
AcDbSymbolTable
 70
1
  0
DIMSTYLE
105
22A
100
AcDbSymbolTableRecord
100
AcDbDimStyleTableRecord
  2
STANDARD
 70
0
  3

  4

  5
_CLOSED
  6
_CLOSED
  7
_CLOSED
 40
1.0
 41
2.5
 42
0.75
 43
0.38
 44
0.75
 45
0.0
 46
0.0
 47
0.01
 48
0.01
140
3.0
141
0.09
142
0.0
143
25.4
144
1.0
145
0.0
146
1.0
147
0.625
 71
1.0
 72
0.0
 73
0
 74
0
 75
0
 76
0
 77
1
 78
8
 79
2
170
0
171
1
172
0
173
0
174
0
175
0
176
0
177
0
178
0
270
2
179
2
271
2
272
2
273
2
274
2
275
0
280
0
281
0
282
0
283
1
284
8
285
0
286
0
287
3
288
0
340
11
  0
DIMSTYLE
105
22B
100
AcDbSymbolTableRecord
100
AcDbDimStyleTableRecord
  2
DIMSTYLE_1
 70
0
  3

  4

  5
_CLOSED
  6
_CLOSED
  7
_CLOSED
 40
1.0
 41
2.5
 42
0.75
 43
0.38
 44
0.75
 45
0.0
 46
0.0
 47
0.8
 48
0.8
140
3.0
141
0.09
142
0.0
143
25.4
144
1.0
145
0.0
146
1.0
147
0.75
 71
0.0
 72
0.0
 73
0
 74
0
 75
0
 76
0
 77
1
 78
8
 79
2
170
0
171
1
172
0
173
0
174
0
175
0
176
0
177
0
178
0
270
2
179
2
271
2
272
2
273
2
274
2
275
0
280
0
281
0
282
0
283
1
284
8
285
0
286
0
287
3
288
0
340
11
  0
DIMSTYLE
105
22C
100
AcDbSymbolTableRecord
100
AcDbDimStyleTableRecord
  2
DIMSTYLE_2
 70
0
  3
<>
  4

  5
_CLOSED
  6
_CLOSED
  7
_CLOSED
 40
1.0
 41
2.5
 42
0.75
 43
0.38
 44
0.75
 45
0.0
 46
0.0
 47
0.5
 48
0.5
140
3.0
141
0.09
142
0.0
143
25.4
144
1.0
145
0.0
146
1.0
147
0.625
 71
0.0
 72
0.0
 73
0
 74
0
 75
0
 76
0
 77
1
 78
8
 79
2
170
0
171
1
172
1
173
0
174
0
175
0
176
0
177
0
178
0
270
2
179
2
271
2
272
2
273
2
274
2
275
0
280
0
281
0
282
0
283
1
284
8
285
0
286
0
287
3
288
1
340
11
  0
DIMSTYLE
105
22D
100
AcDbSymbolTableRecord
100
AcDbDimStyleTableRecord
  2
DIMSTYLE_3
 70
0
  3

  4

  5
_CLOSED
  6
_CLOSED
  7
_CLOSED
 40
1.0
 41
2.5
 42
0.75
 43
0.38
 44
0.75
 45
0.0
 46
0.0
 47
0.3
 48
0.3
140
3.0
141
0.09
142
0.0
143
25.4
144
1.0
145
0.0
146
1.0
147
0.75
 71
0.0
 72
0.0
 73
0
 74
0
 75
0
 76
0
 77
1
 78
8
 79
2
170
0
171
1
172
0
173
0
174
0
175
0
176
0
177
0
178
0
270
2
179
2
271
2
272
2
273
2
274
2
275
0
280
0
281
0
282
0
283
1
284
8
285
0
286
0
287
3
288
0
340
11
  0
ENDTAB
  0
ENDSEC
  0
SECTION
  2
BLOCKS
  0
BLOCK
  5
20
100
AcDbEntity
  8
0
100
AcDbBlockBegin
  2
*MODEL_SPACE
 70
0
 10
0.0
 20
0.0
 30
0.0
  3
*MODEL_SPACE
  1

  0
ENDBLK
  5
21
100
AcDbEntity
  8
0
100
AcDbBlockEnd
  0
BLOCK
  5
1C
100
AcDbEntity
  8
0
100
AcDbBlockBegin
  2
*PAPER_SPACE
 70
0
 10
0.0
 20
0.0
 30
0.0
  3
*PAPER_SPACE
  1

  0
ENDBLK
  5
1D
100
AcDbEntity
  8
0
100
AcDbBlockEnd
  0
BLOCK
  5
22E
100
AcDbEntity
  8
0
100
AcDbBlockBegin
 62
2
  6
CONTINUOUS
  2
LOGO2_BL0
 70
64
 10
753.731072936
 20
39.0120455435
  3
LOGO2_BL0
  1

  0
LINE
  5
22F
100
AcDbEntity
  8
0
100
AcDbLine
 62
7
  6
CONTINUOUS
 10
745.4739981643
 20
42.2075368823
 11
744.1696572349
 21
42.2075368823
  0
LINE
  5
230
100
AcDbEntity
  8
0
100
AcDbLine
 62
7
  6
CONTINUOUS
 10
744.1696572349
 20
42.2075368823
 11
744.1696572349
 21
31.7484708225
  0
LINE
  5
231
100
AcDbEntity
  8
0
100
AcDbLine
 62
7
  6
CONTINUOUS
 10
744.1696572349
 20
31.7484708225
 11
748.6507121232
 21
31.7484708225
  0
LINE
  5
232
100
AcDbEntity
  8
0
100
AcDbLine
 62
7
  6
CONTINUOUS
 10
748.6507121232
 20
31.7484708225
 11
748.6507121232
 21
32.9413251475
  0
LINE
  5
233
100
AcDbEntity
  8
0
100
AcDbLine
 62
7
  6
CONTINUOUS
 10
748.6507121232
 20
32.9413251475
 11
745.4739981643
 21
32.9413251475
  0
LINE
  5
234
100
AcDbEntity
  8
0
100
AcDbLine
 62
7
  6
CONTINUOUS
 10
745.4739981643
 20
32.9413251475
 11
745.4739981643
 21
42.2075368823
  0
LINE
  5
235
100
AcDbEntity
  8
0
100
AcDbLine
 62
7
  6
CONTINUOUS
 10
760.4103243806
 20
42.2075368823
 11
759.1065068625
 21
42.2075368823
  0
LINE
  5
236
100
AcDbEntity
  8
0
100
AcDbLine
 62
7
  6
CONTINUOUS
 10
759.1065068625
 20
42.2075368823
 11
759.1065068625
 21
31.7484708225
  0
LINE
  5
237
100
AcDbEntity
  8
0
100
AcDbLine
 62
7
  6
CONTINUOUS
 10
759.1065068625
 20
31.7484708225
 11
763.5876926036
 21
31.7484708225
  0
LINE
  5
238
100
AcDbEntity
  8
0
100
AcDbLine
 62
7
  6
CONTINUOUS
 10
763.5876926036
 20
31.7484708225
 11
763.5876926036
 21
32.9413251475
  0
LINE
  5
239
100
AcDbEntity
  8
0
100
AcDbLine
 62
7
  6
CONTINUOUS
 10
763.5876926036
 20
32.9413251475
 11
760.4103243806
 21
32.9413251475
  0
LINE
  5
23A
100
AcDbEntity
  8
0
100
AcDbLine
 62
7
  6
CONTINUOUS
 10
760.4103243806
 20
32.9413251475
 11
760.4103243806
 21
42.2075368823
  0
LWPOLYLINE
  5
23B
100
AcDbEntity
  8
0
100
AcDbPolyline
 62
7
  6
CONTINUOUS
 90
2
 70
0
 43
0.2
 10
742.5240521458
 20
28.4049195155
 10
742.5240521458
 20
26.5478562662
  0
LWPOLYLINE
  5
23C
100
AcDbEntity
  8
0
100
AcDbPolyline
 62
7
  6
CONTINUOUS
 90
2
 70
0
 43
0.2
 10
742.5240521458
 20
26.5478562662
 10
743.3197681562
 20
26.5478562662
  0
LWPOLYLINE
  5
23D
100
AcDbEntity
  8
0
100
AcDbPolyline
 62
7
  6
CONTINUOUS
 90
2
 70
0
 43
0.2
 10
743.3197681562
 20
26.5478562662
 10
743.3197681562
 20
26.7598378378
  0
LWPOLYLINE
  5
23E
100
AcDbEntity
  8
0
100
AcDbPolyline
 62
7
  6
CONTINUOUS
 90
2
 70
0
 43
0.2
 10
743.3197681562
 20
26.7598378378
 10
742.7556616407
 20
26.7598378378
  0
LWPOLYLINE
  5
23F
100
AcDbEntity
  8
0
100
AcDbPolyline
 62
7
  6
CONTINUOUS
 90
2
 70
0
 43
0.2
 10
742.7556616407
 20
26.7598378378
 10
742.7556616407
 20
28.4049195155
  0
LWPOLYLINE
  5
240
100
AcDbEntity
  8
0
100
AcDbPolyline
 62
7
  6
CONTINUOUS
 90
2
 70
0
 43
0.2
 10
742.7556616407
 20
28.4049195155
 10
742.5240521458
 20
28.4049195155
  0
SPLINE
  5
241
100
AcDbEntity
  8
0
100
AcDbSpline
 62
7
  6
CONTINUOUS
 70
2
 71
3
 72
35
 73
31
 74
0
 42
0.0000001
 43
0.0000001
 44
0.0000000001
 40
0.0
 40
0.0
 40
0.0
 40
0.0
 40
1.0
 40
1.0
 40
1.0
 40
2.0
 40
2.0
 40
2.0
 40
3.0
 40
3.0
 40
3.0
 40
4.0
 40
4.0
 40
4.0
 40
5.0
 40
5.0
 40
5.0
 40
6.0
 40
6.0
 40
6.0
 40
7.0
 40
7.0
 40
7.0
 40
8.0
 40
8.0
 40
8.0
 40
9.0
 40
9.0
 40
9.0
 40
10.0
 40
10.0
 40
10.0
 40
10.0
 10
744.7180614117
 20
27.7004079221
 30
0.0
 10
744.7180614117
 20
27.7004079221
 30
0.0
 10
744.7180614117
 20
27.0382926429
 30
0.0
 10
744.7180614117
 20
27.0382926429
 30
0.0
 10
744.7180614117
 20
26.7231990476
 30
0.0
 10
744.8659251006
 20
26.5086004196
 30
0.0
 10
745.2060115849
 20
26.5086004196
 30
0.0
 10
745.5455746579
 20
26.5086004196
 30
0.0
 10
745.6937000523
 20
26.7231990476
 30
0.0
 10
745.6937000523
 20
27.0382926429
 30
0.0
 10
745.6937000523
 20
27.0382926429
 30
0.0
 10
745.6937000523
 20
27.7004079221
 30
0.0
 10
745.6937000523
 20
27.7004079221
 30
0.0
 10
745.6937000523
 20
27.7004079221
 30
0.0
 10
745.4716428135
 20
27.7004079221
 30
0.0
 10
745.4716428135
 20
27.7004079221
 30
0.0
 10
745.4716428135
 20
27.7004079221
 30
0.0
 10
745.4716428135
 20
27.0634163847
 30
0.0
 10
745.4716428135
 20
27.0634163847
 30
0.0
 10
745.4716428135
 20
26.8776053775
 30
0.0
 10
745.424928356
 20
26.714824467
 30
0.0
 10
745.2060115849
 20
26.714824467
 30
0.0
 10
744.9865714024
 20
26.714824467
 30
0.0
 10
744.939856945
 20
26.8776053775
 30
0.0
 10
744.939856945
 20
27.0634163847
 30
0.0
 10
744.939856945
 20
27.0634163847
 30
0.0
 10
744.939856945
 20
27.7004079221
 30
0.0
 10
744.939856945
 20
27.7004079221
 30
0.0
 10
744.939856945
 20
27.7004079221
 30
0.0
 10
744.7180614117
 20
27.7004079221
 30
0.0
 10
744.7180614117
 20
27.7004079221
 30
0.0
  0
SPLINE
  5
242
100
AcDbEntity
  8
0
100
AcDbSpline
 62
7
  6
CONTINUOUS
 70
2
 71
3
 72
35
 73
31
 74
0
 42
0.0000001
 43
0.0000001
 44
0.0000000001
 40
0.0
 40
0.0
 40
0.0
 40
0.0
 40
1.0
 40
1.0
 40
1.0
 40
2.0
 40
2.0
 40
2.0
 40
3.0
 40
3.0
 40
3.0
 40
4.0
 40
4.0
 40
4.0
 40
5.0
 40
5.0
 40
5.0
 40
6.0
 40
6.0
 40
6.0
 40
7.0
 40
7.0
 40
7.0
 40
8.0
 40
8.0
 40
8.0
 40
9.0
 40
9.0
 40
9.0
 40
10.0
 40
10.0
 40
10.0
 40
10.0
 10
748.1168326095
 20
27.6590584303
 30
0.0
 10
748.0283761019
 20
27.7103527365
 30
0.0
 10
747.9149267052
 20
27.7354764784
 30
0.0
 10
747.8112912702
 20
27.7354764784
 30
0.0
 10
747.4564184171
 20
27.7354764784
 30
0.0
 10
747.1809732268
 20
27.4716771893
 30
0.0
 10
747.1809732268
 20
27.1141872797
 30
0.0
 10
747.1809732268
 20
26.769259241
 30
0.0
 10
747.459428032
 20
26.5091238309
 30
0.0
 10
747.798991105
 20
26.5091238309
 30
0.0
 10
747.9149267052
 20
26.5091238309
 30
0.0
 10
748.0156833781
 20
26.531107105
 30
0.0
 10
748.1168326095
 20
26.5850184676
 30
0.0
 10
748.1168326095
 20
26.5850184676
 30
0.0
 10
748.1168326095
 20
26.8676605631
 30
0.0
 10
748.1168326095
 20
26.8676605631
 30
0.0
 10
748.0329559506
 20
26.7744933538
 30
0.0
 10
747.9294513685
 20
26.7153478783
 30
0.0
 10
747.8013464558
 20
26.7153478783
 30
0.0
 10
747.5676433157
 20
26.7153478783
 30
0.0
 10
747.4023762016
 20
26.887550192
 30
0.0
 10
747.4023762016
 20
27.1241320941
 30
0.0
 10
747.4023762016
 20
27.3361136657
 30
0.0
 10
747.5701295193
 20
27.5282056084
 30
0.0
 10
747.7869526453
 20
27.5282056084
 30
0.0
 10
747.9197682596
 20
27.5282056084
 30
0.0
 10
748.0283761019
 20
27.4742942457
 30
0.0
 10
748.1168326095
 20
27.3732758672
 30
0.0
 10
748.1168326095
 20
27.3732758672
 30
0.0
 10
748.1168326095
 20
27.6590584303
 30
0.0
 10
748.1168326095
 20
27.6590584303
 30
0.0
  0
SPLINE
  5
243
100
AcDbEntity
  8
0
100
AcDbSpline
 62
7
  6
CONTINUOUS
 70
2
 71
3
 72
32
 73
28
 74
0
 42
0.0000001
 43
0.0000001
 44
0.0000000001
 40
0.0
 40
0.0
 40
0.0
 40
0.0
 40
1.0
 40
1.0
 40
1.0
 40
2.0
 40
2.0
 40
2.0
 40
3.0
 40
3.0
 40
3.0
 40
4.0
 40
4.0
 40
4.0
 40
5.0
 40
5.0
 40
5.0
 40
6.0
 40
6.0
 40
6.0
 40
7.0
 40
7.0
 40
7.0
 40
8.0
 40
8.0
 40
8.0
 40
9.0
 40
9.0
 40
9.0
 40
9.0
 10
750.6487038618
 20
27.087493304
 30
0.0
 10
750.6487038618
 20
27.087493304
 30
0.0
 10
750.6487038618
 20
27.1215150377
 30
0.0
 10
750.6487038618
 20
27.1215150377
 30
0.0
 10
750.6487038618
 20
27.46382602
 30
0.0
 10
750.475847284
 20
27.7354764784
 30
0.0
 10
750.1091976768
 20
27.7354764784
 30
0.0
 10
749.7375756624
 20
27.7354764784
 30
0.0
 10
749.5478390706
 20
27.4690601328
 30
0.0
 10
749.5478390706
 20
27.1141872797
 30
0.0
 10
749.5478390706
 20
26.7744933538
 30
0.0
 10
749.7619142873
 20
26.5086004196
 30
0.0
 10
750.1140392312
 20
26.5086004196
 30
0.0
 10
750.3380592624
 20
26.5086004196
 30
0.0
 10
750.5402268724
 20
26.6242743142
 30
0.0
 10
750.6487038618
 20
26.8236940149
 30
0.0
 10
750.6487038618
 20
26.8236940149
 30
0.0
 10
750.4610609151
 20
26.9304699176
 30
0.0
 10
750.4610609151
 20
26.9304699176
 30
0.0
 10
750.3775768147
 20
26.7917659263
 30
0.0
 10
750.2863723978
 20
26.7059264751
 30
0.0
 10
750.1167871405
 20
26.7059264751
 30
0.0
 10
749.9048055689
 20
26.7059264751
 30
0.0
 10
749.7718591018
 20
26.8906906597
 30
0.0
 10
749.769503751
 20
27.087493304
 30
0.0
 10
749.769503751
 20
27.087493304
 30
0.0
 10
750.6487038618
 20
27.087493304
 30
0.0
 10
750.6487038618
 20
27.087493304
 30
0.0
  0
SPLINE
  5
244
100
AcDbEntity
  8
0
100
AcDbSpline
 62
7
  6
CONTINUOUS
 70
2
 71
3
 72
14
 73
10
 74
0
 42
0.0000001
 43
0.0000001
 44
0.0000000001
 40
0.0
 40
0.0
 40
0.0
 40
0.0
 40
1.0
 40
1.0
 40
1.0
 40
2.0
 40
2.0
 40
2.0
 40
3.0
 40
3.0
 40
3.0
 40
3.0
 10
749.7815422106
 20
27.2549849161
 30
0.0
 10
749.809152156
 20
27.4198594718
 30
0.0
 10
749.9369953631
 20
27.5428611244
 30
0.0
 10
750.1091976768
 20
27.5428611244
 30
0.0
 10
750.2863723978
 20
27.5428611244
 30
0.0
 10
750.3998217944
 20
27.4271872298
 30
0.0
 10
750.4270391814
 20
27.2549849161
 30
0.0
 10
750.4270391814
 20
27.2549849161
 30
0.0
 10
749.7815422106
 20
27.2549849161
 30
0.0
 10
749.7815422106
 20
27.2549849161
 30
0.0
  0
SPLINE
  5
245
100
AcDbEntity
  8
0
100
AcDbSpline
 62
7
  6
CONTINUOUS
 70
2
 71
3
 72
20
 73
16
 74
0
 42
0.0000001
 43
0.0000001
 44
0.0000000001
 40
0.0
 40
0.0
 40
0.0
 40
0.0
 40
1.0
 40
1.0
 40
1.0
 40
2.0
 40
2.0
 40
2.0
 40
3.0
 40
3.0
 40
3.0
 40
4.0
 40
4.0
 40
4.0
 40
5.0
 40
5.0
 40
5.0
 40
5.0
 10
752.672735312
 20
27.4643494312
 30
0.0
 10
752.672735312
 20
27.4643494312
 30
0.0
 10
753.0838748786
 20
26.9618745949
 30
0.0
 10
753.0838748786
 20
26.9618745949
 30
0.0
 10
752.9678084255
 20
26.8462007003
 30
0.0
 10
752.830020404
 20
26.7158712896
 30
0.0
 10
752.6580797959
 20
26.7158712896
 30
0.0
 10
752.4806433693
 20
26.7158712896
 30
0.0
 10
752.3131517572
 20
26.880222434
 30
0.0
 10
752.3131517572
 20
27.0571354493
 30
0.0
 10
752.3131517572
 20
27.2350952872
 30
0.0
 10
752.5229088308
 20
27.3612374075
 30
0.0
 10
752.6504903322
 20
27.4491705039
 30
0.0
 10
752.6504903322
 20
27.4491705039
 30
0.0
 10
752.672735312
 20
27.4643494312
 30
0.0
 10
752.672735312
 20
27.4643494312
 30
0.0
  0
SPLINE
  5
246
100
AcDbEntity
  8
0
100
AcDbSpline
 62
7
  6
CONTINUOUS
 70
2
 71
3
 72
23
 73
19
 74
0
 42
0.0000001
 43
0.0000001
 44
0.0000000001
 40
0.0
 40
0.0
 40
0.0
 40
0.0
 40
1.0
 40
1.0
 40
1.0
 40
2.0
 40
2.0
 40
2.0
 40
3.0
 40
3.0
 40
3.0
 40
4.0
 40
4.0
 40
4.0
 40
5.0
 40
5.0
 40
5.0
 40
6.0
 40
6.0
 40
6.0
 40
6.0
 10
752.7220668259
 20
27.7553661073
 30
0.0
 10
752.7220668259
 20
27.7553661073
 30
0.0
 10
752.6604351467
 20
27.8338778005
 30
0.0
 10
752.6604351467
 20
27.8338778005
 30
0.0
 10
752.6065237841
 20
27.9024446792
 30
0.0
 10
752.5497336593
 20
27.9715349692
 30
0.0
 10
752.5497336593
 20
28.0652255897
 30
0.0
 10
752.5497336593
 20
28.1840399521
 30
0.0
 10
752.6456487778
 20
28.2615048227
 30
0.0
 10
752.7566119709
 20
28.2615048227
 30
0.0
 10
752.8798753291
 20
28.2615048227
 30
0.0
 10
752.9731733912
 20
28.1903208875
 30
0.0
 10
752.9731733912
 20
28.0599914768
 30
0.0
 10
752.9731733912
 20
27.9249513646
 30
0.0
 10
752.8450684785
 20
27.8485333165
 30
0.0
 10
752.7515087108
 20
27.7747323249
 30
0.0
 10
752.7515087108
 20
27.7747323249
 30
0.0
 10
752.7220668259
 20
27.7553661073
 30
0.0
 10
752.7220668259
 20
27.7553661073
 30
0.0
  0
SPLINE
  5
247
100
AcDbEntity
  8
0
100
AcDbSpline
 62
7
  6
CONTINUOUS
 70
2
 71
3
 72
50
 73
46
 74
0
 42
0.0000001
 43
0.0000001
 44
0.0000000001
 40
0.0
 40
0.0
 40
0.0
 40
0.0
 40
1.0
 40
1.0
 40
1.0
 40
2.0
 40
2.0
 40
2.0
 40
3.0
 40
3.0
 40
3.0
 40
4.0
 40
4.0
 40
4.0
 40
5.0
 40
5.0
 40
5.0
 40
6.0
 40
6.0
 40
6.0
 40
7.0
 40
7.0
 40
7.0
 40
8.0
 40
8.0
 40
8.0
 40
9.0
 40
9.0
 40
9.0
 40
10.0
 40
10.0
 40
10.0
 40
11.0
 40
11.0
 40
11.0
 40
12.0
 40
12.0
 40
12.0
 40
13.0
 40
13.0
 40
13.0
 40
14.0
 40
14.0
 40
14.0
 40
15.0
 40
15.0
 40
15.0
 40
15.0
 10
753.4242230685
 20
26.5483796775
 30
0.0
 10
753.4242230685
 20
26.5483796775
 30
0.0
 10
753.7096130732
 20
26.5483796775
 30
0.0
 10
753.7096130732
 20
26.5483796775
 30
0.0
 10
753.7096130732
 20
26.5483796775
 30
0.0
 10
753.3772469054
 20
26.9592575384
 30
0.0
 10
753.3772469054
 20
26.9592575384
 30
0.0
 10
753.3772469054
 20
26.9592575384
 30
0.0
 10
753.6037531403
 20
27.2251504727
 30
0.0
 10
753.6037531403
 20
27.2251504727
 30
0.0
 10
753.6037531403
 20
27.2251504727
 30
0.0
 10
753.455496893
 20
27.3779865687
 30
0.0
 10
753.455496893
 20
27.3779865687
 30
0.0
 10
753.455496893
 20
27.3779865687
 30
0.0
 10
753.2395897367
 20
27.1267491506
 30
0.0
 10
753.2395897367
 20
27.1267491506
 30
0.0
 10
753.2395897367
 20
27.1267491506
 30
0.0
 10
752.8525270894
 20
27.5946788419
 30
0.0
 10
752.8525270894
 20
27.5946788419
 30
0.0
 10
753.0079802419
 20
27.7087825027
 30
0.0
 10
753.1902582229
 20
27.8485333165
 30
0.0
 10
753.1902582229
 20
28.0578978317
 30
0.0
 10
753.1902582229
 20
28.3018074918
 30
0.0
 10
752.9882214657
 20
28.4452221847
 30
0.0
 10
752.7617152309
 20
28.4452221847
 30
0.0
 10
752.5175438651
 20
28.4452221847
 30
0.0
 10
752.333172239
 20
28.2944797338
 30
0.0
 10
752.333172239
 20
28.0380082027
 30
0.0
 10
752.333172239
 20
27.8804614051
 30
0.0
 10
752.4318352667
 20
27.7428042364
 30
0.0
 10
752.5371717884
 20
27.6318410434
 30
0.0
 10
752.5371717884
 20
27.6318410434
 30
0.0
 10
752.4216287466
 20
27.5480952373
 30
0.0
 10
752.4216287466
 20
27.5480952373
 30
0.0
 10
752.2439306144
 20
27.4198594718
 30
0.0
 10
752.0965903368
 20
27.2921471175
 30
0.0
 10
752.0965903368
 20
27.0550418041
 30
0.0
 10
752.0965903368
 20
26.734714096
 30
0.0
 10
752.3551555131
 20
26.5086004196
 30
0.0
 10
752.6655384068
 20
26.5086004196
 30
0.0
 10
752.8844551779
 20
26.5086004196
 30
0.0
 10
753.0816503806
 20
26.6336957174
 30
0.0
 10
753.2219246058
 20
26.7996170956
 30
0.0
 10
753.2219246058
 20
26.7996170956
 30
0.0
 10
753.4242230685
 20
26.5483796775
 30
0.0
 10
753.4242230685
 20
26.5483796775
 30
0.0
  0
LWPOLYLINE
  5
248
100
AcDbEntity
  8
0
100
AcDbPolyline
 62
7
  6
CONTINUOUS
 90
2
 70
0
 43
0.2
 10
755.3596671583
 20
28.4049195155
 10
755.128319369
 20
28.4049195155
  0
LWPOLYLINE
  5
249
100
AcDbEntity
  8
0
100
AcDbPolyline
 62
7
  6
CONTINUOUS
 90
2
 70
0
 43
0.2
 10
755.128319369
 20
28.4049195155
 10
755.128319369
 20
26.5478562662
  0
LWPOLYLINE
  5
24A
100
AcDbEntity
  8
0
100
AcDbPolyline
 62
7
  6
CONTINUOUS
 90
2
 70
0
 43
0.2
 10
755.128319369
 20
26.5478562662
 10
755.9236428209
 20
26.5478562662
  0
LWPOLYLINE
  5
24B
100
AcDbEntity
  8
0
100
AcDbPolyline
 62
7
  6
CONTINUOUS
 90
2
 70
0
 43
0.2
 10
755.9236428209
 20
26.5478562662
 10
755.9236428209
 20
26.7598378378
  0
LWPOLYLINE
  5
24C
100
AcDbEntity
  8
0
100
AcDbPolyline
 62
7
  6
CONTINUOUS
 90
2
 70
0
 43
0.2
 10
755.9236428209
 20
26.7598378378
 10
755.3596671583
 20
26.7598378378
  0
LWPOLYLINE
  5
24D
100
AcDbEntity
  8
0
100
AcDbPolyline
 62
7
  6
CONTINUOUS
 90
2
 70
0
 43
0.2
 10
755.3596671583
 20
26.7598378378
 10
755.3596671583
 20
28.4049195155
  0
LWPOLYLINE
  5
24E
100
AcDbEntity
  8
0
100
AcDbPolyline
 62
7
  6
CONTINUOUS
 90
2
 70
0
 43
0.2
 10
757.6027462324
 20
27.7004079221
 10
757.3816049633
 20
27.7004079221
  0
LWPOLYLINE
  5
24F
100
AcDbEntity
  8
0
100
AcDbPolyline
 62
7
  6
CONTINUOUS
 90
2
 70
0
 43
0.2
 10
757.3816049633
 20
27.7004079221
 10
757.3816049633
 20
26.5483796775
  0
LWPOLYLINE
  5
250
100
AcDbEntity
  8
0
100
AcDbPolyline
 62
7
  6
CONTINUOUS
 90
2
 70
0
 43
0.2
 10
757.3816049633
 20
26.5483796775
 10
757.6027462324
 20
26.5483796775
  0
LWPOLYLINE
  5
251
100
AcDbEntity
  8
0
100
AcDbPolyline
 62
7
  6
CONTINUOUS
 90
2
 70
0
 43
0.2
 10
757.6027462324
 20
26.5483796775
 10
757.6027462324
 20
27.7004079221
  0
LWPOLYLINE
  5
252
100
AcDbEntity
  8
0
100
AcDbPolyline
 62
7
  6
CONTINUOUS
 90
2
 70
1
 43
0.2
 10
757.3397229552
 20
28.230361851
 42
1.0
 10
757.6448899461
 20
28.230361851
 42
1.0
  0
SPLINE
  5
253
100
AcDbEntity
  8
0
100
AcDbSpline
 62
7
  6
CONTINUOUS
 70
2
 71
3
 72
17
 73
13
 74
0
 42
0.0000001
 43
0.0000001
 44
0.0000000001
 40
0.0
 40
0.0
 40
0.0
 40
0.0
 40
1.0
 40
1.0
 40
1.0
 40
2.0
 40
2.0
 40
2.0
 40
3.0
 40
3.0
 40
3.0
 40
4.0
 40
4.0
 40
4.0
 40
4.0
 10
759.7330301741
 20
26.7059264751
 30
0.0
 10
759.4990653284
 20
26.7059264751
 30
0.0
 10
759.3687359177
 20
26.9079632322
 30
0.0
 10
759.3687359177
 20
27.1241320941
 30
0.0
 10
759.3687359177
 20
27.3387307222
 30
0.0
 10
759.5045611469
 20
27.5376270115
 30
0.0
 10
759.7330301741
 20
27.5376270115
 30
0.0
 10
759.9724908383
 20
27.5376270115
 30
0.0
 10
760.1080543618
 20
27.3486755366
 30
0.0
 10
760.1080543618
 20
27.1241320941
 30
0.0
 10
760.1080543618
 20
26.8980184178
 30
0.0
 10
759.974846189
 20
26.7059264751
 30
0.0
 10
759.7330301741
 20
26.7059264751
 30
0.0
  0
SPLINE
  5
254
100
AcDbEntity
  8
0
100
AcDbSpline
 62
7
  6
CONTINUOUS
 70
2
 71
3
 72
50
 73
46
 74
0
 42
0.0000001
 43
0.0000001
 44
0.0000000001
 40
0.0
 40
0.0
 40
0.0
 40
0.0
 40
1.0
 40
1.0
 40
1.0
 40
2.0
 40
2.0
 40
2.0
 40
3.0
 40
3.0
 40
3.0
 40
4.0
 40
4.0
 40
4.0
 40
5.0
 40
5.0
 40
5.0
 40
6.0
 40
6.0
 40
6.0
 40
7.0
 40
7.0
 40
7.0
 40
8.0
 40
8.0
 40
8.0
 40
9.0
 40
9.0
 40
9.0
 40
10.0
 40
10.0
 40
10.0
 40
11.0
 40
11.0
 40
11.0
 40
12.0
 40
12.0
 40
12.0
 40
13.0
 40
13.0
 40
13.0
 40
14.0
 40
14.0
 40
14.0
 40
15.0
 40
15.0
 40
15.0
 40
15.0
 10
760.3171571713
 20
27.7009313334
 30
0.0
 10
760.3171571713
 20
27.7009313334
 30
0.0
 10
760.0954924909
 20
27.7009313334
 30
0.0
 10
760.0954924909
 20
27.7009313334
 30
0.0
 10
760.0954924909
 20
27.7009313334
 30
0.0
 10
760.0954924909
 20
27.5036052778
 30
0.0
 10
760.0954924909
 20
27.5036052778
 30
0.0
 10
760.0954924909
 20
27.5036052778
 30
0.0
 10
760.0907817893
 20
27.5036052778
 30
0.0
 10
760.0907817893
 20
27.5036052778
 30
0.0
 10
759.9994465196
 20
27.6464965594
 30
0.0
 10
759.8615276452
 20
27.7349530671
 30
0.0
 10
759.6888019202
 20
27.7349530671
 30
0.0
 10
759.3564357524
 20
27.7349530671
 30
0.0
 10
759.1473329429
 20
27.4470768587
 30
0.0
 10
759.1473329429
 20
27.1314598522
 30
0.0
 10
759.1473329429
 20
26.8017107408
 30
0.0
 10
759.3443972928
 20
26.5086004196
 30
0.0
 10
759.699270146
 20
26.5086004196
 30
0.0
 10
759.8615276452
 20
26.5086004196
 30
0.0
 10
760.0015401647
 20
26.5970569272
 30
0.0
 10
760.0907817893
 20
26.7279097492
 30
0.0
 10
760.0907817893
 20
26.7279097492
 30
0.0
 10
760.0954924909
 20
26.7279097492
 30
0.0
 10
760.0954924909
 20
26.7279097492
 30
0.0
 10
760.0954924909
 20
26.7279097492
 30
0.0
 10
760.0954924909
 20
26.5086004196
 30
0.0
 10
760.0954924909
 20
26.5086004196
 30
0.0
 10
760.0954924909
 20
26.2720185175
 30
0.0
 10
760.0389640718
 20
26.0851606877
 30
0.0
 10
759.7657433795
 20
26.0851606877
 30
0.0
 10
759.5634449168
 20
26.0851606877
 30
0.0
 10
759.4208153408
 20
26.2034516388
 30
0.0
 10
759.4208153408
 20
26.4096756862
 30
0.0
 10
759.4208153408
 20
26.4096756862
 30
0.0
 10
759.1991506604
 20
26.4096756862
 30
0.0
 10
759.1991506604
 20
26.4096756862
 30
0.0
 10
759.2041230677
 20
26.0851606877
 30
0.0
 10
759.4352091513
 20
25.8883580435
 30
0.0
 10
759.7555368594
 20
25.8883580435
 30
0.0
 10
760.2035769218
 20
25.8883580435
 30
0.0
 10
760.3171571713
 20
26.1736171954
 30
0.0
 10
760.3171571713
 20
26.5703629516
 30
0.0
 10
760.3171571713
 20
26.5703629516
 30
0.0
 10
760.3171571713
 20
27.7009313334
 30
0.0
 10
760.3171571713
 20
27.7009313334
 30
0.0
  0
SPLINE
  5
255
100
AcDbEntity
  8
0
100
AcDbSpline
 62
7
  6
CONTINUOUS
 70
2
 71
3
 72
44
 73
40
 74
0
 42
0.0000001
 43
0.0000001
 44
0.0000000001
 40
0.0
 40
0.0
 40
0.0
 40
0.0
 40
1.0
 40
1.0
 40
1.0
 40
2.0
 40
2.0
 40
2.0
 40
3.0
 40
3.0
 40
3.0
 40
4.0
 40
4.0
 40
4.0
 40
5.0
 40
5.0
 40
5.0
 40
6.0
 40
6.0
 40
6.0
 40
7.0
 40
7.0
 40
7.0
 40
8.0
 40
8.0
 40
8.0
 40
9.0
 40
9.0
 40
9.0
 40
10.0
 40
10.0
 40
10.0
 40
11.0
 40
11.0
 40
11.0
 40
12.0
 40
12.0
 40
12.0
 40
13.0
 40
13.0
 40
13.0
 40
13.0
 10
761.8860825067
 20
28.6859913771
 30
0.0
 10
761.8860825067
 20
28.6859913771
 30
0.0
 10
761.8860825067
 20
26.5478562662
 30
0.0
 10
761.8860825067
 20
26.5478562662
 30
0.0
 10
761.8860825067
 20
26.5478562662
 30
0.0
 10
762.1074854815
 20
26.5478562662
 30
0.0
 10
762.1074854815
 20
26.5478562662
 30
0.0
 10
762.1074854815
 20
26.5478562662
 30
0.0
 10
762.1074854815
 20
27.0775484895
 30
0.0
 10
762.1074854815
 20
27.0775484895
 30
0.0
 10
762.1074854815
 20
27.2874364159
 30
0.0
 10
762.1074854815
 20
27.5381504228
 30
0.0
 10
762.3927446334
 20
27.5381504228
 30
0.0
 10
762.6196434267
 20
27.5381504228
 30
0.0
 10
762.646599108
 20
27.4052039557
 30
0.0
 10
762.646599108
 20
27.2089247228
 30
0.0
 10
762.646599108
 20
27.2089247228
 30
0.0
 10
762.646599108
 20
26.5478562662
 30
0.0
 10
762.646599108
 20
26.5478562662
 30
0.0
 10
762.646599108
 20
26.5478562662
 30
0.0
 10
762.868525494
 20
26.5478562662
 30
0.0
 10
762.868525494
 20
26.5478562662
 30
0.0
 10
762.868525494
 20
26.5478562662
 30
0.0
 10
762.868525494
 20
27.2350952872
 30
0.0
 10
762.868525494
 20
27.2350952872
 30
0.0
 10
762.868525494
 20
27.5156437375
 30
0.0
 10
762.7845179823
 20
27.7354764784
 30
0.0
 10
762.4594795726
 20
27.7354764784
 30
0.0
 10
762.3197287587
 20
27.7354764784
 30
0.0
 10
762.1815481787
 20
27.6690032448
 30
0.0
 10
762.1121961831
 20
27.5460015922
 30
0.0
 10
762.1121961831
 20
27.5460015922
 30
0.0
 10
762.1074854815
 20
27.5460015922
 30
0.0
 10
762.1074854815
 20
27.5460015922
 30
0.0
 10
762.1074854815
 20
27.5460015922
 30
0.0
 10
762.1074854815
 20
28.6859913771
 30
0.0
 10
762.1074854815
 20
28.6859913771
 30
0.0
 10
762.1074854815
 20
28.6859913771
 30
0.0
 10
761.8860825067
 20
28.6859913771
 30
0.0
 10
761.8860825067
 20
28.6859913771
 30
0.0
  0
LWPOLYLINE
  5
256
100
AcDbEntity
  8
0
100
AcDbPolyline
 62
7
  6
CONTINUOUS
 90
2
 70
0
 43
0.2
 10
764.7083161709
 20
27.4936604634
 10
764.9247467384
 20
27.4936604634
  0
LWPOLYLINE
  5
257
100
AcDbEntity
  8
0
100
AcDbPolyline
 62
7
  6
CONTINUOUS
 90
2
 70
0
 43
0.2
 10
764.9247467384
 20
27.4936604634
 10
764.9247467384
 20
27.7004079221
  0
LWPOLYLINE
  5
258
100
AcDbEntity
  8
0
100
AcDbPolyline
 62
7
  6
CONTINUOUS
 90
2
 70
0
 43
0.2
 10
764.9247467384
 20
27.7004079221
 10
764.7083161709
 20
27.7004079221
  0
LWPOLYLINE
  5
259
100
AcDbEntity
  8
0
100
AcDbPolyline
 62
7
  6
CONTINUOUS
 90
2
 70
0
 43
0.2
 10
764.7083161709
 20
27.7004079221
 10
764.7083161709
 20
28.1411202265
  0
LWPOLYLINE
  5
25A
100
AcDbEntity
  8
0
100
AcDbPolyline
 62
7
  6
CONTINUOUS
 90
2
 70
0
 43
0.2
 10
764.7083161709
 20
28.1411202265
 10
764.4866514905
 20
28.1411202265
  0
LWPOLYLINE
  5
25B
100
AcDbEntity
  8
0
100
AcDbPolyline
 62
7
  6
CONTINUOUS
 90
2
 70
0
 43
0.2
 10
764.4866514905
 20
28.1411202265
 10
764.4866514905
 20
27.7004079221
  0
LWPOLYLINE
  5
25C
100
AcDbEntity
  8
0
100
AcDbPolyline
 62
7
  6
CONTINUOUS
 90
2
 70
0
 43
0.2
 10
764.4866514905
 20
27.7004079221
 10
764.3660051886
 20
27.7004079221
  0
LWPOLYLINE
  5
25D
100
AcDbEntity
  8
0
100
AcDbPolyline
 62
7
  6
CONTINUOUS
 90
2
 70
0
 43
0.2
 10
764.3660051886
 20
27.7004079221
 10
764.3660051886
 20
27.4936604634
  0
LWPOLYLINE
  5
25E
100
AcDbEntity
  8
0
100
AcDbPolyline
 62
7
  6
CONTINUOUS
 90
2
 70
0
 43
0.2
 10
764.3660051886
 20
27.4936604634
 10
764.4866514905
 20
27.4936604634
  0
LWPOLYLINE
  5
25F
100
AcDbEntity
  8
0
100
AcDbPolyline
 62
7
  6
CONTINUOUS
 90
2
 70
0
 43
0.2
 10
764.4866514905
 20
27.4936604634
 10
764.4866514905
 20
26.5478562662
  0
LWPOLYLINE
  5
260
100
AcDbEntity
  8
0
100
AcDbPolyline
 62
7
  6
CONTINUOUS
 90
2
 70
0
 43
0.2
 10
764.4866514905
 20
26.5478562662
 10
764.7083161709
 20
26.5478562662
  0
LWPOLYLINE
  5
261
100
AcDbEntity
  8
0
100
AcDbPolyline
 62
7
  6
CONTINUOUS
 90
2
 70
0
 43
0.2
 10
764.7083161709
 20
26.5478562662
 10
764.7083161709
 20
27.4936604634
  0
SPLINE
  5
262
100
AcDbEntity
  8
0
100
AcDbSpline
 62
7
  6
CONTINUOUS
 70
2
 71
3
 72
20
 73
16
 74
0
 42
0.0000001
 43
0.0000001
 44
0.0000000001
 40
0.0
 40
0.0
 40
0.0
 40
0.0
 40
1.0
 40
1.0
 40
1.0
 40
2.0
 40
2.0
 40
2.0
 40
3.0
 40
3.0
 40
3.0
 40
4.0
 40
4.0
 40
4.0
 40
5.0
 40
5.0
 40
5.0
 40
5.0
 10
752.4903264781
 20
36.9087827096
 30
0.0
 10
752.4903264781
 20
36.9087827096
 30
0.0
 10
754.8066831326
 20
34.0792212873
 30
0.0
 10
754.8066831326
 20
34.0792212873
 30
0.0
 10
754.1550360792
 20
33.4270508227
 30
0.0
 10
753.3781628752
 20
32.6911345519
 30
0.0
 10
752.4069732306
 20
32.6911345519
 30
0.0
 10
751.4084353461
 20
32.6911345519
 30
0.0
 10
750.4651173526
 20
33.6207129992
 30
0.0
 10
750.4651173526
 20
34.6199051477
 30
0.0
 10
750.4651173526
 20
35.6190972963
 30
0.0
 10
751.6439704257
 20
36.3257025349
 30
0.0
 10
752.365492886
 20
36.8255603148
 30
0.0
 10
752.365492886
 20
36.8255603148
 30
0.0
 10
752.4903264781
 20
36.9087827096
 30
0.0
 10
752.4903264781
 20
36.9087827096
 30
0.0
  0
SPLINE
  5
263
100
AcDbEntity
  8
0
100
AcDbSpline
 62
7
  6
CONTINUOUS
 70
2
 71
3
 72
23
 73
19
 74
0
 42
0.0000001
 43
0.0000001
 44
0.0000000001
 40
0.0
 40
0.0
 40
0.0
 40
0.0
 40
1.0
 40
1.0
 40
1.0
 40
2.0
 40
2.0
 40
2.0
 40
3.0
 40
3.0
 40
3.0
 40
4.0
 40
4.0
 40
4.0
 40
5.0
 40
5.0
 40
5.0
 40
6.0
 40
6.0
 40
6.0
 40
6.0
 10
752.7677344607
 20
38.5465366293
 30
0.0
 10
752.7677344607
 20
38.5465366293
 30
0.0
 10
752.4212361882
 20
38.9898659901
 30
0.0
 10
752.4212361882
 20
38.9898659901
 30
0.0
 10
752.1154331432
 20
39.3779754601
 30
0.0
 10
751.7965448161
 20
39.7664774885
 30
0.0
 10
751.7965448161
 20
40.2934218026
 30
0.0
 10
751.7965448161
 20
40.9595935192
 30
0.0
 10
752.3378829406
 20
41.4033154385
 30
0.0
 10
752.9617891957
 20
41.4033154385
 30
0.0
 10
753.6555708578
 20
41.4033154385
 30
0.0
 10
754.1827768775
 20
41.0010738638
 30
0.0
 10
754.1827768775
 20
40.2660735628
 30
0.0
 10
754.1827768775
 20
39.5028090523
 30
0.0
 10
753.4615161228
 20
39.0726958264
 30
0.0
 10
752.9344409559
 20
38.6569764111
 30
0.0
 10
752.9344409559
 20
38.6569764111
 30
0.0
 10
752.7677344607
 20
38.5465366293
 30
0.0
 10
752.7677344607
 20
38.5465366293
 30
0.0
  0
SPLINE
  5
264
100
AcDbEntity
  8
0
100
AcDbSpline
 62
7
  6
CONTINUOUS
 70
2
 71
3
 72
50
 73
46
 74
0
 42
0.0000001
 43
0.0000001
 44
0.0000000001
 40
0.0
 40
0.0
 40
0.0
 40
0.0
 40
1.0
 40
1.0
 40
1.0
 40
2.0
 40
2.0
 40
2.0
 40
3.0
 40
3.0
 40
3.0
 40
4.0
 40
4.0
 40
4.0
 40
5.0
 40
5.0
 40
5.0
 40
6.0
 40
6.0
 40
6.0
 40
7.0
 40
7.0
 40
7.0
 40
8.0
 40
8.0
 40
8.0
 40
9.0
 40
9.0
 40
9.0
 40
10.0
 40
10.0
 40
10.0
 40
11.0
 40
11.0
 40
11.0
 40
12.0
 40
12.0
 40
12.0
 40
13.0
 40
13.0
 40
13.0
 40
14.0
 40
14.0
 40
14.0
 40
15.0
 40
15.0
 40
15.0
 40
15.0
 10
756.7213216236
 20
31.7479474112
 30
0.0
 10
756.7213216236
 20
31.7479474112
 30
0.0
 10
758.3305496282
 20
31.7479474112
 30
0.0
 10
758.3305496282
 20
31.7479474112
 30
0.0
 10
758.3305496282
 20
31.7479474112
 30
0.0
 10
756.4575223346
 20
34.0650891826
 30
0.0
 10
756.4575223346
 20
34.0650891826
 30
0.0
 10
756.4575223346
 20
34.0650891826
 30
0.0
 10
757.73386076
 20
35.5625688772
 30
0.0
 10
757.73386076
 20
35.5625688772
 30
0.0
 10
757.73386076
 20
35.5625688772
 30
0.0
 10
756.9016368123
 20
36.4235804457
 30
0.0
 10
756.9016368123
 20
36.4235804457
 30
0.0
 10
756.9016368123
 20
36.4235804457
 30
0.0
 10
755.681041689
 20
35.0082763233
 30
0.0
 10
755.681041689
 20
35.0082763233
 30
0.0
 10
755.681041689
 20
35.0082763233
 30
0.0
 10
753.5031273202
 20
37.6436521577
 30
0.0
 10
753.5031273202
 20
37.6436521577
 30
0.0
 10
754.3767007596
 20
38.2816905177
 30
0.0
 10
755.4033720008
 20
39.0726958264
 30
0.0
 10
755.4033720008
 20
40.2515488996
 30
0.0
 10
755.4033720008
 20
41.6252418246
 30
0.0
 10
754.265475861
 20
42.429724974
 30
0.0
 10
752.9901842581
 20
42.429724974
 30
0.0
 10
751.6167530387
 20
42.429724974
 30
0.0
 10
750.5758188399
 20
41.5834997744
 30
0.0
 10
750.5758188399
 20
40.1408474122
 30
0.0
 10
750.5758188399
 20
39.2532727208
 30
0.0
 10
751.1311582164
 20
38.4763995167
 30
0.0
 10
751.7273236733
 20
37.8519698503
 30
0.0
 10
751.7273236733
 20
37.8519698503
 30
0.0
 10
751.0754149142
 20
37.3803762799
 30
0.0
 10
751.0754149142
 20
37.3803762799
 30
0.0
 10
750.0768770298
 20
36.6591155253
 30
0.0
 10
749.243998818
 20
35.9378547706
 30
0.0
 10
749.243998818
 20
34.6062964542
 30
0.0
 10
749.243998818
 20
32.8026211562
 30
0.0
 10
750.7010449906
 20
31.5260210251
 30
0.0
 10
752.4485844279
 20
31.5260210251
 30
0.0
 10
753.6834425088
 20
31.5260210251
 30
0.0
 10
754.7928127335
 20
32.2341964976
 30
0.0
 10
755.5836871895
 20
33.1627281223
 30
0.0
 10
755.5836871895
 20
33.1627281223
 30
0.0
 10
756.7213216236
 20
31.7479474112
 30
0.0
 10
756.7213216236
 20
31.7479474112
 30
0.0
  0
LINE
  5
265
100
AcDbEntity
  8
0
100
AcDbLine
 62
7
  6
CONTINUOUS
 10
742.5241829986
 20
29.7218223158
 11
764.9380937263
 21
29.7218223158
  0
LINE
  5
266
100
AcDbEntity
  8
0
100
AcDbLine
 62
7
  6
CONTINUOUS
 10
764.9380937263
 20
29.7218223158
 11
764.9380937263
 21
52.1357330435
  0
LINE
  5
267
100
AcDbEntity
  8
0
100
AcDbLine
 62
7
  6
CONTINUOUS
 10
764.9380937263
 20
52.1357330435
 11
742.5241829986
 21
52.1357330435
  0
LINE
  5
268
100
AcDbEntity
  8
0
100
AcDbLine
 62
7
  6
CONTINUOUS
 10
742.5241829986
 20
52.1357330435
 11
742.5241829986
 21
29.7218223158
  0
ENDBLK
  5
269
100
AcDbEntity
  8
0
  6
BYBLOCK
 62
0
100
AcDbBlockEnd
  0
BLOCK
  5
26A
100
AcDbEntity
  8
0
100
AcDbBlockBegin
  2
_CLOSED
 70
64
 10
0.0
 20
0.0
  3
_CLOSED
  1

  0
LINE
  5
26B
100
AcDbEntity
  8
0
  6
BYBLOCK
 62
0
100
AcDbLine
 10
0.0
 20
0.0
 11
-1.0
 21
0.2
  0
LINE
  5
26C
100
AcDbEntity
  8
0
  6
BYBLOCK
 62
0
100
AcDbLine
 10
-1.0
 20
0.2
 11
-1.0
 21
-0.2
  0
LINE
  5
26D
100
AcDbEntity
  8
0
  6
BYBLOCK
 62
0
100
AcDbLine
 10
-1.0
 20
-0.2
 11
0.0
 21
0.0
  0
LINE
  5
26E
100
AcDbEntity
  8
0
  6
BYBLOCK
 62
0
100
AcDbLine
 10
-1.0
 20
0.0
 11
0.0
 21
0.0
  0
ENDBLK
  5
26F
100
AcDbEntity
  8
0
  6
BYBLOCK
 62
0
100
AcDbBlockEnd
  0
BLOCK
  5
270
100
AcDbEntity
  8
0
100
AcDbBlockBegin
 62
2
  6
CONTINUOUS
  2
*D0
 70
65
 10
0.0
 20
0.0
  3
*D0
  1

  0
MTEXT
  5
271
100
AcDbEntity
  8
0
100
AcDbMText
 62
2
  6
CONTINUOUS
  7
STANDARD
 71
2
 72
1
 10
241.933912204
 20
709.6035984962
 30
0.0
 11
0.0
 21
1.0
 31
0.0
  1
784,7
 40
3.0
 41
10.4832713755
  0
LINE
  5
272
100
AcDbEntity
  8
0
100
AcDbLine
 62
2
  6
CONTINUOUS
 10
224.6947886169
 20
1101.9535984962
 11
246.433912204
 21
1101.9535984962
  0
LINE
  5
273
100
AcDbEntity
  8
0
100
AcDbLine
 62
2
  6
CONTINUOUS
 10
224.6630466814
 20
317.2535984962
 11
246.433912204
 21
317.2535984962
  0
LINE
  5
274
100
AcDbEntity
  8
0
100
AcDbLine
 62
2
  6
CONTINUOUS
 10
245.683912204
 20
1101.9535984962
 11
245.683912204
 21
709.6035984962
  0
LINE
  5
275
100
AcDbEntity
  8
0
100
AcDbLine
 62
2
  6
CONTINUOUS
 10
245.683912204
 20
317.2535984962
 11
245.683912204
 21
709.6035984962
  0
INSERT
  5
276
100
AcDbEntity
  8
0
100
AcDbBlockReference
 62
2
  6
CONTINUOUS
  2
_CLOSED
 10
245.683912204
 20
1101.9535984962
 41
2.5
 42
2.5
 43
2.5
 50
90.0
  0
INSERT
  5
277
100
AcDbEntity
  8
0
100
AcDbBlockReference
 62
2
  6
CONTINUOUS
  2
_CLOSED
 10
245.683912204
 20
317.2535984962
 41
2.5
 42
2.5
 43
2.5
 50
270.0
  0
ENDBLK
  5
278
100
AcDbEntity
  8
0
  6
BYBLOCK
 62
0
100
AcDbBlockEnd
  0
BLOCK
  5
279
100
AcDbEntity
  8
0
100
AcDbBlockBegin
 62
2
  6
CONTINUOUS
  2
*D1
 70
65
 10
0.0
 20
0.0
  3
*D1
  1

  0
MTEXT
  5
27A
100
AcDbEntity
  8
0
100
AcDbMText
 62
2
  6
CONTINUOUS
  7
TEXTSTYLE_2
 71
1
 72
1
 10
193.0090581209
 20
243.5659642755
 30
0.0
 11
0.8064594715
 21
0.5912893714
 31
0.0
  1
{\Fgdt;n}\Farial.ttf;125
 40
3.0
 41
10.9925650558
  0
LINE
  5
27B
100
AcDbEntity
  8
0
100
AcDbLine
 62
2
  6
CONTINUOUS
 10
182.9532797811
 20
231.5431966149
 11
204.0914514694
 21
247.0415281396
  0
INSERT
  5
27C
100
AcDbEntity
  8
0
100
AcDbBlockReference
 62
2
  6
CONTINUOUS
  2
_CLOSED
 10
182.9532797811
 20
231.5431966149
 41
2.5
 42
2.5
 43
2.5
 50
216.248559391
  0
ENDBLK
  5
27D
100
AcDbEntity
  8
0
  6
BYBLOCK
 62
0
100
AcDbBlockEnd
  0
BLOCK
  5
27E
100
AcDbEntity
  8
0
100
AcDbBlockBegin
 62
2
  6
CONTINUOUS
  2
*D2
 70
65
 10
0.0
 20
0.0
  3
*D2
  1

  0
MTEXT
  5
27F
100
AcDbEntity
  8
0
100
AcDbMText
 62
2
  6
CONTINUOUS
  7
STANDARD
 71
2
 72
1
 10
507.3245967742
 20
302.7393171714
 30
0.0
 11
1.0
 21
0.0
 31
0.0
  1
Ø110
 40
3.0
 41
10.249070632
  0
LINE
  5
280
100
AcDbEntity
  8
0
100
AcDbLine
 62
2
  6
CONTINUOUS
 10
452.3245967742
 20
306.1578952704
 11
452.3245967742
 21
298.2393171714
  0
LINE
  5
281
100
AcDbEntity
  8
0
100
AcDbLine
 62
2
  6
CONTINUOUS
 10
562.3245967742
 20
306.1578952704
 11
562.3245967742
 21
298.2393171714
  0
LINE
  5
282
100
AcDbEntity
  8
0
100
AcDbLine
 62
2
  6
CONTINUOUS
 10
452.3245967742
 20
298.9893171714
 11
507.3245967742
 21
298.9893171714
  0
LINE
  5
283
100
AcDbEntity
  8
0
100
AcDbLine
 62
2
  6
CONTINUOUS
 10
562.3245967742
 20
298.9893171714
 11
507.3245967742
 21
298.9893171714
  0
INSERT
  5
284
100
AcDbEntity
  8
0
100
AcDbBlockReference
 62
2
  6
CONTINUOUS
  2
_CLOSED
 10
452.3245967742
 20
298.9893171714
 41
2.5
 42
2.5
 43
2.5
 50
180.0
  0
INSERT
  5
285
100
AcDbEntity
  8
0
100
AcDbBlockReference
 62
2
  6
CONTINUOUS
  2
_CLOSED
 10
562.3245967742
 20
298.9893171714
 41
2.5
 42
2.5
 43
2.5
  0
ENDBLK
  5
286
100
AcDbEntity
  8
0
  6
BYBLOCK
 62
0
100
AcDbBlockEnd
  0
ENDSEC
  0
SECTION
  2
ENTITIES
  0
DIMENSION
  5
287
100
AcDbEntity
  8
0
100
AcDbDimension
 62
2
  6
CONTINUOUS
  2
*D0
 10
245.683912204
 20
317.2535984962
 11
245.683912204
 21
709.6028114913
 70
160
  3
DIMSTYLE_1
100
AcDbAlignedDimension
 13
223.9447886169
 23
1101.9535984962
 14
223.9130466814
 24
317.2535984962
 50
270.0
100
AcDbRotatedDimension
  0
DIMENSION
  5
288
100
AcDbEntity
  8
0
100
AcDbDimension
 62
2
  6
CONTINUOUS
  2
*D1
 10
182.9532797811
 20
231.5431966149
 11
198.3285212809
 21
245.6061685094
 70
163
  1
%%c<>
  3
DIMSTYLE_2
100
AcDbDiametricDimension
 15
82.1458458398
 25
157.6320251848
  0
DIMENSION
  5
289
100
AcDbEntity
  8
0
100
AcDbDimension
 62
2
  6
CONTINUOUS
  2
*D2
 10
562.3245967742
 20
298.9893171714
 11
507.3245967742
 21
298.9893171714
 70
160
  1
Ø<>
  3
DIMSTYLE_3
100
AcDbAlignedDimension
 13
452.3245967742
 23
306.9078952704
 14
562.3245967742
 24
306.9078952704
100
AcDbRotatedDimension
  0
LINE
  5
28A
100
AcDbEntity
  8
0
100
AcDbLine
 62
2
  6
CONTINUOUS
 10
739.9050258913
 20
52.5120455435
 11
829.9050258913
 21
52.5120455435
  0
LINE
  5
28B
100
AcDbEntity
  8
0
100
AcDbLine
 62
2
  6
CONTINUOUS
 10
739.9050258913
 20
52.5120455435
 11
739.9050258913
 21
12.5120455435
  0
LINE
  5
28C
100
AcDbEntity
  8
0
100
AcDbLine
 62
2
  6
CONTINUOUS
 10
769.9050258913
 20
46.5120455435
 11
829.9050258913
 21
46.5120455435
  0
LINE
  5
28D
100
AcDbEntity
  8
0
100
AcDbLine
 62
2
  6
CONTINUOUS
 10
769.9050258913
 20
40.5120455435
 11
829.9050258913
 21
40.5120455435
  0
LINE
  5
28E
100
AcDbEntity
  8
0
100
AcDbLine
 62
2
  6
CONTINUOUS
 10
769.9050258913
 20
30.5120455435
 11
829.9050258913
 21
30.5120455435
  0
LINE
  5
28F
100
AcDbEntity
  8
0
100
AcDbLine
 62
2
  6
CONTINUOUS
 10
739.9050258913
 20
25.5120455435
 11
829.9050258913
 21
25.5120455435
  0
LINE
  5
290
100
AcDbEntity
  8
0
100
AcDbLine
 62
2
  6
CONTINUOUS
 10
739.9050258913
 20
12.5120455435
 11
829.9050258913
 21
12.5120455435
  0
LINE
  5
291
100
AcDbEntity
  8
0
100
AcDbLine
 62
2
  6
CONTINUOUS
 10
769.9050258913
 20
52.5120455435
 11
769.9050258913
 21
25.5120455435
  0
LINE
  5
292
100
AcDbEntity
  8
0
100
AcDbLine
 62
2
  6
CONTINUOUS
 10
809.9050258913
 20
52.5120455435
 11
809.9050258913
 21
40.5120455435
  0
LINE
  5
293
100
AcDbEntity
  8
0
100
AcDbLine
 62
2
  6
CONTINUOUS
 10
829.9050258913
 20
52.5120455435
 11
829.9050258913
 21
12.5120455435
  0
INSERT
  5
294
100
AcDbEntity
  8
0
100
AcDbBlockReference
 62
2
  6
CONTINUOUS
  2
LOGO2_BL0
 10
753.731072936
 20
39.0120455435
  0
MTEXT
  5
295
100
AcDbEntity
  8
9_SOLID
100
AcDbMText
 62
2
  6
CONTINUOUS
  7
TEXTSTYLE_3
 71
1
 72
1
 10
771.3925258913
 20
51.0120455435
 30
0.0
 11
1.0
 21
0.0
 31
0.0
  1
3X0_C_030
 40
3.0
 41
32.5714285714
  0
MTEXT
  5
296
100
AcDbEntity
  8
0
100
AcDbMText
 62
2
  6
CONTINUOUS
  7
TEXTSTYLE_3
 71
1
 72
1
 10
811.3925258913
 20
50.7620455435
 30
0.0
 11
1.0
 21
0.0
 31
0.0
  1
Rev:00
 40
3.5
 41
22.75
  0
MTEXT
  5
297
100
AcDbEntity
  8
9_SOLID
100
AcDbMText
 62
2
  6
CONTINUOUS
  7
TEXTSTYLE_3
 71
1
 72
1
 10
771.3925258913
 20
44.7620455435
 30
0.0
 11
1.0
 21
0.0
 31
0.0
  1
Scale:1:1
 40
3.5
 41
28.375
  0
MTEXT
  5
298
100
AcDbEntity
  8
9_SOLID
100
AcDbMText
 62
2
  6
CONTINUOUS
  7
TEXTSTYLE_3
 71
1
 72
1
 10
811.3925258913
 20
45.2620455435
 30
0.0
 11
1.0
 21
0.0
 31
0.0
  1
A0
 40
3.5
 41
9.625
  0
MTEXT
  5
299
100
AcDbEntity
  8
0
100
AcDbMText
 62
2
  6
CONTINUOUS
  7
TEXTSTYLE_3
 71
1
 72
1
 10
771.3925258913
 20
37.2620455435
 30
0.0
 11
1.0
 21
0.0
 31
0.0
  1
PLIN 5.2
 40
3.5
 41
31.0
  0
MTEXT
  5
29A
100
AcDbEntity
  8
0
100
AcDbMText
 62
2
  6
CONTINUOUS
  7
TEXTSTYLE_3
 71
1
 72
1
 10
771.3925258913
 20
29.2620455435
 30
0.0
 11
1.0
 21
0.0
 31
0.0
  1
DATE:17/05/2018
 40
2.5
 41
41.9642857143
  0
MTEXT
  5
29B
100
AcDbEntity
  8
9_SOLID
100
AcDbMText
 62
2
  6
CONTINUOUS
  7
TEXTSTYLE_3
 71
1
 72
1
 10
741.3925258913
 20
25.1995455435
 30
0.0
 11
1.0
 21
0.0
 31
0.0
  1
Any integral or partial reproductions are prohibited \Pwithout prior authorisation of L {\Ftxt.shx;\W0.190476;\H2.250000; }& L Luce & Light s.r.l., \Pin accordance with the law in force. \PAll rights reserved.
 40
2.25
 41
134.5982142857
  0
LINE
  5
29C
100
AcDbEntity
  8
0
100
AcDbLine
 62
7
  6
CONTINUOUS
 10
0.0
 20
0.0
 11
841.0
 21
0.0
  0
LINE
  5
29D
100
AcDbEntity
  8
0
100
AcDbLine
 62
7
  6
CONTINUOUS
 10
0.0
 20
0.0
 11
0.0
 21
1189.0
  0
LINE
  5
29E
100
AcDbEntity
  8
0
100
AcDbLine
 62
7
  6
CONTINUOUS
 10
841.0
 20
0.0
 11
841.0
 21
1189.0
  0
LINE
  5
29F
100
AcDbEntity
  8
0
100
AcDbLine
 62
7
  6
CONTINUOUS
 10
0.0
 20
1189.0
 11
841.0
 21
1189.0
  0
LINE
  5
2A0
100
AcDbEntity
  8
3_ALL_AXES
100
AcDbLine
 62
3
  6
CONTINUOUS
 10
68.5495628104
 20
317.2535984962
 11
178.5495628104
 21
317.2535984962
  0
LINE
  5
2A1
100
AcDbEntity
  8
7_ALL_FEATURES
100
AcDbLine
 62
3
  6
CONTINUOUS
 10
76.4901293086
 20
321.2535984962
 11
123.5495628104
 21
321.2535984962
  0
LINE
  5
2A2
100
AcDbEntity
  8
3_ALL_AXES
100
AcDbLine
 62
7
  6
CONTINUOUS
 10
68.5495628104
 20
321.2535984962
 11
123.5495628104
 21
321.2535984962
  0
LINE
  5
2A3
100
AcDbEntity
  8
3_ALL_AXES
100
AcDbLine
 62
3
  6
CONTINUOUS
 10
123.5495628104
 20
321.2535984962
 11
178.5495628104
 21
321.2535984962
  0
LINE
  5
2A4
100
AcDbEntity
  8
7_ALL_FEATURES
100
AcDbLine
 62
7
  6
CONTINUOUS
 10
76.3632617983
 20
322.4535984962
 11
123.5495628104
 21
322.4535984962
  0
LINE
  5
2A5
100
AcDbEntity
  8
3_ALL_AXES
100
AcDbLine
 62
7
  6
CONTINUOUS
 10
123.5495628104
 20
322.4535984962
 11
178.5495628104
 21
322.4535984962
  0
LINE
  5
2A6
100
AcDbEntity
  8
7_ALL_FEATURES
100
AcDbLine
 62
7
  6
CONTINUOUS
 10
70.3495628104
 20
1102.2535984962
 11
70.0495628104
 21
1101.9535984962
  0
LINE
  5
2A7
100
AcDbEntity
  8
7_ALL_FEATURES
100
AcDbLine
 62
7
  6
CONTINUOUS
 10
194.7495628104
 20
1077.2535984962
 11
195.0495628104
 21
1077.5535984962
  0
LINE
  5
2A8
100
AcDbEntity
  8
3_ALL_AXES
100
AcDbLine
 62
7
  6
CONTINUOUS
 10
68.5495628104
 20
317.2535984962
 11
68.5495628104
 21
321.2535984962
  0
LINE
  5
2A9
100
AcDbEntity
  8
3_ALL_AXES
100
AcDbLine
 62
7
  6
CONTINUOUS
 10
70.0495628104
 20
1077.5535984962
 11
70.0495628104
 21
1101.9535984962
  0
LINE
  5
2AA
100
AcDbEntity
  8
7_ALL_FEATURES
100
AcDbLine
 62
7
  6
CONTINUOUS
 10
73.5495628104
 20
321.2535984962
 11
73.5495628104
 21
1077.2535984962
  0
LINE
  5
2AB
100
AcDbEntity
  8
7_ALL_FEATURES
100
AcDbLine
 62
7
  6
CONTINUOUS
 10
76.3631810467
 20
322.4535984962
 11
76.3631810467
 21
321.2535984962
  0
LINE
  5
2AC
100
AcDbEntity
  8
7_ALL_FEATURES
100
AcDbLine
 62
9
  6
CONTINUOUS
 10
76.5822544552
 20
322.4535984962
 11
76.5822544552
 21
321.2535984962
  0
LINE
  5
2AD
100
AcDbEntity
  8
3_ALL_AXES
100
AcDbLine
 62
9
  6
CONTINUOUS
 10
123.5495628104
 20
317.2535984962
 11
123.5495628104
 21
322.4535984962
  0
LINE
  5
2AE
100
AcDbEntity
  8
7_ALL_FEATURES
100
AcDbLine
 62
7
  6
CONTINUOUS
 10
123.5495628104
 20
322.4535984962
 11
123.5495628104
 21
1077.2535984962
  0
LINE
  5
2AF
100
AcDbEntity
  8
3_ALL_AXES
100
AcDbLine
 62
7
  6
CONTINUOUS
 10
178.5495628104
 20
317.2535984962
 11
178.5495628104
 21
322.4535984962
  0
LINE
  5
2B0
100
AcDbEntity
  8
3_ALL_AXES
100
AcDbLine
 62
7
  6
CONTINUOUS
 10
195.0495628104
 20
1077.5535984962
 11
195.0495628104
 21
1101.9535984962
  0
LINE
  5
2B1
100
AcDbEntity
  8
7_ALL_FEATURES
100
AcDbLine
 62
7
  6
CONTINUOUS
 10
70.3495628104
 20
1077.2535984962
 11
70.0495628104
 21
1077.5535984962
  0
LINE
  5
2B2
100
AcDbEntity
  8
7_ALL_FEATURES
100
AcDbLine
 62
7
  6
CONTINUOUS
 10
194.7495628104
 20
1102.2535984962
 11
195.0495628104
 21
1101.9535984962
  0
LINE
  5
2B3
100
AcDbEntity
  8
7_ALL_FEATURES
100
AcDbLine
 62
7
  6
CONTINUOUS
 10
194.749056046
 20
1077.2535984962
 11
70.3500695749
 21
1077.2535984962
  0
LINE
  5
2B4
100
AcDbEntity
  8
7_ALL_FEATURES
100
AcDbLine
 62
7
  6
CONTINUOUS
 10
195.0495628104
 20
1077.5535984962
 11
70.0495628104
 21
1077.5535984962
  0
LINE
  5
2B5
100
AcDbEntity
  8
7_ALL_FEATURES
100
AcDbLine
 62
7
  6
CONTINUOUS
 10
70.0495628104
 20
1101.9535984962
 11
195.0495628104
 21
1101.9535984962
  0
LINE
  5
2B6
100
AcDbEntity
  8
7_ALL_FEATURES
100
AcDbLine
 62
7
  6
CONTINUOUS
 10
70.3500695749
 20
1102.2535984962
 11
194.749056046
 21
1102.2535984962
  0
LINE
  5
2B7
100
AcDbEntity
  8
3_ALL_AXES
100
AcDbLine
 62
3
  6
CONTINUOUS
 10
452.3245967742
 20
317.2535984962
 11
562.3245967742
 21
317.2535984962
  0
LINE
  5
2B8
100
AcDbEntity
  8
7_ALL_FEATURES
100
AcDbLine
 62
3
  6
CONTINUOUS
 10
452.3245967742
 20
321.2535984962
 11
478.8866501493
 21
321.2535984962
  0
LINE
  5
2B9
100
AcDbEntity
  8
7_ALL_FEATURES
100
AcDbLine
 62
3
  6
CONTINUOUS
 10
535.7625433991
 20
321.2535984962
 11
562.3245967742
 21
321.2535984962
  0
LINE
  5
2BA
100
AcDbEntity
  8
3_ALL_AXES
100
AcDbLine
 62
7
  6
CONTINUOUS
 10
452.3245967742
 20
321.2535984962
 11
562.3245967742
 21
321.2535984962
  0
LINE
  5
2BB
100
AcDbEntity
  8
7_ALL_FEATURES
100
AcDbLine
 62
7
  6
CONTINUOUS
 10
452.3245967742
 20
322.4535984962
 11
482.3245967742
 21
322.4535984962
  0
LINE
  5
2BC
100
AcDbEntity
  8
7_ALL_FEATURES
100
AcDbLine
 62
7
  6
CONTINUOUS
 10
532.3245967742
 20
322.4535984962
 11
562.3245967742
 21
322.4535984962
  0
LINE
  5
2BD
100
AcDbEntity
  8
7_ALL_FEATURES
100
AcDbLine
 62
7
  6
CONTINUOUS
 10
445.1245967745
 20
1102.2535984965
 11
444.8245967745
 21
1101.9535984965
  0
LINE
  5
2BE
100
AcDbEntity
  8
7_ALL_FEATURES
100
AcDbLine
 62
7
  6
CONTINUOUS
 10
569.5245967737
 20
1077.2535984957
 11
569.8245967736
 21
1077.5535984956
  0
LINE
  5
2BF
100
AcDbEntity
  8
7_ALL_FEATURES
100
AcDbLine
 62
7
  6
CONTINUOUS
 10
444.8245967742
 20
1077.5535984962
 11
444.8245967742
 21
1101.9535984962
  0
LINE
  5
2C0
100
AcDbEntity
  8
3_ALL_AXES
100
AcDbLine
 62
7
  6
CONTINUOUS
 10
452.3245967742
 20
317.2535984962
 11
452.3245967742
 21
322.4535984962
  0
LINE
  5
2C1
100
AcDbEntity
  8
7_ALL_FEATURES
100
AcDbLine
 62
9
  6
CONTINUOUS
 10
478.7051637633
 20
322.4535984962
 11
478.7051637633
 21
321.2535984962
  0
LINE
  5
2C2
100
AcDbEntity
  8
7_ALL_FEATURES
100
AcDbLine
 62
9
  6
CONTINUOUS
 10
480.984779995
 20
322.4535984962
 11
480.984779995
 21
321.2535984962
  0
LINE
  5
2C3
100
AcDbEntity
  8
7_ALL_FEATURES
100
AcDbLine
 62
9
  6
CONTINUOUS
 10
481.7401916025
 20
321.2535984962
 11
481.7401916025
 21
322.4535984962
  0
LINE
  5
2C4
100
AcDbEntity
  8
3_ALL_AXES
100
AcDbLine
 62
7
  6
CONTINUOUS
 10
482.3245967742
 20
321.2535984962
 11
482.3245967742
 21
1077.2535984962
  0
LINE
  5
2C5
100
AcDbEntity
  8
3_ALL_AXES
100
AcDbLine
 62
7
  6
CONTINUOUS
 10
532.3245967742
 20
321.2535984962
 11
532.3245967742
 21
1077.2535984962
  0
LINE
  5
2C6
100
AcDbEntity
  8
7_ALL_FEATURES
100
AcDbLine
 62
9
  6
CONTINUOUS
 10
532.9090019459
 20
321.2535984962
 11
532.9090019459
 21
322.4535984962
  0
LINE
  5
2C7
100
AcDbEntity
  8
7_ALL_FEATURES
100
AcDbLine
 62
9
  6
CONTINUOUS
 10
533.6644135534
 20
322.4535984962
 11
533.6644135534
 21
321.2535984962
  0
LINE
  5
2C8
100
AcDbEntity
  8
7_ALL_FEATURES
100
AcDbLine
 62
9
  6
CONTINUOUS
 10
535.9440297851
 20
322.4535984962
 11
535.9440297851
 21
321.2535984962
  0
LINE
  5
2C9
100
AcDbEntity
  8
3_ALL_AXES
100
AcDbLine
 62
7
  6
CONTINUOUS
 10
562.3245967742
 20
317.2535984962
 11
562.3245967742
 21
322.4535984962
  0
LINE
  5
2CA
100
AcDbEntity
  8
7_ALL_FEATURES
100
AcDbLine
 62
7
  6
CONTINUOUS
 10
569.8245967742
 20
1077.5535984962
 11
569.8245967742
 21
1101.9535984962
  0
LINE
  5
2CB
100
AcDbEntity
  8
7_ALL_FEATURES
100
AcDbLine
 62
7
  6
CONTINUOUS
 10
445.1245967747
 20
1077.2535984957
 11
444.8245967747
 21
1077.5535984956
  0
LINE
  5
2CC
100
AcDbEntity
  8
7_ALL_FEATURES
100
AcDbLine
 62
7
  6
CONTINUOUS
 10
569.5245967739
 20
1102.2535984965
 11
569.8245967739
 21
1101.9535984965
  0
LINE
  5
2CD
100
AcDbEntity
  8
7_ALL_FEATURES
100
AcDbLine
 62
7
  6
CONTINUOUS
 10
569.5245967742
 20
1077.2535984962
 11
445.1245967742
 21
1077.2535984962
  0
LINE
  5
2CE
100
AcDbEntity
  8
7_ALL_FEATURES
100
AcDbLine
 62
7
  6
CONTINUOUS
 10
569.8245967742
 20
1077.5535984962
 11
444.8245967742
 21
1077.5535984962
  0
LINE
  5
2CF
100
AcDbEntity
  8
7_ALL_FEATURES
100
AcDbLine
 62
7
  6
CONTINUOUS
 10
444.8245967742
 20
1101.9535984962
 11
569.8245967742
 21
1101.9535984962
  0
LINE
  5
2D0
100
AcDbEntity
  8
7_ALL_FEATURES
100
AcDbLine
 62
7
  6
CONTINUOUS
 10
445.1245967742
 20
1102.2535984962
 11
569.5245967742
 21
1102.2535984962
  0
LINE
  5
2D1
100
AcDbEntity
  8
7_ALL_FEATURES
100
AcDbLine
 62
7
  6
CONTINUOUS
 10
667.3128936235
 20
91.9105445535
 11
651.4824912518
 21
99.2915890691
  0
LINE
  5
2D2
100
AcDbEntity
  8
3_ALL_AXES
100
AcDbLine
 62
7
  6
CONTINUOUS
 10
646.3136822014
 20
743.1868390517
 11
646.3136822014
 21
764.3178589041
  0
LINE
  5
2D3
100
AcDbEntity
  8
3_ALL_AXES
100
AcDbLine
 62
7
  6
CONTINUOUS
 10
647.4497211708
 20
87.9297050698
 11
647.4497211708
 21
91.3938066849
  0
LINE
  5
2D4
100
AcDbEntity
  8
3_ALL_AXES
100
AcDbLine
 62
7
  6
CONTINUOUS
 10
659.7720516411
 20
98.7147528366
 11
659.7720516411
 21
723.8372835252
  0
LINE
  5
2D5
100
AcDbEntity
  8
3_ALL_AXES
100
AcDbLine
 62
9
  6
CONTINUOUS
 10
663.5588482055
 20
68.4842685871
 11
663.5588482055
 21
72.9876006868
  0
LINE
  5
2D6
100
AcDbEntity
  8
3_ALL_AXES
100
AcDbLine
 62
7
  6
CONTINUOUS
 10
709.7720516411
 20
98.5360917465
 11
709.7720516411
 21
711.865056945
  0
LINE
  5
2D7
100
AcDbEntity
  8
3_ALL_AXES
100
AcDbLine
 62
7
  6
CONTINUOUS
 10
757.4497211708
 20
87.9297050698
 11
757.4497211708
 21
91.3938066849
  0
LINE
  5
2D8
100
AcDbEntity
  8
3_ALL_AXES
100
AcDbLine
 62
7
  6
CONTINUOUS
 10
771.3136822014
 20
743.1868390517
 11
771.3136822014
 21
764.3178589041
  0
CIRCLE
  5
2D9
100
AcDbEntity
  8
7_ALL_FEATURES
100
AcDbCircle
 62
7
  6
CONTINUOUS
 10
132.5495628104
 20
194.5876108999
 40
62.5
  0
CIRCLE
  5
2DA
100
AcDbEntity
  8
7_ALL_FEATURES
100
AcDbCircle
 62
7
  6
CONTINUOUS
 10
132.5495628104
 20
194.5876108999
 40
62.2
  0
ARC
  5
2DB
100
AcDbEntity
  8
7_ALL_FEATURES
100
AcDbCircle
 62
7
  6
CONTINUOUS
 10
123.5495628104
 20
194.5876108999
 40
55.0
100
AcDbArc
 50
211.3559549895
 51
216.2599459571
  0
ARC
  5
2DC
100
AcDbEntity
  8
7_ALL_FEATURES
100
AcDbCircle
 62
7
  6
CONTINUOUS
 10
123.5495628104
 20
194.5876108999
 40
55.0
100
AcDbArc
 50
143.7400539504
 51
148.6440450105
  0
ARC
  5
2DD
100
AcDbEntity
  8
3_ALL_AXES
100
AcDbCircle
 62
7
  6
CONTINUOUS
 10
123.5495628104
 20
194.5876108999
 40
55.0
100
AcDbArc
 50
148.8539932176
 51
211.1460067824
  0
ARC
  5
2DE
100
AcDbEntity
  8
7_ALL_FEATURES
100
AcDbCircle
 62
7
  6
CONTINUOUS
 10
77.8631810467
 20
222.4265139196
 40
1.5
100
AcDbArc
 50
148.6440450105
 51
195.1762158835
  0
ARC
  5
2DF
100
AcDbEntity
  8
7_ALL_FEATURES
100
AcDbCircle
 62
7
  6
CONTINUOUS
 10
77.8631810467
 20
166.7487078802
 40
1.5
100
AcDbArc
 50
164.8237838621
 51
211.3559549895
  0
ARC
  5
2E0
100
AcDbEntity
  8
7_ALL_FEATURES
100
AcDbCircle
 62
7
  6
CONTINUOUS
 10
692.2870333849
 20
776.4252400401
 40
61.866858343
100
AcDbArc
 50
243.4351301822
 51
243.6628793741
  0
ARC
  5
2E1
100
AcDbEntity
  8
7_ALL_FEATURES
100
AcDbCircle
 62
7
  6
CONTINUOUS
 10
692.1078101113
 20
775.4888199781
 40
60.991790034
100
AcDbArc
 50
243.1807022428
 51
243.4351462942
  0
ARC
  5
2E2
100
AcDbEntity
  8
7_ALL_FEATURES
100
AcDbCircle
 62
7
  6
CONTINUOUS
 10
734.1434137732
 20
761.4938656302
 40
44.5176477518
100
AcDbArc
 50
304.8898249936
 51
305.2628163312
  0
ARC
  5
2E3
100
AcDbEntity
  8
7_ALL_FEATURES
100
AcDbCircle
 62
7
  6
CONTINUOUS
 10
683.4683155195
 20
761.4698244754
 40
44.4890248547
100
AcDbArc
 50
234.735719228
 51
235.1185974624
  0
ARC
  5
2E4
100
AcDbEntity
  8
7_ALL_FEATURES
100
AcDbCircle
 62
7
  6
CONTINUOUS
 10
683.2375491568
 20
746.8788760321
 40
43.6666331896
100
AcDbArc
 50
125.2627586642
 51
125.660426474
  0
ARC
  5
2E5
100
AcDbEntity
  8
7_ALL_FEATURES
100
AcDbCircle
 62
7
  6
CONTINUOUS
 10
734.4027204431
 20
746.8990220623
 40
43.6427666025
100
AcDbArc
 50
54.3288727785
 51
54.7357747052
  0
ARC
  5
2E6
100
AcDbEntity
  8
3_ALL_AXES
100
AcDbCircle
 62
7
  6
CONTINUOUS
 10
680.3602176818
 20
107.7776513816
 40
39.5148550041
100
AcDbArc
 50
234.135653178
 51
236.672466035
  0
ARC
  5
2E7
100
AcDbEntity
  8
3_ALL_AXES
100
AcDbCircle
 62
7
  6
CONTINUOUS
 10
673.7801550772
 20
99.6236410084
 40
29.0281746492
100
AcDbArc
 50
224.7890692093
 51
228.4981576911
  0
ARC
  5
2E8
100
AcDbEntity
  8
3_ALL_AXES
100
AcDbCircle
 62
7
  6
CONTINUOUS
 10
668.0490308884
 20
94.5575388783
 40
21.3699828627
100
AcDbArc
 50
213.6653138231
 51
218.4813144822
  0
ARC
  5
2E9
100
AcDbEntity
  8
3_ALL_AXES
100
AcDbCircle
 62
7
  6
CONTINUOUS
 10
663.793859859
 20
92.1056372021
 40
16.4508138546
100
AcDbArc
 50
200.4024478402
 51
206.2413063885
  0
ARC
  5
2EA
100
AcDbEntity
  8
3_ALL_AXES
100
AcDbCircle
 62
7
  6
CONTINUOUS
 10
661.4258432849
 20
91.4078322385
 40
13.9765237012
100
AcDbArc
 50
183.2159506789
 51
191.8401138472
  0
ARC
  5
2EB
100
AcDbEntity
  8
3_ALL_AXES
100
AcDbCircle
 62
7
  6
CONTINUOUS
 10
743.6572244827
 20
92.433710738
 40
13.7924378723
100
AcDbArc
 50
355.6950416919
 51
359.9972018989
  0
ARC
  5
2EC
100
AcDbEntity
  8
3_ALL_AXES
100
AcDbCircle
 62
7
  6
CONTINUOUS
 10
661.2284289957
 20
91.3940787419
 40
13.7786489954
100
AcDbArc
 50
180.0011312951
 51
183.204902062
  0
ARC
  5
2ED
100
AcDbEntity
  8
7_ALL_FEATURES
100
AcDbCircle
 62
7
  6
CONTINUOUS
 10
661.2242226801
 20
92.4337559301
 40
13.7745058579
100
AcDbArc
 50
180.0029897554
 51
184.2684724359
  0
ARC
  5
2EE
100
AcDbEntity
  8
7_ALL_FEATURES
100
AcDbCircle
 62
3
  6
CONTINUOUS
 10
703.7350212243
 20
100.2044107279
 40
6.6388832651
100
AcDbArc
 50
9.1646266096
 51
11.772453543
  0
ARC
  5
2EF
100
AcDbEntity
  8
7_ALL_FEATURES
100
AcDbCircle
 62
3
  6
CONTINUOUS
 10
703.8721315933
 20
100.2258869866
 40
6.50010261
100
AcDbArc
 50
3.3309293682
 51
9.1702299975
  0
ARC
  5
2F0
100
AcDbEntity
  8
7_ALL_FEATURES
100
AcDbCircle
 62
7
  6
CONTINUOUS
 10
703.8938317762
 20
101.275395433
 40
6.4781801638
100
AcDbArc
 50
350.1984230009
 51
359.9688363951
  0
SPLINE
  5
2F1
100
AcDbEntity
  8
7_ALL_FEATURES
100
AcDbSpline
 62
7
  6
CONTINUOUS
 70
0
 71
3
 72
11
 73
7
 74
0
 42
0.0000001
 43
0.0000001
 44
0.0000000001
 40
0.0
 40
0.0
 40
0.0
 40
0.0
 40
0.264452418
 40
0.5539293826
 40
0.8119862244
 40
1.0
 40
1.0
 40
1.0
 40
1.0
 10
651.4824912518
 20
99.2915890691
 30
0.0
 10
651.2694056439
 20
99.3909418412
 30
0.0
 10
650.7809978732
 20
99.5070439554
 30
0.0
 10
650.051745296
 20
99.4944523908
 30
0.0
 10
649.4175051949
 20
99.3270753664
 30
0.0
 10
649.074824591
 20
99.0703594314
 30
0.0
 10
649.001823783
 20
98.9199907076
 30
0.0
  0
SPLINE
  5
2F2
100
AcDbEntity
  8
7_ALL_FEATURES
100
AcDbSpline
 62
7
  6
CONTINUOUS
 70
0
 71
3
 72
15
 73
11
 74
0
 42
0.0000001
 43
0.0000001
 44
0.0000000001
 40
0.0
 40
0.0
 40
0.0
 40
0.0
 40
0.1234893467
 40
0.2593397615
 40
0.4017646895
 40
0.5441956335
 40
0.6800667969
 40
0.8035789973
 40
0.9106072129
 40
1.0
 40
1.0
 40
1.0
 40
1.0
 10
667.3128936235
 20
91.9105445535
 30
0.0
 10
668.9757330603
 20
91.1352331232
 30
0.0
 10
672.6331835641
 20
89.8551422444
 30
0.0
 10
678.5110959217
 20
88.7267323818
 30
0.0
 10
684.7664712327
 20
88.3418110439
 30
0.0
 10
691.021591207
 20
88.725383549
 30
0.0
 10
696.9022876858
 20
89.8524397463
 30
0.0
 10
702.0645821238
 20
91.6597893666
 30
0.0
 10
706.2139415534
 20
94.0381827949
 30
0.0
 10
708.3331053372
 20
96.1319890952
 30
0.0
 10
709.0677844874
 20
97.2384090019
 30
0.0
  0
SPLINE
  5
2F3
100
AcDbEntity
  8
7_ALL_FEATURES
100
AcDbSpline
 62
7
  6
CONTINUOUS
 70
0
 71
3
 72
9
 73
5
 74
0
 42
0.0000001
 43
0.0000001
 44
0.0000000001
 40
0.0
 40
0.0
 40
0.0
 40
0.0
 40
0.2630898221
 40
1.0
 40
1.0
 40
1.0
 40
1.0
 10
709.0677844874
 20
97.2384090019
 30
0.0
 10
709.2223572394
 20
97.4711941161
 30
0.0
 10
709.7708568316
 20
98.380514014
 30
0.0
 10
710.1444273556
 20
99.4012777462
 30
0.0
 10
710.277451326
 20
100.1725719298
 30
0.0
  0
SPLINE
  5
2F4
100
AcDbEntity
  8
7_ALL_FEATURES
100
AcDbSpline
 62
7
  6
CONTINUOUS
 70
0
 71
3
 72
10
 73
6
 74
0
 42
0.0000001
 43
0.0000001
 44
0.0000000001
 40
0.0
 40
0.0
 40
0.0
 40
0.0
 40
0.2267926388
 40
0.4718916478
 40
1.0
 40
1.0
 40
1.0
 40
1.0
 10
741.340594136
 20
111.8784736521
 30
0.0
 10
739.1302324098
 20
112.9836545152
 30
0.0
 10
734.3728986644
 20
114.9745111656
 30
0.0
 10
723.9135851819
 20
118.075891782
 30
0.0
 10
715.518726616
 20
119.3020387483
 30
0.0
 10
709.7771130504
 20
119.6878922163
 30
0.0
  0
SPLINE
  5
2F5
100
AcDbEntity
  8
7_ALL_FEATURES
100
AcDbSpline
 62
7
  6
CONTINUOUS
 70
0
 71
3
 72
9
 73
5
 74
0
 42
0.0000001
 43
0.0000001
 44
0.0000000001
 40
0.0
 40
0.0
 40
0.0
 40
0.0
 40
0.5099759105
 40
1.0
 40
1.0
 40
1.0
 40
1.0
 10
649.001823783
 20
98.9199907076
 30
0.0
 10
648.5034033456
 20
97.8933329615
 30
0.0
 10
647.7226692833
 20
95.7750136512
 30
0.0
 10
647.449719101
 20
93.5296369095
 30
0.0
 10
647.4497168409
 20
92.4330371615
 30
0.0
  0
SPLINE
  5
2F6
100
AcDbEntity
  8
3_ALL_AXES
100
AcDbSpline
 62
7
  6
CONTINUOUS
 70
0
 71
3
 72
13
 73
9
 74
0
 42
0.0000001
 43
0.0000001
 44
0.0000000001
 40
0.0
 40
0.0
 40
0.0
 40
0.0
 40
0.1021742994
 40
0.2072181595
 40
0.4348475151
 40
0.5615308842
 40
0.6978417554
 40
1.0
 40
1.0
 40
1.0
 40
1.0
 10
757.4496623385
 20
92.4330371694
 30
0.0
 10
757.4496625781
 20
93.3358525906
 30
0.0
 10
757.266671866
 20
95.1717979874
 30
0.0
 10
756.1546219654
 20
98.8703190932
 30
0.0
 10
753.9382019454
 20
102.3664364423
 30
0.0
 10
750.9398765226
 20
105.5037290306
 30
0.0
 10
747.084659922
 20
108.6942691696
 30
0.0
 10
743.7286074423
 20
110.6844669989
 30
0.0
 10
741.340594136
 20
111.8784736521
 30
0.0
  0
SPLINE
  5
2F7
100
AcDbEntity
  8
3_ALL_AXES
100
AcDbSpline
 62
7
  6
CONTINUOUS
 70
0
 71
3
 72
15
 73
11
 74
0
 42
0.0000001
 43
0.0000001
 44
0.0000000001
 40
0.0
 40
0.0
 40
0.0
 40
0.0
 40
0.1112730916
 40
0.2323801188
 40
0.3607688545
 40
0.4933760605
 40
0.6268810911
 40
0.7579087124
 40
0.8832341882
 40
1.0
 40
1.0
 40
1.0
 40
1.0
 10
663.5588482055
 20
72.9876006868
 30
0.0
 10
666.0702903713
 20
71.7318796039
 30
0.0
 10
671.5188695799
 20
69.5088719533
 30
0.0
 10
680.3130325811
 20
67.0918027825
 30
0.0
 10
689.8404357492
 20
65.5080762547
 30
0.0
 10
699.7850826495
 20
64.8119365625
 30
0.0
 10
709.8181250573
 20
65.0263406862
 30
0.0
 10
719.6073394521
 20
66.14430456
 30
0.0
 10
728.8269726047
 20
68.127579786
 30
0.0
 10
734.6392189361
 20
70.0651947494
 30
0.0
 10
737.3646758333
 20
71.1848548124
 30
0.0
  0
SPLINE
  5
2F8
100
AcDbEntity
  8
3_ALL_AXES
100
AcDbSpline
 62
7
  6
CONTINUOUS
 70
0
 71
3
 72
13
 73
9
 74
0
 42
0.0000001
 43
0.0000001
 44
0.0000000001
 40
0.0
 40
0.0
 40
0.0
 40
0.0
 40
0.3058863714
 40
0.5712071694
 40
0.6892686985
 40
0.7987479048
 40
0.9014794316
 40
1.0
 40
1.0
 40
1.0
 40
1.0
 10
737.3646758333
 20
71.1848548124
 30
0.0
 10
740.1791609024
 20
72.3410890323
 30
0.0
 10
745.2964804134
 20
74.870622223
 30
0.0
 10
750.8095902264
 20
79.0572960255
 30
0.0
 10
754.0461088804
 20
82.7612868967
 30
0.0
 10
755.807429008
 20
85.5530246217
 30
0.0
 10
756.9710771058
 20
88.4356452034
 30
0.0
 10
757.3372061183
 20
90.4211352299
 30
0.0
 10
757.4107489393
 20
91.3983810891
 30
0.0
  0
SPLINE
  5
2F9
100
AcDbEntity
  8
7_ALL_FEATURES
100
AcDbSpline
 62
7
  6
CONTINUOUS
 70
0
 71
3
 72
12
 73
8
 74
0
 42
0.0000001
 43
0.0000001
 44
0.0000000001
 40
0.0
 40
0.0
 40
0.0
 40
0.0
 40
0.1019531172
 40
0.2074609065
 40
0.4366549169
 40
0.6995972505
 40
1.0
 40
1.0
 40
1.0
 40
1.0
 10
647.4879239909
 20
91.4085193955
 30
0.0
 10
647.5523508991
 20
90.5449855601
 30
0.0
 10
647.8506118402
 20
88.7963115839
 30
0.0
 10
649.1225246871
 20
85.2946919604
 30
0.0
 10
652.0355643741
 20
81.038904454
 30
0.0
 10
657.132956621
 20
76.5720617974
 30
0.0
 10
661.2767563147
 20
74.1286466322
 30
0.0
 10
663.5588482055
 20
72.9876006868
 30
0.0
  0
SPLINE
  5
2FA
100
AcDbEntity
  8
7_ALL_FEATURES
100
AcDbSpline
 62
7
  6
CONTINUOUS
 70
0
 71
3
 72
9
 73
5
 74
0
 42
0.0000001
 43
0.0000001
 44
0.0000000001
 40
0.0
 40
0.0
 40
0.0
 40
0.0
 40
0.2459942072
 40
1.0
 40
1.0
 40
1.0
 40
1.0
 10
710.3720109818
 20
101.2718719024
 30
0.0
 10
710.3720004885
 20
101.4878314527
 30
0.0
 10
710.3279785488
 20
102.3655509833
 30
0.0
 10
710.1012057374
 20
103.2311097732
 30
0.0
 10
709.8500156693
 20
103.8435437374
 30
0.0
  0
SPLINE
  5
2FB
100
AcDbEntity
  8
3_ALL_AXES
100
AcDbSpline
 62
7
  6
CONTINUOUS
 70
0
 71
3
 72
9
 73
5
 74
0
 42
0.0000001
 43
0.0000001
 44
0.0000000001
 40
0.0
 40
0.0
 40
0.0
 40
0.0
 40
0.53538856
 40
1.0
 40
1.0
 40
1.0
 40
1.0
 10
659.6876085445
 20
108.6882983704
 30
0.0
 10
657.6300548934
 20
107.4164872673
 30
0.0
 10
653.9631843075
 20
104.7283351454
 30
0.0
 10
650.9733427084
 20
101.2576743486
 30
0.0
 10
649.8745296708
 20
99.469124897
 30
0.0
  0
SPLINE
  5
2FC
100
AcDbEntity
  8
3_ALL_AXES
100
AcDbSpline
 62
7
  6
CONTINUOUS
 70
0
 71
3
 72
9
 73
5
 74
0
 42
0.0000001
 43
0.0000001
 44
0.0000000001
 40
0.0
 40
0.0
 40
0.0
 40
0.0
 40
0.2540739797
 40
1.0
 40
1.0
 40
1.0
 40
1.0
 10
709.7270555858
 20
98.3085581677
 30
0.0
 10
709.7757341577
 20
98.4664263395
 30
0.0
 10
709.9454082903
 20
99.0942741536
 30
0.0
 10
710.02205826
 20
99.7476288908
 30
0.0
 10
710.0220223612
 20
100.2326414144
 30
0.0
  0
SPLINE
  5
2FD
100
AcDbEntity
  8
3_ALL_AXES
100
AcDbSpline
 62
7
  6
CONTINUOUS
 70
0
 71
3
 72
9
 73
5
 74
0
 42
0.0000001
 43
0.0000001
 44
0.0000000001
 40
0.0
 40
0.0
 40
0.0
 40
0.0
 40
0.4888457407
 40
1.0
 40
1.0
 40
1.0
 40
1.0
 10
659.5220591162
 20
100.2326414433
 30
0.0
 10
659.5220317113
 20
99.6982014927
 30
0.0
 10
659.6639981868
 20
98.6008450858
 30
0.0
 10
660.0673245056
 20
97.5732637286
 30
0.0
 10
660.3237072195
 20
97.0767177182
 30
0.0
  0
SPLINE
  5
2FE
100
AcDbEntity
  8
3_ALL_AXES
100
AcDbSpline
 62
7
  6
CONTINUOUS
 70
0
 71
3
 72
9
 73
5
 74
0
 42
0.0000001
 43
0.0000001
 44
0.0000000001
 40
0.0
 40
0.0
 40
0.0
 40
0.0
 40
0.2455946001
 40
1.0
 40
1.0
 40
1.0
 40
1.0
 10
660.3237072195
 20
97.0767177182
 30
0.0
 10
660.3624763119
 20
97.0016321641
 30
0.0
 10
660.5250665482
 20
96.6983601951
 30
0.0
 10
660.706147597
 20
96.4050748514
 30
0.0
 10
660.8515239268
 20
96.1900292413
 30
0.0
  0
SPLINE
  5
2FF
100
AcDbEntity
  8
3_ALL_AXES
100
AcDbSpline
 62
7
  6
CONTINUOUS
 70
0
 71
3
 72
9
 73
5
 74
0
 42
0.0000001
 43
0.0000001
 44
0.0000000001
 40
0.0
 40
0.0
 40
0.0
 40
0.0
 40
0.2368392498
 40
1.0
 40
1.0
 40
1.0
 40
1.0
 10
660.8515239268
 20
96.1900292413
 30
0.0
 10
660.9861451183
 20
95.9908929976
 30
0.0
 10
661.5867230289
 20
95.1718806125
 30
0.0
 10
662.3040670101
 20
94.441993477
 30
0.0
 10
662.8888277387
 20
93.9340884253
 30
0.0
  0
SPLINE
  5
300
100
AcDbEntity
  8
3_ALL_AXES
100
AcDbSpline
 62
7
  6
CONTINUOUS
 70
0
 71
3
 72
9
 73
5
 74
0
 42
0.0000001
 43
0.0000001
 44
0.0000000001
 40
0.0
 40
0.0
 40
0.0
 40
0.0
 40
0.2533436466
 40
1.0
 40
1.0
 40
1.0
 40
1.0
 10
659.7629948875
 20
101.9725817836
 30
0.0
 10
659.7231554302
 20
101.8294296127
 30
0.0
 10
659.5842327743
 20
101.2594627691
 30
0.0
 10
659.5220815724
 20
100.6705743611
 30
0.0
 10
659.5220591162
 20
100.2326414433
 30
0.0
  0
SPLINE
  5
301
100
AcDbEntity
  8
3_ALL_AXES
100
AcDbSpline
 62
7
  6
CONTINUOUS
 70
0
 71
3
 72
9
 73
5
 74
0
 42
0.0000001
 43
0.0000001
 44
0.0000000001
 40
0.0
 40
0.0
 40
0.0
 40
0.0
 40
0.2472251873
 40
1.0
 40
1.0
 40
1.0
 40
1.0
 10
647.7466844184
 20
88.540110586
 30
0.0
 10
647.7847331684
 20
88.3578126403
 30
0.0
 10
647.9528888036
 20
87.6234624124
 30
0.0
 10
648.1775755961
 20
86.9022262854
 30
0.0
 10
648.3750533201
 20
86.3706845958
 30
0.0
  0
SPLINE
  5
302
100
AcDbEntity
  8
3_ALL_AXES
100
AcDbSpline
 62
7
  6
CONTINUOUS
 70
0
 71
3
 72
9
 73
5
 74
0
 42
0.0000001
 43
0.0000001
 44
0.0000000001
 40
0.0
 40
0.0
 40
0.0
 40
0.0
 40
0.2452678015
 40
1.0
 40
1.0
 40
1.0
 40
1.0
 10
649.0384695022
 20
84.8318670726
 30
0.0
 10
649.1268089644
 20
84.6521218653
 30
0.0
 10
649.4996026795
 20
83.9255096451
 30
0.0
 10
649.921582234
 20
83.2243667035
 30
0.0
 10
650.2630107193
 20
82.7112882439
 30
0.0
  0
SPLINE
  5
303
100
AcDbEntity
  8
3_ALL_AXES
100
AcDbSpline
 62
7
  6
CONTINUOUS
 70
0
 71
3
 72
9
 73
5
 74
0
 42
0.0000001
 43
0.0000001
 44
0.0000000001
 40
0.0
 40
0.0
 40
0.0
 40
0.0
 40
0.2442988876
 40
1.0
 40
1.0
 40
1.0
 40
1.0
 10
651.3203704113
 20
81.2598666688
 30
0.0
 10
651.4617748339
 20
81.0815230821
 30
0.0
 10
652.0514352481
 20
80.3601327632
 30
0.0
 10
652.6828695581
 20
79.6731475045
 30
0.0
 10
653.17870996
 20
79.173326034
 30
0.0
  0
SPLINE
  5
304
100
AcDbEntity
  8
3_ALL_AXES
100
AcDbSpline
 62
7
  6
CONTINUOUS
 70
0
 71
3
 72
9
 73
5
 74
0
 42
0.0000001
 43
0.0000001
 44
0.0000000001
 40
0.0
 40
0.0
 40
0.0
 40
0.0
 40
0.2437807337
 40
1.0
 40
1.0
 40
1.0
 40
1.0
 10
654.5448055394
 20
77.8834420298
 30
0.0
 10
654.7522617038
 20
77.6995419657
 30
0.0
 10
655.6133252372
 20
76.9565721115
 30
0.0
 10
656.5128704526
 20
76.258518842
 30
0.0
 10
657.2097214027
 20
75.7545614616
 30
0.0
  0
SPLINE
  5
305
100
AcDbEntity
  8
3_ALL_AXES
100
AcDbSpline
 62
7
  6
CONTINUOUS
 70
0
 71
3
 72
9
 73
5
 74
0
 42
0.0000001
 43
0.0000001
 44
0.0000000001
 40
0.0
 40
0.0
 40
0.0
 40
0.0
 40
0.2418688778
 40
1.0
 40
1.0
 40
1.0
 40
1.0
 10
658.6497918327
 20
74.7612739993
 30
0.0
 10
659.030928453
 20
74.5103765647
 30
0.0
 10
660.6237150564
 20
73.498948537
 30
0.0
 10
662.2795701013
 20
72.5880092544
 30
0.0
 10
663.5588482055
 20
71.9483702023
 30
0.0
  0
SPLINE
  5
306
100
AcDbEntity
  8
3_ALL_AXES
100
AcDbSpline
 62
7
  6
CONTINUOUS
 70
0
 71
3
 72
9
 73
5
 74
0
 42
0.0000001
 43
0.0000001
 44
0.0000000001
 40
0.0
 40
0.0
 40
0.0
 40
0.0
 40
0.2481862711
 40
1.0
 40
1.0
 40
1.0
 40
1.0
 10
710.0220223612
 20
100.2326414144
 30
0.0
 10
710.0220118595
 20
100.3745249347
 30
0.0
 10
710.0027911224
 20
100.946093562
 30
0.0
 10
709.9054940173
 20
101.5146386178
 30
0.0
 10
709.7929602093
 20
101.9294428096
 30
0.0
  0
SPLINE
  5
307
100
AcDbEntity
  8
7_ALL_FEATURES
100
AcDbSpline
 62
7
  6
CONTINUOUS
 70
0
 71
3
 72
15
 73
11
 74
0
 42
0.0000001
 43
0.0000001
 44
0.0000000001
 40
0.0
 40
0.0
 40
0.0
 40
0.0
 40
0.1152968213
 40
0.2420125592
 40
0.3762599621
 40
0.5134518395
 40
0.6487519401
 40
0.7774836172
 40
0.8955612002
 40
1.0
 40
1.0
 40
1.0
 40
1.0
 10
752.7957239912
 20
786.5686874201
 30
0.0
 10
749.4120326509
 20
788.2605330963
 30
0.0
 10
741.9828285465
 20
791.1703157118
 30
0.0
 10
729.9558610241
 20
794.0812718138
 30
0.0
 10
716.9580632513
 20
795.6526489863
 30
0.0
 10
703.5876624684
 20
795.8090375675
 30
0.0
 10
690.4572752729
 20
794.5442452332
 30
0.0
 10
678.1653042168
 20
791.9154549153
 30
0.0
 10
667.2728092963
 20
788.0474669592
 30
0.0
 10
660.825641241
 20
784.5116657485
 30
0.0
 10
658.0276216803
 20
782.5332503886
 30
0.0
  0
SPLINE
  5
308
100
AcDbEntity
  8
7_ALL_FEATURES
100
AcDbSpline
 62
7
  6
CONTINUOUS
 70
0
 71
3
 72
11
 73
7
 74
0
 42
0.0000001
 43
0.0000001
 44
0.0000000001
 40
0.0
 40
0.0
 40
0.0
 40
0.0
 40
0.2898445509
 40
0.5482986948
 40
0.7813884198
 40
1.0
 40
1.0
 40
1.0
 40
1.0
 10
657.7826340924
 20
725.144638968
 30
0.0
 10
656.0339303818
 20
726.3811746674
 30
0.0
 10
652.8841465185
 20
728.96469247
 30
0.0
 10
649.1680184312
 20
733.4405163949
 30
0.0
 10
646.8493121226
 20
738.2147924303
 30
0.0
 10
646.3137774327
 20
741.571470244
 30
0.0
 10
646.3137136538
 20
743.186839052
 30
0.0
  0
SPLINE
  5
309
100
AcDbEntity
  8
7_ALL_FEATURES
100
AcDbSpline
 62
7
  6
CONTINUOUS
 70
0
 71
3
 72
15
 73
11
 74
0
 42
0.0000001
 43
0.0000001
 44
0.0000000001
 40
0.0
 40
0.0
 40
0.0
 40
0.0
 40
0.1044387998
 40
0.2225163828
 40
0.3512480599
 40
0.4865481605
 40
0.6237400379
 40
0.7579874408
 40
0.8847031787
 40
1.0
 40
1.0
 40
1.0
 40
1.0
 10
759.5997427226
 20
724.9714475672
 30
0.0
 10
756.8017231619
 20
722.9930322072
 30
0.0
 10
750.3545551066
 20
719.4572309966
 30
0.0
 10
739.4620601861
 20
715.5892430405
 30
0.0
 10
727.17008913
 20
712.9604527226
 30
0.0
 10
714.0397019345
 20
711.6956603883
 30
0.0
 10
700.6693011516
 20
711.8520489695
 30
0.0
 10
687.6715033788
 20
713.423426142
 30
0.0
 10
675.6445358564
 20
716.334382244
 30
0.0
 10
668.215331752
 20
719.2441648595
 30
0.0
 10
664.8316404116
 20
720.9360105357
 30
0.0
  0
SPLINE
  5
30A
100
AcDbEntity
  8
7_ALL_FEATURES
100
AcDbSpline
 62
7
  6
CONTINUOUS
 70
0
 71
3
 72
11
 73
7
 74
0
 42
0.0000001
 43
0.0000001
 44
0.0000000001
 40
0.0
 40
0.0
 40
0.0
 40
0.0
 40
0.2898542164
 40
0.5483027308
 40
0.7813906894
 40
1.0
 40
1.0
 40
1.0
 40
1.0
 10
657.7826728622
 20
782.3600452809
 30
0.0
 10
656.0338748619
 20
781.1235103873
 30
0.0
 10
652.8840331173
 20
778.5399909946
 30
0.0
 10
649.1679162454
 20
774.0641029424
 30
0.0
 10
646.8493066051
 20
769.2898801013
 30
0.0
 10
646.3136498754
 20
765.9332147903
 30
0.0
 10
646.3137136538
 20
764.3178589044
 30
0.0
  0
SPLINE
  5
30B
100
AcDbEntity
  8
7_ALL_FEATURES
100
AcDbSpline
 62
7
  6
CONTINUOUS
 70
0
 71
3
 72
9
 73
5
 74
0
 42
0.0000001
 43
0.0000001
 44
0.0000000001
 40
0.0
 40
0.0
 40
0.0
 40
0.0
 40
0.2396052759
 40
1.0
 40
1.0
 40
1.0
 40
1.0
 10
759.5997812507
 20
782.5332640688
 30
0.0
 10
759.0836207407
 20
782.8982492246
 30
0.0
 10
756.8965614569
 20
784.3749218536
 30
0.0
 10
754.590126736
 20
785.6714860518
 30
0.0
 10
752.7957239912
 20
786.5686874201
 30
0.0
  0
SPLINE
  5
30C
100
AcDbEntity
  8
7_ALL_FEATURES
100
AcDbSpline
 62
7
  6
CONTINUOUS
 70
0
 71
3
 72
11
 73
7
 74
0
 42
0.0000001
 43
0.0000001
 44
0.0000000001
 40
0.0
 40
0.0
 40
0.0
 40
0.0
 40
0.2186115802
 40
0.4517013052
 40
0.7101554491
 40
1.0
 40
1.0
 40
1.0
 40
1.0
 10
771.3136507491
 20
764.3178589038
 30
0.0
 10
771.3135869702
 20
765.9332277118
 30
0.0
 10
770.7780522803
 20
769.2899055255
 30
0.0
 10
768.4593459717
 20
774.0641815608
 30
0.0
 10
764.7432178844
 20
778.5400054858
 30
0.0
 10
761.593434021
 20
781.1235232884
 30
0.0
 10
759.8447303105
 20
782.3600589878
 30
0.0
  0
SPLINE
  5
30D
100
AcDbEntity
  8
7_ALL_FEATURES
100
AcDbSpline
 62
7
  6
CONTINUOUS
 70
0
 71
3
 72
11
 73
7
 74
0
 42
0.0000001
 43
0.0000001
 44
0.0000000001
 40
0.0
 40
0.0
 40
0.0
 40
0.0
 40
0.2186093106
 40
0.4516972692
 40
0.7101457836
 40
1.0
 40
1.0
 40
1.0
 40
1.0
 10
771.3136507491
 20
743.1868390514
 30
0.0
 10
771.3137145275
 20
741.5714831655
 30
0.0
 10
770.7780577978
 20
738.2148178545
 30
0.0
 10
768.4594481575
 20
733.4405950133
 30
0.0
 10
764.7433312856
 20
728.9647069612
 30
0.0
 10
761.593489541
 20
726.3811875685
 30
0.0
 10
759.8446915407
 20
725.1446526748
 30
0.0
  0
SPLINE
  5
30E
100
AcDbEntity
  8
7_ALL_FEATURES
100
AcDbSpline
 62
7
  6
CONTINUOUS
 70
0
 71
3
 72
9
 73
5
 74
0
 42
0.0000001
 43
0.0000001
 44
0.0000000001
 40
0.0
 40
0.0
 40
0.0
 40
0.0
 40
0.2599418318
 40
1.0
 40
1.0
 40
1.0
 40
1.0
 10
664.6195083773
 20
721.0897521396
 30
0.0
 10
664.0261579463
 20
721.3864273535
 30
0.0
 10
661.762342811
 20
722.5645070848
 30
0.0
 10
659.575286368
 20
723.8937034855
 30
0.0
 10
658.0259483258
 20
724.9738071022
 30
0.0
  0
SPLINE
  5
30F
100
AcDbEntity
  8
7_ALL_FEATURES
100
AcDbSpline
 62
7
  6
CONTINUOUS
 70
0
 71
3
 72
18
 73
14
 74
0
 42
0.0000001
 43
0.0000001
 44
0.0000000001
 40
0.0
 40
0.0
 40
0.0
 40
0.0
 40
0.1381359864
 40
0.2595361572
 40
0.3153861515
 40
0.3690208187
 40
0.4215043069
 40
0.4740054177
 40
0.5832729052
 40
0.7048983582
 40
0.7719463247
 40
0.8434652707
 40
1.0
 40
1.0
 40
1.0
 40
1.0
 10
657.780767672
 20
782.3574206831
 30
0.0
 10
655.8448244977
 20
780.9683055672
 30
0.0
 10
652.4051798093
 20
778.0553366414
 30
0.0
 10
649.1061663249
 20
773.6447768923
 30
0.0
 10
647.4825732911
 20
769.9915764572
 30
0.0
 10
646.7682439364
 20
767.2770776136
 30
0.0
 10
646.5341536322
 20
764.5368849989
 30
0.0
 10
646.8678631518
 20
760.8385871252
 30
0.0
 10
648.5930860998
 20
756.165448485
 30
0.0
 10
651.7270090652
 20
752.0207178751
 30
0.0
 10
654.979675629
 20
748.9207864755
 30
0.0
 10
659.00045267
 20
745.7874595673
 30
0.0
 10
662.416579548
 20
743.7941760566
 30
0.0
 10
664.8316404116
 20
742.5866456303
 30
0.0
  0
SPLINE
  5
310
100
AcDbEntity
  8
7_ALL_FEATURES
100
AcDbSpline
 62
7
  6
CONTINUOUS
 70
0
 71
3
 72
25
 73
21
 74
0
 42
0.0000001
 43
0.0000001
 44
0.0000000001
 40
0.0
 40
0.0
 40
0.0
 40
0.0
 40
0.0673949978
 40
0.1407730579
 40
0.21856526
 40
0.2988911484
 40
0.3797128288
 40
0.4589621976
 40
0.5346679102
 40
0.6050910777
 40
0.6688827065
 40
0.7252928863
 40
0.7744670803
 40
0.817837553
 40
0.8383074312
 40
0.8585535076
 40
0.8790921823
 40
0.9004089424
 40
0.9468065787
 40
1.0
 40
1.0
 40
1.0
 40
1.0
 10
664.8316404116
 20
742.5866456303
 30
0.0
 10
667.6902770775
 20
741.1573272923
 30
0.0
 10
673.8947488118
 20
738.6294116093
 30
0.0
 10
683.9103934275
 20
735.8881040323
 30
0.0
 10
694.7610252037
 20
734.1017155068
 30
0.0
 10
706.0822500335
 20
733.332128708
 30
0.0
 10
717.4953657595
 20
733.6049668576
 30
0.0
 10
728.6170774376
 20
734.9111517225
 30
0.0
 10
739.0756294478
 20
737.2062788984
 30
0.0
 10
748.5248741523
 20
740.4139104988
 30
0.0
 10
756.6587318941
 20
744.4307940583
 30
0.0
 10
763.2199418336
 20
749.1438696497
 30
0.0
 10
768.001595881
 20
754.4355916058
 30
0.0
 10
770.3613425679
 20
759.3643368236
 30
0.0
 10
771.0526153591
 20
763.3131115372
 30
0.0
 10
771.0160227146
 20
766.2348471354
 30
0.0
 10
770.4324510706
 20
769.1380612675
 30
0.0
 10
768.8969695689
 20
773.0519720439
 30
0.0
 10
765.5197885879
 20
777.7900982889
 30
0.0
 10
761.9014810831
 20
780.8824105854
 30
0.0
 10
759.8522102046
 20
782.3534230246
 30
0.0
  0
SPLINE
  5
311
100
AcDbEntity
  8
7_ALL_FEATURES
100
AcDbSpline
 62
7
  6
CONTINUOUS
 70
0
 71
3
 72
20
 73
16
 74
0
 42
0.0000001
 43
0.0000001
 44
0.0000000001
 40
0.0
 40
0.0
 40
0.0
 40
0.0
 40
0.0626276258
 40
0.1299281016
 40
0.2748162133
 40
0.4261574882
 40
0.5742438999
 40
0.6441951279
 40
0.7100237675
 40
0.7709408702
 40
0.8264317254
 40
0.8763599999
 40
0.9211058231
 40
0.9617205952
 40
1.0
 40
1.0
 40
1.0
 40
1.0
 10
664.6195083773
 20
742.220771992
 30
0.0
 10
666.8803491681
 20
741.0903516015
 30
0.0
 10
671.7158775192
 20
739.0290990212
 30
0.0
 10
682.3132525046
 20
735.710272051
 30
0.0
 10
696.8426451065
 20
733.2034016768
 30
0.0
 10
714.8253813462
 20
732.7755148475
 30
0.0
 10
729.6913414966
 20
734.5734119889
 30
0.0
 10
740.8206203132
 20
737.3463050696
 30
0.0
 10
748.3294863363
 20
739.9624207286
 30
0.0
 10
754.9999171432
 20
743.0980428772
 30
0.0
 10
760.6948429279
 20
746.6918219802
 30
0.0
 10
765.2975406046
 20
750.6779869408
 30
0.0
 10
768.7076066475
 20
754.9947933541
 30
0.0
 10
770.826285015
 20
759.5716997536
 30
0.0
 10
771.313711749
 20
762.7728740923
 30
0.0
 10
771.3136507491
 20
764.3178589038
 30
0.0
  0
SPLINE
  5
312
100
AcDbEntity
  8
7_ALL_FEATURES
100
AcDbSpline
 62
7
  6
CONTINUOUS
 70
0
 71
3
 72
15
 73
11
 74
0
 42
0.0000001
 43
0.0000001
 44
0.0000000001
 40
0.0
 40
0.0
 40
0.0
 40
0.0
 40
0.104703383
 40
0.2228879838
 40
0.3515832261
 40
0.486750715
 40
0.6237780372
 40
0.7578979956
 40
0.8845860951
 40
1.0
 40
1.0
 40
1.0
 40
1.0
 10
759.6075178948
 20
724.9781106382
 30
0.0
 10
756.791249993
 20
723.0141665295
 30
0.0
 10
750.3220055192
 20
719.5054800643
 30
0.0
 10
739.4155808772
 20
715.6665063934
 30
0.0
 10
727.129379333
 20
713.0592800314
 30
0.0
 10
714.0172137686
 20
711.8059813741
 30
0.0
 10
700.6691230801
 20
711.9625742104
 30
0.0
 10
687.6889050861
 20
713.5229273731
 30
0.0
 10
675.6662892177
 20
716.4131159606
 30
0.0
 10
668.2314775605
 20
719.3011344018
 30
0.0
 10
664.839683462
 20
720.9802119182
 30
0.0
  0
SPLINE
  5
313
100
AcDbEntity
  8
7_ALL_FEATURES
100
AcDbSpline
 62
7
  6
CONTINUOUS
 70
0
 71
3
 72
13
 73
9
 74
0
 42
0.0000001
 43
0.0000001
 44
0.0000000001
 40
0.0
 40
0.0
 40
0.0
 40
0.0
 40
0.102174402
 40
0.2072186326
 40
0.4348466285
 40
0.5615318822
 40
0.6978429766
 40
1.0
 40
1.0
 40
1.0
 40
1.0
 10
646.3137136538
 20
764.3178589044
 30
0.0
 10
646.3137541601
 20
763.2919310586
 30
0.0
 10
646.5216325748
 20
761.2056187781
 30
0.0
 10
647.7854769917
 20
757.0028051708
 30
0.0
 10
650.3039764168
 20
753.0298509221
 30
0.0
 10
653.7112683332
 20
749.4648195432
 30
0.0
 10
658.0921629126
 20
745.8391613239
 30
0.0
 10
661.9058673291
 20
743.5775925237
 30
0.0
 10
664.6195083773
 20
742.220771992
 30
0.0
  0
SPLINE
  5
314
100
AcDbEntity
  8
3_ALL_AXES
100
AcDbSpline
 62
3
  6
CONTINUOUS
 70
0
 71
3
 72
20
 73
16
 74
0
 42
0.0000001
 43
0.0000001
 44
0.0000000001
 40
0.0
 40
0.0
 40
0.0
 40
0.0
 40
0.0626272506
 40
0.1299282894
 40
0.2748163127
 40
0.4261576846
 40
0.5742441545
 40
0.6441953647
 40
0.710023953
 40
0.7709409825
 40
0.8264317648
 40
0.8763599944
 40
0.9211058122
 40
0.961720595
 40
1.0
 40
1.0
 40
1.0
 40
1.0
 10
663.5588482055
 20
71.9483702023
 30
0.0
 10
665.5483754352
 20
70.9536065874
 30
0.0
 10
669.803646851
 20
69.1397080908
 30
0.0
 10
679.129328
 20
66.2191128086
 30
0.0
 10
691.9152121685
 20
64.0130736595
 30
0.0
 10
707.7400154563
 20
63.6365274747
 30
0.0
 10
720.8220603798
 20
65.2186844896
 30
0.0
 10
730.6158193249
 20
67.6588390716
 30
0.0
 10
737.2236111531
 20
69.961026978
 30
0.0
 10
743.0935778334
 20
72.7203793524
 30
0.0
 10
748.1050991621
 20
75.8829076745
 30
0.0
 10
752.1554676357
 20
79.3907323509
 30
0.0
 10
755.1563162355
 20
83.1895170453
 30
0.0
 10
757.0207918004
 20
87.2171894067
 30
0.0
 10
757.4496619776
 20
90.0342205517
 30
0.0
 10
757.4496623385
 20
91.3938066849
 30
0.0
  0
SPLINE
  5
315
100
AcDbEntity
  8
7_ALL_FEATURES
100
AcDbSpline
 62
3
  6
CONTINUOUS
 70
0
 71
3
 72
9
 73
5
 74
0
 42
0.0000001
 43
0.0000001
 44
0.0000000001
 40
0.0
 40
0.0
 40
0.0
 40
0.0
 40
0.2464284565
 40
1.0
 40
1.0
 40
1.0
 40
1.0
 10
710.2342595134
 20
101.5589116207
 30
0.0
 10
710.212405704
 20
101.6638043578
 30
0.0
 10
710.113535039
 20
102.0872940646
 30
0.0
 10
709.9743486221
 20
102.5011733887
 30
0.0
 10
709.8500156693
 20
102.8043132529
 30
0.0
  0
SPLINE
  5
316
100
AcDbEntity
  8
7_ALL_FEATURES
100
AcDbSpline
 62
3
  6
CONTINUOUS
 70
0
 71
3
 72
13
 73
9
 74
0
 42
0.0000001
 43
0.0000001
 44
0.0000000001
 40
0.0
 40
0.0
 40
0.0
 40
0.0
 40
0.1021728484
 40
0.2072176583
 40
0.4348451968
 40
0.5615317115
 40
0.6978441986
 40
1.0
 40
1.0
 40
1.0
 40
1.0
 10
647.4497168409
 20
91.393806677
 30
0.0
 10
647.4497149802
 20
90.4910039724
 30
0.0
 10
647.6328293487
 20
88.6550740807
 30
0.0
 10
648.7448022754
 20
84.9565707293
 30
0.0
 10
650.9611565516
 20
81.4603586413
 30
0.0
 10
653.9596069552
 20
78.3231496116
 30
0.0
 10
657.8147860339
 20
75.1325389408
 30
0.0
 10
661.1708539309
 20
73.1423673396
 30
0.0
 10
663.5588482055
 20
71.9483702023
 30
0.0
  0
SPLINE
  5
317
100
AcDbEntity
  8
3_ALL_AXES
100
AcDbSpline
 62
3
  6
CONTINUOUS
 70
0
 71
3
 72
20
 73
16
 74
0
 42
0.0000001
 43
0.0000001
 44
0.0000000001
 40
0.0
 40
0.0
 40
0.0
 40
0.0
 40
0.0626272506
 40
0.1299282894
 40
0.2748163127
 40
0.4261576846
 40
0.5742441545
 40
0.6441953647
 40
0.710023953
 40
0.7709409825
 40
0.8264317648
 40
0.8763599944
 40
0.9211058122
 40
0.961720595
 40
1.0
 40
1.0
 40
1.0
 40
1.0
 10
663.5588482055
 20
68.4842685871
 30
0.0
 10
665.5483754352
 20
67.4895049723
 30
0.0
 10
669.803646851
 20
65.6756064756
 30
0.0
 10
679.129328
 20
62.7550111935
 30
0.0
 10
691.9152121685
 20
60.5489720443
 30
0.0
 10
707.7400154563
 20
60.1724258595
 30
0.0
 10
720.8220603798
 20
61.7545828744
 30
0.0
 10
730.6158193249
 20
64.1947374565
 30
0.0
 10
737.2236111531
 20
66.4969253629
 30
0.0
 10
743.0935778334
 20
69.2562777373
 30
0.0
 10
748.1050991621
 20
72.4188060594
 30
0.0
 10
752.1554676357
 20
75.9266307358
 30
0.0
 10
755.1563162355
 20
79.7254154302
 30
0.0
 10
757.0207918004
 20
83.7530877916
 30
0.0
 10
757.4496619776
 20
86.5701189365
 30
0.0
 10
757.4496623385
 20
87.9297050697
 30
0.0
  0
SPLINE
  5
318
100
AcDbEntity
  8
3_ALL_AXES
100
AcDbSpline
 62
3
  6
CONTINUOUS
 70
0
 71
3
 72
13
 73
9
 74
0
 42
0.0000001
 43
0.0000001
 44
0.0000000001
 40
0.0
 40
0.0
 40
0.0
 40
0.0
 40
0.1021742994
 40
0.2072181595
 40
0.4348475151
 40
0.5615308842
 40
0.6978417554
 40
1.0
 40
1.0
 40
1.0
 40
1.0
 10
647.449780003
 20
87.9297050698
 30
0.0
 10
647.4497797634
 20
87.0268896486
 30
0.0
 10
647.6327704755
 20
85.1909442518
 30
0.0
 10
648.7448203761
 20
81.492423146
 30
0.0
 10
650.9612403961
 20
77.9963057969
 30
0.0
 10
653.9595658189
 20
74.8590132086
 30
0.0
 10
657.8147824195
 20
71.6684730696
 30
0.0
 10
661.1708348993
 20
69.6782752403
 30
0.0
 10
663.5588482055
 20
68.4842685871
 30
0.0
  0
ENDSEC
  0
SECTION
  2
OBJECTS
  0
DICTIONARY
  5
319
100
AcDbDictionary
  3
ACAD_GROUP
350
31A
  3
ACAD_MLINESTYLE
350
31B
  0
DICTIONARY
  5
31A
102
{ACAD_REACTORS
330
319
102
}
100
AcDbDictionary
  0
DICTIONARY
  5
31B
102
{ACAD_REACTORS
330
319
102
}
100
AcDbDictionary
  3
STANDARD
350
31C
  0
MLINESTYLE
  5
31C
102
{ACAD_REACTORS
330
31B
102
}
100
AcDbMlineStyle
  2
STANDARD
 70
0
  3

 62
256
 51
90.0
 52
90.0
 71
2
 49
0.5
 62
256
  6
BYLAYER
 49
-0.5
 62
256
  6
BYLAYER
  0
ENDSEC
  0
EOF
