999
DXF file: 3x0_c_020.dxf
999
Pro/ENGINEER 2016360 by Parametric Technology Corporation
  0
SECTION
  2
HEADER
  9
$ACADVER
  1
AC1014
  9
$DWGCODEPAGE
  3
ANSI_1252
  9
$EXTMAX
 10
841.0
 20
1189.0
 30
0.0
  9
$EXTMIN
 10
0.0
 20
0.0
 30
0.0
  9
$LIMMIN
 10
0.0
 20
0.0
  9
$LIMMAX
 10
841.0
 20
1189.0
  9
$VIEWCTR
 10
420.5
 20
594.5
  9
$VIEWSIZE
 40
1189.0
  9
$CLAYER
  8
0
  9
$LTSCALE
 40
77.5051851852
  9
$CELTYPE
  6
BYLAYER
  9
$DIMSCALE
 40
1.0
  9
$DIMASZ
 40
2.5
  9
$DIMEXO
 40
0.75
  9
$DIMDLI
 40
53.549037037
  9
$DIMEXE
 40
0.75
  9
$DIMCEN
 40
12.6826666667
  9
$DIMLFAC
 40
1.0
  9
$DIMBLK
  1
_CLOSED
  9
$DIMALT
 70
0
  9
$DIMALTF
 40
25.4
  9
$DIMTXT
 40
3.0
  9
$DIMTOL
 70
1
  9
$DIMLIM
 70
0
  9
$DIMTFAC
 40
1.0
  9
$DIMTP
 40
0.01
  9
$DIMTM
 40
0.01
  9
$DIMGAP
 40
0.625
  9
$AUNITS
 70
0
  9
$PDMODE
 70
3
  9
$PDSIZE
 40
0.3125
  9
$HANDSEED
  5
31C
  9
$TILEMODE
 70
1
  9
$MEASUREMENT
 70
1
  0
ENDSEC
  0
SECTION
  2
CLASSES
  0
ENDSEC
  0
SECTION
  2
TABLES
  0
TABLE
  2
VPORT
  5
8
100
AcDbSymbolTable
 70
2
  0
VPORT
  5
1F4
100
AcDbSymbolTableRecord
100
AcDbViewportTableRecord
  2
*ACTIVE
 70
0
 10
0.0
 20
0.0
 11
1.0
 21
1.0
 12
420.5
 22
594.5
 13
0.0
 23
0.0
 14
1.0
 24
1.0
 15
0.0
 25
0.0
 16
0.0
 26
0.0
 36
1.0
 17
0.0
 27
0.0
 37
0.0
 40
1189.0
 41
0.7073170732
 42
50.0
 43
0.0
 44
0.0
 50
0.0
 51
0.0
 71
0
 72
100
 73
1
 74
1
 75
0
 76
0
 77
0
 78
0
  0
ENDTAB
  0
TABLE
  2
LTYPE
  5
5
100
AcDbSymbolTable
 70
6
  0
LTYPE
  5
14
100
AcDbSymbolTableRecord
100
AcDbLinetypeTableRecord
  2
BYBLOCK
 70
0
  3

 72
65
 73
0
 40
0.0
  0
LTYPE
  5
15
100
AcDbSymbolTableRecord
100
AcDbLinetypeTableRecord
  2
BYLAYER
 70
0
  3

 72
65
 73
0
 40
0.0
  0
LTYPE
  5
16
100
AcDbSymbolTableRecord
100
AcDbLinetypeTableRecord
  2
CONTINUOUS
 70
64
  3
Solid line
 72
65
 73
0
 40
0.0
  0
LTYPE
  5
1F5
100
AcDbSymbolTableRecord
100
AcDbLinetypeTableRecord
  2
CENTER
 70
64
  3
____ _ ____ _ ____ _ ____ _ ____ _ ____ _ ____
 72
65
 73
4
 40
0.6
 49
0.375
 74
0
 49
-0.075
 74
0
 49
0.075
 74
0
 49
-0.075
 74
0
  0
LTYPE
  5
1F6
100
AcDbSymbolTableRecord
100
AcDbLinetypeTableRecord
  2
HIDDEN
 70
64
  3
- - - - - - - - - - - - - - - - - - - -
 72
65
 73
2
 40
0.2
 49
0.1
 74
0
 49
-0.1
 74
0
  0
LTYPE
  5
1F7
100
AcDbSymbolTableRecord
100
AcDbLinetypeTableRecord
  2
PHANTOM
 70
64
  3
_____ _ _ _____ _ _ _____ _ _ _____
 72
65
 73
6
 40
0.8
 49
0.45
 74
0
 49
-0.05
 74
0
 49
0.1
 74
0
 49
-0.05
 74
0
 49
0.1
 74
0
 49
-0.05
 74
0
  0
LTYPE
  5
1F8
100
AcDbSymbolTableRecord
100
AcDbLinetypeTableRecord
  2
DOT
 70
64
  3
. . . . . . . . . . . . . . . . . . . .
 72
65
 73
2
 40
0.2
 49
0.1
 74
0
 49
-0.1
 74
0
  0
LTYPE
  5
1F9
100
AcDbSymbolTableRecord
100
AcDbLinetypeTableRecord
  2
DASHED
 70
64
  3
- - - - - - - - - - - - - - - - - - - -
 72
65
 73
2
 40
0.2
 49
0.1
 74
0
 49
-0.1
 74
0
  0
ENDTAB
  0
TABLE
  2
LAYER
  5
2
100
AcDbSymbolTable
 70
36
  0
LAYER
  5
10
100
AcDbSymbolTableRecord
100
AcDbLayerTableRecord
  2
0
 70
0
 62
7
  6
CONTINUOUS
  0
LAYER
  5
1FA
100
AcDbSymbolTableRecord
100
AcDbLayerTableRecord
  2
DEFAULT_1
 70
0
 62
7
  6
CENTER
  0
LAYER
  5
1FB
100
AcDbSymbolTableRecord
100
AcDbLayerTableRecord
  2
DEFAULT_2
 70
0
 62
8
  6
HIDDEN
  0
LAYER
  5
1FC
100
AcDbSymbolTableRecord
100
AcDbLayerTableRecord
  2
DEFAULT_3
 70
0
 62
7
  6
PHANTOM
  0
LAYER
  5
1FD
100
AcDbSymbolTableRecord
100
AcDbLayerTableRecord
  2
01_ALL_DTM_PLN
 70
0
 62
7
  6
CONTINUOUS
  0
LAYER
  5
1FE
100
AcDbSymbolTableRecord
100
AcDbLayerTableRecord
  2
01__ASM_ALL_DTM_PLN
 70
0
 62
7
  6
CONTINUOUS
  0
LAYER
  5
1FF
100
AcDbSymbolTableRecord
100
AcDbLayerTableRecord
  2
01__ASM_DEF_DTM_PLN
 70
0
 62
7
  6
CONTINUOUS
  0
LAYER
  5
200
100
AcDbSymbolTableRecord
100
AcDbLayerTableRecord
  2
01___PRT_ALL_DTM_PLN
 70
0
 62
7
  6
CONTINUOUS
  0
LAYER
  5
201
100
AcDbSymbolTableRecord
100
AcDbLayerTableRecord
  2
01___PRT_DEF_DTM_PLN
 70
0
 62
7
  6
CONTINUOUS
  0
LAYER
  5
202
100
AcDbSymbolTableRecord
100
AcDbLayerTableRecord
  2
02_ALL_AXES
 70
0
 62
7
  6
CONTINUOUS
  0
LAYER
  5
203
100
AcDbSymbolTableRecord
100
AcDbLayerTableRecord
  2
02__ASM_ALL_AXES
 70
0
 62
7
  6
CONTINUOUS
  0
LAYER
  5
204
100
AcDbSymbolTableRecord
100
AcDbLayerTableRecord
  2
02___PRT_ALL_AXES
 70
0
 62
7
  6
CONTINUOUS
  0
LAYER
  5
205
100
AcDbSymbolTableRecord
100
AcDbLayerTableRecord
  2
03_ALL_CURVES
 70
0
 62
7
  6
CONTINUOUS
  0
LAYER
  5
206
100
AcDbSymbolTableRecord
100
AcDbLayerTableRecord
  2
03__ASM_ALL_CURVES
 70
0
 62
7
  6
CONTINUOUS
  0
LAYER
  5
207
100
AcDbSymbolTableRecord
100
AcDbLayerTableRecord
  2
03___PRT_ALL_CURVES
 70
0
 62
7
  6
CONTINUOUS
  0
LAYER
  5
208
100
AcDbSymbolTableRecord
100
AcDbLayerTableRecord
  2
04_ALL_DTM_PNT
 70
0
 62
7
  6
CONTINUOUS
  0
LAYER
  5
209
100
AcDbSymbolTableRecord
100
AcDbLayerTableRecord
  2
04__ASM_ALL_DTM_PNT
 70
0
 62
7
  6
CONTINUOUS
  0
LAYER
  5
20A
100
AcDbSymbolTableRecord
100
AcDbLayerTableRecord
  2
04___PRT_ALL_DTM_PNT
 70
0
 62
7
  6
CONTINUOUS
  0
LAYER
  5
20B
100
AcDbSymbolTableRecord
100
AcDbLayerTableRecord
  2
05_ALL_DTM_CSYS
 70
0
 62
7
  6
CONTINUOUS
  0
LAYER
  5
20C
100
AcDbSymbolTableRecord
100
AcDbLayerTableRecord
  2
05__ASM_ALL_DTM_CSYS
 70
0
 62
7
  6
CONTINUOUS
  0
LAYER
  5
20D
100
AcDbSymbolTableRecord
100
AcDbLayerTableRecord
  2
05__ASM_DEF_DTM_CSYS
 70
0
 62
7
  6
CONTINUOUS
  0
LAYER
  5
20E
100
AcDbSymbolTableRecord
100
AcDbLayerTableRecord
  2
05___PRT_ALL_DTM_CSYS
 70
0
 62
7
  6
CONTINUOUS
  0
LAYER
  5
20F
100
AcDbSymbolTableRecord
100
AcDbLayerTableRecord
  2
05___PRT_DEF_DTM_CSYS
 70
0
 62
7
  6
CONTINUOUS
  0
LAYER
  5
210
100
AcDbSymbolTableRecord
100
AcDbLayerTableRecord
  2
06_ALL_SURFS
 70
0
 62
7
  6
CONTINUOUS
  0
LAYER
  5
211
100
AcDbSymbolTableRecord
100
AcDbLayerTableRecord
  2
06__ASM_ALL_SURFS
 70
0
 62
7
  6
CONTINUOUS
  0
LAYER
  5
212
100
AcDbSymbolTableRecord
100
AcDbLayerTableRecord
  2
06___PRT_ALL_SURFS
 70
0
 62
7
  6
CONTINUOUS
  0
LAYER
  5
213
100
AcDbSymbolTableRecord
100
AcDbLayerTableRecord
  2
07__ASM_ALL_SKELETONS
 70
0
 62
7
  6
CONTINUOUS
  0
LAYER
  5
214
100
AcDbSymbolTableRecord
100
AcDbLayerTableRecord
  2
1_ALL_PLANES
 70
0
 62
7
  6
CONTINUOUS
  0
LAYER
  5
215
100
AcDbSymbolTableRecord
100
AcDbLayerTableRecord
  2
2_ALL_CSYS
 70
0
 62
7
  6
CONTINUOUS
  0
LAYER
  5
216
100
AcDbSymbolTableRecord
100
AcDbLayerTableRecord
  2
3_ALL_AXES
 70
0
 62
7
  6
CONTINUOUS
  0
LAYER
  5
217
100
AcDbSymbolTableRecord
100
AcDbLayerTableRecord
  2
4_ALL_POINTS
 70
0
 62
7
  6
CONTINUOUS
  0
LAYER
  5
218
100
AcDbSymbolTableRecord
100
AcDbLayerTableRecord
  2
5_ALL_CURVES
 70
0
 62
7
  6
CONTINUOUS
  0
LAYER
  5
219
100
AcDbSymbolTableRecord
100
AcDbLayerTableRecord
  2
5__COSTRUZIONE
 70
0
 62
7
  6
CONTINUOUS
  0
LAYER
  5
21A
100
AcDbSymbolTableRecord
100
AcDbLayerTableRecord
  2
6_ALL_SURFS
 70
0
 62
7
  6
CONTINUOUS
  0
LAYER
  5
21B
100
AcDbSymbolTableRecord
100
AcDbLayerTableRecord
  2
7_ALL_FEATURES
 70
0
 62
7
  6
CONTINUOUS
  0
LAYER
  5
21C
100
AcDbSymbolTableRecord
100
AcDbLayerTableRecord
  2
9_SOLID
 70
0
 62
7
  6
CONTINUOUS
  0
LAYER
  5
21D
100
AcDbSymbolTableRecord
100
AcDbLayerTableRecord
  2
INTFCLR_2
 70
0
 62
7
  6
CONTINUOUS
  0
LAYER
  5
21E
100
AcDbSymbolTableRecord
100
AcDbLayerTableRecord
  2
LIVELLO_1
 70
0
 62
7
  6
CONTINUOUS
  0
LAYER
  5
21F
100
AcDbSymbolTableRecord
100
AcDbLayerTableRecord
  2
WHITE
 70
0
 62
7
  6
CONTINUOUS
  0
LAYER
  5
220
100
AcDbSymbolTableRecord
100
AcDbLayerTableRecord
  2
XXX_SOLIDO
 70
0
 62
7
  6
CONTINUOUS
  0
ENDTAB
  0
TABLE
  2
STYLE
  5
3
100
AcDbSymbolTable
 70
1
  0
STYLE
  5
11
100
AcDbSymbolTableRecord
100
AcDbTextStyleTableRecord
  2
STANDARD
 70
0
 40
0.0
 41
1.0
 50
0.0
 71
0
 42
0.2
  3
arial.ttf
  4

  0
STYLE
  5
221
100
AcDbSymbolTableRecord
100
AcDbTextStyleTableRecord
  2
TEXTSTYLE_1
 70
0
 40
0.0
 41
0.8
 50
0.0
 71
0
 42
0.2
  3
gdt
  4

  0
STYLE
  5
222
100
AcDbSymbolTableRecord
100
AcDbTextStyleTableRecord
  2
TEXTSTYLE_2
 70
0
 40
0.0
 41
0.85
 50
0.0
 71
0
 42
0.2
  3
gdt
  4

  0
STYLE
  5
223
100
AcDbSymbolTableRecord
100
AcDbTextStyleTableRecord
  2
TEXTSTYLE_3
 70
0
 40
0.0
 41
0.85
 50
0.0
 71
0
 42
0.2
  3
txt
  4

  0
ENDTAB
  0
TABLE
  2
VIEW
  5
6
100
AcDbSymbolTable
 70
0
  0
ENDTAB
  0
TABLE
  2
UCS
  5
7
100
AcDbSymbolTable
 70
0
  0
ENDTAB
  0
TABLE
  2
APPID
  5
9
100
AcDbSymbolTable
 70
1
  0
APPID
  5
224
100
AcDbSymbolTableRecord
100
AcDbRegAppTableRecord
  2
ACAD
 70
0
  0
ENDTAB
  0
TABLE
  2
BLOCK_RECORD
  5
1
100
AcDbSymbolTable
 70
0
  0
BLOCK_RECORD
  5
1F
100
AcDbSymbolTableRecord
100
AcDbBlockTableRecord
  2
*MODEL_SPACE
  0
BLOCK_RECORD
  5
1B
100
AcDbSymbolTableRecord
100
AcDbBlockTableRecord
  2
*PAPER_SPACE
  0
BLOCK_RECORD
  5
225
100
AcDbSymbolTableRecord
100
AcDbBlockTableRecord
  2
_CLOSED
  0
BLOCK_RECORD
  5
226
100
AcDbSymbolTableRecord
100
AcDbBlockTableRecord
  2
*D0
  0
BLOCK_RECORD
  5
227
100
AcDbSymbolTableRecord
100
AcDbBlockTableRecord
  2
*D1
  0
BLOCK_RECORD
  5
228
100
AcDbSymbolTableRecord
100
AcDbBlockTableRecord
  2
*D2
  0
BLOCK_RECORD
  5
229
100
AcDbSymbolTableRecord
100
AcDbBlockTableRecord
  2
LOGO2_BL0
  0
ENDTAB
  0
TABLE
  2
DIMSTYLE
  5
A
100
AcDbSymbolTable
 70
1
  0
DIMSTYLE
105
22A
100
AcDbSymbolTableRecord
100
AcDbDimStyleTableRecord
  2
STANDARD
 70
0
  3

  4

  5
_CLOSED
  6
_CLOSED
  7
_CLOSED
 40
1.0
 41
2.5
 42
0.75
 43
0.38
 44
0.75
 45
0.0
 46
0.0
 47
0.01
 48
0.01
140
3.0
141
0.09
142
0.0
143
25.4
144
1.0
145
0.0
146
1.0
147
0.625
 71
1.0
 72
0.0
 73
0
 74
0
 75
0
 76
0
 77
1
 78
8
 79
2
170
0
171
1
172
0
173
0
174
0
175
0
176
0
177
0
178
0
270
2
179
2
271
2
272
2
273
2
274
2
275
0
280
0
281
0
282
0
283
1
284
8
285
0
286
0
287
3
288
0
340
11
  0
DIMSTYLE
105
22B
100
AcDbSymbolTableRecord
100
AcDbDimStyleTableRecord
  2
DIMSTYLE_1
 70
0
  3

  4

  5
_CLOSED
  6
_CLOSED
  7
_CLOSED
 40
1.0
 41
2.5
 42
0.75
 43
0.38
 44
0.75
 45
0.0
 46
0.0
 47
0.8
 48
0.8
140
3.0
141
0.09
142
0.0
143
25.4
144
1.0
145
0.0
146
1.0
147
0.75
 71
0.0
 72
0.0
 73
0
 74
0
 75
0
 76
0
 77
1
 78
8
 79
2
170
0
171
1
172
0
173
0
174
0
175
0
176
0
177
0
178
0
270
2
179
2
271
2
272
2
273
2
274
2
275
0
280
0
281
0
282
0
283
1
284
8
285
0
286
0
287
3
288
0
340
11
  0
DIMSTYLE
105
22C
100
AcDbSymbolTableRecord
100
AcDbDimStyleTableRecord
  2
DIMSTYLE_2
 70
0
  3
<>
  4

  5
_CLOSED
  6
_CLOSED
  7
_CLOSED
 40
1.0
 41
2.5
 42
0.75
 43
0.38
 44
0.75
 45
0.0
 46
0.0
 47
0.5
 48
0.5
140
3.0
141
0.09
142
0.0
143
25.4
144
1.0
145
0.0
146
1.0
147
0.625
 71
0.0
 72
0.0
 73
0
 74
0
 75
0
 76
0
 77
1
 78
8
 79
2
170
0
171
1
172
1
173
0
174
0
175
0
176
0
177
0
178
0
270
2
179
2
271
2
272
2
273
2
274
2
275
0
280
0
281
0
282
0
283
1
284
8
285
0
286
0
287
3
288
1
340
11
  0
DIMSTYLE
105
22D
100
AcDbSymbolTableRecord
100
AcDbDimStyleTableRecord
  2
DIMSTYLE_3
 70
0
  3

  4

  5
_CLOSED
  6
_CLOSED
  7
_CLOSED
 40
1.0
 41
2.5
 42
0.75
 43
0.38
 44
0.75
 45
0.0
 46
0.0
 47
0.3
 48
0.3
140
3.0
141
0.09
142
0.0
143
25.4
144
1.0
145
0.0
146
1.0
147
0.75
 71
0.0
 72
0.0
 73
0
 74
0
 75
0
 76
0
 77
1
 78
8
 79
2
170
0
171
1
172
0
173
0
174
0
175
0
176
0
177
0
178
0
270
2
179
2
271
2
272
2
273
2
274
2
275
0
280
0
281
0
282
0
283
1
284
8
285
0
286
0
287
3
288
0
340
11
  0
ENDTAB
  0
ENDSEC
  0
SECTION
  2
BLOCKS
  0
BLOCK
  5
20
100
AcDbEntity
  8
0
100
AcDbBlockBegin
  2
*MODEL_SPACE
 70
0
 10
0.0
 20
0.0
 30
0.0
  3
*MODEL_SPACE
  1

  0
ENDBLK
  5
21
100
AcDbEntity
  8
0
100
AcDbBlockEnd
  0
BLOCK
  5
1C
100
AcDbEntity
  8
0
100
AcDbBlockBegin
  2
*PAPER_SPACE
 70
0
 10
0.0
 20
0.0
 30
0.0
  3
*PAPER_SPACE
  1

  0
ENDBLK
  5
1D
100
AcDbEntity
  8
0
100
AcDbBlockEnd
  0
BLOCK
  5
22E
100
AcDbEntity
  8
0
100
AcDbBlockBegin
 62
2
  6
CONTINUOUS
  2
LOGO2_BL0
 70
64
 10
753.731072936
 20
39.0120455435
  3
LOGO2_BL0
  1

  0
LINE
  5
22F
100
AcDbEntity
  8
0
100
AcDbLine
 62
7
  6
CONTINUOUS
 10
745.4739981643
 20
42.2075368823
 11
744.1696572349
 21
42.2075368823
  0
LINE
  5
230
100
AcDbEntity
  8
0
100
AcDbLine
 62
7
  6
CONTINUOUS
 10
744.1696572349
 20
42.2075368823
 11
744.1696572349
 21
31.7484708225
  0
LINE
  5
231
100
AcDbEntity
  8
0
100
AcDbLine
 62
7
  6
CONTINUOUS
 10
744.1696572349
 20
31.7484708225
 11
748.6507121232
 21
31.7484708225
  0
LINE
  5
232
100
AcDbEntity
  8
0
100
AcDbLine
 62
7
  6
CONTINUOUS
 10
748.6507121232
 20
31.7484708225
 11
748.6507121232
 21
32.9413251475
  0
LINE
  5
233
100
AcDbEntity
  8
0
100
AcDbLine
 62
7
  6
CONTINUOUS
 10
748.6507121232
 20
32.9413251475
 11
745.4739981643
 21
32.9413251475
  0
LINE
  5
234
100
AcDbEntity
  8
0
100
AcDbLine
 62
7
  6
CONTINUOUS
 10
745.4739981643
 20
32.9413251475
 11
745.4739981643
 21
42.2075368823
  0
LINE
  5
235
100
AcDbEntity
  8
0
100
AcDbLine
 62
7
  6
CONTINUOUS
 10
760.4103243806
 20
42.2075368823
 11
759.1065068625
 21
42.2075368823
  0
LINE
  5
236
100
AcDbEntity
  8
0
100
AcDbLine
 62
7
  6
CONTINUOUS
 10
759.1065068625
 20
42.2075368823
 11
759.1065068625
 21
31.7484708225
  0
LINE
  5
237
100
AcDbEntity
  8
0
100
AcDbLine
 62
7
  6
CONTINUOUS
 10
759.1065068625
 20
31.7484708225
 11
763.5876926036
 21
31.7484708225
  0
LINE
  5
238
100
AcDbEntity
  8
0
100
AcDbLine
 62
7
  6
CONTINUOUS
 10
763.5876926036
 20
31.7484708225
 11
763.5876926036
 21
32.9413251475
  0
LINE
  5
239
100
AcDbEntity
  8
0
100
AcDbLine
 62
7
  6
CONTINUOUS
 10
763.5876926036
 20
32.9413251475
 11
760.4103243806
 21
32.9413251475
  0
LINE
  5
23A
100
AcDbEntity
  8
0
100
AcDbLine
 62
7
  6
CONTINUOUS
 10
760.4103243806
 20
32.9413251475
 11
760.4103243806
 21
42.2075368823
  0
LWPOLYLINE
  5
23B
100
AcDbEntity
  8
0
100
AcDbPolyline
 62
7
  6
CONTINUOUS
 90
2
 70
0
 43
0.2
 10
742.5240521458
 20
28.4049195155
 10
742.5240521458
 20
26.5478562662
  0
LWPOLYLINE
  5
23C
100
AcDbEntity
  8
0
100
AcDbPolyline
 62
7
  6
CONTINUOUS
 90
2
 70
0
 43
0.2
 10
742.5240521458
 20
26.5478562662
 10
743.3197681562
 20
26.5478562662
  0
LWPOLYLINE
  5
23D
100
AcDbEntity
  8
0
100
AcDbPolyline
 62
7
  6
CONTINUOUS
 90
2
 70
0
 43
0.2
 10
743.3197681562
 20
26.5478562662
 10
743.3197681562
 20
26.7598378378
  0
LWPOLYLINE
  5
23E
100
AcDbEntity
  8
0
100
AcDbPolyline
 62
7
  6
CONTINUOUS
 90
2
 70
0
 43
0.2
 10
743.3197681562
 20
26.7598378378
 10
742.7556616407
 20
26.7598378378
  0
LWPOLYLINE
  5
23F
100
AcDbEntity
  8
0
100
AcDbPolyline
 62
7
  6
CONTINUOUS
 90
2
 70
0
 43
0.2
 10
742.7556616407
 20
26.7598378378
 10
742.7556616407
 20
28.4049195155
  0
LWPOLYLINE
  5
240
100
AcDbEntity
  8
0
100
AcDbPolyline
 62
7
  6
CONTINUOUS
 90
2
 70
0
 43
0.2
 10
742.7556616407
 20
28.4049195155
 10
742.5240521458
 20
28.4049195155
  0
SPLINE
  5
241
100
AcDbEntity
  8
0
100
AcDbSpline
 62
7
  6
CONTINUOUS
 70
2
 71
3
 72
35
 73
31
 74
0
 42
0.0000001
 43
0.0000001
 44
0.0000000001
 40
0.0
 40
0.0
 40
0.0
 40
0.0
 40
1.0
 40
1.0
 40
1.0
 40
2.0
 40
2.0
 40
2.0
 40
3.0
 40
3.0
 40
3.0
 40
4.0
 40
4.0
 40
4.0
 40
5.0
 40
5.0
 40
5.0
 40
6.0
 40
6.0
 40
6.0
 40
7.0
 40
7.0
 40
7.0
 40
8.0
 40
8.0
 40
8.0
 40
9.0
 40
9.0
 40
9.0
 40
10.0
 40
10.0
 40
10.0
 40
10.0
 10
744.7180614117
 20
27.7004079221
 30
0.0
 10
744.7180614117
 20
27.7004079221
 30
0.0
 10
744.7180614117
 20
27.0382926429
 30
0.0
 10
744.7180614117
 20
27.0382926429
 30
0.0
 10
744.7180614117
 20
26.7231990476
 30
0.0
 10
744.8659251006
 20
26.5086004196
 30
0.0
 10
745.2060115849
 20
26.5086004196
 30
0.0
 10
745.5455746579
 20
26.5086004196
 30
0.0
 10
745.6937000523
 20
26.7231990476
 30
0.0
 10
745.6937000523
 20
27.0382926429
 30
0.0
 10
745.6937000523
 20
27.0382926429
 30
0.0
 10
745.6937000523
 20
27.7004079221
 30
0.0
 10
745.6937000523
 20
27.7004079221
 30
0.0
 10
745.6937000523
 20
27.7004079221
 30
0.0
 10
745.4716428135
 20
27.7004079221
 30
0.0
 10
745.4716428135
 20
27.7004079221
 30
0.0
 10
745.4716428135
 20
27.7004079221
 30
0.0
 10
745.4716428135
 20
27.0634163847
 30
0.0
 10
745.4716428135
 20
27.0634163847
 30
0.0
 10
745.4716428135
 20
26.8776053775
 30
0.0
 10
745.424928356
 20
26.714824467
 30
0.0
 10
745.2060115849
 20
26.714824467
 30
0.0
 10
744.9865714024
 20
26.714824467
 30
0.0
 10
744.939856945
 20
26.8776053775
 30
0.0
 10
744.939856945
 20
27.0634163847
 30
0.0
 10
744.939856945
 20
27.0634163847
 30
0.0
 10
744.939856945
 20
27.7004079221
 30
0.0
 10
744.939856945
 20
27.7004079221
 30
0.0
 10
744.939856945
 20
27.7004079221
 30
0.0
 10
744.7180614117
 20
27.7004079221
 30
0.0
 10
744.7180614117
 20
27.7004079221
 30
0.0
  0
SPLINE
  5
242
100
AcDbEntity
  8
0
100
AcDbSpline
 62
7
  6
CONTINUOUS
 70
2
 71
3
 72
35
 73
31
 74
0
 42
0.0000001
 43
0.0000001
 44
0.0000000001
 40
0.0
 40
0.0
 40
0.0
 40
0.0
 40
1.0
 40
1.0
 40
1.0
 40
2.0
 40
2.0
 40
2.0
 40
3.0
 40
3.0
 40
3.0
 40
4.0
 40
4.0
 40
4.0
 40
5.0
 40
5.0
 40
5.0
 40
6.0
 40
6.0
 40
6.0
 40
7.0
 40
7.0
 40
7.0
 40
8.0
 40
8.0
 40
8.0
 40
9.0
 40
9.0
 40
9.0
 40
10.0
 40
10.0
 40
10.0
 40
10.0
 10
748.1168326095
 20
27.6590584303
 30
0.0
 10
748.0283761019
 20
27.7103527365
 30
0.0
 10
747.9149267052
 20
27.7354764784
 30
0.0
 10
747.8112912702
 20
27.7354764784
 30
0.0
 10
747.4564184171
 20
27.7354764784
 30
0.0
 10
747.1809732268
 20
27.4716771893
 30
0.0
 10
747.1809732268
 20
27.1141872797
 30
0.0
 10
747.1809732268
 20
26.769259241
 30
0.0
 10
747.459428032
 20
26.5091238309
 30
0.0
 10
747.798991105
 20
26.5091238309
 30
0.0
 10
747.9149267052
 20
26.5091238309
 30
0.0
 10
748.0156833781
 20
26.531107105
 30
0.0
 10
748.1168326095
 20
26.5850184676
 30
0.0
 10
748.1168326095
 20
26.5850184676
 30
0.0
 10
748.1168326095
 20
26.8676605631
 30
0.0
 10
748.1168326095
 20
26.8676605631
 30
0.0
 10
748.0329559506
 20
26.7744933538
 30
0.0
 10
747.9294513685
 20
26.7153478783
 30
0.0
 10
747.8013464558
 20
26.7153478783
 30
0.0
 10
747.5676433157
 20
26.7153478783
 30
0.0
 10
747.4023762016
 20
26.887550192
 30
0.0
 10
747.4023762016
 20
27.1241320941
 30
0.0
 10
747.4023762016
 20
27.3361136657
 30
0.0
 10
747.5701295193
 20
27.5282056084
 30
0.0
 10
747.7869526453
 20
27.5282056084
 30
0.0
 10
747.9197682596
 20
27.5282056084
 30
0.0
 10
748.0283761019
 20
27.4742942457
 30
0.0
 10
748.1168326095
 20
27.3732758672
 30
0.0
 10
748.1168326095
 20
27.3732758672
 30
0.0
 10
748.1168326095
 20
27.6590584303
 30
0.0
 10
748.1168326095
 20
27.6590584303
 30
0.0
  0
SPLINE
  5
243
100
AcDbEntity
  8
0
100
AcDbSpline
 62
7
  6
CONTINUOUS
 70
2
 71
3
 72
32
 73
28
 74
0
 42
0.0000001
 43
0.0000001
 44
0.0000000001
 40
0.0
 40
0.0
 40
0.0
 40
0.0
 40
1.0
 40
1.0
 40
1.0
 40
2.0
 40
2.0
 40
2.0
 40
3.0
 40
3.0
 40
3.0
 40
4.0
 40
4.0
 40
4.0
 40
5.0
 40
5.0
 40
5.0
 40
6.0
 40
6.0
 40
6.0
 40
7.0
 40
7.0
 40
7.0
 40
8.0
 40
8.0
 40
8.0
 40
9.0
 40
9.0
 40
9.0
 40
9.0
 10
750.6487038618
 20
27.087493304
 30
0.0
 10
750.6487038618
 20
27.087493304
 30
0.0
 10
750.6487038618
 20
27.1215150377
 30
0.0
 10
750.6487038618
 20
27.1215150377
 30
0.0
 10
750.6487038618
 20
27.46382602
 30
0.0
 10
750.475847284
 20
27.7354764784
 30
0.0
 10
750.1091976768
 20
27.7354764784
 30
0.0
 10
749.7375756624
 20
27.7354764784
 30
0.0
 10
749.5478390706
 20
27.4690601328
 30
0.0
 10
749.5478390706
 20
27.1141872797
 30
0.0
 10
749.5478390706
 20
26.7744933538
 30
0.0
 10
749.7619142873
 20
26.5086004196
 30
0.0
 10
750.1140392312
 20
26.5086004196
 30
0.0
 10
750.3380592624
 20
26.5086004196
 30
0.0
 10
750.5402268724
 20
26.6242743142
 30
0.0
 10
750.6487038618
 20
26.8236940149
 30
0.0
 10
750.6487038618
 20
26.8236940149
 30
0.0
 10
750.4610609151
 20
26.9304699176
 30
0.0
 10
750.4610609151
 20
26.9304699176
 30
0.0
 10
750.3775768147
 20
26.7917659263
 30
0.0
 10
750.2863723978
 20
26.7059264751
 30
0.0
 10
750.1167871405
 20
26.7059264751
 30
0.0
 10
749.9048055689
 20
26.7059264751
 30
0.0
 10
749.7718591018
 20
26.8906906597
 30
0.0
 10
749.769503751
 20
27.087493304
 30
0.0
 10
749.769503751
 20
27.087493304
 30
0.0
 10
750.6487038618
 20
27.087493304
 30
0.0
 10
750.6487038618
 20
27.087493304
 30
0.0
  0
SPLINE
  5
244
100
AcDbEntity
  8
0
100
AcDbSpline
 62
7
  6
CONTINUOUS
 70
2
 71
3
 72
14
 73
10
 74
0
 42
0.0000001
 43
0.0000001
 44
0.0000000001
 40
0.0
 40
0.0
 40
0.0
 40
0.0
 40
1.0
 40
1.0
 40
1.0
 40
2.0
 40
2.0
 40
2.0
 40
3.0
 40
3.0
 40
3.0
 40
3.0
 10
749.7815422106
 20
27.2549849161
 30
0.0
 10
749.809152156
 20
27.4198594718
 30
0.0
 10
749.9369953631
 20
27.5428611244
 30
0.0
 10
750.1091976768
 20
27.5428611244
 30
0.0
 10
750.2863723978
 20
27.5428611244
 30
0.0
 10
750.3998217944
 20
27.4271872298
 30
0.0
 10
750.4270391814
 20
27.2549849161
 30
0.0
 10
750.4270391814
 20
27.2549849161
 30
0.0
 10
749.7815422106
 20
27.2549849161
 30
0.0
 10
749.7815422106
 20
27.2549849161
 30
0.0
  0
SPLINE
  5
245
100
AcDbEntity
  8
0
100
AcDbSpline
 62
7
  6
CONTINUOUS
 70
2
 71
3
 72
20
 73
16
 74
0
 42
0.0000001
 43
0.0000001
 44
0.0000000001
 40
0.0
 40
0.0
 40
0.0
 40
0.0
 40
1.0
 40
1.0
 40
1.0
 40
2.0
 40
2.0
 40
2.0
 40
3.0
 40
3.0
 40
3.0
 40
4.0
 40
4.0
 40
4.0
 40
5.0
 40
5.0
 40
5.0
 40
5.0
 10
752.672735312
 20
27.4643494312
 30
0.0
 10
752.672735312
 20
27.4643494312
 30
0.0
 10
753.0838748786
 20
26.9618745949
 30
0.0
 10
753.0838748786
 20
26.9618745949
 30
0.0
 10
752.9678084255
 20
26.8462007003
 30
0.0
 10
752.830020404
 20
26.7158712896
 30
0.0
 10
752.6580797959
 20
26.7158712896
 30
0.0
 10
752.4806433693
 20
26.7158712896
 30
0.0
 10
752.3131517572
 20
26.880222434
 30
0.0
 10
752.3131517572
 20
27.0571354493
 30
0.0
 10
752.3131517572
 20
27.2350952872
 30
0.0
 10
752.5229088308
 20
27.3612374075
 30
0.0
 10
752.6504903322
 20
27.4491705039
 30
0.0
 10
752.6504903322
 20
27.4491705039
 30
0.0
 10
752.672735312
 20
27.4643494312
 30
0.0
 10
752.672735312
 20
27.4643494312
 30
0.0
  0
SPLINE
  5
246
100
AcDbEntity
  8
0
100
AcDbSpline
 62
7
  6
CONTINUOUS
 70
2
 71
3
 72
23
 73
19
 74
0
 42
0.0000001
 43
0.0000001
 44
0.0000000001
 40
0.0
 40
0.0
 40
0.0
 40
0.0
 40
1.0
 40
1.0
 40
1.0
 40
2.0
 40
2.0
 40
2.0
 40
3.0
 40
3.0
 40
3.0
 40
4.0
 40
4.0
 40
4.0
 40
5.0
 40
5.0
 40
5.0
 40
6.0
 40
6.0
 40
6.0
 40
6.0
 10
752.7220668259
 20
27.7553661073
 30
0.0
 10
752.7220668259
 20
27.7553661073
 30
0.0
 10
752.6604351467
 20
27.8338778005
 30
0.0
 10
752.6604351467
 20
27.8338778005
 30
0.0
 10
752.6065237841
 20
27.9024446792
 30
0.0
 10
752.5497336593
 20
27.9715349692
 30
0.0
 10
752.5497336593
 20
28.0652255897
 30
0.0
 10
752.5497336593
 20
28.1840399521
 30
0.0
 10
752.6456487778
 20
28.2615048227
 30
0.0
 10
752.7566119709
 20
28.2615048227
 30
0.0
 10
752.8798753291
 20
28.2615048227
 30
0.0
 10
752.9731733912
 20
28.1903208875
 30
0.0
 10
752.9731733912
 20
28.0599914768
 30
0.0
 10
752.9731733912
 20
27.9249513646
 30
0.0
 10
752.8450684785
 20
27.8485333165
 30
0.0
 10
752.7515087108
 20
27.7747323249
 30
0.0
 10
752.7515087108
 20
27.7747323249
 30
0.0
 10
752.7220668259
 20
27.7553661073
 30
0.0
 10
752.7220668259
 20
27.7553661073
 30
0.0
  0
SPLINE
  5
247
100
AcDbEntity
  8
0
100
AcDbSpline
 62
7
  6
CONTINUOUS
 70
2
 71
3
 72
50
 73
46
 74
0
 42
0.0000001
 43
0.0000001
 44
0.0000000001
 40
0.0
 40
0.0
 40
0.0
 40
0.0
 40
1.0
 40
1.0
 40
1.0
 40
2.0
 40
2.0
 40
2.0
 40
3.0
 40
3.0
 40
3.0
 40
4.0
 40
4.0
 40
4.0
 40
5.0
 40
5.0
 40
5.0
 40
6.0
 40
6.0
 40
6.0
 40
7.0
 40
7.0
 40
7.0
 40
8.0
 40
8.0
 40
8.0
 40
9.0
 40
9.0
 40
9.0
 40
10.0
 40
10.0
 40
10.0
 40
11.0
 40
11.0
 40
11.0
 40
12.0
 40
12.0
 40
12.0
 40
13.0
 40
13.0
 40
13.0
 40
14.0
 40
14.0
 40
14.0
 40
15.0
 40
15.0
 40
15.0
 40
15.0
 10
753.4242230685
 20
26.5483796775
 30
0.0
 10
753.4242230685
 20
26.5483796775
 30
0.0
 10
753.7096130732
 20
26.5483796775
 30
0.0
 10
753.7096130732
 20
26.5483796775
 30
0.0
 10
753.7096130732
 20
26.5483796775
 30
0.0
 10
753.3772469054
 20
26.9592575384
 30
0.0
 10
753.3772469054
 20
26.9592575384
 30
0.0
 10
753.3772469054
 20
26.9592575384
 30
0.0
 10
753.6037531403
 20
27.2251504727
 30
0.0
 10
753.6037531403
 20
27.2251504727
 30
0.0
 10
753.6037531403
 20
27.2251504727
 30
0.0
 10
753.455496893
 20
27.3779865687
 30
0.0
 10
753.455496893
 20
27.3779865687
 30
0.0
 10
753.455496893
 20
27.3779865687
 30
0.0
 10
753.2395897367
 20
27.1267491506
 30
0.0
 10
753.2395897367
 20
27.1267491506
 30
0.0
 10
753.2395897367
 20
27.1267491506
 30
0.0
 10
752.8525270894
 20
27.5946788419
 30
0.0
 10
752.8525270894
 20
27.5946788419
 30
0.0
 10
753.0079802419
 20
27.7087825027
 30
0.0
 10
753.1902582229
 20
27.8485333165
 30
0.0
 10
753.1902582229
 20
28.0578978317
 30
0.0
 10
753.1902582229
 20
28.3018074918
 30
0.0
 10
752.9882214657
 20
28.4452221847
 30
0.0
 10
752.7617152309
 20
28.4452221847
 30
0.0
 10
752.5175438651
 20
28.4452221847
 30
0.0
 10
752.333172239
 20
28.2944797338
 30
0.0
 10
752.333172239
 20
28.0380082027
 30
0.0
 10
752.333172239
 20
27.8804614051
 30
0.0
 10
752.4318352667
 20
27.7428042364
 30
0.0
 10
752.5371717884
 20
27.6318410434
 30
0.0
 10
752.5371717884
 20
27.6318410434
 30
0.0
 10
752.4216287466
 20
27.5480952373
 30
0.0
 10
752.4216287466
 20
27.5480952373
 30
0.0
 10
752.2439306144
 20
27.4198594718
 30
0.0
 10
752.0965903368
 20
27.2921471175
 30
0.0
 10
752.0965903368
 20
27.0550418041
 30
0.0
 10
752.0965903368
 20
26.734714096
 30
0.0
 10
752.3551555131
 20
26.5086004196
 30
0.0
 10
752.6655384068
 20
26.5086004196
 30
0.0
 10
752.8844551779
 20
26.5086004196
 30
0.0
 10
753.0816503806
 20
26.6336957174
 30
0.0
 10
753.2219246058
 20
26.7996170956
 30
0.0
 10
753.2219246058
 20
26.7996170956
 30
0.0
 10
753.4242230685
 20
26.5483796775
 30
0.0
 10
753.4242230685
 20
26.5483796775
 30
0.0
  0
LWPOLYLINE
  5
248
100
AcDbEntity
  8
0
100
AcDbPolyline
 62
7
  6
CONTINUOUS
 90
2
 70
0
 43
0.2
 10
755.3596671583
 20
28.4049195155
 10
755.128319369
 20
28.4049195155
  0
LWPOLYLINE
  5
249
100
AcDbEntity
  8
0
100
AcDbPolyline
 62
7
  6
CONTINUOUS
 90
2
 70
0
 43
0.2
 10
755.128319369
 20
28.4049195155
 10
755.128319369
 20
26.5478562662
  0
LWPOLYLINE
  5
24A
100
AcDbEntity
  8
0
100
AcDbPolyline
 62
7
  6
CONTINUOUS
 90
2
 70
0
 43
0.2
 10
755.128319369
 20
26.5478562662
 10
755.9236428209
 20
26.5478562662
  0
LWPOLYLINE
  5
24B
100
AcDbEntity
  8
0
100
AcDbPolyline
 62
7
  6
CONTINUOUS
 90
2
 70
0
 43
0.2
 10
755.9236428209
 20
26.5478562662
 10
755.9236428209
 20
26.7598378378
  0
LWPOLYLINE
  5
24C
100
AcDbEntity
  8
0
100
AcDbPolyline
 62
7
  6
CONTINUOUS
 90
2
 70
0
 43
0.2
 10
755.9236428209
 20
26.7598378378
 10
755.3596671583
 20
26.7598378378
  0
LWPOLYLINE
  5
24D
100
AcDbEntity
  8
0
100
AcDbPolyline
 62
7
  6
CONTINUOUS
 90
2
 70
0
 43
0.2
 10
755.3596671583
 20
26.7598378378
 10
755.3596671583
 20
28.4049195155
  0
LWPOLYLINE
  5
24E
100
AcDbEntity
  8
0
100
AcDbPolyline
 62
7
  6
CONTINUOUS
 90
2
 70
0
 43
0.2
 10
757.6027462324
 20
27.7004079221
 10
757.3816049633
 20
27.7004079221
  0
LWPOLYLINE
  5
24F
100
AcDbEntity
  8
0
100
AcDbPolyline
 62
7
  6
CONTINUOUS
 90
2
 70
0
 43
0.2
 10
757.3816049633
 20
27.7004079221
 10
757.3816049633
 20
26.5483796775
  0
LWPOLYLINE
  5
250
100
AcDbEntity
  8
0
100
AcDbPolyline
 62
7
  6
CONTINUOUS
 90
2
 70
0
 43
0.2
 10
757.3816049633
 20
26.5483796775
 10
757.6027462324
 20
26.5483796775
  0
LWPOLYLINE
  5
251
100
AcDbEntity
  8
0
100
AcDbPolyline
 62
7
  6
CONTINUOUS
 90
2
 70
0
 43
0.2
 10
757.6027462324
 20
26.5483796775
 10
757.6027462324
 20
27.7004079221
  0
LWPOLYLINE
  5
252
100
AcDbEntity
  8
0
100
AcDbPolyline
 62
7
  6
CONTINUOUS
 90
2
 70
1
 43
0.2
 10
757.3397229552
 20
28.230361851
 42
1.0
 10
757.6448899461
 20
28.230361851
 42
1.0
  0
SPLINE
  5
253
100
AcDbEntity
  8
0
100
AcDbSpline
 62
7
  6
CONTINUOUS
 70
2
 71
3
 72
17
 73
13
 74
0
 42
0.0000001
 43
0.0000001
 44
0.0000000001
 40
0.0
 40
0.0
 40
0.0
 40
0.0
 40
1.0
 40
1.0
 40
1.0
 40
2.0
 40
2.0
 40
2.0
 40
3.0
 40
3.0
 40
3.0
 40
4.0
 40
4.0
 40
4.0
 40
4.0
 10
759.7330301741
 20
26.7059264751
 30
0.0
 10
759.4990653284
 20
26.7059264751
 30
0.0
 10
759.3687359177
 20
26.9079632322
 30
0.0
 10
759.3687359177
 20
27.1241320941
 30
0.0
 10
759.3687359177
 20
27.3387307222
 30
0.0
 10
759.5045611469
 20
27.5376270115
 30
0.0
 10
759.7330301741
 20
27.5376270115
 30
0.0
 10
759.9724908383
 20
27.5376270115
 30
0.0
 10
760.1080543618
 20
27.3486755366
 30
0.0
 10
760.1080543618
 20
27.1241320941
 30
0.0
 10
760.1080543618
 20
26.8980184178
 30
0.0
 10
759.974846189
 20
26.7059264751
 30
0.0
 10
759.7330301741
 20
26.7059264751
 30
0.0
  0
SPLINE
  5
254
100
AcDbEntity
  8
0
100
AcDbSpline
 62
7
  6
CONTINUOUS
 70
2
 71
3
 72
50
 73
46
 74
0
 42
0.0000001
 43
0.0000001
 44
0.0000000001
 40
0.0
 40
0.0
 40
0.0
 40
0.0
 40
1.0
 40
1.0
 40
1.0
 40
2.0
 40
2.0
 40
2.0
 40
3.0
 40
3.0
 40
3.0
 40
4.0
 40
4.0
 40
4.0
 40
5.0
 40
5.0
 40
5.0
 40
6.0
 40
6.0
 40
6.0
 40
7.0
 40
7.0
 40
7.0
 40
8.0
 40
8.0
 40
8.0
 40
9.0
 40
9.0
 40
9.0
 40
10.0
 40
10.0
 40
10.0
 40
11.0
 40
11.0
 40
11.0
 40
12.0
 40
12.0
 40
12.0
 40
13.0
 40
13.0
 40
13.0
 40
14.0
 40
14.0
 40
14.0
 40
15.0
 40
15.0
 40
15.0
 40
15.0
 10
760.3171571713
 20
27.7009313334
 30
0.0
 10
760.3171571713
 20
27.7009313334
 30
0.0
 10
760.0954924909
 20
27.7009313334
 30
0.0
 10
760.0954924909
 20
27.7009313334
 30
0.0
 10
760.0954924909
 20
27.7009313334
 30
0.0
 10
760.0954924909
 20
27.5036052778
 30
0.0
 10
760.0954924909
 20
27.5036052778
 30
0.0
 10
760.0954924909
 20
27.5036052778
 30
0.0
 10
760.0907817893
 20
27.5036052778
 30
0.0
 10
760.0907817893
 20
27.5036052778
 30
0.0
 10
759.9994465196
 20
27.6464965594
 30
0.0
 10
759.8615276452
 20
27.7349530671
 30
0.0
 10
759.6888019202
 20
27.7349530671
 30
0.0
 10
759.3564357524
 20
27.7349530671
 30
0.0
 10
759.1473329429
 20
27.4470768587
 30
0.0
 10
759.1473329429
 20
27.1314598522
 30
0.0
 10
759.1473329429
 20
26.8017107408
 30
0.0
 10
759.3443972928
 20
26.5086004196
 30
0.0
 10
759.699270146
 20
26.5086004196
 30
0.0
 10
759.8615276452
 20
26.5086004196
 30
0.0
 10
760.0015401647
 20
26.5970569272
 30
0.0
 10
760.0907817893
 20
26.7279097492
 30
0.0
 10
760.0907817893
 20
26.7279097492
 30
0.0
 10
760.0954924909
 20
26.7279097492
 30
0.0
 10
760.0954924909
 20
26.7279097492
 30
0.0
 10
760.0954924909
 20
26.7279097492
 30
0.0
 10
760.0954924909
 20
26.5086004196
 30
0.0
 10
760.0954924909
 20
26.5086004196
 30
0.0
 10
760.0954924909
 20
26.2720185175
 30
0.0
 10
760.0389640718
 20
26.0851606877
 30
0.0
 10
759.7657433795
 20
26.0851606877
 30
0.0
 10
759.5634449168
 20
26.0851606877
 30
0.0
 10
759.4208153408
 20
26.2034516388
 30
0.0
 10
759.4208153408
 20
26.4096756862
 30
0.0
 10
759.4208153408
 20
26.4096756862
 30
0.0
 10
759.1991506604
 20
26.4096756862
 30
0.0
 10
759.1991506604
 20
26.4096756862
 30
0.0
 10
759.2041230677
 20
26.0851606877
 30
0.0
 10
759.4352091513
 20
25.8883580435
 30
0.0
 10
759.7555368594
 20
25.8883580435
 30
0.0
 10
760.2035769218
 20
25.8883580435
 30
0.0
 10
760.3171571713
 20
26.1736171954
 30
0.0
 10
760.3171571713
 20
26.5703629516
 30
0.0
 10
760.3171571713
 20
26.5703629516
 30
0.0
 10
760.3171571713
 20
27.7009313334
 30
0.0
 10
760.3171571713
 20
27.7009313334
 30
0.0
  0
SPLINE
  5
255
100
AcDbEntity
  8
0
100
AcDbSpline
 62
7
  6
CONTINUOUS
 70
2
 71
3
 72
44
 73
40
 74
0
 42
0.0000001
 43
0.0000001
 44
0.0000000001
 40
0.0
 40
0.0
 40
0.0
 40
0.0
 40
1.0
 40
1.0
 40
1.0
 40
2.0
 40
2.0
 40
2.0
 40
3.0
 40
3.0
 40
3.0
 40
4.0
 40
4.0
 40
4.0
 40
5.0
 40
5.0
 40
5.0
 40
6.0
 40
6.0
 40
6.0
 40
7.0
 40
7.0
 40
7.0
 40
8.0
 40
8.0
 40
8.0
 40
9.0
 40
9.0
 40
9.0
 40
10.0
 40
10.0
 40
10.0
 40
11.0
 40
11.0
 40
11.0
 40
12.0
 40
12.0
 40
12.0
 40
13.0
 40
13.0
 40
13.0
 40
13.0
 10
761.8860825067
 20
28.6859913771
 30
0.0
 10
761.8860825067
 20
28.6859913771
 30
0.0
 10
761.8860825067
 20
26.5478562662
 30
0.0
 10
761.8860825067
 20
26.5478562662
 30
0.0
 10
761.8860825067
 20
26.5478562662
 30
0.0
 10
762.1074854815
 20
26.5478562662
 30
0.0
 10
762.1074854815
 20
26.5478562662
 30
0.0
 10
762.1074854815
 20
26.5478562662
 30
0.0
 10
762.1074854815
 20
27.0775484895
 30
0.0
 10
762.1074854815
 20
27.0775484895
 30
0.0
 10
762.1074854815
 20
27.2874364159
 30
0.0
 10
762.1074854815
 20
27.5381504228
 30
0.0
 10
762.3927446334
 20
27.5381504228
 30
0.0
 10
762.6196434267
 20
27.5381504228
 30
0.0
 10
762.646599108
 20
27.4052039557
 30
0.0
 10
762.646599108
 20
27.2089247228
 30
0.0
 10
762.646599108
 20
27.2089247228
 30
0.0
 10
762.646599108
 20
26.5478562662
 30
0.0
 10
762.646599108
 20
26.5478562662
 30
0.0
 10
762.646599108
 20
26.5478562662
 30
0.0
 10
762.868525494
 20
26.5478562662
 30
0.0
 10
762.868525494
 20
26.5478562662
 30
0.0
 10
762.868525494
 20
26.5478562662
 30
0.0
 10
762.868525494
 20
27.2350952872
 30
0.0
 10
762.868525494
 20
27.2350952872
 30
0.0
 10
762.868525494
 20
27.5156437375
 30
0.0
 10
762.7845179823
 20
27.7354764784
 30
0.0
 10
762.4594795726
 20
27.7354764784
 30
0.0
 10
762.3197287587
 20
27.7354764784
 30
0.0
 10
762.1815481787
 20
27.6690032448
 30
0.0
 10
762.1121961831
 20
27.5460015922
 30
0.0
 10
762.1121961831
 20
27.5460015922
 30
0.0
 10
762.1074854815
 20
27.5460015922
 30
0.0
 10
762.1074854815
 20
27.5460015922
 30
0.0
 10
762.1074854815
 20
27.5460015922
 30
0.0
 10
762.1074854815
 20
28.6859913771
 30
0.0
 10
762.1074854815
 20
28.6859913771
 30
0.0
 10
762.1074854815
 20
28.6859913771
 30
0.0
 10
761.8860825067
 20
28.6859913771
 30
0.0
 10
761.8860825067
 20
28.6859913771
 30
0.0
  0
LWPOLYLINE
  5
256
100
AcDbEntity
  8
0
100
AcDbPolyline
 62
7
  6
CONTINUOUS
 90
2
 70
0
 43
0.2
 10
764.7083161709
 20
27.4936604634
 10
764.9247467384
 20
27.4936604634
  0
LWPOLYLINE
  5
257
100
AcDbEntity
  8
0
100
AcDbPolyline
 62
7
  6
CONTINUOUS
 90
2
 70
0
 43
0.2
 10
764.9247467384
 20
27.4936604634
 10
764.9247467384
 20
27.7004079221
  0
LWPOLYLINE
  5
258
100
AcDbEntity
  8
0
100
AcDbPolyline
 62
7
  6
CONTINUOUS
 90
2
 70
0
 43
0.2
 10
764.9247467384
 20
27.7004079221
 10
764.7083161709
 20
27.7004079221
  0
LWPOLYLINE
  5
259
100
AcDbEntity
  8
0
100
AcDbPolyline
 62
7
  6
CONTINUOUS
 90
2
 70
0
 43
0.2
 10
764.7083161709
 20
27.7004079221
 10
764.7083161709
 20
28.1411202265
  0
LWPOLYLINE
  5
25A
100
AcDbEntity
  8
0
100
AcDbPolyline
 62
7
  6
CONTINUOUS
 90
2
 70
0
 43
0.2
 10
764.7083161709
 20
28.1411202265
 10
764.4866514905
 20
28.1411202265
  0
LWPOLYLINE
  5
25B
100
AcDbEntity
  8
0
100
AcDbPolyline
 62
7
  6
CONTINUOUS
 90
2
 70
0
 43
0.2
 10
764.4866514905
 20
28.1411202265
 10
764.4866514905
 20
27.7004079221
  0
LWPOLYLINE
  5
25C
100
AcDbEntity
  8
0
100
AcDbPolyline
 62
7
  6
CONTINUOUS
 90
2
 70
0
 43
0.2
 10
764.4866514905
 20
27.7004079221
 10
764.3660051886
 20
27.7004079221
  0
LWPOLYLINE
  5
25D
100
AcDbEntity
  8
0
100
AcDbPolyline
 62
7
  6
CONTINUOUS
 90
2
 70
0
 43
0.2
 10
764.3660051886
 20
27.7004079221
 10
764.3660051886
 20
27.4936604634
  0
LWPOLYLINE
  5
25E
100
AcDbEntity
  8
0
100
AcDbPolyline
 62
7
  6
CONTINUOUS
 90
2
 70
0
 43
0.2
 10
764.3660051886
 20
27.4936604634
 10
764.4866514905
 20
27.4936604634
  0
LWPOLYLINE
  5
25F
100
AcDbEntity
  8
0
100
AcDbPolyline
 62
7
  6
CONTINUOUS
 90
2
 70
0
 43
0.2
 10
764.4866514905
 20
27.4936604634
 10
764.4866514905
 20
26.5478562662
  0
LWPOLYLINE
  5
260
100
AcDbEntity
  8
0
100
AcDbPolyline
 62
7
  6
CONTINUOUS
 90
2
 70
0
 43
0.2
 10
764.4866514905
 20
26.5478562662
 10
764.7083161709
 20
26.5478562662
  0
LWPOLYLINE
  5
261
100
AcDbEntity
  8
0
100
AcDbPolyline
 62
7
  6
CONTINUOUS
 90
2
 70
0
 43
0.2
 10
764.7083161709
 20
26.5478562662
 10
764.7083161709
 20
27.4936604634
  0
SPLINE
  5
262
100
AcDbEntity
  8
0
100
AcDbSpline
 62
7
  6
CONTINUOUS
 70
2
 71
3
 72
20
 73
16
 74
0
 42
0.0000001
 43
0.0000001
 44
0.0000000001
 40
0.0
 40
0.0
 40
0.0
 40
0.0
 40
1.0
 40
1.0
 40
1.0
 40
2.0
 40
2.0
 40
2.0
 40
3.0
 40
3.0
 40
3.0
 40
4.0
 40
4.0
 40
4.0
 40
5.0
 40
5.0
 40
5.0
 40
5.0
 10
752.4903264781
 20
36.9087827096
 30
0.0
 10
752.4903264781
 20
36.9087827096
 30
0.0
 10
754.8066831326
 20
34.0792212873
 30
0.0
 10
754.8066831326
 20
34.0792212873
 30
0.0
 10
754.1550360792
 20
33.4270508227
 30
0.0
 10
753.3781628752
 20
32.6911345519
 30
0.0
 10
752.4069732306
 20
32.6911345519
 30
0.0
 10
751.4084353461
 20
32.6911345519
 30
0.0
 10
750.4651173526
 20
33.6207129992
 30
0.0
 10
750.4651173526
 20
34.6199051477
 30
0.0
 10
750.4651173526
 20
35.6190972963
 30
0.0
 10
751.6439704257
 20
36.3257025349
 30
0.0
 10
752.365492886
 20
36.8255603148
 30
0.0
 10
752.365492886
 20
36.8255603148
 30
0.0
 10
752.4903264781
 20
36.9087827096
 30
0.0
 10
752.4903264781
 20
36.9087827096
 30
0.0
  0
SPLINE
  5
263
100
AcDbEntity
  8
0
100
AcDbSpline
 62
7
  6
CONTINUOUS
 70
2
 71
3
 72
23
 73
19
 74
0
 42
0.0000001
 43
0.0000001
 44
0.0000000001
 40
0.0
 40
0.0
 40
0.0
 40
0.0
 40
1.0
 40
1.0
 40
1.0
 40
2.0
 40
2.0
 40
2.0
 40
3.0
 40
3.0
 40
3.0
 40
4.0
 40
4.0
 40
4.0
 40
5.0
 40
5.0
 40
5.0
 40
6.0
 40
6.0
 40
6.0
 40
6.0
 10
752.7677344607
 20
38.5465366293
 30
0.0
 10
752.7677344607
 20
38.5465366293
 30
0.0
 10
752.4212361882
 20
38.9898659901
 30
0.0
 10
752.4212361882
 20
38.9898659901
 30
0.0
 10
752.1154331432
 20
39.3779754601
 30
0.0
 10
751.7965448161
 20
39.7664774885
 30
0.0
 10
751.7965448161
 20
40.2934218026
 30
0.0
 10
751.7965448161
 20
40.9595935192
 30
0.0
 10
752.3378829406
 20
41.4033154385
 30
0.0
 10
752.9617891957
 20
41.4033154385
 30
0.0
 10
753.6555708578
 20
41.4033154385
 30
0.0
 10
754.1827768775
 20
41.0010738638
 30
0.0
 10
754.1827768775
 20
40.2660735628
 30
0.0
 10
754.1827768775
 20
39.5028090523
 30
0.0
 10
753.4615161228
 20
39.0726958264
 30
0.0
 10
752.9344409559
 20
38.6569764111
 30
0.0
 10
752.9344409559
 20
38.6569764111
 30
0.0
 10
752.7677344607
 20
38.5465366293
 30
0.0
 10
752.7677344607
 20
38.5465366293
 30
0.0
  0
SPLINE
  5
264
100
AcDbEntity
  8
0
100
AcDbSpline
 62
7
  6
CONTINUOUS
 70
2
 71
3
 72
50
 73
46
 74
0
 42
0.0000001
 43
0.0000001
 44
0.0000000001
 40
0.0
 40
0.0
 40
0.0
 40
0.0
 40
1.0
 40
1.0
 40
1.0
 40
2.0
 40
2.0
 40
2.0
 40
3.0
 40
3.0
 40
3.0
 40
4.0
 40
4.0
 40
4.0
 40
5.0
 40
5.0
 40
5.0
 40
6.0
 40
6.0
 40
6.0
 40
7.0
 40
7.0
 40
7.0
 40
8.0
 40
8.0
 40
8.0
 40
9.0
 40
9.0
 40
9.0
 40
10.0
 40
10.0
 40
10.0
 40
11.0
 40
11.0
 40
11.0
 40
12.0
 40
12.0
 40
12.0
 40
13.0
 40
13.0
 40
13.0
 40
14.0
 40
14.0
 40
14.0
 40
15.0
 40
15.0
 40
15.0
 40
15.0
 10
756.7213216236
 20
31.7479474112
 30
0.0
 10
756.7213216236
 20
31.7479474112
 30
0.0
 10
758.3305496282
 20
31.7479474112
 30
0.0
 10
758.3305496282
 20
31.7479474112
 30
0.0
 10
758.3305496282
 20
31.7479474112
 30
0.0
 10
756.4575223346
 20
34.0650891826
 30
0.0
 10
756.4575223346
 20
34.0650891826
 30
0.0
 10
756.4575223346
 20
34.0650891826
 30
0.0
 10
757.73386076
 20
35.5625688772
 30
0.0
 10
757.73386076
 20
35.5625688772
 30
0.0
 10
757.73386076
 20
35.5625688772
 30
0.0
 10
756.9016368123
 20
36.4235804457
 30
0.0
 10
756.9016368123
 20
36.4235804457
 30
0.0
 10
756.9016368123
 20
36.4235804457
 30
0.0
 10
755.681041689
 20
35.0082763233
 30
0.0
 10
755.681041689
 20
35.0082763233
 30
0.0
 10
755.681041689
 20
35.0082763233
 30
0.0
 10
753.5031273202
 20
37.6436521577
 30
0.0
 10
753.5031273202
 20
37.6436521577
 30
0.0
 10
754.3767007596
 20
38.2816905177
 30
0.0
 10
755.4033720008
 20
39.0726958264
 30
0.0
 10
755.4033720008
 20
40.2515488996
 30
0.0
 10
755.4033720008
 20
41.6252418246
 30
0.0
 10
754.265475861
 20
42.429724974
 30
0.0
 10
752.9901842581
 20
42.429724974
 30
0.0
 10
751.6167530387
 20
42.429724974
 30
0.0
 10
750.5758188399
 20
41.5834997744
 30
0.0
 10
750.5758188399
 20
40.1408474122
 30
0.0
 10
750.5758188399
 20
39.2532727208
 30
0.0
 10
751.1311582164
 20
38.4763995167
 30
0.0
 10
751.7273236733
 20
37.8519698503
 30
0.0
 10
751.7273236733
 20
37.8519698503
 30
0.0
 10
751.0754149142
 20
37.3803762799
 30
0.0
 10
751.0754149142
 20
37.3803762799
 30
0.0
 10
750.0768770298
 20
36.6591155253
 30
0.0
 10
749.243998818
 20
35.9378547706
 30
0.0
 10
749.243998818
 20
34.6062964542
 30
0.0
 10
749.243998818
 20
32.8026211562
 30
0.0
 10
750.7010449906
 20
31.5260210251
 30
0.0
 10
752.4485844279
 20
31.5260210251
 30
0.0
 10
753.6834425088
 20
31.5260210251
 30
0.0
 10
754.7928127335
 20
32.2341964976
 30
0.0
 10
755.5836871895
 20
33.1627281223
 30
0.0
 10
755.5836871895
 20
33.1627281223
 30
0.0
 10
756.7213216236
 20
31.7479474112
 30
0.0
 10
756.7213216236
 20
31.7479474112
 30
0.0
  0
LINE
  5
265
100
AcDbEntity
  8
0
100
AcDbLine
 62
7
  6
CONTINUOUS
 10
742.5241829986
 20
29.7218223158
 11
764.9380937263
 21
29.7218223158
  0
LINE
  5
266
100
AcDbEntity
  8
0
100
AcDbLine
 62
7
  6
CONTINUOUS
 10
764.9380937263
 20
29.7218223158
 11
764.9380937263
 21
52.1357330435
  0
LINE
  5
267
100
AcDbEntity
  8
0
100
AcDbLine
 62
7
  6
CONTINUOUS
 10
764.9380937263
 20
52.1357330435
 11
742.5241829986
 21
52.1357330435
  0
LINE
  5
268
100
AcDbEntity
  8
0
100
AcDbLine
 62
7
  6
CONTINUOUS
 10
742.5241829986
 20
52.1357330435
 11
742.5241829986
 21
29.7218223158
  0
ENDBLK
  5
269
100
AcDbEntity
  8
0
  6
BYBLOCK
 62
0
100
AcDbBlockEnd
  0
BLOCK
  5
26A
100
AcDbEntity
  8
0
100
AcDbBlockBegin
  2
_CLOSED
 70
64
 10
0.0
 20
0.0
  3
_CLOSED
  1

  0
LINE
  5
26B
100
AcDbEntity
  8
0
  6
BYBLOCK
 62
0
100
AcDbLine
 10
0.0
 20
0.0
 11
-1.0
 21
0.2
  0
LINE
  5
26C
100
AcDbEntity
  8
0
  6
BYBLOCK
 62
0
100
AcDbLine
 10
-1.0
 20
0.2
 11
-1.0
 21
-0.2
  0
LINE
  5
26D
100
AcDbEntity
  8
0
  6
BYBLOCK
 62
0
100
AcDbLine
 10
-1.0
 20
-0.2
 11
0.0
 21
0.0
  0
LINE
  5
26E
100
AcDbEntity
  8
0
  6
BYBLOCK
 62
0
100
AcDbLine
 10
-1.0
 20
0.0
 11
0.0
 21
0.0
  0
ENDBLK
  5
26F
100
AcDbEntity
  8
0
  6
BYBLOCK
 62
0
100
AcDbBlockEnd
  0
BLOCK
  5
270
100
AcDbEntity
  8
0
100
AcDbBlockBegin
 62
2
  6
CONTINUOUS
  2
*D0
 70
65
 10
0.0
 20
0.0
  3
*D0
  1

  0
MTEXT
  5
271
100
AcDbEntity
  8
0
100
AcDbMText
 62
2
  6
CONTINUOUS
  7
STANDARD
 71
2
 72
1
 10
238.1595620336
 20
845.230974922
 30
0.0
 11
0.0
 21
1.0
 31
0.0
  1
584,7
 40
3.0
 41
10.4832713755
  0
LINE
  5
272
100
AcDbEntity
  8
0
100
AcDbLine
 62
2
  6
CONTINUOUS
 10
220.9204384465
 20
1137.580974922
 11
242.6595620336
 21
1137.580974922
  0
LINE
  5
273
100
AcDbEntity
  8
0
100
AcDbLine
 62
2
  6
CONTINUOUS
 10
220.888696511
 20
552.880974922
 11
242.6595620336
 21
552.880974922
  0
LINE
  5
274
100
AcDbEntity
  8
0
100
AcDbLine
 62
2
  6
CONTINUOUS
 10
241.9095620336
 20
1137.580974922
 11
241.9095620336
 21
845.230974922
  0
LINE
  5
275
100
AcDbEntity
  8
0
100
AcDbLine
 62
2
  6
CONTINUOUS
 10
241.9095620336
 20
552.880974922
 11
241.9095620336
 21
845.230974922
  0
INSERT
  5
276
100
AcDbEntity
  8
0
100
AcDbBlockReference
 62
2
  6
CONTINUOUS
  2
_CLOSED
 10
241.9095620336
 20
1137.580974922
 41
2.5
 42
2.5
 43
2.5
 50
90.0
  0
INSERT
  5
277
100
AcDbEntity
  8
0
100
AcDbBlockReference
 62
2
  6
CONTINUOUS
  2
_CLOSED
 10
241.9095620336
 20
552.880974922
 41
2.5
 42
2.5
 43
2.5
 50
270.0
  0
ENDBLK
  5
278
100
AcDbEntity
  8
0
  6
BYBLOCK
 62
0
100
AcDbBlockEnd
  0
BLOCK
  5
279
100
AcDbEntity
  8
0
100
AcDbBlockBegin
 62
2
  6
CONTINUOUS
  2
*D1
 70
65
 10
0.0
 20
0.0
  3
*D1
  1

  0
MTEXT
  5
27A
100
AcDbEntity
  8
0
100
AcDbMText
 62
2
  6
CONTINUOUS
  7
TEXTSTYLE_2
 71
1
 72
1
 10
189.2347079505
 20
377.2673047607
 30
0.0
 11
0.8064594715
 21
0.5912893714
 31
0.0
  1
{\Fgdt;n}\Farial.ttf;125
 40
3.0
 41
10.9925650558
  0
LINE
  5
27B
100
AcDbEntity
  8
0
100
AcDbLine
 62
2
  6
CONTINUOUS
 10
179.1789296107
 20
365.2445371001
 11
200.317101299
 21
380.7428686248
  0
INSERT
  5
27C
100
AcDbEntity
  8
0
100
AcDbBlockReference
 62
2
  6
CONTINUOUS
  2
_CLOSED
 10
179.1789296107
 20
365.2445371001
 41
2.5
 42
2.5
 43
2.5
 50
216.248559391
  0
ENDBLK
  5
27D
100
AcDbEntity
  8
0
  6
BYBLOCK
 62
0
100
AcDbBlockEnd
  0
BLOCK
  5
27E
100
AcDbEntity
  8
0
100
AcDbBlockBegin
 62
2
  6
CONTINUOUS
  2
*D2
 70
65
 10
0.0
 20
0.0
  3
*D2
  1

  0
MTEXT
  5
27F
100
AcDbEntity
  8
0
100
AcDbMText
 62
2
  6
CONTINUOUS
  7
STANDARD
 71
2
 72
1
 10
507.3245967742
 20
538.3666935972
 30
0.0
 11
1.0
 21
0.0
 31
0.0
  1
Ø110
 40
3.0
 41
10.249070632
  0
LINE
  5
280
100
AcDbEntity
  8
0
100
AcDbLine
 62
2
  6
CONTINUOUS
 10
452.3245967742
 20
541.7852716963
 11
452.3245967742
 21
533.8666935972
  0
LINE
  5
281
100
AcDbEntity
  8
0
100
AcDbLine
 62
2
  6
CONTINUOUS
 10
562.3245967742
 20
541.7852716962
 11
562.3245967742
 21
533.8666935972
  0
LINE
  5
282
100
AcDbEntity
  8
0
100
AcDbLine
 62
2
  6
CONTINUOUS
 10
452.3245967742
 20
534.6166935972
 11
507.3245967742
 21
534.6166935972
  0
LINE
  5
283
100
AcDbEntity
  8
0
100
AcDbLine
 62
2
  6
CONTINUOUS
 10
562.3245967742
 20
534.6166935972
 11
507.3245967742
 21
534.6166935972
  0
INSERT
  5
284
100
AcDbEntity
  8
0
100
AcDbBlockReference
 62
2
  6
CONTINUOUS
  2
_CLOSED
 10
452.3245967742
 20
534.6166935972
 41
2.5
 42
2.5
 43
2.5
 50
180.0
  0
INSERT
  5
285
100
AcDbEntity
  8
0
100
AcDbBlockReference
 62
2
  6
CONTINUOUS
  2
_CLOSED
 10
562.3245967742
 20
534.6166935972
 41
2.5
 42
2.5
 43
2.5
  0
ENDBLK
  5
286
100
AcDbEntity
  8
0
  6
BYBLOCK
 62
0
100
AcDbBlockEnd
  0
ENDSEC
  0
SECTION
  2
ENTITIES
  0
DIMENSION
  5
287
100
AcDbEntity
  8
0
100
AcDbDimension
 62
2
  6
CONTINUOUS
  2
*D0
 10
241.9095620336
 20
552.880974922
 11
241.9095620336
 21
845.2190300942
 70
160
  3
DIMSTYLE_1
100
AcDbAlignedDimension
 13
220.1704384465
 23
1137.580974922
 14
220.138696511
 24
552.880974922
 50
270.0
100
AcDbRotatedDimension
  0
DIMENSION
  5
288
100
AcDbEntity
  8
0
100
AcDbDimension
 62
2
  6
CONTINUOUS
  2
*D1
 10
179.1789296107
 20
365.2445371001
 11
194.5541711104
 21
379.3075089946
 70
163
  1
%%c<>
  3
DIMSTYLE_2
100
AcDbDiametricDimension
 15
78.3714956694
 25
291.33336567
  0
DIMENSION
  5
289
100
AcDbEntity
  8
0
100
AcDbDimension
 62
2
  6
CONTINUOUS
  2
*D2
 10
562.3245967742
 20
534.6166935972
 11
507.3245967742
 21
534.6166935972
 70
160
  1
Ø<>
  3
DIMSTYLE_3
100
AcDbAlignedDimension
 13
452.3245967742
 23
542.5352716963
 14
562.3245967742
 24
542.5352716962
100
AcDbRotatedDimension
  0
LINE
  5
28A
100
AcDbEntity
  8
0
100
AcDbLine
 62
2
  6
CONTINUOUS
 10
739.9050258913
 20
52.5120455435
 11
829.9050258913
 21
52.5120455435
  0
LINE
  5
28B
100
AcDbEntity
  8
0
100
AcDbLine
 62
2
  6
CONTINUOUS
 10
739.9050258913
 20
52.5120455435
 11
739.9050258913
 21
12.5120455435
  0
LINE
  5
28C
100
AcDbEntity
  8
0
100
AcDbLine
 62
2
  6
CONTINUOUS
 10
769.9050258913
 20
46.5120455435
 11
829.9050258913
 21
46.5120455435
  0
LINE
  5
28D
100
AcDbEntity
  8
0
100
AcDbLine
 62
2
  6
CONTINUOUS
 10
769.9050258913
 20
40.5120455435
 11
829.9050258913
 21
40.5120455435
  0
LINE
  5
28E
100
AcDbEntity
  8
0
100
AcDbLine
 62
2
  6
CONTINUOUS
 10
769.9050258913
 20
30.5120455435
 11
829.9050258913
 21
30.5120455435
  0
LINE
  5
28F
100
AcDbEntity
  8
0
100
AcDbLine
 62
2
  6
CONTINUOUS
 10
739.9050258913
 20
25.5120455435
 11
829.9050258913
 21
25.5120455435
  0
LINE
  5
290
100
AcDbEntity
  8
0
100
AcDbLine
 62
2
  6
CONTINUOUS
 10
739.9050258913
 20
12.5120455435
 11
829.9050258913
 21
12.5120455435
  0
LINE
  5
291
100
AcDbEntity
  8
0
100
AcDbLine
 62
2
  6
CONTINUOUS
 10
769.9050258913
 20
52.5120455435
 11
769.9050258913
 21
25.5120455435
  0
LINE
  5
292
100
AcDbEntity
  8
0
100
AcDbLine
 62
2
  6
CONTINUOUS
 10
809.9050258913
 20
52.5120455435
 11
809.9050258913
 21
40.5120455435
  0
LINE
  5
293
100
AcDbEntity
  8
0
100
AcDbLine
 62
2
  6
CONTINUOUS
 10
829.9050258913
 20
52.5120455435
 11
829.9050258913
 21
12.5120455435
  0
INSERT
  5
294
100
AcDbEntity
  8
0
100
AcDbBlockReference
 62
2
  6
CONTINUOUS
  2
LOGO2_BL0
 10
753.731072936
 20
39.0120455435
  0
MTEXT
  5
295
100
AcDbEntity
  8
9_SOLID
100
AcDbMText
 62
2
  6
CONTINUOUS
  7
TEXTSTYLE_3
 71
1
 72
1
 10
771.3925258913
 20
51.0120455435
 30
0.0
 11
1.0
 21
0.0
 31
0.0
  1
3X0_C_020
 40
3.0
 41
32.8928571429
  0
MTEXT
  5
296
100
AcDbEntity
  8
0
100
AcDbMText
 62
2
  6
CONTINUOUS
  7
TEXTSTYLE_3
 71
1
 72
1
 10
811.3925258913
 20
50.7620455435
 30
0.0
 11
1.0
 21
0.0
 31
0.0
  1
Rev:00
 40
3.5
 41
22.75
  0
MTEXT
  5
297
100
AcDbEntity
  8
9_SOLID
100
AcDbMText
 62
2
  6
CONTINUOUS
  7
TEXTSTYLE_3
 71
1
 72
1
 10
771.3925258913
 20
44.7620455435
 30
0.0
 11
1.0
 21
0.0
 31
0.0
  1
Scale:1:1
 40
3.5
 41
28.375
  0
MTEXT
  5
298
100
AcDbEntity
  8
9_SOLID
100
AcDbMText
 62
2
  6
CONTINUOUS
  7
TEXTSTYLE_3
 71
1
 72
1
 10
811.3925258913
 20
45.2620455435
 30
0.0
 11
1.0
 21
0.0
 31
0.0
  1
A0
 40
3.5
 41
9.625
  0
MTEXT
  5
299
100
AcDbEntity
  8
0
100
AcDbMText
 62
2
  6
CONTINUOUS
  7
TEXTSTYLE_3
 71
1
 72
1
 10
771.3925258913
 20
37.2620455435
 30
0.0
 11
1.0
 21
0.0
 31
0.0
  1
PLIN 5.1
 40
3.5
 41
29.875
  0
MTEXT
  5
29A
100
AcDbEntity
  8
0
100
AcDbMText
 62
2
  6
CONTINUOUS
  7
TEXTSTYLE_3
 71
1
 72
1
 10
771.3925258913
 20
29.2620455435
 30
0.0
 11
1.0
 21
0.0
 31
0.0
  1
DATE:17/05/2018
 40
2.5
 41
41.9642857143
  0
MTEXT
  5
29B
100
AcDbEntity
  8
9_SOLID
100
AcDbMText
 62
2
  6
CONTINUOUS
  7
TEXTSTYLE_3
 71
1
 72
1
 10
741.3925258913
 20
25.1995455435
 30
0.0
 11
1.0
 21
0.0
 31
0.0
  1
Any integral or partial reproductions are prohibited \Pwithout prior authorisation of L {\Ftxt.shx;\W0.190476;\H2.250000; }& L Luce & Light s.r.l., \Pin accordance with the law in force. \PAll rights reserved.
 40
2.25
 41
134.5982142857
  0
LINE
  5
29C
100
AcDbEntity
  8
0
100
AcDbLine
 62
7
  6
CONTINUOUS
 10
0.0
 20
0.0
 11
841.0
 21
0.0
  0
LINE
  5
29D
100
AcDbEntity
  8
0
100
AcDbLine
 62
7
  6
CONTINUOUS
 10
0.0
 20
0.0
 11
0.0
 21
1189.0
  0
LINE
  5
29E
100
AcDbEntity
  8
0
100
AcDbLine
 62
7
  6
CONTINUOUS
 10
841.0
 20
0.0
 11
841.0
 21
1189.0
  0
LINE
  5
29F
100
AcDbEntity
  8
0
100
AcDbLine
 62
7
  6
CONTINUOUS
 10
0.0
 20
1189.0
 11
841.0
 21
1189.0
  0
LINE
  5
2A0
100
AcDbEntity
  8
3_ALL_AXES
100
AcDbLine
 62
3
  6
CONTINUOUS
 10
64.77521264
 20
552.880974922
 11
174.77521264
 21
552.880974922
  0
LINE
  5
2A1
100
AcDbEntity
  8
7_ALL_FEATURES
100
AcDbLine
 62
3
  6
CONTINUOUS
 10
72.7157791381
 20
556.880974922
 11
119.77521264
 21
556.880974922
  0
LINE
  5
2A2
100
AcDbEntity
  8
3_ALL_AXES
100
AcDbLine
 62
7
  6
CONTINUOUS
 10
64.77521264
 20
556.880974922
 11
119.77521264
 21
556.880974922
  0
LINE
  5
2A3
100
AcDbEntity
  8
3_ALL_AXES
100
AcDbLine
 62
3
  6
CONTINUOUS
 10
119.77521264
 20
556.880974922
 11
174.77521264
 21
556.880974922
  0
LINE
  5
2A4
100
AcDbEntity
  8
7_ALL_FEATURES
100
AcDbLine
 62
7
  6
CONTINUOUS
 10
72.5889116278
 20
558.080974922
 11
119.77521264
 21
558.080974922
  0
LINE
  5
2A5
100
AcDbEntity
  8
3_ALL_AXES
100
AcDbLine
 62
7
  6
CONTINUOUS
 10
119.77521264
 20
558.080974922
 11
174.77521264
 21
558.080974922
  0
LINE
  5
2A6
100
AcDbEntity
  8
7_ALL_FEATURES
100
AcDbLine
 62
7
  6
CONTINUOUS
 10
66.57521264
 20
1137.880974922
 11
66.27521264
 21
1137.580974922
  0
LINE
  5
2A7
100
AcDbEntity
  8
7_ALL_FEATURES
100
AcDbLine
 62
7
  6
CONTINUOUS
 10
190.97521264
 20
1112.880974922
 11
191.27521264
 21
1113.180974922
  0
LINE
  5
2A8
100
AcDbEntity
  8
3_ALL_AXES
100
AcDbLine
 62
7
  6
CONTINUOUS
 10
64.77521264
 20
552.880974922
 11
64.77521264
 21
556.880974922
  0
LINE
  5
2A9
100
AcDbEntity
  8
3_ALL_AXES
100
AcDbLine
 62
7
  6
CONTINUOUS
 10
66.27521264
 20
1113.180974922
 11
66.27521264
 21
1137.580974922
  0
LINE
  5
2AA
100
AcDbEntity
  8
7_ALL_FEATURES
100
AcDbLine
 62
7
  6
CONTINUOUS
 10
69.77521264
 20
556.880974922
 11
69.77521264
 21
1112.880974922
  0
LINE
  5
2AB
100
AcDbEntity
  8
7_ALL_FEATURES
100
AcDbLine
 62
7
  6
CONTINUOUS
 10
72.5888308763
 20
558.080974922
 11
72.5888308763
 21
556.880974922
  0
LINE
  5
2AC
100
AcDbEntity
  8
7_ALL_FEATURES
100
AcDbLine
 62
9
  6
CONTINUOUS
 10
72.8079042848
 20
558.080974922
 11
72.8079042848
 21
556.880974922
  0
LINE
  5
2AD
100
AcDbEntity
  8
3_ALL_AXES
100
AcDbLine
 62
9
  6
CONTINUOUS
 10
119.77521264
 20
552.880974922
 11
119.77521264
 21
558.080974922
  0
LINE
  5
2AE
100
AcDbEntity
  8
7_ALL_FEATURES
100
AcDbLine
 62
7
  6
CONTINUOUS
 10
119.77521264
 20
558.080974922
 11
119.77521264
 21
1112.880974922
  0
LINE
  5
2AF
100
AcDbEntity
  8
3_ALL_AXES
100
AcDbLine
 62
7
  6
CONTINUOUS
 10
174.77521264
 20
552.880974922
 11
174.77521264
 21
558.080974922
  0
LINE
  5
2B0
100
AcDbEntity
  8
3_ALL_AXES
100
AcDbLine
 62
7
  6
CONTINUOUS
 10
191.27521264
 20
1113.180974922
 11
191.27521264
 21
1137.580974922
  0
LINE
  5
2B1
100
AcDbEntity
  8
7_ALL_FEATURES
100
AcDbLine
 62
7
  6
CONTINUOUS
 10
66.57521264
 20
1112.880974922
 11
66.27521264
 21
1113.180974922
  0
LINE
  5
2B2
100
AcDbEntity
  8
7_ALL_FEATURES
100
AcDbLine
 62
7
  6
CONTINUOUS
 10
190.97521264
 20
1137.880974922
 11
191.27521264
 21
1137.580974922
  0
LINE
  5
2B3
100
AcDbEntity
  8
7_ALL_FEATURES
100
AcDbLine
 62
7
  6
CONTINUOUS
 10
190.9747058756
 20
1112.880974922
 11
66.5757194044
 21
1112.880974922
  0
LINE
  5
2B4
100
AcDbEntity
  8
7_ALL_FEATURES
100
AcDbLine
 62
7
  6
CONTINUOUS
 10
191.27521264
 20
1113.180974922
 11
66.27521264
 21
1113.180974922
  0
LINE
  5
2B5
100
AcDbEntity
  8
7_ALL_FEATURES
100
AcDbLine
 62
7
  6
CONTINUOUS
 10
66.27521264
 20
1137.580974922
 11
191.27521264
 21
1137.580974922
  0
LINE
  5
2B6
100
AcDbEntity
  8
7_ALL_FEATURES
100
AcDbLine
 62
7
  6
CONTINUOUS
 10
66.5757194044
 20
1137.880974922
 11
190.9747058756
 21
1137.880974922
  0
LINE
  5
2B7
100
AcDbEntity
  8
3_ALL_AXES
100
AcDbLine
 62
3
  6
CONTINUOUS
 10
452.3245967742
 20
552.880974922
 11
562.3245967742
 21
552.880974922
  0
LINE
  5
2B8
100
AcDbEntity
  8
7_ALL_FEATURES
100
AcDbLine
 62
3
  6
CONTINUOUS
 10
452.3245967742
 20
556.880974922
 11
478.8866501493
 21
556.880974922
  0
LINE
  5
2B9
100
AcDbEntity
  8
7_ALL_FEATURES
100
AcDbLine
 62
3
  6
CONTINUOUS
 10
535.7625433991
 20
556.880974922
 11
562.3245967742
 21
556.880974922
  0
LINE
  5
2BA
100
AcDbEntity
  8
3_ALL_AXES
100
AcDbLine
 62
7
  6
CONTINUOUS
 10
452.3245967742
 20
556.880974922
 11
562.3245967742
 21
556.880974922
  0
LINE
  5
2BB
100
AcDbEntity
  8
7_ALL_FEATURES
100
AcDbLine
 62
7
  6
CONTINUOUS
 10
452.3245967742
 20
558.080974922
 11
482.3245967742
 21
558.080974922
  0
LINE
  5
2BC
100
AcDbEntity
  8
7_ALL_FEATURES
100
AcDbLine
 62
7
  6
CONTINUOUS
 10
532.3245967742
 20
558.080974922
 11
562.3245967742
 21
558.080974922
  0
LINE
  5
2BD
100
AcDbEntity
  8
7_ALL_FEATURES
100
AcDbLine
 62
7
  6
CONTINUOUS
 10
445.1245967745
 20
1137.8809749223
 11
444.8245967745
 21
1137.5809749223
  0
LINE
  5
2BE
100
AcDbEntity
  8
7_ALL_FEATURES
100
AcDbLine
 62
7
  6
CONTINUOUS
 10
569.5245967737
 20
1112.8809749215
 11
569.8245967736
 21
1113.1809749215
  0
LINE
  5
2BF
100
AcDbEntity
  8
7_ALL_FEATURES
100
AcDbLine
 62
7
  6
CONTINUOUS
 10
444.8245967742
 20
1113.180974922
 11
444.8245967742
 21
1137.580974922
  0
LINE
  5
2C0
100
AcDbEntity
  8
3_ALL_AXES
100
AcDbLine
 62
7
  6
CONTINUOUS
 10
452.3245967742
 20
552.880974922
 11
452.3245967742
 21
558.080974922
  0
LINE
  5
2C1
100
AcDbEntity
  8
7_ALL_FEATURES
100
AcDbLine
 62
9
  6
CONTINUOUS
 10
478.7051637633
 20
558.080974922
 11
478.7051637633
 21
556.880974922
  0
LINE
  5
2C2
100
AcDbEntity
  8
7_ALL_FEATURES
100
AcDbLine
 62
9
  6
CONTINUOUS
 10
480.984779995
 20
558.080974922
 11
480.984779995
 21
556.880974922
  0
LINE
  5
2C3
100
AcDbEntity
  8
7_ALL_FEATURES
100
AcDbLine
 62
9
  6
CONTINUOUS
 10
481.7401916025
 20
556.880974922
 11
481.7401916025
 21
558.080974922
  0
LINE
  5
2C4
100
AcDbEntity
  8
3_ALL_AXES
100
AcDbLine
 62
7
  6
CONTINUOUS
 10
482.3245967742
 20
556.880974922
 11
482.3245967742
 21
1112.880974922
  0
LINE
  5
2C5
100
AcDbEntity
  8
3_ALL_AXES
100
AcDbLine
 62
7
  6
CONTINUOUS
 10
532.3245967742
 20
556.880974922
 11
532.3245967742
 21
1112.880974922
  0
LINE
  5
2C6
100
AcDbEntity
  8
7_ALL_FEATURES
100
AcDbLine
 62
9
  6
CONTINUOUS
 10
532.9090019459
 20
556.880974922
 11
532.9090019459
 21
558.080974922
  0
LINE
  5
2C7
100
AcDbEntity
  8
7_ALL_FEATURES
100
AcDbLine
 62
9
  6
CONTINUOUS
 10
533.6644135534
 20
558.080974922
 11
533.6644135534
 21
556.880974922
  0
LINE
  5
2C8
100
AcDbEntity
  8
7_ALL_FEATURES
100
AcDbLine
 62
9
  6
CONTINUOUS
 10
535.9440297851
 20
558.080974922
 11
535.9440297851
 21
556.880974922
  0
LINE
  5
2C9
100
AcDbEntity
  8
3_ALL_AXES
100
AcDbLine
 62
7
  6
CONTINUOUS
 10
562.3245967742
 20
552.880974922
 11
562.3245967742
 21
558.080974922
  0
LINE
  5
2CA
100
AcDbEntity
  8
7_ALL_FEATURES
100
AcDbLine
 62
7
  6
CONTINUOUS
 10
569.8245967742
 20
1113.180974922
 11
569.8245967742
 21
1137.580974922
  0
LINE
  5
2CB
100
AcDbEntity
  8
7_ALL_FEATURES
100
AcDbLine
 62
7
  6
CONTINUOUS
 10
445.1245967747
 20
1112.8809749215
 11
444.8245967747
 21
1113.1809749215
  0
LINE
  5
2CC
100
AcDbEntity
  8
7_ALL_FEATURES
100
AcDbLine
 62
7
  6
CONTINUOUS
 10
569.5245967739
 20
1137.8809749223
 11
569.8245967739
 21
1137.5809749223
  0
LINE
  5
2CD
100
AcDbEntity
  8
7_ALL_FEATURES
100
AcDbLine
 62
7
  6
CONTINUOUS
 10
569.5245967742
 20
1112.880974922
 11
445.1245967742
 21
1112.880974922
  0
LINE
  5
2CE
100
AcDbEntity
  8
7_ALL_FEATURES
100
AcDbLine
 62
7
  6
CONTINUOUS
 10
569.8245967742
 20
1113.180974922
 11
444.8245967742
 21
1113.180974922
  0
LINE
  5
2CF
100
AcDbEntity
  8
7_ALL_FEATURES
100
AcDbLine
 62
7
  6
CONTINUOUS
 10
444.8245967742
 20
1137.580974922
 11
569.8245967742
 21
1137.580974922
  0
LINE
  5
2D0
100
AcDbEntity
  8
7_ALL_FEATURES
100
AcDbLine
 62
7
  6
CONTINUOUS
 10
445.1245967742
 20
1137.880974922
 11
569.5245967742
 21
1137.880974922
  0
LINE
  5
2D1
100
AcDbEntity
  8
7_ALL_FEATURES
100
AcDbLine
 62
7
  6
CONTINUOUS
 10
663.5454665006
 20
150.2573815099
 11
647.7150641289
 21
157.6384260255
  0
LINE
  5
2D2
100
AcDbEntity
  8
3_ALL_AXES
100
AcDbLine
 62
7
  6
CONTINUOUS
 10
642.5462550785
 20
628.3285952512
 11
642.5462550785
 21
649.4596151036
  0
LINE
  5
2D3
100
AcDbEntity
  8
3_ALL_AXES
100
AcDbLine
 62
7
  6
CONTINUOUS
 10
643.6822940478
 20
146.2765420261
 11
643.6822940478
 21
149.7406436413
  0
LINE
  5
2D4
100
AcDbEntity
  8
3_ALL_AXES
100
AcDbLine
 62
7
  6
CONTINUOUS
 10
656.0046245182
 20
157.061589793
 11
656.0046245182
 21
608.9790397247
  0
LINE
  5
2D5
100
AcDbEntity
  8
3_ALL_AXES
100
AcDbLine
 62
9
  6
CONTINUOUS
 10
659.7914210826
 20
126.8311055435
 11
659.7914210826
 21
131.3344376432
  0
LINE
  5
2D6
100
AcDbEntity
  8
3_ALL_AXES
100
AcDbLine
 62
7
  6
CONTINUOUS
 10
706.0046245182
 20
156.8829287029
 11
706.0046245182
 21
597.0068131445
  0
LINE
  5
2D7
100
AcDbEntity
  8
3_ALL_AXES
100
AcDbLine
 62
7
  6
CONTINUOUS
 10
753.6822940478
 20
146.2765420261
 11
753.6822940478
 21
149.7406436413
  0
LINE
  5
2D8
100
AcDbEntity
  8
3_ALL_AXES
100
AcDbLine
 62
7
  6
CONTINUOUS
 10
767.5462550785
 20
628.3285952512
 11
767.5462550785
 21
649.4596151036
  0
CIRCLE
  5
2D9
100
AcDbEntity
  8
7_ALL_FEATURES
100
AcDbCircle
 62
7
  6
CONTINUOUS
 10
128.77521264
 20
328.288951385
 40
62.5
  0
CIRCLE
  5
2DA
100
AcDbEntity
  8
7_ALL_FEATURES
100
AcDbCircle
 62
7
  6
CONTINUOUS
 10
128.77521264
 20
328.288951385
 40
62.2
  0
ARC
  5
2DB
100
AcDbEntity
  8
7_ALL_FEATURES
100
AcDbCircle
 62
7
  6
CONTINUOUS
 10
119.77521264
 20
328.288951385
 40
55.0
100
AcDbArc
 50
211.3559549895
 51
216.2599459571
  0
ARC
  5
2DC
100
AcDbEntity
  8
7_ALL_FEATURES
100
AcDbCircle
 62
7
  6
CONTINUOUS
 10
119.77521264
 20
328.288951385
 40
55.0
100
AcDbArc
 50
143.7400539504
 51
148.6440450105
  0
ARC
  5
2DD
100
AcDbEntity
  8
3_ALL_AXES
100
AcDbCircle
 62
7
  6
CONTINUOUS
 10
119.77521264
 20
328.288951385
 40
55.0
100
AcDbArc
 50
148.8539932176
 51
211.1460067824
  0
ARC
  5
2DE
100
AcDbEntity
  8
7_ALL_FEATURES
100
AcDbCircle
 62
7
  6
CONTINUOUS
 10
74.0888308763
 20
356.1278544047
 40
1.5
100
AcDbArc
 50
148.6440450105
 51
195.1762158835
  0
ARC
  5
2DF
100
AcDbEntity
  8
7_ALL_FEATURES
100
AcDbCircle
 62
7
  6
CONTINUOUS
 10
74.0888308763
 20
300.4500483653
 40
1.5
100
AcDbArc
 50
164.8237838621
 51
211.3559549895
  0
ARC
  5
2E0
100
AcDbEntity
  8
7_ALL_FEATURES
100
AcDbCircle
 62
7
  6
CONTINUOUS
 10
688.5196062619
 20
661.5669962396
 40
61.866858343
100
AcDbArc
 50
243.4351301822
 51
243.6628793741
  0
ARC
  5
2E1
100
AcDbEntity
  8
7_ALL_FEATURES
100
AcDbCircle
 62
7
  6
CONTINUOUS
 10
688.3403829884
 20
660.6305761776
 40
60.991790034
100
AcDbArc
 50
243.1807022428
 51
243.4351462942
  0
ARC
  5
2E2
100
AcDbEntity
  8
7_ALL_FEATURES
100
AcDbCircle
 62
7
  6
CONTINUOUS
 10
730.3759866674
 20
646.6356218053
 40
44.517647722
100
AcDbArc
 50
304.8898249934
 51
305.2628163313
  0
ARC
  5
2E3
100
AcDbEntity
  8
7_ALL_FEATURES
100
AcDbCircle
 62
7
  6
CONTINUOUS
 10
679.7008884066
 20
646.6115806893
 40
44.4890248723
100
AcDbArc
 50
234.7357192281
 51
235.1185974624
  0
ARC
  5
2E4
100
AcDbEntity
  8
7_ALL_FEATURES
100
AcDbCircle
 62
7
  6
CONTINUOUS
 10
679.4701220357
 20
632.0206322291
 40
43.6666331927
100
AcDbArc
 50
125.2627586643
 51
125.6604264741
  0
ARC
  5
2E5
100
AcDbEntity
  8
7_ALL_FEATURES
100
AcDbCircle
 62
7
  6
CONTINUOUS
 10
730.6352933129
 20
632.0407782516
 40
43.642766615
100
AcDbArc
 50
54.3288727786
 51
54.7357747052
  0
ARC
  5
2E6
100
AcDbEntity
  8
3_ALL_AXES
100
AcDbCircle
 62
7
  6
CONTINUOUS
 10
676.5927905587
 20
166.1244883377
 40
39.5148550038
100
AcDbArc
 50
234.135653178
 51
236.672466035
  0
ARC
  5
2E7
100
AcDbEntity
  8
3_ALL_AXES
100
AcDbCircle
 62
7
  6
CONTINUOUS
 10
670.0127279542
 20
157.9704779648
 40
29.0281746492
100
AcDbArc
 50
224.7890692093
 51
228.4981576911
  0
ARC
  5
2E8
100
AcDbEntity
  8
3_ALL_AXES
100
AcDbCircle
 62
7
  6
CONTINUOUS
 10
664.2816037654
 20
152.9043758346
 40
21.3699828625
100
AcDbArc
 50
213.6653138231
 51
218.4813144823
  0
ARC
  5
2E9
100
AcDbEntity
  8
3_ALL_AXES
100
AcDbCircle
 62
7
  6
CONTINUOUS
 10
660.0264327361
 20
150.4524741585
 40
16.4508138547
100
AcDbArc
 50
200.4024478402
 51
206.2413063885
  0
ARC
  5
2EA
100
AcDbEntity
  8
3_ALL_AXES
100
AcDbCircle
 62
7
  6
CONTINUOUS
 10
657.658416162
 20
149.7546691949
 40
13.9765237012
100
AcDbArc
 50
183.2159506789
 51
191.8401138472
  0
ARC
  5
2EB
100
AcDbEntity
  8
3_ALL_AXES
100
AcDbCircle
 62
7
  6
CONTINUOUS
 10
739.8897973597
 20
150.7805476944
 40
13.7924378723
100
AcDbArc
 50
355.6950416919
 51
359.9972018989
  0
ARC
  5
2EC
100
AcDbEntity
  8
3_ALL_AXES
100
AcDbCircle
 62
7
  6
CONTINUOUS
 10
657.461001873
 20
149.7409156983
 40
13.7786489956
100
AcDbArc
 50
180.0011312951
 51
183.204902062
  0
ARC
  5
2ED
100
AcDbEntity
  8
7_ALL_FEATURES
100
AcDbCircle
 62
7
  6
CONTINUOUS
 10
657.4567955572
 20
150.7805928865
 40
13.7745058581
100
AcDbArc
 50
180.0029897554
 51
184.2684724358
  0
ARC
  5
2EE
100
AcDbEntity
  8
7_ALL_FEATURES
100
AcDbCircle
 62
3
  6
CONTINUOUS
 10
699.9675941013
 20
158.5512476843
 40
6.6388832651
100
AcDbArc
 50
9.1646266096
 51
11.772453543
  0
ARC
  5
2EF
100
AcDbEntity
  8
7_ALL_FEATURES
100
AcDbCircle
 62
3
  6
CONTINUOUS
 10
700.1047044703
 20
158.572723943
 40
6.5001026101
100
AcDbArc
 50
3.3309293682
 51
9.1702299975
  0
ARC
  5
2F0
100
AcDbEntity
  8
7_ALL_FEATURES
100
AcDbCircle
 62
7
  6
CONTINUOUS
 10
700.1264046533
 20
159.6222323894
 40
6.4781801638
100
AcDbArc
 50
350.1984230009
 51
359.9688363951
  0
SPLINE
  5
2F1
100
AcDbEntity
  8
7_ALL_FEATURES
100
AcDbSpline
 62
7
  6
CONTINUOUS
 70
0
 71
3
 72
11
 73
7
 74
0
 42
0.0000001
 43
0.0000001
 44
0.0000000001
 40
0.0
 40
0.0
 40
0.0
 40
0.0
 40
0.264452418
 40
0.5539293826
 40
0.8119862244
 40
1.0
 40
1.0
 40
1.0
 40
1.0
 10
647.7150641289
 20
157.6384260255
 30
0.0
 10
647.501978521
 20
157.7377787975
 30
0.0
 10
647.0135707502
 20
157.8538809118
 30
0.0
 10
646.284318173
 20
157.8412893472
 30
0.0
 10
645.650078072
 20
157.6739123228
 30
0.0
 10
645.3073974681
 20
157.4171963878
 30
0.0
 10
645.23439666
 20
157.266827664
 30
0.0
  0
SPLINE
  5
2F2
100
AcDbEntity
  8
7_ALL_FEATURES
100
AcDbSpline
 62
7
  6
CONTINUOUS
 70
0
 71
3
 72
15
 73
11
 74
0
 42
0.0000001
 43
0.0000001
 44
0.0000000001
 40
0.0
 40
0.0
 40
0.0
 40
0.0
 40
0.1234893467
 40
0.2593397615
 40
0.4017646895
 40
0.5441956335
 40
0.6800667969
 40
0.8035789973
 40
0.9106072129
 40
1.0
 40
1.0
 40
1.0
 40
1.0
 10
663.5454665006
 20
150.2573815099
 30
0.0
 10
665.2083059374
 20
149.4820700796
 30
0.0
 10
668.8657564412
 20
148.2019792008
 30
0.0
 10
674.7436687988
 20
147.0735693382
 30
0.0
 10
680.9990441098
 20
146.6886480003
 30
0.0
 10
687.254164084
 20
147.0722205054
 30
0.0
 10
693.1348605629
 20
148.1992767027
 30
0.0
 10
698.2971550009
 20
150.006626323
 30
0.0
 10
702.4465144304
 20
152.3850197513
 30
0.0
 10
704.5656782142
 20
154.4788260516
 30
0.0
 10
705.3003573644
 20
155.5852459583
 30
0.0
  0
SPLINE
  5
2F3
100
AcDbEntity
  8
7_ALL_FEATURES
100
AcDbSpline
 62
7
  6
CONTINUOUS
 70
0
 71
3
 72
9
 73
5
 74
0
 42
0.0000001
 43
0.0000001
 44
0.0000000001
 40
0.0
 40
0.0
 40
0.0
 40
0.0
 40
0.2630898221
 40
1.0
 40
1.0
 40
1.0
 40
1.0
 10
705.3003573644
 20
155.5852459583
 30
0.0
 10
705.4549301165
 20
155.8180310725
 30
0.0
 10
706.0034297087
 20
156.7273509704
 30
0.0
 10
706.3770002326
 20
157.7481147026
 30
0.0
 10
706.510024203
 20
158.5194088862
 30
0.0
  0
SPLINE
  5
2F4
100
AcDbEntity
  8
7_ALL_FEATURES
100
AcDbSpline
 62
7
  6
CONTINUOUS
 70
0
 71
3
 72
10
 73
6
 74
0
 42
0.0000001
 43
0.0000001
 44
0.0000000001
 40
0.0
 40
0.0
 40
0.0
 40
0.0
 40
0.2267926388
 40
0.4718916478
 40
1.0
 40
1.0
 40
1.0
 40
1.0
 10
737.5731670131
 20
170.2253106085
 30
0.0
 10
735.3628052869
 20
171.3304914716
 30
0.0
 10
730.6054715414
 20
173.321348122
 30
0.0
 10
720.146158059
 20
176.4227287384
 30
0.0
 10
711.751299493
 20
177.6488757047
 30
0.0
 10
706.0096859275
 20
178.0347291727
 30
0.0
  0
SPLINE
  5
2F5
100
AcDbEntity
  8
7_ALL_FEATURES
100
AcDbSpline
 62
7
  6
CONTINUOUS
 70
0
 71
3
 72
9
 73
5
 74
0
 42
0.0000001
 43
0.0000001
 44
0.0000000001
 40
0.0
 40
0.0
 40
0.0
 40
0.0
 40
0.5099759105
 40
1.0
 40
1.0
 40
1.0
 40
1.0
 10
645.23439666
 20
157.266827664
 30
0.0
 10
644.7359762226
 20
156.2401699179
 30
0.0
 10
643.9552421604
 20
154.1218506076
 30
0.0
 10
643.6822919781
 20
151.8764738659
 30
0.0
 10
643.6822897179
 20
150.7798741179
 30
0.0
  0
SPLINE
  5
2F6
100
AcDbEntity
  8
3_ALL_AXES
100
AcDbSpline
 62
7
  6
CONTINUOUS
 70
0
 71
3
 72
13
 73
9
 74
0
 42
0.0000001
 43
0.0000001
 44
0.0000000001
 40
0.0
 40
0.0
 40
0.0
 40
0.0
 40
0.1021742994
 40
0.2072181595
 40
0.4348475151
 40
0.5615308842
 40
0.6978417554
 40
1.0
 40
1.0
 40
1.0
 40
1.0
 10
753.6822352156
 20
150.7798741258
 30
0.0
 10
753.6822354552
 20
151.682689547
 30
0.0
 10
753.4992447431
 20
153.5186349438
 30
0.0
 10
752.3871948424
 20
157.2171560496
 30
0.0
 10
750.1707748225
 20
160.7132733987
 30
0.0
 10
747.1724493996
 20
163.850565987
 30
0.0
 10
743.3172327991
 20
167.041106126
 30
0.0
 10
739.9611803193
 20
169.0313039553
 30
0.0
 10
737.5731670131
 20
170.2253106085
 30
0.0
  0
SPLINE
  5
2F7
100
AcDbEntity
  8
3_ALL_AXES
100
AcDbSpline
 62
7
  6
CONTINUOUS
 70
0
 71
3
 72
15
 73
11
 74
0
 42
0.0000001
 43
0.0000001
 44
0.0000000001
 40
0.0
 40
0.0
 40
0.0
 40
0.0
 40
0.1112730916
 40
0.2323801188
 40
0.3607688545
 40
0.4933760605
 40
0.6268810911
 40
0.7579087124
 40
0.8832341882
 40
1.0
 40
1.0
 40
1.0
 40
1.0
 10
659.7914210826
 20
131.3344376432
 30
0.0
 10
662.3028632484
 20
130.0787165603
 30
0.0
 10
667.7514424569
 20
127.8557089097
 30
0.0
 10
676.5456054582
 20
125.4386397389
 30
0.0
 10
686.0730086262
 20
123.8549132111
 30
0.0
 10
696.0176555266
 20
123.1587735189
 30
0.0
 10
706.0506979344
 20
123.3731776426
 30
0.0
 10
715.8399123291
 20
124.4911415164
 30
0.0
 10
725.0595454817
 20
126.4744167423
 30
0.0
 10
730.8717918131
 20
128.4120317058
 30
0.0
 10
733.5972487104
 20
129.5316917688
 30
0.0
  0
SPLINE
  5
2F8
100
AcDbEntity
  8
3_ALL_AXES
100
AcDbSpline
 62
7
  6
CONTINUOUS
 70
0
 71
3
 72
13
 73
9
 74
0
 42
0.0000001
 43
0.0000001
 44
0.0000000001
 40
0.0
 40
0.0
 40
0.0
 40
0.0
 40
0.3058863714
 40
0.5712071694
 40
0.6892686985
 40
0.7987479048
 40
0.9014794316
 40
1.0
 40
1.0
 40
1.0
 40
1.0
 10
733.5972487104
 20
129.5316917688
 30
0.0
 10
736.4117337794
 20
130.6879259887
 30
0.0
 10
741.5290532904
 20
133.2174591794
 30
0.0
 10
747.0421631035
 20
137.4041329819
 30
0.0
 10
750.2786817574
 20
141.1081238531
 30
0.0
 10
752.040001885
 20
143.8998615781
 30
0.0
 10
753.2036499828
 20
146.7824821598
 30
0.0
 10
753.5697789954
 20
148.7679721863
 30
0.0
 10
753.6433218164
 20
149.7452180455
 30
0.0
  0
SPLINE
  5
2F9
100
AcDbEntity
  8
7_ALL_FEATURES
100
AcDbSpline
 62
7
  6
CONTINUOUS
 70
0
 71
3
 72
12
 73
8
 74
0
 42
0.0000001
 43
0.0000001
 44
0.0000000001
 40
0.0
 40
0.0
 40
0.0
 40
0.0
 40
0.1019531172
 40
0.2074609065
 40
0.4366549169
 40
0.6995972505
 40
1.0
 40
1.0
 40
1.0
 40
1.0
 10
643.7204968679
 20
149.7553563519
 30
0.0
 10
643.7849237761
 20
148.8918225165
 30
0.0
 10
644.0831847173
 20
147.1431485403
 30
0.0
 10
645.3550975641
 20
143.6415289168
 30
0.0
 10
648.2681372511
 20
139.3857414104
 30
0.0
 10
653.3655294981
 20
134.9188987538
 30
0.0
 10
657.5093291917
 20
132.4754835886
 30
0.0
 10
659.7914210826
 20
131.3344376432
 30
0.0
  0
SPLINE
  5
2FA
100
AcDbEntity
  8
7_ALL_FEATURES
100
AcDbSpline
 62
7
  6
CONTINUOUS
 70
0
 71
3
 72
9
 73
5
 74
0
 42
0.0000001
 43
0.0000001
 44
0.0000000001
 40
0.0
 40
0.0
 40
0.0
 40
0.0
 40
0.2459942072
 40
1.0
 40
1.0
 40
1.0
 40
1.0
 10
706.6045838589
 20
159.6187088588
 30
0.0
 10
706.6045733656
 20
159.8346684091
 30
0.0
 10
706.5605514258
 20
160.7123879396
 30
0.0
 10
706.3337786145
 20
161.5779467296
 30
0.0
 10
706.0825885464
 20
162.1903806938
 30
0.0
  0
SPLINE
  5
2FB
100
AcDbEntity
  8
3_ALL_AXES
100
AcDbSpline
 62
7
  6
CONTINUOUS
 70
0
 71
3
 72
9
 73
5
 74
0
 42
0.0000001
 43
0.0000001
 44
0.0000000001
 40
0.0
 40
0.0
 40
0.0
 40
0.0
 40
0.53538856
 40
1.0
 40
1.0
 40
1.0
 40
1.0
 10
655.9201814216
 20
167.0351353268
 30
0.0
 10
653.8626277704
 20
165.7633242237
 30
0.0
 10
650.1957571846
 20
163.0751721018
 30
0.0
 10
647.2059155854
 20
159.604511305
 30
0.0
 10
646.1071025478
 20
157.8159618534
 30
0.0
  0
SPLINE
  5
2FC
100
AcDbEntity
  8
3_ALL_AXES
100
AcDbSpline
 62
7
  6
CONTINUOUS
 70
0
 71
3
 72
9
 73
5
 74
0
 42
0.0000001
 43
0.0000001
 44
0.0000000001
 40
0.0
 40
0.0
 40
0.0
 40
0.0
 40
0.2540739797
 40
1.0
 40
1.0
 40
1.0
 40
1.0
 10
705.9596284629
 20
156.6553951241
 30
0.0
 10
706.0083070348
 20
156.8132632959
 30
0.0
 10
706.1779811674
 20
157.44111111
 30
0.0
 10
706.254631137
 20
158.0944658472
 30
0.0
 10
706.2545952382
 20
158.5794783708
 30
0.0
  0
SPLINE
  5
2FD
100
AcDbEntity
  8
3_ALL_AXES
100
AcDbSpline
 62
7
  6
CONTINUOUS
 70
0
 71
3
 72
9
 73
5
 74
0
 42
0.0000001
 43
0.0000001
 44
0.0000000001
 40
0.0
 40
0.0
 40
0.0
 40
0.0
 40
0.4888457407
 40
1.0
 40
1.0
 40
1.0
 40
1.0
 10
655.7546319932
 20
158.5794783997
 30
0.0
 10
655.7546045883
 20
158.0450384491
 30
0.0
 10
655.8965710638
 20
156.9476820422
 30
0.0
 10
656.2998973826
 20
155.920100685
 30
0.0
 10
656.5562800966
 20
155.4235546746
 30
0.0
  0
SPLINE
  5
2FE
100
AcDbEntity
  8
3_ALL_AXES
100
AcDbSpline
 62
7
  6
CONTINUOUS
 70
0
 71
3
 72
9
 73
5
 74
0
 42
0.0000001
 43
0.0000001
 44
0.0000000001
 40
0.0
 40
0.0
 40
0.0
 40
0.0
 40
0.2327199992
 40
1.0
 40
1.0
 40
1.0
 40
1.0
 10
656.5562800966
 20
155.4235546746
 30
0.0
 10
656.7011608126
 20
155.1429587622
 30
0.0
 10
657.3937511342
 20
153.9732642054
 30
0.0
 10
658.3353413936
 20
152.9636720683
 30
0.0
 10
659.1214006158
 20
152.2809253817
 30
0.0
  0
SPLINE
  5
2FF
100
AcDbEntity
  8
3_ALL_AXES
100
AcDbSpline
 62
7
  6
CONTINUOUS
 70
0
 71
3
 72
9
 73
5
 74
0
 42
0.0000001
 43
0.0000001
 44
0.0000000001
 40
0.0
 40
0.0
 40
0.0
 40
0.0
 40
0.2533436466
 40
1.0
 40
1.0
 40
1.0
 40
1.0
 10
655.9955677645
 20
160.31941874
 30
0.0
 10
655.9557283073
 20
160.176266569
 30
0.0
 10
655.8168056514
 20
159.6062997255
 30
0.0
 10
655.7546544495
 20
159.0174113175
 30
0.0
 10
655.7546319932
 20
158.5794783997
 30
0.0
  0
SPLINE
  5
300
100
AcDbEntity
  8
3_ALL_AXES
100
AcDbSpline
 62
7
  6
CONTINUOUS
 70
0
 71
3
 72
9
 73
5
 74
0
 42
0.0000001
 43
0.0000001
 44
0.0000000001
 40
0.0
 40
0.0
 40
0.0
 40
0.0
 40
0.2472251873
 40
1.0
 40
1.0
 40
1.0
 40
1.0
 10
643.9792572955
 20
146.8869475424
 30
0.0
 10
644.0173060454
 20
146.7046495967
 30
0.0
 10
644.1854616807
 20
145.9702993687
 30
0.0
 10
644.4101484731
 20
145.2490632418
 30
0.0
 10
644.6076261972
 20
144.7175215522
 30
0.0
  0
SPLINE
  5
301
100
AcDbEntity
  8
3_ALL_AXES
100
AcDbSpline
 62
7
  6
CONTINUOUS
 70
0
 71
3
 72
9
 73
5
 74
0
 42
0.0000001
 43
0.0000001
 44
0.0000000001
 40
0.0
 40
0.0
 40
0.0
 40
0.0
 40
0.2452678015
 40
1.0
 40
1.0
 40
1.0
 40
1.0
 10
645.2710423792
 20
143.178704029
 30
0.0
 10
645.3593818415
 20
142.9989588217
 30
0.0
 10
645.7321755566
 20
142.2723466015
 30
0.0
 10
646.1541551111
 20
141.5712036599
 30
0.0
 10
646.4955835963
 20
141.0581252003
 30
0.0
  0
SPLINE
  5
302
100
AcDbEntity
  8
3_ALL_AXES
100
AcDbSpline
 62
7
  6
CONTINUOUS
 70
0
 71
3
 72
9
 73
5
 74
0
 42
0.0000001
 43
0.0000001
 44
0.0000000001
 40
0.0
 40
0.0
 40
0.0
 40
0.0
 40
0.2442988876
 40
1.0
 40
1.0
 40
1.0
 40
1.0
 10
647.5529432883
 20
139.6067036252
 30
0.0
 10
647.694347711
 20
139.4283600385
 30
0.0
 10
648.2840081251
 20
138.7069697196
 30
0.0
 10
648.9154424351
 20
138.0199844609
 30
0.0
 10
649.4112828371
 20
137.5201629904
 30
0.0
  0
SPLINE
  5
303
100
AcDbEntity
  8
3_ALL_AXES
100
AcDbSpline
 62
7
  6
CONTINUOUS
 70
0
 71
3
 72
9
 73
5
 74
0
 42
0.0000001
 43
0.0000001
 44
0.0000000001
 40
0.0
 40
0.0
 40
0.0
 40
0.0
 40
0.2437807337
 40
1.0
 40
1.0
 40
1.0
 40
1.0
 10
650.7773784165
 20
136.2302789862
 30
0.0
 10
650.9848345809
 20
136.046378922
 30
0.0
 10
651.8458981142
 20
135.3034090679
 30
0.0
 10
652.7454433297
 20
134.6053557984
 30
0.0
 10
653.4422942797
 20
134.1013984179
 30
0.0
  0
SPLINE
  5
304
100
AcDbEntity
  8
3_ALL_AXES
100
AcDbSpline
 62
7
  6
CONTINUOUS
 70
0
 71
3
 72
9
 73
5
 74
0
 42
0.0000001
 43
0.0000001
 44
0.0000000001
 40
0.0
 40
0.0
 40
0.0
 40
0.0
 40
0.2418688778
 40
1.0
 40
1.0
 40
1.0
 40
1.0
 10
654.8823647098
 20
133.1081109557
 30
0.0
 10
655.26350133
 20
132.8572135211
 30
0.0
 10
656.8562879335
 20
131.8457854934
 30
0.0
 10
658.5121429784
 20
130.9348462108
 30
0.0
 10
659.7914210826
 20
130.2952071587
 30
0.0
  0
SPLINE
  5
305
100
AcDbEntity
  8
3_ALL_AXES
100
AcDbSpline
 62
7
  6
CONTINUOUS
 70
0
 71
3
 72
9
 73
5
 74
0
 42
0.0000001
 43
0.0000001
 44
0.0000000001
 40
0.0
 40
0.0
 40
0.0
 40
0.0
 40
0.2481862711
 40
1.0
 40
1.0
 40
1.0
 40
1.0
 10
706.2545952382
 20
158.5794783708
 30
0.0
 10
706.2545847366
 20
158.7213618911
 30
0.0
 10
706.2353639995
 20
159.2929305184
 30
0.0
 10
706.1380668944
 20
159.8614755742
 30
0.0
 10
706.0255330864
 20
160.276279766
 30
0.0
  0
SPLINE
  5
306
100
AcDbEntity
  8
7_ALL_FEATURES
100
AcDbSpline
 62
7
  6
CONTINUOUS
 70
0
 71
3
 72
15
 73
11
 74
0
 42
0.0000001
 43
0.0000001
 44
0.0000000001
 40
0.0
 40
0.0
 40
0.0
 40
0.0
 40
0.1152968213
 40
0.2420125592
 40
0.3762599621
 40
0.5134518395
 40
0.6487519401
 40
0.7774836172
 40
0.8955612002
 40
1.0
 40
1.0
 40
1.0
 40
1.0
 10
749.0282968683
 20
671.7104436196
 30
0.0
 10
745.6446055279
 20
673.4022892958
 30
0.0
 10
738.2154014236
 20
676.3120719113
 30
0.0
 10
726.1884339011
 20
679.2230280133
 30
0.0
 10
713.1906361283
 20
680.7944051858
 30
0.0
 10
699.8202353455
 20
680.950793767
 30
0.0
 10
686.6898481499
 20
679.6860014327
 30
0.0
 10
674.3978770939
 20
677.0572111148
 30
0.0
 10
663.5053821734
 20
673.1892231587
 30
0.0
 10
657.058214118
 20
669.6534219481
 30
0.0
 10
654.2601945573
 20
667.6750065881
 30
0.0
  0
SPLINE
  5
307
100
AcDbEntity
  8
7_ALL_FEATURES
100
AcDbSpline
 62
7
  6
CONTINUOUS
 70
0
 71
3
 72
11
 73
7
 74
0
 42
0.0000001
 43
0.0000001
 44
0.0000000001
 40
0.0
 40
0.0
 40
0.0
 40
0.0
 40
0.2898445509
 40
0.5482986948
 40
0.7813884198
 40
1.0
 40
1.0
 40
1.0
 40
1.0
 10
654.0152069694
 20
610.2863951675
 30
0.0
 10
652.2665032589
 20
611.5229308669
 30
0.0
 10
649.1167193955
 20
614.1064486695
 30
0.0
 10
645.4005913082
 20
618.5822725944
 30
0.0
 10
643.0818849997
 20
623.3565486298
 30
0.0
 10
642.5463503098
 20
626.7132264435
 30
0.0
 10
642.5462865309
 20
628.3285952515
 30
0.0
  0
SPLINE
  5
308
100
AcDbEntity
  8
7_ALL_FEATURES
100
AcDbSpline
 62
7
  6
CONTINUOUS
 70
0
 71
3
 72
15
 73
11
 74
0
 42
0.0000001
 43
0.0000001
 44
0.0000000001
 40
0.0
 40
0.0
 40
0.0
 40
0.0
 40
0.1044387998
 40
0.2225163828
 40
0.3512480599
 40
0.4865481605
 40
0.6237400379
 40
0.7579874408
 40
0.8847031787
 40
1.0
 40
1.0
 40
1.0
 40
1.0
 10
755.8323155997
 20
610.1132037667
 30
0.0
 10
753.034296039
 20
608.1347884067
 30
0.0
 10
746.5871279836
 20
604.5989871961
 30
0.0
 10
735.6946330631
 20
600.73099924
 30
0.0
 10
723.4026620071
 20
598.1022089221
 30
0.0
 10
710.2722748115
 20
596.8374165878
 30
0.0
 10
696.9018740286
 20
596.993805169
 30
0.0
 10
683.9040762559
 20
598.5651823415
 30
0.0
 10
671.8771087334
 20
601.4761384435
 30
0.0
 10
664.4479046291
 20
604.385921059
 30
0.0
 10
661.0642132887
 20
606.0777667352
 30
0.0
  0
SPLINE
  5
309
100
AcDbEntity
  8
7_ALL_FEATURES
100
AcDbSpline
 62
7
  6
CONTINUOUS
 70
0
 71
3
 72
11
 73
7
 74
0
 42
0.0000001
 43
0.0000001
 44
0.0000000001
 40
0.0
 40
0.0
 40
0.0
 40
0.0
 40
0.2898542164
 40
0.5483027308
 40
0.7813906894
 40
1.0
 40
1.0
 40
1.0
 40
1.0
 10
654.0152457393
 20
667.5018014804
 30
0.0
 10
652.2664477389
 20
666.2652665868
 30
0.0
 10
649.1166059943
 20
663.6817471941
 30
0.0
 10
645.4004891224
 20
659.205859142
 30
0.0
 10
643.0818794821
 20
654.4316363008
 30
0.0
 10
642.5462227525
 20
651.0749709898
 30
0.0
 10
642.5462865309
 20
649.4596151039
 30
0.0
  0
SPLINE
  5
30A
100
AcDbEntity
  8
7_ALL_FEATURES
100
AcDbSpline
 62
7
  6
CONTINUOUS
 70
0
 71
3
 72
9
 73
5
 74
0
 42
0.0000001
 43
0.0000001
 44
0.0000000001
 40
0.0
 40
0.0
 40
0.0
 40
0.0
 40
0.2396052759
 40
1.0
 40
1.0
 40
1.0
 40
1.0
 10
755.8323541277
 20
667.6750202683
 30
0.0
 10
755.3161936178
 20
668.0400054241
 30
0.0
 10
753.129134334
 20
669.5166780531
 30
0.0
 10
750.8226996131
 20
670.8132422513
 30
0.0
 10
749.0282968683
 20
671.7104436196
 30
0.0
  0
SPLINE
  5
30B
100
AcDbEntity
  8
7_ALL_FEATURES
100
AcDbSpline
 62
7
  6
CONTINUOUS
 70
0
 71
3
 72
11
 73
7
 74
0
 42
0.0000001
 43
0.0000001
 44
0.0000000001
 40
0.0
 40
0.0
 40
0.0
 40
0.0
 40
0.2186115802
 40
0.4517013052
 40
0.7101554491
 40
1.0
 40
1.0
 40
1.0
 40
1.0
 10
767.5462236261
 20
649.4596151033
 30
0.0
 10
767.5461598472
 20
651.0749839113
 30
0.0
 10
767.0106251573
 20
654.431661725
 30
0.0
 10
764.6919188488
 20
659.2059377604
 30
0.0
 10
760.9757907615
 20
663.6817616853
 30
0.0
 10
757.8260068981
 20
666.2652794879
 30
0.0
 10
756.0773031876
 20
667.5018151873
 30
0.0
  0
SPLINE
  5
30C
100
AcDbEntity
  8
7_ALL_FEATURES
100
AcDbSpline
 62
7
  6
CONTINUOUS
 70
0
 71
3
 72
11
 73
7
 74
0
 42
0.0000001
 43
0.0000001
 44
0.0000000001
 40
0.0
 40
0.0
 40
0.0
 40
0.0
 40
0.2186093106
 40
0.4516972692
 40
0.7101457836
 40
1.0
 40
1.0
 40
1.0
 40
1.0
 10
767.5462236261
 20
628.3285952509
 30
0.0
 10
767.5462874045
 20
626.713239365
 30
0.0
 10
767.0106306748
 20
623.356574054
 30
0.0
 10
764.6920210346
 20
618.5823512128
 30
0.0
 10
760.9759041627
 20
614.1064631607
 30
0.0
 10
757.8260624181
 20
611.522943768
 30
0.0
 10
756.0772644177
 20
610.2864088744
 30
0.0
  0
SPLINE
  5
30D
100
AcDbEntity
  8
7_ALL_FEATURES
100
AcDbSpline
 62
7
  6
CONTINUOUS
 70
0
 71
3
 72
9
 73
5
 74
0
 42
0.0000001
 43
0.0000001
 44
0.0000000001
 40
0.0
 40
0.0
 40
0.0
 40
0.0
 40
0.2599418318
 40
1.0
 40
1.0
 40
1.0
 40
1.0
 10
660.8520812543
 20
606.2315083392
 30
0.0
 10
660.2587308234
 20
606.528183553
 30
0.0
 10
657.9949156881
 20
607.7062632843
 30
0.0
 10
655.807859245
 20
609.035459685
 30
0.0
 10
654.2585212029
 20
610.1155633017
 30
0.0
  0
SPLINE
  5
30E
100
AcDbEntity
  8
7_ALL_FEATURES
100
AcDbSpline
 62
7
  6
CONTINUOUS
 70
0
 71
3
 72
18
 73
14
 74
0
 42
0.0000001
 43
0.0000001
 44
0.0000000001
 40
0.0
 40
0.0
 40
0.0
 40
0.0
 40
0.1381359864
 40
0.2595361572
 40
0.3153861515
 40
0.3690208187
 40
0.4215043069
 40
0.4740054177
 40
0.5832729052
 40
0.7048983582
 40
0.7719463247
 40
0.8434652707
 40
1.0
 40
1.0
 40
1.0
 40
1.0
 10
654.013340549
 20
667.4991768826
 30
0.0
 10
652.0773973748
 20
666.1100617668
 30
0.0
 10
648.6377526864
 20
663.1970928409
 30
0.0
 10
645.3387392019
 20
658.7865330918
 30
0.0
 10
643.7151461682
 20
655.1333326567
 30
0.0
 10
643.0008168135
 20
652.4188338131
 30
0.0
 10
642.7667265093
 20
649.6786411984
 30
0.0
 10
643.1004360289
 20
645.9803433247
 30
0.0
 10
644.8256589769
 20
641.3072046845
 30
0.0
 10
647.9595819422
 20
637.1624740746
 30
0.0
 10
651.2122485061
 20
634.062542675
 30
0.0
 10
655.233025547
 20
630.9292157668
 30
0.0
 10
658.6491524251
 20
628.9359322561
 30
0.0
 10
661.0642132887
 20
627.7284018298
 30
0.0
  0
SPLINE
  5
30F
100
AcDbEntity
  8
7_ALL_FEATURES
100
AcDbSpline
 62
7
  6
CONTINUOUS
 70
0
 71
3
 72
25
 73
21
 74
0
 42
0.0000001
 43
0.0000001
 44
0.0000000001
 40
0.0
 40
0.0
 40
0.0
 40
0.0
 40
0.0673949978
 40
0.1407730579
 40
0.21856526
 40
0.2988911484
 40
0.3797128288
 40
0.4589621976
 40
0.5346679102
 40
0.6050910777
 40
0.6688827065
 40
0.7252928863
 40
0.7744670803
 40
0.817837553
 40
0.8383074312
 40
0.8585535076
 40
0.8790921823
 40
0.9004089424
 40
0.9468065787
 40
1.0
 40
1.0
 40
1.0
 40
1.0
 10
661.0642132887
 20
627.7284018298
 30
0.0
 10
663.9228499546
 20
626.2990834918
 30
0.0
 10
670.1273216888
 20
623.7711678088
 30
0.0
 10
680.1429663046
 20
621.0298602318
 30
0.0
 10
690.9935980808
 20
619.2434717063
 30
0.0
 10
702.3148229105
 20
618.4738849075
 30
0.0
 10
713.7279386366
 20
618.7467230572
 30
0.0
 10
724.8496503147
 20
620.052907922
 30
0.0
 10
735.3082023249
 20
622.3480350979
 30
0.0
 10
744.7574470293
 20
625.5556666984
 30
0.0
 10
752.8913047712
 20
629.5725502578
 30
0.0
 10
759.4525147107
 20
634.2856258492
 30
0.0
 10
764.2341687581
 20
639.5773478053
 30
0.0
 10
766.5939154449
 20
644.5060930232
 30
0.0
 10
767.2851882362
 20
648.4548677367
 30
0.0
 10
767.2485955916
 20
651.3766033349
 30
0.0
 10
766.6650239477
 20
654.279817467
 30
0.0
 10
765.129542446
 20
658.1937282434
 30
0.0
 10
761.7523614649
 20
662.9318544884
 30
0.0
 10
758.1340539602
 20
666.0241667849
 30
0.0
 10
756.0847830816
 20
667.4951792241
 30
0.0
  0
SPLINE
  5
310
100
AcDbEntity
  8
7_ALL_FEATURES
100
AcDbSpline
 62
7
  6
CONTINUOUS
 70
0
 71
3
 72
20
 73
16
 74
0
 42
0.0000001
 43
0.0000001
 44
0.0000000001
 40
0.0
 40
0.0
 40
0.0
 40
0.0
 40
0.0626276258
 40
0.1299281016
 40
0.2748162133
 40
0.4261574882
 40
0.5742438999
 40
0.6441951279
 40
0.7100237675
 40
0.7709408702
 40
0.8264317254
 40
0.8763599999
 40
0.9211058231
 40
0.9617205952
 40
1.0
 40
1.0
 40
1.0
 40
1.0
 10
660.8520812543
 20
627.3625281915
 30
0.0
 10
663.1129220452
 20
626.232107801
 30
0.0
 10
667.9484503963
 20
624.1708552207
 30
0.0
 10
678.5458253816
 20
620.8520282505
 30
0.0
 10
693.0752179836
 20
618.3451578763
 30
0.0
 10
711.0579542233
 20
617.917271047
 30
0.0
 10
725.9239143737
 20
619.7151681884
 30
0.0
 10
737.0531931902
 20
622.4880612691
 30
0.0
 10
744.5620592134
 20
625.1041769281
 30
0.0
 10
751.2324900203
 20
628.2397990767
 30
0.0
 10
756.9274158049
 20
631.8335781797
 30
0.0
 10
761.5301134816
 20
635.8197431403
 30
0.0
 10
764.9401795246
 20
640.1365495536
 30
0.0
 10
767.0588578921
 20
644.7134559531
 30
0.0
 10
767.5462846261
 20
647.9146302918
 30
0.0
 10
767.5462236261
 20
649.4596151033
 30
0.0
  0
SPLINE
  5
311
100
AcDbEntity
  8
7_ALL_FEATURES
100
AcDbSpline
 62
7
  6
CONTINUOUS
 70
0
 71
3
 72
15
 73
11
 74
0
 42
0.0000001
 43
0.0000001
 44
0.0000000001
 40
0.0
 40
0.0
 40
0.0
 40
0.0
 40
0.104703383
 40
0.2228879838
 40
0.3515832261
 40
0.486750715
 40
0.6237780372
 40
0.7578979956
 40
0.8845860951
 40
1.0
 40
1.0
 40
1.0
 40
1.0
 10
755.8400907719
 20
610.1198668377
 30
0.0
 10
753.0238228701
 20
608.155922729
 30
0.0
 10
746.5545783963
 20
604.6472362638
 30
0.0
 10
735.6481537543
 20
600.8082625929
 30
0.0
 10
723.3619522101
 20
598.2010362309
 30
0.0
 10
710.2497866457
 20
596.9477375736
 30
0.0
 10
696.9016959571
 20
597.1043304099
 30
0.0
 10
683.9214779631
 20
598.6646835726
 30
0.0
 10
671.8988620948
 20
601.5548721601
 30
0.0
 10
664.4640504376
 20
604.4428906013
 30
0.0
 10
661.072256339
 20
606.1219681177
 30
0.0
  0
SPLINE
  5
312
100
AcDbEntity
  8
7_ALL_FEATURES
100
AcDbSpline
 62
7
  6
CONTINUOUS
 70
0
 71
3
 72
13
 73
9
 74
0
 42
0.0000001
 43
0.0000001
 44
0.0000000001
 40
0.0
 40
0.0
 40
0.0
 40
0.0
 40
0.102174402
 40
0.2072186326
 40
0.4348466285
 40
0.5615318822
 40
0.6978429766
 40
1.0
 40
1.0
 40
1.0
 40
1.0
 10
642.5462865309
 20
649.4596151039
 30
0.0
 10
642.5463270371
 20
648.4336872581
 30
0.0
 10
642.7542054518
 20
646.3473749776
 30
0.0
 10
644.0180498688
 20
642.1445613703
 30
0.0
 10
646.5365492938
 20
638.1716071216
 30
0.0
 10
649.9438412102
 20
634.6065757427
 30
0.0
 10
654.3247357897
 20
630.9809175234
 30
0.0
 10
658.1384402061
 20
628.7193487232
 30
0.0
 10
660.8520812543
 20
627.3625281915
 30
0.0
  0
SPLINE
  5
313
100
AcDbEntity
  8
3_ALL_AXES
100
AcDbSpline
 62
3
  6
CONTINUOUS
 70
0
 71
3
 72
20
 73
16
 74
0
 42
0.0000001
 43
0.0000001
 44
0.0000000001
 40
0.0
 40
0.0
 40
0.0
 40
0.0
 40
0.0626272506
 40
0.1299282894
 40
0.2748163127
 40
0.4261576846
 40
0.5742441545
 40
0.6441953647
 40
0.710023953
 40
0.7709409825
 40
0.8264317648
 40
0.8763599944
 40
0.9211058122
 40
0.961720595
 40
1.0
 40
1.0
 40
1.0
 40
1.0
 10
659.7914210826
 20
130.2952071587
 30
0.0
 10
661.7809483122
 20
129.3004435438
 30
0.0
 10
666.0362197281
 20
127.4865450471
 30
0.0
 10
675.361900877
 20
124.565949765
 30
0.0
 10
688.1477850455
 20
122.3599106159
 30
0.0
 10
703.9725883334
 20
121.9833644311
 30
0.0
 10
717.0546332569
 20
123.5655214459
 30
0.0
 10
726.848392202
 20
126.005676028
 30
0.0
 10
733.4561840302
 20
128.3078639344
 30
0.0
 10
739.3261507105
 20
131.0672163088
 30
0.0
 10
744.3376720392
 20
134.2297446309
 30
0.0
 10
748.3880405128
 20
137.7375693073
 30
0.0
 10
751.3888891126
 20
141.5363540017
 30
0.0
 10
753.2533646774
 20
145.5640263631
 30
0.0
 10
753.6822348547
 20
148.381057508
 30
0.0
 10
753.6822352156
 20
149.7406436413
 30
0.0
  0
SPLINE
  5
314
100
AcDbEntity
  8
7_ALL_FEATURES
100
AcDbSpline
 62
3
  6
CONTINUOUS
 70
0
 71
3
 72
9
 73
5
 74
0
 42
0.0000001
 43
0.0000001
 44
0.0000000001
 40
0.0
 40
0.0
 40
0.0
 40
0.0
 40
0.2464284565
 40
1.0
 40
1.0
 40
1.0
 40
1.0
 10
706.4668323905
 20
159.9057485771
 30
0.0
 10
706.4449785811
 20
160.0106413141
 30
0.0
 10
706.3461079161
 20
160.434131021
 30
0.0
 10
706.2069214991
 20
160.8480103451
 30
0.0
 10
706.0825885464
 20
161.1511502093
 30
0.0
  0
SPLINE
  5
315
100
AcDbEntity
  8
7_ALL_FEATURES
100
AcDbSpline
 62
3
  6
CONTINUOUS
 70
0
 71
3
 72
13
 73
9
 74
0
 42
0.0000001
 43
0.0000001
 44
0.0000000001
 40
0.0
 40
0.0
 40
0.0
 40
0.0
 40
0.1021728484
 40
0.2072176583
 40
0.4348451968
 40
0.5615317115
 40
0.6978441986
 40
1.0
 40
1.0
 40
1.0
 40
1.0
 10
643.6822897179
 20
149.7406436334
 30
0.0
 10
643.6822878572
 20
148.8378409288
 30
0.0
 10
643.8654022257
 20
147.0019110371
 30
0.0
 10
644.9773751524
 20
143.3034076856
 30
0.0
 10
647.1937294287
 20
139.8071955977
 30
0.0
 10
650.1921798322
 20
136.6699865679
 30
0.0
 10
654.0473589109
 20
133.4793758972
 30
0.0
 10
657.403426808
 20
131.489204296
 30
0.0
 10
659.7914210826
 20
130.2952071587
 30
0.0
  0
SPLINE
  5
316
100
AcDbEntity
  8
3_ALL_AXES
100
AcDbSpline
 62
3
  6
CONTINUOUS
 70
0
 71
3
 72
20
 73
16
 74
0
 42
0.0000001
 43
0.0000001
 44
0.0000000001
 40
0.0
 40
0.0
 40
0.0
 40
0.0
 40
0.0626272506
 40
0.1299282894
 40
0.2748163127
 40
0.4261576846
 40
0.5742441545
 40
0.6441953647
 40
0.710023953
 40
0.7709409825
 40
0.8264317648
 40
0.8763599944
 40
0.9211058122
 40
0.961720595
 40
1.0
 40
1.0
 40
1.0
 40
1.0
 10
659.7914210826
 20
126.8311055435
 30
0.0
 10
661.7809483122
 20
125.8363419287
 30
0.0
 10
666.0362197281
 20
124.022443432
 30
0.0
 10
675.361900877
 20
121.1018481499
 30
0.0
 10
688.1477850455
 20
118.8958090007
 30
0.0
 10
703.9725883334
 20
118.5192628159
 30
0.0
 10
717.0546332569
 20
120.1014198308
 30
0.0
 10
726.848392202
 20
122.5415744129
 30
0.0
 10
733.4561840302
 20
124.8437623193
 30
0.0
 10
739.3261507105
 20
127.6031146937
 30
0.0
 10
744.3376720392
 20
130.7656430158
 30
0.0
 10
748.3880405128
 20
134.2734676922
 30
0.0
 10
751.3888891126
 20
138.0722523866
 30
0.0
 10
753.2533646774
 20
142.099924748
 30
0.0
 10
753.6822348547
 20
144.9169558929
 30
0.0
 10
753.6822352156
 20
146.2765420261
 30
0.0
  0
SPLINE
  5
317
100
AcDbEntity
  8
3_ALL_AXES
100
AcDbSpline
 62
3
  6
CONTINUOUS
 70
0
 71
3
 72
13
 73
9
 74
0
 42
0.0000001
 43
0.0000001
 44
0.0000000001
 40
0.0
 40
0.0
 40
0.0
 40
0.0
 40
0.1021742994
 40
0.2072181595
 40
0.4348475151
 40
0.5615308842
 40
0.6978417554
 40
1.0
 40
1.0
 40
1.0
 40
1.0
 10
643.6823528801
 20
146.2765420262
 30
0.0
 10
643.6823526405
 20
145.373726605
 30
0.0
 10
643.8653433526
 20
143.5377812082
 30
0.0
 10
644.9773932532
 20
139.8392601024
 30
0.0
 10
647.1938132731
 20
136.3431427533
 30
0.0
 10
650.192138696
 20
133.205850165
 30
0.0
 10
654.0473552965
 20
130.015310026
 30
0.0
 10
657.4034077763
 20
128.0251121966
 30
0.0
 10
659.7914210826
 20
126.8311055435
 30
0.0
  0
ENDSEC
  0
SECTION
  2
OBJECTS
  0
DICTIONARY
  5
318
100
AcDbDictionary
  3
ACAD_GROUP
350
319
  3
ACAD_MLINESTYLE
350
31A
  0
DICTIONARY
  5
319
102
{ACAD_REACTORS
330
318
102
}
100
AcDbDictionary
  0
DICTIONARY
  5
31A
102
{ACAD_REACTORS
330
318
102
}
100
AcDbDictionary
  3
STANDARD
350
31B
  0
MLINESTYLE
  5
31B
102
{ACAD_REACTORS
330
31A
102
}
100
AcDbMlineStyle
  2
STANDARD
 70
0
  3

 62
256
 51
90.0
 52
90.0
 71
2
 49
0.5
 62
256
  6
BYLAYER
 49
-0.5
 62
256
  6
BYLAYER
  0
ENDSEC
  0
EOF
