999
DXF file: 3x0_c_010.dxf
999
Pro/ENGINEER 2016360 by Parametric Technology Corporation
  0
SECTION
  2
HEADER
  9
$ACADVER
  1
AC1014
  9
$DWGCODEPAGE
  3
ANSI_1252
  9
$EXTMAX
 10
841.0
 20
594.0
 30
0.0
  9
$EXTMIN
 10
0.0
 20
0.0
 30
0.0
  9
$LIMMIN
 10
0.0
 20
0.0
  9
$LIMMAX
 10
841.0
 20
594.0
  9
$VIEWCTR
 10
420.5
 20
297.0
  9
$VIEWSIZE
 40
594.0
  9
$CLAYER
  8
0
  9
$LTSCALE
 40
46.255
  9
$CELTYPE
  6
BYLAYER
  9
$DIMSCALE
 40
1.0
  9
$DIMASZ
 40
2.5
  9
$DIMEXO
 40
0.75
  9
$DIMDLI
 40
31.958
  9
$DIMEXE
 40
0.75
  9
$DIMCEN
 40
7.569
  9
$DIMLFAC
 40
1.0
  9
$DIMBLK
  1
_CLOSED
  9
$DIMALT
 70
0
  9
$DIMALTF
 40
25.4
  9
$DIMTXT
 40
3.0
  9
$DIMTOL
 70
1
  9
$DIMLIM
 70
0
  9
$DIMTFAC
 40
1.0
  9
$DIMTP
 40
0.01
  9
$DIMTM
 40
0.01
  9
$DIMGAP
 40
0.625
  9
$AUNITS
 70
0
  9
$PDMODE
 70
3
  9
$PDSIZE
 40
0.3125
  9
$HANDSEED
  5
31B
  9
$TILEMODE
 70
1
  9
$MEASUREMENT
 70
1
  0
ENDSEC
  0
SECTION
  2
CLASSES
  0
ENDSEC
  0
SECTION
  2
TABLES
  0
TABLE
  2
VPORT
  5
8
100
AcDbSymbolTable
 70
2
  0
VPORT
  5
1F4
100
AcDbSymbolTableRecord
100
AcDbViewportTableRecord
  2
*ACTIVE
 70
0
 10
0.0
 20
0.0
 11
1.0
 21
1.0
 12
420.5
 22
297.0
 13
0.0
 23
0.0
 14
1.0
 24
1.0
 15
0.0
 25
0.0
 16
0.0
 26
0.0
 36
1.0
 17
0.0
 27
0.0
 37
0.0
 40
594.0
 41
1.4158249158
 42
50.0
 43
0.0
 44
0.0
 50
0.0
 51
0.0
 71
0
 72
100
 73
1
 74
1
 75
0
 76
0
 77
0
 78
0
  0
ENDTAB
  0
TABLE
  2
LTYPE
  5
5
100
AcDbSymbolTable
 70
6
  0
LTYPE
  5
14
100
AcDbSymbolTableRecord
100
AcDbLinetypeTableRecord
  2
BYBLOCK
 70
0
  3

 72
65
 73
0
 40
0.0
  0
LTYPE
  5
15
100
AcDbSymbolTableRecord
100
AcDbLinetypeTableRecord
  2
BYLAYER
 70
0
  3

 72
65
 73
0
 40
0.0
  0
LTYPE
  5
16
100
AcDbSymbolTableRecord
100
AcDbLinetypeTableRecord
  2
CONTINUOUS
 70
64
  3
Solid line
 72
65
 73
0
 40
0.0
  0
LTYPE
  5
1F5
100
AcDbSymbolTableRecord
100
AcDbLinetypeTableRecord
  2
CENTER
 70
64
  3
____ _ ____ _ ____ _ ____ _ ____ _ ____ _ ____
 72
65
 73
4
 40
0.6
 49
0.375
 74
0
 49
-0.075
 74
0
 49
0.075
 74
0
 49
-0.075
 74
0
  0
LTYPE
  5
1F6
100
AcDbSymbolTableRecord
100
AcDbLinetypeTableRecord
  2
HIDDEN
 70
64
  3
- - - - - - - - - - - - - - - - - - - -
 72
65
 73
2
 40
0.2
 49
0.1
 74
0
 49
-0.1
 74
0
  0
LTYPE
  5
1F7
100
AcDbSymbolTableRecord
100
AcDbLinetypeTableRecord
  2
PHANTOM
 70
64
  3
_____ _ _ _____ _ _ _____ _ _ _____
 72
65
 73
6
 40
0.8
 49
0.45
 74
0
 49
-0.05
 74
0
 49
0.1
 74
0
 49
-0.05
 74
0
 49
0.1
 74
0
 49
-0.05
 74
0
  0
LTYPE
  5
1F8
100
AcDbSymbolTableRecord
100
AcDbLinetypeTableRecord
  2
DOT
 70
64
  3
. . . . . . . . . . . . . . . . . . . .
 72
65
 73
2
 40
0.2
 49
0.1
 74
0
 49
-0.1
 74
0
  0
LTYPE
  5
1F9
100
AcDbSymbolTableRecord
100
AcDbLinetypeTableRecord
  2
DASHED
 70
64
  3
- - - - - - - - - - - - - - - - - - - -
 72
65
 73
2
 40
0.2
 49
0.1
 74
0
 49
-0.1
 74
0
  0
ENDTAB
  0
TABLE
  2
LAYER
  5
2
100
AcDbSymbolTable
 70
36
  0
LAYER
  5
10
100
AcDbSymbolTableRecord
100
AcDbLayerTableRecord
  2
0
 70
0
 62
7
  6
CONTINUOUS
  0
LAYER
  5
1FA
100
AcDbSymbolTableRecord
100
AcDbLayerTableRecord
  2
DEFAULT_1
 70
0
 62
7
  6
CENTER
  0
LAYER
  5
1FB
100
AcDbSymbolTableRecord
100
AcDbLayerTableRecord
  2
DEFAULT_2
 70
0
 62
8
  6
HIDDEN
  0
LAYER
  5
1FC
100
AcDbSymbolTableRecord
100
AcDbLayerTableRecord
  2
DEFAULT_3
 70
0
 62
7
  6
PHANTOM
  0
LAYER
  5
1FD
100
AcDbSymbolTableRecord
100
AcDbLayerTableRecord
  2
01_ALL_DTM_PLN
 70
0
 62
7
  6
CONTINUOUS
  0
LAYER
  5
1FE
100
AcDbSymbolTableRecord
100
AcDbLayerTableRecord
  2
01__ASM_ALL_DTM_PLN
 70
0
 62
7
  6
CONTINUOUS
  0
LAYER
  5
1FF
100
AcDbSymbolTableRecord
100
AcDbLayerTableRecord
  2
01__ASM_DEF_DTM_PLN
 70
0
 62
7
  6
CONTINUOUS
  0
LAYER
  5
200
100
AcDbSymbolTableRecord
100
AcDbLayerTableRecord
  2
01___PRT_ALL_DTM_PLN
 70
0
 62
7
  6
CONTINUOUS
  0
LAYER
  5
201
100
AcDbSymbolTableRecord
100
AcDbLayerTableRecord
  2
01___PRT_DEF_DTM_PLN
 70
0
 62
7
  6
CONTINUOUS
  0
LAYER
  5
202
100
AcDbSymbolTableRecord
100
AcDbLayerTableRecord
  2
02_ALL_AXES
 70
0
 62
7
  6
CONTINUOUS
  0
LAYER
  5
203
100
AcDbSymbolTableRecord
100
AcDbLayerTableRecord
  2
02__ASM_ALL_AXES
 70
0
 62
7
  6
CONTINUOUS
  0
LAYER
  5
204
100
AcDbSymbolTableRecord
100
AcDbLayerTableRecord
  2
02___PRT_ALL_AXES
 70
0
 62
7
  6
CONTINUOUS
  0
LAYER
  5
205
100
AcDbSymbolTableRecord
100
AcDbLayerTableRecord
  2
03_ALL_CURVES
 70
0
 62
7
  6
CONTINUOUS
  0
LAYER
  5
206
100
AcDbSymbolTableRecord
100
AcDbLayerTableRecord
  2
03__ASM_ALL_CURVES
 70
0
 62
7
  6
CONTINUOUS
  0
LAYER
  5
207
100
AcDbSymbolTableRecord
100
AcDbLayerTableRecord
  2
03___PRT_ALL_CURVES
 70
0
 62
7
  6
CONTINUOUS
  0
LAYER
  5
208
100
AcDbSymbolTableRecord
100
AcDbLayerTableRecord
  2
04_ALL_DTM_PNT
 70
0
 62
7
  6
CONTINUOUS
  0
LAYER
  5
209
100
AcDbSymbolTableRecord
100
AcDbLayerTableRecord
  2
04__ASM_ALL_DTM_PNT
 70
0
 62
7
  6
CONTINUOUS
  0
LAYER
  5
20A
100
AcDbSymbolTableRecord
100
AcDbLayerTableRecord
  2
04___PRT_ALL_DTM_PNT
 70
0
 62
7
  6
CONTINUOUS
  0
LAYER
  5
20B
100
AcDbSymbolTableRecord
100
AcDbLayerTableRecord
  2
05_ALL_DTM_CSYS
 70
0
 62
7
  6
CONTINUOUS
  0
LAYER
  5
20C
100
AcDbSymbolTableRecord
100
AcDbLayerTableRecord
  2
05__ASM_ALL_DTM_CSYS
 70
0
 62
7
  6
CONTINUOUS
  0
LAYER
  5
20D
100
AcDbSymbolTableRecord
100
AcDbLayerTableRecord
  2
05__ASM_DEF_DTM_CSYS
 70
0
 62
7
  6
CONTINUOUS
  0
LAYER
  5
20E
100
AcDbSymbolTableRecord
100
AcDbLayerTableRecord
  2
05___PRT_ALL_DTM_CSYS
 70
0
 62
7
  6
CONTINUOUS
  0
LAYER
  5
20F
100
AcDbSymbolTableRecord
100
AcDbLayerTableRecord
  2
05___PRT_DEF_DTM_CSYS
 70
0
 62
7
  6
CONTINUOUS
  0
LAYER
  5
210
100
AcDbSymbolTableRecord
100
AcDbLayerTableRecord
  2
06_ALL_SURFS
 70
0
 62
7
  6
CONTINUOUS
  0
LAYER
  5
211
100
AcDbSymbolTableRecord
100
AcDbLayerTableRecord
  2
06__ASM_ALL_SURFS
 70
0
 62
7
  6
CONTINUOUS
  0
LAYER
  5
212
100
AcDbSymbolTableRecord
100
AcDbLayerTableRecord
  2
06___PRT_ALL_SURFS
 70
0
 62
7
  6
CONTINUOUS
  0
LAYER
  5
213
100
AcDbSymbolTableRecord
100
AcDbLayerTableRecord
  2
07__ASM_ALL_SKELETONS
 70
0
 62
7
  6
CONTINUOUS
  0
LAYER
  5
214
100
AcDbSymbolTableRecord
100
AcDbLayerTableRecord
  2
1_ALL_PLANES
 70
0
 62
7
  6
CONTINUOUS
  0
LAYER
  5
215
100
AcDbSymbolTableRecord
100
AcDbLayerTableRecord
  2
2_ALL_CSYS
 70
0
 62
7
  6
CONTINUOUS
  0
LAYER
  5
216
100
AcDbSymbolTableRecord
100
AcDbLayerTableRecord
  2
3_ALL_AXES
 70
0
 62
7
  6
CONTINUOUS
  0
LAYER
  5
217
100
AcDbSymbolTableRecord
100
AcDbLayerTableRecord
  2
4_ALL_POINTS
 70
0
 62
7
  6
CONTINUOUS
  0
LAYER
  5
218
100
AcDbSymbolTableRecord
100
AcDbLayerTableRecord
  2
5_ALL_CURVES
 70
0
 62
7
  6
CONTINUOUS
  0
LAYER
  5
219
100
AcDbSymbolTableRecord
100
AcDbLayerTableRecord
  2
5__COSTRUZIONE
 70
0
 62
7
  6
CONTINUOUS
  0
LAYER
  5
21A
100
AcDbSymbolTableRecord
100
AcDbLayerTableRecord
  2
6_ALL_SURFS
 70
0
 62
7
  6
CONTINUOUS
  0
LAYER
  5
21B
100
AcDbSymbolTableRecord
100
AcDbLayerTableRecord
  2
7_ALL_FEATURES
 70
0
 62
7
  6
CONTINUOUS
  0
LAYER
  5
21C
100
AcDbSymbolTableRecord
100
AcDbLayerTableRecord
  2
9_SOLID
 70
0
 62
7
  6
CONTINUOUS
  0
LAYER
  5
21D
100
AcDbSymbolTableRecord
100
AcDbLayerTableRecord
  2
INTFCLR_2
 70
0
 62
7
  6
CONTINUOUS
  0
LAYER
  5
21E
100
AcDbSymbolTableRecord
100
AcDbLayerTableRecord
  2
LIVELLO_1
 70
0
 62
7
  6
CONTINUOUS
  0
LAYER
  5
21F
100
AcDbSymbolTableRecord
100
AcDbLayerTableRecord
  2
WHITE
 70
0
 62
7
  6
CONTINUOUS
  0
LAYER
  5
220
100
AcDbSymbolTableRecord
100
AcDbLayerTableRecord
  2
XXX_SOLIDO
 70
0
 62
7
  6
CONTINUOUS
  0
ENDTAB
  0
TABLE
  2
STYLE
  5
3
100
AcDbSymbolTable
 70
1
  0
STYLE
  5
11
100
AcDbSymbolTableRecord
100
AcDbTextStyleTableRecord
  2
STANDARD
 70
0
 40
0.0
 41
1.0
 50
0.0
 71
0
 42
0.2
  3
arial.ttf
  4

  0
STYLE
  5
221
100
AcDbSymbolTableRecord
100
AcDbTextStyleTableRecord
  2
TEXTSTYLE_1
 70
0
 40
0.0
 41
0.8
 50
0.0
 71
0
 42
0.2
  3
gdt
  4

  0
STYLE
  5
222
100
AcDbSymbolTableRecord
100
AcDbTextStyleTableRecord
  2
TEXTSTYLE_2
 70
0
 40
0.0
 41
0.85
 50
0.0
 71
0
 42
0.2
  3
gdt
  4

  0
STYLE
  5
223
100
AcDbSymbolTableRecord
100
AcDbTextStyleTableRecord
  2
TEXTSTYLE_3
 70
0
 40
0.0
 41
0.85
 50
0.0
 71
0
 42
0.2
  3
txt
  4

  0
ENDTAB
  0
TABLE
  2
VIEW
  5
6
100
AcDbSymbolTable
 70
0
  0
ENDTAB
  0
TABLE
  2
UCS
  5
7
100
AcDbSymbolTable
 70
0
  0
ENDTAB
  0
TABLE
  2
APPID
  5
9
100
AcDbSymbolTable
 70
1
  0
APPID
  5
224
100
AcDbSymbolTableRecord
100
AcDbRegAppTableRecord
  2
ACAD
 70
0
  0
ENDTAB
  0
TABLE
  2
BLOCK_RECORD
  5
1
100
AcDbSymbolTable
 70
0
  0
BLOCK_RECORD
  5
1F
100
AcDbSymbolTableRecord
100
AcDbBlockTableRecord
  2
*MODEL_SPACE
  0
BLOCK_RECORD
  5
1B
100
AcDbSymbolTableRecord
100
AcDbBlockTableRecord
  2
*PAPER_SPACE
  0
BLOCK_RECORD
  5
225
100
AcDbSymbolTableRecord
100
AcDbBlockTableRecord
  2
_CLOSED
  0
BLOCK_RECORD
  5
226
100
AcDbSymbolTableRecord
100
AcDbBlockTableRecord
  2
*D0
  0
BLOCK_RECORD
  5
227
100
AcDbSymbolTableRecord
100
AcDbBlockTableRecord
  2
*D1
  0
BLOCK_RECORD
  5
228
100
AcDbSymbolTableRecord
100
AcDbBlockTableRecord
  2
*D2
  0
BLOCK_RECORD
  5
229
100
AcDbSymbolTableRecord
100
AcDbBlockTableRecord
  2
LOGO2_BL0
  0
ENDTAB
  0
TABLE
  2
DIMSTYLE
  5
A
100
AcDbSymbolTable
 70
1
  0
DIMSTYLE
105
22A
100
AcDbSymbolTableRecord
100
AcDbDimStyleTableRecord
  2
STANDARD
 70
0
  3

  4

  5
_CLOSED
  6
_CLOSED
  7
_CLOSED
 40
1.0
 41
2.5
 42
0.75
 43
0.38
 44
0.75
 45
0.0
 46
0.0
 47
0.01
 48
0.01
140
3.0
141
0.09
142
0.0
143
25.4
144
1.0
145
0.0
146
1.0
147
0.625
 71
1.0
 72
0.0
 73
0
 74
0
 75
0
 76
0
 77
1
 78
8
 79
2
170
0
171
1
172
0
173
0
174
0
175
0
176
0
177
0
178
0
270
2
179
2
271
2
272
2
273
2
274
2
275
0
280
0
281
0
282
0
283
1
284
8
285
0
286
0
287
3
288
0
340
11
  0
DIMSTYLE
105
22B
100
AcDbSymbolTableRecord
100
AcDbDimStyleTableRecord
  2
DIMSTYLE_1
 70
0
  3

  4

  5
_CLOSED
  6
_CLOSED
  7
_CLOSED
 40
1.0
 41
2.5
 42
0.75
 43
0.38
 44
0.75
 45
0.0
 46
0.0
 47
0.5
 48
0.5
140
3.0
141
0.09
142
0.0
143
25.4
144
1.0
145
0.0
146
1.0
147
0.75
 71
0.0
 72
0.0
 73
0
 74
0
 75
0
 76
0
 77
1
 78
8
 79
2
170
0
171
1
172
0
173
0
174
0
175
0
176
0
177
0
178
0
270
2
179
2
271
2
272
2
273
2
274
2
275
0
280
0
281
0
282
0
283
1
284
8
285
0
286
0
287
3
288
0
340
11
  0
DIMSTYLE
105
22C
100
AcDbSymbolTableRecord
100
AcDbDimStyleTableRecord
  2
DIMSTYLE_2
 70
0
  3
<>
  4

  5
_CLOSED
  6
_CLOSED
  7
_CLOSED
 40
1.0
 41
2.5
 42
0.75
 43
0.38
 44
0.75
 45
0.0
 46
0.0
 47
0.5
 48
0.5
140
3.0
141
0.09
142
0.0
143
25.4
144
1.0
145
0.0
146
1.0
147
0.625
 71
0.0
 72
0.0
 73
0
 74
0
 75
0
 76
0
 77
1
 78
8
 79
2
170
0
171
1
172
1
173
0
174
0
175
0
176
0
177
0
178
0
270
2
179
2
271
2
272
2
273
2
274
2
275
0
280
0
281
0
282
0
283
1
284
8
285
0
286
0
287
3
288
1
340
11
  0
DIMSTYLE
105
22D
100
AcDbSymbolTableRecord
100
AcDbDimStyleTableRecord
  2
DIMSTYLE_3
 70
0
  3

  4

  5
_CLOSED
  6
_CLOSED
  7
_CLOSED
 40
1.0
 41
2.5
 42
0.75
 43
0.38
 44
0.75
 45
0.0
 46
0.0
 47
0.3
 48
0.3
140
3.0
141
0.09
142
0.0
143
25.4
144
1.0
145
0.0
146
1.0
147
0.75
 71
0.0
 72
0.0
 73
0
 74
0
 75
0
 76
0
 77
1
 78
8
 79
2
170
0
171
1
172
0
173
0
174
0
175
0
176
0
177
0
178
0
270
2
179
2
271
2
272
2
273
2
274
2
275
0
280
0
281
0
282
0
283
1
284
8
285
0
286
0
287
3
288
0
340
11
  0
ENDTAB
  0
ENDSEC
  0
SECTION
  2
BLOCKS
  0
BLOCK
  5
20
100
AcDbEntity
  8
0
100
AcDbBlockBegin
  2
*MODEL_SPACE
 70
0
 10
0.0
 20
0.0
 30
0.0
  3
*MODEL_SPACE
  1

  0
ENDBLK
  5
21
100
AcDbEntity
  8
0
100
AcDbBlockEnd
  0
BLOCK
  5
1C
100
AcDbEntity
  8
0
100
AcDbBlockBegin
  2
*PAPER_SPACE
 70
0
 10
0.0
 20
0.0
 30
0.0
  3
*PAPER_SPACE
  1

  0
ENDBLK
  5
1D
100
AcDbEntity
  8
0
100
AcDbBlockEnd
  0
BLOCK
  5
22E
100
AcDbEntity
  8
0
100
AcDbBlockBegin
 62
2
  6
CONTINUOUS
  2
LOGO2_BL0
 70
64
 10
754.8956694115
 20
36.581561713
  3
LOGO2_BL0
  1

  0
LINE
  5
22F
100
AcDbEntity
  8
0
100
AcDbLine
 62
7
  6
CONTINUOUS
 10
746.6385946397
 20
39.7770530518
 11
745.3342537104
 21
39.7770530518
  0
LINE
  5
230
100
AcDbEntity
  8
0
100
AcDbLine
 62
7
  6
CONTINUOUS
 10
745.3342537104
 20
39.7770530518
 11
745.3342537104
 21
29.317986992
  0
LINE
  5
231
100
AcDbEntity
  8
0
100
AcDbLine
 62
7
  6
CONTINUOUS
 10
745.3342537104
 20
29.317986992
 11
749.8153085986
 21
29.317986992
  0
LINE
  5
232
100
AcDbEntity
  8
0
100
AcDbLine
 62
7
  6
CONTINUOUS
 10
749.8153085986
 20
29.317986992
 11
749.8153085986
 21
30.510841317
  0
LINE
  5
233
100
AcDbEntity
  8
0
100
AcDbLine
 62
7
  6
CONTINUOUS
 10
749.8153085986
 20
30.510841317
 11
746.6385946397
 21
30.510841317
  0
LINE
  5
234
100
AcDbEntity
  8
0
100
AcDbLine
 62
7
  6
CONTINUOUS
 10
746.6385946397
 20
30.510841317
 11
746.6385946397
 21
39.7770530518
  0
LINE
  5
235
100
AcDbEntity
  8
0
100
AcDbLine
 62
7
  6
CONTINUOUS
 10
761.574920856
 20
39.7770530518
 11
760.2711033379
 21
39.7770530518
  0
LINE
  5
236
100
AcDbEntity
  8
0
100
AcDbLine
 62
7
  6
CONTINUOUS
 10
760.2711033379
 20
39.7770530518
 11
760.2711033379
 21
29.317986992
  0
LINE
  5
237
100
AcDbEntity
  8
0
100
AcDbLine
 62
7
  6
CONTINUOUS
 10
760.2711033379
 20
29.317986992
 11
764.752289079
 21
29.317986992
  0
LINE
  5
238
100
AcDbEntity
  8
0
100
AcDbLine
 62
7
  6
CONTINUOUS
 10
764.752289079
 20
29.317986992
 11
764.752289079
 21
30.510841317
  0
LINE
  5
239
100
AcDbEntity
  8
0
100
AcDbLine
 62
7
  6
CONTINUOUS
 10
764.752289079
 20
30.510841317
 11
761.574920856
 21
30.510841317
  0
LINE
  5
23A
100
AcDbEntity
  8
0
100
AcDbLine
 62
7
  6
CONTINUOUS
 10
761.574920856
 20
30.510841317
 11
761.574920856
 21
39.7770530518
  0
LWPOLYLINE
  5
23B
100
AcDbEntity
  8
0
100
AcDbPolyline
 62
7
  6
CONTINUOUS
 90
2
 70
0
 43
0.2
 10
743.6886486213
 20
25.974435685
 10
743.6886486213
 20
24.1173724357
  0
LWPOLYLINE
  5
23C
100
AcDbEntity
  8
0
100
AcDbPolyline
 62
7
  6
CONTINUOUS
 90
2
 70
0
 43
0.2
 10
743.6886486213
 20
24.1173724357
 10
744.4843646317
 20
24.1173724357
  0
LWPOLYLINE
  5
23D
100
AcDbEntity
  8
0
100
AcDbPolyline
 62
7
  6
CONTINUOUS
 90
2
 70
0
 43
0.2
 10
744.4843646317
 20
24.1173724357
 10
744.4843646317
 20
24.3293540073
  0
LWPOLYLINE
  5
23E
100
AcDbEntity
  8
0
100
AcDbPolyline
 62
7
  6
CONTINUOUS
 90
2
 70
0
 43
0.2
 10
744.4843646317
 20
24.3293540073
 10
743.9202581162
 20
24.3293540073
  0
LWPOLYLINE
  5
23F
100
AcDbEntity
  8
0
100
AcDbPolyline
 62
7
  6
CONTINUOUS
 90
2
 70
0
 43
0.2
 10
743.9202581162
 20
24.3293540073
 10
743.9202581162
 20
25.974435685
  0
LWPOLYLINE
  5
240
100
AcDbEntity
  8
0
100
AcDbPolyline
 62
7
  6
CONTINUOUS
 90
2
 70
0
 43
0.2
 10
743.9202581162
 20
25.974435685
 10
743.6886486213
 20
25.974435685
  0
SPLINE
  5
241
100
AcDbEntity
  8
0
100
AcDbSpline
 62
7
  6
CONTINUOUS
 70
2
 71
3
 72
35
 73
31
 74
0
 42
0.0000001
 43
0.0000001
 44
0.0000000001
 40
0.0
 40
0.0
 40
0.0
 40
0.0
 40
1.0
 40
1.0
 40
1.0
 40
2.0
 40
2.0
 40
2.0
 40
3.0
 40
3.0
 40
3.0
 40
4.0
 40
4.0
 40
4.0
 40
5.0
 40
5.0
 40
5.0
 40
6.0
 40
6.0
 40
6.0
 40
7.0
 40
7.0
 40
7.0
 40
8.0
 40
8.0
 40
8.0
 40
9.0
 40
9.0
 40
9.0
 40
10.0
 40
10.0
 40
10.0
 40
10.0
 10
745.8826578872
 20
25.2699240916
 30
0.0
 10
745.8826578872
 20
25.2699240916
 30
0.0
 10
745.8826578872
 20
24.6078088124
 30
0.0
 10
745.8826578872
 20
24.6078088124
 30
0.0
 10
745.8826578872
 20
24.2927152171
 30
0.0
 10
746.030521576
 20
24.0781165891
 30
0.0
 10
746.3706080603
 20
24.0781165891
 30
0.0
 10
746.7101711333
 20
24.0781165891
 30
0.0
 10
746.8582965278
 20
24.2927152171
 30
0.0
 10
746.8582965278
 20
24.6078088124
 30
0.0
 10
746.8582965278
 20
24.6078088124
 30
0.0
 10
746.8582965278
 20
25.2699240916
 30
0.0
 10
746.8582965278
 20
25.2699240916
 30
0.0
 10
746.8582965278
 20
25.2699240916
 30
0.0
 10
746.6362392889
 20
25.2699240916
 30
0.0
 10
746.6362392889
 20
25.2699240916
 30
0.0
 10
746.6362392889
 20
25.2699240916
 30
0.0
 10
746.6362392889
 20
24.6329325542
 30
0.0
 10
746.6362392889
 20
24.6329325542
 30
0.0
 10
746.6362392889
 20
24.447121547
 30
0.0
 10
746.5895248315
 20
24.2843406365
 30
0.0
 10
746.3706080603
 20
24.2843406365
 30
0.0
 10
746.1511678779
 20
24.2843406365
 30
0.0
 10
746.1044534205
 20
24.447121547
 30
0.0
 10
746.1044534205
 20
24.6329325542
 30
0.0
 10
746.1044534205
 20
24.6329325542
 30
0.0
 10
746.1044534205
 20
25.2699240916
 30
0.0
 10
746.1044534205
 20
25.2699240916
 30
0.0
 10
746.1044534205
 20
25.2699240916
 30
0.0
 10
745.8826578872
 20
25.2699240916
 30
0.0
 10
745.8826578872
 20
25.2699240916
 30
0.0
  0
SPLINE
  5
242
100
AcDbEntity
  8
0
100
AcDbSpline
 62
7
  6
CONTINUOUS
 70
2
 71
3
 72
35
 73
31
 74
0
 42
0.0000001
 43
0.0000001
 44
0.0000000001
 40
0.0
 40
0.0
 40
0.0
 40
0.0
 40
1.0
 40
1.0
 40
1.0
 40
2.0
 40
2.0
 40
2.0
 40
3.0
 40
3.0
 40
3.0
 40
4.0
 40
4.0
 40
4.0
 40
5.0
 40
5.0
 40
5.0
 40
6.0
 40
6.0
 40
6.0
 40
7.0
 40
7.0
 40
7.0
 40
8.0
 40
8.0
 40
8.0
 40
9.0
 40
9.0
 40
9.0
 40
10.0
 40
10.0
 40
10.0
 40
10.0
 10
749.281429085
 20
25.2285745998
 30
0.0
 10
749.1929725774
 20
25.279868906
 30
0.0
 10
749.0795231807
 20
25.3049926479
 30
0.0
 10
748.9758877457
 20
25.3049926479
 30
0.0
 10
748.6210148925
 20
25.3049926479
 30
0.0
 10
748.3455697023
 20
25.0411933588
 30
0.0
 10
748.3455697023
 20
24.6837034492
 30
0.0
 10
748.3455697023
 20
24.3387754104
 30
0.0
 10
748.6240245074
 20
24.0786400004
 30
0.0
 10
748.9635875804
 20
24.0786400004
 30
0.0
 10
749.0795231807
 20
24.0786400004
 30
0.0
 10
749.1802798536
 20
24.1006232745
 30
0.0
 10
749.281429085
 20
24.1545346371
 30
0.0
 10
749.281429085
 20
24.1545346371
 30
0.0
 10
749.281429085
 20
24.4371767326
 30
0.0
 10
749.281429085
 20
24.4371767326
 30
0.0
 10
749.1975524261
 20
24.3440095233
 30
0.0
 10
749.0940478439
 20
24.2848640478
 30
0.0
 10
748.9659429312
 20
24.2848640478
 30
0.0
 10
748.7322397912
 20
24.2848640478
 30
0.0
 10
748.5669726771
 20
24.4570663615
 30
0.0
 10
748.5669726771
 20
24.6936482636
 30
0.0
 10
748.5669726771
 20
24.9056298352
 30
0.0
 10
748.7347259948
 20
25.0977217779
 30
0.0
 10
748.9515491208
 20
25.0977217779
 30
0.0
 10
749.0843647351
 20
25.0977217779
 30
0.0
 10
749.1929725774
 20
25.0438104152
 30
0.0
 10
749.281429085
 20
24.9427920367
 30
0.0
 10
749.281429085
 20
24.9427920367
 30
0.0
 10
749.281429085
 20
25.2285745998
 30
0.0
 10
749.281429085
 20
25.2285745998
 30
0.0
  0
SPLINE
  5
243
100
AcDbEntity
  8
0
100
AcDbSpline
 62
7
  6
CONTINUOUS
 70
2
 71
3
 72
32
 73
28
 74
0
 42
0.0000001
 43
0.0000001
 44
0.0000000001
 40
0.0
 40
0.0
 40
0.0
 40
0.0
 40
1.0
 40
1.0
 40
1.0
 40
2.0
 40
2.0
 40
2.0
 40
3.0
 40
3.0
 40
3.0
 40
4.0
 40
4.0
 40
4.0
 40
5.0
 40
5.0
 40
5.0
 40
6.0
 40
6.0
 40
6.0
 40
7.0
 40
7.0
 40
7.0
 40
8.0
 40
8.0
 40
8.0
 40
9.0
 40
9.0
 40
9.0
 40
9.0
 10
751.8133003373
 20
24.6570094735
 30
0.0
 10
751.8133003373
 20
24.6570094735
 30
0.0
 10
751.8133003373
 20
24.6910312072
 30
0.0
 10
751.8133003373
 20
24.6910312072
 30
0.0
 10
751.8133003373
 20
25.0333421895
 30
0.0
 10
751.6404437594
 20
25.3049926479
 30
0.0
 10
751.2737941523
 20
25.3049926479
 30
0.0
 10
750.9021721379
 20
25.3049926479
 30
0.0
 10
750.712435546
 20
25.0385763023
 30
0.0
 10
750.712435546
 20
24.6837034492
 30
0.0
 10
750.712435546
 20
24.3440095233
 30
0.0
 10
750.9265107628
 20
24.0781165891
 30
0.0
 10
751.2786357067
 20
24.0781165891
 30
0.0
 10
751.5026557379
 20
24.0781165891
 30
0.0
 10
751.7048233478
 20
24.1937904837
 30
0.0
 10
751.8133003373
 20
24.3932101844
 30
0.0
 10
751.8133003373
 20
24.3932101844
 30
0.0
 10
751.6256573906
 20
24.4999860871
 30
0.0
 10
751.6256573906
 20
24.4999860871
 30
0.0
 10
751.5421732901
 20
24.3612820958
 30
0.0
 10
751.4509688732
 20
24.2754426446
 30
0.0
 10
751.281383616
 20
24.2754426446
 30
0.0
 10
751.0694020444
 20
24.2754426446
 30
0.0
 10
750.9364555773
 20
24.4602068292
 30
0.0
 10
750.9341002265
 20
24.6570094735
 30
0.0
 10
750.9341002265
 20
24.6570094735
 30
0.0
 10
751.8133003373
 20
24.6570094735
 30
0.0
 10
751.8133003373
 20
24.6570094735
 30
0.0
  0
SPLINE
  5
244
100
AcDbEntity
  8
0
100
AcDbSpline
 62
7
  6
CONTINUOUS
 70
2
 71
3
 72
14
 73
10
 74
0
 42
0.0000001
 43
0.0000001
 44
0.0000000001
 40
0.0
 40
0.0
 40
0.0
 40
0.0
 40
1.0
 40
1.0
 40
1.0
 40
2.0
 40
2.0
 40
2.0
 40
3.0
 40
3.0
 40
3.0
 40
3.0
 10
750.9461386861
 20
24.8245010856
 30
0.0
 10
750.9737486315
 20
24.9893756413
 30
0.0
 10
751.1015918386
 20
25.1123772939
 30
0.0
 10
751.2737941523
 20
25.1123772939
 30
0.0
 10
751.4509688732
 20
25.1123772939
 30
0.0
 10
751.5644182699
 20
24.9967033993
 30
0.0
 10
751.5916356568
 20
24.8245010856
 30
0.0
 10
751.5916356568
 20
24.8245010856
 30
0.0
 10
750.9461386861
 20
24.8245010856
 30
0.0
 10
750.9461386861
 20
24.8245010856
 30
0.0
  0
SPLINE
  5
245
100
AcDbEntity
  8
0
100
AcDbSpline
 62
7
  6
CONTINUOUS
 70
2
 71
3
 72
20
 73
16
 74
0
 42
0.0000001
 43
0.0000001
 44
0.0000000001
 40
0.0
 40
0.0
 40
0.0
 40
0.0
 40
1.0
 40
1.0
 40
1.0
 40
2.0
 40
2.0
 40
2.0
 40
3.0
 40
3.0
 40
3.0
 40
4.0
 40
4.0
 40
4.0
 40
5.0
 40
5.0
 40
5.0
 40
5.0
 10
753.8373317875
 20
25.0338656007
 30
0.0
 10
753.8373317875
 20
25.0338656007
 30
0.0
 10
754.2484713541
 20
24.5313907644
 30
0.0
 10
754.2484713541
 20
24.5313907644
 30
0.0
 10
754.132404901
 20
24.4157168698
 30
0.0
 10
753.9946168795
 20
24.2853874591
 30
0.0
 10
753.8226762714
 20
24.2853874591
 30
0.0
 10
753.6452398448
 20
24.2853874591
 30
0.0
 10
753.4777482327
 20
24.4497386035
 30
0.0
 10
753.4777482327
 20
24.6266516188
 30
0.0
 10
753.4777482327
 20
24.8046114567
 30
0.0
 10
753.6875053063
 20
24.930753577
 30
0.0
 10
753.8150868077
 20
25.0186866734
 30
0.0
 10
753.8150868077
 20
25.0186866734
 30
0.0
 10
753.8373317875
 20
25.0338656007
 30
0.0
 10
753.8373317875
 20
25.0338656007
 30
0.0
  0
SPLINE
  5
246
100
AcDbEntity
  8
0
100
AcDbSpline
 62
7
  6
CONTINUOUS
 70
2
 71
3
 72
23
 73
19
 74
0
 42
0.0000001
 43
0.0000001
 44
0.0000000001
 40
0.0
 40
0.0
 40
0.0
 40
0.0
 40
1.0
 40
1.0
 40
1.0
 40
2.0
 40
2.0
 40
2.0
 40
3.0
 40
3.0
 40
3.0
 40
4.0
 40
4.0
 40
4.0
 40
5.0
 40
5.0
 40
5.0
 40
6.0
 40
6.0
 40
6.0
 40
6.0
 10
753.8866633013
 20
25.3248822768
 30
0.0
 10
753.8866633013
 20
25.3248822768
 30
0.0
 10
753.8250316222
 20
25.40339397
 30
0.0
 10
753.8250316222
 20
25.40339397
 30
0.0
 10
753.7711202595
 20
25.4719608487
 30
0.0
 10
753.7143301348
 20
25.5410511387
 30
0.0
 10
753.7143301348
 20
25.6347417592
 30
0.0
 10
753.7143301348
 20
25.7535561216
 30
0.0
 10
753.8102452533
 20
25.8310209922
 30
0.0
 10
753.9212084463
 20
25.8310209922
 30
0.0
 10
754.0444718046
 20
25.8310209922
 30
0.0
 10
754.1377698667
 20
25.759837057
 30
0.0
 10
754.1377698667
 20
25.6295076463
 30
0.0
 10
754.1377698667
 20
25.4944675341
 30
0.0
 10
754.009664954
 20
25.418049486
 30
0.0
 10
753.9161051863
 20
25.3442484944
 30
0.0
 10
753.9161051863
 20
25.3442484944
 30
0.0
 10
753.8866633013
 20
25.3248822768
 30
0.0
 10
753.8866633013
 20
25.3248822768
 30
0.0
  0
SPLINE
  5
247
100
AcDbEntity
  8
0
100
AcDbSpline
 62
7
  6
CONTINUOUS
 70
2
 71
3
 72
50
 73
46
 74
0
 42
0.0000001
 43
0.0000001
 44
0.0000000001
 40
0.0
 40
0.0
 40
0.0
 40
0.0
 40
1.0
 40
1.0
 40
1.0
 40
2.0
 40
2.0
 40
2.0
 40
3.0
 40
3.0
 40
3.0
 40
4.0
 40
4.0
 40
4.0
 40
5.0
 40
5.0
 40
5.0
 40
6.0
 40
6.0
 40
6.0
 40
7.0
 40
7.0
 40
7.0
 40
8.0
 40
8.0
 40
8.0
 40
9.0
 40
9.0
 40
9.0
 40
10.0
 40
10.0
 40
10.0
 40
11.0
 40
11.0
 40
11.0
 40
12.0
 40
12.0
 40
12.0
 40
13.0
 40
13.0
 40
13.0
 40
14.0
 40
14.0
 40
14.0
 40
15.0
 40
15.0
 40
15.0
 40
15.0
 10
754.588819544
 20
24.117895847
 30
0.0
 10
754.588819544
 20
24.117895847
 30
0.0
 10
754.8742095487
 20
24.117895847
 30
0.0
 10
754.8742095487
 20
24.117895847
 30
0.0
 10
754.8742095487
 20
24.117895847
 30
0.0
 10
754.5418433809
 20
24.5287737079
 30
0.0
 10
754.5418433809
 20
24.5287737079
 30
0.0
 10
754.5418433809
 20
24.5287737079
 30
0.0
 10
754.7683496157
 20
24.7946666422
 30
0.0
 10
754.7683496157
 20
24.7946666422
 30
0.0
 10
754.7683496157
 20
24.7946666422
 30
0.0
 10
754.6200933685
 20
24.9475027382
 30
0.0
 10
754.6200933685
 20
24.9475027382
 30
0.0
 10
754.6200933685
 20
24.9475027382
 30
0.0
 10
754.4041862122
 20
24.6962653201
 30
0.0
 10
754.4041862122
 20
24.6962653201
 30
0.0
 10
754.4041862122
 20
24.6962653201
 30
0.0
 10
754.0171235648
 20
25.1641950114
 30
0.0
 10
754.0171235648
 20
25.1641950114
 30
0.0
 10
754.1725767173
 20
25.2782986722
 30
0.0
 10
754.3548546983
 20
25.418049486
 30
0.0
 10
754.3548546983
 20
25.6274140012
 30
0.0
 10
754.3548546983
 20
25.8713236613
 30
0.0
 10
754.1528179412
 20
26.0147383542
 30
0.0
 10
753.9263117064
 20
26.0147383542
 30
0.0
 10
753.6821403406
 20
26.0147383542
 30
0.0
 10
753.4977687144
 20
25.8639959033
 30
0.0
 10
753.4977687144
 20
25.6075243722
 30
0.0
 10
753.4977687144
 20
25.4499775746
 30
0.0
 10
753.5964317422
 20
25.3123204059
 30
0.0
 10
753.7017682639
 20
25.2013572129
 30
0.0
 10
753.7017682639
 20
25.2013572129
 30
0.0
 10
753.5862252221
 20
25.1176114068
 30
0.0
 10
753.5862252221
 20
25.1176114068
 30
0.0
 10
753.4085270899
 20
24.9893756413
 30
0.0
 10
753.2611868123
 20
24.861663287
 30
0.0
 10
753.2611868123
 20
24.6245579736
 30
0.0
 10
753.2611868123
 20
24.3042302655
 30
0.0
 10
753.5197519885
 20
24.0781165891
 30
0.0
 10
753.8301348822
 20
24.0781165891
 30
0.0
 10
754.0490516534
 20
24.0781165891
 30
0.0
 10
754.2462468561
 20
24.2032118869
 30
0.0
 10
754.3865210812
 20
24.3691332651
 30
0.0
 10
754.3865210812
 20
24.3691332651
 30
0.0
 10
754.588819544
 20
24.117895847
 30
0.0
 10
754.588819544
 20
24.117895847
 30
0.0
  0
LWPOLYLINE
  5
248
100
AcDbEntity
  8
0
100
AcDbPolyline
 62
7
  6
CONTINUOUS
 90
2
 70
0
 43
0.2
 10
756.5242636337
 20
25.974435685
 10
756.2929158445
 20
25.974435685
  0
LWPOLYLINE
  5
249
100
AcDbEntity
  8
0
100
AcDbPolyline
 62
7
  6
CONTINUOUS
 90
2
 70
0
 43
0.2
 10
756.2929158445
 20
25.974435685
 10
756.2929158445
 20
24.1173724357
  0
LWPOLYLINE
  5
24A
100
AcDbEntity
  8
0
100
AcDbPolyline
 62
7
  6
CONTINUOUS
 90
2
 70
0
 43
0.2
 10
756.2929158445
 20
24.1173724357
 10
757.0882392964
 20
24.1173724357
  0
LWPOLYLINE
  5
24B
100
AcDbEntity
  8
0
100
AcDbPolyline
 62
7
  6
CONTINUOUS
 90
2
 70
0
 43
0.2
 10
757.0882392964
 20
24.1173724357
 10
757.0882392964
 20
24.3293540073
  0
LWPOLYLINE
  5
24C
100
AcDbEntity
  8
0
100
AcDbPolyline
 62
7
  6
CONTINUOUS
 90
2
 70
0
 43
0.2
 10
757.0882392964
 20
24.3293540073
 10
756.5242636337
 20
24.3293540073
  0
LWPOLYLINE
  5
24D
100
AcDbEntity
  8
0
100
AcDbPolyline
 62
7
  6
CONTINUOUS
 90
2
 70
0
 43
0.2
 10
756.5242636337
 20
24.3293540073
 10
756.5242636337
 20
25.974435685
  0
LWPOLYLINE
  5
24E
100
AcDbEntity
  8
0
100
AcDbPolyline
 62
7
  6
CONTINUOUS
 90
2
 70
0
 43
0.2
 10
758.7673427079
 20
25.2699240916
 10
758.5462014388
 20
25.2699240916
  0
LWPOLYLINE
  5
24F
100
AcDbEntity
  8
0
100
AcDbPolyline
 62
7
  6
CONTINUOUS
 90
2
 70
0
 43
0.2
 10
758.5462014388
 20
25.2699240916
 10
758.5462014388
 20
24.117895847
  0
LWPOLYLINE
  5
250
100
AcDbEntity
  8
0
100
AcDbPolyline
 62
7
  6
CONTINUOUS
 90
2
 70
0
 43
0.2
 10
758.5462014388
 20
24.117895847
 10
758.7673427079
 20
24.117895847
  0
LWPOLYLINE
  5
251
100
AcDbEntity
  8
0
100
AcDbPolyline
 62
7
  6
CONTINUOUS
 90
2
 70
0
 43
0.2
 10
758.7673427079
 20
24.117895847
 10
758.7673427079
 20
25.2699240916
  0
LWPOLYLINE
  5
252
100
AcDbEntity
  8
0
100
AcDbPolyline
 62
7
  6
CONTINUOUS
 90
2
 70
1
 43
0.2
 10
758.5043194307
 20
25.7998780205
 42
1.0
 10
758.8094864216
 20
25.7998780205
 42
1.0
  0
SPLINE
  5
253
100
AcDbEntity
  8
0
100
AcDbSpline
 62
7
  6
CONTINUOUS
 70
2
 71
3
 72
17
 73
13
 74
0
 42
0.0000001
 43
0.0000001
 44
0.0000000001
 40
0.0
 40
0.0
 40
0.0
 40
0.0
 40
1.0
 40
1.0
 40
1.0
 40
2.0
 40
2.0
 40
2.0
 40
3.0
 40
3.0
 40
3.0
 40
4.0
 40
4.0
 40
4.0
 40
4.0
 10
760.8976266495
 20
24.2754426446
 30
0.0
 10
760.6636618039
 20
24.2754426446
 30
0.0
 10
760.5333323932
 20
24.4774794017
 30
0.0
 10
760.5333323932
 20
24.6936482636
 30
0.0
 10
760.5333323932
 20
24.9082468917
 30
0.0
 10
760.6691576224
 20
25.107143181
 30
0.0
 10
760.8976266495
 20
25.107143181
 30
0.0
 10
761.1370873137
 20
25.107143181
 30
0.0
 10
761.2726508373
 20
24.9181917061
 30
0.0
 10
761.2726508373
 20
24.6936482636
 30
0.0
 10
761.2726508373
 20
24.4675345873
 30
0.0
 10
761.1394426645
 20
24.2754426446
 30
0.0
 10
760.8976266495
 20
24.2754426446
 30
0.0
  0
SPLINE
  5
254
100
AcDbEntity
  8
0
100
AcDbSpline
 62
7
  6
CONTINUOUS
 70
2
 71
3
 72
50
 73
46
 74
0
 42
0.0000001
 43
0.0000001
 44
0.0000000001
 40
0.0
 40
0.0
 40
0.0
 40
0.0
 40
1.0
 40
1.0
 40
1.0
 40
2.0
 40
2.0
 40
2.0
 40
3.0
 40
3.0
 40
3.0
 40
4.0
 40
4.0
 40
4.0
 40
5.0
 40
5.0
 40
5.0
 40
6.0
 40
6.0
 40
6.0
 40
7.0
 40
7.0
 40
7.0
 40
8.0
 40
8.0
 40
8.0
 40
9.0
 40
9.0
 40
9.0
 40
10.0
 40
10.0
 40
10.0
 40
11.0
 40
11.0
 40
11.0
 40
12.0
 40
12.0
 40
12.0
 40
13.0
 40
13.0
 40
13.0
 40
14.0
 40
14.0
 40
14.0
 40
15.0
 40
15.0
 40
15.0
 40
15.0
 10
761.4817536468
 20
25.2704475029
 30
0.0
 10
761.4817536468
 20
25.2704475029
 30
0.0
 10
761.2600889664
 20
25.2704475029
 30
0.0
 10
761.2600889664
 20
25.2704475029
 30
0.0
 10
761.2600889664
 20
25.2704475029
 30
0.0
 10
761.2600889664
 20
25.0731214473
 30
0.0
 10
761.2600889664
 20
25.0731214473
 30
0.0
 10
761.2600889664
 20
25.0731214473
 30
0.0
 10
761.2553782648
 20
25.0731214473
 30
0.0
 10
761.2553782648
 20
25.0731214473
 30
0.0
 10
761.1640429951
 20
25.2160127289
 30
0.0
 10
761.0261241207
 20
25.3044692366
 30
0.0
 10
760.8533983957
 20
25.3044692366
 30
0.0
 10
760.5210322279
 20
25.3044692366
 30
0.0
 10
760.3119294184
 20
25.0165930282
 30
0.0
 10
760.3119294184
 20
24.7009760217
 30
0.0
 10
760.3119294184
 20
24.3712269103
 30
0.0
 10
760.5089937683
 20
24.0781165891
 30
0.0
 10
760.8638666215
 20
24.0781165891
 30
0.0
 10
761.0261241207
 20
24.0781165891
 30
0.0
 10
761.1661366402
 20
24.1665730967
 30
0.0
 10
761.2553782648
 20
24.2974259187
 30
0.0
 10
761.2553782648
 20
24.2974259187
 30
0.0
 10
761.2600889664
 20
24.2974259187
 30
0.0
 10
761.2600889664
 20
24.2974259187
 30
0.0
 10
761.2600889664
 20
24.2974259187
 30
0.0
 10
761.2600889664
 20
24.0781165891
 30
0.0
 10
761.2600889664
 20
24.0781165891
 30
0.0
 10
761.2600889664
 20
23.841534687
 30
0.0
 10
761.2035605473
 20
23.6546768572
 30
0.0
 10
760.930339855
 20
23.6546768572
 30
0.0
 10
760.7280413923
 20
23.6546768572
 30
0.0
 10
760.5854118163
 20
23.7729678083
 30
0.0
 10
760.5854118163
 20
23.9791918557
 30
0.0
 10
760.5854118163
 20
23.9791918557
 30
0.0
 10
760.3637471359
 20
23.9791918557
 30
0.0
 10
760.3637471359
 20
23.9791918557
 30
0.0
 10
760.3687195431
 20
23.6546768572
 30
0.0
 10
760.5998056267
 20
23.457874213
 30
0.0
 10
760.9201333349
 20
23.457874213
 30
0.0
 10
761.3681733973
 20
23.457874213
 30
0.0
 10
761.4817536468
 20
23.7431333649
 30
0.0
 10
761.4817536468
 20
24.1398791211
 30
0.0
 10
761.4817536468
 20
24.1398791211
 30
0.0
 10
761.4817536468
 20
25.2704475029
 30
0.0
 10
761.4817536468
 20
25.2704475029
 30
0.0
  0
SPLINE
  5
255
100
AcDbEntity
  8
0
100
AcDbSpline
 62
7
  6
CONTINUOUS
 70
2
 71
3
 72
44
 73
40
 74
0
 42
0.0000001
 43
0.0000001
 44
0.0000000001
 40
0.0
 40
0.0
 40
0.0
 40
0.0
 40
1.0
 40
1.0
 40
1.0
 40
2.0
 40
2.0
 40
2.0
 40
3.0
 40
3.0
 40
3.0
 40
4.0
 40
4.0
 40
4.0
 40
5.0
 40
5.0
 40
5.0
 40
6.0
 40
6.0
 40
6.0
 40
7.0
 40
7.0
 40
7.0
 40
8.0
 40
8.0
 40
8.0
 40
9.0
 40
9.0
 40
9.0
 40
10.0
 40
10.0
 40
10.0
 40
11.0
 40
11.0
 40
11.0
 40
12.0
 40
12.0
 40
12.0
 40
13.0
 40
13.0
 40
13.0
 40
13.0
 10
763.0506789822
 20
26.2555075466
 30
0.0
 10
763.0506789822
 20
26.2555075466
 30
0.0
 10
763.0506789822
 20
24.1173724357
 30
0.0
 10
763.0506789822
 20
24.1173724357
 30
0.0
 10
763.0506789822
 20
24.1173724357
 30
0.0
 10
763.272081957
 20
24.1173724357
 30
0.0
 10
763.272081957
 20
24.1173724357
 30
0.0
 10
763.272081957
 20
24.1173724357
 30
0.0
 10
763.272081957
 20
24.647064659
 30
0.0
 10
763.272081957
 20
24.647064659
 30
0.0
 10
763.272081957
 20
24.8569525854
 30
0.0
 10
763.272081957
 20
25.1076665923
 30
0.0
 10
763.5573411088
 20
25.1076665923
 30
0.0
 10
763.7842399021
 20
25.1076665923
 30
0.0
 10
763.8111955835
 20
24.9747201252
 30
0.0
 10
763.8111955835
 20
24.7784408923
 30
0.0
 10
763.8111955835
 20
24.7784408923
 30
0.0
 10
763.8111955835
 20
24.1173724357
 30
0.0
 10
763.8111955835
 20
24.1173724357
 30
0.0
 10
763.8111955835
 20
24.1173724357
 30
0.0
 10
764.0331219695
 20
24.1173724357
 30
0.0
 10
764.0331219695
 20
24.1173724357
 30
0.0
 10
764.0331219695
 20
24.1173724357
 30
0.0
 10
764.0331219695
 20
24.8046114567
 30
0.0
 10
764.0331219695
 20
24.8046114567
 30
0.0
 10
764.0331219695
 20
25.085159907
 30
0.0
 10
763.9491144578
 20
25.3049926479
 30
0.0
 10
763.624076048
 20
25.3049926479
 30
0.0
 10
763.4843252342
 20
25.3049926479
 30
0.0
 10
763.3461446542
 20
25.2385194143
 30
0.0
 10
763.2767926585
 20
25.1155177616
 30
0.0
 10
763.2767926585
 20
25.1155177616
 30
0.0
 10
763.272081957
 20
25.1155177616
 30
0.0
 10
763.272081957
 20
25.1155177616
 30
0.0
 10
763.272081957
 20
25.1155177616
 30
0.0
 10
763.272081957
 20
26.2555075466
 30
0.0
 10
763.272081957
 20
26.2555075466
 30
0.0
 10
763.272081957
 20
26.2555075466
 30
0.0
 10
763.0506789822
 20
26.2555075466
 30
0.0
 10
763.0506789822
 20
26.2555075466
 30
0.0
  0
LWPOLYLINE
  5
256
100
AcDbEntity
  8
0
100
AcDbPolyline
 62
7
  6
CONTINUOUS
 90
2
 70
0
 43
0.2
 10
765.8729126464
 20
25.0631766329
 10
766.0893432139
 20
25.0631766329
  0
LWPOLYLINE
  5
257
100
AcDbEntity
  8
0
100
AcDbPolyline
 62
7
  6
CONTINUOUS
 90
2
 70
0
 43
0.2
 10
766.0893432139
 20
25.0631766329
 10
766.0893432139
 20
25.2699240916
  0
LWPOLYLINE
  5
258
100
AcDbEntity
  8
0
100
AcDbPolyline
 62
7
  6
CONTINUOUS
 90
2
 70
0
 43
0.2
 10
766.0893432139
 20
25.2699240916
 10
765.8729126464
 20
25.2699240916
  0
LWPOLYLINE
  5
259
100
AcDbEntity
  8
0
100
AcDbPolyline
 62
7
  6
CONTINUOUS
 90
2
 70
0
 43
0.2
 10
765.8729126464
 20
25.2699240916
 10
765.8729126464
 20
25.710636396
  0
LWPOLYLINE
  5
25A
100
AcDbEntity
  8
0
100
AcDbPolyline
 62
7
  6
CONTINUOUS
 90
2
 70
0
 43
0.2
 10
765.8729126464
 20
25.710636396
 10
765.651247966
 20
25.710636396
  0
LWPOLYLINE
  5
25B
100
AcDbEntity
  8
0
100
AcDbPolyline
 62
7
  6
CONTINUOUS
 90
2
 70
0
 43
0.2
 10
765.651247966
 20
25.710636396
 10
765.651247966
 20
25.2699240916
  0
LWPOLYLINE
  5
25C
100
AcDbEntity
  8
0
100
AcDbPolyline
 62
7
  6
CONTINUOUS
 90
2
 70
0
 43
0.2
 10
765.651247966
 20
25.2699240916
 10
765.5306016641
 20
25.2699240916
  0
LWPOLYLINE
  5
25D
100
AcDbEntity
  8
0
100
AcDbPolyline
 62
7
  6
CONTINUOUS
 90
2
 70
0
 43
0.2
 10
765.5306016641
 20
25.2699240916
 10
765.5306016641
 20
25.0631766329
  0
LWPOLYLINE
  5
25E
100
AcDbEntity
  8
0
100
AcDbPolyline
 62
7
  6
CONTINUOUS
 90
2
 70
0
 43
0.2
 10
765.5306016641
 20
25.0631766329
 10
765.651247966
 20
25.0631766329
  0
LWPOLYLINE
  5
25F
100
AcDbEntity
  8
0
100
AcDbPolyline
 62
7
  6
CONTINUOUS
 90
2
 70
0
 43
0.2
 10
765.651247966
 20
25.0631766329
 10
765.651247966
 20
24.1173724357
  0
LWPOLYLINE
  5
260
100
AcDbEntity
  8
0
100
AcDbPolyline
 62
7
  6
CONTINUOUS
 90
2
 70
0
 43
0.2
 10
765.651247966
 20
24.1173724357
 10
765.8729126464
 20
24.1173724357
  0
LWPOLYLINE
  5
261
100
AcDbEntity
  8
0
100
AcDbPolyline
 62
7
  6
CONTINUOUS
 90
2
 70
0
 43
0.2
 10
765.8729126464
 20
24.1173724357
 10
765.8729126464
 20
25.0631766329
  0
SPLINE
  5
262
100
AcDbEntity
  8
0
100
AcDbSpline
 62
7
  6
CONTINUOUS
 70
2
 71
3
 72
20
 73
16
 74
0
 42
0.0000001
 43
0.0000001
 44
0.0000000001
 40
0.0
 40
0.0
 40
0.0
 40
0.0
 40
1.0
 40
1.0
 40
1.0
 40
2.0
 40
2.0
 40
2.0
 40
3.0
 40
3.0
 40
3.0
 40
4.0
 40
4.0
 40
4.0
 40
5.0
 40
5.0
 40
5.0
 40
5.0
 10
753.6549229536
 20
34.4782988791
 30
0.0
 10
753.6549229536
 20
34.4782988791
 30
0.0
 10
755.9712796081
 20
31.6487374568
 30
0.0
 10
755.9712796081
 20
31.6487374568
 30
0.0
 10
755.3196325547
 20
30.9965669922
 30
0.0
 10
754.5427593507
 20
30.2606507214
 30
0.0
 10
753.571569706
 20
30.2606507214
 30
0.0
 10
752.5730318216
 20
30.2606507214
 30
0.0
 10
751.629713828
 20
31.1902291687
 30
0.0
 10
751.629713828
 20
32.1894213172
 30
0.0
 10
751.629713828
 20
33.1886134658
 30
0.0
 10
752.8085669011
 20
33.8952187044
 30
0.0
 10
753.5300893615
 20
34.3950764843
 30
0.0
 10
753.5300893615
 20
34.3950764843
 30
0.0
 10
753.6549229536
 20
34.4782988791
 30
0.0
 10
753.6549229536
 20
34.4782988791
 30
0.0
  0
SPLINE
  5
263
100
AcDbEntity
  8
0
100
AcDbSpline
 62
7
  6
CONTINUOUS
 70
2
 71
3
 72
23
 73
19
 74
0
 42
0.0000001
 43
0.0000001
 44
0.0000000001
 40
0.0
 40
0.0
 40
0.0
 40
0.0
 40
1.0
 40
1.0
 40
1.0
 40
2.0
 40
2.0
 40
2.0
 40
3.0
 40
3.0
 40
3.0
 40
4.0
 40
4.0
 40
4.0
 40
5.0
 40
5.0
 40
5.0
 40
6.0
 40
6.0
 40
6.0
 40
6.0
 10
753.9323309362
 20
36.1160527988
 30
0.0
 10
753.9323309362
 20
36.1160527988
 30
0.0
 10
753.5858326636
 20
36.5593821596
 30
0.0
 10
753.5858326636
 20
36.5593821596
 30
0.0
 10
753.2800296187
 20
36.9474916296
 30
0.0
 10
752.9611412916
 20
37.335993658
 30
0.0
 10
752.9611412916
 20
37.8629379721
 30
0.0
 10
752.9611412916
 20
38.5291096887
 30
0.0
 10
753.502479416
 20
38.972831608
 30
0.0
 10
754.1263856712
 20
38.972831608
 30
0.0
 10
754.8201673332
 20
38.972831608
 30
0.0
 10
755.347373353
 20
38.5705900333
 30
0.0
 10
755.347373353
 20
37.8355897323
 30
0.0
 10
755.347373353
 20
37.0723252218
 30
0.0
 10
754.6261125983
 20
36.6422119959
 30
0.0
 10
754.0990374314
 20
36.2264925806
 30
0.0
 10
754.0990374314
 20
36.2264925806
 30
0.0
 10
753.9323309362
 20
36.1160527988
 30
0.0
 10
753.9323309362
 20
36.1160527988
 30
0.0
  0
SPLINE
  5
264
100
AcDbEntity
  8
0
100
AcDbSpline
 62
7
  6
CONTINUOUS
 70
2
 71
3
 72
50
 73
46
 74
0
 42
0.0000001
 43
0.0000001
 44
0.0000000001
 40
0.0
 40
0.0
 40
0.0
 40
0.0
 40
1.0
 40
1.0
 40
1.0
 40
2.0
 40
2.0
 40
2.0
 40
3.0
 40
3.0
 40
3.0
 40
4.0
 40
4.0
 40
4.0
 40
5.0
 40
5.0
 40
5.0
 40
6.0
 40
6.0
 40
6.0
 40
7.0
 40
7.0
 40
7.0
 40
8.0
 40
8.0
 40
8.0
 40
9.0
 40
9.0
 40
9.0
 40
10.0
 40
10.0
 40
10.0
 40
11.0
 40
11.0
 40
11.0
 40
12.0
 40
12.0
 40
12.0
 40
13.0
 40
13.0
 40
13.0
 40
14.0
 40
14.0
 40
14.0
 40
15.0
 40
15.0
 40
15.0
 40
15.0
 10
757.8859180991
 20
29.3174635807
 30
0.0
 10
757.8859180991
 20
29.3174635807
 30
0.0
 10
759.4951461037
 20
29.3174635807
 30
0.0
 10
759.4951461037
 20
29.3174635807
 30
0.0
 10
759.4951461037
 20
29.3174635807
 30
0.0
 10
757.62211881
 20
31.6346053521
 30
0.0
 10
757.62211881
 20
31.6346053521
 30
0.0
 10
757.62211881
 20
31.6346053521
 30
0.0
 10
758.8984572355
 20
33.1320850467
 30
0.0
 10
758.8984572355
 20
33.1320850467
 30
0.0
 10
758.8984572355
 20
33.1320850467
 30
0.0
 10
758.0662332878
 20
33.9930966152
 30
0.0
 10
758.0662332878
 20
33.9930966152
 30
0.0
 10
758.0662332878
 20
33.9930966152
 30
0.0
 10
756.8456381645
 20
32.5777924928
 30
0.0
 10
756.8456381645
 20
32.5777924928
 30
0.0
 10
756.8456381645
 20
32.5777924928
 30
0.0
 10
754.6677237957
 20
35.2131683272
 30
0.0
 10
754.6677237957
 20
35.2131683272
 30
0.0
 10
755.5412972351
 20
35.8512066872
 30
0.0
 10
756.5679684763
 20
36.6422119959
 30
0.0
 10
756.5679684763
 20
37.8210650691
 30
0.0
 10
756.5679684763
 20
39.1947579941
 30
0.0
 10
755.4300723364
 20
39.9992411435
 30
0.0
 10
754.1547807335
 20
39.9992411435
 30
0.0
 10
752.7813495142
 20
39.9992411435
 30
0.0
 10
751.7404153154
 20
39.1530159439
 30
0.0
 10
751.7404153154
 20
37.7103635817
 30
0.0
 10
751.7404153154
 20
36.8227888903
 30
0.0
 10
752.2957546919
 20
36.0459156862
 30
0.0
 10
752.8919201487
 20
35.4214860198
 30
0.0
 10
752.8919201487
 20
35.4214860198
 30
0.0
 10
752.2400113897
 20
34.9498924494
 30
0.0
 10
752.2400113897
 20
34.9498924494
 30
0.0
 10
751.2414735053
 20
34.2286316948
 30
0.0
 10
750.4085952934
 20
33.5073709401
 30
0.0
 10
750.4085952934
 20
32.1758126237
 30
0.0
 10
750.4085952934
 20
30.3721373257
 30
0.0
 10
751.865641466
 20
29.0955371946
 30
0.0
 10
753.6131809034
 20
29.0955371946
 30
0.0
 10
754.8480389843
 20
29.0955371946
 30
0.0
 10
755.957409209
 20
29.8037126671
 30
0.0
 10
756.7482836649
 20
30.7322442918
 30
0.0
 10
756.7482836649
 20
30.7322442918
 30
0.0
 10
757.8859180991
 20
29.3174635807
 30
0.0
 10
757.8859180991
 20
29.3174635807
 30
0.0
  0
LINE
  5
265
100
AcDbEntity
  8
0
100
AcDbLine
 62
7
  6
CONTINUOUS
 10
743.6887794741
 20
27.2913384853
 11
766.1026902018
 21
27.2913384853
  0
LINE
  5
266
100
AcDbEntity
  8
0
100
AcDbLine
 62
7
  6
CONTINUOUS
 10
766.1026902018
 20
27.2913384853
 11
766.1026902018
 21
49.705249213
  0
LINE
  5
267
100
AcDbEntity
  8
0
100
AcDbLine
 62
7
  6
CONTINUOUS
 10
766.1026902018
 20
49.705249213
 11
743.6887794741
 21
49.705249213
  0
LINE
  5
268
100
AcDbEntity
  8
0
100
AcDbLine
 62
7
  6
CONTINUOUS
 10
743.6887794741
 20
49.705249213
 11
743.6887794741
 21
27.2913384853
  0
ENDBLK
  5
269
100
AcDbEntity
  8
0
  6
BYBLOCK
 62
0
100
AcDbBlockEnd
  0
BLOCK
  5
26A
100
AcDbEntity
  8
0
100
AcDbBlockBegin
  2
_CLOSED
 70
64
 10
0.0
 20
0.0
  3
_CLOSED
  1

  0
LINE
  5
26B
100
AcDbEntity
  8
0
  6
BYBLOCK
 62
0
100
AcDbLine
 10
0.0
 20
0.0
 11
-1.0
 21
0.2
  0
LINE
  5
26C
100
AcDbEntity
  8
0
  6
BYBLOCK
 62
0
100
AcDbLine
 10
-1.0
 20
0.2
 11
-1.0
 21
-0.2
  0
LINE
  5
26D
100
AcDbEntity
  8
0
  6
BYBLOCK
 62
0
100
AcDbLine
 10
-1.0
 20
-0.2
 11
0.0
 21
0.0
  0
LINE
  5
26E
100
AcDbEntity
  8
0
  6
BYBLOCK
 62
0
100
AcDbLine
 10
-1.0
 20
0.0
 11
0.0
 21
0.0
  0
ENDBLK
  5
26F
100
AcDbEntity
  8
0
  6
BYBLOCK
 62
0
100
AcDbBlockEnd
  0
BLOCK
  5
270
100
AcDbEntity
  8
0
100
AcDbBlockBegin
 62
2
  6
CONTINUOUS
  2
*D0
 70
65
 10
0.0
 20
0.0
  3
*D0
  1

  0
MTEXT
  5
271
100
AcDbEntity
  8
0
100
AcDbMText
 62
2
  6
CONTINUOUS
  7
STANDARD
 71
2
 72
1
 10
280.4944995645
 20
391.9623991933
 30
0.0
 11
0.0
 21
1.0
 31
0.0
  1
284,7
 40
3.0
 41
10.4832713755
  0
LINE
  5
272
100
AcDbEntity
  8
0
100
AcDbLine
 62
2
  6
CONTINUOUS
 10
263.2553759774
 20
534.3123991933
 11
284.9944995645
 21
534.3123991933
  0
LINE
  5
273
100
AcDbEntity
  8
0
100
AcDbLine
 62
2
  6
CONTINUOUS
 10
263.2236340419
 20
249.6123991933
 11
284.9944995645
 21
249.6123991933
  0
LINE
  5
274
100
AcDbEntity
  8
0
100
AcDbLine
 62
2
  6
CONTINUOUS
 10
284.2444995645
 20
534.3123991933
 11
284.2444995645
 21
391.9623991933
  0
LINE
  5
275
100
AcDbEntity
  8
0
100
AcDbLine
 62
2
  6
CONTINUOUS
 10
284.2444995645
 20
249.6123991933
 11
284.2444995645
 21
391.9623991933
  0
INSERT
  5
276
100
AcDbEntity
  8
0
100
AcDbBlockReference
 62
2
  6
CONTINUOUS
  2
_CLOSED
 10
284.2444995645
 20
534.3123991933
 41
2.5
 42
2.5
 43
2.5
 50
90.0
  0
INSERT
  5
277
100
AcDbEntity
  8
0
100
AcDbBlockReference
 62
2
  6
CONTINUOUS
  2
_CLOSED
 10
284.2444995645
 20
249.6123991933
 41
2.5
 42
2.5
 43
2.5
 50
270.0
  0
ENDBLK
  5
278
100
AcDbEntity
  8
0
  6
BYBLOCK
 62
0
100
AcDbBlockEnd
  0
BLOCK
  5
279
100
AcDbEntity
  8
0
100
AcDbBlockBegin
 62
2
  6
CONTINUOUS
  2
*D1
 70
65
 10
0.0
 20
0.0
  3
*D1
  1

  0
MTEXT
  5
27A
100
AcDbEntity
  8
0
100
AcDbMText
 62
2
  6
CONTINUOUS
  7
TEXTSTYLE_2
 71
1
 72
1
 10
231.5696454814
 20
160.0947848273
 30
0.0
 11
0.8064594715
 21
0.5912893714
 31
0.0
  1
{\Fgdt;n}\Farial.ttf;125
 40
3.0
 41
10.9925650558
  0
LINE
  5
27B
100
AcDbEntity
  8
0
100
AcDbLine
 62
2
  6
CONTINUOUS
 10
221.5138671416
 20
148.0720171667
 11
242.6520388299
 21
163.5703486914
  0
INSERT
  5
27C
100
AcDbEntity
  8
0
100
AcDbBlockReference
 62
2
  6
CONTINUOUS
  2
_CLOSED
 10
221.5138671416
 20
148.0720171667
 41
2.5
 42
2.5
 43
2.5
 50
216.248559391
  0
ENDBLK
  5
27D
100
AcDbEntity
  8
0
  6
BYBLOCK
 62
0
100
AcDbBlockEnd
  0
BLOCK
  5
27E
100
AcDbEntity
  8
0
100
AcDbBlockBegin
 62
2
  6
CONTINUOUS
  2
*D2
 70
65
 10
0.0
 20
0.0
  3
*D2
  1

  0
MTEXT
  5
27F
100
AcDbEntity
  8
0
100
AcDbMText
 62
2
  6
CONTINUOUS
  7
STANDARD
 71
2
 72
1
 10
507.3245967742
 20
235.0981178685
 30
0.0
 11
1.0
 21
0.0
 31
0.0
  1
Ø110
 40
3.0
 41
10.249070632
  0
LINE
  5
280
100
AcDbEntity
  8
0
100
AcDbLine
 62
2
  6
CONTINUOUS
 10
452.3245967742
 20
238.5166959675
 11
452.3245967742
 21
230.5981178685
  0
LINE
  5
281
100
AcDbEntity
  8
0
100
AcDbLine
 62
2
  6
CONTINUOUS
 10
562.3245967742
 20
238.5166959674
 11
562.3245967742
 21
230.5981178685
  0
LINE
  5
282
100
AcDbEntity
  8
0
100
AcDbLine
 62
2
  6
CONTINUOUS
 10
452.3245967742
 20
231.3481178685
 11
507.3245967742
 21
231.3481178685
  0
LINE
  5
283
100
AcDbEntity
  8
0
100
AcDbLine
 62
2
  6
CONTINUOUS
 10
562.3245967742
 20
231.3481178685
 11
507.3245967742
 21
231.3481178685
  0
INSERT
  5
284
100
AcDbEntity
  8
0
100
AcDbBlockReference
 62
2
  6
CONTINUOUS
  2
_CLOSED
 10
452.3245967742
 20
231.3481178685
 41
2.5
 42
2.5
 43
2.5
 50
180.0
  0
INSERT
  5
285
100
AcDbEntity
  8
0
100
AcDbBlockReference
 62
2
  6
CONTINUOUS
  2
_CLOSED
 10
562.3245967742
 20
231.3481178685
 41
2.5
 42
2.5
 43
2.5
  0
ENDBLK
  5
286
100
AcDbEntity
  8
0
  6
BYBLOCK
 62
0
100
AcDbBlockEnd
  0
ENDSEC
  0
SECTION
  2
ENTITIES
  0
DIMENSION
  5
287
100
AcDbEntity
  8
0
100
AcDbDimension
 62
2
  6
CONTINUOUS
  2
*D0
 10
284.2444995645
 20
249.6123991933
 11
284.2444995645
 21
391.922574198
 70
160
  3
DIMSTYLE_1
100
AcDbAlignedDimension
 13
262.5053759774
 23
534.3123991933
 14
262.4736340419
 24
249.6123991933
 50
270.0
100
AcDbRotatedDimension
  0
DIMENSION
  5
288
100
AcDbEntity
  8
0
100
AcDbDimension
 62
2
  6
CONTINUOUS
  2
*D1
 10
221.5138671416
 20
148.0720171667
 11
236.8891086413
 21
162.1349890611
 70
163
  1
%%c<>
  3
DIMSTYLE_2
100
AcDbDiametricDimension
 15
120.7064332003
 25
74.1608457366
  0
DIMENSION
  5
289
100
AcDbEntity
  8
0
100
AcDbDimension
 62
2
  6
CONTINUOUS
  2
*D2
 10
562.3245967742
 20
231.3481178685
 11
507.3245967742
 21
231.3481178685
 70
160
  1
Ø<>
  3
DIMSTYLE_3
100
AcDbAlignedDimension
 13
452.3245967742
 23
239.2666959675
 14
562.3245967742
 24
239.2666959674
100
AcDbRotatedDimension
  0
LINE
  5
28A
100
AcDbEntity
  8
0
100
AcDbLine
 62
2
  6
CONTINUOUS
 10
741.0696223667
 20
50.081561713
 11
831.0696223667
 21
50.081561713
  0
LINE
  5
28B
100
AcDbEntity
  8
0
100
AcDbLine
 62
2
  6
CONTINUOUS
 10
741.0696223667
 20
50.081561713
 11
741.0696223667
 21
10.081561713
  0
LINE
  5
28C
100
AcDbEntity
  8
0
100
AcDbLine
 62
2
  6
CONTINUOUS
 10
771.0696223667
 20
44.081561713
 11
831.0696223667
 21
44.081561713
  0
LINE
  5
28D
100
AcDbEntity
  8
0
100
AcDbLine
 62
2
  6
CONTINUOUS
 10
771.0696223667
 20
38.081561713
 11
831.0696223667
 21
38.081561713
  0
LINE
  5
28E
100
AcDbEntity
  8
0
100
AcDbLine
 62
2
  6
CONTINUOUS
 10
771.0696223667
 20
28.081561713
 11
831.0696223667
 21
28.081561713
  0
LINE
  5
28F
100
AcDbEntity
  8
0
100
AcDbLine
 62
2
  6
CONTINUOUS
 10
741.0696223667
 20
23.081561713
 11
831.0696223667
 21
23.081561713
  0
LINE
  5
290
100
AcDbEntity
  8
0
100
AcDbLine
 62
2
  6
CONTINUOUS
 10
741.0696223667
 20
10.081561713
 11
831.0696223667
 21
10.081561713
  0
LINE
  5
291
100
AcDbEntity
  8
0
100
AcDbLine
 62
2
  6
CONTINUOUS
 10
771.0696223667
 20
50.081561713
 11
771.0696223667
 21
23.081561713
  0
LINE
  5
292
100
AcDbEntity
  8
0
100
AcDbLine
 62
2
  6
CONTINUOUS
 10
811.0696223667
 20
50.081561713
 11
811.0696223667
 21
38.081561713
  0
LINE
  5
293
100
AcDbEntity
  8
0
100
AcDbLine
 62
2
  6
CONTINUOUS
 10
831.0696223667
 20
50.081561713
 11
831.0696223667
 21
10.081561713
  0
INSERT
  5
294
100
AcDbEntity
  8
0
100
AcDbBlockReference
 62
2
  6
CONTINUOUS
  2
LOGO2_BL0
 10
754.8956694115
 20
36.581561713
  0
MTEXT
  5
295
100
AcDbEntity
  8
9_SOLID
100
AcDbMText
 62
2
  6
CONTINUOUS
  7
TEXTSTYLE_3
 71
1
 72
1
 10
772.5571223667
 20
48.581561713
 30
0.0
 11
1.0
 21
0.0
 31
0.0
  1
3X0_C_010
 40
3.0
 41
31.9285714286
  0
MTEXT
  5
296
100
AcDbEntity
  8
0
100
AcDbMText
 62
2
  6
CONTINUOUS
  7
TEXTSTYLE_3
 71
1
 72
1
 10
812.5571223667
 20
48.331561713
 30
0.0
 11
1.0
 21
0.0
 31
0.0
  1
Rev:00
 40
3.5
 41
22.75
  0
MTEXT
  5
297
100
AcDbEntity
  8
9_SOLID
100
AcDbMText
 62
2
  6
CONTINUOUS
  7
TEXTSTYLE_3
 71
1
 72
1
 10
772.5571223667
 20
42.331561713
 30
0.0
 11
1.0
 21
0.0
 31
0.0
  1
Scale:1:1
 40
3.5
 41
28.375
  0
MTEXT
  5
298
100
AcDbEntity
  8
9_SOLID
100
AcDbMText
 62
2
  6
CONTINUOUS
  7
TEXTSTYLE_3
 71
1
 72
1
 10
812.5571223667
 20
42.831561713
 30
0.0
 11
1.0
 21
0.0
 31
0.0
  1
A1
 40
3.5
 41
8.5
  0
MTEXT
  5
299
100
AcDbEntity
  8
0
100
AcDbMText
 62
2
  6
CONTINUOUS
  7
TEXTSTYLE_3
 71
1
 72
1
 10
772.5571223667
 20
34.831561713
 30
0.0
 11
1.0
 21
0.0
 31
0.0
  1
PLIN 5.0
 40
3.5
 41
31.0
  0
MTEXT
  5
29A
100
AcDbEntity
  8
0
100
AcDbMText
 62
2
  6
CONTINUOUS
  7
TEXTSTYLE_3
 71
1
 72
1
 10
772.5571223667
 20
26.831561713
 30
0.0
 11
1.0
 21
0.0
 31
0.0
  1
DATE:10/05/2018
 40
2.5
 41
41.9642857143
  0
MTEXT
  5
29B
100
AcDbEntity
  8
9_SOLID
100
AcDbMText
 62
2
  6
CONTINUOUS
  7
TEXTSTYLE_3
 71
1
 72
1
 10
742.5571223667
 20
22.769061713
 30
0.0
 11
1.0
 21
0.0
 31
0.0
  1
Any integral or partial reproductions are prohibited \Pwithout prior authorisation of L {\Ftxt.shx;\W0.190476;\H2.250000; }& L Luce & Light s.r.l., \Pin accordance with the law in force. \PAll rights reserved.
 40
2.25
 41
134.5982142857
  0
LINE
  5
29C
100
AcDbEntity
  8
0
100
AcDbLine
 62
7
  6
CONTINUOUS
 10
0.0
 20
0.0
 11
0.0
 21
594.0
  0
LINE
  5
29D
100
AcDbEntity
  8
0
100
AcDbLine
 62
7
  6
CONTINUOUS
 10
0.0
 20
0.0
 11
841.0
 21
0.0
  0
LINE
  5
29E
100
AcDbEntity
  8
0
100
AcDbLine
 62
7
  6
CONTINUOUS
 10
0.0
 20
594.0
 11
841.0
 21
594.0
  0
LINE
  5
29F
100
AcDbEntity
  8
0
100
AcDbLine
 62
7
  6
CONTINUOUS
 10
841.0
 20
0.0
 11
841.0
 21
594.0
  0
LINE
  5
2A0
100
AcDbEntity
  8
7_ALL_FEATURES
100
AcDbLine
 62
7
  6
CONTINUOUS
 10
108.9101501709
 20
534.6123991933
 11
108.6101501709
 21
534.3123991933
  0
LINE
  5
2A1
100
AcDbEntity
  8
3_ALL_AXES
100
AcDbLine
 62
3
  6
CONTINUOUS
 10
107.1101501709
 20
249.6123991933
 11
217.1101501709
 21
249.6123991933
  0
LINE
  5
2A2
100
AcDbEntity
  8
7_ALL_FEATURES
100
AcDbLine
 62
3
  6
CONTINUOUS
 10
115.050716669
 20
253.6123991933
 11
162.1101501709
 21
253.6123991933
  0
LINE
  5
2A3
100
AcDbEntity
  8
3_ALL_AXES
100
AcDbLine
 62
7
  6
CONTINUOUS
 10
107.1101501709
 20
253.6123991933
 11
162.1101501709
 21
253.6123991933
  0
LINE
  5
2A4
100
AcDbEntity
  8
3_ALL_AXES
100
AcDbLine
 62
3
  6
CONTINUOUS
 10
162.1101501709
 20
253.6123991933
 11
217.1101501709
 21
253.6123991933
  0
LINE
  5
2A5
100
AcDbEntity
  8
7_ALL_FEATURES
100
AcDbLine
 62
7
  6
CONTINUOUS
 10
114.9238491588
 20
254.8123991933
 11
162.1101501709
 21
254.8123991933
  0
LINE
  5
2A6
100
AcDbEntity
  8
3_ALL_AXES
100
AcDbLine
 62
7
  6
CONTINUOUS
 10
162.1101501709
 20
254.8123991933
 11
217.1101501709
 21
254.8123991933
  0
LINE
  5
2A7
100
AcDbEntity
  8
3_ALL_AXES
100
AcDbLine
 62
7
  6
CONTINUOUS
 10
107.1101501709
 20
249.6123991933
 11
107.1101501709
 21
253.6123991933
  0
LINE
  5
2A8
100
AcDbEntity
  8
3_ALL_AXES
100
AcDbLine
 62
7
  6
CONTINUOUS
 10
108.6101501709
 20
509.9123991933
 11
108.6101501709
 21
534.3123991933
  0
LINE
  5
2A9
100
AcDbEntity
  8
7_ALL_FEATURES
100
AcDbLine
 62
7
  6
CONTINUOUS
 10
112.1101501709
 20
253.6123991933
 11
112.1101501709
 21
509.6123991933
  0
LINE
  5
2AA
100
AcDbEntity
  8
7_ALL_FEATURES
100
AcDbLine
 62
7
  6
CONTINUOUS
 10
114.9237684072
 20
254.8123991933
 11
114.9237684072
 21
253.6123991933
  0
LINE
  5
2AB
100
AcDbEntity
  8
7_ALL_FEATURES
100
AcDbLine
 62
9
  6
CONTINUOUS
 10
115.1428418157
 20
254.8123991933
 11
115.1428418157
 21
253.6123991933
  0
LINE
  5
2AC
100
AcDbEntity
  8
7_ALL_FEATURES
100
AcDbLine
 62
7
  6
CONTINUOUS
 10
233.3101501709
 20
509.6123991933
 11
233.6101501709
 21
509.9123991933
  0
LINE
  5
2AD
100
AcDbEntity
  8
3_ALL_AXES
100
AcDbLine
 62
9
  6
CONTINUOUS
 10
162.1101501709
 20
249.6123991933
 11
162.1101501709
 21
254.8123991933
  0
LINE
  5
2AE
100
AcDbEntity
  8
7_ALL_FEATURES
100
AcDbLine
 62
7
  6
CONTINUOUS
 10
162.1101501709
 20
254.8123991933
 11
162.1101501709
 21
509.6123991933
  0
LINE
  5
2AF
100
AcDbEntity
  8
7_ALL_FEATURES
100
AcDbLine
 62
7
  6
CONTINUOUS
 10
108.9101501709
 20
509.6123991933
 11
108.6101501709
 21
509.9123991933
  0
LINE
  5
2B0
100
AcDbEntity
  8
3_ALL_AXES
100
AcDbLine
 62
7
  6
CONTINUOUS
 10
217.1101501709
 20
249.6123991933
 11
217.1101501709
 21
254.8123991933
  0
LINE
  5
2B1
100
AcDbEntity
  8
3_ALL_AXES
100
AcDbLine
 62
7
  6
CONTINUOUS
 10
233.6101501709
 20
509.9123991933
 11
233.6101501709
 21
534.3123991933
  0
LINE
  5
2B2
100
AcDbEntity
  8
7_ALL_FEATURES
100
AcDbLine
 62
7
  6
CONTINUOUS
 10
233.3096434065
 20
509.6123991933
 11
108.9106569353
 21
509.6123991933
  0
LINE
  5
2B3
100
AcDbEntity
  8
7_ALL_FEATURES
100
AcDbLine
 62
7
  6
CONTINUOUS
 10
233.6101501709
 20
509.9123991933
 11
108.6101501709
 21
509.9123991933
  0
LINE
  5
2B4
100
AcDbEntity
  8
7_ALL_FEATURES
100
AcDbLine
 62
7
  6
CONTINUOUS
 10
108.6101501709
 20
534.3123991933
 11
233.6101501709
 21
534.3123991933
  0
LINE
  5
2B5
100
AcDbEntity
  8
7_ALL_FEATURES
100
AcDbLine
 62
7
  6
CONTINUOUS
 10
108.9106569353
 20
534.6123991933
 11
233.3096434065
 21
534.6123991933
  0
LINE
  5
2B6
100
AcDbEntity
  8
7_ALL_FEATURES
100
AcDbLine
 62
7
  6
CONTINUOUS
 10
233.3101501709
 20
534.6123991933
 11
233.6101501709
 21
534.3123991933
  0
LINE
  5
2B7
100
AcDbEntity
  8
7_ALL_FEATURES
100
AcDbLine
 62
7
  6
CONTINUOUS
 10
445.1245967745
 20
534.6123991936
 11
444.8245967745
 21
534.3123991936
  0
LINE
  5
2B8
100
AcDbEntity
  8
3_ALL_AXES
100
AcDbLine
 62
3
  6
CONTINUOUS
 10
452.3245967742
 20
249.6123991933
 11
562.3245967742
 21
249.6123991933
  0
LINE
  5
2B9
100
AcDbEntity
  8
7_ALL_FEATURES
100
AcDbLine
 62
3
  6
CONTINUOUS
 10
452.3245967742
 20
253.6123991933
 11
478.8866501493
 21
253.6123991933
  0
LINE
  5
2BA
100
AcDbEntity
  8
7_ALL_FEATURES
100
AcDbLine
 62
3
  6
CONTINUOUS
 10
535.7625433991
 20
253.6123991933
 11
562.3245967742
 21
253.6123991933
  0
LINE
  5
2BB
100
AcDbEntity
  8
3_ALL_AXES
100
AcDbLine
 62
7
  6
CONTINUOUS
 10
452.3245967742
 20
253.6123991933
 11
562.3245967742
 21
253.6123991933
  0
LINE
  5
2BC
100
AcDbEntity
  8
7_ALL_FEATURES
100
AcDbLine
 62
7
  6
CONTINUOUS
 10
452.3245967742
 20
254.8123991933
 11
482.3245967742
 21
254.8123991933
  0
LINE
  5
2BD
100
AcDbEntity
  8
7_ALL_FEATURES
100
AcDbLine
 62
7
  6
CONTINUOUS
 10
532.3245967742
 20
254.8123991933
 11
562.3245967742
 21
254.8123991933
  0
LINE
  5
2BE
100
AcDbEntity
  8
7_ALL_FEATURES
100
AcDbLine
 62
7
  6
CONTINUOUS
 10
444.8245967742
 20
509.9123991933
 11
444.8245967742
 21
534.3123991933
  0
LINE
  5
2BF
100
AcDbEntity
  8
3_ALL_AXES
100
AcDbLine
 62
7
  6
CONTINUOUS
 10
452.3245967742
 20
249.6123991933
 11
452.3245967742
 21
254.8123991933
  0
LINE
  5
2C0
100
AcDbEntity
  8
7_ALL_FEATURES
100
AcDbLine
 62
7
  6
CONTINUOUS
 10
569.5245967737
 20
509.6123991927
 11
569.8245967736
 21
509.9123991927
  0
LINE
  5
2C1
100
AcDbEntity
  8
7_ALL_FEATURES
100
AcDbLine
 62
9
  6
CONTINUOUS
 10
478.7051637633
 20
254.8123991933
 11
478.7051637633
 21
253.6123991933
  0
LINE
  5
2C2
100
AcDbEntity
  8
7_ALL_FEATURES
100
AcDbLine
 62
9
  6
CONTINUOUS
 10
480.984779995
 20
254.8123991933
 11
480.984779995
 21
253.6123991933
  0
LINE
  5
2C3
100
AcDbEntity
  8
7_ALL_FEATURES
100
AcDbLine
 62
9
  6
CONTINUOUS
 10
481.7401916025
 20
253.6123991933
 11
481.7401916025
 21
254.8123991933
  0
LINE
  5
2C4
100
AcDbEntity
  8
3_ALL_AXES
100
AcDbLine
 62
7
  6
CONTINUOUS
 10
482.3245967742
 20
253.6123991933
 11
482.3245967742
 21
509.6123991933
  0
LINE
  5
2C5
100
AcDbEntity
  8
3_ALL_AXES
100
AcDbLine
 62
7
  6
CONTINUOUS
 10
532.3245967742
 20
253.6123991933
 11
532.3245967742
 21
509.6123991933
  0
LINE
  5
2C6
100
AcDbEntity
  8
7_ALL_FEATURES
100
AcDbLine
 62
9
  6
CONTINUOUS
 10
532.9090019459
 20
253.6123991933
 11
532.9090019459
 21
254.8123991933
  0
LINE
  5
2C7
100
AcDbEntity
  8
7_ALL_FEATURES
100
AcDbLine
 62
9
  6
CONTINUOUS
 10
533.6644135534
 20
254.8123991933
 11
533.6644135534
 21
253.6123991933
  0
LINE
  5
2C8
100
AcDbEntity
  8
7_ALL_FEATURES
100
AcDbLine
 62
9
  6
CONTINUOUS
 10
535.9440297851
 20
254.8123991933
 11
535.9440297851
 21
253.6123991933
  0
LINE
  5
2C9
100
AcDbEntity
  8
7_ALL_FEATURES
100
AcDbLine
 62
7
  6
CONTINUOUS
 10
445.1245967747
 20
509.6123991927
 11
444.8245967747
 21
509.9123991927
  0
LINE
  5
2CA
100
AcDbEntity
  8
3_ALL_AXES
100
AcDbLine
 62
7
  6
CONTINUOUS
 10
562.3245967742
 20
249.6123991933
 11
562.3245967742
 21
254.8123991933
  0
LINE
  5
2CB
100
AcDbEntity
  8
7_ALL_FEATURES
100
AcDbLine
 62
7
  6
CONTINUOUS
 10
569.8245967742
 20
509.9123991933
 11
569.8245967742
 21
534.3123991933
  0
LINE
  5
2CC
100
AcDbEntity
  8
7_ALL_FEATURES
100
AcDbLine
 62
7
  6
CONTINUOUS
 10
569.5245967742
 20
509.6123991933
 11
445.1245967742
 21
509.6123991933
  0
LINE
  5
2CD
100
AcDbEntity
  8
7_ALL_FEATURES
100
AcDbLine
 62
7
  6
CONTINUOUS
 10
569.8245967742
 20
509.9123991933
 11
444.8245967742
 21
509.9123991933
  0
LINE
  5
2CE
100
AcDbEntity
  8
7_ALL_FEATURES
100
AcDbLine
 62
7
  6
CONTINUOUS
 10
444.8245967742
 20
534.3123991933
 11
569.8245967742
 21
534.3123991933
  0
LINE
  5
2CF
100
AcDbEntity
  8
7_ALL_FEATURES
100
AcDbLine
 62
7
  6
CONTINUOUS
 10
445.1245967742
 20
534.6123991933
 11
569.5245967742
 21
534.6123991933
  0
LINE
  5
2D0
100
AcDbEntity
  8
7_ALL_FEATURES
100
AcDbLine
 62
7
  6
CONTINUOUS
 10
569.5245967739
 20
534.6123991936
 11
569.8245967739
 21
534.3123991936
  0
LINE
  5
2D1
100
AcDbEntity
  8
7_ALL_FEATURES
100
AcDbLine
 62
7
  6
CONTINUOUS
 10
699.8069525589
 20
110.9566214185
 11
683.9765501872
 21
118.3376659341
  0
LINE
  5
2D2
100
AcDbEntity
  8
3_ALL_AXES
100
AcDbLine
 62
7
  6
CONTINUOUS
 10
678.8077411368
 20
329.2202140245
 11
678.8077411368
 21
350.3512338768
  0
LINE
  5
2D3
100
AcDbEntity
  8
3_ALL_AXES
100
AcDbLine
 62
7
  6
CONTINUOUS
 10
679.9437801061
 20
106.9757819348
 11
679.9437801061
 21
110.4398835499
  0
LINE
  5
2D4
100
AcDbEntity
  8
3_ALL_AXES
100
AcDbLine
 62
7
  6
CONTINUOUS
 10
692.2661105765
 20
117.7608297016
 11
692.2661105765
 21
309.870658498
  0
LINE
  5
2D5
100
AcDbEntity
  8
3_ALL_AXES
100
AcDbLine
 62
9
  6
CONTINUOUS
 10
696.0529071409
 20
87.5303454521
 11
696.0529071409
 21
92.0336775518
  0
LINE
  5
2D6
100
AcDbEntity
  8
3_ALL_AXES
100
AcDbLine
 62
7
  6
CONTINUOUS
 10
742.2661105765
 20
117.840702358
 11
742.2661105765
 21
297.8984319178
  0
LINE
  5
2D7
100
AcDbEntity
  8
3_ALL_AXES
100
AcDbLine
 62
7
  6
CONTINUOUS
 10
789.9437801061
 20
106.9757819348
 11
789.9437801061
 21
110.4398835499
  0
LINE
  5
2D8
100
AcDbEntity
  8
3_ALL_AXES
100
AcDbLine
 62
7
  6
CONTINUOUS
 10
803.8077411368
 20
329.2202140245
 11
803.8077411368
 21
350.3512338768
  0
CIRCLE
  5
2D9
100
AcDbEntity
  8
7_ALL_FEATURES
100
AcDbCircle
 62
7
  6
CONTINUOUS
 10
171.1101501709
 20
111.1164314516
 40
62.5
  0
CIRCLE
  5
2DA
100
AcDbEntity
  8
7_ALL_FEATURES
100
AcDbCircle
 62
7
  6
CONTINUOUS
 10
171.1101501709
 20
111.1164314516
 40
62.2
  0
ARC
  5
2DB
100
AcDbEntity
  8
7_ALL_FEATURES
100
AcDbCircle
 62
7
  6
CONTINUOUS
 10
162.1101501709
 20
111.1164314516
 40
55.0
100
AcDbArc
 50
211.3559549895
 51
216.2599459571
  0
ARC
  5
2DC
100
AcDbEntity
  8
7_ALL_FEATURES
100
AcDbCircle
 62
7
  6
CONTINUOUS
 10
162.1101501709
 20
111.1164314516
 40
55.0
100
AcDbArc
 50
143.7400539504
 51
148.6440450105
  0
ARC
  5
2DD
100
AcDbEntity
  8
3_ALL_AXES
100
AcDbCircle
 62
7
  6
CONTINUOUS
 10
162.1101501709
 20
111.1164314516
 40
55.0
100
AcDbArc
 50
148.8539932176
 51
211.1460067824
  0
ARC
  5
2DE
100
AcDbEntity
  8
7_ALL_FEATURES
100
AcDbCircle
 62
7
  6
CONTINUOUS
 10
116.4237684072
 20
138.9553344713
 40
1.5
100
AcDbArc
 50
148.6440450105
 51
195.1762158835
  0
ARC
  5
2DF
100
AcDbEntity
  8
7_ALL_FEATURES
100
AcDbCircle
 62
7
  6
CONTINUOUS
 10
116.4237684072
 20
83.2775284319
 40
1.5
100
AcDbArc
 50
164.8237838621
 51
211.3559549895
  0
ARC
  5
2E0
100
AcDbEntity
  8
7_ALL_FEATURES
100
AcDbCircle
 62
7
  6
CONTINUOUS
 10
724.7810923094
 20
362.458614991
 40
61.8668583185
100
AcDbArc
 50
243.4351301822
 51
243.6628793741
  0
ARC
  5
2E1
100
AcDbEntity
  8
7_ALL_FEATURES
100
AcDbCircle
 62
7
  6
CONTINUOUS
 10
724.6018690532
 20
361.5221949638
 40
60.9917900484
100
AcDbArc
 50
243.1807022428
 51
243.4351462941
  0
ARC
  5
2E2
100
AcDbEntity
  8
7_ALL_FEATURES
100
AcDbCircle
 62
7
  6
CONTINUOUS
 10
766.6374727098
 20
347.5272406011
 40
44.5176477495
100
AcDbArc
 50
304.8898249936
 51
305.2628163312
  0
ARC
  5
2E3
100
AcDbEntity
  8
7_ALL_FEATURES
100
AcDbCircle
 62
7
  6
CONTINUOUS
 10
715.9623744609
 20
347.5031994568
 40
44.4890248652
100
AcDbArc
 50
234.7357192281
 51
235.1185974624
  0
ARC
  5
2E4
100
AcDbEntity
  8
7_ALL_FEATURES
100
AcDbCircle
 62
7
  6
CONTINUOUS
 10
715.7316081028
 20
332.9122509899
 40
43.666633208
100
AcDbArc
 50
125.2627586643
 51
125.660426474
  0
ARC
  5
2E5
100
AcDbEntity
  8
7_ALL_FEATURES
100
AcDbCircle
 62
7
  6
CONTINUOUS
 10
766.8967793848
 20
332.932397044
 40
43.6427665915
100
AcDbArc
 50
54.3288727785
 51
54.7357747053
  0
ARC
  5
2E6
100
AcDbEntity
  8
3_ALL_AXES
100
AcDbCircle
 62
7
  6
CONTINUOUS
 10
712.8542766166
 20
126.8237282458
 40
39.5148550031
100
AcDbArc
 50
234.135653178
 51
236.6724660351
  0
ARC
  5
2E7
100
AcDbEntity
  8
3_ALL_AXES
100
AcDbCircle
 62
7
  6
CONTINUOUS
 10
706.2742140124
 20
118.6697178733
 40
29.0281746491
100
AcDbArc
 50
224.7890692093
 51
228.4981576911
  0
ARC
  5
2E8
100
AcDbEntity
  8
3_ALL_AXES
100
AcDbCircle
 62
7
  6
CONTINUOUS
 10
700.543089824
 20
113.6036157435
 40
21.369982863
100
AcDbArc
 50
213.6653138231
 51
218.4813144822
  0
ARC
  5
2E9
100
AcDbEntity
  8
3_ALL_AXES
100
AcDbCircle
 62
7
  6
CONTINUOUS
 10
696.2879187943
 20
111.1517140671
 40
16.4508138546
100
AcDbArc
 50
200.4024478402
 51
206.2413063885
  0
ARC
  5
2EA
100
AcDbEntity
  8
3_ALL_AXES
100
AcDbCircle
 62
7
  6
CONTINUOUS
 10
693.9199022203
 20
110.4539091035
 40
13.9765237012
100
AcDbArc
 50
183.2159506788
 51
191.8401138472
  0
ARC
  5
2EB
100
AcDbEntity
  8
3_ALL_AXES
100
AcDbCircle
 62
7
  6
CONTINUOUS
 10
776.151283418
 20
111.479787603
 40
13.7924378723
100
AcDbArc
 50
355.6950416919
 51
359.9972018989
  0
ARC
  5
2EC
100
AcDbEntity
  8
3_ALL_AXES
100
AcDbCircle
 62
7
  6
CONTINUOUS
 10
693.7224879309
 20
110.4401556069
 40
13.7786489952
100
AcDbArc
 50
180.0011312951
 51
183.2049020621
  0
ARC
  5
2ED
100
AcDbEntity
  8
7_ALL_FEATURES
100
AcDbCircle
 62
7
  6
CONTINUOUS
 10
693.7182816156
 20
111.4798327951
 40
13.7745058581
100
AcDbArc
 50
180.0029897554
 51
184.2684724358
  0
ARC
  5
2EE
100
AcDbEntity
  8
7_ALL_FEATURES
100
AcDbCircle
 62
3
  6
CONTINUOUS
 10
736.2290801596
 20
119.2504875929
 40
6.6388832651
100
AcDbArc
 50
9.1646266096
 51
11.772453543
  0
ARC
  5
2EF
100
AcDbEntity
  8
7_ALL_FEATURES
100
AcDbCircle
 62
3
  6
CONTINUOUS
 10
736.3661905285
 20
119.2719638516
 40
6.5001026101
100
AcDbArc
 50
3.3309293683
 51
9.1702299975
  0
ARC
  5
2F0
100
AcDbEntity
  8
7_ALL_FEATURES
100
AcDbCircle
 62
7
  6
CONTINUOUS
 10
736.3914432994
 20
120.3211667113
 40
6.4746274174
100
AcDbArc
 50
350.1957358786
 51
359.9715235174
  0
SPLINE
  5
2F1
100
AcDbEntity
  8
7_ALL_FEATURES
100
AcDbSpline
 62
7
  6
CONTINUOUS
 70
0
 71
3
 72
12
 73
8
 74
0
 42
0.0000001
 43
0.0000001
 44
0.0000000001
 40
0.0
 40
0.0
 40
0.0
 40
0.0
 40
0.2642206875
 40
0.5534439935
 40
0.6898911484
 40
0.8121509743
 40
1.0
 40
1.0
 40
1.0
 40
1.0
 10
683.9765501872
 20
118.3376659341
 30
0.0
 10
683.7634645793
 20
118.4370187062
 30
0.0
 10
683.2747556755
 20
118.5523747628
 30
0.0
 10
682.6558116095
 20
118.5446331403
 30
0.0
 10
682.1762858243
 20
118.4399773532
 30
0.0
 10
681.8088977674
 20
118.2968317386
 30
0.0
 10
681.5688835264
 20
118.1164362964
 30
0.0
 10
681.4958827183
 20
117.9660675726
 30
0.0
  0
SPLINE
  5
2F2
100
AcDbEntity
  8
7_ALL_FEATURES
100
AcDbSpline
 62
7
  6
CONTINUOUS
 70
0
 71
3
 72
18
 73
14
 74
0
 42
0.0000001
 43
0.0000001
 44
0.0000000001
 40
0.0
 40
0.0
 40
0.0
 40
0.0
 40
0.1295314205
 40
0.2727217791
 40
0.4218085573
 40
0.5681735062
 40
0.7035827093
 40
0.765109557
 40
0.8216887595
 40
0.8730677894
 40
0.9193806742
 40
0.9612713454
 40
1.0
 40
1.0
 40
1.0
 40
1.0
 10
699.8069525589
 20
110.9566214185
 30
0.0
 10
701.6764707043
 20
110.0849444813
 30
0.0
 10
705.8207190885
 20
108.6888299419
 30
0.0
 10
712.4672427036
 20
107.58097634
 30
0.0
 10
719.4735202646
 20
107.4037028731
 30
0.0
 10
726.3126585732
 20
108.1722643846
 30
0.0
 10
731.6221142205
 20
109.5940227686
 30
0.0
 10
735.33629316
 20
111.1928312769
 30
0.0
 10
737.6878368823
 20
112.5309413424
 30
0.0
 10
739.6509469777
 20
114.022227202
 30
0.0
 10
741.1885511601
 20
115.6443434308
 30
0.0
 10
742.2670346476
 20
117.3724316906
 30
0.0
 10
742.6666893718
 20
118.6108805697
 30
0.0
 10
742.7715102613
 20
119.2186487948
 30
0.0
  0
SPLINE
  5
2F3
100
AcDbEntity
  8
7_ALL_FEATURES
100
AcDbSpline
 62
7
  6
CONTINUOUS
 70
0
 71
3
 72
11
 73
7
 74
0
 42
0.0000001
 43
0.0000001
 44
0.0000000001
 40
0.0
 40
0.0
 40
0.0
 40
0.0
 40
0.2266787593
 40
0.4716546968
 40
0.7310063549
 40
1.0
 40
1.0
 40
1.0
 40
1.0
 10
773.8346530714
 20
130.9245505171
 30
0.0
 10
771.6242913452
 20
132.0297313802
 30
0.0
 10
766.8674517684
 20
134.0202156405
 30
0.0
 10
759.2153646705
 20
136.2903081964
 30
0.0
 10
750.9316541587
 20
137.9173688337
 30
0.0
 10
745.197150081
 20
138.5373346714
 30
0.0
 10
742.2711719858
 20
138.7339690813
 30
0.0
  0
SPLINE
  5
2F4
100
AcDbEntity
  8
7_ALL_FEATURES
100
AcDbSpline
 62
7
  6
CONTINUOUS
 70
0
 71
3
 72
9
 73
5
 74
0
 42
0.0000001
 43
0.0000001
 44
0.0000000001
 40
0.0
 40
0.0
 40
0.0
 40
0.0
 40
0.5099759105
 40
1.0
 40
1.0
 40
1.0
 40
1.0
 10
681.4958827183
 20
117.9660675726
 30
0.0
 10
680.9974622809
 20
116.9394098265
 30
0.0
 10
680.2167282187
 20
114.8210905162
 30
0.0
 10
679.9437780364
 20
112.5757137745
 30
0.0
 10
679.9437757762
 20
111.4791140265
 30
0.0
  0
SPLINE
  5
2F5
100
AcDbEntity
  8
3_ALL_AXES
100
AcDbSpline
 62
7
  6
CONTINUOUS
 70
0
 71
3
 72
13
 73
9
 74
0
 42
0.0000001
 43
0.0000001
 44
0.0000000001
 40
0.0
 40
0.0
 40
0.0
 40
0.0
 40
0.1021494583
 40
0.2071677797
 40
0.3175968944
 40
0.4354412611
 40
0.6979152176
 40
1.0
 40
1.0
 40
1.0
 40
1.0
 10
789.9437212739
 20
111.4791140344
 30
0.0
 10
789.9437215135
 20
112.3819294556
 30
0.0
 10
789.7609192596
 20
114.2177305193
 30
0.0
 10
788.947637755
 20
116.9203296795
 30
0.0
 10
787.608868554
 20
119.5599424919
 30
0.0
 10
785.0570810012
 20
123.085664465
 30
0.0
 10
780.5363668906
 20
127.172130482
 30
0.0
 10
776.2226663776
 20
129.7305438639
 30
0.0
 10
773.8346530714
 20
130.9245505171
 30
0.0
  0
SPLINE
  5
2F6
100
AcDbEntity
  8
3_ALL_AXES
100
AcDbSpline
 62
7
  6
CONTINUOUS
 70
0
 71
3
 72
15
 73
11
 74
0
 42
0.0000001
 43
0.0000001
 44
0.0000000001
 40
0.0
 40
0.0
 40
0.0
 40
0.0
 40
0.1112730916
 40
0.2323801188
 40
0.3607688545
 40
0.4933760605
 40
0.6268810911
 40
0.7579087124
 40
0.8832341882
 40
1.0
 40
1.0
 40
1.0
 40
1.0
 10
696.0529071409
 20
92.0336775518
 30
0.0
 10
698.5643493067
 20
90.7779564689
 30
0.0
 10
704.0129285152
 20
88.5549488183
 30
0.0
 10
712.8070915165
 20
86.1378796475
 30
0.0
 10
722.3344946845
 20
84.5541531197
 30
0.0
 10
732.2791415849
 20
83.8580134275
 30
0.0
 10
742.3121839927
 20
84.0724175512
 30
0.0
 10
752.1013983874
 20
85.190381425
 30
0.0
 10
761.32103154
 20
87.1736566509
 30
0.0
 10
767.1332778714
 20
89.1112716144
 30
0.0
 10
769.8587347687
 20
90.2309316774
 30
0.0
  0
SPLINE
  5
2F7
100
AcDbEntity
  8
3_ALL_AXES
100
AcDbSpline
 62
7
  6
CONTINUOUS
 70
0
 71
3
 72
14
 73
10
 74
0
 42
0.0000001
 43
0.0000001
 44
0.0000000001
 40
0.0
 40
0.0
 40
0.0
 40
0.0
 40
0.3057555205
 40
0.4436766706
 40
0.5713905967
 40
0.6894016219
 40
0.7988339956
 40
0.9015215763
 40
1.0
 40
1.0
 40
1.0
 40
1.0
 10
769.8587347687
 20
90.2309316774
 30
0.0
 10
772.6732198377
 20
91.3871658973
 30
0.0
 10
776.6580906048
 20
93.3564037679
 30
0.0
 10
781.3321857124
 20
96.6099752264
 30
0.0
 10
784.2073994291
 20
99.1364935466
 30
0.0
 10
786.5400547808
 20
101.8075122857
 30
0.0
 10
788.3015154245
 20
104.5990653774
 30
0.0
 10
789.46512874
 20
107.4817316618
 30
0.0
 10
789.8312650537
 20
109.4672120949
 30
0.0
 10
789.9048078747
 20
110.4444579541
 30
0.0
  0
SPLINE
  5
2F8
100
AcDbEntity
  8
7_ALL_FEATURES
100
AcDbSpline
 62
7
  6
CONTINUOUS
 70
0
 71
3
 72
13
 73
9
 74
0
 42
0.0000001
 43
0.0000001
 44
0.0000000001
 40
0.0
 40
0.0
 40
0.0
 40
0.0
 40
0.1018919659
 40
0.2073364719
 40
0.3184827947
 40
0.4369928101
 40
0.6997774314
 40
1.0
 40
1.0
 40
1.0
 40
1.0
 10
679.9819829262
 20
110.4545962605
 30
0.0
 10
680.0464098344
 20
109.5910624251
 30
0.0
 10
680.3445645071
 20
107.8424370786
 30
0.0
 10
681.273316844
 20
105.2867003018
 30
0.0
 10
682.6738388571
 20
102.7937800238
 30
0.0
 10
685.2364328583
 20
99.469559698
 30
0.0
 10
689.6289995318
 20
95.6147022557
 30
0.0
 10
693.77081525
 20
93.1747234972
 30
0.0
 10
696.0529071409
 20
92.0336775518
 30
0.0
  0
SPLINE
  5
2F9
100
AcDbEntity
  8
7_ALL_FEATURES
100
AcDbSpline
 62
7
  6
CONTINUOUS
 70
0
 71
3
 72
9
 73
5
 74
0
 42
0.0000001
 43
0.0000001
 44
0.0000000001
 40
0.0
 40
0.0
 40
0.0
 40
0.0
 40
0.4926693258
 40
1.0
 40
1.0
 40
1.0
 40
1.0
 10
742.8660699172
 20
120.3179487674
 30
0.0
 10
742.8660488773
 20
120.7509645284
 30
0.0
 10
742.7757300803
 20
121.6320825968
 30
0.0
 10
742.5132820814
 20
122.4770708287
 30
0.0
 10
742.3440746047
 20
122.8896206024
 30
0.0
  0
SPLINE
  5
2FA
100
AcDbEntity
  8
3_ALL_AXES
100
AcDbSpline
 62
7
  6
CONTINUOUS
 70
0
 71
3
 72
10
 73
6
 74
0
 42
0.0000001
 43
0.0000001
 44
0.0000000001
 40
0.0
 40
0.0
 40
0.0
 40
0.0
 40
0.2770614522
 40
0.5356987859
 40
1.0
 40
1.0
 40
1.0
 40
1.0
 10
692.1816674799
 20
127.7343752354
 30
0.0
 10
691.1161802047
 20
127.0757782914
 30
0.0
 10
689.10722914
 20
125.7136760508
 30
0.0
 10
685.6329327472
 20
122.8183185555
 30
0.0
 10
683.4674016437
 20
120.3037512136
 30
0.0
 10
682.3685886061
 20
118.515201762
 30
0.0
  0
SPLINE
  5
2FB
100
AcDbEntity
  8
3_ALL_AXES
100
AcDbSpline
 62
7
  6
CONTINUOUS
 70
0
 71
3
 72
9
 73
5
 74
0
 42
0.0000001
 43
0.0000001
 44
0.0000000001
 40
0.0
 40
0.0
 40
0.0
 40
0.0
 40
0.2540739797
 40
1.0
 40
1.0
 40
1.0
 40
1.0
 10
742.2211145212
 20
117.3546350327
 30
0.0
 10
742.2697930931
 20
117.5125032045
 30
0.0
 10
742.4394672257
 20
118.1403510186
 30
0.0
 10
742.5161171953
 20
118.7937057558
 30
0.0
 10
742.5160812965
 20
119.2787182794
 30
0.0
  0
SPLINE
  5
2FC
100
AcDbEntity
  8
3_ALL_AXES
100
AcDbSpline
 62
7
  6
CONTINUOUS
 70
0
 71
3
 72
9
 73
5
 74
0
 42
0.0000001
 43
0.0000001
 44
0.0000000001
 40
0.0
 40
0.0
 40
0.0
 40
0.0
 40
0.4888457407
 40
1.0
 40
1.0
 40
1.0
 40
1.0
 10
692.0161180515
 20
119.2787183083
 30
0.0
 10
692.0160906466
 20
118.7442783577
 30
0.0
 10
692.1580571221
 20
117.6469219508
 30
0.0
 10
692.5613834409
 20
116.6193405936
 30
0.0
 10
692.8177661549
 20
116.1227945832
 30
0.0
  0
SPLINE
  5
2FD
100
AcDbEntity
  8
3_ALL_AXES
100
AcDbSpline
 62
7
  6
CONTINUOUS
 70
0
 71
3
 72
9
 73
5
 74
0
 42
0.0000001
 43
0.0000001
 44
0.0000000001
 40
0.0
 40
0.0
 40
0.0
 40
0.0
 40
0.2327199992
 40
1.0
 40
1.0
 40
1.0
 40
1.0
 10
692.8177661549
 20
116.1227945832
 30
0.0
 10
692.9626468709
 20
115.8421986708
 30
0.0
 10
693.6552371925
 20
114.672504114
 30
0.0
 10
694.5968274519
 20
113.6629119769
 30
0.0
 10
695.3828866741
 20
112.9801652903
 30
0.0
  0
SPLINE
  5
2FE
100
AcDbEntity
  8
3_ALL_AXES
100
AcDbSpline
 62
7
  6
CONTINUOUS
 70
0
 71
3
 72
9
 73
5
 74
0
 42
0.0000001
 43
0.0000001
 44
0.0000000001
 40
0.0
 40
0.0
 40
0.0
 40
0.0
 40
0.2533436466
 40
1.0
 40
1.0
 40
1.0
 40
1.0
 10
692.2570538228
 20
121.0186586486
 30
0.0
 10
692.2172143656
 20
120.8755064776
 30
0.0
 10
692.0782917097
 20
120.3055396341
 30
0.0
 10
692.0161405078
 20
119.7166512261
 30
0.0
 10
692.0161180515
 20
119.2787183083
 30
0.0
  0
SPLINE
  5
2FF
100
AcDbEntity
  8
3_ALL_AXES
100
AcDbSpline
 62
7
  6
CONTINUOUS
 70
0
 71
3
 72
9
 73
5
 74
0
 42
0.0000001
 43
0.0000001
 44
0.0000000001
 40
0.0
 40
0.0
 40
0.0
 40
0.0
 40
0.2472251873
 40
1.0
 40
1.0
 40
1.0
 40
1.0
 10
680.2407433538
 20
107.586187451
 30
0.0
 10
680.2787921037
 20
107.4038895053
 30
0.0
 10
680.446947739
 20
106.6695392773
 30
0.0
 10
680.6716345314
 20
105.9483031504
 30
0.0
 10
680.8691122555
 20
105.4167614608
 30
0.0
  0
SPLINE
  5
300
100
AcDbEntity
  8
3_ALL_AXES
100
AcDbSpline
 62
7
  6
CONTINUOUS
 70
0
 71
3
 72
9
 73
5
 74
0
 42
0.0000001
 43
0.0000001
 44
0.0000000001
 40
0.0
 40
0.0
 40
0.0
 40
0.0
 40
0.2452678015
 40
1.0
 40
1.0
 40
1.0
 40
1.0
 10
681.5325284375
 20
103.8779439376
 30
0.0
 10
681.6208678998
 20
103.6981987303
 30
0.0
 10
681.9936616149
 20
102.9715865101
 30
0.0
 10
682.4156411694
 20
102.2704435685
 30
0.0
 10
682.7570696546
 20
101.7573651089
 30
0.0
  0
SPLINE
  5
301
100
AcDbEntity
  8
3_ALL_AXES
100
AcDbSpline
 62
7
  6
CONTINUOUS
 70
0
 71
3
 72
9
 73
5
 74
0
 42
0.0000001
 43
0.0000001
 44
0.0000000001
 40
0.0
 40
0.0
 40
0.0
 40
0.0
 40
0.2442988876
 40
1.0
 40
1.0
 40
1.0
 40
1.0
 10
683.8144293466
 20
100.3059435338
 30
0.0
 10
683.9558337693
 20
100.1275999471
 30
0.0
 10
684.5454941834
 20
99.4062096282
 30
0.0
 10
685.1769284934
 20
98.7192243695
 30
0.0
 10
685.6727688954
 20
98.219402899
 30
0.0
  0
SPLINE
  5
302
100
AcDbEntity
  8
3_ALL_AXES
100
AcDbSpline
 62
7
  6
CONTINUOUS
 70
0
 71
3
 72
9
 73
5
 74
0
 42
0.0000001
 43
0.0000001
 44
0.0000000001
 40
0.0
 40
0.0
 40
0.0
 40
0.0
 40
0.2437807337
 40
1.0
 40
1.0
 40
1.0
 40
1.0
 10
687.0388644748
 20
96.9295188948
 30
0.0
 10
687.2463206392
 20
96.7456188307
 30
0.0
 10
688.1073841725
 20
96.0026489765
 30
0.0
 10
689.006929388
 20
95.304595707
 30
0.0
 10
689.703780338
 20
94.8006383265
 30
0.0
  0
SPLINE
  5
303
100
AcDbEntity
  8
3_ALL_AXES
100
AcDbSpline
 62
7
  6
CONTINUOUS
 70
0
 71
3
 72
9
 73
5
 74
0
 42
0.0000001
 43
0.0000001
 44
0.0000000001
 40
0.0
 40
0.0
 40
0.0
 40
0.0
 40
0.2418688778
 40
1.0
 40
1.0
 40
1.0
 40
1.0
 10
691.1438507681
 20
93.8073508643
 30
0.0
 10
691.5249873883
 20
93.5564534297
 30
0.0
 10
693.1177739918
 20
92.545025402
 30
0.0
 10
694.7736290367
 20
91.6340861194
 30
0.0
 10
696.0529071409
 20
90.9944470673
 30
0.0
  0
SPLINE
  5
304
100
AcDbEntity
  8
3_ALL_AXES
100
AcDbSpline
 62
7
  6
CONTINUOUS
 70
0
 71
3
 72
9
 73
5
 74
0
 42
0.0000001
 43
0.0000001
 44
0.0000000001
 40
0.0
 40
0.0
 40
0.0
 40
0.0
 40
0.2481862711
 40
1.0
 40
1.0
 40
1.0
 40
1.0
 10
742.5160812965
 20
119.2787182794
 30
0.0
 10
742.5160707949
 20
119.4206017997
 30
0.0
 10
742.4968500578
 20
119.992170427
 30
0.0
 10
742.3995529527
 20
120.5607154828
 30
0.0
 10
742.2870191447
 20
120.9755196746
 30
0.0
  0
SPLINE
  5
305
100
AcDbEntity
  8
7_ALL_FEATURES
100
AcDbSpline
 62
7
  6
CONTINUOUS
 70
0
 71
3
 72
15
 73
11
 74
0
 42
0.0000001
 43
0.0000001
 44
0.0000000001
 40
0.0
 40
0.0
 40
0.0
 40
0.0
 40
0.1152968213
 40
0.2420125592
 40
0.3762599621
 40
0.5134518395
 40
0.6487519401
 40
0.7774836172
 40
0.8955612002
 40
1.0
 40
1.0
 40
1.0
 40
1.0
 10
785.2897829266
 20
372.6020623929
 30
0.0
 10
781.9060915862
 20
374.2939080691
 30
0.0
 10
774.4768874819
 20
377.2036906846
 30
0.0
 10
762.4499199594
 20
380.1146467866
 30
0.0
 10
749.4521221867
 20
381.6860239591
 30
0.0
 10
736.0817214038
 20
381.8424125403
 30
0.0
 10
722.9513342082
 20
380.577620206
 30
0.0
 10
710.6593631522
 20
377.9488298881
 30
0.0
 10
699.7668682317
 20
374.080841932
 30
0.0
 10
693.3197001763
 20
370.5450407213
 30
0.0
 10
690.5216806156
 20
368.5666253613
 30
0.0
  0
SPLINE
  5
306
100
AcDbEntity
  8
7_ALL_FEATURES
100
AcDbSpline
 62
7
  6
CONTINUOUS
 70
0
 71
3
 72
12
 73
8
 74
0
 42
0.0000001
 43
0.0000001
 44
0.0000000001
 40
0.0
 40
0.0
 40
0.0
 40
0.0
 40
0.2896636355
 40
0.5479564572
 40
0.7809006921
 40
0.8913974269
 40
1.0
 40
1.0
 40
1.0
 40
1.0
 10
690.2766930277
 20
311.1780139408
 30
0.0
 10
688.5279893172
 20
312.4145496402
 30
0.0
 10
685.3782887079
 20
314.9990270658
 30
0.0
 10
681.6618303799
 20
319.4710444911
 30
0.0
 10
679.696788478
 20
323.5291713903
 30
0.0
 10
678.9338420252
 20
326.7944638975
 30
0.0
 10
678.8078042932
 20
328.4172246345
 30
0.0
 10
678.8077725892
 20
329.2202140248
 30
0.0
  0
SPLINE
  5
307
100
AcDbEntity
  8
7_ALL_FEATURES
100
AcDbSpline
 62
7
  6
CONTINUOUS
 70
0
 71
3
 72
15
 73
11
 74
0
 42
0.0000001
 43
0.0000001
 44
0.0000000001
 40
0.0
 40
0.0
 40
0.0
 40
0.0
 40
0.1044387998
 40
0.2225163828
 40
0.3512480599
 40
0.4865481605
 40
0.6237400379
 40
0.7579874408
 40
0.8847031787
 40
1.0
 40
1.0
 40
1.0
 40
1.0
 10
792.093801658
 20
311.00482254
 30
0.0
 10
789.2957820973
 20
309.02640718
 30
0.0
 10
782.8486140419
 20
305.4906059694
 30
0.0
 10
771.9561191214
 20
301.6226180132
 30
0.0
 10
759.6641480654
 20
298.9938276954
 30
0.0
 10
746.5337608698
 20
297.729035361
 30
0.0
 10
733.163360087
 20
297.8854239423
 30
0.0
 10
720.1655623142
 20
299.4568011148
 30
0.0
 10
708.1385947917
 20
302.3677572168
 30
0.0
 10
700.7093906874
 20
305.2775398323
 30
0.0
 10
697.325699347
 20
306.9693855085
 30
0.0
  0
SPLINE
  5
308
100
AcDbEntity
  8
7_ALL_FEATURES
100
AcDbSpline
 62
7
  6
CONTINUOUS
 70
0
 71
3
 72
12
 73
8
 74
0
 42
0.0000001
 43
0.0000001
 44
0.0000000001
 40
0.0
 40
0.0
 40
0.0
 40
0.0
 40
0.2896733831
 40
0.5479606574
 40
0.7809031977
 40
0.8913985562
 40
1.0
 40
1.0
 40
1.0
 40
1.0
 10
690.2767317976
 20
368.3934202537
 30
0.0
 10
688.5279337972
 20
367.15688536
 30
0.0
 10
685.3781610816
 20
364.5724076139
 30
0.0
 10
681.6617704061
 20
360.1003208742
 30
0.0
 10
679.6966608169
 20
356.0422571474
 30
0.0
 10
678.9339222143
 20
352.7769546803
 30
0.0
 10
678.8077408853
 20
351.1542165861
 30
0.0
 10
678.8077725892
 20
350.3512338772
 30
0.0
  0
SPLINE
  5
309
100
AcDbEntity
  8
7_ALL_FEATURES
100
AcDbSpline
 62
7
  6
CONTINUOUS
 70
0
 71
3
 72
9
 73
5
 74
0
 42
0.0000001
 43
0.0000001
 44
0.0000000001
 40
0.0
 40
0.0
 40
0.0
 40
0.0
 40
0.2396052759
 40
1.0
 40
1.0
 40
1.0
 40
1.0
 10
792.093840186
 20
368.5666390415
 30
0.0
 10
791.5776796761
 20
368.9316241974
 30
0.0
 10
789.3906203923
 20
370.4082968264
 30
0.0
 10
787.0841856714
 20
371.7048610246
 30
0.0
 10
785.2897829266
 20
372.6020623929
 30
0.0
  0
SPLINE
  5
30A
100
AcDbEntity
  8
7_ALL_FEATURES
100
AcDbSpline
 62
7
  6
CONTINUOUS
 70
0
 71
3
 72
12
 73
8
 74
0
 42
0.0000001
 43
0.0000001
 44
0.0000000001
 40
0.0
 40
0.0
 40
0.0
 40
0.0
 40
0.1086025731
 40
0.2190993079
 40
0.4520435428
 40
0.7103363645
 40
1.0
 40
1.0
 40
1.0
 40
1.0
 10
803.8077096844
 20
350.3512338765
 30
0.0
 10
803.8076779804
 20
351.1542232669
 30
0.0
 10
803.6816402484
 20
352.7769840038
 30
0.0
 10
802.9186937956
 20
356.042276511
 30
0.0
 10
800.9536518937
 20
360.1004034102
 30
0.0
 10
797.2371935657
 20
364.5724208355
 30
0.0
 10
794.0874929564
 20
367.1568982611
 30
0.0
 10
792.3387892459
 20
368.3934339606
 30
0.0
  0
SPLINE
  5
30B
100
AcDbEntity
  8
7_ALL_FEATURES
100
AcDbSpline
 62
7
  6
CONTINUOUS
 70
0
 71
3
 72
12
 73
8
 74
0
 42
0.0000001
 43
0.0000001
 44
0.0000000001
 40
0.0
 40
0.0
 40
0.0
 40
0.0
 40
0.1086014438
 40
0.2190968023
 40
0.4520393426
 40
0.7103266169
 40
1.0
 40
1.0
 40
1.0
 40
1.0
 10
803.8077096844
 20
329.2202140242
 30
0.0
 10
803.8077413883
 20
328.4172313153
 30
0.0
 10
803.6815600593
 20
326.794493221
 30
0.0
 10
802.9188214567
 20
323.529190754
 30
0.0
 10
800.9537118675
 20
319.4711270271
 30
0.0
 10
797.237321192
 20
314.9990402875
 30
0.0
 10
794.0875484764
 20
312.4145625413
 30
0.0
 10
792.338750476
 20
311.1780276476
 30
0.0
  0
SPLINE
  5
30C
100
AcDbEntity
  8
7_ALL_FEATURES
100
AcDbSpline
 62
7
  6
CONTINUOUS
 70
0
 71
3
 72
9
 73
5
 74
0
 42
0.0000001
 43
0.0000001
 44
0.0000000001
 40
0.0
 40
0.0
 40
0.0
 40
0.0
 40
0.2599418318
 40
1.0
 40
1.0
 40
1.0
 40
1.0
 10
697.1135673126
 20
307.1231271124
 30
0.0
 10
696.5202168817
 20
307.4198023262
 30
0.0
 10
694.2564017464
 20
308.5978820576
 30
0.0
 10
692.0693453033
 20
309.9270784583
 30
0.0
 10
690.5200072612
 20
311.007182075
 30
0.0
  0
SPLINE
  5
30D
100
AcDbEntity
  8
7_ALL_FEATURES
100
AcDbSpline
 62
7
  6
CONTINUOUS
 70
0
 71
3
 72
19
 73
15
 74
0
 42
0.0000001
 43
0.0000001
 44
0.0000000001
 40
0.0
 40
0.0
 40
0.0
 40
0.0
 40
0.1380879352
 40
0.2594458764
 40
0.3152764429
 40
0.3688924531
 40
0.4213576847
 40
0.4738405327
 40
0.5275079729
 40
0.5834178657
 40
0.7050010106
 40
0.7720256543
 40
0.8435197221
 40
1.0
 40
1.0
 40
1.0
 40
1.0
 10
690.2748266073
 20
368.3907956559
 30
0.0
 10
688.3388834331
 20
367.00168054
 30
0.0
 10
684.8992320172
 20
364.0887147543
 30
0.0
 10
681.6002410774
 20
359.6781444823
 30
0.0
 10
679.9766076157
 20
356.0249629173
 30
0.0
 10
679.2623920199
 20
353.3104109758
 30
0.0
 10
679.0278867565
 20
350.5704120464
 30
0.0
 10
679.2765801777
 20
347.8308024692
 30
0.0
 10
680.0051504574
 20
345.1173493873
 30
0.0
 10
681.6472892152
 20
341.4664795584
 30
0.0
 10
684.2212307724
 20
338.0523438737
 30
0.0
 10
687.4737002892
 20
334.9545297324
 30
0.0
 10
691.4945348202
 20
331.8205850976
 30
0.0
 10
694.9106384834
 20
329.8275510293
 30
0.0
 10
697.325699347
 20
328.6200206031
 30
0.0
  0
SPLINE
  5
30E
100
AcDbEntity
  8
7_ALL_FEATURES
100
AcDbSpline
 62
7
  6
CONTINUOUS
 70
0
 71
3
 72
27
 73
23
 74
0
 42
0.0000001
 43
0.0000001
 44
0.0000000001
 40
0.0
 40
0.0
 40
0.0
 40
0.0
 40
0.0673789913
 40
0.1407396239
 40
0.2185133501
 40
0.2988201608
 40
0.3796226459
 40
0.4588531927
 40
0.534540925
 40
0.6049473668
 40
0.6687238448
 40
0.725120627
 40
0.7505950564
 40
0.7743798614
 40
0.7966995839
 40
0.8178808171
 40
0.8383458337
 40
0.8585871016
 40
0.8791208983
 40
0.9004325955
 40
0.9468192123
 40
1.0
 40
1.0
 40
1.0
 40
1.0
 10
697.325699347
 20
328.6200206031
 30
0.0
 10
700.1843360129
 20
327.1907022651
 30
0.0
 10
706.3888076771
 20
324.6627865512
 30
0.0
 10
716.4044526384
 20
321.9214791263
 30
0.0
 10
727.255083035
 20
320.1350899938
 30
0.0
 10
738.5763132392
 20
319.3655055597
 30
0.0
 10
749.9894088001
 20
319.6383348365
 30
0.0
 10
761.1111932987
 20
320.9445517433
 30
0.0
 10
771.5694922874
 20
323.2395675865
 30
0.0
 10
781.0195826122
 20
326.4475712709
 30
0.0
 10
789.1507196651
 20
330.4632576917
 30
0.0
 10
794.8013801282
 20
334.5202356262
 30
0.0
 10
798.3381619431
 20
338.0862636418
 30
0.0
 10
800.415664353
 20
340.7846652464
 30
0.0
 10
801.9878488094
 20
343.5763663597
 30
0.0
 10
803.0366299642
 20
346.4390859048
 30
0.0
 10
803.5469733736
 20
349.346595032
 30
0.0
 10
803.5100008409
 20
352.2681927863
 30
0.0
 10
802.926532163
 20
355.1714442801
 30
0.0
 10
801.3910142632
 20
359.0853418492
 30
0.0
 10
798.0138536302
 20
363.8234754776
 30
0.0
 10
794.3955400185
 20
366.9157855581
 30
0.0
 10
792.3462691399
 20
368.3867979974
 30
0.0
  0
SPLINE
  5
30F
100
AcDbEntity
  8
7_ALL_FEATURES
100
AcDbSpline
 62
7
  6
CONTINUOUS
 70
0
 71
3
 72
23
 73
19
 74
0
 42
0.0000001
 43
0.0000001
 44
0.0000000001
 40
0.0
 40
0.0
 40
0.0
 40
0.0
 40
0.0626068866
 40
0.1298850759
 40
0.2009763498
 40
0.2748429069
 40
0.3503348098
 40
0.426237304
 40
0.5013202333
 40
0.5743848891
 40
0.6443129527
 40
0.7101197931
 40
0.7710167232
 40
0.8264892025
 40
0.8764009433
 40
0.9211319489
 40
0.9617332715
 40
1.0
 40
1.0
 40
1.0
 40
1.0
 10
697.1135673126
 20
328.2541469648
 30
0.0
 10
699.3744081035
 20
327.1237265743
 30
0.0
 10
704.2098201912
 20
325.0627970724
 30
0.0
 10
711.9629397623
 20
322.6333212872
 30
0.0
 10
720.3422748461
 20
320.793133725
 30
0.0
 10
729.1688325833
 20
319.5822639575
 30
0.0
 10
738.2548838176
 20
319.0264914579
 30
0.0
 10
747.4061917922
 20
319.1379200991
 30
0.0
 10
756.427118313
 20
319.9141061254
 30
0.0
 10
765.1250304868
 20
321.3383071657
 30
0.0
 10
773.3148588221
 20
323.3799459613
 30
0.0
 10
780.8235021289
 20
325.995731814
 30
0.0
 10
787.4939861922
 20
329.1314328266
 30
0.0
 10
793.1888995409
 20
332.725193514
 30
0.0
 10
797.7916000678
 20
336.7113626952
 30
0.0
 10
801.201665461
 20
341.0281681464
 30
0.0
 10
803.3203439817
 20
345.6050747727
 30
0.0
 10
803.8077706844
 20
348.8062490651
 30
0.0
 10
803.8077096844
 20
350.3512338765
 30
0.0
  0
SPLINE
  5
310
100
AcDbEntity
  8
7_ALL_FEATURES
100
AcDbSpline
 62
7
  6
CONTINUOUS
 70
0
 71
3
 72
15
 73
11
 74
0
 42
0.0000001
 43
0.0000001
 44
0.0000000001
 40
0.0
 40
0.0
 40
0.0
 40
0.0
 40
0.104703383
 40
0.2228879838
 40
0.3515832261
 40
0.486750715
 40
0.6237780372
 40
0.7578979956
 40
0.8845860951
 40
1.0
 40
1.0
 40
1.0
 40
1.0
 10
792.1015768302
 20
311.0114856109
 30
0.0
 10
789.2853089284
 20
309.0475415023
 30
0.0
 10
782.8160644546
 20
305.538855037
 30
0.0
 10
771.9096398126
 20
301.6998813662
 30
0.0
 10
759.6234382684
 20
299.0926550042
 30
0.0
 10
746.511272704
 20
297.8393563469
 30
0.0
 10
733.1631820154
 20
297.9959491831
 30
0.0
 10
720.1829640214
 20
299.5563023459
 30
0.0
 10
708.1603481531
 20
302.4464909334
 30
0.0
 10
700.7255364959
 20
305.3345093745
 30
0.0
 10
697.3337423973
 20
307.013586891
 30
0.0
  0
SPLINE
  5
311
100
AcDbEntity
  8
7_ALL_FEATURES
100
AcDbSpline
 62
7
  6
CONTINUOUS
 70
0
 71
3
 72
13
 73
9
 74
0
 42
0.0000001
 43
0.0000001
 44
0.0000000001
 40
0.0
 40
0.0
 40
0.0
 40
0.0
 40
0.102149547
 40
0.2071682247
 40
0.3175969011
 40
0.4354403459
 40
0.6979164793
 40
1.0
 40
1.0
 40
1.0
 40
1.0
 10
678.8077725892
 20
350.3512338772
 30
0.0
 10
678.8078130954
 20
349.3253060314
 30
0.0
 10
679.0154748939
 20
347.2391576505
 30
0.0
 10
679.9397825359
 20
344.1680535076
 30
0.0
 10
681.4610268855
 20
341.168471725
 30
0.0
 10
684.3607765441
 20
337.1619395358
 30
0.0
 10
689.4979997355
 20
332.5182789574
 30
0.0
 10
694.3999262644
 20
329.6109674965
 30
0.0
 10
697.1135673126
 20
328.2541469648
 30
0.0
  0
SPLINE
  5
312
100
AcDbEntity
  8
3_ALL_AXES
100
AcDbSpline
 62
3
  6
CONTINUOUS
 70
0
 71
3
 72
24
 73
20
 74
0
 42
0.0000001
 43
0.0000001
 44
0.0000000001
 40
0.0
 40
0.0
 40
0.0
 40
0.0
 40
0.062600221
 40
0.129872213
 40
0.200956158
 40
0.2748153881
 40
0.3502997457
 40
0.4261946709
 40
0.5012700986
 40
0.5743274295
 40
0.6442484492
 40
0.7100486261
 40
0.7709393642
 40
0.8264061969
 40
0.8763128778
 40
0.9210393835
 40
0.9616366372
 40
0.9809705971
 40
1.0
 40
1.0
 40
1.0
 40
1.0
 10
696.0529071409
 20
90.9944470673
 30
0.0
 10
698.0424343706
 20
89.9996834524
 30
0.0
 10
702.2976036603
 20
88.1860699689
 30
0.0
 10
709.1203391146
 20
86.0481084343
 30
0.0
 10
716.4941702449
 20
84.4287505204
 30
0.0
 10
724.2615344987
 20
83.3631749909
 30
0.0
 10
732.25726381
 20
82.8740962666
 30
0.0
 10
740.3104167439
 20
82.9721528341
 30
0.0
 10
748.2488330374
 20
83.6552003654
 30
0.0
 10
755.9029937214
 20
84.9085000245
 30
0.0
 10
763.1100357844
 20
86.70515584
 30
0.0
 10
769.7176338412
 20
89.0070277459
 30
0.0
 10
775.5876399887
 20
91.7665350176
 30
0.0
 10
780.599174408
 20
94.9287694892
 30
0.0
 10
784.649468597
 20
98.4374849711
 30
0.0
 10
787.6505613188
 20
102.2334421822
 30
0.0
 10
789.2287925851
 20
105.6520255948
 30
0.0
 10
789.8423573994
 20
108.3983964166
 30
0.0
 10
789.9437210944
 20
109.7637162112
 30
0.0
 10
789.9437212739
 20
110.4398835499
 30
0.0
  0
SPLINE
  5
313
100
AcDbEntity
  8
7_ALL_FEATURES
100
AcDbSpline
 62
3
  6
CONTINUOUS
 70
0
 71
3
 72
9
 73
5
 74
0
 42
0.0000001
 43
0.0000001
 44
0.0000000001
 40
0.0
 40
0.0
 40
0.0
 40
0.0
 40
0.2464284565
 40
1.0
 40
1.0
 40
1.0
 40
1.0
 10
742.7283184488
 20
120.6049884857
 30
0.0
 10
742.7064646394
 20
120.7098812227
 30
0.0
 10
742.6075939744
 20
121.1333709296
 30
0.0
 10
742.4684075574
 20
121.5472502537
 30
0.0
 10
742.3440746047
 20
121.8503901179
 30
0.0
  0
SPLINE
  5
314
100
AcDbEntity
  8
7_ALL_FEATURES
100
AcDbSpline
 62
3
  6
CONTINUOUS
 70
0
 71
3
 72
13
 73
9
 74
0
 42
0.0000001
 43
0.0000001
 44
0.0000000001
 40
0.0
 40
0.0
 40
0.0
 40
0.0
 40
0.1021479786
 40
0.2071672198
 40
0.3175957031
 40
0.4354389357
 40
0.6979177459
 40
1.0
 40
1.0
 40
1.0
 40
1.0
 10
679.9437757762
 20
110.439883542
 30
0.0
 10
679.9437739155
 20
109.5370808374
 30
0.0
 10
680.126699586
 20
107.7012953464
 30
0.0
 10
680.9399275084
 20
104.9987037931
 30
0.0
 10
682.2786360354
 20
102.3590620986
 30
0.0
 10
684.8304354429
 20
98.8333088594
 30
0.0
 10
689.3512101484
 20
94.7468880482
 30
0.0
 10
693.6649128663
 20
92.1884442046
 30
0.0
 10
696.0529071409
 20
90.9944470673
 30
0.0
  0
SPLINE
  5
315
100
AcDbEntity
  8
3_ALL_AXES
100
AcDbSpline
 62
3
  6
CONTINUOUS
 70
0
 71
3
 72
24
 73
20
 74
0
 42
0.0000001
 43
0.0000001
 44
0.0000000001
 40
0.0
 40
0.0
 40
0.0
 40
0.0
 40
0.062600221
 40
0.129872213
 40
0.200956158
 40
0.2748153881
 40
0.3502997457
 40
0.4261946709
 40
0.5012700986
 40
0.5743274295
 40
0.6442484492
 40
0.7100486261
 40
0.7709393642
 40
0.8264061969
 40
0.8763128778
 40
0.9210393835
 40
0.9616366372
 40
0.9809705971
 40
1.0
 40
1.0
 40
1.0
 40
1.0
 10
696.0529071409
 20
87.5303454521
 30
0.0
 10
698.0424343706
 20
86.5355818373
 30
0.0
 10
702.2976036603
 20
84.7219683538
 30
0.0
 10
709.1203391146
 20
82.5840068192
 30
0.0
 10
716.4941702449
 20
80.9646489052
 30
0.0
 10
724.2615344987
 20
79.8990733758
 30
0.0
 10
732.25726381
 20
79.4099946515
 30
0.0
 10
740.3104167439
 20
79.5080512189
 30
0.0
 10
748.2488330374
 20
80.1910987503
 30
0.0
 10
755.9029937214
 20
81.4443984093
 30
0.0
 10
763.1100357844
 20
83.2410542249
 30
0.0
 10
769.7176338412
 20
85.5429261308
 30
0.0
 10
775.5876399887
 20
88.3024334025
 30
0.0
 10
780.599174408
 20
91.4646678741
 30
0.0
 10
784.649468597
 20
94.9733833559
 30
0.0
 10
787.6505613188
 20
98.7693405671
 30
0.0
 10
789.2287925851
 20
102.1879239796
 30
0.0
 10
789.8423573994
 20
104.9342948015
 30
0.0
 10
789.9437210944
 20
106.2996145961
 30
0.0
 10
789.9437212739
 20
106.9757819347
 30
0.0
  0
SPLINE
  5
316
100
AcDbEntity
  8
3_ALL_AXES
100
AcDbSpline
 62
3
  6
CONTINUOUS
 70
0
 71
3
 72
13
 73
9
 74
0
 42
0.0000001
 43
0.0000001
 44
0.0000000001
 40
0.0
 40
0.0
 40
0.0
 40
0.0
 40
0.1021494583
 40
0.2071677797
 40
0.3175968944
 40
0.4354412611
 40
0.6979152176
 40
1.0
 40
1.0
 40
1.0
 40
1.0
 10
679.9438389384
 20
106.9757819348
 30
0.0
 10
679.9438386988
 20
106.0729665136
 30
0.0
 10
680.1266409526
 20
104.2371654499
 30
0.0
 10
680.9399224573
 20
101.5345662897
 30
0.0
 10
682.2786916582
 20
98.8949534773
 30
0.0
 10
684.8304792111
 20
95.3692315042
 30
0.0
 10
689.3511933216
 20
91.2827654871
 30
0.0
 10
693.6648938346
 20
88.7243521052
 30
0.0
 10
696.0529071409
 20
87.5303454521
 30
0.0
  0
ENDSEC
  0
SECTION
  2
OBJECTS
  0
DICTIONARY
  5
317
100
AcDbDictionary
  3
ACAD_GROUP
350
318
  3
ACAD_MLINESTYLE
350
319
  0
DICTIONARY
  5
318
102
{ACAD_REACTORS
330
317
102
}
100
AcDbDictionary
  0
DICTIONARY
  5
319
102
{ACAD_REACTORS
330
317
102
}
100
AcDbDictionary
  3
STANDARD
350
31A
  0
MLINESTYLE
  5
31A
102
{ACAD_REACTORS
330
319
102
}
100
AcDbMlineStyle
  2
STANDARD
 70
0
  3

 62
256
 51
90.0
 52
90.0
 71
2
 49
0.5
 62
256
  6
BYLAYER
 49
-0.5
 62
256
  6
BYLAYER
  0
ENDSEC
  0
EOF
