999
DXF file: 3x0_c_070.dxf
999
Pro/ENGINEER 2016360 by Parametric Technology Corporation
  0
SECTION
  2
HEADER
  9
$ACADVER
  1
AC1014
  9
$DWGCODEPAGE
  3
ANSI_1252
  9
$EXTMAX
 10
841.0
 20
1189.0
 30
0.0
  9
$EXTMIN
 10
0.0
 20
0.0
 30
0.0
  9
$LIMMIN
 10
0.0
 20
0.0
  9
$LIMMAX
 10
841.0
 20
1189.0
  9
$VIEWCTR
 10
420.5
 20
594.5
  9
$VIEWSIZE
 40
1189.0
  9
$CLAYER
  8
0
  9
$LTSCALE
 40
77.5051851852
  9
$CELTYPE
  6
BYLAYER
  9
$DIMSCALE
 40
1.0
  9
$DIMASZ
 40
2.5
  9
$DIMEXO
 40
0.75
  9
$DIMDLI
 40
53.549037037
  9
$DIMEXE
 40
0.75
  9
$DIMCEN
 40
12.6826666667
  9
$DIMLFAC
 40
1.0
  9
$DIMBLK
  1
_CLOSED
  9
$DIMALT
 70
0
  9
$DIMALTF
 40
25.4
  9
$DIMTXT
 40
3.0
  9
$DIMTOL
 70
1
  9
$DIMLIM
 70
0
  9
$DIMTFAC
 40
1.0
  9
$DIMTP
 40
0.01
  9
$DIMTM
 40
0.01
  9
$DIMGAP
 40
0.625
  9
$AUNITS
 70
0
  9
$PDMODE
 70
3
  9
$PDSIZE
 40
0.3125
  9
$HANDSEED
  5
337
  9
$TILEMODE
 70
1
  9
$MEASUREMENT
 70
1
  0
ENDSEC
  0
SECTION
  2
CLASSES
  0
ENDSEC
  0
SECTION
  2
TABLES
  0
TABLE
  2
VPORT
  5
8
100
AcDbSymbolTable
 70
2
  0
VPORT
  5
1F4
100
AcDbSymbolTableRecord
100
AcDbViewportTableRecord
  2
*ACTIVE
 70
0
 10
0.0
 20
0.0
 11
1.0
 21
1.0
 12
420.5
 22
594.5
 13
0.0
 23
0.0
 14
1.0
 24
1.0
 15
0.0
 25
0.0
 16
0.0
 26
0.0
 36
1.0
 17
0.0
 27
0.0
 37
0.0
 40
1189.0
 41
0.7073170732
 42
50.0
 43
0.0
 44
0.0
 50
0.0
 51
0.0
 71
0
 72
100
 73
1
 74
1
 75
0
 76
0
 77
0
 78
0
  0
ENDTAB
  0
TABLE
  2
LTYPE
  5
5
100
AcDbSymbolTable
 70
6
  0
LTYPE
  5
14
100
AcDbSymbolTableRecord
100
AcDbLinetypeTableRecord
  2
BYBLOCK
 70
0
  3

 72
65
 73
0
 40
0.0
  0
LTYPE
  5
15
100
AcDbSymbolTableRecord
100
AcDbLinetypeTableRecord
  2
BYLAYER
 70
0
  3

 72
65
 73
0
 40
0.0
  0
LTYPE
  5
16
100
AcDbSymbolTableRecord
100
AcDbLinetypeTableRecord
  2
CONTINUOUS
 70
64
  3
Solid line
 72
65
 73
0
 40
0.0
  0
LTYPE
  5
1F5
100
AcDbSymbolTableRecord
100
AcDbLinetypeTableRecord
  2
CENTER
 70
64
  3
____ _ ____ _ ____ _ ____ _ ____ _ ____ _ ____
 72
65
 73
4
 40
0.6
 49
0.375
 74
0
 49
-0.075
 74
0
 49
0.075
 74
0
 49
-0.075
 74
0
  0
LTYPE
  5
1F6
100
AcDbSymbolTableRecord
100
AcDbLinetypeTableRecord
  2
HIDDEN
 70
64
  3
- - - - - - - - - - - - - - - - - - - -
 72
65
 73
2
 40
0.2
 49
0.1
 74
0
 49
-0.1
 74
0
  0
LTYPE
  5
1F7
100
AcDbSymbolTableRecord
100
AcDbLinetypeTableRecord
  2
PHANTOM
 70
64
  3
_____ _ _ _____ _ _ _____ _ _ _____
 72
65
 73
6
 40
0.8
 49
0.45
 74
0
 49
-0.05
 74
0
 49
0.1
 74
0
 49
-0.05
 74
0
 49
0.1
 74
0
 49
-0.05
 74
0
  0
LTYPE
  5
1F8
100
AcDbSymbolTableRecord
100
AcDbLinetypeTableRecord
  2
DOT
 70
64
  3
. . . . . . . . . . . . . . . . . . . .
 72
65
 73
2
 40
0.2
 49
0.1
 74
0
 49
-0.1
 74
0
  0
LTYPE
  5
1F9
100
AcDbSymbolTableRecord
100
AcDbLinetypeTableRecord
  2
DASHED
 70
64
  3
- - - - - - - - - - - - - - - - - - - -
 72
65
 73
2
 40
0.2
 49
0.1
 74
0
 49
-0.1
 74
0
  0
ENDTAB
  0
TABLE
  2
LAYER
  5
2
100
AcDbSymbolTable
 70
36
  0
LAYER
  5
10
100
AcDbSymbolTableRecord
100
AcDbLayerTableRecord
  2
0
 70
0
 62
7
  6
CONTINUOUS
  0
LAYER
  5
1FA
100
AcDbSymbolTableRecord
100
AcDbLayerTableRecord
  2
DEFAULT_1
 70
0
 62
7
  6
CENTER
  0
LAYER
  5
1FB
100
AcDbSymbolTableRecord
100
AcDbLayerTableRecord
  2
DEFAULT_2
 70
0
 62
8
  6
HIDDEN
  0
LAYER
  5
1FC
100
AcDbSymbolTableRecord
100
AcDbLayerTableRecord
  2
DEFAULT_3
 70
0
 62
7
  6
PHANTOM
  0
LAYER
  5
1FD
100
AcDbSymbolTableRecord
100
AcDbLayerTableRecord
  2
01_ALL_DTM_PLN
 70
0
 62
7
  6
CONTINUOUS
  0
LAYER
  5
1FE
100
AcDbSymbolTableRecord
100
AcDbLayerTableRecord
  2
01__ASM_ALL_DTM_PLN
 70
0
 62
7
  6
CONTINUOUS
  0
LAYER
  5
1FF
100
AcDbSymbolTableRecord
100
AcDbLayerTableRecord
  2
01__ASM_DEF_DTM_PLN
 70
0
 62
7
  6
CONTINUOUS
  0
LAYER
  5
200
100
AcDbSymbolTableRecord
100
AcDbLayerTableRecord
  2
01___PRT_ALL_DTM_PLN
 70
0
 62
7
  6
CONTINUOUS
  0
LAYER
  5
201
100
AcDbSymbolTableRecord
100
AcDbLayerTableRecord
  2
01___PRT_DEF_DTM_PLN
 70
0
 62
7
  6
CONTINUOUS
  0
LAYER
  5
202
100
AcDbSymbolTableRecord
100
AcDbLayerTableRecord
  2
02_ALL_AXES
 70
0
 62
7
  6
CONTINUOUS
  0
LAYER
  5
203
100
AcDbSymbolTableRecord
100
AcDbLayerTableRecord
  2
02__ASM_ALL_AXES
 70
0
 62
7
  6
CONTINUOUS
  0
LAYER
  5
204
100
AcDbSymbolTableRecord
100
AcDbLayerTableRecord
  2
02___PRT_ALL_AXES
 70
0
 62
7
  6
CONTINUOUS
  0
LAYER
  5
205
100
AcDbSymbolTableRecord
100
AcDbLayerTableRecord
  2
03_ALL_CURVES
 70
0
 62
7
  6
CONTINUOUS
  0
LAYER
  5
206
100
AcDbSymbolTableRecord
100
AcDbLayerTableRecord
  2
03__ASM_ALL_CURVES
 70
0
 62
7
  6
CONTINUOUS
  0
LAYER
  5
207
100
AcDbSymbolTableRecord
100
AcDbLayerTableRecord
  2
03___PRT_ALL_CURVES
 70
0
 62
7
  6
CONTINUOUS
  0
LAYER
  5
208
100
AcDbSymbolTableRecord
100
AcDbLayerTableRecord
  2
04_ALL_DTM_PNT
 70
0
 62
7
  6
CONTINUOUS
  0
LAYER
  5
209
100
AcDbSymbolTableRecord
100
AcDbLayerTableRecord
  2
04__ASM_ALL_DTM_PNT
 70
0
 62
7
  6
CONTINUOUS
  0
LAYER
  5
20A
100
AcDbSymbolTableRecord
100
AcDbLayerTableRecord
  2
04___PRT_ALL_DTM_PNT
 70
0
 62
7
  6
CONTINUOUS
  0
LAYER
  5
20B
100
AcDbSymbolTableRecord
100
AcDbLayerTableRecord
  2
05_ALL_DTM_CSYS
 70
0
 62
7
  6
CONTINUOUS
  0
LAYER
  5
20C
100
AcDbSymbolTableRecord
100
AcDbLayerTableRecord
  2
05__ASM_ALL_DTM_CSYS
 70
0
 62
7
  6
CONTINUOUS
  0
LAYER
  5
20D
100
AcDbSymbolTableRecord
100
AcDbLayerTableRecord
  2
05__ASM_DEF_DTM_CSYS
 70
0
 62
7
  6
CONTINUOUS
  0
LAYER
  5
20E
100
AcDbSymbolTableRecord
100
AcDbLayerTableRecord
  2
05___PRT_ALL_DTM_CSYS
 70
0
 62
7
  6
CONTINUOUS
  0
LAYER
  5
20F
100
AcDbSymbolTableRecord
100
AcDbLayerTableRecord
  2
05___PRT_DEF_DTM_CSYS
 70
0
 62
7
  6
CONTINUOUS
  0
LAYER
  5
210
100
AcDbSymbolTableRecord
100
AcDbLayerTableRecord
  2
06_ALL_SURFS
 70
0
 62
7
  6
CONTINUOUS
  0
LAYER
  5
211
100
AcDbSymbolTableRecord
100
AcDbLayerTableRecord
  2
06__ASM_ALL_SURFS
 70
0
 62
7
  6
CONTINUOUS
  0
LAYER
  5
212
100
AcDbSymbolTableRecord
100
AcDbLayerTableRecord
  2
06___PRT_ALL_SURFS
 70
0
 62
7
  6
CONTINUOUS
  0
LAYER
  5
213
100
AcDbSymbolTableRecord
100
AcDbLayerTableRecord
  2
07__ASM_ALL_SKELETONS
 70
0
 62
7
  6
CONTINUOUS
  0
LAYER
  5
214
100
AcDbSymbolTableRecord
100
AcDbLayerTableRecord
  2
1_ALL_PLANES
 70
0
 62
7
  6
CONTINUOUS
  0
LAYER
  5
215
100
AcDbSymbolTableRecord
100
AcDbLayerTableRecord
  2
2_ALL_CSYS
 70
0
 62
7
  6
CONTINUOUS
  0
LAYER
  5
216
100
AcDbSymbolTableRecord
100
AcDbLayerTableRecord
  2
3_ALL_AXES
 70
0
 62
7
  6
CONTINUOUS
  0
LAYER
  5
217
100
AcDbSymbolTableRecord
100
AcDbLayerTableRecord
  2
4_ALL_POINTS
 70
0
 62
7
  6
CONTINUOUS
  0
LAYER
  5
218
100
AcDbSymbolTableRecord
100
AcDbLayerTableRecord
  2
5_ALL_CURVES
 70
0
 62
7
  6
CONTINUOUS
  0
LAYER
  5
219
100
AcDbSymbolTableRecord
100
AcDbLayerTableRecord
  2
5__COSTRUZIONE
 70
0
 62
7
  6
CONTINUOUS
  0
LAYER
  5
21A
100
AcDbSymbolTableRecord
100
AcDbLayerTableRecord
  2
6_ALL_SURFS
 70
0
 62
7
  6
CONTINUOUS
  0
LAYER
  5
21B
100
AcDbSymbolTableRecord
100
AcDbLayerTableRecord
  2
7_ALL_FEATURES
 70
0
 62
7
  6
CONTINUOUS
  0
LAYER
  5
21C
100
AcDbSymbolTableRecord
100
AcDbLayerTableRecord
  2
9_SOLID
 70
0
 62
7
  6
CONTINUOUS
  0
LAYER
  5
21D
100
AcDbSymbolTableRecord
100
AcDbLayerTableRecord
  2
INTFCLR_2
 70
0
 62
7
  6
CONTINUOUS
  0
LAYER
  5
21E
100
AcDbSymbolTableRecord
100
AcDbLayerTableRecord
  2
LIVELLO_1
 70
0
 62
7
  6
CONTINUOUS
  0
LAYER
  5
21F
100
AcDbSymbolTableRecord
100
AcDbLayerTableRecord
  2
WHITE
 70
0
 62
7
  6
CONTINUOUS
  0
LAYER
  5
220
100
AcDbSymbolTableRecord
100
AcDbLayerTableRecord
  2
XXX_SOLIDO
 70
0
 62
7
  6
CONTINUOUS
  0
ENDTAB
  0
TABLE
  2
STYLE
  5
3
100
AcDbSymbolTable
 70
1
  0
STYLE
  5
11
100
AcDbSymbolTableRecord
100
AcDbTextStyleTableRecord
  2
STANDARD
 70
0
 40
0.0
 41
1.0
 50
0.0
 71
0
 42
0.2
  3
arial.ttf
  4

  0
STYLE
  5
221
100
AcDbSymbolTableRecord
100
AcDbTextStyleTableRecord
  2
TEXTSTYLE_1
 70
0
 40
0.0
 41
0.8
 50
0.0
 71
0
 42
0.2
  3
gdt
  4

  0
STYLE
  5
222
100
AcDbSymbolTableRecord
100
AcDbTextStyleTableRecord
  2
TEXTSTYLE_2
 70
0
 40
0.0
 41
0.85
 50
0.0
 71
0
 42
0.2
  3
gdt
  4

  0
STYLE
  5
223
100
AcDbSymbolTableRecord
100
AcDbTextStyleTableRecord
  2
TEXTSTYLE_3
 70
0
 40
0.0
 41
0.85
 50
0.0
 71
0
 42
0.2
  3
txt
  4

  0
ENDTAB
  0
TABLE
  2
VIEW
  5
6
100
AcDbSymbolTable
 70
0
  0
ENDTAB
  0
TABLE
  2
UCS
  5
7
100
AcDbSymbolTable
 70
0
  0
ENDTAB
  0
TABLE
  2
APPID
  5
9
100
AcDbSymbolTable
 70
1
  0
APPID
  5
224
100
AcDbSymbolTableRecord
100
AcDbRegAppTableRecord
  2
ACAD
 70
0
  0
ENDTAB
  0
TABLE
  2
BLOCK_RECORD
  5
1
100
AcDbSymbolTable
 70
0
  0
BLOCK_RECORD
  5
1F
100
AcDbSymbolTableRecord
100
AcDbBlockTableRecord
  2
*MODEL_SPACE
  0
BLOCK_RECORD
  5
1B
100
AcDbSymbolTableRecord
100
AcDbBlockTableRecord
  2
*PAPER_SPACE
  0
BLOCK_RECORD
  5
225
100
AcDbSymbolTableRecord
100
AcDbBlockTableRecord
  2
_CLOSED
  0
BLOCK_RECORD
  5
226
100
AcDbSymbolTableRecord
100
AcDbBlockTableRecord
  2
*D0
  0
BLOCK_RECORD
  5
227
100
AcDbSymbolTableRecord
100
AcDbBlockTableRecord
  2
*D1
  0
BLOCK_RECORD
  5
228
100
AcDbSymbolTableRecord
100
AcDbBlockTableRecord
  2
*D2
  0
BLOCK_RECORD
  5
229
100
AcDbSymbolTableRecord
100
AcDbBlockTableRecord
  2
LOGO2_BL0
  0
ENDTAB
  0
TABLE
  2
DIMSTYLE
  5
A
100
AcDbSymbolTable
 70
1
  0
DIMSTYLE
105
22A
100
AcDbSymbolTableRecord
100
AcDbDimStyleTableRecord
  2
STANDARD
 70
0
  3

  4

  5
_CLOSED
  6
_CLOSED
  7
_CLOSED
 40
1.0
 41
2.5
 42
0.75
 43
0.38
 44
0.75
 45
0.0
 46
0.0
 47
0.01
 48
0.01
140
3.0
141
0.09
142
0.0
143
25.4
144
1.0
145
0.0
146
1.0
147
0.625
 71
1.0
 72
0.0
 73
0
 74
0
 75
0
 76
0
 77
1
 78
8
 79
2
170
0
171
1
172
0
173
0
174
0
175
0
176
0
177
0
178
0
270
2
179
2
271
2
272
2
273
2
274
2
275
0
280
0
281
0
282
0
283
1
284
8
285
0
286
0
287
3
288
0
340
11
  0
DIMSTYLE
105
22B
100
AcDbSymbolTableRecord
100
AcDbDimStyleTableRecord
  2
DIMSTYLE_1
 70
0
  3

  4

  5
_CLOSED
  6
_CLOSED
  7
_CLOSED
 40
1.0
 41
2.5
 42
0.75
 43
0.38
 44
0.75
 45
0.0
 46
0.0
 47
0.5
 48
0.5
140
3.0
141
0.09
142
0.0
143
25.4
144
1.0
145
0.0
146
1.0
147
0.75
 71
0.0
 72
0.0
 73
0
 74
0
 75
0
 76
0
 77
1
 78
8
 79
2
170
0
171
1
172
0
173
0
174
0
175
0
176
0
177
0
178
0
270
2
179
2
271
2
272
2
273
2
274
2
275
0
280
0
281
0
282
0
283
1
284
8
285
0
286
0
287
3
288
0
340
11
  0
DIMSTYLE
105
22C
100
AcDbSymbolTableRecord
100
AcDbDimStyleTableRecord
  2
DIMSTYLE_2
 70
0
  3

  4

  5
_CLOSED
  6
_CLOSED
  7
_CLOSED
 40
1.0
 41
2.5
 42
0.75
 43
0.38
 44
0.75
 45
0.0
 46
0.0
 47
0.8
 48
0.8
140
3.0
141
0.09
142
0.0
143
25.4
144
1.0
145
0.0
146
1.0
147
0.75
 71
0.0
 72
0.0
 73
0
 74
0
 75
0
 76
0
 77
1
 78
8
 79
2
170
0
171
1
172
0
173
0
174
0
175
0
176
0
177
0
178
0
270
2
179
2
271
2
272
2
273
2
274
2
275
0
280
0
281
0
282
0
283
1
284
8
285
0
286
0
287
3
288
0
340
11
  0
DIMSTYLE
105
22D
100
AcDbSymbolTableRecord
100
AcDbDimStyleTableRecord
  2
DIMSTYLE_3
 70
0
  3

  4

  5
_CLOSED
  6
_CLOSED
  7
_CLOSED
 40
1.0
 41
2.5
 42
0.75
 43
0.38
 44
0.75
 45
0.0
 46
0.0
 47
0.3
 48
0.3
140
3.0
141
0.09
142
0.0
143
25.4
144
1.0
145
0.0
146
1.0
147
0.75
 71
0.0
 72
0.0
 73
0
 74
0
 75
0
 76
0
 77
1
 78
8
 79
2
170
0
171
1
172
0
173
0
174
0
175
0
176
0
177
0
178
0
270
2
179
2
271
2
272
2
273
2
274
2
275
0
280
0
281
0
282
0
283
1
284
8
285
0
286
0
287
3
288
0
340
11
  0
ENDTAB
  0
ENDSEC
  0
SECTION
  2
BLOCKS
  0
BLOCK
  5
20
100
AcDbEntity
  8
0
100
AcDbBlockBegin
  2
*MODEL_SPACE
 70
0
 10
0.0
 20
0.0
 30
0.0
  3
*MODEL_SPACE
  1

  0
ENDBLK
  5
21
100
AcDbEntity
  8
0
100
AcDbBlockEnd
  0
BLOCK
  5
1C
100
AcDbEntity
  8
0
100
AcDbBlockBegin
  2
*PAPER_SPACE
 70
0
 10
0.0
 20
0.0
 30
0.0
  3
*PAPER_SPACE
  1

  0
ENDBLK
  5
1D
100
AcDbEntity
  8
0
100
AcDbBlockEnd
  0
BLOCK
  5
22E
100
AcDbEntity
  8
0
100
AcDbBlockBegin
 62
2
  6
CONTINUOUS
  2
LOGO2_BL0
 70
64
 10
753.731072936
 20
39.0120455435
  3
LOGO2_BL0
  1

  0
LINE
  5
22F
100
AcDbEntity
  8
0
100
AcDbLine
 62
7
  6
CONTINUOUS
 10
745.4739981643
 20
42.2075368823
 11
744.1696572349
 21
42.2075368823
  0
LINE
  5
230
100
AcDbEntity
  8
0
100
AcDbLine
 62
7
  6
CONTINUOUS
 10
744.1696572349
 20
42.2075368823
 11
744.1696572349
 21
31.7484708225
  0
LINE
  5
231
100
AcDbEntity
  8
0
100
AcDbLine
 62
7
  6
CONTINUOUS
 10
744.1696572349
 20
31.7484708225
 11
748.6507121232
 21
31.7484708225
  0
LINE
  5
232
100
AcDbEntity
  8
0
100
AcDbLine
 62
7
  6
CONTINUOUS
 10
748.6507121232
 20
31.7484708225
 11
748.6507121232
 21
32.9413251475
  0
LINE
  5
233
100
AcDbEntity
  8
0
100
AcDbLine
 62
7
  6
CONTINUOUS
 10
748.6507121232
 20
32.9413251475
 11
745.4739981643
 21
32.9413251475
  0
LINE
  5
234
100
AcDbEntity
  8
0
100
AcDbLine
 62
7
  6
CONTINUOUS
 10
745.4739981643
 20
32.9413251475
 11
745.4739981643
 21
42.2075368823
  0
LINE
  5
235
100
AcDbEntity
  8
0
100
AcDbLine
 62
7
  6
CONTINUOUS
 10
760.4103243806
 20
42.2075368823
 11
759.1065068625
 21
42.2075368823
  0
LINE
  5
236
100
AcDbEntity
  8
0
100
AcDbLine
 62
7
  6
CONTINUOUS
 10
759.1065068625
 20
42.2075368823
 11
759.1065068625
 21
31.7484708225
  0
LINE
  5
237
100
AcDbEntity
  8
0
100
AcDbLine
 62
7
  6
CONTINUOUS
 10
759.1065068625
 20
31.7484708225
 11
763.5876926036
 21
31.7484708225
  0
LINE
  5
238
100
AcDbEntity
  8
0
100
AcDbLine
 62
7
  6
CONTINUOUS
 10
763.5876926036
 20
31.7484708225
 11
763.5876926036
 21
32.9413251475
  0
LINE
  5
239
100
AcDbEntity
  8
0
100
AcDbLine
 62
7
  6
CONTINUOUS
 10
763.5876926036
 20
32.9413251475
 11
760.4103243806
 21
32.9413251475
  0
LINE
  5
23A
100
AcDbEntity
  8
0
100
AcDbLine
 62
7
  6
CONTINUOUS
 10
760.4103243806
 20
32.9413251475
 11
760.4103243806
 21
42.2075368823
  0
LWPOLYLINE
  5
23B
100
AcDbEntity
  8
0
100
AcDbPolyline
 62
7
  6
CONTINUOUS
 90
2
 70
0
 43
0.2
 10
742.5240521458
 20
28.4049195155
 10
742.5240521458
 20
26.5478562662
  0
LWPOLYLINE
  5
23C
100
AcDbEntity
  8
0
100
AcDbPolyline
 62
7
  6
CONTINUOUS
 90
2
 70
0
 43
0.2
 10
742.5240521458
 20
26.5478562662
 10
743.3197681562
 20
26.5478562662
  0
LWPOLYLINE
  5
23D
100
AcDbEntity
  8
0
100
AcDbPolyline
 62
7
  6
CONTINUOUS
 90
2
 70
0
 43
0.2
 10
743.3197681562
 20
26.5478562662
 10
743.3197681562
 20
26.7598378378
  0
LWPOLYLINE
  5
23E
100
AcDbEntity
  8
0
100
AcDbPolyline
 62
7
  6
CONTINUOUS
 90
2
 70
0
 43
0.2
 10
743.3197681562
 20
26.7598378378
 10
742.7556616407
 20
26.7598378378
  0
LWPOLYLINE
  5
23F
100
AcDbEntity
  8
0
100
AcDbPolyline
 62
7
  6
CONTINUOUS
 90
2
 70
0
 43
0.2
 10
742.7556616407
 20
26.7598378378
 10
742.7556616407
 20
28.4049195155
  0
LWPOLYLINE
  5
240
100
AcDbEntity
  8
0
100
AcDbPolyline
 62
7
  6
CONTINUOUS
 90
2
 70
0
 43
0.2
 10
742.7556616407
 20
28.4049195155
 10
742.5240521458
 20
28.4049195155
  0
SPLINE
  5
241
100
AcDbEntity
  8
0
100
AcDbSpline
 62
7
  6
CONTINUOUS
 70
2
 71
3
 72
35
 73
31
 74
0
 42
0.0000001
 43
0.0000001
 44
0.0000000001
 40
0.0
 40
0.0
 40
0.0
 40
0.0
 40
1.0
 40
1.0
 40
1.0
 40
2.0
 40
2.0
 40
2.0
 40
3.0
 40
3.0
 40
3.0
 40
4.0
 40
4.0
 40
4.0
 40
5.0
 40
5.0
 40
5.0
 40
6.0
 40
6.0
 40
6.0
 40
7.0
 40
7.0
 40
7.0
 40
8.0
 40
8.0
 40
8.0
 40
9.0
 40
9.0
 40
9.0
 40
10.0
 40
10.0
 40
10.0
 40
10.0
 10
744.7180614117
 20
27.7004079221
 30
0.0
 10
744.7180614117
 20
27.7004079221
 30
0.0
 10
744.7180614117
 20
27.0382926429
 30
0.0
 10
744.7180614117
 20
27.0382926429
 30
0.0
 10
744.7180614117
 20
26.7231990476
 30
0.0
 10
744.8659251006
 20
26.5086004196
 30
0.0
 10
745.2060115849
 20
26.5086004196
 30
0.0
 10
745.5455746579
 20
26.5086004196
 30
0.0
 10
745.6937000523
 20
26.7231990476
 30
0.0
 10
745.6937000523
 20
27.0382926429
 30
0.0
 10
745.6937000523
 20
27.0382926429
 30
0.0
 10
745.6937000523
 20
27.7004079221
 30
0.0
 10
745.6937000523
 20
27.7004079221
 30
0.0
 10
745.6937000523
 20
27.7004079221
 30
0.0
 10
745.4716428135
 20
27.7004079221
 30
0.0
 10
745.4716428135
 20
27.7004079221
 30
0.0
 10
745.4716428135
 20
27.7004079221
 30
0.0
 10
745.4716428135
 20
27.0634163847
 30
0.0
 10
745.4716428135
 20
27.0634163847
 30
0.0
 10
745.4716428135
 20
26.8776053775
 30
0.0
 10
745.424928356
 20
26.714824467
 30
0.0
 10
745.2060115849
 20
26.714824467
 30
0.0
 10
744.9865714024
 20
26.714824467
 30
0.0
 10
744.939856945
 20
26.8776053775
 30
0.0
 10
744.939856945
 20
27.0634163847
 30
0.0
 10
744.939856945
 20
27.0634163847
 30
0.0
 10
744.939856945
 20
27.7004079221
 30
0.0
 10
744.939856945
 20
27.7004079221
 30
0.0
 10
744.939856945
 20
27.7004079221
 30
0.0
 10
744.7180614117
 20
27.7004079221
 30
0.0
 10
744.7180614117
 20
27.7004079221
 30
0.0
  0
SPLINE
  5
242
100
AcDbEntity
  8
0
100
AcDbSpline
 62
7
  6
CONTINUOUS
 70
2
 71
3
 72
35
 73
31
 74
0
 42
0.0000001
 43
0.0000001
 44
0.0000000001
 40
0.0
 40
0.0
 40
0.0
 40
0.0
 40
1.0
 40
1.0
 40
1.0
 40
2.0
 40
2.0
 40
2.0
 40
3.0
 40
3.0
 40
3.0
 40
4.0
 40
4.0
 40
4.0
 40
5.0
 40
5.0
 40
5.0
 40
6.0
 40
6.0
 40
6.0
 40
7.0
 40
7.0
 40
7.0
 40
8.0
 40
8.0
 40
8.0
 40
9.0
 40
9.0
 40
9.0
 40
10.0
 40
10.0
 40
10.0
 40
10.0
 10
748.1168326095
 20
27.6590584303
 30
0.0
 10
748.0283761019
 20
27.7103527365
 30
0.0
 10
747.9149267052
 20
27.7354764784
 30
0.0
 10
747.8112912702
 20
27.7354764784
 30
0.0
 10
747.4564184171
 20
27.7354764784
 30
0.0
 10
747.1809732268
 20
27.4716771893
 30
0.0
 10
747.1809732268
 20
27.1141872797
 30
0.0
 10
747.1809732268
 20
26.769259241
 30
0.0
 10
747.459428032
 20
26.5091238309
 30
0.0
 10
747.798991105
 20
26.5091238309
 30
0.0
 10
747.9149267052
 20
26.5091238309
 30
0.0
 10
748.0156833781
 20
26.531107105
 30
0.0
 10
748.1168326095
 20
26.5850184676
 30
0.0
 10
748.1168326095
 20
26.5850184676
 30
0.0
 10
748.1168326095
 20
26.8676605631
 30
0.0
 10
748.1168326095
 20
26.8676605631
 30
0.0
 10
748.0329559506
 20
26.7744933538
 30
0.0
 10
747.9294513685
 20
26.7153478783
 30
0.0
 10
747.8013464558
 20
26.7153478783
 30
0.0
 10
747.5676433157
 20
26.7153478783
 30
0.0
 10
747.4023762016
 20
26.887550192
 30
0.0
 10
747.4023762016
 20
27.1241320941
 30
0.0
 10
747.4023762016
 20
27.3361136657
 30
0.0
 10
747.5701295193
 20
27.5282056084
 30
0.0
 10
747.7869526453
 20
27.5282056084
 30
0.0
 10
747.9197682596
 20
27.5282056084
 30
0.0
 10
748.0283761019
 20
27.4742942457
 30
0.0
 10
748.1168326095
 20
27.3732758672
 30
0.0
 10
748.1168326095
 20
27.3732758672
 30
0.0
 10
748.1168326095
 20
27.6590584303
 30
0.0
 10
748.1168326095
 20
27.6590584303
 30
0.0
  0
SPLINE
  5
243
100
AcDbEntity
  8
0
100
AcDbSpline
 62
7
  6
CONTINUOUS
 70
2
 71
3
 72
32
 73
28
 74
0
 42
0.0000001
 43
0.0000001
 44
0.0000000001
 40
0.0
 40
0.0
 40
0.0
 40
0.0
 40
1.0
 40
1.0
 40
1.0
 40
2.0
 40
2.0
 40
2.0
 40
3.0
 40
3.0
 40
3.0
 40
4.0
 40
4.0
 40
4.0
 40
5.0
 40
5.0
 40
5.0
 40
6.0
 40
6.0
 40
6.0
 40
7.0
 40
7.0
 40
7.0
 40
8.0
 40
8.0
 40
8.0
 40
9.0
 40
9.0
 40
9.0
 40
9.0
 10
750.6487038618
 20
27.087493304
 30
0.0
 10
750.6487038618
 20
27.087493304
 30
0.0
 10
750.6487038618
 20
27.1215150377
 30
0.0
 10
750.6487038618
 20
27.1215150377
 30
0.0
 10
750.6487038618
 20
27.46382602
 30
0.0
 10
750.475847284
 20
27.7354764784
 30
0.0
 10
750.1091976768
 20
27.7354764784
 30
0.0
 10
749.7375756624
 20
27.7354764784
 30
0.0
 10
749.5478390706
 20
27.4690601328
 30
0.0
 10
749.5478390706
 20
27.1141872797
 30
0.0
 10
749.5478390706
 20
26.7744933538
 30
0.0
 10
749.7619142873
 20
26.5086004196
 30
0.0
 10
750.1140392312
 20
26.5086004196
 30
0.0
 10
750.3380592624
 20
26.5086004196
 30
0.0
 10
750.5402268724
 20
26.6242743142
 30
0.0
 10
750.6487038618
 20
26.8236940149
 30
0.0
 10
750.6487038618
 20
26.8236940149
 30
0.0
 10
750.4610609151
 20
26.9304699176
 30
0.0
 10
750.4610609151
 20
26.9304699176
 30
0.0
 10
750.3775768147
 20
26.7917659263
 30
0.0
 10
750.2863723978
 20
26.7059264751
 30
0.0
 10
750.1167871405
 20
26.7059264751
 30
0.0
 10
749.9048055689
 20
26.7059264751
 30
0.0
 10
749.7718591018
 20
26.8906906597
 30
0.0
 10
749.769503751
 20
27.087493304
 30
0.0
 10
749.769503751
 20
27.087493304
 30
0.0
 10
750.6487038618
 20
27.087493304
 30
0.0
 10
750.6487038618
 20
27.087493304
 30
0.0
  0
SPLINE
  5
244
100
AcDbEntity
  8
0
100
AcDbSpline
 62
7
  6
CONTINUOUS
 70
2
 71
3
 72
14
 73
10
 74
0
 42
0.0000001
 43
0.0000001
 44
0.0000000001
 40
0.0
 40
0.0
 40
0.0
 40
0.0
 40
1.0
 40
1.0
 40
1.0
 40
2.0
 40
2.0
 40
2.0
 40
3.0
 40
3.0
 40
3.0
 40
3.0
 10
749.7815422106
 20
27.2549849161
 30
0.0
 10
749.809152156
 20
27.4198594718
 30
0.0
 10
749.9369953631
 20
27.5428611244
 30
0.0
 10
750.1091976768
 20
27.5428611244
 30
0.0
 10
750.2863723978
 20
27.5428611244
 30
0.0
 10
750.3998217944
 20
27.4271872298
 30
0.0
 10
750.4270391814
 20
27.2549849161
 30
0.0
 10
750.4270391814
 20
27.2549849161
 30
0.0
 10
749.7815422106
 20
27.2549849161
 30
0.0
 10
749.7815422106
 20
27.2549849161
 30
0.0
  0
SPLINE
  5
245
100
AcDbEntity
  8
0
100
AcDbSpline
 62
7
  6
CONTINUOUS
 70
2
 71
3
 72
20
 73
16
 74
0
 42
0.0000001
 43
0.0000001
 44
0.0000000001
 40
0.0
 40
0.0
 40
0.0
 40
0.0
 40
1.0
 40
1.0
 40
1.0
 40
2.0
 40
2.0
 40
2.0
 40
3.0
 40
3.0
 40
3.0
 40
4.0
 40
4.0
 40
4.0
 40
5.0
 40
5.0
 40
5.0
 40
5.0
 10
752.672735312
 20
27.4643494312
 30
0.0
 10
752.672735312
 20
27.4643494312
 30
0.0
 10
753.0838748786
 20
26.9618745949
 30
0.0
 10
753.0838748786
 20
26.9618745949
 30
0.0
 10
752.9678084255
 20
26.8462007003
 30
0.0
 10
752.830020404
 20
26.7158712896
 30
0.0
 10
752.6580797959
 20
26.7158712896
 30
0.0
 10
752.4806433693
 20
26.7158712896
 30
0.0
 10
752.3131517572
 20
26.880222434
 30
0.0
 10
752.3131517572
 20
27.0571354493
 30
0.0
 10
752.3131517572
 20
27.2350952872
 30
0.0
 10
752.5229088308
 20
27.3612374075
 30
0.0
 10
752.6504903322
 20
27.4491705039
 30
0.0
 10
752.6504903322
 20
27.4491705039
 30
0.0
 10
752.672735312
 20
27.4643494312
 30
0.0
 10
752.672735312
 20
27.4643494312
 30
0.0
  0
SPLINE
  5
246
100
AcDbEntity
  8
0
100
AcDbSpline
 62
7
  6
CONTINUOUS
 70
2
 71
3
 72
23
 73
19
 74
0
 42
0.0000001
 43
0.0000001
 44
0.0000000001
 40
0.0
 40
0.0
 40
0.0
 40
0.0
 40
1.0
 40
1.0
 40
1.0
 40
2.0
 40
2.0
 40
2.0
 40
3.0
 40
3.0
 40
3.0
 40
4.0
 40
4.0
 40
4.0
 40
5.0
 40
5.0
 40
5.0
 40
6.0
 40
6.0
 40
6.0
 40
6.0
 10
752.7220668259
 20
27.7553661073
 30
0.0
 10
752.7220668259
 20
27.7553661073
 30
0.0
 10
752.6604351467
 20
27.8338778005
 30
0.0
 10
752.6604351467
 20
27.8338778005
 30
0.0
 10
752.6065237841
 20
27.9024446792
 30
0.0
 10
752.5497336593
 20
27.9715349692
 30
0.0
 10
752.5497336593
 20
28.0652255897
 30
0.0
 10
752.5497336593
 20
28.1840399521
 30
0.0
 10
752.6456487778
 20
28.2615048227
 30
0.0
 10
752.7566119709
 20
28.2615048227
 30
0.0
 10
752.8798753291
 20
28.2615048227
 30
0.0
 10
752.9731733912
 20
28.1903208875
 30
0.0
 10
752.9731733912
 20
28.0599914768
 30
0.0
 10
752.9731733912
 20
27.9249513646
 30
0.0
 10
752.8450684785
 20
27.8485333165
 30
0.0
 10
752.7515087108
 20
27.7747323249
 30
0.0
 10
752.7515087108
 20
27.7747323249
 30
0.0
 10
752.7220668259
 20
27.7553661073
 30
0.0
 10
752.7220668259
 20
27.7553661073
 30
0.0
  0
SPLINE
  5
247
100
AcDbEntity
  8
0
100
AcDbSpline
 62
7
  6
CONTINUOUS
 70
2
 71
3
 72
50
 73
46
 74
0
 42
0.0000001
 43
0.0000001
 44
0.0000000001
 40
0.0
 40
0.0
 40
0.0
 40
0.0
 40
1.0
 40
1.0
 40
1.0
 40
2.0
 40
2.0
 40
2.0
 40
3.0
 40
3.0
 40
3.0
 40
4.0
 40
4.0
 40
4.0
 40
5.0
 40
5.0
 40
5.0
 40
6.0
 40
6.0
 40
6.0
 40
7.0
 40
7.0
 40
7.0
 40
8.0
 40
8.0
 40
8.0
 40
9.0
 40
9.0
 40
9.0
 40
10.0
 40
10.0
 40
10.0
 40
11.0
 40
11.0
 40
11.0
 40
12.0
 40
12.0
 40
12.0
 40
13.0
 40
13.0
 40
13.0
 40
14.0
 40
14.0
 40
14.0
 40
15.0
 40
15.0
 40
15.0
 40
15.0
 10
753.4242230685
 20
26.5483796775
 30
0.0
 10
753.4242230685
 20
26.5483796775
 30
0.0
 10
753.7096130732
 20
26.5483796775
 30
0.0
 10
753.7096130732
 20
26.5483796775
 30
0.0
 10
753.7096130732
 20
26.5483796775
 30
0.0
 10
753.3772469054
 20
26.9592575384
 30
0.0
 10
753.3772469054
 20
26.9592575384
 30
0.0
 10
753.3772469054
 20
26.9592575384
 30
0.0
 10
753.6037531403
 20
27.2251504727
 30
0.0
 10
753.6037531403
 20
27.2251504727
 30
0.0
 10
753.6037531403
 20
27.2251504727
 30
0.0
 10
753.455496893
 20
27.3779865687
 30
0.0
 10
753.455496893
 20
27.3779865687
 30
0.0
 10
753.455496893
 20
27.3779865687
 30
0.0
 10
753.2395897367
 20
27.1267491506
 30
0.0
 10
753.2395897367
 20
27.1267491506
 30
0.0
 10
753.2395897367
 20
27.1267491506
 30
0.0
 10
752.8525270894
 20
27.5946788419
 30
0.0
 10
752.8525270894
 20
27.5946788419
 30
0.0
 10
753.0079802419
 20
27.7087825027
 30
0.0
 10
753.1902582229
 20
27.8485333165
 30
0.0
 10
753.1902582229
 20
28.0578978317
 30
0.0
 10
753.1902582229
 20
28.3018074918
 30
0.0
 10
752.9882214657
 20
28.4452221847
 30
0.0
 10
752.7617152309
 20
28.4452221847
 30
0.0
 10
752.5175438651
 20
28.4452221847
 30
0.0
 10
752.333172239
 20
28.2944797338
 30
0.0
 10
752.333172239
 20
28.0380082027
 30
0.0
 10
752.333172239
 20
27.8804614051
 30
0.0
 10
752.4318352667
 20
27.7428042364
 30
0.0
 10
752.5371717884
 20
27.6318410434
 30
0.0
 10
752.5371717884
 20
27.6318410434
 30
0.0
 10
752.4216287466
 20
27.5480952373
 30
0.0
 10
752.4216287466
 20
27.5480952373
 30
0.0
 10
752.2439306144
 20
27.4198594718
 30
0.0
 10
752.0965903368
 20
27.2921471175
 30
0.0
 10
752.0965903368
 20
27.0550418041
 30
0.0
 10
752.0965903368
 20
26.734714096
 30
0.0
 10
752.3551555131
 20
26.5086004196
 30
0.0
 10
752.6655384068
 20
26.5086004196
 30
0.0
 10
752.8844551779
 20
26.5086004196
 30
0.0
 10
753.0816503806
 20
26.6336957174
 30
0.0
 10
753.2219246058
 20
26.7996170956
 30
0.0
 10
753.2219246058
 20
26.7996170956
 30
0.0
 10
753.4242230685
 20
26.5483796775
 30
0.0
 10
753.4242230685
 20
26.5483796775
 30
0.0
  0
LWPOLYLINE
  5
248
100
AcDbEntity
  8
0
100
AcDbPolyline
 62
7
  6
CONTINUOUS
 90
2
 70
0
 43
0.2
 10
755.3596671583
 20
28.4049195155
 10
755.128319369
 20
28.4049195155
  0
LWPOLYLINE
  5
249
100
AcDbEntity
  8
0
100
AcDbPolyline
 62
7
  6
CONTINUOUS
 90
2
 70
0
 43
0.2
 10
755.128319369
 20
28.4049195155
 10
755.128319369
 20
26.5478562662
  0
LWPOLYLINE
  5
24A
100
AcDbEntity
  8
0
100
AcDbPolyline
 62
7
  6
CONTINUOUS
 90
2
 70
0
 43
0.2
 10
755.128319369
 20
26.5478562662
 10
755.9236428209
 20
26.5478562662
  0
LWPOLYLINE
  5
24B
100
AcDbEntity
  8
0
100
AcDbPolyline
 62
7
  6
CONTINUOUS
 90
2
 70
0
 43
0.2
 10
755.9236428209
 20
26.5478562662
 10
755.9236428209
 20
26.7598378378
  0
LWPOLYLINE
  5
24C
100
AcDbEntity
  8
0
100
AcDbPolyline
 62
7
  6
CONTINUOUS
 90
2
 70
0
 43
0.2
 10
755.9236428209
 20
26.7598378378
 10
755.3596671583
 20
26.7598378378
  0
LWPOLYLINE
  5
24D
100
AcDbEntity
  8
0
100
AcDbPolyline
 62
7
  6
CONTINUOUS
 90
2
 70
0
 43
0.2
 10
755.3596671583
 20
26.7598378378
 10
755.3596671583
 20
28.4049195155
  0
LWPOLYLINE
  5
24E
100
AcDbEntity
  8
0
100
AcDbPolyline
 62
7
  6
CONTINUOUS
 90
2
 70
0
 43
0.2
 10
757.6027462324
 20
27.7004079221
 10
757.3816049633
 20
27.7004079221
  0
LWPOLYLINE
  5
24F
100
AcDbEntity
  8
0
100
AcDbPolyline
 62
7
  6
CONTINUOUS
 90
2
 70
0
 43
0.2
 10
757.3816049633
 20
27.7004079221
 10
757.3816049633
 20
26.5483796775
  0
LWPOLYLINE
  5
250
100
AcDbEntity
  8
0
100
AcDbPolyline
 62
7
  6
CONTINUOUS
 90
2
 70
0
 43
0.2
 10
757.3816049633
 20
26.5483796775
 10
757.6027462324
 20
26.5483796775
  0
LWPOLYLINE
  5
251
100
AcDbEntity
  8
0
100
AcDbPolyline
 62
7
  6
CONTINUOUS
 90
2
 70
0
 43
0.2
 10
757.6027462324
 20
26.5483796775
 10
757.6027462324
 20
27.7004079221
  0
LWPOLYLINE
  5
252
100
AcDbEntity
  8
0
100
AcDbPolyline
 62
7
  6
CONTINUOUS
 90
2
 70
1
 43
0.2
 10
757.3397229552
 20
28.230361851
 42
1.0
 10
757.6448899461
 20
28.230361851
 42
1.0
  0
SPLINE
  5
253
100
AcDbEntity
  8
0
100
AcDbSpline
 62
7
  6
CONTINUOUS
 70
2
 71
3
 72
17
 73
13
 74
0
 42
0.0000001
 43
0.0000001
 44
0.0000000001
 40
0.0
 40
0.0
 40
0.0
 40
0.0
 40
1.0
 40
1.0
 40
1.0
 40
2.0
 40
2.0
 40
2.0
 40
3.0
 40
3.0
 40
3.0
 40
4.0
 40
4.0
 40
4.0
 40
4.0
 10
759.7330301741
 20
26.7059264751
 30
0.0
 10
759.4990653284
 20
26.7059264751
 30
0.0
 10
759.3687359177
 20
26.9079632322
 30
0.0
 10
759.3687359177
 20
27.1241320941
 30
0.0
 10
759.3687359177
 20
27.3387307222
 30
0.0
 10
759.5045611469
 20
27.5376270115
 30
0.0
 10
759.7330301741
 20
27.5376270115
 30
0.0
 10
759.9724908383
 20
27.5376270115
 30
0.0
 10
760.1080543618
 20
27.3486755366
 30
0.0
 10
760.1080543618
 20
27.1241320941
 30
0.0
 10
760.1080543618
 20
26.8980184178
 30
0.0
 10
759.974846189
 20
26.7059264751
 30
0.0
 10
759.7330301741
 20
26.7059264751
 30
0.0
  0
SPLINE
  5
254
100
AcDbEntity
  8
0
100
AcDbSpline
 62
7
  6
CONTINUOUS
 70
2
 71
3
 72
50
 73
46
 74
0
 42
0.0000001
 43
0.0000001
 44
0.0000000001
 40
0.0
 40
0.0
 40
0.0
 40
0.0
 40
1.0
 40
1.0
 40
1.0
 40
2.0
 40
2.0
 40
2.0
 40
3.0
 40
3.0
 40
3.0
 40
4.0
 40
4.0
 40
4.0
 40
5.0
 40
5.0
 40
5.0
 40
6.0
 40
6.0
 40
6.0
 40
7.0
 40
7.0
 40
7.0
 40
8.0
 40
8.0
 40
8.0
 40
9.0
 40
9.0
 40
9.0
 40
10.0
 40
10.0
 40
10.0
 40
11.0
 40
11.0
 40
11.0
 40
12.0
 40
12.0
 40
12.0
 40
13.0
 40
13.0
 40
13.0
 40
14.0
 40
14.0
 40
14.0
 40
15.0
 40
15.0
 40
15.0
 40
15.0
 10
760.3171571713
 20
27.7009313334
 30
0.0
 10
760.3171571713
 20
27.7009313334
 30
0.0
 10
760.0954924909
 20
27.7009313334
 30
0.0
 10
760.0954924909
 20
27.7009313334
 30
0.0
 10
760.0954924909
 20
27.7009313334
 30
0.0
 10
760.0954924909
 20
27.5036052778
 30
0.0
 10
760.0954924909
 20
27.5036052778
 30
0.0
 10
760.0954924909
 20
27.5036052778
 30
0.0
 10
760.0907817893
 20
27.5036052778
 30
0.0
 10
760.0907817893
 20
27.5036052778
 30
0.0
 10
759.9994465196
 20
27.6464965594
 30
0.0
 10
759.8615276452
 20
27.7349530671
 30
0.0
 10
759.6888019202
 20
27.7349530671
 30
0.0
 10
759.3564357524
 20
27.7349530671
 30
0.0
 10
759.1473329429
 20
27.4470768587
 30
0.0
 10
759.1473329429
 20
27.1314598522
 30
0.0
 10
759.1473329429
 20
26.8017107408
 30
0.0
 10
759.3443972928
 20
26.5086004196
 30
0.0
 10
759.699270146
 20
26.5086004196
 30
0.0
 10
759.8615276452
 20
26.5086004196
 30
0.0
 10
760.0015401647
 20
26.5970569272
 30
0.0
 10
760.0907817893
 20
26.7279097492
 30
0.0
 10
760.0907817893
 20
26.7279097492
 30
0.0
 10
760.0954924909
 20
26.7279097492
 30
0.0
 10
760.0954924909
 20
26.7279097492
 30
0.0
 10
760.0954924909
 20
26.7279097492
 30
0.0
 10
760.0954924909
 20
26.5086004196
 30
0.0
 10
760.0954924909
 20
26.5086004196
 30
0.0
 10
760.0954924909
 20
26.2720185175
 30
0.0
 10
760.0389640718
 20
26.0851606877
 30
0.0
 10
759.7657433795
 20
26.0851606877
 30
0.0
 10
759.5634449168
 20
26.0851606877
 30
0.0
 10
759.4208153408
 20
26.2034516388
 30
0.0
 10
759.4208153408
 20
26.4096756862
 30
0.0
 10
759.4208153408
 20
26.4096756862
 30
0.0
 10
759.1991506604
 20
26.4096756862
 30
0.0
 10
759.1991506604
 20
26.4096756862
 30
0.0
 10
759.2041230677
 20
26.0851606877
 30
0.0
 10
759.4352091513
 20
25.8883580435
 30
0.0
 10
759.7555368594
 20
25.8883580435
 30
0.0
 10
760.2035769218
 20
25.8883580435
 30
0.0
 10
760.3171571713
 20
26.1736171954
 30
0.0
 10
760.3171571713
 20
26.5703629516
 30
0.0
 10
760.3171571713
 20
26.5703629516
 30
0.0
 10
760.3171571713
 20
27.7009313334
 30
0.0
 10
760.3171571713
 20
27.7009313334
 30
0.0
  0
SPLINE
  5
255
100
AcDbEntity
  8
0
100
AcDbSpline
 62
7
  6
CONTINUOUS
 70
2
 71
3
 72
44
 73
40
 74
0
 42
0.0000001
 43
0.0000001
 44
0.0000000001
 40
0.0
 40
0.0
 40
0.0
 40
0.0
 40
1.0
 40
1.0
 40
1.0
 40
2.0
 40
2.0
 40
2.0
 40
3.0
 40
3.0
 40
3.0
 40
4.0
 40
4.0
 40
4.0
 40
5.0
 40
5.0
 40
5.0
 40
6.0
 40
6.0
 40
6.0
 40
7.0
 40
7.0
 40
7.0
 40
8.0
 40
8.0
 40
8.0
 40
9.0
 40
9.0
 40
9.0
 40
10.0
 40
10.0
 40
10.0
 40
11.0
 40
11.0
 40
11.0
 40
12.0
 40
12.0
 40
12.0
 40
13.0
 40
13.0
 40
13.0
 40
13.0
 10
761.8860825067
 20
28.6859913771
 30
0.0
 10
761.8860825067
 20
28.6859913771
 30
0.0
 10
761.8860825067
 20
26.5478562662
 30
0.0
 10
761.8860825067
 20
26.5478562662
 30
0.0
 10
761.8860825067
 20
26.5478562662
 30
0.0
 10
762.1074854815
 20
26.5478562662
 30
0.0
 10
762.1074854815
 20
26.5478562662
 30
0.0
 10
762.1074854815
 20
26.5478562662
 30
0.0
 10
762.1074854815
 20
27.0775484895
 30
0.0
 10
762.1074854815
 20
27.0775484895
 30
0.0
 10
762.1074854815
 20
27.2874364159
 30
0.0
 10
762.1074854815
 20
27.5381504228
 30
0.0
 10
762.3927446334
 20
27.5381504228
 30
0.0
 10
762.6196434267
 20
27.5381504228
 30
0.0
 10
762.646599108
 20
27.4052039557
 30
0.0
 10
762.646599108
 20
27.2089247228
 30
0.0
 10
762.646599108
 20
27.2089247228
 30
0.0
 10
762.646599108
 20
26.5478562662
 30
0.0
 10
762.646599108
 20
26.5478562662
 30
0.0
 10
762.646599108
 20
26.5478562662
 30
0.0
 10
762.868525494
 20
26.5478562662
 30
0.0
 10
762.868525494
 20
26.5478562662
 30
0.0
 10
762.868525494
 20
26.5478562662
 30
0.0
 10
762.868525494
 20
27.2350952872
 30
0.0
 10
762.868525494
 20
27.2350952872
 30
0.0
 10
762.868525494
 20
27.5156437375
 30
0.0
 10
762.7845179823
 20
27.7354764784
 30
0.0
 10
762.4594795726
 20
27.7354764784
 30
0.0
 10
762.3197287587
 20
27.7354764784
 30
0.0
 10
762.1815481787
 20
27.6690032448
 30
0.0
 10
762.1121961831
 20
27.5460015922
 30
0.0
 10
762.1121961831
 20
27.5460015922
 30
0.0
 10
762.1074854815
 20
27.5460015922
 30
0.0
 10
762.1074854815
 20
27.5460015922
 30
0.0
 10
762.1074854815
 20
27.5460015922
 30
0.0
 10
762.1074854815
 20
28.6859913771
 30
0.0
 10
762.1074854815
 20
28.6859913771
 30
0.0
 10
762.1074854815
 20
28.6859913771
 30
0.0
 10
761.8860825067
 20
28.6859913771
 30
0.0
 10
761.8860825067
 20
28.6859913771
 30
0.0
  0
LWPOLYLINE
  5
256
100
AcDbEntity
  8
0
100
AcDbPolyline
 62
7
  6
CONTINUOUS
 90
2
 70
0
 43
0.2
 10
764.7083161709
 20
27.4936604634
 10
764.9247467384
 20
27.4936604634
  0
LWPOLYLINE
  5
257
100
AcDbEntity
  8
0
100
AcDbPolyline
 62
7
  6
CONTINUOUS
 90
2
 70
0
 43
0.2
 10
764.9247467384
 20
27.4936604634
 10
764.9247467384
 20
27.7004079221
  0
LWPOLYLINE
  5
258
100
AcDbEntity
  8
0
100
AcDbPolyline
 62
7
  6
CONTINUOUS
 90
2
 70
0
 43
0.2
 10
764.9247467384
 20
27.7004079221
 10
764.7083161709
 20
27.7004079221
  0
LWPOLYLINE
  5
259
100
AcDbEntity
  8
0
100
AcDbPolyline
 62
7
  6
CONTINUOUS
 90
2
 70
0
 43
0.2
 10
764.7083161709
 20
27.7004079221
 10
764.7083161709
 20
28.1411202265
  0
LWPOLYLINE
  5
25A
100
AcDbEntity
  8
0
100
AcDbPolyline
 62
7
  6
CONTINUOUS
 90
2
 70
0
 43
0.2
 10
764.7083161709
 20
28.1411202265
 10
764.4866514905
 20
28.1411202265
  0
LWPOLYLINE
  5
25B
100
AcDbEntity
  8
0
100
AcDbPolyline
 62
7
  6
CONTINUOUS
 90
2
 70
0
 43
0.2
 10
764.4866514905
 20
28.1411202265
 10
764.4866514905
 20
27.7004079221
  0
LWPOLYLINE
  5
25C
100
AcDbEntity
  8
0
100
AcDbPolyline
 62
7
  6
CONTINUOUS
 90
2
 70
0
 43
0.2
 10
764.4866514905
 20
27.7004079221
 10
764.3660051886
 20
27.7004079221
  0
LWPOLYLINE
  5
25D
100
AcDbEntity
  8
0
100
AcDbPolyline
 62
7
  6
CONTINUOUS
 90
2
 70
0
 43
0.2
 10
764.3660051886
 20
27.7004079221
 10
764.3660051886
 20
27.4936604634
  0
LWPOLYLINE
  5
25E
100
AcDbEntity
  8
0
100
AcDbPolyline
 62
7
  6
CONTINUOUS
 90
2
 70
0
 43
0.2
 10
764.3660051886
 20
27.4936604634
 10
764.4866514905
 20
27.4936604634
  0
LWPOLYLINE
  5
25F
100
AcDbEntity
  8
0
100
AcDbPolyline
 62
7
  6
CONTINUOUS
 90
2
 70
0
 43
0.2
 10
764.4866514905
 20
27.4936604634
 10
764.4866514905
 20
26.5478562662
  0
LWPOLYLINE
  5
260
100
AcDbEntity
  8
0
100
AcDbPolyline
 62
7
  6
CONTINUOUS
 90
2
 70
0
 43
0.2
 10
764.4866514905
 20
26.5478562662
 10
764.7083161709
 20
26.5478562662
  0
LWPOLYLINE
  5
261
100
AcDbEntity
  8
0
100
AcDbPolyline
 62
7
  6
CONTINUOUS
 90
2
 70
0
 43
0.2
 10
764.7083161709
 20
26.5478562662
 10
764.7083161709
 20
27.4936604634
  0
SPLINE
  5
262
100
AcDbEntity
  8
0
100
AcDbSpline
 62
7
  6
CONTINUOUS
 70
2
 71
3
 72
20
 73
16
 74
0
 42
0.0000001
 43
0.0000001
 44
0.0000000001
 40
0.0
 40
0.0
 40
0.0
 40
0.0
 40
1.0
 40
1.0
 40
1.0
 40
2.0
 40
2.0
 40
2.0
 40
3.0
 40
3.0
 40
3.0
 40
4.0
 40
4.0
 40
4.0
 40
5.0
 40
5.0
 40
5.0
 40
5.0
 10
752.4903264781
 20
36.9087827096
 30
0.0
 10
752.4903264781
 20
36.9087827096
 30
0.0
 10
754.8066831326
 20
34.0792212873
 30
0.0
 10
754.8066831326
 20
34.0792212873
 30
0.0
 10
754.1550360792
 20
33.4270508227
 30
0.0
 10
753.3781628752
 20
32.6911345519
 30
0.0
 10
752.4069732306
 20
32.6911345519
 30
0.0
 10
751.4084353461
 20
32.6911345519
 30
0.0
 10
750.4651173526
 20
33.6207129992
 30
0.0
 10
750.4651173526
 20
34.6199051477
 30
0.0
 10
750.4651173526
 20
35.6190972963
 30
0.0
 10
751.6439704257
 20
36.3257025349
 30
0.0
 10
752.365492886
 20
36.8255603148
 30
0.0
 10
752.365492886
 20
36.8255603148
 30
0.0
 10
752.4903264781
 20
36.9087827096
 30
0.0
 10
752.4903264781
 20
36.9087827096
 30
0.0
  0
SPLINE
  5
263
100
AcDbEntity
  8
0
100
AcDbSpline
 62
7
  6
CONTINUOUS
 70
2
 71
3
 72
23
 73
19
 74
0
 42
0.0000001
 43
0.0000001
 44
0.0000000001
 40
0.0
 40
0.0
 40
0.0
 40
0.0
 40
1.0
 40
1.0
 40
1.0
 40
2.0
 40
2.0
 40
2.0
 40
3.0
 40
3.0
 40
3.0
 40
4.0
 40
4.0
 40
4.0
 40
5.0
 40
5.0
 40
5.0
 40
6.0
 40
6.0
 40
6.0
 40
6.0
 10
752.7677344607
 20
38.5465366293
 30
0.0
 10
752.7677344607
 20
38.5465366293
 30
0.0
 10
752.4212361882
 20
38.9898659901
 30
0.0
 10
752.4212361882
 20
38.9898659901
 30
0.0
 10
752.1154331432
 20
39.3779754601
 30
0.0
 10
751.7965448161
 20
39.7664774885
 30
0.0
 10
751.7965448161
 20
40.2934218026
 30
0.0
 10
751.7965448161
 20
40.9595935192
 30
0.0
 10
752.3378829406
 20
41.4033154385
 30
0.0
 10
752.9617891957
 20
41.4033154385
 30
0.0
 10
753.6555708578
 20
41.4033154385
 30
0.0
 10
754.1827768775
 20
41.0010738638
 30
0.0
 10
754.1827768775
 20
40.2660735628
 30
0.0
 10
754.1827768775
 20
39.5028090523
 30
0.0
 10
753.4615161228
 20
39.0726958264
 30
0.0
 10
752.9344409559
 20
38.6569764111
 30
0.0
 10
752.9344409559
 20
38.6569764111
 30
0.0
 10
752.7677344607
 20
38.5465366293
 30
0.0
 10
752.7677344607
 20
38.5465366293
 30
0.0
  0
SPLINE
  5
264
100
AcDbEntity
  8
0
100
AcDbSpline
 62
7
  6
CONTINUOUS
 70
2
 71
3
 72
50
 73
46
 74
0
 42
0.0000001
 43
0.0000001
 44
0.0000000001
 40
0.0
 40
0.0
 40
0.0
 40
0.0
 40
1.0
 40
1.0
 40
1.0
 40
2.0
 40
2.0
 40
2.0
 40
3.0
 40
3.0
 40
3.0
 40
4.0
 40
4.0
 40
4.0
 40
5.0
 40
5.0
 40
5.0
 40
6.0
 40
6.0
 40
6.0
 40
7.0
 40
7.0
 40
7.0
 40
8.0
 40
8.0
 40
8.0
 40
9.0
 40
9.0
 40
9.0
 40
10.0
 40
10.0
 40
10.0
 40
11.0
 40
11.0
 40
11.0
 40
12.0
 40
12.0
 40
12.0
 40
13.0
 40
13.0
 40
13.0
 40
14.0
 40
14.0
 40
14.0
 40
15.0
 40
15.0
 40
15.0
 40
15.0
 10
756.7213216236
 20
31.7479474112
 30
0.0
 10
756.7213216236
 20
31.7479474112
 30
0.0
 10
758.3305496282
 20
31.7479474112
 30
0.0
 10
758.3305496282
 20
31.7479474112
 30
0.0
 10
758.3305496282
 20
31.7479474112
 30
0.0
 10
756.4575223346
 20
34.0650891826
 30
0.0
 10
756.4575223346
 20
34.0650891826
 30
0.0
 10
756.4575223346
 20
34.0650891826
 30
0.0
 10
757.73386076
 20
35.5625688772
 30
0.0
 10
757.73386076
 20
35.5625688772
 30
0.0
 10
757.73386076
 20
35.5625688772
 30
0.0
 10
756.9016368123
 20
36.4235804457
 30
0.0
 10
756.9016368123
 20
36.4235804457
 30
0.0
 10
756.9016368123
 20
36.4235804457
 30
0.0
 10
755.681041689
 20
35.0082763233
 30
0.0
 10
755.681041689
 20
35.0082763233
 30
0.0
 10
755.681041689
 20
35.0082763233
 30
0.0
 10
753.5031273202
 20
37.6436521577
 30
0.0
 10
753.5031273202
 20
37.6436521577
 30
0.0
 10
754.3767007596
 20
38.2816905177
 30
0.0
 10
755.4033720008
 20
39.0726958264
 30
0.0
 10
755.4033720008
 20
40.2515488996
 30
0.0
 10
755.4033720008
 20
41.6252418246
 30
0.0
 10
754.265475861
 20
42.429724974
 30
0.0
 10
752.9901842581
 20
42.429724974
 30
0.0
 10
751.6167530387
 20
42.429724974
 30
0.0
 10
750.5758188399
 20
41.5834997744
 30
0.0
 10
750.5758188399
 20
40.1408474122
 30
0.0
 10
750.5758188399
 20
39.2532727208
 30
0.0
 10
751.1311582164
 20
38.4763995167
 30
0.0
 10
751.7273236733
 20
37.8519698503
 30
0.0
 10
751.7273236733
 20
37.8519698503
 30
0.0
 10
751.0754149142
 20
37.3803762799
 30
0.0
 10
751.0754149142
 20
37.3803762799
 30
0.0
 10
750.0768770298
 20
36.6591155253
 30
0.0
 10
749.243998818
 20
35.9378547706
 30
0.0
 10
749.243998818
 20
34.6062964542
 30
0.0
 10
749.243998818
 20
32.8026211562
 30
0.0
 10
750.7010449906
 20
31.5260210251
 30
0.0
 10
752.4485844279
 20
31.5260210251
 30
0.0
 10
753.6834425088
 20
31.5260210251
 30
0.0
 10
754.7928127335
 20
32.2341964976
 30
0.0
 10
755.5836871895
 20
33.1627281223
 30
0.0
 10
755.5836871895
 20
33.1627281223
 30
0.0
 10
756.7213216236
 20
31.7479474112
 30
0.0
 10
756.7213216236
 20
31.7479474112
 30
0.0
  0
LINE
  5
265
100
AcDbEntity
  8
0
100
AcDbLine
 62
7
  6
CONTINUOUS
 10
742.5241829986
 20
29.7218223158
 11
764.9380937263
 21
29.7218223158
  0
LINE
  5
266
100
AcDbEntity
  8
0
100
AcDbLine
 62
7
  6
CONTINUOUS
 10
764.9380937263
 20
29.7218223158
 11
764.9380937263
 21
52.1357330435
  0
LINE
  5
267
100
AcDbEntity
  8
0
100
AcDbLine
 62
7
  6
CONTINUOUS
 10
764.9380937263
 20
52.1357330435
 11
742.5241829986
 21
52.1357330435
  0
LINE
  5
268
100
AcDbEntity
  8
0
100
AcDbLine
 62
7
  6
CONTINUOUS
 10
742.5241829986
 20
52.1357330435
 11
742.5241829986
 21
29.7218223158
  0
ENDBLK
  5
269
100
AcDbEntity
  8
0
  6
BYBLOCK
 62
0
100
AcDbBlockEnd
  0
BLOCK
  5
26A
100
AcDbEntity
  8
0
100
AcDbBlockBegin
  2
_CLOSED
 70
64
 10
0.0
 20
0.0
  3
_CLOSED
  1

  0
LINE
  5
26B
100
AcDbEntity
  8
0
  6
BYBLOCK
 62
0
100
AcDbLine
 10
0.0
 20
0.0
 11
-1.0
 21
0.2
  0
LINE
  5
26C
100
AcDbEntity
  8
0
  6
BYBLOCK
 62
0
100
AcDbLine
 10
-1.0
 20
0.2
 11
-1.0
 21
-0.2
  0
LINE
  5
26D
100
AcDbEntity
  8
0
  6
BYBLOCK
 62
0
100
AcDbLine
 10
-1.0
 20
-0.2
 11
0.0
 21
0.0
  0
LINE
  5
26E
100
AcDbEntity
  8
0
  6
BYBLOCK
 62
0
100
AcDbLine
 10
-1.0
 20
0.0
 11
0.0
 21
0.0
  0
ENDBLK
  5
26F
100
AcDbEntity
  8
0
  6
BYBLOCK
 62
0
100
AcDbBlockEnd
  0
BLOCK
  5
270
100
AcDbEntity
  8
0
100
AcDbBlockBegin
 62
2
  6
CONTINUOUS
  2
*D0
 70
65
 10
0.0
 20
0.0
  3
*D0
  1

  0
MTEXT
  5
271
100
AcDbEntity
  8
0
100
AcDbMText
 62
2
  6
CONTINUOUS
  7
TEXTSTYLE_2
 71
2
 72
1
 10
165.6113034733
 20
1104.2759019171
 30
0.0
 11
0.9205048535
 21
0.3907311285
 31
0.0
  1
{\Fgdt;n}\Farial.ttf;125
 40
3.0
 41
10.9925650558
  0
LINE
  5
272
100
AcDbEntity
  8
0
100
AcDbLine
 62
2
  6
CONTINUOUS
 10
109.8380402107
 20
1075.712934546
 11
109.1802732263
 21
1077.2625364524
  0
LINE
  5
273
100
AcDbEntity
  8
0
100
AcDbLine
 62
2
  6
CONTINUOUS
 10
225.2553014853
 20
1123.7199896713
 11
224.3150501996
 21
1125.9350828874
  0
LINE
  5
274
100
AcDbEntity
  8
0
100
AcDbLine
 62
2
  6
CONTINUOUS
 10
109.5449918644
 20
1076.4033131861
 11
167.0765452051
 21
1100.8240087167
  0
LINE
  5
275
100
AcDbEntity
  8
0
100
AcDbLine
 62
2
  6
CONTINUOUS
 10
224.6080985459
 20
1125.2447042473
 11
167.0765452051
 21
1100.8240087167
  0
INSERT
  5
276
100
AcDbEntity
  8
0
100
AcDbBlockReference
 62
2
  6
CONTINUOUS
  2
_CLOSED
 10
109.5449918644
 20
1076.4033131861
 41
2.5
 42
2.5
 43
2.5
 50
203.0
  0
INSERT
  5
277
100
AcDbEntity
  8
0
100
AcDbBlockReference
 62
2
  6
CONTINUOUS
  2
_CLOSED
 10
224.6080985459
 20
1125.2447042473
 41
2.5
 42
2.5
 43
2.5
 50
23.0
  0
ENDBLK
  5
278
100
AcDbEntity
  8
0
  6
BYBLOCK
 62
0
100
AcDbBlockEnd
  0
BLOCK
  5
279
100
AcDbEntity
  8
0
100
AcDbBlockBegin
 62
2
  6
CONTINUOUS
  2
*D1
 70
65
 10
0.0
 20
0.0
  3
*D1
  1

  0
MTEXT
  5
27A
100
AcDbEntity
  8
0
100
AcDbMText
 62
2
  6
CONTINUOUS
  7
STANDARD
 71
2
 72
1
 10
266.8891470775
 20
704.7792277074
 30
0.0
 11
0.0
 21
1.0
 31
0.0
  1
819,25
 40
3.0
 41
12.8141263941
  0
LINE
  5
27B
100
AcDbEntity
  8
0
100
AcDbLine
 62
2
  6
CONTINUOUS
 10
250.5143096623
 20
1114.4059832099
 11
271.3891470775
 21
1114.4059832099
  0
LINE
  5
27C
100
AcDbEntity
  8
0
100
AcDbLine
 62
2
  6
CONTINUOUS
 10
243.889185529
 20
295.1524722049
 11
271.3891470775
 21
295.1524722049
  0
LINE
  5
27D
100
AcDbEntity
  8
0
100
AcDbLine
 62
2
  6
CONTINUOUS
 10
270.6391470775
 20
1114.4059832099
 11
270.6391470775
 21
704.7792277074
  0
LINE
  5
27E
100
AcDbEntity
  8
0
100
AcDbLine
 62
2
  6
CONTINUOUS
 10
270.6391470775
 20
295.1524722049
 11
270.6391470775
 21
704.7792277074
  0
INSERT
  5
27F
100
AcDbEntity
  8
0
100
AcDbBlockReference
 62
2
  6
CONTINUOUS
  2
_CLOSED
 10
270.6391470775
 20
1114.4059832099
 41
2.5
 42
2.5
 43
2.5
 50
90.0
  0
INSERT
  5
280
100
AcDbEntity
  8
0
100
AcDbBlockReference
 62
2
  6
CONTINUOUS
  2
_CLOSED
 10
270.6391470775
 20
295.1524722049
 41
2.5
 42
2.5
 43
2.5
 50
270.0
  0
ENDBLK
  5
281
100
AcDbEntity
  8
0
  6
BYBLOCK
 62
0
100
AcDbBlockEnd
  0
BLOCK
  5
282
100
AcDbEntity
  8
0
100
AcDbBlockBegin
 62
2
  6
CONTINUOUS
  2
*D2
 70
65
 10
0.0
 20
0.0
  3
*D2
  1

  0
MTEXT
  5
283
100
AcDbEntity
  8
0
100
AcDbMText
 62
2
  6
CONTINUOUS
  7
TEXTSTYLE_2
 71
2
 72
1
 10
410.47215423
 20
280.2323531254
 30
0.0
 11
1.0
 21
0.0
 31
0.0
  1
{\Fgdt;n}\Farial.ttf;110
 40
3.0
 41
10.9925650558
  0
LINE
  5
284
100
AcDbEntity
  8
0
100
AcDbLine
 62
2
  6
CONTINUOUS
 10
355.47215423
 20
284.745685292
 11
355.47215423
 21
275.7323531254
  0
LINE
  5
285
100
AcDbEntity
  8
0
100
AcDbLine
 62
2
  6
CONTINUOUS
 10
465.47215423
 20
285.1983471785
 11
465.47215423
 21
275.7323531254
  0
LINE
  5
286
100
AcDbEntity
  8
0
100
AcDbLine
 62
2
  6
CONTINUOUS
 10
355.47215423
 20
276.4823531254
 11
410.47215423
 21
276.4823531254
  0
LINE
  5
287
100
AcDbEntity
  8
0
100
AcDbLine
 62
2
  6
CONTINUOUS
 10
465.47215423
 20
276.4823531254
 11
410.47215423
 21
276.4823531254
  0
INSERT
  5
288
100
AcDbEntity
  8
0
100
AcDbBlockReference
 62
2
  6
CONTINUOUS
  2
_CLOSED
 10
355.47215423
 20
276.4823531254
 41
2.5
 42
2.5
 43
2.5
 50
180.0
  0
INSERT
  5
289
100
AcDbEntity
  8
0
100
AcDbBlockReference
 62
2
  6
CONTINUOUS
  2
_CLOSED
 10
465.47215423
 20
276.4823531254
 41
2.5
 42
2.5
 43
2.5
  0
ENDBLK
  5
28A
100
AcDbEntity
  8
0
  6
BYBLOCK
 62
0
100
AcDbBlockEnd
  0
ENDSEC
  0
SECTION
  2
ENTITIES
  0
DIMENSION
  5
28B
100
AcDbEntity
  8
0
100
AcDbDimension
 62
2
  6
CONTINUOUS
  2
*D0
 10
224.6080985459
 20
1125.2447042473
 11
167.0765452051
 21
1100.8240087167
 70
160
  1
%%c<>
  3
DIMSTYLE_1
100
AcDbAlignedDimension
 13
108.88722488
 23
1077.9529150925
 14
225.5483498317
 24
1123.0296110312
 50
23.0
100
AcDbRotatedDimension
  0
DIMENSION
  5
28C
100
AcDbEntity
  8
0
100
AcDbDimension
 62
2
  6
CONTINUOUS
  2
*D1
 10
270.6391470775
 20
295.1524722049
 11
270.6391470775
 21
704.7704081302
 70
160
  3
DIMSTYLE_2
100
AcDbAlignedDimension
 13
249.7643096623
 23
1114.4059832099
 14
243.139185529
 24
295.1524722049
 50
270.0
100
AcDbRotatedDimension
  0
DIMENSION
  5
28D
100
AcDbEntity
  8
0
100
AcDbDimension
 62
2
  6
CONTINUOUS
  2
*D2
 10
465.47215423
 20
276.4823531254
 11
410.47215423
 21
276.4823531254
 70
160
  1
%%c<>
  3
DIMSTYLE_3
100
AcDbAlignedDimension
 13
355.47215423
 23
285.495685292
 14
465.47215423
 24
285.9483471785
100
AcDbRotatedDimension
  0
LINE
  5
28E
100
AcDbEntity
  8
0
100
AcDbLine
 62
2
  6
CONTINUOUS
 10
739.9050258913
 20
52.5120455435
 11
829.9050258913
 21
52.5120455435
  0
LINE
  5
28F
100
AcDbEntity
  8
0
100
AcDbLine
 62
2
  6
CONTINUOUS
 10
739.9050258913
 20
52.5120455435
 11
739.9050258913
 21
12.5120455435
  0
LINE
  5
290
100
AcDbEntity
  8
0
100
AcDbLine
 62
2
  6
CONTINUOUS
 10
769.9050258913
 20
46.5120455435
 11
829.9050258913
 21
46.5120455435
  0
LINE
  5
291
100
AcDbEntity
  8
0
100
AcDbLine
 62
2
  6
CONTINUOUS
 10
769.9050258913
 20
40.5120455435
 11
829.9050258913
 21
40.5120455435
  0
LINE
  5
292
100
AcDbEntity
  8
0
100
AcDbLine
 62
2
  6
CONTINUOUS
 10
769.9050258913
 20
30.5120455435
 11
829.9050258913
 21
30.5120455435
  0
LINE
  5
293
100
AcDbEntity
  8
0
100
AcDbLine
 62
2
  6
CONTINUOUS
 10
739.9050258913
 20
25.5120455435
 11
829.9050258913
 21
25.5120455435
  0
LINE
  5
294
100
AcDbEntity
  8
0
100
AcDbLine
 62
2
  6
CONTINUOUS
 10
739.9050258913
 20
12.5120455435
 11
829.9050258913
 21
12.5120455435
  0
LINE
  5
295
100
AcDbEntity
  8
0
100
AcDbLine
 62
2
  6
CONTINUOUS
 10
769.9050258913
 20
52.5120455435
 11
769.9050258913
 21
25.5120455435
  0
LINE
  5
296
100
AcDbEntity
  8
0
100
AcDbLine
 62
2
  6
CONTINUOUS
 10
809.9050258913
 20
52.5120455435
 11
809.9050258913
 21
40.5120455435
  0
LINE
  5
297
100
AcDbEntity
  8
0
100
AcDbLine
 62
2
  6
CONTINUOUS
 10
829.9050258913
 20
52.5120455435
 11
829.9050258913
 21
12.5120455435
  0
INSERT
  5
298
100
AcDbEntity
  8
0
100
AcDbBlockReference
 62
2
  6
CONTINUOUS
  2
LOGO2_BL0
 10
753.731072936
 20
39.0120455435
  0
MTEXT
  5
299
100
AcDbEntity
  8
9_SOLID
100
AcDbMText
 62
2
  6
CONTINUOUS
  7
TEXTSTYLE_3
 71
1
 72
1
 10
771.3925258913
 20
51.0120455435
 30
0.0
 11
1.0
 21
0.0
 31
0.0
  1
3X0_C_070
 40
3.0
 41
32.8928571429
  0
MTEXT
  5
29A
100
AcDbEntity
  8
0
100
AcDbMText
 62
2
  6
CONTINUOUS
  7
TEXTSTYLE_3
 71
1
 72
1
 10
811.3925258913
 20
50.7620455435
 30
0.0
 11
1.0
 21
0.0
 31
0.0
  1
Rev:00
 40
3.5
 41
22.75
  0
MTEXT
  5
29B
100
AcDbEntity
  8
9_SOLID
100
AcDbMText
 62
2
  6
CONTINUOUS
  7
TEXTSTYLE_3
 71
1
 72
1
 10
771.3925258913
 20
44.7620455435
 30
0.0
 11
1.0
 21
0.0
 31
0.0
  1
Scale:1:1
 40
3.5
 41
28.375
  0
MTEXT
  5
29C
100
AcDbEntity
  8
9_SOLID
100
AcDbMText
 62
2
  6
CONTINUOUS
  7
TEXTSTYLE_3
 71
1
 72
1
 10
811.3925258913
 20
45.2620455435
 30
0.0
 11
1.0
 21
0.0
 31
0.0
  1
A0
 40
3.5
 41
9.625
  0
MTEXT
  5
29D
100
AcDbEntity
  8
0
100
AcDbMText
 62
2
  6
CONTINUOUS
  7
TEXTSTYLE_3
 71
1
 72
1
 10
771.3925258913
 20
37.2620455435
 30
0.0
 11
1.0
 21
0.0
 31
0.0
  1
PLIN 4.2
 40
3.5
 41
31.375
  0
MTEXT
  5
29E
100
AcDbEntity
  8
0
100
AcDbMText
 62
2
  6
CONTINUOUS
  7
TEXTSTYLE_3
 71
1
 72
1
 10
771.3925258913
 20
29.2620455435
 30
0.0
 11
1.0
 21
0.0
 31
0.0
  1
DATE:17/05/2018
 40
2.5
 41
41.9642857143
  0
MTEXT
  5
29F
100
AcDbEntity
  8
9_SOLID
100
AcDbMText
 62
2
  6
CONTINUOUS
  7
TEXTSTYLE_3
 71
1
 72
1
 10
741.3925258913
 20
25.1995455435
 30
0.0
 11
1.0
 21
0.0
 31
0.0
  1
Any integral or partial reproductions are prohibited \Pwithout prior authorisation of L {\Ftxt.shx;\W0.190476;\H2.250000; }& L Luce & Light s.r.l., \Pin accordance with the law in force. \PAll rights reserved.
 40
2.25
 41
134.5982142857
  0
LINE
  5
2A0
100
AcDbEntity
  8
0
100
AcDbLine
 62
7
  6
CONTINUOUS
 10
0.0
 20
0.0
 11
841.0
 21
0.0
  0
LINE
  5
2A1
100
AcDbEntity
  8
0
100
AcDbLine
 62
7
  6
CONTINUOUS
 10
0.0
 20
0.0
 11
0.0
 21
1189.0
  0
LINE
  5
2A2
100
AcDbEntity
  8
0
100
AcDbLine
 62
7
  6
CONTINUOUS
 10
841.0
 20
0.0
 11
841.0
 21
1189.0
  0
LINE
  5
2A3
100
AcDbEntity
  8
0
100
AcDbLine
 62
7
  6
CONTINUOUS
 10
0.0
 20
1189.0
 11
841.0
 21
1189.0
  0
LINE
  5
2A4
100
AcDbEntity
  8
7_ALL_FEATURES
100
AcDbLine
 62
7
  6
CONTINUOUS
 10
181.3283681991
 20
84.8298743663
 11
171.794528664
 21
84.8298743663
  0
LINE
  5
2A5
100
AcDbEntity
  8
7_ALL_FEATURES
100
AcDbLine
 62
7
  6
CONTINUOUS
 10
171.6557610935
 20
84.8300567225
 11
171.794528664
 21
84.8298743663
  0
LINE
  5
2A6
100
AcDbEntity
  8
7_ALL_FEATURES
100
AcDbLine
 62
7
  6
CONTINUOUS
 10
171.6557836455
 20
84.8401839259
 11
171.794528664
 21
84.8298743663
  0
LINE
  5
2A7
100
AcDbEntity
  8
7_ALL_FEATURES
100
AcDbLine
 62
7
  6
CONTINUOUS
 10
171.794528664
 20
209.8298743663
 11
171.6557836547
 21
209.819564812
  0
LINE
  5
2A8
100
AcDbEntity
  8
7_ALL_FEATURES
100
AcDbLine
 62
7
  6
CONTINUOUS
 10
171.794528664
 20
209.8298743663
 11
171.6557611027
 21
209.8296920101
  0
LINE
  5
2A9
100
AcDbEntity
  8
7_ALL_FEATURES
100
AcDbLine
 62
7
  6
CONTINUOUS
 10
181.3283681991
 20
209.8298743663
 11
171.794528664
 21
209.8298743663
  0
LINE
  5
2AA
100
AcDbEntity
  8
3_ALL_AXES
100
AcDbLine
 62
3
  6
CONTINUOUS
 10
121.0748326772
 20
295.1524722049
 11
231.0748326772
 21
295.1524722049
  0
LINE
  5
2AB
100
AcDbEntity
  8
7_ALL_FEATURES
100
AcDbLine
 62
3
  6
CONTINUOUS
 10
129.107524322
 20
299.1524722049
 11
176.0748326772
 21
299.1524722049
  0
LINE
  5
2AC
100
AcDbEntity
  8
3_ALL_AXES
100
AcDbLine
 62
7
  6
CONTINUOUS
 10
121.0748326772
 20
299.1524722049
 11
176.0748326772
 21
299.1524722049
  0
LINE
  5
2AD
100
AcDbEntity
  8
3_ALL_AXES
100
AcDbLine
 62
3
  6
CONTINUOUS
 10
176.0748326772
 20
299.1524722049
 11
231.0748326772
 21
299.1524722049
  0
LINE
  5
2AE
100
AcDbEntity
  8
7_ALL_FEATURES
100
AcDbLine
 62
7
  6
CONTINUOUS
 10
128.8885316651
 20
300.3524722049
 11
176.0748326772
 21
300.3524722049
  0
LINE
  5
2AF
100
AcDbEntity
  8
3_ALL_AXES
100
AcDbLine
 62
7
  6
CONTINUOUS
 10
176.0748326772
 20
300.3524722049
 11
231.0748326772
 21
300.3524722049
  0
LINE
  5
2B0
100
AcDbEntity
  8
7_ALL_FEATURES
100
AcDbLine
 62
7
  6
CONTINUOUS
 10
114.4223739198
 20
1065.6820094959
 11
228.9322447311
 21
1114.2885658627
  0
LINE
  5
2B1
100
AcDbEntity
  8
7_ALL_FEATURES
100
AcDbLine
 62
7
  6
CONTINUOUS
 10
114.2629753232
 20
1065.2884406927
 11
229.3260820048
 21
1114.1298317538
  0
LINE
  5
2B2
100
AcDbEntity
  8
7_ALL_FEATURES
100
AcDbLine
 62
7
  6
CONTINUOUS
 10
238.8599215399
 20
1091.6695133296
 11
123.7968148583
 21
1042.8281222684
  0
LINE
  5
2B3
100
AcDbEntity
  8
7_ALL_FEATURES
100
AcDbLine
 62
7
  6
CONTINUOUS
 10
238.7005229433
 20
1091.2759445264
 11
124.1906521321
 21
1042.6693881596
  0
LINE
  5
2B4
100
AcDbEntity
  8
7_ALL_FEATURES
100
AcDbLine
 62
7
  6
CONTINUOUS
 10
114.4219074407
 20
1065.6818114873
 11
114.2629753232
 21
1065.2884406927
  0
LINE
  5
2B5
100
AcDbEntity
  8
7_ALL_FEATURES
100
AcDbLine
 62
7
  6
CONTINUOUS
 10
238.7009894224
 20
1091.276142535
 11
238.8599215399
 21
1091.6695133296
  0
LINE
  5
2B6
100
AcDbEntity
  8
3_ALL_AXES
100
AcDbLine
 62
7
  6
CONTINUOUS
 10
121.0748326772
 20
295.1524722049
 11
121.0748326772
 21
299.1524722049
  0
LINE
  5
2B7
100
AcDbEntity
  8
7_ALL_FEATURES
100
AcDbLine
 62
7
  6
CONTINUOUS
 10
126.0748326772
 20
299.1524722049
 11
126.0748326772
 21
1043.4691753502
  0
LINE
  5
2B8
100
AcDbEntity
  8
7_ALL_FEATURES
100
AcDbLine
 62
7
  6
CONTINUOUS
 10
128.8884509135
 20
300.3524722049
 11
128.8884509135
 21
299.1524722049
  0
LINE
  5
2B9
100
AcDbEntity
  8
7_ALL_FEATURES
100
AcDbLine
 62
9
  6
CONTINUOUS
 10
129.107524322
 20
300.3524722049
 11
129.107524322
 21
299.1524722049
  0
LINE
  5
2BA
100
AcDbEntity
  8
3_ALL_AXES
100
AcDbLine
 62
9
  6
CONTINUOUS
 10
176.0748326772
 20
295.1524722049
 11
176.0748326772
 21
300.3524722049
  0
LINE
  5
2BB
100
AcDbEntity
  8
7_ALL_FEATURES
100
AcDbLine
 62
7
  6
CONTINUOUS
 10
176.0748326772
 20
300.3524722049
 11
176.0748326772
 21
1064.6929161607
  0
LINE
  5
2BC
100
AcDbEntity
  8
3_ALL_AXES
100
AcDbLine
 62
7
  6
CONTINUOUS
 10
231.0748326772
 20
295.1524722049
 11
231.0748326772
 21
300.3524722049
  0
LINE
  5
2BD
100
AcDbEntity
  8
3_ALL_AXES
100
AcDbLine
 62
7
  6
CONTINUOUS
 10
123.7968148583
 20
1042.8281222684
 11
114.2629753232
 21
1065.2884406927
  0
LINE
  5
2BE
100
AcDbEntity
  8
3_ALL_AXES
100
AcDbLine
 62
7
  6
CONTINUOUS
 10
238.8599215399
 20
1091.6695133296
 11
229.3260820048
 21
1114.1298317538
  0
LINE
  5
2BF
100
AcDbEntity
  8
7_ALL_FEATURES
100
AcDbLine
 62
7
  6
CONTINUOUS
 10
124.1901856529
 20
1042.6691901509
 11
123.7968148583
 21
1042.8281222684
  0
LINE
  5
2C0
100
AcDbEntity
  8
7_ALL_FEATURES
100
AcDbLine
 62
7
  6
CONTINUOUS
 10
228.9327112102
 20
1114.2887638713
 11
229.3260820048
 21
1114.1298317538
  0
LINE
  5
2C1
100
AcDbEntity
  8
3_ALL_AXES
100
AcDbLine
 62
3
  6
CONTINUOUS
 10
355.47215423
 20
295.1524722049
 11
465.47215423
 21
295.1524722049
  0
LINE
  5
2C2
100
AcDbEntity
  8
7_ALL_FEATURES
100
AcDbLine
 62
3
  6
CONTINUOUS
 10
355.47215423
 20
299.1524722049
 11
381.8527212191
 21
299.1524722049
  0
LINE
  5
2C3
100
AcDbEntity
  8
7_ALL_FEATURES
100
AcDbLine
 62
3
  6
CONTINUOUS
 10
439.0915872409
 20
299.1524722049
 11
465.47215423
 21
299.1524722049
  0
LINE
  5
2C4
100
AcDbEntity
  8
3_ALL_AXES
100
AcDbLine
 62
7
  6
CONTINUOUS
 10
355.47215423
 20
299.1524722049
 11
465.47215423
 21
299.1524722049
  0
LINE
  5
2C5
100
AcDbEntity
  8
7_ALL_FEATURES
100
AcDbLine
 62
7
  6
CONTINUOUS
 10
355.47215423
 20
300.3524722049
 11
385.47215423
 21
300.3524722049
  0
LINE
  5
2C6
100
AcDbEntity
  8
7_ALL_FEATURES
100
AcDbLine
 62
7
  6
CONTINUOUS
 10
435.47215423
 20
300.3524722049
 11
465.47215423
 21
300.3524722049
  0
LINE
  5
2C7
100
AcDbEntity
  8
7_ALL_FEATURES
100
AcDbLine
 62
7
  6
CONTINUOUS
 10
347.97215423
 20
1067.248817799
 11
347.97215423
 21
1089.7091362233
  0
LINE
  5
2C8
100
AcDbEntity
  8
3_ALL_AXES
100
AcDbLine
 62
7
  6
CONTINUOUS
 10
355.47215423
 20
295.1524722049
 11
355.47215423
 21
300.3524722049
  0
LINE
  5
2C9
100
AcDbEntity
  8
7_ALL_FEATURES
100
AcDbLine
 62
9
  6
CONTINUOUS
 10
381.8527212191
 20
300.3524722049
 11
381.8527212191
 21
299.1524722049
  0
LINE
  5
2CA
100
AcDbEntity
  8
7_ALL_FEATURES
100
AcDbLine
 62
9
  6
CONTINUOUS
 10
384.1323374509
 20
300.3524722049
 11
384.1323374509
 21
299.1524722049
  0
LINE
  5
2CB
100
AcDbEntity
  8
7_ALL_FEATURES
100
AcDbLine
 62
9
  6
CONTINUOUS
 10
384.8877490583
 20
299.1524722049
 11
384.8877490583
 21
300.3524722049
  0
LINE
  5
2CC
100
AcDbEntity
  8
3_ALL_AXES
100
AcDbLine
 62
7
  6
CONTINUOUS
 10
385.47215423
 20
299.1524722049
 11
385.47215423
 21
1044.7802605691
  0
LINE
  5
2CD
100
AcDbEntity
  8
3_ALL_AXES
100
AcDbLine
 62
7
  6
CONTINUOUS
 10
435.47215423
 20
299.1524722049
 11
435.47215423
 21
1044.7802605497
  0
LINE
  5
2CE
100
AcDbEntity
  8
7_ALL_FEATURES
100
AcDbLine
 62
9
  6
CONTINUOUS
 10
436.0565594017
 20
299.1524722049
 11
436.0565594017
 21
300.3524722049
  0
LINE
  5
2CF
100
AcDbEntity
  8
7_ALL_FEATURES
100
AcDbLine
 62
9
  6
CONTINUOUS
 10
436.8119710092
 20
300.3524722049
 11
436.8119710092
 21
299.1524722049
  0
LINE
  5
2D0
100
AcDbEntity
  8
7_ALL_FEATURES
100
AcDbLine
 62
9
  6
CONTINUOUS
 10
439.0915872409
 20
300.3524722049
 11
439.0915872409
 21
299.1524722049
  0
LINE
  5
2D1
100
AcDbEntity
  8
3_ALL_AXES
100
AcDbLine
 62
7
  6
CONTINUOUS
 10
465.47215423
 20
295.1524722049
 11
465.47215423
 21
300.3524722049
  0
LINE
  5
2D2
100
AcDbEntity
  8
7_ALL_FEATURES
100
AcDbLine
 62
7
  6
CONTINUOUS
 10
472.97215423
 20
1067.248817799
 11
472.97215423
 21
1089.7091362233
  0
LINE
  5
2D3
100
AcDbEntity
  8
7_ALL_FEATURES
100
AcDbLine
 62
7
  6
CONTINUOUS
 10
636.408493318
 20
117.6486818239
 11
620.5780909463
 21
125.0297263395
  0
LINE
  5
2D4
100
AcDbEntity
  8
3_ALL_AXES
100
AcDbLine
 62
7
  6
CONTINUOUS
 10
616.5453208652
 20
113.6678423401
 11
616.5453208652
 21
117.1319439553
  0
LINE
  5
2D5
100
AcDbEntity
  8
3_ALL_AXES
100
AcDbLine
 62
7
  6
CONTINUOUS
 10
628.8676513356
 20
124.452890107
 11
628.8676513356
 21
758.2404099399
  0
LINE
  5
2D6
100
AcDbEntity
  8
3_ALL_AXES
100
AcDbLine
 62
9
  6
CONTINUOUS
 10
632.6544479
 20
94.2224058575
 11
632.6544479
 21
98.7257379572
  0
LINE
  5
2D7
100
AcDbEntity
  8
3_ALL_AXES
100
AcDbLine
 62
7
  6
CONTINUOUS
 10
678.8676513356
 20
124.2742290168
 11
678.8676513356
 21
766.9276349588
  0
LINE
  5
2D8
100
AcDbEntity
  8
3_ALL_AXES
100
AcDbLine
 62
7
  6
CONTINUOUS
 10
615.3205258808
 20
762.759733668
 11
608.5790832948
 21
785.5816612935
  0
LINE
  5
2D9
100
AcDbEntity
  8
3_ALL_AXES
100
AcDbLine
 62
7
  6
CONTINUOUS
 10
726.5453208652
 20
113.6678423401
 11
726.5453208652
 21
117.1319439553
  0
LINE
  5
2DA
100
AcDbEntity
  8
3_ALL_AXES
100
AcDbLine
 62
7
  6
CONTINUOUS
 10
735.1997370351
 20
798.1712393268
 11
728.4582944491
 21
820.9931669523
  0
ARC
  5
2DB
100
AcDbEntity
  8
7_ALL_FEATURES
100
AcDbCircle
 62
7
  6
CONTINUOUS
 10
371.430677444
 20
1077.9401395401
 40
27.4109280711
100
AcDbArc
 50
230.1932236713
 51
230.8933240603
  0
ARC
  5
2DC
100
AcDbEntity
  8
7_ALL_FEATURES
100
AcDbCircle
 62
7
  6
CONTINUOUS
 10
449.5136311285
 20
1077.9401394043
 40
27.4109278949
100
AcDbArc
 50
309.1066760099
 51
309.8067763301
  0
ARC
  5
2DD
100
AcDbEntity
  8
7_ALL_FEATURES
100
AcDbCircle
 62
7
  6
CONTINUOUS
 10
449.8859666855
 20
1080.0166704583
 40
26.4052490061
100
AcDbArc
 50
49.4187378333
 51
50.1935942592
  0
ARC
  5
2DE
100
AcDbEntity
  8
7_ALL_FEATURES
100
AcDbCircle
 62
7
  6
CONTINUOUS
 10
371.0583416914
 20
1080.0166705586
 40
26.4052488759
100
AcDbArc
 50
129.8064057416
 51
130.5812621047
  0
ARC
  5
2DF
100
AcDbEntity
  8
7_ALL_FEATURES
100
AcDbCircle
 62
7
  6
CONTINUOUS
 10
463.4471969664
 20
1089.7090466628
 40
9.524957264
100
AcDbArc
 50
0.0005387359
 51
1.9207139356
  0
ARC
  5
2E0
100
AcDbEntity
  8
7_ALL_FEATURES
100
AcDbCircle
 62
7
  6
CONTINUOUS
 10
357.497111489
 20
1089.7090466628
 40
9.5249572594
100
AcDbArc
 50
178.079285975
 51
179.999461264
  0
ARC
  5
2E1
100
AcDbEntity
  8
7_ALL_FEATURES
100
AcDbCircle
 62
7
  6
CONTINUOUS
 10
626.5751083585
 20
971.977682155
 40
187.1279694532
100
AcDbArc
 50
293.5629052377
 51
294.1130185802
  0
ARC
  5
2E2
100
AcDbEntity
  8
7_ALL_FEATURES
100
AcDbCircle
 62
7
  6
CONTINUOUS
 10
626.9280321545
 20
970.9170050235
 40
185.6487765587
100
AcDbArc
 50
293.5934181027
 51
294.1473480183
  0
ARC
  5
2E3
100
AcDbEntity
  8
7_ALL_FEATURES
100
AcDbCircle
 62
7
  6
CONTINUOUS
 10
629.5023842579
 20
837.0204896105
 40
78.6676301094
100
AcDbArc
 50
271.1388681052
 51
271.3328654659
  0
ARC
  5
2E4
100
AcDbEntity
  8
7_ALL_FEATURES
100
AcDbCircle
 62
7
  6
CONTINUOUS
 10
629.8413455012
 20
834.6253107127
 40
76.4465479446
100
AcDbArc
 50
270.8984898179
 51
271.1390202209
  0
ARC
  5
2E5
100
AcDbEntity
  8
3_ALL_AXES
100
AcDbCircle
 62
7
  6
CONTINUOUS
 10
649.455817376
 20
133.5157886515
 40
39.5148550036
100
AcDbArc
 50
234.135653178
 51
236.672466035
  0
ARC
  5
2E6
100
AcDbEntity
  8
3_ALL_AXES
100
AcDbCircle
 62
7
  6
CONTINUOUS
 10
642.8757547718
 20
125.3617782789
 40
29.0281746495
100
AcDbArc
 50
224.7890692093
 51
228.498157691
  0
ARC
  5
2E7
100
AcDbEntity
  8
3_ALL_AXES
100
AcDbCircle
 62
7
  6
CONTINUOUS
 10
637.1446305829
 20
120.2956761487
 40
21.3699828627
100
AcDbArc
 50
213.6653138231
 51
218.4813144822
  0
ARC
  5
2E8
100
AcDbEntity
  8
3_ALL_AXES
100
AcDbCircle
 62
7
  6
CONTINUOUS
 10
632.8894595534
 20
117.8437744725
 40
16.4508138546
100
AcDbArc
 50
200.4024478402
 51
206.2413063885
  0
ARC
  5
2E9
100
AcDbEntity
  8
3_ALL_AXES
100
AcDbCircle
 62
7
  6
CONTINUOUS
 10
630.5214429793
 20
117.1459695088
 40
13.9765237011
100
AcDbArc
 50
183.2159506788
 51
191.8401138472
  0
ARC
  5
2EA
100
AcDbEntity
  8
3_ALL_AXES
100
AcDbCircle
 62
7
  6
CONTINUOUS
 10
712.7528241771
 20
118.1718480083
 40
13.7924378723
100
AcDbArc
 50
355.6950416919
 51
359.9972018989
  0
ARC
  5
2EB
100
AcDbEntity
  8
3_ALL_AXES
100
AcDbCircle
 62
7
  6
CONTINUOUS
 10
630.32402869
 20
117.1322160123
 40
13.7786489952
100
AcDbArc
 50
180.0011312951
 51
183.2049020621
  0
ARC
  5
2EC
100
AcDbEntity
  8
7_ALL_FEATURES
100
AcDbCircle
 62
7
  6
CONTINUOUS
 10
630.3198223745
 20
118.1718932004
 40
13.7745058579
100
AcDbArc
 50
180.0029897554
 51
184.2684724359
  0
ARC
  5
2ED
100
AcDbEntity
  8
7_ALL_FEATURES
100
AcDbCircle
 62
7
  6
CONTINUOUS
 10
726.5677518947
 20
799.3121437128
 40
9.1944746393
100
AcDbArc
 50
327.52856094
 51
329.9616960132
  0
ARC
  5
2EE
100
AcDbEntity
  8
7_ALL_FEATURES
100
AcDbCircle
 62
7
  6
CONTINUOUS
 10
616.3690685192
 20
785.3912952943
 40
7.9899104778
100
AcDbArc
 50
149.9500145583
 51
153.0319746802
  0
ARC
  5
2EF
100
AcDbEntity
  8
7_ALL_FEATURES
100
AcDbCircle
 62
7
  6
CONTINUOUS
 10
722.0248779443
 20
816.6058324294
 40
7.9839032997
100
AcDbArc
 50
59.8576861632
 51
62.9637229217
  0
ARC
  5
2F0
100
AcDbEntity
  8
7_ALL_FEATURES
100
AcDbCircle
 62
3
  6
CONTINUOUS
 10
672.830620919
 20
125.9425479983
 40
6.6388832648
100
AcDbArc
 50
9.1646266095
 51
11.772453543
  0
ARC
  5
2F1
100
AcDbEntity
  8
7_ALL_FEATURES
100
AcDbCircle
 62
3
  6
CONTINUOUS
 10
672.9677312877
 20
125.964024257
 40
6.5001026101
100
AcDbArc
 50
3.3309293683
 51
9.1702299975
  0
ARC
  5
2F2
100
AcDbEntity
  8
7_ALL_FEATURES
100
AcDbCircle
 62
7
  6
CONTINUOUS
 10
672.9894314707
 20
127.0135327034
 40
6.4781801638
100
AcDbArc
 50
350.1984230009
 51
359.968836395
  0
ARC
  5
2F3
100
AcDbEntity
  8
7_ALL_FEATURES
100
AcDbCircle
 62
7
  6
CONTINUOUS
 10
611.6990195004
 20
786.8084978894
 40
3.039674006
100
AcDbArc
 50
195.3960650799
 51
199.9478208727
  0
SPLINE
  5
2F4
100
AcDbEntity
  8
7_ALL_FEATURES
100
AcDbSpline
 62
7
  6
CONTINUOUS
 70
0
 71
3
 72
23
 73
19
 74
0
 42
0.0000001
 43
0.0000001
 44
0.0000000001
 40
0.0
 40
0.0
 40
0.0
 40
0.0
 40
0.0599405386
 40
0.1202792768
 40
0.1813537442
 40
0.2433743985
 40
0.306403145
 40
0.3703492331
 40
0.4349885455
 40
0.5
 40
0.5650114546
 40
0.629650767
 40
0.6935968551
 40
0.7566256016
 40
0.8186462558
 40
0.8797207232
 40
0.9400594614
 40
1.0
 40
1.0
 40
1.0
 40
1.0
 10
181.3283681991
 20
209.8298743663
 30
0.0
 10
185.0910948193
 20
209.8298743663
 30
0.0
 10
192.6659252988
 20
209.0176044446
 30
0.0
 10
203.5505376873
 20
205.4166532652
 30
0.0
 10
213.5710898658
 20
199.5787685388
 30
0.0
 10
222.3366715112
 20
191.7377427403
 30
0.0
 10
229.5177875399
 20
182.2016923227
 30
0.0
 10
234.8456615783
 20
171.339404412
 30
0.0
 10
238.1232795583
 20
159.5664013035
 30
0.0
 10
239.2292210709
 20
147.3298743596
 30
0.0
 10
238.1232795557
 20
135.0933474161
 30
0.0
 10
234.8456615739
 20
123.3203443081
 30
0.0
 10
229.5177875329
 20
112.4580563993
 30
0.0
 10
222.3366715031
 20
102.9220059828
 30
0.0
 10
213.5710898557
 20
95.080980187
 30
0.0
 10
203.5505376776
 20
89.2430954627
 30
0.0
 10
192.6659252922
 20
85.6421442871
 30
0.0
 10
185.0910948167
 20
84.8298743663
 30
0.0
 10
181.3283681991
 20
84.8298743663
 30
0.0
  0
SPLINE
  5
2F5
100
AcDbEntity
  8
7_ALL_FEATURES
100
AcDbSpline
 62
7
  6
CONTINUOUS
 70
0
 71
3
 72
23
 73
19
 74
0
 42
0.0000001
 43
0.0000001
 44
0.0000000001
 40
0.0
 40
0.0
 40
0.0
 40
0.0
 40
0.0599395385
 40
0.1202801739
 40
0.1813579184
 40
0.2433814244
 40
0.3064113284
 40
0.3703563711
 40
0.4349926815
 40
0.5
 40
0.5650073184
 40
0.6296436288
 40
0.6935886715
 40
0.7566185755
 40
0.8186420815
 40
0.8797198261
 40
0.9400604615
 40
1.0
 40
1.0
 40
1.0
 40
1.0
 10
171.6557611027
 20
209.8296920101
 30
0.0
 10
167.8986263071
 20
209.8198178957
 30
0.0
 10
160.3370796075
 20
208.9901862799
 30
0.0
 10
149.4760166076
 20
205.3716897742
 30
0.0
 10
139.4800830294
 20
199.5249362332
 30
0.0
 10
130.7379422222
 20
191.6833014912
 30
0.0
 10
123.5772063982
 20
182.153898982
 30
0.0
 10
118.2650594322
 20
171.3041142339
 30
0.0
 10
114.9973636872
 20
159.5477031103
 30
0.0
 10
113.894808991
 20
147.329874378
 30
0.0
 10
114.9973636828
 20
135.1120456451
 30
0.0
 10
118.2650594243
 20
123.3556345204
 30
0.0
 10
123.577206386
 20
112.5058497696
 30
0.0
 10
130.7379422076
 20
102.976447258
 30
0.0
 10
139.4800830116
 20
95.1348125118
 30
0.0
 10
149.4760165894
 20
89.288058967
 30
0.0
 10
160.3370795917
 20
85.6695624555
 30
0.0
 10
167.8986262953
 20
84.8399308376
 30
0.0
 10
171.6557610935
 20
84.8300567225
 30
0.0
  0
SPLINE
  5
2F6
100
AcDbEntity
  8
7_ALL_FEATURES
100
AcDbSpline
 62
7
  6
CONTINUOUS
 70
0
 71
3
 72
23
 73
19
 74
0
 42
0.0000001
 43
0.0000001
 44
0.0000000001
 40
0.0
 40
0.0
 40
0.0
 40
0.0
 40
0.0599405386
 40
0.1202792768
 40
0.1813537442
 40
0.2433743984
 40
0.3064031449
 40
0.370349233
 40
0.4349885454
 40
0.5
 40
0.5650114545
 40
0.6296507669
 40
0.693596855
 40
0.7566256015
 40
0.8186462558
 40
0.8797207232
 40
0.9400594614
 40
1.0
 40
1.0
 40
1.0
 40
1.0
 10
171.6773093254
 20
85.1298743663
 30
0.0
 10
175.4219748543
 20
85.1298743591
 30
0.0
 10
182.9604461429
 20
85.9382453963
 30
0.0
 10
193.7928123892
 20
89.5219119992
 30
0.0
 10
203.7652659171
 20
95.3317748787
 30
0.0
 10
212.4887727728
 20
103.1351637501
 30
0.0
 10
219.6354194459
 20
112.6254411248
 30
0.0
 10
224.9377196919
 20
123.4355900519
 30
0.0
 10
228.1996051075
 20
135.1520827452
 30
0.0
 10
229.3002381034
 20
147.3298743597
 30
0.0
 10
228.1996051101
 20
159.5076659746
 30
0.0
 10
224.9377196962
 20
171.2241586684
 30
0.0
 10
219.6354194528
 20
182.0343075973
 30
0.0
 10
212.4887727808
 20
191.5245849731
 30
0.0
 10
203.7652659271
 20
199.327973847
 30
0.0
 10
193.7928123987
 20
205.1378367291
 30
0.0
 10
182.9604461492
 20
208.721503334
 30
0.0
 10
175.4219748567
 20
209.5298743756
 30
0.0
 10
171.6773093254
 20
209.5298743663
 30
0.0
  0
SPLINE
  5
2F7
100
AcDbEntity
  8
7_ALL_FEATURES
100
AcDbSpline
 62
7
  6
CONTINUOUS
 70
0
 71
3
 72
23
 73
19
 74
0
 42
0.0000001
 43
0.0000001
 44
0.0000000001
 40
0.0
 40
0.0
 40
0.0
 40
0.0
 40
0.0599405386
 40
0.1202792768
 40
0.1813537442
 40
0.2433743984
 40
0.3064031449
 40
0.370349233
 40
0.4349885454
 40
0.5
 40
0.5650114545
 40
0.6296507669
 40
0.693596855
 40
0.7566256015
 40
0.8186462558
 40
0.8797207232
 40
0.9400594614
 40
1.0
 40
1.0
 40
1.0
 40
1.0
 10
171.794528664
 20
84.8298743663
 30
0.0
 10
175.5572552817
 20
84.8298743663
 30
0.0
 10
183.1320857572
 20
85.642144287
 30
0.0
 10
194.0166981426
 20
89.2430954628
 30
0.0
 10
204.0372503206
 20
95.080980187
 30
0.0
 10
212.802831968
 20
102.9220059828
 30
0.0
 10
219.9839479977
 20
112.4580563993
 30
0.0
 10
225.3118220388
 20
123.3203443081
 30
0.0
 10
228.5894400206
 20
135.0933474161
 30
0.0
 10
229.6953815358
 20
147.3298743596
 30
0.0
 10
228.5894400232
 20
159.5664013035
 30
0.0
 10
225.3118220432
 20
171.339404412
 30
0.0
 10
219.9839480048
 20
182.2016923227
 30
0.0
 10
212.8028319761
 20
191.7377427403
 30
0.0
 10
204.0372503307
 20
199.5787685388
 30
0.0
 10
194.0166981523
 20
205.416653265
 30
0.0
 10
183.1320857639
 20
209.0176044448
 30
0.0
 10
175.5572552844
 20
209.8298743663
 30
0.0
 10
171.794528664
 20
209.8298743663
 30
0.0
  0
SPLINE
  5
2F8
100
AcDbEntity
  8
7_ALL_FEATURES
100
AcDbSpline
 62
7
  6
CONTINUOUS
 70
0
 71
3
 72
23
 73
19
 74
0
 42
0.0000001
 43
0.0000001
 44
0.0000000001
 40
0.0
 40
0.0
 40
0.0
 40
0.0
 40
0.0599405386
 40
0.1202792768
 40
0.1813537442
 40
0.2433743984
 40
0.3064031449
 40
0.370349233
 40
0.4349885454
 40
0.5
 40
0.5650114545
 40
0.6296507669
 40
0.693596855
 40
0.7566256015
 40
0.8186462558
 40
0.8797207232
 40
0.9400594614
 40
1.0
 40
1.0
 40
1.0
 40
1.0
 10
171.6773093254
 20
209.5298743663
 30
0.0
 10
167.9326437966
 20
209.5298743735
 30
0.0
 10
160.394172508
 20
208.7215033363
 30
0.0
 10
149.5618062617
 20
205.1378367333
 30
0.0
 10
139.5893527338
 20
199.3279738538
 30
0.0
 10
130.8658458781
 20
191.5245849825
 30
0.0
 10
123.719199205
 20
182.0343076078
 30
0.0
 10
118.416898959
 20
171.2241586807
 30
0.0
 10
115.1550135434
 20
159.5076659874
 30
0.0
 10
114.0543805475
 20
147.3298743729
 30
0.0
 10
115.1550135408
 20
135.152082758
 30
0.0
 10
118.4168989546
 20
123.4355900642
 30
0.0
 10
123.719199198
 20
112.6254411352
 30
0.0
 10
130.8658458701
 20
103.1351637594
 30
0.0
 10
139.5893527238
 20
95.3317748855
 30
0.0
 10
149.5618062522
 20
89.5219120034
 30
0.0
 10
160.3941725017
 20
85.9382453985
 30
0.0
 10
167.9326437942
 20
85.129874357
 30
0.0
 10
171.6773093254
 20
85.1298743663
 30
0.0
  0
SPLINE
  5
2F9
100
AcDbEntity
  8
7_ALL_FEATURES
100
AcDbSpline
 62
7
  6
CONTINUOUS
 70
0
 71
3
 72
11
 73
7
 74
0
 42
0.0000001
 43
0.0000001
 44
0.0000000001
 40
0.0
 40
0.0
 40
0.0
 40
0.0
 40
0.2191550086
 40
0.4527450083
 40
0.7108173993
 40
1.0
 40
1.0
 40
1.0
 40
1.0
 10
472.9668027681
 20
1090.0282899294
 30
0.0
 10
472.9374618703
 20
1090.9033986813
 30
0.0
 10
472.6213304576
 20
1092.7104751462
 30
0.0
 10
471.4262860556
 20
1095.314268059
 30
0.0
 10
469.5443129736
 20
1097.8256690737
 30
0.0
 10
467.9496748436
 20
1099.3353972176
 30
0.0
 10
467.0621224988
 20
1100.0751035861
 30
0.0
  0
SPLINE
  5
2FA
100
AcDbEntity
  8
7_ALL_FEATURES
100
AcDbSpline
 62
7
  6
CONTINUOUS
 70
0
 71
3
 72
11
 73
7
 74
0
 42
0.0000001
 43
0.0000001
 44
0.0000000001
 40
0.0
 40
0.0
 40
0.0
 40
0.0
 40
0.2192237054
 40
0.4522789101
 40
0.7101223222
 40
1.0
 40
1.0
 40
1.0
 40
1.0
 10
472.97215423
 20
1067.248817799
 30
0.0
 10
472.97215423
 20
1066.3497950195
 30
0.0
 10
472.7018113171
 20
1064.4861383557
 30
0.0
 10
471.5227109408
 20
1061.7926709289
 30
0.0
 10
469.6112442528
 20
1059.1982049707
 30
0.0
 10
467.9753209733
 20
1057.643930874
 30
0.0
 10
467.0621224989
 20
1056.8828504362
 30
0.0
  0
SPLINE
  5
2FB
100
AcDbEntity
  8
7_ALL_FEATURES
100
AcDbSpline
 62
7
  6
CONTINUOUS
 70
0
 71
3
 72
11
 73
7
 74
0
 42
0.0000001
 43
0.0000001
 44
0.0000000001
 40
0.0
 40
0.0
 40
0.0
 40
0.0
 40
0.2891826006
 40
0.5472549916
 40
0.7808449914
 40
1.0
 40
1.0
 40
1.0
 40
1.0
 10
353.8821859612
 20
1100.0751035861
 30
0.0
 10
352.9946336177
 20
1099.3353972187
 30
0.0
 10
351.3999954901
 20
1097.8256690772
 30
0.0
 10
349.5180224093
 20
1095.3142680665
 30
0.0
 10
348.3229780066
 20
1092.7104751575
 30
0.0
 10
348.0068465916
 20
1090.9033986949
 30
0.0
 10
347.9775056925
 20
1090.0282899441
 30
0.0
  0
SPLINE
  5
2FC
100
AcDbEntity
  8
7_ALL_FEATURES
100
AcDbSpline
 62
7
  6
CONTINUOUS
 70
0
 71
3
 72
21
 73
17
 74
0
 42
0.0000001
 43
0.0000001
 44
0.0000000001
 40
0.0
 40
0.0
 40
0.0
 40
0.0
 40
0.0443967544
 40
0.095203014
 40
0.1521367938
 40
0.2145792308
 40
0.2816741475
 40
0.3523953235
 40
0.5
 40
0.6476046765
 40
0.7183258525
 40
0.7854207692
 40
0.8478632062
 40
0.904796986
 40
0.9556032456
 40
1.0
 40
1.0
 40
1.0
 40
1.0
 10
466.7904906667
 20
1100.3014983857
 30
0.0
 10
465.4502340106
 20
1101.4184988546
 30
0.0
 10
462.3463805313
 20
1103.5402096959
 30
0.0
 10
456.9971106503
 20
1106.2359424302
 30
0.0
 10
450.7357229185
 20
1108.6147612992
 30
0.0
 10
443.6826934855
 20
1110.6292609752
 30
0.0
 10
435.973317349
 20
1112.2404039943
 30
0.0
 10
424.8635315076
 20
1113.828045607
 30
0.0
 10
410.47215423
 20
1114.6002069285
 30
0.0
 10
396.0807769524
 20
1113.828045607
 30
0.0
 10
384.970991111
 20
1112.2404039943
 30
0.0
 10
377.2616149743
 20
1110.6292609752
 30
0.0
 10
370.2085855411
 20
1108.6147612991
 30
0.0
 10
363.9471978092
 20
1106.23594243
 30
0.0
 10
358.5979279284
 20
1103.5402096958
 30
0.0
 10
355.4940744493
 20
1101.4184988546
 30
0.0
 10
354.1538177932
 20
1100.3014983857
 30
0.0
  0
SPLINE
  5
2FD
100
AcDbEntity
  8
7_ALL_FEATURES
100
AcDbSpline
 62
7
  6
CONTINUOUS
 70
0
 71
3
 72
21
 73
17
 74
0
 42
0.0000001
 43
0.0000001
 44
0.0000000001
 40
0.0
 40
0.0
 40
0.0
 40
0.0
 40
0.0443967544
 40
0.095203014
 40
0.1521367938
 40
0.2145792308
 40
0.2816741475
 40
0.3523953235
 40
0.5
 40
0.6476046765
 40
0.7183258525
 40
0.7854207692
 40
0.8478632062
 40
0.904796986
 40
0.9556032456
 40
1.0
 40
1.0
 40
1.0
 40
1.0
 10
466.7904906668
 20
1056.6564556366
 30
0.0
 10
465.4502340108
 20
1055.5394551677
 30
0.0
 10
462.3463805317
 20
1053.4177443265
 30
0.0
 10
456.9971106509
 20
1050.7220115923
 30
0.0
 10
450.735722919
 20
1048.3431927231
 30
0.0
 10
443.6826934858
 20
1046.3286930471
 30
0.0
 10
435.9733173491
 20
1044.7175500279
 30
0.0
 10
424.8635315077
 20
1043.1299084153
 30
0.0
 10
410.4721542301
 20
1042.3577470937
 30
0.0
 10
396.0807769525
 20
1043.1299084153
 30
0.0
 10
384.9709911111
 20
1044.717550028
 30
0.0
 10
377.2616149746
 20
1046.3286930471
 30
0.0
 10
370.2085855416
 20
1048.343192723
 30
0.0
 10
363.9471978098
 20
1050.7220115921
 30
0.0
 10
358.5979279288
 20
1053.4177443264
 30
0.0
 10
355.4940744494
 20
1055.5394551677
 30
0.0
 10
354.1538177934
 20
1056.6564556366
 30
0.0
  0
SPLINE
  5
2FE
100
AcDbEntity
  8
7_ALL_FEATURES
100
AcDbSpline
 62
7
  6
CONTINUOUS
 70
0
 71
3
 72
11
 73
7
 74
0
 42
0.0000001
 43
0.0000001
 44
0.0000000001
 40
0.0
 40
0.0
 40
0.0
 40
0.0
 40
0.2898776778
 40
0.5477210899
 40
0.7807762947
 40
1.0
 40
1.0
 40
1.0
 40
1.0
 10
353.8821859613
 20
1056.8828504362
 30
0.0
 10
352.9689874867
 20
1057.6439308742
 30
0.0
 10
351.3330642068
 20
1059.1982049712
 30
0.0
 10
349.4215975189
 20
1061.7926709296
 30
0.0
 10
348.2424971426
 20
1064.4861383562
 30
0.0
 10
347.97215423
 20
1066.3497950196
 30
0.0
 10
347.97215423
 20
1067.248817799
 30
0.0
  0
SPLINE
  5
2FF
100
AcDbEntity
  8
7_ALL_FEATURES
100
AcDbSpline
 62
7
  6
CONTINUOUS
 70
0
 71
3
 72
11
 73
7
 74
0
 42
0.0000001
 43
0.0000001
 44
0.0000000001
 40
0.0
 40
0.0
 40
0.0
 40
0.0
 40
0.2885675741
 40
0.5460738707
 40
0.7796801631
 40
1.0
 40
1.0
 40
1.0
 40
1.0
 10
353.8810441431
 20
1100.0710370939
 30
0.0
 10
353.0125975034
 20
1099.3271230187
 30
0.0
 10
351.4570519255
 20
1097.8085830738
 30
0.0
 10
349.6441096451
 20
1095.2826555106
 30
0.0
 10
348.5276459905
 20
1092.6654181264
 30
0.0
 10
348.2721542249
 20
1090.8583491256
 30
0.0
 10
348.27215423
 20
1089.9852876793
 30
0.0
  0
SPLINE
  5
300
100
AcDbEntity
  8
7_ALL_FEATURES
100
AcDbSpline
 62
7
  6
CONTINUOUS
 70
0
 71
3
 72
29
 73
25
 74
0
 42
0.0000001
 43
0.0000001
 44
0.0000000001
 40
0.0
 40
0.0
 40
0.0
 40
0.0
 40
0.0168602013
 40
0.0345854691
 40
0.0538850452
 40
0.0752698716
 40
0.099044771
 40
0.1253532888
 40
0.1855227269
 40
0.255039668
 40
0.3321927747
 40
0.4147140574
 40
0.5
 40
0.5852859425
 40
0.6678072252
 40
0.7449603319
 40
0.8144772731
 40
0.8746467112
 40
0.900955229
 40
0.9247301283
 40
0.9461149547
 40
0.9654145309
 40
0.9831397987
 40
1.0
 40
1.0
 40
1.0
 40
1.0
 10
347.97215423
 20
1089.7091362233
 30
0.0
 10
347.97215423
 20
1088.9050527544
 30
0.0
 10
348.1859808922
 20
1087.2490166162
 30
0.0
 10
349.1256428817
 20
1084.8347338764
 30
0.0
 10
350.6600243154
 20
1082.4897131365
 30
0.0
 10
352.7627533669
 20
1080.2311480298
 30
0.0
 10
355.4110553256
 20
1078.071804106
 30
0.0
 10
359.8379871994
 20
1075.2187881516
 30
0.0
 10
366.6268773026
 20
1072.0928738118
 30
0.0
 10
376.0577405939
 20
1069.1404109548
 30
0.0
 10
386.7821874356
 20
1066.9447508836
 30
0.0
 10
398.398681219
 20
1065.59150985
 30
0.0
 10
410.4721542235
 20
1065.1344430936
 30
0.0
 10
422.5456272281
 20
1065.591509849
 30
0.0
 10
434.1621210123
 20
1066.9447508819
 30
0.0
 10
444.8865678555
 20
1069.1404109519
 30
0.0
 10
454.3174311484
 20
1072.0928738086
 30
0.0
 10
461.1063212532
 20
1075.2187881474
 30
0.0
 10
465.5332531283
 20
1078.0718041015
 30
0.0
 10
468.1815550881
 20
1080.2311480255
 30
0.0
 10
470.2842841416
 20
1082.4897131322
 30
0.0
 10
471.8186655773
 20
1084.8347338733
 30
0.0
 10
472.7583275669
 20
1087.2490166148
 30
0.0
 10
472.97215423
 20
1088.9050527542
 30
0.0
 10
472.97215423
 20
1089.7091362233
 30
0.0
  0
SPLINE
  5
301
100
AcDbEntity
  8
7_ALL_FEATURES
100
AcDbSpline
 62
7
  6
CONTINUOUS
 70
0
 71
3
 72
19
 73
15
 74
0
 42
0.0000001
 43
0.0000001
 44
0.0000000001
 40
0.0
 40
0.0
 40
0.0
 40
0.0
 40
0.0446833173
 40
0.0956996421
 40
0.1527506178
 40
0.2152166702
 40
0.3527726232
 40
0.4999999999
 40
0.6472273766
 40
0.7847833296
 40
0.8472493821
 40
0.9043003578
 40
0.9553166826
 40
1.0
 40
1.0
 40
1.0
 40
1.0
 10
466.8035186899
 20
1056.6700017419
 30
0.0
 10
465.442315804
 20
1055.5634472244
 30
0.0
 10
462.3061891658
 20
1053.4627943525
 30
0.0
 10
456.9241871827
 20
1050.7928047506
 30
0.0
 10
450.6463035595
 20
1048.4379551778
 30
0.0
 10
440.9246825959
 20
1045.69383213
 30
0.0
 10
427.4397012852
 20
1043.4264891675
 30
0.0
 10
410.4721542608
 20
1042.5188120978
 30
0.0
 10
393.5046072341
 20
1043.4264891611
 30
0.0
 10
380.0196259186
 20
1045.6938321184
 30
0.0
 10
370.2980049489
 20
1048.4379551621
 30
0.0
 10
364.0201213197
 20
1050.7928047324
 30
0.0
 10
358.6381193297
 20
1053.4627943323
 30
0.0
 10
355.5019926862
 20
1055.5634472028
 30
0.0
 10
354.1407897975
 20
1056.6700017198
 30
0.0
  0
SPLINE
  5
302
100
AcDbEntity
  8
7_ALL_FEATURES
100
AcDbSpline
 62
7
  6
CONTINUOUS
 70
0
 71
3
 72
29
 73
25
 74
0
 42
0.0000001
 43
0.0000001
 44
0.0000000001
 40
0.0
 40
0.0
 40
0.0
 40
0.0
 40
0.0168602013
 40
0.0345854691
 40
0.0538850452
 40
0.0752698716
 40
0.099044771
 40
0.1253532888
 40
0.1855227269
 40
0.255039668
 40
0.3321927747
 40
0.4147140574
 40
0.5
 40
0.5852859425
 40
0.6678072252
 40
0.7449603319
 40
0.8144772731
 40
0.8746467112
 40
0.900955229
 40
0.9247301284
 40
0.9461149547
 40
0.9654145309
 40
0.9831397987
 40
1.0
 40
1.0
 40
1.0
 40
1.0
 10
348.27215423
 20
1089.9852876793
 30
0.0
 10
348.2721542264
 20
1089.1850638111
 30
0.0
 10
348.4849545218
 20
1087.5369766458
 30
0.0
 10
349.4201061382
 20
1085.1342824657
 30
0.0
 10
350.9471225375
 20
1082.8005178233
 30
0.0
 10
353.0397584908
 20
1080.5527938296
 30
0.0
 10
355.6753485998
 20
1078.4038147567
 30
0.0
 10
360.0810312003
 20
1075.5644932787
 30
0.0
 10
366.837334631
 20
1072.4535833278
 30
0.0
 10
376.2229297786
 20
1069.5152922923
 30
0.0
 10
386.8958992757
 20
1067.3301713894
 30
0.0
 10
398.4566338892
 20
1065.9834259127
 30
0.0
 10
410.4721542236
 20
1065.5285530767
 30
0.0
 10
422.4876745581
 20
1065.9834259116
 30
0.0
 10
434.0484091724
 20
1067.3301713876
 30
0.0
 10
444.7213786709
 20
1069.5152922894
 30
0.0
 10
454.10697382
 20
1072.4535833246
 30
0.0
 10
460.8632772524
 20
1075.5644932745
 30
0.0
 10
465.2689598541
 20
1078.4038147523
 30
0.0
 10
467.9045499641
 20
1080.5527938253
 30
0.0
 10
469.9971859198
 20
1082.8005178189
 30
0.0
 10
471.5242023202
 20
1085.1342824631
 30
0.0
 10
472.4593539381
 20
1087.5369766443
 30
0.0
 10
472.6721542347
 20
1089.1850638109
 30
0.0
 10
472.67215423
 20
1089.9852876793
 30
0.0
  0
SPLINE
  5
303
100
AcDbEntity
  8
7_ALL_FEATURES
100
AcDbSpline
 62
7
  6
CONTINUOUS
 70
0
 71
3
 72
11
 73
7
 74
0
 42
0.0000001
 43
0.0000001
 44
0.0000000001
 40
0.0
 40
0.0
 40
0.0
 40
0.0
 40
0.2203198371
 40
0.4539261293
 40
0.7114324259
 40
1.0
 40
1.0
 40
1.0
 40
1.0
 10
472.67215423
 20
1089.9852876793
 30
0.0
 10
472.672154234
 20
1090.8583491238
 30
0.0
 10
472.4166624709
 20
1092.6654181201
 30
0.0
 10
471.3001988215
 20
1095.2826554989
 30
0.0
 10
469.4872565484
 20
1097.8085830568
 30
0.0
 10
467.9317109768
 20
1099.3271229998
 30
0.0
 10
467.0632643402
 20
1100.071037074
 30
0.0
  0
SPLINE
  5
304
100
AcDbEntity
  8
7_ALL_FEATURES
100
AcDbSpline
 62
7
  6
CONTINUOUS
 70
0
 71
3
 72
11
 73
7
 74
0
 42
0.0000001
 43
0.0000001
 44
0.0000000001
 40
0.0
 40
0.0
 40
0.0
 40
0.0
 40
0.264452418
 40
0.5539293826
 40
0.8119862244
 40
1.0
 40
1.0
 40
1.0
 40
1.0
 10
620.5780909463
 20
125.0297263395
 30
0.0
 10
620.3650053384
 20
125.1290791115
 30
0.0
 10
619.8765975676
 20
125.2451812258
 30
0.0
 10
619.1473449904
 20
125.2325896611
 30
0.0
 10
618.5131048894
 20
125.0652126368
 30
0.0
 10
618.1704242855
 20
124.8084967017
 30
0.0
 10
618.0974234774
 20
124.658127978
 30
0.0
  0
SPLINE
  5
305
100
AcDbEntity
  8
7_ALL_FEATURES
100
AcDbSpline
 62
7
  6
CONTINUOUS
 70
0
 71
3
 72
15
 73
11
 74
0
 42
0.0000001
 43
0.0000001
 44
0.0000000001
 40
0.0
 40
0.0
 40
0.0
 40
0.0
 40
0.1234893467
 40
0.2593397615
 40
0.4017646895
 40
0.5441956335
 40
0.6800667969
 40
0.8035789973
 40
0.9106072129
 40
1.0
 40
1.0
 40
1.0
 40
1.0
 10
636.408493318
 20
117.6486818239
 30
0.0
 10
638.0713327548
 20
116.8733703936
 30
0.0
 10
641.7287832586
 20
115.5932795148
 30
0.0
 10
647.6066956162
 20
114.4648696522
 30
0.0
 10
653.8620709272
 20
114.0799483142
 30
0.0
 10
660.1171909014
 20
114.4635208193
 30
0.0
 10
665.9978873803
 20
115.5905770166
 30
0.0
 10
671.1601818183
 20
117.397926637
 30
0.0
 10
675.3095412479
 20
119.7763200652
 30
0.0
 10
677.4287050316
 20
121.8701263655
 30
0.0
 10
678.1633841818
 20
122.9765462723
 30
0.0
  0
SPLINE
  5
306
100
AcDbEntity
  8
7_ALL_FEATURES
100
AcDbSpline
 62
7
  6
CONTINUOUS
 70
0
 71
3
 72
9
 73
5
 74
0
 42
0.0000001
 43
0.0000001
 44
0.0000000001
 40
0.0
 40
0.0
 40
0.0
 40
0.0
 40
0.2630898221
 40
1.0
 40
1.0
 40
1.0
 40
1.0
 10
678.1633841818
 20
122.9765462723
 30
0.0
 10
678.3179569339
 20
123.2093313865
 30
0.0
 10
678.8664565261
 20
124.1186512843
 30
0.0
 10
679.24002705
 20
125.1394150165
 30
0.0
 10
679.3730510204
 20
125.9107092002
 30
0.0
  0
SPLINE
  5
307
100
AcDbEntity
  8
7_ALL_FEATURES
100
AcDbSpline
 62
7
  6
CONTINUOUS
 70
0
 71
3
 72
10
 73
6
 74
0
 42
0.0000001
 43
0.0000001
 44
0.0000000001
 40
0.0
 40
0.0
 40
0.0
 40
0.0
 40
0.2267926388
 40
0.4718916478
 40
1.0
 40
1.0
 40
1.0
 40
1.0
 10
710.4361938305
 20
137.6166109224
 30
0.0
 10
708.2258321043
 20
138.7217917855
 30
0.0
 10
703.4684983588
 20
140.7126484359
 30
0.0
 10
693.0091848764
 20
143.8140290523
 30
0.0
 10
684.6143263104
 20
145.0401760187
 30
0.0
 10
678.8727127449
 20
145.4260294867
 30
0.0
  0
SPLINE
  5
308
100
AcDbEntity
  8
7_ALL_FEATURES
100
AcDbSpline
 62
7
  6
CONTINUOUS
 70
0
 71
3
 72
9
 73
5
 74
0
 42
0.0000001
 43
0.0000001
 44
0.0000000001
 40
0.0
 40
0.0
 40
0.0
 40
0.0
 40
0.5099759105
 40
1.0
 40
1.0
 40
1.0
 40
1.0
 10
618.0974234774
 20
124.658127978
 30
0.0
 10
617.59900304
 20
123.6314702319
 30
0.0
 10
616.8182689778
 20
121.5131509215
 30
0.0
 10
616.5453187955
 20
119.2677741799
 30
0.0
 10
616.5453165353
 20
118.1711744319
 30
0.0
  0
SPLINE
  5
309
100
AcDbEntity
  8
3_ALL_AXES
100
AcDbSpline
 62
7
  6
CONTINUOUS
 70
0
 71
3
 72
13
 73
9
 74
0
 42
0.0000001
 43
0.0000001
 44
0.0000000001
 40
0.0
 40
0.0
 40
0.0
 40
0.0
 40
0.1021742994
 40
0.2072181595
 40
0.4348475151
 40
0.5615308842
 40
0.6978417554
 40
1.0
 40
1.0
 40
1.0
 40
1.0
 10
726.545262033
 20
118.1711744398
 30
0.0
 10
726.5452622726
 20
119.0739898609
 30
0.0
 10
726.3622715605
 20
120.9099352578
 30
0.0
 10
725.2502216598
 20
124.6084563636
 30
0.0
 10
723.0338016399
 20
128.1045737127
 30
0.0
 10
720.035476217
 20
131.241866301
 30
0.0
 10
716.1802596165
 20
134.4324064399
 30
0.0
 10
712.8242071367
 20
136.4226042693
 30
0.0
 10
710.4361938305
 20
137.6166109224
 30
0.0
  0
SPLINE
  5
30A
100
AcDbEntity
  8
3_ALL_AXES
100
AcDbSpline
 62
7
  6
CONTINUOUS
 70
0
 71
3
 72
15
 73
11
 74
0
 42
0.0000001
 43
0.0000001
 44
0.0000000001
 40
0.0
 40
0.0
 40
0.0
 40
0.0
 40
0.1112730916
 40
0.2323801188
 40
0.3607688545
 40
0.4933760605
 40
0.6268810911
 40
0.7579087124
 40
0.8832341882
 40
1.0
 40
1.0
 40
1.0
 40
1.0
 10
632.6544479
 20
98.7257379572
 30
0.0
 10
635.1658900658
 20
97.4700168743
 30
0.0
 10
640.6144692743
 20
95.2470092237
 30
0.0
 10
649.4086322756
 20
92.8299400529
 30
0.0
 10
658.9360354436
 20
91.246213525
 30
0.0
 10
668.880682344
 20
90.5500738329
 30
0.0
 10
678.9137247518
 20
90.7644779565
 30
0.0
 10
688.7029391465
 20
91.8824418304
 30
0.0
 10
697.9225722991
 20
93.8657170563
 30
0.0
 10
703.7348186305
 20
95.8033320197
 30
0.0
 10
706.4602755278
 20
96.9229920827
 30
0.0
  0
SPLINE
  5
30B
100
AcDbEntity
  8
3_ALL_AXES
100
AcDbSpline
 62
7
  6
CONTINUOUS
 70
0
 71
3
 72
13
 73
9
 74
0
 42
0.0000001
 43
0.0000001
 44
0.0000000001
 40
0.0
 40
0.0
 40
0.0
 40
0.0
 40
0.3058863714
 40
0.5712071694
 40
0.6892686985
 40
0.7987479048
 40
0.9014794316
 40
1.0
 40
1.0
 40
1.0
 40
1.0
 10
706.4602755278
 20
96.9229920827
 30
0.0
 10
709.2747605968
 20
98.0792263027
 30
0.0
 10
714.3920801078
 20
100.6087594934
 30
0.0
 10
719.9051899209
 20
104.7954332959
 30
0.0
 10
723.1417085748
 20
108.499424167
 30
0.0
 10
724.9030287025
 20
111.2911618921
 30
0.0
 10
726.0666768002
 20
114.1737824737
 30
0.0
 10
726.4328058128
 20
116.1592725002
 30
0.0
 10
726.5063486338
 20
117.1365183594
 30
0.0
  0
SPLINE
  5
30C
100
AcDbEntity
  8
7_ALL_FEATURES
100
AcDbSpline
 62
7
  6
CONTINUOUS
 70
0
 71
3
 72
12
 73
8
 74
0
 42
0.0000001
 43
0.0000001
 44
0.0000000001
 40
0.0
 40
0.0
 40
0.0
 40
0.0
 40
0.1019531172
 40
0.2074609065
 40
0.4366549169
 40
0.6995972505
 40
1.0
 40
1.0
 40
1.0
 40
1.0
 10
616.5835236853
 20
117.1466566659
 30
0.0
 10
616.6479505935
 20
116.2831228304
 30
0.0
 10
616.9462115347
 20
114.5344488542
 30
0.0
 10
618.2181243815
 20
111.0328292308
 30
0.0
 10
621.1311640685
 20
106.7770417243
 30
0.0
 10
626.2285563155
 20
102.3101990678
 30
0.0
 10
630.3723560091
 20
99.8667839026
 30
0.0
 10
632.6544479
 20
98.7257379572
 30
0.0
  0
SPLINE
  5
30D
100
AcDbEntity
  8
7_ALL_FEATURES
100
AcDbSpline
 62
7
  6
CONTINUOUS
 70
0
 71
3
 72
9
 73
5
 74
0
 42
0.0000001
 43
0.0000001
 44
0.0000000001
 40
0.0
 40
0.0
 40
0.0
 40
0.0
 40
0.2459942072
 40
1.0
 40
1.0
 40
1.0
 40
1.0
 10
679.4676106763
 20
127.0100091727
 30
0.0
 10
679.467600183
 20
127.2259687231
 30
0.0
 10
679.4235782432
 20
128.1036882536
 30
0.0
 10
679.1968054319
 20
128.9692470435
 30
0.0
 10
678.9456153638
 20
129.5816810078
 30
0.0
  0
SPLINE
  5
30E
100
AcDbEntity
  8
3_ALL_AXES
100
AcDbSpline
 62
7
  6
CONTINUOUS
 70
0
 71
3
 72
9
 73
5
 74
0
 42
0.0000001
 43
0.0000001
 44
0.0000000001
 40
0.0
 40
0.0
 40
0.0
 40
0.0
 40
0.53538856
 40
1.0
 40
1.0
 40
1.0
 40
1.0
 10
628.783208239
 20
134.4264356407
 30
0.0
 10
626.7256545878
 20
133.1546245376
 30
0.0
 10
623.058784002
 20
130.4664724158
 30
0.0
 10
620.0689424028
 20
126.995811619
 30
0.0
 10
618.9701293652
 20
125.2072621674
 30
0.0
  0
SPLINE
  5
30F
100
AcDbEntity
  8
3_ALL_AXES
100
AcDbSpline
 62
7
  6
CONTINUOUS
 70
0
 71
3
 72
9
 73
5
 74
0
 42
0.0000001
 43
0.0000001
 44
0.0000000001
 40
0.0
 40
0.0
 40
0.0
 40
0.0
 40
0.2540739797
 40
1.0
 40
1.0
 40
1.0
 40
1.0
 10
678.8226552803
 20
124.046695438
 30
0.0
 10
678.8713338522
 20
124.2045636098
 30
0.0
 10
679.0410079848
 20
124.832411424
 30
0.0
 10
679.1176579544
 20
125.4857661611
 30
0.0
 10
679.1176220556
 20
125.9707786847
 30
0.0
  0
SPLINE
  5
310
100
AcDbEntity
  8
3_ALL_AXES
100
AcDbSpline
 62
7
  6
CONTINUOUS
 70
0
 71
3
 72
9
 73
5
 74
0
 42
0.0000001
 43
0.0000001
 44
0.0000000001
 40
0.0
 40
0.0
 40
0.0
 40
0.0
 40
0.4888457407
 40
1.0
 40
1.0
 40
1.0
 40
1.0
 10
628.6176588106
 20
125.9707787137
 30
0.0
 10
628.6176314057
 20
125.4363387631
 30
0.0
 10
628.7595978812
 20
124.3389823562
 30
0.0
 10
629.1629242
 20
123.311400999
 30
0.0
 10
629.419306914
 20
122.8148549885
 30
0.0
  0
SPLINE
  5
311
100
AcDbEntity
  8
3_ALL_AXES
100
AcDbSpline
 62
7
  6
CONTINUOUS
 70
0
 71
3
 72
9
 73
5
 74
0
 42
0.0000001
 43
0.0000001
 44
0.0000000001
 40
0.0
 40
0.0
 40
0.0
 40
0.0
 40
0.2455946001
 40
1.0
 40
1.0
 40
1.0
 40
1.0
 10
629.419306914
 20
122.8148549885
 30
0.0
 10
629.4580760063
 20
122.7397694345
 30
0.0
 10
629.6206662426
 20
122.4364974654
 30
0.0
 10
629.8017472914
 20
122.1432121218
 30
0.0
 10
629.9471236213
 20
121.9281665116
 30
0.0
  0
SPLINE
  5
312
100
AcDbEntity
  8
3_ALL_AXES
100
AcDbSpline
 62
7
  6
CONTINUOUS
 70
0
 71
3
 72
9
 73
5
 74
0
 42
0.0000001
 43
0.0000001
 44
0.0000000001
 40
0.0
 40
0.0
 40
0.0
 40
0.0
 40
0.2368392498
 40
1.0
 40
1.0
 40
1.0
 40
1.0
 10
629.9471236213
 20
121.9281665116
 30
0.0
 10
630.0817448128
 20
121.7290302679
 30
0.0
 10
630.6823227233
 20
120.9100178829
 30
0.0
 10
631.3996667046
 20
120.1801307474
 30
0.0
 10
631.9844274332
 20
119.6722256956
 30
0.0
  0
SPLINE
  5
313
100
AcDbEntity
  8
3_ALL_AXES
100
AcDbSpline
 62
7
  6
CONTINUOUS
 70
0
 71
3
 72
9
 73
5
 74
0
 42
0.0000001
 43
0.0000001
 44
0.0000000001
 40
0.0
 40
0.0
 40
0.0
 40
0.0
 40
0.2533436466
 40
1.0
 40
1.0
 40
1.0
 40
1.0
 10
628.8585945819
 20
127.710719054
 30
0.0
 10
628.8187551247
 20
127.567566883
 30
0.0
 10
628.6798324688
 20
126.9976000394
 30
0.0
 10
628.6176812669
 20
126.4087116314
 30
0.0
 10
628.6176588106
 20
125.9707787137
 30
0.0
  0
SPLINE
  5
314
100
AcDbEntity
  8
3_ALL_AXES
100
AcDbSpline
 62
7
  6
CONTINUOUS
 70
0
 71
3
 72
9
 73
5
 74
0
 42
0.0000001
 43
0.0000001
 44
0.0000000001
 40
0.0
 40
0.0
 40
0.0
 40
0.0
 40
0.2472251873
 40
1.0
 40
1.0
 40
1.0
 40
1.0
 10
616.8422841129
 20
114.2782478564
 30
0.0
 10
616.8803328628
 20
114.0959499106
 30
0.0
 10
617.0484884981
 20
113.3615996827
 30
0.0
 10
617.2731752905
 20
112.6403635558
 30
0.0
 10
617.4706530146
 20
112.1088218662
 30
0.0
  0
SPLINE
  5
315
100
AcDbEntity
  8
3_ALL_AXES
100
AcDbSpline
 62
7
  6
CONTINUOUS
 70
0
 71
3
 72
9
 73
5
 74
0
 42
0.0000001
 43
0.0000001
 44
0.0000000001
 40
0.0
 40
0.0
 40
0.0
 40
0.0
 40
0.2452678015
 40
1.0
 40
1.0
 40
1.0
 40
1.0
 10
618.1340691966
 20
110.570004343
 30
0.0
 10
618.2224086589
 20
110.3902591357
 30
0.0
 10
618.595202374
 20
109.6636469154
 30
0.0
 10
619.0171819285
 20
108.9625039738
 30
0.0
 10
619.3586104137
 20
108.4494255142
 30
0.0
  0
SPLINE
  5
316
100
AcDbEntity
  8
3_ALL_AXES
100
AcDbSpline
 62
7
  6
CONTINUOUS
 70
0
 71
3
 72
9
 73
5
 74
0
 42
0.0000001
 43
0.0000001
 44
0.0000000001
 40
0.0
 40
0.0
 40
0.0
 40
0.0
 40
0.2442988876
 40
1.0
 40
1.0
 40
1.0
 40
1.0
 10
620.4159701057
 20
106.9980039392
 30
0.0
 10
620.5573745284
 20
106.8196603524
 30
0.0
 10
621.1470349425
 20
106.0982700336
 30
0.0
 10
621.7784692525
 20
105.4112847749
 30
0.0
 10
622.2743096545
 20
104.9114633043
 30
0.0
  0
SPLINE
  5
317
100
AcDbEntity
  8
3_ALL_AXES
100
AcDbSpline
 62
7
  6
CONTINUOUS
 70
0
 71
3
 72
9
 73
5
 74
0
 42
0.0000001
 43
0.0000001
 44
0.0000000001
 40
0.0
 40
0.0
 40
0.0
 40
0.0
 40
0.2437807337
 40
1.0
 40
1.0
 40
1.0
 40
1.0
 10
623.6404052339
 20
103.6215793002
 30
0.0
 10
623.8478613983
 20
103.437679236
 30
0.0
 10
624.7089249316
 20
102.6947093819
 30
0.0
 10
625.6084701471
 20
101.9966561124
 30
0.0
 10
626.3053210971
 20
101.4926987319
 30
0.0
  0
SPLINE
  5
318
100
AcDbEntity
  8
3_ALL_AXES
100
AcDbSpline
 62
7
  6
CONTINUOUS
 70
0
 71
3
 72
9
 73
5
 74
0
 42
0.0000001
 43
0.0000001
 44
0.0000000001
 40
0.0
 40
0.0
 40
0.0
 40
0.0
 40
0.2418688778
 40
1.0
 40
1.0
 40
1.0
 40
1.0
 10
627.7453915272
 20
100.4994112697
 30
0.0
 10
628.1265281474
 20
100.2485138351
 30
0.0
 10
629.7193147509
 20
99.2370858073
 30
0.0
 10
631.3751697958
 20
98.3261465247
 30
0.0
 10
632.6544479
 20
97.6865074726
 30
0.0
  0
SPLINE
  5
319
100
AcDbEntity
  8
3_ALL_AXES
100
AcDbSpline
 62
7
  6
CONTINUOUS
 70
0
 71
3
 72
9
 73
5
 74
0
 42
0.0000001
 43
0.0000001
 44
0.0000000001
 40
0.0
 40
0.0
 40
0.0
 40
0.0
 40
0.2481862711
 40
1.0
 40
1.0
 40
1.0
 40
1.0
 10
679.1176220556
 20
125.9707786847
 30
0.0
 10
679.117611554
 20
126.112662205
 30
0.0
 10
679.0983908169
 20
126.6842308324
 30
0.0
 10
679.0010937118
 20
127.2527758882
 30
0.0
 10
678.8885599038
 20
127.6675800799
 30
0.0
  0
SPLINE
  5
31A
100
AcDbEntity
  8
7_ALL_FEATURES
100
AcDbSpline
 62
7
  6
CONTINUOUS
 70
0
 71
3
 72
11
 73
7
 74
0
 42
0.0000001
 43
0.0000001
 44
0.0000000001
 40
0.0
 40
0.0
 40
0.0
 40
0.0
 40
0.3163347334
 40
0.5888013257
 40
0.8162866426
 40
1.0
 40
1.0
 40
1.0
 40
1.0
 10
631.0401009839
 20
758.1881621661
 30
0.0
 10
629.6539768684
 20
758.166436097
 30
0.0
 10
627.0719027639
 20
758.1951953927
 30
0.0
 10
623.5027865783
 20
758.5026834742
 30
0.0
 10
620.5547993407
 20
759.0651239125
 30
0.0
 10
618.8416986937
 20
759.6692212612
 30
0.0
 10
618.1248227863
 20
760.03565463
 30
0.0
  0
SPLINE
  5
31B
100
AcDbEntity
  8
7_ALL_FEATURES
100
AcDbSpline
 62
7
  6
CONTINUOUS
 70
0
 71
3
 72
19
 73
15
 74
0
 42
0.0000001
 43
0.0000001
 44
0.0000000001
 40
0.0
 40
0.0
 40
0.0
 40
0.0
 40
0.0546725598
 40
0.1162813512
 40
0.2559504132
 40
0.4090810986
 40
0.5644439723
 40
0.7106081815
 40
0.7768846354
 40
0.8370200505
 40
0.8900095315
 40
0.9350657056
 40
0.9717135052
 40
1.0
 40
1.0
 40
1.0
 40
1.0
 10
712.4178440725
 20
825.5590324886
 30
0.0
 10
710.3943124058
 20
825.518818129
 30
0.0
 10
706.0934024718
 20
825.269639879
 30
0.0
 10
696.6748944194
 20
824.2083626702
 30
0.0
 10
683.7519205466
 20
821.8591698771
 30
0.0
 10
667.6489185822
 20
817.827012306
 30
0.0
 10
651.5883022703
 20
812.7605037603
 30
0.0
 10
638.871627007
 20
807.8599919722
 30
0.0
 10
629.6860367495
 20
803.6769075717
 30
0.0
 10
623.7729475405
 20
800.6465293601
 30
0.0
 10
618.7196211438
 20
797.6812307166
 30
0.0
 10
614.6145567439
 20
794.8362449958
 30
0.0
 10
611.529434916
 20
792.1703308485
 30
0.0
 10
609.9768641751
 20
790.2990201243
 30
0.0
 10
609.4530909453
 20
789.3922856267
 30
0.0
  0
SPLINE
  5
31C
100
AcDbEntity
  8
7_ALL_FEATURES
100
AcDbSpline
 62
7
  6
CONTINUOUS
 70
0
 71
3
 72
10
 73
6
 74
0
 42
0.0000001
 43
0.0000001
 44
0.0000000001
 40
0.0
 40
0.0
 40
0.0
 40
0.0
 40
0.5464627522
 40
0.779898152
 40
1.0
 40
1.0
 40
1.0
 40
1.0
 10
609.2514949964
 20
789.0433164743
 30
0.0
 10
608.9222606692
 20
788.4733596563
 30
0.0
 10
608.5325991319
 20
787.5912929116
 30
0.0
 10
608.4187862876
 20
786.3828273006
 30
0.0
 10
608.5039723507
 20
785.8359112709
 30
0.0
 10
608.5790842092
 20
785.5816615636
 30
0.0
  0
SPLINE
  5
31D
100
AcDbEntity
  8
7_ALL_FEATURES
100
AcDbSpline
 62
7
  6
CONTINUOUS
 70
0
 71
3
 72
11
 73
7
 74
0
 42
0.0000001
 43
0.0000001
 44
0.0000000001
 40
0.0
 40
0.0
 40
0.0
 40
0.0
 40
0.1829433542
 40
0.41021257
 40
0.6829824922
 40
1.0
 40
1.0
 40
1.0
 40
1.0
 10
725.6539975436
 20
823.7172459903
 30
0.0
 10
724.92271862
 20
824.091041506
 30
0.0
 10
723.1701527029
 20
824.7042559853
 30
0.0
 10
720.1512058948
 20
825.2686494697
 30
0.0
 10
716.4902868377
 20
825.5688909182
 30
0.0
 10
713.8407272688
 20
825.587309952
 30
0.0
 10
712.4178440725
 20
825.5590324886
 30
0.0
  0
SPLINE
  5
31E
100
AcDbEntity
  8
7_ALL_FEATURES
100
AcDbSpline
 62
7
  6
CONTINUOUS
 70
0
 71
3
 72
10
 73
6
 74
0
 42
0.0000001
 43
0.0000001
 44
0.0000000001
 40
0.0
 40
0.0
 40
0.0
 40
0.0
 40
0.5464619942
 40
0.7798967485
 40
1.0
 40
1.0
 40
1.0
 40
1.0
 10
617.7659641797
 20
760.2190693056
 30
0.0
 10
617.1798797602
 20
760.5186481965
 30
0.0
 10
616.3734688844
 20
761.0473962056
 30
0.0
 10
615.6212979588
 20
762.0000660263
 30
0.0
 10
615.3956389286
 20
762.5054833008
 30
0.0
 10
615.3205267953
 20
762.7597339381
 30
0.0
  0
SPLINE
  5
31F
100
AcDbEntity
  8
7_ALL_FEATURES
100
AcDbSpline
 62
7
  6
CONTINUOUS
 70
0
 71
3
 72
19
 73
15
 74
0
 42
0.0000001
 43
0.0000001
 44
0.0000000001
 40
0.0
 40
0.0
 40
0.0
 40
0.0
 40
0.0282864948
 40
0.0649342944
 40
0.1099904685
 40
0.1629799495
 40
0.2231153646
 40
0.2893918185
 40
0.4355560277
 40
0.5909189014
 40
0.7440495868
 40
0.8837186488
 40
0.9453274402
 40
1.0
 40
1.0
 40
1.0
 40
1.0
 10
734.3257293846
 20
794.3606149936
 30
0.0
 10
733.8019561548
 20
793.453880496
 30
0.0
 10
732.2493854139
 20
791.5825697718
 30
0.0
 10
729.164263586
 20
788.9166556245
 30
0.0
 10
725.059199186
 20
786.0716699037
 30
0.0
 10
720.0058727893
 20
783.1063712602
 30
0.0
 10
714.0927835804
 20
780.0759930486
 30
0.0
 10
704.9071933229
 20
775.8929086481
 30
0.0
 10
692.1905180596
 20
770.99239686
 30
0.0
 10
676.1299017477
 20
765.9258883142
 30
0.0
 10
660.0268997832
 20
761.8937307432
 30
0.0
 10
647.1039259104
 20
759.5445379501
 30
0.0
 10
637.6854178581
 20
758.4832607413
 30
0.0
 10
633.3845079241
 20
758.2340824913
 30
0.0
 10
631.3609762573
 20
758.1938681317
 30
0.0
  0
SPLINE
  5
320
100
AcDbEntity
  8
7_ALL_FEATURES
100
AcDbSpline
 62
7
  6
CONTINUOUS
 70
0
 71
3
 72
10
 73
6
 74
0
 42
0.0000001
 43
0.0000001
 44
0.0000000001
 40
0.0
 40
0.0
 40
0.0
 40
0.0
 40
0.220101848
 40
0.4535372478
 40
1.0
 40
1.0
 40
1.0
 40
1.0
 10
735.1997361206
 20
798.1712390567
 30
0.0
 10
735.2748479792
 20
797.9169893494
 30
0.0
 10
735.3600340423
 20
797.3700733197
 30
0.0
 10
735.2462211979
 20
796.1616077087
 30
0.0
 10
734.8565596607
 20
795.279540964
 30
0.0
 10
734.5273253334
 20
794.709584146
 30
0.0
  0
SPLINE
  5
321
100
AcDbEntity
  8
7_ALL_FEATURES
100
AcDbSpline
 62
7
  6
CONTINUOUS
 70
0
 71
3
 72
10
 73
6
 74
0
 42
0.0000001
 43
0.0000001
 44
0.0000000001
 40
0.0
 40
0.0
 40
0.0
 40
0.0
 40
0.2201032515
 40
0.4535380058
 40
1.0
 40
1.0
 40
1.0
 40
1.0
 10
728.4582935346
 20
820.9931666822
 30
0.0
 10
728.3831814013
 20
821.2474173195
 30
0.0
 10
728.157522371
 20
821.752834594
 30
0.0
 10
727.4053514455
 20
822.7055044147
 30
0.0
 10
726.5989405696
 20
823.2342524238
 30
0.0
 10
726.0128561501
 20
823.5338313147
 30
0.0
  0
SPLINE
  5
322
100
AcDbEntity
  8
7_ALL_FEATURES
100
AcDbSpline
 62
7
  6
CONTINUOUS
 70
0
 71
3
 72
11
 73
7
 74
0
 42
0.0000001
 43
0.0000001
 44
0.0000000001
 40
0.0
 40
0.0
 40
0.0
 40
0.0
 40
0.3090863083
 40
0.5793343231
 40
0.8094891543
 40
1.0
 40
1.0
 40
1.0
 40
1.0
 10
631.0659576338
 20
758.3683995853
 30
0.0
 10
629.7568188884
 20
758.342382603
 30
0.0
 10
627.3010673624
 20
758.3542202278
 30
0.0
 10
623.876929662
 20
758.5993827729
 30
0.0
 10
620.9836065212
 20
759.0669621185
 30
0.0
 10
619.2645288536
 20
759.5700574182
 30
0.0
 10
618.5175451745
 20
759.8756352869
 30
0.0
  0
SPLINE
  5
323
100
AcDbEntity
  8
7_ALL_FEATURES
100
AcDbSpline
 62
7
  6
CONTINUOUS
 70
0
 71
3
 72
9
 73
5
 74
0
 42
0.0000001
 43
0.0000001
 44
0.0000000001
 40
0.0
 40
0.0
 40
0.0
 40
0.0
 40
0.2581679025
 40
1.0
 40
1.0
 40
1.0
 40
1.0
 10
618.5175451745
 20
759.8756352869
 30
0.0
 10
618.4517180842
 20
759.9025639903
 30
0.0
 10
618.1977492282
 20
760.0093044744
 30
0.0
 10
617.9479355017
 20
760.1260540932
 30
0.0
 10
617.7659641797
 20
760.2190693056
 30
0.0
  0
SPLINE
  5
324
100
AcDbEntity
  8
7_ALL_FEATURES
100
AcDbSpline
 62
7
  6
CONTINUOUS
 70
0
 71
3
 72
9
 73
5
 74
0
 42
0.0000001
 43
0.0000001
 44
0.0000000001
 40
0.0
 40
0.0
 40
0.0
 40
0.0
 40
0.5407717464
 40
1.0
 40
1.0
 40
1.0
 40
1.0
 10
609.2479829767
 20
789.0146652919
 30
0.0
 10
608.9944892651
 20
788.5156554075
 30
0.0
 10
608.6177842755
 20
787.5321906947
 30
0.0
 10
608.642264175
 20
786.4597517006
 30
0.0
 10
608.7684283312
 20
786.0014951252
 30
0.0
  0
SPLINE
  5
325
100
AcDbEntity
  8
7_ALL_FEATURES
100
AcDbSpline
 62
7
  6
CONTINUOUS
 70
0
 71
3
 72
14
 73
10
 74
0
 42
0.0000001
 43
0.0000001
 44
0.0000000001
 40
0.0
 40
0.0
 40
0.0
 40
0.0
 40
0.0696688265
 40
0.1489036386
 40
0.2431801349
 40
0.3554885813
 40
0.4871857095
 40
0.6387085657
 40
1.0
 40
1.0
 40
1.0
 40
1.0
 10
608.8417146637
 20
785.7714698604
 30
0.0
 10
608.9754538712
 20
785.4029540015
 30
0.0
 10
609.4222008638
 20
784.6691051988
 30
0.0
 10
610.4830175016
 20
783.7796870515
 30
0.0
 10
611.9238155254
 20
783.0442314998
 30
0.0
 10
613.7393869406
 20
782.4545187757
 30
0.0
 10
615.9233767165
 20
782.0081961506
 30
0.0
 10
619.5281499801
 20
781.5838873722
 30
0.0
 10
622.4211395751
 20
781.5365957009
 30
0.0
 10
624.4537604929
 20
781.5769906988
 30
0.0
  0
SPLINE
  5
326
100
AcDbEntity
  8
7_ALL_FEATURES
100
AcDbSpline
 62
7
  6
CONTINUOUS
 70
0
 71
3
 72
14
 73
10
 74
0
 42
0.0000001
 43
0.0000001
 44
0.0000000001
 40
0.0
 40
0.0
 40
0.0
 40
0.0
 40
0.0978280087
 40
0.2104468296
 40
0.3347723948
 40
0.4672463997
 40
0.741008746
 40
0.8743175174
 40
1.0
 40
1.0
 40
1.0
 40
1.0
 10
624.4537604929
 20
781.5769906988
 30
0.0
 10
627.0466753419
 20
781.6285206116
 30
0.0
 10
632.6194145865
 20
782.0079373787
 30
0.0
 10
641.4214455533
 20
783.1712993903
 30
0.0
 10
651.0566648452
 20
784.9459974253
 30
0.0
 10
664.7677306272
 20
788.0953046659
 30
0.0
 10
678.5124783383
 20
792.1173545627
 30
0.0
 10
691.8156060131
 20
796.867839171
 30
0.0
 10
698.1794885508
 20
799.4532302735
 30
0.0
 10
701.2327969013
 20
800.786848456
 30
0.0
  0
LINE
  5
327
100
AcDbEntity
  8
7_ALL_FEATURES
100
AcDbLine
 62
7
  6
CONTINUOUS
 10
702.874100221
 20
801.5131591905
 11
703.0573987118
 21
801.595472448
  0
SPLINE
  5
328
100
AcDbEntity
  8
7_ALL_FEATURES
100
AcDbSpline
 62
7
  6
CONTINUOUS
 70
0
 71
3
 72
19
 73
15
 74
0
 42
0.0000001
 43
0.0000001
 44
0.0000000001
 40
0.0
 40
0.0
 40
0.0
 40
0.0
 40
0.2144915565
 40
0.4047286335
 40
0.5670650722
 40
0.6990101844
 40
0.7533478544
 40
0.8001219652
 40
0.8398977076
 40
0.8738083798
 40
0.9038301833
 40
0.932847576
 40
0.9640471882
 40
1.0
 40
1.0
 40
1.0
 40
1.0
 10
703.0573987118
 20
801.595472448
 30
0.0
 10
705.4245473648
 20
802.6600773563
 30
0.0
 10
709.8489142072
 20
804.7652764761
 30
0.0
 10
715.8786286278
 20
808.0511496231
 30
0.0
 10
720.8161339108
 20
811.2217206881
 30
0.0
 10
724.1329150999
 20
813.8521690259
 30
0.0
 10
726.1001222821
 20
815.8788244841
 30
0.0
 10
727.1468753086
 20
817.2304160956
 30
0.0
 10
727.8587622978
 20
818.5110649214
 30
0.0
 10
728.2275983754
 20
819.7241465473
 30
0.0
 10
728.2295829038
 20
820.8696151893
 30
0.0
 10
727.8398713501
 20
821.9147683
 30
0.0
 10
727.0813852426
 20
822.820340125
 30
0.0
 10
726.4100763304
 20
823.2914425031
 30
0.0
 10
726.0339912203
 20
823.5101588006
 30
0.0
  0
SPLINE
  5
329
100
AcDbEntity
  8
7_ALL_FEATURES
100
AcDbSpline
 62
7
  6
CONTINUOUS
 70
0
 71
3
 72
19
 73
15
 74
0
 42
0.0000001
 43
0.0000001
 44
0.0000000001
 40
0.0
 40
0.0
 40
0.0
 40
0.0
 40
0.0292060231
 40
0.0666764535
 40
0.1123752087
 40
0.1658000816
 40
0.2261621737
 40
0.2924699211
 40
0.4382126196
 40
0.5927377873
 40
0.7449374123
 40
0.8839084852
 40
0.9453442364
 40
1.0
 40
1.0
 40
1.0
 40
1.0
 10
734.3247547875
 20
794.3758222065
 30
0.0
 10
733.7453135487
 20
793.4643940309
 30
0.0
 10
732.1047336903
 20
791.5919394506
 30
0.0
 10
728.9155521506
 20
788.9192410812
 30
0.0
 10
724.7307581635
 20
786.0771395637
 30
0.0
 10
719.6228674825
 20
783.1224072823
 30
0.0
 10
713.68029456
 20
780.1094862934
 30
0.0
 10
704.4971296059
 20
775.9621458155
 30
0.0
 10
691.8278458284
 20
771.1069195987
 30
0.0
 10
675.8566656392
 20
766.0868981255
 30
0.0
 10
659.8580569057
 20
762.0874711868
 30
0.0
 10
647.0156511195
 20
759.7489567602
 30
0.0
 10
637.6413873782
 20
758.6798313657
 30
0.0
 10
633.3528531088
 20
758.4211452733
 30
0.0
 10
631.3322556986
 20
758.3741445108
 30
0.0
  0
SPLINE
  5
32A
100
AcDbEntity
  8
7_ALL_FEATURES
100
AcDbSpline
 62
7
  6
CONTINUOUS
 70
0
 71
3
 72
12
 73
8
 74
0
 42
0.0000001
 43
0.0000001
 44
0.0000000001
 40
0.0
 40
0.0
 40
0.0
 40
0.0
 40
0.3439149472
 40
0.4771874913
 40
0.6311388678
 40
0.8056552109
 40
1.0
 40
1.0
 40
1.0
 40
1.0
 10
608.5790842092
 20
785.5816615636
 30
0.0
 10
609.1286304193
 20
783.7214764247
 30
0.0
 10
612.2132881382
 20
782.3490446794
 30
0.0
 10
615.5971166358
 20
781.6508012126
 30
0.0
 10
618.2068151994
 20
781.3280914248
 30
0.0
 10
621.1455182327
 20
781.1712136145
 30
0.0
 10
623.2286370047
 20
781.168548442
 30
0.0
 10
624.3245150478
 20
781.1903272108
 30
0.0
  0
SPLINE
  5
32B
100
AcDbEntity
  8
7_ALL_FEATURES
100
AcDbSpline
 62
7
  6
CONTINUOUS
 70
0
 71
3
 72
14
 73
10
 74
0
 42
0.0000001
 43
0.0000001
 44
0.0000000001
 40
0.0
 40
0.0
 40
0.0
 40
0.0
 40
0.097813197
 40
0.210400824
 40
0.334688149
 40
0.4671275761
 40
0.7408771924
 40
0.8742291698
 40
1.0
 40
1.0
 40
1.0
 40
1.0
 10
624.3245150478
 20
781.1903272108
 30
0.0
 10
626.9262247986
 20
781.2420319169
 30
0.0
 10
632.5174997529
 20
781.6223504302
 30
0.0
 10
641.3486352288
 20
782.7884898637
 30
0.0
 10
651.0155514007
 20
784.5674494249
 30
0.0
 10
664.7735956384
 20
787.7247539395
 30
0.0
 10
678.5678769938
 20
791.7576810048
 30
0.0
 10
691.9227618265
 20
796.5214461846
 30
0.0
 10
698.3135795289
 20
799.1144675328
 30
0.0
 10
701.3805755143
 20
800.4521183598
 30
0.0
  0
LINE
  5
32C
100
AcDbEntity
  8
7_ALL_FEATURES
100
AcDbLine
 62
7
  6
CONTINUOUS
 10
703.0239688002
 20
801.1782422003
 11
703.2075350128
 21
801.2605424259
  0
SPLINE
  5
32D
100
AcDbEntity
  8
7_ALL_FEATURES
100
AcDbSpline
 62
7
  6
CONTINUOUS
 70
0
 71
3
 72
17
 73
13
 74
0
 42
0.0000001
 43
0.0000001
 44
0.0000000001
 40
0.0
 40
0.0
 40
0.0
 40
0.0
 40
0.197204578
 40
0.3765631735
 40
0.5356133517
 40
0.6724224904
 40
0.7858009298
 40
0.8757459126
 40
0.9125934298
 40
0.9447780835
 40
0.9733818577
 40
1.0
 40
1.0
 40
1.0
 40
1.0
 10
703.2075350128
 20
801.2605424259
 30
0.0
 10
705.2109395978
 20
802.160091877
 30
0.0
 10
709.0059253671
 20
803.9473053051
 30
0.0
 10
714.2864189223
 20
806.7261504256
 30
0.0
 10
718.8308944613
 20
809.4437027096
 30
0.0
 10
722.5723101594
 20
812.0564273733
 30
0.0
 10
725.4549241351
 20
814.5220992396
 30
0.0
 10
727.2294213342
 20
816.5507342649
 30
0.0
 10
728.1158523739
 20
818.0902182439
 30
0.0
 10
728.4955801348
 20
819.1162265825
 30
0.0
 10
728.6283145955
 20
820.0899518866
 30
0.0
 10
728.5422761378
 20
820.7088899687
 30
0.0
 10
728.4582935346
 20
820.9931666822
 30
0.0
  0
SPLINE
  5
32E
100
AcDbEntity
  8
3_ALL_AXES
100
AcDbSpline
 62
3
  6
CONTINUOUS
 70
0
 71
3
 72
20
 73
16
 74
0
 42
0.0000001
 43
0.0000001
 44
0.0000000001
 40
0.0
 40
0.0
 40
0.0
 40
0.0
 40
0.0626272506
 40
0.1299282894
 40
0.2748163127
 40
0.4261576846
 40
0.5742441545
 40
0.6441953647
 40
0.710023953
 40
0.7709409825
 40
0.8264317648
 40
0.8763599944
 40
0.9211058122
 40
0.961720595
 40
1.0
 40
1.0
 40
1.0
 40
1.0
 10
632.6544479
 20
97.6865074726
 30
0.0
 10
634.6439751297
 20
96.6917438578
 30
0.0
 10
638.8992465455
 20
94.8778453611
 30
0.0
 10
648.2249276945
 20
91.957250079
 30
0.0
 10
661.0108118629
 20
89.7512109298
 30
0.0
 10
676.8356151508
 20
89.374664745
 30
0.0
 10
689.9176600743
 20
90.9568217599
 30
0.0
 10
699.7114190194
 20
93.396976342
 30
0.0
 10
706.3192108476
 20
95.6991642484
 30
0.0
 10
712.1891775279
 20
98.4585166228
 30
0.0
 10
717.2006988566
 20
101.6210449449
 30
0.0
 10
721.2510673302
 20
105.1288696213
 30
0.0
 10
724.25191593
 20
108.9276543157
 30
0.0
 10
726.1163914948
 20
112.9553266771
 30
0.0
 10
726.5452616721
 20
115.772357822
 30
0.0
 10
726.545262033
 20
117.1319439552
 30
0.0
  0
SPLINE
  5
32F
100
AcDbEntity
  8
7_ALL_FEATURES
100
AcDbSpline
 62
3
  6
CONTINUOUS
 70
0
 71
3
 72
9
 73
5
 74
0
 42
0.0000001
 43
0.0000001
 44
0.0000000001
 40
0.0
 40
0.0
 40
0.0
 40
0.0
 40
0.2464284565
 40
1.0
 40
1.0
 40
1.0
 40
1.0
 10
679.3298592079
 20
127.2970488911
 30
0.0
 10
679.3080053985
 20
127.4019416281
 30
0.0
 10
679.2091347335
 20
127.825431335
 30
0.0
 10
679.0699483165
 20
128.239310659
 30
0.0
 10
678.9456153638
 20
128.5424505233
 30
0.0
  0
SPLINE
  5
330
100
AcDbEntity
  8
7_ALL_FEATURES
100
AcDbSpline
 62
3
  6
CONTINUOUS
 70
0
 71
3
 72
13
 73
9
 74
0
 42
0.0000001
 43
0.0000001
 44
0.0000000001
 40
0.0
 40
0.0
 40
0.0
 40
0.0
 40
0.1021728484
 40
0.2072176583
 40
0.4348451968
 40
0.5615317115
 40
0.6978441986
 40
1.0
 40
1.0
 40
1.0
 40
1.0
 10
616.5453165353
 20
117.1319439474
 30
0.0
 10
616.5453146746
 20
116.2291412428
 30
0.0
 10
616.7284290431
 20
114.3932113511
 30
0.0
 10
617.8404019698
 20
110.6947079996
 30
0.0
 10
620.0567562461
 20
107.1984959116
 30
0.0
 10
623.0552066496
 20
104.0612868819
 30
0.0
 10
626.9103857283
 20
100.8706762112
 30
0.0
 10
630.2664536254
 20
98.8805046099
 30
0.0
 10
632.6544479
 20
97.6865074726
 30
0.0
  0
SPLINE
  5
331
100
AcDbEntity
  8
3_ALL_AXES
100
AcDbSpline
 62
3
  6
CONTINUOUS
 70
0
 71
3
 72
20
 73
16
 74
0
 42
0.0000001
 43
0.0000001
 44
0.0000000001
 40
0.0
 40
0.0
 40
0.0
 40
0.0
 40
0.0626272506
 40
0.1299282894
 40
0.2748163127
 40
0.4261576846
 40
0.5742441545
 40
0.6441953647
 40
0.710023953
 40
0.7709409825
 40
0.8264317648
 40
0.8763599944
 40
0.9211058122
 40
0.961720595
 40
1.0
 40
1.0
 40
1.0
 40
1.0
 10
632.6544479
 20
94.2224058575
 30
0.0
 10
634.6439751297
 20
93.2276422426
 30
0.0
 10
638.8992465455
 20
91.413743746
 30
0.0
 10
648.2249276945
 20
88.4931484638
 30
0.0
 10
661.0108118629
 20
86.2871093147
 30
0.0
 10
676.8356151508
 20
85.9105631299
 30
0.0
 10
689.9176600743
 20
87.4927201448
 30
0.0
 10
699.7114190194
 20
89.9328747268
 30
0.0
 10
706.3192108476
 20
92.2350626332
 30
0.0
 10
712.1891775279
 20
94.9944150076
 30
0.0
 10
717.2006988566
 20
98.1569433298
 30
0.0
 10
721.2510673302
 20
101.6647680061
 30
0.0
 10
724.25191593
 20
105.4635527005
 30
0.0
 10
726.1163914948
 20
109.4912250619
 30
0.0
 10
726.5452616721
 20
112.3082562069
 30
0.0
 10
726.545262033
 20
113.6678423401
 30
0.0
  0
SPLINE
  5
332
100
AcDbEntity
  8
3_ALL_AXES
100
AcDbSpline
 62
3
  6
CONTINUOUS
 70
0
 71
3
 72
13
 73
9
 74
0
 42
0.0000001
 43
0.0000001
 44
0.0000000001
 40
0.0
 40
0.0
 40
0.0
 40
0.0
 40
0.1021742994
 40
0.2072181595
 40
0.4348475151
 40
0.5615308842
 40
0.6978417554
 40
1.0
 40
1.0
 40
1.0
 40
1.0
 10
616.5453796975
 20
113.6678423401
 30
0.0
 10
616.5453794579
 20
112.765026919
 30
0.0
 10
616.72837017
 20
110.9290815221
 30
0.0
 10
617.8404200706
 20
107.2305604163
 30
0.0
 10
620.0568400905
 20
103.7344430672
 30
0.0
 10
623.0551655134
 20
100.5971504789
 30
0.0
 10
626.910382114
 20
97.40661034
 30
0.0
 10
630.2664345937
 20
95.4164125106
 30
0.0
 10
632.6544479
 20
94.2224058575
 30
0.0
  0
ENDSEC
  0
SECTION
  2
OBJECTS
  0
DICTIONARY
  5
333
100
AcDbDictionary
  3
ACAD_GROUP
350
334
  3
ACAD_MLINESTYLE
350
335
  0
DICTIONARY
  5
334
102
{ACAD_REACTORS
330
333
102
}
100
AcDbDictionary
  0
DICTIONARY
  5
335
102
{ACAD_REACTORS
330
333
102
}
100
AcDbDictionary
  3
STANDARD
350
336
  0
MLINESTYLE
  5
336
102
{ACAD_REACTORS
330
335
102
}
100
AcDbMlineStyle
  2
STANDARD
 70
0
  3

 62
256
 51
90.0
 52
90.0
 71
2
 49
0.5
 62
256
  6
BYLAYER
 49
-0.5
 62
256
  6
BYLAYER
  0
ENDSEC
  0
EOF
