999
DXF file: 3x0_c_050.dxf
999
Pro/ENGINEER 2016360 by Parametric Technology Corporation
  0
SECTION
  2
HEADER
  9
$ACADVER
  1
AC1014
  9
$DWGCODEPAGE
  3
ANSI_1252
  9
$EXTMAX
 10
841.0
 20
594.0
 30
0.0
  9
$EXTMIN
 10
0.0
 20
0.0
 30
0.0
  9
$LIMMIN
 10
0.0
 20
0.0
  9
$LIMMAX
 10
841.0
 20
594.0
  9
$VIEWCTR
 10
420.5
 20
297.0
  9
$VIEWSIZE
 40
594.0
  9
$CLAYER
  8
0
  9
$LTSCALE
 40
46.255
  9
$CELTYPE
  6
BYLAYER
  9
$DIMSCALE
 40
1.0
  9
$DIMASZ
 40
2.5
  9
$DIMEXO
 40
0.75
  9
$DIMDLI
 40
31.958
  9
$DIMEXE
 40
0.75
  9
$DIMCEN
 40
7.569
  9
$DIMLFAC
 40
1.0
  9
$DIMBLK
  1
_CLOSED
  9
$DIMALT
 70
0
  9
$DIMALTF
 40
25.4
  9
$DIMTXT
 40
3.0
  9
$DIMTOL
 70
1
  9
$DIMLIM
 70
0
  9
$DIMTFAC
 40
1.0
  9
$DIMTP
 40
0.01
  9
$DIMTM
 40
0.01
  9
$DIMGAP
 40
0.625
  9
$AUNITS
 70
0
  9
$PDMODE
 70
3
  9
$PDSIZE
 40
0.3125
  9
$HANDSEED
  5
334
  9
$TILEMODE
 70
1
  9
$MEASUREMENT
 70
1
  0
ENDSEC
  0
SECTION
  2
CLASSES
  0
ENDSEC
  0
SECTION
  2
TABLES
  0
TABLE
  2
VPORT
  5
8
100
AcDbSymbolTable
 70
2
  0
VPORT
  5
1F4
100
AcDbSymbolTableRecord
100
AcDbViewportTableRecord
  2
*ACTIVE
 70
0
 10
0.0
 20
0.0
 11
1.0
 21
1.0
 12
420.5
 22
297.0
 13
0.0
 23
0.0
 14
1.0
 24
1.0
 15
0.0
 25
0.0
 16
0.0
 26
0.0
 36
1.0
 17
0.0
 27
0.0
 37
0.0
 40
594.0
 41
1.4158249158
 42
50.0
 43
0.0
 44
0.0
 50
0.0
 51
0.0
 71
0
 72
100
 73
1
 74
1
 75
0
 76
0
 77
0
 78
0
  0
ENDTAB
  0
TABLE
  2
LTYPE
  5
5
100
AcDbSymbolTable
 70
6
  0
LTYPE
  5
14
100
AcDbSymbolTableRecord
100
AcDbLinetypeTableRecord
  2
BYBLOCK
 70
0
  3

 72
65
 73
0
 40
0.0
  0
LTYPE
  5
15
100
AcDbSymbolTableRecord
100
AcDbLinetypeTableRecord
  2
BYLAYER
 70
0
  3

 72
65
 73
0
 40
0.0
  0
LTYPE
  5
16
100
AcDbSymbolTableRecord
100
AcDbLinetypeTableRecord
  2
CONTINUOUS
 70
64
  3
Solid line
 72
65
 73
0
 40
0.0
  0
LTYPE
  5
1F5
100
AcDbSymbolTableRecord
100
AcDbLinetypeTableRecord
  2
CENTER
 70
64
  3
____ _ ____ _ ____ _ ____ _ ____ _ ____ _ ____
 72
65
 73
4
 40
0.6
 49
0.375
 74
0
 49
-0.075
 74
0
 49
0.075
 74
0
 49
-0.075
 74
0
  0
LTYPE
  5
1F6
100
AcDbSymbolTableRecord
100
AcDbLinetypeTableRecord
  2
HIDDEN
 70
64
  3
- - - - - - - - - - - - - - - - - - - -
 72
65
 73
2
 40
0.2
 49
0.1
 74
0
 49
-0.1
 74
0
  0
LTYPE
  5
1F7
100
AcDbSymbolTableRecord
100
AcDbLinetypeTableRecord
  2
PHANTOM
 70
64
  3
_____ _ _ _____ _ _ _____ _ _ _____
 72
65
 73
6
 40
0.8
 49
0.45
 74
0
 49
-0.05
 74
0
 49
0.1
 74
0
 49
-0.05
 74
0
 49
0.1
 74
0
 49
-0.05
 74
0
  0
LTYPE
  5
1F8
100
AcDbSymbolTableRecord
100
AcDbLinetypeTableRecord
  2
DOT
 70
64
  3
. . . . . . . . . . . . . . . . . . . .
 72
65
 73
2
 40
0.2
 49
0.1
 74
0
 49
-0.1
 74
0
  0
LTYPE
  5
1F9
100
AcDbSymbolTableRecord
100
AcDbLinetypeTableRecord
  2
DASHED
 70
64
  3
- - - - - - - - - - - - - - - - - - - -
 72
65
 73
2
 40
0.2
 49
0.1
 74
0
 49
-0.1
 74
0
  0
ENDTAB
  0
TABLE
  2
LAYER
  5
2
100
AcDbSymbolTable
 70
36
  0
LAYER
  5
10
100
AcDbSymbolTableRecord
100
AcDbLayerTableRecord
  2
0
 70
0
 62
7
  6
CONTINUOUS
  0
LAYER
  5
1FA
100
AcDbSymbolTableRecord
100
AcDbLayerTableRecord
  2
DEFAULT_1
 70
0
 62
7
  6
CENTER
  0
LAYER
  5
1FB
100
AcDbSymbolTableRecord
100
AcDbLayerTableRecord
  2
DEFAULT_2
 70
0
 62
8
  6
HIDDEN
  0
LAYER
  5
1FC
100
AcDbSymbolTableRecord
100
AcDbLayerTableRecord
  2
DEFAULT_3
 70
0
 62
7
  6
PHANTOM
  0
LAYER
  5
1FD
100
AcDbSymbolTableRecord
100
AcDbLayerTableRecord
  2
01_ALL_DTM_PLN
 70
0
 62
7
  6
CONTINUOUS
  0
LAYER
  5
1FE
100
AcDbSymbolTableRecord
100
AcDbLayerTableRecord
  2
01__ASM_ALL_DTM_PLN
 70
0
 62
7
  6
CONTINUOUS
  0
LAYER
  5
1FF
100
AcDbSymbolTableRecord
100
AcDbLayerTableRecord
  2
01__ASM_DEF_DTM_PLN
 70
0
 62
7
  6
CONTINUOUS
  0
LAYER
  5
200
100
AcDbSymbolTableRecord
100
AcDbLayerTableRecord
  2
01___PRT_ALL_DTM_PLN
 70
0
 62
7
  6
CONTINUOUS
  0
LAYER
  5
201
100
AcDbSymbolTableRecord
100
AcDbLayerTableRecord
  2
01___PRT_DEF_DTM_PLN
 70
0
 62
7
  6
CONTINUOUS
  0
LAYER
  5
202
100
AcDbSymbolTableRecord
100
AcDbLayerTableRecord
  2
02_ALL_AXES
 70
0
 62
7
  6
CONTINUOUS
  0
LAYER
  5
203
100
AcDbSymbolTableRecord
100
AcDbLayerTableRecord
  2
02__ASM_ALL_AXES
 70
0
 62
7
  6
CONTINUOUS
  0
LAYER
  5
204
100
AcDbSymbolTableRecord
100
AcDbLayerTableRecord
  2
02___PRT_ALL_AXES
 70
0
 62
7
  6
CONTINUOUS
  0
LAYER
  5
205
100
AcDbSymbolTableRecord
100
AcDbLayerTableRecord
  2
03_ALL_CURVES
 70
0
 62
7
  6
CONTINUOUS
  0
LAYER
  5
206
100
AcDbSymbolTableRecord
100
AcDbLayerTableRecord
  2
03__ASM_ALL_CURVES
 70
0
 62
7
  6
CONTINUOUS
  0
LAYER
  5
207
100
AcDbSymbolTableRecord
100
AcDbLayerTableRecord
  2
03___PRT_ALL_CURVES
 70
0
 62
7
  6
CONTINUOUS
  0
LAYER
  5
208
100
AcDbSymbolTableRecord
100
AcDbLayerTableRecord
  2
04_ALL_DTM_PNT
 70
0
 62
7
  6
CONTINUOUS
  0
LAYER
  5
209
100
AcDbSymbolTableRecord
100
AcDbLayerTableRecord
  2
04__ASM_ALL_DTM_PNT
 70
0
 62
7
  6
CONTINUOUS
  0
LAYER
  5
20A
100
AcDbSymbolTableRecord
100
AcDbLayerTableRecord
  2
04___PRT_ALL_DTM_PNT
 70
0
 62
7
  6
CONTINUOUS
  0
LAYER
  5
20B
100
AcDbSymbolTableRecord
100
AcDbLayerTableRecord
  2
05_ALL_DTM_CSYS
 70
0
 62
7
  6
CONTINUOUS
  0
LAYER
  5
20C
100
AcDbSymbolTableRecord
100
AcDbLayerTableRecord
  2
05__ASM_ALL_DTM_CSYS
 70
0
 62
7
  6
CONTINUOUS
  0
LAYER
  5
20D
100
AcDbSymbolTableRecord
100
AcDbLayerTableRecord
  2
05__ASM_DEF_DTM_CSYS
 70
0
 62
7
  6
CONTINUOUS
  0
LAYER
  5
20E
100
AcDbSymbolTableRecord
100
AcDbLayerTableRecord
  2
05___PRT_ALL_DTM_CSYS
 70
0
 62
7
  6
CONTINUOUS
  0
LAYER
  5
20F
100
AcDbSymbolTableRecord
100
AcDbLayerTableRecord
  2
05___PRT_DEF_DTM_CSYS
 70
0
 62
7
  6
CONTINUOUS
  0
LAYER
  5
210
100
AcDbSymbolTableRecord
100
AcDbLayerTableRecord
  2
06_ALL_SURFS
 70
0
 62
7
  6
CONTINUOUS
  0
LAYER
  5
211
100
AcDbSymbolTableRecord
100
AcDbLayerTableRecord
  2
06__ASM_ALL_SURFS
 70
0
 62
7
  6
CONTINUOUS
  0
LAYER
  5
212
100
AcDbSymbolTableRecord
100
AcDbLayerTableRecord
  2
06___PRT_ALL_SURFS
 70
0
 62
7
  6
CONTINUOUS
  0
LAYER
  5
213
100
AcDbSymbolTableRecord
100
AcDbLayerTableRecord
  2
07__ASM_ALL_SKELETONS
 70
0
 62
7
  6
CONTINUOUS
  0
LAYER
  5
214
100
AcDbSymbolTableRecord
100
AcDbLayerTableRecord
  2
1_ALL_PLANES
 70
0
 62
7
  6
CONTINUOUS
  0
LAYER
  5
215
100
AcDbSymbolTableRecord
100
AcDbLayerTableRecord
  2
2_ALL_CSYS
 70
0
 62
7
  6
CONTINUOUS
  0
LAYER
  5
216
100
AcDbSymbolTableRecord
100
AcDbLayerTableRecord
  2
3_ALL_AXES
 70
0
 62
7
  6
CONTINUOUS
  0
LAYER
  5
217
100
AcDbSymbolTableRecord
100
AcDbLayerTableRecord
  2
4_ALL_POINTS
 70
0
 62
7
  6
CONTINUOUS
  0
LAYER
  5
218
100
AcDbSymbolTableRecord
100
AcDbLayerTableRecord
  2
5_ALL_CURVES
 70
0
 62
7
  6
CONTINUOUS
  0
LAYER
  5
219
100
AcDbSymbolTableRecord
100
AcDbLayerTableRecord
  2
5__COSTRUZIONE
 70
0
 62
7
  6
CONTINUOUS
  0
LAYER
  5
21A
100
AcDbSymbolTableRecord
100
AcDbLayerTableRecord
  2
6_ALL_SURFS
 70
0
 62
7
  6
CONTINUOUS
  0
LAYER
  5
21B
100
AcDbSymbolTableRecord
100
AcDbLayerTableRecord
  2
7_ALL_FEATURES
 70
0
 62
7
  6
CONTINUOUS
  0
LAYER
  5
21C
100
AcDbSymbolTableRecord
100
AcDbLayerTableRecord
  2
9_SOLID
 70
0
 62
7
  6
CONTINUOUS
  0
LAYER
  5
21D
100
AcDbSymbolTableRecord
100
AcDbLayerTableRecord
  2
INTFCLR_2
 70
0
 62
7
  6
CONTINUOUS
  0
LAYER
  5
21E
100
AcDbSymbolTableRecord
100
AcDbLayerTableRecord
  2
LIVELLO_1
 70
0
 62
7
  6
CONTINUOUS
  0
LAYER
  5
21F
100
AcDbSymbolTableRecord
100
AcDbLayerTableRecord
  2
WHITE
 70
0
 62
7
  6
CONTINUOUS
  0
LAYER
  5
220
100
AcDbSymbolTableRecord
100
AcDbLayerTableRecord
  2
XXX_SOLIDO
 70
0
 62
7
  6
CONTINUOUS
  0
ENDTAB
  0
TABLE
  2
STYLE
  5
3
100
AcDbSymbolTable
 70
1
  0
STYLE
  5
11
100
AcDbSymbolTableRecord
100
AcDbTextStyleTableRecord
  2
STANDARD
 70
0
 40
0.0
 41
1.0
 50
0.0
 71
0
 42
0.2
  3
arial.ttf
  4

  0
STYLE
  5
221
100
AcDbSymbolTableRecord
100
AcDbTextStyleTableRecord
  2
TEXTSTYLE_1
 70
0
 40
0.0
 41
0.8
 50
0.0
 71
0
 42
0.2
  3
gdt
  4

  0
STYLE
  5
222
100
AcDbSymbolTableRecord
100
AcDbTextStyleTableRecord
  2
TEXTSTYLE_2
 70
0
 40
0.0
 41
0.85
 50
0.0
 71
0
 42
0.2
  3
gdt
  4

  0
STYLE
  5
223
100
AcDbSymbolTableRecord
100
AcDbTextStyleTableRecord
  2
TEXTSTYLE_3
 70
0
 40
0.0
 41
0.85
 50
0.0
 71
0
 42
0.2
  3
txt
  4

  0
ENDTAB
  0
TABLE
  2
VIEW
  5
6
100
AcDbSymbolTable
 70
0
  0
ENDTAB
  0
TABLE
  2
UCS
  5
7
100
AcDbSymbolTable
 70
0
  0
ENDTAB
  0
TABLE
  2
APPID
  5
9
100
AcDbSymbolTable
 70
1
  0
APPID
  5
224
100
AcDbSymbolTableRecord
100
AcDbRegAppTableRecord
  2
ACAD
 70
0
  0
ENDTAB
  0
TABLE
  2
BLOCK_RECORD
  5
1
100
AcDbSymbolTable
 70
0
  0
BLOCK_RECORD
  5
1F
100
AcDbSymbolTableRecord
100
AcDbBlockTableRecord
  2
*MODEL_SPACE
  0
BLOCK_RECORD
  5
1B
100
AcDbSymbolTableRecord
100
AcDbBlockTableRecord
  2
*PAPER_SPACE
  0
BLOCK_RECORD
  5
225
100
AcDbSymbolTableRecord
100
AcDbBlockTableRecord
  2
_CLOSED
  0
BLOCK_RECORD
  5
226
100
AcDbSymbolTableRecord
100
AcDbBlockTableRecord
  2
*D0
  0
BLOCK_RECORD
  5
227
100
AcDbSymbolTableRecord
100
AcDbBlockTableRecord
  2
*D1
  0
BLOCK_RECORD
  5
228
100
AcDbSymbolTableRecord
100
AcDbBlockTableRecord
  2
*D2
  0
BLOCK_RECORD
  5
229
100
AcDbSymbolTableRecord
100
AcDbBlockTableRecord
  2
LOGO2_BL0
  0
ENDTAB
  0
TABLE
  2
DIMSTYLE
  5
A
100
AcDbSymbolTable
 70
1
  0
DIMSTYLE
105
22A
100
AcDbSymbolTableRecord
100
AcDbDimStyleTableRecord
  2
STANDARD
 70
0
  3

  4

  5
_CLOSED
  6
_CLOSED
  7
_CLOSED
 40
1.0
 41
2.5
 42
0.75
 43
0.38
 44
0.75
 45
0.0
 46
0.0
 47
0.01
 48
0.01
140
3.0
141
0.09
142
0.0
143
25.4
144
1.0
145
0.0
146
1.0
147
0.625
 71
1.0
 72
0.0
 73
0
 74
0
 75
0
 76
0
 77
1
 78
8
 79
2
170
0
171
1
172
0
173
0
174
0
175
0
176
0
177
0
178
0
270
2
179
2
271
2
272
2
273
2
274
2
275
0
280
0
281
0
282
0
283
1
284
8
285
0
286
0
287
3
288
0
340
11
  0
DIMSTYLE
105
22B
100
AcDbSymbolTableRecord
100
AcDbDimStyleTableRecord
  2
DIMSTYLE_1
 70
0
  3

  4

  5
_CLOSED
  6
_CLOSED
  7
_CLOSED
 40
1.0
 41
2.5
 42
0.75
 43
0.38
 44
0.75
 45
0.0
 46
0.0
 47
0.5
 48
0.5
140
3.0
141
0.09
142
0.0
143
25.4
144
1.0
145
0.0
146
1.0
147
0.75
 71
0.0
 72
0.0
 73
0
 74
0
 75
0
 76
0
 77
1
 78
8
 79
2
170
0
171
1
172
0
173
0
174
0
175
0
176
0
177
0
178
0
270
2
179
2
271
2
272
2
273
2
274
2
275
0
280
0
281
0
282
0
283
1
284
8
285
0
286
0
287
3
288
0
340
11
  0
DIMSTYLE
105
22C
100
AcDbSymbolTableRecord
100
AcDbDimStyleTableRecord
  2
DIMSTYLE_2
 70
0
  3

  4

  5
_CLOSED
  6
_CLOSED
  7
_CLOSED
 40
1.0
 41
2.5
 42
0.75
 43
0.38
 44
0.75
 45
0.0
 46
0.0
 47
0.3
 48
0.3
140
3.0
141
0.09
142
0.0
143
25.4
144
1.0
145
0.0
146
1.0
147
0.75
 71
0.0
 72
0.0
 73
0
 74
0
 75
0
 76
0
 77
1
 78
8
 79
2
170
0
171
1
172
0
173
0
174
0
175
0
176
0
177
0
178
0
270
2
179
2
271
2
272
2
273
2
274
2
275
0
280
0
281
0
282
0
283
1
284
8
285
0
286
0
287
3
288
0
340
11
  0
ENDTAB
  0
ENDSEC
  0
SECTION
  2
BLOCKS
  0
BLOCK
  5
20
100
AcDbEntity
  8
0
100
AcDbBlockBegin
  2
*MODEL_SPACE
 70
0
 10
0.0
 20
0.0
 30
0.0
  3
*MODEL_SPACE
  1

  0
ENDBLK
  5
21
100
AcDbEntity
  8
0
100
AcDbBlockEnd
  0
BLOCK
  5
1C
100
AcDbEntity
  8
0
100
AcDbBlockBegin
  2
*PAPER_SPACE
 70
0
 10
0.0
 20
0.0
 30
0.0
  3
*PAPER_SPACE
  1

  0
ENDBLK
  5
1D
100
AcDbEntity
  8
0
100
AcDbBlockEnd
  0
BLOCK
  5
22D
100
AcDbEntity
  8
0
100
AcDbBlockBegin
 62
2
  6
CONTINUOUS
  2
LOGO2_BL0
 70
64
 10
754.8956694115
 20
36.581561713
  3
LOGO2_BL0
  1

  0
LINE
  5
22E
100
AcDbEntity
  8
0
100
AcDbLine
 62
7
  6
CONTINUOUS
 10
746.6385946397
 20
39.7770530518
 11
745.3342537104
 21
39.7770530518
  0
LINE
  5
22F
100
AcDbEntity
  8
0
100
AcDbLine
 62
7
  6
CONTINUOUS
 10
745.3342537104
 20
39.7770530518
 11
745.3342537104
 21
29.317986992
  0
LINE
  5
230
100
AcDbEntity
  8
0
100
AcDbLine
 62
7
  6
CONTINUOUS
 10
745.3342537104
 20
29.317986992
 11
749.8153085986
 21
29.317986992
  0
LINE
  5
231
100
AcDbEntity
  8
0
100
AcDbLine
 62
7
  6
CONTINUOUS
 10
749.8153085986
 20
29.317986992
 11
749.8153085986
 21
30.510841317
  0
LINE
  5
232
100
AcDbEntity
  8
0
100
AcDbLine
 62
7
  6
CONTINUOUS
 10
749.8153085986
 20
30.510841317
 11
746.6385946397
 21
30.510841317
  0
LINE
  5
233
100
AcDbEntity
  8
0
100
AcDbLine
 62
7
  6
CONTINUOUS
 10
746.6385946397
 20
30.510841317
 11
746.6385946397
 21
39.7770530518
  0
LINE
  5
234
100
AcDbEntity
  8
0
100
AcDbLine
 62
7
  6
CONTINUOUS
 10
761.574920856
 20
39.7770530518
 11
760.2711033379
 21
39.7770530518
  0
LINE
  5
235
100
AcDbEntity
  8
0
100
AcDbLine
 62
7
  6
CONTINUOUS
 10
760.2711033379
 20
39.7770530518
 11
760.2711033379
 21
29.317986992
  0
LINE
  5
236
100
AcDbEntity
  8
0
100
AcDbLine
 62
7
  6
CONTINUOUS
 10
760.2711033379
 20
29.317986992
 11
764.752289079
 21
29.317986992
  0
LINE
  5
237
100
AcDbEntity
  8
0
100
AcDbLine
 62
7
  6
CONTINUOUS
 10
764.752289079
 20
29.317986992
 11
764.752289079
 21
30.510841317
  0
LINE
  5
238
100
AcDbEntity
  8
0
100
AcDbLine
 62
7
  6
CONTINUOUS
 10
764.752289079
 20
30.510841317
 11
761.574920856
 21
30.510841317
  0
LINE
  5
239
100
AcDbEntity
  8
0
100
AcDbLine
 62
7
  6
CONTINUOUS
 10
761.574920856
 20
30.510841317
 11
761.574920856
 21
39.7770530518
  0
LWPOLYLINE
  5
23A
100
AcDbEntity
  8
0
100
AcDbPolyline
 62
7
  6
CONTINUOUS
 90
2
 70
0
 43
0.2
 10
743.6886486213
 20
25.974435685
 10
743.6886486213
 20
24.1173724357
  0
LWPOLYLINE
  5
23B
100
AcDbEntity
  8
0
100
AcDbPolyline
 62
7
  6
CONTINUOUS
 90
2
 70
0
 43
0.2
 10
743.6886486213
 20
24.1173724357
 10
744.4843646317
 20
24.1173724357
  0
LWPOLYLINE
  5
23C
100
AcDbEntity
  8
0
100
AcDbPolyline
 62
7
  6
CONTINUOUS
 90
2
 70
0
 43
0.2
 10
744.4843646317
 20
24.1173724357
 10
744.4843646317
 20
24.3293540073
  0
LWPOLYLINE
  5
23D
100
AcDbEntity
  8
0
100
AcDbPolyline
 62
7
  6
CONTINUOUS
 90
2
 70
0
 43
0.2
 10
744.4843646317
 20
24.3293540073
 10
743.9202581162
 20
24.3293540073
  0
LWPOLYLINE
  5
23E
100
AcDbEntity
  8
0
100
AcDbPolyline
 62
7
  6
CONTINUOUS
 90
2
 70
0
 43
0.2
 10
743.9202581162
 20
24.3293540073
 10
743.9202581162
 20
25.974435685
  0
LWPOLYLINE
  5
23F
100
AcDbEntity
  8
0
100
AcDbPolyline
 62
7
  6
CONTINUOUS
 90
2
 70
0
 43
0.2
 10
743.9202581162
 20
25.974435685
 10
743.6886486213
 20
25.974435685
  0
SPLINE
  5
240
100
AcDbEntity
  8
0
100
AcDbSpline
 62
7
  6
CONTINUOUS
 70
2
 71
3
 72
35
 73
31
 74
0
 42
0.0000001
 43
0.0000001
 44
0.0000000001
 40
0.0
 40
0.0
 40
0.0
 40
0.0
 40
1.0
 40
1.0
 40
1.0
 40
2.0
 40
2.0
 40
2.0
 40
3.0
 40
3.0
 40
3.0
 40
4.0
 40
4.0
 40
4.0
 40
5.0
 40
5.0
 40
5.0
 40
6.0
 40
6.0
 40
6.0
 40
7.0
 40
7.0
 40
7.0
 40
8.0
 40
8.0
 40
8.0
 40
9.0
 40
9.0
 40
9.0
 40
10.0
 40
10.0
 40
10.0
 40
10.0
 10
745.8826578872
 20
25.2699240916
 30
0.0
 10
745.8826578872
 20
25.2699240916
 30
0.0
 10
745.8826578872
 20
24.6078088124
 30
0.0
 10
745.8826578872
 20
24.6078088124
 30
0.0
 10
745.8826578872
 20
24.2927152171
 30
0.0
 10
746.030521576
 20
24.0781165891
 30
0.0
 10
746.3706080603
 20
24.0781165891
 30
0.0
 10
746.7101711333
 20
24.0781165891
 30
0.0
 10
746.8582965278
 20
24.2927152171
 30
0.0
 10
746.8582965278
 20
24.6078088124
 30
0.0
 10
746.8582965278
 20
24.6078088124
 30
0.0
 10
746.8582965278
 20
25.2699240916
 30
0.0
 10
746.8582965278
 20
25.2699240916
 30
0.0
 10
746.8582965278
 20
25.2699240916
 30
0.0
 10
746.6362392889
 20
25.2699240916
 30
0.0
 10
746.6362392889
 20
25.2699240916
 30
0.0
 10
746.6362392889
 20
25.2699240916
 30
0.0
 10
746.6362392889
 20
24.6329325542
 30
0.0
 10
746.6362392889
 20
24.6329325542
 30
0.0
 10
746.6362392889
 20
24.447121547
 30
0.0
 10
746.5895248315
 20
24.2843406365
 30
0.0
 10
746.3706080603
 20
24.2843406365
 30
0.0
 10
746.1511678779
 20
24.2843406365
 30
0.0
 10
746.1044534205
 20
24.447121547
 30
0.0
 10
746.1044534205
 20
24.6329325542
 30
0.0
 10
746.1044534205
 20
24.6329325542
 30
0.0
 10
746.1044534205
 20
25.2699240916
 30
0.0
 10
746.1044534205
 20
25.2699240916
 30
0.0
 10
746.1044534205
 20
25.2699240916
 30
0.0
 10
745.8826578872
 20
25.2699240916
 30
0.0
 10
745.8826578872
 20
25.2699240916
 30
0.0
  0
SPLINE
  5
241
100
AcDbEntity
  8
0
100
AcDbSpline
 62
7
  6
CONTINUOUS
 70
2
 71
3
 72
35
 73
31
 74
0
 42
0.0000001
 43
0.0000001
 44
0.0000000001
 40
0.0
 40
0.0
 40
0.0
 40
0.0
 40
1.0
 40
1.0
 40
1.0
 40
2.0
 40
2.0
 40
2.0
 40
3.0
 40
3.0
 40
3.0
 40
4.0
 40
4.0
 40
4.0
 40
5.0
 40
5.0
 40
5.0
 40
6.0
 40
6.0
 40
6.0
 40
7.0
 40
7.0
 40
7.0
 40
8.0
 40
8.0
 40
8.0
 40
9.0
 40
9.0
 40
9.0
 40
10.0
 40
10.0
 40
10.0
 40
10.0
 10
749.281429085
 20
25.2285745998
 30
0.0
 10
749.1929725774
 20
25.279868906
 30
0.0
 10
749.0795231807
 20
25.3049926479
 30
0.0
 10
748.9758877457
 20
25.3049926479
 30
0.0
 10
748.6210148925
 20
25.3049926479
 30
0.0
 10
748.3455697023
 20
25.0411933588
 30
0.0
 10
748.3455697023
 20
24.6837034492
 30
0.0
 10
748.3455697023
 20
24.3387754104
 30
0.0
 10
748.6240245074
 20
24.0786400004
 30
0.0
 10
748.9635875804
 20
24.0786400004
 30
0.0
 10
749.0795231807
 20
24.0786400004
 30
0.0
 10
749.1802798536
 20
24.1006232745
 30
0.0
 10
749.281429085
 20
24.1545346371
 30
0.0
 10
749.281429085
 20
24.1545346371
 30
0.0
 10
749.281429085
 20
24.4371767326
 30
0.0
 10
749.281429085
 20
24.4371767326
 30
0.0
 10
749.1975524261
 20
24.3440095233
 30
0.0
 10
749.0940478439
 20
24.2848640478
 30
0.0
 10
748.9659429312
 20
24.2848640478
 30
0.0
 10
748.7322397912
 20
24.2848640478
 30
0.0
 10
748.5669726771
 20
24.4570663615
 30
0.0
 10
748.5669726771
 20
24.6936482636
 30
0.0
 10
748.5669726771
 20
24.9056298352
 30
0.0
 10
748.7347259948
 20
25.0977217779
 30
0.0
 10
748.9515491208
 20
25.0977217779
 30
0.0
 10
749.0843647351
 20
25.0977217779
 30
0.0
 10
749.1929725774
 20
25.0438104152
 30
0.0
 10
749.281429085
 20
24.9427920367
 30
0.0
 10
749.281429085
 20
24.9427920367
 30
0.0
 10
749.281429085
 20
25.2285745998
 30
0.0
 10
749.281429085
 20
25.2285745998
 30
0.0
  0
SPLINE
  5
242
100
AcDbEntity
  8
0
100
AcDbSpline
 62
7
  6
CONTINUOUS
 70
2
 71
3
 72
32
 73
28
 74
0
 42
0.0000001
 43
0.0000001
 44
0.0000000001
 40
0.0
 40
0.0
 40
0.0
 40
0.0
 40
1.0
 40
1.0
 40
1.0
 40
2.0
 40
2.0
 40
2.0
 40
3.0
 40
3.0
 40
3.0
 40
4.0
 40
4.0
 40
4.0
 40
5.0
 40
5.0
 40
5.0
 40
6.0
 40
6.0
 40
6.0
 40
7.0
 40
7.0
 40
7.0
 40
8.0
 40
8.0
 40
8.0
 40
9.0
 40
9.0
 40
9.0
 40
9.0
 10
751.8133003373
 20
24.6570094735
 30
0.0
 10
751.8133003373
 20
24.6570094735
 30
0.0
 10
751.8133003373
 20
24.6910312072
 30
0.0
 10
751.8133003373
 20
24.6910312072
 30
0.0
 10
751.8133003373
 20
25.0333421895
 30
0.0
 10
751.6404437594
 20
25.3049926479
 30
0.0
 10
751.2737941523
 20
25.3049926479
 30
0.0
 10
750.9021721379
 20
25.3049926479
 30
0.0
 10
750.712435546
 20
25.0385763023
 30
0.0
 10
750.712435546
 20
24.6837034492
 30
0.0
 10
750.712435546
 20
24.3440095233
 30
0.0
 10
750.9265107628
 20
24.0781165891
 30
0.0
 10
751.2786357067
 20
24.0781165891
 30
0.0
 10
751.5026557379
 20
24.0781165891
 30
0.0
 10
751.7048233478
 20
24.1937904837
 30
0.0
 10
751.8133003373
 20
24.3932101844
 30
0.0
 10
751.8133003373
 20
24.3932101844
 30
0.0
 10
751.6256573906
 20
24.4999860871
 30
0.0
 10
751.6256573906
 20
24.4999860871
 30
0.0
 10
751.5421732901
 20
24.3612820958
 30
0.0
 10
751.4509688732
 20
24.2754426446
 30
0.0
 10
751.281383616
 20
24.2754426446
 30
0.0
 10
751.0694020444
 20
24.2754426446
 30
0.0
 10
750.9364555773
 20
24.4602068292
 30
0.0
 10
750.9341002265
 20
24.6570094735
 30
0.0
 10
750.9341002265
 20
24.6570094735
 30
0.0
 10
751.8133003373
 20
24.6570094735
 30
0.0
 10
751.8133003373
 20
24.6570094735
 30
0.0
  0
SPLINE
  5
243
100
AcDbEntity
  8
0
100
AcDbSpline
 62
7
  6
CONTINUOUS
 70
2
 71
3
 72
14
 73
10
 74
0
 42
0.0000001
 43
0.0000001
 44
0.0000000001
 40
0.0
 40
0.0
 40
0.0
 40
0.0
 40
1.0
 40
1.0
 40
1.0
 40
2.0
 40
2.0
 40
2.0
 40
3.0
 40
3.0
 40
3.0
 40
3.0
 10
750.9461386861
 20
24.8245010856
 30
0.0
 10
750.9737486315
 20
24.9893756413
 30
0.0
 10
751.1015918386
 20
25.1123772939
 30
0.0
 10
751.2737941523
 20
25.1123772939
 30
0.0
 10
751.4509688732
 20
25.1123772939
 30
0.0
 10
751.5644182699
 20
24.9967033993
 30
0.0
 10
751.5916356568
 20
24.8245010856
 30
0.0
 10
751.5916356568
 20
24.8245010856
 30
0.0
 10
750.9461386861
 20
24.8245010856
 30
0.0
 10
750.9461386861
 20
24.8245010856
 30
0.0
  0
SPLINE
  5
244
100
AcDbEntity
  8
0
100
AcDbSpline
 62
7
  6
CONTINUOUS
 70
2
 71
3
 72
20
 73
16
 74
0
 42
0.0000001
 43
0.0000001
 44
0.0000000001
 40
0.0
 40
0.0
 40
0.0
 40
0.0
 40
1.0
 40
1.0
 40
1.0
 40
2.0
 40
2.0
 40
2.0
 40
3.0
 40
3.0
 40
3.0
 40
4.0
 40
4.0
 40
4.0
 40
5.0
 40
5.0
 40
5.0
 40
5.0
 10
753.8373317875
 20
25.0338656007
 30
0.0
 10
753.8373317875
 20
25.0338656007
 30
0.0
 10
754.2484713541
 20
24.5313907644
 30
0.0
 10
754.2484713541
 20
24.5313907644
 30
0.0
 10
754.132404901
 20
24.4157168698
 30
0.0
 10
753.9946168795
 20
24.2853874591
 30
0.0
 10
753.8226762714
 20
24.2853874591
 30
0.0
 10
753.6452398448
 20
24.2853874591
 30
0.0
 10
753.4777482327
 20
24.4497386035
 30
0.0
 10
753.4777482327
 20
24.6266516188
 30
0.0
 10
753.4777482327
 20
24.8046114567
 30
0.0
 10
753.6875053063
 20
24.930753577
 30
0.0
 10
753.8150868077
 20
25.0186866734
 30
0.0
 10
753.8150868077
 20
25.0186866734
 30
0.0
 10
753.8373317875
 20
25.0338656007
 30
0.0
 10
753.8373317875
 20
25.0338656007
 30
0.0
  0
SPLINE
  5
245
100
AcDbEntity
  8
0
100
AcDbSpline
 62
7
  6
CONTINUOUS
 70
2
 71
3
 72
23
 73
19
 74
0
 42
0.0000001
 43
0.0000001
 44
0.0000000001
 40
0.0
 40
0.0
 40
0.0
 40
0.0
 40
1.0
 40
1.0
 40
1.0
 40
2.0
 40
2.0
 40
2.0
 40
3.0
 40
3.0
 40
3.0
 40
4.0
 40
4.0
 40
4.0
 40
5.0
 40
5.0
 40
5.0
 40
6.0
 40
6.0
 40
6.0
 40
6.0
 10
753.8866633013
 20
25.3248822768
 30
0.0
 10
753.8866633013
 20
25.3248822768
 30
0.0
 10
753.8250316222
 20
25.40339397
 30
0.0
 10
753.8250316222
 20
25.40339397
 30
0.0
 10
753.7711202595
 20
25.4719608487
 30
0.0
 10
753.7143301348
 20
25.5410511387
 30
0.0
 10
753.7143301348
 20
25.6347417592
 30
0.0
 10
753.7143301348
 20
25.7535561216
 30
0.0
 10
753.8102452533
 20
25.8310209922
 30
0.0
 10
753.9212084463
 20
25.8310209922
 30
0.0
 10
754.0444718046
 20
25.8310209922
 30
0.0
 10
754.1377698667
 20
25.759837057
 30
0.0
 10
754.1377698667
 20
25.6295076463
 30
0.0
 10
754.1377698667
 20
25.4944675341
 30
0.0
 10
754.009664954
 20
25.418049486
 30
0.0
 10
753.9161051863
 20
25.3442484944
 30
0.0
 10
753.9161051863
 20
25.3442484944
 30
0.0
 10
753.8866633013
 20
25.3248822768
 30
0.0
 10
753.8866633013
 20
25.3248822768
 30
0.0
  0
SPLINE
  5
246
100
AcDbEntity
  8
0
100
AcDbSpline
 62
7
  6
CONTINUOUS
 70
2
 71
3
 72
50
 73
46
 74
0
 42
0.0000001
 43
0.0000001
 44
0.0000000001
 40
0.0
 40
0.0
 40
0.0
 40
0.0
 40
1.0
 40
1.0
 40
1.0
 40
2.0
 40
2.0
 40
2.0
 40
3.0
 40
3.0
 40
3.0
 40
4.0
 40
4.0
 40
4.0
 40
5.0
 40
5.0
 40
5.0
 40
6.0
 40
6.0
 40
6.0
 40
7.0
 40
7.0
 40
7.0
 40
8.0
 40
8.0
 40
8.0
 40
9.0
 40
9.0
 40
9.0
 40
10.0
 40
10.0
 40
10.0
 40
11.0
 40
11.0
 40
11.0
 40
12.0
 40
12.0
 40
12.0
 40
13.0
 40
13.0
 40
13.0
 40
14.0
 40
14.0
 40
14.0
 40
15.0
 40
15.0
 40
15.0
 40
15.0
 10
754.588819544
 20
24.117895847
 30
0.0
 10
754.588819544
 20
24.117895847
 30
0.0
 10
754.8742095487
 20
24.117895847
 30
0.0
 10
754.8742095487
 20
24.117895847
 30
0.0
 10
754.8742095487
 20
24.117895847
 30
0.0
 10
754.5418433809
 20
24.5287737079
 30
0.0
 10
754.5418433809
 20
24.5287737079
 30
0.0
 10
754.5418433809
 20
24.5287737079
 30
0.0
 10
754.7683496157
 20
24.7946666422
 30
0.0
 10
754.7683496157
 20
24.7946666422
 30
0.0
 10
754.7683496157
 20
24.7946666422
 30
0.0
 10
754.6200933685
 20
24.9475027382
 30
0.0
 10
754.6200933685
 20
24.9475027382
 30
0.0
 10
754.6200933685
 20
24.9475027382
 30
0.0
 10
754.4041862122
 20
24.6962653201
 30
0.0
 10
754.4041862122
 20
24.6962653201
 30
0.0
 10
754.4041862122
 20
24.6962653201
 30
0.0
 10
754.0171235648
 20
25.1641950114
 30
0.0
 10
754.0171235648
 20
25.1641950114
 30
0.0
 10
754.1725767173
 20
25.2782986722
 30
0.0
 10
754.3548546983
 20
25.418049486
 30
0.0
 10
754.3548546983
 20
25.6274140012
 30
0.0
 10
754.3548546983
 20
25.8713236613
 30
0.0
 10
754.1528179412
 20
26.0147383542
 30
0.0
 10
753.9263117064
 20
26.0147383542
 30
0.0
 10
753.6821403406
 20
26.0147383542
 30
0.0
 10
753.4977687144
 20
25.8639959033
 30
0.0
 10
753.4977687144
 20
25.6075243722
 30
0.0
 10
753.4977687144
 20
25.4499775746
 30
0.0
 10
753.5964317422
 20
25.3123204059
 30
0.0
 10
753.7017682639
 20
25.2013572129
 30
0.0
 10
753.7017682639
 20
25.2013572129
 30
0.0
 10
753.5862252221
 20
25.1176114068
 30
0.0
 10
753.5862252221
 20
25.1176114068
 30
0.0
 10
753.4085270899
 20
24.9893756413
 30
0.0
 10
753.2611868123
 20
24.861663287
 30
0.0
 10
753.2611868123
 20
24.6245579736
 30
0.0
 10
753.2611868123
 20
24.3042302655
 30
0.0
 10
753.5197519885
 20
24.0781165891
 30
0.0
 10
753.8301348822
 20
24.0781165891
 30
0.0
 10
754.0490516534
 20
24.0781165891
 30
0.0
 10
754.2462468561
 20
24.2032118869
 30
0.0
 10
754.3865210812
 20
24.3691332651
 30
0.0
 10
754.3865210812
 20
24.3691332651
 30
0.0
 10
754.588819544
 20
24.117895847
 30
0.0
 10
754.588819544
 20
24.117895847
 30
0.0
  0
LWPOLYLINE
  5
247
100
AcDbEntity
  8
0
100
AcDbPolyline
 62
7
  6
CONTINUOUS
 90
2
 70
0
 43
0.2
 10
756.5242636337
 20
25.974435685
 10
756.2929158445
 20
25.974435685
  0
LWPOLYLINE
  5
248
100
AcDbEntity
  8
0
100
AcDbPolyline
 62
7
  6
CONTINUOUS
 90
2
 70
0
 43
0.2
 10
756.2929158445
 20
25.974435685
 10
756.2929158445
 20
24.1173724357
  0
LWPOLYLINE
  5
249
100
AcDbEntity
  8
0
100
AcDbPolyline
 62
7
  6
CONTINUOUS
 90
2
 70
0
 43
0.2
 10
756.2929158445
 20
24.1173724357
 10
757.0882392964
 20
24.1173724357
  0
LWPOLYLINE
  5
24A
100
AcDbEntity
  8
0
100
AcDbPolyline
 62
7
  6
CONTINUOUS
 90
2
 70
0
 43
0.2
 10
757.0882392964
 20
24.1173724357
 10
757.0882392964
 20
24.3293540073
  0
LWPOLYLINE
  5
24B
100
AcDbEntity
  8
0
100
AcDbPolyline
 62
7
  6
CONTINUOUS
 90
2
 70
0
 43
0.2
 10
757.0882392964
 20
24.3293540073
 10
756.5242636337
 20
24.3293540073
  0
LWPOLYLINE
  5
24C
100
AcDbEntity
  8
0
100
AcDbPolyline
 62
7
  6
CONTINUOUS
 90
2
 70
0
 43
0.2
 10
756.5242636337
 20
24.3293540073
 10
756.5242636337
 20
25.974435685
  0
LWPOLYLINE
  5
24D
100
AcDbEntity
  8
0
100
AcDbPolyline
 62
7
  6
CONTINUOUS
 90
2
 70
0
 43
0.2
 10
758.7673427079
 20
25.2699240916
 10
758.5462014388
 20
25.2699240916
  0
LWPOLYLINE
  5
24E
100
AcDbEntity
  8
0
100
AcDbPolyline
 62
7
  6
CONTINUOUS
 90
2
 70
0
 43
0.2
 10
758.5462014388
 20
25.2699240916
 10
758.5462014388
 20
24.117895847
  0
LWPOLYLINE
  5
24F
100
AcDbEntity
  8
0
100
AcDbPolyline
 62
7
  6
CONTINUOUS
 90
2
 70
0
 43
0.2
 10
758.5462014388
 20
24.117895847
 10
758.7673427079
 20
24.117895847
  0
LWPOLYLINE
  5
250
100
AcDbEntity
  8
0
100
AcDbPolyline
 62
7
  6
CONTINUOUS
 90
2
 70
0
 43
0.2
 10
758.7673427079
 20
24.117895847
 10
758.7673427079
 20
25.2699240916
  0
LWPOLYLINE
  5
251
100
AcDbEntity
  8
0
100
AcDbPolyline
 62
7
  6
CONTINUOUS
 90
2
 70
1
 43
0.2
 10
758.5043194307
 20
25.7998780205
 42
1.0
 10
758.8094864216
 20
25.7998780205
 42
1.0
  0
SPLINE
  5
252
100
AcDbEntity
  8
0
100
AcDbSpline
 62
7
  6
CONTINUOUS
 70
2
 71
3
 72
17
 73
13
 74
0
 42
0.0000001
 43
0.0000001
 44
0.0000000001
 40
0.0
 40
0.0
 40
0.0
 40
0.0
 40
1.0
 40
1.0
 40
1.0
 40
2.0
 40
2.0
 40
2.0
 40
3.0
 40
3.0
 40
3.0
 40
4.0
 40
4.0
 40
4.0
 40
4.0
 10
760.8976266495
 20
24.2754426446
 30
0.0
 10
760.6636618039
 20
24.2754426446
 30
0.0
 10
760.5333323932
 20
24.4774794017
 30
0.0
 10
760.5333323932
 20
24.6936482636
 30
0.0
 10
760.5333323932
 20
24.9082468917
 30
0.0
 10
760.6691576224
 20
25.107143181
 30
0.0
 10
760.8976266495
 20
25.107143181
 30
0.0
 10
761.1370873137
 20
25.107143181
 30
0.0
 10
761.2726508373
 20
24.9181917061
 30
0.0
 10
761.2726508373
 20
24.6936482636
 30
0.0
 10
761.2726508373
 20
24.4675345873
 30
0.0
 10
761.1394426645
 20
24.2754426446
 30
0.0
 10
760.8976266495
 20
24.2754426446
 30
0.0
  0
SPLINE
  5
253
100
AcDbEntity
  8
0
100
AcDbSpline
 62
7
  6
CONTINUOUS
 70
2
 71
3
 72
50
 73
46
 74
0
 42
0.0000001
 43
0.0000001
 44
0.0000000001
 40
0.0
 40
0.0
 40
0.0
 40
0.0
 40
1.0
 40
1.0
 40
1.0
 40
2.0
 40
2.0
 40
2.0
 40
3.0
 40
3.0
 40
3.0
 40
4.0
 40
4.0
 40
4.0
 40
5.0
 40
5.0
 40
5.0
 40
6.0
 40
6.0
 40
6.0
 40
7.0
 40
7.0
 40
7.0
 40
8.0
 40
8.0
 40
8.0
 40
9.0
 40
9.0
 40
9.0
 40
10.0
 40
10.0
 40
10.0
 40
11.0
 40
11.0
 40
11.0
 40
12.0
 40
12.0
 40
12.0
 40
13.0
 40
13.0
 40
13.0
 40
14.0
 40
14.0
 40
14.0
 40
15.0
 40
15.0
 40
15.0
 40
15.0
 10
761.4817536468
 20
25.2704475029
 30
0.0
 10
761.4817536468
 20
25.2704475029
 30
0.0
 10
761.2600889664
 20
25.2704475029
 30
0.0
 10
761.2600889664
 20
25.2704475029
 30
0.0
 10
761.2600889664
 20
25.2704475029
 30
0.0
 10
761.2600889664
 20
25.0731214473
 30
0.0
 10
761.2600889664
 20
25.0731214473
 30
0.0
 10
761.2600889664
 20
25.0731214473
 30
0.0
 10
761.2553782648
 20
25.0731214473
 30
0.0
 10
761.2553782648
 20
25.0731214473
 30
0.0
 10
761.1640429951
 20
25.2160127289
 30
0.0
 10
761.0261241207
 20
25.3044692366
 30
0.0
 10
760.8533983957
 20
25.3044692366
 30
0.0
 10
760.5210322279
 20
25.3044692366
 30
0.0
 10
760.3119294184
 20
25.0165930282
 30
0.0
 10
760.3119294184
 20
24.7009760217
 30
0.0
 10
760.3119294184
 20
24.3712269103
 30
0.0
 10
760.5089937683
 20
24.0781165891
 30
0.0
 10
760.8638666215
 20
24.0781165891
 30
0.0
 10
761.0261241207
 20
24.0781165891
 30
0.0
 10
761.1661366402
 20
24.1665730967
 30
0.0
 10
761.2553782648
 20
24.2974259187
 30
0.0
 10
761.2553782648
 20
24.2974259187
 30
0.0
 10
761.2600889664
 20
24.2974259187
 30
0.0
 10
761.2600889664
 20
24.2974259187
 30
0.0
 10
761.2600889664
 20
24.2974259187
 30
0.0
 10
761.2600889664
 20
24.0781165891
 30
0.0
 10
761.2600889664
 20
24.0781165891
 30
0.0
 10
761.2600889664
 20
23.841534687
 30
0.0
 10
761.2035605473
 20
23.6546768572
 30
0.0
 10
760.930339855
 20
23.6546768572
 30
0.0
 10
760.7280413923
 20
23.6546768572
 30
0.0
 10
760.5854118163
 20
23.7729678083
 30
0.0
 10
760.5854118163
 20
23.9791918557
 30
0.0
 10
760.5854118163
 20
23.9791918557
 30
0.0
 10
760.3637471359
 20
23.9791918557
 30
0.0
 10
760.3637471359
 20
23.9791918557
 30
0.0
 10
760.3687195431
 20
23.6546768572
 30
0.0
 10
760.5998056267
 20
23.457874213
 30
0.0
 10
760.9201333349
 20
23.457874213
 30
0.0
 10
761.3681733973
 20
23.457874213
 30
0.0
 10
761.4817536468
 20
23.7431333649
 30
0.0
 10
761.4817536468
 20
24.1398791211
 30
0.0
 10
761.4817536468
 20
24.1398791211
 30
0.0
 10
761.4817536468
 20
25.2704475029
 30
0.0
 10
761.4817536468
 20
25.2704475029
 30
0.0
  0
SPLINE
  5
254
100
AcDbEntity
  8
0
100
AcDbSpline
 62
7
  6
CONTINUOUS
 70
2
 71
3
 72
44
 73
40
 74
0
 42
0.0000001
 43
0.0000001
 44
0.0000000001
 40
0.0
 40
0.0
 40
0.0
 40
0.0
 40
1.0
 40
1.0
 40
1.0
 40
2.0
 40
2.0
 40
2.0
 40
3.0
 40
3.0
 40
3.0
 40
4.0
 40
4.0
 40
4.0
 40
5.0
 40
5.0
 40
5.0
 40
6.0
 40
6.0
 40
6.0
 40
7.0
 40
7.0
 40
7.0
 40
8.0
 40
8.0
 40
8.0
 40
9.0
 40
9.0
 40
9.0
 40
10.0
 40
10.0
 40
10.0
 40
11.0
 40
11.0
 40
11.0
 40
12.0
 40
12.0
 40
12.0
 40
13.0
 40
13.0
 40
13.0
 40
13.0
 10
763.0506789822
 20
26.2555075466
 30
0.0
 10
763.0506789822
 20
26.2555075466
 30
0.0
 10
763.0506789822
 20
24.1173724357
 30
0.0
 10
763.0506789822
 20
24.1173724357
 30
0.0
 10
763.0506789822
 20
24.1173724357
 30
0.0
 10
763.272081957
 20
24.1173724357
 30
0.0
 10
763.272081957
 20
24.1173724357
 30
0.0
 10
763.272081957
 20
24.1173724357
 30
0.0
 10
763.272081957
 20
24.647064659
 30
0.0
 10
763.272081957
 20
24.647064659
 30
0.0
 10
763.272081957
 20
24.8569525854
 30
0.0
 10
763.272081957
 20
25.1076665923
 30
0.0
 10
763.5573411088
 20
25.1076665923
 30
0.0
 10
763.7842399021
 20
25.1076665923
 30
0.0
 10
763.8111955835
 20
24.9747201252
 30
0.0
 10
763.8111955835
 20
24.7784408923
 30
0.0
 10
763.8111955835
 20
24.7784408923
 30
0.0
 10
763.8111955835
 20
24.1173724357
 30
0.0
 10
763.8111955835
 20
24.1173724357
 30
0.0
 10
763.8111955835
 20
24.1173724357
 30
0.0
 10
764.0331219695
 20
24.1173724357
 30
0.0
 10
764.0331219695
 20
24.1173724357
 30
0.0
 10
764.0331219695
 20
24.1173724357
 30
0.0
 10
764.0331219695
 20
24.8046114567
 30
0.0
 10
764.0331219695
 20
24.8046114567
 30
0.0
 10
764.0331219695
 20
25.085159907
 30
0.0
 10
763.9491144578
 20
25.3049926479
 30
0.0
 10
763.624076048
 20
25.3049926479
 30
0.0
 10
763.4843252342
 20
25.3049926479
 30
0.0
 10
763.3461446542
 20
25.2385194143
 30
0.0
 10
763.2767926585
 20
25.1155177616
 30
0.0
 10
763.2767926585
 20
25.1155177616
 30
0.0
 10
763.272081957
 20
25.1155177616
 30
0.0
 10
763.272081957
 20
25.1155177616
 30
0.0
 10
763.272081957
 20
25.1155177616
 30
0.0
 10
763.272081957
 20
26.2555075466
 30
0.0
 10
763.272081957
 20
26.2555075466
 30
0.0
 10
763.272081957
 20
26.2555075466
 30
0.0
 10
763.0506789822
 20
26.2555075466
 30
0.0
 10
763.0506789822
 20
26.2555075466
 30
0.0
  0
LWPOLYLINE
  5
255
100
AcDbEntity
  8
0
100
AcDbPolyline
 62
7
  6
CONTINUOUS
 90
2
 70
0
 43
0.2
 10
765.8729126464
 20
25.0631766329
 10
766.0893432139
 20
25.0631766329
  0
LWPOLYLINE
  5
256
100
AcDbEntity
  8
0
100
AcDbPolyline
 62
7
  6
CONTINUOUS
 90
2
 70
0
 43
0.2
 10
766.0893432139
 20
25.0631766329
 10
766.0893432139
 20
25.2699240916
  0
LWPOLYLINE
  5
257
100
AcDbEntity
  8
0
100
AcDbPolyline
 62
7
  6
CONTINUOUS
 90
2
 70
0
 43
0.2
 10
766.0893432139
 20
25.2699240916
 10
765.8729126464
 20
25.2699240916
  0
LWPOLYLINE
  5
258
100
AcDbEntity
  8
0
100
AcDbPolyline
 62
7
  6
CONTINUOUS
 90
2
 70
0
 43
0.2
 10
765.8729126464
 20
25.2699240916
 10
765.8729126464
 20
25.710636396
  0
LWPOLYLINE
  5
259
100
AcDbEntity
  8
0
100
AcDbPolyline
 62
7
  6
CONTINUOUS
 90
2
 70
0
 43
0.2
 10
765.8729126464
 20
25.710636396
 10
765.651247966
 20
25.710636396
  0
LWPOLYLINE
  5
25A
100
AcDbEntity
  8
0
100
AcDbPolyline
 62
7
  6
CONTINUOUS
 90
2
 70
0
 43
0.2
 10
765.651247966
 20
25.710636396
 10
765.651247966
 20
25.2699240916
  0
LWPOLYLINE
  5
25B
100
AcDbEntity
  8
0
100
AcDbPolyline
 62
7
  6
CONTINUOUS
 90
2
 70
0
 43
0.2
 10
765.651247966
 20
25.2699240916
 10
765.5306016641
 20
25.2699240916
  0
LWPOLYLINE
  5
25C
100
AcDbEntity
  8
0
100
AcDbPolyline
 62
7
  6
CONTINUOUS
 90
2
 70
0
 43
0.2
 10
765.5306016641
 20
25.2699240916
 10
765.5306016641
 20
25.0631766329
  0
LWPOLYLINE
  5
25D
100
AcDbEntity
  8
0
100
AcDbPolyline
 62
7
  6
CONTINUOUS
 90
2
 70
0
 43
0.2
 10
765.5306016641
 20
25.0631766329
 10
765.651247966
 20
25.0631766329
  0
LWPOLYLINE
  5
25E
100
AcDbEntity
  8
0
100
AcDbPolyline
 62
7
  6
CONTINUOUS
 90
2
 70
0
 43
0.2
 10
765.651247966
 20
25.0631766329
 10
765.651247966
 20
24.1173724357
  0
LWPOLYLINE
  5
25F
100
AcDbEntity
  8
0
100
AcDbPolyline
 62
7
  6
CONTINUOUS
 90
2
 70
0
 43
0.2
 10
765.651247966
 20
24.1173724357
 10
765.8729126464
 20
24.1173724357
  0
LWPOLYLINE
  5
260
100
AcDbEntity
  8
0
100
AcDbPolyline
 62
7
  6
CONTINUOUS
 90
2
 70
0
 43
0.2
 10
765.8729126464
 20
24.1173724357
 10
765.8729126464
 20
25.0631766329
  0
SPLINE
  5
261
100
AcDbEntity
  8
0
100
AcDbSpline
 62
7
  6
CONTINUOUS
 70
2
 71
3
 72
20
 73
16
 74
0
 42
0.0000001
 43
0.0000001
 44
0.0000000001
 40
0.0
 40
0.0
 40
0.0
 40
0.0
 40
1.0
 40
1.0
 40
1.0
 40
2.0
 40
2.0
 40
2.0
 40
3.0
 40
3.0
 40
3.0
 40
4.0
 40
4.0
 40
4.0
 40
5.0
 40
5.0
 40
5.0
 40
5.0
 10
753.6549229536
 20
34.4782988791
 30
0.0
 10
753.6549229536
 20
34.4782988791
 30
0.0
 10
755.9712796081
 20
31.6487374568
 30
0.0
 10
755.9712796081
 20
31.6487374568
 30
0.0
 10
755.3196325547
 20
30.9965669922
 30
0.0
 10
754.5427593507
 20
30.2606507214
 30
0.0
 10
753.571569706
 20
30.2606507214
 30
0.0
 10
752.5730318216
 20
30.2606507214
 30
0.0
 10
751.629713828
 20
31.1902291687
 30
0.0
 10
751.629713828
 20
32.1894213172
 30
0.0
 10
751.629713828
 20
33.1886134658
 30
0.0
 10
752.8085669011
 20
33.8952187044
 30
0.0
 10
753.5300893615
 20
34.3950764843
 30
0.0
 10
753.5300893615
 20
34.3950764843
 30
0.0
 10
753.6549229536
 20
34.4782988791
 30
0.0
 10
753.6549229536
 20
34.4782988791
 30
0.0
  0
SPLINE
  5
262
100
AcDbEntity
  8
0
100
AcDbSpline
 62
7
  6
CONTINUOUS
 70
2
 71
3
 72
23
 73
19
 74
0
 42
0.0000001
 43
0.0000001
 44
0.0000000001
 40
0.0
 40
0.0
 40
0.0
 40
0.0
 40
1.0
 40
1.0
 40
1.0
 40
2.0
 40
2.0
 40
2.0
 40
3.0
 40
3.0
 40
3.0
 40
4.0
 40
4.0
 40
4.0
 40
5.0
 40
5.0
 40
5.0
 40
6.0
 40
6.0
 40
6.0
 40
6.0
 10
753.9323309362
 20
36.1160527988
 30
0.0
 10
753.9323309362
 20
36.1160527988
 30
0.0
 10
753.5858326636
 20
36.5593821596
 30
0.0
 10
753.5858326636
 20
36.5593821596
 30
0.0
 10
753.2800296187
 20
36.9474916296
 30
0.0
 10
752.9611412916
 20
37.335993658
 30
0.0
 10
752.9611412916
 20
37.8629379721
 30
0.0
 10
752.9611412916
 20
38.5291096887
 30
0.0
 10
753.502479416
 20
38.972831608
 30
0.0
 10
754.1263856712
 20
38.972831608
 30
0.0
 10
754.8201673332
 20
38.972831608
 30
0.0
 10
755.347373353
 20
38.5705900333
 30
0.0
 10
755.347373353
 20
37.8355897323
 30
0.0
 10
755.347373353
 20
37.0723252218
 30
0.0
 10
754.6261125983
 20
36.6422119959
 30
0.0
 10
754.0990374314
 20
36.2264925806
 30
0.0
 10
754.0990374314
 20
36.2264925806
 30
0.0
 10
753.9323309362
 20
36.1160527988
 30
0.0
 10
753.9323309362
 20
36.1160527988
 30
0.0
  0
SPLINE
  5
263
100
AcDbEntity
  8
0
100
AcDbSpline
 62
7
  6
CONTINUOUS
 70
2
 71
3
 72
50
 73
46
 74
0
 42
0.0000001
 43
0.0000001
 44
0.0000000001
 40
0.0
 40
0.0
 40
0.0
 40
0.0
 40
1.0
 40
1.0
 40
1.0
 40
2.0
 40
2.0
 40
2.0
 40
3.0
 40
3.0
 40
3.0
 40
4.0
 40
4.0
 40
4.0
 40
5.0
 40
5.0
 40
5.0
 40
6.0
 40
6.0
 40
6.0
 40
7.0
 40
7.0
 40
7.0
 40
8.0
 40
8.0
 40
8.0
 40
9.0
 40
9.0
 40
9.0
 40
10.0
 40
10.0
 40
10.0
 40
11.0
 40
11.0
 40
11.0
 40
12.0
 40
12.0
 40
12.0
 40
13.0
 40
13.0
 40
13.0
 40
14.0
 40
14.0
 40
14.0
 40
15.0
 40
15.0
 40
15.0
 40
15.0
 10
757.8859180991
 20
29.3174635807
 30
0.0
 10
757.8859180991
 20
29.3174635807
 30
0.0
 10
759.4951461037
 20
29.3174635807
 30
0.0
 10
759.4951461037
 20
29.3174635807
 30
0.0
 10
759.4951461037
 20
29.3174635807
 30
0.0
 10
757.62211881
 20
31.6346053521
 30
0.0
 10
757.62211881
 20
31.6346053521
 30
0.0
 10
757.62211881
 20
31.6346053521
 30
0.0
 10
758.8984572355
 20
33.1320850467
 30
0.0
 10
758.8984572355
 20
33.1320850467
 30
0.0
 10
758.8984572355
 20
33.1320850467
 30
0.0
 10
758.0662332878
 20
33.9930966152
 30
0.0
 10
758.0662332878
 20
33.9930966152
 30
0.0
 10
758.0662332878
 20
33.9930966152
 30
0.0
 10
756.8456381645
 20
32.5777924928
 30
0.0
 10
756.8456381645
 20
32.5777924928
 30
0.0
 10
756.8456381645
 20
32.5777924928
 30
0.0
 10
754.6677237957
 20
35.2131683272
 30
0.0
 10
754.6677237957
 20
35.2131683272
 30
0.0
 10
755.5412972351
 20
35.8512066872
 30
0.0
 10
756.5679684763
 20
36.6422119959
 30
0.0
 10
756.5679684763
 20
37.8210650691
 30
0.0
 10
756.5679684763
 20
39.1947579941
 30
0.0
 10
755.4300723364
 20
39.9992411435
 30
0.0
 10
754.1547807335
 20
39.9992411435
 30
0.0
 10
752.7813495142
 20
39.9992411435
 30
0.0
 10
751.7404153154
 20
39.1530159439
 30
0.0
 10
751.7404153154
 20
37.7103635817
 30
0.0
 10
751.7404153154
 20
36.8227888903
 30
0.0
 10
752.2957546919
 20
36.0459156862
 30
0.0
 10
752.8919201487
 20
35.4214860198
 30
0.0
 10
752.8919201487
 20
35.4214860198
 30
0.0
 10
752.2400113897
 20
34.9498924494
 30
0.0
 10
752.2400113897
 20
34.9498924494
 30
0.0
 10
751.2414735053
 20
34.2286316948
 30
0.0
 10
750.4085952934
 20
33.5073709401
 30
0.0
 10
750.4085952934
 20
32.1758126237
 30
0.0
 10
750.4085952934
 20
30.3721373257
 30
0.0
 10
751.865641466
 20
29.0955371946
 30
0.0
 10
753.6131809034
 20
29.0955371946
 30
0.0
 10
754.8480389843
 20
29.0955371946
 30
0.0
 10
755.957409209
 20
29.8037126671
 30
0.0
 10
756.7482836649
 20
30.7322442918
 30
0.0
 10
756.7482836649
 20
30.7322442918
 30
0.0
 10
757.8859180991
 20
29.3174635807
 30
0.0
 10
757.8859180991
 20
29.3174635807
 30
0.0
  0
LINE
  5
264
100
AcDbEntity
  8
0
100
AcDbLine
 62
7
  6
CONTINUOUS
 10
743.6887794741
 20
27.2913384853
 11
766.1026902018
 21
27.2913384853
  0
LINE
  5
265
100
AcDbEntity
  8
0
100
AcDbLine
 62
7
  6
CONTINUOUS
 10
766.1026902018
 20
27.2913384853
 11
766.1026902018
 21
49.705249213
  0
LINE
  5
266
100
AcDbEntity
  8
0
100
AcDbLine
 62
7
  6
CONTINUOUS
 10
766.1026902018
 20
49.705249213
 11
743.6887794741
 21
49.705249213
  0
LINE
  5
267
100
AcDbEntity
  8
0
100
AcDbLine
 62
7
  6
CONTINUOUS
 10
743.6887794741
 20
49.705249213
 11
743.6887794741
 21
27.2913384853
  0
ENDBLK
  5
268
100
AcDbEntity
  8
0
  6
BYBLOCK
 62
0
100
AcDbBlockEnd
  0
BLOCK
  5
269
100
AcDbEntity
  8
0
100
AcDbBlockBegin
  2
_CLOSED
 70
64
 10
0.0
 20
0.0
  3
_CLOSED
  1

  0
LINE
  5
26A
100
AcDbEntity
  8
0
  6
BYBLOCK
 62
0
100
AcDbLine
 10
0.0
 20
0.0
 11
-1.0
 21
0.2
  0
LINE
  5
26B
100
AcDbEntity
  8
0
  6
BYBLOCK
 62
0
100
AcDbLine
 10
-1.0
 20
0.2
 11
-1.0
 21
-0.2
  0
LINE
  5
26C
100
AcDbEntity
  8
0
  6
BYBLOCK
 62
0
100
AcDbLine
 10
-1.0
 20
-0.2
 11
0.0
 21
0.0
  0
LINE
  5
26D
100
AcDbEntity
  8
0
  6
BYBLOCK
 62
0
100
AcDbLine
 10
-1.0
 20
0.0
 11
0.0
 21
0.0
  0
ENDBLK
  5
26E
100
AcDbEntity
  8
0
  6
BYBLOCK
 62
0
100
AcDbBlockEnd
  0
BLOCK
  5
26F
100
AcDbEntity
  8
0
100
AcDbBlockBegin
 62
2
  6
CONTINUOUS
  2
*D0
 70
65
 10
0.0
 20
0.0
  3
*D0
  1

  0
MTEXT
  5
270
100
AcDbEntity
  8
0
100
AcDbMText
 62
2
  6
CONTINUOUS
  7
TEXTSTYLE_2
 71
2
 72
1
 10
124.2616846206
 20
524.1693846547
 30
0.0
 11
0.9205048535
 21
0.3907311285
 31
0.0
  1
{\Fgdt;n}\Farial.ttf;125
 40
3.0
 41
10.9925650558
  0
LINE
  5
271
100
AcDbEntity
  8
0
100
AcDbLine
 62
2
  6
CONTINUOUS
 10
71.0350736066
 20
489.6068805589
 11
67.9023246653
 21
496.9871745638
  0
LINE
  5
272
100
AcDbEntity
  8
0
100
AcDbLine
 62
2
  6
CONTINUOUS
 10
187.1101018656
 20
536.0643337777
 11
182.9654313468
 21
545.8285656249
  0
LINE
  5
273
100
AcDbEntity
  8
0
100
AcDbLine
 62
2
  6
CONTINUOUS
 10
68.1953730116
 20
496.2967959237
 11
125.7269263524
 21
520.7174914542
  0
LINE
  5
274
100
AcDbEntity
  8
0
100
AcDbLine
 62
2
  6
CONTINUOUS
 10
183.2584796932
 20
545.1381869848
 11
125.7269263524
 21
520.7174914542
  0
INSERT
  5
275
100
AcDbEntity
  8
0
100
AcDbBlockReference
 62
2
  6
CONTINUOUS
  2
_CLOSED
 10
68.1953730116
 20
496.2967959237
 41
2.5
 42
2.5
 43
2.5
 50
203.0
  0
INSERT
  5
276
100
AcDbEntity
  8
0
100
AcDbBlockReference
 62
2
  6
CONTINUOUS
  2
_CLOSED
 10
183.2584796932
 20
545.1381869848
 41
2.5
 42
2.5
 43
2.5
 50
23.0
  0
ENDBLK
  5
277
100
AcDbEntity
  8
0
  6
BYBLOCK
 62
0
100
AcDbBlockEnd
  0
BLOCK
  5
278
100
AcDbEntity
  8
0
100
AcDbBlockBegin
 62
2
  6
CONTINUOUS
  2
*D1
 70
65
 10
0.0
 20
0.0
  3
*D1
  1

  0
MTEXT
  5
279
100
AcDbEntity
  8
0
100
AcDbMText
 62
2
  6
CONTINUOUS
  7
STANDARD
 71
2
 72
1
 10
228.7439474578
 20
367.1235718138
 30
0.0
 11
0.0
 21
1.0
 31
0.0
  1
319,25
 40
3.0
 41
12.8141263941
  0
LINE
  5
27A
100
AcDbEntity
  8
0
100
AcDbLine
 62
2
  6
CONTINUOUS
 10
212.3691100426
 20
526.7503273163
 11
233.2439474578
 21
526.7503273163
  0
LINE
  5
27B
100
AcDbEntity
  8
0
100
AcDbLine
 62
2
  6
CONTINUOUS
 10
205.7439859092
 20
207.4968163113
 11
233.2439474578
 21
207.4968163113
  0
LINE
  5
27C
100
AcDbEntity
  8
0
100
AcDbLine
 62
2
  6
CONTINUOUS
 10
232.4939474578
 20
526.7503273163
 11
232.4939474578
 21
367.1235718138
  0
LINE
  5
27D
100
AcDbEntity
  8
0
100
AcDbLine
 62
2
  6
CONTINUOUS
 10
232.4939474578
 20
207.4968163113
 11
232.4939474578
 21
367.1235718138
  0
INSERT
  5
27E
100
AcDbEntity
  8
0
100
AcDbBlockReference
 62
2
  6
CONTINUOUS
  2
_CLOSED
 10
232.4939474578
 20
526.7503273163
 41
2.5
 42
2.5
 43
2.5
 50
90.0
  0
INSERT
  5
27F
100
AcDbEntity
  8
0
100
AcDbBlockReference
 62
2
  6
CONTINUOUS
  2
_CLOSED
 10
232.4939474578
 20
207.4968163113
 41
2.5
 42
2.5
 43
2.5
 50
270.0
  0
ENDBLK
  5
280
100
AcDbEntity
  8
0
  6
BYBLOCK
 62
0
100
AcDbBlockEnd
  0
BLOCK
  5
281
100
AcDbEntity
  8
0
100
AcDbBlockBegin
 62
2
  6
CONTINUOUS
  2
*D2
 70
65
 10
0.0
 20
0.0
  3
*D2
  1

  0
MTEXT
  5
282
100
AcDbEntity
  8
0
100
AcDbMText
 62
2
  6
CONTINUOUS
  7
TEXTSTYLE_2
 71
2
 72
1
 10
410.47215423
 20
192.5766972318
 30
0.0
 11
1.0
 21
0.0
 31
0.0
  1
{\Fgdt;n}\Farial.ttf;110
 40
3.0
 41
10.9925650558
  0
LINE
  5
283
100
AcDbEntity
  8
0
100
AcDbLine
 62
2
  6
CONTINUOUS
 10
355.47215423
 20
197.0900293985
 11
355.47215423
 21
188.0766972318
  0
LINE
  5
284
100
AcDbEntity
  8
0
100
AcDbLine
 62
2
  6
CONTINUOUS
 10
465.47215423
 20
197.542691285
 11
465.47215423
 21
188.0766972318
  0
LINE
  5
285
100
AcDbEntity
  8
0
100
AcDbLine
 62
2
  6
CONTINUOUS
 10
355.47215423
 20
188.8266972318
 11
410.47215423
 21
188.8266972318
  0
LINE
  5
286
100
AcDbEntity
  8
0
100
AcDbLine
 62
2
  6
CONTINUOUS
 10
465.47215423
 20
188.8266972318
 11
410.47215423
 21
188.8266972318
  0
INSERT
  5
287
100
AcDbEntity
  8
0
100
AcDbBlockReference
 62
2
  6
CONTINUOUS
  2
_CLOSED
 10
355.47215423
 20
188.8266972318
 41
2.5
 42
2.5
 43
2.5
 50
180.0
  0
INSERT
  5
288
100
AcDbEntity
  8
0
100
AcDbBlockReference
 62
2
  6
CONTINUOUS
  2
_CLOSED
 10
465.47215423
 20
188.8266972318
 41
2.5
 42
2.5
 43
2.5
  0
ENDBLK
  5
289
100
AcDbEntity
  8
0
  6
BYBLOCK
 62
0
100
AcDbBlockEnd
  0
ENDSEC
  0
SECTION
  2
ENTITIES
  0
DIMENSION
  5
28A
100
AcDbEntity
  8
0
100
AcDbDimension
 62
2
  6
CONTINUOUS
  2
*D0
 10
183.2584796932
 20
545.1381869848
 11
125.7269263524
 21
520.7174914542
 70
160
  1
%%c<>
  3
DIMSTYLE_1
100
AcDbAlignedDimension
 13
71.3281219529
 23
488.9165019188
 14
187.4031502119
 24
535.3739551376
 50
23.0
100
AcDbRotatedDimension
  0
DIMENSION
  5
28B
100
AcDbEntity
  8
0
100
AcDbDimension
 62
2
  6
CONTINUOUS
  2
*D1
 10
232.4939474578
 20
207.4968163113
 11
232.4939474578
 21
367.1258955554
 70
160
  3
DIMSTYLE_1
100
AcDbAlignedDimension
 13
211.6191100426
 23
526.7503273163
 14
204.9939859092
 24
207.4968163113
 50
270.0
100
AcDbRotatedDimension
  0
DIMENSION
  5
28C
100
AcDbEntity
  8
0
100
AcDbDimension
 62
2
  6
CONTINUOUS
  2
*D2
 10
465.47215423
 20
188.8266972318
 11
410.47215423
 21
188.8266972318
 70
160
  1
%%c<>
  3
DIMSTYLE_2
100
AcDbAlignedDimension
 13
355.47215423
 23
197.8400293985
 14
465.47215423
 24
198.292691285
100
AcDbRotatedDimension
  0
LINE
  5
28D
100
AcDbEntity
  8
0
100
AcDbLine
 62
2
  6
CONTINUOUS
 10
741.0696223667
 20
50.081561713
 11
831.0696223667
 21
50.081561713
  0
LINE
  5
28E
100
AcDbEntity
  8
0
100
AcDbLine
 62
2
  6
CONTINUOUS
 10
741.0696223667
 20
50.081561713
 11
741.0696223667
 21
10.081561713
  0
LINE
  5
28F
100
AcDbEntity
  8
0
100
AcDbLine
 62
2
  6
CONTINUOUS
 10
771.0696223667
 20
44.081561713
 11
831.0696223667
 21
44.081561713
  0
LINE
  5
290
100
AcDbEntity
  8
0
100
AcDbLine
 62
2
  6
CONTINUOUS
 10
771.0696223667
 20
38.081561713
 11
831.0696223667
 21
38.081561713
  0
LINE
  5
291
100
AcDbEntity
  8
0
100
AcDbLine
 62
2
  6
CONTINUOUS
 10
771.0696223667
 20
28.081561713
 11
831.0696223667
 21
28.081561713
  0
LINE
  5
292
100
AcDbEntity
  8
0
100
AcDbLine
 62
2
  6
CONTINUOUS
 10
741.0696223667
 20
23.081561713
 11
831.0696223667
 21
23.081561713
  0
LINE
  5
293
100
AcDbEntity
  8
0
100
AcDbLine
 62
2
  6
CONTINUOUS
 10
741.0696223667
 20
10.081561713
 11
831.0696223667
 21
10.081561713
  0
LINE
  5
294
100
AcDbEntity
  8
0
100
AcDbLine
 62
2
  6
CONTINUOUS
 10
771.0696223667
 20
50.081561713
 11
771.0696223667
 21
23.081561713
  0
LINE
  5
295
100
AcDbEntity
  8
0
100
AcDbLine
 62
2
  6
CONTINUOUS
 10
811.0696223667
 20
50.081561713
 11
811.0696223667
 21
38.081561713
  0
LINE
  5
296
100
AcDbEntity
  8
0
100
AcDbLine
 62
2
  6
CONTINUOUS
 10
831.0696223667
 20
50.081561713
 11
831.0696223667
 21
10.081561713
  0
INSERT
  5
297
100
AcDbEntity
  8
0
100
AcDbBlockReference
 62
2
  6
CONTINUOUS
  2
LOGO2_BL0
 10
754.8956694115
 20
36.581561713
  0
MTEXT
  5
298
100
AcDbEntity
  8
9_SOLID
100
AcDbMText
 62
2
  6
CONTINUOUS
  7
TEXTSTYLE_3
 71
1
 72
1
 10
772.5571223667
 20
48.581561713
 30
0.0
 11
1.0
 21
0.0
 31
0.0
  1
3X0_C_050
 40
3.0
 41
32.5714285714
  0
MTEXT
  5
299
100
AcDbEntity
  8
0
100
AcDbMText
 62
2
  6
CONTINUOUS
  7
TEXTSTYLE_3
 71
1
 72
1
 10
812.5571223667
 20
48.331561713
 30
0.0
 11
1.0
 21
0.0
 31
0.0
  1
Rev:00
 40
3.5
 41
22.75
  0
MTEXT
  5
29A
100
AcDbEntity
  8
9_SOLID
100
AcDbMText
 62
2
  6
CONTINUOUS
  7
TEXTSTYLE_3
 71
1
 72
1
 10
772.5571223667
 20
42.331561713
 30
0.0
 11
1.0
 21
0.0
 31
0.0
  1
Scale:1:1
 40
3.5
 41
28.375
  0
MTEXT
  5
29B
100
AcDbEntity
  8
9_SOLID
100
AcDbMText
 62
2
  6
CONTINUOUS
  7
TEXTSTYLE_3
 71
1
 72
1
 10
812.5571223667
 20
42.831561713
 30
0.0
 11
1.0
 21
0.0
 31
0.0
  1
A1
 40
3.5
 41
8.5
  0
MTEXT
  5
29C
100
AcDbEntity
  8
0
100
AcDbMText
 62
2
  6
CONTINUOUS
  7
TEXTSTYLE_3
 71
1
 72
1
 10
772.5571223667
 20
34.831561713
 30
0.0
 11
1.0
 21
0.0
 31
0.0
  1
PLIN 4.0
 40
3.5
 41
31.375
  0
MTEXT
  5
29D
100
AcDbEntity
  8
0
100
AcDbMText
 62
2
  6
CONTINUOUS
  7
TEXTSTYLE_3
 71
1
 72
1
 10
772.5571223667
 20
26.831561713
 30
0.0
 11
1.0
 21
0.0
 31
0.0
  1
DATE:17/05/2018
 40
2.5
 41
41.9642857143
  0
MTEXT
  5
29E
100
AcDbEntity
  8
9_SOLID
100
AcDbMText
 62
2
  6
CONTINUOUS
  7
TEXTSTYLE_3
 71
1
 72
1
 10
742.5571223667
 20
22.769061713
 30
0.0
 11
1.0
 21
0.0
 31
0.0
  1
Any integral or partial reproductions are prohibited \Pwithout prior authorisation of L {\Ftxt.shx;\W0.190476;\H2.250000; }& L Luce & Light s.r.l., \Pin accordance with the law in force. \PAll rights reserved.
 40
2.25
 41
134.5982142857
  0
LINE
  5
29F
100
AcDbEntity
  8
0
100
AcDbLine
 62
7
  6
CONTINUOUS
 10
0.0
 20
0.0
 11
0.0
 21
594.0
  0
LINE
  5
2A0
100
AcDbEntity
  8
0
100
AcDbLine
 62
7
  6
CONTINUOUS
 10
0.0
 20
0.0
 11
841.0
 21
0.0
  0
LINE
  5
2A1
100
AcDbEntity
  8
0
100
AcDbLine
 62
7
  6
CONTINUOUS
 10
0.0
 20
594.0
 11
841.0
 21
594.0
  0
LINE
  5
2A2
100
AcDbEntity
  8
0
100
AcDbLine
 62
7
  6
CONTINUOUS
 10
841.0
 20
0.0
 11
841.0
 21
594.0
  0
LINE
  5
2A3
100
AcDbEntity
  8
7_ALL_FEATURES
100
AcDbLine
 62
7
  6
CONTINUOUS
 10
143.1831685794
 20
35.8533217681
 11
133.6493290442
 21
35.8533217681
  0
LINE
  5
2A4
100
AcDbEntity
  8
7_ALL_FEATURES
100
AcDbLine
 62
7
  6
CONTINUOUS
 10
133.5105614737
 20
35.8535041243
 11
133.6493290442
 21
35.8533217681
  0
LINE
  5
2A5
100
AcDbEntity
  8
7_ALL_FEATURES
100
AcDbLine
 62
7
  6
CONTINUOUS
 10
133.5105840258
 20
35.8636313276
 11
133.6493290442
 21
35.8533217681
  0
LINE
  5
2A6
100
AcDbEntity
  8
7_ALL_FEATURES
100
AcDbLine
 62
7
  6
CONTINUOUS
 10
133.6493290442
 20
160.8533217681
 11
133.5105840349
 21
160.8430122137
  0
LINE
  5
2A7
100
AcDbEntity
  8
7_ALL_FEATURES
100
AcDbLine
 62
7
  6
CONTINUOUS
 10
133.6493290442
 20
160.8533217681
 11
133.510561483
 21
160.8531394118
  0
LINE
  5
2A8
100
AcDbEntity
  8
7_ALL_FEATURES
100
AcDbLine
 62
7
  6
CONTINUOUS
 10
143.1831685794
 20
160.8533217681
 11
133.6493290442
 21
160.8533217681
  0
LINE
  5
2A9
100
AcDbEntity
  8
3_ALL_AXES
100
AcDbLine
 62
3
  6
CONTINUOUS
 10
82.9296330575
 20
207.4968163113
 11
192.9296330575
 21
207.4968163113
  0
LINE
  5
2AA
100
AcDbEntity
  8
7_ALL_FEATURES
100
AcDbLine
 62
3
  6
CONTINUOUS
 10
90.9623247022
 20
211.4968163113
 11
137.9296330575
 21
211.4968163113
  0
LINE
  5
2AB
100
AcDbEntity
  8
3_ALL_AXES
100
AcDbLine
 62
7
  6
CONTINUOUS
 10
82.9296330575
 20
211.4968163113
 11
137.9296330575
 21
211.4968163113
  0
LINE
  5
2AC
100
AcDbEntity
  8
3_ALL_AXES
100
AcDbLine
 62
3
  6
CONTINUOUS
 10
137.9296330575
 20
211.4968163113
 11
192.9296330575
 21
211.4968163113
  0
LINE
  5
2AD
100
AcDbEntity
  8
7_ALL_FEATURES
100
AcDbLine
 62
7
  6
CONTINUOUS
 10
90.7433320453
 20
212.6968163113
 11
137.9296330575
 21
212.6968163113
  0
LINE
  5
2AE
100
AcDbEntity
  8
3_ALL_AXES
100
AcDbLine
 62
7
  6
CONTINUOUS
 10
137.9296330575
 20
212.6968163113
 11
192.9296330575
 21
212.6968163113
  0
LINE
  5
2AF
100
AcDbEntity
  8
7_ALL_FEATURES
100
AcDbLine
 62
7
  6
CONTINUOUS
 10
76.2771743
 20
478.0263536024
 11
190.7870451113
 21
526.6329099691
  0
LINE
  5
2B0
100
AcDbEntity
  8
7_ALL_FEATURES
100
AcDbLine
 62
7
  6
CONTINUOUS
 10
76.1177757034
 20
477.6327847991
 11
191.180882385
 21
526.4741758603
  0
LINE
  5
2B1
100
AcDbEntity
  8
7_ALL_FEATURES
100
AcDbLine
 62
7
  6
CONTINUOUS
 10
200.7147219201
 20
504.0138574361
 11
85.6516152386
 21
455.1724663749
  0
LINE
  5
2B2
100
AcDbEntity
  8
7_ALL_FEATURES
100
AcDbLine
 62
7
  6
CONTINUOUS
 10
200.5553233235
 20
503.6202886328
 11
86.0454525123
 21
455.013732266
  0
LINE
  5
2B3
100
AcDbEntity
  8
7_ALL_FEATURES
100
AcDbLine
 62
7
  6
CONTINUOUS
 10
76.2767078209
 20
478.0261555937
 11
76.1177757034
 21
477.6327847991
  0
LINE
  5
2B4
100
AcDbEntity
  8
3_ALL_AXES
100
AcDbLine
 62
7
  6
CONTINUOUS
 10
82.9296330575
 20
207.4968163113
 11
82.9296330575
 21
211.4968163113
  0
LINE
  5
2B5
100
AcDbEntity
  8
7_ALL_FEATURES
100
AcDbLine
 62
7
  6
CONTINUOUS
 10
87.9296330575
 20
211.4968163113
 11
87.9296330575
 21
455.8135194567
  0
LINE
  5
2B6
100
AcDbEntity
  8
7_ALL_FEATURES
100
AcDbLine
 62
7
  6
CONTINUOUS
 10
90.7432512938
 20
212.6968163113
 11
90.7432512938
 21
211.4968163113
  0
LINE
  5
2B7
100
AcDbEntity
  8
7_ALL_FEATURES
100
AcDbLine
 62
9
  6
CONTINUOUS
 10
90.9623247022
 20
212.6968163113
 11
90.9623247022
 21
211.4968163113
  0
LINE
  5
2B8
100
AcDbEntity
  8
3_ALL_AXES
100
AcDbLine
 62
7
  6
CONTINUOUS
 10
85.6516152386
 20
455.1724663749
 11
76.1177757034
 21
477.6327847991
  0
LINE
  5
2B9
100
AcDbEntity
  8
3_ALL_AXES
100
AcDbLine
 62
9
  6
CONTINUOUS
 10
137.9296330575
 20
207.4968163113
 11
137.9296330575
 21
212.6968163113
  0
LINE
  5
2BA
100
AcDbEntity
  8
7_ALL_FEATURES
100
AcDbLine
 62
7
  6
CONTINUOUS
 10
137.9296330575
 20
212.6968163113
 11
137.9296330575
 21
477.0372602672
  0
LINE
  5
2BB
100
AcDbEntity
  8
7_ALL_FEATURES
100
AcDbLine
 62
7
  6
CONTINUOUS
 10
200.5557898026
 20
503.6204866415
 11
200.7147219201
 21
504.0138574361
  0
LINE
  5
2BC
100
AcDbEntity
  8
3_ALL_AXES
100
AcDbLine
 62
7
  6
CONTINUOUS
 10
192.9296330575
 20
207.4968163113
 11
192.9296330575
 21
212.6968163113
  0
LINE
  5
2BD
100
AcDbEntity
  8
7_ALL_FEATURES
100
AcDbLine
 62
7
  6
CONTINUOUS
 10
86.0449860332
 20
455.0135342574
 11
85.6516152386
 21
455.1724663749
  0
LINE
  5
2BE
100
AcDbEntity
  8
3_ALL_AXES
100
AcDbLine
 62
7
  6
CONTINUOUS
 10
200.7147219201
 20
504.0138574361
 11
191.180882385
 21
526.4741758603
  0
LINE
  5
2BF
100
AcDbEntity
  8
7_ALL_FEATURES
100
AcDbLine
 62
7
  6
CONTINUOUS
 10
190.7875115904
 20
526.6331079778
 11
191.180882385
 21
526.4741758603
  0
LINE
  5
2C0
100
AcDbEntity
  8
3_ALL_AXES
100
AcDbLine
 62
3
  6
CONTINUOUS
 10
355.47215423
 20
207.4968163113
 11
465.47215423
 21
207.4968163113
  0
LINE
  5
2C1
100
AcDbEntity
  8
7_ALL_FEATURES
100
AcDbLine
 62
3
  6
CONTINUOUS
 10
355.47215423
 20
211.4968163113
 11
381.8527212191
 21
211.4968163113
  0
LINE
  5
2C2
100
AcDbEntity
  8
7_ALL_FEATURES
100
AcDbLine
 62
3
  6
CONTINUOUS
 10
439.0915872409
 20
211.4968163113
 11
465.47215423
 21
211.4968163113
  0
LINE
  5
2C3
100
AcDbEntity
  8
3_ALL_AXES
100
AcDbLine
 62
7
  6
CONTINUOUS
 10
355.47215423
 20
211.4968163113
 11
465.47215423
 21
211.4968163113
  0
LINE
  5
2C4
100
AcDbEntity
  8
7_ALL_FEATURES
100
AcDbLine
 62
7
  6
CONTINUOUS
 10
355.47215423
 20
212.6968163113
 11
385.47215423
 21
212.6968163113
  0
LINE
  5
2C5
100
AcDbEntity
  8
7_ALL_FEATURES
100
AcDbLine
 62
7
  6
CONTINUOUS
 10
435.47215423
 20
212.6968163113
 11
465.47215423
 21
212.6968163113
  0
LINE
  5
2C6
100
AcDbEntity
  8
7_ALL_FEATURES
100
AcDbLine
 62
7
  6
CONTINUOUS
 10
347.97215423
 20
479.5931619055
 11
347.97215423
 21
502.0534803297
  0
LINE
  5
2C7
100
AcDbEntity
  8
3_ALL_AXES
100
AcDbLine
 62
7
  6
CONTINUOUS
 10
355.47215423
 20
207.4968163113
 11
355.47215423
 21
212.6968163113
  0
LINE
  5
2C8
100
AcDbEntity
  8
7_ALL_FEATURES
100
AcDbLine
 62
9
  6
CONTINUOUS
 10
381.8527212191
 20
212.6968163113
 11
381.8527212191
 21
211.4968163113
  0
LINE
  5
2C9
100
AcDbEntity
  8
7_ALL_FEATURES
100
AcDbLine
 62
9
  6
CONTINUOUS
 10
384.1323374509
 20
212.6968163113
 11
384.1323374509
 21
211.4968163113
  0
LINE
  5
2CA
100
AcDbEntity
  8
7_ALL_FEATURES
100
AcDbLine
 62
9
  6
CONTINUOUS
 10
384.8877490583
 20
211.4968163113
 11
384.8877490583
 21
212.6968163113
  0
LINE
  5
2CB
100
AcDbEntity
  8
3_ALL_AXES
100
AcDbLine
 62
7
  6
CONTINUOUS
 10
385.47215423
 20
211.4968163113
 11
385.47215423
 21
457.1246046755
  0
LINE
  5
2CC
100
AcDbEntity
  8
3_ALL_AXES
100
AcDbLine
 62
7
  6
CONTINUOUS
 10
435.47215423
 20
211.4968163113
 11
435.47215423
 21
457.1246046562
  0
LINE
  5
2CD
100
AcDbEntity
  8
7_ALL_FEATURES
100
AcDbLine
 62
9
  6
CONTINUOUS
 10
436.0565594017
 20
211.4968163113
 11
436.0565594017
 21
212.6968163113
  0
LINE
  5
2CE
100
AcDbEntity
  8
7_ALL_FEATURES
100
AcDbLine
 62
9
  6
CONTINUOUS
 10
436.8119710092
 20
212.6968163113
 11
436.8119710092
 21
211.4968163113
  0
LINE
  5
2CF
100
AcDbEntity
  8
7_ALL_FEATURES
100
AcDbLine
 62
9
  6
CONTINUOUS
 10
439.0915872409
 20
212.6968163113
 11
439.0915872409
 21
211.4968163113
  0
LINE
  5
2D0
100
AcDbEntity
  8
3_ALL_AXES
100
AcDbLine
 62
7
  6
CONTINUOUS
 10
465.47215423
 20
207.4968163113
 11
465.47215423
 21
212.6968163113
  0
LINE
  5
2D1
100
AcDbEntity
  8
7_ALL_FEATURES
100
AcDbLine
 62
7
  6
CONTINUOUS
 10
472.97215423
 20
479.5931619055
 11
472.97215423
 21
502.0534803297
  0
LINE
  5
2D2
100
AcDbEntity
  8
7_ALL_FEATURES
100
AcDbLine
 62
7
  6
CONTINUOUS
 10
589.3156542812
 20
104.3419782706
 11
573.4852519095
 21
111.7230227862
  0
LINE
  5
2D3
100
AcDbEntity
  8
3_ALL_AXES
100
AcDbLine
 62
7
  6
CONTINUOUS
 10
569.4524818285
 20
100.3611387869
 11
569.4524818285
 21
103.825240402
  0
LINE
  5
2D4
100
AcDbEntity
  8
3_ALL_AXES
100
AcDbLine
 62
7
  6
CONTINUOUS
 10
581.7748122988
 20
111.1461865537
 11
581.7748122988
 21
311.9210044944
  0
LINE
  5
2D5
100
AcDbEntity
  8
3_ALL_AXES
100
AcDbLine
 62
9
  6
CONTINUOUS
 10
585.5616088632
 20
80.9157023042
 11
585.5616088632
 21
85.4190344039
  0
LINE
  5
2D6
100
AcDbEntity
  8
3_ALL_AXES
100
AcDbLine
 62
7
  6
CONTINUOUS
 10
568.2276868441
 20
316.4403282225
 11
561.486244258
 21
339.262255848
  0
LINE
  5
2D7
100
AcDbEntity
  8
3_ALL_AXES
100
AcDbLine
 62
7
  6
CONTINUOUS
 10
631.7748122988
 20
111.2260592101
 11
631.7748122988
 21
320.6082295133
  0
LINE
  5
2D8
100
AcDbEntity
  8
3_ALL_AXES
100
AcDbLine
 62
7
  6
CONTINUOUS
 10
679.4524818285
 20
100.3611387869
 11
679.4524818285
 21
103.825240402
  0
LINE
  5
2D9
100
AcDbEntity
  8
3_ALL_AXES
100
AcDbLine
 62
7
  6
CONTINUOUS
 10
688.1068979983
 20
351.8518338814
 11
681.3654554123
 21
374.6737615069
  0
ARC
  5
2DA
100
AcDbEntity
  8
7_ALL_FEATURES
100
AcDbCircle
 62
7
  6
CONTINUOUS
 10
371.4306774422
 20
490.2844836444
 40
27.4109280683
100
AcDbArc
 50
230.1932236713
 51
230.8933240604
  0
ARC
  5
2DB
100
AcDbEntity
  8
7_ALL_FEATURES
100
AcDbCircle
 62
7
  6
CONTINUOUS
 10
449.5136311344
 20
490.2844835036
 40
27.4109278857
100
AcDbArc
 50
309.1066760098
 51
309.8067763302
  0
ARC
  5
2DC
100
AcDbEntity
  8
7_ALL_FEATURES
100
AcDbCircle
 62
7
  6
CONTINUOUS
 10
449.8859666879
 20
492.3610145676
 40
26.4052490024
100
AcDbArc
 50
49.4187378333
 51
50.1935942593
  0
ARC
  5
2DD
100
AcDbEntity
  8
7_ALL_FEATURES
100
AcDbCircle
 62
7
  6
CONTINUOUS
 10
371.0583416897
 20
492.3610146671
 40
26.4052488733
100
AcDbArc
 50
129.8064057416
 51
130.5812621047
  0
ARC
  5
2DE
100
AcDbEntity
  8
7_ALL_FEATURES
100
AcDbCircle
 62
7
  6
CONTINUOUS
 10
463.4471969663
 20
502.0533907693
 40
9.5249572642
100
AcDbArc
 50
0.0005387359
 51
1.9207139356
  0
ARC
  5
2DF
100
AcDbEntity
  8
7_ALL_FEATURES
100
AcDbCircle
 62
7
  6
CONTINUOUS
 10
357.4971114883
 20
502.0533907693
 40
9.5249572587
100
AcDbArc
 50
178.0792859749
 51
179.9994612641
  0
ARC
  5
2E0
100
AcDbEntity
  8
7_ALL_FEATURES
100
AcDbCircle
 62
7
  6
CONTINUOUS
 10
579.4822693252
 20
525.6582767017
 40
187.1279694446
100
AcDbArc
 50
293.5629052377
 51
294.1130185803
  0
ARC
  5
2E1
100
AcDbEntity
  8
7_ALL_FEATURES
100
AcDbCircle
 62
7
  6
CONTINUOUS
 10
579.8351931101
 20
524.5975995952
 40
185.6487765775
100
AcDbArc
 50
293.5934181028
 51
294.1473480183
  0
ARC
  5
2E2
100
AcDbEntity
  8
7_ALL_FEATURES
100
AcDbCircle
 62
7
  6
CONTINUOUS
 10
582.4095452222
 20
390.7010841177
 40
78.6676300621
100
AcDbArc
 50
271.1388681051
 51
271.3328654659
  0
ARC
  5
2E3
100
AcDbEntity
  8
7_ALL_FEATURES
100
AcDbCircle
 62
7
  6
CONTINUOUS
 10
582.7485064646
 20
388.3059052604
 40
76.4465479378
100
AcDbArc
 50
270.8984898178
 51
271.1390202209
  0
ARC
  5
2E4
100
AcDbEntity
  8
3_ALL_AXES
100
AcDbCircle
 62
7
  6
CONTINUOUS
 10
602.3629783392
 20
120.2090850983
 40
39.5148550037
100
AcDbArc
 50
234.135653178
 51
236.672466035
  0
ARC
  5
2E5
100
AcDbEntity
  8
3_ALL_AXES
100
AcDbCircle
 62
7
  6
CONTINUOUS
 10
595.7829157349
 20
112.0550747255
 40
29.0281746493
100
AcDbArc
 50
224.7890692093
 51
228.4981576911
  0
ARC
  5
2E6
100
AcDbEntity
  8
3_ALL_AXES
100
AcDbCircle
 62
7
  6
CONTINUOUS
 10
590.0517915462
 20
106.9889725955
 40
21.3699828628
100
AcDbArc
 50
213.6653138231
 51
218.4813144822
  0
ARC
  5
2E7
100
AcDbEntity
  8
3_ALL_AXES
100
AcDbCircle
 62
7
  6
CONTINUOUS
 10
585.7966205166
 20
104.5370709192
 40
16.4508138545
100
AcDbArc
 50
200.4024478401
 51
206.2413063885
  0
ARC
  5
2E8
100
AcDbEntity
  8
3_ALL_AXES
100
AcDbCircle
 62
7
  6
CONTINUOUS
 10
583.4286039426
 20
103.8392659556
 40
13.9765237012
100
AcDbArc
 50
183.2159506788
 51
191.8401138472
  0
ARC
  5
2E9
100
AcDbEntity
  8
3_ALL_AXES
100
AcDbCircle
 62
7
  6
CONTINUOUS
 10
665.6599851402
 20
104.8651444551
 40
13.7924378725
100
AcDbArc
 50
355.6950416919
 51
359.9972018989
  0
ARC
  5
2EA
100
AcDbEntity
  8
3_ALL_AXES
100
AcDbCircle
 62
7
  6
CONTINUOUS
 10
583.2311896533
 20
103.825512459
 40
13.7786489953
100
AcDbArc
 50
180.0011312951
 51
183.204902062
  0
ARC
  5
2EB
100
AcDbEntity
  8
7_ALL_FEATURES
100
AcDbCircle
 62
7
  6
CONTINUOUS
 10
583.2269833379
 20
104.8651896472
 40
13.7745058581
100
AcDbArc
 50
180.0029897554
 51
184.2684724358
  0
ARC
  5
2EC
100
AcDbEntity
  8
7_ALL_FEATURES
100
AcDbCircle
 62
7
  6
CONTINUOUS
 10
679.4749128576
 20
352.9927382676
 40
9.1944746398
100
AcDbArc
 50
327.52856094
 51
329.9616960132
  0
ARC
  5
2ED
100
AcDbEntity
  8
7_ALL_FEATURES
100
AcDbCircle
 62
7
  6
CONTINUOUS
 10
569.3630152793
 20
339.0247513426
 40
8.0886365923
100
AcDbArc
 50
149.9688274937
 51
153.0131617448
  0
ARC
  5
2EE
100
AcDbEntity
  8
7_ALL_FEATURES
100
AcDbCircle
 62
7
  6
CONTINUOUS
 10
674.9780442568
 20
370.3708442859
 40
7.8877997028
100
AcDbArc
 50
59.8387597336
 51
62.9826493513
  0
ARC
  5
2EF
100
AcDbEntity
  8
7_ALL_FEATURES
100
AcDbCircle
 62
3
  6
CONTINUOUS
 10
625.7377818821
 20
112.635844445
 40
6.638883265
100
AcDbArc
 50
9.1646266095
 51
11.772453543
  0
ARC
  5
2F0
100
AcDbEntity
  8
7_ALL_FEATURES
100
AcDbCircle
 62
3
  6
CONTINUOUS
 10
625.8748922509
 20
112.6573207037
 40
6.5001026101
100
AcDbArc
 50
3.3309293683
 51
9.1702299975
  0
ARC
  5
2F1
100
AcDbEntity
  8
7_ALL_FEATURES
100
AcDbCircle
 62
7
  6
CONTINUOUS
 10
625.9001450218
 20
113.7065235634
 40
6.4746274174
100
AcDbArc
 50
350.1957358786
 51
359.9715235174
  0
ARC
  5
2F2
100
AcDbEntity
  8
7_ALL_FEATURES
100
AcDbCircle
 62
7
  6
CONTINUOUS
 10
564.6061804636
 20
340.4890924439
 40
3.0396740059
100
AcDbArc
 50
195.3960650799
 51
199.9478208727
  0
SPLINE
  5
2F3
100
AcDbEntity
  8
7_ALL_FEATURES
100
AcDbSpline
 62
7
  6
CONTINUOUS
 70
0
 71
3
 72
27
 73
23
 74
0
 42
0.0000001
 43
0.0000001
 44
0.0000000001
 40
0.0
 40
0.0
 40
0.0
 40
0.0
 40
0.0599217939
 40
0.090049482
 40
0.1203249424
 40
0.1813803104
 40
0.2433815694
 40
0.2747993156
 40
0.3064636871
 40
0.3703897778
 40
0.435008876
 40
0.5
 40
0.564991124
 40
0.6296102223
 40
0.693536313
 40
0.7252006845
 40
0.7566184306
 40
0.8186196896
 40
0.8796750577
 40
0.909950518
 40
0.9400782062
 40
1.0
 40
1.0
 40
1.0
 40
1.0
 10
143.1831685794
 20
160.8533217681
 30
0.0
 10
146.9458951995
 20
160.8533217681
 30
0.0
 10
152.6240141589
 20
160.2434550514
 30
0.0
 10
159.9232312246
 20
158.2537054755
 30
0.0
 10
167.043658391
 20
155.4848665171
 30
0.0
 10
175.4263363601
 20
150.6027632979
 30
0.0
 10
182.7054173804
 20
144.0895156565
 30
0.0
 10
187.7409461038
 20
138.0479091554
 30
0.0
 10
192.2419687642
 20
131.4510409535
 30
0.0
 10
196.7013058895
 20
122.3617088505
 30
0.0
 10
199.9778362081
 20
110.5901376565
 30
0.0
 10
201.0841436661
 20
98.3533217614
 30
0.0
 10
199.9778362055
 20
86.1165058665
 30
0.0
 10
196.7013058852
 20
74.3449346732
 30
0.0
 10
192.2419687575
 20
65.2556025717
 30
0.0
 10
187.7409460963
 20
58.6587343708
 30
0.0
 10
182.7054173721
 20
52.6171278706
 30
0.0
 10
175.42633635
 20
46.1038802315
 30
0.0
 10
167.0436583809
 20
41.2217770133
 30
0.0
 10
159.9232312149
 20
38.4529380579
 30
0.0
 10
152.6240141529
 20
36.4631884838
 30
0.0
 10
146.9458951969
 20
35.8533217681
 30
0.0
 10
143.1831685794
 20
35.8533217681
 30
0.0
  0
SPLINE
  5
2F4
100
AcDbEntity
  8
7_ALL_FEATURES
100
AcDbSpline
 62
7
  6
CONTINUOUS
 70
0
 71
3
 72
27
 73
23
 74
0
 42
0.0000001
 43
0.0000001
 44
0.0000000001
 40
0.0
 40
0.0
 40
0.0
 40
0.0
 40
0.0599208583
 40
0.0900490652
 40
0.1203256801
 40
0.1813843898
 40
0.2433885661
 40
0.2748070614
 40
0.3064716604
 40
0.3703967746
 40
0.4350129411
 40
0.5
 40
0.5649870589
 40
0.6296032253
 40
0.6935283395
 40
0.7251929385
 40
0.7566114338
 40
0.8186156102
 40
0.8796743198
 40
0.9099509348
 40
0.9400791417
 40
1.0
 40
1.0
 40
1.0
 40
1.0
 10
133.510561483
 20
160.8531394118
 30
0.0
 10
129.7534266873
 20
160.8432652974
 30
0.0
 10
124.0853577456
 20
160.2204098968
 30
0.0
 10
116.8012088757
 20
158.2176110895
 30
0.0
 10
109.696537609
 20
155.4384769277
 30
0.0
 10
101.3344405638
 20
150.548923419
 30
0.0
 10
94.0747927437
 20
144.0351573888
 30
0.0
 10
89.0532594741
 20
137.9966402877
 30
0.0
 10
84.5651434966
 20
131.405198929
 30
0.0
 10
80.1190214813
 20
122.3264232628
 30
0.0
 10
76.852406173
 20
110.5714382936
 30
0.0
 10
75.749487972
 20
98.3533217798
 30
0.0
 10
76.8524061686
 20
86.1352052654
 30
0.0
 10
80.1190214734
 20
74.380220295
 30
0.0
 10
84.5651434851
 20
65.3014446266
 30
0.0
 10
89.0532594608
 20
58.710003266
 30
0.0
 10
94.0747927286
 20
52.6714861632
 30
0.0
 10
101.334440546
 20
46.1577201294
 30
0.0
 10
109.6965375904
 20
41.2681666182
 30
0.0
 10
116.8012088572
 20
38.4890324523
 30
0.0
 10
124.0853577304
 20
36.486233642
 30
0.0
 10
129.7534266755
 20
35.8633782394
 30
0.0
 10
133.5105614737
 20
35.8535041243
 30
0.0
  0
SPLINE
  5
2F5
100
AcDbEntity
  8
7_ALL_FEATURES
100
AcDbSpline
 62
7
  6
CONTINUOUS
 70
0
 71
3
 72
27
 73
23
 74
0
 42
0.0000001
 43
0.0000001
 44
0.0000000001
 40
0.0
 40
0.0
 40
0.0
 40
0.0
 40
0.0599217938
 40
0.090049482
 40
0.1203249423
 40
0.1813803104
 40
0.2433815693
 40
0.2747993155
 40
0.306463687
 40
0.3703897777
 40
0.435008876
 40
0.5
 40
0.564991124
 40
0.6296102222
 40
0.6935363129
 40
0.7252006844
 40
0.7566184306
 40
0.8186196896
 40
0.8796750576
 40
0.909950518
 40
0.9400782062
 40
1.0
 40
1.0
 40
1.0
 40
1.0
 10
133.5321097057
 20
36.1533217681
 30
0.0
 10
137.2767752346
 20
36.1533217608
 30
0.0
 10
142.9276392189
 20
36.7602611269
 30
0.0
 10
150.1918200394
 20
38.7404598984
 30
0.0
 10
157.2780691552
 20
41.4960084281
 30
0.0
 10
165.6205102701
 20
46.35467755
 30
0.0
 10
172.8646517034
 20
52.8366616005
 30
0.0
 10
177.8760098899
 20
58.8492683894
 30
0.0
 10
182.3554276426
 20
65.4144716231
 30
0.0
 10
186.7933599522
 20
74.4601749307
 30
0.0
 10
190.0541629272
 20
86.1752425826
 30
0.0
 10
191.155160112
 20
98.3533217615
 30
0.0
 10
190.0541629298
 20
110.5314009407
 30
0.0
 10
186.7933599566
 20
122.2464685931
 30
0.0
 10
182.3554276492
 20
131.2921719021
 30
0.0
 10
177.8760098973
 20
137.8573751369
 30
0.0
 10
172.8646517116
 20
143.8699819268
 30
0.0
 10
165.6205102801
 20
150.3519659796
 30
0.0
 10
157.2780691654
 20
155.2106351022
 30
0.0
 10
150.191820049
 20
157.9661836353
 30
0.0
 10
142.9276392246
 20
159.9463824073
 30
0.0
 10
137.2767752369
 20
160.5533217774
 30
0.0
 10
133.5321097057
 20
160.5533217681
 30
0.0
  0
SPLINE
  5
2F6
100
AcDbEntity
  8
7_ALL_FEATURES
100
AcDbSpline
 62
7
  6
CONTINUOUS
 70
0
 71
3
 72
27
 73
23
 74
0
 42
0.0000001
 43
0.0000001
 44
0.0000000001
 40
0.0
 40
0.0
 40
0.0
 40
0.0
 40
0.0599217938
 40
0.090049482
 40
0.1203249423
 40
0.1813803104
 40
0.2433815694
 40
0.2747993155
 40
0.306463687
 40
0.3703897777
 40
0.435008876
 40
0.5
 40
0.564991124
 40
0.6296102222
 40
0.6935363129
 40
0.7252006844
 40
0.7566184306
 40
0.8186196896
 40
0.8796750576
 40
0.909950518
 40
0.9400782061
 40
1.0
 40
1.0
 40
1.0
 40
1.0
 10
133.6493290442
 20
35.8533217681
 30
0.0
 10
137.4120556619
 20
35.8533217681
 30
0.0
 10
143.0901746179
 20
36.4631884835
 30
0.0
 10
150.3893916799
 20
38.4529380581
 30
0.0
 10
157.5098188457
 20
41.2217770133
 30
0.0
 10
165.8924968148
 20
46.1038802315
 30
0.0
 10
173.171577837
 20
52.6171278706
 30
0.0
 10
178.2071065611
 20
58.6587343708
 30
0.0
 10
182.7081292224
 20
65.2556025717
 30
0.0
 10
187.16746635
 20
74.3449346732
 30
0.0
 10
190.4439966704
 20
86.1165058665
 30
0.0
 10
191.550304131
 20
98.3533217614
 30
0.0
 10
190.443996673
 20
110.5901376565
 30
0.0
 10
187.1674663544
 20
122.3617088505
 30
0.0
 10
182.708129229
 20
131.4510409535
 30
0.0
 10
178.2071065686
 20
138.0479091554
 30
0.0
 10
173.1715778453
 20
144.0895156565
 30
0.0
 10
165.892496825
 20
150.6027632979
 30
0.0
 10
157.5098188558
 20
155.4848665172
 30
0.0
 10
150.3893916896
 20
158.2537054753
 30
0.0
 10
143.090174624
 20
160.2434550517
 30
0.0
 10
137.4120556646
 20
160.8533217681
 30
0.0
 10
133.6493290442
 20
160.8533217681
 30
0.0
  0
SPLINE
  5
2F7
100
AcDbEntity
  8
7_ALL_FEATURES
100
AcDbSpline
 62
7
  6
CONTINUOUS
 70
0
 71
3
 72
27
 73
23
 74
0
 42
0.0000001
 43
0.0000001
 44
0.0000000001
 40
0.0
 40
0.0
 40
0.0
 40
0.0
 40
0.0599217938
 40
0.090049482
 40
0.1203249423
 40
0.1813803104
 40
0.2433815693
 40
0.2747993155
 40
0.306463687
 40
0.3703897777
 40
0.435008876
 40
0.5
 40
0.564991124
 40
0.6296102222
 40
0.6935363129
 40
0.7252006844
 40
0.7566184306
 40
0.8186196896
 40
0.8796750576
 40
0.909950518
 40
0.9400782062
 40
1.0
 40
1.0
 40
1.0
 40
1.0
 10
133.5321097057
 20
160.5533217681
 30
0.0
 10
129.7874441768
 20
160.5533217753
 30
0.0
 10
124.1365801925
 20
159.9463824093
 30
0.0
 10
116.872399372
 20
157.9661836377
 30
0.0
 10
109.7861502561
 20
155.210635108
 30
0.0
 10
101.4437091413
 20
150.3519659861
 30
0.0
 10
94.199567708
 20
143.8699819356
 30
0.0
 10
89.1882095215
 20
137.8573751467
 30
0.0
 10
84.7087917688
 20
131.292171913
 30
0.0
 10
80.2708594591
 20
122.2464686054
 30
0.0
 10
77.0100564841
 20
110.5314009535
 30
0.0
 10
75.9090592993
 20
98.3533217746
 30
0.0
 10
77.0100564816
 20
86.1752425955
 30
0.0
 10
80.2708594548
 20
74.460174943
 30
0.0
 10
84.7087917622
 20
65.414471634
 30
0.0
 10
89.1882095141
 20
58.8492683992
 30
0.0
 10
94.1995676998
 20
52.8366616093
 30
0.0
 10
101.4437091312
 20
46.3546775565
 30
0.0
 10
109.786150246
 20
41.4960084339
 30
0.0
 10
116.8723993624
 20
38.7404599008
 30
0.0
 10
124.1365801867
 20
36.7602611289
 30
0.0
 10
129.7874441744
 20
36.1533217587
 30
0.0
 10
133.5321097057
 20
36.1533217681
 30
0.0
  0
SPLINE
  5
2F8
100
AcDbEntity
  8
7_ALL_FEATURES
100
AcDbSpline
 62
7
  6
CONTINUOUS
 70
0
 71
3
 72
11
 73
7
 74
0
 42
0.0000001
 43
0.0000001
 44
0.0000000001
 40
0.0
 40
0.0
 40
0.0
 40
0.0
 40
0.2191550086
 40
0.4527450083
 40
0.7108173993
 40
1.0
 40
1.0
 40
1.0
 40
1.0
 10
472.9668027681
 20
502.3726340359
 30
0.0
 10
472.9374618703
 20
503.2477427877
 30
0.0
 10
472.6213304576
 20
505.0548192526
 30
0.0
 10
471.4262860556
 20
507.6586121655
 30
0.0
 10
469.5443129736
 20
510.1700131801
 30
0.0
 10
467.9496748436
 20
511.679741324
 30
0.0
 10
467.0621224988
 20
512.4194476925
 30
0.0
  0
SPLINE
  5
2F9
100
AcDbEntity
  8
7_ALL_FEATURES
100
AcDbSpline
 62
7
  6
CONTINUOUS
 70
0
 71
3
 72
11
 73
7
 74
0
 42
0.0000001
 43
0.0000001
 44
0.0000000001
 40
0.0
 40
0.0
 40
0.0
 40
0.0
 40
0.2192237054
 40
0.4522789101
 40
0.7101223222
 40
1.0
 40
1.0
 40
1.0
 40
1.0
 10
472.97215423
 20
479.5931619055
 30
0.0
 10
472.97215423
 20
478.694139126
 30
0.0
 10
472.7018113171
 20
476.8304824622
 30
0.0
 10
471.5227109408
 20
474.1370150354
 30
0.0
 10
469.6112442528
 20
471.5425490771
 30
0.0
 10
467.9753209733
 20
469.9882749805
 30
0.0
 10
467.0621224989
 20
469.2271945426
 30
0.0
  0
SPLINE
  5
2FA
100
AcDbEntity
  8
7_ALL_FEATURES
100
AcDbSpline
 62
7
  6
CONTINUOUS
 70
0
 71
3
 72
11
 73
7
 74
0
 42
0.0000001
 43
0.0000001
 44
0.0000000001
 40
0.0
 40
0.0
 40
0.0
 40
0.0
 40
0.2891826006
 40
0.5472549916
 40
0.7808449914
 40
1.0
 40
1.0
 40
1.0
 40
1.0
 10
353.8821859612
 20
512.4194476925
 30
0.0
 10
352.9946336177
 20
511.6797413252
 30
0.0
 10
351.3999954901
 20
510.1700131836
 30
0.0
 10
349.5180224093
 20
507.658612173
 30
0.0
 10
348.3229780066
 20
505.0548192639
 30
0.0
 10
348.0068465916
 20
503.2477428014
 30
0.0
 10
347.9775056925
 20
502.3726340506
 30
0.0
  0
SPLINE
  5
2FB
100
AcDbEntity
  8
7_ALL_FEATURES
100
AcDbSpline
 62
7
  6
CONTINUOUS
 70
0
 71
3
 72
21
 73
17
 74
0
 42
0.0000001
 43
0.0000001
 44
0.0000000001
 40
0.0
 40
0.0
 40
0.0
 40
0.0
 40
0.0443967544
 40
0.095203014
 40
0.1521367938
 40
0.2145792308
 40
0.2816741475
 40
0.3523953235
 40
0.5
 40
0.6476046765
 40
0.7183258525
 40
0.7854207692
 40
0.8478632062
 40
0.904796986
 40
0.9556032456
 40
1.0
 40
1.0
 40
1.0
 40
1.0
 10
466.7904906667
 20
512.6458424921
 30
0.0
 10
465.4502340106
 20
513.7628429611
 30
0.0
 10
462.3463805313
 20
515.8845538024
 30
0.0
 10
456.9971106503
 20
518.5802865366
 30
0.0
 10
450.7357229185
 20
520.9591054057
 30
0.0
 10
443.6826934855
 20
522.9736050817
 30
0.0
 10
435.973317349
 20
524.5847481008
 30
0.0
 10
424.8635315076
 20
526.1723897135
 30
0.0
 10
410.47215423
 20
526.944551035
 30
0.0
 10
396.0807769524
 20
526.1723897135
 30
0.0
 10
384.970991111
 20
524.5847481008
 30
0.0
 10
377.2616149743
 20
522.9736050817
 30
0.0
 10
370.2085855411
 20
520.9591054056
 30
0.0
 10
363.9471978092
 20
518.5802865364
 30
0.0
 10
358.5979279284
 20
515.8845538023
 30
0.0
 10
355.4940744493
 20
513.7628429611
 30
0.0
 10
354.1538177932
 20
512.6458424921
 30
0.0
  0
SPLINE
  5
2FC
100
AcDbEntity
  8
7_ALL_FEATURES
100
AcDbSpline
 62
7
  6
CONTINUOUS
 70
0
 71
3
 72
21
 73
17
 74
0
 42
0.0000001
 43
0.0000001
 44
0.0000000001
 40
0.0
 40
0.0
 40
0.0
 40
0.0
 40
0.0443967544
 40
0.095203014
 40
0.1521367938
 40
0.2145792308
 40
0.2816741475
 40
0.3523953235
 40
0.5
 40
0.6476046765
 40
0.7183258525
 40
0.7854207692
 40
0.8478632062
 40
0.904796986
 40
0.9556032456
 40
1.0
 40
1.0
 40
1.0
 40
1.0
 10
466.7904906668
 20
469.000799743
 30
0.0
 10
465.4502340108
 20
467.8837992741
 30
0.0
 10
462.3463805317
 20
465.7620884329
 30
0.0
 10
456.9971106509
 20
463.0663556988
 30
0.0
 10
450.735722919
 20
460.6875368296
 30
0.0
 10
443.6826934858
 20
458.6730371535
 30
0.0
 10
435.9733173491
 20
457.0618941344
 30
0.0
 10
424.8635315077
 20
455.4742525217
 30
0.0
 10
410.4721542301
 20
454.7020912002
 30
0.0
 10
396.0807769525
 20
455.4742525217
 30
0.0
 10
384.9709911111
 20
457.0618941344
 30
0.0
 10
377.2616149746
 20
458.6730371535
 30
0.0
 10
370.2085855416
 20
460.6875368295
 30
0.0
 10
363.9471978098
 20
463.0663556986
 30
0.0
 10
358.5979279288
 20
465.7620884328
 30
0.0
 10
355.4940744494
 20
467.8837992741
 30
0.0
 10
354.1538177934
 20
469.0007997431
 30
0.0
  0
SPLINE
  5
2FD
100
AcDbEntity
  8
7_ALL_FEATURES
100
AcDbSpline
 62
7
  6
CONTINUOUS
 70
0
 71
3
 72
11
 73
7
 74
0
 42
0.0000001
 43
0.0000001
 44
0.0000000001
 40
0.0
 40
0.0
 40
0.0
 40
0.0
 40
0.2898776778
 40
0.5477210899
 40
0.7807762947
 40
1.0
 40
1.0
 40
1.0
 40
1.0
 10
353.8821859613
 20
469.2271945427
 30
0.0
 10
352.9689874867
 20
469.9882749807
 30
0.0
 10
351.3330642068
 20
471.5425490777
 30
0.0
 10
349.4215975189
 20
474.1370150361
 30
0.0
 10
348.2424971426
 20
476.8304824626
 30
0.0
 10
347.97215423
 20
478.6941391261
 30
0.0
 10
347.97215423
 20
479.5931619055
 30
0.0
  0
SPLINE
  5
2FE
100
AcDbEntity
  8
7_ALL_FEATURES
100
AcDbSpline
 62
7
  6
CONTINUOUS
 70
0
 71
3
 72
11
 73
7
 74
0
 42
0.0000001
 43
0.0000001
 44
0.0000000001
 40
0.0
 40
0.0
 40
0.0
 40
0.0
 40
0.2885675741
 40
0.5460738707
 40
0.7796801631
 40
1.0
 40
1.0
 40
1.0
 40
1.0
 10
353.8810441431
 20
512.4153812004
 30
0.0
 10
353.0125975034
 20
511.6714671252
 30
0.0
 10
351.4570519255
 20
510.1529271802
 30
0.0
 10
349.6441096451
 20
507.6269996171
 30
0.0
 10
348.5276459905
 20
505.0097622328
 30
0.0
 10
348.2721542249
 20
503.202693232
 30
0.0
 10
348.27215423
 20
502.3296317858
 30
0.0
  0
SPLINE
  5
2FF
100
AcDbEntity
  8
7_ALL_FEATURES
100
AcDbSpline
 62
7
  6
CONTINUOUS
 70
0
 71
3
 72
31
 73
27
 74
0
 42
0.0000001
 43
0.0000001
 44
0.0000000001
 40
0.0
 40
0.0
 40
0.0
 40
0.0
 40
0.0168586653
 40
0.0345823183
 40
0.0538801363
 40
0.0752630144
 40
0.0990357479
 40
0.1253418689
 40
0.1542035456
 40
0.1855513761
 40
0.2550619842
 40
0.3322080621
 40
0.4147218271
 40
0.5
 40
0.5852781728
 40
0.6677919378
 40
0.7449380157
 40
0.8144486238
 40
0.8457964543
 40
0.874658131
 40
0.900964252
 40
0.9247369855
 40
0.9461198637
 40
0.9654176816
 40
0.9831413347
 40
1.0
 40
1.0
 40
1.0
 40
1.0
 10
347.97215423
 20
502.0534803297
 30
0.0
 10
347.97215423
 20
501.2493968609
 30
0.0
 10
348.1859811704
 20
499.5933613323
 30
0.0
 10
349.1256418152
 20
497.1790756454
 30
0.0
 10
350.6600288618
 20
494.8340672077
 30
0.0
 10
352.7627335081
 20
492.5754486107
 30
0.0
 10
355.4111421757
 20
490.4163385663
 30
0.0
 10
358.5806303868
 20
488.3723911138
 30
0.0
 10
362.2426409958
 20
486.4600636359
 30
0.0
 10
367.9358625835
 20
484.0253556993
 30
0.0
 10
376.0596916392
 20
481.4849493374
 30
0.0
 10
386.7816029082
 20
479.2890362467
 30
0.0
 10
398.3988372925
 20
477.9358718406
 30
0.0
 10
410.4721542235
 20
477.4787781108
 30
0.0
 10
422.5454711547
 20
477.9358718395
 30
0.0
 10
434.1627055398
 20
479.2890362449
 30
0.0
 10
444.8846168102
 20
481.4849493344
 30
0.0
 10
453.0084458672
 20
484.0253556961
 30
0.0
 10
458.7016674562
 20
486.4600636321
 30
0.0
 10
462.3636780662
 20
488.3723911096
 30
0.0
 10
465.5331662782
 20
490.4163385618
 30
0.0
 10
468.181574947
 20
492.5754486063
 30
0.0
 10
470.2842795951
 20
494.8340672034
 30
0.0
 10
471.8186666438
 20
497.1790756423
 30
0.0
 10
472.7583272888
 20
499.593361331
 30
0.0
 10
472.97215423
 20
501.2493968607
 30
0.0
 10
472.97215423
 20
502.0534803297
 30
0.0
  0
SPLINE
  5
300
100
AcDbEntity
  8
7_ALL_FEATURES
100
AcDbSpline
 62
7
  6
CONTINUOUS
 70
0
 71
3
 72
21
 73
17
 74
0
 42
0.0000001
 43
0.0000001
 44
0.0000000001
 40
0.0
 40
0.0
 40
0.0
 40
0.0
 40
0.0446770248
 40
0.0956861652
 40
0.1527291067
 40
0.2151863624
 40
0.2822111521
 40
0.3527933564
 40
0.4999999999
 40
0.6472066434
 40
0.7177888477
 40
0.7848136374
 40
0.8472708932
 40
0.9043138347
 40
0.9553229751
 40
1.0
 40
1.0
 40
1.0
 40
1.0
 10
466.8035186899
 20
469.0143458483
 30
0.0
 10
465.442315804
 20
467.9077913309
 30
0.0
 10
462.3061895484
 20
465.8071532545
 30
0.0
 10
456.9241855601
 20
463.1370861111
 30
0.0
 10
450.6463106265
 20
460.7825725729
 30
0.0
 10
443.5915430385
 20
458.7898015926
 30
0.0
 10
435.8931200762
 20
457.1968139803
 30
0.0
 10
424.8144378348
 20
455.6279904485
 30
0.0
 10
410.4721542608
 20
454.8646083165
 30
0.0
 10
396.1298706857
 20
455.627990443
 30
0.0
 10
385.051188441
 20
457.1968139705
 30
0.0
 10
377.3527654748
 20
458.7898015797
 30
0.0
 10
370.2979978819
 20
460.7825725572
 30
0.0
 10
364.0201229423
 20
463.1370860929
 30
0.0
 10
358.6381189471
 20
465.8071532343
 30
0.0
 10
355.5019926862
 20
467.9077913093
 30
0.0
 10
354.1407897975
 20
469.0143458262
 30
0.0
  0
SPLINE
  5
301
100
AcDbEntity
  8
7_ALL_FEATURES
100
AcDbSpline
 62
7
  6
CONTINUOUS
 70
0
 71
3
 72
31
 73
27
 74
0
 42
0.0000001
 43
0.0000001
 44
0.0000000001
 40
0.0
 40
0.0
 40
0.0
 40
0.0
 40
0.0168586653
 40
0.0345823183
 40
0.0538801363
 40
0.0752630144
 40
0.0990357479
 40
0.1253418689
 40
0.1542035456
 40
0.1855513761
 40
0.2550619842
 40
0.3322080621
 40
0.4147218271
 40
0.5
 40
0.5852781728
 40
0.6677919378
 40
0.7449380157
 40
0.8144486238
 40
0.8457964544
 40
0.874658131
 40
0.900964252
 40
0.9247369855
 40
0.9461198637
 40
0.9654176817
 40
0.9831413347
 40
1.0
 40
1.0
 40
1.0
 40
1.0
 10
348.27215423
 20
502.3296317858
 30
0.0
 10
348.2721542264
 20
501.5294079176
 30
0.0
 10
348.4849547986
 20
499.8813213591
 30
0.0
 10
349.4201050768
 20
497.4786242458
 30
0.0
 10
350.9471270621
 20
495.1448718467
 30
0.0
 10
353.0397387273
 20
492.8970946194
 30
0.0
 10
355.675435033
 20
490.7483483033
 30
0.0
 10
358.8297097004
 20
488.7142117985
 30
0.0
 10
362.4741426585
 20
486.8110634925
 30
0.0
 10
368.1400367825
 20
484.3880421539
 30
0.0
 10
376.2248714589
 20
481.8598297424
 30
0.0
 10
386.895317554
 20
479.6744570344
 30
0.0
 10
398.4567892135
 20
478.3277878174
 30
0.0
 10
410.4721542236
 20
477.8728881374
 30
0.0
 10
422.4875192338
 20
478.3277878163
 30
0.0
 10
434.0489908941
 20
479.6744570326
 30
0.0
 10
444.7194369907
 20
481.8598297395
 30
0.0
 10
452.8042716684
 20
484.3880421507
 30
0.0
 10
458.4701657938
 20
486.8110634888
 30
0.0
 10
462.1145987526
 20
488.7142117942
 30
0.0
 10
465.2688734209
 20
490.7483482988
 30
0.0
 10
467.9045697276
 20
492.897094615
 30
0.0
 10
469.9971813952
 20
495.1448718423
 30
0.0
 10
471.5242033815
 20
497.4786242432
 30
0.0
 10
472.4593536613
 20
499.8813213576
 30
0.0
 10
472.6721542347
 20
501.5294079173
 30
0.0
 10
472.67215423
 20
502.3296317858
 30
0.0
  0
SPLINE
  5
302
100
AcDbEntity
  8
7_ALL_FEATURES
100
AcDbSpline
 62
7
  6
CONTINUOUS
 70
0
 71
3
 72
11
 73
7
 74
0
 42
0.0000001
 43
0.0000001
 44
0.0000000001
 40
0.0
 40
0.0
 40
0.0
 40
0.0
 40
0.2203198371
 40
0.4539261293
 40
0.7114324259
 40
1.0
 40
1.0
 40
1.0
 40
1.0
 10
472.67215423
 20
502.3296317858
 30
0.0
 10
472.672154234
 20
503.2026932303
 30
0.0
 10
472.4166624709
 20
505.0097622266
 30
0.0
 10
471.3001988215
 20
507.6269996054
 30
0.0
 10
469.4872565484
 20
510.1529271632
 30
0.0
 10
467.9317109768
 20
511.6714671062
 30
0.0
 10
467.0632643402
 20
512.4153811804
 30
0.0
  0
SPLINE
  5
303
100
AcDbEntity
  8
7_ALL_FEATURES
100
AcDbSpline
 62
7
  6
CONTINUOUS
 70
0
 71
3
 72
12
 73
8
 74
0
 42
0.0000001
 43
0.0000001
 44
0.0000000001
 40
0.0
 40
0.0
 40
0.0
 40
0.0
 40
0.2642206875
 40
0.5534439935
 40
0.6898911484
 40
0.8121509743
 40
1.0
 40
1.0
 40
1.0
 40
1.0
 10
573.4852519095
 20
111.7230227862
 30
0.0
 10
573.2721663016
 20
111.8223755583
 30
0.0
 10
572.7834573979
 20
111.9377316149
 30
0.0
 10
572.1645133318
 20
111.9299899924
 30
0.0
 10
571.6849875466
 20
111.8253342053
 30
0.0
 10
571.3175994897
 20
111.6821885907
 30
0.0
 10
571.0775852488
 20
111.5017931485
 30
0.0
 10
571.0045844407
 20
111.3514244247
 30
0.0
  0
SPLINE
  5
304
100
AcDbEntity
  8
7_ALL_FEATURES
100
AcDbSpline
 62
7
  6
CONTINUOUS
 70
0
 71
3
 72
18
 73
14
 74
0
 42
0.0000001
 43
0.0000001
 44
0.0000000001
 40
0.0
 40
0.0
 40
0.0
 40
0.0
 40
0.1295314205
 40
0.2727217791
 40
0.4218085573
 40
0.5681735062
 40
0.7035827093
 40
0.765109557
 40
0.8216887595
 40
0.8730677894
 40
0.9193806742
 40
0.9612713454
 40
1.0
 40
1.0
 40
1.0
 40
1.0
 10
589.3156542812
 20
104.3419782706
 30
0.0
 10
591.1851724266
 20
103.4703013334
 30
0.0
 10
595.3294208108
 20
102.074186794
 30
0.0
 10
601.975944426
 20
100.9663331921
 30
0.0
 10
608.9822219869
 20
100.7890597252
 30
0.0
 10
615.8213602956
 20
101.5576212367
 30
0.0
 10
621.1308159429
 20
102.9793796207
 30
0.0
 10
624.8449948823
 20
104.578188129
 30
0.0
 10
627.1965386046
 20
105.9162981945
 30
0.0
 10
629.1596487001
 20
107.4075840541
 30
0.0
 10
630.6972528824
 20
109.0297002829
 30
0.0
 10
631.7757363699
 20
110.7577885427
 30
0.0
 10
632.1753910942
 20
111.9962374218
 30
0.0
 10
632.2802119837
 20
112.6040056469
 30
0.0
  0
SPLINE
  5
305
100
AcDbEntity
  8
7_ALL_FEATURES
100
AcDbSpline
 62
7
  6
CONTINUOUS
 70
0
 71
3
 72
11
 73
7
 74
0
 42
0.0000001
 43
0.0000001
 44
0.0000000001
 40
0.0
 40
0.0
 40
0.0
 40
0.0
 40
0.2266787593
 40
0.4716546968
 40
0.7310063549
 40
1.0
 40
1.0
 40
1.0
 40
1.0
 10
663.3433547937
 20
124.3099073692
 30
0.0
 10
661.1329930675
 20
125.4150882323
 30
0.0
 10
656.3761534907
 20
127.4055724926
 30
0.0
 10
648.7240663928
 20
129.6756650485
 30
0.0
 10
640.440355881
 20
131.3027256858
 30
0.0
 10
634.7058518033
 20
131.9226915235
 30
0.0
 10
631.7798737081
 20
132.1193259334
 30
0.0
  0
SPLINE
  5
306
100
AcDbEntity
  8
7_ALL_FEATURES
100
AcDbSpline
 62
7
  6
CONTINUOUS
 70
0
 71
3
 72
9
 73
5
 74
0
 42
0.0000001
 43
0.0000001
 44
0.0000000001
 40
0.0
 40
0.0
 40
0.0
 40
0.0
 40
0.5099759105
 40
1.0
 40
1.0
 40
1.0
 40
1.0
 10
571.0045844407
 20
111.3514244247
 30
0.0
 10
570.5061640033
 20
110.3247666786
 30
0.0
 10
569.725429941
 20
108.2064473683
 30
0.0
 10
569.4524797587
 20
105.9610706266
 30
0.0
 10
569.4524774986
 20
104.8644708786
 30
0.0
  0
SPLINE
  5
307
100
AcDbEntity
  8
3_ALL_AXES
100
AcDbSpline
 62
7
  6
CONTINUOUS
 70
0
 71
3
 72
13
 73
9
 74
0
 42
0.0000001
 43
0.0000001
 44
0.0000000001
 40
0.0
 40
0.0
 40
0.0
 40
0.0
 40
0.1021494583
 40
0.2071677797
 40
0.3175968944
 40
0.4354412611
 40
0.6979152176
 40
1.0
 40
1.0
 40
1.0
 40
1.0
 10
679.4524229962
 20
104.8644708865
 30
0.0
 10
679.4524232358
 20
105.7672863077
 30
0.0
 10
679.269620982
 20
107.6030873714
 30
0.0
 10
678.4563394773
 20
110.3056865316
 30
0.0
 10
677.1175702764
 20
112.945299344
 30
0.0
 10
674.5657827235
 20
116.4710213171
 30
0.0
 10
670.0450686129
 20
120.5574873341
 30
0.0
 10
665.7313681
 20
123.115900716
 30
0.0
 10
663.3433547937
 20
124.3099073692
 30
0.0
  0
SPLINE
  5
308
100
AcDbEntity
  8
3_ALL_AXES
100
AcDbSpline
 62
7
  6
CONTINUOUS
 70
0
 71
3
 72
15
 73
11
 74
0
 42
0.0000001
 43
0.0000001
 44
0.0000000001
 40
0.0
 40
0.0
 40
0.0
 40
0.0
 40
0.1112730916
 40
0.2323801188
 40
0.3607688545
 40
0.4933760605
 40
0.6268810911
 40
0.7579087124
 40
0.8832341882
 40
1.0
 40
1.0
 40
1.0
 40
1.0
 10
585.5616088632
 20
85.4190344039
 30
0.0
 10
588.073051029
 20
84.163313321
 30
0.0
 10
593.5216302376
 20
81.9403056704
 30
0.0
 10
602.3157932388
 20
79.5232364996
 30
0.0
 10
611.8431964069
 20
77.9395099718
 30
0.0
 10
621.7878433073
 20
77.2433702796
 30
0.0
 10
631.820885715
 20
77.4577744033
 30
0.0
 10
641.6101001098
 20
78.5757382771
 30
0.0
 10
650.8297332624
 20
80.5590135031
 30
0.0
 10
656.6419795938
 20
82.4966284665
 30
0.0
 10
659.367436491
 20
83.6162885295
 30
0.0
  0
SPLINE
  5
309
100
AcDbEntity
  8
3_ALL_AXES
100
AcDbSpline
 62
7
  6
CONTINUOUS
 70
0
 71
3
 72
14
 73
10
 74
0
 42
0.0000001
 43
0.0000001
 44
0.0000000001
 40
0.0
 40
0.0
 40
0.0
 40
0.0
 40
0.3057555205
 40
0.4436766706
 40
0.5713905967
 40
0.6894016219
 40
0.7988339956
 40
0.9015215763
 40
1.0
 40
1.0
 40
1.0
 40
1.0
 10
659.367436491
 20
83.6162885295
 30
0.0
 10
662.1819215601
 20
84.7725227494
 30
0.0
 10
666.1667923271
 20
86.74176062
 30
0.0
 10
670.8408874347
 20
89.9953320785
 30
0.0
 10
673.7161011514
 20
92.5218503987
 30
0.0
 10
676.0487565032
 20
95.1928691378
 30
0.0
 10
677.8102171469
 20
97.9844222295
 30
0.0
 10
678.9738304624
 20
100.8670885139
 30
0.0
 10
679.339966776
 20
102.852568947
 30
0.0
 10
679.413509597
 20
103.8298148062
 30
0.0
  0
SPLINE
  5
30A
100
AcDbEntity
  8
7_ALL_FEATURES
100
AcDbSpline
 62
7
  6
CONTINUOUS
 70
0
 71
3
 72
13
 73
9
 74
0
 42
0.0000001
 43
0.0000001
 44
0.0000000001
 40
0.0
 40
0.0
 40
0.0
 40
0.0
 40
0.1018919659
 40
0.2073364719
 40
0.3184827947
 40
0.4369928101
 40
0.6997774314
 40
1.0
 40
1.0
 40
1.0
 40
1.0
 10
569.4906846486
 20
103.8399531126
 30
0.0
 10
569.5551115568
 20
102.9764192772
 30
0.0
 10
569.8532662295
 20
101.2277939307
 30
0.0
 10
570.7820185663
 20
98.6720571539
 30
0.0
 10
572.1825405795
 20
96.1791368759
 30
0.0
 10
574.7451345807
 20
92.8549165501
 30
0.0
 10
579.1377012541
 20
89.0000591078
 30
0.0
 10
583.2795169724
 20
86.5600803493
 30
0.0
 10
585.5616088632
 20
85.4190344039
 30
0.0
  0
SPLINE
  5
30B
100
AcDbEntity
  8
7_ALL_FEATURES
100
AcDbSpline
 62
7
  6
CONTINUOUS
 70
0
 71
3
 72
9
 73
5
 74
0
 42
0.0000001
 43
0.0000001
 44
0.0000000001
 40
0.0
 40
0.0
 40
0.0
 40
0.0
 40
0.4926693258
 40
1.0
 40
1.0
 40
1.0
 40
1.0
 10
632.3747716395
 20
113.7033056195
 30
0.0
 10
632.3747505996
 20
114.1363213805
 30
0.0
 10
632.2844318026
 20
115.0174394489
 30
0.0
 10
632.0219838037
 20
115.8624276808
 30
0.0
 10
631.852776327
 20
116.2749774545
 30
0.0
  0
SPLINE
  5
30C
100
AcDbEntity
  8
3_ALL_AXES
100
AcDbSpline
 62
7
  6
CONTINUOUS
 70
0
 71
3
 72
10
 73
6
 74
0
 42
0.0000001
 43
0.0000001
 44
0.0000000001
 40
0.0
 40
0.0
 40
0.0
 40
0.0
 40
0.2770614522
 40
0.5356987859
 40
1.0
 40
1.0
 40
1.0
 40
1.0
 10
581.6903692022
 20
121.1197320875
 30
0.0
 10
580.624881927
 20
120.4611351435
 30
0.0
 10
578.6159308623
 20
119.0990329029
 30
0.0
 10
575.1416344695
 20
116.2036754076
 30
0.0
 10
572.9761033661
 20
113.6891080657
 30
0.0
 10
571.8772903285
 20
111.9005586141
 30
0.0
  0
SPLINE
  5
30D
100
AcDbEntity
  8
3_ALL_AXES
100
AcDbSpline
 62
7
  6
CONTINUOUS
 70
0
 71
3
 72
9
 73
5
 74
0
 42
0.0000001
 43
0.0000001
 44
0.0000000001
 40
0.0
 40
0.0
 40
0.0
 40
0.0
 40
0.2540739797
 40
1.0
 40
1.0
 40
1.0
 40
1.0
 10
631.7298162435
 20
110.7399918848
 30
0.0
 10
631.7784948154
 20
110.8978600566
 30
0.0
 10
631.948168948
 20
111.5257078707
 30
0.0
 10
632.0248189177
 20
112.1790626079
 30
0.0
 10
632.0247830189
 20
112.6640751315
 30
0.0
  0
SPLINE
  5
30E
100
AcDbEntity
  8
3_ALL_AXES
100
AcDbSpline
 62
7
  6
CONTINUOUS
 70
0
 71
3
 72
9
 73
5
 74
0
 42
0.0000001
 43
0.0000001
 44
0.0000000001
 40
0.0
 40
0.0
 40
0.0
 40
0.0
 40
0.4888457407
 40
1.0
 40
1.0
 40
1.0
 40
1.0
 10
581.5248197739
 20
112.6640751604
 30
0.0
 10
581.524792369
 20
112.1296352098
 30
0.0
 10
581.6667588445
 20
111.0322788029
 30
0.0
 10
582.0700851633
 20
110.0046974457
 30
0.0
 10
582.3264678773
 20
109.5081514353
 30
0.0
  0
SPLINE
  5
30F
100
AcDbEntity
  8
3_ALL_AXES
100
AcDbSpline
 62
7
  6
CONTINUOUS
 70
0
 71
3
 72
9
 73
5
 74
0
 42
0.0000001
 43
0.0000001
 44
0.0000000001
 40
0.0
 40
0.0
 40
0.0
 40
0.0
 40
0.2327199992
 40
1.0
 40
1.0
 40
1.0
 40
1.0
 10
582.3264678773
 20
109.5081514353
 30
0.0
 10
582.4713485933
 20
109.2275555229
 30
0.0
 10
583.1639389149
 20
108.0578609661
 30
0.0
 10
584.1055291743
 20
107.048268829
 30
0.0
 10
584.8915883964
 20
106.3655221424
 30
0.0
  0
SPLINE
  5
310
100
AcDbEntity
  8
3_ALL_AXES
100
AcDbSpline
 62
7
  6
CONTINUOUS
 70
0
 71
3
 72
9
 73
5
 74
0
 42
0.0000001
 43
0.0000001
 44
0.0000000001
 40
0.0
 40
0.0
 40
0.0
 40
0.0
 40
0.2533436466
 40
1.0
 40
1.0
 40
1.0
 40
1.0
 10
581.7657555452
 20
114.4040155007
 30
0.0
 10
581.7259160879
 20
114.2608633298
 30
0.0
 10
581.586993432
 20
113.6908964862
 30
0.0
 10
581.5248422301
 20
113.1020080782
 30
0.0
 10
581.5248197739
 20
112.6640751604
 30
0.0
  0
SPLINE
  5
311
100
AcDbEntity
  8
3_ALL_AXES
100
AcDbSpline
 62
7
  6
CONTINUOUS
 70
0
 71
3
 72
9
 73
5
 74
0
 42
0.0000001
 43
0.0000001
 44
0.0000000001
 40
0.0
 40
0.0
 40
0.0
 40
0.0
 40
0.2472251873
 40
1.0
 40
1.0
 40
1.0
 40
1.0
 10
569.7494450761
 20
100.9715443031
 30
0.0
 10
569.7874938261
 20
100.7892463574
 30
0.0
 10
569.9556494613
 20
100.0548961295
 30
0.0
 10
570.1803362538
 20
99.3336600025
 30
0.0
 10
570.3778139778
 20
98.8021183129
 30
0.0
  0
SPLINE
  5
312
100
AcDbEntity
  8
3_ALL_AXES
100
AcDbSpline
 62
7
  6
CONTINUOUS
 70
0
 71
3
 72
9
 73
5
 74
0
 42
0.0000001
 43
0.0000001
 44
0.0000000001
 40
0.0
 40
0.0
 40
0.0
 40
0.0
 40
0.2452678015
 40
1.0
 40
1.0
 40
1.0
 40
1.0
 10
571.0412301599
 20
97.2633007897
 30
0.0
 10
571.1295696221
 20
97.0835555824
 30
0.0
 10
571.5023633372
 20
96.3569433622
 30
0.0
 10
571.9243428917
 20
95.6558004206
 30
0.0
 10
572.265771377
 20
95.142721961
 30
0.0
  0
SPLINE
  5
313
100
AcDbEntity
  8
3_ALL_AXES
100
AcDbSpline
 62
7
  6
CONTINUOUS
 70
0
 71
3
 72
9
 73
5
 74
0
 42
0.0000001
 43
0.0000001
 44
0.0000000001
 40
0.0
 40
0.0
 40
0.0
 40
0.0
 40
0.2442988876
 40
1.0
 40
1.0
 40
1.0
 40
1.0
 10
573.323131069
 20
93.6913003859
 30
0.0
 10
573.4645354916
 20
93.5129567992
 30
0.0
 10
574.0541959058
 20
92.7915664803
 30
0.0
 10
574.6856302158
 20
92.1045812216
 30
0.0
 10
575.1814706178
 20
91.6047597511
 30
0.0
  0
SPLINE
  5
314
100
AcDbEntity
  8
3_ALL_AXES
100
AcDbSpline
 62
7
  6
CONTINUOUS
 70
0
 71
3
 72
9
 73
5
 74
0
 42
0.0000001
 43
0.0000001
 44
0.0000000001
 40
0.0
 40
0.0
 40
0.0
 40
0.0
 40
0.2437807337
 40
1.0
 40
1.0
 40
1.0
 40
1.0
 10
576.5475661971
 20
90.3148757469
 30
0.0
 10
576.7550223615
 20
90.1309756828
 30
0.0
 10
577.6160858949
 20
89.3880058286
 30
0.0
 10
578.5156311103
 20
88.6899525591
 30
0.0
 10
579.2124820604
 20
88.1859951786
 30
0.0
  0
SPLINE
  5
315
100
AcDbEntity
  8
3_ALL_AXES
100
AcDbSpline
 62
7
  6
CONTINUOUS
 70
0
 71
3
 72
9
 73
5
 74
0
 42
0.0000001
 43
0.0000001
 44
0.0000000001
 40
0.0
 40
0.0
 40
0.0
 40
0.0
 40
0.2418688778
 40
1.0
 40
1.0
 40
1.0
 40
1.0
 10
580.6525524904
 20
87.1927077164
 30
0.0
 10
581.0336891107
 20
86.9418102818
 30
0.0
 10
582.6264757141
 20
85.9303822541
 30
0.0
 10
584.282330759
 20
85.0194429715
 30
0.0
 10
585.5616088632
 20
84.3798039194
 30
0.0
  0
SPLINE
  5
316
100
AcDbEntity
  8
3_ALL_AXES
100
AcDbSpline
 62
7
  6
CONTINUOUS
 70
0
 71
3
 72
9
 73
5
 74
0
 42
0.0000001
 43
0.0000001
 44
0.0000000001
 40
0.0
 40
0.0
 40
0.0
 40
0.0
 40
0.2481862711
 40
1.0
 40
1.0
 40
1.0
 40
1.0
 10
632.0247830189
 20
112.6640751315
 30
0.0
 10
632.0247725172
 20
112.8059586518
 30
0.0
 10
632.0055517801
 20
113.3775272791
 30
0.0
 10
631.908254675
 20
113.9460723349
 30
0.0
 10
631.795720867
 20
114.3608765267
 30
0.0
  0
SPLINE
  5
317
100
AcDbEntity
  8
7_ALL_FEATURES
100
AcDbSpline
 62
7
  6
CONTINUOUS
 70
0
 71
3
 72
11
 73
7
 74
0
 42
0.0000001
 43
0.0000001
 44
0.0000000001
 40
0.0
 40
0.0
 40
0.0
 40
0.0
 40
0.3163347334
 40
0.5888013257
 40
0.8162866426
 40
1.0
 40
1.0
 40
1.0
 40
1.0
 10
583.9472619472
 20
311.8687567206
 30
0.0
 10
582.5611378317
 20
311.8470306515
 30
0.0
 10
579.9790637271
 20
311.8757899472
 30
0.0
 10
576.4099475415
 20
312.1832780288
 30
0.0
 10
573.4619603039
 20
312.745718467
 30
0.0
 10
571.748859657
 20
313.3498158157
 30
0.0
 10
571.0319837495
 20
313.7162491846
 30
0.0
  0
SPLINE
  5
318
100
AcDbEntity
  8
7_ALL_FEATURES
100
AcDbSpline
 62
7
  6
CONTINUOUS
 70
0
 71
3
 72
23
 73
19
 74
0
 42
0.0000001
 43
0.0000001
 44
0.0000000001
 40
0.0
 40
0.0
 40
0.0
 40
0.0
 40
0.0546659757
 40
0.1162673475
 40
0.183759885
 40
0.2559455055
 40
0.4090577495
 40
0.564401913
 40
0.6393292135
 40
0.7105711208
 40
0.776839593
 40
0.8369677661
 40
0.8899508656
 40
0.9350016137
 40
0.9543969942
 40
0.971667632
 40
0.9868396108
 40
1.0
 40
1.0
 40
1.0
 40
1.0
 10
665.3250050358
 20
379.2396270431
 30
0.0
 10
663.301473369
 20
379.1994126835
 30
0.0
 10
659.0006062004
 20
378.9500057351
 30
0.0
 10
652.2375434633
 20
378.1891448911
 30
0.0
 10
644.8740718728
 20
377.029014636
 30
0.0
 10
634.2358872476
 20
374.9355742577
 30
0.0
 10
620.5562691806
 20
371.50619579
 30
0.0
 10
607.0096937876
 20
367.2360827624
 30
0.0
 10
596.5352954371
 20
363.3705037973
 30
0.0
 10
589.2540557618
 20
360.3916113108
 30
0.0
 10
582.5932775361
 20
357.3572937518
 30
0.0
 10
576.6799862251
 20
354.3273223224
 30
0.0
 10
571.6271265322
 20
351.3613203964
 30
0.0
 10
568.0466325201
 20
348.88238264
 30
0.0
 10
565.714358403
 20
346.9524164902
 30
0.0
 10
564.3225662225
 20
345.6279553953
 30
0.0
 10
563.2046264932
 20
344.3595520129
 30
0.0
 10
562.6039685591
 20
343.4947923413
 30
0.0
 10
562.3602519085
 20
343.0728801812
 30
0.0
  0
SPLINE
  5
319
100
AcDbEntity
  8
7_ALL_FEATURES
100
AcDbSpline
 62
7
  6
CONTINUOUS
 70
0
 71
3
 72
11
 73
7
 74
0
 42
0.0000001
 43
0.0000001
 44
0.0000000001
 40
0.0
 40
0.0
 40
0.0
 40
0.0
 40
0.2898861858
 40
0.5473071003
 40
0.7803079146
 40
1.0
 40
1.0
 40
1.0
 40
1.0
 10
562.1586559597
 20
342.7239110288
 30
0.0
 10
561.9836788081
 20
342.4209978381
 30
0.0
 10
561.6868343142
 20
341.8280795402
 30
0.0
 10
561.4067068756
 20
340.9235541341
 30
0.0
 10
561.3260014582
 20
340.0633234039
 30
0.0
 10
561.4111333139
 20
339.5165058255
 30
0.0
 10
561.4862451725
 20
339.2622561181
 30
0.0
  0
SPLINE
  5
31A
100
AcDbEntity
  8
7_ALL_FEATURES
100
AcDbSpline
 62
7
  6
CONTINUOUS
 70
0
 71
3
 72
11
 73
7
 74
0
 42
0.0000001
 43
0.0000001
 44
0.0000000001
 40
0.0
 40
0.0
 40
0.0
 40
0.0
 40
0.1829433542
 40
0.41021257
 40
0.6829824922
 40
1.0
 40
1.0
 40
1.0
 40
1.0
 10
678.5611585068
 20
377.3978405448
 30
0.0
 10
677.8298795833
 20
377.7716360605
 30
0.0
 10
676.0773136662
 20
378.3848505399
 30
0.0
 10
673.058366858
 20
378.9492440243
 30
0.0
 10
669.3974478009
 20
379.2494854728
 30
0.0
 10
666.747888232
 20
379.2679045066
 30
0.0
 10
665.3250050358
 20
379.2396270431
 30
0.0
  0
SPLINE
  5
31B
100
AcDbEntity
  8
7_ALL_FEATURES
100
AcDbSpline
 62
7
  6
CONTINUOUS
 70
0
 71
3
 72
11
 73
7
 74
0
 42
0.0000001
 43
0.0000001
 44
0.0000000001
 40
0.0
 40
0.0
 40
0.0
 40
0.0
 40
0.2898831986
 40
0.5473060758
 40
0.7803063836
 40
1.0
 40
1.0
 40
1.0
 40
1.0
 10
570.673125143
 20
313.8996638602
 30
0.0
 10
570.3616436277
 20
314.0588786145
 30
0.0
 10
569.7902870551
 20
314.3953509798
 30
0.0
 10
569.0636110861
 20
315.0024507283
 30
0.0
 10
568.5284519845
 20
315.6807739313
 30
0.0
 10
568.3027998918
 20
316.1860778554
 30
0.0
 10
568.2276877585
 20
316.4403284926
 30
0.0
  0
SPLINE
  5
31C
100
AcDbEntity
  8
7_ALL_FEATURES
100
AcDbSpline
 62
7
  6
CONTINUOUS
 70
0
 71
3
 72
23
 73
19
 74
0
 42
0.0000001
 43
0.0000001
 44
0.0000000001
 40
0.0
 40
0.0
 40
0.0
 40
0.0
 40
0.0131603892
 40
0.028332368
 40
0.0456030058
 40
0.0649983863
 40
0.1100491344
 40
0.1630322339
 40
0.223160407
 40
0.2894288792
 40
0.3606707865
 40
0.435598087
 40
0.5909422505
 40
0.7440544945
 40
0.816240115
 40
0.8837326525
 40
0.9453340243
 40
1.0
 40
1.0
 40
1.0
 40
1.0
 10
687.2328903478
 20
348.0412095481
 30
0.0
 10
686.9891736972
 20
347.6192973881
 30
0.0
 10
686.3885157632
 20
346.7545377165
 30
0.0
 10
685.2705760338
 20
345.486134334
 30
0.0
 10
683.8787838533
 20
344.1616732391
 30
0.0
 10
681.5465097363
 20
342.2317070893
 30
0.0
 10
677.9660157242
 20
339.7527693329
 30
0.0
 10
672.9131560313
 20
336.7867674069
 30
0.0
 10
666.9998647203
 20
333.7567959775
 30
0.0
 10
660.3390864945
 20
330.7224784186
 30
0.0
 10
653.0578468192
 20
327.7435859321
 30
0.0
 10
642.5834484687
 20
323.878006967
 30
0.0
 10
629.0368730758
 20
319.6078939394
 30
0.0
 10
615.3572550088
 20
316.1785154716
 30
0.0
 10
604.7190703835
 20
314.0850750934
 30
0.0
 10
597.355598793
 20
312.9249448383
 30
0.0
 10
590.592536056
 20
312.1640839942
 30
0.0
 10
586.2916688873
 20
311.9146770459
 30
0.0
 10
584.2681372206
 20
311.8744626862
 30
0.0
  0
SPLINE
  5
31D
100
AcDbEntity
  8
7_ALL_FEATURES
100
AcDbSpline
 62
7
  6
CONTINUOUS
 70
0
 71
3
 72
11
 73
7
 74
0
 42
0.0000001
 43
0.0000001
 44
0.0000000001
 40
0.0
 40
0.0
 40
0.0
 40
0.0
 40
0.2196920854
 40
0.4526928997
 40
0.7101138142
 40
1.0
 40
1.0
 40
1.0
 40
1.0
 10
688.1068970839
 20
351.8518336112
 30
0.0
 10
688.1820089424
 20
351.5975839039
 30
0.0
 10
688.2671407981
 20
351.0507663254
 30
0.0
 10
688.1864353808
 20
350.1905355953
 30
0.0
 10
687.9063079422
 20
349.2860101892
 30
0.0
 10
687.6094634483
 20
348.6930918912
 30
0.0
 10
687.4344862967
 20
348.3901787005
 30
0.0
  0
SPLINE
  5
31E
100
AcDbEntity
  8
7_ALL_FEATURES
100
AcDbSpline
 62
7
  6
CONTINUOUS
 70
0
 71
3
 72
11
 73
7
 74
0
 42
0.0000001
 43
0.0000001
 44
0.0000000001
 40
0.0
 40
0.0
 40
0.0
 40
0.0
 40
0.2196936164
 40
0.4526939242
 40
0.7101168014
 40
1.0
 40
1.0
 40
1.0
 40
1.0
 10
681.3654544978
 20
374.6737612367
 30
0.0
 10
681.2903423645
 20
374.928011874
 30
0.0
 10
681.0646902718
 20
375.4333157981
 30
0.0
 10
680.5295311702
 20
376.1116390011
 30
0.0
 10
679.8028552013
 20
376.7187387495
 30
0.0
 10
679.2314986286
 20
377.0552111149
 30
0.0
 10
678.9200171134
 20
377.2144258692
 30
0.0
  0
SPLINE
  5
31F
100
AcDbEntity
  8
7_ALL_FEATURES
100
AcDbSpline
 62
7
  6
CONTINUOUS
 70
0
 71
3
 72
11
 73
7
 74
0
 42
0.0000001
 43
0.0000001
 44
0.0000000001
 40
0.0
 40
0.0
 40
0.0
 40
0.0
 40
0.3090863083
 40
0.5793343231
 40
0.8094891543
 40
1.0
 40
1.0
 40
1.0
 40
1.0
 10
583.973118597
 20
312.0489941398
 30
0.0
 10
582.6639798517
 20
312.0229771575
 30
0.0
 10
580.2082283257
 20
312.0348147823
 30
0.0
 10
576.7840906252
 20
312.2799773275
 30
0.0
 10
573.8907674845
 20
312.747556673
 30
0.0
 10
572.1716898169
 20
313.2506519727
 30
0.0
 10
571.4247061378
 20
313.5562298414
 30
0.0
  0
SPLINE
  5
320
100
AcDbEntity
  8
7_ALL_FEATURES
100
AcDbSpline
 62
7
  6
CONTINUOUS
 70
0
 71
3
 72
9
 73
5
 74
0
 42
0.0000001
 43
0.0000001
 44
0.0000000001
 40
0.0
 40
0.0
 40
0.0
 40
0.0
 40
0.2581679025
 40
1.0
 40
1.0
 40
1.0
 40
1.0
 10
571.4247061378
 20
313.5562298414
 30
0.0
 10
571.3588790474
 20
313.5831585449
 30
0.0
 10
571.1049101914
 20
313.6898990289
 30
0.0
 10
570.8550964649
 20
313.8066486477
 30
0.0
 10
570.673125143
 20
313.8996638602
 30
0.0
  0
SPLINE
  5
321
100
AcDbEntity
  8
7_ALL_FEATURES
100
AcDbSpline
 62
7
  6
CONTINUOUS
 70
0
 71
3
 72
10
 73
6
 74
0
 42
0.0000001
 43
0.0000001
 44
0.0000000001
 40
0.0
 40
0.0
 40
0.0
 40
0.0
 40
0.5393336399
 40
0.7754242135
 40
1.0
 40
1.0
 40
1.0
 40
1.0
 10
562.1551439399
 20
342.6952598464
 30
0.0
 10
561.9016502283
 20
342.1962499621
 30
0.0
 10
561.6109977008
 20
341.4259413914
 30
0.0
 10
561.5406382026
 20
340.3842136217
 30
0.0
 10
561.6137268893
 20
339.9067878409
 30
0.0
 10
561.6755892944
 20
339.6820896797
 30
0.0
  0
SPLINE
  5
322
100
AcDbEntity
  8
7_ALL_FEATURES
100
AcDbSpline
 62
7
  6
CONTINUOUS
 70
0
 71
3
 72
15
 73
11
 74
0
 42
0.0000001
 43
0.0000001
 44
0.0000000001
 40
0.0
 40
0.0
 40
0.0
 40
0.0
 40
0.0696600413
 40
0.1488848619
 40
0.24314947
 40
0.3554437544
 40
0.4871242757
 40
0.638628025
 40
0.8098237075
 40
1.0
 40
1.0
 40
1.0
 40
1.0
 10
561.748875627
 20
339.4520644149
 30
0.0
 10
561.8826148344
 20
339.0835485561
 30
0.0
 10
562.3293617793
 20
338.3497000405
 30
0.0
 10
563.3901786724
 20
337.4602803576
 30
0.0
 10
564.8309754811
 20
336.7248321123
 30
0.0
 10
566.6465527777
 20
336.1350840279
 30
0.0
 10
568.830514717
 20
335.6889287609
 30
0.0
 10
571.3723250963
 20
335.3889838025
 30
0.0
 10
574.2562575632
 20
335.2374954046
 30
0.0
 10
576.2908571699
 20
335.2363194855
 30
0.0
 10
577.3609214562
 20
335.2575852533
 30
0.0
  0
SPLINE
  5
323
100
AcDbEntity
  8
7_ALL_FEATURES
100
AcDbSpline
 62
7
  6
CONTINUOUS
 70
0
 71
3
 72
15
 73
11
 74
0
 42
0.0000001
 43
0.0000001
 44
0.0000000001
 40
0.0
 40
0.0
 40
0.0
 40
0.0
 40
0.0978229218
 40
0.2104358868
 40
0.3347549874
 40
0.4672221039
 40
0.6039813964
 40
0.7410222129
 40
0.8743240526
 40
1.0
 40
1.0
 40
1.0
 40
1.0
 10
577.3609214562
 20
335.2575852533
 30
0.0
 10
579.9538363052
 20
335.3091151661
 30
0.0
 10
585.5265641447
 20
335.6885446532
 30
0.0
 10
594.3286550261
 20
336.8518398425
 30
0.0
 10
603.9636201047
 20
338.6268213994
 30
0.0
 10
614.1354007628
 20
340.9617915317
 30
0.0
 10
624.5318285946
 20
343.7869000713
 30
0.0
 10
634.8332682816
 20
347.0157690677
 30
0.0
 10
644.7228197278
 20
350.5487629149
 30
0.0
 10
651.0866495141
 20
353.133824828
 30
0.0
 10
654.1399578646
 20
354.4674430106
 30
0.0
  0
LINE
  5
324
100
AcDbEntity
  8
7_ALL_FEATURES
100
AcDbLine
 62
7
  6
CONTINUOUS
 10
655.7812611842
 20
355.1937537451
 11
655.964559675
 21
355.2760670025
  0
SPLINE
  5
325
100
AcDbEntity
  8
7_ALL_FEATURES
100
AcDbSpline
 62
7
  6
CONTINUOUS
 70
0
 71
3
 72
20
 73
16
 74
0
 42
0.0000001
 43
0.0000001
 44
0.0000000001
 40
0.0
 40
0.0
 40
0.0
 40
0.0
 40
0.2144758082
 40
0.4046989176
 40
0.5670234373
 40
0.6369145088
 40
0.6990322835
 40
0.753365964
 40
0.8001366406
 40
0.8399094625
 40
0.873817645
 40
0.9038372442
 40
0.9328525064
 40
0.9640498279
 40
1.0
 40
1.0
 40
1.0
 40
1.0
 10
655.964559675
 20
355.2760670025
 30
0.0
 10
658.331708328
 20
356.3406719108
 30
0.0
 10
662.7565703272
 20
358.4457644829
 30
0.0
 10
668.7843603563
 20
361.7320517203
 30
0.0
 10
673.0943923633
 20
364.4955488054
 30
0.0
 10
675.9286680451
 20
366.6561613775
 30
0.0
 10
677.6300445106
 20
368.1393423356
 30
0.0
 10
679.0071537761
 20
369.5595475894
 30
0.0
 10
680.0540635225
 20
370.9109835928
 30
0.0
 10
680.765917551
 20
372.1916651454
 30
0.0
 10
681.1347605839
 20
373.4047398655
 30
0.0
 10
681.1367435633
 20
374.5502100454
 30
0.0
 10
680.7470324003
 20
375.5953627681
 30
0.0
 10
679.9885461761
 20
376.5009347091
 30
0.0
 10
679.3172372936
 20
376.9720370577
 30
0.0
 10
678.9411521836
 20
377.1907533551
 30
0.0
  0
SPLINE
  5
326
100
AcDbEntity
  8
7_ALL_FEATURES
100
AcDbSpline
 62
7
  6
CONTINUOUS
 70
0
 71
3
 72
21
 73
17
 74
0
 42
0.0000001
 43
0.0000001
 44
0.0000000001
 40
0.0
 40
0.0
 40
0.0
 40
0.0
 40
0.0136199241
 40
0.0292467293
 40
0.0667146194
 40
0.1124102766
 40
0.1658315276
 40
0.2261895275
 40
0.2924927796
 40
0.4382255977
 40
0.5927402896
 40
0.7449295964
 40
0.8167214687
 40
0.8839163555
 40
0.9453479417
 40
1.0
 40
1.0
 40
1.0
 40
1.0
 10
687.2319157508
 20
348.056416761
 30
0.0
 10
686.9616810564
 20
347.6313529271
 30
0.0
 10
686.3121656847
 20
346.7622549796
 30
0.0
 10
684.6319403891
 20
344.9515030302
 30
0.0
 10
681.8203502614
 20
342.5989993937
 30
0.0
 10
677.6387300858
 20
339.7580209637
 30
0.0
 10
672.5297651733
 20
336.8029094713
 30
0.0
 10
666.5875339423
 20
333.7901049995
 30
0.0
 10
657.4042500004
 20
329.6427484695
 30
0.0
 10
644.7349099226
 20
324.787274701
 30
0.0
 10
628.7642712082
 20
319.7684413235
 30
0.0
 10
615.175216417
 20
316.3681511644
 30
0.0
 10
604.608079829
 20
314.2866011953
 30
0.0
 10
597.2851746211
 20
313.1278116581
 30
0.0
 10
590.5485069758
 20
312.3606439951
 30
0.0
 10
586.260014072
 20
312.1017398278
 30
0.0
 10
584.2394166618
 20
312.0547390653
 30
0.0
  0
SPLINE
  5
327
100
AcDbEntity
  8
7_ALL_FEATURES
100
AcDbSpline
 62
7
  6
CONTINUOUS
 70
0
 71
3
 72
16
 73
12
 74
0
 42
0.0000001
 43
0.0000001
 44
0.0000000001
 40
0.0
 40
0.0
 40
0.0
 40
0.0
 40
0.0695037075
 40
0.1478100013
 40
0.2410682699
 40
0.3526654771
 40
0.4158968656
 40
0.4841957372
 40
0.6360834119
 40
0.8082603821
 40
1.0
 40
1.0
 40
1.0
 40
1.0
 10
561.4862451725
 20
339.2622561181
 30
0.0
 10
561.5988150465
 20
338.8812129905
 30
0.0
 10
562.0076523232
 20
338.1151264582
 30
0.0
 10
563.0451981779
 20
337.1801031171
 30
0.0
 10
564.4807891016
 20
336.4099315489
 30
0.0
 10
565.9374473741
 20
335.9176403108
 30
0.0
 10
567.2875301359
 20
335.5860241998
 30
0.0
 10
568.879546283
 20
335.2815188517
 30
0.0
 10
571.1086544238
 20
335.0107343078
 30
0.0
 10
574.0544753282
 20
334.8511168407
 30
0.0
 10
576.1357979679
 20
334.8491429965
 30
0.0
 10
577.231676011
 20
334.8709217653
 30
0.0
  0
SPLINE
  5
328
100
AcDbEntity
  8
7_ALL_FEATURES
100
AcDbSpline
 62
7
  6
CONTINUOUS
 70
0
 71
3
 72
15
 73
11
 74
0
 42
0.0000001
 43
0.0000001
 44
0.0000000001
 40
0.0
 40
0.0
 40
0.0
 40
0.0
 40
0.0978081244
 40
0.2103899125
 40
0.3346707919
 40
0.4671033506
 40
0.6038431187
 40
0.7408906307
 40
0.8742356923
 40
1.0
 40
1.0
 40
1.0
 40
1.0
 10
577.231676011
 20
334.8709217653
 30
0.0
 10
579.8333857618
 20
334.9226264714
 30
0.0
 10
585.4246493246
 20
335.302957703
 30
0.0
 10
594.2558446367
 20
336.4690303311
 30
0.0
 10
603.9225069373
 20
338.2482733329
 30
0.0
 10
614.128384853
 20
340.5890039778
 30
0.0
 10
624.5610847756
 20
343.421388071
 30
0.0
 10
634.9006962484
 20
346.6590569582
 30
0.0
 10
644.8299760861
 20
350.202370235
 30
0.0
 10
651.2207404922
 20
352.7950620873
 30
0.0
 10
654.2877364776
 20
354.1327129143
 30
0.0
  0
LINE
  5
329
100
AcDbEntity
  8
7_ALL_FEATURES
100
AcDbLine
 62
7
  6
CONTINUOUS
 10
655.9311297635
 20
354.8588367549
 11
656.114695976
 21
354.9411369804
  0
SPLINE
  5
32A
100
AcDbEntity
  8
7_ALL_FEATURES
100
AcDbSpline
 62
7
  6
CONTINUOUS
 70
0
 71
3
 72
18
 73
14
 74
0
 42
0.0000001
 43
0.0000001
 44
0.0000000001
 40
0.0
 40
0.0
 40
0.0
 40
0.0
 40
0.1971827541
 40
0.3765215007
 40
0.5355540774
 40
0.672348076
 40
0.7857139682
 40
0.8335867614
 40
0.8757596633
 40
0.9126031027
 40
0.9447841947
 40
0.9733848035
 40
1.0
 40
1.0
 40
1.0
 40
1.0
 10
656.114695976
 20
354.9411369804
 30
0.0
 10
658.1181005611
 20
355.8406864316
 30
0.0
 10
661.913150982
 20
357.6279124988
 30
0.0
 10
667.1933853045
 20
360.4067069402
 30
0.0
 10
671.7386527043
 20
363.1244140305
 30
0.0
 10
675.4777142278
 20
365.7366784603
 30
0.0
 10
678.0096347743
 20
367.8985393751
 30
0.0
 10
679.5487668491
 20
369.5645805088
 30
0.0
 10
680.4036263282
 20
370.6935133939
 30
0.0
 10
681.0228605468
 20
371.7708956246
 30
0.0
 10
681.4027751653
 20
372.7968026695
 30
0.0
 10
681.535467009
 20
373.7705510759
 30
0.0
 10
681.4494371011
 20
374.3894845232
 30
0.0
 10
681.3654544978
 20
374.6737612367
 30
0.0
  0
SPLINE
  5
32B
100
AcDbEntity
  8
3_ALL_AXES
100
AcDbSpline
 62
3
  6
CONTINUOUS
 70
0
 71
3
 72
24
 73
20
 74
0
 42
0.0000001
 43
0.0000001
 44
0.0000000001
 40
0.0
 40
0.0
 40
0.0
 40
0.0
 40
0.062600221
 40
0.129872213
 40
0.200956158
 40
0.2748153881
 40
0.3502997457
 40
0.4261946709
 40
0.5012700986
 40
0.5743274295
 40
0.6442484492
 40
0.7100486261
 40
0.7709393642
 40
0.8264061969
 40
0.8763128778
 40
0.9210393835
 40
0.9616366372
 40
0.9809705971
 40
1.0
 40
1.0
 40
1.0
 40
1.0
 10
585.5616088632
 20
84.3798039194
 30
0.0
 10
587.5511360929
 20
83.3850403045
 30
0.0
 10
591.8063053827
 20
81.571426821
 30
0.0
 10
598.6290408369
 20
79.4334652864
 30
0.0
 10
606.0028719672
 20
77.8141073725
 30
0.0
 10
613.7702362211
 20
76.748531843
 30
0.0
 10
621.7659655324
 20
76.2594531187
 30
0.0
 10
629.8191184663
 20
76.3575096862
 30
0.0
 10
637.7575347598
 20
77.0405572175
 30
0.0
 10
645.4116954437
 20
78.2938568766
 30
0.0
 10
652.6187375067
 20
80.0905126921
 30
0.0
 10
659.2263355635
 20
82.392384598
 30
0.0
 10
665.0963417111
 20
85.1518918697
 30
0.0
 10
670.1078761304
 20
88.3141263413
 30
0.0
 10
674.1581703193
 20
91.8228418232
 30
0.0
 10
677.1592630411
 20
95.6187990343
 30
0.0
 10
678.7374943075
 20
99.0373824469
 30
0.0
 10
679.3510591218
 20
101.7837532687
 30
0.0
 10
679.4524228167
 20
103.1490730633
 30
0.0
 10
679.4524229962
 20
103.825240402
 30
0.0
  0
SPLINE
  5
32C
100
AcDbEntity
  8
7_ALL_FEATURES
100
AcDbSpline
 62
3
  6
CONTINUOUS
 70
0
 71
3
 72
9
 73
5
 74
0
 42
0.0000001
 43
0.0000001
 44
0.0000000001
 40
0.0
 40
0.0
 40
0.0
 40
0.0
 40
0.2464284565
 40
1.0
 40
1.0
 40
1.0
 40
1.0
 10
632.2370201711
 20
113.9903453378
 30
0.0
 10
632.2151663617
 20
114.0952380749
 30
0.0
 10
632.1162956967
 20
114.5187277817
 30
0.0
 10
631.9771092798
 20
114.9326071058
 30
0.0
 10
631.852776327
 20
115.23574697
 30
0.0
  0
SPLINE
  5
32D
100
AcDbEntity
  8
7_ALL_FEATURES
100
AcDbSpline
 62
3
  6
CONTINUOUS
 70
0
 71
3
 72
13
 73
9
 74
0
 42
0.0000001
 43
0.0000001
 44
0.0000000001
 40
0.0
 40
0.0
 40
0.0
 40
0.0
 40
0.1021479786
 40
0.2071672198
 40
0.3175957031
 40
0.4354389357
 40
0.6979177459
 40
1.0
 40
1.0
 40
1.0
 40
1.0
 10
569.4524774986
 20
103.8252403941
 30
0.0
 10
569.4524756379
 20
102.9224376895
 30
0.0
 10
569.6354013084
 20
101.0866521985
 30
0.0
 10
570.4486292308
 20
98.3840606452
 30
0.0
 10
571.7873377578
 20
95.7444189507
 30
0.0
 10
574.3391371653
 20
92.2186657115
 30
0.0
 10
578.8599118707
 20
88.1322449003
 30
0.0
 10
583.1736145886
 20
85.5738010567
 30
0.0
 10
585.5616088632
 20
84.3798039194
 30
0.0
  0
SPLINE
  5
32E
100
AcDbEntity
  8
3_ALL_AXES
100
AcDbSpline
 62
3
  6
CONTINUOUS
 70
0
 71
3
 72
24
 73
20
 74
0
 42
0.0000001
 43
0.0000001
 44
0.0000000001
 40
0.0
 40
0.0
 40
0.0
 40
0.0
 40
0.062600221
 40
0.129872213
 40
0.200956158
 40
0.2748153881
 40
0.3502997457
 40
0.4261946709
 40
0.5012700986
 40
0.5743274295
 40
0.6442484492
 40
0.7100486261
 40
0.7709393642
 40
0.8264061969
 40
0.8763128778
 40
0.9210393835
 40
0.9616366372
 40
0.9809705971
 40
1.0
 40
1.0
 40
1.0
 40
1.0
 10
585.5616088632
 20
80.9157023042
 30
0.0
 10
587.5511360929
 20
79.9209386894
 30
0.0
 10
591.8063053827
 20
78.1073252059
 30
0.0
 10
598.6290408369
 20
75.9693636713
 30
0.0
 10
606.0028719672
 20
74.3500057573
 30
0.0
 10
613.7702362211
 20
73.2844302279
 30
0.0
 10
621.7659655324
 20
72.7953515036
 30
0.0
 10
629.8191184663
 20
72.893408071
 30
0.0
 10
637.7575347598
 20
73.5764556024
 30
0.0
 10
645.4116954437
 20
74.8297552614
 30
0.0
 10
652.6187375067
 20
76.626411077
 30
0.0
 10
659.2263355635
 20
78.9282829829
 30
0.0
 10
665.0963417111
 20
81.6877902546
 30
0.0
 10
670.1078761304
 20
84.8500247262
 30
0.0
 10
674.1581703193
 20
88.358740208
 30
0.0
 10
677.1592630411
 20
92.1546974192
 30
0.0
 10
678.7374943075
 20
95.5732808317
 30
0.0
 10
679.3510591218
 20
98.3196516536
 30
0.0
 10
679.4524228167
 20
99.6849714482
 30
0.0
 10
679.4524229962
 20
100.3611387868
 30
0.0
  0
SPLINE
  5
32F
100
AcDbEntity
  8
3_ALL_AXES
100
AcDbSpline
 62
3
  6
CONTINUOUS
 70
0
 71
3
 72
13
 73
9
 74
0
 42
0.0000001
 43
0.0000001
 44
0.0000000001
 40
0.0
 40
0.0
 40
0.0
 40
0.0
 40
0.1021494583
 40
0.2071677797
 40
0.3175968944
 40
0.4354412611
 40
0.6979152176
 40
1.0
 40
1.0
 40
1.0
 40
1.0
 10
569.4525406607
 20
100.3611387869
 30
0.0
 10
569.4525404211
 20
99.4583233657
 30
0.0
 10
569.6353426749
 20
97.622522302
 30
0.0
 10
570.4486241796
 20
94.9199231418
 30
0.0
 10
571.7873933806
 20
92.2803103294
 30
0.0
 10
574.3391809334
 20
88.7545883563
 30
0.0
 10
578.859895044
 20
84.6681223393
 30
0.0
 10
583.173595557
 20
82.1097089574
 30
0.0
 10
585.5616088632
 20
80.9157023042
 30
0.0
  0
ENDSEC
  0
SECTION
  2
OBJECTS
  0
DICTIONARY
  5
330
100
AcDbDictionary
  3
ACAD_GROUP
350
331
  3
ACAD_MLINESTYLE
350
332
  0
DICTIONARY
  5
331
102
{ACAD_REACTORS
330
330
102
}
100
AcDbDictionary
  0
DICTIONARY
  5
332
102
{ACAD_REACTORS
330
330
102
}
100
AcDbDictionary
  3
STANDARD
350
333
  0
MLINESTYLE
  5
333
102
{ACAD_REACTORS
330
332
102
}
100
AcDbMlineStyle
  2
STANDARD
 70
0
  3

 62
256
 51
90.0
 52
90.0
 71
2
 49
0.5
 62
256
  6
BYLAYER
 49
-0.5
 62
256
  6
BYLAYER
  0
ENDSEC
  0
EOF
