999
DXF file: 3h7_c_096.dxf
999
Pro/ENGINEER 2011490 by Parametric Technology Corporation
  0
SECTION
  2
HEADER
  9
$ACADVER
  1
AC1021
  9
$DWGCODEPAGE
  3
ANSI_1252
  9
$EXTMAX
 10
594.0
 20
841.0
 30
0.0
  9
$EXTMIN
 10
0.0
 20
0.0
 30
0.0
  9
$LIMMIN
 10
0.0
 20
0.0
  9
$LIMMAX
 10
594.0
 20
841.0
  9
$VIEWCTR
 10
297.0
 20
420.5
  9
$VIEWSIZE
 40
841.0
  9
$CLAYER
  8
0
  9
$LTSCALE
 40
54.8207407407
  9
$CELTYPE
  6
BYLAYER
  9
$DIMSCALE
 40
1.0
  9
$DIMASZ
 40
2.5
  9
$DIMEXO
 40
6.2296296296
  9
$DIMDLI
 40
37.8761481481
  9
$DIMEXE
 40
17.9413333333
  9
$DIMCEN
 40
8.9706666667
  9
$DIMLFAC
 40
1.0
  9
$DIMBLK
  1
_CLOSED
  9
$DIMTXT
 40
3.0
  9
$DIMTOL
 70
1
  9
$DIMLIM
 70
0
  9
$DIMTFAC
 40
1.0
  9
$DIMTP
 40
0.01
  9
$DIMTM
 40
0.01
  9
$PDMODE
 70
3
  9
$PDSIZE
 40
0.3125
  9
$HANDSEED
  5
473
  9
$TILEMODE
 70
1
  9
$MEASUREMENT
 70
1
  9
$INSUNITS
 70
4
  0
ENDSEC
  0
SECTION
  2
CLASSES
  0
CLASS
  1
ACDBDICTIONARYWDFLT
  2
AcDbDictionaryWithDefault
  3
AutoCAD 2000
 90
0
 91
1
280
0
281
0
  0
CLASS
  1
ACDBPLACEHOLDER
  2
AcDbPlaceHolder
  3
AutoCAD 2000
 90
0
 91
1
280
0
281
0
  0
CLASS
  1
LAYOUT
  2
AcDbLayout
  3
AutoCAD 2000
 90
0
 91
0
280
0
281
0
  0
CLASS
  1
TABLESTYLE
  2
AcDbTableStyle
  3
ObjectDBX Classes
 90
2047
 91
1
280
0
281
0
  0
CLASS
  1
ACAD_TABLE
  2
AcDbTable
  3
ObjectDBX Classes
 90
1025
 91
1
280
0
281
1
  0
ENDSEC
  0
SECTION
  2
TABLES
  0
TABLE
  2
VPORT
  5
8
100
AcDbSymbolTable
 70
2
  0
VPORT
  5
1F4
100
AcDbSymbolTableRecord
100
AcDbViewportTableRecord
  2
*ACTIVE
 70
0
 10
0.0
 20
0.0
 11
1.0
 21
1.0
 12
297.0
 22
420.5
 13
0.0
 23
0.0
 14
1.0
 24
1.0
 15
0.0
 25
0.0
 16
0.0
 26
0.0
 36
1.0
 17
0.0
 27
0.0
 37
0.0
 40
841.0
 41
0.7063020214
 42
50.0
 43
0.0
 44
0.0
 50
0.0
 51
0.0
 71
0
 72
100
 73
1
 74
1
 75
0
 76
0
 77
0
 78
0
  0
ENDTAB
  0
TABLE
  2
LTYPE
  5
5
100
AcDbSymbolTable
 70
6
  0
LTYPE
  5
14
100
AcDbSymbolTableRecord
100
AcDbLinetypeTableRecord
  2
BYBLOCK
 70
0
  3

 72
65
 73
0
 40
0.0
  0
LTYPE
  5
15
100
AcDbSymbolTableRecord
100
AcDbLinetypeTableRecord
  2
BYLAYER
 70
0
  3

 72
65
 73
0
 40
0.0
  0
LTYPE
  5
16
100
AcDbSymbolTableRecord
100
AcDbLinetypeTableRecord
  2
CONTINUOUS
 70
64
  3
Solid line
 72
65
 73
0
 40
0.0
  0
LTYPE
  5
1F5
100
AcDbSymbolTableRecord
100
AcDbLinetypeTableRecord
  2
CENTER
 70
64
  3
____ _ ____ _ ____ _ ____ _ ____ _ ____ _ ____
 72
65
 73
4
 40
0.6
 49
0.375
 74
0
 49
-0.075
 74
0
 49
0.075
 74
0
 49
-0.075
 74
0
  0
LTYPE
  5
1F6
100
AcDbSymbolTableRecord
100
AcDbLinetypeTableRecord
  2
HIDDEN
 70
64
  3
- - - - - - - - - - - - - - - - - - - -
 72
65
 73
2
 40
0.2
 49
0.1
 74
0
 49
-0.1
 74
0
  0
LTYPE
  5
1F7
100
AcDbSymbolTableRecord
100
AcDbLinetypeTableRecord
  2
PHANTOM
 70
64
  3
_____ _ _ _____ _ _ _____ _ _ _____
 72
65
 73
6
 40
0.8
 49
0.45
 74
0
 49
-0.05
 74
0
 49
0.1
 74
0
 49
-0.05
 74
0
 49
0.1
 74
0
 49
-0.05
 74
0
  0
LTYPE
  5
1F8
100
AcDbSymbolTableRecord
100
AcDbLinetypeTableRecord
  2
DOT
 70
64
  3
. . . . . . . . . . . . . . . . . . . .
 72
65
 73
2
 40
0.2
 49
0.1
 74
0
 49
-0.1
 74
0
  0
LTYPE
  5
1F9
100
AcDbSymbolTableRecord
100
AcDbLinetypeTableRecord
  2
DASHED
 70
64
  3
- - - - - - - - - - - - - - - - - - - -
 72
65
 73
2
 40
0.2
 49
0.1
 74
0
 49
-0.1
 74
0
  0
ENDTAB
  0
TABLE
  2
LAYER
  5
2
100
AcDbSymbolTable
 70
36
  0
LAYER
  5
10
100
AcDbSymbolTableRecord
100
AcDbLayerTableRecord
  2
0
 70
0
 62
7
  6
CONTINUOUS
370
-3
390
F
  0
LAYER
  5
1FA
100
AcDbSymbolTableRecord
100
AcDbLayerTableRecord
  2
DEFAULT_1
 70
0
 62
7
  6
CENTER
370
-3
390
F
  0
LAYER
  5
1FB
100
AcDbSymbolTableRecord
100
AcDbLayerTableRecord
  2
DEFAULT_2
 70
0
 62
8
  6
HIDDEN
370
-3
390
F
  0
LAYER
  5
1FC
100
AcDbSymbolTableRecord
100
AcDbLayerTableRecord
  2
DEFAULT_3
 70
0
 62
7
  6
PHANTOM
370
-3
390
F
  0
LAYER
  5
1FD
100
AcDbSymbolTableRecord
100
AcDbLayerTableRecord
  2
01_ALL_DTM_PLN
 70
0
 62
7
  6
CONTINUOUS
370
-3
390
F
  0
LAYER
  5
1FE
100
AcDbSymbolTableRecord
100
AcDbLayerTableRecord
  2
01__ASM_ALL_DTM_PLN
 70
0
 62
7
  6
CONTINUOUS
370
-3
390
F
  0
LAYER
  5
1FF
100
AcDbSymbolTableRecord
100
AcDbLayerTableRecord
  2
01__ASM_DEF_DTM_PLN
 70
0
 62
7
  6
CONTINUOUS
370
-3
390
F
  0
LAYER
  5
200
100
AcDbSymbolTableRecord
100
AcDbLayerTableRecord
  2
01___PRT_ALL_DTM_PLN
 70
0
 62
7
  6
CONTINUOUS
370
-3
390
F
  0
LAYER
  5
201
100
AcDbSymbolTableRecord
100
AcDbLayerTableRecord
  2
01___PRT_DEF_DTM_PLN
 70
0
 62
7
  6
CONTINUOUS
370
-3
390
F
  0
LAYER
  5
202
100
AcDbSymbolTableRecord
100
AcDbLayerTableRecord
  2
02_ALL_AXES
 70
0
 62
7
  6
CONTINUOUS
370
-3
390
F
  0
LAYER
  5
203
100
AcDbSymbolTableRecord
100
AcDbLayerTableRecord
  2
02__ASM_ALL_AXES
 70
0
 62
7
  6
CONTINUOUS
370
-3
390
F
  0
LAYER
  5
204
100
AcDbSymbolTableRecord
100
AcDbLayerTableRecord
  2
02___PRT_ALL_AXES
 70
0
 62
7
  6
CONTINUOUS
370
-3
390
F
  0
LAYER
  5
205
100
AcDbSymbolTableRecord
100
AcDbLayerTableRecord
  2
03_ALL_CURVES
 70
0
 62
7
  6
CONTINUOUS
370
-3
390
F
  0
LAYER
  5
206
100
AcDbSymbolTableRecord
100
AcDbLayerTableRecord
  2
03__ASM_ALL_CURVES
 70
0
 62
7
  6
CONTINUOUS
370
-3
390
F
  0
LAYER
  5
207
100
AcDbSymbolTableRecord
100
AcDbLayerTableRecord
  2
03___PRT_ALL_CURVES
 70
0
 62
7
  6
CONTINUOUS
370
-3
390
F
  0
LAYER
  5
208
100
AcDbSymbolTableRecord
100
AcDbLayerTableRecord
  2
04_ALL_DTM_PNT
 70
0
 62
7
  6
CONTINUOUS
370
-3
390
F
  0
LAYER
  5
209
100
AcDbSymbolTableRecord
100
AcDbLayerTableRecord
  2
04__ASM_ALL_DTM_PNT
 70
0
 62
7
  6
CONTINUOUS
370
-3
390
F
  0
LAYER
  5
20A
100
AcDbSymbolTableRecord
100
AcDbLayerTableRecord
  2
04___PRT_ALL_DTM_PNT
 70
0
 62
7
  6
CONTINUOUS
370
-3
390
F
  0
LAYER
  5
20B
100
AcDbSymbolTableRecord
100
AcDbLayerTableRecord
  2
05_ALL_DTM_CSYS
 70
0
 62
7
  6
CONTINUOUS
370
-3
390
F
  0
LAYER
  5
20C
100
AcDbSymbolTableRecord
100
AcDbLayerTableRecord
  2
05__ASM_ALL_DTM_CSYS
 70
0
 62
7
  6
CONTINUOUS
370
-3
390
F
  0
LAYER
  5
20D
100
AcDbSymbolTableRecord
100
AcDbLayerTableRecord
  2
05__ASM_DEF_DTM_CSYS
 70
0
 62
7
  6
CONTINUOUS
370
-3
390
F
  0
LAYER
  5
20E
100
AcDbSymbolTableRecord
100
AcDbLayerTableRecord
  2
05___PRT_ALL_DTM_CSYS
 70
0
 62
7
  6
CONTINUOUS
370
-3
390
F
  0
LAYER
  5
20F
100
AcDbSymbolTableRecord
100
AcDbLayerTableRecord
  2
05___PRT_DEF_DTM_CSYS
 70
0
 62
7
  6
CONTINUOUS
370
-3
390
F
  0
LAYER
  5
210
100
AcDbSymbolTableRecord
100
AcDbLayerTableRecord
  2
06_ALL_SURFS
 70
0
 62
7
  6
CONTINUOUS
370
-3
390
F
  0
LAYER
  5
211
100
AcDbSymbolTableRecord
100
AcDbLayerTableRecord
  2
06__ASM_ALL_SURFS
 70
0
 62
7
  6
CONTINUOUS
370
-3
390
F
  0
LAYER
  5
212
100
AcDbSymbolTableRecord
100
AcDbLayerTableRecord
  2
06___PRT_ALL_SURFS
 70
0
 62
7
  6
CONTINUOUS
370
-3
390
F
  0
LAYER
  5
213
100
AcDbSymbolTableRecord
100
AcDbLayerTableRecord
  2
07__ASM_ALL_SKELETONS
 70
0
 62
7
  6
CONTINUOUS
370
-3
390
F
  0
LAYER
  5
214
100
AcDbSymbolTableRecord
100
AcDbLayerTableRecord
  2
1_ALL_PLANES
 70
0
 62
7
  6
CONTINUOUS
370
-3
390
F
  0
LAYER
  5
215
100
AcDbSymbolTableRecord
100
AcDbLayerTableRecord
  2
3_ALL_AXES
 70
0
 62
7
  6
CONTINUOUS
370
-3
390
F
  0
LAYER
  5
216
100
AcDbSymbolTableRecord
100
AcDbLayerTableRecord
  2
4_ALL_POINTS
 70
0
 62
7
  6
CONTINUOUS
370
-3
390
F
  0
LAYER
  5
217
100
AcDbSymbolTableRecord
100
AcDbLayerTableRecord
  2
5_ALL_CURVES
 70
0
 62
7
  6
CONTINUOUS
370
-3
390
F
  0
LAYER
  5
218
100
AcDbSymbolTableRecord
100
AcDbLayerTableRecord
  2
6_ALL_SURFS
 70
0
 62
7
  6
CONTINUOUS
370
-3
390
F
  0
LAYER
  5
219
100
AcDbSymbolTableRecord
100
AcDbLayerTableRecord
  2
7_ALL_FEATURES
 70
0
 62
7
  6
CONTINUOUS
370
-3
390
F
  0
LAYER
  5
21A
100
AcDbSymbolTableRecord
100
AcDbLayerTableRecord
  2
8_ALL_NOTES_BALLOONS_SYMBOLS_GT
 70
0
 62
7
  6
CONTINUOUS
370
-3
390
F
  0
LAYER
  5
21B
100
AcDbSymbolTableRecord
100
AcDbLayerTableRecord
  2
XSEC_DATUMS
 70
0
 62
7
  6
CONTINUOUS
370
-3
390
F
  0
ENDTAB
  0
TABLE
  2
STYLE
  5
3
100
AcDbSymbolTable
 70
1
  0
STYLE
  5
11
100
AcDbSymbolTableRecord
100
AcDbTextStyleTableRecord
  2
STANDARD
 70
0
 40
0.0
 41
0.85
 50
0.0
 71
0
 42
0.2
  3
txt
  4

  0
STYLE
  5
21C
100
AcDbSymbolTableRecord
100
AcDbTextStyleTableRecord
  2
TEXTSTYLE_1
 70
0
 40
0.0
 41
0.8
 50
0.0
 71
0
 42
0.2
  3
gdt
  4

  0
ENDTAB
  0
TABLE
  2
VIEW
  5
6
100
AcDbSymbolTable
 70
0
  0
ENDTAB
  0
TABLE
  2
UCS
  5
7
100
AcDbSymbolTable
 70
0
  0
ENDTAB
  0
TABLE
  2
APPID
  5
9
100
AcDbSymbolTable
 70
1
  0
APPID
  5
21D
100
AcDbSymbolTableRecord
100
AcDbRegAppTableRecord
  2
ACAD
 70
0
  0
ENDTAB
  0
TABLE
  2
BLOCK_RECORD
  5
1
100
AcDbSymbolTable
 70
0
  0
BLOCK_RECORD
  5
21E
100
AcDbSymbolTableRecord
100
AcDbBlockTableRecord
  2
*Model_Space
  0
BLOCK_RECORD
  5
21F
100
AcDbSymbolTableRecord
100
AcDbBlockTableRecord
  2
*Paper_Space
  0
BLOCK_RECORD
  5
220
100
AcDbSymbolTableRecord
100
AcDbBlockTableRecord
  2
_CLOSED
  0
BLOCK_RECORD
  5
221
100
AcDbSymbolTableRecord
100
AcDbBlockTableRecord
  2
*D0
  0
BLOCK_RECORD
  5
222
100
AcDbSymbolTableRecord
100
AcDbBlockTableRecord
  2
*D1
  0
BLOCK_RECORD
  5
223
100
AcDbSymbolTableRecord
100
AcDbBlockTableRecord
  2
*D2
  0
BLOCK_RECORD
  5
224
100
AcDbSymbolTableRecord
100
AcDbBlockTableRecord
  2
*D3
  0
BLOCK_RECORD
  5
225
100
AcDbSymbolTableRecord
100
AcDbBlockTableRecord
  2
*D4
  0
BLOCK_RECORD
  5
226
100
AcDbSymbolTableRecord
100
AcDbBlockTableRecord
  2
*D5
  0
BLOCK_RECORD
  5
227
100
AcDbSymbolTableRecord
100
AcDbBlockTableRecord
  2
LOGO2_BL0
  0
BLOCK_RECORD
  5
228
100
AcDbSymbolTableRecord
100
AcDbBlockTableRecord
  2
*T1
  0
ENDTAB
  0
TABLE
  2
DIMSTYLE
  5
A
100
AcDbSymbolTable
 70
1
100
AcDbDimStyleTable
 71
0
  0
DIMSTYLE
105
229
100
AcDbSymbolTableRecord
100
AcDbDimStyleTableRecord
  2
STANDARD
 70
0
  3

  4

 40
1.0
 41
2.5
 42
0.0625
 43
0.38
 44
0.18
 45
0.0
 46
0.0
 47
0.01
 48
0.01
140
3.0
141
0.09
142
0.0
143
25.4
144
1.0
145
0.0
146
1.0
147
0.09
 71
1.0
 72
0.0
 73
0
 74
0
 75
0
 76
0
 77
1
 78
8
170
0
171
2
172
0
173
0
174
0
175
0
176
0
177
0
178
0
270
2
271
2
272
2
273
2
274
2
275
0
280
0
281
0
282
0
283
1
284
8
285
0
286
0
287
3
288
0
340
11
341
220
342
220
343
220
344
220
  0
DIMSTYLE
105
22A
100
AcDbSymbolTableRecord
100
AcDbDimStyleTableRecord
  2
DIMSTYLE_1
 70
0
  3

  4

 40
1.0
 41
2.5
 42
0.0625
 43
0.38
 44
0.18
 45
0.0
 46
0.0
 47
0.3
 48
0.3
140
3.0
141
0.09
142
0.0
143
25.4
144
1.0
145
0.0
146
1.0
147
0.09
 71
0.0
 72
0.0
 73
0
 74
0
 75
0
 76
0
 77
1
 78
8
170
0
171
2
172
0
173
0
174
0
175
0
176
0
177
0
178
0
270
2
271
2
272
2
273
2
274
2
275
0
280
0
281
0
282
0
283
1
284
8
285
0
286
0
287
3
288
0
340
11
341
220
342
220
343
220
344
220
  0
DIMSTYLE
105
22B
100
AcDbSymbolTableRecord
100
AcDbDimStyleTableRecord
  2
DIMSTYLE_2
 70
0
  3

  4

 40
1.0
 41
2.5
 42
0.0625
 43
0.38
 44
0.18
 45
0.0
 46
0.0
 47
0.5
 48
0.5
140
3.0
141
0.09
142
0.0
143
25.4
144
1.0
145
0.0
146
1.0
147
0.09
 71
0.0
 72
0.0
 73
0
 74
0
 75
0
 76
0
 77
1
 78
8
170
0
171
2
172
0
173
0
174
0
175
0
176
0
177
0
178
0
270
2
271
2
272
2
273
2
274
2
275
0
280
0
281
0
282
0
283
1
284
8
285
0
286
0
287
3
288
0
340
11
341
220
342
220
343
220
344
220
  0
DIMSTYLE
105
22C
100
AcDbSymbolTableRecord
100
AcDbDimStyleTableRecord
  2
DIMSTYLE_3
 70
0
  3

  4

 40
1.0
 41
2.5
 42
0.0625
 43
0.38
 44
0.18
 45
0.0
 46
0.0
 47
0.8
 48
0.8
140
3.0
141
0.09
142
0.0
143
25.4
144
1.0
145
0.0
146
1.0
147
0.09
 71
0.0
 72
0.0
 73
0
 74
0
 75
0
 76
0
 77
1
 78
8
170
0
171
2
172
0
173
0
174
0
175
0
176
0
177
0
178
0
270
2
271
2
272
2
273
2
274
2
275
0
280
0
281
0
282
0
283
1
284
8
285
0
286
0
287
3
288
0
340
11
341
220
342
220
343
220
344
220
  0
DIMSTYLE
105
22D
100
AcDbSymbolTableRecord
100
AcDbDimStyleTableRecord
  2
DIMSTYLE_4
 70
0
  3

  4

 40
1.0
 41
2.5
 42
0.0625
 43
0.38
 44
0.18
 45
0.0
 46
0.0
 47
0.3
 48
0.3
140
3.0
141
0.09
142
0.0
143
25.4
144
1.0
145
0.0
146
1.0
147
0.09
 71
0.0
 72
0.0
 73
0
 74
0
 75
0
 76
0
 77
1
 78
8
170
0
171
2
172
0
173
0
174
0
175
0
176
0
177
0
178
0
270
2
271
0
272
0
273
2
274
2
275
0
280
0
281
0
282
0
283
1
284
8
285
0
286
0
287
3
288
0
340
11
341
220
342
220
343
220
344
220
  0
ENDTAB
  0
ENDSEC
  0
SECTION
  2
BLOCKS
  0
BLOCK
  5
20
100
AcDbEntity
  8
0
100
AcDbBlockBegin
  2
*Model_Space
 70
0
 10
0.0
 20
0.0
 30
0.0
  3
*Model_Space
  1

  0
ENDBLK
  5
21
100
AcDbEntity
  8
0
100
AcDbBlockEnd
  0
BLOCK
  5
1C
100
AcDbEntity
  8
0
100
AcDbBlockBegin
  2
*Paper_Space
 70
0
 10
0.0
 20
0.0
 30
0.0
  3
*Paper_Space
  1

  0
ENDBLK
  5
1D
100
AcDbEntity
  8
0
100
AcDbBlockEnd
  0
BLOCK
  5
22E
100
AcDbEntity
  8
0
100
AcDbBlockBegin
 62
2
  6
CONTINUOUS
  2
LOGO2_BL0
 70
64
 10
504.7942295328
 20
40.5676625125
  3
LOGO2_BL0
  1

  0
LINE
  5
22F
100
AcDbEntity
  8
0
100
AcDbLine
 62
7
  6
CONTINUOUS
 10
496.537154761
 20
43.7631538513
 11
495.2328138316
 21
43.7631538513
  0
LINE
  5
230
100
AcDbEntity
  8
0
100
AcDbLine
 62
7
  6
CONTINUOUS
 10
495.2328138316
 20
43.7631538513
 11
495.2328138316
 21
33.3040877915
  0
LINE
  5
231
100
AcDbEntity
  8
0
100
AcDbLine
 62
7
  6
CONTINUOUS
 10
495.2328138316
 20
33.3040877915
 11
499.7138687199
 21
33.3040877915
  0
LINE
  5
232
100
AcDbEntity
  8
0
100
AcDbLine
 62
7
  6
CONTINUOUS
 10
499.7138687199
 20
33.3040877915
 11
499.7138687199
 21
34.4969421165
  0
LINE
  5
233
100
AcDbEntity
  8
0
100
AcDbLine
 62
7
  6
CONTINUOUS
 10
499.7138687199
 20
34.4969421165
 11
496.537154761
 21
34.4969421165
  0
LINE
  5
234
100
AcDbEntity
  8
0
100
AcDbLine
 62
7
  6
CONTINUOUS
 10
496.537154761
 20
34.4969421165
 11
496.537154761
 21
43.7631538513
  0
LINE
  5
235
100
AcDbEntity
  8
0
100
AcDbLine
 62
7
  6
CONTINUOUS
 10
511.4734809773
 20
43.7631538513
 11
510.1696634592
 21
43.7631538513
  0
LINE
  5
236
100
AcDbEntity
  8
0
100
AcDbLine
 62
7
  6
CONTINUOUS
 10
510.1696634592
 20
43.7631538513
 11
510.1696634592
 21
33.3040877915
  0
LINE
  5
237
100
AcDbEntity
  8
0
100
AcDbLine
 62
7
  6
CONTINUOUS
 10
510.1696634592
 20
33.3040877915
 11
514.6508492003
 21
33.3040877915
  0
LINE
  5
238
100
AcDbEntity
  8
0
100
AcDbLine
 62
7
  6
CONTINUOUS
 10
514.6508492003
 20
33.3040877915
 11
514.6508492003
 21
34.4969421165
  0
LINE
  5
239
100
AcDbEntity
  8
0
100
AcDbLine
 62
7
  6
CONTINUOUS
 10
514.6508492003
 20
34.4969421165
 11
511.4734809773
 21
34.4969421165
  0
LINE
  5
23A
100
AcDbEntity
  8
0
100
AcDbLine
 62
7
  6
CONTINUOUS
 10
511.4734809773
 20
34.4969421165
 11
511.4734809773
 21
43.7631538513
  0
LWPOLYLINE
  5
23B
100
AcDbEntity
  8
0
100
AcDbPolyline
 62
7
  6
CONTINUOUS
 90
2
 70
0
 43
0.2
 10
493.5872087425
 20
29.9605364846
 10
493.5872087425
 20
28.1034732352
  0
LWPOLYLINE
  5
23C
100
AcDbEntity
  8
0
100
AcDbPolyline
 62
7
  6
CONTINUOUS
 90
2
 70
0
 43
0.2
 10
493.5872087425
 20
28.1034732352
 10
494.3829247529
 20
28.1034732352
  0
LWPOLYLINE
  5
23D
100
AcDbEntity
  8
0
100
AcDbPolyline
 62
7
  6
CONTINUOUS
 90
2
 70
0
 43
0.2
 10
494.3829247529
 20
28.1034732352
 10
494.3829247529
 20
28.3154548068
  0
LWPOLYLINE
  5
23E
100
AcDbEntity
  8
0
100
AcDbPolyline
 62
7
  6
CONTINUOUS
 90
2
 70
0
 43
0.2
 10
494.3829247529
 20
28.3154548068
 10
493.8188182374
 20
28.3154548068
  0
LWPOLYLINE
  5
23F
100
AcDbEntity
  8
0
100
AcDbPolyline
 62
7
  6
CONTINUOUS
 90
2
 70
0
 43
0.2
 10
493.8188182374
 20
28.3154548068
 10
493.8188182374
 20
29.9605364846
  0
LWPOLYLINE
  5
240
100
AcDbEntity
  8
0
100
AcDbPolyline
 62
7
  6
CONTINUOUS
 90
2
 70
0
 43
0.2
 10
493.8188182374
 20
29.9605364846
 10
493.5872087425
 20
29.9605364846
  0
SPLINE
  5
241
100
AcDbEntity
  8
0
100
AcDbSpline
 62
7
  6
CONTINUOUS
 70
2
 71
3
 72
35
 73
31
 74
0
 42
0.0000001
 43
0.0000001
 44
0.0000000001
 40
0.0
 40
0.0
 40
0.0
 40
0.0
 40
1.0
 40
1.0
 40
1.0
 40
2.0
 40
2.0
 40
2.0
 40
3.0
 40
3.0
 40
3.0
 40
4.0
 40
4.0
 40
4.0
 40
5.0
 40
5.0
 40
5.0
 40
6.0
 40
6.0
 40
6.0
 40
7.0
 40
7.0
 40
7.0
 40
8.0
 40
8.0
 40
8.0
 40
9.0
 40
9.0
 40
9.0
 40
10.0
 40
10.0
 40
10.0
 40
10.0
 10
495.7812180085
 20
29.2560248911
 30
0.0
 10
495.7812180085
 20
29.2560248911
 30
0.0
 10
495.7812180085
 20
28.5939096119
 30
0.0
 10
495.7812180085
 20
28.5939096119
 30
0.0
 10
495.7812180085
 20
28.2788160166
 30
0.0
 10
495.9290816973
 20
28.0642173886
 30
0.0
 10
496.2691681816
 20
28.0642173886
 30
0.0
 10
496.6087312546
 20
28.0642173886
 30
0.0
 10
496.756856649
 20
28.2788160166
 30
0.0
 10
496.756856649
 20
28.5939096119
 30
0.0
 10
496.756856649
 20
28.5939096119
 30
0.0
 10
496.756856649
 20
29.2560248911
 30
0.0
 10
496.756856649
 20
29.2560248911
 30
0.0
 10
496.756856649
 20
29.2560248911
 30
0.0
 10
496.5347994102
 20
29.2560248911
 30
0.0
 10
496.5347994102
 20
29.2560248911
 30
0.0
 10
496.5347994102
 20
29.2560248911
 30
0.0
 10
496.5347994102
 20
28.6190333537
 30
0.0
 10
496.5347994102
 20
28.6190333537
 30
0.0
 10
496.5347994102
 20
28.4332223465
 30
0.0
 10
496.4880849527
 20
28.270441436
 30
0.0
 10
496.2691681816
 20
28.270441436
 30
0.0
 10
496.0497279991
 20
28.270441436
 30
0.0
 10
496.0030135417
 20
28.4332223465
 30
0.0
 10
496.0030135417
 20
28.6190333537
 30
0.0
 10
496.0030135417
 20
28.6190333537
 30
0.0
 10
496.0030135417
 20
29.2560248911
 30
0.0
 10
496.0030135417
 20
29.2560248911
 30
0.0
 10
496.0030135417
 20
29.2560248911
 30
0.0
 10
495.7812180085
 20
29.2560248911
 30
0.0
 10
495.7812180085
 20
29.2560248911
 30
0.0
  0
SPLINE
  5
242
100
AcDbEntity
  8
0
100
AcDbSpline
 62
7
  6
CONTINUOUS
 70
2
 71
3
 72
35
 73
31
 74
0
 42
0.0000001
 43
0.0000001
 44
0.0000000001
 40
0.0
 40
0.0
 40
0.0
 40
0.0
 40
1.0
 40
1.0
 40
1.0
 40
2.0
 40
2.0
 40
2.0
 40
3.0
 40
3.0
 40
3.0
 40
4.0
 40
4.0
 40
4.0
 40
5.0
 40
5.0
 40
5.0
 40
6.0
 40
6.0
 40
6.0
 40
7.0
 40
7.0
 40
7.0
 40
8.0
 40
8.0
 40
8.0
 40
9.0
 40
9.0
 40
9.0
 40
10.0
 40
10.0
 40
10.0
 40
10.0
 10
499.1799892062
 20
29.2146753993
 30
0.0
 10
499.0915326986
 20
29.2659697055
 30
0.0
 10
498.9780833019
 20
29.2910934474
 30
0.0
 10
498.8744478669
 20
29.2910934474
 30
0.0
 10
498.5195750138
 20
29.2910934474
 30
0.0
 10
498.2441298235
 20
29.0272941583
 30
0.0
 10
498.2441298235
 20
28.6698042487
 30
0.0
 10
498.2441298235
 20
28.32487621
 30
0.0
 10
498.5225846287
 20
28.0647407999
 30
0.0
 10
498.8621477017
 20
28.0647407999
 30
0.0
 10
498.9780833019
 20
28.0647407999
 30
0.0
 10
499.0788399749
 20
28.086724074
 30
0.0
 10
499.1799892062
 20
28.1406354366
 30
0.0
 10
499.1799892062
 20
28.1406354366
 30
0.0
 10
499.1799892062
 20
28.4232775321
 30
0.0
 10
499.1799892062
 20
28.4232775321
 30
0.0
 10
499.0961125474
 20
28.3301103228
 30
0.0
 10
498.9926079652
 20
28.2709648473
 30
0.0
 10
498.8645030525
 20
28.2709648473
 30
0.0
 10
498.6307999124
 20
28.2709648473
 30
0.0
 10
498.4655327983
 20
28.443167161
 30
0.0
 10
498.4655327983
 20
28.6797490631
 30
0.0
 10
498.4655327983
 20
28.8917306347
 30
0.0
 10
498.6332861161
 20
29.0838225774
 30
0.0
 10
498.8501092421
 20
29.0838225774
 30
0.0
 10
498.9829248564
 20
29.0838225774
 30
0.0
 10
499.0915326986
 20
29.0299112147
 30
0.0
 10
499.1799892062
 20
28.9288928362
 30
0.0
 10
499.1799892062
 20
28.9288928362
 30
0.0
 10
499.1799892062
 20
29.2146753993
 30
0.0
 10
499.1799892062
 20
29.2146753993
 30
0.0
  0
SPLINE
  5
243
100
AcDbEntity
  8
0
100
AcDbSpline
 62
7
  6
CONTINUOUS
 70
2
 71
3
 72
32
 73
28
 74
0
 42
0.0000001
 43
0.0000001
 44
0.0000000001
 40
0.0
 40
0.0
 40
0.0
 40
0.0
 40
1.0
 40
1.0
 40
1.0
 40
2.0
 40
2.0
 40
2.0
 40
3.0
 40
3.0
 40
3.0
 40
4.0
 40
4.0
 40
4.0
 40
5.0
 40
5.0
 40
5.0
 40
6.0
 40
6.0
 40
6.0
 40
7.0
 40
7.0
 40
7.0
 40
8.0
 40
8.0
 40
8.0
 40
9.0
 40
9.0
 40
9.0
 40
9.0
 10
501.7118604585
 20
28.643110273
 30
0.0
 10
501.7118604585
 20
28.643110273
 30
0.0
 10
501.7118604585
 20
28.6771320067
 30
0.0
 10
501.7118604585
 20
28.6771320067
 30
0.0
 10
501.7118604585
 20
29.019442989
 30
0.0
 10
501.5390038807
 20
29.2910934474
 30
0.0
 10
501.1723542735
 20
29.2910934474
 30
0.0
 10
500.8007322591
 20
29.2910934474
 30
0.0
 10
500.6109956673
 20
29.0246771018
 30
0.0
 10
500.6109956673
 20
28.6698042487
 30
0.0
 10
500.6109956673
 20
28.3301103228
 30
0.0
 10
500.825070884
 20
28.0642173886
 30
0.0
 10
501.1771958279
 20
28.0642173886
 30
0.0
 10
501.4012158591
 20
28.0642173886
 30
0.0
 10
501.6033834691
 20
28.1798912832
 30
0.0
 10
501.7118604585
 20
28.3793109839
 30
0.0
 10
501.7118604585
 20
28.3793109839
 30
0.0
 10
501.5242175118
 20
28.4860868866
 30
0.0
 10
501.5242175118
 20
28.4860868866
 30
0.0
 10
501.4407334114
 20
28.3473828953
 30
0.0
 10
501.3495289945
 20
28.2615434441
 30
0.0
 10
501.1799437372
 20
28.2615434441
 30
0.0
 10
500.9679621656
 20
28.2615434441
 30
0.0
 10
500.8350156985
 20
28.4463076287
 30
0.0
 10
500.8326603477
 20
28.643110273
 30
0.0
 10
500.8326603477
 20
28.643110273
 30
0.0
 10
501.7118604585
 20
28.643110273
 30
0.0
 10
501.7118604585
 20
28.643110273
 30
0.0
  0
SPLINE
  5
244
100
AcDbEntity
  8
0
100
AcDbSpline
 62
7
  6
CONTINUOUS
 70
2
 71
3
 72
14
 73
10
 74
0
 42
0.0000001
 43
0.0000001
 44
0.0000000001
 40
0.0
 40
0.0
 40
0.0
 40
0.0
 40
1.0
 40
1.0
 40
1.0
 40
2.0
 40
2.0
 40
2.0
 40
3.0
 40
3.0
 40
3.0
 40
3.0
 10
500.8446988073
 20
28.8106018851
 30
0.0
 10
500.8723087527
 20
28.9754764408
 30
0.0
 10
501.0001519598
 20
29.0984780934
 30
0.0
 10
501.1723542735
 20
29.0984780934
 30
0.0
 10
501.3495289945
 20
29.0984780934
 30
0.0
 10
501.4629783911
 20
28.9828041988
 30
0.0
 10
501.4901957781
 20
28.8106018851
 30
0.0
 10
501.4901957781
 20
28.8106018851
 30
0.0
 10
500.8446988073
 20
28.8106018851
 30
0.0
 10
500.8446988073
 20
28.8106018851
 30
0.0
  0
SPLINE
  5
245
100
AcDbEntity
  8
0
100
AcDbSpline
 62
7
  6
CONTINUOUS
 70
2
 71
3
 72
20
 73
16
 74
0
 42
0.0000001
 43
0.0000001
 44
0.0000000001
 40
0.0
 40
0.0
 40
0.0
 40
0.0
 40
1.0
 40
1.0
 40
1.0
 40
2.0
 40
2.0
 40
2.0
 40
3.0
 40
3.0
 40
3.0
 40
4.0
 40
4.0
 40
4.0
 40
5.0
 40
5.0
 40
5.0
 40
5.0
 10
503.7358919087
 20
29.0199664002
 30
0.0
 10
503.7358919087
 20
29.0199664002
 30
0.0
 10
504.1470314753
 20
28.5174915639
 30
0.0
 10
504.1470314753
 20
28.5174915639
 30
0.0
 10
504.0309650222
 20
28.4018176693
 30
0.0
 10
503.8931770007
 20
28.2714882586
 30
0.0
 10
503.7212363926
 20
28.2714882586
 30
0.0
 10
503.543799966
 20
28.2714882586
 30
0.0
 10
503.3763083539
 20
28.435839403
 30
0.0
 10
503.3763083539
 20
28.6127524183
 30
0.0
 10
503.3763083539
 20
28.7907122562
 30
0.0
 10
503.5860654275
 20
28.9168543765
 30
0.0
 10
503.7136469289
 20
29.0047874729
 30
0.0
 10
503.7136469289
 20
29.0047874729
 30
0.0
 10
503.7358919087
 20
29.0199664002
 30
0.0
 10
503.7358919087
 20
29.0199664002
 30
0.0
  0
SPLINE
  5
246
100
AcDbEntity
  8
0
100
AcDbSpline
 62
7
  6
CONTINUOUS
 70
2
 71
3
 72
23
 73
19
 74
0
 42
0.0000001
 43
0.0000001
 44
0.0000000001
 40
0.0
 40
0.0
 40
0.0
 40
0.0
 40
1.0
 40
1.0
 40
1.0
 40
2.0
 40
2.0
 40
2.0
 40
3.0
 40
3.0
 40
3.0
 40
4.0
 40
4.0
 40
4.0
 40
5.0
 40
5.0
 40
5.0
 40
6.0
 40
6.0
 40
6.0
 40
6.0
 10
503.7852234226
 20
29.3109830763
 30
0.0
 10
503.7852234226
 20
29.3109830763
 30
0.0
 10
503.7235917434
 20
29.3894947695
 30
0.0
 10
503.7235917434
 20
29.3894947695
 30
0.0
 10
503.6696803808
 20
29.4580616482
 30
0.0
 10
503.612890256
 20
29.5271519382
 30
0.0
 10
503.612890256
 20
29.6208425587
 30
0.0
 10
503.612890256
 20
29.7396569211
 30
0.0
 10
503.7088053745
 20
29.8171217917
 30
0.0
 10
503.8197685676
 20
29.8171217917
 30
0.0
 10
503.9430319259
 20
29.8171217917
 30
0.0
 10
504.0363299879
 20
29.7459378565
 30
0.0
 10
504.0363299879
 20
29.6156084458
 30
0.0
 10
504.0363299879
 20
29.4805683336
 30
0.0
 10
503.9082250752
 20
29.4041502855
 30
0.0
 10
503.8146653075
 20
29.330349294
 30
0.0
 10
503.8146653075
 20
29.330349294
 30
0.0
 10
503.7852234226
 20
29.3109830763
 30
0.0
 10
503.7852234226
 20
29.3109830763
 30
0.0
  0
SPLINE
  5
247
100
AcDbEntity
  8
0
100
AcDbSpline
 62
7
  6
CONTINUOUS
 70
2
 71
3
 72
50
 73
46
 74
0
 42
0.0000001
 43
0.0000001
 44
0.0000000001
 40
0.0
 40
0.0
 40
0.0
 40
0.0
 40
1.0
 40
1.0
 40
1.0
 40
2.0
 40
2.0
 40
2.0
 40
3.0
 40
3.0
 40
3.0
 40
4.0
 40
4.0
 40
4.0
 40
5.0
 40
5.0
 40
5.0
 40
6.0
 40
6.0
 40
6.0
 40
7.0
 40
7.0
 40
7.0
 40
8.0
 40
8.0
 40
8.0
 40
9.0
 40
9.0
 40
9.0
 40
10.0
 40
10.0
 40
10.0
 40
11.0
 40
11.0
 40
11.0
 40
12.0
 40
12.0
 40
12.0
 40
13.0
 40
13.0
 40
13.0
 40
14.0
 40
14.0
 40
14.0
 40
15.0
 40
15.0
 40
15.0
 40
15.0
 10
504.4873796652
 20
28.1039966465
 30
0.0
 10
504.4873796652
 20
28.1039966465
 30
0.0
 10
504.77276967
 20
28.1039966465
 30
0.0
 10
504.77276967
 20
28.1039966465
 30
0.0
 10
504.77276967
 20
28.1039966465
 30
0.0
 10
504.4404035022
 20
28.5148745075
 30
0.0
 10
504.4404035022
 20
28.5148745075
 30
0.0
 10
504.4404035022
 20
28.5148745075
 30
0.0
 10
504.666909737
 20
28.7807674417
 30
0.0
 10
504.666909737
 20
28.7807674417
 30
0.0
 10
504.666909737
 20
28.7807674417
 30
0.0
 10
504.5186534897
 20
28.9336035378
 30
0.0
 10
504.5186534897
 20
28.9336035378
 30
0.0
 10
504.5186534897
 20
28.9336035378
 30
0.0
 10
504.3027463334
 20
28.6823661196
 30
0.0
 10
504.3027463334
 20
28.6823661196
 30
0.0
 10
504.3027463334
 20
28.6823661196
 30
0.0
 10
503.9156836861
 20
29.1502958109
 30
0.0
 10
503.9156836861
 20
29.1502958109
 30
0.0
 10
504.0711368386
 20
29.2643994717
 30
0.0
 10
504.2534148196
 20
29.4041502855
 30
0.0
 10
504.2534148196
 20
29.6135148007
 30
0.0
 10
504.2534148196
 20
29.8574244608
 30
0.0
 10
504.0513780624
 20
30.0008391537
 30
0.0
 10
503.8248718276
 20
30.0008391537
 30
0.0
 10
503.5807004618
 20
30.0008391537
 30
0.0
 10
503.3963288357
 20
29.8500967028
 30
0.0
 10
503.3963288357
 20
29.5936251718
 30
0.0
 10
503.3963288357
 20
29.4360783741
 30
0.0
 10
503.4949918634
 20
29.2984212054
 30
0.0
 10
503.6003283851
 20
29.1874580124
 30
0.0
 10
503.6003283851
 20
29.1874580124
 30
0.0
 10
503.4847853433
 20
29.1037122063
 30
0.0
 10
503.4847853433
 20
29.1037122063
 30
0.0
 10
503.3070872111
 20
28.9754764408
 30
0.0
 10
503.1597469336
 20
28.8477640865
 30
0.0
 10
503.1597469336
 20
28.6106587731
 30
0.0
 10
503.1597469336
 20
28.290331065
 30
0.0
 10
503.4183121098
 20
28.0642173886
 30
0.0
 10
503.7286950035
 20
28.0642173886
 30
0.0
 10
503.9476117746
 20
28.0642173886
 30
0.0
 10
504.1448069773
 20
28.1893126864
 30
0.0
 10
504.2850812025
 20
28.3552340647
 30
0.0
 10
504.2850812025
 20
28.3552340647
 30
0.0
 10
504.4873796652
 20
28.1039966465
 30
0.0
 10
504.4873796652
 20
28.1039966465
 30
0.0
  0
LWPOLYLINE
  5
248
100
AcDbEntity
  8
0
100
AcDbPolyline
 62
7
  6
CONTINUOUS
 90
2
 70
0
 43
0.2
 10
506.422823755
 20
29.9605364846
 10
506.1914759657
 20
29.9605364846
  0
LWPOLYLINE
  5
249
100
AcDbEntity
  8
0
100
AcDbPolyline
 62
7
  6
CONTINUOUS
 90
2
 70
0
 43
0.2
 10
506.1914759657
 20
29.9605364846
 10
506.1914759657
 20
28.1034732352
  0
LWPOLYLINE
  5
24A
100
AcDbEntity
  8
0
100
AcDbPolyline
 62
7
  6
CONTINUOUS
 90
2
 70
0
 43
0.2
 10
506.1914759657
 20
28.1034732352
 10
506.9867994176
 20
28.1034732352
  0
LWPOLYLINE
  5
24B
100
AcDbEntity
  8
0
100
AcDbPolyline
 62
7
  6
CONTINUOUS
 90
2
 70
0
 43
0.2
 10
506.9867994176
 20
28.1034732352
 10
506.9867994176
 20
28.3154548068
  0
LWPOLYLINE
  5
24C
100
AcDbEntity
  8
0
100
AcDbPolyline
 62
7
  6
CONTINUOUS
 90
2
 70
0
 43
0.2
 10
506.9867994176
 20
28.3154548068
 10
506.422823755
 20
28.3154548068
  0
LWPOLYLINE
  5
24D
100
AcDbEntity
  8
0
100
AcDbPolyline
 62
7
  6
CONTINUOUS
 90
2
 70
0
 43
0.2
 10
506.422823755
 20
28.3154548068
 10
506.422823755
 20
29.9605364846
  0
LWPOLYLINE
  5
24E
100
AcDbEntity
  8
0
100
AcDbPolyline
 62
7
  6
CONTINUOUS
 90
2
 70
0
 43
0.2
 10
508.6659028291
 20
29.2560248911
 10
508.44476156
 20
29.2560248911
  0
LWPOLYLINE
  5
24F
100
AcDbEntity
  8
0
100
AcDbPolyline
 62
7
  6
CONTINUOUS
 90
2
 70
0
 43
0.2
 10
508.44476156
 20
29.2560248911
 10
508.44476156
 20
28.1039966465
  0
LWPOLYLINE
  5
250
100
AcDbEntity
  8
0
100
AcDbPolyline
 62
7
  6
CONTINUOUS
 90
2
 70
0
 43
0.2
 10
508.44476156
 20
28.1039966465
 10
508.6659028291
 20
28.1039966465
  0
LWPOLYLINE
  5
251
100
AcDbEntity
  8
0
100
AcDbPolyline
 62
7
  6
CONTINUOUS
 90
2
 70
0
 43
0.2
 10
508.6659028291
 20
28.1039966465
 10
508.6659028291
 20
29.2560248911
  0
SPLINE
  5
252
100
AcDbEntity
  8
0
100
AcDbSpline
 62
7
  6
CONTINUOUS
 70
2
 71
3
 72
17
 73
13
 74
0
 42
0.0000001
 43
0.0000001
 44
0.0000000001
 40
0.0
 40
0.0
 40
0.0
 40
0.0
 40
1.0
 40
1.0
 40
1.0
 40
2.0
 40
2.0
 40
2.0
 40
3.0
 40
3.0
 40
3.0
 40
4.0
 40
4.0
 40
4.0
 40
4.0
 10
508.5554630474
 20
29.9385532105
 30
0.0
 10
508.4714555357
 20
29.9385532105
 30
0.0
 10
508.402888657
 20
29.8694629205
 30
0.0
 10
508.402888657
 20
29.7836234693
 30
0.0
 10
508.402888657
 20
29.6993542519
 30
0.0
 10
508.4714555357
 20
29.6334044296
 30
0.0
 10
508.5554630474
 20
29.6334044296
 30
0.0
 10
508.6392088535
 20
29.6334044296
 30
0.0
 10
508.7080374378
 20
29.6993542519
 30
0.0
 10
508.7080374378
 20
29.7836234693
 30
0.0
 10
508.7080374378
 20
29.8694629205
 30
0.0
 10
508.6392088535
 20
29.9385532105
 30
0.0
 10
508.5554630474
 20
29.9385532105
 30
0.0
  0
SPLINE
  5
253
100
AcDbEntity
  8
0
100
AcDbSpline
 62
7
  6
CONTINUOUS
 70
2
 71
3
 72
17
 73
13
 74
0
 42
0.0000001
 43
0.0000001
 44
0.0000000001
 40
0.0
 40
0.0
 40
0.0
 40
0.0
 40
1.0
 40
1.0
 40
1.0
 40
2.0
 40
2.0
 40
2.0
 40
3.0
 40
3.0
 40
3.0
 40
4.0
 40
4.0
 40
4.0
 40
4.0
 10
510.7961867708
 20
28.2615434441
 30
0.0
 10
510.5622219251
 20
28.2615434441
 30
0.0
 10
510.4318925144
 20
28.4635802012
 30
0.0
 10
510.4318925144
 20
28.6797490631
 30
0.0
 10
510.4318925144
 20
28.8943476912
 30
0.0
 10
510.5677177436
 20
29.0932439806
 30
0.0
 10
510.7961867708
 20
29.0932439806
 30
0.0
 10
511.035647435
 20
29.0932439806
 30
0.0
 10
511.1712109585
 20
28.9042925056
 30
0.0
 10
511.1712109585
 20
28.6797490631
 30
0.0
 10
511.1712109585
 20
28.4536353868
 30
0.0
 10
511.0380027858
 20
28.2615434441
 30
0.0
 10
510.7961867708
 20
28.2615434441
 30
0.0
  0
SPLINE
  5
254
100
AcDbEntity
  8
0
100
AcDbSpline
 62
7
  6
CONTINUOUS
 70
2
 71
3
 72
50
 73
46
 74
0
 42
0.0000001
 43
0.0000001
 44
0.0000000001
 40
0.0
 40
0.0
 40
0.0
 40
0.0
 40
1.0
 40
1.0
 40
1.0
 40
2.0
 40
2.0
 40
2.0
 40
3.0
 40
3.0
 40
3.0
 40
4.0
 40
4.0
 40
4.0
 40
5.0
 40
5.0
 40
5.0
 40
6.0
 40
6.0
 40
6.0
 40
7.0
 40
7.0
 40
7.0
 40
8.0
 40
8.0
 40
8.0
 40
9.0
 40
9.0
 40
9.0
 40
10.0
 40
10.0
 40
10.0
 40
11.0
 40
11.0
 40
11.0
 40
12.0
 40
12.0
 40
12.0
 40
13.0
 40
13.0
 40
13.0
 40
14.0
 40
14.0
 40
14.0
 40
15.0
 40
15.0
 40
15.0
 40
15.0
 10
511.380313768
 20
29.2565483024
 30
0.0
 10
511.380313768
 20
29.2565483024
 30
0.0
 10
511.1586490876
 20
29.2565483024
 30
0.0
 10
511.1586490876
 20
29.2565483024
 30
0.0
 10
511.1586490876
 20
29.2565483024
 30
0.0
 10
511.1586490876
 20
29.0592222468
 30
0.0
 10
511.1586490876
 20
29.0592222468
 30
0.0
 10
511.1586490876
 20
29.0592222468
 30
0.0
 10
511.153938386
 20
29.0592222468
 30
0.0
 10
511.153938386
 20
29.0592222468
 30
0.0
 10
511.0626031163
 20
29.2021135284
 30
0.0
 10
510.9246842419
 20
29.2905700361
 30
0.0
 10
510.7519585169
 20
29.2905700361
 30
0.0
 10
510.4195923491
 20
29.2905700361
 30
0.0
 10
510.2104895396
 20
29.0026938278
 30
0.0
 10
510.2104895396
 20
28.6870768212
 30
0.0
 10
510.2104895396
 20
28.3573277098
 30
0.0
 10
510.4075538895
 20
28.0642173886
 30
0.0
 10
510.7624267427
 20
28.0642173886
 30
0.0
 10
510.9246842419
 20
28.0642173886
 30
0.0
 10
511.0646967614
 20
28.1526738962
 30
0.0
 10
511.153938386
 20
28.2835267182
 30
0.0
 10
511.153938386
 20
28.2835267182
 30
0.0
 10
511.1586490876
 20
28.2835267182
 30
0.0
 10
511.1586490876
 20
28.2835267182
 30
0.0
 10
511.1586490876
 20
28.2835267182
 30
0.0
 10
511.1586490876
 20
28.0642173886
 30
0.0
 10
511.1586490876
 20
28.0642173886
 30
0.0
 10
511.1586490876
 20
27.8276354865
 30
0.0
 10
511.1021206685
 20
27.6407776567
 30
0.0
 10
510.8288999763
 20
27.6407776567
 30
0.0
 10
510.6266015135
 20
27.6407776567
 30
0.0
 10
510.4839719375
 20
27.7590686078
 30
0.0
 10
510.4839719375
 20
27.9652926552
 30
0.0
 10
510.4839719375
 20
27.9652926552
 30
0.0
 10
510.2623072571
 20
27.9652926552
 30
0.0
 10
510.2623072571
 20
27.9652926552
 30
0.0
 10
510.2672796644
 20
27.6407776567
 30
0.0
 10
510.498365748
 20
27.4439750125
 30
0.0
 10
510.8186934561
 20
27.4439750125
 30
0.0
 10
511.2667335186
 20
27.4439750125
 30
0.0
 10
511.380313768
 20
27.7292341644
 30
0.0
 10
511.380313768
 20
28.1259799206
 30
0.0
 10
511.380313768
 20
28.1259799206
 30
0.0
 10
511.380313768
 20
29.2565483024
 30
0.0
 10
511.380313768
 20
29.2565483024
 30
0.0
  0
SPLINE
  5
255
100
AcDbEntity
  8
0
100
AcDbSpline
 62
7
  6
CONTINUOUS
 70
2
 71
3
 72
44
 73
40
 74
0
 42
0.0000001
 43
0.0000001
 44
0.0000000001
 40
0.0
 40
0.0
 40
0.0
 40
0.0
 40
1.0
 40
1.0
 40
1.0
 40
2.0
 40
2.0
 40
2.0
 40
3.0
 40
3.0
 40
3.0
 40
4.0
 40
4.0
 40
4.0
 40
5.0
 40
5.0
 40
5.0
 40
6.0
 40
6.0
 40
6.0
 40
7.0
 40
7.0
 40
7.0
 40
8.0
 40
8.0
 40
8.0
 40
9.0
 40
9.0
 40
9.0
 40
10.0
 40
10.0
 40
10.0
 40
11.0
 40
11.0
 40
11.0
 40
12.0
 40
12.0
 40
12.0
 40
13.0
 40
13.0
 40
13.0
 40
13.0
 10
512.9492391034
 20
30.2416083461
 30
0.0
 10
512.9492391034
 20
30.2416083461
 30
0.0
 10
512.9492391034
 20
28.1034732352
 30
0.0
 10
512.9492391034
 20
28.1034732352
 30
0.0
 10
512.9492391034
 20
28.1034732352
 30
0.0
 10
513.1706420782
 20
28.1034732352
 30
0.0
 10
513.1706420782
 20
28.1034732352
 30
0.0
 10
513.1706420782
 20
28.1034732352
 30
0.0
 10
513.1706420782
 20
28.6331654585
 30
0.0
 10
513.1706420782
 20
28.6331654585
 30
0.0
 10
513.1706420782
 20
28.8430533849
 30
0.0
 10
513.1706420782
 20
29.0937673918
 30
0.0
 10
513.4559012301
 20
29.0937673918
 30
0.0
 10
513.6828000234
 20
29.0937673918
 30
0.0
 10
513.7097557047
 20
28.9608209247
 30
0.0
 10
513.7097557047
 20
28.7645416918
 30
0.0
 10
513.7097557047
 20
28.7645416918
 30
0.0
 10
513.7097557047
 20
28.1034732352
 30
0.0
 10
513.7097557047
 20
28.1034732352
 30
0.0
 10
513.7097557047
 20
28.1034732352
 30
0.0
 10
513.9316820907
 20
28.1034732352
 30
0.0
 10
513.9316820907
 20
28.1034732352
 30
0.0
 10
513.9316820907
 20
28.1034732352
 30
0.0
 10
513.9316820907
 20
28.7907122562
 30
0.0
 10
513.9316820907
 20
28.7907122562
 30
0.0
 10
513.9316820907
 20
29.0712607065
 30
0.0
 10
513.847674579
 20
29.2910934474
 30
0.0
 10
513.5226361693
 20
29.2910934474
 30
0.0
 10
513.3828853554
 20
29.2910934474
 30
0.0
 10
513.2447047754
 20
29.2246202138
 30
0.0
 10
513.1753527798
 20
29.1016185612
 30
0.0
 10
513.1753527798
 20
29.1016185612
 30
0.0
 10
513.1706420782
 20
29.1016185612
 30
0.0
 10
513.1706420782
 20
29.1016185612
 30
0.0
 10
513.1706420782
 20
29.1016185612
 30
0.0
 10
513.1706420782
 20
30.2416083461
 30
0.0
 10
513.1706420782
 20
30.2416083461
 30
0.0
 10
513.1706420782
 20
30.2416083461
 30
0.0
 10
512.9492391034
 20
30.2416083461
 30
0.0
 10
512.9492391034
 20
30.2416083461
 30
0.0
  0
LWPOLYLINE
  5
256
100
AcDbEntity
  8
0
100
AcDbPolyline
 62
7
  6
CONTINUOUS
 90
2
 70
0
 43
0.2
 10
515.7714727676
 20
29.0492774324
 10
515.9879033351
 20
29.0492774324
  0
LWPOLYLINE
  5
257
100
AcDbEntity
  8
0
100
AcDbPolyline
 62
7
  6
CONTINUOUS
 90
2
 70
0
 43
0.2
 10
515.9879033351
 20
29.0492774324
 10
515.9879033351
 20
29.2560248911
  0
LWPOLYLINE
  5
258
100
AcDbEntity
  8
0
100
AcDbPolyline
 62
7
  6
CONTINUOUS
 90
2
 70
0
 43
0.2
 10
515.9879033351
 20
29.2560248911
 10
515.7714727676
 20
29.2560248911
  0
LWPOLYLINE
  5
259
100
AcDbEntity
  8
0
100
AcDbPolyline
 62
7
  6
CONTINUOUS
 90
2
 70
0
 43
0.2
 10
515.7714727676
 20
29.2560248911
 10
515.7714727676
 20
29.6967371955
  0
LWPOLYLINE
  5
25A
100
AcDbEntity
  8
0
100
AcDbPolyline
 62
7
  6
CONTINUOUS
 90
2
 70
0
 43
0.2
 10
515.7714727676
 20
29.6967371955
 10
515.5498080872
 20
29.6967371955
  0
LWPOLYLINE
  5
25B
100
AcDbEntity
  8
0
100
AcDbPolyline
 62
7
  6
CONTINUOUS
 90
2
 70
0
 43
0.2
 10
515.5498080872
 20
29.6967371955
 10
515.5498080872
 20
29.2560248911
  0
LWPOLYLINE
  5
25C
100
AcDbEntity
  8
0
100
AcDbPolyline
 62
7
  6
CONTINUOUS
 90
2
 70
0
 43
0.2
 10
515.5498080872
 20
29.2560248911
 10
515.4291617853
 20
29.2560248911
  0
LWPOLYLINE
  5
25D
100
AcDbEntity
  8
0
100
AcDbPolyline
 62
7
  6
CONTINUOUS
 90
2
 70
0
 43
0.2
 10
515.4291617853
 20
29.2560248911
 10
515.4291617853
 20
29.0492774324
  0
LWPOLYLINE
  5
25E
100
AcDbEntity
  8
0
100
AcDbPolyline
 62
7
  6
CONTINUOUS
 90
2
 70
0
 43
0.2
 10
515.4291617853
 20
29.0492774324
 10
515.5498080872
 20
29.0492774324
  0
LWPOLYLINE
  5
25F
100
AcDbEntity
  8
0
100
AcDbPolyline
 62
7
  6
CONTINUOUS
 90
2
 70
0
 43
0.2
 10
515.5498080872
 20
29.0492774324
 10
515.5498080872
 20
28.1034732352
  0
LWPOLYLINE
  5
260
100
AcDbEntity
  8
0
100
AcDbPolyline
 62
7
  6
CONTINUOUS
 90
2
 70
0
 43
0.2
 10
515.5498080872
 20
28.1034732352
 10
515.7714727676
 20
28.1034732352
  0
LWPOLYLINE
  5
261
100
AcDbEntity
  8
0
100
AcDbPolyline
 62
7
  6
CONTINUOUS
 90
2
 70
0
 43
0.2
 10
515.7714727676
 20
28.1034732352
 10
515.7714727676
 20
29.0492774324
  0
SPLINE
  5
262
100
AcDbEntity
  8
0
100
AcDbSpline
 62
7
  6
CONTINUOUS
 70
2
 71
3
 72
20
 73
16
 74
0
 42
0.0000001
 43
0.0000001
 44
0.0000000001
 40
0.0
 40
0.0
 40
0.0
 40
0.0
 40
1.0
 40
1.0
 40
1.0
 40
2.0
 40
2.0
 40
2.0
 40
3.0
 40
3.0
 40
3.0
 40
4.0
 40
4.0
 40
4.0
 40
5.0
 40
5.0
 40
5.0
 40
5.0
 10
503.5534830749
 20
38.4643996786
 30
0.0
 10
503.5534830749
 20
38.4643996786
 30
0.0
 10
505.8698397293
 20
35.6348382564
 30
0.0
 10
505.8698397293
 20
35.6348382564
 30
0.0
 10
505.2181926759
 20
34.9826677917
 30
0.0
 10
504.4413194719
 20
34.2467515209
 30
0.0
 10
503.4701298273
 20
34.2467515209
 30
0.0
 10
502.4715919428
 20
34.2467515209
 30
0.0
 10
501.5282739493
 20
35.1763299682
 30
0.0
 10
501.5282739493
 20
36.1755221167
 30
0.0
 10
501.5282739493
 20
37.1747142653
 30
0.0
 10
502.7071270224
 20
37.8813195039
 30
0.0
 10
503.4286494827
 20
38.3811772838
 30
0.0
 10
503.4286494827
 20
38.3811772838
 30
0.0
 10
503.5534830749
 20
38.4643996786
 30
0.0
 10
503.5534830749
 20
38.4643996786
 30
0.0
  0
SPLINE
  5
263
100
AcDbEntity
  8
0
100
AcDbSpline
 62
7
  6
CONTINUOUS
 70
2
 71
3
 72
23
 73
19
 74
0
 42
0.0000001
 43
0.0000001
 44
0.0000000001
 40
0.0
 40
0.0
 40
0.0
 40
0.0
 40
1.0
 40
1.0
 40
1.0
 40
2.0
 40
2.0
 40
2.0
 40
3.0
 40
3.0
 40
3.0
 40
4.0
 40
4.0
 40
4.0
 40
5.0
 40
5.0
 40
5.0
 40
6.0
 40
6.0
 40
6.0
 40
6.0
 10
503.8308910574
 20
40.1021535983
 30
0.0
 10
503.8308910574
 20
40.1021535983
 30
0.0
 10
503.4843927849
 20
40.5454829591
 30
0.0
 10
503.4843927849
 20
40.5454829591
 30
0.0
 10
503.1785897399
 20
40.9335924291
 30
0.0
 10
502.8597014128
 20
41.3220944575
 30
0.0
 10
502.8597014128
 20
41.8490387716
 30
0.0
 10
502.8597014128
 20
42.5152104882
 30
0.0
 10
503.4010395373
 20
42.9589324075
 30
0.0
 10
504.0249457924
 20
42.9589324075
 30
0.0
 10
504.7187274545
 20
42.9589324075
 30
0.0
 10
505.2459334742
 20
42.5566908328
 30
0.0
 10
505.2459334742
 20
41.8216905318
 30
0.0
 10
505.2459334742
 20
41.0584260213
 30
0.0
 10
504.5246727195
 20
40.6283127955
 30
0.0
 10
503.9975975526
 20
40.2125933801
 30
0.0
 10
503.9975975526
 20
40.2125933801
 30
0.0
 10
503.8308910574
 20
40.1021535983
 30
0.0
 10
503.8308910574
 20
40.1021535983
 30
0.0
  0
SPLINE
  5
264
100
AcDbEntity
  8
0
100
AcDbSpline
 62
7
  6
CONTINUOUS
 70
2
 71
3
 72
50
 73
46
 74
0
 42
0.0000001
 43
0.0000001
 44
0.0000000001
 40
0.0
 40
0.0
 40
0.0
 40
0.0
 40
1.0
 40
1.0
 40
1.0
 40
2.0
 40
2.0
 40
2.0
 40
3.0
 40
3.0
 40
3.0
 40
4.0
 40
4.0
 40
4.0
 40
5.0
 40
5.0
 40
5.0
 40
6.0
 40
6.0
 40
6.0
 40
7.0
 40
7.0
 40
7.0
 40
8.0
 40
8.0
 40
8.0
 40
9.0
 40
9.0
 40
9.0
 40
10.0
 40
10.0
 40
10.0
 40
11.0
 40
11.0
 40
11.0
 40
12.0
 40
12.0
 40
12.0
 40
13.0
 40
13.0
 40
13.0
 40
14.0
 40
14.0
 40
14.0
 40
15.0
 40
15.0
 40
15.0
 40
15.0
 10
507.7844782204
 20
33.3035643802
 30
0.0
 10
507.7844782204
 20
33.3035643802
 30
0.0
 10
509.3937062249
 20
33.3035643802
 30
0.0
 10
509.3937062249
 20
33.3035643802
 30
0.0
 10
509.3937062249
 20
33.3035643802
 30
0.0
 10
507.5206789313
 20
35.6207061516
 30
0.0
 10
507.5206789313
 20
35.6207061516
 30
0.0
 10
507.5206789313
 20
35.6207061516
 30
0.0
 10
508.7970173567
 20
37.1181858462
 30
0.0
 10
508.7970173567
 20
37.1181858462
 30
0.0
 10
508.7970173567
 20
37.1181858462
 30
0.0
 10
507.964793409
 20
37.9791974147
 30
0.0
 10
507.964793409
 20
37.9791974147
 30
0.0
 10
507.964793409
 20
37.9791974147
 30
0.0
 10
506.7441982857
 20
36.5638932923
 30
0.0
 10
506.7441982857
 20
36.5638932923
 30
0.0
 10
506.7441982857
 20
36.5638932923
 30
0.0
 10
504.5662839169
 20
39.1992691267
 30
0.0
 10
504.5662839169
 20
39.1992691267
 30
0.0
 10
505.4398573563
 20
39.8373074867
 30
0.0
 10
506.4665285975
 20
40.6283127955
 30
0.0
 10
506.4665285975
 20
41.8071658686
 30
0.0
 10
506.4665285975
 20
43.1808587936
 30
0.0
 10
505.3286324577
 20
43.985341943
 30
0.0
 10
504.0533408548
 20
43.985341943
 30
0.0
 10
502.6799096354
 20
43.985341943
 30
0.0
 10
501.6389754367
 20
43.1391167434
 30
0.0
 10
501.6389754367
 20
41.6964643812
 30
0.0
 10
501.6389754367
 20
40.8088896898
 30
0.0
 10
502.1943148131
 20
40.0320164857
 30
0.0
 10
502.79048027
 20
39.4075868193
 30
0.0
 10
502.79048027
 20
39.4075868193
 30
0.0
 10
502.1385715109
 20
38.9359932489
 30
0.0
 10
502.1385715109
 20
38.9359932489
 30
0.0
 10
501.1400336265
 20
38.2147324943
 30
0.0
 10
500.3071554147
 20
37.4934717396
 30
0.0
 10
500.3071554147
 20
36.1619134232
 30
0.0
 10
500.3071554147
 20
34.3582381252
 30
0.0
 10
501.7642015873
 20
33.0816379941
 30
0.0
 10
503.5117410247
 20
33.0816379941
 30
0.0
 10
504.7465991056
 20
33.0816379941
 30
0.0
 10
505.8559693302
 20
33.7898134666
 30
0.0
 10
506.6468437862
 20
34.7183450913
 30
0.0
 10
506.6468437862
 20
34.7183450913
 30
0.0
 10
507.7844782204
 20
33.3035643802
 30
0.0
 10
507.7844782204
 20
33.3035643802
 30
0.0
  0
LINE
  5
265
100
AcDbEntity
  8
0
100
AcDbLine
 62
7
  6
CONTINUOUS
 10
493.5873395953
 20
31.2774392848
 11
516.001250323
 21
31.2774392848
  0
LINE
  5
266
100
AcDbEntity
  8
0
100
AcDbLine
 62
7
  6
CONTINUOUS
 10
516.001250323
 20
31.2774392848
 11
516.001250323
 21
53.6913500125
  0
LINE
  5
267
100
AcDbEntity
  8
0
100
AcDbLine
 62
7
  6
CONTINUOUS
 10
516.001250323
 20
53.6913500125
 11
493.5873395953
 21
53.6913500125
  0
LINE
  5
268
100
AcDbEntity
  8
0
100
AcDbLine
 62
7
  6
CONTINUOUS
 10
493.5873395953
 20
53.6913500125
 11
493.5873395953
 21
31.2774392848
  0
ENDBLK
  5
269
100
AcDbEntity
  8
0
  6
BYBLOCK
 62
0
100
AcDbBlockEnd
  0
BLOCK
  5
26A
100
AcDbEntity
  8
0
100
AcDbBlockBegin
  2
_CLOSED
 70
64
 10
0.0
 20
0.0
  3
_CLOSED
  1

  0
LINE
  5
26B
100
AcDbEntity
  8
0
  6
BYBLOCK
 62
0
100
AcDbLine
 10
0.0
 20
0.0
 11
-1.0
 21
0.2
  0
LINE
  5
26C
100
AcDbEntity
  8
0
  6
BYBLOCK
 62
0
100
AcDbLine
 10
-1.0
 20
0.2
 11
-1.0
 21
-0.2
  0
LINE
  5
26D
100
AcDbEntity
  8
0
  6
BYBLOCK
 62
0
100
AcDbLine
 10
-1.0
 20
-0.2
 11
0.0
 21
0.0
  0
LINE
  5
26E
100
AcDbEntity
  8
0
  6
BYBLOCK
 62
0
100
AcDbLine
 10
-1.0
 20
0.0
 11
0.0
 21
0.0
  0
ENDBLK
  5
26F
100
AcDbEntity
  8
0
  6
BYBLOCK
 62
0
100
AcDbBlockEnd
  0
BLOCK
  5
270
100
AcDbEntity
  8
0
100
AcDbBlockBegin
 62
2
  6
CONTINUOUS
  2
*D0
 70
65
 10
0.0
 20
0.0
  3
*D0
  1

  0
LINE
  5
271
100
AcDbEntity
  8
0
100
AcDbLine
 62
2
  6
CONTINUOUS
 10
190.3880329905
 20
42.3299025457
 11
190.3880329905
 21
34.6572670115
  0
LINE
  5
272
100
AcDbEntity
  8
0
100
AcDbLine
 62
2
  6
CONTINUOUS
 10
70.3880329905
 20
42.3299025457
 11
70.3880329905
 21
34.6572670115
  0
LINE
  5
273
100
AcDbEntity
  8
0
100
AcDbLine
 62
2
  6
CONTINUOUS
 10
190.3880329905
 20
35.4072670115
 11
130.3880329905
 21
35.4072670115
  0
LINE
  5
274
100
AcDbEntity
  8
0
100
AcDbLine
 62
2
  6
CONTINUOUS
 10
70.3880329905
 20
35.4072670115
 11
130.3880329905
 21
35.4072670115
  0
INSERT
  5
275
100
AcDbEntity
  8
0
100
AcDbBlockReference
 62
2
  6
CONTINUOUS
  2
_CLOSED
 10
190.3880329905
 20
35.4072670115
 41
2.5
 42
2.5
 43
2.5
  0
INSERT
  5
276
100
AcDbEntity
  8
0
100
AcDbBlockReference
 62
2
  6
CONTINUOUS
  2
_CLOSED
 10
70.3880329905
 20
35.4072670115
 41
2.5
 42
2.5
 43
2.5
 50
180.0
  0
ENDBLK
  5
277
100
AcDbEntity
  8
0
  6
BYBLOCK
 62
0
100
AcDbBlockEnd
  0
BLOCK
  5
278
100
AcDbEntity
  8
0
100
AcDbBlockBegin
 62
2
  6
CONTINUOUS
  2
*D1
 70
65
 10
0.0
 20
0.0
  3
*D1
  1

  0
LINE
  5
279
100
AcDbEntity
  8
0
100
AcDbLine
 62
2
  6
CONTINUOUS
 10
68.3880329905
 20
145.9150196366
 11
68.3880329905
 21
153.6719845038
  0
LINE
  5
27A
100
AcDbEntity
  8
0
100
AcDbLine
 62
2
  6
CONTINUOUS
 10
192.3880329905
 20
147.2544945457
 11
192.3880329905
 21
153.6719845038
  0
LINE
  5
27B
100
AcDbEntity
  8
0
100
AcDbLine
 62
2
  6
CONTINUOUS
 10
68.3880329905
 20
152.9219845038
 11
130.3880329905
 21
152.9219845038
  0
LINE
  5
27C
100
AcDbEntity
  8
0
100
AcDbLine
 62
2
  6
CONTINUOUS
 10
192.3880329905
 20
152.9219845038
 11
130.3880329905
 21
152.9219845038
  0
INSERT
  5
27D
100
AcDbEntity
  8
0
100
AcDbBlockReference
 62
2
  6
CONTINUOUS
  2
_CLOSED
 10
68.3880329905
 20
152.9219845038
 41
2.5
 42
2.5
 43
2.5
 50
180.0
  0
INSERT
  5
27E
100
AcDbEntity
  8
0
100
AcDbBlockReference
 62
2
  6
CONTINUOUS
  2
_CLOSED
 10
192.3880329905
 20
152.9219845038
 41
2.5
 42
2.5
 43
2.5
  0
ENDBLK
  5
27F
100
AcDbEntity
  8
0
  6
BYBLOCK
 62
0
100
AcDbBlockEnd
  0
BLOCK
  5
280
100
AcDbEntity
  8
0
100
AcDbBlockBegin
 62
2
  6
CONTINUOUS
  2
*D2
 70
65
 10
0.0
 20
0.0
  3
*D2
  1

  0
LINE
  5
281
100
AcDbEntity
  8
0
100
AcDbLine
 62
2
  6
CONTINUOUS
 10
196.7431495678
 20
143.1160199164
 11
204.3659912792
 21
143.1160199164
  0
LINE
  5
282
100
AcDbEntity
  8
0
100
AcDbLine
 62
2
  6
CONTINUOUS
 10
196.7431495678
 20
109.1160199164
 11
204.3659912792
 21
109.1160199164
  0
LINE
  5
283
100
AcDbEntity
  8
0
100
AcDbLine
 62
2
  6
CONTINUOUS
 10
203.6159912792
 20
143.1160199164
 11
203.6159912792
 21
126.1160199164
  0
LINE
  5
284
100
AcDbEntity
  8
0
100
AcDbLine
 62
2
  6
CONTINUOUS
 10
203.6159912792
 20
109.1160199164
 11
203.6159912792
 21
126.1160199164
  0
INSERT
  5
285
100
AcDbEntity
  8
0
100
AcDbBlockReference
 62
2
  6
CONTINUOUS
  2
_CLOSED
 10
203.6159912792
 20
143.1160199164
 41
2.5
 42
2.5
 43
2.5
 50
90.0
  0
INSERT
  5
286
100
AcDbEntity
  8
0
100
AcDbBlockReference
 62
2
  6
CONTINUOUS
  2
_CLOSED
 10
203.6159912792
 20
109.1160199164
 41
2.5
 42
2.5
 43
2.5
 50
270.0
  0
ENDBLK
  5
287
100
AcDbEntity
  8
0
  6
BYBLOCK
 62
0
100
AcDbBlockEnd
  0
BLOCK
  5
288
100
AcDbEntity
  8
0
100
AcDbBlockBegin
 62
2
  6
CONTINUOUS
  2
*D3
 70
65
 10
0.0
 20
0.0
  3
*D3
  1

  0
LINE
  5
289
100
AcDbEntity
  8
0
100
AcDbLine
 62
2
  6
CONTINUOUS
 10
196.7431495678
 20
799.2916933402
 11
207.7589434068
 21
799.2916933402
  0
LINE
  5
28A
100
AcDbEntity
  8
0
100
AcDbLine
 62
2
  6
CONTINUOUS
 10
196.7431495678
 20
199.9045935398
 11
207.7589434068
 21
199.9045935398
  0
LINE
  5
28B
100
AcDbEntity
  8
0
100
AcDbLine
 62
2
  6
CONTINUOUS
 10
207.0089434068
 20
799.2916933402
 11
207.0089434068
 21
499.59814344
  0
LINE
  5
28C
100
AcDbEntity
  8
0
100
AcDbLine
 62
2
  6
CONTINUOUS
 10
207.0089434068
 20
199.9045935398
 11
207.0089434068
 21
499.59814344
  0
INSERT
  5
28D
100
AcDbEntity
  8
0
100
AcDbBlockReference
 62
2
  6
CONTINUOUS
  2
_CLOSED
 10
207.0089434068
 20
799.2916933402
 41
2.5
 42
2.5
 43
2.5
 50
90.0
  0
INSERT
  5
28E
100
AcDbEntity
  8
0
100
AcDbBlockReference
 62
2
  6
CONTINUOUS
  2
_CLOSED
 10
207.0089434068
 20
199.9045935398
 41
2.5
 42
2.5
 43
2.5
 50
270.0
  0
ENDBLK
  5
28F
100
AcDbEntity
  8
0
  6
BYBLOCK
 62
0
100
AcDbBlockEnd
  0
BLOCK
  5
290
100
AcDbEntity
  8
0
100
AcDbBlockBegin
 62
2
  6
CONTINUOUS
  2
*D4
 70
65
 10
0.0
 20
0.0
  3
*D4
  1

  0
LINE
  5
291
100
AcDbEntity
  8
0
100
AcDbLine
 62
2
  6
CONTINUOUS
 10
340.9570368118
 20
193.6574579285
 11
340.9570368118
 21
187.1691169122
  0
LINE
  5
292
100
AcDbEntity
  8
0
100
AcDbLine
 62
2
  6
CONTINUOUS
 10
374.9570368118
 20
193.6574579285
 11
374.9570368118
 21
187.1691169122
  0
LINE
  5
293
100
AcDbEntity
  8
0
100
AcDbLine
 62
2
  6
CONTINUOUS
 10
340.9570368118
 20
187.9191169122
 11
357.9570368118
 21
187.9191169122
  0
LINE
  5
294
100
AcDbEntity
  8
0
100
AcDbLine
 62
2
  6
CONTINUOUS
 10
374.9570368118
 20
187.9191169122
 11
357.9570368118
 21
187.9191169122
  0
INSERT
  5
295
100
AcDbEntity
  8
0
100
AcDbBlockReference
 62
2
  6
CONTINUOUS
  2
_CLOSED
 10
340.9570368118
 20
187.9191169122
 41
2.5
 42
2.5
 43
2.5
 50
180.0
  0
INSERT
  5
296
100
AcDbEntity
  8
0
100
AcDbBlockReference
 62
2
  6
CONTINUOUS
  2
_CLOSED
 10
374.9570368118
 20
187.9191169122
 41
2.5
 42
2.5
 43
2.5
  0
ENDBLK
  5
297
100
AcDbEntity
  8
0
  6
BYBLOCK
 62
0
100
AcDbBlockEnd
  0
BLOCK
  5
298
100
AcDbEntity
  8
0
100
AcDbBlockBegin
 62
2
  6
CONTINUOUS
  2
*D5
 70
65
 10
0.0
 20
0.0
  3
*D5
  1

  0
LINE
  5
299
100
AcDbEntity
  8
0
100
AcDbLine
 62
2
  6
CONTINUOUS
 10
340.9570368118
 20
803.0680384908
 11
340.9570368118
 21
813.0379872841
  0
LINE
  5
29A
100
AcDbEntity
  8
0
100
AcDbLine
 62
2
  6
CONTINUOUS
 10
438.0796243328
 20
803.5621729589
 11
438.0796243328
 21
813.0379872841
  0
LINE
  5
29B
100
AcDbEntity
  8
0
100
AcDbLine
 62
2
  6
CONTINUOUS
 10
340.9570368118
 20
812.287987284
 11
389.5183305723
 21
812.287987284
  0
LINE
  5
29C
100
AcDbEntity
  8
0
100
AcDbLine
 62
2
  6
CONTINUOUS
 10
438.0796243328
 20
812.287987284
 11
389.5183305723
 21
812.287987284
  0
INSERT
  5
29D
100
AcDbEntity
  8
0
100
AcDbBlockReference
 62
2
  6
CONTINUOUS
  2
_CLOSED
 10
340.9570368118
 20
812.287987284
 41
2.5
 42
2.5
 43
2.5
 50
180.0
  0
INSERT
  5
29E
100
AcDbEntity
  8
0
100
AcDbBlockReference
 62
2
  6
CONTINUOUS
  2
_CLOSED
 10
438.0796243328
 20
812.287987284
 41
2.5
 42
2.5
 43
2.5
  0
ENDBLK
  5
29F
100
AcDbEntity
  8
0
  6
BYBLOCK
 62
0
100
AcDbBlockEnd
  0
BLOCK
  5
2A0
100
AcDbEntity
  8
0
100
AcDbBlockBegin
  2
*T1
 70
1
 10
0.0
 20
0.0
  3
*T1
  1

  0
LINE
  5
2A1
100
AcDbEntity
  8
0
100
AcDbLine
 62
2
  6
CONTINUOUS
 10
0.0
 20
0.0
 11
90.0
 21
0.0
  0
LINE
  5
2A2
100
AcDbEntity
  8
0
100
AcDbLine
 62
2
  6
CONTINUOUS
 10
0.0
 20
0.0
 11
0.0
 21
-40.0
  0
LINE
  5
2A3
100
AcDbEntity
  8
0
100
AcDbLine
 62
2
  6
CONTINUOUS
 10
30.0
 20
-6.0
 11
90.0
 21
-6.0
  0
LINE
  5
2A4
100
AcDbEntity
  8
0
100
AcDbLine
 62
2
  6
CONTINUOUS
 10
30.0
 20
-12.0
 11
90.0
 21
-12.0
  0
LINE
  5
2A5
100
AcDbEntity
  8
0
100
AcDbLine
 62
2
  6
CONTINUOUS
 10
30.0
 20
-22.0
 11
90.0
 21
-22.0
  0
LINE
  5
2A6
100
AcDbEntity
  8
0
100
AcDbLine
 62
2
  6
CONTINUOUS
 10
0.0
 20
-27.0
 11
90.0
 21
-27.0
  0
LINE
  5
2A7
100
AcDbEntity
  8
0
100
AcDbLine
 62
2
  6
CONTINUOUS
 10
0.0
 20
-40.0
 11
90.0
 21
-40.0
  0
LINE
  5
2A8
100
AcDbEntity
  8
0
100
AcDbLine
 62
2
  6
CONTINUOUS
 10
30.0
 20
0.0
 11
30.0
 21
-27.0
  0
LINE
  5
2A9
100
AcDbEntity
  8
0
100
AcDbLine
 62
2
  6
CONTINUOUS
 10
70.0
 20
0.0
 11
70.0
 21
-12.0
  0
LINE
  5
2AA
100
AcDbEntity
  8
0
100
AcDbLine
 62
2
  6
CONTINUOUS
 10
90.0
 20
0.0
 11
90.0
 21
-40.0
  0
ENDBLK
  5
2AB
100
AcDbEntity
  8
0
100
AcDbBlockEnd
  0
ENDSEC
  0
SECTION
  2
ENTITIES
  0
DIMENSION
  5
2AC
100
AcDbEntity
  8
0
100
AcDbDimension
 62
2
  6
CONTINUOUS
  2
*D0
 10
70.3880329905
 20
35.4072670115
 11
127.1737472763
 21
36.1572670115
 70
160
 71
2
 42
120.0
  3
DIMSTYLE_1
100
AcDbAlignedDimension
 13
190.3880329905
 23
42.3299025457
 14
70.3880329905
 24
42.3299025457
 50
180.0
100
AcDbRotatedDimension
  0
DIMENSION
  5
2AD
100
AcDbEntity
  8
0
100
AcDbDimension
 62
2
  6
CONTINUOUS
  2
*D1
 10
192.3880329905
 20
152.9219845038
 11
127.1737472763
 21
153.6719845038
 70
160
 71
2
 42
124.0
  3
DIMSTYLE_2
100
AcDbAlignedDimension
 13
68.3880329905
 23
145.9150196366
 14
192.3880329905
 24
147.2544945457
100
AcDbRotatedDimension
  0
DIMENSION
  5
2AE
100
AcDbEntity
  8
0
100
AcDbDimension
 62
2
  6
CONTINUOUS
  2
*D2
 10
203.6159912792
 20
109.1160199164
 11
202.8659912792
 21
123.8660199164
 70
160
 71
2
 42
34.0
  3
DIMSTYLE_1
100
AcDbAlignedDimension
 13
196.7431495678
 23
143.1160199164
 14
196.7431495678
 24
109.1160199164
 50
270.0
100
AcDbRotatedDimension
  0
DIMENSION
  5
2AF
100
AcDbEntity
  8
0
100
AcDbDimension
 62
2
  6
CONTINUOUS
  2
*D3
 10
207.0089434068
 20
199.9045935398
 11
206.2589434068
 21
496.0624291542
 70
160
 71
2
 42
599.3870998004
  1
600
  3
DIMSTYLE_3
100
AcDbAlignedDimension
 13
196.7431495678
 23
799.2916933402
 14
196.7431495678
 24
199.9045935398
 50
270.0
100
AcDbRotatedDimension
  0
DIMENSION
  5
2B0
100
AcDbEntity
  8
0
100
AcDbDimension
 62
2
  6
CONTINUOUS
  2
*D4
 10
374.9570368118
 20
187.9191169122
 11
355.7070368118
 21
188.6691169122
 70
160
 71
2
 42
34.0
  3
DIMSTYLE_1
100
AcDbAlignedDimension
 13
340.9570368118
 23
193.6574579285
 14
374.9570368118
 24
193.6574579285
100
AcDbRotatedDimension
  0
DIMENSION
  5
2B1
100
AcDbEntity
  8
0
100
AcDbDimension
 62
2
  6
CONTINUOUS
  2
*D5
 10
438.0796243328
 20
812.287987284
 11
387.1611877152
 21
813.0379872841
 70
160
 71
2
 42
97.122587521
  3
DIMSTYLE_4
100
AcDbAlignedDimension
 13
340.9570368118
 23
803.0680384908
 14
438.0796243328
 24
803.5621729589
100
AcDbRotatedDimension
  0
INSERT
  5
2B2
100
AcDbEntity
  8
0
100
AcDbBlockReference
 62
2
  6
CONTINUOUS
  2
LOGO2_BL0
 10
504.7942295328
 20
40.5676625125
  0
LWPOLYLINE
  5
2B3
100
AcDbEntity
  8
0
100
AcDbPolyline
 62
2
  6
CONTINUOUS
 90
6
 70
0
 10
522.4557107205
 20
49.5676618291
 10
523.5270975116
 20
49.5676618291
 10
523.7414235388
 20
49.7819498336
 10
523.7414235388
 20
50.8533784496
 10
523.3128323206
 20
51.2819468542
 10
522.8842411024
 20
51.2819468542
  0
LWPOLYLINE
  5
2B4
100
AcDbEntity
  8
0
100
AcDbPolyline
 62
2
  6
CONTINUOUS
 90
5
 70
0
 10
523.3128323206
 20
51.2819468542
 10
523.6699409722
 20
51.4962348588
 10
523.6699409722
 20
52.1390912679
 10
523.3128323206
 20
52.5676634748
 10
522.4557107205
 20
52.5676634748
  0
LINE
  5
2B5
100
AcDbEntity
  8
0
100
AcDbLine
 62
2
  6
CONTINUOUS
 10
524.5985451389
 20
49.5676618291
 11
524.5985451389
 21
52.5676634748
  0
LINE
  5
2B6
100
AcDbEntity
  8
0
100
AcDbLine
 62
2
  6
CONTINUOUS
 10
526.0985231481
 20
52.5676634748
 11
526.0985231481
 21
49.5676618291
  0
LINE
  5
2B7
100
AcDbEntity
  8
0
100
AcDbLine
 62
2
  6
CONTINUOUS
 10
524.5985451389
 20
51.2819468542
 11
526.0985231481
 21
51.2819468542
  0
LWPOLYLINE
  5
2B8
100
AcDbEntity
  8
0
100
AcDbPolyline
 62
2
  6
CONTINUOUS
 90
4
 70
0
 10
526.9557055845
 20
51.9248070656
 10
526.9557055845
 20
52.5676634748
 10
528.4556835937
 20
52.5676634748
 10
527.5985619936
 20
49.5676618291
  0
LINE
  5
2B9
100
AcDbEntity
  8
0
100
AcDbLine
 62
2
  6
CONTINUOUS
 10
529.3128051939
 20
49.5676618291
 11
531.0271092303
 21
49.5676618291
  0
LWPOLYLINE
  5
2BA
100
AcDbEntity
  8
0
100
AcDbPolyline
 62
2
  6
CONTINUOUS
 90
6
 70
0
 10
532.9556784578
 20
49.5676618291
 10
532.0985568576
 20
49.5676618291
 10
531.6699656395
 20
49.9962340359
 10
531.6699656395
 20
52.1390912679
 10
532.0985568576
 20
52.5676634748
 10
532.9556784578
 20
52.5676634748
  0
LINE
  5
2BB
100
AcDbEntity
  8
0
100
AcDbLine
 62
2
  6
CONTINUOUS
 10
534.1699695457
 20
49.5676618291
 11
535.8842735822
 21
49.5676618291
  0
LWPOLYLINE
  5
2BC
100
AcDbEntity
  8
0
100
AcDbPolyline
 62
2
  6
CONTINUOUS
 90
13
 70
0
 10
536.5271299913
 20
50.4248062428
 10
536.5271299913
 20
51.7105190611
 10
536.7413951823
 20
52.1390912679
 10
537.1699864005
 20
52.5676634748
 10
537.3842515914
 20
52.5676634748
 10
537.8128428096
 20
52.1390912679
 10
538.0271080006
 20
51.7105190611
 10
538.0271080006
 20
50.4248062428
 10
537.8128428096
 20
49.9962340359
 10
537.3842515914
 20
49.5676618291
 10
537.1699864005
 20
49.5676618291
 10
536.7413951823
 20
49.9962340359
 10
536.5271299913
 20
50.4248062428
  0
LWPOLYLINE
  5
2BD
100
AcDbEntity
  8
0
100
AcDbPolyline
 62
2
  6
CONTINUOUS
 90
10
 70
0
 10
539.3128208189
 20
49.5676618291
 10
540.169942419
 20
50.4248062428
 10
540.3842684462
 20
51.2819468542
 10
540.3842684462
 20
52.1390912679
 10
539.955677228
 20
52.5676634748
 10
539.3128208189
 20
52.5676634748
 10
538.8842296007
 20
52.1390912679
 10
538.8842296007
 20
51.2819468542
 10
539.3128208189
 20
50.8533784496
 10
540.2414249855
 20
50.8533784496
  0
LWPOLYLINE
  5
2BE
100
AcDbEntity
  8
0
100
AcDbPolyline
 62
2
  6
CONTINUOUS
 90
10
 70
0
 10
542.3128376736
 20
52.5676634748
 10
541.6699812645
 20
51.9248070656
 10
541.2413900463
 20
51.0676626519
 10
541.2413900463
 20
49.9962340359
 10
541.6699812645
 20
49.5676618291
 10
542.3128376736
 20
49.5676618291
 10
542.7413680556
 20
49.9962340359
 10
542.7413680556
 20
50.8533784496
 10
542.3128376736
 20
51.2819468542
 10
541.3842335069
 20
51.2819468542
  0
LWPOLYLINE
  5
2BF
100
AcDbEntity
  8
0
100
AcDbPolyline
 62
2
  6
CONTINUOUS
 90
7
 70
0
 10
562.4557123843
 20
48.8176614176
 10
562.4557123843
 20
52.3176608028
 10
563.7056535012
 20
52.3176608028
 10
564.2056664497
 20
51.8176630633
 10
564.2056664497
 20
50.8176637822
 10
563.7056535012
 20
50.3176622405
 10
562.4557123843
 20
50.3176622405
  0
LINE
  5
2C0
100
AcDbEntity
  8
0
100
AcDbLine
 62
2
  6
CONTINUOUS
 10
563.2057013889
 20
50.3176622405
 11
564.2056664497
 21
48.8176614176
  0
LWPOLYLINE
  5
2C1
100
AcDbEntity
  8
0
100
AcDbPolyline
 62
2
  6
CONTINUOUS
 90
9
 70
0
 10
566.7056703559
 20
48.8176614176
 10
565.7057052951
 20
48.8176614176
 10
565.2056923466
 20
49.3176629593
 10
565.2056923466
 20
50.8176637822
 10
565.7057052951
 20
51.3176615216
 10
566.2056574074
 20
51.3176615216
 10
566.7056703559
 20
50.8176637822
 10
566.7056703559
 20
50.0676633708
 10
565.2056923466
 20
50.0676633708
  0
LWPOLYLINE
  5
2C2
100
AcDbEntity
  8
0
100
AcDbPolyline
 62
2
  6
CONTINUOUS
 90
3
 70
0
 10
567.7056962529
 20
51.3176615216
 10
568.4556852575
 20
48.8176614176
 10
569.2056742622
 20
51.3176615216
  0
LWPOLYLINE
  5
2C3
100
AcDbEntity
  8
0
100
AcDbPolyline
 62
2
  6
CONTINUOUS
 90
4
 70
0
 10
570.2057001591
 20
48.8176614176
 10
570.2057001591
 20
49.0676640896
 10
570.3723305845
 20
49.0676640896
 10
570.2057001591
 20
48.8176614176
  0
LWPOLYLINE
  5
2C4
100
AcDbEntity
  8
0
100
AcDbPolyline
 62
2
  6
CONTINUOUS
 90
4
 70
0
 10
570.2057001591
 20
50.3176622405
 10
570.2057001591
 20
50.5676611102
 10
570.3723305845
 20
50.5676611102
 10
570.2057001591
 20
50.3176622405
  0
LWPOLYLINE
  5
2C5
100
AcDbEntity
  8
0
100
AcDbPolyline
 62
2
  6
CONTINUOUS
 90
13
 70
0
 10
571.4557021123
 20
49.8176606988
 10
571.4557021123
 20
51.3176615216
 10
571.7056781684
 20
51.8176630633
 10
572.2056911169
 20
52.3176608028
 10
572.455667173
 20
52.3176608028
 10
572.9556801215
 20
51.8176630633
 10
573.2056561777
 20
51.3176615216
 10
573.2056561777
 20
49.8176606988
 10
572.9556801215
 20
49.3176629593
 10
572.455667173
 20
48.8176614176
 10
572.2056911169
 20
48.8176614176
 10
571.7056781684
 20
49.3176629593
 10
571.4557021123
 20
49.8176606988
  0
LWPOLYLINE
  5
2C6
100
AcDbEntity
  8
0
100
AcDbPolyline
 62
2
  6
CONTINUOUS
 90
3
 70
0
 10
574.2056820747
 20
51.3176615216
 10
575.2057079716
 20
52.3176608028
 10
575.2057079716
 20
48.8176614176
  0
LWPOLYLINE
  5
2C7
100
AcDbEntity
  8
0
100
AcDbPolyline
 62
2
  6
CONTINUOUS
 90
10
 70
0
 10
522.4557107205
 20
43.0676607982
 10
522.7056867766
 20
42.8176619285
 10
523.7057126736
 20
42.8176619285
 10
524.2056647859
 20
43.3176634702
 10
524.2056647859
 20
43.8176612097
 10
522.4557107205
 20
45.3176620325
 10
522.4557107205
 20
45.8176635742
 10
522.9556628328
 20
46.3176613137
 10
523.9556887297
 20
46.3176613137
 10
524.2056647859
 20
46.0676624439
  0
LWPOLYLINE
  5
2C8
100
AcDbEntity
  8
0
100
AcDbPolyline
 62
2
  6
CONTINUOUS
 90
6
 70
0
 10
526.455692636
 20
42.8176619285
 10
525.455666739
 20
42.8176619285
 10
525.2056906829
 20
43.0676607982
 10
525.2056906829
 20
45.0676631628
 10
525.455666739
 20
45.3176620325
 10
526.455692636
 20
45.3176620325
  0
LWPOLYLINE
  5
2C9
100
AcDbEntity
  8
0
100
AcDbPolyline
 62
2
  6
CONTINUOUS
 90
4
 70
0
 10
528.9556965422
 20
42.8176619285
 10
528.9556965422
 20
44.8176642931
 10
528.7056596499
 20
45.3176620325
 10
527.4556576968
 20
45.3176620325
  0
LWPOLYLINE
  5
2CA
100
AcDbEntity
  8
0
100
AcDbPolyline
 62
2
  6
CONTINUOUS
 90
6
 70
0
 10
528.9556965422
 20
42.8176619285
 10
527.9556706453
 20
42.8176619285
 10
527.4556576968
 20
43.0676607982
 10
527.4556576968
 20
43.8176612097
 10
527.9556706453
 20
44.0676638817
 10
528.9556965422
 20
44.0676638817
  0
LWPOLYLINE
  5
2CB
100
AcDbEntity
  8
0
100
AcDbPolyline
 62
2
  6
CONTINUOUS
 90
4
 70
0
 10
530.7057114439
 20
42.8176619285
 10
530.2056984954
 20
42.8176619285
 10
529.955661603
 20
43.0676607982
 10
529.955661603
 20
46.3176613137
  0
LWPOLYLINE
  5
2CC
100
AcDbEntity
  8
0
100
AcDbPolyline
 62
2
  6
CONTINUOUS
 90
9
 70
0
 10
533.2056545139
 20
42.8176619285
 10
532.2056894531
 20
42.8176619285
 10
531.7056765046
 20
43.3176634702
 10
531.7056765046
 20
44.8176642931
 10
532.2056894531
 20
45.3176620325
 10
532.7057024016
 20
45.3176620325
 10
533.2056545139
 20
44.8176642931
 10
533.2056545139
 20
44.0676638817
 10
531.7056765046
 20
44.0676638817
  0
LWPOLYLINE
  5
2CD
100
AcDbEntity
  8
0
100
AcDbPolyline
 62
2
  6
CONTINUOUS
 90
4
 70
0
 10
534.2056804109
 20
42.8176619285
 10
534.2056804109
 20
43.0676607982
 10
534.3723716725
 20
43.0676607982
 10
534.2056804109
 20
42.8176619285
  0
LWPOLYLINE
  5
2CE
100
AcDbEntity
  8
0
100
AcDbPolyline
 62
2
  6
CONTINUOUS
 90
4
 70
0
 10
534.2056804109
 20
44.3176627514
 10
534.2056804109
 20
44.5676616211
 10
534.3723716725
 20
44.5676616211
 10
534.2056804109
 20
44.3176627514
  0
LWPOLYLINE
  5
2CF
100
AcDbEntity
  8
0
100
AcDbPolyline
 62
2
  6
CONTINUOUS
 90
3
 70
0
 10
535.455682364
 20
45.3176620325
 10
536.455708261
 20
46.3176613137
 10
536.455708261
 20
42.8176619285
  0
LWPOLYLINE
  5
2D0
100
AcDbEntity
  8
0
100
AcDbPolyline
 62
2
  6
CONTINUOUS
 90
4
 70
0
 10
537.4556733218
 20
42.8176619285
 10
537.4556733218
 20
43.0676607982
 10
537.6223645833
 20
43.0676607982
 10
537.4556733218
 20
42.8176619285
  0
LWPOLYLINE
  5
2D1
100
AcDbEntity
  8
0
100
AcDbPolyline
 62
2
  6
CONTINUOUS
 90
4
 70
0
 10
537.4556733218
 20
44.3176627514
 10
537.4556733218
 20
44.5676616211
 10
537.6223645833
 20
44.5676616211
 10
537.4556733218
 20
44.3176627514
  0
LWPOLYLINE
  5
2D2
100
AcDbEntity
  8
0
100
AcDbPolyline
 62
2
  6
CONTINUOUS
 90
3
 70
0
 10
538.7056752749
 20
45.3176620325
 10
539.7057011719
 20
46.3176613137
 10
539.7057011719
 20
42.8176619285
  0
LWPOLYLINE
  5
2D3
100
AcDbEntity
  8
0
100
AcDbPolyline
 62
2
  6
CONTINUOUS
 90
3
 70
0
 10
562.4557123843
 20
43.3176634702
 10
563.455677445
 20
46.8176628554
 10
564.455703342
 20
43.3176634702
  0
LINE
  5
2D4
100
AcDbEntity
  8
0
100
AcDbLine
 62
2
  6
CONTINUOUS
 10
562.7890340712
 20
44.3176627514
 11
564.1223208189
 21
44.3176627514
  0
LWPOLYLINE
  5
2D5
100
AcDbEntity
  8
0
100
AcDbPolyline
 62
2
  6
CONTINUOUS
 90
3
 70
0
 10
565.4556684028
 20
45.8176635742
 10
566.4556942998
 20
46.8176628554
 10
566.4556942998
 20
43.3176634702
  0
LWPOLYLINE
  5
2D6
100
AcDbEntity
  8
0
100
AcDbPolyline
 62
2
  6
CONTINUOUS
 90
7
 70
0
 10
522.4557107205
 20
35.3176616166
 10
522.4557107205
 20
38.8176610017
 10
523.7057126736
 20
38.8176610017
 10
524.2056647859
 20
38.3176632623
 10
524.2056647859
 20
37.3176639811
 10
523.7057126736
 20
36.8176624394
 10
522.4557107205
 20
36.8176624394
  0
LWPOLYLINE
  5
2D7
100
AcDbEntity
  8
0
100
AcDbPolyline
 62
2
  6
CONTINUOUS
 90
4
 70
0
 10
525.9556796875
 20
35.3176616166
 10
525.455666739
 20
35.3176616166
 10
525.2056906829
 20
35.5676642886
 10
525.2056906829
 20
38.8176610017
  0
LINE
  5
2D8
100
AcDbEntity
  8
0
100
AcDbLine
 62
2
  6
CONTINUOUS
 10
527.4556576968
 20
35.3176616166
 11
527.4556576968
 21
37.8176617206
  0
LWPOLYLINE
  5
2D9
100
AcDbEntity
  8
0
100
AcDbPolyline
 62
2
  6
CONTINUOUS
 90
4
 70
0
 10
527.4556576968
 20
38.567662132
 10
527.4556576968
 20
38.8176610017
 10
527.5390033275
 20
38.8176610017
 10
527.4556576968
 20
38.567662132
  0
LWPOLYLINE
  5
2DA
100
AcDbEntity
  8
0
100
AcDbPolyline
 62
2
  6
CONTINUOUS
 90
5
 70
0
 10
528.7890052807
 20
35.3176616166
 10
528.7890052807
 20
37.8176617206
 10
530.0390072338
 20
37.8176617206
 10
530.2890441262
 20
37.5676628508
 10
530.2890441262
 20
35.3176616166
  0
LWPOLYLINE
  5
2DB
100
AcDbEntity
  8
0
100
AcDbPolyline
 62
2
  6
CONTINUOUS
 90
3
 70
0
 10
534.0389891493
 20
37.8176617206
 10
535.0390150463
 20
38.8176610017
 10
535.0390150463
 20
35.3176616166
  0
LWPOLYLINE
  5
2DC
100
AcDbEntity
  8
0
100
AcDbPolyline
 62
2
  6
CONTINUOUS
 90
9
 70
0
 10
536.7890299479
 20
35.9009973823
 10
536.8723755787
 20
35.7343289343
 10
536.8723755787
 20
35.6509947103
 10
536.7890299479
 20
35.4843300646
 10
536.6223386863
 20
35.4843300646
 10
536.5389930556
 20
35.6509947103
 10
536.5389930556
 20
35.7343289343
 10
536.6223386863
 20
35.9009973823
 10
536.7890299479
 20
35.9009973823
  0
LWPOLYLINE
  5
2DD
100
AcDbEntity
  8
0
100
AcDbPolyline
 62
2
  6
CONTINUOUS
 90
3
 70
0
 10
538.039031901
 20
37.8176617206
 10
539.0389969618
 20
38.8176610017
 10
539.0389969618
 20
35.3176616166
  0
LWPOLYLINE
  5
2DE
100
AcDbEntity
  8
0
100
AcDbPolyline
 62
2
  6
CONTINUOUS
 90
7
 70
0
 10
522.4557107205
 20
28.3176628463
 10
522.4557107205
 20
30.8176629503
 10
523.3485431858
 20
30.8176629503
 10
523.7057126736
 20
30.4605200783
 10
523.7057126736
 20
28.6748057183
 10
523.3485431858
 20
28.3176628463
 10
522.4557107205
 20
28.3176628463
  0
LWPOLYLINE
  5
2DF
100
AcDbEntity
  8
0
100
AcDbPolyline
 62
2
  6
CONTINUOUS
 90
3
 70
0
 10
524.7176016348
 20
28.3176628463
 10
525.4318797743
 20
30.8176629503
 10
526.1461579138
 20
28.3176628463
  0
LINE
  5
2E0
100
AcDbEntity
  8
0
100
AcDbLine
 62
2
  6
CONTINUOUS
 10
524.9556537905
 20
29.0319485903
 11
525.9080449219
 21
29.0319485903
  0
LINE
  5
2E1
100
AcDbEntity
  8
0
100
AcDbLine
 62
2
  6
CONTINUOUS
 10
527.5747141927
 20
28.3176628463
 11
527.5747141927
 21
30.8176629503
  0
LINE
  5
2E2
100
AcDbEntity
  8
0
100
AcDbLine
 62
2
  6
CONTINUOUS
 10
526.8604360532
 20
30.8176629503
 11
528.2889923322
 21
30.8176629503
  0
LWPOLYLINE
  5
2E3
100
AcDbEntity
  8
0
100
AcDbPolyline
 62
2
  6
CONTINUOUS
 90
3
 70
0
 10
529.0033313079
 20
28.3176628463
 10
529.0033313079
 20
30.8176629503
 10
530.074718099
 20
30.8176629503
  0
LINE
  5
2E4
100
AcDbEntity
  8
0
100
AcDbLine
 62
2
  6
CONTINUOUS
 10
529.7176094473
 20
29.7462343343
 11
529.0033313079
 21
29.7462343343
  0
LINE
  5
2E5
100
AcDbEntity
  8
0
100
AcDbLine
 62
2
  6
CONTINUOUS
 10
529.0033313079
 20
28.3176628463
 11
530.074718099
 21
28.3176628463
  0
LWPOLYLINE
  5
2E6
100
AcDbEntity
  8
0
100
AcDbPolyline
 62
2
  6
CONTINUOUS
 90
4
 70
0
 10
530.7889962384
 20
28.3176628463
 10
530.7889962384
 20
28.4962342823
 10
530.9080527344
 20
28.4962342823
 10
530.7889962384
 20
28.3176628463
  0
LWPOLYLINE
  5
2E7
100
AcDbEntity
  8
0
100
AcDbPolyline
 62
2
  6
CONTINUOUS
 90
4
 70
0
 10
530.7889962384
 20
29.3890914623
 10
530.7889962384
 20
29.5676628983
 10
530.9080527344
 20
29.5676628983
 10
530.7889962384
 20
29.3890914623
  0
LWPOLYLINE
  5
2E8
100
AcDbEntity
  8
0
100
AcDbPolyline
 62
2
  6
CONTINUOUS
 90
3
 70
0
 10
531.6818895399
 20
30.1033772063
 10
532.3961676794
 20
30.8176629503
 10
532.3961676794
 20
28.3176628463
  0
LWPOLYLINE
  5
2E9
100
AcDbEntity
  8
0
100
AcDbPolyline
 62
2
  6
CONTINUOUS
 90
4
 70
0
 10
533.1104458189
 20
30.2819486423
 10
533.1104458189
 20
30.8176629503
 10
534.360447772
 20
30.8176629503
 10
533.6461696325
 20
28.3176628463
  0
LINE
  5
2EA
100
AcDbEntity
  8
0
100
AcDbLine
 62
2
  6
CONTINUOUS
 10
536.5032821904
 20
30.5795670686
 11
535.0747259115
 21
28.3771853909
  0
LWPOLYLINE
  5
2EB
100
AcDbEntity
  8
0
100
AcDbPolyline
 62
2
  6
CONTINUOUS
 90
13
 70
0
 10
536.9795081742
 20
29.0319485903
 10
536.9795081742
 20
30.1033772063
 10
537.1580625
 20
30.4605200783
 10
537.5152319878
 20
30.8176629503
 10
537.6937863137
 20
30.8176629503
 10
538.0508949653
 20
30.4605200783
 10
538.2295101273
 20
30.1033772063
 10
538.2295101273
 20
29.0319485903
 10
538.0508949653
 20
28.6748057183
 10
537.6937863137
 20
28.3176628463
 10
537.5152319878
 20
28.3176628463
 10
537.1580625
 20
28.6748057183
 10
536.9795081742
 20
29.0319485903
  0
LWPOLYLINE
  5
2EC
100
AcDbEntity
  8
0
100
AcDbPolyline
 62
2
  6
CONTINUOUS
 90
8
 70
0
 10
538.9437882668
 20
28.3176628463
 10
539.6580664062
 20
28.3176628463
 10
540.0152358941
 20
28.6748057183
 10
540.0152358941
 20
29.3890914623
 10
539.6580664062
 20
29.7462343343
 10
538.9437882668
 20
29.7462343343
 10
538.9437882668
 20
30.8176629503
 10
540.0152358941
 20
30.8176629503
  0
LINE
  5
2ED
100
AcDbEntity
  8
0
100
AcDbLine
 62
2
  6
CONTINUOUS
 10
542.1580703125
 20
30.5795670686
 11
540.7295140336
 21
28.3771853909
  0
LWPOLYLINE
  5
2EE
100
AcDbEntity
  8
0
100
AcDbPolyline
 62
2
  6
CONTINUOUS
 90
7
 70
0
 10
543.8842374132
 20
28.3176628463
 10
542.6342354601
 20
28.3176628463
 10
543.8842374132
 20
30.1033772063
 10
543.8842374132
 20
30.4605200783
 10
543.5271287616
 20
30.8176629503
 10
542.9914049479
 20
30.8176629503
 10
542.6342354601
 20
30.2819486423
  0
LWPOLYLINE
  5
2EF
100
AcDbEntity
  8
0
100
AcDbPolyline
 62
2
  6
CONTINUOUS
 90
13
 70
0
 10
544.5985155527
 20
29.0319485903
 10
544.5985155527
 20
30.1033772063
 10
544.7771307147
 20
30.4605200783
 10
545.1342393663
 20
30.8176629503
 10
545.3128545284
 20
30.8176629503
 10
545.66996318
 20
30.4605200783
 10
545.8485175058
 20
30.1033772063
 10
545.8485175058
 20
29.0319485903
 10
545.66996318
 20
28.6748057183
 10
545.3128545284
 20
28.3176628463
 10
545.1342393663
 20
28.3176628463
 10
544.7771307147
 20
28.6748057183
 10
544.5985155527
 20
29.0319485903
  0
LWPOLYLINE
  5
2F0
100
AcDbEntity
  8
0
100
AcDbPolyline
 62
2
  6
CONTINUOUS
 90
3
 70
0
 10
546.5627956453
 20
30.1033772063
 10
547.2771346209
 20
30.8176629503
 10
547.2771346209
 20
28.3176628463
  0
LWPOLYLINE
  5
2F1
100
AcDbEntity
  8
0
100
AcDbPolyline
 62
2
  6
CONTINUOUS
 90
4
 70
0
 10
547.9914127604
 20
30.2819486423
 10
547.9914127604
 20
30.8176629503
 10
549.2414147135
 20
30.8176629503
 10
548.5271365741
 20
28.3176628463
  0
LWPOLYLINE
  5
2F2
100
AcDbEntity
  8
0
100
AcDbPolyline
 62
2
  6
CONTINUOUS
 90
3
 70
0
 10
492.4556638455
 20
24.5051629729
 10
493.0985202546
 20
26.755162306
 10
493.7413766638
 20
24.5051629729
  0
LINE
  5
2F3
100
AcDbEntity
  8
0
100
AcDbLine
 62
2
  6
CONTINUOUS
 10
492.6699898727
 20
25.1480193821
 11
493.5271114728
 21
25.1480193821
  0
LWPOLYLINE
  5
2F4
100
AcDbEntity
  8
0
100
AcDbPolyline
 62
2
  6
CONTINUOUS
 90
5
 70
0
 10
494.3842330729
 20
24.5051629729
 10
494.3842330729
 20
26.1123058969
 10
495.1878187934
 20
26.1123058969
 10
495.3485481047
 20
25.9515917946
 10
495.3485481047
 20
24.5051629729
  0
LWPOLYLINE
  5
2F5
100
AcDbEntity
  8
0
100
AcDbPolyline
 62
2
  6
CONTINUOUS
 90
3
 70
0
 10
495.9914045139
 20
23.9694486649
 10
496.3128023003
 20
23.9694486649
 10
496.9556587095
 20
26.1123058969
  0
LINE
  5
2F6
100
AcDbEntity
  8
0
100
AcDbLine
 62
2
  6
CONTINUOUS
 10
495.9914045139
 20
26.1123058969
 11
496.4735316117
 21
24.5051629729
  0
LINE
  5
2F7
100
AcDbEntity
  8
0
100
AcDbLine
 62
2
  6
CONTINUOUS
 10
499.4735484664
 20
24.5051629729
 11
499.4735484664
 21
26.1123058969
  0
LWPOLYLINE
  5
2F8
100
AcDbEntity
  8
0
100
AcDbPolyline
 62
2
  6
CONTINUOUS
 90
4
 70
0
 10
499.4735484664
 20
26.5944482038
 10
499.4735484664
 20
26.755162306
 10
499.5270843461
 20
26.755162306
 10
499.4735484664
 20
26.5944482038
  0
LWPOLYLINE
  5
2F9
100
AcDbEntity
  8
0
100
AcDbPolyline
 62
2
  6
CONTINUOUS
 90
5
 70
0
 10
500.3306700666
 20
24.5051629729
 10
500.3306700666
 20
26.1123058969
 10
501.134255787
 20
26.1123058969
 10
501.2949850984
 20
25.9515917946
 10
501.2949850984
 20
24.5051629729
  0
LINE
  5
2FA
100
AcDbEntity
  8
0
100
AcDbLine
 62
2
  6
CONTINUOUS
 10
502.2057034144
 20
24.5051629729
 11
502.2057034144
 21
26.755162306
  0
LINE
  5
2FB
100
AcDbEntity
  8
0
100
AcDbLine
 62
2
  6
CONTINUOUS
 10
501.9378415075
 20
26.1123058969
 11
502.5806979167
 21
26.1123058969
  0
LWPOLYLINE
  5
2FC
100
AcDbEntity
  8
0
100
AcDbPolyline
 62
2
  6
CONTINUOUS
 90
9
 70
0
 10
504.1878085214
 20
24.5051629729
 10
503.5449521123
 20
24.5051629729
 10
503.2235543258
 20
24.8265911775
 10
503.2235543258
 20
25.7908776923
 10
503.5449521123
 20
26.1123058969
 10
503.866410735
 20
26.1123058969
 10
504.1878085214
 20
25.7908776923
 10
504.1878085214
 20
25.3087334843
 10
503.2235543258
 20
25.3087334843
  0
LWPOLYLINE
  5
2FD
100
AcDbEntity
  8
0
100
AcDbPolyline
 62
2
  6
CONTINUOUS
 90
9
 70
0
 10
504.8306649306
 20
23.9694486649
 10
505.634250651
 20
23.9694486649
 10
505.7949799624
 20
24.1837347683
 10
505.7949799624
 20
26.1123058969
 10
504.9913942419
 20
26.1123058969
 10
504.8306649306
 20
25.9515917946
 10
504.8306649306
 20
24.6658770752
 10
504.9913942419
 20
24.5051629729
 10
505.7949799624
 20
24.5051629729
  0
LWPOLYLINE
  5
2FE
100
AcDbEntity
  8
0
100
AcDbPolyline
 62
2
  6
CONTINUOUS
 90
5
 70
0
 10
506.4378363715
 20
24.5051629729
 10
506.4378363715
 20
26.1123058969
 10
507.0806927807
 20
26.1123058969
 10
507.1878253762
 20
25.9515917946
 10
507.1878253762
 20
25.6301616889
  0
LWPOLYLINE
  5
2FF
100
AcDbEntity
  8
0
100
AcDbPolyline
 62
2
  6
CONTINUOUS
 90
4
 70
0
 10
508.8485326968
 20
24.5051629729
 10
508.8485326968
 20
25.7908776923
 10
508.6878033854
 20
26.1123058969
 10
507.8842785012
 20
26.1123058969
  0
LWPOLYLINE
  5
300
100
AcDbEntity
  8
0
100
AcDbPolyline
 62
2
  6
CONTINUOUS
 90
6
 70
0
 10
508.8485326968
 20
24.5051629729
 10
508.2056762876
 20
24.5051629729
 10
507.8842785012
 20
24.6658770752
 10
507.8842785012
 20
25.1480193821
 10
508.2056762876
 20
25.3087334843
 10
508.8485326968
 20
25.3087334843
  0
LWPOLYLINE
  5
301
100
AcDbEntity
  8
0
100
AcDbPolyline
 62
2
  6
CONTINUOUS
 90
4
 70
0
 10
509.9735162037
 20
24.5051629729
 10
509.6521184172
 20
24.5051629729
 10
509.4913891059
 20
24.6658770752
 10
509.4913891059
 20
26.755162306
  0
LWPOLYLINE
  5
302
100
AcDbEntity
  8
0
100
AcDbPolyline
 62
2
  6
CONTINUOUS
 90
9
 70
0
 10
512.3842733652
 20
24.8265911775
 10
512.3842733652
 20
25.7908776923
 10
512.7056711516
 20
26.1123058969
 10
513.0271297743
 20
26.1123058969
 10
513.3485275608
 20
25.7908776923
 10
513.3485275608
 20
24.8265911775
 10
513.0271297743
 20
24.5051629729
 10
512.7056711516
 20
24.5051629729
 10
512.3842733652
 20
24.8265911775
  0
LWPOLYLINE
  5
303
100
AcDbEntity
  8
0
100
AcDbPolyline
 62
2
  6
CONTINUOUS
 90
5
 70
0
 10
513.9913839699
 20
24.5051629729
 10
513.9913839699
 20
26.1123058969
 10
514.6342403791
 20
26.1123058969
 10
514.7413729745
 20
25.9515917946
 10
514.7413729745
 20
25.6301616889
  0
LWPOLYLINE
  5
304
100
AcDbEntity
  8
0
100
AcDbPolyline
 62
2
  6
CONTINUOUS
 90
7
 70
0
 10
517.2056660156
 20
23.9694486649
 10
517.2056660156
 20
26.1123058969
 10
518.0092517361
 20
26.1123058969
 10
518.1699810475
 20
25.9515917946
 10
518.1699810475
 20
24.6658770752
 10
518.0092517361
 20
24.5051629729
 10
517.2056660156
 20
24.5051629729
  0
LWPOLYLINE
  5
305
100
AcDbEntity
  8
0
100
AcDbPolyline
 62
2
  6
CONTINUOUS
 90
4
 70
0
 10
519.7770916522
 20
24.5051629729
 10
519.7770916522
 20
25.7908776923
 10
519.6164231771
 20
26.1123058969
 10
518.8128374566
 20
26.1123058969
  0
LWPOLYLINE
  5
306
100
AcDbEntity
  8
0
100
AcDbPolyline
 62
2
  6
CONTINUOUS
 90
6
 70
0
 10
519.7770916522
 20
24.5051629729
 10
519.1342352431
 20
24.5051629729
 10
518.8128374566
 20
24.6658770752
 10
518.8128374566
 20
25.1480193821
 10
519.1342352431
 20
25.3087334843
 10
519.7770916522
 20
25.3087334843
  0
LWPOLYLINE
  5
307
100
AcDbEntity
  8
0
100
AcDbPolyline
 62
2
  6
CONTINUOUS
 90
5
 70
0
 10
520.4199480613
 20
24.5051629729
 10
520.4199480613
 20
26.1123058969
 10
521.0628044705
 20
26.1123058969
 10
521.1699979022
 20
25.9515917946
 10
521.1699979022
 20
25.6301616889
  0
LINE
  5
308
100
AcDbEntity
  8
0
100
AcDbLine
 62
2
  6
CONTINUOUS
 10
522.1342520978
 20
24.5051629729
 11
522.1342520978
 21
26.755162306
  0
LINE
  5
309
100
AcDbEntity
  8
0
100
AcDbLine
 62
2
  6
CONTINUOUS
 10
521.866390191
 20
26.1123058969
 11
522.5092466001
 21
26.1123058969
  0
LINE
  5
30A
100
AcDbEntity
  8
0
100
AcDbLine
 62
2
  6
CONTINUOUS
 10
523.4735616319
 20
24.5051629729
 11
523.4735616319
 21
26.1123058969
  0
LWPOLYLINE
  5
30B
100
AcDbEntity
  8
0
100
AcDbPolyline
 62
2
  6
CONTINUOUS
 90
4
 70
0
 10
523.4735616319
 20
26.5944482038
 10
523.4735616319
 20
26.755162306
 10
523.5270975116
 20
26.755162306
 10
523.4735616319
 20
26.5944482038
  0
LWPOLYLINE
  5
30C
100
AcDbEntity
  8
0
100
AcDbPolyline
 62
2
  6
CONTINUOUS
 90
4
 70
0
 10
525.2949982639
 20
24.5051629729
 10
525.2949982639
 20
25.7908776923
 10
525.1342689525
 20
26.1123058969
 10
524.3306832321
 20
26.1123058969
  0
LWPOLYLINE
  5
30D
100
AcDbEntity
  8
0
100
AcDbPolyline
 62
2
  6
CONTINUOUS
 90
6
 70
0
 10
525.2949982639
 20
24.5051629729
 10
524.6520810185
 20
24.5051629729
 10
524.3306832321
 20
24.6658770752
 10
524.3306832321
 20
25.1480193821
 10
524.6520810185
 20
25.3087334843
 10
525.2949982639
 20
25.3087334843
  0
LWPOLYLINE
  5
30E
100
AcDbEntity
  8
0
100
AcDbPolyline
 62
2
  6
CONTINUOUS
 90
4
 70
0
 10
526.4199817708
 20
24.5051629729
 10
526.0985231481
 20
24.5051629729
 10
525.937854673
 20
24.6658770752
 10
525.937854673
 20
26.755162306
  0
LWPOLYLINE
  5
30F
100
AcDbEntity
  8
0
100
AcDbPolyline
 62
2
  6
CONTINUOUS
 90
5
 70
0
 10
528.8306780961
 20
24.5051629729
 10
528.8306780961
 20
26.1123058969
 10
529.4735345052
 20
26.1123058969
 10
529.5806671007
 20
25.9515917946
 10
529.5806671007
 20
25.6301616889
  0
LWPOLYLINE
  5
310
100
AcDbEntity
  8
0
100
AcDbPolyline
 62
2
  6
CONTINUOUS
 90
9
 70
0
 10
531.2413744213
 20
24.5051629729
 10
530.5985180122
 20
24.5051629729
 10
530.2771202257
 20
24.8265911775
 10
530.2771202257
 20
25.7908776923
 10
530.5985180122
 20
26.1123058969
 10
530.9199766348
 20
26.1123058969
 10
531.2413744213
 20
25.7908776923
 10
531.2413744213
 20
25.3087334843
 10
530.2771202257
 20
25.3087334843
  0
LWPOLYLINE
  5
311
100
AcDbEntity
  8
0
100
AcDbPolyline
 62
2
  6
CONTINUOUS
 90
7
 70
0
 10
531.8842308304
 20
23.9694486649
 10
531.8842308304
 20
26.1123058969
 10
532.6878165509
 20
26.1123058969
 10
532.8485458623
 20
25.9515917946
 10
532.8485458623
 20
24.6658770752
 10
532.6878165509
 20
24.5051629729
 10
531.8842308304
 20
24.5051629729
  0
LWPOLYLINE
  5
312
100
AcDbEntity
  8
0
100
AcDbPolyline
 62
2
  6
CONTINUOUS
 90
5
 70
0
 10
533.4914022714
 20
24.5051629729
 10
533.4914022714
 20
26.1123058969
 10
534.1342586806
 20
26.1123058969
 10
534.241391276
 20
25.9515917946
 10
534.241391276
 20
25.6301616889
  0
LWPOLYLINE
  5
313
100
AcDbEntity
  8
0
100
AcDbPolyline
 62
2
  6
CONTINUOUS
 90
9
 70
0
 10
534.937844401
 20
24.8265911775
 10
534.937844401
 20
25.7908776923
 10
535.2592421875
 20
26.1123058969
 10
535.5807008102
 20
26.1123058969
 10
535.9020985966
 20
25.7908776923
 10
535.9020985966
 20
24.8265911775
 10
535.5807008102
 20
24.5051629729
 10
535.2592421875
 20
24.5051629729
 10
534.937844401
 20
24.8265911775
  0
LWPOLYLINE
  5
314
100
AcDbEntity
  8
0
100
AcDbPolyline
 62
2
  6
CONTINUOUS
 90
7
 70
0
 10
537.5092700376
 20
26.755162306
 10
537.5092700376
 20
24.5051629729
 10
536.8664136285
 20
24.5051629729
 10
536.5449550058
 20
24.6658770752
 10
536.5449550058
 20
25.9515917946
 10
536.8664136285
 20
26.1123058969
 10
537.5092700376
 20
26.1123058969
  0
LWPOLYLINE
  5
315
100
AcDbEntity
  8
0
100
AcDbPolyline
 62
2
  6
CONTINUOUS
 90
5
 70
0
 10
538.1521264468
 20
26.1123058969
 10
538.1521264468
 20
24.6658770752
 10
538.3128557581
 20
24.5051629729
 10
539.1163806424
 20
24.5051629729
 10
539.1163806424
 20
26.1123058969
  0
LWPOLYLINE
  5
316
100
AcDbEntity
  8
0
100
AcDbPolyline
 62
2
  6
CONTINUOUS
 90
6
 70
0
 10
540.562822772
 20
24.5051629729
 10
539.9199663628
 20
24.5051629729
 10
539.7592370515
 20
24.6658770752
 10
539.7592370515
 20
25.9515917946
 10
539.9199663628
 20
26.1123058969
 10
540.562822772
 20
26.1123058969
  0
LINE
  5
317
100
AcDbEntity
  8
0
100
AcDbLine
 62
2
  6
CONTINUOUS
 10
541.473541088
 20
24.5051629729
 11
541.473541088
 21
26.755162306
  0
LINE
  5
318
100
AcDbEntity
  8
0
100
AcDbLine
 62
2
  6
CONTINUOUS
 10
541.2056791811
 20
26.1123058969
 11
541.8485355903
 21
26.1123058969
  0
LINE
  5
319
100
AcDbEntity
  8
0
100
AcDbLine
 62
2
  6
CONTINUOUS
 10
542.8128506221
 20
24.5051629729
 11
542.8128506221
 21
26.1123058969
  0
LWPOLYLINE
  5
31A
100
AcDbEntity
  8
0
100
AcDbPolyline
 62
2
  6
CONTINUOUS
 90
4
 70
0
 10
542.8128506221
 20
26.5944482038
 10
542.8128506221
 20
26.755162306
 10
542.8663865017
 20
26.755162306
 10
542.8128506221
 20
26.5944482038
  0
LWPOLYLINE
  5
31B
100
AcDbEntity
  8
0
100
AcDbPolyline
 62
2
  6
CONTINUOUS
 90
9
 70
0
 10
543.6699722222
 20
24.8265911775
 10
543.6699722222
 20
25.7908776923
 10
543.9913700087
 20
26.1123058969
 10
544.3128286314
 20
26.1123058969
 10
544.6342264178
 20
25.7908776923
 10
544.6342264178
 20
24.8265911775
 10
544.3128286314
 20
24.5051629729
 10
543.9913700087
 20
24.5051629729
 10
543.6699722222
 20
24.8265911775
  0
LWPOLYLINE
  5
31C
100
AcDbEntity
  8
0
100
AcDbPolyline
 62
2
  6
CONTINUOUS
 90
5
 70
0
 10
545.277082827
 20
24.5051629729
 10
545.277082827
 20
26.1123058969
 10
546.0806685475
 20
26.1123058969
 10
546.2413978588
 20
25.9515917946
 10
546.2413978588
 20
24.5051629729
  0
LWPOLYLINE
  5
31D
100
AcDbEntity
  8
0
100
AcDbPolyline
 62
2
  6
CONTINUOUS
 90
12
 70
0
 10
546.8842542679
 20
24.6658770752
 10
547.0449835793
 20
24.5051629729
 10
547.6878399884
 20
24.5051629729
 10
547.8485692998
 20
24.6658770752
 10
547.8485692998
 20
25.1480193821
 10
547.6878399884
 20
25.2551633843
 10
547.0449835793
 20
25.3623054855
 10
546.8842542679
 20
25.4694475866
 10
546.8842542679
 20
25.9515917946
 10
547.0449835793
 20
26.1123058969
 10
547.6878399884
 20
26.1123058969
 10
547.8485692998
 20
25.9515917946
  0
LWPOLYLINE
  5
31E
100
AcDbEntity
  8
0
100
AcDbPolyline
 62
2
  6
CONTINUOUS
 90
4
 70
0
 10
551.2235198206
 20
24.5051629729
 10
551.2235198206
 20
25.7908776923
 10
551.0628513455
 20
26.1123058969
 10
550.259265625
 20
26.1123058969
  0
LWPOLYLINE
  5
31F
100
AcDbEntity
  8
0
100
AcDbPolyline
 62
2
  6
CONTINUOUS
 90
6
 70
0
 10
551.2235198206
 20
24.5051629729
 10
550.5806634115
 20
24.5051629729
 10
550.259265625
 20
24.6658770752
 10
550.259265625
 20
25.1480193821
 10
550.5806634115
 20
25.3087334843
 10
551.2235198206
 20
25.3087334843
  0
LWPOLYLINE
  5
320
100
AcDbEntity
  8
0
100
AcDbPolyline
 62
2
  6
CONTINUOUS
 90
5
 70
0
 10
551.8663762297
 20
24.5051629729
 10
551.8663762297
 20
26.1123058969
 10
552.5092326389
 20
26.1123058969
 10
552.6164260706
 20
25.9515917946
 10
552.6164260706
 20
25.6301616889
  0
LWPOLYLINE
  5
321
100
AcDbEntity
  8
0
100
AcDbPolyline
 62
2
  6
CONTINUOUS
 90
9
 70
0
 10
554.2771333912
 20
24.5051629729
 10
553.6342769821
 20
24.5051629729
 10
553.3128183594
 20
24.8265911775
 10
553.3128183594
 20
25.7908776923
 10
553.6342769821
 20
26.1123058969
 10
553.9556747685
 20
26.1123058969
 10
554.2771333912
 20
25.7908776923
 10
554.2771333912
 20
25.3087334843
 10
553.3128183594
 20
25.3087334843
  0
LWPOLYLINE
  5
322
100
AcDbEntity
  8
0
100
AcDbPolyline
 62
2
  6
CONTINUOUS
 90
7
 70
0
 10
556.6878297164
 20
23.9694486649
 10
556.6878297164
 20
26.1123058969
 10
557.4914154369
 20
26.1123058969
 10
557.652083912
 20
25.9515917946
 10
557.652083912
 20
24.6658770752
 10
557.4914154369
 20
24.5051629729
 10
556.6878297164
 20
24.5051629729
  0
LWPOLYLINE
  5
323
100
AcDbEntity
  8
0
100
AcDbPolyline
 62
2
  6
CONTINUOUS
 90
5
 70
0
 10
558.2949403212
 20
24.5051629729
 10
558.2949403212
 20
26.1123058969
 10
558.9377967303
 20
26.1123058969
 10
559.044990162
 20
25.9515917946
 10
559.044990162
 20
25.6301616889
  0
LWPOLYLINE
  5
324
100
AcDbEntity
  8
0
100
AcDbPolyline
 62
2
  6
CONTINUOUS
 90
9
 70
0
 10
559.7413824508
 20
24.8265911775
 10
559.7413824508
 20
25.7908776923
 10
560.0628410735
 20
26.1123058969
 10
560.38423886
 20
26.1123058969
 10
560.7056974826
 20
25.7908776923
 10
560.7056974826
 20
24.8265911775
 10
560.38423886
 20
24.5051629729
 10
560.0628410735
 20
24.5051629729
 10
559.7413824508
 20
24.8265911775
  0
LINE
  5
325
100
AcDbEntity
  8
0
100
AcDbLine
 62
2
  6
CONTINUOUS
 10
561.3485538918
 20
24.5051629729
 11
561.3485538918
 21
26.755162306
  0
LWPOLYLINE
  5
326
100
AcDbEntity
  8
0
100
AcDbPolyline
 62
2
  6
CONTINUOUS
 90
4
 70
0
 10
561.3485538918
 20
26.1123058969
 10
562.1521396123
 20
26.1123058969
 10
562.3128080874
 20
25.9515917946
 10
562.3128080874
 20
24.5051629729
  0
LINE
  5
327
100
AcDbEntity
  8
0
100
AcDbLine
 62
2
  6
CONTINUOUS
 10
563.2771231192
 20
24.5051629729
 11
563.2771231192
 21
26.1123058969
  0
LWPOLYLINE
  5
328
100
AcDbEntity
  8
0
100
AcDbPolyline
 62
2
  6
CONTINUOUS
 90
4
 70
0
 10
563.2771231192
 20
26.5944482038
 10
563.2771231192
 20
26.755162306
 10
563.3306589988
 20
26.755162306
 10
563.2771231192
 20
26.5944482038
  0
LINE
  5
329
100
AcDbEntity
  8
0
100
AcDbLine
 62
2
  6
CONTINUOUS
 10
564.1342447193
 20
24.5051629729
 11
564.1342447193
 21
26.755162306
  0
LWPOLYLINE
  5
32A
100
AcDbEntity
  8
0
100
AcDbPolyline
 62
2
  6
CONTINUOUS
 90
6
 70
0
 10
564.1342447193
 20
26.1123058969
 10
564.9378304398
 20
26.1123058969
 10
565.0985597512
 20
25.9515917946
 10
565.0985597512
 20
24.6658770752
 10
564.9378304398
 20
24.5051629729
 10
564.1342447193
 20
24.5051629729
  0
LINE
  5
32B
100
AcDbEntity
  8
0
100
AcDbLine
 62
2
  6
CONTINUOUS
 10
566.0628139468
 20
24.5051629729
 11
566.0628139468
 21
26.1123058969
  0
LWPOLYLINE
  5
32C
100
AcDbEntity
  8
0
100
AcDbPolyline
 62
2
  6
CONTINUOUS
 90
4
 70
0
 10
566.0628139468
 20
26.5944482038
 10
566.0628139468
 20
26.755162306
 10
566.1164106626
 20
26.755162306
 10
566.0628139468
 20
26.5944482038
  0
LINE
  5
32D
100
AcDbEntity
  8
0
100
AcDbLine
 62
2
  6
CONTINUOUS
 10
567.1877974537
 20
24.5051629729
 11
567.1877974537
 21
26.755162306
  0
LINE
  5
32E
100
AcDbEntity
  8
0
100
AcDbLine
 62
2
  6
CONTINUOUS
 10
566.9199963831
 20
26.1123058969
 11
567.5628527922
 21
26.1123058969
  0
LWPOLYLINE
  5
32F
100
AcDbEntity
  8
0
100
AcDbPolyline
 62
2
  6
CONTINUOUS
 90
9
 70
0
 10
569.169963397
 20
24.5051629729
 10
568.5271069878
 20
24.5051629729
 10
568.2057092014
 20
24.8265911775
 10
568.2057092014
 20
25.7908776923
 10
568.5271069878
 20
26.1123058969
 10
568.8485656105
 20
26.1123058969
 10
569.169963397
 20
25.7908776923
 10
569.169963397
 20
25.3087334843
 10
568.2057092014
 20
25.3087334843
  0
LWPOLYLINE
  5
330
100
AcDbEntity
  8
0
100
AcDbPolyline
 62
2
  6
CONTINUOUS
 90
7
 70
0
 10
570.777134838
 20
26.755162306
 10
570.777134838
 20
24.5051629729
 10
570.1342784288
 20
24.5051629729
 10
569.8128198061
 20
24.6658770752
 10
569.8128198061
 20
25.9515917946
 10
570.1342784288
 20
26.1123058969
 10
570.777134838
 20
26.1123058969
  0
LWPOLYLINE
  5
331
100
AcDbEntity
  8
0
100
AcDbPolyline
 62
2
  6
CONTINUOUS
 90
5
 70
0
 10
492.4556638455
 20
22.7373059466
 10
492.8842550637
 20
21.1301630226
 10
493.259249566
 20
22.4158777421
 10
493.6342440683
 20
21.1301630226
 10
494.0628352865
 20
22.7373059466
  0
LINE
  5
332
100
AcDbEntity
  8
0
100
AcDbLine
 62
2
  6
CONTINUOUS
 10
495.0270894821
 20
21.1301630226
 11
495.0270894821
 21
22.7373059466
  0
LWPOLYLINE
  5
333
100
AcDbEntity
  8
0
100
AcDbPolyline
 62
2
  6
CONTINUOUS
 90
4
 70
0
 10
495.0270894821
 20
23.2194482535
 10
495.0270894821
 20
23.3801623558
 10
495.0806861979
 20
23.3801623558
 10
495.0270894821
 20
23.2194482535
  0
LINE
  5
334
100
AcDbEntity
  8
0
100
AcDbLine
 62
2
  6
CONTINUOUS
 10
496.1521338252
 20
21.1301630226
 11
496.1521338252
 21
23.3801623558
  0
LINE
  5
335
100
AcDbEntity
  8
0
100
AcDbLine
 62
2
  6
CONTINUOUS
 10
495.8842719184
 20
22.7373059466
 11
496.5271283275
 21
22.7373059466
  0
LINE
  5
336
100
AcDbEntity
  8
0
100
AcDbLine
 62
2
  6
CONTINUOUS
 10
497.1699847367
 20
21.1301630226
 11
497.1699847367
 21
23.3801623558
  0
LWPOLYLINE
  5
337
100
AcDbEntity
  8
0
100
AcDbPolyline
 62
2
  6
CONTINUOUS
 90
4
 70
0
 10
497.1699847367
 20
22.7373059466
 10
497.9735096209
 20
22.7373059466
 10
498.1342389323
 20
22.5765918443
 10
498.1342389323
 20
21.1301630226
  0
LWPOLYLINE
  5
338
100
AcDbEntity
  8
0
100
AcDbPolyline
 62
2
  6
CONTINUOUS
 90
9
 70
0
 10
498.7770953414
 20
21.4515912272
 10
498.7770953414
 20
22.4158777421
 10
499.0985539641
 20
22.7373059466
 10
499.4199517506
 20
22.7373059466
 10
499.7414103733
 20
22.4158777421
 10
499.7414103733
 20
21.4515912272
 10
499.4199517506
 20
21.1301630226
 10
499.0985539641
 20
21.1301630226
 10
498.7770953414
 20
21.4515912272
  0
LWPOLYLINE
  5
339
100
AcDbEntity
  8
0
100
AcDbPolyline
 62
2
  6
CONTINUOUS
 90
5
 70
0
 10
500.3842667824
 20
22.7373059466
 10
500.3842667824
 20
21.2908771249
 10
500.5449960938
 20
21.1301630226
 10
501.348520978
 20
21.1301630226
 10
501.348520978
 20
22.7373059466
  0
LINE
  5
33A
100
AcDbEntity
  8
0
100
AcDbLine
 62
2
  6
CONTINUOUS
 10
502.259239294
 20
21.1301630226
 11
502.259239294
 21
23.3801623558
  0
LINE
  5
33B
100
AcDbEntity
  8
0
100
AcDbLine
 62
2
  6
CONTINUOUS
 10
501.9913773872
 20
22.7373059466
 11
502.6342337963
 21
22.7373059466
  0
LWPOLYLINE
  5
33C
100
AcDbEntity
  8
0
100
AcDbPolyline
 62
2
  6
CONTINUOUS
 90
7
 70
0
 10
505.0449909578
 20
20.5944487146
 10
505.0449909578
 20
22.7373059466
 10
505.848515842
 20
22.7373059466
 10
506.0092451534
 20
22.5765918443
 10
506.0092451534
 20
21.2908771249
 10
505.848515842
 20
21.1301630226
 10
505.0449909578
 20
21.1301630226
  0
LWPOLYLINE
  5
33D
100
AcDbEntity
  8
0
100
AcDbPolyline
 62
2
  6
CONTINUOUS
 90
5
 70
0
 10
506.6521015625
 20
21.1301630226
 10
506.6521015625
 20
22.7373059466
 10
507.2949579716
 20
22.7373059466
 10
507.4020905671
 20
22.5765918443
 10
507.4020905671
 20
22.2551617386
  0
LINE
  5
33E
100
AcDbEntity
  8
0
100
AcDbLine
 62
2
  6
CONTINUOUS
 10
508.4199414786
 20
21.1301630226
 11
508.4199414786
 21
22.7373059466
  0
LWPOLYLINE
  5
33F
100
AcDbEntity
  8
0
100
AcDbPolyline
 62
2
  6
CONTINUOUS
 90
4
 70
0
 10
508.4199414786
 20
23.2194482535
 10
508.4199414786
 20
23.3801623558
 10
508.4735381944
 20
23.3801623558
 10
508.4199414786
 20
23.2194482535
  0
LWPOLYLINE
  5
340
100
AcDbEntity
  8
0
100
AcDbPolyline
 62
2
  6
CONTINUOUS
 90
9
 70
0
 10
509.2771239149
 20
21.4515912272
 10
509.2771239149
 20
22.4158777421
 10
509.5985217014
 20
22.7373059466
 10
509.9199803241
 20
22.7373059466
 10
510.2413781105
 20
22.4158777421
 10
510.2413781105
 20
21.4515912272
 10
509.9199803241
 20
21.1301630226
 10
509.5985217014
 20
21.1301630226
 10
509.2771239149
 20
21.4515912272
  0
LWPOLYLINE
  5
341
100
AcDbEntity
  8
0
100
AcDbPolyline
 62
2
  6
CONTINUOUS
 90
5
 70
0
 10
510.8842345197
 20
21.1301630226
 10
510.8842345197
 20
22.7373059466
 10
511.5270909288
 20
22.7373059466
 10
511.6342235243
 20
22.5765918443
 10
511.6342235243
 20
22.2551617386
  0
LWPOLYLINE
  5
342
100
AcDbEntity
  8
0
100
AcDbPolyline
 62
2
  6
CONTINUOUS
 90
4
 70
0
 10
515.0628315972
 20
21.1301630226
 10
515.0628315972
 20
22.4158777421
 10
514.9021022859
 20
22.7373059466
 10
514.0985165654
 20
22.7373059466
  0
LWPOLYLINE
  5
343
100
AcDbEntity
  8
0
100
AcDbPolyline
 62
2
  6
CONTINUOUS
 90
6
 70
0
 10
515.0628315972
 20
21.1301630226
 10
514.4199751881
 20
21.1301630226
 10
514.0985165654
 20
21.2908771249
 10
514.0985165654
 20
21.7730194318
 10
514.4199751881
 20
21.9337335341
 10
515.0628315972
 20
21.9337335341
  0
LWPOLYLINE
  5
344
100
AcDbEntity
  8
0
100
AcDbPolyline
 62
2
  6
CONTINUOUS
 90
5
 70
0
 10
515.7056880064
 20
22.7373059466
 10
515.7056880064
 20
21.2908771249
 10
515.8664173177
 20
21.1301630226
 10
516.669942202
 20
21.1301630226
 10
516.669942202
 20
22.7373059466
  0
LINE
  5
345
100
AcDbEntity
  8
0
100
AcDbLine
 62
2
  6
CONTINUOUS
 10
517.5806605179
 20
21.1301630226
 11
517.5806605179
 21
23.3801623558
  0
LINE
  5
346
100
AcDbEntity
  8
0
100
AcDbLine
 62
2
  6
CONTINUOUS
 10
517.3127986111
 20
22.7373059466
 11
517.9556550203
 21
22.7373059466
  0
LINE
  5
347
100
AcDbEntity
  8
0
100
AcDbLine
 62
2
  6
CONTINUOUS
 10
518.5985114294
 20
21.1301630226
 11
518.5985114294
 21
23.3801623558
  0
LWPOLYLINE
  5
348
100
AcDbEntity
  8
0
100
AcDbPolyline
 62
2
  6
CONTINUOUS
 90
4
 70
0
 10
518.5985114294
 20
22.7373059466
 10
519.4020971499
 20
22.7373059466
 10
519.5628264612
 20
22.5765918443
 10
519.5628264612
 20
21.1301630226
  0
LWPOLYLINE
  5
349
100
AcDbEntity
  8
0
100
AcDbPolyline
 62
2
  6
CONTINUOUS
 90
9
 70
0
 10
520.2056828704
 20
21.4515912272
 10
520.2056828704
 20
22.4158777421
 10
520.5270806568
 20
22.7373059466
 10
520.8485392795
 20
22.7373059466
 10
521.1699979022
 20
22.4158777421
 10
521.1699979022
 20
21.4515912272
 10
520.8485392795
 20
21.1301630226
 10
520.5270806568
 20
21.1301630226
 10
520.2056828704
 20
21.4515912272
  0
LWPOLYLINE
  5
34A
100
AcDbEntity
  8
0
100
AcDbPolyline
 62
2
  6
CONTINUOUS
 90
5
 70
0
 10
521.8128543113
 20
21.1301630226
 10
521.8128543113
 20
22.7373059466
 10
522.4557107205
 20
22.7373059466
 10
522.562843316
 20
22.5765918443
 10
522.562843316
 20
22.2551617386
  0
LINE
  5
34B
100
AcDbEntity
  8
0
100
AcDbLine
 62
2
  6
CONTINUOUS
 10
523.5806942274
 20
21.1301630226
 11
523.5806942274
 21
22.7373059466
  0
LWPOLYLINE
  5
34C
100
AcDbEntity
  8
0
100
AcDbPolyline
 62
2
  6
CONTINUOUS
 90
4
 70
0
 10
523.5806942274
 20
23.2194482535
 10
523.5806942274
 20
23.3801623558
 10
523.6342301071
 20
23.3801623558
 10
523.5806942274
 20
23.2194482535
  0
LWPOLYLINE
  5
34D
100
AcDbEntity
  8
0
100
AcDbPolyline
 62
2
  6
CONTINUOUS
 90
12
 70
0
 10
524.4378158275
 20
21.2908771249
 10
524.5985451389
 20
21.1301630226
 10
525.241401548
 20
21.1301630226
 10
525.4021308594
 20
21.2908771249
 10
525.4021308594
 20
21.7730194318
 10
525.241401548
 20
21.8801634341
 10
524.5985451389
 20
21.9873055352
 10
524.4378158275
 20
22.0944476364
 10
524.4378158275
 20
22.5765918443
 10
524.5985451389
 20
22.7373059466
 10
525.241401548
 20
22.7373059466
 10
525.4021308594
 20
22.5765918443
  0
LWPOLYLINE
  5
34E
100
AcDbEntity
  8
0
100
AcDbPolyline
 62
2
  6
CONTINUOUS
 90
4
 70
0
 10
527.0092414641
 20
21.1301630226
 10
527.0092414641
 20
22.4158777421
 10
526.8485121528
 20
22.7373059466
 10
526.0449872685
 20
22.7373059466
  0
LWPOLYLINE
  5
34F
100
AcDbEntity
  8
0
100
AcDbPolyline
 62
2
  6
CONTINUOUS
 90
6
 70
0
 10
527.0092414641
 20
21.1301630226
 10
526.366385055
 20
21.1301630226
 10
526.0449872685
 20
21.2908771249
 10
526.0449872685
 20
21.7730194318
 10
526.366385055
 20
21.9337335341
 10
527.0092414641
 20
21.9337335341
  0
LINE
  5
350
100
AcDbEntity
  8
0
100
AcDbLine
 62
2
  6
CONTINUOUS
 10
527.9199597801
 20
21.1301630226
 11
527.9199597801
 21
23.3801623558
  0
LINE
  5
351
100
AcDbEntity
  8
0
100
AcDbLine
 62
2
  6
CONTINUOUS
 10
527.6520978733
 20
22.7373059466
 11
528.2949542824
 21
22.7373059466
  0
LINE
  5
352
100
AcDbEntity
  8
0
100
AcDbLine
 62
2
  6
CONTINUOUS
 10
529.2592693142
 20
21.1301630226
 11
529.2592693142
 21
22.7373059466
  0
LWPOLYLINE
  5
353
100
AcDbEntity
  8
0
100
AcDbPolyline
 62
2
  6
CONTINUOUS
 90
4
 70
0
 10
529.2592693142
 20
23.2194482535
 10
529.2592693142
 20
23.3801623558
 10
529.3128051939
 20
23.3801623558
 10
529.2592693142
 20
23.2194482535
  0
LWPOLYLINE
  5
354
100
AcDbEntity
  8
0
100
AcDbPolyline
 62
2
  6
CONTINUOUS
 90
9
 70
0
 10
530.1163909144
 20
21.4515912272
 10
530.1163909144
 20
22.4158777421
 10
530.437849537
 20
22.7373059466
 10
530.7592473235
 20
22.7373059466
 10
531.0807059462
 20
22.4158777421
 10
531.0807059462
 20
21.4515912272
 10
530.7592473235
 20
21.1301630226
 10
530.437849537
 20
21.1301630226
 10
530.1163909144
 20
21.4515912272
  0
LWPOLYLINE
  5
355
100
AcDbEntity
  8
0
100
AcDbPolyline
 62
2
  6
CONTINUOUS
 90
5
 70
0
 10
531.7235623553
 20
21.1301630226
 10
531.7235623553
 20
22.7373059466
 10
532.5270872396
 20
22.7373059466
 10
532.6878165509
 20
22.5765918443
 10
532.6878165509
 20
21.1301630226
  0
LWPOLYLINE
  5
356
100
AcDbEntity
  8
0
100
AcDbPolyline
 62
2
  6
CONTINUOUS
 90
9
 70
0
 10
535.0985128762
 20
21.4515912272
 10
535.0985128762
 20
22.4158777421
 10
535.4199714988
 20
22.7373059466
 10
535.7413692853
 20
22.7373059466
 10
536.062827908
 20
22.4158777421
 10
536.062827908
 20
21.4515912272
 10
535.7413692853
 20
21.1301630226
 10
535.4199714988
 20
21.1301630226
 10
535.0985128762
 20
21.4515912272
  0
LWPOLYLINE
  5
357
100
AcDbEntity
  8
0
100
AcDbPolyline
 62
2
  6
CONTINUOUS
 90
4
 70
0
 10
536.973546224
 20
21.1301630226
 10
536.973546224
 20
23.2194482535
 10
537.1342755353
 20
23.3801623558
 10
537.4556733218
 20
23.3801623558
  0
LINE
  5
358
100
AcDbEntity
  8
0
100
AcDbLine
 62
2
  6
CONTINUOUS
 10
537.4556733218
 20
22.7373059466
 11
536.7056843171
 21
22.7373059466
  0
LWPOLYLINE
  5
359
100
AcDbEntity
  8
0
100
AcDbPolyline
 62
2
  6
CONTINUOUS
 90
3
 70
0
 10
539.7592370515
 20
23.3801623558
 10
539.7592370515
 20
21.1301630226
 10
540.562822772
 20
21.1301630226
  0
LWPOLYLINE
  5
35A
100
AcDbEntity
  8
0
100
AcDbPolyline
 62
2
  6
CONTINUOUS
 90
12
 70
0
 10
544.4199612269
 20
21.9337335341
 10
543.7771048177
 20
21.1301630226
 10
543.2949777199
 20
21.1301630226
 10
542.9735190972
 20
21.4515912272
 10
542.9735190972
 20
21.9337335341
 10
544.0985634404
 20
22.7373059466
 10
544.0985634404
 20
23.0587341512
 10
543.7771048177
 20
23.3801623558
 10
543.4557070312
 20
23.3801623558
 10
543.1342484086
 20
23.0587341512
 10
543.1342484086
 20
22.7373059466
 10
544.2592319155
 20
21.1301630226
  0
LWPOLYLINE
  5
35B
100
AcDbEntity
  8
0
100
AcDbPolyline
 62
2
  6
CONTINUOUS
 90
3
 70
0
 10
546.8306575521
 20
23.3801623558
 10
546.8306575521
 20
21.1301630226
 10
547.6342432726
 20
21.1301630226
  0
LWPOLYLINE
  5
35C
100
AcDbEntity
  8
0
100
AcDbPolyline
 62
2
  6
CONTINUOUS
 90
3
 70
0
 10
550.0449395978
 20
23.3801623558
 10
550.0449395978
 20
21.1301630226
 10
550.8485253183
 20
21.1301630226
  0
LWPOLYLINE
  5
35D
100
AcDbEntity
  8
0
100
AcDbPolyline
 62
2
  6
CONTINUOUS
 90
5
 70
0
 10
551.4913817274
 20
22.7373059466
 10
551.4913817274
 20
21.2908771249
 10
551.6521110388
 20
21.1301630226
 10
552.4556967593
 20
21.1301630226
 10
552.4556967593
 20
22.7373059466
  0
LWPOLYLINE
  5
35E
100
AcDbEntity
  8
0
100
AcDbPolyline
 62
2
  6
CONTINUOUS
 90
6
 70
0
 10
553.9021388889
 20
21.1301630226
 10
553.2592824797
 20
21.1301630226
 10
553.0985531684
 20
21.2908771249
 10
553.0985531684
 20
22.5765918443
 10
553.2592824797
 20
22.7373059466
 10
553.9021388889
 20
22.7373059466
  0
LWPOLYLINE
  5
35F
100
AcDbEntity
  8
0
100
AcDbPolyline
 62
2
  6
CONTINUOUS
 90
9
 70
0
 10
555.5092494936
 20
21.1301630226
 10
554.8663930845
 20
21.1301630226
 10
554.544995298
 20
21.4515912272
 10
554.544995298
 20
22.4158777421
 10
554.8663930845
 20
22.7373059466
 10
555.1878517072
 20
22.7373059466
 10
555.5092494936
 20
22.4158777421
 10
555.5092494936
 20
21.9337335341
 10
554.544995298
 20
21.9337335341
  0
LWPOLYLINE
  5
360
100
AcDbEntity
  8
0
100
AcDbPolyline
 62
2
  6
CONTINUOUS
 90
12
 70
0
 10
559.3663879485
 20
21.9337335341
 10
558.7235315394
 20
21.1301630226
 10
558.2414044416
 20
21.1301630226
 10
557.9199458189
 20
21.4515912272
 10
557.9199458189
 20
21.9337335341
 10
559.044990162
 20
22.7373059466
 10
559.044990162
 20
23.0587341512
 10
558.7235315394
 20
23.3801623558
 10
558.4021337529
 20
23.3801623558
 10
558.0806751302
 20
23.0587341512
 10
558.0806751302
 20
22.7373059466
 10
559.2056586372
 20
21.1301630226
  0
LWPOLYLINE
  5
361
100
AcDbEntity
  8
0
100
AcDbPolyline
 62
2
  6
CONTINUOUS
 90
3
 70
0
 10
561.7770842737
 20
23.3801623558
 10
561.7770842737
 20
21.1301630226
 10
562.5806699942
 20
21.1301630226
  0
LINE
  5
362
100
AcDbEntity
  8
0
100
AcDbLine
 62
2
  6
CONTINUOUS
 10
563.544985026
 20
21.1301630226
 11
563.544985026
 21
22.7373059466
  0
LWPOLYLINE
  5
363
100
AcDbEntity
  8
0
100
AcDbPolyline
 62
2
  6
CONTINUOUS
 90
4
 70
0
 10
563.544985026
 20
23.2194482535
 10
563.544985026
 20
23.3801623558
 10
563.5985209057
 20
23.3801623558
 10
563.544985026
 20
23.2194482535
  0
LWPOLYLINE
  5
364
100
AcDbEntity
  8
0
100
AcDbPolyline
 62
2
  6
CONTINUOUS
 90
9
 70
0
 10
564.4021066262
 20
20.5944487146
 10
565.2056923466
 20
20.5944487146
 10
565.366421658
 20
20.8087348181
 10
565.366421658
 20
22.7373059466
 10
564.5628359375
 20
22.7373059466
 10
564.4021066262
 20
22.5765918443
 10
564.4021066262
 20
21.2908771249
 10
564.5628359375
 20
21.1301630226
 10
565.366421658
 20
21.1301630226
  0
LINE
  5
365
100
AcDbEntity
  8
0
100
AcDbLine
 62
2
  6
CONTINUOUS
 10
566.0092780671
 20
21.1301630226
 11
566.0092780671
 21
23.3801623558
  0
LWPOLYLINE
  5
366
100
AcDbEntity
  8
0
100
AcDbPolyline
 62
2
  6
CONTINUOUS
 90
4
 70
0
 10
566.0092780671
 20
22.7373059466
 10
566.8128029514
 20
22.7373059466
 10
566.9735322627
 20
22.5765918443
 10
566.9735322627
 20
21.1301630226
  0
LINE
  5
367
100
AcDbEntity
  8
0
100
AcDbLine
 62
2
  6
CONTINUOUS
 10
567.8842505787
 20
21.1301630226
 11
567.8842505787
 21
23.3801623558
  0
LINE
  5
368
100
AcDbEntity
  8
0
100
AcDbLine
 62
2
  6
CONTINUOUS
 10
567.6163886719
 20
22.7373059466
 11
568.259245081
 21
22.7373059466
  0
LWPOLYLINE
  5
369
100
AcDbEntity
  8
0
100
AcDbPolyline
 62
2
  6
CONTINUOUS
 90
12
 70
0
 10
570.6699414062
 20
21.2908771249
 10
570.8306707176
 20
21.1301630226
 10
571.4735271267
 20
21.1301630226
 10
571.6342564381
 20
21.2908771249
 10
571.6342564381
 20
21.7730194318
 10
571.4735271267
 20
21.8801634341
 10
570.8306707176
 20
21.9873055352
 10
570.6699414062
 20
22.0944476364
 10
570.6699414062
 20
22.5765918443
 10
570.8306707176
 20
22.7373059466
 10
571.4735271267
 20
22.7373059466
 10
571.6342564381
 20
22.5765918443
  0
LWPOLYLINE
  5
36A
100
AcDbEntity
  8
0
100
AcDbPolyline
 62
2
  6
CONTINUOUS
 90
9
 70
0
 10
572.759239945
 20
21.5051632284
 10
572.8128366609
 20
21.3980192261
 10
572.8128366609
 20
21.3444491261
 10
572.759239945
 20
21.2373051238
 10
572.6521073495
 20
21.2373051238
 10
572.5985106337
 20
21.3444491261
 10
572.5985106337
 20
21.3980192261
 10
572.6521073495
 20
21.5051632284
 10
572.759239945
 20
21.5051632284
  0
LWPOLYLINE
  5
36B
100
AcDbEntity
  8
0
100
AcDbPolyline
 62
2
  6
CONTINUOUS
 90
5
 70
0
 10
573.5628256655
 20
21.1301630226
 10
573.5628256655
 20
22.7373059466
 10
574.2056820747
 20
22.7373059466
 10
574.3128146701
 20
22.5765918443
 10
574.3128146701
 20
22.2551617386
  0
LWPOLYLINE
  5
36C
100
AcDbEntity
  8
0
100
AcDbPolyline
 62
2
  6
CONTINUOUS
 90
9
 70
0
 10
575.4913948929
 20
21.5051632284
 10
575.5449916088
 20
21.3980192261
 10
575.5449916088
 20
21.3444491261
 10
575.4913948929
 20
21.2373051238
 10
575.3842622975
 20
21.2373051238
 10
575.3306655816
 20
21.3444491261
 10
575.3306655816
 20
21.3980192261
 10
575.3842622975
 20
21.5051632284
 10
575.4913948929
 20
21.5051632284
  0
LWPOLYLINE
  5
36D
100
AcDbEntity
  8
0
100
AcDbPolyline
 62
2
  6
CONTINUOUS
 90
4
 70
0
 10
576.7771077112
 20
21.1301630226
 10
576.4557099248
 20
21.1301630226
 10
576.2949806134
 20
21.2908771249
 10
576.2949806134
 20
23.3801623558
  0
LWPOLYLINE
  5
36E
100
AcDbEntity
  8
0
100
AcDbPolyline
 62
2
  6
CONTINUOUS
 90
9
 70
0
 10
577.9020912182
 20
21.5051632284
 10
577.955687934
 20
21.3980192261
 10
577.955687934
 20
21.3444491261
 10
577.9020912182
 20
21.2373051238
 10
577.7949586227
 20
21.2373051238
 10
577.7414227431
 20
21.3444491261
 10
577.7414227431
 20
21.3980192261
 10
577.7949586227
 20
21.5051632284
 10
577.9020912182
 20
21.5051632284
  0
LWPOLYLINE
  5
36F
100
AcDbEntity
  8
0
100
AcDbPolyline
 62
2
  6
CONTINUOUS
 90
10
 70
0
 10
579.1878040365
 20
21.5051632284
 10
579.2414007523
 20
21.3980192261
 10
579.2414007523
 20
21.3444491261
 10
579.1342681568
 20
21.2373051238
 10
579.080671441
 20
21.2373051238
 10
579.0271355613
 20
21.2908771249
 10
579.0271355613
 20
21.3444491261
 10
579.080671441
 20
21.4515912272
 10
579.1342681568
 20
21.5051632284
 10
579.1878040365
 20
21.5051632284
  0
LWPOLYLINE
  5
370
100
AcDbEntity
  8
0
100
AcDbPolyline
 62
2
  6
CONTINUOUS
 90
3
 70
0
 10
579.2414007523
 20
21.3444491261
 10
579.1878040365
 20
21.1837331226
 10
579.080671441
 20
20.9694489204
  0
LINE
  5
371
100
AcDbEntity
  8
0
100
AcDbLine
 62
2
  6
CONTINUOUS
 10
492.7771224682
 20
17.7551630724
 11
492.7771224682
 21
19.3623059964
  0
LWPOLYLINE
  5
372
100
AcDbEntity
  8
0
100
AcDbPolyline
 62
2
  6
CONTINUOUS
 90
4
 70
0
 10
492.7771224682
 20
19.8444483032
 10
492.7771224682
 20
20.0051624055
 10
492.8306583478
 20
20.0051624055
 10
492.7771224682
 20
19.8444483032
  0
LWPOLYLINE
  5
373
100
AcDbEntity
  8
0
100
AcDbPolyline
 62
2
  6
CONTINUOUS
 90
5
 70
0
 10
493.6342440683
 20
17.7551630724
 10
493.6342440683
 20
19.3623059964
 10
494.4378297888
 20
19.3623059964
 10
494.5985591001
 20
19.2015918941
 10
494.5985591001
 20
17.7551630724
  0
LWPOLYLINE
  5
374
100
AcDbEntity
  8
0
100
AcDbPolyline
 62
2
  6
CONTINUOUS
 90
4
 70
0
 10
497.9735096209
 20
17.7551630724
 10
497.9735096209
 20
19.0408758907
 10
497.8128411458
 20
19.3623059964
 10
497.0092554253
 20
19.3623059964
  0
LWPOLYLINE
  5
375
100
AcDbEntity
  8
0
100
AcDbPolyline
 62
2
  6
CONTINUOUS
 90
6
 70
0
 10
497.9735096209
 20
17.7551630724
 10
497.3306532118
 20
17.7551630724
 10
497.0092554253
 20
17.9158771747
 10
497.0092554253
 20
18.3980194815
 10
497.3306532118
 20
18.5587335838
 10
497.9735096209
 20
18.5587335838
  0
LWPOLYLINE
  5
376
100
AcDbEntity
  8
0
100
AcDbPolyline
 62
2
  6
CONTINUOUS
 90
6
 70
0
 10
499.4199517506
 20
17.7551630724
 10
498.7770953414
 20
17.7551630724
 10
498.6164268663
 20
17.9158771747
 10
498.6164268663
 20
19.2015918941
 10
498.7770953414
 20
19.3623059964
 10
499.4199517506
 20
19.3623059964
  0
LWPOLYLINE
  5
377
100
AcDbEntity
  8
0
100
AcDbPolyline
 62
2
  6
CONTINUOUS
 90
6
 70
0
 10
500.8663938802
 20
17.7551630724
 10
500.2235374711
 20
17.7551630724
 10
500.0628081597
 20
17.9158771747
 10
500.0628081597
 20
19.2015918941
 10
500.2235374711
 20
19.3623059964
 10
500.8663938802
 20
19.3623059964
  0
LWPOLYLINE
  5
378
100
AcDbEntity
  8
0
100
AcDbPolyline
 62
2
  6
CONTINUOUS
 90
9
 70
0
 10
501.5092502894
 20
18.0765912769
 10
501.5092502894
 20
19.0408758907
 10
501.830708912
 20
19.3623059964
 10
502.1521066985
 20
19.3623059964
 10
502.4735653212
 20
19.0408758907
 10
502.4735653212
 20
18.0765912769
 10
502.1521066985
 20
17.7551630724
 10
501.830708912
 20
17.7551630724
 10
501.5092502894
 20
18.0765912769
  0
LWPOLYLINE
  5
379
100
AcDbEntity
  8
0
100
AcDbPolyline
 62
2
  6
CONTINUOUS
 90
5
 70
0
 10
503.1164217303
 20
17.7551630724
 10
503.1164217303
 20
19.3623059964
 10
503.7592781395
 20
19.3623059964
 10
503.866410735
 20
19.2015918941
 10
503.866410735
 20
18.8801617884
  0
LWPOLYLINE
  5
37A
100
AcDbEntity
  8
0
100
AcDbPolyline
 62
2
  6
CONTINUOUS
 90
7
 70
0
 10
505.5271180556
 20
20.0051624055
 10
505.5271180556
 20
17.7551630724
 10
504.8842616464
 20
17.7551630724
 10
504.5628030237
 20
17.9158771747
 10
504.5628030237
 20
19.2015918941
 10
504.8842616464
 20
19.3623059964
 10
505.5271180556
 20
19.3623059964
  0
LWPOLYLINE
  5
37B
100
AcDbEntity
  8
0
100
AcDbPolyline
 62
2
  6
CONTINUOUS
 90
4
 70
0
 10
507.1342286603
 20
17.7551630724
 10
507.1342286603
 20
19.0408758907
 10
506.9735601852
 20
19.3623059964
 10
506.1699744647
 20
19.3623059964
  0
LWPOLYLINE
  5
37C
100
AcDbEntity
  8
0
100
AcDbPolyline
 62
2
  6
CONTINUOUS
 90
6
 70
0
 10
507.1342286603
 20
17.7551630724
 10
506.4913722512
 20
17.7551630724
 10
506.1699744647
 20
17.9158771747
 10
506.1699744647
 20
18.3980194815
 10
506.4913722512
 20
18.5587335838
 10
507.1342286603
 20
18.5587335838
  0
LWPOLYLINE
  5
37D
100
AcDbEntity
  8
0
100
AcDbPolyline
 62
2
  6
CONTINUOUS
 90
5
 70
0
 10
507.7770850694
 20
17.7551630724
 10
507.7770850694
 20
19.3623059964
 10
508.5806707899
 20
19.3623059964
 10
508.7414001013
 20
19.2015918941
 10
508.7414001013
 20
17.7551630724
  0
LWPOLYLINE
  5
37E
100
AcDbEntity
  8
0
100
AcDbPolyline
 62
2
  6
CONTINUOUS
 90
6
 70
0
 10
510.1878422309
 20
17.7551630724
 10
509.5449858218
 20
17.7551630724
 10
509.3842565104
 20
17.9158771747
 10
509.3842565104
 20
19.2015918941
 10
509.5449858218
 20
19.3623059964
 10
510.1878422309
 20
19.3623059964
  0
LWPOLYLINE
  5
37F
100
AcDbEntity
  8
0
100
AcDbPolyline
 62
2
  6
CONTINUOUS
 90
9
 70
0
 10
511.7949528356
 20
17.7551630724
 10
511.1520964265
 20
17.7551630724
 10
510.83069864
 20
18.0765912769
 10
510.83069864
 20
19.0408758907
 10
511.1520964265
 20
19.3623059964
 10
511.4735550492
 20
19.3623059964
 10
511.7949528356
 20
19.0408758907
 10
511.7949528356
 20
18.5587335838
 10
510.83069864
 20
18.5587335838
  0
LWPOLYLINE
  5
380
100
AcDbEntity
  8
0
100
AcDbPolyline
 62
2
  6
CONTINUOUS
 90
5
 70
0
 10
514.2057099971
 20
19.3623059964
 10
514.6342403791
 20
17.7551630724
 10
515.0092348814
 20
19.0408758907
 10
515.3842293837
 20
17.7551630724
 10
515.8128206019
 20
19.3623059964
  0
LINE
  5
381
100
AcDbEntity
  8
0
100
AcDbLine
 62
2
  6
CONTINUOUS
 10
516.7771356337
 20
17.7551630724
 11
516.7771356337
 21
19.3623059964
  0
LWPOLYLINE
  5
382
100
AcDbEntity
  8
0
100
AcDbPolyline
 62
2
  6
CONTINUOUS
 90
4
 70
0
 10
516.7771356337
 20
19.8444483032
 10
516.7771356337
 20
20.0051624055
 10
516.8306715133
 20
20.0051624055
 10
516.7771356337
 20
19.8444483032
  0
LINE
  5
383
100
AcDbEntity
  8
0
100
AcDbLine
 62
2
  6
CONTINUOUS
 10
517.9021191406
 20
17.7551630724
 11
517.9021191406
 21
20.0051624055
  0
LINE
  5
384
100
AcDbEntity
  8
0
100
AcDbLine
 62
2
  6
CONTINUOUS
 10
517.6342572338
 20
19.3623059964
 11
518.2771136429
 21
19.3623059964
  0
LINE
  5
385
100
AcDbEntity
  8
0
100
AcDbLine
 62
2
  6
CONTINUOUS
 10
518.9199700521
 20
17.7551630724
 11
518.9199700521
 21
20.0051624055
  0
LWPOLYLINE
  5
386
100
AcDbEntity
  8
0
100
AcDbPolyline
 62
2
  6
CONTINUOUS
 90
4
 70
0
 10
518.9199700521
 20
19.3623059964
 10
519.7235557726
 20
19.3623059964
 10
519.8842242477
 20
19.2015918941
 10
519.8842242477
 20
17.7551630724
  0
LINE
  5
387
100
AcDbEntity
  8
0
100
AcDbLine
 62
2
  6
CONTINUOUS
 10
522.562843316
 20
17.7551630724
 11
522.562843316
 21
20.0051624055
  0
LINE
  5
388
100
AcDbEntity
  8
0
100
AcDbLine
 62
2
  6
CONTINUOUS
 10
522.2949814091
 20
19.3623059964
 11
522.9378378183
 21
19.3623059964
  0
LINE
  5
389
100
AcDbEntity
  8
0
100
AcDbLine
 62
2
  6
CONTINUOUS
 10
523.5806942274
 20
17.7551630724
 11
523.5806942274
 21
20.0051624055
  0
LWPOLYLINE
  5
38A
100
AcDbEntity
  8
0
100
AcDbPolyline
 62
2
  6
CONTINUOUS
 90
4
 70
0
 10
523.5806942274
 20
19.3623059964
 10
524.3842799479
 20
19.3623059964
 10
524.544948423
 20
19.2015918941
 10
524.544948423
 20
17.7551630724
  0
LWPOLYLINE
  5
38B
100
AcDbEntity
  8
0
100
AcDbPolyline
 62
2
  6
CONTINUOUS
 90
9
 70
0
 10
526.152119864
 20
17.7551630724
 10
525.5092634549
 20
17.7551630724
 10
525.1878048322
 20
18.0765912769
 10
525.1878048322
 20
19.0408758907
 10
525.5092634549
 20
19.3623059964
 10
525.8306612413
 20
19.3623059964
 10
526.152119864
 20
19.0408758907
 10
526.152119864
 20
18.5587335838
 10
525.1878048322
 20
18.5587335838
  0
LWPOLYLINE
  5
38C
100
AcDbEntity
  8
0
100
AcDbPolyline
 62
2
  6
CONTINUOUS
 90
4
 70
0
 10
529.044943287
 20
17.7551630724
 10
528.7235455006
 20
17.7551630724
 10
528.5628161892
 20
17.9158771747
 10
528.5628161892
 20
20.0051624055
  0
LWPOLYLINE
  5
38D
100
AcDbEntity
  8
0
100
AcDbPolyline
 62
2
  6
CONTINUOUS
 90
4
 70
0
 10
530.652114728
 20
17.7551630724
 10
530.652114728
 20
19.0408758907
 10
530.4913854167
 20
19.3623059964
 10
529.6877996962
 20
19.3623059964
  0
LWPOLYLINE
  5
38E
100
AcDbEntity
  8
0
100
AcDbPolyline
 62
2
  6
CONTINUOUS
 90
6
 70
0
 10
530.652114728
 20
17.7551630724
 10
530.0092583189
 20
17.7551630724
 10
529.6877996962
 20
17.9158771747
 10
529.6877996962
 20
18.3980194815
 10
530.0092583189
 20
18.5587335838
 10
530.652114728
 20
18.5587335838
  0
LWPOLYLINE
  5
38F
100
AcDbEntity
  8
0
100
AcDbPolyline
 62
2
  6
CONTINUOUS
 90
5
 70
0
 10
531.2949711372
 20
19.3623059964
 10
531.7235623553
 20
17.7551630724
 10
532.0985568576
 20
19.0408758907
 10
532.47355136
 20
17.7551630724
 10
532.9020817419
 20
19.3623059964
  0
LINE
  5
390
100
AcDbEntity
  8
0
100
AcDbLine
 62
2
  6
CONTINUOUS
 10
535.6342366898
 20
17.7551630724
 11
535.6342366898
 21
19.3623059964
  0
LWPOLYLINE
  5
391
100
AcDbEntity
  8
0
100
AcDbPolyline
 62
2
  6
CONTINUOUS
 90
4
 70
0
 10
535.6342366898
 20
19.8444483032
 10
535.6342366898
 20
20.0051624055
 10
535.6878334057
 20
20.0051624055
 10
535.6342366898
 20
19.8444483032
  0
LWPOLYLINE
  5
392
100
AcDbEntity
  8
0
100
AcDbPolyline
 62
2
  6
CONTINUOUS
 90
5
 70
0
 10
536.4914191262
 20
17.7551630724
 10
536.4914191262
 20
19.3623059964
 10
537.2949440104
 20
19.3623059964
 10
537.4556733218
 20
19.2015918941
 10
537.4556733218
 20
17.7551630724
  0
LWPOLYLINE
  5
393
100
AcDbEntity
  8
0
100
AcDbPolyline
 62
2
  6
CONTINUOUS
 90
4
 70
0
 10
540.1342315538
 20
17.7551630724
 10
540.1342315538
 20
19.8444483032
 10
540.2949608652
 20
20.0051624055
 10
540.6164194878
 20
20.0051624055
  0
LINE
  5
394
100
AcDbEntity
  8
0
100
AcDbLine
 62
2
  6
CONTINUOUS
 10
540.6164194878
 20
19.3623059964
 11
539.866369647
 21
19.3623059964
  0
LWPOLYLINE
  5
395
100
AcDbEntity
  8
0
100
AcDbPolyline
 62
2
  6
CONTINUOUS
 90
9
 70
0
 10
541.1520824653
 20
18.0765912769
 10
541.1520824653
 20
19.0408758907
 10
541.473541088
 20
19.3623059964
 10
541.7949388744
 20
19.3623059964
 10
542.1163974971
 20
19.0408758907
 10
542.1163974971
 20
18.0765912769
 10
541.7949388744
 20
17.7551630724
 10
541.473541088
 20
17.7551630724
 10
541.1520824653
 20
18.0765912769
  0
LWPOLYLINE
  5
396
100
AcDbEntity
  8
0
100
AcDbPolyline
 62
2
  6
CONTINUOUS
 90
5
 70
0
 10
542.7592539063
 20
17.7551630724
 10
542.7592539063
 20
19.3623059964
 10
543.4021103154
 20
19.3623059964
 10
543.5092429109
 20
19.2015918941
 10
543.5092429109
 20
18.8801617884
  0
LWPOLYLINE
  5
397
100
AcDbEntity
  8
0
100
AcDbPolyline
 62
2
  6
CONTINUOUS
 90
6
 70
0
 10
545.0092817564
 20
17.7551630724
 10
544.3664253472
 20
17.7551630724
 10
544.2056960359
 20
17.9158771747
 10
544.2056960359
 20
19.2015918941
 10
544.3664253472
 20
19.3623059964
 10
545.0092817564
 20
19.3623059964
  0
LWPOLYLINE
  5
398
100
AcDbEntity
  8
0
100
AcDbPolyline
 62
2
  6
CONTINUOUS
 90
9
 70
0
 10
546.6163923611
 20
17.7551630724
 10
545.973535952
 20
17.7551630724
 10
545.6521381655
 20
18.0765912769
 10
545.6521381655
 20
19.0408758907
 10
545.973535952
 20
19.3623059964
 10
546.2949945747
 20
19.3623059964
 10
546.6163923611
 20
19.0408758907
 10
546.6163923611
 20
18.5587335838
 10
545.6521381655
 20
18.5587335838
  0
LWPOLYLINE
  5
399
100
AcDbEntity
  8
0
100
AcDbPolyline
 62
2
  6
CONTINUOUS
 90
9
 70
0
 10
547.7413758681
 20
18.1301632781
 10
547.7949725839
 20
18.0230192758
 10
547.7949725839
 20
17.9694491758
 10
547.7413758681
 20
17.8623051735
 10
547.6342432726
 20
17.8623051735
 10
547.5807073929
 20
17.9694491758
 10
547.5807073929
 20
18.0230192758
 10
547.6342432726
 20
18.1301632781
 10
547.7413758681
 20
18.1301632781
  0
LWPOLYLINE
  5
39A
100
AcDbEntity
  8
0
100
AcDbPolyline
 62
2
  6
CONTINUOUS
 90
3
 70
0
 10
492.4556638455
 20
14.3801621715
 10
493.0985202546
 20
16.6301624552
 10
493.7413766638
 20
14.3801621715
  0
LINE
  5
39B
100
AcDbEntity
  8
0
100
AcDbLine
 62
2
  6
CONTINUOUS
 10
492.6699898727
 20
15.0230195312
 11
493.5271114728
 21
15.0230195312
  0
LWPOLYLINE
  5
39C
100
AcDbEntity
  8
0
100
AcDbPolyline
 62
2
  6
CONTINUOUS
 90
4
 70
0
 10
494.8664210069
 20
14.3801621715
 10
494.5449623843
 20
14.3801621715
 10
494.3842330729
 20
14.5408772244
 10
494.3842330729
 20
16.6301624552
  0
LWPOLYLINE
  5
39D
100
AcDbEntity
  8
0
100
AcDbPolyline
 62
2
  6
CONTINUOUS
 90
4
 70
0
 10
495.9914045139
 20
14.3801621715
 10
495.6699458912
 20
14.3801621715
 10
495.5092774161
 20
14.5408772244
 10
495.5092774161
 20
16.6301624552
  0
LWPOLYLINE
  5
39E
100
AcDbEntity
  8
0
100
AcDbPolyline
 62
2
  6
CONTINUOUS
 90
5
 70
0
 10
498.4021008391
 20
14.3801621715
 10
498.4021008391
 20
15.9873060461
 10
499.0449572483
 20
15.9873060461
 10
499.1520898437
 20
15.8265909932
 10
499.1520898437
 20
15.5051627887
  0
LINE
  5
39F
100
AcDbEntity
  8
0
100
AcDbLine
 62
2
  6
CONTINUOUS
 10
500.1699407552
 20
14.3801621715
 11
500.1699407552
 21
15.9873060461
  0
LWPOLYLINE
  5
3A0
100
AcDbEntity
  8
0
100
AcDbPolyline
 62
2
  6
CONTINUOUS
 90
4
 70
0
 10
500.1699407552
 20
16.469448353
 10
500.1699407552
 20
16.6301624552
 10
500.2235374711
 20
16.6301624552
 10
500.1699407552
 20
16.469448353
  0
LWPOLYLINE
  5
3A1
100
AcDbEntity
  8
0
100
AcDbPolyline
 62
2
  6
CONTINUOUS
 90
9
 70
0
 10
501.0271231916
 20
13.8444478635
 10
501.830708912
 20
13.8444478635
 10
501.9913773872
 20
14.058733967
 10
501.9913773872
 20
15.9873060461
 10
501.1878525029
 20
15.9873060461
 10
501.0271231916
 20
15.8265909932
 10
501.0271231916
 20
14.5408772244
 10
501.1878525029
 20
14.3801621715
 10
501.9913773872
 20
14.3801621715
  0
LINE
  5
3A2
100
AcDbEntity
  8
0
100
AcDbLine
 62
2
  6
CONTINUOUS
 10
502.6342337963
 20
14.3801621715
 11
502.6342337963
 21
16.6301624552
  0
LWPOLYLINE
  5
3A3
100
AcDbEntity
  8
0
100
AcDbPolyline
 62
2
  6
CONTINUOUS
 90
4
 70
0
 10
502.6342337963
 20
15.9873060461
 10
503.4378195168
 20
15.9873060461
 10
503.5985488281
 20
15.8265909932
 10
503.5985488281
 20
14.3801621715
  0
LINE
  5
3A4
100
AcDbEntity
  8
0
100
AcDbLine
 62
2
  6
CONTINUOUS
 10
504.5092671441
 20
14.3801621715
 11
504.5092671441
 21
16.6301624552
  0
LINE
  5
3A5
100
AcDbEntity
  8
0
100
AcDbLine
 62
2
  6
CONTINUOUS
 10
504.2414052373
 20
15.9873060461
 11
504.8842616464
 21
15.9873060461
  0
LWPOLYLINE
  5
3A6
100
AcDbEntity
  8
0
100
AcDbPolyline
 62
2
  6
CONTINUOUS
 90
12
 70
0
 10
505.5271180556
 20
14.5408772244
 10
505.6878473669
 20
14.3801621715
 10
506.330703776
 20
14.3801621715
 10
506.4913722512
 20
14.5408772244
 10
506.4913722512
 20
15.0230195312
 10
506.330703776
 20
15.130162583
 10
505.6878473669
 20
15.2373056347
 10
505.5271180556
 20
15.3444486864
 10
505.5271180556
 20
15.8265909932
 10
505.6878473669
 20
15.9873060461
 10
506.330703776
 20
15.9873060461
 10
506.4913722512
 20
15.8265909932
  0
LWPOLYLINE
  5
3A7
100
AcDbEntity
  8
0
100
AcDbPolyline
 62
2
  6
CONTINUOUS
 90
5
 70
0
 10
508.9021294126
 20
14.3801621715
 10
508.9021294126
 20
15.9873060461
 10
509.5449858218
 20
15.9873060461
 10
509.6521184172
 20
15.8265909932
 10
509.6521184172
 20
15.5051627887
  0
LWPOLYLINE
  5
3A8
100
AcDbEntity
  8
0
100
AcDbPolyline
 62
2
  6
CONTINUOUS
 90
9
 70
0
 10
511.3128257378
 20
14.3801621715
 10
510.6699693287
 20
14.3801621715
 10
510.348510706
 20
14.7015913267
 10
510.348510706
 20
15.665876891
 10
510.6699693287
 20
15.9873060461
 10
510.9913671152
 20
15.9873060461
 10
511.3128257378
 20
15.665876891
 10
511.3128257378
 20
15.1837336335
 10
510.348510706
 20
15.1837336335
  0
LWPOLYLINE
  5
3A9
100
AcDbEntity
  8
0
100
AcDbPolyline
 62
2
  6
CONTINUOUS
 90
12
 70
0
 10
511.955682147
 20
14.5408772244
 10
512.1164114583
 20
14.3801621715
 10
512.7592678675
 20
14.3801621715
 10
512.9199971788
 20
14.5408772244
 10
512.9199971788
 20
15.0230195312
 10
512.7592678675
 20
15.130162583
 10
512.1164114583
 20
15.2373056347
 10
511.955682147
 20
15.3444486864
 10
511.955682147
 20
15.8265909932
 10
512.1164114583
 20
15.9873060461
 10
512.7592678675
 20
15.9873060461
 10
512.9199971788
 20
15.8265909932
  0
LWPOLYLINE
  5
3AA
100
AcDbEntity
  8
0
100
AcDbPolyline
 62
2
  6
CONTINUOUS
 90
9
 70
0
 10
514.5271077836
 20
14.3801621715
 10
513.8842513744
 20
14.3801621715
 10
513.562853588
 20
14.7015913267
 10
513.562853588
 20
15.665876891
 10
513.8842513744
 20
15.9873060461
 10
514.2057099971
 20
15.9873060461
 10
514.5271077836
 20
15.665876891
 10
514.5271077836
 20
15.1837336335
 10
513.562853588
 20
15.1837336335
  0
LWPOLYLINE
  5
3AB
100
AcDbEntity
  8
0
100
AcDbPolyline
 62
2
  6
CONTINUOUS
 90
5
 70
0
 10
515.1699641927
 20
14.3801621715
 10
515.1699641927
 20
15.9873060461
 10
515.8128206019
 20
15.9873060461
 10
515.9199531973
 20
15.8265909932
 10
515.9199531973
 20
15.5051627887
  0
LWPOLYLINE
  5
3AC
100
AcDbEntity
  8
0
100
AcDbPolyline
 62
2
  6
CONTINUOUS
 90
3
 70
0
 10
516.6164063223
 20
15.9873060461
 10
517.0985334201
 20
14.3801621715
 10
517.5806605179
 20
15.9873060461
  0
LWPOLYLINE
  5
3AD
100
AcDbEntity
  8
0
100
AcDbPolyline
 62
2
  6
CONTINUOUS
 90
9
 70
0
 10
519.1878319589
 20
14.3801621715
 10
518.5449755498
 20
14.3801621715
 10
518.2235169271
 20
14.7015913267
 10
518.2235169271
 20
15.665876891
 10
518.5449755498
 20
15.9873060461
 10
518.8663733362
 20
15.9873060461
 10
519.1878319589
 20
15.665876891
 10
519.1878319589
 20
15.1837336335
 10
518.2235169271
 20
15.1837336335
  0
LWPOLYLINE
  5
3AE
100
AcDbEntity
  8
0
100
AcDbPolyline
 62
2
  6
CONTINUOUS
 90
7
 70
0
 10
520.7949425637
 20
16.6301624552
 10
520.7949425637
 20
14.3801621715
 10
520.1520861545
 20
14.3801621715
 10
519.8306883681
 20
14.5408772244
 10
519.8306883681
 20
15.8265909932
 10
520.1520861545
 20
15.9873060461
 10
520.7949425637
 20
15.9873060461
  0
LWPOLYLINE
  5
3AF
100
AcDbEntity
  8
0
100
AcDbPolyline
 62
2
  6
CONTINUOUS
 90
9
 70
0
 10
521.9199869068
 20
14.7551623773
 10
521.9735227865
 20
14.6480193255
 10
521.9735227865
 20
14.594448275
 10
521.9199869068
 20
14.4873052233
 10
521.8128543113
 20
14.4873052233
 10
521.7592575955
 20
14.594448275
 10
521.7592575955
 20
14.6480193255
 10
521.8128543113
 20
14.7551623773
 10
521.9199869068
 20
14.7551623773
  0
ACAD_TABLE
  5
3B0
100
AcDbEntity
  8
0
 62
2
  6
CONTINUOUS
100
AcDbBlockReference
  2
*T1
 10
490.968182488
 20
54.0676625125
 30
0.0
100
AcDbTable
342
       471
343
228
 11
1.0
 21
0.0
 31
0.0
 90
22
 91
5
 92
5
 93
0
 94
0
 95
0
 96
0
141
6.0
141
6.0
141
10.0
141
5.0
141
13.0
142
10.0
142
10.0
142
10.0
142
40.0
142
20.0
171
1
172
0
173
0
174
0
175
3
176
4
 91
1
178
0
145
0.0
170
5
171
1
172
0
173
1
174
0
175
1
176
1
 91
1
178
0
145
0.0
170
1
171
1
172
0
173
1
174
0
175
1
176
1
 91
1
178
0
145
0.0
170
1
171
1
172
0
173
0
174
0
175
1
176
1
 91
33
178
0
145
0.0
301
CELL_VALUE
 90
4
  1
{\Ftxt.shx;\W7.047619;\H3.000000; }
304
ACVALUE_END
170
4
140
3.0
171
1
172
0
173
0
174
0
175
1
176
1
 91
33
178
0
145
0.0
301
CELL_VALUE
 90
4
  1
{\Ftxt.shx;\W2.571429;\H3.500000; }{\Ftxt.shx;\W1.357143;\H3.500000; }
304
ACVALUE_END
170
1
140
3.5
171
1
172
0
173
1
174
0
175
1
176
1
 91
1
178
0
145
0.0
170
1
171
1
172
0
173
1
174
0
175
1
176
1
 91
1
178
0
145
0.0
170
1
171
1
172
0
173
1
174
0
175
1
176
1
 91
1
178
0
145
0.0
170
1
171
1
172
0
173
0
174
0
175
1
176
1
 91
33
178
0
145
0.0
301
CELL_VALUE
 90
4
  1
{\Ftxt.shx;\W3.714286;\H3.500000; }{\Ftxt.shx;\W1.500000;\H3.500000; }
304
ACVALUE_END
170
1
140
3.5
171
1
172
0
173
0
174
0
175
1
176
1
 91
33
178
0
145
0.0
301
CELL_VALUE
 90
4
  1
{\Ftxt.shx;\W1.428571;\H3.500000; }
304
ACVALUE_END
170
4
140
3.5
171
1
172
0
173
1
174
0
175
1
176
1
 91
1
178
0
145
0.0
170
1
171
1
172
0
173
1
174
0
175
1
176
1
 91
1
178
0
145
0.0
170
1
171
1
172
0
173
1
174
0
175
1
176
1
 91
1
178
0
145
0.0
170
1
171
1
172
0
173
0
174
0
175
2
176
1
 91
33
178
0
145
0.0
301
CELL_VALUE
 90
4
  1
{\Ftxt.shx;\W5.023810;\H3.500000; }
304
ACVALUE_END
170
4
140
3.5
171
1
172
0
173
1
174
0
175
1
176
1
 91
1
178
0
145
0.0
170
1
171
1
172
0
173
1
174
0
175
1
176
1
 91
1
178
0
145
0.0
170
1
171
1
172
0
173
1
174
0
175
1
176
1
 91
1
178
0
145
0.0
170
1
171
1
172
0
173
1
174
0
175
1
176
1
 91
1
178
0
145
0.0
170
1
171
1
172
0
173
0
174
0
175
2
176
1
 91
33
178
0
145
0.0
301
CELL_VALUE
 90
4
  1
{\Ftxt.shx;\W3.690476;\H2.500000; }{\Ftxt.shx;\W7.309524;\H2.500000; }
304
ACVALUE_END
170
4
140
2.5
171
1
172
0
173
1
174
0
175
1
176
1
 91
1
178
0
145
0.0
170
1
171
1
172
0
173
0
174
0
175
5
176
1
 91
33
178
0
145
0.0
301
CELL_VALUE
 90
4
  1
{\Ftxt.shx;\W35.880952;\H2.250000; }\P{\Ftxt.shx;\W22.452381;\H2.250000; }{\Ftxt.shx;\W6.642857;\H2.250000; }{\Ftxt.shx;\W10.595238;\H2.250000; }\P{\Ftxt.shx;\W25.714286;\H2.250000; }\P{\Ftxt.shx;\W13.452381;\H2.250000; }
304
ACVALUE_END
170
4
140
2.25
171
1
172
0
173
1
174
0
175
1
176
1
 91
1
178
0
145
0.0
170
1
171
1
172
0
173
1
174
0
175
1
176
1
 91
1
178
0
145
0.0
170
1
171
1
172
0
173
1
174
0
175
1
176
1
 91
1
178
0
145
0.0
170
1
171
1
172
0
173
1
174
0
175
1
176
1
 91
1
178
0
145
0.0
170
1
  0
LINE
  5
3B1
100
AcDbEntity
  8
0
100
AcDbLine
 62
7
  6
CONTINUOUS
 10
0.0
 20
0.0
 11
594.0
 21
0.0
  0
LINE
  5
3B2
100
AcDbEntity
  8
0
100
AcDbLine
 62
7
  6
CONTINUOUS
 10
0.0
 20
0.0
 11
0.0
 21
841.0
  0
LINE
  5
3B3
100
AcDbEntity
  8
0
100
AcDbLine
 62
7
  6
CONTINUOUS
 10
594.0
 20
0.0
 11
594.0
 21
841.0
  0
LINE
  5
3B4
100
AcDbEntity
  8
0
100
AcDbLine
 62
7
  6
CONTINUOUS
 10
0.0
 20
841.0
 11
594.0
 21
841.0
  0
LINE
  5
3B5
100
AcDbEntity
  8
7_ALL_FEATURES
100
AcDbLine
 62
3
  6
CONTINUOUS
 10
68.8880329905
 20
143.1160199164
 11
68.3880329905
 21
142.6160199164
  0
LINE
  5
3B6
100
AcDbEntity
  8
7_ALL_FEATURES
100
AcDbLine
 62
7
  6
CONTINUOUS
 10
70.5880329905
 20
141.1160199164
 11
70.3880329905
 21
140.9160199164
  0
LINE
  5
3B7
100
AcDbEntity
  8
7_ALL_FEATURES
100
AcDbLine
 62
7
  6
CONTINUOUS
 10
70.3880329905
 20
140.6160199164
 11
70.8880329905
 21
141.1160199164
  0
LINE
  5
3B8
100
AcDbEntity
  8
7_ALL_FEATURES
100
AcDbLine
 62
7
  6
CONTINUOUS
 10
70.3880329905
 20
46.6897966358
 11
70.6380329905
 21
46.3416145156
  0
LINE
  5
3B9
100
AcDbEntity
  8
7_ALL_FEATURES
100
AcDbLine
 62
7
  6
CONTINUOUS
 10
70.8880329905
 20
62.9139372678
 11
70.6380329905
 21
63.262119388
  0
LINE
  5
3BA
100
AcDbEntity
  8
7_ALL_FEATURES
100
AcDbLine
 62
3
  6
CONTINUOUS
 10
68.3880329905
 20
142.6160199164
 11
68.3880329905
 21
109.6160199164
  0
LINE
  5
3BB
100
AcDbEntity
  8
7_ALL_FEATURES
100
AcDbLine
 62
7
  6
CONTINUOUS
 10
70.3880329905
 20
46.6897966358
 11
70.3880329905
 21
140.9160199164
  0
LINE
  5
3BC
100
AcDbEntity
  8
7_ALL_FEATURES
100
AcDbLine
 62
7
  6
CONTINUOUS
 10
70.8880329905
 20
46.2802206136
 11
70.8880329905
 21
62.9139372678
  0
LINE
  5
3BD
100
AcDbEntity
  8
7_ALL_FEATURES
100
AcDbLine
 62
7
  6
CONTINUOUS
 10
70.8880329905
 20
63.6103015081
 11
70.8880329905
 21
140.9028081346
  0
LINE
  5
3BE
100
AcDbEntity
  8
7_ALL_FEATURES
100
AcDbLine
 62
7
  6
CONTINUOUS
 10
189.8880329905
 20
46.2802206136
 11
190.1380329905
 21
46.3416145156
  0
LWPOLYLINE
  5
3BF
100
AcDbEntity
  8
0
100
AcDbPolyline
 62
2
  6
CONTINUOUS
 90
7
 70
0
 43
0.1500000051
 10
130.3880384476
 20
36.1572661856
 10
128.8880300203
 20
36.1572661856
 10
130.3880384476
 20
38.3001234176
 10
130.3880384476
 20
38.7286956245
 10
129.9594472295
 20
39.1572678313
 10
129.3165908203
 20
39.1572678313
 10
128.8880300203
 20
38.5144114222
  0
LINE
  5
3C0
100
AcDbEntity
  8
7_ALL_FEATURES
100
AcDbLine
 62
7
  6
CONTINUOUS
 10
70.6380329905
 20
46.3416145156
 11
70.8880329905
 21
46.2802206136
  0
LINE
  5
3C1
100
AcDbEntity
  8
7_ALL_FEATURES
100
AcDbLine
 62
7
  6
CONTINUOUS
 10
189.8880329905
 20
46.2802206136
 11
70.8880329905
 21
46.2802206136
  0
LWPOLYLINE
  5
3C2
100
AcDbEntity
  8
0
100
AcDbPolyline
 62
2
  6
CONTINUOUS
 90
3
 70
0
 43
0.1500000051
 10
127.1737564019
 20
155.814839265
 10
128.030878002
 20
156.6719912833
 10
128.030878002
 20
153.6719896376
  0
LINE
  5
3C3
100
AcDbEntity
  8
7_ALL_FEATURES
100
AcDbLine
 62
7
  6
CONTINUOUS
 10
190.3880329905
 20
63.3235132899
 11
190.1380329905
 21
63.262119388
  0
LINE
  5
3C4
100
AcDbEntity
  8
7_ALL_FEATURES
100
AcDbLine
 62
7
  6
CONTINUOUS
 10
70.3880329905
 20
63.3235132899
 11
70.6380329905
 21
63.262119388
  0
LINE
  5
3C5
100
AcDbEntity
  8
7_ALL_FEATURES
100
AcDbLine
 62
7
  6
CONTINUOUS
 10
70.8880329905
 20
62.9139372678
 11
189.8880329905
 21
62.9139372678
  0
LINE
  5
3C6
100
AcDbEntity
  8
7_ALL_FEATURES
100
AcDbLine
 62
7
  6
CONTINUOUS
 10
70.8880329905
 20
63.6103015081
 11
189.8880329905
 21
63.6103015081
  0
LINE
  5
3C7
100
AcDbEntity
  8
7_ALL_FEATURES
100
AcDbLine
 62
3
  6
CONTINUOUS
 10
68.3880329905
 20
109.6160199164
 11
68.8880329905
 21
109.1160199164
  0
LINE
  5
3C8
100
AcDbEntity
  8
7_ALL_FEATURES
100
AcDbLine
 62
7
  6
CONTINUOUS
 10
70.6380329905
 20
63.262119388
 11
70.8880329905
 21
63.6103015081
  0
LINE
  5
3C9
100
AcDbEntity
  8
7_ALL_FEATURES
100
AcDbLine
 62
7
  6
CONTINUOUS
 10
70.7814270996
 20
141.0094140255
 11
70.8880329905
 21
140.9028081346
  0
LWPOLYLINE
  5
3CA
100
AcDbEntity
  8
0
100
AcDbPolyline
 62
2
  6
CONTINUOUS
 90
13
 70
0
 43
0.1500000051
 10
131.2451904659
 20
37.0144105993
 10
131.2451904659
 20
38.3001234176
 10
131.4594556568
 20
38.7286956245
 10
131.888046875
 20
39.1572678313
 10
132.102312066
 20
39.1572678313
 10
132.5309032841
 20
38.7286956245
 10
132.7451684751
 20
38.3001234176
 10
132.7451684751
 20
37.0144105993
 10
132.5309032841
 20
36.5858383925
 10
132.102312066
 20
36.1572661856
 10
131.888046875
 20
36.1572661856
 10
131.4594556568
 20
36.5858383925
 10
131.2451904659
 20
37.0144105993
  0
LWPOLYLINE
  5
3CB
100
AcDbEntity
  8
0
100
AcDbPolyline
 62
2
  6
CONTINUOUS
 90
2
 70
0
 43
0.1500000051
 10
132.2451859447
 20
153.6719896376
 10
132.2451859447
 20
155.1719828559
  0
LINE
  5
3CC
100
AcDbEntity
  8
7_ALL_FEATURES
100
AcDbLine
 62
7
  6
CONTINUOUS
 10
189.8880329905
 20
140.9028081346
 11
189.9946388815
 21
141.0094140255
  0
LINE
  5
3CD
100
AcDbEntity
  8
7_ALL_FEATURES
100
AcDbLine
 62
3
  6
CONTINUOUS
 10
68.8880329905
 20
109.1160199164
 11
70.3880329905
 21
109.1160199164
  0
LINE
  5
3CE
100
AcDbEntity
  8
7_ALL_FEATURES
100
AcDbLine
 62
3
  6
CONTINUOUS
 10
190.3880329905
 20
109.1160199164
 11
191.8880329905
 21
109.1160199164
  0
LINE
  5
3CF
100
AcDbEntity
  8
7_ALL_FEATURES
100
AcDbLine
 62
7
  6
CONTINUOUS
 10
189.8880329905
 20
63.6103015081
 11
190.1380329905
 21
63.262119388
  0
LINE
  5
3D0
100
AcDbEntity
  8
7_ALL_FEATURES
100
AcDbLine
 62
3
  6
CONTINUOUS
 10
191.8880329905
 20
109.1160199164
 11
192.3880329905
 21
109.6160199164
  0
LWPOLYLINE
  5
3D1
100
AcDbEntity
  8
0
100
AcDbPolyline
 62
2
  6
CONTINUOUS
 90
2
 70
0
 43
0.1500000051
 10
202.8659769242
 20
127.0088782462
 10
201.3659989149
 20
127.0088782462
  0
LWPOLYLINE
  5
3D2
100
AcDbEntity
  8
0
100
AcDbPolyline
 62
2
  6
CONTINUOUS
 90
3
 70
0
 43
0.1500000051
 10
127.1737564019
 20
38.3001234176
 10
128.030878002
 20
39.1572678313
 10
128.030878002
 20
36.1572661856
  0
LINE
  5
3D3
100
AcDbEntity
  8
7_ALL_FEATURES
100
AcDbLine
 62
7
  6
CONTINUOUS
 10
189.8880329905
 20
140.9028081346
 11
70.8880329905
 21
140.9028081346
  0
LINE
  5
3D4
100
AcDbEntity
  8
7_ALL_FEATURES
100
AcDbLine
 62
7
  6
CONTINUOUS
 10
190.1880329905
 20
141.1160199164
 11
70.5880329905
 21
141.1160199164
  0
LINE
  5
3D5
100
AcDbEntity
  8
7_ALL_FEATURES
100
AcDbLine
 62
3
  6
CONTINUOUS
 10
191.8880329905
 20
143.1160199164
 11
68.8880329905
 21
143.1160199164
  0
LINE
  5
3D6
100
AcDbEntity
  8
7_ALL_FEATURES
100
AcDbLine
 62
7
  6
CONTINUOUS
 10
189.8880329905
 20
46.2802206136
 11
189.8880329905
 21
62.9139372678
  0
LINE
  5
3D7
100
AcDbEntity
  8
7_ALL_FEATURES
100
AcDbLine
 62
7
  6
CONTINUOUS
 10
189.8880329905
 20
63.6103015081
 11
189.8880329905
 21
140.9028081346
  0
LINE
  5
3D8
100
AcDbEntity
  8
7_ALL_FEATURES
100
AcDbLine
 62
7
  6
CONTINUOUS
 10
190.3880329905
 20
46.6897966358
 11
190.3880329905
 21
140.9160199164
  0
LINE
  5
3D9
100
AcDbEntity
  8
7_ALL_FEATURES
100
AcDbLine
 62
3
  6
CONTINUOUS
 10
192.3880329905
 20
109.6160199164
 11
192.3880329905
 21
142.6160199164
  0
LWPOLYLINE
  5
3DA
100
AcDbEntity
  8
0
100
AcDbPolyline
 62
2
  6
CONTINUOUS
 90
7
 70
0
 43
0.1500000051
 10
130.3880384476
 20
153.6719896376
 10
128.8880300203
 20
153.6719896376
 10
130.3880384476
 20
155.814839265
 10
130.3880384476
 20
156.2434152742
 10
129.9594472295
 20
156.6719912833
 10
129.3165908203
 20
156.6719912833
 10
128.8880300203
 20
156.0291348741
  0
LWPOLYLINE
  5
3DB
100
AcDbEntity
  8
0
100
AcDbPolyline
 62
2
  6
CONTINUOUS
 90
3
 70
0
 43
0.1500000051
 10
132.7451684751
 20
154.3148460467
 10
131.2451904659
 20
154.3148460467
 10
131.888046875
 20
156.6719912833
  0
LINE
  5
3DC
100
AcDbEntity
  8
7_ALL_FEATURES
100
AcDbLine
 62
7
  6
CONTINUOUS
 10
190.1380329905
 20
63.262119388
 11
189.8880329905
 21
62.9139372678
  0
LWPOLYLINE
  5
3DD
100
AcDbEntity
  8
0
100
AcDbPolyline
 62
2
  6
CONTINUOUS
 90
3
 70
0
 43
0.1500000051
 10
202.223120515
 20
127.5088759856
 10
202.223120515
 20
126.0088751628
 10
199.8659904876
 20
126.6517315719
  0
LWPOLYLINE
  5
3DE
100
AcDbEntity
  8
0
100
AcDbPolyline
 62
2
  6
CONTINUOUS
 90
6
 70
0
 43
0.1500000051
 10
202.8659769242
 20
123.8660179308
 10
202.8659769242
 20
124.937450349
 10
202.6517117332
 20
125.1517307491
 10
201.5802641059
 20
125.1517307491
 10
201.1517033058
 20
124.7231623445
 10
201.1517033058
 20
124.2945939399
  0
LINE
  5
3DF
100
AcDbEntity
  8
7_ALL_FEATURES
100
AcDbLine
 62
7
  6
CONTINUOUS
 10
190.3880329905
 20
46.6897966358
 11
190.1380329905
 21
46.3416145156
  0
LINE
  5
3E0
100
AcDbEntity
  8
7_ALL_FEATURES
100
AcDbLine
 62
7
  6
CONTINUOUS
 10
189.8880329905
 20
141.1160199164
 11
190.3880329905
 21
140.6160199164
  0
LINE
  5
3E1
100
AcDbEntity
  8
7_ALL_FEATURES
100
AcDbLine
 62
7
  6
CONTINUOUS
 10
190.3880329905
 20
140.9160199164
 11
190.1880329905
 21
141.1160199164
  0
LINE
  5
3E2
100
AcDbEntity
  8
7_ALL_FEATURES
100
AcDbLine
 62
3
  6
CONTINUOUS
 10
192.3880329905
 20
142.6160199164
 11
191.8880329905
 21
143.1160199164
  0
LWPOLYLINE
  5
3E3
100
AcDbEntity
  8
0
100
AcDbPolyline
 62
2
  6
CONTINUOUS
 90
5
 70
0
 43
0.1500000051
 10
201.1517033058
 20
124.7231623445
 10
200.9374076968
 20
125.0803090187
 10
200.2945512876
 20
125.0803090187
 10
199.8659904876
 20
124.7231623445
 10
199.8659904876
 20
123.8660179308
  0
LINE
  5
3E4
100
AcDbEntity
  8
7_ALL_FEATURES
100
AcDbLine
 62
7
  6
CONTINUOUS
 10
68.3880329905
 20
199.9045935398
 11
192.3880329905
 21
199.9045935398
  0
LINE
  5
3E5
100
AcDbEntity
  8
7_ALL_FEATURES
100
AcDbLine
 62
3
  6
CONTINUOUS
 10
68.3880329905
 20
203.9045935398
 11
192.3880329905
 21
203.9045935398
  0
LINE
  5
3E6
100
AcDbEntity
  8
7_ALL_FEATURES
100
AcDbLine
 62
7
  6
CONTINUOUS
 10
94.6663451541
 20
217.6545935398
 11
96.109720827
 21
217.6545935398
  0
LINE
  5
3E7
100
AcDbEntity
  8
7_ALL_FEATURES
100
AcDbLine
 62
7
  6
CONTINUOUS
 10
164.6663451541
 20
217.6545935398
 11
166.109720827
 21
217.6545935398
  0
LINE
  5
3E8
100
AcDbEntity
  8
7_ALL_FEATURES
100
AcDbLine
 62
7
  6
CONTINUOUS
 10
166.109720827
 20
220.1545935398
 11
164.6663451541
 21
220.1545935398
  0
LINE
  5
3E9
100
AcDbEntity
  8
7_ALL_FEATURES
100
AcDbLine
 62
7
  6
CONTINUOUS
 10
96.109720827
 20
220.1545935398
 11
94.6663451541
 21
220.1545935398
  0
LINE
  5
3EA
100
AcDbEntity
  8
7_ALL_FEATURES
100
AcDbLine
 62
7
  6
CONTINUOUS
 10
83.0130329905
 20
772.7791999067
 11
82.0130329905
 21
772.2056234703
  0
LINE
  5
3EB
100
AcDbEntity
  8
7_ALL_FEATURES
100
AcDbLine
 62
7
  6
CONTINUOUS
 10
70.3880329905
 20
798.882117318
 11
70.6380329905
 21
799.2302994382
  0
LINE
  5
3EC
100
AcDbEntity
  8
7_ALL_FEATURES
100
AcDbLine
 62
9
  6
CONTINUOUS
 10
80.8880329905
 20
771.2469945716
 11
81.3880329905
 21
771.6565705937
  0
LINE
  5
3ED
100
AcDbEntity
  8
7_ALL_FEATURES
100
AcDbLine
 62
9
  6
CONTINUOUS
 10
80.8880329905
 20
759.8328234882
 11
81.3880329905
 21
760.2423995103
  0
LINE
  5
3EE
100
AcDbEntity
  8
7_ALL_FEATURES
100
AcDbLine
 62
7
  6
CONTINUOUS
 10
70.6380329905
 20
775.0653141316
 11
70.8880329905
 21
775.4134962518
  0
LINE
  5
3EF
100
AcDbEntity
  8
7_ALL_FEATURES
100
AcDbLine
 62
7
  6
CONTINUOUS
 10
70.8880329905
 20
729.4950175176
 11
70.8428210016
 21
729.4498055287
  0
LINE
  5
3F0
100
AcDbEntity
  8
7_ALL_FEATURES
100
AcDbLine
 62
7
  6
CONTINUOUS
 10
177.7630329905
 20
758.7265772161
 11
178.7630329905
 21
759.3001536524
  0
LINE
  5
3F1
100
AcDbEntity
  8
7_ALL_FEATURES
100
AcDbLine
 62
7
  6
CONTINUOUS
 10
93.9446573176
 20
218.9045935398
 11
94.6663451541
 21
217.6545935398
  0
LINE
  5
3F2
100
AcDbEntity
  8
7_ALL_FEATURES
100
AcDbLine
 62
7
  6
CONTINUOUS
 10
96.8314086635
 20
218.9045935398
 11
96.109720827
 21
220.1545935398
  0
LINE
  5
3F3
100
AcDbEntity
  8
7_ALL_FEATURES
100
AcDbLine
 62
7
  6
CONTINUOUS
 10
189.8880329905
 20
729.4045935398
 11
190.3880329905
 21
729.9045935398
  0
LINE
  5
3F4
100
AcDbEntity
  8
7_ALL_FEATURES
100
AcDbLine
 62
7
  6
CONTINUOUS
 10
190.1380329905
 20
775.0653141316
 11
189.8880329905
 21
774.7171320115
  0
LINE
  5
3F5
100
AcDbEntity
  8
7_ALL_FEATURES
100
AcDbLine
 62
7
  6
CONTINUOUS
 10
163.9446573176
 20
218.9045935398
 11
164.6663451541
 21
217.6545935398
  0
LINE
  5
3F6
100
AcDbEntity
  8
7_ALL_FEATURES
100
AcDbLine
 62
7
  6
CONTINUOUS
 10
166.8314086635
 20
218.9045935398
 11
166.109720827
 21
220.1545935398
  0
LINE
  5
3F7
100
AcDbEntity
  8
7_ALL_FEATURES
100
AcDbLine
 62
7
  6
CONTINUOUS
 10
68.3880329905
 20
199.9045935398
 11
68.3880329905
 21
203.9045935398
  0
LINE
  5
3F8
100
AcDbEntity
  8
7_ALL_FEATURES
100
AcDbLine
 62
7
  6
CONTINUOUS
 10
68.8880329905
 20
199.9045935398
 11
68.8880329905
 21
203.9045935398
  0
LINE
  5
3F9
100
AcDbEntity
  8
7_ALL_FEATURES
100
AcDbLine
 62
7
  6
CONTINUOUS
 10
70.3880329905
 20
728.9045935398
 11
70.3880329905
 21
203.9045935398
  0
LINE
  5
3FA
100
AcDbEntity
  8
7_ALL_FEATURES
100
AcDbLine
 62
7
  6
CONTINUOUS
 10
70.3880329905
 20
729.9045935398
 11
70.3880329905
 21
798.882117318
  0
LINE
  5
3FB
100
AcDbEntity
  8
7_ALL_FEATURES
100
AcDbLine
 62
7
  6
CONTINUOUS
 10
70.5880329905
 20
728.9045935398
 11
70.5880329905
 21
203.9045935398
  0
LINE
  5
3FC
100
AcDbEntity
  8
7_ALL_FEATURES
100
AcDbLine
 62
7
  6
CONTINUOUS
 10
70.8880329905
 20
774.7171320115
 11
70.8880329905
 21
729.4950175176
  0
LINE
  5
3FD
100
AcDbEntity
  8
7_ALL_FEATURES
100
AcDbLine
 62
7
  6
CONTINUOUS
 10
70.8880329905
 20
775.4134962518
 11
70.8880329905
 21
799.1689055362
  0
LINE
  5
3FE
100
AcDbEntity
  8
7_ALL_FEATURES
100
AcDbLine
 62
7
  6
CONTINUOUS
 10
71.1380329905
 20
729.4045935398
 11
71.1380329905
 21
728.9045935398
  0
LINE
  5
3FF
100
AcDbEntity
  8
7_ALL_FEATURES
100
AcDbLine
 62
7
  6
CONTINUOUS
 10
80.8880329905
 20
759.8328234882
 11
80.8880329905
 21
771.2469945716
  0
LINE
  5
400
100
AcDbEntity
  8
7_ALL_FEATURES
100
AcDbLine
 62
7
  6
CONTINUOUS
 10
81.3880329905
 20
760.2423995103
 11
81.3880329905
 21
771.6565705937
  0
LINE
  5
401
100
AcDbEntity
  8
7_ALL_FEATURES
100
AcDbLine
 62
7
  6
CONTINUOUS
 10
82.0130329905
 20
759.3001536524
 11
82.0130329905
 21
772.6664323016
  0
LINE
  5
402
100
AcDbEntity
  8
7_ALL_FEATURES
100
AcDbLine
 62
7
  6
CONTINUOUS
 10
83.0130329905
 20
772.7791999067
 11
83.0130329905
 21
773.014306352
  0
LINE
  5
403
100
AcDbEntity
  8
7_ALL_FEATURES
100
AcDbLine
 62
9
  6
CONTINUOUS
 10
84.1880329905
 20
757.9400212482
 11
84.1880329905
 21
758.7265772161
  0
LWPOLYLINE
  5
404
100
AcDbEntity
  8
0
100
AcDbPolyline
 62
2
  6
CONTINUOUS
 90
13
 70
0
 43
0.1500000051
 10
205.4018133681
 20
498.4195868779
 10
204.1161005498
 20
498.4195868779
 10
203.6875093316
 20
498.6338520689
 10
203.2589485315
 20
499.062443287
 10
203.2589485315
 20
499.276708478
 10
203.6875093316
 20
499.7052996962
 10
204.1161005498
 20
499.9195648872
 10
205.4018133681
 20
499.9195648872
 10
205.8303741681
 20
499.7052996962
 10
206.2589349682
 20
499.276708478
 10
206.2589349682
 20
499.062443287
 10
205.8303741681
 20
498.6338520689
 10
205.4018133681
 20
498.4195868779
  0
LWPOLYLINE
  5
405
100
AcDbEntity
  8
0
100
AcDbPolyline
 62
2
  6
CONTINUOUS
 90
13
 70
0
 43
0.1500000051
 10
205.4018133681
 20
500.7767169054
 10
204.1161005498
 20
500.7767169054
 10
203.6875093316
 20
500.9910125145
 10
203.2589485315
 20
501.4195733145
 10
203.2589485315
 20
501.6338689236
 10
203.6875093316
 20
502.0624297237
 10
204.1161005498
 20
502.2767253328
 10
205.4018133681
 20
502.2767253328
 10
205.8303741681
 20
502.0624297237
 10
206.2589349682
 20
501.6338689236
 10
206.2589349682
 20
501.4195733145
 10
205.8303741681
 20
500.9910125145
 10
205.4018133681
 20
500.7767169054
  0
LINE
  5
406
100
AcDbEntity
  8
7_ALL_FEATURES
100
AcDbLine
 62
9
  6
CONTINUOUS
 10
176.5880329905
 20
757.9400212482
 11
176.5880329905
 21
758.7265772161
  0
LINE
  5
407
100
AcDbEntity
  8
7_ALL_FEATURES
100
AcDbLine
 62
7
  6
CONTINUOUS
 10
177.7630329905
 20
772.7791999067
 11
177.7630329905
 21
773.0143063522
  0
LINE
  5
408
100
AcDbEntity
  8
7_ALL_FEATURES
100
AcDbLine
 62
7
  6
CONTINUOUS
 10
178.7630329905
 20
759.3001536524
 11
178.7630329905
 21
772.6664323023
  0
LINE
  5
409
100
AcDbEntity
  8
7_ALL_FEATURES
100
AcDbLine
 62
7
  6
CONTINUOUS
 10
179.3880329905
 20
771.6565705937
 11
179.3880329905
 21
760.2423995103
  0
LINE
  5
40A
100
AcDbEntity
  8
7_ALL_FEATURES
100
AcDbLine
 62
7
  6
CONTINUOUS
 10
179.8880329905
 20
771.2469945716
 11
179.8880329905
 21
759.8328234882
  0
LINE
  5
40B
100
AcDbEntity
  8
7_ALL_FEATURES
100
AcDbLine
 62
7
  6
CONTINUOUS
 10
189.6380329905
 20
729.4045935398
 11
189.6380329905
 21
728.9045935398
  0
LINE
  5
40C
100
AcDbEntity
  8
7_ALL_FEATURES
100
AcDbLine
 62
7
  6
CONTINUOUS
 10
189.8880329905
 20
729.4950175176
 11
189.8880329905
 21
774.7171320115
  0
LINE
  5
40D
100
AcDbEntity
  8
7_ALL_FEATURES
100
AcDbLine
 62
7
  6
CONTINUOUS
 10
189.8880329905
 20
775.4134962518
 11
189.8880329905
 21
799.1689055362
  0
LINE
  5
40E
100
AcDbEntity
  8
7_ALL_FEATURES
100
AcDbLine
 62
7
  6
CONTINUOUS
 10
190.1880329905
 20
728.9045935398
 11
190.1880329905
 21
203.9045935398
  0
LINE
  5
40F
100
AcDbEntity
  8
7_ALL_FEATURES
100
AcDbLine
 62
7
  6
CONTINUOUS
 10
190.3880329905
 20
728.9045935398
 11
190.3880329905
 21
203.9045935398
  0
LINE
  5
410
100
AcDbEntity
  8
7_ALL_FEATURES
100
AcDbLine
 62
7
  6
CONTINUOUS
 10
190.3880329905
 20
729.9045935398
 11
190.3880329905
 21
798.882117318
  0
LINE
  5
411
100
AcDbEntity
  8
7_ALL_FEATURES
100
AcDbLine
 62
7
  6
CONTINUOUS
 10
191.8880329905
 20
199.9045935398
 11
191.8880329905
 21
203.9045935398
  0
LINE
  5
412
100
AcDbEntity
  8
7_ALL_FEATURES
100
AcDbLine
 62
7
  6
CONTINUOUS
 10
192.3880329905
 20
199.9045935398
 11
192.3880329905
 21
203.9045935398
  0
LWPOLYLINE
  5
413
100
AcDbEntity
  8
0
100
AcDbPolyline
 62
2
  6
CONTINUOUS
 90
10
 70
0
 43
0.1500000051
 10
203.2589485315
 20
497.1338436415
 10
203.9018049407
 20
496.4909872323
 10
204.7589569589
 20
496.0624264323
 10
205.8303741681
 20
496.0624264323
 10
206.2589349682
 20
496.4909872323
 10
206.2589349682
 20
497.1338436415
 10
205.8303741681
 20
497.5624348597
 10
204.9732221499
 20
497.5624348597
 10
204.5446613498
 20
497.1338436415
 10
204.5446613498
 20
496.2053003111
  0
LINE
  5
414
100
AcDbEntity
  8
7_ALL_FEATURES
100
AcDbLine
 62
7
  6
CONTINUOUS
 10
94.6663451541
 20
220.1545935398
 11
93.9446573176
 21
218.9045935398
  0
LINE
  5
415
100
AcDbEntity
  8
7_ALL_FEATURES
100
AcDbLine
 62
7
  6
CONTINUOUS
 10
96.109720827
 20
217.6545935398
 11
96.8314086635
 21
218.9045935398
  0
LINE
  5
416
100
AcDbEntity
  8
7_ALL_FEATURES
100
AcDbLine
 62
7
  6
CONTINUOUS
 10
70.8880329905
 20
729.4045935398
 11
70.3880329905
 21
729.9045935398
  0
LINE
  5
417
100
AcDbEntity
  8
7_ALL_FEATURES
100
AcDbLine
 62
7
  6
CONTINUOUS
 10
70.8880329905
 20
774.7171320115
 11
70.6380329905
 21
775.0653141316
  0
LINE
  5
418
100
AcDbEntity
  8
7_ALL_FEATURES
100
AcDbLine
 62
7
  6
CONTINUOUS
 10
164.6663451541
 20
220.1545935398
 11
163.9446573176
 21
218.9045935398
  0
LINE
  5
419
100
AcDbEntity
  8
7_ALL_FEATURES
100
AcDbLine
 62
7
  6
CONTINUOUS
 10
166.109720827
 20
217.6545935398
 11
166.8314086635
 21
218.9045935398
  0
LINE
  5
41A
100
AcDbEntity
  8
7_ALL_FEATURES
100
AcDbLine
 62
7
  6
CONTINUOUS
 10
82.0130329905
 20
759.3001536524
 11
83.0130329905
 21
758.7265772161
  0
LINE
  5
41B
100
AcDbEntity
  8
7_ALL_FEATURES
100
AcDbLine
 62
7
  6
CONTINUOUS
 10
189.9332449795
 20
729.4498055287
 11
189.8880329905
 21
729.4950175176
  0
LINE
  5
41C
100
AcDbEntity
  8
7_ALL_FEATURES
100
AcDbLine
 62
7
  6
CONTINUOUS
 10
189.8880329905
 20
775.4134962518
 11
190.1380329905
 21
775.0653141316
  0
LINE
  5
41D
100
AcDbEntity
  8
7_ALL_FEATURES
100
AcDbLine
 62
7
  6
CONTINUOUS
 10
190.3880329905
 20
798.882117318
 11
190.1380329905
 21
799.2302994382
  0
LINE
  5
41E
100
AcDbEntity
  8
7_ALL_FEATURES
100
AcDbLine
 62
7
  6
CONTINUOUS
 10
70.3880329905
 20
728.9045935398
 11
190.3880329905
 21
728.9045935398
  0
LINE
  5
41F
100
AcDbEntity
  8
7_ALL_FEATURES
100
AcDbLine
 62
7
  6
CONTINUOUS
 10
70.8880329905
 20
729.4045935398
 11
189.8880329905
 21
729.4045935398
  0
LINE
  5
420
100
AcDbEntity
  8
7_ALL_FEATURES
100
AcDbLine
 62
7
  6
CONTINUOUS
 10
70.8880329905
 20
729.4950175176
 11
189.8880329905
 21
729.4950175176
  0
LINE
  5
421
100
AcDbEntity
  8
7_ALL_FEATURES
100
AcDbLine
 62
9
  6
CONTINUOUS
 10
179.8880329905
 20
759.8328234882
 11
179.3880329905
 21
760.2423995103
  0
LINE
  5
422
100
AcDbEntity
  8
7_ALL_FEATURES
100
AcDbLine
 62
9
  6
CONTINUOUS
 10
179.8880329905
 20
771.2469945716
 11
179.3880329905
 21
771.6565705937
  0
LINE
  5
423
100
AcDbEntity
  8
7_ALL_FEATURES
100
AcDbLine
 62
7
  6
CONTINUOUS
 10
190.3880329905
 20
775.1267080336
 11
190.1380329905
 21
775.0653141316
  0
LINE
  5
424
100
AcDbEntity
  8
7_ALL_FEATURES
100
AcDbLine
 62
7
  6
CONTINUOUS
 10
176.5880329905
 20
757.9400212482
 11
84.1880329905
 21
757.9400212482
  0
LINE
  5
425
100
AcDbEntity
  8
7_ALL_FEATURES
100
AcDbLine
 62
7
  6
CONTINUOUS
 10
176.5880329905
 20
758.6363854885
 11
84.1880329905
 21
758.6363854885
  0
LINE
  5
426
100
AcDbEntity
  8
7_ALL_FEATURES
100
AcDbLine
 62
7
  6
CONTINUOUS
 10
83.0130329905
 20
758.7265772161
 11
177.7630329905
 21
758.7265772161
  0
LINE
  5
427
100
AcDbEntity
  8
7_ALL_FEATURES
100
AcDbLine
 62
7
  6
CONTINUOUS
 10
70.3880329905
 20
775.1267080336
 11
70.6380329905
 21
775.0653141316
  0
LINE
  5
428
100
AcDbEntity
  8
7_ALL_FEATURES
100
AcDbLine
 62
7
  6
CONTINUOUS
 10
178.7630329905
 20
772.2056234703
 11
177.7630329905
 21
772.7791999067
  0
LINE
  5
429
100
AcDbEntity
  8
7_ALL_FEATURES
100
AcDbLine
 62
7
  6
CONTINUOUS
 10
190.1380329905
 20
799.2302994382
 11
189.8880329905
 21
799.1689055362
  0
LINE
  5
42A
100
AcDbEntity
  8
7_ALL_FEATURES
100
AcDbLine
 62
7
  6
CONTINUOUS
 10
70.6380329905
 20
799.2302994382
 11
70.8880329905
 21
799.2916933402
  0
LINE
  5
42B
100
AcDbEntity
  8
7_ALL_FEATURES
100
AcDbLine
 62
7
  6
CONTINUOUS
 10
177.7630329905
 20
772.7791999067
 11
83.0130329905
 21
772.7791999067
  0
LINE
  5
42C
100
AcDbEntity
  8
7_ALL_FEATURES
100
AcDbLine
 62
7
  6
CONTINUOUS
 10
84.1880329905
 20
773.1397968115
 11
176.5880329905
 21
773.1397968115
  0
LINE
  5
42D
100
AcDbEntity
  8
7_ALL_FEATURES
100
AcDbLine
 62
7
  6
CONTINUOUS
 10
189.8880329905
 20
774.7171320115
 11
70.8880329905
 21
774.7171320115
  0
LINE
  5
42E
100
AcDbEntity
  8
7_ALL_FEATURES
100
AcDbLine
 62
7
  6
CONTINUOUS
 10
189.8880329905
 20
775.4134962518
 11
70.8880329905
 21
775.4134962518
  0
LINE
  5
42F
100
AcDbEntity
  8
7_ALL_FEATURES
100
AcDbLine
 62
7
  6
CONTINUOUS
 10
70.8880329905
 20
799.1689055362
 11
189.8880329905
 21
799.1689055362
  0
LINE
  5
430
100
AcDbEntity
  8
7_ALL_FEATURES
100
AcDbLine
 62
7
  6
CONTINUOUS
 10
70.8880329905
 20
799.2916933402
 11
189.8880329905
 21
799.2916933402
  0
LINE
  5
431
100
AcDbEntity
  8
7_ALL_FEATURES
100
AcDbLine
 62
7
  6
CONTINUOUS
 10
70.8880329905
 20
799.1689055362
 11
70.6380329905
 21
799.2302994382
  0
LINE
  5
432
100
AcDbEntity
  8
7_ALL_FEATURES
100
AcDbLine
 62
7
  6
CONTINUOUS
 10
189.8880329905
 20
799.2916933402
 11
190.1380329905
 21
799.2302994382
  0
LWPOLYLINE
  5
433
100
AcDbEntity
  8
0
100
AcDbPolyline
 62
2
  6
CONTINUOUS
 90
6
 70
0
 43
0.1500000051
 10
355.7070197483
 20
188.6691241862
 10
356.7784673756
 20
188.6691241862
 10
356.9927325666
 20
188.8834045862
 10
356.9927325666
 20
189.9548370045
 10
356.5642021846
 20
190.3833978045
 10
356.1356109664
 20
190.3833978045
  0
LWPOLYLINE
  5
434
100
AcDbEntity
  8
0
100
AcDbPolyline
 62
2
  6
CONTINUOUS
 90
3
 70
0
 43
0.1500000051
 10
359.3498930122
 20
189.3119805953
 10
357.8499150029
 20
189.3119805953
 10
358.492771412
 20
191.6691106228
  0
LINE
  5
435
100
AcDbEntity
  8
7_ALL_FEATURES
100
AcDbLine
 62
7
  6
CONTINUOUS
 10
340.9570368118
 20
199.9045935398
 11
374.9570368118
 21
199.9045935398
  0
LINE
  5
436
100
AcDbEntity
  8
7_ALL_FEATURES
100
AcDbLine
 62
3
  6
CONTINUOUS
 10
340.9570368118
 20
203.9045935398
 11
374.9570368118
 21
203.9045935398
  0
LWPOLYLINE
  5
437
100
AcDbEntity
  8
0
100
AcDbPolyline
 62
2
  6
CONTINUOUS
 90
10
 70
0
 43
0.1500000051
 10
387.5897653356
 20
813.0379667245
 10
388.4468869358
 20
813.8951491609
 10
388.661212963
 20
814.752270761
 10
388.661212963
 20
815.6093923611
 10
388.2326217448
 20
816.0379835793
 10
387.5897653356
 20
816.0379835793
 10
387.1611741175
 20
815.6093923611
 10
387.1611741175
 20
814.752270761
 10
387.5897653356
 20
814.3236795428
 10
388.5183086661
 20
814.3236795428
  0
LINE
  5
438
100
AcDbEntity
  8
7_ALL_FEATURES
100
AcDbLine
 62
7
  6
CONTINUOUS
 10
420.4627552201
 20
799.2916933402
 11
343.1702485937
 21
745.1708975532
  0
LINE
  5
439
100
AcDbEntity
  8
7_ALL_FEATURES
100
AcDbLine
 62
7
  6
CONTINUOUS
 10
420.7495434383
 20
798.882117318
 11
343.4570368118
 21
744.761321531
  0
LINE
  5
43A
100
AcDbEntity
  8
7_ALL_FEATURES
100
AcDbLine
 62
7
  6
CONTINUOUS
 10
372.7993874174
 20
729.4045935398
 11
373.0861756356
 21
729.4950175176
  0
LINE
  5
43B
100
AcDbEntity
  8
7_ALL_FEATURES
100
AcDbLine
 62
7
  6
CONTINUOUS
 10
343.2070368118
 20
729.6545935398
 11
343.4570368118
 21
729.9045935398
  0
LINE
  5
43C
100
AcDbEntity
  8
7_ALL_FEATURES
100
AcDbLine
 62
7
  6
CONTINUOUS
 10
437.3832600925
 20
775.1267080336
 11
372.7993874174
 21
729.9045935398
  0
LINE
  5
43D
100
AcDbEntity
  8
7_ALL_FEATURES
100
AcDbLine
 62
7
  6
CONTINUOUS
 10
437.6700483107
 20
774.7171320115
 11
373.0861756356
 21
729.4950175176
  0
LINE
  5
43E
100
AcDbEntity
  8
7_ALL_FEATURES
100
AcDbLine
 62
7
  6
CONTINUOUS
 10
342.9570368118
 20
744.761321531
 11
343.1702485937
 21
745.1708975532
  0
LINE
  5
43F
100
AcDbEntity
  8
7_ALL_FEATURES
100
AcDbLine
 62
7
  6
CONTINUOUS
 10
340.9570368118
 20
199.9045935398
 11
340.9570368118
 21
203.9045935398
  0
LINE
  5
440
100
AcDbEntity
  8
7_ALL_FEATURES
100
AcDbLine
 62
7
  6
CONTINUOUS
 10
341.4570368118
 20
199.9045935398
 11
341.4570368118
 21
203.9045935398
  0
LINE
  5
441
100
AcDbEntity
  8
7_ALL_FEATURES
100
AcDbLine
 62
7
  6
CONTINUOUS
 10
342.9570368118
 20
744.761321531
 11
342.9570368118
 21
729.9045935398
  0
LINE
  5
442
100
AcDbEntity
  8
7_ALL_FEATURES
100
AcDbLine
 62
7
  6
CONTINUOUS
 10
342.9570368118
 20
728.9045935398
 11
342.9570368118
 21
203.9045935398
  0
LINE
  5
443
100
AcDbEntity
  8
7_ALL_FEATURES
100
AcDbLine
 62
7
  6
CONTINUOUS
 10
343.1570368118
 20
728.9045935398
 11
343.1570368118
 21
203.9045935398
  0
LINE
  5
444
100
AcDbEntity
  8
7_ALL_FEATURES
100
AcDbLine
 62
7
  6
CONTINUOUS
 10
343.4570368118
 20
744.761321531
 11
343.4570368118
 21
729.9045935398
  0
LINE
  5
445
100
AcDbEntity
  8
7_ALL_FEATURES
100
AcDbLine
 62
7
  6
CONTINUOUS
 10
343.8782121146
 20
729.4045935398
 11
343.8782121146
 21
728.9045935398
  0
LWPOLYLINE
  5
446
100
AcDbEntity
  8
0
100
AcDbPolyline
 62
2
  6
CONTINUOUS
 90
2
 70
0
 43
0.1500000051
 10
358.8498800637
 20
188.6691241862
 10
358.8498800637
 20
190.1691174045
  0
LINE
  5
447
100
AcDbEntity
  8
7_ALL_FEATURES
100
AcDbLine
 62
7
  6
CONTINUOUS
 10
420.7495434383
 20
798.882117318
 11
420.8109373403
 21
799.2302994382
  0
LINE
  5
448
100
AcDbEntity
  8
7_ALL_FEATURES
100
AcDbLine
 62
7
  6
CONTINUOUS
 10
372.3782121146
 20
729.4045935398
 11
372.3782121146
 21
728.9045935398
  0
LINE
  5
449
100
AcDbEntity
  8
7_ALL_FEATURES
100
AcDbLine
 62
7
  6
CONTINUOUS
 10
372.7570368118
 20
728.9045935398
 11
372.7570368118
 21
203.9045935398
  0
LINE
  5
44A
100
AcDbEntity
  8
7_ALL_FEATURES
100
AcDbLine
 62
7
  6
CONTINUOUS
 10
372.9570368118
 20
728.9045935398
 11
372.9570368118
 21
203.9045935398
  0
LINE
  5
44B
100
AcDbEntity
  8
7_ALL_FEATURES
100
AcDbLine
 62
7
  6
CONTINUOUS
 10
374.4570368118
 20
199.9045935398
 11
374.4570368118
 21
203.9045935398
  0
LINE
  5
44C
100
AcDbEntity
  8
7_ALL_FEATURES
100
AcDbLine
 62
7
  6
CONTINUOUS
 10
374.9570368118
 20
199.9045935398
 11
374.9570368118
 21
203.9045935398
  0
LWPOLYLINE
  5
44D
100
AcDbEntity
  8
0
100
AcDbPolyline
 62
2
  6
CONTINUOUS
 90
4
 70
0
 43
0.1500000051
 10
389.5183345631
 20
815.3951271701
 10
389.5183345631
 20
816.0379835793
 10
391.0183125723
 20
816.0379835793
 10
390.1611909722
 20
813.0379667245
  0
LINE
  5
44E
100
AcDbEntity
  8
7_ALL_FEATURES
100
AcDbLine
 62
7
  6
CONTINUOUS
 10
437.6700483107
 20
774.7171320115
 11
437.7928361146
 21
775.4134962518
  0
LINE
  5
44F
100
AcDbEntity
  8
7_ALL_FEATURES
100
AcDbLine
 62
7
  6
CONTINUOUS
 10
372.9427815265
 20
729.4498055287
 11
372.7993874174
 21
729.9045935398
  0
LINE
  5
450
100
AcDbEntity
  8
7_ALL_FEATURES
100
AcDbLine
 62
7
  6
CONTINUOUS
 10
343.4570368118
 20
729.4045935398
 11
342.9570368118
 21
729.9045935398
  0
LINE
  5
451
100
AcDbEntity
  8
7_ALL_FEATURES
100
AcDbLine
 62
7
  6
CONTINUOUS
 10
343.4570368118
 20
744.761321531
 11
343.0636427027
 21
744.9661095421
  0
LINE
  5
452
100
AcDbEntity
  8
7_ALL_FEATURES
100
AcDbLine
 62
7
  6
CONTINUOUS
 10
437.3832600925
 20
775.1267080336
 11
420.7495434383
 21
798.882117318
  0
LINE
  5
453
100
AcDbEntity
  8
7_ALL_FEATURES
100
AcDbLine
 62
7
  6
CONTINUOUS
 10
437.7928361146
 20
775.4134962518
 11
421.1591194604
 21
799.1689055362
  0
LINE
  5
454
100
AcDbEntity
  8
7_ALL_FEATURES
100
AcDbLine
 62
7
  6
CONTINUOUS
 10
342.9570368118
 20
728.9045935398
 11
372.9570368118
 21
728.9045935398
  0
LINE
  5
455
100
AcDbEntity
  8
7_ALL_FEATURES
100
AcDbLine
 62
7
  6
CONTINUOUS
 10
343.4570368118
 20
729.4045935398
 11
372.7993874174
 21
729.4045935398
  0
LINE
  5
456
100
AcDbEntity
  8
7_ALL_FEATURES
100
AcDbLine
 62
7
  6
CONTINUOUS
 10
343.4570368118
 20
729.9045935398
 11
372.7993874174
 21
729.9045935398
  0
LWPOLYLINE
  5
457
100
AcDbEntity
  8
0
100
AcDbPolyline
 62
2
  6
CONTINUOUS
 90
5
 70
0
 43
0.1500000051
 10
356.5642021846
 20
190.3833978045
 10
356.9213108362
 20
190.5976934136
 10
356.9213108362
 20
191.2405498228
 10
356.5642021846
 20
191.6691106228
 10
355.7070197483
 20
191.6691106228
  0
LINE
  5
458
100
AcDbEntity
  8
7_ALL_FEATURES
100
AcDbLine
 62
7
  6
CONTINUOUS
 10
437.3832600925
 20
775.1267080336
 11
437.7314422126
 21
775.0653141316
  0
LINE
  5
459
100
AcDbEntity
  8
7_ALL_FEATURES
100
AcDbLine
 62
7
  6
CONTINUOUS
 10
421.1591194604
 20
799.1689055362
 11
420.4627552201
 21
799.2916933402
  0
CIRCLE
  5
45A
100
AcDbEntity
  8
7_ALL_FEATURES
100
AcDbCircle
 62
7
  6
CONTINUOUS
 10
95.3880329905
 20
218.9045935398
 40
4.35
  0
CIRCLE
  5
45B
100
AcDbEntity
  8
7_ALL_FEATURES
100
AcDbCircle
 62
7
  6
CONTINUOUS
 10
165.3880329905
 20
218.9045935398
 40
4.35
  0
CIRCLE
  5
45C
100
AcDbEntity
  8
02___PRT_ALL_AXES
100
AcDbCircle
 62
7
  6
CONTINUOUS
 10
165.3880329905
 20
218.9045935398
 40
4.0
  0
CIRCLE
  5
45D
100
AcDbEntity
  8
02___PRT_ALL_AXES
100
AcDbCircle
 62
7
  6
CONTINUOUS
 10
95.3880329905
 20
218.9045935398
 40
4.0
  0
SPLINE
  5
45E
100
AcDbEntity
  8
7_ALL_FEATURES
100
AcDbSpline
 62
7
  6
CONTINUOUS
 70
0
 71
3
 72
11
 73
7
 74
0
 42
0.0000001
 43
0.0000001
 44
0.0000000001
 40
0.0
 40
0.0
 40
0.0
 40
0.0
 40
0.2665667287
 40
0.5261598911
 40
0.7723746602
 40
1.0
 40
1.0
 40
1.0
 40
1.0
 10
176.5880329905
 20
773.1397968115
 30
0.0
 10
176.8056036143
 20
773.1397968115
 30
0.0
 10
177.2354613882
 20
773.1155496767
 30
0.0
 10
177.8580125656
 20
773.0073077063
 30
0.0
 10
178.4319423982
 20
772.8315709319
 30
0.0
 10
178.7836428002
 20
772.6661484008
 30
0.0
 10
178.9440176021
 20
772.5723578434
 30
0.0
  0
SPLINE
  5
45F
100
AcDbEntity
  8
7_ALL_FEATURES
100
AcDbSpline
 62
7
  6
CONTINUOUS
 70
0
 71
3
 72
11
 73
7
 74
0
 42
0.0000001
 43
0.0000001
 44
0.0000000001
 40
0.0
 40
0.0
 40
0.0
 40
0.0
 40
0.2286977422
 40
0.4669063787
 40
0.7223438999
 40
1.0
 40
1.0
 40
1.0
 40
1.0
 10
81.3880329905
 20
771.6565705937
 30
0.0
 10
81.3880329905
 20
771.7352834935
 30
0.0
 10
81.409091262
 20
771.8966654299
 30
0.0
 10
81.5017095506
 20
772.1297354986
 30
0.0
 10
81.6519520644
 20
772.3507512991
 30
0.0
 10
81.7821026726
 20
772.4815255644
 30
0.0
 10
81.8543753063
 20
772.5440476854
 30
0.0
  0
SPLINE
  5
460
100
AcDbEntity
  8
7_ALL_FEATURES
100
AcDbSpline
 62
7
  6
CONTINUOUS
 70
0
 71
3
 72
9
 73
5
 74
0
 42
0.0000001
 43
0.0000001
 44
0.0000000001
 40
0.0
 40
0.0
 40
0.0
 40
0.0
 40
0.2444130248
 40
1.0
 40
1.0
 40
1.0
 40
1.0
 10
81.8543753063
 20
772.5440476854
 30
0.0
 10
81.8681820671
 20
772.5559917356
 30
0.0
 10
81.9253728005
 20
772.6040461993
 30
0.0
 10
81.9852501696
 20
772.6488807503
 30
0.0
 10
82.0316486472
 20
772.6810116547
 30
0.0
  0
SPLINE
  5
461
100
AcDbEntity
  8
7_ALL_FEATURES
100
AcDbSpline
 62
7
  6
CONTINUOUS
 70
0
 71
3
 72
11
 73
7
 74
0
 42
0.0000001
 43
0.0000001
 44
0.0000000001
 40
0.0
 40
0.0
 40
0.0
 40
0.0
 40
0.2276253398
 40
0.4738401088
 40
0.7334332713
 40
1.0
 40
1.0
 40
1.0
 40
1.0
 10
81.832048379
 20
772.5723578435
 30
0.0
 10
81.9924231809
 20
772.6661484008
 30
0.0
 10
82.3441235829
 20
772.8315709319
 30
0.0
 10
82.9180534155
 20
773.0073077063
 30
0.0
 10
83.5406045929
 20
773.1155496767
 30
0.0
 10
83.9704623668
 20
773.1397968115
 30
0.0
 10
84.1880329905
 20
773.1397968115
 30
0.0
  0
SPLINE
  5
462
100
AcDbEntity
  8
7_ALL_FEATURES
100
AcDbSpline
 62
7
  6
CONTINUOUS
 70
0
 71
3
 72
9
 73
5
 74
0
 42
0.0000001
 43
0.0000001
 44
0.0000000001
 40
0.0
 40
0.0
 40
0.0
 40
0.0
 40
0.2556820082
 40
1.0
 40
1.0
 40
1.0
 40
1.0
 10
178.7444173437
 20
772.6810116479
 30
0.0
 10
178.7601179315
 20
772.6701390047
 30
0.0
 10
178.8209866541
 20
772.6268465093
 30
0.0
 10
178.8796448913
 20
772.580420949
 30
0.0
 10
178.9216906748
 20
772.5440476854
 30
0.0
  0
SPLINE
  5
463
100
AcDbEntity
  8
7_ALL_FEATURES
100
AcDbSpline
 62
7
  6
CONTINUOUS
 70
0
 71
3
 72
11
 73
7
 74
0
 42
0.0000001
 43
0.0000001
 44
0.0000000001
 40
0.0
 40
0.0
 40
0.0
 40
0.0
 40
0.2776561001
 40
0.5330936213
 40
0.7713022578
 40
1.0
 40
1.0
 40
1.0
 40
1.0
 10
178.9216906748
 20
772.5440476854
 30
0.0
 10
178.9939633085
 20
772.4815255644
 30
0.0
 10
179.1241139167
 20
772.3507512991
 30
0.0
 10
179.2743564305
 20
772.1297354986
 30
0.0
 10
179.3669747191
 20
771.8966654299
 30
0.0
 10
179.3880329905
 20
771.7352834936
 30
0.0
 10
179.3880329905
 20
771.6565705937
 30
0.0
  0
SPLINE
  5
464
100
AcDbEntity
  8
7_ALL_FEATURES
100
AcDbSpline
 62
7
  6
CONTINUOUS
 70
0
 71
3
 72
12
 73
8
 74
0
 42
0.0000001
 43
0.0000001
 44
0.0000000001
 40
0.0
 40
0.0
 40
0.0
 40
0.0
 40
0.1081920974
 40
0.2184117599
 40
0.4514097208
 40
0.7104129338
 40
1.0
 40
1.0
 40
1.0
 40
1.0
 10
80.8880329905
 20
771.2469945716
 30
0.0
 10
80.8880329905
 20
771.3082939344
 30
0.0
 10
80.8986301153
 20
771.4322949929
 30
0.0
 10
80.9626620642
 20
771.6809502806
 30
0.0
 10
81.1270917574
 20
771.9861041283
 30
0.0
 10
81.4336287888
 20
772.3107380802
 30
0.0
 10
81.6904165731
 20
772.4895285844
 30
0.0
 10
81.832048379
 20
772.5723578435
 30
0.0
  0
SPLINE
  5
465
100
AcDbEntity
  8
7_ALL_FEATURES
100
AcDbSpline
 62
7
  6
CONTINUOUS
 70
0
 71
3
 72
9
 73
5
 74
0
 42
0.0000001
 43
0.0000001
 44
0.0000000001
 40
0.0
 40
0.0
 40
0.0
 40
0.0
 40
0.2531200985
 40
1.0
 40
1.0
 40
1.0
 40
1.0
 10
84.1880329905
 20
758.6363854885
 30
0.0
 10
84.1096729273
 20
758.6363854885
 30
0.0
 10
83.8001599133
 20
758.6438428277
 30
0.0
 10
83.4912106194
 20
758.6808263731
 30
0.0
 10
83.2645016155
 20
758.7262589752
 30
0.0
  0
SPLINE
  5
466
100
AcDbEntity
  8
7_ALL_FEATURES
100
AcDbSpline
 62
7
  6
CONTINUOUS
 70
0
 71
3
 72
13
 73
9
 74
0
 42
0.0000001
 43
0.0000001
 44
0.0000000001
 40
0.0
 40
0.0
 40
0.0
 40
0.0
 40
0.3021642492
 40
0.5670842651
 40
0.6855253332
 40
0.7956656023
 40
0.8995329249
 40
1.0
 40
1.0
 40
1.0
 40
1.0
 10
82.7985572487
 20
758.848082984
 30
0.0
 10
82.5967192818
 20
758.9142557489
 30
0.0
 10
82.2271866193
 20
759.0705718294
 30
0.0
 10
81.8301382146
 20
759.3542812964
 30
0.0
 10
81.6006549087
 20
759.6164162979
 30
0.0
 10
81.4792186358
 20
759.8177497667
 30
0.0
 10
81.4048494129
 20
760.0276313751
 30
0.0
 10
81.3880329905
 20
760.1717754454
 30
0.0
 10
81.3880329905
 20
760.2423995103
 30
0.0
  0
SPLINE
  5
467
100
AcDbEntity
  8
7_ALL_FEATURES
100
AcDbSpline
 62
7
  6
CONTINUOUS
 70
0
 71
3
 72
13
 73
9
 74
0
 42
0.0000001
 43
0.0000001
 44
0.0000000001
 40
0.0
 40
0.0
 40
0.0
 40
0.0
 40
0.1004670751
 40
0.2043343976
 40
0.3144746668
 40
0.4329157349
 40
0.6978357508
 40
1.0
 40
1.0
 40
1.0
 40
1.0
 10
179.3880329905
 20
760.2423995103
 30
0.0
 10
179.3880329905
 20
760.1717754454
 30
0.0
 10
179.3712165681
 20
760.027631375
 30
0.0
 10
179.2968473452
 20
759.8177497665
 30
0.0
 10
179.1754110722
 20
759.6164162975
 30
0.0
 10
178.945927766
 20
759.3542812959
 30
0.0
 10
178.5488793609
 20
759.0705718289
 30
0.0
 10
178.179346698
 20
758.9142557483
 30
0.0
 10
177.977508731
 20
758.8480829835
 30
0.0
  0
SPLINE
  5
468
100
AcDbEntity
  8
7_ALL_FEATURES
100
AcDbSpline
 62
7
  6
CONTINUOUS
 70
0
 71
3
 72
9
 73
5
 74
0
 42
0.0000001
 43
0.0000001
 44
0.0000000001
 40
0.0
 40
0.0
 40
0.0
 40
0.0
 40
0.246021048
 40
1.0
 40
1.0
 40
1.0
 40
1.0
 10
177.5115643681
 20
758.7262589756
 30
0.0
 10
177.4368854923
 20
758.7112932901
 30
0.0
 10
177.1317823796
 20
758.6584316834
 30
0.0
 10
176.8214512791
 20
758.6363854886
 30
0.0
 10
176.5880329905
 20
758.6363854885
 30
0.0
  0
SPLINE
  5
469
100
AcDbEntity
  8
02___PRT_ALL_AXES
100
AcDbSpline
 62
7
  6
CONTINUOUS
 70
0
 71
3
 72
11
 73
7
 74
0
 42
0.0000001
 43
0.0000001
 44
0.0000000001
 40
0.0
 40
0.0
 40
0.0
 40
0.0
 40
0.2839478458
 40
0.5411793
 40
0.7767576583
 40
1.0
 40
1.0
 40
1.0
 40
1.0
 10
178.7643548513
 20
764.3516244324
 30
0.0
 10
178.8594514729
 20
764.4190059961
 30
0.0
 10
179.0313189805
 20
764.5618759213
 30
0.0
 10
179.2331662748
 20
764.8119072854
 30
0.0
 10
179.3590775114
 20
765.0811091159
 30
0.0
 10
179.3880329905
 20
765.2704680091
 30
0.0
 10
179.3880329905
 20
765.3620997871
 30
0.0
  0
SPLINE
  5
46A
100
AcDbEntity
  8
02___PRT_ALL_AXES
100
AcDbSpline
 62
7
  6
CONTINUOUS
 70
0
 71
3
 72
11
 73
7
 74
0
 42
0.0000001
 43
0.0000001
 44
0.0000000001
 40
0.0
 40
0.0
 40
0.0
 40
0.0
 40
0.2232423417
 40
0.4588207
 40
0.7160521542
 40
1.0
 40
1.0
 40
1.0
 40
1.0
 10
81.3880329905
 20
765.3620997871
 30
0.0
 10
81.3880329905
 20
765.2704680091
 30
0.0
 10
81.4169884697
 20
765.0811091159
 30
0.0
 10
81.5428997063
 20
764.8119072854
 30
0.0
 10
81.7447470006
 20
764.5618759213
 30
0.0
 10
81.9166145082
 20
764.4190059961
 30
0.0
 10
82.0117111298
 20
764.3516244324
 30
0.0
  0
SPLINE
  5
46B
100
AcDbEntity
  8
7_ALL_FEATURES
100
AcDbSpline
 62
7
  6
CONTINUOUS
 70
0
 71
3
 72
12
 73
8
 74
0
 42
0.0000001
 43
0.0000001
 44
0.0000000001
 40
0.0
 40
0.0
 40
0.0
 40
0.0
 40
0.2895870662
 40
0.5485902792
 40
0.7815882401
 40
0.8918079026
 40
1.0
 40
1.0
 40
1.0
 40
1.0
 10
178.9440176021
 20
772.5723578434
 30
0.0
 10
179.085649408
 20
772.4895285843
 30
0.0
 10
179.3424371923
 20
772.3107380802
 30
0.0
 10
179.6489742237
 20
771.9861041283
 30
0.0
 10
179.8134039168
 20
771.6809502806
 30
0.0
 10
179.8774358658
 20
771.4322949929
 30
0.0
 10
179.8880329906
 20
771.3082939344
 30
0.0
 10
179.8880329905
 20
771.2469945716
 30
0.0
  0
SPLINE
  5
46C
100
AcDbEntity
  8
7_ALL_FEATURES
100
AcDbSpline
 62
7
  6
CONTINUOUS
 70
0
 71
3
 72
16
 73
12
 74
0
 42
0.0000001
 43
0.0000001
 44
0.0000000001
 40
0.0
 40
0.0
 40
0.0
 40
0.0
 40
0.0448878317
 40
0.090637599
 40
0.187467041
 40
0.2952959597
 40
0.4159952501
 40
0.5492316168
 40
0.6930828334
 40
0.8445568562
 40
1.0
 40
1.0
 40
1.0
 40
1.0
 10
179.8880329905
 20
759.8328234882
 30
0.0
 10
179.8880329906
 20
759.7707541926
 30
0.0
 10
179.8771633303
 20
759.6451613693
 30
0.0
 10
179.8114689098
 20
759.3933157338
 30
0.0
 10
179.6427820639
 20
759.0845436108
 30
0.0
 10
179.3287496854
 20
758.7570186788
 30
0.0
 10
178.9135245691
 20
758.4729377202
 30
0.0
 10
178.4123773651
 20
758.2411915659
 30
0.0
 10
177.8434553356
 20
758.0693835356
 30
0.0
 10
177.2277712536
 20
757.9637017853
 30
0.0
 10
176.8029742358
 20
757.9400212482
 30
0.0
 10
176.5880329905
 20
757.9400212482
 30
0.0
  0
SPLINE
  5
46D
100
AcDbEntity
  8
7_ALL_FEATURES
100
AcDbSpline
 62
7
  6
CONTINUOUS
 70
0
 71
3
 72
16
 73
12
 74
0
 42
0.0000001
 43
0.0000001
 44
0.0000000001
 40
0.0
 40
0.0
 40
0.0
 40
0.0
 40
0.1554431438
 40
0.3069171666
 40
0.4507683832
 40
0.5840047499
 40
0.7047040403
 40
0.812532959
 40
0.909362401
 40
0.9551121683
 40
1.0
 40
1.0
 40
1.0
 40
1.0
 10
84.1880329905
 20
757.9400212482
 30
0.0
 10
83.9730917453
 20
757.9400212482
 30
0.0
 10
83.5482947275
 20
757.9637017853
 30
0.0
 10
82.9326106455
 20
758.0693835356
 30
0.0
 10
82.3636886161
 20
758.2411915659
 30
0.0
 10
81.862541412
 20
758.4729377202
 30
0.0
 10
81.4473162957
 20
758.7570186788
 30
0.0
 10
81.1332839172
 20
759.0845436108
 30
0.0
 10
80.9645970713
 20
759.3933157338
 30
0.0
 10
80.8989026508
 20
759.6451613693
 30
0.0
 10
80.8880329905
 20
759.7707541926
 30
0.0
 10
80.8880329905
 20
759.8328234882
 30
0.0
  0
ENDSEC
  0
SECTION
  2
OBJECTS
  0
DICTIONARY
  5
C
100
AcDbDictionary
280
0
281
1
  3
ACAD_GROUP
350
D
  3
ACAD_MLINESTYLE
350
17
  3
ACAD_LAYOUT
350
1A
  3
ACAD_PLOTSETTINGS
350
19
  3
ACAD_PLOTSTYLENAME
350
E
  3
ACAD_TABLESTYLE
350
       46E
  0
DICTIONARY
  5
D
102
{ACAD_REACTORS
330
C
102
}
100
AcDbDictionary
280
0
281
1
  0
ACDBDICTIONARYWDFLT
  5
E
102
{ACAD_REACTORS
330
C
102
}
100
AcDbDictionary
281
1
  3
Normal
350
F
100
AcDbDictionaryWithDefault
340
F
  0
DICTIONARY
  5
17
102
{ACAD_REACTORS
330
C
102
}
100
AcDbDictionary
280
0
281
1
  3
Standard
350
18
  0
DICTIONARY
  5
46E
330
C
100
AcDbDictionary
281
1
  3
Standard
350
       471
  3
Standard1
350
       472
  0
DICTIONARY
  5
19
102
{ACAD_REACTORS
330
C
102
}
100
AcDbDictionary
281
1
  0
DICTIONARY
  5
1A
102
{ACAD_REACTORS
330
C
102
}
100
AcDbDictionary
281
1
  3
Model
350
46F
  3
Layout1
350
470
  0
ACDBPLACEHOLDER
  5
F
102
{ACAD_REACTORS
330
E
102
}
  0
MLINESTYLE
  5
18
102
{ACAD_REACTORS
330
17
102
}
100
AcDbMlineStyle
  2
STANDARD
 70
0
  3

 62
256
 51
90.0
 52
90.0
 71
2
 49
0.5
 62
256
  6
BYLAYER
 49
-0.5
 62
256
  6
BYLAYER
  0
LAYOUT
  5
46F
102
{ACAD_REACTORS
330
1A
102
}
100
AcDbPlotSettings
  1

  2
none_device
  4

  6

 40
0.0
 41
0.0
 42
0.0
 43
0.0
 44
594.0
 45
841.0
 46
0.0
 47
0.0
 48
0.0
 49
0.0
140
0.0
141
0.0
142
1.0
143
1.0
 70
1024
 72
1
 73
0
 74
0
  7

 75
0
147
1.0
148
0.0
149
0.0
100
AcDbLayout
  1
Model
 70
0
 71
0
 10
0.0
 20
0.0
 11
594.0
 21
841.0
 12
0.0
 22
0.0
 32
0.0
 14
0.0
 24
0.0
 34
0.0
 15
0.0
 25
0.0
 35
0.0
146
0.0
 13
0.0
 23
0.0
 33
0.0
 16
1.0
 26
0.0
 36
0.0
 17
0.0
 27
1.0
 37
0.0
 76
0
330
21E
345
0
346
0
  0
LAYOUT
  5
470
102
{ACAD_REACTORS
330
1A
102
}
100
AcDbPlotSettings
  1

  2
none_device
  4

  6

 40
0.0
 41
0.0
 42
0.0
 43
0.0
 44
594.0
 45
841.0
 46
0.0
 47
0.0
 48
0.0
 49
0.0
140
0.0
141
0.0
142
1.0
143
1.0
 70
0
 72
1
 73
0
 74
0
  7

 75
0
147
1.0
148
0.0
149
0.0
100
AcDbLayout
  1
Layout1
 70
0
 71
1
 10
0.0
 20
0.0
 11
594.0
 21
841.0
 12
0.0
 22
0.0
 32
0.0
 14
0.0
 24
0.0
 34
0.0
 15
0.0
 25
0.0
 35
0.0
146
0.0
 13
0.0
 23
0.0
 33
0.0
 16
1.0
 26
0.0
 36
0.0
 17
0.0
 27
1.0
 37
0.0
 76
0
330
21F
345
0
346
0
  0
TABLESTYLE
  5
471
102
{ACAD_REACTORS
330
46E
330
3B0
102
}
330
46E
100
AcDbTableStyle
  3
Standard
 70
0
 71
0
 40
0.06
 41
0.06
280
1
281
1
  7
Standard
140
0.18
170
1
 62
0
 63
7
283
0
  7
Standard
140
0.18
170
1
 62
0
 63
7
283
0
  7
Standard
140
0.18
170
1
 62
0
 63
7
283
0
  0
TABLESTYLE
  5
472
102
{ACAD_REACTORS
330
46E
102
}
330
46E
100
AcDbTableStyle
  3
Standard1
 70
1
 71
0
 40
0.06
 41
0.06
280
1
281
1
  7
Standard
140
0.18
170
1
 62
0
 63
7
283
0
  7
Standard
140
0.18
170
1
 62
0
 63
7
283
0
  7
Standard
140
0.18
170
1
 62
0
 63
7
283
0
  0
ENDSEC
  0
EOF
