999
DXF file: 3h7_c_090.dxf
999
Pro/ENGINEER 2011490 by Parametric Technology Corporation
  0
SECTION
  2
HEADER
  9
$ACADVER
  1
AC1021
  9
$DWGCODEPAGE
  3
ANSI_1252
  9
$EXTMAX
 10
420.0
 20
594.0
 30
0.0
  9
$EXTMIN
 10
0.0
 20
0.0
 30
0.0
  9
$LIMMIN
 10
0.0
 20
0.0
  9
$LIMMAX
 10
420.0
 20
594.0
  9
$VIEWCTR
 10
210.0
 20
297.0
  9
$VIEWSIZE
 40
594.0
  9
$CLAYER
  8
0
  9
$LTSCALE
 40
38.72
  9
$CELTYPE
  6
BYLAYER
  9
$DIMSCALE
 40
1.0
  9
$DIMASZ
 40
2.5
  9
$DIMEXO
 40
4.4
  9
$DIMDLI
 40
26.752
  9
$DIMEXE
 40
12.672
  9
$DIMCEN
 40
6.336
  9
$DIMLFAC
 40
1.0
  9
$DIMBLK
  1
_CLOSED
  9
$DIMTXT
 40
3.0
  9
$DIMTOL
 70
1
  9
$DIMLIM
 70
0
  9
$DIMTFAC
 40
1.0
  9
$DIMTP
 40
0.01
  9
$DIMTM
 40
0.01
  9
$PDMODE
 70
3
  9
$PDSIZE
 40
0.3125
  9
$HANDSEED
  5
465
  9
$TILEMODE
 70
1
  9
$MEASUREMENT
 70
1
  9
$INSUNITS
 70
4
  0
ENDSEC
  0
SECTION
  2
CLASSES
  0
CLASS
  1
ACDBDICTIONARYWDFLT
  2
AcDbDictionaryWithDefault
  3
AutoCAD 2000
 90
0
 91
1
280
0
281
0
  0
CLASS
  1
ACDBPLACEHOLDER
  2
AcDbPlaceHolder
  3
AutoCAD 2000
 90
0
 91
1
280
0
281
0
  0
CLASS
  1
LAYOUT
  2
AcDbLayout
  3
AutoCAD 2000
 90
0
 91
0
280
0
281
0
  0
CLASS
  1
TABLESTYLE
  2
AcDbTableStyle
  3
ObjectDBX Classes
 90
2047
 91
1
280
0
281
0
  0
CLASS
  1
ACAD_TABLE
  2
AcDbTable
  3
ObjectDBX Classes
 90
1025
 91
1
280
0
281
1
  0
ENDSEC
  0
SECTION
  2
TABLES
  0
TABLE
  2
VPORT
  5
8
100
AcDbSymbolTable
 70
2
  0
VPORT
  5
1F4
100
AcDbSymbolTableRecord
100
AcDbViewportTableRecord
  2
*ACTIVE
 70
0
 10
0.0
 20
0.0
 11
1.0
 21
1.0
 12
210.0
 22
297.0
 13
0.0
 23
0.0
 14
1.0
 24
1.0
 15
0.0
 25
0.0
 16
0.0
 26
0.0
 36
1.0
 17
0.0
 27
0.0
 37
0.0
 40
594.0
 41
0.7070707071
 42
50.0
 43
0.0
 44
0.0
 50
0.0
 51
0.0
 71
0
 72
100
 73
1
 74
1
 75
0
 76
0
 77
0
 78
0
  0
ENDTAB
  0
TABLE
  2
LTYPE
  5
5
100
AcDbSymbolTable
 70
6
  0
LTYPE
  5
14
100
AcDbSymbolTableRecord
100
AcDbLinetypeTableRecord
  2
BYBLOCK
 70
0
  3

 72
65
 73
0
 40
0.0
  0
LTYPE
  5
15
100
AcDbSymbolTableRecord
100
AcDbLinetypeTableRecord
  2
BYLAYER
 70
0
  3

 72
65
 73
0
 40
0.0
  0
LTYPE
  5
16
100
AcDbSymbolTableRecord
100
AcDbLinetypeTableRecord
  2
CONTINUOUS
 70
64
  3
Solid line
 72
65
 73
0
 40
0.0
  0
LTYPE
  5
1F5
100
AcDbSymbolTableRecord
100
AcDbLinetypeTableRecord
  2
CENTER
 70
64
  3
____ _ ____ _ ____ _ ____ _ ____ _ ____ _ ____
 72
65
 73
4
 40
0.6
 49
0.375
 74
0
 49
-0.075
 74
0
 49
0.075
 74
0
 49
-0.075
 74
0
  0
LTYPE
  5
1F6
100
AcDbSymbolTableRecord
100
AcDbLinetypeTableRecord
  2
HIDDEN
 70
64
  3
- - - - - - - - - - - - - - - - - - - -
 72
65
 73
2
 40
0.2
 49
0.1
 74
0
 49
-0.1
 74
0
  0
LTYPE
  5
1F7
100
AcDbSymbolTableRecord
100
AcDbLinetypeTableRecord
  2
PHANTOM
 70
64
  3
_____ _ _ _____ _ _ _____ _ _ _____
 72
65
 73
6
 40
0.8
 49
0.45
 74
0
 49
-0.05
 74
0
 49
0.1
 74
0
 49
-0.05
 74
0
 49
0.1
 74
0
 49
-0.05
 74
0
  0
LTYPE
  5
1F8
100
AcDbSymbolTableRecord
100
AcDbLinetypeTableRecord
  2
DOT
 70
64
  3
. . . . . . . . . . . . . . . . . . . .
 72
65
 73
2
 40
0.2
 49
0.1
 74
0
 49
-0.1
 74
0
  0
LTYPE
  5
1F9
100
AcDbSymbolTableRecord
100
AcDbLinetypeTableRecord
  2
DASHED
 70
64
  3
- - - - - - - - - - - - - - - - - - - -
 72
65
 73
2
 40
0.2
 49
0.1
 74
0
 49
-0.1
 74
0
  0
ENDTAB
  0
TABLE
  2
LAYER
  5
2
100
AcDbSymbolTable
 70
36
  0
LAYER
  5
10
100
AcDbSymbolTableRecord
100
AcDbLayerTableRecord
  2
0
 70
0
 62
7
  6
CONTINUOUS
370
-3
390
F
  0
LAYER
  5
1FA
100
AcDbSymbolTableRecord
100
AcDbLayerTableRecord
  2
DEFAULT_1
 70
0
 62
7
  6
CENTER
370
-3
390
F
  0
LAYER
  5
1FB
100
AcDbSymbolTableRecord
100
AcDbLayerTableRecord
  2
DEFAULT_2
 70
0
 62
8
  6
HIDDEN
370
-3
390
F
  0
LAYER
  5
1FC
100
AcDbSymbolTableRecord
100
AcDbLayerTableRecord
  2
DEFAULT_3
 70
0
 62
7
  6
PHANTOM
370
-3
390
F
  0
LAYER
  5
1FD
100
AcDbSymbolTableRecord
100
AcDbLayerTableRecord
  2
01_ALL_DTM_PLN
 70
0
 62
7
  6
CONTINUOUS
370
-3
390
F
  0
LAYER
  5
1FE
100
AcDbSymbolTableRecord
100
AcDbLayerTableRecord
  2
01__ASM_ALL_DTM_PLN
 70
0
 62
7
  6
CONTINUOUS
370
-3
390
F
  0
LAYER
  5
1FF
100
AcDbSymbolTableRecord
100
AcDbLayerTableRecord
  2
01__ASM_DEF_DTM_PLN
 70
0
 62
7
  6
CONTINUOUS
370
-3
390
F
  0
LAYER
  5
200
100
AcDbSymbolTableRecord
100
AcDbLayerTableRecord
  2
01___PRT_ALL_DTM_PLN
 70
0
 62
7
  6
CONTINUOUS
370
-3
390
F
  0
LAYER
  5
201
100
AcDbSymbolTableRecord
100
AcDbLayerTableRecord
  2
01___PRT_DEF_DTM_PLN
 70
0
 62
7
  6
CONTINUOUS
370
-3
390
F
  0
LAYER
  5
202
100
AcDbSymbolTableRecord
100
AcDbLayerTableRecord
  2
02_ALL_AXES
 70
0
 62
7
  6
CONTINUOUS
370
-3
390
F
  0
LAYER
  5
203
100
AcDbSymbolTableRecord
100
AcDbLayerTableRecord
  2
02__ASM_ALL_AXES
 70
0
 62
7
  6
CONTINUOUS
370
-3
390
F
  0
LAYER
  5
204
100
AcDbSymbolTableRecord
100
AcDbLayerTableRecord
  2
02___PRT_ALL_AXES
 70
0
 62
7
  6
CONTINUOUS
370
-3
390
F
  0
LAYER
  5
205
100
AcDbSymbolTableRecord
100
AcDbLayerTableRecord
  2
03_ALL_CURVES
 70
0
 62
7
  6
CONTINUOUS
370
-3
390
F
  0
LAYER
  5
206
100
AcDbSymbolTableRecord
100
AcDbLayerTableRecord
  2
03__ASM_ALL_CURVES
 70
0
 62
7
  6
CONTINUOUS
370
-3
390
F
  0
LAYER
  5
207
100
AcDbSymbolTableRecord
100
AcDbLayerTableRecord
  2
03___PRT_ALL_CURVES
 70
0
 62
7
  6
CONTINUOUS
370
-3
390
F
  0
LAYER
  5
208
100
AcDbSymbolTableRecord
100
AcDbLayerTableRecord
  2
04_ALL_DTM_PNT
 70
0
 62
7
  6
CONTINUOUS
370
-3
390
F
  0
LAYER
  5
209
100
AcDbSymbolTableRecord
100
AcDbLayerTableRecord
  2
04__ASM_ALL_DTM_PNT
 70
0
 62
7
  6
CONTINUOUS
370
-3
390
F
  0
LAYER
  5
20A
100
AcDbSymbolTableRecord
100
AcDbLayerTableRecord
  2
04___PRT_ALL_DTM_PNT
 70
0
 62
7
  6
CONTINUOUS
370
-3
390
F
  0
LAYER
  5
20B
100
AcDbSymbolTableRecord
100
AcDbLayerTableRecord
  2
05_ALL_DTM_CSYS
 70
0
 62
7
  6
CONTINUOUS
370
-3
390
F
  0
LAYER
  5
20C
100
AcDbSymbolTableRecord
100
AcDbLayerTableRecord
  2
05__ASM_ALL_DTM_CSYS
 70
0
 62
7
  6
CONTINUOUS
370
-3
390
F
  0
LAYER
  5
20D
100
AcDbSymbolTableRecord
100
AcDbLayerTableRecord
  2
05__ASM_DEF_DTM_CSYS
 70
0
 62
7
  6
CONTINUOUS
370
-3
390
F
  0
LAYER
  5
20E
100
AcDbSymbolTableRecord
100
AcDbLayerTableRecord
  2
05___PRT_ALL_DTM_CSYS
 70
0
 62
7
  6
CONTINUOUS
370
-3
390
F
  0
LAYER
  5
20F
100
AcDbSymbolTableRecord
100
AcDbLayerTableRecord
  2
05___PRT_DEF_DTM_CSYS
 70
0
 62
7
  6
CONTINUOUS
370
-3
390
F
  0
LAYER
  5
210
100
AcDbSymbolTableRecord
100
AcDbLayerTableRecord
  2
06_ALL_SURFS
 70
0
 62
7
  6
CONTINUOUS
370
-3
390
F
  0
LAYER
  5
211
100
AcDbSymbolTableRecord
100
AcDbLayerTableRecord
  2
06__ASM_ALL_SURFS
 70
0
 62
7
  6
CONTINUOUS
370
-3
390
F
  0
LAYER
  5
212
100
AcDbSymbolTableRecord
100
AcDbLayerTableRecord
  2
06___PRT_ALL_SURFS
 70
0
 62
7
  6
CONTINUOUS
370
-3
390
F
  0
LAYER
  5
213
100
AcDbSymbolTableRecord
100
AcDbLayerTableRecord
  2
07__ASM_ALL_SKELETONS
 70
0
 62
7
  6
CONTINUOUS
370
-3
390
F
  0
LAYER
  5
214
100
AcDbSymbolTableRecord
100
AcDbLayerTableRecord
  2
1_ALL_PLANES
 70
0
 62
7
  6
CONTINUOUS
370
-3
390
F
  0
LAYER
  5
215
100
AcDbSymbolTableRecord
100
AcDbLayerTableRecord
  2
3_ALL_AXES
 70
0
 62
7
  6
CONTINUOUS
370
-3
390
F
  0
LAYER
  5
216
100
AcDbSymbolTableRecord
100
AcDbLayerTableRecord
  2
4_ALL_POINTS
 70
0
 62
7
  6
CONTINUOUS
370
-3
390
F
  0
LAYER
  5
217
100
AcDbSymbolTableRecord
100
AcDbLayerTableRecord
  2
5_ALL_CURVES
 70
0
 62
7
  6
CONTINUOUS
370
-3
390
F
  0
LAYER
  5
218
100
AcDbSymbolTableRecord
100
AcDbLayerTableRecord
  2
6_ALL_SURFS
 70
0
 62
7
  6
CONTINUOUS
370
-3
390
F
  0
LAYER
  5
219
100
AcDbSymbolTableRecord
100
AcDbLayerTableRecord
  2
7_ALL_FEATURES
 70
0
 62
7
  6
CONTINUOUS
370
-3
390
F
  0
LAYER
  5
21A
100
AcDbSymbolTableRecord
100
AcDbLayerTableRecord
  2
8_ALL_NOTES_BALLOONS_SYMBOLS_GT
 70
0
 62
7
  6
CONTINUOUS
370
-3
390
F
  0
LAYER
  5
21B
100
AcDbSymbolTableRecord
100
AcDbLayerTableRecord
  2
XSEC_DATUMS
 70
0
 62
7
  6
CONTINUOUS
370
-3
390
F
  0
ENDTAB
  0
TABLE
  2
STYLE
  5
3
100
AcDbSymbolTable
 70
1
  0
STYLE
  5
11
100
AcDbSymbolTableRecord
100
AcDbTextStyleTableRecord
  2
STANDARD
 70
0
 40
0.0
 41
0.85
 50
0.0
 71
0
 42
0.2
  3
txt
  4

  0
STYLE
  5
21C
100
AcDbSymbolTableRecord
100
AcDbTextStyleTableRecord
  2
TEXTSTYLE_1
 70
0
 40
0.0
 41
0.8
 50
0.0
 71
0
 42
0.2
  3
gdt
  4

  0
ENDTAB
  0
TABLE
  2
VIEW
  5
6
100
AcDbSymbolTable
 70
0
  0
ENDTAB
  0
TABLE
  2
UCS
  5
7
100
AcDbSymbolTable
 70
0
  0
ENDTAB
  0
TABLE
  2
APPID
  5
9
100
AcDbSymbolTable
 70
1
  0
APPID
  5
21D
100
AcDbSymbolTableRecord
100
AcDbRegAppTableRecord
  2
ACAD
 70
0
  0
ENDTAB
  0
TABLE
  2
BLOCK_RECORD
  5
1
100
AcDbSymbolTable
 70
0
  0
BLOCK_RECORD
  5
21E
100
AcDbSymbolTableRecord
100
AcDbBlockTableRecord
  2
*Model_Space
  0
BLOCK_RECORD
  5
21F
100
AcDbSymbolTableRecord
100
AcDbBlockTableRecord
  2
*Paper_Space
  0
BLOCK_RECORD
  5
220
100
AcDbSymbolTableRecord
100
AcDbBlockTableRecord
  2
_CLOSED
  0
BLOCK_RECORD
  5
221
100
AcDbSymbolTableRecord
100
AcDbBlockTableRecord
  2
*D0
  0
BLOCK_RECORD
  5
222
100
AcDbSymbolTableRecord
100
AcDbBlockTableRecord
  2
*D1
  0
BLOCK_RECORD
  5
223
100
AcDbSymbolTableRecord
100
AcDbBlockTableRecord
  2
*D2
  0
BLOCK_RECORD
  5
224
100
AcDbSymbolTableRecord
100
AcDbBlockTableRecord
  2
*D3
  0
BLOCK_RECORD
  5
225
100
AcDbSymbolTableRecord
100
AcDbBlockTableRecord
  2
*D4
  0
BLOCK_RECORD
  5
226
100
AcDbSymbolTableRecord
100
AcDbBlockTableRecord
  2
LOGO2_BL0
  0
BLOCK_RECORD
  5
227
100
AcDbSymbolTableRecord
100
AcDbBlockTableRecord
  2
*T1
  0
ENDTAB
  0
TABLE
  2
DIMSTYLE
  5
A
100
AcDbSymbolTable
 70
1
100
AcDbDimStyleTable
 71
0
  0
DIMSTYLE
105
228
100
AcDbSymbolTableRecord
100
AcDbDimStyleTableRecord
  2
STANDARD
 70
0
  3

  4

 40
1.0
 41
2.5
 42
0.0625
 43
0.38
 44
0.18
 45
0.0
 46
0.0
 47
0.01
 48
0.01
140
3.0
141
0.09
142
0.0
143
25.4
144
1.0
145
0.0
146
1.0
147
0.09
 71
1.0
 72
0.0
 73
0
 74
0
 75
0
 76
0
 77
1
 78
8
170
0
171
2
172
0
173
0
174
0
175
0
176
0
177
0
178
0
270
2
271
2
272
2
273
2
274
2
275
0
280
0
281
0
282
0
283
1
284
8
285
0
286
0
287
3
288
0
340
11
341
220
342
220
343
220
344
220
  0
DIMSTYLE
105
229
100
AcDbSymbolTableRecord
100
AcDbDimStyleTableRecord
  2
DIMSTYLE_1
 70
0
  3

  4

 40
1.0
 41
2.5
 42
0.0625
 43
0.38
 44
0.18
 45
0.0
 46
0.0
 47
0.5
 48
0.5
140
3.0
141
0.09
142
0.0
143
25.4
144
1.0
145
0.0
146
1.0
147
0.09
 71
0.0
 72
0.0
 73
0
 74
0
 75
0
 76
0
 77
1
 78
8
170
0
171
2
172
0
173
0
174
0
175
0
176
0
177
0
178
0
270
2
271
2
272
2
273
2
274
2
275
0
280
0
281
0
282
0
283
1
284
8
285
0
286
0
287
3
288
0
340
11
341
220
342
220
343
220
344
220
  0
DIMSTYLE
105
22A
100
AcDbSymbolTableRecord
100
AcDbDimStyleTableRecord
  2
DIMSTYLE_2
 70
0
  3

  4

 40
1.0
 41
2.5
 42
0.0625
 43
0.38
 44
0.18
 45
0.0
 46
0.0
 47
0.3
 48
0.3
140
3.0
141
0.09
142
0.0
143
25.4
144
1.0
145
0.0
146
1.0
147
0.09
 71
0.0
 72
0.0
 73
0
 74
0
 75
0
 76
0
 77
1
 78
8
170
0
171
2
172
0
173
0
174
0
175
0
176
0
177
0
178
0
270
2
271
2
272
2
273
2
274
2
275
0
280
0
281
0
282
0
283
1
284
8
285
0
286
0
287
3
288
0
340
11
341
220
342
220
343
220
344
220
  0
DIMSTYLE
105
22B
100
AcDbSymbolTableRecord
100
AcDbDimStyleTableRecord
  2
DIMSTYLE_3
 70
0
  3

  4

 40
1.0
 41
2.5
 42
0.0625
 43
0.38
 44
0.18
 45
0.0
 46
0.0
 47
0.3
 48
0.3
140
3.0
141
0.09
142
0.0
143
25.4
144
1.0
145
0.0
146
1.0
147
0.09
 71
0.0
 72
0.0
 73
0
 74
0
 75
0
 76
0
 77
1
 78
8
170
0
171
2
172
0
173
0
174
0
175
0
176
0
177
0
178
0
270
2
271
0
272
0
273
2
274
2
275
0
280
0
281
0
282
0
283
1
284
8
285
0
286
0
287
3
288
0
340
11
341
220
342
220
343
220
344
220
  0
ENDTAB
  0
ENDSEC
  0
SECTION
  2
BLOCKS
  0
BLOCK
  5
20
100
AcDbEntity
  8
0
100
AcDbBlockBegin
  2
*Model_Space
 70
0
 10
0.0
 20
0.0
 30
0.0
  3
*Model_Space
  1

  0
ENDBLK
  5
21
100
AcDbEntity
  8
0
100
AcDbBlockEnd
  0
BLOCK
  5
1C
100
AcDbEntity
  8
0
100
AcDbBlockBegin
  2
*Paper_Space
 70
0
 10
0.0
 20
0.0
 30
0.0
  3
*Paper_Space
  1

  0
ENDBLK
  5
1D
100
AcDbEntity
  8
0
100
AcDbBlockEnd
  0
BLOCK
  5
22C
100
AcDbEntity
  8
0
100
AcDbBlockBegin
 62
2
  6
CONTINUOUS
  2
LOGO2_BL0
 70
64
 10
332.9969085068
 20
37.4757791308
  3
LOGO2_BL0
  1

  0
LINE
  5
22D
100
AcDbEntity
  8
0
100
AcDbLine
 62
7
  6
CONTINUOUS
 10
324.739833735
 20
40.6712704697
 11
323.4354928056
 21
40.6712704697
  0
LINE
  5
22E
100
AcDbEntity
  8
0
100
AcDbLine
 62
7
  6
CONTINUOUS
 10
323.4354928056
 20
40.6712704697
 11
323.4354928056
 21
30.2122044098
  0
LINE
  5
22F
100
AcDbEntity
  8
0
100
AcDbLine
 62
7
  6
CONTINUOUS
 10
323.4354928056
 20
30.2122044098
 11
327.9165476939
 21
30.2122044098
  0
LINE
  5
230
100
AcDbEntity
  8
0
100
AcDbLine
 62
7
  6
CONTINUOUS
 10
327.9165476939
 20
30.2122044098
 11
327.9165476939
 21
31.4050587348
  0
LINE
  5
231
100
AcDbEntity
  8
0
100
AcDbLine
 62
7
  6
CONTINUOUS
 10
327.9165476939
 20
31.4050587348
 11
324.739833735
 21
31.4050587348
  0
LINE
  5
232
100
AcDbEntity
  8
0
100
AcDbLine
 62
7
  6
CONTINUOUS
 10
324.739833735
 20
31.4050587348
 11
324.739833735
 21
40.6712704697
  0
LINE
  5
233
100
AcDbEntity
  8
0
100
AcDbLine
 62
7
  6
CONTINUOUS
 10
339.6761599513
 20
40.6712704697
 11
338.3723424332
 21
40.6712704697
  0
LINE
  5
234
100
AcDbEntity
  8
0
100
AcDbLine
 62
7
  6
CONTINUOUS
 10
338.3723424332
 20
40.6712704697
 11
338.3723424332
 21
30.2122044098
  0
LINE
  5
235
100
AcDbEntity
  8
0
100
AcDbLine
 62
7
  6
CONTINUOUS
 10
338.3723424332
 20
30.2122044098
 11
342.8535281743
 21
30.2122044098
  0
LINE
  5
236
100
AcDbEntity
  8
0
100
AcDbLine
 62
7
  6
CONTINUOUS
 10
342.8535281743
 20
30.2122044098
 11
342.8535281743
 21
31.4050587348
  0
LINE
  5
237
100
AcDbEntity
  8
0
100
AcDbLine
 62
7
  6
CONTINUOUS
 10
342.8535281743
 20
31.4050587348
 11
339.6761599513
 21
31.4050587348
  0
LINE
  5
238
100
AcDbEntity
  8
0
100
AcDbLine
 62
7
  6
CONTINUOUS
 10
339.6761599513
 20
31.4050587348
 11
339.6761599513
 21
40.6712704697
  0
LWPOLYLINE
  5
239
100
AcDbEntity
  8
0
100
AcDbPolyline
 62
7
  6
CONTINUOUS
 90
2
 70
0
 43
0.2
 10
321.7898877165
 20
26.8686531029
 10
321.7898877165
 20
25.0115898535
  0
LWPOLYLINE
  5
23A
100
AcDbEntity
  8
0
100
AcDbPolyline
 62
7
  6
CONTINUOUS
 90
2
 70
0
 43
0.2
 10
321.7898877165
 20
25.0115898535
 10
322.5856037269
 20
25.0115898535
  0
LWPOLYLINE
  5
23B
100
AcDbEntity
  8
0
100
AcDbPolyline
 62
7
  6
CONTINUOUS
 90
2
 70
0
 43
0.2
 10
322.5856037269
 20
25.0115898535
 10
322.5856037269
 20
25.2235714251
  0
LWPOLYLINE
  5
23C
100
AcDbEntity
  8
0
100
AcDbPolyline
 62
7
  6
CONTINUOUS
 90
2
 70
0
 43
0.2
 10
322.5856037269
 20
25.2235714251
 10
322.0214972114
 20
25.2235714251
  0
LWPOLYLINE
  5
23D
100
AcDbEntity
  8
0
100
AcDbPolyline
 62
7
  6
CONTINUOUS
 90
2
 70
0
 43
0.2
 10
322.0214972114
 20
25.2235714251
 10
322.0214972114
 20
26.8686531029
  0
LWPOLYLINE
  5
23E
100
AcDbEntity
  8
0
100
AcDbPolyline
 62
7
  6
CONTINUOUS
 90
2
 70
0
 43
0.2
 10
322.0214972114
 20
26.8686531029
 10
321.7898877165
 20
26.8686531029
  0
SPLINE
  5
23F
100
AcDbEntity
  8
0
100
AcDbSpline
 62
7
  6
CONTINUOUS
 70
2
 71
3
 72
35
 73
31
 74
0
 42
0.0000001
 43
0.0000001
 44
0.0000000001
 40
0.0
 40
0.0
 40
0.0
 40
0.0
 40
1.0
 40
1.0
 40
1.0
 40
2.0
 40
2.0
 40
2.0
 40
3.0
 40
3.0
 40
3.0
 40
4.0
 40
4.0
 40
4.0
 40
5.0
 40
5.0
 40
5.0
 40
6.0
 40
6.0
 40
6.0
 40
7.0
 40
7.0
 40
7.0
 40
8.0
 40
8.0
 40
8.0
 40
9.0
 40
9.0
 40
9.0
 40
10.0
 40
10.0
 40
10.0
 40
10.0
 10
323.9838969824
 20
26.1641415094
 30
0.0
 10
323.9838969824
 20
26.1641415094
 30
0.0
 10
323.9838969824
 20
25.5020262302
 30
0.0
 10
323.9838969824
 20
25.5020262302
 30
0.0
 10
323.9838969824
 20
25.186932635
 30
0.0
 10
324.1317606713
 20
24.9723340069
 30
0.0
 10
324.4718471556
 20
24.9723340069
 30
0.0
 10
324.8114102286
 20
24.9723340069
 30
0.0
 10
324.959535623
 20
25.186932635
 30
0.0
 10
324.959535623
 20
25.5020262302
 30
0.0
 10
324.959535623
 20
25.5020262302
 30
0.0
 10
324.959535623
 20
26.1641415094
 30
0.0
 10
324.959535623
 20
26.1641415094
 30
0.0
 10
324.959535623
 20
26.1641415094
 30
0.0
 10
324.7374783842
 20
26.1641415094
 30
0.0
 10
324.7374783842
 20
26.1641415094
 30
0.0
 10
324.7374783842
 20
26.1641415094
 30
0.0
 10
324.7374783842
 20
25.5271499721
 30
0.0
 10
324.7374783842
 20
25.5271499721
 30
0.0
 10
324.7374783842
 20
25.3413389649
 30
0.0
 10
324.6907639267
 20
25.1785580543
 30
0.0
 10
324.4718471556
 20
25.1785580543
 30
0.0
 10
324.2524069731
 20
25.1785580543
 30
0.0
 10
324.2056925157
 20
25.3413389649
 30
0.0
 10
324.2056925157
 20
25.5271499721
 30
0.0
 10
324.2056925157
 20
25.5271499721
 30
0.0
 10
324.2056925157
 20
26.1641415094
 30
0.0
 10
324.2056925157
 20
26.1641415094
 30
0.0
 10
324.2056925157
 20
26.1641415094
 30
0.0
 10
323.9838969824
 20
26.1641415094
 30
0.0
 10
323.9838969824
 20
26.1641415094
 30
0.0
  0
SPLINE
  5
240
100
AcDbEntity
  8
0
100
AcDbSpline
 62
7
  6
CONTINUOUS
 70
2
 71
3
 72
35
 73
31
 74
0
 42
0.0000001
 43
0.0000001
 44
0.0000000001
 40
0.0
 40
0.0
 40
0.0
 40
0.0
 40
1.0
 40
1.0
 40
1.0
 40
2.0
 40
2.0
 40
2.0
 40
3.0
 40
3.0
 40
3.0
 40
4.0
 40
4.0
 40
4.0
 40
5.0
 40
5.0
 40
5.0
 40
6.0
 40
6.0
 40
6.0
 40
7.0
 40
7.0
 40
7.0
 40
8.0
 40
8.0
 40
8.0
 40
9.0
 40
9.0
 40
9.0
 40
10.0
 40
10.0
 40
10.0
 40
10.0
 10
327.3826681802
 20
26.1227920177
 30
0.0
 10
327.2942116726
 20
26.1740863239
 30
0.0
 10
327.1807622759
 20
26.1992100657
 30
0.0
 10
327.0771268409
 20
26.1992100657
 30
0.0
 10
326.7222539878
 20
26.1992100657
 30
0.0
 10
326.4468087975
 20
25.9354107766
 30
0.0
 10
326.4468087975
 20
25.577920867
 30
0.0
 10
326.4468087975
 20
25.2329928283
 30
0.0
 10
326.7252636027
 20
24.9728574182
 30
0.0
 10
327.0648266757
 20
24.9728574182
 30
0.0
 10
327.1807622759
 20
24.9728574182
 30
0.0
 10
327.2815189489
 20
24.9948406923
 30
0.0
 10
327.3826681802
 20
25.048752055
 30
0.0
 10
327.3826681802
 20
25.048752055
 30
0.0
 10
327.3826681802
 20
25.3313941504
 30
0.0
 10
327.3826681802
 20
25.3313941504
 30
0.0
 10
327.2987915214
 20
25.2382269412
 30
0.0
 10
327.1952869392
 20
25.1790814656
 30
0.0
 10
327.0671820265
 20
25.1790814656
 30
0.0
 10
326.8334788864
 20
25.1790814656
 30
0.0
 10
326.6682117723
 20
25.3512837793
 30
0.0
 10
326.6682117723
 20
25.5878656815
 30
0.0
 10
326.6682117723
 20
25.799847253
 30
0.0
 10
326.8359650901
 20
25.9919391957
 30
0.0
 10
327.0527882161
 20
25.9919391957
 30
0.0
 10
327.1856038304
 20
25.9919391957
 30
0.0
 10
327.2942116726
 20
25.938027833
 30
0.0
 10
327.3826681802
 20
25.8370094545
 30
0.0
 10
327.3826681802
 20
25.8370094545
 30
0.0
 10
327.3826681802
 20
26.1227920177
 30
0.0
 10
327.3826681802
 20
26.1227920177
 30
0.0
  0
SPLINE
  5
241
100
AcDbEntity
  8
0
100
AcDbSpline
 62
7
  6
CONTINUOUS
 70
2
 71
3
 72
32
 73
28
 74
0
 42
0.0000001
 43
0.0000001
 44
0.0000000001
 40
0.0
 40
0.0
 40
0.0
 40
0.0
 40
1.0
 40
1.0
 40
1.0
 40
2.0
 40
2.0
 40
2.0
 40
3.0
 40
3.0
 40
3.0
 40
4.0
 40
4.0
 40
4.0
 40
5.0
 40
5.0
 40
5.0
 40
6.0
 40
6.0
 40
6.0
 40
7.0
 40
7.0
 40
7.0
 40
8.0
 40
8.0
 40
8.0
 40
9.0
 40
9.0
 40
9.0
 40
9.0
 10
329.9145394325
 20
25.5512268913
 30
0.0
 10
329.9145394325
 20
25.5512268913
 30
0.0
 10
329.9145394325
 20
25.585248625
 30
0.0
 10
329.9145394325
 20
25.585248625
 30
0.0
 10
329.9145394325
 20
25.9275596073
 30
0.0
 10
329.7416828547
 20
26.1992100657
 30
0.0
 10
329.3750332475
 20
26.1992100657
 30
0.0
 10
329.0034112331
 20
26.1992100657
 30
0.0
 10
328.8136746413
 20
25.9327937202
 30
0.0
 10
328.8136746413
 20
25.577920867
 30
0.0
 10
328.8136746413
 20
25.2382269412
 30
0.0
 10
329.027749858
 20
24.9723340069
 30
0.0
 10
329.3798748019
 20
24.9723340069
 30
0.0
 10
329.6038948331
 20
24.9723340069
 30
0.0
 10
329.8060624431
 20
25.0880079015
 30
0.0
 10
329.9145394325
 20
25.2874276022
 30
0.0
 10
329.9145394325
 20
25.2874276022
 30
0.0
 10
329.7268964858
 20
25.3942035049
 30
0.0
 10
329.7268964858
 20
25.3942035049
 30
0.0
 10
329.6434123854
 20
25.2554995137
 30
0.0
 10
329.5522079685
 20
25.1696600625
 30
0.0
 10
329.3826227112
 20
25.1696600625
 30
0.0
 10
329.1706411396
 20
25.1696600625
 30
0.0
 10
329.0376946725
 20
25.3544242471
 30
0.0
 10
329.0353393217
 20
25.5512268913
 30
0.0
 10
329.0353393217
 20
25.5512268913
 30
0.0
 10
329.9145394325
 20
25.5512268913
 30
0.0
 10
329.9145394325
 20
25.5512268913
 30
0.0
  0
SPLINE
  5
242
100
AcDbEntity
  8
0
100
AcDbSpline
 62
7
  6
CONTINUOUS
 70
2
 71
3
 72
14
 73
10
 74
0
 42
0.0000001
 43
0.0000001
 44
0.0000000001
 40
0.0
 40
0.0
 40
0.0
 40
0.0
 40
1.0
 40
1.0
 40
1.0
 40
2.0
 40
2.0
 40
2.0
 40
3.0
 40
3.0
 40
3.0
 40
3.0
 10
329.0473777813
 20
25.7187185034
 30
0.0
 10
329.0749877267
 20
25.8835930591
 30
0.0
 10
329.2028309338
 20
26.0065947118
 30
0.0
 10
329.3750332475
 20
26.0065947118
 30
0.0
 10
329.5522079685
 20
26.0065947118
 30
0.0
 10
329.6656573651
 20
25.8909208171
 30
0.0
 10
329.6928747521
 20
25.7187185034
 30
0.0
 10
329.6928747521
 20
25.7187185034
 30
0.0
 10
329.0473777813
 20
25.7187185034
 30
0.0
 10
329.0473777813
 20
25.7187185034
 30
0.0
  0
SPLINE
  5
243
100
AcDbEntity
  8
0
100
AcDbSpline
 62
7
  6
CONTINUOUS
 70
2
 71
3
 72
20
 73
16
 74
0
 42
0.0000001
 43
0.0000001
 44
0.0000000001
 40
0.0
 40
0.0
 40
0.0
 40
0.0
 40
1.0
 40
1.0
 40
1.0
 40
2.0
 40
2.0
 40
2.0
 40
3.0
 40
3.0
 40
3.0
 40
4.0
 40
4.0
 40
4.0
 40
5.0
 40
5.0
 40
5.0
 40
5.0
 10
331.9385708827
 20
25.9280830186
 30
0.0
 10
331.9385708827
 20
25.9280830186
 30
0.0
 10
332.3497104493
 20
25.4256081822
 30
0.0
 10
332.3497104493
 20
25.4256081822
 30
0.0
 10
332.2336439962
 20
25.3099342876
 30
0.0
 10
332.0958559747
 20
25.1796048769
 30
0.0
 10
331.9239153666
 20
25.1796048769
 30
0.0
 10
331.74647894
 20
25.1796048769
 30
0.0
 10
331.5789873279
 20
25.3439560213
 30
0.0
 10
331.5789873279
 20
25.5208690366
 30
0.0
 10
331.5789873279
 20
25.6988288745
 30
0.0
 10
331.7887444015
 20
25.8249709949
 30
0.0
 10
331.9163259029
 20
25.9129040912
 30
0.0
 10
331.9163259029
 20
25.9129040912
 30
0.0
 10
331.9385708827
 20
25.9280830186
 30
0.0
 10
331.9385708827
 20
25.9280830186
 30
0.0
  0
SPLINE
  5
244
100
AcDbEntity
  8
0
100
AcDbSpline
 62
7
  6
CONTINUOUS
 70
2
 71
3
 72
23
 73
19
 74
0
 42
0.0000001
 43
0.0000001
 44
0.0000000001
 40
0.0
 40
0.0
 40
0.0
 40
0.0
 40
1.0
 40
1.0
 40
1.0
 40
2.0
 40
2.0
 40
2.0
 40
3.0
 40
3.0
 40
3.0
 40
4.0
 40
4.0
 40
4.0
 40
5.0
 40
5.0
 40
5.0
 40
6.0
 40
6.0
 40
6.0
 40
6.0
 10
331.9879023966
 20
26.2190996946
 30
0.0
 10
331.9879023966
 20
26.2190996946
 30
0.0
 10
331.9262707174
 20
26.2976113878
 30
0.0
 10
331.9262707174
 20
26.2976113878
 30
0.0
 10
331.8723593548
 20
26.3661782665
 30
0.0
 10
331.81556923
 20
26.4352685565
 30
0.0
 10
331.81556923
 20
26.5289591771
 30
0.0
 10
331.81556923
 20
26.6477735394
 30
0.0
 10
331.9114843485
 20
26.72523841
 30
0.0
 10
332.0224475416
 20
26.72523841
 30
0.0
 10
332.1457108999
 20
26.72523841
 30
0.0
 10
332.2390089619
 20
26.6540544749
 30
0.0
 10
332.2390089619
 20
26.5237250642
 30
0.0
 10
332.2390089619
 20
26.3886849519
 30
0.0
 10
332.1109040492
 20
26.3122669039
 30
0.0
 10
332.0173442815
 20
26.2384659123
 30
0.0
 10
332.0173442815
 20
26.2384659123
 30
0.0
 10
331.9879023966
 20
26.2190996946
 30
0.0
 10
331.9879023966
 20
26.2190996946
 30
0.0
  0
SPLINE
  5
245
100
AcDbEntity
  8
0
100
AcDbSpline
 62
7
  6
CONTINUOUS
 70
2
 71
3
 72
50
 73
46
 74
0
 42
0.0000001
 43
0.0000001
 44
0.0000000001
 40
0.0
 40
0.0
 40
0.0
 40
0.0
 40
1.0
 40
1.0
 40
1.0
 40
2.0
 40
2.0
 40
2.0
 40
3.0
 40
3.0
 40
3.0
 40
4.0
 40
4.0
 40
4.0
 40
5.0
 40
5.0
 40
5.0
 40
6.0
 40
6.0
 40
6.0
 40
7.0
 40
7.0
 40
7.0
 40
8.0
 40
8.0
 40
8.0
 40
9.0
 40
9.0
 40
9.0
 40
10.0
 40
10.0
 40
10.0
 40
11.0
 40
11.0
 40
11.0
 40
12.0
 40
12.0
 40
12.0
 40
13.0
 40
13.0
 40
13.0
 40
14.0
 40
14.0
 40
14.0
 40
15.0
 40
15.0
 40
15.0
 40
15.0
 10
332.6900586392
 20
25.0121132648
 30
0.0
 10
332.6900586392
 20
25.0121132648
 30
0.0
 10
332.9754486439
 20
25.0121132648
 30
0.0
 10
332.9754486439
 20
25.0121132648
 30
0.0
 10
332.9754486439
 20
25.0121132648
 30
0.0
 10
332.6430824762
 20
25.4229911258
 30
0.0
 10
332.6430824762
 20
25.4229911258
 30
0.0
 10
332.6430824762
 20
25.4229911258
 30
0.0
 10
332.869588711
 20
25.68888406
 30
0.0
 10
332.869588711
 20
25.68888406
 30
0.0
 10
332.869588711
 20
25.68888406
 30
0.0
 10
332.7213324637
 20
25.8417201561
 30
0.0
 10
332.7213324637
 20
25.8417201561
 30
0.0
 10
332.7213324637
 20
25.8417201561
 30
0.0
 10
332.5054253074
 20
25.5904827379
 30
0.0
 10
332.5054253074
 20
25.5904827379
 30
0.0
 10
332.5054253074
 20
25.5904827379
 30
0.0
 10
332.1183626601
 20
26.0584124293
 30
0.0
 10
332.1183626601
 20
26.0584124293
 30
0.0
 10
332.2738158126
 20
26.17251609
 30
0.0
 10
332.4560937936
 20
26.3122669039
 30
0.0
 10
332.4560937936
 20
26.521631419
 30
0.0
 10
332.4560937936
 20
26.7655410792
 30
0.0
 10
332.2540570364
 20
26.908955772
 30
0.0
 10
332.0275508016
 20
26.908955772
 30
0.0
 10
331.7833794358
 20
26.908955772
 30
0.0
 10
331.5990078097
 20
26.7582133211
 30
0.0
 10
331.5990078097
 20
26.5017417901
 30
0.0
 10
331.5990078097
 20
26.3441949924
 30
0.0
 10
331.6976708374
 20
26.2065378237
 30
0.0
 10
331.8030073591
 20
26.0955746307
 30
0.0
 10
331.8030073591
 20
26.0955746307
 30
0.0
 10
331.6874643173
 20
26.0118288246
 30
0.0
 10
331.6874643173
 20
26.0118288246
 30
0.0
 10
331.5097661851
 20
25.8835930591
 30
0.0
 10
331.3624259076
 20
25.7558807049
 30
0.0
 10
331.3624259076
 20
25.5187753915
 30
0.0
 10
331.3624259076
 20
25.1984476833
 30
0.0
 10
331.6209910838
 20
24.9723340069
 30
0.0
 10
331.9313739775
 20
24.9723340069
 30
0.0
 10
332.1502907486
 20
24.9723340069
 30
0.0
 10
332.3474859513
 20
25.0974293047
 30
0.0
 10
332.4877601765
 20
25.263350683
 30
0.0
 10
332.4877601765
 20
25.263350683
 30
0.0
 10
332.6900586392
 20
25.0121132648
 30
0.0
 10
332.6900586392
 20
25.0121132648
 30
0.0
  0
LWPOLYLINE
  5
246
100
AcDbEntity
  8
0
100
AcDbPolyline
 62
7
  6
CONTINUOUS
 90
2
 70
0
 43
0.2
 10
334.625502729
 20
26.8686531029
 10
334.3941549397
 20
26.8686531029
  0
LWPOLYLINE
  5
247
100
AcDbEntity
  8
0
100
AcDbPolyline
 62
7
  6
CONTINUOUS
 90
2
 70
0
 43
0.2
 10
334.3941549397
 20
26.8686531029
 10
334.3941549397
 20
25.0115898535
  0
LWPOLYLINE
  5
248
100
AcDbEntity
  8
0
100
AcDbPolyline
 62
7
  6
CONTINUOUS
 90
2
 70
0
 43
0.2
 10
334.3941549397
 20
25.0115898535
 10
335.1894783916
 20
25.0115898535
  0
LWPOLYLINE
  5
249
100
AcDbEntity
  8
0
100
AcDbPolyline
 62
7
  6
CONTINUOUS
 90
2
 70
0
 43
0.2
 10
335.1894783916
 20
25.0115898535
 10
335.1894783916
 20
25.2235714251
  0
LWPOLYLINE
  5
24A
100
AcDbEntity
  8
0
100
AcDbPolyline
 62
7
  6
CONTINUOUS
 90
2
 70
0
 43
0.2
 10
335.1894783916
 20
25.2235714251
 10
334.625502729
 20
25.2235714251
  0
LWPOLYLINE
  5
24B
100
AcDbEntity
  8
0
100
AcDbPolyline
 62
7
  6
CONTINUOUS
 90
2
 70
0
 43
0.2
 10
334.625502729
 20
25.2235714251
 10
334.625502729
 20
26.8686531029
  0
LWPOLYLINE
  5
24C
100
AcDbEntity
  8
0
100
AcDbPolyline
 62
7
  6
CONTINUOUS
 90
2
 70
0
 43
0.2
 10
336.8685818031
 20
26.1641415094
 10
336.647440534
 20
26.1641415094
  0
LWPOLYLINE
  5
24D
100
AcDbEntity
  8
0
100
AcDbPolyline
 62
7
  6
CONTINUOUS
 90
2
 70
0
 43
0.2
 10
336.647440534
 20
26.1641415094
 10
336.647440534
 20
25.0121132648
  0
LWPOLYLINE
  5
24E
100
AcDbEntity
  8
0
100
AcDbPolyline
 62
7
  6
CONTINUOUS
 90
2
 70
0
 43
0.2
 10
336.647440534
 20
25.0121132648
 10
336.8685818031
 20
25.0121132648
  0
LWPOLYLINE
  5
24F
100
AcDbEntity
  8
0
100
AcDbPolyline
 62
7
  6
CONTINUOUS
 90
2
 70
0
 43
0.2
 10
336.8685818031
 20
25.0121132648
 10
336.8685818031
 20
26.1641415094
  0
SPLINE
  5
250
100
AcDbEntity
  8
0
100
AcDbSpline
 62
7
  6
CONTINUOUS
 70
2
 71
3
 72
17
 73
13
 74
0
 42
0.0000001
 43
0.0000001
 44
0.0000000001
 40
0.0
 40
0.0
 40
0.0
 40
0.0
 40
1.0
 40
1.0
 40
1.0
 40
2.0
 40
2.0
 40
2.0
 40
3.0
 40
3.0
 40
3.0
 40
4.0
 40
4.0
 40
4.0
 40
4.0
 10
336.7581420214
 20
26.8466698288
 30
0.0
 10
336.6741345097
 20
26.8466698288
 30
0.0
 10
336.605567631
 20
26.7775795388
 30
0.0
 10
336.605567631
 20
26.6917400876
 30
0.0
 10
336.605567631
 20
26.6074708702
 30
0.0
 10
336.6741345097
 20
26.541521048
 30
0.0
 10
336.7581420214
 20
26.541521048
 30
0.0
 10
336.8418878274
 20
26.541521048
 30
0.0
 10
336.9107164118
 20
26.6074708702
 30
0.0
 10
336.9107164118
 20
26.6917400876
 30
0.0
 10
336.9107164118
 20
26.7775795388
 30
0.0
 10
336.8418878274
 20
26.8466698288
 30
0.0
 10
336.7581420214
 20
26.8466698288
 30
0.0
  0
SPLINE
  5
251
100
AcDbEntity
  8
0
100
AcDbSpline
 62
7
  6
CONTINUOUS
 70
2
 71
3
 72
17
 73
13
 74
0
 42
0.0000001
 43
0.0000001
 44
0.0000000001
 40
0.0
 40
0.0
 40
0.0
 40
0.0
 40
1.0
 40
1.0
 40
1.0
 40
2.0
 40
2.0
 40
2.0
 40
3.0
 40
3.0
 40
3.0
 40
4.0
 40
4.0
 40
4.0
 40
4.0
 10
338.9988657448
 20
25.1696600625
 30
0.0
 10
338.7649008991
 20
25.1696600625
 30
0.0
 10
338.6345714884
 20
25.3716968196
 30
0.0
 10
338.6345714884
 20
25.5878656815
 30
0.0
 10
338.6345714884
 20
25.8024643095
 30
0.0
 10
338.7703967176
 20
26.0013605989
 30
0.0
 10
338.9988657448
 20
26.0013605989
 30
0.0
 10
339.238326409
 20
26.0013605989
 30
0.0
 10
339.3738899325
 20
25.812409124
 30
0.0
 10
339.3738899325
 20
25.5878656815
 30
0.0
 10
339.3738899325
 20
25.3617520051
 30
0.0
 10
339.2406817598
 20
25.1696600625
 30
0.0
 10
338.9988657448
 20
25.1696600625
 30
0.0
  0
SPLINE
  5
252
100
AcDbEntity
  8
0
100
AcDbSpline
 62
7
  6
CONTINUOUS
 70
2
 71
3
 72
50
 73
46
 74
0
 42
0.0000001
 43
0.0000001
 44
0.0000000001
 40
0.0
 40
0.0
 40
0.0
 40
0.0
 40
1.0
 40
1.0
 40
1.0
 40
2.0
 40
2.0
 40
2.0
 40
3.0
 40
3.0
 40
3.0
 40
4.0
 40
4.0
 40
4.0
 40
5.0
 40
5.0
 40
5.0
 40
6.0
 40
6.0
 40
6.0
 40
7.0
 40
7.0
 40
7.0
 40
8.0
 40
8.0
 40
8.0
 40
9.0
 40
9.0
 40
9.0
 40
10.0
 40
10.0
 40
10.0
 40
11.0
 40
11.0
 40
11.0
 40
12.0
 40
12.0
 40
12.0
 40
13.0
 40
13.0
 40
13.0
 40
14.0
 40
14.0
 40
14.0
 40
15.0
 40
15.0
 40
15.0
 40
15.0
 10
339.582992742
 20
26.1646649207
 30
0.0
 10
339.582992742
 20
26.1646649207
 30
0.0
 10
339.3613280616
 20
26.1646649207
 30
0.0
 10
339.3613280616
 20
26.1646649207
 30
0.0
 10
339.3613280616
 20
26.1646649207
 30
0.0
 10
339.3613280616
 20
25.9673388652
 30
0.0
 10
339.3613280616
 20
25.9673388652
 30
0.0
 10
339.3613280616
 20
25.9673388652
 30
0.0
 10
339.35661736
 20
25.9673388652
 30
0.0
 10
339.35661736
 20
25.9673388652
 30
0.0
 10
339.2652820903
 20
26.1102301468
 30
0.0
 10
339.1273632159
 20
26.1986866544
 30
0.0
 10
338.9546374909
 20
26.1986866544
 30
0.0
 10
338.6222713231
 20
26.1986866544
 30
0.0
 10
338.4131685136
 20
25.9108104461
 30
0.0
 10
338.4131685136
 20
25.5951934395
 30
0.0
 10
338.4131685136
 20
25.2654443281
 30
0.0
 10
338.6102328635
 20
24.9723340069
 30
0.0
 10
338.9651057167
 20
24.9723340069
 30
0.0
 10
339.1273632159
 20
24.9723340069
 30
0.0
 10
339.2673757354
 20
25.0607905146
 30
0.0
 10
339.35661736
 20
25.1916433365
 30
0.0
 10
339.35661736
 20
25.1916433365
 30
0.0
 10
339.3613280616
 20
25.1916433365
 30
0.0
 10
339.3613280616
 20
25.1916433365
 30
0.0
 10
339.3613280616
 20
25.1916433365
 30
0.0
 10
339.3613280616
 20
24.9723340069
 30
0.0
 10
339.3613280616
 20
24.9723340069
 30
0.0
 10
339.3613280616
 20
24.7357521048
 30
0.0
 10
339.3047996425
 20
24.548894275
 30
0.0
 10
339.0315789502
 20
24.548894275
 30
0.0
 10
338.8292804875
 20
24.548894275
 30
0.0
 10
338.6866509115
 20
24.6671852261
 30
0.0
 10
338.6866509115
 20
24.8734092735
 30
0.0
 10
338.6866509115
 20
24.8734092735
 30
0.0
 10
338.4649862311
 20
24.8734092735
 30
0.0
 10
338.4649862311
 20
24.8734092735
 30
0.0
 10
338.4699586384
 20
24.548894275
 30
0.0
 10
338.701044722
 20
24.3520916308
 30
0.0
 10
339.0213724301
 20
24.3520916308
 30
0.0
 10
339.4694124926
 20
24.3520916308
 30
0.0
 10
339.582992742
 20
24.6373507827
 30
0.0
 10
339.582992742
 20
25.0340965389
 30
0.0
 10
339.582992742
 20
25.0340965389
 30
0.0
 10
339.582992742
 20
26.1646649207
 30
0.0
 10
339.582992742
 20
26.1646649207
 30
0.0
  0
SPLINE
  5
253
100
AcDbEntity
  8
0
100
AcDbSpline
 62
7
  6
CONTINUOUS
 70
2
 71
3
 72
44
 73
40
 74
0
 42
0.0000001
 43
0.0000001
 44
0.0000000001
 40
0.0
 40
0.0
 40
0.0
 40
0.0
 40
1.0
 40
1.0
 40
1.0
 40
2.0
 40
2.0
 40
2.0
 40
3.0
 40
3.0
 40
3.0
 40
4.0
 40
4.0
 40
4.0
 40
5.0
 40
5.0
 40
5.0
 40
6.0
 40
6.0
 40
6.0
 40
7.0
 40
7.0
 40
7.0
 40
8.0
 40
8.0
 40
8.0
 40
9.0
 40
9.0
 40
9.0
 40
10.0
 40
10.0
 40
10.0
 40
11.0
 40
11.0
 40
11.0
 40
12.0
 40
12.0
 40
12.0
 40
13.0
 40
13.0
 40
13.0
 40
13.0
 10
341.1519180774
 20
27.1497249645
 30
0.0
 10
341.1519180774
 20
27.1497249645
 30
0.0
 10
341.1519180774
 20
25.0115898535
 30
0.0
 10
341.1519180774
 20
25.0115898535
 30
0.0
 10
341.1519180774
 20
25.0115898535
 30
0.0
 10
341.3733210522
 20
25.0115898535
 30
0.0
 10
341.3733210522
 20
25.0115898535
 30
0.0
 10
341.3733210522
 20
25.0115898535
 30
0.0
 10
341.3733210522
 20
25.5412820768
 30
0.0
 10
341.3733210522
 20
25.5412820768
 30
0.0
 10
341.3733210522
 20
25.7511700033
 30
0.0
 10
341.3733210522
 20
26.0018840102
 30
0.0
 10
341.6585802041
 20
26.0018840102
 30
0.0
 10
341.8854789974
 20
26.0018840102
 30
0.0
 10
341.9124346787
 20
25.868937543
 30
0.0
 10
341.9124346787
 20
25.6726583101
 30
0.0
 10
341.9124346787
 20
25.6726583101
 30
0.0
 10
341.9124346787
 20
25.0115898535
 30
0.0
 10
341.9124346787
 20
25.0115898535
 30
0.0
 10
341.9124346787
 20
25.0115898535
 30
0.0
 10
342.1343610647
 20
25.0115898535
 30
0.0
 10
342.1343610647
 20
25.0115898535
 30
0.0
 10
342.1343610647
 20
25.0115898535
 30
0.0
 10
342.1343610647
 20
25.6988288745
 30
0.0
 10
342.1343610647
 20
25.6988288745
 30
0.0
 10
342.1343610647
 20
25.9793773248
 30
0.0
 10
342.050353553
 20
26.1992100657
 30
0.0
 10
341.7253151433
 20
26.1992100657
 30
0.0
 10
341.5855643294
 20
26.1992100657
 30
0.0
 10
341.4473837494
 20
26.1327368321
 30
0.0
 10
341.3780317538
 20
26.0097351795
 30
0.0
 10
341.3780317538
 20
26.0097351795
 30
0.0
 10
341.3733210522
 20
26.0097351795
 30
0.0
 10
341.3733210522
 20
26.0097351795
 30
0.0
 10
341.3733210522
 20
26.0097351795
 30
0.0
 10
341.3733210522
 20
27.1497249645
 30
0.0
 10
341.3733210522
 20
27.1497249645
 30
0.0
 10
341.3733210522
 20
27.1497249645
 30
0.0
 10
341.1519180774
 20
27.1497249645
 30
0.0
 10
341.1519180774
 20
27.1497249645
 30
0.0
  0
LWPOLYLINE
  5
254
100
AcDbEntity
  8
0
100
AcDbPolyline
 62
7
  6
CONTINUOUS
 90
2
 70
0
 43
0.2
 10
343.9741517416
 20
25.9573940507
 10
344.1905823091
 20
25.9573940507
  0
LWPOLYLINE
  5
255
100
AcDbEntity
  8
0
100
AcDbPolyline
 62
7
  6
CONTINUOUS
 90
2
 70
0
 43
0.2
 10
344.1905823091
 20
25.9573940507
 10
344.1905823091
 20
26.1641415094
  0
LWPOLYLINE
  5
256
100
AcDbEntity
  8
0
100
AcDbPolyline
 62
7
  6
CONTINUOUS
 90
2
 70
0
 43
0.2
 10
344.1905823091
 20
26.1641415094
 10
343.9741517416
 20
26.1641415094
  0
LWPOLYLINE
  5
257
100
AcDbEntity
  8
0
100
AcDbPolyline
 62
7
  6
CONTINUOUS
 90
2
 70
0
 43
0.2
 10
343.9741517416
 20
26.1641415094
 10
343.9741517416
 20
26.6048538138
  0
LWPOLYLINE
  5
258
100
AcDbEntity
  8
0
100
AcDbPolyline
 62
7
  6
CONTINUOUS
 90
2
 70
0
 43
0.2
 10
343.9741517416
 20
26.6048538138
 10
343.7524870612
 20
26.6048538138
  0
LWPOLYLINE
  5
259
100
AcDbEntity
  8
0
100
AcDbPolyline
 62
7
  6
CONTINUOUS
 90
2
 70
0
 43
0.2
 10
343.7524870612
 20
26.6048538138
 10
343.7524870612
 20
26.1641415094
  0
LWPOLYLINE
  5
25A
100
AcDbEntity
  8
0
100
AcDbPolyline
 62
7
  6
CONTINUOUS
 90
2
 70
0
 43
0.2
 10
343.7524870612
 20
26.1641415094
 10
343.6318407593
 20
26.1641415094
  0
LWPOLYLINE
  5
25B
100
AcDbEntity
  8
0
100
AcDbPolyline
 62
7
  6
CONTINUOUS
 90
2
 70
0
 43
0.2
 10
343.6318407593
 20
26.1641415094
 10
343.6318407593
 20
25.9573940507
  0
LWPOLYLINE
  5
25C
100
AcDbEntity
  8
0
100
AcDbPolyline
 62
7
  6
CONTINUOUS
 90
2
 70
0
 43
0.2
 10
343.6318407593
 20
25.9573940507
 10
343.7524870612
 20
25.9573940507
  0
LWPOLYLINE
  5
25D
100
AcDbEntity
  8
0
100
AcDbPolyline
 62
7
  6
CONTINUOUS
 90
2
 70
0
 43
0.2
 10
343.7524870612
 20
25.9573940507
 10
343.7524870612
 20
25.0115898535
  0
LWPOLYLINE
  5
25E
100
AcDbEntity
  8
0
100
AcDbPolyline
 62
7
  6
CONTINUOUS
 90
2
 70
0
 43
0.2
 10
343.7524870612
 20
25.0115898535
 10
343.9741517416
 20
25.0115898535
  0
LWPOLYLINE
  5
25F
100
AcDbEntity
  8
0
100
AcDbPolyline
 62
7
  6
CONTINUOUS
 90
2
 70
0
 43
0.2
 10
343.9741517416
 20
25.0115898535
 10
343.9741517416
 20
25.9573940507
  0
SPLINE
  5
260
100
AcDbEntity
  8
0
100
AcDbSpline
 62
7
  6
CONTINUOUS
 70
2
 71
3
 72
20
 73
16
 74
0
 42
0.0000001
 43
0.0000001
 44
0.0000000001
 40
0.0
 40
0.0
 40
0.0
 40
0.0
 40
1.0
 40
1.0
 40
1.0
 40
2.0
 40
2.0
 40
2.0
 40
3.0
 40
3.0
 40
3.0
 40
4.0
 40
4.0
 40
4.0
 40
5.0
 40
5.0
 40
5.0
 40
5.0
 10
331.7561620489
 20
35.3725162969
 30
0.0
 10
331.7561620489
 20
35.3725162969
 30
0.0
 10
334.0725187033
 20
32.5429548747
 30
0.0
 10
334.0725187033
 20
32.5429548747
 30
0.0
 10
333.4208716499
 20
31.89078441
 30
0.0
 10
332.6439984459
 20
31.1548681392
 30
0.0
 10
331.6728088013
 20
31.1548681392
 30
0.0
 10
330.6742709168
 20
31.1548681392
 30
0.0
 10
329.7309529233
 20
32.0844465865
 30
0.0
 10
329.7309529233
 20
33.083638735
 30
0.0
 10
329.7309529233
 20
34.0828308836
 30
0.0
 10
330.9098059964
 20
34.7894361222
 30
0.0
 10
331.6313284567
 20
35.2892939021
 30
0.0
 10
331.6313284567
 20
35.2892939021
 30
0.0
 10
331.7561620489
 20
35.3725162969
 30
0.0
 10
331.7561620489
 20
35.3725162969
 30
0.0
  0
SPLINE
  5
261
100
AcDbEntity
  8
0
100
AcDbSpline
 62
7
  6
CONTINUOUS
 70
2
 71
3
 72
23
 73
19
 74
0
 42
0.0000001
 43
0.0000001
 44
0.0000000001
 40
0.0
 40
0.0
 40
0.0
 40
0.0
 40
1.0
 40
1.0
 40
1.0
 40
2.0
 40
2.0
 40
2.0
 40
3.0
 40
3.0
 40
3.0
 40
4.0
 40
4.0
 40
4.0
 40
5.0
 40
5.0
 40
5.0
 40
6.0
 40
6.0
 40
6.0
 40
6.0
 10
332.0335700314
 20
37.0102702166
 30
0.0
 10
332.0335700314
 20
37.0102702166
 30
0.0
 10
331.6870717589
 20
37.4535995775
 30
0.0
 10
331.6870717589
 20
37.4535995775
 30
0.0
 10
331.3812687139
 20
37.8417090474
 30
0.0
 10
331.0623803868
 20
38.2302110759
 30
0.0
 10
331.0623803868
 20
38.7571553899
 30
0.0
 10
331.0623803868
 20
39.4233271066
 30
0.0
 10
331.6037185113
 20
39.8670490258
 30
0.0
 10
332.2276247664
 20
39.8670490258
 30
0.0
 10
332.9214064285
 20
39.8670490258
 30
0.0
 10
333.4486124482
 20
39.4648074511
 30
0.0
 10
333.4486124482
 20
38.7298071501
 30
0.0
 10
333.4486124482
 20
37.9665426396
 30
0.0
 10
332.7273516935
 20
37.5364294138
 30
0.0
 10
332.2002765266
 20
37.1207099984
 30
0.0
 10
332.2002765266
 20
37.1207099984
 30
0.0
 10
332.0335700314
 20
37.0102702166
 30
0.0
 10
332.0335700314
 20
37.0102702166
 30
0.0
  0
SPLINE
  5
262
100
AcDbEntity
  8
0
100
AcDbSpline
 62
7
  6
CONTINUOUS
 70
2
 71
3
 72
50
 73
46
 74
0
 42
0.0000001
 43
0.0000001
 44
0.0000000001
 40
0.0
 40
0.0
 40
0.0
 40
0.0
 40
1.0
 40
1.0
 40
1.0
 40
2.0
 40
2.0
 40
2.0
 40
3.0
 40
3.0
 40
3.0
 40
4.0
 40
4.0
 40
4.0
 40
5.0
 40
5.0
 40
5.0
 40
6.0
 40
6.0
 40
6.0
 40
7.0
 40
7.0
 40
7.0
 40
8.0
 40
8.0
 40
8.0
 40
9.0
 40
9.0
 40
9.0
 40
10.0
 40
10.0
 40
10.0
 40
11.0
 40
11.0
 40
11.0
 40
12.0
 40
12.0
 40
12.0
 40
13.0
 40
13.0
 40
13.0
 40
14.0
 40
14.0
 40
14.0
 40
15.0
 40
15.0
 40
15.0
 40
15.0
 10
335.9871571944
 20
30.2116809985
 30
0.0
 10
335.9871571944
 20
30.2116809985
 30
0.0
 10
337.5963851989
 20
30.2116809985
 30
0.0
 10
337.5963851989
 20
30.2116809985
 30
0.0
 10
337.5963851989
 20
30.2116809985
 30
0.0
 10
335.7233579053
 20
32.5288227699
 30
0.0
 10
335.7233579053
 20
32.5288227699
 30
0.0
 10
335.7233579053
 20
32.5288227699
 30
0.0
 10
336.9996963307
 20
34.0263024645
 30
0.0
 10
336.9996963307
 20
34.0263024645
 30
0.0
 10
336.9996963307
 20
34.0263024645
 30
0.0
 10
336.167472383
 20
34.887314033
 30
0.0
 10
336.167472383
 20
34.887314033
 30
0.0
 10
336.167472383
 20
34.887314033
 30
0.0
 10
334.9468772597
 20
33.4720099106
 30
0.0
 10
334.9468772597
 20
33.4720099106
 30
0.0
 10
334.9468772597
 20
33.4720099106
 30
0.0
 10
332.7689628909
 20
36.1073857451
 30
0.0
 10
332.7689628909
 20
36.1073857451
 30
0.0
 10
333.6425363303
 20
36.745424105
 30
0.0
 10
334.6692075715
 20
37.5364294138
 30
0.0
 10
334.6692075715
 20
38.7152824869
 30
0.0
 10
334.6692075715
 20
40.0889754119
 30
0.0
 10
333.5313114317
 20
40.8934585614
 30
0.0
 10
332.2560198288
 20
40.8934585614
 30
0.0
 10
330.8825886094
 20
40.8934585614
 30
0.0
 10
329.8416544106
 20
40.0472333617
 30
0.0
 10
329.8416544106
 20
38.6045809995
 30
0.0
 10
329.8416544106
 20
37.7170063081
 30
0.0
 10
330.3969937871
 20
36.9401331041
 30
0.0
 10
330.993159244
 20
36.3157034376
 30
0.0
 10
330.993159244
 20
36.3157034376
 30
0.0
 10
330.3412504849
 20
35.8441098673
 30
0.0
 10
330.3412504849
 20
35.8441098673
 30
0.0
 10
329.3427126005
 20
35.1228491126
 30
0.0
 10
328.5098343887
 20
34.4015883579
 30
0.0
 10
328.5098343887
 20
33.0700300416
 30
0.0
 10
328.5098343887
 20
31.2663547436
 30
0.0
 10
329.9668805613
 20
29.9897546124
 30
0.0
 10
331.7144199986
 20
29.9897546124
 30
0.0
 10
332.9492780796
 20
29.9897546124
 30
0.0
 10
334.0586483042
 20
30.6979300849
 30
0.0
 10
334.8495227602
 20
31.6264617096
 30
0.0
 10
334.8495227602
 20
31.6264617096
 30
0.0
 10
335.9871571944
 20
30.2116809985
 30
0.0
 10
335.9871571944
 20
30.2116809985
 30
0.0
  0
LINE
  5
263
100
AcDbEntity
  8
0
100
AcDbLine
 62
7
  6
CONTINUOUS
 10
321.7900185693
 20
28.1855559032
 11
344.203929297
 21
28.1855559032
  0
LINE
  5
264
100
AcDbEntity
  8
0
100
AcDbLine
 62
7
  6
CONTINUOUS
 10
344.203929297
 20
28.1855559032
 11
344.203929297
 21
50.5994666308
  0
LINE
  5
265
100
AcDbEntity
  8
0
100
AcDbLine
 62
7
  6
CONTINUOUS
 10
344.203929297
 20
50.5994666308
 11
321.7900185693
 21
50.5994666308
  0
LINE
  5
266
100
AcDbEntity
  8
0
100
AcDbLine
 62
7
  6
CONTINUOUS
 10
321.7900185693
 20
50.5994666308
 11
321.7900185693
 21
28.1855559032
  0
ENDBLK
  5
267
100
AcDbEntity
  8
0
  6
BYBLOCK
 62
0
100
AcDbBlockEnd
  0
BLOCK
  5
268
100
AcDbEntity
  8
0
100
AcDbBlockBegin
  2
_CLOSED
 70
64
 10
0.0
 20
0.0
  3
_CLOSED
  1

  0
LINE
  5
269
100
AcDbEntity
  8
0
  6
BYBLOCK
 62
0
100
AcDbLine
 10
0.0
 20
0.0
 11
-1.0
 21
0.2
  0
LINE
  5
26A
100
AcDbEntity
  8
0
  6
BYBLOCK
 62
0
100
AcDbLine
 10
-1.0
 20
0.2
 11
-1.0
 21
-0.2
  0
LINE
  5
26B
100
AcDbEntity
  8
0
  6
BYBLOCK
 62
0
100
AcDbLine
 10
-1.0
 20
-0.2
 11
0.0
 21
0.0
  0
LINE
  5
26C
100
AcDbEntity
  8
0
  6
BYBLOCK
 62
0
100
AcDbLine
 10
-1.0
 20
0.0
 11
0.0
 21
0.0
  0
ENDBLK
  5
26D
100
AcDbEntity
  8
0
  6
BYBLOCK
 62
0
100
AcDbBlockEnd
  0
BLOCK
  5
26E
100
AcDbEntity
  8
0
100
AcDbBlockBegin
 62
2
  6
CONTINUOUS
  2
*D0
 70
65
 10
0.0
 20
0.0
  3
*D0
  1

  0
LINE
  5
26F
100
AcDbEntity
  8
0
100
AcDbLine
 62
2
  6
CONTINUOUS
 10
54.088455153
 20
156.0907914664
 11
54.088455153
 21
164.0808073628
  0
LINE
  5
270
100
AcDbEntity
  8
0
100
AcDbLine
 62
2
  6
CONTINUOUS
 10
178.088455153
 20
156.0907914664
 11
178.088455153
 21
164.0808073628
  0
LINE
  5
271
100
AcDbEntity
  8
0
100
AcDbLine
 62
2
  6
CONTINUOUS
 10
54.088455153
 20
163.3308073628
 11
116.088455153
 21
163.3308073628
  0
LINE
  5
272
100
AcDbEntity
  8
0
100
AcDbLine
 62
2
  6
CONTINUOUS
 10
178.088455153
 20
163.3308073628
 11
116.088455153
 21
163.3308073628
  0
INSERT
  5
273
100
AcDbEntity
  8
0
100
AcDbBlockReference
 62
2
  6
CONTINUOUS
  2
_CLOSED
 10
54.088455153
 20
163.3308073628
 41
2.5
 42
2.5
 43
2.5
 50
180.0
  0
INSERT
  5
274
100
AcDbEntity
  8
0
100
AcDbBlockReference
 62
2
  6
CONTINUOUS
  2
_CLOSED
 10
178.088455153
 20
163.3308073628
 41
2.5
 42
2.5
 43
2.5
  0
ENDBLK
  5
275
100
AcDbEntity
  8
0
  6
BYBLOCK
 62
0
100
AcDbBlockEnd
  0
BLOCK
  5
276
100
AcDbEntity
  8
0
100
AcDbBlockBegin
 62
2
  6
CONTINUOUS
  2
*D1
 70
65
 10
0.0
 20
0.0
  3
*D1
  1

  0
LINE
  5
277
100
AcDbEntity
  8
0
100
AcDbLine
 62
2
  6
CONTINUOUS
 10
182.8804097997
 20
246.7069210962
 11
202.9100087051
 21
246.7069210962
  0
LINE
  5
278
100
AcDbEntity
  8
0
100
AcDbLine
 62
2
  6
CONTINUOUS
 10
182.9216461633
 20
546.0940208966
 11
202.9100087051
 21
546.0940208966
  0
LINE
  5
279
100
AcDbEntity
  8
0
100
AcDbLine
 62
2
  6
CONTINUOUS
 10
202.1600087051
 20
246.7069210962
 11
202.1600087051
 21
396.4004709964
  0
LINE
  5
27A
100
AcDbEntity
  8
0
100
AcDbLine
 62
2
  6
CONTINUOUS
 10
202.1600087051
 20
546.0940208966
 11
202.1600087051
 21
396.4004709964
  0
INSERT
  5
27B
100
AcDbEntity
  8
0
100
AcDbBlockReference
 62
2
  6
CONTINUOUS
  2
_CLOSED
 10
202.1600087051
 20
246.7069210962
 41
2.5
 42
2.5
 43
2.5
 50
270.0
  0
INSERT
  5
27C
100
AcDbEntity
  8
0
100
AcDbBlockReference
 62
2
  6
CONTINUOUS
  2
_CLOSED
 10
202.1600087051
 20
546.0940208966
 41
2.5
 42
2.5
 43
2.5
 50
90.0
  0
ENDBLK
  5
27D
100
AcDbEntity
  8
0
  6
BYBLOCK
 62
0
100
AcDbBlockEnd
  0
BLOCK
  5
27E
100
AcDbEntity
  8
0
100
AcDbBlockBegin
 62
2
  6
CONTINUOUS
  2
*D2
 70
65
 10
0.0
 20
0.0
  3
*D2
  1

  0
LINE
  5
27F
100
AcDbEntity
  8
0
100
AcDbLine
 62
2
  6
CONTINUOUS
 10
56.088455153
 20
51.3296920346
 11
56.088455153
 21
44.5939943591
  0
LINE
  5
280
100
AcDbEntity
  8
0
100
AcDbLine
 62
2
  6
CONTINUOUS
 10
176.088455153
 20
51.0024193074
 11
176.088455153
 21
44.5939943591
  0
LINE
  5
281
100
AcDbEntity
  8
0
100
AcDbLine
 62
2
  6
CONTINUOUS
 10
56.088455153
 20
45.3439943591
 11
116.088455153
 21
45.3439943591
  0
LINE
  5
282
100
AcDbEntity
  8
0
100
AcDbLine
 62
2
  6
CONTINUOUS
 10
176.088455153
 20
45.3439943591
 11
116.088455153
 21
45.3439943591
  0
INSERT
  5
283
100
AcDbEntity
  8
0
100
AcDbBlockReference
 62
2
  6
CONTINUOUS
  2
_CLOSED
 10
56.088455153
 20
45.3439943591
 41
2.5
 42
2.5
 43
2.5
 50
180.0
  0
INSERT
  5
284
100
AcDbEntity
  8
0
100
AcDbBlockReference
 62
2
  6
CONTINUOUS
  2
_CLOSED
 10
176.088455153
 20
45.3439943591
 41
2.5
 42
2.5
 43
2.5
  0
ENDBLK
  5
285
100
AcDbEntity
  8
0
  6
BYBLOCK
 62
0
100
AcDbBlockEnd
  0
BLOCK
  5
286
100
AcDbEntity
  8
0
100
AcDbBlockBegin
 62
2
  6
CONTINUOUS
  2
*D3
 70
65
 10
0.0
 20
0.0
  3
*D3
  1

  0
LINE
  5
287
100
AcDbEntity
  8
0
100
AcDbLine
 62
2
  6
CONTINUOUS
 10
252.1260994332
 20
241.5663964177
 11
252.1260994332
 21
234.7792263701
  0
LINE
  5
288
100
AcDbEntity
  8
0
100
AcDbLine
 62
2
  6
CONTINUOUS
 10
286.1260994332
 20
241.6169957872
 11
286.1260994332
 21
234.7792263701
  0
LINE
  5
289
100
AcDbEntity
  8
0
100
AcDbLine
 62
2
  6
CONTINUOUS
 10
252.1260994332
 20
235.5292263701
 11
269.1260994332
 21
235.5292263701
  0
LINE
  5
28A
100
AcDbEntity
  8
0
100
AcDbLine
 62
2
  6
CONTINUOUS
 10
286.1260994332
 20
235.5292263701
 11
269.1260994332
 21
235.5292263701
  0
INSERT
  5
28B
100
AcDbEntity
  8
0
100
AcDbBlockReference
 62
2
  6
CONTINUOUS
  2
_CLOSED
 10
252.1260994332
 20
235.5292263701
 41
2.5
 42
2.5
 43
2.5
 50
180.0
  0
INSERT
  5
28C
100
AcDbEntity
  8
0
100
AcDbBlockReference
 62
2
  6
CONTINUOUS
  2
_CLOSED
 10
286.1260994332
 20
235.5292263701
 41
2.5
 42
2.5
 43
2.5
  0
ENDBLK
  5
28D
100
AcDbEntity
  8
0
  6
BYBLOCK
 62
0
100
AcDbBlockEnd
  0
BLOCK
  5
28E
100
AcDbEntity
  8
0
100
AcDbBlockBegin
 62
2
  6
CONTINUOUS
  2
*D4
 70
65
 10
0.0
 20
0.0
  3
*D4
  1

  0
LINE
  5
28F
100
AcDbEntity
  8
0
100
AcDbLine
 62
2
  6
CONTINUOUS
 10
349.2486869542
 20
553.0774220948
 11
349.2486869542
 21
560.3079368182
  0
LINE
  5
290
100
AcDbEntity
  8
0
100
AcDbLine
 62
2
  6
CONTINUOUS
 10
252.1260994332
 20
552.8700852573
 11
252.1260994332
 21
560.3079368182
  0
LINE
  5
291
100
AcDbEntity
  8
0
100
AcDbLine
 62
2
  6
CONTINUOUS
 10
349.2486869542
 20
559.5579368182
 11
300.6873931937
 21
559.5579368182
  0
LINE
  5
292
100
AcDbEntity
  8
0
100
AcDbLine
 62
2
  6
CONTINUOUS
 10
252.1260994332
 20
559.5579368182
 11
300.6873931937
 21
559.5579368182
  0
INSERT
  5
293
100
AcDbEntity
  8
0
100
AcDbBlockReference
 62
2
  6
CONTINUOUS
  2
_CLOSED
 10
349.2486869542
 20
559.5579368182
 41
2.5
 42
2.5
 43
2.5
  0
INSERT
  5
294
100
AcDbEntity
  8
0
100
AcDbBlockReference
 62
2
  6
CONTINUOUS
  2
_CLOSED
 10
252.1260994332
 20
559.5579368182
 41
2.5
 42
2.5
 43
2.5
 50
180.0
  0
ENDBLK
  5
295
100
AcDbEntity
  8
0
  6
BYBLOCK
 62
0
100
AcDbBlockEnd
  0
BLOCK
  5
296
100
AcDbEntity
  8
0
100
AcDbBlockBegin
  2
*T1
 70
1
 10
0.0
 20
0.0
  3
*T1
  1

  0
LINE
  5
297
100
AcDbEntity
  8
0
100
AcDbLine
 62
2
  6
CONTINUOUS
 10
0.0
 20
0.0
 11
90.0
 21
0.0
  0
LINE
  5
298
100
AcDbEntity
  8
0
100
AcDbLine
 62
2
  6
CONTINUOUS
 10
0.0
 20
0.0
 11
0.0
 21
-40.0
  0
LINE
  5
299
100
AcDbEntity
  8
0
100
AcDbLine
 62
2
  6
CONTINUOUS
 10
30.0
 20
-6.0
 11
90.0
 21
-6.0
  0
LINE
  5
29A
100
AcDbEntity
  8
0
100
AcDbLine
 62
2
  6
CONTINUOUS
 10
30.0
 20
-12.0
 11
90.0
 21
-12.0
  0
LINE
  5
29B
100
AcDbEntity
  8
0
100
AcDbLine
 62
2
  6
CONTINUOUS
 10
30.0
 20
-22.0
 11
90.0
 21
-22.0
  0
LINE
  5
29C
100
AcDbEntity
  8
0
100
AcDbLine
 62
2
  6
CONTINUOUS
 10
0.0
 20
-27.0
 11
90.0
 21
-27.0
  0
LINE
  5
29D
100
AcDbEntity
  8
0
100
AcDbLine
 62
2
  6
CONTINUOUS
 10
0.0
 20
-40.0
 11
90.0
 21
-40.0
  0
LINE
  5
29E
100
AcDbEntity
  8
0
100
AcDbLine
 62
2
  6
CONTINUOUS
 10
30.0
 20
0.0
 11
30.0
 21
-27.0
  0
LINE
  5
29F
100
AcDbEntity
  8
0
100
AcDbLine
 62
2
  6
CONTINUOUS
 10
70.0
 20
0.0
 11
70.0
 21
-12.0
  0
LINE
  5
2A0
100
AcDbEntity
  8
0
100
AcDbLine
 62
2
  6
CONTINUOUS
 10
90.0
 20
0.0
 11
90.0
 21
-40.0
  0
ENDBLK
  5
2A1
100
AcDbEntity
  8
0
100
AcDbBlockEnd
  0
ENDSEC
  0
SECTION
  2
ENTITIES
  0
DIMENSION
  5
2A2
100
AcDbEntity
  8
0
100
AcDbDimension
 62
2
  6
CONTINUOUS
  2
*D0
 10
178.088455153
 20
163.3308073628
 11
112.8741694387
 21
164.0808073628
 70
160
 71
2
 42
124.0
  3
DIMSTYLE_1
100
AcDbAlignedDimension
 13
54.088455153
 23
156.0907914664
 14
178.088455153
 24
156.0907914664
100
AcDbRotatedDimension
  0
DIMENSION
  5
2A3
100
AcDbEntity
  8
0
100
AcDbDimension
 62
2
  6
CONTINUOUS
  2
*D1
 10
202.1600087051
 20
546.0940208966
 11
201.4100087051
 21
392.9718995679
 70
160
 71
2
 42
299.3870998004
  1
300
  3
DIMSTYLE_1
100
AcDbAlignedDimension
 13
182.8804097997
 23
246.7069210962
 14
182.9216461633
 24
546.0940208966
 50
90.0
100
AcDbRotatedDimension
  0
DIMENSION
  5
2A4
100
AcDbEntity
  8
0
100
AcDbDimension
 62
2
  6
CONTINUOUS
  2
*D2
 10
176.088455153
 20
45.3439943591
 11
112.8741694387
 21
46.0939943591
 70
160
 71
2
 42
120.0
  3
DIMSTYLE_2
100
AcDbAlignedDimension
 13
56.088455153
 23
51.3296920346
 14
176.088455153
 24
51.0024193074
100
AcDbRotatedDimension
  0
DIMENSION
  5
2A5
100
AcDbEntity
  8
0
100
AcDbDimension
 62
2
  6
CONTINUOUS
  2
*D3
 10
286.1260994332
 20
235.5292263701
 11
266.8760994332
 21
236.2792263701
 70
160
 71
2
 42
34.0
  3
DIMSTYLE_2
100
AcDbAlignedDimension
 13
252.1260994332
 23
241.5663964177
 14
286.1260994332
 24
241.6169957872
100
AcDbRotatedDimension
  0
DIMENSION
  5
2A6
100
AcDbEntity
  8
0
100
AcDbDimension
 62
2
  6
CONTINUOUS
  2
*D4
 10
252.1260994332
 20
559.5579368182
 11
298.3302503366
 21
560.3079368182
 70
160
 71
2
 42
97.122587521
  3
DIMSTYLE_3
100
AcDbAlignedDimension
 13
349.2486869542
 23
553.0774220948
 14
252.1260994332
 24
552.8700852573
 50
180.0
100
AcDbRotatedDimension
  0
INSERT
  5
2A7
100
AcDbEntity
  8
0
100
AcDbBlockReference
 62
2
  6
CONTINUOUS
  2
LOGO2_BL0
 10
332.9969085068
 20
37.4757791308
  0
LWPOLYLINE
  5
2A8
100
AcDbEntity
  8
0
100
AcDbPolyline
 62
2
  6
CONTINUOUS
 90
6
 70
0
 10
350.658375
 20
46.4757788086
 10
351.7298007813
 20
46.4757788086
 10
351.9440859375
 20
46.6900639648
 10
351.9440859375
 20
47.7614951172
 10
351.515515625
 20
48.1900654297
 10
351.0869453125
 20
48.1900654297
  0
LWPOLYLINE
  5
2A9
100
AcDbEntity
  8
0
100
AcDbPolyline
 62
2
  6
CONTINUOUS
 90
5
 70
0
 10
351.515515625
 20
48.1900654297
 10
351.8726289063
 20
48.4043505859
 10
351.8726289063
 20
49.0472060547
 10
351.515515625
 20
49.4757817383
 10
350.658375
 20
49.4757817383
  0
LINE
  5
2AA
100
AcDbEntity
  8
0
100
AcDbLine
 62
2
  6
CONTINUOUS
 10
352.8012265625
 20
46.4757788086
 11
352.8012265625
 21
49.4757817383
  0
LINE
  5
2AB
100
AcDbEntity
  8
0
100
AcDbLine
 62
2
  6
CONTINUOUS
 10
354.3012226563
 20
49.4757817383
 11
354.3012226563
 21
46.4757788086
  0
LINE
  5
2AC
100
AcDbEntity
  8
0
100
AcDbLine
 62
2
  6
CONTINUOUS
 10
352.8012265625
 20
48.1900654297
 11
354.3012226563
 21
48.1900654297
  0
LWPOLYLINE
  5
2AD
100
AcDbEntity
  8
0
100
AcDbPolyline
 62
2
  6
CONTINUOUS
 90
4
 70
0
 10
355.1583632813
 20
48.8329208984
 10
355.1583632813
 20
49.4757817383
 10
356.658359375
 20
49.4757817383
 10
355.80121875
 20
46.4757788086
  0
LINE
  5
2AE
100
AcDbEntity
  8
0
100
AcDbLine
 62
2
  6
CONTINUOUS
 10
357.5155
 20
46.4757788086
 11
359.22978125
 21
46.4757788086
  0
LWPOLYLINE
  5
2AF
100
AcDbEntity
  8
0
100
AcDbPolyline
 62
2
  6
CONTINUOUS
 90
6
 70
0
 10
361.1583476563
 20
46.4757788086
 10
360.3012070313
 20
46.4757788086
 10
359.8726367188
 20
46.9043491211
 10
359.8726367188
 20
49.0472060547
 10
360.3012070313
 20
49.4757817383
 10
361.1583476563
 20
49.4757817383
  0
LINE
  5
2B0
100
AcDbEntity
  8
0
100
AcDbLine
 62
2
  6
CONTINUOUS
 10
362.3726445313
 20
46.4757788086
 11
364.0869257813
 21
46.4757788086
  0
LWPOLYLINE
  5
2B1
100
AcDbEntity
  8
0
100
AcDbPolyline
 62
2
  6
CONTINUOUS
 90
13
 70
0
 10
364.72978125
 20
47.3329194336
 10
364.72978125
 20
48.6186357422
 10
364.9440664063
 20
49.0472060547
 10
365.3726367188
 20
49.4757817383
 10
365.586921875
 20
49.4757817383
 10
366.0154921875
 20
49.0472060547
 10
366.2297773438
 20
48.6186357422
 10
366.2297773438
 20
47.3329194336
 10
366.0154921875
 20
46.9043491211
 10
365.586921875
 20
46.4757788086
 10
365.3726367188
 20
46.4757788086
 10
364.9440664063
 20
46.9043491211
 10
364.72978125
 20
47.3329194336
  0
LWPOLYLINE
  5
2B2
100
AcDbEntity
  8
0
100
AcDbPolyline
 62
2
  6
CONTINUOUS
 90
10
 70
0
 10
367.5154882813
 20
46.4757788086
 10
368.3726289063
 20
47.3329194336
 10
368.5869140625
 20
48.1900654297
 10
368.5869140625
 20
49.0472060547
 10
368.15834375
 20
49.4757817383
 10
367.5154882813
 20
49.4757817383
 10
367.0869179688
 20
49.0472060547
 10
367.0869179688
 20
48.1900654297
 10
367.5154882813
 20
47.7614951172
 10
368.4440859375
 20
47.7614951172
  0
LWPOLYLINE
  5
2B3
100
AcDbEntity
  8
0
100
AcDbPolyline
 62
2
  6
CONTINUOUS
 90
13
 70
0
 10
369.4440546875
 20
47.3329194336
 10
369.4440546875
 20
48.6186357422
 10
369.6583828125
 20
49.0472060547
 10
370.086953125
 20
49.4757817383
 10
370.3012382813
 20
49.4757817383
 10
370.7298085938
 20
49.0472060547
 10
370.94409375
 20
48.6186357422
 10
370.94409375
 20
47.3329194336
 10
370.7298085938
 20
46.9043491211
 10
370.3012382813
 20
46.4757788086
 10
370.086953125
 20
46.4757788086
 10
369.6583828125
 20
46.9043491211
 10
369.4440546875
 20
47.3329194336
  0
LWPOLYLINE
  5
2B4
100
AcDbEntity
  8
0
100
AcDbPolyline
 62
2
  6
CONTINUOUS
 90
7
 70
0
 10
390.6583710938
 20
45.7257807617
 10
390.6583710938
 20
49.2257788086
 10
391.908375
 20
49.2257788086
 10
392.408359375
 20
48.7257783203
 10
392.408359375
 20
47.7257773438
 10
391.908375
 20
47.2257768555
 10
390.6583710938
 20
47.2257768555
  0
LINE
  5
2B5
100
AcDbEntity
  8
0
100
AcDbLine
 62
2
  6
CONTINUOUS
 10
391.4083476563
 20
47.2257768555
 11
392.408359375
 21
45.7257807617
  0
LWPOLYLINE
  5
2B6
100
AcDbEntity
  8
0
100
AcDbPolyline
 62
2
  6
CONTINUOUS
 90
9
 70
0
 10
394.9083671875
 20
45.7257807617
 10
393.9083554688
 20
45.7257807617
 10
393.4083710938
 20
46.22578125
 10
393.4083710938
 20
47.7257773438
 10
393.9083554688
 20
48.225777832
 10
394.4083828125
 20
48.225777832
 10
394.9083671875
 20
47.7257773438
 10
394.9083671875
 20
46.9757792969
 10
393.4083710938
 20
46.9757792969
  0
LWPOLYLINE
  5
2B7
100
AcDbEntity
  8
0
100
AcDbPolyline
 62
2
  6
CONTINUOUS
 90
3
 70
0
 10
395.9083789063
 20
48.225777832
 10
396.6583554688
 20
45.7257807617
 10
397.408375
 20
48.225777832
  0
LWPOLYLINE
  5
2B8
100
AcDbEntity
  8
0
100
AcDbPolyline
 62
2
  6
CONTINUOUS
 90
4
 70
0
 10
398.40834375
 20
45.7257807617
 10
398.40834375
 20
45.9757783203
 10
398.5750195313
 20
45.9757783203
 10
398.40834375
 20
45.7257807617
  0
LWPOLYLINE
  5
2B9
100
AcDbEntity
  8
0
100
AcDbPolyline
 62
2
  6
CONTINUOUS
 90
4
 70
0
 10
398.40834375
 20
47.2257768555
 10
398.40834375
 20
47.4757797852
 10
398.5750195313
 20
47.4757797852
 10
398.40834375
 20
47.2257768555
  0
LWPOLYLINE
  5
2BA
100
AcDbEntity
  8
0
100
AcDbPolyline
 62
2
  6
CONTINUOUS
 90
13
 70
0
 10
399.6583476563
 20
46.7257817383
 10
399.6583476563
 20
48.225777832
 10
399.9083828125
 20
48.7257783203
 10
400.4083671875
 20
49.2257788086
 10
400.658359375
 20
49.2257788086
 10
401.15834375
 20
48.7257783203
 10
401.4083789063
 20
48.225777832
 10
401.4083789063
 20
46.7257817383
 10
401.15834375
 20
46.22578125
 10
400.658359375
 20
45.7257807617
 10
400.4083671875
 20
45.7257807617
 10
399.9083828125
 20
46.22578125
 10
399.6583476563
 20
46.7257817383
  0
LWPOLYLINE
  5
2BB
100
AcDbEntity
  8
0
100
AcDbPolyline
 62
2
  6
CONTINUOUS
 90
3
 70
0
 10
402.4083476563
 20
48.225777832
 10
403.408359375
 20
49.2257788086
 10
403.408359375
 20
45.7257807617
  0
LWPOLYLINE
  5
2BC
100
AcDbEntity
  8
0
100
AcDbPolyline
 62
2
  6
CONTINUOUS
 90
10
 70
0
 10
350.658375
 20
39.975777832
 10
350.9083671875
 20
39.7257802734
 10
351.9083789063
 20
39.7257802734
 10
352.4083632813
 20
40.2257780762
 10
352.4083632813
 20
40.7257785645
 10
350.658375
 20
42.2257800293
 10
350.658375
 20
42.725777832
 10
351.158359375
 20
43.2257783203
 10
352.1583710938
 20
43.2257783203
 10
352.4083632813
 20
42.9757780762
  0
LWPOLYLINE
  5
2BD
100
AcDbEntity
  8
0
100
AcDbPolyline
 62
2
  6
CONTINUOUS
 90
6
 70
0
 10
354.6583789063
 20
39.7257802734
 10
353.6583671875
 20
39.7257802734
 10
353.408375
 20
39.975777832
 10
353.408375
 20
41.9757797852
 10
353.6583671875
 20
42.2257800293
 10
354.6583789063
 20
42.2257800293
  0
LWPOLYLINE
  5
2BE
100
AcDbEntity
  8
0
100
AcDbPolyline
 62
2
  6
CONTINUOUS
 90
4
 70
0
 10
357.15834375
 20
39.7257802734
 10
357.15834375
 20
41.725779541
 10
356.9083515625
 20
42.2257800293
 10
355.6583476563
 20
42.2257800293
  0
LWPOLYLINE
  5
2BF
100
AcDbEntity
  8
0
100
AcDbPolyline
 62
2
  6
CONTINUOUS
 90
6
 70
0
 10
357.15834375
 20
39.7257802734
 10
356.158375
 20
39.7257802734
 10
355.6583476563
 20
39.975777832
 10
355.6583476563
 20
40.7257785645
 10
356.158375
 20
40.9757788086
 10
357.15834375
 20
40.9757788086
  0
LWPOLYLINE
  5
2C0
100
AcDbEntity
  8
0
100
AcDbPolyline
 62
2
  6
CONTINUOUS
 90
4
 70
0
 10
358.908375
 20
39.7257802734
 10
358.4083476563
 20
39.7257802734
 10
358.1583554688
 20
39.975777832
 10
358.1583554688
 20
43.2257783203
  0
LWPOLYLINE
  5
2C1
100
AcDbEntity
  8
0
100
AcDbPolyline
 62
2
  6
CONTINUOUS
 90
9
 70
0
 10
361.4083828125
 20
39.7257802734
 10
360.4083710938
 20
39.7257802734
 10
359.90834375
 20
40.2257780762
 10
359.90834375
 20
41.725779541
 10
360.4083710938
 20
42.2257800293
 10
360.9083554688
 20
42.2257800293
 10
361.4083828125
 20
41.725779541
 10
361.4083828125
 20
40.9757788086
 10
359.90834375
 20
40.9757788086
  0
LWPOLYLINE
  5
2C2
100
AcDbEntity
  8
0
100
AcDbPolyline
 62
2
  6
CONTINUOUS
 90
4
 70
0
 10
362.4083515625
 20
39.7257802734
 10
362.4083515625
 20
39.975777832
 10
362.5750273438
 20
39.975777832
 10
362.4083515625
 20
39.7257802734
  0
LWPOLYLINE
  5
2C3
100
AcDbEntity
  8
0
100
AcDbPolyline
 62
2
  6
CONTINUOUS
 90
4
 70
0
 10
362.4083515625
 20
41.2257790527
 10
362.4083515625
 20
41.4757792969
 10
362.5750273438
 20
41.4757792969
 10
362.4083515625
 20
41.2257790527
  0
LWPOLYLINE
  5
2C4
100
AcDbEntity
  8
0
100
AcDbPolyline
 62
2
  6
CONTINUOUS
 90
3
 70
0
 10
363.6583554688
 20
42.2257800293
 10
364.6583671875
 20
43.2257783203
 10
364.6583671875
 20
39.7257802734
  0
LWPOLYLINE
  5
2C5
100
AcDbEntity
  8
0
100
AcDbPolyline
 62
2
  6
CONTINUOUS
 90
4
 70
0
 10
365.6583789063
 20
39.7257802734
 10
365.6583789063
 20
39.975777832
 10
365.8250117188
 20
39.975777832
 10
365.6583789063
 20
39.7257802734
  0
LWPOLYLINE
  5
2C6
100
AcDbEntity
  8
0
100
AcDbPolyline
 62
2
  6
CONTINUOUS
 90
4
 70
0
 10
365.6583789063
 20
41.2257790527
 10
365.6583789063
 20
41.4757792969
 10
365.8250117188
 20
41.4757792969
 10
365.6583789063
 20
41.2257790527
  0
LWPOLYLINE
  5
2C7
100
AcDbEntity
  8
0
100
AcDbPolyline
 62
2
  6
CONTINUOUS
 90
3
 70
0
 10
366.9083828125
 20
42.2257800293
 10
367.9083515625
 20
43.2257783203
 10
367.9083515625
 20
39.7257802734
  0
LWPOLYLINE
  5
2C8
100
AcDbEntity
  8
0
100
AcDbPolyline
 62
2
  6
CONTINUOUS
 90
3
 70
0
 10
390.6583710938
 20
40.2257780762
 10
391.6583828125
 20
43.7257788086
 10
392.6583515625
 20
40.2257780762
  0
LINE
  5
2C9
100
AcDbEntity
  8
0
100
AcDbLine
 62
2
  6
CONTINUOUS
 10
390.9916796875
 20
41.2257790527
 11
392.3250429688
 21
41.2257790527
  0
LWPOLYLINE
  5
2CA
100
AcDbEntity
  8
0
100
AcDbPolyline
 62
2
  6
CONTINUOUS
 90
7
 70
0
 10
395.4083515625
 20
40.2257780762
 10
393.6583632813
 20
40.2257780762
 10
395.4083515625
 20
42.725777832
 10
395.4083515625
 20
43.2257783203
 10
394.9083671875
 20
43.7257788086
 10
394.1583476563
 20
43.7257788086
 10
393.6583632813
 20
42.9757780762
  0
LWPOLYLINE
  5
2CB
100
AcDbEntity
  8
0
100
AcDbPolyline
 62
2
  6
CONTINUOUS
 90
7
 70
0
 10
350.658375
 20
32.2257783203
 10
350.658375
 20
35.7257790527
 10
351.9083789063
 20
35.7257790527
 10
352.4083632813
 20
35.2257785645
 10
352.4083632813
 20
34.2257802734
 10
351.9083789063
 20
33.7257797852
 10
350.658375
 20
33.7257797852
  0
LWPOLYLINE
  5
2CC
100
AcDbEntity
  8
0
100
AcDbPolyline
 62
2
  6
CONTINUOUS
 90
4
 70
0
 10
354.1583515625
 20
32.2257783203
 10
353.6583671875
 20
32.2257783203
 10
353.408375
 20
32.4757785645
 10
353.408375
 20
35.7257790527
  0
LINE
  5
2CD
100
AcDbEntity
  8
0
100
AcDbLine
 62
2
  6
CONTINUOUS
 10
355.6583476563
 20
32.2257783203
 11
355.6583476563
 21
34.7257780762
  0
LWPOLYLINE
  5
2CE
100
AcDbEntity
  8
0
100
AcDbPolyline
 62
2
  6
CONTINUOUS
 90
4
 70
0
 10
355.6583476563
 20
35.4757788086
 10
355.6583476563
 20
35.7257790527
 10
355.7417070313
 20
35.7257790527
 10
355.6583476563
 20
35.4757788086
  0
LWPOLYLINE
  5
2CF
100
AcDbEntity
  8
0
100
AcDbPolyline
 62
2
  6
CONTINUOUS
 90
5
 70
0
 10
356.9917109375
 20
32.2257783203
 10
356.9917109375
 20
34.7257780762
 10
358.2417148438
 20
34.7257780762
 10
358.4917070313
 20
34.475777832
 10
358.4917070313
 20
32.2257783203
  0
LWPOLYLINE
  5
2D0
100
AcDbEntity
  8
0
100
AcDbPolyline
 62
2
  6
CONTINUOUS
 90
3
 70
0
 10
362.2416757813
 20
34.7257780762
 10
363.2416875
 20
35.7257790527
 10
363.2416875
 20
32.2257783203
  0
LWPOLYLINE
  5
2D1
100
AcDbEntity
  8
0
100
AcDbPolyline
 62
2
  6
CONTINUOUS
 90
9
 70
0
 10
364.9916757813
 20
32.8091113281
 10
365.0750351563
 20
32.6424462891
 10
365.0750351563
 20
32.5591137695
 10
364.9916757813
 20
32.3924460449
 10
364.8250429688
 20
32.3924460449
 10
364.7416835938
 20
32.5591137695
 10
364.7416835938
 20
32.6424462891
 10
364.8250429688
 20
32.8091113281
 10
364.9916757813
 20
32.8091113281
  0
LWPOLYLINE
  5
2D2
100
AcDbEntity
  8
0
100
AcDbPolyline
 62
2
  6
CONTINUOUS
 90
13
 70
0
 10
366.2416796875
 20
33.2257792969
 10
366.2416796875
 20
34.7257780762
 10
366.4917148438
 20
35.2257785645
 10
366.9916992188
 20
35.7257790527
 10
367.2416914063
 20
35.7257790527
 10
367.7416757813
 20
35.2257785645
 10
367.9917109375
 20
34.7257780762
 10
367.9917109375
 20
33.2257792969
 10
367.7416757813
 20
32.7257788086
 10
367.2416914063
 20
32.2257783203
 10
366.9916992188
 20
32.2257783203
 10
366.4917148438
 20
32.7257788086
 10
366.2416796875
 20
33.2257792969
  0
LWPOLYLINE
  5
2D3
100
AcDbEntity
  8
0
100
AcDbPolyline
 62
2
  6
CONTINUOUS
 90
7
 70
0
 10
350.658375
 20
25.225779541
 10
350.658375
 20
27.7257792969
 10
351.5512226563
 20
27.7257792969
 10
351.9083789063
 20
27.3686364746
 10
351.9083789063
 20
25.5829223633
 10
351.5512226563
 20
25.225779541
 10
350.658375
 20
25.225779541
  0
LWPOLYLINE
  5
2D4
100
AcDbEntity
  8
0
100
AcDbPolyline
 62
2
  6
CONTINUOUS
 90
3
 70
0
 10
352.92025
 20
25.225779541
 10
353.6345625
 20
27.7257792969
 10
354.3488320313
 20
25.225779541
  0
LINE
  5
2D5
100
AcDbEntity
  8
0
100
AcDbLine
 62
2
  6
CONTINUOUS
 10
353.1583828125
 20
25.9400651855
 11
354.1107421875
 21
25.9400651855
  0
LINE
  5
2D6
100
AcDbEntity
  8
0
100
AcDbLine
 62
2
  6
CONTINUOUS
 10
355.7774140625
 20
25.225779541
 11
355.7774140625
 21
27.7257792969
  0
LINE
  5
2D7
100
AcDbEntity
  8
0
100
AcDbLine
 62
2
  6
CONTINUOUS
 10
355.0631445313
 20
27.7257792969
 11
356.4916835938
 21
27.7257792969
  0
LWPOLYLINE
  5
2D8
100
AcDbEntity
  8
0
100
AcDbPolyline
 62
2
  6
CONTINUOUS
 90
3
 70
0
 10
357.2059960938
 20
25.225779541
 10
357.2059960938
 20
27.7257792969
 10
358.277421875
 20
27.7257792969
  0
LINE
  5
2D9
100
AcDbEntity
  8
0
100
AcDbLine
 62
2
  6
CONTINUOUS
 10
357.920265625
 20
26.6543508301
 11
357.2059960938
 21
26.6543508301
  0
LINE
  5
2DA
100
AcDbEntity
  8
0
100
AcDbLine
 62
2
  6
CONTINUOUS
 10
357.2059960938
 20
25.225779541
 11
358.277421875
 21
25.225779541
  0
LWPOLYLINE
  5
2DB
100
AcDbEntity
  8
0
100
AcDbPolyline
 62
2
  6
CONTINUOUS
 90
4
 70
0
 10
358.9916914063
 20
25.225779541
 10
358.9916914063
 20
25.4043496094
 10
359.1107578125
 20
25.4043496094
 10
358.9916914063
 20
25.225779541
  0
LWPOLYLINE
  5
2DC
100
AcDbEntity
  8
0
100
AcDbPolyline
 62
2
  6
CONTINUOUS
 90
4
 70
0
 10
358.9916914063
 20
26.2972080078
 10
358.9916914063
 20
26.4757780762
 10
359.1107578125
 20
26.4757780762
 10
358.9916914063
 20
26.2972080078
  0
LWPOLYLINE
  5
2DD
100
AcDbEntity
  8
0
100
AcDbPolyline
 62
2
  6
CONTINUOUS
 90
3
 70
0
 10
359.8845390625
 20
27.0114936523
 10
360.5988515625
 20
27.7257792969
 10
360.5988515625
 20
25.225779541
  0
LWPOLYLINE
  5
2DE
100
AcDbEntity
  8
0
100
AcDbPolyline
 62
2
  6
CONTINUOUS
 90
4
 70
0
 10
361.3131210938
 20
27.1900637207
 10
361.3131210938
 20
27.7257792969
 10
362.563125
 20
27.7257792969
 10
361.8488554688
 20
25.225779541
  0
LINE
  5
2DF
100
AcDbEntity
  8
0
100
AcDbLine
 62
2
  6
CONTINUOUS
 10
364.7059765625
 20
27.487684082
 11
363.2773945313
 21
25.285302002
  0
LWPOLYLINE
  5
2E0
100
AcDbEntity
  8
0
100
AcDbPolyline
 62
2
  6
CONTINUOUS
 90
13
 70
0
 10
365.18215625
 20
25.9400651855
 10
365.18215625
 20
27.0114936523
 10
365.360734375
 20
27.3686364746
 10
365.717890625
 20
27.7257792969
 10
365.89646875
 20
27.7257792969
 10
366.2535820313
 20
27.3686364746
 10
366.4321601563
 20
27.0114936523
 10
366.4321601563
 20
25.9400651855
 10
366.2535820313
 20
25.5829223633
 10
365.89646875
 20
25.225779541
 10
365.717890625
 20
25.225779541
 10
365.360734375
 20
25.5829223633
 10
365.18215625
 20
25.9400651855
  0
LWPOLYLINE
  5
2E1
100
AcDbEntity
  8
0
100
AcDbPolyline
 62
2
  6
CONTINUOUS
 90
8
 70
0
 10
367.1464726563
 20
25.225779541
 10
367.8607421875
 20
25.225779541
 10
368.2178984375
 20
25.5829223633
 10
368.2178984375
 20
26.2972080078
 10
367.8607421875
 20
26.6543508301
 10
367.1464726563
 20
26.6543508301
 10
367.1464726563
 20
27.7257792969
 10
368.2178984375
 20
27.7257792969
  0
LINE
  5
2E2
100
AcDbEntity
  8
0
100
AcDbLine
 62
2
  6
CONTINUOUS
 10
370.36075
 20
27.487684082
 11
368.9321679688
 21
25.285302002
  0
LWPOLYLINE
  5
2E3
100
AcDbEntity
  8
0
100
AcDbPolyline
 62
2
  6
CONTINUOUS
 90
7
 70
0
 10
372.0869335938
 20
25.225779541
 10
370.8369296875
 20
25.225779541
 10
372.0869335938
 20
27.0114936523
 10
372.0869335938
 20
27.3686364746
 10
371.7297773438
 20
27.7257792969
 10
371.1940859375
 20
27.7257792969
 10
370.8369296875
 20
27.1900637207
  0
LWPOLYLINE
  5
2E4
100
AcDbEntity
  8
0
100
AcDbPolyline
 62
2
  6
CONTINUOUS
 90
13
 70
0
 10
372.801203125
 20
25.9400651855
 10
372.801203125
 20
27.0114936523
 10
372.97978125
 20
27.3686364746
 10
373.3369375
 20
27.7257792969
 10
373.515515625
 20
27.7257792969
 10
373.8726289063
 20
27.3686364746
 10
374.0512070313
 20
27.0114936523
 10
374.0512070313
 20
25.9400651855
 10
373.8726289063
 20
25.5829223633
 10
373.515515625
 20
25.225779541
 10
373.3369375
 20
25.225779541
 10
372.97978125
 20
25.5829223633
 10
372.801203125
 20
25.9400651855
  0
LWPOLYLINE
  5
2E5
100
AcDbEntity
  8
0
100
AcDbPolyline
 62
2
  6
CONTINUOUS
 90
3
 70
0
 10
374.7655195313
 20
27.0114936523
 10
375.4797890625
 20
27.7257792969
 10
375.4797890625
 20
25.225779541
  0
LWPOLYLINE
  5
2E6
100
AcDbEntity
  8
0
100
AcDbPolyline
 62
2
  6
CONTINUOUS
 90
4
 70
0
 10
376.1940585938
 20
27.1900637207
 10
376.1940585938
 20
27.7257792969
 10
377.4440625
 20
27.7257792969
 10
376.7297929688
 20
25.225779541
  0
LWPOLYLINE
  5
2E7
100
AcDbEntity
  8
0
100
AcDbPolyline
 62
2
  6
CONTINUOUS
 90
3
 70
0
 10
320.6583671875
 20
21.4132791748
 10
321.3012226563
 20
23.6632800293
 10
321.944078125
 20
21.4132791748
  0
LINE
  5
2E8
100
AcDbEntity
  8
0
100
AcDbLine
 62
2
  6
CONTINUOUS
 10
320.8726523438
 20
22.0561359863
 11
321.7297929688
 21
22.0561359863
  0
LWPOLYLINE
  5
2E9
100
AcDbEntity
  8
0
100
AcDbPolyline
 62
2
  6
CONTINUOUS
 90
5
 70
0
 10
322.5869335938
 20
21.4132791748
 10
322.5869335938
 20
23.020421875
 10
323.3904921875
 20
23.020421875
 10
323.5512382813
 20
22.8597080078
 10
323.5512382813
 20
21.4132791748
  0
LWPOLYLINE
  5
2EA
100
AcDbEntity
  8
0
100
AcDbPolyline
 62
2
  6
CONTINUOUS
 90
3
 70
0
 10
324.19409375
 20
20.8775649414
 10
324.5155
 20
20.8775649414
 10
325.1583554688
 20
23.020421875
  0
LINE
  5
2EB
100
AcDbEntity
  8
0
100
AcDbLine
 62
2
  6
CONTINUOUS
 10
324.19409375
 20
23.020421875
 11
324.676203125
 21
21.4132791748
  0
LINE
  5
2EC
100
AcDbEntity
  8
0
100
AcDbLine
 62
2
  6
CONTINUOUS
 10
327.6762382813
 20
21.4132791748
 11
327.6762382813
 21
23.020421875
  0
LWPOLYLINE
  5
2ED
100
AcDbEntity
  8
0
100
AcDbPolyline
 62
2
  6
CONTINUOUS
 90
4
 70
0
 10
327.6762382813
 20
23.5025661621
 10
327.6762382813
 20
23.6632800293
 10
327.7297773438
 20
23.6632800293
 10
327.6762382813
 20
23.5025661621
  0
LWPOLYLINE
  5
2EE
100
AcDbEntity
  8
0
100
AcDbPolyline
 62
2
  6
CONTINUOUS
 90
5
 70
0
 10
328.5333789063
 20
21.4132791748
 10
328.5333789063
 20
23.020421875
 10
329.3369375
 20
23.020421875
 10
329.497640625
 20
22.8597080078
 10
329.497640625
 20
21.4132791748
  0
LINE
  5
2EF
100
AcDbEntity
  8
0
100
AcDbLine
 62
2
  6
CONTINUOUS
 10
330.4083632813
 20
21.4132791748
 11
330.4083632813
 21
23.6632800293
  0
LINE
  5
2F0
100
AcDbEntity
  8
0
100
AcDbLine
 62
2
  6
CONTINUOUS
 10
330.1404960938
 20
23.020421875
 11
330.7833515625
 21
23.020421875
  0
LWPOLYLINE
  5
2F1
100
AcDbEntity
  8
0
100
AcDbPolyline
 62
2
  6
CONTINUOUS
 90
9
 70
0
 10
332.3905117188
 20
21.4132791748
 10
331.74765625
 20
21.4132791748
 10
331.4262070313
 20
21.734708252
 10
331.4262070313
 20
22.6989941406
 10
331.74765625
 20
23.020421875
 10
332.0690625
 20
23.020421875
 10
332.3905117188
 20
22.6989941406
 10
332.3905117188
 20
22.2168511963
 10
331.4262070313
 20
22.2168511963
  0
LWPOLYLINE
  5
2F2
100
AcDbEntity
  8
0
100
AcDbPolyline
 62
2
  6
CONTINUOUS
 90
9
 70
0
 10
333.0333671875
 20
20.8775649414
 10
333.8369257813
 20
20.8775649414
 10
333.9976289063
 20
21.0918500977
 10
333.9976289063
 20
23.020421875
 10
333.1940703125
 20
23.020421875
 10
333.0333671875
 20
22.8597080078
 10
333.0333671875
 20
21.573993042
 10
333.1940703125
 20
21.4132791748
 10
333.9976289063
 20
21.4132791748
  0
LWPOLYLINE
  5
2F3
100
AcDbEntity
  8
0
100
AcDbPolyline
 62
2
  6
CONTINUOUS
 90
5
 70
0
 10
334.640484375
 20
21.4132791748
 10
334.640484375
 20
23.020421875
 10
335.2833828125
 20
23.020421875
 10
335.3905039063
 20
22.8597080078
 10
335.3905039063
 20
22.5382802734
  0
LWPOLYLINE
  5
2F4
100
AcDbEntity
  8
0
100
AcDbPolyline
 62
2
  6
CONTINUOUS
 90
4
 70
0
 10
337.051203125
 20
21.4132791748
 10
337.051203125
 20
22.6989941406
 10
336.8905
 20
23.020421875
 10
336.0869414063
 20
23.020421875
  0
LWPOLYLINE
  5
2F5
100
AcDbEntity
  8
0
100
AcDbPolyline
 62
2
  6
CONTINUOUS
 90
6
 70
0
 10
337.051203125
 20
21.4132791748
 10
336.4083476563
 20
21.4132791748
 10
336.0869414063
 20
21.573993042
 10
336.0869414063
 20
22.0561359863
 10
336.4083476563
 20
22.2168511963
 10
337.051203125
 20
22.2168511963
  0
LWPOLYLINE
  5
2F6
100
AcDbEntity
  8
0
100
AcDbPolyline
 62
2
  6
CONTINUOUS
 90
4
 70
0
 10
338.1762109375
 20
21.4132791748
 10
337.8548046875
 20
21.4132791748
 10
337.6940585938
 20
21.573993042
 10
337.6940585938
 20
23.6632800293
  0
LWPOLYLINE
  5
2F7
100
AcDbEntity
  8
0
100
AcDbPolyline
 62
2
  6
CONTINUOUS
 90
9
 70
0
 10
340.5869296875
 20
21.734708252
 10
340.5869296875
 20
22.6989941406
 10
340.9083789063
 20
23.020421875
 10
341.2297851563
 20
23.020421875
 10
341.551234375
 20
22.6989941406
 10
341.551234375
 20
21.734708252
 10
341.2297851563
 20
21.4132791748
 10
340.9083789063
 20
21.4132791748
 10
340.5869296875
 20
21.734708252
  0
LWPOLYLINE
  5
2F8
100
AcDbEntity
  8
0
100
AcDbPolyline
 62
2
  6
CONTINUOUS
 90
5
 70
0
 10
342.1940898438
 20
21.4132791748
 10
342.1940898438
 20
23.020421875
 10
342.8369453125
 20
23.020421875
 10
342.9440664063
 20
22.8597080078
 10
342.9440664063
 20
22.5382802734
  0
LWPOLYLINE
  5
2F9
100
AcDbEntity
  8
0
100
AcDbPolyline
 62
2
  6
CONTINUOUS
 90
7
 70
0
 10
345.4083671875
 20
20.8775649414
 10
345.4083671875
 20
23.020421875
 10
346.2119257813
 20
23.020421875
 10
346.3726289063
 20
22.8597080078
 10
346.3726289063
 20
21.573993042
 10
346.2119257813
 20
21.4132791748
 10
345.4083671875
 20
21.4132791748
  0
LWPOLYLINE
  5
2FA
100
AcDbEntity
  8
0
100
AcDbPolyline
 62
2
  6
CONTINUOUS
 90
4
 70
0
 10
347.9797890625
 20
21.4132791748
 10
347.9797890625
 20
22.6989941406
 10
347.8190859375
 20
23.020421875
 10
347.015484375
 20
23.020421875
  0
LWPOLYLINE
  5
2FB
100
AcDbEntity
  8
0
100
AcDbPolyline
 62
2
  6
CONTINUOUS
 90
6
 70
0
 10
347.9797890625
 20
21.4132791748
 10
347.3369335938
 20
21.4132791748
 10
347.015484375
 20
21.573993042
 10
347.015484375
 20
22.0561359863
 10
347.3369335938
 20
22.2168511963
 10
347.9797890625
 20
22.2168511963
  0
LWPOLYLINE
  5
2FC
100
AcDbEntity
  8
0
100
AcDbPolyline
 62
2
  6
CONTINUOUS
 90
5
 70
0
 10
348.6226445313
 20
21.4132791748
 10
348.6226445313
 20
23.020421875
 10
349.2655
 20
23.020421875
 10
349.3726640625
 20
22.8597080078
 10
349.3726640625
 20
22.5382802734
  0
LINE
  5
2FD
100
AcDbEntity
  8
0
100
AcDbLine
 62
2
  6
CONTINUOUS
 10
350.3369257813
 20
21.4132791748
 11
350.3369257813
 21
23.6632800293
  0
LINE
  5
2FE
100
AcDbEntity
  8
0
100
AcDbLine
 62
2
  6
CONTINUOUS
 10
350.0690585938
 20
23.020421875
 11
350.7119140625
 21
23.020421875
  0
LINE
  5
2FF
100
AcDbEntity
  8
0
100
AcDbLine
 62
2
  6
CONTINUOUS
 10
351.67621875
 20
21.4132791748
 11
351.67621875
 21
23.020421875
  0
LWPOLYLINE
  5
300
100
AcDbEntity
  8
0
100
AcDbPolyline
 62
2
  6
CONTINUOUS
 90
4
 70
0
 10
351.67621875
 20
23.5025661621
 10
351.67621875
 20
23.6632800293
 10
351.7298007813
 20
23.6632800293
 10
351.67621875
 20
23.5025661621
  0
LWPOLYLINE
  5
301
100
AcDbEntity
  8
0
100
AcDbPolyline
 62
2
  6
CONTINUOUS
 90
4
 70
0
 10
353.4976640625
 20
21.4132791748
 10
353.4976640625
 20
22.6989941406
 10
353.3369179688
 20
23.020421875
 10
352.533359375
 20
23.020421875
  0
LWPOLYLINE
  5
302
100
AcDbEntity
  8
0
100
AcDbPolyline
 62
2
  6
CONTINUOUS
 90
6
 70
0
 10
353.4976640625
 20
21.4132791748
 10
352.8548085938
 20
21.4132791748
 10
352.533359375
 20
21.573993042
 10
352.533359375
 20
22.0561359863
 10
352.8548085938
 20
22.2168511963
 10
353.4976640625
 20
22.2168511963
  0
LWPOLYLINE
  5
303
100
AcDbEntity
  8
0
100
AcDbPolyline
 62
2
  6
CONTINUOUS
 90
4
 70
0
 10
354.6226289063
 20
21.4132791748
 10
354.3012226563
 20
21.4132791748
 10
354.1405195313
 20
21.573993042
 10
354.1405195313
 20
23.6632800293
  0
LWPOLYLINE
  5
304
100
AcDbEntity
  8
0
100
AcDbPolyline
 62
2
  6
CONTINUOUS
 90
5
 70
0
 10
357.0333476563
 20
21.4132791748
 10
357.0333476563
 20
23.020421875
 10
357.676203125
 20
23.020421875
 10
357.7833671875
 20
22.8597080078
 10
357.7833671875
 20
22.5382802734
  0
LWPOLYLINE
  5
305
100
AcDbEntity
  8
0
100
AcDbPolyline
 62
2
  6
CONTINUOUS
 90
9
 70
0
 10
359.4440664063
 20
21.4132791748
 10
358.8012109375
 20
21.4132791748
 10
358.4798046875
 20
21.734708252
 10
358.4798046875
 20
22.6989941406
 10
358.8012109375
 20
23.020421875
 10
359.1226601563
 20
23.020421875
 10
359.4440664063
 20
22.6989941406
 10
359.4440664063
 20
22.2168511963
 10
358.4798046875
 20
22.2168511963
  0
LWPOLYLINE
  5
306
100
AcDbEntity
  8
0
100
AcDbPolyline
 62
2
  6
CONTINUOUS
 90
7
 70
0
 10
360.086921875
 20
20.8775649414
 10
360.086921875
 20
23.020421875
 10
360.8905234375
 20
23.020421875
 10
361.0512265625
 20
22.8597080078
 10
361.0512265625
 20
21.573993042
 10
360.8905234375
 20
21.4132791748
 10
360.086921875
 20
21.4132791748
  0
LWPOLYLINE
  5
307
100
AcDbEntity
  8
0
100
AcDbPolyline
 62
2
  6
CONTINUOUS
 90
5
 70
0
 10
361.6940820313
 20
21.4132791748
 10
361.6940820313
 20
23.020421875
 10
362.3369375
 20
23.020421875
 10
362.4440585938
 20
22.8597080078
 10
362.4440585938
 20
22.5382802734
  0
LWPOLYLINE
  5
308
100
AcDbEntity
  8
0
100
AcDbPolyline
 62
2
  6
CONTINUOUS
 90
9
 70
0
 10
363.1404960938
 20
21.734708252
 10
363.1404960938
 20
22.6989941406
 10
363.4619453125
 20
23.020421875
 10
363.7833515625
 20
23.020421875
 10
364.1048007813
 20
22.6989941406
 10
364.1048007813
 20
21.734708252
 10
363.7833515625
 20
21.4132791748
 10
363.4619453125
 20
21.4132791748
 10
363.1404960938
 20
21.734708252
  0
LWPOLYLINE
  5
309
100
AcDbEntity
  8
0
100
AcDbPolyline
 62
2
  6
CONTINUOUS
 90
7
 70
0
 10
365.7119179688
 20
23.6632800293
 10
365.7119179688
 20
21.4132791748
 10
365.0690625
 20
21.4132791748
 10
364.74765625
 20
21.573993042
 10
364.74765625
 20
22.8597080078
 10
365.0690625
 20
23.020421875
 10
365.7119179688
 20
23.020421875
  0
LWPOLYLINE
  5
30A
100
AcDbEntity
  8
0
100
AcDbPolyline
 62
2
  6
CONTINUOUS
 90
5
 70
0
 10
366.3547734375
 20
23.020421875
 10
366.3547734375
 20
21.573993042
 10
366.5155195313
 20
21.4132791748
 10
367.319078125
 20
21.4132791748
 10
367.319078125
 20
23.020421875
  0
LWPOLYLINE
  5
30B
100
AcDbEntity
  8
0
100
AcDbPolyline
 62
2
  6
CONTINUOUS
 90
6
 70
0
 10
368.7654921875
 20
21.4132791748
 10
368.1226367188
 20
21.4132791748
 10
367.9619335938
 20
21.573993042
 10
367.9619335938
 20
22.8597080078
 10
368.1226367188
 20
23.020421875
 10
368.7654921875
 20
23.020421875
  0
LINE
  5
30C
100
AcDbEntity
  8
0
100
AcDbLine
 62
2
  6
CONTINUOUS
 10
369.6762148438
 20
21.4132791748
 11
369.6762148438
 21
23.6632800293
  0
LINE
  5
30D
100
AcDbEntity
  8
0
100
AcDbLine
 62
2
  6
CONTINUOUS
 10
369.4083476563
 20
23.020421875
 11
370.051203125
 21
23.020421875
  0
LINE
  5
30E
100
AcDbEntity
  8
0
100
AcDbLine
 62
2
  6
CONTINUOUS
 10
371.0155078125
 20
21.4132791748
 11
371.0155078125
 21
23.020421875
  0
LWPOLYLINE
  5
30F
100
AcDbEntity
  8
0
100
AcDbPolyline
 62
2
  6
CONTINUOUS
 90
4
 70
0
 10
371.0155078125
 20
23.5025661621
 10
371.0155078125
 20
23.6632800293
 10
371.0690898438
 20
23.6632800293
 10
371.0155078125
 20
23.5025661621
  0
LWPOLYLINE
  5
310
100
AcDbEntity
  8
0
100
AcDbPolyline
 62
2
  6
CONTINUOUS
 90
9
 70
0
 10
371.8726484375
 20
21.734708252
 10
371.8726484375
 20
22.6989941406
 10
372.1940546875
 20
23.020421875
 10
372.5155039063
 20
23.020421875
 10
372.836953125
 20
22.6989941406
 10
372.836953125
 20
21.734708252
 10
372.5155039063
 20
21.4132791748
 10
372.1940546875
 20
21.4132791748
 10
371.8726484375
 20
21.734708252
  0
LWPOLYLINE
  5
311
100
AcDbEntity
  8
0
100
AcDbPolyline
 62
2
  6
CONTINUOUS
 90
5
 70
0
 10
373.4798085938
 20
21.4132791748
 10
373.4798085938
 20
23.020421875
 10
374.2833671875
 20
23.020421875
 10
374.4440703125
 20
22.8597080078
 10
374.4440703125
 20
21.4132791748
  0
LWPOLYLINE
  5
312
100
AcDbEntity
  8
0
100
AcDbPolyline
 62
2
  6
CONTINUOUS
 90
12
 70
0
 10
375.0869257813
 20
21.573993042
 10
375.2476289063
 20
21.4132791748
 10
375.890484375
 20
21.4132791748
 10
376.0512304688
 20
21.573993042
 10
376.0512304688
 20
22.0561359863
 10
375.890484375
 20
22.1632785645
 10
375.2476289063
 20
22.2704224854
 10
375.0869257813
 20
22.3775650635
 10
375.0869257813
 20
22.8597080078
 10
375.2476289063
 20
23.020421875
 10
375.890484375
 20
23.020421875
 10
376.0512304688
 20
22.8597080078
  0
LWPOLYLINE
  5
313
100
AcDbEntity
  8
0
100
AcDbPolyline
 62
2
  6
CONTINUOUS
 90
4
 70
0
 10
379.4262109375
 20
21.4132791748
 10
379.4262109375
 20
22.6989941406
 10
379.2655078125
 20
23.020421875
 10
378.4619492188
 20
23.020421875
  0
LWPOLYLINE
  5
314
100
AcDbEntity
  8
0
100
AcDbPolyline
 62
2
  6
CONTINUOUS
 90
6
 70
0
 10
379.4262109375
 20
21.4132791748
 10
378.7833554688
 20
21.4132791748
 10
378.4619492188
 20
21.573993042
 10
378.4619492188
 20
22.0561359863
 10
378.7833554688
 20
22.2168511963
 10
379.4262109375
 20
22.2168511963
  0
LWPOLYLINE
  5
315
100
AcDbEntity
  8
0
100
AcDbPolyline
 62
2
  6
CONTINUOUS
 90
5
 70
0
 10
380.0690664063
 20
21.4132791748
 10
380.0690664063
 20
23.020421875
 10
380.711921875
 20
23.020421875
 10
380.8190859375
 20
22.8597080078
 10
380.8190859375
 20
22.5382802734
  0
LWPOLYLINE
  5
316
100
AcDbEntity
  8
0
100
AcDbPolyline
 62
2
  6
CONTINUOUS
 90
9
 70
0
 10
382.4797851563
 20
21.4132791748
 10
381.8369296875
 20
21.4132791748
 10
381.5155234375
 20
21.734708252
 10
381.5155234375
 20
22.6989941406
 10
381.8369296875
 20
23.020421875
 10
382.1583789063
 20
23.020421875
 10
382.4797851563
 20
22.6989941406
 10
382.4797851563
 20
22.2168511963
 10
381.5155234375
 20
22.2168511963
  0
LWPOLYLINE
  5
317
100
AcDbEntity
  8
0
100
AcDbPolyline
 62
2
  6
CONTINUOUS
 90
7
 70
0
 10
384.8905039063
 20
20.8775649414
 10
384.8905039063
 20
23.020421875
 10
385.6940625
 20
23.020421875
 10
385.8548085938
 20
22.8597080078
 10
385.8548085938
 20
21.573993042
 10
385.6940625
 20
21.4132791748
 10
384.8905039063
 20
21.4132791748
  0
LWPOLYLINE
  5
318
100
AcDbEntity
  8
0
100
AcDbPolyline
 62
2
  6
CONTINUOUS
 90
5
 70
0
 10
386.4976640625
 20
21.4132791748
 10
386.4976640625
 20
23.020421875
 10
387.1405195313
 20
23.020421875
 10
387.247640625
 20
22.8597080078
 10
387.247640625
 20
22.5382802734
  0
LWPOLYLINE
  5
319
100
AcDbEntity
  8
0
100
AcDbPolyline
 62
2
  6
CONTINUOUS
 90
9
 70
0
 10
387.944078125
 20
21.734708252
 10
387.944078125
 20
22.6989941406
 10
388.265484375
 20
23.020421875
 10
388.5869335938
 20
23.020421875
 10
388.9083828125
 20
22.6989941406
 10
388.9083828125
 20
21.734708252
 10
388.5869335938
 20
21.4132791748
 10
388.265484375
 20
21.4132791748
 10
387.944078125
 20
21.734708252
  0
LINE
  5
31A
100
AcDbEntity
  8
0
100
AcDbLine
 62
2
  6
CONTINUOUS
 10
389.5512382813
 20
21.4132791748
 11
389.5512382813
 21
23.6632800293
  0
LWPOLYLINE
  5
31B
100
AcDbEntity
  8
0
100
AcDbPolyline
 62
2
  6
CONTINUOUS
 90
4
 70
0
 10
389.5512382813
 20
23.020421875
 10
390.354796875
 20
23.020421875
 10
390.5155
 20
22.8597080078
 10
390.5155
 20
21.4132791748
  0
LINE
  5
31C
100
AcDbEntity
  8
0
100
AcDbLine
 62
2
  6
CONTINUOUS
 10
391.4798046875
 20
21.4132791748
 11
391.4798046875
 21
23.020421875
  0
LWPOLYLINE
  5
31D
100
AcDbEntity
  8
0
100
AcDbPolyline
 62
2
  6
CONTINUOUS
 90
4
 70
0
 10
391.4798046875
 20
23.5025661621
 10
391.4798046875
 20
23.6632800293
 10
391.53334375
 20
23.6632800293
 10
391.4798046875
 20
23.5025661621
  0
LINE
  5
31E
100
AcDbEntity
  8
0
100
AcDbLine
 62
2
  6
CONTINUOUS
 10
392.3369453125
 20
21.4132791748
 11
392.3369453125
 21
23.6632800293
  0
LWPOLYLINE
  5
31F
100
AcDbEntity
  8
0
100
AcDbPolyline
 62
2
  6
CONTINUOUS
 90
6
 70
0
 10
392.3369453125
 20
23.020421875
 10
393.1405039063
 20
23.020421875
 10
393.3012070313
 20
22.8597080078
 10
393.3012070313
 20
21.573993042
 10
393.1405039063
 20
21.4132791748
 10
392.3369453125
 20
21.4132791748
  0
LINE
  5
320
100
AcDbEntity
  8
0
100
AcDbLine
 62
2
  6
CONTINUOUS
 10
394.2655117188
 20
21.4132791748
 11
394.2655117188
 21
23.020421875
  0
LWPOLYLINE
  5
321
100
AcDbEntity
  8
0
100
AcDbPolyline
 62
2
  6
CONTINUOUS
 90
4
 70
0
 10
394.2655117188
 20
23.5025661621
 10
394.2655117188
 20
23.6632800293
 10
394.31909375
 20
23.6632800293
 10
394.2655117188
 20
23.5025661621
  0
LINE
  5
322
100
AcDbEntity
  8
0
100
AcDbLine
 62
2
  6
CONTINUOUS
 10
395.3905195313
 20
21.4132791748
 11
395.3905195313
 21
23.6632800293
  0
LINE
  5
323
100
AcDbEntity
  8
0
100
AcDbLine
 62
2
  6
CONTINUOUS
 10
395.1226523438
 20
23.020421875
 11
395.7655078125
 21
23.020421875
  0
LWPOLYLINE
  5
324
100
AcDbEntity
  8
0
100
AcDbPolyline
 62
2
  6
CONTINUOUS
 90
9
 70
0
 10
397.3726679688
 20
21.4132791748
 10
396.7297695313
 20
21.4132791748
 10
396.4083632813
 20
21.734708252
 10
396.4083632813
 20
22.6989941406
 10
396.7297695313
 20
23.020421875
 10
397.05121875
 20
23.020421875
 10
397.3726679688
 20
22.6989941406
 10
397.3726679688
 20
22.2168511963
 10
396.4083632813
 20
22.2168511963
  0
LWPOLYLINE
  5
325
100
AcDbEntity
  8
0
100
AcDbPolyline
 62
2
  6
CONTINUOUS
 90
7
 70
0
 10
398.9797851563
 20
23.6632800293
 10
398.9797851563
 20
21.4132791748
 10
398.3369296875
 20
21.4132791748
 10
398.0155234375
 20
21.573993042
 10
398.0155234375
 20
22.8597080078
 10
398.3369296875
 20
23.020421875
 10
398.9797851563
 20
23.020421875
  0
LWPOLYLINE
  5
326
100
AcDbEntity
  8
0
100
AcDbPolyline
 62
2
  6
CONTINUOUS
 90
5
 70
0
 10
320.6583671875
 20
19.6454226074
 10
321.0869375
 20
18.0382785645
 10
321.4619257813
 20
19.3239935303
 10
321.8369140625
 20
18.0382785645
 10
322.265484375
 20
19.6454226074
  0
LINE
  5
327
100
AcDbEntity
  8
0
100
AcDbLine
 62
2
  6
CONTINUOUS
 10
323.2297890625
 20
18.0382785645
 11
323.2297890625
 21
19.6454226074
  0
LWPOLYLINE
  5
328
100
AcDbEntity
  8
0
100
AcDbPolyline
 62
2
  6
CONTINUOUS
 90
4
 70
0
 10
323.2297890625
 20
20.127564209
 10
323.2297890625
 20
20.2882794189
 10
323.2833710938
 20
20.2882794189
 10
323.2297890625
 20
20.127564209
  0
LINE
  5
329
100
AcDbEntity
  8
0
100
AcDbLine
 62
2
  6
CONTINUOUS
 10
324.354796875
 20
18.0382785645
 11
324.354796875
 21
20.2882794189
  0
LINE
  5
32A
100
AcDbEntity
  8
0
100
AcDbLine
 62
2
  6
CONTINUOUS
 10
324.0869296875
 20
19.6454226074
 11
324.7297851563
 21
19.6454226074
  0
LINE
  5
32B
100
AcDbEntity
  8
0
100
AcDbLine
 62
2
  6
CONTINUOUS
 10
325.372640625
 20
18.0382785645
 11
325.372640625
 21
20.2882794189
  0
LWPOLYLINE
  5
32C
100
AcDbEntity
  8
0
100
AcDbPolyline
 62
2
  6
CONTINUOUS
 90
4
 70
0
 10
325.372640625
 20
19.6454226074
 10
326.1761992188
 20
19.6454226074
 10
326.3369453125
 20
19.4847073975
 10
326.3369453125
 20
18.0382785645
  0
LWPOLYLINE
  5
32D
100
AcDbEntity
  8
0
100
AcDbPolyline
 62
2
  6
CONTINUOUS
 90
9
 70
0
 10
326.9798007813
 20
18.3597076416
 10
326.9798007813
 20
19.3239935303
 10
327.3012070313
 20
19.6454226074
 10
327.62265625
 20
19.6454226074
 10
327.9440625
 20
19.3239935303
 10
327.9440625
 20
18.3597076416
 10
327.62265625
 20
18.0382785645
 10
327.3012070313
 20
18.0382785645
 10
326.9798007813
 20
18.3597076416
  0
LWPOLYLINE
  5
32E
100
AcDbEntity
  8
0
100
AcDbPolyline
 62
2
  6
CONTINUOUS
 90
5
 70
0
 10
328.5869179688
 20
19.6454226074
 10
328.5869179688
 20
18.1989937744
 10
328.7476640625
 20
18.0382785645
 10
329.5512226563
 20
18.0382785645
 10
329.5512226563
 20
19.6454226074
  0
LINE
  5
32F
100
AcDbEntity
  8
0
100
AcDbLine
 62
2
  6
CONTINUOUS
 10
330.4619453125
 20
18.0382785645
 11
330.4619453125
 21
20.2882794189
  0
LINE
  5
330
100
AcDbEntity
  8
0
100
AcDbLine
 62
2
  6
CONTINUOUS
 10
330.194078125
 20
19.6454226074
 11
330.8369335938
 21
19.6454226074
  0
LWPOLYLINE
  5
331
100
AcDbEntity
  8
0
100
AcDbPolyline
 62
2
  6
CONTINUOUS
 90
7
 70
0
 10
333.2476523438
 20
17.5025643311
 10
333.2476523438
 20
19.6454226074
 10
334.0512109375
 20
19.6454226074
 10
334.2119140625
 20
19.4847073975
 10
334.2119140625
 20
18.1989937744
 10
334.0512109375
 20
18.0382785645
 10
333.2476523438
 20
18.0382785645
  0
LWPOLYLINE
  5
332
100
AcDbEntity
  8
0
100
AcDbPolyline
 62
2
  6
CONTINUOUS
 90
5
 70
0
 10
334.8547695313
 20
18.0382785645
 10
334.8547695313
 20
19.6454226074
 10
335.4976679688
 20
19.6454226074
 10
335.6047890625
 20
19.4847073975
 10
335.6047890625
 20
19.1632796631
  0
LINE
  5
333
100
AcDbEntity
  8
0
100
AcDbLine
 62
2
  6
CONTINUOUS
 10
336.6226328125
 20
18.0382785645
 11
336.6226328125
 21
19.6454226074
  0
LWPOLYLINE
  5
334
100
AcDbEntity
  8
0
100
AcDbPolyline
 62
2
  6
CONTINUOUS
 90
4
 70
0
 10
336.6226328125
 20
20.127564209
 10
336.6226328125
 20
20.2882794189
 10
336.6762148438
 20
20.2882794189
 10
336.6226328125
 20
20.127564209
  0
LWPOLYLINE
  5
335
100
AcDbEntity
  8
0
100
AcDbPolyline
 62
2
  6
CONTINUOUS
 90
9
 70
0
 10
337.4797734375
 20
18.3597076416
 10
337.4797734375
 20
19.3239935303
 10
337.8012226563
 20
19.6454226074
 10
338.1226289063
 20
19.6454226074
 10
338.444078125
 20
19.3239935303
 10
338.444078125
 20
18.3597076416
 10
338.1226289063
 20
18.0382785645
 10
337.8012226563
 20
18.0382785645
 10
337.4797734375
 20
18.3597076416
  0
LWPOLYLINE
  5
336
100
AcDbEntity
  8
0
100
AcDbPolyline
 62
2
  6
CONTINUOUS
 90
5
 70
0
 10
339.0869335938
 20
18.0382785645
 10
339.0869335938
 20
19.6454226074
 10
339.7297890625
 20
19.6454226074
 10
339.836953125
 20
19.4847073975
 10
339.836953125
 20
19.1632796631
  0
LWPOLYLINE
  5
337
100
AcDbEntity
  8
0
100
AcDbPolyline
 62
2
  6
CONTINUOUS
 90
4
 70
0
 10
343.265515625
 20
18.0382785645
 10
343.265515625
 20
19.3239935303
 10
343.1047695313
 20
19.6454226074
 10
342.3012109375
 20
19.6454226074
  0
LWPOLYLINE
  5
338
100
AcDbEntity
  8
0
100
AcDbPolyline
 62
2
  6
CONTINUOUS
 90
6
 70
0
 10
343.265515625
 20
18.0382785645
 10
342.6226601563
 20
18.0382785645
 10
342.3012109375
 20
18.1989937744
 10
342.3012109375
 20
18.6811367188
 10
342.6226601563
 20
18.8418505859
 10
343.265515625
 20
18.8418505859
  0
LWPOLYLINE
  5
339
100
AcDbEntity
  8
0
100
AcDbPolyline
 62
2
  6
CONTINUOUS
 90
5
 70
0
 10
343.9083710938
 20
19.6454226074
 10
343.9083710938
 20
18.1989937744
 10
344.0690742188
 20
18.0382785645
 10
344.8726328125
 20
18.0382785645
 10
344.8726328125
 20
19.6454226074
  0
LINE
  5
33A
100
AcDbEntity
  8
0
100
AcDbLine
 62
2
  6
CONTINUOUS
 10
345.7833554688
 20
18.0382785645
 11
345.7833554688
 21
20.2882794189
  0
LINE
  5
33B
100
AcDbEntity
  8
0
100
AcDbLine
 62
2
  6
CONTINUOUS
 10
345.5154882813
 20
19.6454226074
 11
346.15834375
 21
19.6454226074
  0
LINE
  5
33C
100
AcDbEntity
  8
0
100
AcDbLine
 62
2
  6
CONTINUOUS
 10
346.8011992188
 20
18.0382785645
 11
346.8011992188
 21
20.2882794189
  0
LWPOLYLINE
  5
33D
100
AcDbEntity
  8
0
100
AcDbPolyline
 62
2
  6
CONTINUOUS
 90
4
 70
0
 10
346.8011992188
 20
19.6454226074
 10
347.6048007813
 20
19.6454226074
 10
347.7655039063
 20
19.4847073975
 10
347.7655039063
 20
18.0382785645
  0
LWPOLYLINE
  5
33E
100
AcDbEntity
  8
0
100
AcDbPolyline
 62
2
  6
CONTINUOUS
 90
9
 70
0
 10
348.408359375
 20
18.3597076416
 10
348.408359375
 20
19.3239935303
 10
348.7298085938
 20
19.6454226074
 10
349.0512148438
 20
19.6454226074
 10
349.3726640625
 20
19.3239935303
 10
349.3726640625
 20
18.3597076416
 10
349.0512148438
 20
18.0382785645
 10
348.7298085938
 20
18.0382785645
 10
348.408359375
 20
18.3597076416
  0
LWPOLYLINE
  5
33F
100
AcDbEntity
  8
0
100
AcDbPolyline
 62
2
  6
CONTINUOUS
 90
5
 70
0
 10
350.0155195313
 20
18.0382785645
 10
350.0155195313
 20
19.6454226074
 10
350.658375
 20
19.6454226074
 10
350.7654960938
 20
19.4847073975
 10
350.7654960938
 20
19.1632796631
  0
LINE
  5
340
100
AcDbEntity
  8
0
100
AcDbLine
 62
2
  6
CONTINUOUS
 10
351.7833828125
 20
18.0382785645
 11
351.7833828125
 21
19.6454226074
  0
LWPOLYLINE
  5
341
100
AcDbEntity
  8
0
100
AcDbPolyline
 62
2
  6
CONTINUOUS
 90
4
 70
0
 10
351.7833828125
 20
20.127564209
 10
351.7833828125
 20
20.2882794189
 10
351.836921875
 20
20.2882794189
 10
351.7833828125
 20
20.127564209
  0
LWPOLYLINE
  5
342
100
AcDbEntity
  8
0
100
AcDbPolyline
 62
2
  6
CONTINUOUS
 90
12
 70
0
 10
352.6405234375
 20
18.1989937744
 10
352.8012265625
 20
18.0382785645
 10
353.4440820313
 20
18.0382785645
 10
353.6047851563
 20
18.1989937744
 10
353.6047851563
 20
18.6811367188
 10
353.4440820313
 20
18.7882792969
 10
352.8012265625
 20
18.895421875
 10
352.6405234375
 20
19.0025644531
 10
352.6405234375
 20
19.4847073975
 10
352.8012265625
 20
19.6454226074
 10
353.4440820313
 20
19.6454226074
 10
353.6047851563
 20
19.4847073975
  0
LWPOLYLINE
  5
343
100
AcDbEntity
  8
0
100
AcDbPolyline
 62
2
  6
CONTINUOUS
 90
4
 70
0
 10
355.2119453125
 20
18.0382785645
 10
355.2119453125
 20
19.3239935303
 10
355.0511992188
 20
19.6454226074
 10
354.247640625
 20
19.6454226074
  0
LWPOLYLINE
  5
344
100
AcDbEntity
  8
0
100
AcDbPolyline
 62
2
  6
CONTINUOUS
 90
6
 70
0
 10
355.2119453125
 20
18.0382785645
 10
354.5690898438
 20
18.0382785645
 10
354.247640625
 20
18.1989937744
 10
354.247640625
 20
18.6811367188
 10
354.5690898438
 20
18.8418505859
 10
355.2119453125
 20
18.8418505859
  0
LINE
  5
345
100
AcDbEntity
  8
0
100
AcDbLine
 62
2
  6
CONTINUOUS
 10
356.1226679688
 20
18.0382785645
 11
356.1226679688
 21
20.2882794189
  0
LINE
  5
346
100
AcDbEntity
  8
0
100
AcDbLine
 62
2
  6
CONTINUOUS
 10
355.8548007813
 20
19.6454226074
 11
356.49765625
 21
19.6454226074
  0
LINE
  5
347
100
AcDbEntity
  8
0
100
AcDbLine
 62
2
  6
CONTINUOUS
 10
357.4619179688
 20
18.0382785645
 11
357.4619179688
 21
19.6454226074
  0
LWPOLYLINE
  5
348
100
AcDbEntity
  8
0
100
AcDbPolyline
 62
2
  6
CONTINUOUS
 90
4
 70
0
 10
357.4619179688
 20
20.127564209
 10
357.4619179688
 20
20.2882794189
 10
357.5155
 20
20.2882794189
 10
357.4619179688
 20
20.127564209
  0
LWPOLYLINE
  5
349
100
AcDbEntity
  8
0
100
AcDbPolyline
 62
2
  6
CONTINUOUS
 90
9
 70
0
 10
358.3190585938
 20
18.3597076416
 10
358.3190585938
 20
19.3239935303
 10
358.6405078125
 20
19.6454226074
 10
358.9619140625
 20
19.6454226074
 10
359.2833632813
 20
19.3239935303
 10
359.2833632813
 20
18.3597076416
 10
358.9619140625
 20
18.0382785645
 10
358.6405078125
 20
18.0382785645
 10
358.3190585938
 20
18.3597076416
  0
LWPOLYLINE
  5
34A
100
AcDbEntity
  8
0
100
AcDbPolyline
 62
2
  6
CONTINUOUS
 90
5
 70
0
 10
359.92621875
 20
18.0382785645
 10
359.92621875
 20
19.6454226074
 10
360.7297773438
 20
19.6454226074
 10
360.8905234375
 20
19.4847073975
 10
360.8905234375
 20
18.0382785645
  0
LWPOLYLINE
  5
34B
100
AcDbEntity
  8
0
100
AcDbPolyline
 62
2
  6
CONTINUOUS
 90
9
 70
0
 10
363.3011992188
 20
18.3597076416
 10
363.3011992188
 20
19.3239935303
 10
363.6226484375
 20
19.6454226074
 10
363.9440546875
 20
19.6454226074
 10
364.2655039063
 20
19.3239935303
 10
364.2655039063
 20
18.3597076416
 10
363.9440546875
 20
18.0382785645
 10
363.6226484375
 20
18.0382785645
 10
363.3011992188
 20
18.3597076416
  0
LWPOLYLINE
  5
34C
100
AcDbEntity
  8
0
100
AcDbPolyline
 62
2
  6
CONTINUOUS
 90
4
 70
0
 10
365.1762265625
 20
18.0382785645
 10
365.1762265625
 20
20.127564209
 10
365.3369296875
 20
20.2882794189
 10
365.6583789063
 20
20.2882794189
  0
LINE
  5
34D
100
AcDbEntity
  8
0
100
AcDbLine
 62
2
  6
CONTINUOUS
 10
365.6583789063
 20
19.6454226074
 11
364.908359375
 21
19.6454226074
  0
LWPOLYLINE
  5
34E
100
AcDbEntity
  8
0
100
AcDbPolyline
 62
2
  6
CONTINUOUS
 90
3
 70
0
 10
367.9619335938
 20
20.2882794189
 10
367.9619335938
 20
18.0382785645
 10
368.7654921875
 20
18.0382785645
  0
LWPOLYLINE
  5
34F
100
AcDbEntity
  8
0
100
AcDbPolyline
 62
2
  6
CONTINUOUS
 90
12
 70
0
 10
372.6226679688
 20
18.8418505859
 10
371.9797695313
 20
18.0382785645
 10
371.4976601563
 20
18.0382785645
 10
371.1762109375
 20
18.3597076416
 10
371.1762109375
 20
18.8418505859
 10
372.30121875
 20
19.6454226074
 10
372.30121875
 20
19.9668503418
 10
371.9797695313
 20
20.2882794189
 10
371.6583632813
 20
20.2882794189
 10
371.3369140625
 20
19.9668503418
 10
371.3369140625
 20
19.6454226074
 10
372.461921875
 20
18.0382785645
  0
LWPOLYLINE
  5
350
100
AcDbEntity
  8
0
100
AcDbPolyline
 62
2
  6
CONTINUOUS
 90
3
 70
0
 10
375.03334375
 20
20.2882794189
 10
375.03334375
 20
18.0382785645
 10
375.8369453125
 20
18.0382785645
  0
LWPOLYLINE
  5
351
100
AcDbEntity
  8
0
100
AcDbPolyline
 62
2
  6
CONTINUOUS
 90
3
 70
0
 10
378.2476640625
 20
20.2882794189
 10
378.2476640625
 20
18.0382785645
 10
379.0512226563
 20
18.0382785645
  0
LWPOLYLINE
  5
352
100
AcDbEntity
  8
0
100
AcDbPolyline
 62
2
  6
CONTINUOUS
 90
5
 70
0
 10
379.694078125
 20
19.6454226074
 10
379.694078125
 20
18.1989937744
 10
379.85478125
 20
18.0382785645
 10
380.6583828125
 20
18.0382785645
 10
380.6583828125
 20
19.6454226074
  0
LWPOLYLINE
  5
353
100
AcDbEntity
  8
0
100
AcDbPolyline
 62
2
  6
CONTINUOUS
 90
6
 70
0
 10
382.104796875
 20
18.0382785645
 10
381.4619414063
 20
18.0382785645
 10
381.3012382813
 20
18.1989937744
 10
381.3012382813
 20
19.4847073975
 10
381.4619414063
 20
19.6454226074
 10
382.104796875
 20
19.6454226074
  0
LWPOLYLINE
  5
354
100
AcDbEntity
  8
0
100
AcDbPolyline
 62
2
  6
CONTINUOUS
 90
9
 70
0
 10
383.7119140625
 20
18.0382785645
 10
383.0690585938
 20
18.0382785645
 10
382.7476523438
 20
18.3597076416
 10
382.7476523438
 20
19.3239935303
 10
383.0690585938
 20
19.6454226074
 10
383.3905078125
 20
19.6454226074
 10
383.7119140625
 20
19.3239935303
 10
383.7119140625
 20
18.8418505859
 10
382.7476523438
 20
18.8418505859
  0
LWPOLYLINE
  5
355
100
AcDbEntity
  8
0
100
AcDbPolyline
 62
2
  6
CONTINUOUS
 90
12
 70
0
 10
387.5690898438
 20
18.8418505859
 10
386.926234375
 20
18.0382785645
 10
386.4440820313
 20
18.0382785645
 10
386.1226328125
 20
18.3597076416
 10
386.1226328125
 20
18.8418505859
 10
387.247640625
 20
19.6454226074
 10
387.247640625
 20
19.9668503418
 10
386.926234375
 20
20.2882794189
 10
386.6047851563
 20
20.2882794189
 10
386.2833789063
 20
19.9668503418
 10
386.2833789063
 20
19.6454226074
 10
387.40834375
 20
18.0382785645
  0
LWPOLYLINE
  5
356
100
AcDbEntity
  8
0
100
AcDbPolyline
 62
2
  6
CONTINUOUS
 90
3
 70
0
 10
389.9798085938
 20
20.2882794189
 10
389.9798085938
 20
18.0382785645
 10
390.7833671875
 20
18.0382785645
  0
LINE
  5
357
100
AcDbEntity
  8
0
100
AcDbLine
 62
2
  6
CONTINUOUS
 10
391.7476289063
 20
18.0382785645
 11
391.7476289063
 21
19.6454226074
  0
LWPOLYLINE
  5
358
100
AcDbEntity
  8
0
100
AcDbPolyline
 62
2
  6
CONTINUOUS
 90
4
 70
0
 10
391.7476289063
 20
20.127564209
 10
391.7476289063
 20
20.2882794189
 10
391.8012109375
 20
20.2882794189
 10
391.7476289063
 20
20.127564209
  0
LWPOLYLINE
  5
359
100
AcDbEntity
  8
0
100
AcDbPolyline
 62
2
  6
CONTINUOUS
 90
9
 70
0
 10
392.6047695313
 20
17.5025643311
 10
393.4083710938
 20
17.5025643311
 10
393.5690742188
 20
17.7168508301
 10
393.5690742188
 20
19.6454226074
 10
392.765515625
 20
19.6454226074
 10
392.6047695313
 20
19.4847073975
 10
392.6047695313
 20
18.1989937744
 10
392.765515625
 20
18.0382785645
 10
393.5690742188
 20
18.0382785645
  0
LINE
  5
35A
100
AcDbEntity
  8
0
100
AcDbLine
 62
2
  6
CONTINUOUS
 10
394.2119296875
 20
18.0382785645
 11
394.2119296875
 21
20.2882794189
  0
LWPOLYLINE
  5
35B
100
AcDbEntity
  8
0
100
AcDbPolyline
 62
2
  6
CONTINUOUS
 90
4
 70
0
 10
394.2119296875
 20
19.6454226074
 10
395.0154882813
 20
19.6454226074
 10
395.176234375
 20
19.4847073975
 10
395.176234375
 20
18.0382785645
  0
LINE
  5
35C
100
AcDbEntity
  8
0
100
AcDbLine
 62
2
  6
CONTINUOUS
 10
396.0869140625
 20
18.0382785645
 11
396.0869140625
 21
20.2882794189
  0
LINE
  5
35D
100
AcDbEntity
  8
0
100
AcDbLine
 62
2
  6
CONTINUOUS
 10
395.8190898438
 20
19.6454226074
 11
396.4619453125
 21
19.6454226074
  0
LWPOLYLINE
  5
35E
100
AcDbEntity
  8
0
100
AcDbPolyline
 62
2
  6
CONTINUOUS
 90
12
 70
0
 10
398.8726640625
 20
18.1989937744
 10
399.0333671875
 20
18.0382785645
 10
399.6762226563
 20
18.0382785645
 10
399.8369257813
 20
18.1989937744
 10
399.8369257813
 20
18.6811367188
 10
399.6762226563
 20
18.7882792969
 10
399.0333671875
 20
18.895421875
 10
398.8726640625
 20
19.0025644531
 10
398.8726640625
 20
19.4847073975
 10
399.0333671875
 20
19.6454226074
 10
399.6762226563
 20
19.6454226074
 10
399.8369257813
 20
19.4847073975
  0
LWPOLYLINE
  5
35F
100
AcDbEntity
  8
0
100
AcDbPolyline
 62
2
  6
CONTINUOUS
 90
9
 70
0
 10
400.9619335938
 20
18.4132789307
 10
401.015515625
 20
18.3061363525
 10
401.015515625
 20
18.2525650635
 10
400.9619335938
 20
18.1454224854
 10
400.8547695313
 20
18.1454224854
 10
400.8012304688
 20
18.2525650635
 10
400.8012304688
 20
18.3061363525
 10
400.8547695313
 20
18.4132789307
 10
400.9619335938
 20
18.4132789307
  0
LWPOLYLINE
  5
360
100
AcDbEntity
  8
0
100
AcDbPolyline
 62
2
  6
CONTINUOUS
 90
5
 70
0
 10
401.7654921875
 20
18.0382785645
 10
401.7654921875
 20
19.6454226074
 10
402.4083476563
 20
19.6454226074
 10
402.5155117188
 20
19.4847073975
 10
402.5155117188
 20
19.1632796631
  0
LWPOLYLINE
  5
361
100
AcDbEntity
  8
0
100
AcDbPolyline
 62
2
  6
CONTINUOUS
 90
9
 70
0
 10
403.6940585938
 20
18.4132789307
 10
403.747640625
 20
18.3061363525
 10
403.747640625
 20
18.2525650635
 10
403.6940585938
 20
18.1454224854
 10
403.5869375
 20
18.1454224854
 10
403.5333554688
 20
18.2525650635
 10
403.5333554688
 20
18.3061363525
 10
403.5869375
 20
18.4132789307
 10
403.6940585938
 20
18.4132789307
  0
LWPOLYLINE
  5
362
100
AcDbEntity
  8
0
100
AcDbPolyline
 62
2
  6
CONTINUOUS
 90
4
 70
0
 10
404.9797695313
 20
18.0382785645
 10
404.6583632813
 20
18.0382785645
 10
404.4976601563
 20
18.1989937744
 10
404.4976601563
 20
20.2882794189
  0
LWPOLYLINE
  5
363
100
AcDbEntity
  8
0
100
AcDbPolyline
 62
2
  6
CONTINUOUS
 90
9
 70
0
 10
406.1047773438
 20
18.4132789307
 10
406.158359375
 20
18.3061363525
 10
406.158359375
 20
18.2525650635
 10
406.1047773438
 20
18.1454224854
 10
405.99765625
 20
18.1454224854
 10
405.9440742188
 20
18.2525650635
 10
405.9440742188
 20
18.3061363525
 10
405.99765625
 20
18.4132789307
 10
406.1047773438
 20
18.4132789307
  0
LWPOLYLINE
  5
364
100
AcDbEntity
  8
0
100
AcDbPolyline
 62
2
  6
CONTINUOUS
 90
10
 70
0
 10
407.3904882813
 20
18.4132789307
 10
407.4440703125
 20
18.3061363525
 10
407.4440703125
 20
18.2525650635
 10
407.3369492188
 20
18.1454224854
 10
407.2833671875
 20
18.1454224854
 10
407.2297851563
 20
18.1989937744
 10
407.2297851563
 20
18.2525650635
 10
407.2833671875
 20
18.3597076416
 10
407.3369492188
 20
18.4132789307
 10
407.3904882813
 20
18.4132789307
  0
LWPOLYLINE
  5
365
100
AcDbEntity
  8
0
100
AcDbPolyline
 62
2
  6
CONTINUOUS
 90
3
 70
0
 10
407.4440703125
 20
18.2525650635
 10
407.3904882813
 20
18.0918511963
 10
407.2833671875
 20
17.8775646973
  0
LINE
  5
366
100
AcDbEntity
  8
0
100
AcDbLine
 62
2
  6
CONTINUOUS
 10
320.9797734375
 20
14.6632792969
 11
320.9797734375
 21
16.2704219971
  0
LWPOLYLINE
  5
367
100
AcDbEntity
  8
0
100
AcDbPolyline
 62
2
  6
CONTINUOUS
 90
4
 70
0
 10
320.9797734375
 20
16.7525649414
 10
320.9797734375
 20
16.9132788086
 10
321.0333554688
 20
16.9132788086
 10
320.9797734375
 20
16.7525649414
  0
LWPOLYLINE
  5
368
100
AcDbEntity
  8
0
100
AcDbPolyline
 62
2
  6
CONTINUOUS
 90
5
 70
0
 10
321.8369140625
 20
14.6632792969
 10
321.8369140625
 20
16.2704219971
 10
322.640515625
 20
16.2704219971
 10
322.80121875
 20
16.1097081299
 10
322.80121875
 20
14.6632792969
  0
LWPOLYLINE
  5
369
100
AcDbEntity
  8
0
100
AcDbPolyline
 62
2
  6
CONTINUOUS
 90
4
 70
0
 10
326.1761992188
 20
14.6632792969
 10
326.1761992188
 20
15.9489929199
 10
326.0154960938
 20
16.2704219971
 10
325.2119375
 20
16.2704219971
  0
LWPOLYLINE
  5
36A
100
AcDbEntity
  8
0
100
AcDbPolyline
 62
2
  6
CONTINUOUS
 90
6
 70
0
 10
326.1761992188
 20
14.6632792969
 10
325.53334375
 20
14.6632792969
 10
325.2119375
 20
14.8239931641
 10
325.2119375
 20
15.3061361084
 10
325.53334375
 20
15.4668499756
 10
326.1761992188
 20
15.4668499756
  0
LWPOLYLINE
  5
36B
100
AcDbEntity
  8
0
100
AcDbPolyline
 62
2
  6
CONTINUOUS
 90
6
 70
0
 10
327.62265625
 20
14.6632792969
 10
326.9798007813
 20
14.6632792969
 10
326.8190546875
 20
14.8239931641
 10
326.8190546875
 20
16.1097081299
 10
326.9798007813
 20
16.2704219971
 10
327.62265625
 20
16.2704219971
  0
LWPOLYLINE
  5
36C
100
AcDbEntity
  8
0
100
AcDbPolyline
 62
2
  6
CONTINUOUS
 90
6
 70
0
 10
329.0690703125
 20
14.6632792969
 10
328.4262148438
 20
14.6632792969
 10
328.2655117188
 20
14.8239931641
 10
328.2655117188
 20
16.1097081299
 10
328.4262148438
 20
16.2704219971
 10
329.0690703125
 20
16.2704219971
  0
LWPOLYLINE
  5
36D
100
AcDbEntity
  8
0
100
AcDbPolyline
 62
2
  6
CONTINUOUS
 90
9
 70
0
 10
329.7119257813
 20
14.9847070313
 10
329.7119257813
 20
15.9489929199
 10
330.033375
 20
16.2704219971
 10
330.35478125
 20
16.2704219971
 10
330.6762304688
 20
15.9489929199
 10
330.6762304688
 20
14.9847070313
 10
330.35478125
 20
14.6632792969
 10
330.033375
 20
14.6632792969
 10
329.7119257813
 20
14.9847070313
  0
LWPOLYLINE
  5
36E
100
AcDbEntity
  8
0
100
AcDbPolyline
 62
2
  6
CONTINUOUS
 90
5
 70
0
 10
331.3190859375
 20
14.6632792969
 10
331.3190859375
 20
16.2704219971
 10
331.9619414063
 20
16.2704219971
 10
332.0690625
 20
16.1097081299
 10
332.0690625
 20
15.7882790527
  0
LWPOLYLINE
  5
36F
100
AcDbEntity
  8
0
100
AcDbPolyline
 62
2
  6
CONTINUOUS
 90
7
 70
0
 10
333.7298046875
 20
16.9132788086
 10
333.7298046875
 20
14.6632792969
 10
333.0869492188
 20
14.6632792969
 10
332.7655
 20
14.8239931641
 10
332.7655
 20
16.1097081299
 10
333.0869492188
 20
16.2704219971
 10
333.7298046875
 20
16.2704219971
  0
LWPOLYLINE
  5
370
100
AcDbEntity
  8
0
100
AcDbPolyline
 62
2
  6
CONTINUOUS
 90
4
 70
0
 10
335.336921875
 20
14.6632792969
 10
335.336921875
 20
15.9489929199
 10
335.17621875
 20
16.2704219971
 10
334.3726601563
 20
16.2704219971
  0
LWPOLYLINE
  5
371
100
AcDbEntity
  8
0
100
AcDbPolyline
 62
2
  6
CONTINUOUS
 90
6
 70
0
 10
335.336921875
 20
14.6632792969
 10
334.6940664063
 20
14.6632792969
 10
334.3726601563
 20
14.8239931641
 10
334.3726601563
 20
15.3061361084
 10
334.6940664063
 20
15.4668499756
 10
335.336921875
 20
15.4668499756
  0
LWPOLYLINE
  5
372
100
AcDbEntity
  8
0
100
AcDbPolyline
 62
2
  6
CONTINUOUS
 90
5
 70
0
 10
335.9797773438
 20
14.6632792969
 10
335.9797773438
 20
16.2704219971
 10
336.7833789063
 20
16.2704219971
 10
336.9440820313
 20
16.1097081299
 10
336.9440820313
 20
14.6632792969
  0
LWPOLYLINE
  5
373
100
AcDbEntity
  8
0
100
AcDbPolyline
 62
2
  6
CONTINUOUS
 90
6
 70
0
 10
338.3904960938
 20
14.6632792969
 10
337.747640625
 20
14.6632792969
 10
337.5869375
 20
14.8239931641
 10
337.5869375
 20
16.1097081299
 10
337.747640625
 20
16.2704219971
 10
338.3904960938
 20
16.2704219971
  0
LWPOLYLINE
  5
374
100
AcDbEntity
  8
0
100
AcDbPolyline
 62
2
  6
CONTINUOUS
 90
9
 70
0
 10
339.99765625
 20
14.6632792969
 10
339.3548007813
 20
14.6632792969
 10
339.0333515625
 20
14.9847070313
 10
339.0333515625
 20
15.9489929199
 10
339.3548007813
 20
16.2704219971
 10
339.6762070313
 20
16.2704219971
 10
339.99765625
 20
15.9489929199
 10
339.99765625
 20
15.4668499756
 10
339.0333515625
 20
15.4668499756
  0
LWPOLYLINE
  5
375
100
AcDbEntity
  8
0
100
AcDbPolyline
 62
2
  6
CONTINUOUS
 90
5
 70
0
 10
342.408375
 20
16.2704219971
 10
342.8369453125
 20
14.6632792969
 10
343.2119335938
 20
15.9489929199
 10
343.586921875
 20
14.6632792969
 10
344.0154921875
 20
16.2704219971
  0
LINE
  5
376
100
AcDbEntity
  8
0
100
AcDbLine
 62
2
  6
CONTINUOUS
 10
344.979796875
 20
14.6632792969
 11
344.979796875
 21
16.2704219971
  0
LWPOLYLINE
  5
377
100
AcDbEntity
  8
0
100
AcDbPolyline
 62
2
  6
CONTINUOUS
 90
4
 70
0
 10
344.979796875
 20
16.7525649414
 10
344.979796875
 20
16.9132788086
 10
345.0333789063
 20
16.9132788086
 10
344.979796875
 20
16.7525649414
  0
LINE
  5
378
100
AcDbEntity
  8
0
100
AcDbLine
 62
2
  6
CONTINUOUS
 10
346.1048046875
 20
14.6632792969
 11
346.1048046875
 21
16.9132788086
  0
LINE
  5
379
100
AcDbEntity
  8
0
100
AcDbLine
 62
2
  6
CONTINUOUS
 10
345.8369375
 20
16.2704219971
 11
346.4797929688
 21
16.2704219971
  0
LINE
  5
37A
100
AcDbEntity
  8
0
100
AcDbLine
 62
2
  6
CONTINUOUS
 10
347.1226484375
 20
14.6632792969
 11
347.1226484375
 21
16.9132788086
  0
LWPOLYLINE
  5
37B
100
AcDbEntity
  8
0
100
AcDbPolyline
 62
2
  6
CONTINUOUS
 90
4
 70
0
 10
347.1226484375
 20
16.2704219971
 10
347.9262070313
 20
16.2704219971
 10
348.086953125
 20
16.1097081299
 10
348.086953125
 20
14.6632792969
  0
LINE
  5
37C
100
AcDbEntity
  8
0
100
AcDbLine
 62
2
  6
CONTINUOUS
 10
350.7654960938
 20
14.6632792969
 11
350.7654960938
 21
16.9132788086
  0
LINE
  5
37D
100
AcDbEntity
  8
0
100
AcDbLine
 62
2
  6
CONTINUOUS
 10
350.4976289063
 20
16.2704219971
 11
351.140484375
 21
16.2704219971
  0
LINE
  5
37E
100
AcDbEntity
  8
0
100
AcDbLine
 62
2
  6
CONTINUOUS
 10
351.7833828125
 20
14.6632792969
 11
351.7833828125
 21
16.9132788086
  0
LWPOLYLINE
  5
37F
100
AcDbEntity
  8
0
100
AcDbPolyline
 62
2
  6
CONTINUOUS
 90
4
 70
0
 10
351.7833828125
 20
16.2704219971
 10
352.5869414063
 20
16.2704219971
 10
352.7476445313
 20
16.1097081299
 10
352.7476445313
 20
14.6632792969
  0
LWPOLYLINE
  5
380
100
AcDbEntity
  8
0
100
AcDbPolyline
 62
2
  6
CONTINUOUS
 90
9
 70
0
 10
354.3548046875
 20
14.6632792969
 10
353.7119492188
 20
14.6632792969
 10
353.3905
 20
14.9847070313
 10
353.3905
 20
15.9489929199
 10
353.7119492188
 20
16.2704219971
 10
354.0333554688
 20
16.2704219971
 10
354.3548046875
 20
15.9489929199
 10
354.3548046875
 20
15.4668499756
 10
353.3905
 20
15.4668499756
  0
LWPOLYLINE
  5
381
100
AcDbEntity
  8
0
100
AcDbPolyline
 62
2
  6
CONTINUOUS
 90
4
 70
0
 10
357.2476328125
 20
14.6632792969
 10
356.9262265625
 20
14.6632792969
 10
356.7655234375
 20
14.8239931641
 10
356.7655234375
 20
16.9132788086
  0
LWPOLYLINE
  5
382
100
AcDbEntity
  8
0
100
AcDbPolyline
 62
2
  6
CONTINUOUS
 90
4
 70
0
 10
358.8547929688
 20
14.6632792969
 10
358.8547929688
 20
15.9489929199
 10
358.6940898438
 20
16.2704219971
 10
357.8904882813
 20
16.2704219971
  0
LWPOLYLINE
  5
383
100
AcDbEntity
  8
0
100
AcDbPolyline
 62
2
  6
CONTINUOUS
 90
6
 70
0
 10
358.8547929688
 20
14.6632792969
 10
358.2119375
 20
14.6632792969
 10
357.8904882813
 20
14.8239931641
 10
357.8904882813
 20
15.3061361084
 10
358.2119375
 20
15.4668499756
 10
358.8547929688
 20
15.4668499756
  0
LWPOLYLINE
  5
384
100
AcDbEntity
  8
0
100
AcDbPolyline
 62
2
  6
CONTINUOUS
 90
5
 70
0
 10
359.4976484375
 20
16.2704219971
 10
359.92621875
 20
14.6632792969
 10
360.3012070313
 20
15.9489929199
 10
360.6762382813
 20
14.6632792969
 10
361.1048085938
 20
16.2704219971
  0
LINE
  5
385
100
AcDbEntity
  8
0
100
AcDbLine
 62
2
  6
CONTINUOUS
 10
363.8369335938
 20
14.6632792969
 11
363.8369335938
 21
16.2704219971
  0
LWPOLYLINE
  5
386
100
AcDbEntity
  8
0
100
AcDbPolyline
 62
2
  6
CONTINUOUS
 90
4
 70
0
 10
363.8369335938
 20
16.7525649414
 10
363.8369335938
 20
16.9132788086
 10
363.890515625
 20
16.9132788086
 10
363.8369335938
 20
16.7525649414
  0
LWPOLYLINE
  5
387
100
AcDbEntity
  8
0
100
AcDbPolyline
 62
2
  6
CONTINUOUS
 90
5
 70
0
 10
364.6940742188
 20
14.6632792969
 10
364.6940742188
 20
16.2704219971
 10
365.4976328125
 20
16.2704219971
 10
365.6583789063
 20
16.1097081299
 10
365.6583789063
 20
14.6632792969
  0
LWPOLYLINE
  5
388
100
AcDbEntity
  8
0
100
AcDbPolyline
 62
2
  6
CONTINUOUS
 90
4
 70
0
 10
368.336921875
 20
14.6632792969
 10
368.336921875
 20
16.7525649414
 10
368.4976679688
 20
16.9132788086
 10
368.8190742188
 20
16.9132788086
  0
LINE
  5
389
100
AcDbEntity
  8
0
100
AcDbLine
 62
2
  6
CONTINUOUS
 10
368.8190742188
 20
16.2704219971
 11
368.0690546875
 21
16.2704219971
  0
LWPOLYLINE
  5
38A
100
AcDbEntity
  8
0
100
AcDbPolyline
 62
2
  6
CONTINUOUS
 90
9
 70
0
 10
369.3548085938
 20
14.9847070313
 10
369.3548085938
 20
15.9489929199
 10
369.6762148438
 20
16.2704219971
 10
369.9976640625
 20
16.2704219971
 10
370.3190703125
 20
15.9489929199
 10
370.3190703125
 20
14.9847070313
 10
369.9976640625
 20
14.6632792969
 10
369.6762148438
 20
14.6632792969
 10
369.3548085938
 20
14.9847070313
  0
LWPOLYLINE
  5
38B
100
AcDbEntity
  8
0
100
AcDbPolyline
 62
2
  6
CONTINUOUS
 90
5
 70
0
 10
370.9619257813
 20
14.6632792969
 10
370.9619257813
 20
16.2704219971
 10
371.60478125
 20
16.2704219971
 10
371.7119453125
 20
16.1097081299
 10
371.7119453125
 20
15.7882790527
  0
LWPOLYLINE
  5
38C
100
AcDbEntity
  8
0
100
AcDbPolyline
 62
2
  6
CONTINUOUS
 90
6
 70
0
 10
373.2119414063
 20
14.6632792969
 10
372.5690859375
 20
14.6632792969
 10
372.4083828125
 20
14.8239931641
 10
372.4083828125
 20
16.1097081299
 10
372.5690859375
 20
16.2704219971
 10
373.2119414063
 20
16.2704219971
  0
LWPOLYLINE
  5
38D
100
AcDbEntity
  8
0
100
AcDbPolyline
 62
2
  6
CONTINUOUS
 90
9
 70
0
 10
374.8190585938
 20
14.6632792969
 10
374.176203125
 20
14.6632792969
 10
373.854796875
 20
14.9847070313
 10
373.854796875
 20
15.9489929199
 10
374.176203125
 20
16.2704219971
 10
374.4976523438
 20
16.2704219971
 10
374.8190585938
 20
15.9489929199
 10
374.8190585938
 20
15.4668499756
 10
373.854796875
 20
15.4668499756
  0
LWPOLYLINE
  5
38E
100
AcDbEntity
  8
0
100
AcDbPolyline
 62
2
  6
CONTINUOUS
 90
9
 70
0
 10
375.9440664063
 20
15.0382796631
 10
375.9976484375
 20
14.9311357422
 10
375.9976484375
 20
14.8775644531
 10
375.9440664063
 20
14.770421875
 10
375.8369453125
 20
14.770421875
 10
375.7833632813
 20
14.8775644531
 10
375.7833632813
 20
14.9311357422
 10
375.8369453125
 20
15.0382796631
 10
375.9440664063
 20
15.0382796631
  0
LWPOLYLINE
  5
38F
100
AcDbEntity
  8
0
100
AcDbPolyline
 62
2
  6
CONTINUOUS
 90
3
 70
0
 10
320.6583671875
 20
11.2882786865
 10
321.3012226563
 20
13.538279541
 10
321.944078125
 20
11.2882786865
  0
LINE
  5
390
100
AcDbEntity
  8
0
100
AcDbLine
 62
2
  6
CONTINUOUS
 10
320.8726523438
 20
11.9311368408
 11
321.7297929688
 21
11.9311368408
  0
LWPOLYLINE
  5
391
100
AcDbEntity
  8
0
100
AcDbPolyline
 62
2
  6
CONTINUOUS
 90
4
 70
0
 10
323.0690859375
 20
11.2882786865
 10
322.7476367188
 20
11.2882786865
 10
322.5869335938
 20
11.4489938965
 10
322.5869335938
 20
13.538279541
  0
LWPOLYLINE
  5
392
100
AcDbEntity
  8
0
100
AcDbPolyline
 62
2
  6
CONTINUOUS
 90
4
 70
0
 10
324.19409375
 20
11.2882786865
 10
323.8726445313
 20
11.2882786865
 10
323.7119414063
 20
11.4489938965
 10
323.7119414063
 20
13.538279541
  0
LWPOLYLINE
  5
393
100
AcDbEntity
  8
0
100
AcDbPolyline
 62
2
  6
CONTINUOUS
 90
5
 70
0
 10
326.6047695313
 20
11.2882786865
 10
326.6047695313
 20
12.8954213867
 10
327.2476679688
 20
12.8954213867
 10
327.3547890625
 20
12.7347075195
 10
327.3547890625
 20
12.4132797852
  0
LINE
  5
394
100
AcDbEntity
  8
0
100
AcDbLine
 62
2
  6
CONTINUOUS
 10
328.3726328125
 20
11.2882786865
 11
328.3726328125
 21
12.8954213867
  0
LWPOLYLINE
  5
395
100
AcDbEntity
  8
0
100
AcDbPolyline
 62
2
  6
CONTINUOUS
 90
4
 70
0
 10
328.3726328125
 20
13.3775643311
 10
328.3726328125
 20
13.538279541
 10
328.4262148438
 20
13.538279541
 10
328.3726328125
 20
13.3775643311
  0
LWPOLYLINE
  5
396
100
AcDbEntity
  8
0
100
AcDbPolyline
 62
2
  6
CONTINUOUS
 90
9
 70
0
 10
329.2297734375
 20
10.7525651245
 10
330.033375
 20
10.7525651245
 10
330.194078125
 20
10.9668502808
 10
330.194078125
 20
12.8954213867
 10
329.3905195313
 20
12.8954213867
 10
329.2297734375
 20
12.7347075195
 10
329.2297734375
 20
11.4489938965
 10
329.3905195313
 20
11.2882786865
 10
330.194078125
 20
11.2882786865
  0
LINE
  5
397
100
AcDbEntity
  8
0
100
AcDbLine
 62
2
  6
CONTINUOUS
 10
330.8369335938
 20
11.2882786865
 11
330.8369335938
 21
13.538279541
  0
LWPOLYLINE
  5
398
100
AcDbEntity
  8
0
100
AcDbPolyline
 62
2
  6
CONTINUOUS
 90
4
 70
0
 10
330.8369335938
 20
12.8954213867
 10
331.6404921875
 20
12.8954213867
 10
331.8012382813
 20
12.7347075195
 10
331.8012382813
 20
11.2882786865
  0
LINE
  5
399
100
AcDbEntity
  8
0
100
AcDbLine
 62
2
  6
CONTINUOUS
 10
332.7119179688
 20
11.2882786865
 11
332.7119179688
 21
13.538279541
  0
LINE
  5
39A
100
AcDbEntity
  8
0
100
AcDbLine
 62
2
  6
CONTINUOUS
 10
332.44409375
 20
12.8954213867
 11
333.0869492188
 21
12.8954213867
  0
LWPOLYLINE
  5
39B
100
AcDbEntity
  8
0
100
AcDbPolyline
 62
2
  6
CONTINUOUS
 90
12
 70
0
 10
333.7298046875
 20
11.4489938965
 10
333.8905078125
 20
11.2882786865
 10
334.5333632813
 20
11.2882786865
 10
334.6940664063
 20
11.4489938965
 10
334.6940664063
 20
11.9311368408
 10
334.5333632813
 20
12.0382794189
 10
333.8905078125
 20
12.1454219971
 10
333.7298046875
 20
12.2525645752
 10
333.7298046875
 20
12.7347075195
 10
333.8905078125
 20
12.8954213867
 10
334.5333632813
 20
12.8954213867
 10
334.6940664063
 20
12.7347075195
  0
LWPOLYLINE
  5
39C
100
AcDbEntity
  8
0
100
AcDbPolyline
 62
2
  6
CONTINUOUS
 90
5
 70
0
 10
337.1047851563
 20
11.2882786865
 10
337.1047851563
 20
12.8954213867
 10
337.747640625
 20
12.8954213867
 10
337.8548046875
 20
12.7347075195
 10
337.8548046875
 20
12.4132797852
  0
LWPOLYLINE
  5
39D
100
AcDbEntity
  8
0
100
AcDbPolyline
 62
2
  6
CONTINUOUS
 90
9
 70
0
 10
339.5155039063
 20
11.2882786865
 10
338.8726484375
 20
11.2882786865
 10
338.5511992188
 20
11.6097077637
 10
338.5511992188
 20
12.5739936523
 10
338.8726484375
 20
12.8954213867
 10
339.1940546875
 20
12.8954213867
 10
339.5155039063
 20
12.5739936523
 10
339.5155039063
 20
12.091850708
 10
338.5511992188
 20
12.091850708
  0
LWPOLYLINE
  5
39E
100
AcDbEntity
  8
0
100
AcDbPolyline
 62
2
  6
CONTINUOUS
 90
12
 70
0
 10
340.158359375
 20
11.4489938965
 10
340.3190625
 20
11.2882786865
 10
340.9619179688
 20
11.2882786865
 10
341.1226640625
 20
11.4489938965
 10
341.1226640625
 20
11.9311368408
 10
340.9619179688
 20
12.0382794189
 10
340.3190625
 20
12.1454219971
 10
340.158359375
 20
12.2525645752
 10
340.158359375
 20
12.7347075195
 10
340.3190625
 20
12.8954213867
 10
340.9619179688
 20
12.8954213867
 10
341.1226640625
 20
12.7347075195
  0
LWPOLYLINE
  5
39F
100
AcDbEntity
  8
0
100
AcDbPolyline
 62
2
  6
CONTINUOUS
 90
9
 70
0
 10
342.72978125
 20
11.2882786865
 10
342.0869257813
 20
11.2882786865
 10
341.7655195313
 20
11.6097077637
 10
341.7655195313
 20
12.5739936523
 10
342.0869257813
 20
12.8954213867
 10
342.408375
 20
12.8954213867
 10
342.72978125
 20
12.5739936523
 10
342.72978125
 20
12.091850708
 10
341.7655195313
 20
12.091850708
  0
LWPOLYLINE
  5
3A0
100
AcDbEntity
  8
0
100
AcDbPolyline
 62
2
  6
CONTINUOUS
 90
5
 70
0
 10
343.3726367188
 20
11.2882786865
 10
343.3726367188
 20
12.8954213867
 10
344.0154921875
 20
12.8954213867
 10
344.12265625
 20
12.7347075195
 10
344.12265625
 20
12.4132797852
  0
LWPOLYLINE
  5
3A1
100
AcDbEntity
  8
0
100
AcDbPolyline
 62
2
  6
CONTINUOUS
 90
3
 70
0
 10
344.81909375
 20
12.8954213867
 10
345.301203125
 20
11.2882786865
 10
345.7833554688
 20
12.8954213867
  0
LWPOLYLINE
  5
3A2
100
AcDbEntity
  8
0
100
AcDbPolyline
 62
2
  6
CONTINUOUS
 90
9
 70
0
 10
347.390515625
 20
11.2882786865
 10
346.7476601563
 20
11.2882786865
 10
346.4262109375
 20
11.6097077637
 10
346.4262109375
 20
12.5739936523
 10
346.7476601563
 20
12.8954213867
 10
347.0690664063
 20
12.8954213867
 10
347.390515625
 20
12.5739936523
 10
347.390515625
 20
12.091850708
 10
346.4262109375
 20
12.091850708
  0
LWPOLYLINE
  5
3A3
100
AcDbEntity
  8
0
100
AcDbPolyline
 62
2
  6
CONTINUOUS
 90
7
 70
0
 10
348.9976328125
 20
13.538279541
 10
348.9976328125
 20
11.2882786865
 10
348.3547773438
 20
11.2882786865
 10
348.0333710938
 20
11.4489938965
 10
348.0333710938
 20
12.7347075195
 10
348.3547773438
 20
12.8954213867
 10
348.9976328125
 20
12.8954213867
  0
LWPOLYLINE
  5
3A4
100
AcDbEntity
  8
0
100
AcDbPolyline
 62
2
  6
CONTINUOUS
 90
9
 70
0
 10
350.122640625
 20
11.6632790527
 10
350.1762226563
 20
11.5561364746
 10
350.1762226563
 20
11.5025651855
 10
350.122640625
 20
11.3954226074
 10
350.0155195313
 20
11.3954226074
 10
349.9619375
 20
11.5025651855
 10
349.9619375
 20
11.5561364746
 10
350.0155195313
 20
11.6632790527
 10
350.122640625
 20
11.6632790527
  0
ACAD_TABLE
  5
3A5
100
AcDbEntity
  8
0
 62
2
  6
CONTINUOUS
100
AcDbBlockReference
  2
*T1
 10
319.170861462
 20
50.9757791308
 30
0.0
100
AcDbTable
342
       463
343
227
 11
1.0
 21
0.0
 31
0.0
 90
22
 91
5
 92
5
 93
0
 94
0
 95
0
 96
0
141
6.0
141
6.0
141
10.0
141
5.0
141
13.0
142
10.0
142
10.0
142
10.0
142
40.0
142
20.0
171
1
172
0
173
0
174
0
175
3
176
4
 91
1
178
0
145
0.0
170
5
171
1
172
0
173
1
174
0
175
1
176
1
 91
1
178
0
145
0.0
170
1
171
1
172
0
173
1
174
0
175
1
176
1
 91
1
178
0
145
0.0
170
1
171
1
172
0
173
0
174
0
175
1
176
1
 91
33
178
0
145
0.0
301
CELL_VALUE
 90
4
  1
{\Ftxt.shx;\W7.047619;\H3.000000; }
304
ACVALUE_END
170
4
140
3.0
171
1
172
0
173
0
174
0
175
1
176
1
 91
33
178
0
145
0.0
301
CELL_VALUE
 90
4
  1
{\Ftxt.shx;\W2.571429;\H3.500000; }{\Ftxt.shx;\W1.357143;\H3.500000; }
304
ACVALUE_END
170
1
140
3.5
171
1
172
0
173
1
174
0
175
1
176
1
 91
1
178
0
145
0.0
170
1
171
1
172
0
173
1
174
0
175
1
176
1
 91
1
178
0
145
0.0
170
1
171
1
172
0
173
1
174
0
175
1
176
1
 91
1
178
0
145
0.0
170
1
171
1
172
0
173
0
174
0
175
1
176
1
 91
33
178
0
145
0.0
301
CELL_VALUE
 90
4
  1
{\Ftxt.shx;\W3.714286;\H3.500000; }{\Ftxt.shx;\W1.500000;\H3.500000; }
304
ACVALUE_END
170
1
140
3.5
171
1
172
0
173
0
174
0
175
1
176
1
 91
33
178
0
145
0.0
301
CELL_VALUE
 90
4
  1
{\Ftxt.shx;\W1.642857;\H3.500000; }
304
ACVALUE_END
170
4
140
3.5
171
1
172
0
173
1
174
0
175
1
176
1
 91
1
178
0
145
0.0
170
1
171
1
172
0
173
1
174
0
175
1
176
1
 91
1
178
0
145
0.0
170
1
171
1
172
0
173
1
174
0
175
1
176
1
 91
1
178
0
145
0.0
170
1
171
1
172
0
173
0
174
0
175
2
176
1
 91
33
178
0
145
0.0
301
CELL_VALUE
 90
4
  1
{\Ftxt.shx;\W5.238095;\H3.500000; }
304
ACVALUE_END
170
4
140
3.5
171
1
172
0
173
1
174
0
175
1
176
1
 91
1
178
0
145
0.0
170
1
171
1
172
0
173
1
174
0
175
1
176
1
 91
1
178
0
145
0.0
170
1
171
1
172
0
173
1
174
0
175
1
176
1
 91
1
178
0
145
0.0
170
1
171
1
172
0
173
1
174
0
175
1
176
1
 91
1
178
0
145
0.0
170
1
171
1
172
0
173
0
174
0
175
2
176
1
 91
33
178
0
145
0.0
301
CELL_VALUE
 90
4
  1
{\Ftxt.shx;\W3.690476;\H2.500000; }{\Ftxt.shx;\W7.309524;\H2.500000; }
304
ACVALUE_END
170
4
140
2.5
171
1
172
0
173
1
174
0
175
1
176
1
 91
1
178
0
145
0.0
170
1
171
1
172
0
173
0
174
0
175
5
176
1
 91
33
178
0
145
0.0
301
CELL_VALUE
 90
4
  1
{\Ftxt.shx;\W35.880952;\H2.250000; }\P{\Ftxt.shx;\W22.452381;\H2.250000; }{\Ftxt.shx;\W6.642857;\H2.250000; }{\Ftxt.shx;\W10.595238;\H2.250000; }\P{\Ftxt.shx;\W25.714286;\H2.250000; }\P{\Ftxt.shx;\W13.452381;\H2.250000; }
304
ACVALUE_END
170
4
140
2.25
171
1
172
0
173
1
174
0
175
1
176
1
 91
1
178
0
145
0.0
170
1
171
1
172
0
173
1
174
0
175
1
176
1
 91
1
178
0
145
0.0
170
1
171
1
172
0
173
1
174
0
175
1
176
1
 91
1
178
0
145
0.0
170
1
171
1
172
0
173
1
174
0
175
1
176
1
 91
1
178
0
145
0.0
170
1
  0
LINE
  5
3A6
100
AcDbEntity
  8
0
100
AcDbLine
 62
7
  6
CONTINUOUS
 10
0.0
 20
0.0
 11
420.0
 21
0.0
  0
LINE
  5
3A7
100
AcDbEntity
  8
0
100
AcDbLine
 62
7
  6
CONTINUOUS
 10
0.0
 20
0.0
 11
0.0
 21
594.0
  0
LINE
  5
3A8
100
AcDbEntity
  8
0
100
AcDbLine
 62
7
  6
CONTINUOUS
 10
420.0
 20
0.0
 11
420.0
 21
594.0
  0
LINE
  5
3A9
100
AcDbEntity
  8
0
100
AcDbLine
 62
7
  6
CONTINUOUS
 10
0.0
 20
594.0
 11
420.0
 21
594.0
  0
LINE
  5
3AA
100
AcDbEntity
  8
7_ALL_FEATURES
100
AcDbLine
 62
3
  6
CONTINUOUS
 10
54.588455153
 20
152.55773235
 11
54.088455153
 21
152.05773235
  0
LINE
  5
3AB
100
AcDbEntity
  8
7_ALL_FEATURES
100
AcDbLine
 62
7
  6
CONTINUOUS
 10
56.288455153
 20
150.55773235
 11
56.088455153
 21
150.35773235
  0
LINE
  5
3AC
100
AcDbEntity
  8
7_ALL_FEATURES
100
AcDbLine
 62
7
  6
CONTINUOUS
 10
56.088455153
 20
150.05773235
 11
56.588455153
 21
150.55773235
  0
LINE
  5
3AD
100
AcDbEntity
  8
7_ALL_FEATURES
100
AcDbLine
 62
7
  6
CONTINUOUS
 10
56.088455153
 20
56.1315090693
 11
56.338455153
 21
55.7833269492
  0
LINE
  5
3AE
100
AcDbEntity
  8
7_ALL_FEATURES
100
AcDbLine
 62
7
  6
CONTINUOUS
 10
56.588455153
 20
72.3556497014
 11
56.338455153
 21
72.7038318215
  0
LINE
  5
3AF
100
AcDbEntity
  8
7_ALL_FEATURES
100
AcDbLine
 62
3
  6
CONTINUOUS
 10
54.088455153
 20
152.05773235
 11
54.088455153
 21
119.05773235
  0
LINE
  5
3B0
100
AcDbEntity
  8
7_ALL_FEATURES
100
AcDbLine
 62
7
  6
CONTINUOUS
 10
56.088455153
 20
56.1315090693
 11
56.088455153
 21
150.35773235
  0
LINE
  5
3B1
100
AcDbEntity
  8
7_ALL_FEATURES
100
AcDbLine
 62
7
  6
CONTINUOUS
 10
56.588455153
 20
55.7219330472
 11
56.588455153
 21
72.3556497014
  0
LINE
  5
3B2
100
AcDbEntity
  8
7_ALL_FEATURES
100
AcDbLine
 62
7
  6
CONTINUOUS
 10
56.588455153
 20
73.0520139417
 11
56.588455153
 21
150.3445205681
  0
LINE
  5
3B3
100
AcDbEntity
  8
7_ALL_FEATURES
100
AcDbLine
 62
7
  6
CONTINUOUS
 10
175.588455153
 20
55.7219330472
 11
175.838455153
 21
55.7833269492
  0
LWPOLYLINE
  5
3B4
100
AcDbEntity
  8
0
100
AcDbPolyline
 62
2
  6
CONTINUOUS
 90
7
 70
0
 43
0.1500000038
 10
116.0884453125
 20
46.0939960938
 10
114.5884492188
 20
46.0939960938
 10
116.0884453125
 20
48.2368530273
 10
116.0884453125
 20
48.6654233398
 10
115.659875
 20
49.0939936523
 10
115.0170195313
 20
49.0939936523
 10
114.5884492188
 20
48.4511381836
  0
LINE
  5
3B5
100
AcDbEntity
  8
7_ALL_FEATURES
100
AcDbLine
 62
7
  6
CONTINUOUS
 10
56.338455153
 20
55.7833269492
 11
56.588455153
 21
55.7219330472
  0
LINE
  5
3B6
100
AcDbEntity
  8
7_ALL_FEATURES
100
AcDbLine
 62
7
  6
CONTINUOUS
 10
175.588455153
 20
55.7219330472
 11
56.588455153
 21
55.7219330472
  0
LWPOLYLINE
  5
3B7
100
AcDbEntity
  8
0
100
AcDbPolyline
 62
2
  6
CONTINUOUS
 90
3
 70
0
 43
0.1500000038
 10
112.8741679688
 20
166.2236640625
 10
113.7313085938
 20
167.0808046875
 10
113.7313085938
 20
164.0808125
  0
LINE
  5
3B8
100
AcDbEntity
  8
7_ALL_FEATURES
100
AcDbLine
 62
7
  6
CONTINUOUS
 10
176.088455153
 20
72.7652257235
 11
175.838455153
 21
72.7038318215
  0
LINE
  5
3B9
100
AcDbEntity
  8
7_ALL_FEATURES
100
AcDbLine
 62
7
  6
CONTINUOUS
 10
56.088455153
 20
72.7652257235
 11
56.338455153
 21
72.7038318215
  0
LINE
  5
3BA
100
AcDbEntity
  8
7_ALL_FEATURES
100
AcDbLine
 62
7
  6
CONTINUOUS
 10
56.588455153
 20
72.3556497014
 11
175.588455153
 21
72.3556497014
  0
LINE
  5
3BB
100
AcDbEntity
  8
7_ALL_FEATURES
100
AcDbLine
 62
7
  6
CONTINUOUS
 10
56.588455153
 20
73.0520139417
 11
175.588455153
 21
73.0520139417
  0
LINE
  5
3BC
100
AcDbEntity
  8
7_ALL_FEATURES
100
AcDbLine
 62
3
  6
CONTINUOUS
 10
54.088455153
 20
119.05773235
 11
54.588455153
 21
118.55773235
  0
LINE
  5
3BD
100
AcDbEntity
  8
7_ALL_FEATURES
100
AcDbLine
 62
7
  6
CONTINUOUS
 10
56.338455153
 20
72.7038318215
 11
56.588455153
 21
73.0520139417
  0
LINE
  5
3BE
100
AcDbEntity
  8
7_ALL_FEATURES
100
AcDbLine
 62
7
  6
CONTINUOUS
 10
56.4818492621
 20
150.4511264591
 11
56.588455153
 21
150.3445205681
  0
LWPOLYLINE
  5
3BF
100
AcDbEntity
  8
0
100
AcDbPolyline
 62
2
  6
CONTINUOUS
 90
13
 70
0
 43
0.1500000038
 10
116.9456074219
 20
46.9511367188
 10
116.9456074219
 20
48.2368530273
 10
117.1598925781
 20
48.6654233398
 10
117.5884628906
 20
49.0939936523
 10
117.8027480469
 20
49.0939936523
 10
118.2313183594
 20
48.6654233398
 10
118.4456035156
 20
48.2368530273
 10
118.4456035156
 20
46.9511367188
 10
118.2313183594
 20
46.5225664063
 10
117.8027480469
 20
46.0939960938
 10
117.5884628906
 20
46.0939960938
 10
117.1598925781
 20
46.5225664063
 10
116.9456074219
 20
46.9511367188
  0
LWPOLYLINE
  5
3C0
100
AcDbEntity
  8
0
100
AcDbPolyline
 62
2
  6
CONTINUOUS
 90
2
 70
0
 43
0.1500000038
 10
117.9455976563
 20
164.0808125
 10
117.9455976563
 20
165.5808085938
  0
LINE
  5
3C1
100
AcDbEntity
  8
7_ALL_FEATURES
100
AcDbLine
 62
7
  6
CONTINUOUS
 10
175.588455153
 20
150.3445205681
 11
175.6950610439
 21
150.4511264591
  0
LINE
  5
3C2
100
AcDbEntity
  8
7_ALL_FEATURES
100
AcDbLine
 62
3
  6
CONTINUOUS
 10
54.588455153
 20
118.55773235
 11
56.088455153
 21
118.55773235
  0
LINE
  5
3C3
100
AcDbEntity
  8
7_ALL_FEATURES
100
AcDbLine
 62
3
  6
CONTINUOUS
 10
176.088455153
 20
118.55773235
 11
177.588455153
 21
118.55773235
  0
LINE
  5
3C4
100
AcDbEntity
  8
7_ALL_FEATURES
100
AcDbLine
 62
7
  6
CONTINUOUS
 10
175.588455153
 20
73.0520139417
 11
175.838455153
 21
72.7038318215
  0
LINE
  5
3C5
100
AcDbEntity
  8
7_ALL_FEATURES
100
AcDbLine
 62
3
  6
CONTINUOUS
 10
177.588455153
 20
118.55773235
 11
178.088455153
 21
119.05773235
  0
LWPOLYLINE
  5
3C6
100
AcDbEntity
  8
0
100
AcDbPolyline
 62
2
  6
CONTINUOUS
 90
3
 70
0
 43
0.1500000038
 10
112.8741679688
 20
48.2368530273
 10
113.7313085938
 20
49.0939936523
 10
113.7313085938
 20
46.0939960938
  0
LINE
  5
3C7
100
AcDbEntity
  8
7_ALL_FEATURES
100
AcDbLine
 62
7
  6
CONTINUOUS
 10
175.588455153
 20
150.3445205681
 11
56.588455153
 21
150.3445205681
  0
LINE
  5
3C8
100
AcDbEntity
  8
7_ALL_FEATURES
100
AcDbLine
 62
7
  6
CONTINUOUS
 10
175.888455153
 20
150.55773235
 11
56.288455153
 21
150.55773235
  0
LINE
  5
3C9
100
AcDbEntity
  8
7_ALL_FEATURES
100
AcDbLine
 62
3
  6
CONTINUOUS
 10
177.588455153
 20
152.55773235
 11
54.588455153
 21
152.55773235
  0
LINE
  5
3CA
100
AcDbEntity
  8
7_ALL_FEATURES
100
AcDbLine
 62
7
  6
CONTINUOUS
 10
175.588455153
 20
55.7219330472
 11
175.588455153
 21
72.3556497014
  0
LINE
  5
3CB
100
AcDbEntity
  8
7_ALL_FEATURES
100
AcDbLine
 62
7
  6
CONTINUOUS
 10
175.588455153
 20
73.0520139417
 11
175.588455153
 21
150.3445205681
  0
LINE
  5
3CC
100
AcDbEntity
  8
7_ALL_FEATURES
100
AcDbLine
 62
7
  6
CONTINUOUS
 10
176.088455153
 20
56.1315090693
 11
176.088455153
 21
150.35773235
  0
LINE
  5
3CD
100
AcDbEntity
  8
7_ALL_FEATURES
100
AcDbLine
 62
3
  6
CONTINUOUS
 10
178.088455153
 20
119.05773235
 11
178.088455153
 21
152.05773235
  0
LWPOLYLINE
  5
3CE
100
AcDbEntity
  8
0
100
AcDbPolyline
 62
2
  6
CONTINUOUS
 90
7
 70
0
 43
0.1500000038
 10
116.0884453125
 20
164.0808125
 10
114.5884492188
 20
164.0808125
 10
116.0884453125
 20
166.2236640625
 10
116.0884453125
 20
166.652234375
 10
115.659875
 20
167.0808046875
 10
115.0170195313
 20
167.0808046875
 10
114.5884492188
 20
166.4379492188
  0
LWPOLYLINE
  5
3CF
100
AcDbEntity
  8
0
100
AcDbPolyline
 62
2
  6
CONTINUOUS
 90
3
 70
0
 43
0.1500000038
 10
118.4456035156
 20
164.7236679688
 10
116.9456074219
 20
164.7236679688
 10
117.5884628906
 20
167.0808046875
  0
LINE
  5
3D0
100
AcDbEntity
  8
7_ALL_FEATURES
100
AcDbLine
 62
7
  6
CONTINUOUS
 10
175.838455153
 20
72.7038318215
 11
175.588455153
 21
72.3556497014
  0
LINE
  5
3D1
100
AcDbEntity
  8
7_ALL_FEATURES
100
AcDbLine
 62
7
  6
CONTINUOUS
 10
176.088455153
 20
56.1315090693
 11
175.838455153
 21
55.7833269492
  0
LINE
  5
3D2
100
AcDbEntity
  8
7_ALL_FEATURES
100
AcDbLine
 62
7
  6
CONTINUOUS
 10
175.588455153
 20
150.55773235
 11
176.088455153
 21
150.05773235
  0
LINE
  5
3D3
100
AcDbEntity
  8
7_ALL_FEATURES
100
AcDbLine
 62
7
  6
CONTINUOUS
 10
176.088455153
 20
150.35773235
 11
175.888455153
 21
150.55773235
  0
LINE
  5
3D4
100
AcDbEntity
  8
7_ALL_FEATURES
100
AcDbLine
 62
3
  6
CONTINUOUS
 10
178.088455153
 20
152.05773235
 11
177.588455153
 21
152.55773235
  0
LINE
  5
3D5
100
AcDbEntity
  8
7_ALL_FEATURES
100
AcDbLine
 62
7
  6
CONTINUOUS
 10
54.088455153
 20
246.7069210962
 11
178.088455153
 21
246.7069210962
  0
LINE
  5
3D6
100
AcDbEntity
  8
7_ALL_FEATURES
100
AcDbLine
 62
3
  6
CONTINUOUS
 10
54.088455153
 20
250.7069210962
 11
178.088455153
 21
250.7069210962
  0
LINE
  5
3D7
100
AcDbEntity
  8
7_ALL_FEATURES
100
AcDbLine
 62
7
  6
CONTINUOUS
 10
56.088455153
 20
545.6844448745
 11
56.338455153
 21
546.0326269947
  0
LINE
  5
3D8
100
AcDbEntity
  8
7_ALL_FEATURES
100
AcDbLine
 62
7
  6
CONTINUOUS
 10
68.713455153
 20
519.5815274632
 11
67.713455153
 21
519.0079510268
  0
LINE
  5
3D9
100
AcDbEntity
  8
7_ALL_FEATURES
100
AcDbLine
 62
7
  6
CONTINUOUS
 10
80.3667673165
 20
264.4569210962
 11
81.8101429895
 21
264.4569210962
  0
LINE
  5
3DA
100
AcDbEntity
  8
7_ALL_FEATURES
100
AcDbLine
 62
7
  6
CONTINUOUS
 10
150.3667673165
 20
264.4569210962
 11
151.8101429895
 21
264.4569210962
  0
LINE
  5
3DB
100
AcDbEntity
  8
7_ALL_FEATURES
100
AcDbLine
 62
7
  6
CONTINUOUS
 10
151.8101429895
 20
266.9569210962
 11
150.3667673165
 21
266.9569210962
  0
LINE
  5
3DC
100
AcDbEntity
  8
7_ALL_FEATURES
100
AcDbLine
 62
7
  6
CONTINUOUS
 10
81.8101429895
 20
266.9569210962
 11
80.3667673165
 21
266.9569210962
  0
LINE
  5
3DD
100
AcDbEntity
  8
7_ALL_FEATURES
100
AcDbLine
 62
7
  6
CONTINUOUS
 10
56.338455153
 20
521.8676416881
 11
56.588455153
 21
522.2158238083
  0
LINE
  5
3DE
100
AcDbEntity
  8
7_ALL_FEATURES
100
AcDbLine
 62
9
  6
CONTINUOUS
 10
66.588455153
 20
518.049322128
 11
67.088455153
 21
518.4588981502
  0
LINE
  5
3DF
100
AcDbEntity
  8
7_ALL_FEATURES
100
AcDbLine
 62
9
  6
CONTINUOUS
 10
66.588455153
 20
506.6351510447
 11
67.088455153
 21
507.0447270668
  0
LINE
  5
3E0
100
AcDbEntity
  8
7_ALL_FEATURES
100
AcDbLine
 62
7
  6
CONTINUOUS
 10
56.588455153
 20
476.2973450741
 11
56.5432431641
 21
476.2521330852
  0
LINE
  5
3E1
100
AcDbEntity
  8
7_ALL_FEATURES
100
AcDbLine
 62
7
  6
CONTINUOUS
 10
79.64507948
 20
265.7069210962
 11
80.3667673165
 21
264.4569210962
  0
LINE
  5
3E2
100
AcDbEntity
  8
7_ALL_FEATURES
100
AcDbLine
 62
7
  6
CONTINUOUS
 10
82.531830826
 20
265.7069210962
 11
81.8101429895
 21
266.9569210962
  0
LINE
  5
3E3
100
AcDbEntity
  8
7_ALL_FEATURES
100
AcDbLine
 62
7
  6
CONTINUOUS
 10
163.463455153
 20
505.5289047726
 11
164.463455153
 21
506.1024812089
  0
LINE
  5
3E4
100
AcDbEntity
  8
7_ALL_FEATURES
100
AcDbLine
 62
7
  6
CONTINUOUS
 10
54.088455153
 20
246.7069210962
 11
54.088455153
 21
250.7069210962
  0
LINE
  5
3E5
100
AcDbEntity
  8
7_ALL_FEATURES
100
AcDbLine
 62
7
  6
CONTINUOUS
 10
54.588455153
 20
246.7069210962
 11
54.588455153
 21
250.7069210962
  0
LINE
  5
3E6
100
AcDbEntity
  8
7_ALL_FEATURES
100
AcDbLine
 62
7
  6
CONTINUOUS
 10
56.088455153
 20
475.7069210962
 11
56.088455153
 21
250.7069210962
  0
LINE
  5
3E7
100
AcDbEntity
  8
7_ALL_FEATURES
100
AcDbLine
 62
7
  6
CONTINUOUS
 10
56.088455153
 20
476.7069210962
 11
56.088455153
 21
545.6844448745
  0
LINE
  5
3E8
100
AcDbEntity
  8
7_ALL_FEATURES
100
AcDbLine
 62
7
  6
CONTINUOUS
 10
56.288455153
 20
475.7069210962
 11
56.288455153
 21
250.7069210962
  0
LINE
  5
3E9
100
AcDbEntity
  8
7_ALL_FEATURES
100
AcDbLine
 62
7
  6
CONTINUOUS
 10
56.588455153
 20
521.519459568
 11
56.588455153
 21
476.2973450741
  0
LINE
  5
3EA
100
AcDbEntity
  8
7_ALL_FEATURES
100
AcDbLine
 62
7
  6
CONTINUOUS
 10
56.588455153
 20
522.2158238083
 11
56.588455153
 21
545.9712330927
  0
LINE
  5
3EB
100
AcDbEntity
  8
7_ALL_FEATURES
100
AcDbLine
 62
7
  6
CONTINUOUS
 10
56.838455153
 20
476.2069210962
 11
56.838455153
 21
475.7069210962
  0
LINE
  5
3EC
100
AcDbEntity
  8
7_ALL_FEATURES
100
AcDbLine
 62
7
  6
CONTINUOUS
 10
66.588455153
 20
506.6351510447
 11
66.588455153
 21
518.049322128
  0
LINE
  5
3ED
100
AcDbEntity
  8
7_ALL_FEATURES
100
AcDbLine
 62
7
  6
CONTINUOUS
 10
67.088455153
 20
507.0447270668
 11
67.088455153
 21
518.4588981502
  0
LINE
  5
3EE
100
AcDbEntity
  8
7_ALL_FEATURES
100
AcDbLine
 62
7
  6
CONTINUOUS
 10
67.713455153
 20
506.1024812089
 11
67.713455153
 21
519.4687598581
  0
LINE
  5
3EF
100
AcDbEntity
  8
7_ALL_FEATURES
100
AcDbLine
 62
7
  6
CONTINUOUS
 10
68.713455153
 20
519.5815274632
 11
68.713455153
 21
519.8166339085
  0
LINE
  5
3F0
100
AcDbEntity
  8
7_ALL_FEATURES
100
AcDbLine
 62
9
  6
CONTINUOUS
 10
69.888455153
 20
504.7423488047
 11
69.888455153
 21
505.5289047726
  0
LINE
  5
3F1
100
AcDbEntity
  8
7_ALL_FEATURES
100
AcDbLine
 62
7
  6
CONTINUOUS
 10
149.64507948
 20
265.7069210962
 11
150.3667673165
 21
264.4569210962
  0
LINE
  5
3F2
100
AcDbEntity
  8
7_ALL_FEATURES
100
AcDbLine
 62
7
  6
CONTINUOUS
 10
152.531830826
 20
265.7069210962
 11
151.8101429895
 21
266.9569210962
  0
LINE
  5
3F3
100
AcDbEntity
  8
7_ALL_FEATURES
100
AcDbLine
 62
7
  6
CONTINUOUS
 10
175.838455153
 20
521.8676416881
 11
175.588455153
 21
521.519459568
  0
LINE
  5
3F4
100
AcDbEntity
  8
7_ALL_FEATURES
100
AcDbLine
 62
7
  6
CONTINUOUS
 10
175.588455153
 20
476.2069210962
 11
176.088455153
 21
476.7069210962
  0
LWPOLYLINE
  5
3F5
100
AcDbEntity
  8
0
100
AcDbPolyline
 62
2
  6
CONTINUOUS
 90
13
 70
0
 43
0.1500000038
 10
200.5528691406
 20
395.1147578125
 10
199.2671582031
 20
395.1147578125
 10
198.8385878906
 20
395.3290429688
 10
198.4100175781
 20
395.7576132813
 10
198.4100175781
 20
395.9718984375
 10
198.8385878906
 20
396.40046875
 10
199.2671582031
 20
396.6147539063
 10
200.5528691406
 20
396.6147539063
 10
200.9814394531
 20
396.40046875
 10
201.4100097656
 20
395.9718984375
 10
201.4100097656
 20
395.7576132813
 10
200.9814394531
 20
395.3290429688
 10
200.5528691406
 20
395.1147578125
  0
LWPOLYLINE
  5
3F6
100
AcDbEntity
  8
0
100
AcDbPolyline
 62
2
  6
CONTINUOUS
 90
13
 70
0
 43
0.1500000038
 10
200.5528691406
 20
397.4718945313
 10
199.2671582031
 20
397.4718945313
 10
198.8385878906
 20
397.6861796875
 10
198.4100175781
 20
398.11475
 10
198.4100175781
 20
398.3290351563
 10
198.8385878906
 20
398.7576054688
 10
199.2671582031
 20
398.971890625
 10
200.5528691406
 20
398.971890625
 10
200.9814394531
 20
398.7576054688
 10
201.4100097656
 20
398.3290351563
 10
201.4100097656
 20
398.11475
 10
200.9814394531
 20
397.6861796875
 10
200.5528691406
 20
397.4718945313
  0
LINE
  5
3F7
100
AcDbEntity
  8
7_ALL_FEATURES
100
AcDbLine
 62
7
  6
CONTINUOUS
 10
56.588455153
 20
476.2069210962
 11
56.088455153
 21
476.7069210962
  0
LINE
  5
3F8
100
AcDbEntity
  8
7_ALL_FEATURES
100
AcDbLine
 62
7
  6
CONTINUOUS
 10
80.3667673165
 20
266.9569210962
 11
79.64507948
 21
265.7069210962
  0
LINE
  5
3F9
100
AcDbEntity
  8
7_ALL_FEATURES
100
AcDbLine
 62
7
  6
CONTINUOUS
 10
56.588455153
 20
521.519459568
 11
56.338455153
 21
521.8676416881
  0
LINE
  5
3FA
100
AcDbEntity
  8
7_ALL_FEATURES
100
AcDbLine
 62
7
  6
CONTINUOUS
 10
81.8101429895
 20
264.4569210962
 11
82.531830826
 21
265.7069210962
  0
LINE
  5
3FB
100
AcDbEntity
  8
7_ALL_FEATURES
100
AcDbLine
 62
9
  6
CONTINUOUS
 10
162.288455153
 20
504.7423488047
 11
162.288455153
 21
505.5289047726
  0
LINE
  5
3FC
100
AcDbEntity
  8
7_ALL_FEATURES
100
AcDbLine
 62
7
  6
CONTINUOUS
 10
163.463455153
 20
519.5815274632
 11
163.463455153
 21
519.8166339087
  0
LINE
  5
3FD
100
AcDbEntity
  8
7_ALL_FEATURES
100
AcDbLine
 62
7
  6
CONTINUOUS
 10
164.463455153
 20
506.1024812089
 11
164.463455153
 21
519.4687598588
  0
LINE
  5
3FE
100
AcDbEntity
  8
7_ALL_FEATURES
100
AcDbLine
 62
7
  6
CONTINUOUS
 10
165.088455153
 20
518.4588981502
 11
165.088455153
 21
507.0447270668
  0
LINE
  5
3FF
100
AcDbEntity
  8
7_ALL_FEATURES
100
AcDbLine
 62
7
  6
CONTINUOUS
 10
165.588455153
 20
518.049322128
 11
165.588455153
 21
506.6351510447
  0
LINE
  5
400
100
AcDbEntity
  8
7_ALL_FEATURES
100
AcDbLine
 62
7
  6
CONTINUOUS
 10
175.338455153
 20
476.2069210962
 11
175.338455153
 21
475.7069210962
  0
LINE
  5
401
100
AcDbEntity
  8
7_ALL_FEATURES
100
AcDbLine
 62
7
  6
CONTINUOUS
 10
175.588455153
 20
476.2973450741
 11
175.588455153
 21
521.519459568
  0
LINE
  5
402
100
AcDbEntity
  8
7_ALL_FEATURES
100
AcDbLine
 62
7
  6
CONTINUOUS
 10
175.588455153
 20
522.2158238083
 11
175.588455153
 21
545.9712330927
  0
LINE
  5
403
100
AcDbEntity
  8
7_ALL_FEATURES
100
AcDbLine
 62
7
  6
CONTINUOUS
 10
175.888455153
 20
475.7069210962
 11
175.888455153
 21
250.7069210962
  0
LINE
  5
404
100
AcDbEntity
  8
7_ALL_FEATURES
100
AcDbLine
 62
7
  6
CONTINUOUS
 10
176.088455153
 20
475.7069210962
 11
176.088455153
 21
250.7069210962
  0
LINE
  5
405
100
AcDbEntity
  8
7_ALL_FEATURES
100
AcDbLine
 62
7
  6
CONTINUOUS
 10
176.088455153
 20
476.7069210962
 11
176.088455153
 21
545.6844448745
  0
LINE
  5
406
100
AcDbEntity
  8
7_ALL_FEATURES
100
AcDbLine
 62
7
  6
CONTINUOUS
 10
177.588455153
 20
246.7069210962
 11
177.588455153
 21
250.7069210962
  0
LINE
  5
407
100
AcDbEntity
  8
7_ALL_FEATURES
100
AcDbLine
 62
7
  6
CONTINUOUS
 10
178.088455153
 20
246.7069210962
 11
178.088455153
 21
250.7069210962
  0
LINE
  5
408
100
AcDbEntity
  8
7_ALL_FEATURES
100
AcDbLine
 62
7
  6
CONTINUOUS
 10
67.713455153
 20
506.1024812089
 11
68.713455153
 21
505.5289047726
  0
LWPOLYLINE
  5
409
100
AcDbEntity
  8
0
100
AcDbPolyline
 62
2
  6
CONTINUOUS
 90
5
 70
0
 43
0.1500000038
 10
199.6957285156
 20
393.829046875
 10
199.4814433594
 20
394.186203125
 10
198.8385878906
 20
394.186203125
 10
198.4100175781
 20
393.829046875
 10
198.4100175781
 20
392.97190625
  0
LWPOLYLINE
  5
40A
100
AcDbEntity
  8
0
100
AcDbPolyline
 62
2
  6
CONTINUOUS
 90
6
 70
0
 43
0.1500000038
 10
201.4100097656
 20
392.97190625
 10
201.4100097656
 20
394.0433320313
 10
201.1957246094
 20
394.2576171875
 10
200.1242988281
 20
394.2576171875
 10
199.6957285156
 20
393.829046875
 10
199.6957285156
 20
393.4004765625
  0
LINE
  5
40B
100
AcDbEntity
  8
7_ALL_FEATURES
100
AcDbLine
 62
7
  6
CONTINUOUS
 10
56.088455153
 20
475.7069210962
 11
176.088455153
 21
475.7069210962
  0
LINE
  5
40C
100
AcDbEntity
  8
7_ALL_FEATURES
100
AcDbLine
 62
7
  6
CONTINUOUS
 10
56.588455153
 20
476.2069210962
 11
175.588455153
 21
476.2069210962
  0
LINE
  5
40D
100
AcDbEntity
  8
7_ALL_FEATURES
100
AcDbLine
 62
7
  6
CONTINUOUS
 10
56.588455153
 20
476.2973450741
 11
175.588455153
 21
476.2973450741
  0
LINE
  5
40E
100
AcDbEntity
  8
7_ALL_FEATURES
100
AcDbLine
 62
7
  6
CONTINUOUS
 10
150.3667673165
 20
266.9569210962
 11
149.64507948
 21
265.7069210962
  0
LINE
  5
40F
100
AcDbEntity
  8
7_ALL_FEATURES
100
AcDbLine
 62
7
  6
CONTINUOUS
 10
151.8101429895
 20
264.4569210962
 11
152.531830826
 21
265.7069210962
  0
LINE
  5
410
100
AcDbEntity
  8
7_ALL_FEATURES
100
AcDbLine
 62
7
  6
CONTINUOUS
 10
175.6336671419
 20
476.2521330852
 11
175.588455153
 21
476.2973450741
  0
LINE
  5
411
100
AcDbEntity
  8
7_ALL_FEATURES
100
AcDbLine
 62
7
  6
CONTINUOUS
 10
176.088455153
 20
521.9290355901
 11
175.838455153
 21
521.8676416881
  0
LINE
  5
412
100
AcDbEntity
  8
7_ALL_FEATURES
100
AcDbLine
 62
7
  6
CONTINUOUS
 10
162.288455153
 20
504.7423488047
 11
69.888455153
 21
504.7423488047
  0
LINE
  5
413
100
AcDbEntity
  8
7_ALL_FEATURES
100
AcDbLine
 62
7
  6
CONTINUOUS
 10
162.288455153
 20
505.438713045
 11
69.888455153
 21
505.438713045
  0
LINE
  5
414
100
AcDbEntity
  8
7_ALL_FEATURES
100
AcDbLine
 62
7
  6
CONTINUOUS
 10
68.713455153
 20
505.5289047726
 11
163.463455153
 21
505.5289047726
  0
LINE
  5
415
100
AcDbEntity
  8
7_ALL_FEATURES
100
AcDbLine
 62
7
  6
CONTINUOUS
 10
56.088455153
 20
521.9290355901
 11
56.338455153
 21
521.8676416881
  0
LINE
  5
416
100
AcDbEntity
  8
7_ALL_FEATURES
100
AcDbLine
 62
9
  6
CONTINUOUS
 10
165.588455153
 20
506.6351510447
 11
165.088455153
 21
507.0447270668
  0
LINE
  5
417
100
AcDbEntity
  8
7_ALL_FEATURES
100
AcDbLine
 62
7
  6
CONTINUOUS
 10
175.838455153
 20
546.0326269947
 11
175.588455153
 21
545.9712330927
  0
LINE
  5
418
100
AcDbEntity
  8
7_ALL_FEATURES
100
AcDbLine
 62
7
  6
CONTINUOUS
 10
163.463455153
 20
519.5815274632
 11
68.713455153
 21
519.5815274632
  0
LINE
  5
419
100
AcDbEntity
  8
7_ALL_FEATURES
100
AcDbLine
 62
7
  6
CONTINUOUS
 10
69.888455153
 20
519.942124368
 11
162.288455153
 21
519.942124368
  0
LINE
  5
41A
100
AcDbEntity
  8
7_ALL_FEATURES
100
AcDbLine
 62
7
  6
CONTINUOUS
 10
175.588455153
 20
521.519459568
 11
56.588455153
 21
521.519459568
  0
LINE
  5
41B
100
AcDbEntity
  8
7_ALL_FEATURES
100
AcDbLine
 62
7
  6
CONTINUOUS
 10
175.588455153
 20
522.2158238083
 11
56.588455153
 21
522.2158238083
  0
LINE
  5
41C
100
AcDbEntity
  8
7_ALL_FEATURES
100
AcDbLine
 62
7
  6
CONTINUOUS
 10
56.588455153
 20
545.9712330927
 11
56.338455153
 21
546.0326269947
  0
LINE
  5
41D
100
AcDbEntity
  8
7_ALL_FEATURES
100
AcDbLine
 62
7
  6
CONTINUOUS
 10
164.463455153
 20
519.0079510268
 11
163.463455153
 21
519.5815274632
  0
LINE
  5
41E
100
AcDbEntity
  8
7_ALL_FEATURES
100
AcDbLine
 62
9
  6
CONTINUOUS
 10
165.588455153
 20
518.049322128
 11
165.088455153
 21
518.4588981502
  0
LINE
  5
41F
100
AcDbEntity
  8
7_ALL_FEATURES
100
AcDbLine
 62
7
  6
CONTINUOUS
 10
175.588455153
 20
522.2158238083
 11
175.838455153
 21
521.8676416881
  0
LINE
  5
420
100
AcDbEntity
  8
7_ALL_FEATURES
100
AcDbLine
 62
7
  6
CONTINUOUS
 10
176.088455153
 20
545.6844448745
 11
175.838455153
 21
546.0326269947
  0
LINE
  5
421
100
AcDbEntity
  8
7_ALL_FEATURES
100
AcDbLine
 62
7
  6
CONTINUOUS
 10
56.338455153
 20
546.0326269947
 11
56.588455153
 21
546.0940208966
  0
LINE
  5
422
100
AcDbEntity
  8
7_ALL_FEATURES
100
AcDbLine
 62
7
  6
CONTINUOUS
 10
56.588455153
 20
545.9712330927
 11
175.588455153
 21
545.9712330927
  0
LINE
  5
423
100
AcDbEntity
  8
7_ALL_FEATURES
100
AcDbLine
 62
7
  6
CONTINUOUS
 10
56.588455153
 20
546.0940208966
 11
175.588455153
 21
546.0940208966
  0
LINE
  5
424
100
AcDbEntity
  8
7_ALL_FEATURES
100
AcDbLine
 62
7
  6
CONTINUOUS
 10
175.588455153
 20
546.0940208966
 11
175.838455153
 21
546.0326269947
  0
LWPOLYLINE
  5
425
100
AcDbEntity
  8
0
100
AcDbPolyline
 62
2
  6
CONTINUOUS
 90
6
 70
0
 43
0.1500000038
 10
266.8761015625
 20
236.2792265625
 10
267.9475273438
 20
236.2792265625
 10
268.1618125
 20
236.4935117188
 10
268.1618125
 20
237.5649375
 10
267.7332421875
 20
237.9935078125
 10
267.304671875
 20
237.9935078125
  0
LWPOLYLINE
  5
426
100
AcDbEntity
  8
0
100
AcDbPolyline
 62
2
  6
CONTINUOUS
 90
3
 70
0
 43
0.1500000038
 10
270.5189492188
 20
236.9220820313
 10
269.018953125
 20
236.9220820313
 10
269.6618085938
 20
239.27921875
  0
LINE
  5
427
100
AcDbEntity
  8
7_ALL_FEATURES
100
AcDbLine
 62
7
  6
CONTINUOUS
 10
252.1260994332
 20
246.7069210962
 11
286.1260994332
 21
246.7069210962
  0
LINE
  5
428
100
AcDbEntity
  8
7_ALL_FEATURES
100
AcDbLine
 62
3
  6
CONTINUOUS
 10
252.1260994332
 20
250.7069210962
 11
286.1260994332
 21
250.7069210962
  0
LWPOLYLINE
  5
429
100
AcDbEntity
  8
0
100
AcDbPolyline
 62
2
  6
CONTINUOUS
 90
10
 70
0
 43
0.1500000038
 10
298.758828125
 20
560.3079453125
 10
299.61596875
 20
561.1650859375
 10
299.8302539063
 20
562.0222265625
 10
299.8302539063
 20
562.8793671875
 10
299.4016835938
 20
563.3079375
 10
298.758828125
 20
563.3079375
 10
298.3302578125
 20
562.8793671875
 10
298.3302578125
 20
562.0222265625
 10
298.758828125
 20
561.59365625
 10
299.6873828125
 20
561.59365625
  0
LINE
  5
42A
100
AcDbEntity
  8
7_ALL_FEATURES
100
AcDbLine
 62
7
  6
CONTINUOUS
 10
331.6318178415
 20
546.0940208966
 11
254.3393112151
 21
491.9732251097
  0
LINE
  5
42B
100
AcDbEntity
  8
7_ALL_FEATURES
100
AcDbLine
 62
7
  6
CONTINUOUS
 10
331.9186060597
 20
545.6844448745
 11
254.6260994332
 21
491.5636490875
  0
LINE
  5
42C
100
AcDbEntity
  8
7_ALL_FEATURES
100
AcDbLine
 62
7
  6
CONTINUOUS
 10
254.1260994332
 20
491.5636490875
 11
254.3393112151
 21
491.9732251097
  0
LINE
  5
42D
100
AcDbEntity
  8
7_ALL_FEATURES
100
AcDbLine
 62
7
  6
CONTINUOUS
 10
254.3760994332
 20
476.4569210962
 11
254.6260994332
 21
476.7069210962
  0
LINE
  5
42E
100
AcDbEntity
  8
7_ALL_FEATURES
100
AcDbLine
 62
7
  6
CONTINUOUS
 10
348.5523227139
 20
521.9290355901
 11
283.9684500388
 21
476.7069210962
  0
LINE
  5
42F
100
AcDbEntity
  8
7_ALL_FEATURES
100
AcDbLine
 62
7
  6
CONTINUOUS
 10
348.8391109321
 20
521.519459568
 11
284.255238257
 21
476.2973450741
  0
LINE
  5
430
100
AcDbEntity
  8
7_ALL_FEATURES
100
AcDbLine
 62
7
  6
CONTINUOUS
 10
283.9684500388
 20
476.2069210962
 11
284.255238257
 21
476.2973450741
  0
LINE
  5
431
100
AcDbEntity
  8
7_ALL_FEATURES
100
AcDbLine
 62
7
  6
CONTINUOUS
 10
252.1260994332
 20
246.7069210962
 11
252.1260994332
 21
250.7069210962
  0
LINE
  5
432
100
AcDbEntity
  8
7_ALL_FEATURES
100
AcDbLine
 62
7
  6
CONTINUOUS
 10
252.6260994332
 20
246.7069210962
 11
252.6260994332
 21
250.7069210962
  0
LINE
  5
433
100
AcDbEntity
  8
7_ALL_FEATURES
100
AcDbLine
 62
7
  6
CONTINUOUS
 10
254.1260994332
 20
491.5636490875
 11
254.1260994332
 21
476.7069210962
  0
LINE
  5
434
100
AcDbEntity
  8
7_ALL_FEATURES
100
AcDbLine
 62
7
  6
CONTINUOUS
 10
254.1260994332
 20
475.7069210962
 11
254.1260994332
 21
250.7069210962
  0
LINE
  5
435
100
AcDbEntity
  8
7_ALL_FEATURES
100
AcDbLine
 62
7
  6
CONTINUOUS
 10
254.3260994332
 20
475.7069210962
 11
254.3260994332
 21
250.7069210962
  0
LINE
  5
436
100
AcDbEntity
  8
7_ALL_FEATURES
100
AcDbLine
 62
7
  6
CONTINUOUS
 10
254.6260994332
 20
491.5636490875
 11
254.6260994332
 21
476.7069210962
  0
LINE
  5
437
100
AcDbEntity
  8
7_ALL_FEATURES
100
AcDbLine
 62
7
  6
CONTINUOUS
 10
255.047274736
 20
476.2069210962
 11
255.047274736
 21
475.7069210962
  0
LWPOLYLINE
  5
438
100
AcDbEntity
  8
0
100
AcDbPolyline
 62
2
  6
CONTINUOUS
 90
2
 70
0
 43
0.1500000038
 10
270.0189648438
 20
236.2792265625
 10
270.0189648438
 20
237.7792226563
  0
LINE
  5
439
100
AcDbEntity
  8
7_ALL_FEATURES
100
AcDbLine
 62
7
  6
CONTINUOUS
 10
283.547274736
 20
476.2069210962
 11
283.547274736
 21
475.7069210962
  0
LINE
  5
43A
100
AcDbEntity
  8
7_ALL_FEATURES
100
AcDbLine
 62
7
  6
CONTINUOUS
 10
283.9260994332
 20
475.7069210962
 11
283.9260994332
 21
250.7069210962
  0
LINE
  5
43B
100
AcDbEntity
  8
7_ALL_FEATURES
100
AcDbLine
 62
7
  6
CONTINUOUS
 10
284.1260994332
 20
475.7069210962
 11
284.1260994332
 21
250.7069210962
  0
LINE
  5
43C
100
AcDbEntity
  8
7_ALL_FEATURES
100
AcDbLine
 62
7
  6
CONTINUOUS
 10
285.6260994332
 20
246.7069210962
 11
285.6260994332
 21
250.7069210962
  0
LINE
  5
43D
100
AcDbEntity
  8
7_ALL_FEATURES
100
AcDbLine
 62
7
  6
CONTINUOUS
 10
286.1260994332
 20
246.7069210962
 11
286.1260994332
 21
250.7069210962
  0
LWPOLYLINE
  5
43E
100
AcDbEntity
  8
0
100
AcDbPolyline
 62
2
  6
CONTINUOUS
 90
4
 70
0
 43
0.1500000038
 10
300.6873945313
 20
562.6650820313
 10
300.6873945313
 20
563.3079375
 10
302.187390625
 20
563.3079375
 10
301.33025
 20
560.3079453125
  0
LINE
  5
43F
100
AcDbEntity
  8
7_ALL_FEATURES
100
AcDbLine
 62
7
  6
CONTINUOUS
 10
331.9186060597
 20
545.6844448745
 11
331.9799999617
 21
546.0326269947
  0
LINE
  5
440
100
AcDbEntity
  8
7_ALL_FEATURES
100
AcDbLine
 62
7
  6
CONTINUOUS
 10
284.1118441479
 20
476.2521330852
 11
283.9684500388
 21
476.7069210962
  0
LINE
  5
441
100
AcDbEntity
  8
7_ALL_FEATURES
100
AcDbLine
 62
7
  6
CONTINUOUS
 10
348.8391109321
 20
521.519459568
 11
348.961898736
 21
522.2158238083
  0
LINE
  5
442
100
AcDbEntity
  8
7_ALL_FEATURES
100
AcDbLine
 62
7
  6
CONTINUOUS
 10
254.6260994332
 20
476.2069210962
 11
254.1260994332
 21
476.7069210962
  0
LINE
  5
443
100
AcDbEntity
  8
7_ALL_FEATURES
100
AcDbLine
 62
7
  6
CONTINUOUS
 10
254.6260994332
 20
491.5636490875
 11
254.2327053242
 21
491.7684370986
  0
LINE
  5
444
100
AcDbEntity
  8
7_ALL_FEATURES
100
AcDbLine
 62
7
  6
CONTINUOUS
 10
254.1260994332
 20
475.7069210962
 11
284.1260994332
 21
475.7069210962
  0
LINE
  5
445
100
AcDbEntity
  8
7_ALL_FEATURES
100
AcDbLine
 62
7
  6
CONTINUOUS
 10
254.6260994332
 20
476.2069210962
 11
283.9684500388
 21
476.2069210962
  0
LINE
  5
446
100
AcDbEntity
  8
7_ALL_FEATURES
100
AcDbLine
 62
7
  6
CONTINUOUS
 10
254.6260994332
 20
476.7069210962
 11
283.9684500388
 21
476.7069210962
  0
LINE
  5
447
100
AcDbEntity
  8
7_ALL_FEATURES
100
AcDbLine
 62
7
  6
CONTINUOUS
 10
348.5523227139
 20
521.9290355901
 11
331.9186060597
 21
545.6844448745
  0
LINE
  5
448
100
AcDbEntity
  8
7_ALL_FEATURES
100
AcDbLine
 62
7
  6
CONTINUOUS
 10
348.961898736
 20
522.2158238083
 11
332.3281820819
 21
545.9712330927
  0
LWPOLYLINE
  5
449
100
AcDbEntity
  8
0
100
AcDbPolyline
 62
2
  6
CONTINUOUS
 90
5
 70
0
 43
0.1500000038
 10
267.7332421875
 20
237.9935078125
 10
268.0903984375
 20
238.2077929688
 10
268.0903984375
 20
238.8506484375
 10
267.7332421875
 20
239.27921875
 10
266.8761015625
 20
239.27921875
  0
LINE
  5
44A
100
AcDbEntity
  8
7_ALL_FEATURES
100
AcDbLine
 62
7
  6
CONTINUOUS
 10
348.5523227139
 20
521.9290355901
 11
348.9005048341
 21
521.8676416881
  0
LINE
  5
44B
100
AcDbEntity
  8
7_ALL_FEATURES
100
AcDbLine
 62
7
  6
CONTINUOUS
 10
332.3281820819
 20
545.9712330927
 11
331.6318178415
 21
546.0940208966
  0
CIRCLE
  5
44C
100
AcDbEntity
  8
7_ALL_FEATURES
100
AcDbCircle
 62
7
  6
CONTINUOUS
 10
81.088455153
 20
265.7069210962
 40
4.35
  0
CIRCLE
  5
44D
100
AcDbEntity
  8
7_ALL_FEATURES
100
AcDbCircle
 62
7
  6
CONTINUOUS
 10
151.088455153
 20
265.7069210962
 40
4.35
  0
CIRCLE
  5
44E
100
AcDbEntity
  8
02___PRT_ALL_AXES
100
AcDbCircle
 62
7
  6
CONTINUOUS
 10
81.088455153
 20
265.7069210962
 40
4.0
  0
CIRCLE
  5
44F
100
AcDbEntity
  8
02___PRT_ALL_AXES
100
AcDbCircle
 62
7
  6
CONTINUOUS
 10
151.088455153
 20
265.7069210962
 40
4.0
  0
SPLINE
  5
450
100
AcDbEntity
  8
7_ALL_FEATURES
100
AcDbSpline
 62
7
  6
CONTINUOUS
 70
0
 71
3
 72
11
 73
7
 74
0
 42
0.0000001
 43
0.0000001
 44
0.0000000001
 40
0.0
 40
0.0
 40
0.0
 40
0.0
 40
0.2665667287
 40
0.5261598911
 40
0.7723746602
 40
1.0
 40
1.0
 40
1.0
 40
1.0
 10
162.288455153
 20
519.942124368
 30
0.0
 10
162.5060257768
 20
519.942124368
 30
0.0
 10
162.9358835507
 20
519.9178772332
 30
0.0
 10
163.558434728
 20
519.8096352628
 30
0.0
 10
164.1323645607
 20
519.6338984884
 30
0.0
 10
164.4840649627
 20
519.4684759573
 30
0.0
 10
164.6444397646
 20
519.3746853999
 30
0.0
  0
SPLINE
  5
451
100
AcDbEntity
  8
7_ALL_FEATURES
100
AcDbSpline
 62
7
  6
CONTINUOUS
 70
0
 71
3
 72
11
 73
7
 74
0
 42
0.0000001
 43
0.0000001
 44
0.0000000001
 40
0.0
 40
0.0
 40
0.0
 40
0.0
 40
0.2286977422
 40
0.4669063787
 40
0.7223438999
 40
1.0
 40
1.0
 40
1.0
 40
1.0
 10
67.088455153
 20
518.4588981502
 30
0.0
 10
67.088455153
 20
518.53761105
 30
0.0
 10
67.1095134244
 20
518.6989929864
 30
0.0
 10
67.2021317131
 20
518.9320630551
 30
0.0
 10
67.3523742269
 20
519.1530788556
 30
0.0
 10
67.4825248351
 20
519.2838531209
 30
0.0
 10
67.5547974688
 20
519.3463752419
 30
0.0
  0
SPLINE
  5
452
100
AcDbEntity
  8
7_ALL_FEATURES
100
AcDbSpline
 62
7
  6
CONTINUOUS
 70
0
 71
3
 72
9
 73
5
 74
0
 42
0.0000001
 43
0.0000001
 44
0.0000000001
 40
0.0
 40
0.0
 40
0.0
 40
0.0
 40
0.2444130248
 40
1.0
 40
1.0
 40
1.0
 40
1.0
 10
67.5547974688
 20
519.3463752419
 30
0.0
 10
67.5686042296
 20
519.3583192921
 30
0.0
 10
67.625794963
 20
519.4063737557
 30
0.0
 10
67.6856723321
 20
519.4512083068
 30
0.0
 10
67.7320708097
 20
519.4833392112
 30
0.0
  0
SPLINE
  5
453
100
AcDbEntity
  8
7_ALL_FEATURES
100
AcDbSpline
 62
7
  6
CONTINUOUS
 70
0
 71
3
 72
11
 73
7
 74
0
 42
0.0000001
 43
0.0000001
 44
0.0000000001
 40
0.0
 40
0.0
 40
0.0
 40
0.0
 40
0.2276253398
 40
0.4738401088
 40
0.7334332713
 40
1.0
 40
1.0
 40
1.0
 40
1.0
 10
67.5324705415
 20
519.3746853999
 30
0.0
 10
67.6928453433
 20
519.4684759573
 30
0.0
 10
68.0445457454
 20
519.6338984884
 30
0.0
 10
68.618475578
 20
519.8096352628
 30
0.0
 10
69.2410267553
 20
519.9178772332
 30
0.0
 10
69.6708845292
 20
519.942124368
 30
0.0
 10
69.888455153
 20
519.942124368
 30
0.0
  0
SPLINE
  5
454
100
AcDbEntity
  8
7_ALL_FEATURES
100
AcDbSpline
 62
7
  6
CONTINUOUS
 70
0
 71
3
 72
9
 73
5
 74
0
 42
0.0000001
 43
0.0000001
 44
0.0000000001
 40
0.0
 40
0.0
 40
0.0
 40
0.0
 40
0.2556820082
 40
1.0
 40
1.0
 40
1.0
 40
1.0
 10
164.4448395062
 20
519.4833392044
 30
0.0
 10
164.460540094
 20
519.4724665612
 30
0.0
 10
164.5214088165
 20
519.4291740657
 30
0.0
 10
164.5800670538
 20
519.3827485055
 30
0.0
 10
164.6221128372
 20
519.3463752419
 30
0.0
  0
SPLINE
  5
455
100
AcDbEntity
  8
7_ALL_FEATURES
100
AcDbSpline
 62
7
  6
CONTINUOUS
 70
0
 71
3
 72
11
 73
7
 74
0
 42
0.0000001
 43
0.0000001
 44
0.0000000001
 40
0.0
 40
0.0
 40
0.0
 40
0.0
 40
0.2776561001
 40
0.5330936213
 40
0.7713022578
 40
1.0
 40
1.0
 40
1.0
 40
1.0
 10
164.6221128372
 20
519.3463752419
 30
0.0
 10
164.694385471
 20
519.2838531209
 30
0.0
 10
164.8245360791
 20
519.1530788556
 30
0.0
 10
164.9747785929
 20
518.9320630551
 30
0.0
 10
165.0673968816
 20
518.6989929864
 30
0.0
 10
165.088455153
 20
518.53761105
 30
0.0
 10
165.088455153
 20
518.4588981502
 30
0.0
  0
SPLINE
  5
456
100
AcDbEntity
  8
7_ALL_FEATURES
100
AcDbSpline
 62
7
  6
CONTINUOUS
 70
0
 71
3
 72
13
 73
9
 74
0
 42
0.0000001
 43
0.0000001
 44
0.0000000001
 40
0.0
 40
0.0
 40
0.0
 40
0.0
 40
0.1081260508
 40
0.218278429
 40
0.3323079697
 40
0.4517446113
 40
0.7105897141
 40
1.0
 40
1.0
 40
1.0
 40
1.0
 10
66.588455153
 20
518.049322128
 30
0.0
 10
66.588455153
 20
518.1106214909
 30
0.0
 10
66.599037364
 20
518.2346153495
 30
0.0
 10
66.6462726249
 20
518.4178095347
 30
0.0
 10
66.7242583246
 20
518.5971595615
 30
0.0
 10
66.8718460886
 20
518.8350411287
 30
0.0
 10
67.1341251051
 20
519.1132860314
 30
0.0
 10
67.3908387356
 20
519.2918561408
 30
0.0
 10
67.5324705415
 20
519.3746853999
 30
0.0
  0
SPLINE
  5
457
100
AcDbEntity
  8
7_ALL_FEATURES
100
AcDbSpline
 62
7
  6
CONTINUOUS
 70
0
 71
3
 72
9
 73
5
 74
0
 42
0.0000001
 43
0.0000001
 44
0.0000000001
 40
0.0
 40
0.0
 40
0.0
 40
0.0
 40
0.2531200985
 40
1.0
 40
1.0
 40
1.0
 40
1.0
 10
69.888455153
 20
505.438713045
 30
0.0
 10
69.8100950898
 20
505.438713045
 30
0.0
 10
69.5005820757
 20
505.4461703842
 30
0.0
 10
69.1916327818
 20
505.4831539296
 30
0.0
 10
68.9649237779
 20
505.5285865316
 30
0.0
  0
SPLINE
  5
458
100
AcDbEntity
  8
7_ALL_FEATURES
100
AcDbSpline
 62
7
  6
CONTINUOUS
 70
0
 71
3
 72
14
 73
10
 74
0
 42
0.0000001
 43
0.0000001
 44
0.0000000001
 40
0.0
 40
0.0
 40
0.0
 40
0.0
 40
0.301994394
 40
0.4395309998
 40
0.5673276194
 40
0.6857021084
 40
0.7957804646
 40
0.8995894003
 40
1.0
 40
1.0
 40
1.0
 40
1.0
 10
68.4989794111
 20
505.6504105405
 30
0.0
 10
68.2971414443
 20
505.7165833053
 30
0.0
 10
68.0098208969
 20
505.838149274
 30
0.0
 10
67.6736520663
 20
506.0546189987
 30
0.0
 10
67.466799107
 20
506.2293584155
 30
0.0
 10
67.3010844698
 20
506.4187555038
 30
0.0
 10
67.1796389877
 20
506.6200744726
 30
0.0
 10
67.1052720619
 20
506.8299596977
 30
0.0
 10
67.088455153
 20
506.9741030019
 30
0.0
 10
67.088455153
 20
507.0447270668
 30
0.0
  0
SPLINE
  5
459
100
AcDbEntity
  8
7_ALL_FEATURES
100
AcDbSpline
 62
7
  6
CONTINUOUS
 70
0
 71
3
 72
14
 73
10
 74
0
 42
0.0000001
 43
0.0000001
 44
0.0000000001
 40
0.0
 40
0.0
 40
0.0
 40
0.0
 40
0.1004105997
 40
0.2042195354
 40
0.3142978915
 40
0.4326723805
 40
0.5604690002
 40
0.698005606
 40
1.0
 40
1.0
 40
1.0
 40
1.0
 10
165.088455153
 20
507.0447270668
 30
0.0
 10
165.088455153
 20
506.9741030019
 30
0.0
 10
165.0716382441
 20
506.8299596975
 30
0.0
 10
164.9972713182
 20
506.6200744723
 30
0.0
 10
164.8758258359
 20
506.4187555035
 30
0.0
 10
164.7101111986
 20
506.2293584151
 30
0.0
 10
164.5032582391
 20
506.0546189982
 30
0.0
 10
164.1670894081
 20
505.8381492734
 30
0.0
 10
163.8797688604
 20
505.7165833048
 30
0.0
 10
163.6779308934
 20
505.65041054
 30
0.0
  0
SPLINE
  5
45A
100
AcDbEntity
  8
7_ALL_FEATURES
100
AcDbSpline
 62
7
  6
CONTINUOUS
 70
0
 71
3
 72
9
 73
5
 74
0
 42
0.0000001
 43
0.0000001
 44
0.0000000001
 40
0.0
 40
0.0
 40
0.0
 40
0.0
 40
0.246021048
 40
1.0
 40
1.0
 40
1.0
 40
1.0
 10
163.2119865305
 20
505.5285865321
 30
0.0
 10
163.1373076548
 20
505.5136208466
 30
0.0
 10
162.8322045421
 20
505.4607592399
 30
0.0
 10
162.5218734416
 20
505.438713045
 30
0.0
 10
162.288455153
 20
505.438713045
 30
0.0
  0
SPLINE
  5
45B
100
AcDbEntity
  8
02___PRT_ALL_AXES
100
AcDbSpline
 62
7
  6
CONTINUOUS
 70
0
 71
3
 72
11
 73
7
 74
0
 42
0.0000001
 43
0.0000001
 44
0.0000000001
 40
0.0
 40
0.0
 40
0.0
 40
0.0
 40
0.2839478458
 40
0.5411793
 40
0.7767576583
 40
1.0
 40
1.0
 40
1.0
 40
1.0
 10
164.4647770137
 20
511.1539519889
 30
0.0
 10
164.5598736353
 20
511.2213335526
 30
0.0
 10
164.7317411429
 20
511.3642034778
 30
0.0
 10
164.9335884373
 20
511.6142348419
 30
0.0
 10
165.0594996739
 20
511.8834366724
 30
0.0
 10
165.088455153
 20
512.0727955656
 30
0.0
 10
165.088455153
 20
512.1644273436
 30
0.0
  0
SPLINE
  5
45C
100
AcDbEntity
  8
02___PRT_ALL_AXES
100
AcDbSpline
 62
7
  6
CONTINUOUS
 70
0
 71
3
 72
11
 73
7
 74
0
 42
0.0000001
 43
0.0000001
 44
0.0000000001
 40
0.0
 40
0.0
 40
0.0
 40
0.0
 40
0.2232423417
 40
0.4588207
 40
0.7160521542
 40
1.0
 40
1.0
 40
1.0
 40
1.0
 10
67.088455153
 20
512.1644273436
 30
0.0
 10
67.088455153
 20
512.0727955656
 30
0.0
 10
67.1174106321
 20
511.8834366724
 30
0.0
 10
67.2433218687
 20
511.6142348419
 30
0.0
 10
67.4451691631
 20
511.3642034778
 30
0.0
 10
67.6170366707
 20
511.2213335526
 30
0.0
 10
67.7121332923
 20
511.1539519889
 30
0.0
  0
SPLINE
  5
45D
100
AcDbEntity
  8
7_ALL_FEATURES
100
AcDbSpline
 62
7
  6
CONTINUOUS
 70
0
 71
3
 72
13
 73
9
 74
0
 42
0.0000001
 43
0.0000001
 44
0.0000000001
 40
0.0
 40
0.0
 40
0.0
 40
0.0
 40
0.2894102859
 40
0.5482553887
 40
0.6676920303
 40
0.7817215709
 40
0.8918739492
 40
1.0
 40
1.0
 40
1.0
 40
1.0
 10
164.6444397646
 20
519.3746853999
 30
0.0
 10
164.7860715704
 20
519.2918561408
 30
0.0
 10
165.042785201
 20
519.1132860314
 30
0.0
 10
165.3050642175
 20
518.8350411287
 30
0.0
 10
165.4526519815
 20
518.5971595615
 30
0.0
 10
165.5306376812
 20
518.4178095347
 30
0.0
 10
165.577872942
 20
518.2346153495
 30
0.0
 10
165.588455153
 20
518.1106214909
 30
0.0
 10
165.588455153
 20
518.049322128
 30
0.0
  0
SPLINE
  5
45E
100
AcDbEntity
  8
7_ALL_FEATURES
100
AcDbSpline
 62
7
  6
CONTINUOUS
 70
0
 71
3
 72
17
 73
13
 74
0
 42
0.0000001
 43
0.0000001
 44
0.0000000001
 40
0.0
 40
0.0
 40
0.0
 40
0.0
 40
0.0448762342
 40
0.0906141814
 40
0.1379990639
 40
0.1876769713
 40
0.2954780307
 40
0.4161461366
 40
0.5493480796
 40
0.6931621301
 40
0.8445970173
 40
1.0
 40
1.0
 40
1.0
 40
1.0
 10
165.588455153
 20
506.6351510447
 30
0.0
 10
165.588455153
 20
506.5730817491
 30
0.0
 10
165.5776001988
 20
506.447495744
 30
0.0
 10
165.5291603864
 20
506.2620265649
 30
0.0
 10
165.4492079157
 20
506.080555025
 30
0.0
 10
165.297899172
 20
505.8399670162
 30
0.0
 10
165.0290964993
 20
505.559131863
 30
0.0
 10
164.6139702622
 20
505.2753322231
 30
0.0
 10
164.1127923886
 20
505.0434988117
 30
0.0
 10
163.5438795969
 20
504.8717170635
 30
0.0
 10
162.928192786
 20
504.7660275492
 30
0.0
 10
162.5033963983
 20
504.7423488047
 30
0.0
 10
162.288455153
 20
504.7423488047
 30
0.0
  0
SPLINE
  5
45F
100
AcDbEntity
  8
7_ALL_FEATURES
100
AcDbSpline
 62
7
  6
CONTINUOUS
 70
0
 71
3
 72
17
 73
13
 74
0
 42
0.0000001
 43
0.0000001
 44
0.0000000001
 40
0.0
 40
0.0
 40
0.0
 40
0.0
 40
0.1554029827
 40
0.3068378699
 40
0.4506519203
 40
0.5838538634
 40
0.7045219693
 40
0.8123230287
 40
0.8620009361
 40
0.9093858186
 40
0.9551237658
 40
1.0
 40
1.0
 40
1.0
 40
1.0
 10
69.888455153
 20
504.7423488047
 30
0.0
 10
69.6735139077
 20
504.7423488047
 30
0.0
 10
69.2487175201
 20
504.7660275492
 30
0.0
 10
68.6330307091
 20
504.8717170635
 30
0.0
 10
68.0641179174
 20
505.0434988117
 30
0.0
 10
67.5629400438
 20
505.2753322231
 30
0.0
 10
67.1478138067
 20
505.559131863
 30
0.0
 10
66.8790111341
 20
505.8399670162
 30
0.0
 10
66.7277023904
 20
506.080555025
 30
0.0
 10
66.6477499196
 20
506.2620265649
 30
0.0
 10
66.5993101073
 20
506.447495744
 30
0.0
 10
66.588455153
 20
506.573081749
 30
0.0
 10
66.588455153
 20
506.6351510447
 30
0.0
  0
ENDSEC
  0
SECTION
  2
OBJECTS
  0
DICTIONARY
  5
C
100
AcDbDictionary
280
0
281
1
  3
ACAD_GROUP
350
D
  3
ACAD_MLINESTYLE
350
17
  3
ACAD_LAYOUT
350
1A
  3
ACAD_PLOTSETTINGS
350
19
  3
ACAD_PLOTSTYLENAME
350
E
  3
ACAD_TABLESTYLE
350
       460
  0
DICTIONARY
  5
D
102
{ACAD_REACTORS
330
C
102
}
100
AcDbDictionary
280
0
281
1
  0
ACDBDICTIONARYWDFLT
  5
E
102
{ACAD_REACTORS
330
C
102
}
100
AcDbDictionary
281
1
  3
Normal
350
F
100
AcDbDictionaryWithDefault
340
F
  0
DICTIONARY
  5
17
102
{ACAD_REACTORS
330
C
102
}
100
AcDbDictionary
280
0
281
1
  3
Standard
350
18
  0
DICTIONARY
  5
460
330
C
100
AcDbDictionary
281
1
  3
Standard
350
       463
  3
Standard1
350
       464
  0
DICTIONARY
  5
19
102
{ACAD_REACTORS
330
C
102
}
100
AcDbDictionary
281
1
  0
DICTIONARY
  5
1A
102
{ACAD_REACTORS
330
C
102
}
100
AcDbDictionary
281
1
  3
Model
350
461
  3
Layout1
350
462
  0
ACDBPLACEHOLDER
  5
F
102
{ACAD_REACTORS
330
E
102
}
  0
MLINESTYLE
  5
18
102
{ACAD_REACTORS
330
17
102
}
100
AcDbMlineStyle
  2
STANDARD
 70
0
  3

 62
256
 51
90.0
 52
90.0
 71
2
 49
0.5
 62
256
  6
BYLAYER
 49
-0.5
 62
256
  6
BYLAYER
  0
LAYOUT
  5
461
102
{ACAD_REACTORS
330
1A
102
}
100
AcDbPlotSettings
  1

  2
none_device
  4

  6

 40
0.0
 41
0.0
 42
0.0
 43
0.0
 44
420.0
 45
594.0
 46
0.0
 47
0.0
 48
0.0
 49
0.0
140
0.0
141
0.0
142
1.0
143
1.0
 70
1024
 72
1
 73
0
 74
0
  7

 75
0
147
1.0
148
0.0
149
0.0
100
AcDbLayout
  1
Model
 70
0
 71
0
 10
0.0
 20
0.0
 11
420.0
 21
594.0
 12
0.0
 22
0.0
 32
0.0
 14
0.0
 24
0.0
 34
0.0
 15
0.0
 25
0.0
 35
0.0
146
0.0
 13
0.0
 23
0.0
 33
0.0
 16
1.0
 26
0.0
 36
0.0
 17
0.0
 27
1.0
 37
0.0
 76
0
330
21E
345
0
346
0
  0
LAYOUT
  5
462
102
{ACAD_REACTORS
330
1A
102
}
100
AcDbPlotSettings
  1

  2
none_device
  4

  6

 40
0.0
 41
0.0
 42
0.0
 43
0.0
 44
420.0
 45
594.0
 46
0.0
 47
0.0
 48
0.0
 49
0.0
140
0.0
141
0.0
142
1.0
143
1.0
 70
0
 72
1
 73
0
 74
0
  7

 75
0
147
1.0
148
0.0
149
0.0
100
AcDbLayout
  1
Layout1
 70
0
 71
1
 10
0.0
 20
0.0
 11
420.0
 21
594.0
 12
0.0
 22
0.0
 32
0.0
 14
0.0
 24
0.0
 34
0.0
 15
0.0
 25
0.0
 35
0.0
146
0.0
 13
0.0
 23
0.0
 33
0.0
 16
1.0
 26
0.0
 36
0.0
 17
0.0
 27
1.0
 37
0.0
 76
0
330
21F
345
0
346
0
  0
TABLESTYLE
  5
463
102
{ACAD_REACTORS
330
460
330
3A5
102
}
330
460
100
AcDbTableStyle
  3
Standard
 70
0
 71
0
 40
0.06
 41
0.06
280
1
281
1
  7
Standard
140
0.18
170
1
 62
0
 63
7
283
0
  7
Standard
140
0.18
170
1
 62
0
 63
7
283
0
  7
Standard
140
0.18
170
1
 62
0
 63
7
283
0
  0
TABLESTYLE
  5
464
102
{ACAD_REACTORS
330
460
102
}
330
460
100
AcDbTableStyle
  3
Standard1
 70
1
 71
0
 40
0.06
 41
0.06
280
1
281
1
  7
Standard
140
0.18
170
1
 62
0
 63
7
283
0
  7
Standard
140
0.18
170
1
 62
0
 63
7
283
0
  7
Standard
140
0.18
170
1
 62
0
 63
7
283
0
  0
ENDSEC
  0
EOF
