999
DXF file: 421_c_001.dxf
999
Pro/ENGINEER 2011490 by Parametric Technology Corporation
  0
SECTION
  2
HEADER
  9
$ACADVER
  1
AC1021
  9
$DWGCODEPAGE
  3
ANSI_1252
  9
$EXTMAX
 10
420.0
 20
297.0
 30
0.0
  9
$EXTMIN
 10
0.0
 20
0.0
 30
0.0
  9
$LIMMIN
 10
0.0
 20
0.0
  9
$LIMMAX
 10
420.0
 20
297.0
  9
$VIEWCTR
 10
210.0
 20
148.5
  9
$VIEWSIZE
 40
297.0
  9
$CLAYER
  8
0
  9
$LTSCALE
 40
23.1
  9
$CELTYPE
  6
BYLAYER
  9
$DIMSCALE
 40
1.0
  9
$DIMASZ
 40
2.5
  9
$DIMEXO
 40
2.625
  9
$DIMDLI
 40
15.96
  9
$DIMEXE
 40
7.56
  9
$DIMCEN
 40
3.78
  9
$DIMLFAC
 40
1.0
  9
$DIMBLK
  1
_CLOSED
  9
$DIMTXT
 40
3.0
  9
$DIMTOL
 70
1
  9
$DIMLIM
 70
0
  9
$DIMTFAC
 40
1.0
  9
$DIMTP
 40
0.01
  9
$DIMTM
 40
0.01
  9
$PDMODE
 70
3
  9
$PDSIZE
 40
0.3125
  9
$HANDSEED
  5
533
  9
$TILEMODE
 70
1
  9
$MEASUREMENT
 70
1
  9
$INSUNITS
 70
4
  0
ENDSEC
  0
SECTION
  2
CLASSES
  0
CLASS
  1
ACDBDICTIONARYWDFLT
  2
AcDbDictionaryWithDefault
  3
AutoCAD 2000
 90
0
 91
1
280
0
281
0
  0
CLASS
  1
ACDBPLACEHOLDER
  2
AcDbPlaceHolder
  3
AutoCAD 2000
 90
0
 91
1
280
0
281
0
  0
CLASS
  1
LAYOUT
  2
AcDbLayout
  3
AutoCAD 2000
 90
0
 91
0
280
0
281
0
  0
CLASS
  1
TABLESTYLE
  2
AcDbTableStyle
  3
ObjectDBX Classes
 90
2047
 91
1
280
0
281
0
  0
CLASS
  1
ACAD_TABLE
  2
AcDbTable
  3
ObjectDBX Classes
 90
1025
 91
1
280
0
281
1
  0
ENDSEC
  0
SECTION
  2
TABLES
  0
TABLE
  2
VPORT
  5
8
100
AcDbSymbolTable
 70
2
  0
VPORT
  5
1F4
100
AcDbSymbolTableRecord
100
AcDbViewportTableRecord
  2
*ACTIVE
 70
0
 10
0.0
 20
0.0
 11
1.0
 21
1.0
 12
210.0
 22
148.5
 13
0.0
 23
0.0
 14
1.0
 24
1.0
 15
0.0
 25
0.0
 16
0.0
 26
0.0
 36
1.0
 17
0.0
 27
0.0
 37
0.0
 40
297.0
 41
1.4141414141
 42
50.0
 43
0.0
 44
0.0
 50
0.0
 51
0.0
 71
0
 72
100
 73
1
 74
1
 75
0
 76
0
 77
0
 78
0
  0
ENDTAB
  0
TABLE
  2
LTYPE
  5
5
100
AcDbSymbolTable
 70
6
  0
LTYPE
  5
14
100
AcDbSymbolTableRecord
100
AcDbLinetypeTableRecord
  2
BYBLOCK
 70
0
  3

 72
65
 73
0
 40
0.0
  0
LTYPE
  5
15
100
AcDbSymbolTableRecord
100
AcDbLinetypeTableRecord
  2
BYLAYER
 70
0
  3

 72
65
 73
0
 40
0.0
  0
LTYPE
  5
16
100
AcDbSymbolTableRecord
100
AcDbLinetypeTableRecord
  2
CONTINUOUS
 70
64
  3
Solid line
 72
65
 73
0
 40
0.0
  0
LTYPE
  5
1F5
100
AcDbSymbolTableRecord
100
AcDbLinetypeTableRecord
  2
CENTER
 70
64
  3
____ _ ____ _ ____ _ ____ _ ____ _ ____ _ ____
 72
65
 73
4
 40
0.6
 49
0.375
 74
0
 49
-0.075
 74
0
 49
0.075
 74
0
 49
-0.075
 74
0
  0
LTYPE
  5
1F6
100
AcDbSymbolTableRecord
100
AcDbLinetypeTableRecord
  2
HIDDEN
 70
64
  3
- - - - - - - - - - - - - - - - - - - -
 72
65
 73
2
 40
0.2
 49
0.1
 74
0
 49
-0.1
 74
0
  0
LTYPE
  5
1F7
100
AcDbSymbolTableRecord
100
AcDbLinetypeTableRecord
  2
PHANTOM
 70
64
  3
_____ _ _ _____ _ _ _____ _ _ _____
 72
65
 73
6
 40
0.8
 49
0.45
 74
0
 49
-0.05
 74
0
 49
0.1
 74
0
 49
-0.05
 74
0
 49
0.1
 74
0
 49
-0.05
 74
0
  0
LTYPE
  5
1F8
100
AcDbSymbolTableRecord
100
AcDbLinetypeTableRecord
  2
DOT
 70
64
  3
. . . . . . . . . . . . . . . . . . . .
 72
65
 73
2
 40
0.2
 49
0.1
 74
0
 49
-0.1
 74
0
  0
LTYPE
  5
1F9
100
AcDbSymbolTableRecord
100
AcDbLinetypeTableRecord
  2
DASHED
 70
64
  3
- - - - - - - - - - - - - - - - - - - -
 72
65
 73
2
 40
0.2
 49
0.1
 74
0
 49
-0.1
 74
0
  0
ENDTAB
  0
TABLE
  2
LAYER
  5
2
100
AcDbSymbolTable
 70
36
  0
LAYER
  5
10
100
AcDbSymbolTableRecord
100
AcDbLayerTableRecord
  2
0
 70
0
 62
7
  6
CONTINUOUS
370
-3
390
F
  0
LAYER
  5
1FA
100
AcDbSymbolTableRecord
100
AcDbLayerTableRecord
  2
DEFAULT_1
 70
0
 62
7
  6
CENTER
370
-3
390
F
  0
LAYER
  5
1FB
100
AcDbSymbolTableRecord
100
AcDbLayerTableRecord
  2
DEFAULT_2
 70
0
 62
8
  6
HIDDEN
370
-3
390
F
  0
LAYER
  5
1FC
100
AcDbSymbolTableRecord
100
AcDbLayerTableRecord
  2
DEFAULT_3
 70
0
 62
7
  6
PHANTOM
370
-3
390
F
  0
LAYER
  5
1FD
100
AcDbSymbolTableRecord
100
AcDbLayerTableRecord
  2
01_ALL_DTM_PLN
 70
0
 62
7
  6
CONTINUOUS
370
-3
390
F
  0
LAYER
  5
1FE
100
AcDbSymbolTableRecord
100
AcDbLayerTableRecord
  2
01__ASM_ALL_DTM_PLN
 70
0
 62
7
  6
CONTINUOUS
370
-3
390
F
  0
LAYER
  5
1FF
100
AcDbSymbolTableRecord
100
AcDbLayerTableRecord
  2
01__ASM_DEF_DTM_PLN
 70
0
 62
7
  6
CONTINUOUS
370
-3
390
F
  0
LAYER
  5
200
100
AcDbSymbolTableRecord
100
AcDbLayerTableRecord
  2
01___PRT_ALL_DTM_PLN
 70
0
 62
7
  6
CONTINUOUS
370
-3
390
F
  0
LAYER
  5
201
100
AcDbSymbolTableRecord
100
AcDbLayerTableRecord
  2
01___PRT_DEF_DTM_PLN
 70
0
 62
7
  6
CONTINUOUS
370
-3
390
F
  0
LAYER
  5
202
100
AcDbSymbolTableRecord
100
AcDbLayerTableRecord
  2
02_ALL_AXES
 70
0
 62
7
  6
CONTINUOUS
370
-3
390
F
  0
LAYER
  5
203
100
AcDbSymbolTableRecord
100
AcDbLayerTableRecord
  2
02__ASM_ALL_AXES
 70
0
 62
7
  6
CONTINUOUS
370
-3
390
F
  0
LAYER
  5
204
100
AcDbSymbolTableRecord
100
AcDbLayerTableRecord
  2
02___PRT_ALL_AXES
 70
0
 62
7
  6
CONTINUOUS
370
-3
390
F
  0
LAYER
  5
205
100
AcDbSymbolTableRecord
100
AcDbLayerTableRecord
  2
03_ALL_CURVES
 70
0
 62
7
  6
CONTINUOUS
370
-3
390
F
  0
LAYER
  5
206
100
AcDbSymbolTableRecord
100
AcDbLayerTableRecord
  2
03__ASM_ALL_CURVES
 70
0
 62
7
  6
CONTINUOUS
370
-3
390
F
  0
LAYER
  5
207
100
AcDbSymbolTableRecord
100
AcDbLayerTableRecord
  2
03___PRT_ALL_CURVES
 70
0
 62
7
  6
CONTINUOUS
370
-3
390
F
  0
LAYER
  5
208
100
AcDbSymbolTableRecord
100
AcDbLayerTableRecord
  2
04_ALL_DTM_PNT
 70
0
 62
7
  6
CONTINUOUS
370
-3
390
F
  0
LAYER
  5
209
100
AcDbSymbolTableRecord
100
AcDbLayerTableRecord
  2
04__ASM_ALL_DTM_PNT
 70
0
 62
7
  6
CONTINUOUS
370
-3
390
F
  0
LAYER
  5
20A
100
AcDbSymbolTableRecord
100
AcDbLayerTableRecord
  2
04___PRT_ALL_DTM_PNT
 70
0
 62
7
  6
CONTINUOUS
370
-3
390
F
  0
LAYER
  5
20B
100
AcDbSymbolTableRecord
100
AcDbLayerTableRecord
  2
05_ALL_DTM_CSYS
 70
0
 62
7
  6
CONTINUOUS
370
-3
390
F
  0
LAYER
  5
20C
100
AcDbSymbolTableRecord
100
AcDbLayerTableRecord
  2
05__ASM_ALL_DTM_CSYS
 70
0
 62
7
  6
CONTINUOUS
370
-3
390
F
  0
LAYER
  5
20D
100
AcDbSymbolTableRecord
100
AcDbLayerTableRecord
  2
05__ASM_DEF_DTM_CSYS
 70
0
 62
7
  6
CONTINUOUS
370
-3
390
F
  0
LAYER
  5
20E
100
AcDbSymbolTableRecord
100
AcDbLayerTableRecord
  2
05___PRT_ALL_DTM_CSYS
 70
0
 62
7
  6
CONTINUOUS
370
-3
390
F
  0
LAYER
  5
20F
100
AcDbSymbolTableRecord
100
AcDbLayerTableRecord
  2
05___PRT_DEF_DTM_CSYS
 70
0
 62
7
  6
CONTINUOUS
370
-3
390
F
  0
LAYER
  5
210
100
AcDbSymbolTableRecord
100
AcDbLayerTableRecord
  2
06_ALL_SURFS
 70
0
 62
7
  6
CONTINUOUS
370
-3
390
F
  0
LAYER
  5
211
100
AcDbSymbolTableRecord
100
AcDbLayerTableRecord
  2
06__ASM_ALL_SURFS
 70
0
 62
7
  6
CONTINUOUS
370
-3
390
F
  0
LAYER
  5
212
100
AcDbSymbolTableRecord
100
AcDbLayerTableRecord
  2
06___PRT_ALL_SURFS
 70
0
 62
7
  6
CONTINUOUS
370
-3
390
F
  0
LAYER
  5
213
100
AcDbSymbolTableRecord
100
AcDbLayerTableRecord
  2
07__ASM_ALL_SKELETONS
 70
0
 62
7
  6
CONTINUOUS
370
-3
390
F
  0
LAYER
  5
214
100
AcDbSymbolTableRecord
100
AcDbLayerTableRecord
  2
1_ALL_PLANES
 70
0
 62
7
  6
CONTINUOUS
370
-3
390
F
  0
LAYER
  5
215
100
AcDbSymbolTableRecord
100
AcDbLayerTableRecord
  2
2_ALL_CSYS
 70
0
 62
7
  6
CONTINUOUS
370
-3
390
F
  0
LAYER
  5
216
100
AcDbSymbolTableRecord
100
AcDbLayerTableRecord
  2
3_ALL_AXES
 70
0
 62
7
  6
CONTINUOUS
370
-3
390
F
  0
LAYER
  5
217
100
AcDbSymbolTableRecord
100
AcDbLayerTableRecord
  2
7_ALL_FEATURES
 70
0
 62
7
  6
CONTINUOUS
370
-3
390
F
  0
LAYER
  5
218
100
AcDbSymbolTableRecord
100
AcDbLayerTableRecord
  2
8_ALL_NOTES_BALLOONS_SYMBOLS_GT
 70
0
 62
7
  6
CONTINUOUS
370
-3
390
F
  0
LAYER
  5
219
100
AcDbSymbolTableRecord
100
AcDbLayerTableRecord
  2
RGB
 70
0
 62
7
  6
CONTINUOUS
370
-3
390
F
  0
LAYER
  5
21A
100
AcDbSymbolTableRecord
100
AcDbLayerTableRecord
  2
XSEC_DATUMS
 70
0
 62
7
  6
CONTINUOUS
370
-3
390
F
  0
ENDTAB
  0
TABLE
  2
STYLE
  5
3
100
AcDbSymbolTable
 70
1
  0
STYLE
  5
11
100
AcDbSymbolTableRecord
100
AcDbTextStyleTableRecord
  2
STANDARD
 70
0
 40
0.0
 41
0.85
 50
0.0
 71
0
 42
0.2
  3
txt
  4

  0
STYLE
  5
21B
100
AcDbSymbolTableRecord
100
AcDbTextStyleTableRecord
  2
TEXTSTYLE_1
 70
0
 40
0.0
 41
0.8
 50
0.0
 71
0
 42
0.2
  3
gdt
  4

  0
STYLE
  5
21C
100
AcDbSymbolTableRecord
100
AcDbTextStyleTableRecord
  2
TEXTSTYLE_2
 70
0
 40
0.0
 41
0.9
 50
0.0
 71
0
 42
0.2
  3
txt
  4

  0
STYLE
  5
21D
100
AcDbSymbolTableRecord
100
AcDbTextStyleTableRecord
  2
TEXTSTYLE_3
 70
0
 40
0.0
 41
0.9
 50
0.0
 71
0
 42
0.2
  3
txt
  4

  0
STYLE
  5
21E
100
AcDbSymbolTableRecord
100
AcDbTextStyleTableRecord
  2
TEXTSTYLE_4
 70
0
 40
0.0
 41
0.85
 50
0.0
 71
0
 42
0.2
  3
txt
  4

  0
ENDTAB
  0
TABLE
  2
VIEW
  5
6
100
AcDbSymbolTable
 70
0
  0
ENDTAB
  0
TABLE
  2
UCS
  5
7
100
AcDbSymbolTable
 70
0
  0
ENDTAB
  0
TABLE
  2
APPID
  5
9
100
AcDbSymbolTable
 70
1
  0
APPID
  5
21F
100
AcDbSymbolTableRecord
100
AcDbRegAppTableRecord
  2
ACAD
 70
0
  0
ENDTAB
  0
TABLE
  2
BLOCK_RECORD
  5
1
100
AcDbSymbolTable
 70
0
  0
BLOCK_RECORD
  5
220
100
AcDbSymbolTableRecord
100
AcDbBlockTableRecord
  2
*Model_Space
  0
BLOCK_RECORD
  5
221
100
AcDbSymbolTableRecord
100
AcDbBlockTableRecord
  2
*Paper_Space
  0
BLOCK_RECORD
  5
222
100
AcDbSymbolTableRecord
100
AcDbBlockTableRecord
  2
_CLOSED
  0
BLOCK_RECORD
  5
223
100
AcDbSymbolTableRecord
100
AcDbBlockTableRecord
  2
*D0
  0
BLOCK_RECORD
  5
224
100
AcDbSymbolTableRecord
100
AcDbBlockTableRecord
  2
*D1
  0
BLOCK_RECORD
  5
225
100
AcDbSymbolTableRecord
100
AcDbBlockTableRecord
  2
*D2
  0
BLOCK_RECORD
  5
226
100
AcDbSymbolTableRecord
100
AcDbBlockTableRecord
  2
*D3
  0
BLOCK_RECORD
  5
227
100
AcDbSymbolTableRecord
100
AcDbBlockTableRecord
  2
LOGO2_BL0
  0
BLOCK_RECORD
  5
228
100
AcDbSymbolTableRecord
100
AcDbBlockTableRecord
  2
*T1
  0
ENDTAB
  0
TABLE
  2
DIMSTYLE
  5
A
100
AcDbSymbolTable
 70
1
100
AcDbDimStyleTable
 71
0
  0
DIMSTYLE
105
229
100
AcDbSymbolTableRecord
100
AcDbDimStyleTableRecord
  2
STANDARD
 70
0
  3

  4

 40
1.0
 41
2.5
 42
0.0625
 43
0.38
 44
0.18
 45
0.0
 46
0.0
 47
0.01
 48
0.01
140
3.0
141
0.09
142
0.0
143
25.4
144
1.0
145
0.0
146
1.0
147
0.09
 71
1.0
 72
0.0
 73
0
 74
0
 75
0
 76
0
 77
1
 78
8
170
0
171
2
172
0
173
0
174
0
175
0
176
0
177
0
178
0
270
2
271
2
272
2
273
2
274
2
275
0
280
0
281
0
282
0
283
1
284
8
285
0
286
0
287
3
288
0
340
11
341
222
342
222
343
222
344
222
  0
DIMSTYLE
105
22A
100
AcDbSymbolTableRecord
100
AcDbDimStyleTableRecord
  2
DIMSTYLE_1
 70
0
  3

  4

 40
1.0
 41
2.5
 42
0.0625
 43
0.38
 44
0.18
 45
0.0
 46
0.0
 47
0.3
 48
0.3
140
3.0
141
0.09
142
0.0
143
25.4
144
1.0
145
0.0
146
1.0
147
0.09
 71
0.0
 72
0.0
 73
0
 74
0
 75
0
 76
0
 77
1
 78
8
170
0
171
2
172
0
173
0
174
0
175
0
176
0
177
0
178
0
270
2
271
0
272
0
273
2
274
2
275
0
280
0
281
0
282
0
283
1
284
8
285
0
286
0
287
3
288
0
340
11
341
222
342
222
343
222
344
222
  0
DIMSTYLE
105
22B
100
AcDbSymbolTableRecord
100
AcDbDimStyleTableRecord
  2
DIMSTYLE_2
 70
0
  3

  4

 40
1.0
 41
2.5
 42
0.0625
 43
0.38
 44
0.18
 45
0.0
 46
0.0
 47
0.3
 48
0.3
140
3.0
141
0.09
142
0.0
143
25.4
144
1.0
145
0.0
146
1.0
147
0.09
 71
0.0
 72
0.0
 73
0
 74
0
 75
0
 76
0
 77
1
 78
8
170
0
171
2
172
0
173
0
174
0
175
0
176
0
177
0
178
0
270
2
271
2
272
2
273
2
274
2
275
0
280
0
281
0
282
0
283
1
284
8
285
0
286
0
287
3
288
0
340
11
341
222
342
222
343
222
344
222
  0
ENDTAB
  0
ENDSEC
  0
SECTION
  2
BLOCKS
  0
BLOCK
  5
20
100
AcDbEntity
  8
0
100
AcDbBlockBegin
  2
*Model_Space
 70
0
 10
0.0
 20
0.0
 30
0.0
  3
*Model_Space
  1

  0
ENDBLK
  5
21
100
AcDbEntity
  8
0
100
AcDbBlockEnd
  0
BLOCK
  5
1C
100
AcDbEntity
  8
0
100
AcDbBlockBegin
  2
*Paper_Space
 70
0
 10
0.0
 20
0.0
 30
0.0
  3
*Paper_Space
  1

  0
ENDBLK
  5
1D
100
AcDbEntity
  8
0
100
AcDbBlockEnd
  0
BLOCK
  5
22C
100
AcDbEntity
  8
0
100
AcDbBlockBegin
 62
2
  6
CONTINUOUS
  2
LOGO2_BL0
 70
64
 10
333.1473869546
 20
37.5239270671
  3
LOGO2_BL0
  1

  0
LINE
  5
22D
100
AcDbEntity
  8
0
100
AcDbLine
 62
7
  6
CONTINUOUS
 10
324.8903121828
 20
40.7194184059
 11
323.5859712535
 21
40.7194184059
  0
LINE
  5
22E
100
AcDbEntity
  8
0
100
AcDbLine
 62
7
  6
CONTINUOUS
 10
323.5859712535
 20
40.7194184059
 11
323.5859712535
 21
30.260352346
  0
LINE
  5
22F
100
AcDbEntity
  8
0
100
AcDbLine
 62
7
  6
CONTINUOUS
 10
323.5859712535
 20
30.260352346
 11
328.0670261417
 21
30.260352346
  0
LINE
  5
230
100
AcDbEntity
  8
0
100
AcDbLine
 62
7
  6
CONTINUOUS
 10
328.0670261417
 20
30.260352346
 11
328.0670261417
 21
31.4532066711
  0
LINE
  5
231
100
AcDbEntity
  8
0
100
AcDbLine
 62
7
  6
CONTINUOUS
 10
328.0670261417
 20
31.4532066711
 11
324.8903121828
 21
31.4532066711
  0
LINE
  5
232
100
AcDbEntity
  8
0
100
AcDbLine
 62
7
  6
CONTINUOUS
 10
324.8903121828
 20
31.4532066711
 11
324.8903121828
 21
40.7194184059
  0
LINE
  5
233
100
AcDbEntity
  8
0
100
AcDbLine
 62
7
  6
CONTINUOUS
 10
339.8266383991
 20
40.7194184059
 11
338.522820881
 21
40.7194184059
  0
LINE
  5
234
100
AcDbEntity
  8
0
100
AcDbLine
 62
7
  6
CONTINUOUS
 10
338.522820881
 20
40.7194184059
 11
338.522820881
 21
30.260352346
  0
LINE
  5
235
100
AcDbEntity
  8
0
100
AcDbLine
 62
7
  6
CONTINUOUS
 10
338.522820881
 20
30.260352346
 11
343.0040066221
 21
30.260352346
  0
LINE
  5
236
100
AcDbEntity
  8
0
100
AcDbLine
 62
7
  6
CONTINUOUS
 10
343.0040066221
 20
30.260352346
 11
343.0040066221
 21
31.4532066711
  0
LINE
  5
237
100
AcDbEntity
  8
0
100
AcDbLine
 62
7
  6
CONTINUOUS
 10
343.0040066221
 20
31.4532066711
 11
339.8266383991
 21
31.4532066711
  0
LINE
  5
238
100
AcDbEntity
  8
0
100
AcDbLine
 62
7
  6
CONTINUOUS
 10
339.8266383991
 20
31.4532066711
 11
339.8266383991
 21
40.7194184059
  0
LWPOLYLINE
  5
239
100
AcDbEntity
  8
0
100
AcDbPolyline
 62
7
  6
CONTINUOUS
 90
2
 70
0
 43
0.2
 10
321.9403661644
 20
26.9168010391
 10
321.9403661644
 20
25.0597377898
  0
LWPOLYLINE
  5
23A
100
AcDbEntity
  8
0
100
AcDbPolyline
 62
7
  6
CONTINUOUS
 90
2
 70
0
 43
0.2
 10
321.9403661644
 20
25.0597377898
 10
322.7360821748
 20
25.0597377898
  0
LWPOLYLINE
  5
23B
100
AcDbEntity
  8
0
100
AcDbPolyline
 62
7
  6
CONTINUOUS
 90
2
 70
0
 43
0.2
 10
322.7360821748
 20
25.0597377898
 10
322.7360821748
 20
25.2717193614
  0
LWPOLYLINE
  5
23C
100
AcDbEntity
  8
0
100
AcDbPolyline
 62
7
  6
CONTINUOUS
 90
2
 70
0
 43
0.2
 10
322.7360821748
 20
25.2717193614
 10
322.1719756593
 20
25.2717193614
  0
LWPOLYLINE
  5
23D
100
AcDbEntity
  8
0
100
AcDbPolyline
 62
7
  6
CONTINUOUS
 90
2
 70
0
 43
0.2
 10
322.1719756593
 20
25.2717193614
 10
322.1719756593
 20
26.9168010391
  0
LWPOLYLINE
  5
23E
100
AcDbEntity
  8
0
100
AcDbPolyline
 62
7
  6
CONTINUOUS
 90
2
 70
0
 43
0.2
 10
322.1719756593
 20
26.9168010391
 10
321.9403661644
 20
26.9168010391
  0
SPLINE
  5
23F
100
AcDbEntity
  8
0
100
AcDbSpline
 62
7
  6
CONTINUOUS
 70
2
 71
3
 72
35
 73
31
 74
0
 42
0.0000001
 43
0.0000001
 44
0.0000000001
 40
0.0
 40
0.0
 40
0.0
 40
0.0
 40
1.0
 40
1.0
 40
1.0
 40
2.0
 40
2.0
 40
2.0
 40
3.0
 40
3.0
 40
3.0
 40
4.0
 40
4.0
 40
4.0
 40
5.0
 40
5.0
 40
5.0
 40
6.0
 40
6.0
 40
6.0
 40
7.0
 40
7.0
 40
7.0
 40
8.0
 40
8.0
 40
8.0
 40
9.0
 40
9.0
 40
9.0
 40
10.0
 40
10.0
 40
10.0
 40
10.0
 10
324.1343754303
 20
26.2122894457
 30
0.0
 10
324.1343754303
 20
26.2122894457
 30
0.0
 10
324.1343754303
 20
25.5501741665
 30
0.0
 10
324.1343754303
 20
25.5501741665
 30
0.0
 10
324.1343754303
 20
25.2350805712
 30
0.0
 10
324.2822391191
 20
25.0204819432
 30
0.0
 10
324.6223256034
 20
25.0204819432
 30
0.0
 10
324.9618886764
 20
25.0204819432
 30
0.0
 10
325.1100140709
 20
25.2350805712
 30
0.0
 10
325.1100140709
 20
25.5501741665
 30
0.0
 10
325.1100140709
 20
25.5501741665
 30
0.0
 10
325.1100140709
 20
26.2122894457
 30
0.0
 10
325.1100140709
 20
26.2122894457
 30
0.0
 10
325.1100140709
 20
26.2122894457
 30
0.0
 10
324.887956832
 20
26.2122894457
 30
0.0
 10
324.887956832
 20
26.2122894457
 30
0.0
 10
324.887956832
 20
26.2122894457
 30
0.0
 10
324.887956832
 20
25.5752979083
 30
0.0
 10
324.887956832
 20
25.5752979083
 30
0.0
 10
324.887956832
 20
25.3894869011
 30
0.0
 10
324.8412423746
 20
25.2267059906
 30
0.0
 10
324.6223256034
 20
25.2267059906
 30
0.0
 10
324.402885421
 20
25.2267059906
 30
0.0
 10
324.3561709636
 20
25.3894869011
 30
0.0
 10
324.3561709636
 20
25.5752979083
 30
0.0
 10
324.3561709636
 20
25.5752979083
 30
0.0
 10
324.3561709636
 20
26.2122894457
 30
0.0
 10
324.3561709636
 20
26.2122894457
 30
0.0
 10
324.3561709636
 20
26.2122894457
 30
0.0
 10
324.1343754303
 20
26.2122894457
 30
0.0
 10
324.1343754303
 20
26.2122894457
 30
0.0
  0
SPLINE
  5
240
100
AcDbEntity
  8
0
100
AcDbSpline
 62
7
  6
CONTINUOUS
 70
2
 71
3
 72
35
 73
31
 74
0
 42
0.0000001
 43
0.0000001
 44
0.0000000001
 40
0.0
 40
0.0
 40
0.0
 40
0.0
 40
1.0
 40
1.0
 40
1.0
 40
2.0
 40
2.0
 40
2.0
 40
3.0
 40
3.0
 40
3.0
 40
4.0
 40
4.0
 40
4.0
 40
5.0
 40
5.0
 40
5.0
 40
6.0
 40
6.0
 40
6.0
 40
7.0
 40
7.0
 40
7.0
 40
8.0
 40
8.0
 40
8.0
 40
9.0
 40
9.0
 40
9.0
 40
10.0
 40
10.0
 40
10.0
 40
10.0
 10
327.5331466281
 20
26.1709399539
 30
0.0
 10
327.4446901205
 20
26.2222342601
 30
0.0
 10
327.3312407238
 20
26.2473580019
 30
0.0
 10
327.2276052888
 20
26.2473580019
 30
0.0
 10
326.8727324356
 20
26.2473580019
 30
0.0
 10
326.5972872454
 20
25.9835587129
 30
0.0
 10
326.5972872454
 20
25.6260688032
 30
0.0
 10
326.5972872454
 20
25.2811407645
 30
0.0
 10
326.8757420505
 20
25.0210053545
 30
0.0
 10
327.2153051235
 20
25.0210053545
 30
0.0
 10
327.3312407238
 20
25.0210053545
 30
0.0
 10
327.4319973967
 20
25.0429886286
 30
0.0
 10
327.5331466281
 20
25.0968999912
 30
0.0
 10
327.5331466281
 20
25.0968999912
 30
0.0
 10
327.5331466281
 20
25.3795420867
 30
0.0
 10
327.5331466281
 20
25.3795420867
 30
0.0
 10
327.4492699692
 20
25.2863748774
 30
0.0
 10
327.345765387
 20
25.2272294019
 30
0.0
 10
327.2176604743
 20
25.2272294019
 30
0.0
 10
326.9839573343
 20
25.2272294019
 30
0.0
 10
326.8186902202
 20
25.3994317156
 30
0.0
 10
326.8186902202
 20
25.6360136177
 30
0.0
 10
326.8186902202
 20
25.8479951893
 30
0.0
 10
326.9864435379
 20
26.040087132
 30
0.0
 10
327.2032666639
 20
26.040087132
 30
0.0
 10
327.3360822782
 20
26.040087132
 30
0.0
 10
327.4446901205
 20
25.9861757693
 30
0.0
 10
327.5331466281
 20
25.8851573907
 30
0.0
 10
327.5331466281
 20
25.8851573907
 30
0.0
 10
327.5331466281
 20
26.1709399539
 30
0.0
 10
327.5331466281
 20
26.1709399539
 30
0.0
  0
SPLINE
  5
241
100
AcDbEntity
  8
0
100
AcDbSpline
 62
7
  6
CONTINUOUS
 70
2
 71
3
 72
32
 73
28
 74
0
 42
0.0000001
 43
0.0000001
 44
0.0000000001
 40
0.0
 40
0.0
 40
0.0
 40
0.0
 40
1.0
 40
1.0
 40
1.0
 40
2.0
 40
2.0
 40
2.0
 40
3.0
 40
3.0
 40
3.0
 40
4.0
 40
4.0
 40
4.0
 40
5.0
 40
5.0
 40
5.0
 40
6.0
 40
6.0
 40
6.0
 40
7.0
 40
7.0
 40
7.0
 40
8.0
 40
8.0
 40
8.0
 40
9.0
 40
9.0
 40
9.0
 40
9.0
 10
330.0650178804
 20
25.5993748276
 30
0.0
 10
330.0650178804
 20
25.5993748276
 30
0.0
 10
330.0650178804
 20
25.6333965613
 30
0.0
 10
330.0650178804
 20
25.6333965613
 30
0.0
 10
330.0650178804
 20
25.9757075435
 30
0.0
 10
329.8921613025
 20
26.2473580019
 30
0.0
 10
329.5255116954
 20
26.2473580019
 30
0.0
 10
329.153889681
 20
26.2473580019
 30
0.0
 10
328.9641530891
 20
25.9809416564
 30
0.0
 10
328.9641530891
 20
25.6260688032
 30
0.0
 10
328.9641530891
 20
25.2863748774
 30
0.0
 10
329.1782283059
 20
25.0204819432
 30
0.0
 10
329.5303532498
 20
25.0204819432
 30
0.0
 10
329.754373281
 20
25.0204819432
 30
0.0
 10
329.9565408909
 20
25.1361558378
 30
0.0
 10
330.0650178804
 20
25.3355755385
 30
0.0
 10
330.0650178804
 20
25.3355755385
 30
0.0
 10
329.8773749337
 20
25.4423514412
 30
0.0
 10
329.8773749337
 20
25.4423514412
 30
0.0
 10
329.7938908332
 20
25.3036474499
 30
0.0
 10
329.7026864163
 20
25.2178079987
 30
0.0
 10
329.5331011591
 20
25.2178079987
 30
0.0
 10
329.3211195875
 20
25.2178079987
 30
0.0
 10
329.1881731204
 20
25.4025721833
 30
0.0
 10
329.1858177696
 20
25.5993748276
 30
0.0
 10
329.1858177696
 20
25.5993748276
 30
0.0
 10
330.0650178804
 20
25.5993748276
 30
0.0
 10
330.0650178804
 20
25.5993748276
 30
0.0
  0
SPLINE
  5
242
100
AcDbEntity
  8
0
100
AcDbSpline
 62
7
  6
CONTINUOUS
 70
2
 71
3
 72
14
 73
10
 74
0
 42
0.0000001
 43
0.0000001
 44
0.0000000001
 40
0.0
 40
0.0
 40
0.0
 40
0.0
 40
1.0
 40
1.0
 40
1.0
 40
2.0
 40
2.0
 40
2.0
 40
3.0
 40
3.0
 40
3.0
 40
3.0
 10
329.1978562292
 20
25.7668664397
 30
0.0
 10
329.2254661746
 20
25.9317409954
 30
0.0
 10
329.3533093817
 20
26.054742648
 30
0.0
 10
329.5255116954
 20
26.054742648
 30
0.0
 10
329.7026864163
 20
26.054742648
 30
0.0
 10
329.816135813
 20
25.9390687534
 30
0.0
 10
329.8433531999
 20
25.7668664397
 30
0.0
 10
329.8433531999
 20
25.7668664397
 30
0.0
 10
329.1978562292
 20
25.7668664397
 30
0.0
 10
329.1978562292
 20
25.7668664397
 30
0.0
  0
SPLINE
  5
243
100
AcDbEntity
  8
0
100
AcDbSpline
 62
7
  6
CONTINUOUS
 70
2
 71
3
 72
20
 73
16
 74
0
 42
0.0000001
 43
0.0000001
 44
0.0000000001
 40
0.0
 40
0.0
 40
0.0
 40
0.0
 40
1.0
 40
1.0
 40
1.0
 40
2.0
 40
2.0
 40
2.0
 40
3.0
 40
3.0
 40
3.0
 40
4.0
 40
4.0
 40
4.0
 40
5.0
 40
5.0
 40
5.0
 40
5.0
 10
332.0890493306
 20
25.9762309548
 30
0.0
 10
332.0890493306
 20
25.9762309548
 30
0.0
 10
332.5001888972
 20
25.4737561185
 30
0.0
 10
332.5001888972
 20
25.4737561185
 30
0.0
 10
332.3841224441
 20
25.3580822239
 30
0.0
 10
332.2463344226
 20
25.2277528132
 30
0.0
 10
332.0743938145
 20
25.2277528132
 30
0.0
 10
331.8969573879
 20
25.2277528132
 30
0.0
 10
331.7294657758
 20
25.3921039576
 30
0.0
 10
331.7294657758
 20
25.5690169729
 30
0.0
 10
331.7294657758
 20
25.7469768107
 30
0.0
 10
331.9392228494
 20
25.8731189311
 30
0.0
 10
332.0668043508
 20
25.9610520275
 30
0.0
 10
332.0668043508
 20
25.9610520275
 30
0.0
 10
332.0890493306
 20
25.9762309548
 30
0.0
 10
332.0890493306
 20
25.9762309548
 30
0.0
  0
SPLINE
  5
244
100
AcDbEntity
  8
0
100
AcDbSpline
 62
7
  6
CONTINUOUS
 70
2
 71
3
 72
23
 73
19
 74
0
 42
0.0000001
 43
0.0000001
 44
0.0000000001
 40
0.0
 40
0.0
 40
0.0
 40
0.0
 40
1.0
 40
1.0
 40
1.0
 40
2.0
 40
2.0
 40
2.0
 40
3.0
 40
3.0
 40
3.0
 40
4.0
 40
4.0
 40
4.0
 40
5.0
 40
5.0
 40
5.0
 40
6.0
 40
6.0
 40
6.0
 40
6.0
 10
332.1383808444
 20
26.2672476309
 30
0.0
 10
332.1383808444
 20
26.2672476309
 30
0.0
 10
332.0767491653
 20
26.3457593241
 30
0.0
 10
332.0767491653
 20
26.3457593241
 30
0.0
 10
332.0228378026
 20
26.4143262028
 30
0.0
 10
331.9660476779
 20
26.4834164928
 30
0.0
 10
331.9660476779
 20
26.5771071133
 30
0.0
 10
331.9660476779
 20
26.6959214757
 30
0.0
 10
332.0619627964
 20
26.7733863463
 30
0.0
 10
332.1729259894
 20
26.7733863463
 30
0.0
 10
332.2961893477
 20
26.7733863463
 30
0.0
 10
332.3894874098
 20
26.7022024111
 30
0.0
 10
332.3894874098
 20
26.5718730004
 30
0.0
 10
332.3894874098
 20
26.4368328882
 30
0.0
 10
332.2613824971
 20
26.3604148401
 30
0.0
 10
332.1678227294
 20
26.2866138485
 30
0.0
 10
332.1678227294
 20
26.2866138485
 30
0.0
 10
332.1383808444
 20
26.2672476309
 30
0.0
 10
332.1383808444
 20
26.2672476309
 30
0.0
  0
SPLINE
  5
245
100
AcDbEntity
  8
0
100
AcDbSpline
 62
7
  6
CONTINUOUS
 70
2
 71
3
 72
50
 73
46
 74
0
 42
0.0000001
 43
0.0000001
 44
0.0000000001
 40
0.0
 40
0.0
 40
0.0
 40
0.0
 40
1.0
 40
1.0
 40
1.0
 40
2.0
 40
2.0
 40
2.0
 40
3.0
 40
3.0
 40
3.0
 40
4.0
 40
4.0
 40
4.0
 40
5.0
 40
5.0
 40
5.0
 40
6.0
 40
6.0
 40
6.0
 40
7.0
 40
7.0
 40
7.0
 40
8.0
 40
8.0
 40
8.0
 40
9.0
 40
9.0
 40
9.0
 40
10.0
 40
10.0
 40
10.0
 40
11.0
 40
11.0
 40
11.0
 40
12.0
 40
12.0
 40
12.0
 40
13.0
 40
13.0
 40
13.0
 40
14.0
 40
14.0
 40
14.0
 40
15.0
 40
15.0
 40
15.0
 40
15.0
 10
332.8405370871
 20
25.0602612011
 30
0.0
 10
332.8405370871
 20
25.0602612011
 30
0.0
 10
333.1259270918
 20
25.0602612011
 30
0.0
 10
333.1259270918
 20
25.0602612011
 30
0.0
 10
333.1259270918
 20
25.0602612011
 30
0.0
 10
332.793560924
 20
25.471139062
 30
0.0
 10
332.793560924
 20
25.471139062
 30
0.0
 10
332.793560924
 20
25.471139062
 30
0.0
 10
333.0200671588
 20
25.7370319963
 30
0.0
 10
333.0200671588
 20
25.7370319963
 30
0.0
 10
333.0200671588
 20
25.7370319963
 30
0.0
 10
332.8718109116
 20
25.8898680923
 30
0.0
 10
332.8718109116
 20
25.8898680923
 30
0.0
 10
332.8718109116
 20
25.8898680923
 30
0.0
 10
332.6559037553
 20
25.6386306742
 30
0.0
 10
332.6559037553
 20
25.6386306742
 30
0.0
 10
332.6559037553
 20
25.6386306742
 30
0.0
 10
332.2688411079
 20
26.1065603655
 30
0.0
 10
332.2688411079
 20
26.1065603655
 30
0.0
 10
332.4242942604
 20
26.2206640263
 30
0.0
 10
332.6065722414
 20
26.3604148401
 30
0.0
 10
332.6065722414
 20
26.5697793553
 30
0.0
 10
332.6065722414
 20
26.8136890154
 30
0.0
 10
332.4045354843
 20
26.9571037083
 30
0.0
 10
332.1780292495
 20
26.9571037083
 30
0.0
 10
331.9338578837
 20
26.9571037083
 30
0.0
 10
331.7494862575
 20
26.8063612574
 30
0.0
 10
331.7494862575
 20
26.5498897263
 30
0.0
 10
331.7494862575
 20
26.3923429287
 30
0.0
 10
331.8481492853
 20
26.25468576
 30
0.0
 10
331.953485807
 20
26.1437225669
 30
0.0
 10
331.953485807
 20
26.1437225669
 30
0.0
 10
331.8379427652
 20
26.0599767609
 30
0.0
 10
331.8379427652
 20
26.0599767609
 30
0.0
 10
331.660244633
 20
25.9317409954
 30
0.0
 10
331.5129043554
 20
25.8040286411
 30
0.0
 10
331.5129043554
 20
25.5669233277
 30
0.0
 10
331.5129043554
 20
25.2465956195
 30
0.0
 10
331.7714695316
 20
25.0204819432
 30
0.0
 10
332.0818524253
 20
25.0204819432
 30
0.0
 10
332.3007691965
 20
25.0204819432
 30
0.0
 10
332.4979643992
 20
25.145577241
 30
0.0
 10
332.6382386243
 20
25.3114986192
 30
0.0
 10
332.6382386243
 20
25.3114986192
 30
0.0
 10
332.8405370871
 20
25.0602612011
 30
0.0
 10
332.8405370871
 20
25.0602612011
 30
0.0
  0
LWPOLYLINE
  5
246
100
AcDbEntity
  8
0
100
AcDbPolyline
 62
7
  6
CONTINUOUS
 90
2
 70
0
 43
0.2
 10
334.7759811768
 20
26.9168010391
 10
334.5446333876
 20
26.9168010391
  0
LWPOLYLINE
  5
247
100
AcDbEntity
  8
0
100
AcDbPolyline
 62
7
  6
CONTINUOUS
 90
2
 70
0
 43
0.2
 10
334.5446333876
 20
26.9168010391
 10
334.5446333876
 20
25.0597377898
  0
LWPOLYLINE
  5
248
100
AcDbEntity
  8
0
100
AcDbPolyline
 62
7
  6
CONTINUOUS
 90
2
 70
0
 43
0.2
 10
334.5446333876
 20
25.0597377898
 10
335.3399568395
 20
25.0597377898
  0
LWPOLYLINE
  5
249
100
AcDbEntity
  8
0
100
AcDbPolyline
 62
7
  6
CONTINUOUS
 90
2
 70
0
 43
0.2
 10
335.3399568395
 20
25.0597377898
 10
335.3399568395
 20
25.2717193614
  0
LWPOLYLINE
  5
24A
100
AcDbEntity
  8
0
100
AcDbPolyline
 62
7
  6
CONTINUOUS
 90
2
 70
0
 43
0.2
 10
335.3399568395
 20
25.2717193614
 10
334.7759811768
 20
25.2717193614
  0
LWPOLYLINE
  5
24B
100
AcDbEntity
  8
0
100
AcDbPolyline
 62
7
  6
CONTINUOUS
 90
2
 70
0
 43
0.2
 10
334.7759811768
 20
25.2717193614
 10
334.7759811768
 20
26.9168010391
  0
LWPOLYLINE
  5
24C
100
AcDbEntity
  8
0
100
AcDbPolyline
 62
7
  6
CONTINUOUS
 90
2
 70
0
 43
0.2
 10
337.019060251
 20
26.2122894457
 10
336.7979189819
 20
26.2122894457
  0
LWPOLYLINE
  5
24D
100
AcDbEntity
  8
0
100
AcDbPolyline
 62
7
  6
CONTINUOUS
 90
2
 70
0
 43
0.2
 10
336.7979189819
 20
26.2122894457
 10
336.7979189819
 20
25.0602612011
  0
LWPOLYLINE
  5
24E
100
AcDbEntity
  8
0
100
AcDbPolyline
 62
7
  6
CONTINUOUS
 90
2
 70
0
 43
0.2
 10
336.7979189819
 20
25.0602612011
 10
337.019060251
 20
25.0602612011
  0
LWPOLYLINE
  5
24F
100
AcDbEntity
  8
0
100
AcDbPolyline
 62
7
  6
CONTINUOUS
 90
2
 70
0
 43
0.2
 10
337.019060251
 20
25.0602612011
 10
337.019060251
 20
26.2122894457
  0
SPLINE
  5
250
100
AcDbEntity
  8
0
100
AcDbSpline
 62
7
  6
CONTINUOUS
 70
2
 71
3
 72
17
 73
13
 74
0
 42
0.0000001
 43
0.0000001
 44
0.0000000001
 40
0.0
 40
0.0
 40
0.0
 40
0.0
 40
1.0
 40
1.0
 40
1.0
 40
2.0
 40
2.0
 40
2.0
 40
3.0
 40
3.0
 40
3.0
 40
4.0
 40
4.0
 40
4.0
 40
4.0
 10
336.9086204693
 20
26.894817765
 30
0.0
 10
336.8246129576
 20
26.894817765
 30
0.0
 10
336.7560460788
 20
26.825727475
 30
0.0
 10
336.7560460788
 20
26.7398880238
 30
0.0
 10
336.7560460788
 20
26.6556188065
 30
0.0
 10
336.8246129576
 20
26.5896689842
 30
0.0
 10
336.9086204693
 20
26.5896689842
 30
0.0
 10
336.9923662753
 20
26.5896689842
 30
0.0
 10
337.0611948597
 20
26.6556188065
 30
0.0
 10
337.0611948597
 20
26.7398880238
 30
0.0
 10
337.0611948597
 20
26.825727475
 30
0.0
 10
336.9923662753
 20
26.894817765
 30
0.0
 10
336.9086204693
 20
26.894817765
 30
0.0
  0
SPLINE
  5
251
100
AcDbEntity
  8
0
100
AcDbSpline
 62
7
  6
CONTINUOUS
 70
2
 71
3
 72
17
 73
13
 74
0
 42
0.0000001
 43
0.0000001
 44
0.0000000001
 40
0.0
 40
0.0
 40
0.0
 40
0.0
 40
1.0
 40
1.0
 40
1.0
 40
2.0
 40
2.0
 40
2.0
 40
3.0
 40
3.0
 40
3.0
 40
4.0
 40
4.0
 40
4.0
 40
4.0
 10
339.1493441926
 20
25.2178079987
 30
0.0
 10
338.915379347
 20
25.2178079987
 30
0.0
 10
338.7850499363
 20
25.4198447558
 30
0.0
 10
338.7850499363
 20
25.6360136177
 30
0.0
 10
338.7850499363
 20
25.8506122457
 30
0.0
 10
338.9208751655
 20
26.0495085351
 30
0.0
 10
339.1493441926
 20
26.0495085351
 30
0.0
 10
339.3888048568
 20
26.0495085351
 30
0.0
 10
339.5243683804
 20
25.8605570602
 30
0.0
 10
339.5243683804
 20
25.6360136177
 30
0.0
 10
339.5243683804
 20
25.4098999414
 30
0.0
 10
339.3911602076
 20
25.2178079987
 30
0.0
 10
339.1493441926
 20
25.2178079987
 30
0.0
  0
SPLINE
  5
252
100
AcDbEntity
  8
0
100
AcDbSpline
 62
7
  6
CONTINUOUS
 70
2
 71
3
 72
50
 73
46
 74
0
 42
0.0000001
 43
0.0000001
 44
0.0000000001
 40
0.0
 40
0.0
 40
0.0
 40
0.0
 40
1.0
 40
1.0
 40
1.0
 40
2.0
 40
2.0
 40
2.0
 40
3.0
 40
3.0
 40
3.0
 40
4.0
 40
4.0
 40
4.0
 40
5.0
 40
5.0
 40
5.0
 40
6.0
 40
6.0
 40
6.0
 40
7.0
 40
7.0
 40
7.0
 40
8.0
 40
8.0
 40
8.0
 40
9.0
 40
9.0
 40
9.0
 40
10.0
 40
10.0
 40
10.0
 40
11.0
 40
11.0
 40
11.0
 40
12.0
 40
12.0
 40
12.0
 40
13.0
 40
13.0
 40
13.0
 40
14.0
 40
14.0
 40
14.0
 40
15.0
 40
15.0
 40
15.0
 40
15.0
 10
339.7334711899
 20
26.2128128569
 30
0.0
 10
339.7334711899
 20
26.2128128569
 30
0.0
 10
339.5118065095
 20
26.2128128569
 30
0.0
 10
339.5118065095
 20
26.2128128569
 30
0.0
 10
339.5118065095
 20
26.2128128569
 30
0.0
 10
339.5118065095
 20
26.0154868014
 30
0.0
 10
339.5118065095
 20
26.0154868014
 30
0.0
 10
339.5118065095
 20
26.0154868014
 30
0.0
 10
339.5070958079
 20
26.0154868014
 30
0.0
 10
339.5070958079
 20
26.0154868014
 30
0.0
 10
339.4157605382
 20
26.158378083
 30
0.0
 10
339.2778416638
 20
26.2468345907
 30
0.0
 10
339.1051159388
 20
26.2468345907
 30
0.0
 10
338.772749771
 20
26.2468345907
 30
0.0
 10
338.5636469615
 20
25.9589583823
 30
0.0
 10
338.5636469615
 20
25.6433413757
 30
0.0
 10
338.5636469615
 20
25.3135922644
 30
0.0
 10
338.7607113114
 20
25.0204819432
 30
0.0
 10
339.1155841646
 20
25.0204819432
 30
0.0
 10
339.2778416638
 20
25.0204819432
 30
0.0
 10
339.4178541833
 20
25.1089384508
 30
0.0
 10
339.5070958079
 20
25.2397912728
 30
0.0
 10
339.5070958079
 20
25.2397912728
 30
0.0
 10
339.5118065095
 20
25.2397912728
 30
0.0
 10
339.5118065095
 20
25.2397912728
 30
0.0
 10
339.5118065095
 20
25.2397912728
 30
0.0
 10
339.5118065095
 20
25.0204819432
 30
0.0
 10
339.5118065095
 20
25.0204819432
 30
0.0
 10
339.5118065095
 20
24.7839000411
 30
0.0
 10
339.4552780904
 20
24.5970422113
 30
0.0
 10
339.1820573981
 20
24.5970422113
 30
0.0
 10
338.9797589354
 20
24.5970422113
 30
0.0
 10
338.8371293594
 20
24.7153331624
 30
0.0
 10
338.8371293594
 20
24.9215572098
 30
0.0
 10
338.8371293594
 20
24.9215572098
 30
0.0
 10
338.615464679
 20
24.9215572098
 30
0.0
 10
338.615464679
 20
24.9215572098
 30
0.0
 10
338.6204370862
 20
24.5970422113
 30
0.0
 10
338.8515231698
 20
24.4002395671
 30
0.0
 10
339.171850878
 20
24.4002395671
 30
0.0
 10
339.6198909404
 20
24.4002395671
 30
0.0
 10
339.7334711899
 20
24.6854987189
 30
0.0
 10
339.7334711899
 20
25.0822444751
 30
0.0
 10
339.7334711899
 20
25.0822444751
 30
0.0
 10
339.7334711899
 20
26.2128128569
 30
0.0
 10
339.7334711899
 20
26.2128128569
 30
0.0
  0
SPLINE
  5
253
100
AcDbEntity
  8
0
100
AcDbSpline
 62
7
  6
CONTINUOUS
 70
2
 71
3
 72
44
 73
40
 74
0
 42
0.0000001
 43
0.0000001
 44
0.0000000001
 40
0.0
 40
0.0
 40
0.0
 40
0.0
 40
1.0
 40
1.0
 40
1.0
 40
2.0
 40
2.0
 40
2.0
 40
3.0
 40
3.0
 40
3.0
 40
4.0
 40
4.0
 40
4.0
 40
5.0
 40
5.0
 40
5.0
 40
6.0
 40
6.0
 40
6.0
 40
7.0
 40
7.0
 40
7.0
 40
8.0
 40
8.0
 40
8.0
 40
9.0
 40
9.0
 40
9.0
 40
10.0
 40
10.0
 40
10.0
 40
11.0
 40
11.0
 40
11.0
 40
12.0
 40
12.0
 40
12.0
 40
13.0
 40
13.0
 40
13.0
 40
13.0
 10
341.3023965253
 20
27.1978729007
 30
0.0
 10
341.3023965253
 20
27.1978729007
 30
0.0
 10
341.3023965253
 20
25.0597377898
 30
0.0
 10
341.3023965253
 20
25.0597377898
 30
0.0
 10
341.3023965253
 20
25.0597377898
 30
0.0
 10
341.5237995001
 20
25.0597377898
 30
0.0
 10
341.5237995001
 20
25.0597377898
 30
0.0
 10
341.5237995001
 20
25.0597377898
 30
0.0
 10
341.5237995001
 20
25.5894300131
 30
0.0
 10
341.5237995001
 20
25.5894300131
 30
0.0
 10
341.5237995001
 20
25.7993179395
 30
0.0
 10
341.5237995001
 20
26.0500319464
 30
0.0
 10
341.8090586519
 20
26.0500319464
 30
0.0
 10
342.0359574452
 20
26.0500319464
 30
0.0
 10
342.0629131266
 20
25.9170854793
 30
0.0
 10
342.0629131266
 20
25.7208062464
 30
0.0
 10
342.0629131266
 20
25.7208062464
 30
0.0
 10
342.0629131266
 20
25.0597377898
 30
0.0
 10
342.0629131266
 20
25.0597377898
 30
0.0
 10
342.0629131266
 20
25.0597377898
 30
0.0
 10
342.2848395126
 20
25.0597377898
 30
0.0
 10
342.2848395126
 20
25.0597377898
 30
0.0
 10
342.2848395126
 20
25.0597377898
 30
0.0
 10
342.2848395126
 20
25.7469768107
 30
0.0
 10
342.2848395126
 20
25.7469768107
 30
0.0
 10
342.2848395126
 20
26.027525261
 30
0.0
 10
342.2008320009
 20
26.2473580019
 30
0.0
 10
341.8757935911
 20
26.2473580019
 30
0.0
 10
341.7360427773
 20
26.2473580019
 30
0.0
 10
341.5978621973
 20
26.1808847684
 30
0.0
 10
341.5285102016
 20
26.0578831157
 30
0.0
 10
341.5285102016
 20
26.0578831157
 30
0.0
 10
341.5237995001
 20
26.0578831157
 30
0.0
 10
341.5237995001
 20
26.0578831157
 30
0.0
 10
341.5237995001
 20
26.0578831157
 30
0.0
 10
341.5237995001
 20
27.1978729007
 30
0.0
 10
341.5237995001
 20
27.1978729007
 30
0.0
 10
341.5237995001
 20
27.1978729007
 30
0.0
 10
341.3023965253
 20
27.1978729007
 30
0.0
 10
341.3023965253
 20
27.1978729007
 30
0.0
  0
LWPOLYLINE
  5
254
100
AcDbEntity
  8
0
100
AcDbPolyline
 62
7
  6
CONTINUOUS
 90
2
 70
0
 43
0.2
 10
344.1246301895
 20
26.005541987
 10
344.341060757
 20
26.005541987
  0
LWPOLYLINE
  5
255
100
AcDbEntity
  8
0
100
AcDbPolyline
 62
7
  6
CONTINUOUS
 90
2
 70
0
 43
0.2
 10
344.341060757
 20
26.005541987
 10
344.341060757
 20
26.2122894457
  0
LWPOLYLINE
  5
256
100
AcDbEntity
  8
0
100
AcDbPolyline
 62
7
  6
CONTINUOUS
 90
2
 70
0
 43
0.2
 10
344.341060757
 20
26.2122894457
 10
344.1246301895
 20
26.2122894457
  0
LWPOLYLINE
  5
257
100
AcDbEntity
  8
0
100
AcDbPolyline
 62
7
  6
CONTINUOUS
 90
2
 70
0
 43
0.2
 10
344.1246301895
 20
26.2122894457
 10
344.1246301895
 20
26.65300175
  0
LWPOLYLINE
  5
258
100
AcDbEntity
  8
0
100
AcDbPolyline
 62
7
  6
CONTINUOUS
 90
2
 70
0
 43
0.2
 10
344.1246301895
 20
26.65300175
 10
343.9029655091
 20
26.65300175
  0
LWPOLYLINE
  5
259
100
AcDbEntity
  8
0
100
AcDbPolyline
 62
7
  6
CONTINUOUS
 90
2
 70
0
 43
0.2
 10
343.9029655091
 20
26.65300175
 10
343.9029655091
 20
26.2122894457
  0
LWPOLYLINE
  5
25A
100
AcDbEntity
  8
0
100
AcDbPolyline
 62
7
  6
CONTINUOUS
 90
2
 70
0
 43
0.2
 10
343.9029655091
 20
26.2122894457
 10
343.7823192072
 20
26.2122894457
  0
LWPOLYLINE
  5
25B
100
AcDbEntity
  8
0
100
AcDbPolyline
 62
7
  6
CONTINUOUS
 90
2
 70
0
 43
0.2
 10
343.7823192072
 20
26.2122894457
 10
343.7823192072
 20
26.005541987
  0
LWPOLYLINE
  5
25C
100
AcDbEntity
  8
0
100
AcDbPolyline
 62
7
  6
CONTINUOUS
 90
2
 70
0
 43
0.2
 10
343.7823192072
 20
26.005541987
 10
343.9029655091
 20
26.005541987
  0
LWPOLYLINE
  5
25D
100
AcDbEntity
  8
0
100
AcDbPolyline
 62
7
  6
CONTINUOUS
 90
2
 70
0
 43
0.2
 10
343.9029655091
 20
26.005541987
 10
343.9029655091
 20
25.0597377898
  0
LWPOLYLINE
  5
25E
100
AcDbEntity
  8
0
100
AcDbPolyline
 62
7
  6
CONTINUOUS
 90
2
 70
0
 43
0.2
 10
343.9029655091
 20
25.0597377898
 10
344.1246301895
 20
25.0597377898
  0
LWPOLYLINE
  5
25F
100
AcDbEntity
  8
0
100
AcDbPolyline
 62
7
  6
CONTINUOUS
 90
2
 70
0
 43
0.2
 10
344.1246301895
 20
25.0597377898
 10
344.1246301895
 20
26.005541987
  0
SPLINE
  5
260
100
AcDbEntity
  8
0
100
AcDbSpline
 62
7
  6
CONTINUOUS
 70
2
 71
3
 72
20
 73
16
 74
0
 42
0.0000001
 43
0.0000001
 44
0.0000000001
 40
0.0
 40
0.0
 40
0.0
 40
0.0
 40
1.0
 40
1.0
 40
1.0
 40
2.0
 40
2.0
 40
2.0
 40
3.0
 40
3.0
 40
3.0
 40
4.0
 40
4.0
 40
4.0
 40
5.0
 40
5.0
 40
5.0
 40
5.0
 10
331.9066404967
 20
35.4206642332
 30
0.0
 10
331.9066404967
 20
35.4206642332
 30
0.0
 10
334.2229971512
 20
32.5911028109
 30
0.0
 10
334.2229971512
 20
32.5911028109
 30
0.0
 10
333.5713500978
 20
31.9389323462
 30
0.0
 10
332.7944768938
 20
31.2030160755
 30
0.0
 10
331.8232872491
 20
31.2030160755
 30
0.0
 10
330.8247493647
 20
31.2030160755
 30
0.0
 10
329.8814313711
 20
32.1325945228
 30
0.0
 10
329.8814313711
 20
33.1317866713
 30
0.0
 10
329.8814313711
 20
34.1309788198
 30
0.0
 10
331.0602844442
 20
34.8375840585
 30
0.0
 10
331.7818069046
 20
35.3374418384
 30
0.0
 10
331.7818069046
 20
35.3374418384
 30
0.0
 10
331.9066404967
 20
35.4206642332
 30
0.0
 10
331.9066404967
 20
35.4206642332
 30
0.0
  0
SPLINE
  5
261
100
AcDbEntity
  8
0
100
AcDbSpline
 62
7
  6
CONTINUOUS
 70
2
 71
3
 72
23
 73
19
 74
0
 42
0.0000001
 43
0.0000001
 44
0.0000000001
 40
0.0
 40
0.0
 40
0.0
 40
0.0
 40
1.0
 40
1.0
 40
1.0
 40
2.0
 40
2.0
 40
2.0
 40
3.0
 40
3.0
 40
3.0
 40
4.0
 40
4.0
 40
4.0
 40
5.0
 40
5.0
 40
5.0
 40
6.0
 40
6.0
 40
6.0
 40
6.0
 10
332.1840484793
 20
37.0584181529
 30
0.0
 10
332.1840484793
 20
37.0584181529
 30
0.0
 10
331.8375502067
 20
37.5017475137
 30
0.0
 10
331.8375502067
 20
37.5017475137
 30
0.0
 10
331.5317471618
 20
37.8898569837
 30
0.0
 10
331.2128588347
 20
38.2783590121
 30
0.0
 10
331.2128588347
 20
38.8053033262
 30
0.0
 10
331.2128588347
 20
39.4714750428
 30
0.0
 10
331.7541969591
 20
39.9151969621
 30
0.0
 10
332.3781032143
 20
39.9151969621
 30
0.0
 10
333.0718848763
 20
39.9151969621
 30
0.0
 10
333.5990908961
 20
39.5129553874
 30
0.0
 10
333.5990908961
 20
38.7779550864
 30
0.0
 10
333.5990908961
 20
38.0146905758
 30
0.0
 10
332.8778301414
 20
37.58457735
 30
0.0
 10
332.3507549745
 20
37.1688579346
 30
0.0
 10
332.3507549745
 20
37.1688579346
 30
0.0
 10
332.1840484793
 20
37.0584181529
 30
0.0
 10
332.1840484793
 20
37.0584181529
 30
0.0
  0
SPLINE
  5
262
100
AcDbEntity
  8
0
100
AcDbSpline
 62
7
  6
CONTINUOUS
 70
2
 71
3
 72
50
 73
46
 74
0
 42
0.0000001
 43
0.0000001
 44
0.0000000001
 40
0.0
 40
0.0
 40
0.0
 40
0.0
 40
1.0
 40
1.0
 40
1.0
 40
2.0
 40
2.0
 40
2.0
 40
3.0
 40
3.0
 40
3.0
 40
4.0
 40
4.0
 40
4.0
 40
5.0
 40
5.0
 40
5.0
 40
6.0
 40
6.0
 40
6.0
 40
7.0
 40
7.0
 40
7.0
 40
8.0
 40
8.0
 40
8.0
 40
9.0
 40
9.0
 40
9.0
 40
10.0
 40
10.0
 40
10.0
 40
11.0
 40
11.0
 40
11.0
 40
12.0
 40
12.0
 40
12.0
 40
13.0
 40
13.0
 40
13.0
 40
14.0
 40
14.0
 40
14.0
 40
15.0
 40
15.0
 40
15.0
 40
15.0
 10
336.1376356422
 20
30.2598289348
 30
0.0
 10
336.1376356422
 20
30.2598289348
 30
0.0
 10
337.7468636468
 20
30.2598289348
 30
0.0
 10
337.7468636468
 20
30.2598289348
 30
0.0
 10
337.7468636468
 20
30.2598289348
 30
0.0
 10
335.8738363531
 20
32.5769707062
 30
0.0
 10
335.8738363531
 20
32.5769707062
 30
0.0
 10
335.8738363531
 20
32.5769707062
 30
0.0
 10
337.1501747786
 20
34.0744504008
 30
0.0
 10
337.1501747786
 20
34.0744504008
 30
0.0
 10
337.1501747786
 20
34.0744504008
 30
0.0
 10
336.3179508309
 20
34.9354619693
 30
0.0
 10
336.3179508309
 20
34.9354619693
 30
0.0
 10
336.3179508309
 20
34.9354619693
 30
0.0
 10
335.0973557076
 20
33.5201578469
 30
0.0
 10
335.0973557076
 20
33.5201578469
 30
0.0
 10
335.0973557076
 20
33.5201578469
 30
0.0
 10
332.9194413388
 20
36.1555336813
 30
0.0
 10
332.9194413388
 20
36.1555336813
 30
0.0
 10
333.7930147782
 20
36.7935720412
 30
0.0
 10
334.8196860194
 20
37.58457735
 30
0.0
 10
334.8196860194
 20
38.7634304231
 30
0.0
 10
334.8196860194
 20
40.1371233482
 30
0.0
 10
333.6817898795
 20
40.9416064976
 30
0.0
 10
332.4064982766
 20
40.9416064976
 30
0.0
 10
331.0330670573
 20
40.9416064976
 30
0.0
 10
329.9921328585
 20
40.0953812979
 30
0.0
 10
329.9921328585
 20
38.6527289358
 30
0.0
 10
329.9921328585
 20
37.7651542444
 30
0.0
 10
330.547472235
 20
36.9882810403
 30
0.0
 10
331.1436376918
 20
36.3638513739
 30
0.0
 10
331.1436376918
 20
36.3638513739
 30
0.0
 10
330.4917289328
 20
35.8922578035
 30
0.0
 10
330.4917289328
 20
35.8922578035
 30
0.0
 10
329.4931910484
 20
35.1709970488
 30
0.0
 10
328.6603128365
 20
34.4497362942
 30
0.0
 10
328.6603128365
 20
33.1181779778
 30
0.0
 10
328.6603128365
 20
31.3145026798
 30
0.0
 10
330.1173590091
 20
30.0379025487
 30
0.0
 10
331.8648984465
 20
30.0379025487
 30
0.0
 10
333.0997565274
 20
30.0379025487
 30
0.0
 10
334.2091267521
 20
30.7460780212
 30
0.0
 10
335.000001208
 20
31.6746096459
 30
0.0
 10
335.000001208
 20
31.6746096459
 30
0.0
 10
336.1376356422
 20
30.2598289348
 30
0.0
 10
336.1376356422
 20
30.2598289348
 30
0.0
  0
LINE
  5
263
100
AcDbEntity
  8
0
100
AcDbLine
 62
7
  6
CONTINUOUS
 10
321.9404970172
 20
28.2337038394
 11
344.3544077449
 21
28.2337038394
  0
LINE
  5
264
100
AcDbEntity
  8
0
100
AcDbLine
 62
7
  6
CONTINUOUS
 10
344.3544077449
 20
28.2337038394
 11
344.3544077449
 21
50.6476145671
  0
LINE
  5
265
100
AcDbEntity
  8
0
100
AcDbLine
 62
7
  6
CONTINUOUS
 10
344.3544077449
 20
50.6476145671
 11
321.9404970172
 21
50.6476145671
  0
LINE
  5
266
100
AcDbEntity
  8
0
100
AcDbLine
 62
7
  6
CONTINUOUS
 10
321.9404970172
 20
50.6476145671
 11
321.9404970172
 21
28.2337038394
  0
ENDBLK
  5
267
100
AcDbEntity
  8
0
  6
BYBLOCK
 62
0
100
AcDbBlockEnd
  0
BLOCK
  5
268
100
AcDbEntity
  8
0
100
AcDbBlockBegin
  2
_CLOSED
 70
64
 10
0.0
 20
0.0
  3
_CLOSED
  1

  0
LINE
  5
269
100
AcDbEntity
  8
0
  6
BYBLOCK
 62
0
100
AcDbLine
 10
0.0
 20
0.0
 11
-1.0
 21
0.2
  0
LINE
  5
26A
100
AcDbEntity
  8
0
  6
BYBLOCK
 62
0
100
AcDbLine
 10
-1.0
 20
0.2
 11
-1.0
 21
-0.2
  0
LINE
  5
26B
100
AcDbEntity
  8
0
  6
BYBLOCK
 62
0
100
AcDbLine
 10
-1.0
 20
-0.2
 11
0.0
 21
0.0
  0
LINE
  5
26C
100
AcDbEntity
  8
0
  6
BYBLOCK
 62
0
100
AcDbLine
 10
-1.0
 20
0.0
 11
0.0
 21
0.0
  0
ENDBLK
  5
26D
100
AcDbEntity
  8
0
  6
BYBLOCK
 62
0
100
AcDbBlockEnd
  0
BLOCK
  5
26E
100
AcDbEntity
  8
0
100
AcDbBlockBegin
 62
2
  6
CONTINUOUS
  2
*D0
 70
65
 10
0.0
 20
0.0
  3
*D0
  1

  0
LINE
  5
26F
100
AcDbEntity
  8
0
100
AcDbLine
 62
2
  6
CONTINUOUS
 10
111.776552155
 20
254.0782259336
 11
120.1624997678
 21
258.9198550453
  0
LINE
  5
270
100
AcDbEntity
  8
0
100
AcDbLine
 62
2
  6
CONTINUOUS
 10
132.4759197278
 20
220.0719299464
 11
140.0624997678
 21
224.4520439747
  0
LINE
  5
271
100
AcDbEntity
  8
0
100
AcDbLine
 62
2
  6
CONTINUOUS
 10
119.5129807149
 20
258.5448550453
 11
129.4629807149
 21
241.31094951
  0
LINE
  5
272
100
AcDbEntity
  8
0
100
AcDbLine
 62
2
  6
CONTINUOUS
 10
139.4129807149
 20
224.0770439747
 11
129.4629807149
 21
241.31094951
  0
INSERT
  5
273
100
AcDbEntity
  8
0
100
AcDbBlockReference
 62
2
  6
CONTINUOUS
  2
_CLOSED
 10
119.5129807149
 20
258.5448550453
 41
2.5
 42
2.5
 43
2.5
 50
120.0
  0
INSERT
  5
274
100
AcDbEntity
  8
0
100
AcDbBlockReference
 62
2
  6
CONTINUOUS
  2
_CLOSED
 10
139.4129807149
 20
224.0770439747
 41
2.5
 42
2.5
 43
2.5
 50
300.0
  0
ENDBLK
  5
275
100
AcDbEntity
  8
0
  6
BYBLOCK
 62
0
100
AcDbBlockEnd
  0
BLOCK
  5
276
100
AcDbEntity
  8
0
100
AcDbBlockBegin
 62
2
  6
CONTINUOUS
  2
*D1
 70
65
 10
0.0
 20
0.0
  3
*D1
  1

  0
LINE
  5
277
100
AcDbEntity
  8
0
100
AcDbLine
 62
2
  6
CONTINUOUS
 10
70.2100128154
 20
168.835293682
 11
70.2100128154
 21
158.684166073
  0
LINE
  5
278
100
AcDbEntity
  8
0
100
AcDbLine
 62
2
  6
CONTINUOUS
 10
110.0100128154
 20
168.2462027729
 11
110.0100128154
 21
158.684166073
  0
LINE
  5
279
100
AcDbEntity
  8
0
100
AcDbLine
 62
2
  6
CONTINUOUS
 10
70.2100128154
 20
159.434166073
 11
90.1100128154
 21
159.434166073
  0
LINE
  5
27A
100
AcDbEntity
  8
0
100
AcDbLine
 62
2
  6
CONTINUOUS
 10
110.0100128154
 20
159.434166073
 11
90.1100128154
 21
159.434166073
  0
INSERT
  5
27B
100
AcDbEntity
  8
0
100
AcDbBlockReference
 62
2
  6
CONTINUOUS
  2
_CLOSED
 10
70.2100128154
 20
159.434166073
 41
2.5
 42
2.5
 43
2.5
 50
180.0
  0
INSERT
  5
27C
100
AcDbEntity
  8
0
100
AcDbBlockReference
 62
2
  6
CONTINUOUS
  2
_CLOSED
 10
110.0100128154
 20
159.434166073
 41
2.5
 42
2.5
 43
2.5
  0
ENDBLK
  5
27D
100
AcDbEntity
  8
0
  6
BYBLOCK
 62
0
100
AcDbBlockEnd
  0
BLOCK
  5
27E
100
AcDbEntity
  8
0
100
AcDbBlockBegin
 62
2
  6
CONTINUOUS
  2
*D2
 70
65
 10
0.0
 20
0.0
  3
*D2
  1

  0
LINE
  5
27F
100
AcDbEntity
  8
0
100
AcDbLine
 62
2
  6
CONTINUOUS
 10
139.4494756167
 20
252.480179801
 11
149.8173639146
 21
252.480179801
  0
LINE
  5
280
100
AcDbEntity
  8
0
100
AcDbLine
 62
2
  6
CONTINUOUS
 10
140.4145819997
 20
171.4039694203
 11
149.8173639146
 21
171.4039694203
  0
LINE
  5
281
100
AcDbEntity
  8
0
100
AcDbLine
 62
2
  6
CONTINUOUS
 10
149.0673639146
 20
252.480179801
 11
149.0673639146
 21
211.9420746107
  0
LINE
  5
282
100
AcDbEntity
  8
0
100
AcDbLine
 62
2
  6
CONTINUOUS
 10
149.0673639146
 20
171.4039694203
 11
149.0673639146
 21
211.9420746107
  0
INSERT
  5
283
100
AcDbEntity
  8
0
100
AcDbBlockReference
 62
2
  6
CONTINUOUS
  2
_CLOSED
 10
149.0673639146
 20
252.480179801
 41
2.5
 42
2.5
 43
2.5
 50
90.0
  0
INSERT
  5
284
100
AcDbEntity
  8
0
100
AcDbBlockReference
 62
2
  6
CONTINUOUS
  2
_CLOSED
 10
149.0673639146
 20
171.4039694203
 41
2.5
 42
2.5
 43
2.5
 50
270.0
  0
ENDBLK
  5
285
100
AcDbEntity
  8
0
  6
BYBLOCK
 62
0
100
AcDbBlockEnd
  0
BLOCK
  5
286
100
AcDbEntity
  8
0
100
AcDbBlockBegin
 62
2
  6
CONTINUOUS
  2
*D3
 70
65
 10
0.0
 20
0.0
  3
*D3
  1

  0
LINE
  5
287
100
AcDbEntity
  8
0
100
AcDbLine
 62
2
  6
CONTINUOUS
 10
106.9574335997
 20
256.0329995885
 11
97.5641824915
 21
272.3025877563
  0
LINE
  5
288
100
AcDbEntity
  8
0
100
AcDbLine
 62
2
  6
CONTINUOUS
 10
41.9892250361
 20
221.9703763953
 11
34.0884775663
 21
235.6548724307
  0
LINE
  5
289
100
AcDbEntity
  8
0
100
AcDbLine
 62
2
  6
CONTINUOUS
 10
97.9391824915
 20
271.6530687034
 11
66.2013300289
 21
253.3292110407
  0
LINE
  5
28A
100
AcDbEntity
  8
0
100
AcDbLine
 62
2
  6
CONTINUOUS
 10
34.4634775663
 20
235.0053533779
 11
66.2013300289
 21
253.3292110407
  0
INSERT
  5
28B
100
AcDbEntity
  8
0
100
AcDbBlockReference
 62
2
  6
CONTINUOUS
  2
_CLOSED
 10
97.9391824915
 20
271.6530687034
 41
2.5
 42
2.5
 43
2.5
 50
30.0
  0
INSERT
  5
28C
100
AcDbEntity
  8
0
100
AcDbBlockReference
 62
2
  6
CONTINUOUS
  2
_CLOSED
 10
34.4634775663
 20
235.0053533779
 41
2.5
 42
2.5
 43
2.5
 50
210.0
  0
ENDBLK
  5
28D
100
AcDbEntity
  8
0
  6
BYBLOCK
 62
0
100
AcDbBlockEnd
  0
BLOCK
  5
28E
100
AcDbEntity
  8
0
100
AcDbBlockBegin
  2
*T1
 70
1
 10
0.0
 20
0.0
  3
*T1
  1

  0
LINE
  5
28F
100
AcDbEntity
  8
0
100
AcDbLine
 62
2
  6
CONTINUOUS
 10
0.0
 20
0.0
 11
90.0
 21
0.0
  0
LINE
  5
290
100
AcDbEntity
  8
0
100
AcDbLine
 62
2
  6
CONTINUOUS
 10
0.0
 20
0.0
 11
0.0
 21
-40.0
  0
LINE
  5
291
100
AcDbEntity
  8
0
100
AcDbLine
 62
2
  6
CONTINUOUS
 10
30.0
 20
-6.0
 11
90.0
 21
-6.0
  0
LINE
  5
292
100
AcDbEntity
  8
0
100
AcDbLine
 62
2
  6
CONTINUOUS
 10
30.0
 20
-12.0
 11
90.0
 21
-12.0
  0
LINE
  5
293
100
AcDbEntity
  8
0
100
AcDbLine
 62
2
  6
CONTINUOUS
 10
30.0
 20
-22.0
 11
90.0
 21
-22.0
  0
LINE
  5
294
100
AcDbEntity
  8
0
100
AcDbLine
 62
2
  6
CONTINUOUS
 10
0.0
 20
-27.0
 11
90.0
 21
-27.0
  0
LINE
  5
295
100
AcDbEntity
  8
0
100
AcDbLine
 62
2
  6
CONTINUOUS
 10
0.0
 20
-40.0
 11
90.0
 21
-40.0
  0
LINE
  5
296
100
AcDbEntity
  8
0
100
AcDbLine
 62
2
  6
CONTINUOUS
 10
30.0
 20
0.0
 11
30.0
 21
-27.0
  0
LINE
  5
297
100
AcDbEntity
  8
0
100
AcDbLine
 62
2
  6
CONTINUOUS
 10
70.0
 20
0.0
 11
70.0
 21
-12.0
  0
LINE
  5
298
100
AcDbEntity
  8
0
100
AcDbLine
 62
2
  6
CONTINUOUS
 10
90.0
 20
0.0
 11
90.0
 21
-40.0
  0
ENDBLK
  5
299
100
AcDbEntity
  8
0
100
AcDbBlockEnd
  0
ENDSEC
  0
SECTION
  2
ENTITIES
  0
DIMENSION
  5
29A
100
AcDbEntity
  8
0
100
AcDbDimension
 62
2
  6
CONTINUOUS
  2
*D0
 10
139.4129807149
 20
224.0770439747
 11
127.9339283392
 21
245.4593459122
 70
160
 71
2
 42
39.8
  1
%%c<>
  3
DIMSTYLE_1
100
AcDbAlignedDimension
 13
111.776552155
 23
254.0782259336
 14
132.4759197278
 24
220.0719299464
 50
300.0
100
AcDbRotatedDimension
  0
DIMENSION
  5
29B
100
AcDbEntity
  8
0
100
AcDbDimension
 62
2
  6
CONTINUOUS
  2
*D1
 10
110.0100128154
 20
159.434166073
 11
85.7528699582
 21
160.184166073
 70
160
 71
2
 42
39.8
  1
%%c<>
  3
DIMSTYLE_1
100
AcDbAlignedDimension
 13
70.2100128154
 23
168.835293682
 14
110.0100128154
 24
168.2462027729
100
AcDbRotatedDimension
  0
DIMENSION
  5
29C
100
AcDbEntity
  8
0
100
AcDbDimension
 62
2
  6
CONTINUOUS
  2
*D2
 10
149.0673639146
 20
171.4039694203
 11
148.3173639146
 21
209.5849317535
 70
160
 71
2
 42
81.0762103807
  1
80
  3
DIMSTYLE_2
100
AcDbAlignedDimension
 13
139.4494756167
 23
252.480179801
 14
140.4145819997
 24
171.4039694203
 50
270.0
100
AcDbRotatedDimension
  0
DIMENSION
  5
29D
100
AcDbEntity
  8
0
100
AcDbDimension
 62
2
  6
CONTINUOUS
  2
*D3
 10
34.4634775663
 20
235.0053533779
 11
63.8777728704
 21
252.8537300935
 70
160
 71
2
 42
73.2954306511
  1
75
  3
DIMSTYLE_2
100
AcDbAlignedDimension
 13
106.9574335997
 23
256.0329995885
 14
41.9892250361
 24
221.9703763953
 50
210.0
100
AcDbRotatedDimension
  0
INSERT
  5
29E
100
AcDbEntity
  8
0
100
AcDbBlockReference
 62
2
  6
CONTINUOUS
  2
LOGO2_BL0
 10
333.1473869546
 20
37.5239270671
  0
LINE
  5
29F
100
AcDbEntity
  8
0
100
AcDbLine
 62
2
  6
CONTINUOUS
 10
352.3802563477
 20
46.5239282227
 11
352.3802563477
 21
48.0239273071
  0
LWPOLYLINE
  5
2A0
100
AcDbEntity
  8
0
100
AcDbPolyline
 62
2
  6
CONTINUOUS
 90
3
 70
0
 10
352.8802624512
 20
47.1667840576
 10
351.3802697754
 20
47.1667840576
 10
352.0231384277
 20
49.5239263916
  0
LWPOLYLINE
  5
2A1
100
AcDbEntity
  8
0
100
AcDbPolyline
 62
2
  6
CONTINUOUS
 90
7
 70
0
 10
355.2374047852
 20
46.5239282227
 10
353.7374121094
 20
46.5239282227
 10
355.2374047852
 20
48.6667831421
 10
355.2374047852
 20
49.0953579712
 10
354.8088427734
 20
49.5239263916
 10
354.1659741211
 20
49.5239263916
 10
353.7374121094
 20
48.8810705566
  0
LWPOLYLINE
  5
2A2
100
AcDbEntity
  8
0
100
AcDbPolyline
 62
2
  6
CONTINUOUS
 90
3
 70
0
 10
356.0945544434
 20
48.6667831421
 10
356.9517041016
 20
49.5239263916
 10
356.9517041016
 20
46.5239282227
  0
LINE
  5
2A3
100
AcDbEntity
  8
0
100
AcDbLine
 62
2
  6
CONTINUOUS
 10
357.808828125
 20
46.5239282227
 11
359.5231274414
 21
46.5239282227
  0
LWPOLYLINE
  5
2A4
100
AcDbEntity
  8
0
100
AcDbPolyline
 62
2
  6
CONTINUOUS
 90
6
 70
0
 10
361.4517077637
 20
46.5239282227
 10
360.5945581055
 20
46.5239282227
 10
360.165970459
 20
46.9524966431
 10
360.165970459
 20
49.0953579712
 10
360.5945581055
 20
49.5239263916
 10
361.4517077637
 20
49.5239263916
  0
LINE
  5
2A5
100
AcDbEntity
  8
0
100
AcDbLine
 62
2
  6
CONTINUOUS
 10
362.6659753418
 20
46.5239282227
 11
364.3802746582
 21
46.5239282227
  0
LWPOLYLINE
  5
2A6
100
AcDbEntity
  8
0
100
AcDbPolyline
 62
2
  6
CONTINUOUS
 90
13
 70
0
 10
365.0231176758
 20
47.3810714722
 10
365.0231176758
 20
48.6667831421
 10
365.2373986816
 20
49.0953579712
 10
365.6659863281
 20
49.5239263916
 10
365.880267334
 20
49.5239263916
 10
366.3088293457
 20
49.0953579712
 10
366.5231359863
 20
48.6667831421
 10
366.5231359863
 20
47.3810714722
 10
366.3088293457
 20
46.9524966431
 10
365.880267334
 20
46.5239282227
 10
365.6659863281
 20
46.5239282227
 10
365.2373986816
 20
46.9524966431
 10
365.0231176758
 20
47.3810714722
  0
LWPOLYLINE
  5
2A7
100
AcDbEntity
  8
0
100
AcDbPolyline
 62
2
  6
CONTINUOUS
 90
13
 70
0
 10
367.3802600098
 20
47.3810714722
 10
367.3802600098
 20
48.6667831421
 10
367.5945666504
 20
49.0953579712
 10
368.0231286621
 20
49.5239263916
 10
368.237409668
 20
49.5239263916
 10
368.6659716797
 20
49.0953579712
 10
368.8802783203
 20
48.6667831421
 10
368.8802783203
 20
47.3810714722
 10
368.6659716797
 20
46.9524966431
 10
368.237409668
 20
46.5239282227
 10
368.0231286621
 20
46.5239282227
 10
367.5945666504
 20
46.9524966431
 10
367.3802600098
 20
47.3810714722
  0
LWPOLYLINE
  5
2A8
100
AcDbEntity
  8
0
100
AcDbPolyline
 62
2
  6
CONTINUOUS
 90
3
 70
0
 10
369.7374023437
 20
48.6667831421
 10
370.594552002
 20
49.5239263916
 10
370.594552002
 20
46.5239282227
  0
LWPOLYLINE
  5
2A9
100
AcDbEntity
  8
0
100
AcDbPolyline
 62
2
  6
CONTINUOUS
 90
9
 70
0
 10
391.5525878906
 20
45.7739254761
 10
391.5525878906
 20
49.2739297485
 10
392.4822839355
 20
49.2739297485
 10
392.8541418457
 20
48.9822573853
 10
393.0400964355
 20
48.6905914307
 10
393.0400964355
 20
48.1072595215
 10
392.8541418457
 20
47.8155935669
 10
392.4822839355
 20
47.5239276123
 10
391.5525878906
 20
47.5239276123
  0
LINE
  5
2AA
100
AcDbEntity
  8
0
100
AcDbLine
 62
2
  6
CONTINUOUS
 10
392.4822839355
 20
47.5239276123
 11
393.0400964355
 21
45.7739254761
  0
LWPOLYLINE
  5
2AB
100
AcDbEntity
  8
0
100
AcDbPolyline
 62
2
  6
CONTINUOUS
 90
11
 70
0
 10
395.8291589355
 20
46.3572573853
 10
395.6432043457
 20
46.0655914307
 10
395.2713464355
 20
45.7739254761
 10
394.8994628906
 20
46.0655914307
 10
394.5275793457
 20
46.6489297485
 10
394.5275793457
 20
47.2322616577
 10
394.8994628906
 20
47.8155935669
 10
395.2713464355
 20
48.1072595215
 10
395.6432043457
 20
47.8155935669
 10
395.8291589355
 20
47.2322616577
 10
394.5275793457
 20
47.2322616577
  0
LWPOLYLINE
  5
2AC
100
AcDbEntity
  8
0
100
AcDbPolyline
 62
2
  6
CONTINUOUS
 90
3
 70
0
 10
397.6885253906
 20
48.1072595215
 10
398.2463378906
 20
45.7739254761
 10
398.8041503906
 20
48.1072595215
  0
LWPOLYLINE
  5
2AD
100
AcDbEntity
  8
0
100
AcDbPolyline
 62
2
  6
CONTINUOUS
 90
4
 70
0
 10
401.2213293457
 20
45.7739254761
 10
401.0354003906
 20
45.7739254761
 10
401.0354003906
 20
46.0655914307
 10
401.2213293457
 20
45.7739254761
  0
LWPOLYLINE
  5
2AE
100
AcDbEntity
  8
0
100
AcDbPolyline
 62
2
  6
CONTINUOUS
 90
4
 70
0
 10
401.2213293457
 20
48.1072595215
 10
401.2213293457
 20
47.8155935669
 10
401.0354003906
 20
48.1072595215
 10
401.2213293457
 20
48.1072595215
  0
LWPOLYLINE
  5
2AF
100
AcDbEntity
  8
0
100
AcDbPolyline
 62
2
  6
CONTINUOUS
 90
15
 70
0
 10
404.1963464355
 20
45.7739254761
 10
403.8244628906
 20
46.0655914307
 10
403.6385339355
 20
46.3572573853
 10
403.4525793457
 20
46.9405957031
 10
403.4525793457
 20
48.1072595215
 10
403.6385339355
 20
48.6905914307
 10
403.8244628906
 20
48.9822573853
 10
404.1963464355
 20
49.2739297485
 10
404.5682043457
 20
48.9822573853
 10
404.7541589355
 20
48.6905914307
 10
404.9400878906
 20
48.1072595215
 10
404.9400878906
 20
46.9405957031
 10
404.7541589355
 20
46.3572573853
 10
404.5682043457
 20
46.0655914307
 10
404.1963464355
 20
45.7739254761
  0
LINE
  5
2B0
100
AcDbEntity
  8
0
100
AcDbLine
 62
2
  6
CONTINUOUS
 10
407.1713378906
 20
49.2739297485
 11
407.1713378906
 21
45.7739254761
  0
LWPOLYLINE
  5
2B1
100
AcDbEntity
  8
0
100
AcDbPolyline
 62
2
  6
CONTINUOUS
 90
10
 70
0
 10
350.8088452148
 20
40.0239257812
 10
351.0588354492
 20
39.7739291382
 10
352.0588476563
 20
39.7739291382
 10
352.558828125
 20
40.273928833
 10
352.558828125
 20
40.7739285278
 10
350.8088452148
 20
42.2739276123
 10
350.8088452148
 20
42.7739273071
 10
351.3088513184
 20
43.273927002
 10
352.3088378906
 20
43.273927002
 10
352.558828125
 20
43.0239239502
  0
LWPOLYLINE
  5
2B2
100
AcDbEntity
  8
0
100
AcDbPolyline
 62
2
  6
CONTINUOUS
 90
6
 70
0
 10
354.8088427734
 20
39.7739291382
 10
353.8088305664
 20
39.7739291382
 10
353.558840332
 20
40.0239257812
 10
353.558840332
 20
42.0239245605
 10
353.8088305664
 20
42.2739276123
 10
354.8088427734
 20
42.2739276123
  0
LWPOLYLINE
  5
2B3
100
AcDbEntity
  8
0
100
AcDbPolyline
 62
2
  6
CONTINUOUS
 90
4
 70
0
 10
357.3088476563
 20
39.7739291382
 10
357.3088476563
 20
41.7739279175
 10
357.0588317871
 20
42.2739276123
 10
355.8088293457
 20
42.2739276123
  0
LWPOLYLINE
  5
2B4
100
AcDbEntity
  8
0
100
AcDbPolyline
 62
2
  6
CONTINUOUS
 90
6
 70
0
 10
357.3088476563
 20
39.7739291382
 10
356.3088354492
 20
39.7739291382
 10
355.8088293457
 20
40.0239257812
 10
355.8088293457
 20
40.7739285278
 10
356.3088354492
 20
41.0239251709
 10
357.3088476563
 20
41.0239251709
  0
LWPOLYLINE
  5
2B5
100
AcDbEntity
  8
0
100
AcDbPolyline
 62
2
  6
CONTINUOUS
 90
4
 70
0
 10
359.0588305664
 20
39.7739291382
 10
358.5588500977
 20
39.7739291382
 10
358.3088342285
 20
40.0239257812
 10
358.3088342285
 20
43.273927002
  0
LWPOLYLINE
  5
2B6
100
AcDbEntity
  8
0
100
AcDbPolyline
 62
2
  6
CONTINUOUS
 90
9
 70
0
 10
361.5588354492
 20
39.7739291382
 10
360.558848877
 20
39.7739291382
 10
360.0588427734
 20
40.273928833
 10
360.0588427734
 20
41.7739279175
 10
360.558848877
 20
42.2739276123
 10
361.0588293457
 20
42.2739276123
 10
361.5588354492
 20
41.7739279175
 10
361.5588354492
 20
41.0239251709
 10
360.0588427734
 20
41.0239251709
  0
LWPOLYLINE
  5
2B7
100
AcDbEntity
  8
0
100
AcDbPolyline
 62
2
  6
CONTINUOUS
 90
4
 70
0
 10
362.5588476563
 20
39.7739291382
 10
362.5588476563
 20
40.0239257812
 10
362.7254992676
 20
40.0239257812
 10
362.5588476563
 20
39.7739291382
  0
LWPOLYLINE
  5
2B8
100
AcDbEntity
  8
0
100
AcDbPolyline
 62
2
  6
CONTINUOUS
 90
4
 70
0
 10
362.5588476563
 20
41.2739282227
 10
362.5588476563
 20
41.5239248657
 10
362.7254992676
 20
41.5239248657
 10
362.5588476563
 20
41.2739282227
  0
LWPOLYLINE
  5
2B9
100
AcDbEntity
  8
0
100
AcDbPolyline
 62
2
  6
CONTINUOUS
 90
3
 70
0
 10
363.8088500977
 20
42.2739276123
 10
364.8088366699
 20
43.273927002
 10
364.8088366699
 20
39.7739291382
  0
LWPOLYLINE
  5
2BA
100
AcDbEntity
  8
0
100
AcDbPolyline
 62
2
  6
CONTINUOUS
 90
4
 70
0
 10
365.808848877
 20
39.7739291382
 10
365.808848877
 20
40.0239257812
 10
365.9755004883
 20
40.0239257812
 10
365.808848877
 20
39.7739291382
  0
LWPOLYLINE
  5
2BB
100
AcDbEntity
  8
0
100
AcDbPolyline
 62
2
  6
CONTINUOUS
 90
4
 70
0
 10
365.808848877
 20
41.2739282227
 10
365.808848877
 20
41.5239248657
 10
365.9755004883
 20
41.5239248657
 10
365.808848877
 20
41.2739282227
  0
LWPOLYLINE
  5
2BC
100
AcDbEntity
  8
0
100
AcDbPolyline
 62
2
  6
CONTINUOUS
 90
3
 70
0
 10
367.0588513184
 20
42.2739276123
 10
368.0588378906
 20
43.273927002
 10
368.0588378906
 20
39.7739291382
  0
LWPOLYLINE
  5
2BD
100
AcDbEntity
  8
0
100
AcDbPolyline
 62
2
  6
CONTINUOUS
 90
3
 70
0
 10
390.8088464355
 20
40.273928833
 10
391.8088330078
 20
43.7739266968
 10
392.8088452148
 20
40.273928833
  0
LINE
  5
2BE
100
AcDbEntity
  8
0
100
AcDbLine
 62
2
  6
CONTINUOUS
 10
391.142175293
 20
41.2739282227
 11
392.4755163574
 21
41.2739282227
  0
LWPOLYLINE
  5
2BF
100
AcDbEntity
  8
0
100
AcDbPolyline
 62
2
  6
CONTINUOUS
 90
6
 70
0
 10
393.8088317871
 20
40.273928833
 10
395.0588342285
 20
40.273928833
 10
395.3088500977
 20
40.5239254761
 10
395.3088500977
 20
41.7739279175
 10
394.8088439941
 20
42.2739276123
 10
394.3088378906
 20
42.2739276123
  0
LWPOLYLINE
  5
2C0
100
AcDbEntity
  8
0
100
AcDbPolyline
 62
2
  6
CONTINUOUS
 90
5
 70
0
 10
394.8088439941
 20
42.2739276123
 10
395.2255114746
 20
42.5239242554
 10
395.2255114746
 20
43.273927002
 10
394.8088439941
 20
43.7739266968
 10
393.8088317871
 20
43.7739266968
  0
LWPOLYLINE
  5
2C1
100
AcDbEntity
  8
0
100
AcDbPolyline
 62
2
  6
CONTINUOUS
 90
7
 70
0
 10
351.4755029297
 20
32.2739273071
 10
351.4755029297
 20
35.7739251709
 10
352.7255053711
 20
35.7739251709
 10
353.2255114746
 20
35.2739254761
 10
353.2255114746
 20
34.2739260864
 10
352.7255053711
 20
33.7739263916
 10
351.4755029297
 20
33.7739263916
  0
LINE
  5
2C2
100
AcDbEntity
  8
0
100
AcDbLine
 62
2
  6
CONTINUOUS
 10
354.8921813965
 20
32.2739273071
 11
354.8921813965
 21
35.7739251709
  0
LWPOLYLINE
  5
2C3
100
AcDbEntity
  8
0
100
AcDbPolyline
 62
2
  6
CONTINUOUS
 90
3
 70
0
 10
356.4755126953
 20
35.7739251709
 10
357.4754992676
 20
32.2739273071
 10
358.4755114746
 20
35.7739251709
  0
LWPOLYLINE
  5
2C4
100
AcDbEntity
  8
0
100
AcDbPolyline
 62
2
  6
CONTINUOUS
 90
9
 70
0
 10
359.3921850586
 20
32.773927002
 10
359.3921850586
 20
35.2739254761
 10
359.8921655273
 20
35.7739251709
 10
360.6421618652
 20
35.7739251709
 10
361.1421679687
 20
35.2739254761
 10
361.1421679687
 20
32.773927002
 10
360.6421618652
 20
32.2739273071
 10
359.8921655273
 20
32.2739273071
 10
359.3921850586
 20
32.773927002
  0
LINE
  5
2C5
100
AcDbEntity
  8
0
100
AcDbLine
 62
2
  6
CONTINUOUS
 10
363.142166748
 20
32.2739273071
 11
363.142166748
 21
35.7739251709
  0
LINE
  5
2C6
100
AcDbEntity
  8
0
100
AcDbLine
 62
2
  6
CONTINUOUS
 10
362.1421801758
 20
35.7739251709
 11
364.1421789551
 21
35.7739251709
  0
LWPOLYLINE
  5
2C7
100
AcDbEntity
  8
0
100
AcDbPolyline
 62
2
  6
CONTINUOUS
 90
3
 70
0
 10
367.8921606445
 20
34.7739257812
 10
368.8921728516
 20
35.7739251709
 10
368.8921728516
 20
32.2739273071
  0
LWPOLYLINE
  5
2C8
100
AcDbEntity
  8
0
100
AcDbPolyline
 62
2
  6
CONTINUOUS
 90
9
 70
0
 10
370.6421813965
 20
32.8572592163
 10
370.7254943848
 20
32.6905947876
 10
370.7254943848
 20
32.6072625732
 10
370.6421813965
 20
32.4405917358
 10
370.4755041504
 20
32.4405917358
 10
370.3921655273
 20
32.6072625732
 10
370.3921655273
 20
32.6905947876
 10
370.4755041504
 20
32.8572592163
 10
370.6421813965
 20
32.8572592163
  0
LWPOLYLINE
  5
2C9
100
AcDbEntity
  8
0
100
AcDbPolyline
 62
2
  6
CONTINUOUS
 90
3
 70
0
 10
371.8921838379
 20
34.7739257812
 10
372.8921704102
 20
35.7739251709
 10
372.8921704102
 20
32.2739273071
  0
LINE
  5
2CA
100
AcDbEntity
  8
0
100
AcDbLine
 62
2
  6
CONTINUOUS
 10
376.6421777344
 20
33.5239297485
 11
378.1421704102
 21
33.5239297485
  0
LWPOLYLINE
  5
2CB
100
AcDbEntity
  8
0
100
AcDbPolyline
 62
2
  6
CONTINUOUS
 90
3
 70
0
 10
381.8921777344
 20
34.7739257812
 10
382.8921643066
 20
35.7739251709
 10
382.8921643066
 20
32.2739273071
  0
LWPOLYLINE
  5
2CC
100
AcDbEntity
  8
0
100
AcDbPolyline
 62
2
  6
CONTINUOUS
 90
9
 70
0
 10
384.6421728516
 20
32.8572592163
 10
384.7255114746
 20
32.6905947876
 10
384.7255114746
 20
32.6072625732
 10
384.6421728516
 20
32.4405917358
 10
384.4754956055
 20
32.4405917358
 10
384.3921826172
 20
32.6072625732
 10
384.3921826172
 20
32.6905947876
 10
384.4754956055
 20
32.8572592163
 10
384.6421728516
 20
32.8572592163
  0
LWPOLYLINE
  5
2CD
100
AcDbEntity
  8
0
100
AcDbPolyline
 62
2
  6
CONTINUOUS
 90
10
 70
0
 10
387.1421777344
 20
35.7739251709
 10
386.3921813965
 20
35.023928833
 10
385.892175293
 20
34.0239294434
 10
385.892175293
 20
32.773927002
 10
386.3921813965
 20
32.2739273071
 10
387.1421777344
 20
32.2739273071
 10
387.6421838379
 20
32.773927002
 10
387.6421838379
 20
33.7739263916
 10
387.1421777344
 20
34.2739260864
 10
386.0588525391
 20
34.2739260864
  0
LWPOLYLINE
  5
2CE
100
AcDbEntity
  8
0
100
AcDbPolyline
 62
2
  6
CONTINUOUS
 90
7
 70
0
 10
351.2850366211
 20
25.2739251709
 10
351.2850366211
 20
27.7739300537
 10
352.1778955078
 20
27.7739300537
 10
352.5350390625
 20
27.416786499
 10
352.5350390625
 20
25.6310687256
 10
352.1778955078
 20
25.2739251709
 10
351.2850366211
 20
25.2739251709
  0
LWPOLYLINE
  5
2CF
100
AcDbEntity
  8
0
100
AcDbPolyline
 62
2
  6
CONTINUOUS
 90
3
 70
0
 10
353.5469458008
 20
25.2739251709
 10
354.2612329102
 20
27.7739300537
 10
354.9754943848
 20
25.2739251709
  0
LINE
  5
2D0
100
AcDbEntity
  8
0
100
AcDbLine
 62
2
  6
CONTINUOUS
 10
353.7850415039
 20
25.9882122803
 11
354.7373986816
 21
25.9882122803
  0
LINE
  5
2D1
100
AcDbEntity
  8
0
100
AcDbLine
 62
2
  6
CONTINUOUS
 10
356.4040686035
 20
25.2739251709
 11
356.4040686035
 21
27.7739300537
  0
LINE
  5
2D2
100
AcDbEntity
  8
0
100
AcDbLine
 62
2
  6
CONTINUOUS
 10
355.6897814941
 20
27.7739300537
 11
357.1183557129
 21
27.7739300537
  0
LWPOLYLINE
  5
2D3
100
AcDbEntity
  8
0
100
AcDbPolyline
 62
2
  6
CONTINUOUS
 90
3
 70
0
 10
357.8326428223
 20
25.2739251709
 10
357.8326428223
 20
27.7739300537
 10
358.9040734863
 20
27.7739300537
  0
LINE
  5
2D4
100
AcDbEntity
  8
0
100
AcDbLine
 62
2
  6
CONTINUOUS
 10
358.5469299316
 20
26.7024993896
 11
357.8326428223
 21
26.7024993896
  0
LINE
  5
2D5
100
AcDbEntity
  8
0
100
AcDbLine
 62
2
  6
CONTINUOUS
 10
357.8326428223
 20
25.2739251709
 11
358.9040734863
 21
25.2739251709
  0
LWPOLYLINE
  5
2D6
100
AcDbEntity
  8
0
100
AcDbPolyline
 62
2
  6
CONTINUOUS
 90
4
 70
0
 10
359.6183605957
 20
25.2739251709
 10
359.6183605957
 20
25.4524969482
 10
359.7374084473
 20
25.4524969482
 10
359.6183605957
 20
25.2739251709
  0
LWPOLYLINE
  5
2D7
100
AcDbEntity
  8
0
100
AcDbPolyline
 62
2
  6
CONTINUOUS
 90
4
 70
0
 10
359.6183605957
 20
26.345355835
 10
359.6183605957
 20
26.5239276123
 10
359.7374084473
 20
26.5239276123
 10
359.6183605957
 20
26.345355835
  0
LWPOLYLINE
  5
2D8
100
AcDbEntity
  8
0
100
AcDbPolyline
 62
2
  6
CONTINUOUS
 90
7
 70
0
 10
361.7612219238
 20
25.2739251709
 10
360.5112194824
 20
25.2739251709
 10
361.7612219238
 20
27.0596429443
 10
361.7612219238
 20
27.416786499
 10
361.4040783691
 20
27.7739300537
 10
360.8683630371
 20
27.7739300537
 10
360.5112194824
 20
27.2382147217
  0
LWPOLYLINE
  5
2D9
100
AcDbEntity
  8
0
100
AcDbPolyline
 62
2
  6
CONTINUOUS
 90
10
 70
0
 10
363.3683679199
 20
27.7739300537
 10
362.8326525879
 20
27.2382147217
 10
362.4755090332
 20
26.5239276123
 10
362.4755090332
 20
25.6310687256
 10
362.8326525879
 20
25.2739251709
 10
363.3683679199
 20
25.2739251709
 10
363.7255114746
 20
25.6310687256
 10
363.7255114746
 20
26.345355835
 10
363.3683679199
 20
26.7024993896
 10
362.5945568848
 20
26.7024993896
  0
LINE
  5
2DA
100
AcDbEntity
  8
0
100
AcDbLine
 62
2
  6
CONTINUOUS
 10
365.8683728027
 20
27.5358343506
 11
364.439798584
 21
25.3334490967
  0
LWPOLYLINE
  5
2DB
100
AcDbEntity
  8
0
100
AcDbPolyline
 62
2
  6
CONTINUOUS
 90
13
 70
0
 10
366.344564209
 20
25.9882122803
 10
366.344564209
 20
27.0596429443
 10
366.5231359863
 20
27.416786499
 10
366.880279541
 20
27.7739300537
 10
367.0588513184
 20
27.7739300537
 10
367.415994873
 20
27.416786499
 10
367.5945666504
 20
27.0596429443
 10
367.5945666504
 20
25.9882122803
 10
367.415994873
 20
25.6310687256
 10
367.0588513184
 20
25.2739251709
 10
366.880279541
 20
25.2739251709
 10
366.5231359863
 20
25.6310687256
 10
366.344564209
 20
25.9882122803
  0
LWPOLYLINE
  5
2DC
100
AcDbEntity
  8
0
100
AcDbPolyline
 62
2
  6
CONTINUOUS
 90
6
 70
0
 10
368.308828125
 20
25.2739251709
 10
369.2016870117
 20
25.2739251709
 10
369.3802587891
 20
25.4524969482
 10
369.3802587891
 20
26.345355835
 10
369.0231152344
 20
26.7024993896
 10
368.6659716797
 20
26.7024993896
  0
LWPOLYLINE
  5
2DD
100
AcDbEntity
  8
0
100
AcDbPolyline
 62
2
  6
CONTINUOUS
 90
5
 70
0
 10
369.0231152344
 20
26.7024993896
 10
369.3207348633
 20
26.881071167
 10
369.3207348633
 20
27.416786499
 10
369.0231152344
 20
27.7739300537
 10
368.308828125
 20
27.7739300537
  0
LINE
  5
2DE
100
AcDbEntity
  8
0
100
AcDbLine
 62
2
  6
CONTINUOUS
 10
371.5231201172
 20
27.5358343506
 11
370.0945458984
 21
25.3334490967
  0
LWPOLYLINE
  5
2DF
100
AcDbEntity
  8
0
100
AcDbPolyline
 62
2
  6
CONTINUOUS
 90
7
 70
0
 10
373.2493139648
 20
25.2739251709
 10
371.9993115234
 20
25.2739251709
 10
373.2493139648
 20
27.0596429443
 10
373.2493139648
 20
27.416786499
 10
372.8921704102
 20
27.7739300537
 10
372.3564550781
 20
27.7739300537
 10
371.9993115234
 20
27.2382147217
  0
LWPOLYLINE
  5
2E0
100
AcDbEntity
  8
0
100
AcDbPolyline
 62
2
  6
CONTINUOUS
 90
13
 70
0
 10
373.9636010742
 20
25.9882122803
 10
373.9636010742
 20
27.0596429443
 10
374.1421728516
 20
27.416786499
 10
374.4993164062
 20
27.7739300537
 10
374.6778881836
 20
27.7739300537
 10
375.0350317383
 20
27.416786499
 10
375.2136035156
 20
27.0596429443
 10
375.2136035156
 20
25.9882122803
 10
375.0350317383
 20
25.6310687256
 10
374.6778881836
 20
25.2739251709
 10
374.4993164062
 20
25.2739251709
 10
374.1421728516
 20
25.6310687256
 10
373.9636010742
 20
25.9882122803
  0
LWPOLYLINE
  5
2E1
100
AcDbEntity
  8
0
100
AcDbPolyline
 62
2
  6
CONTINUOUS
 90
3
 70
0
 10
375.927890625
 20
27.0596429443
 10
376.6421777344
 20
27.7739300537
 10
376.6421777344
 20
25.2739251709
  0
LINE
  5
2E2
100
AcDbEntity
  8
0
100
AcDbLine
 62
2
  6
CONTINUOUS
 10
378.1897998047
 20
25.2739251709
 11
378.1897998047
 21
26.5239276123
  0
LWPOLYLINE
  5
2E3
100
AcDbEntity
  8
0
100
AcDbPolyline
 62
2
  6
CONTINUOUS
 90
3
 70
0
 10
378.6064672852
 20
25.8096405029
 10
377.3564648437
 20
25.8096405029
 10
377.8921801758
 20
27.7739300537
  0
LWPOLYLINE
  5
2E4
100
AcDbEntity
  8
0
100
AcDbPolyline
 62
2
  6
CONTINUOUS
 90
3
 70
0
 10
321.1036889648
 20
20.4239268494
 10
321.5950817871
 20
22.273927002
 10
322.0865002441
 20
20.4239268494
  0
LINE
  5
2E5
100
AcDbEntity
  8
0
100
AcDbLine
 62
2
  6
CONTINUOUS
 10
321.3002563477
 20
21.0405935669
 11
321.8899328613
 21
21.0405935669
  0
LINE
  5
2E6
100
AcDbEntity
  8
0
100
AcDbLine
 62
2
  6
CONTINUOUS
 10
322.8727441406
 20
20.4239268494
 11
322.8727441406
 21
21.6572602844
  0
LWPOLYLINE
  5
2E7
100
AcDbEntity
  8
0
100
AcDbPolyline
 62
2
  6
CONTINUOUS
 90
5
 70
0
 10
322.8727441406
 20
21.3489285278
 10
323.0693115234
 20
21.6572602844
 10
323.2658789063
 20
21.6572602844
 10
323.4624462891
 20
21.3489285278
 10
323.4624462891
 20
20.4239268494
  0
LWPOLYLINE
  5
2E8
100
AcDbEntity
  8
0
100
AcDbPolyline
 62
2
  6
CONTINUOUS
 90
5
 70
0
 10
324.346973877
 20
21.6572602844
 10
324.7400830078
 20
20.5780943298
 10
324.6417993164
 20
20.1155950928
 10
324.4452575684
 20
19.8072601318
 10
324.2486901855
 20
19.8072601318
  0
LINE
  5
2E9
100
AcDbEntity
  8
0
100
AcDbLine
 62
2
  6
CONTINUOUS
 10
324.7400830078
 20
20.5780943298
 11
325.1332177734
 21
21.6572602844
  0
LINE
  5
2EA
100
AcDbEntity
  8
0
100
AcDbLine
 62
2
  6
CONTINUOUS
 10
327.8850842285
 20
22.273927002
 11
327.8850842285
 21
22.1197595215
  0
LINE
  5
2EB
100
AcDbEntity
  8
0
100
AcDbLine
 62
2
  6
CONTINUOUS
 10
327.8850842285
 20
21.6572602844
 11
327.8850842285
 21
20.4239268494
  0
LINE
  5
2EC
100
AcDbEntity
  8
0
100
AcDbLine
 62
2
  6
CONTINUOUS
 10
329.162746582
 20
20.4239268494
 11
329.162746582
 21
21.6572602844
  0
LWPOLYLINE
  5
2ED
100
AcDbEntity
  8
0
100
AcDbPolyline
 62
2
  6
CONTINUOUS
 90
5
 70
0
 10
329.162746582
 20
21.3489285278
 10
329.3593139648
 20
21.6572602844
 10
329.5558813477
 20
21.6572602844
 10
329.7524230957
 20
21.3489285278
 10
329.7524230957
 20
20.4239268494
  0
LINE
  5
2EE
100
AcDbEntity
  8
0
100
AcDbLine
 62
2
  6
CONTINUOUS
 10
331.0300854492
 20
20.4239268494
 11
331.0300854492
 21
22.273927002
  0
LINE
  5
2EF
100
AcDbEntity
  8
0
100
AcDbLine
 62
2
  6
CONTINUOUS
 10
330.735234375
 20
21.503092804
 11
331.3249365234
 21
21.503092804
  0
LWPOLYLINE
  5
2F0
100
AcDbEntity
  8
0
100
AcDbPolyline
 62
2
  6
CONTINUOUS
 90
11
 70
0
 10
332.8974243164
 20
20.7322618103
 10
332.799140625
 20
20.5780943298
 10
332.602598877
 20
20.4239268494
 10
332.4060314941
 20
20.5780943298
 10
332.2094641113
 20
20.8864260864
 10
332.2094641113
 20
21.1947610474
 10
332.4060314941
 20
21.503092804
 10
332.602598877
 20
21.6572602844
 10
332.799140625
 20
21.503092804
 10
332.8974243164
 20
21.1947610474
 10
332.2094641113
 20
21.1947610474
  0
LWPOLYLINE
  5
2F1
100
AcDbEntity
  8
0
100
AcDbPolyline
 62
2
  6
CONTINUOUS
 90
10
 70
0
 10
334.5682214355
 20
20.8864260864
 10
334.3716540527
 20
20.5780943298
 10
334.1750866699
 20
20.4239268494
 10
333.9785192871
 20
20.5780943298
 10
333.7819775391
 20
20.8864260864
 10
333.7819775391
 20
21.1947610474
 10
333.9785192871
 20
21.503092804
 10
334.1750866699
 20
21.6572602844
 10
334.3716540527
 20
21.503092804
 10
334.5682214355
 20
21.1947610474
  0
LWPOLYLINE
  5
2F2
100
AcDbEntity
  8
0
100
AcDbPolyline
 62
2
  6
CONTINUOUS
 90
6
 70
0
 10
334.5682214355
 20
21.6572602844
 10
334.5682214355
 20
20.2697593689
 10
334.4699377441
 20
19.9614276123
 10
334.3716540527
 20
19.8072601318
 10
333.9785192871
 20
19.8072601318
 10
333.8802355957
 20
19.9614276123
  0
LINE
  5
2F3
100
AcDbEntity
  8
0
100
AcDbLine
 62
2
  6
CONTINUOUS
 10
335.4527490234
 20
20.4239268494
 11
335.4527490234
 21
21.6572602844
  0
LWPOLYLINE
  5
2F4
100
AcDbEntity
  8
0
100
AcDbPolyline
 62
2
  6
CONTINUOUS
 90
4
 70
0
 10
335.4527490234
 20
21.3489285278
 10
335.6493164062
 20
21.6572602844
 10
335.8458837891
 20
21.6572602844
 10
335.9441418457
 20
21.503092804
  0
LWPOLYLINE
  5
2F5
100
AcDbEntity
  8
0
100
AcDbPolyline
 62
2
  6
CONTINUOUS
 90
10
 70
0
 10
337.7132226562
 20
20.8864260864
 10
337.5166552734
 20
20.5780943298
 10
337.3200878906
 20
20.4239268494
 10
337.1235205078
 20
20.5780943298
 10
336.926953125
 20
20.8864260864
 10
336.926953125
 20
21.1947610474
 10
337.1235205078
 20
21.503092804
 10
337.3200878906
 20
21.6572602844
 10
337.5166552734
 20
21.503092804
 10
337.7132226562
 20
21.1947610474
  0
LINE
  5
2F6
100
AcDbEntity
  8
0
100
AcDbLine
 62
2
  6
CONTINUOUS
 10
337.7132226562
 20
21.6572602844
 11
337.7132226562
 21
20.4239268494
  0
LINE
  5
2F7
100
AcDbEntity
  8
0
100
AcDbLine
 62
2
  6
CONTINUOUS
 10
338.8926013184
 20
20.4239268494
 11
338.8926013184
 21
22.273927002
  0
LWPOLYLINE
  5
2F8
100
AcDbEntity
  8
0
100
AcDbPolyline
 62
2
  6
CONTINUOUS
 90
11
 70
0
 10
342.4307116699
 20
20.8864260864
 10
342.2341442871
 20
20.5780943298
 10
342.0376025391
 20
20.4239268494
 10
341.8410351562
 20
20.5780943298
 10
341.6444677734
 20
20.8864260864
 10
341.6444677734
 20
21.1947610474
 10
341.8410351562
 20
21.503092804
 10
342.0376025391
 20
21.6572602844
 10
342.2341442871
 20
21.503092804
 10
342.4307116699
 20
21.1947610474
 10
342.4307116699
 20
20.8864260864
  0
LINE
  5
2F9
100
AcDbEntity
  8
0
100
AcDbLine
 62
2
  6
CONTINUOUS
 10
343.3152392578
 20
20.4239268494
 11
343.3152392578
 21
21.6572602844
  0
LWPOLYLINE
  5
2FA
100
AcDbEntity
  8
0
100
AcDbPolyline
 62
2
  6
CONTINUOUS
 90
4
 70
0
 10
343.3152392578
 20
21.3489285278
 10
343.5118066406
 20
21.6572602844
 10
343.7083740234
 20
21.6572602844
 10
343.8066577148
 20
21.503092804
  0
LWPOLYLINE
  5
2FB
100
AcDbEntity
  8
0
100
AcDbPolyline
 62
2
  6
CONTINUOUS
 90
10
 70
0
 10
346.3619567871
 20
21.1947610474
 10
346.5585241699
 20
21.503092804
 10
346.7550915527
 20
21.6572602844
 10
346.9516589355
 20
21.503092804
 10
347.1482263184
 20
21.1947610474
 10
347.1482263184
 20
20.8864260864
 10
346.9516589355
 20
20.5780943298
 10
346.7550915527
 20
20.4239268494
 10
346.5585241699
 20
20.4239268494
 10
346.3619567871
 20
20.8864260864
  0
LINE
  5
2FC
100
AcDbEntity
  8
0
100
AcDbLine
 62
2
  6
CONTINUOUS
 10
346.3619567871
 20
21.6572602844
 11
346.3619567871
 21
19.8072601318
  0
LWPOLYLINE
  5
2FD
100
AcDbEntity
  8
0
100
AcDbPolyline
 62
2
  6
CONTINUOUS
 90
10
 70
0
 10
348.7207141113
 20
20.8864260864
 10
348.5241467285
 20
20.5780943298
 10
348.3275793457
 20
20.4239268494
 10
348.1310375977
 20
20.5780943298
 10
347.9344702148
 20
20.8864260864
 10
347.9344702148
 20
21.1947610474
 10
348.1310375977
 20
21.503092804
 10
348.3275793457
 20
21.6572602844
 10
348.5241467285
 20
21.503092804
 10
348.7207141113
 20
21.1947610474
  0
LINE
  5
2FE
100
AcDbEntity
  8
0
100
AcDbLine
 62
2
  6
CONTINUOUS
 10
348.7207141113
 20
21.6572602844
 11
348.7207141113
 21
20.4239268494
  0
LINE
  5
2FF
100
AcDbEntity
  8
0
100
AcDbLine
 62
2
  6
CONTINUOUS
 10
349.6052416992
 20
20.4239268494
 11
349.6052416992
 21
21.6572602844
  0
LWPOLYLINE
  5
300
100
AcDbEntity
  8
0
100
AcDbPolyline
 62
2
  6
CONTINUOUS
 90
4
 70
0
 10
349.6052416992
 20
21.3489285278
 10
349.801809082
 20
21.6572602844
 10
349.9983764648
 20
21.6572602844
 10
350.0966601562
 20
21.503092804
  0
LINE
  5
301
100
AcDbEntity
  8
0
100
AcDbLine
 62
2
  6
CONTINUOUS
 10
351.4725805664
 20
20.4239268494
 11
351.4725805664
 21
22.273927002
  0
LINE
  5
302
100
AcDbEntity
  8
0
100
AcDbLine
 62
2
  6
CONTINUOUS
 10
351.177755127
 20
21.503092804
 11
351.7674316406
 21
21.503092804
  0
LINE
  5
303
100
AcDbEntity
  8
0
100
AcDbLine
 62
2
  6
CONTINUOUS
 10
353.0450939941
 20
22.273927002
 11
353.0450939941
 21
22.1197595215
  0
LINE
  5
304
100
AcDbEntity
  8
0
100
AcDbLine
 62
2
  6
CONTINUOUS
 10
353.0450939941
 20
21.6572602844
 11
353.0450939941
 21
20.4239268494
  0
LWPOLYLINE
  5
305
100
AcDbEntity
  8
0
100
AcDbPolyline
 62
2
  6
CONTINUOUS
 90
10
 70
0
 10
355.0107165527
 20
20.8864260864
 10
354.8141491699
 20
20.5780943298
 10
354.6175817871
 20
20.4239268494
 10
354.4210400391
 20
20.5780943298
 10
354.2244726562
 20
20.8864260864
 10
354.2244726562
 20
21.1947610474
 10
354.4210400391
 20
21.503092804
 10
354.6175817871
 20
21.6572602844
 10
354.8141491699
 20
21.503092804
 10
355.0107165527
 20
21.1947610474
  0
LINE
  5
306
100
AcDbEntity
  8
0
100
AcDbLine
 62
2
  6
CONTINUOUS
 10
355.0107165527
 20
21.6572602844
 11
355.0107165527
 21
20.4239268494
  0
LINE
  5
307
100
AcDbEntity
  8
0
100
AcDbLine
 62
2
  6
CONTINUOUS
 10
356.1900952148
 20
20.4239268494
 11
356.1900952148
 21
22.273927002
  0
LINE
  5
308
100
AcDbEntity
  8
0
100
AcDbLine
 62
2
  6
CONTINUOUS
 10
359.0402453613
 20
20.4239268494
 11
359.0402453613
 21
21.6572602844
  0
LWPOLYLINE
  5
309
100
AcDbEntity
  8
0
100
AcDbPolyline
 62
2
  6
CONTINUOUS
 90
4
 70
0
 10
359.0402453613
 20
21.3489285278
 10
359.2368127441
 20
21.6572602844
 10
359.433380127
 20
21.6572602844
 10
359.5316638184
 20
21.503092804
  0
LWPOLYLINE
  5
30A
100
AcDbEntity
  8
0
100
AcDbPolyline
 62
2
  6
CONTINUOUS
 90
11
 70
0
 10
361.2024353027
 20
20.7322618103
 10
361.1041516113
 20
20.5780943298
 10
360.9075842285
 20
20.4239268494
 10
360.7110168457
 20
20.5780943298
 10
360.5144750977
 20
20.8864260864
 10
360.5144750977
 20
21.1947610474
 10
360.7110168457
 20
21.503092804
 10
360.9075842285
 20
21.6572602844
 10
361.1041516113
 20
21.503092804
 10
361.2024353027
 20
21.1947610474
 10
360.5144750977
 20
21.1947610474
  0
LWPOLYLINE
  5
30B
100
AcDbEntity
  8
0
100
AcDbPolyline
 62
2
  6
CONTINUOUS
 90
10
 70
0
 10
362.0869628906
 20
21.1947610474
 10
362.2835302734
 20
21.503092804
 10
362.4800976562
 20
21.6572602844
 10
362.6766650391
 20
21.503092804
 10
362.8732067871
 20
21.1947610474
 10
362.8732067871
 20
20.8864260864
 10
362.6766650391
 20
20.5780943298
 10
362.4800976562
 20
20.4239268494
 10
362.2835302734
 20
20.4239268494
 10
362.0869628906
 20
20.8864260864
  0
LINE
  5
30C
100
AcDbEntity
  8
0
100
AcDbLine
 62
2
  6
CONTINUOUS
 10
362.0869628906
 20
21.6572602844
 11
362.0869628906
 21
19.8072601318
  0
LINE
  5
30D
100
AcDbEntity
  8
0
100
AcDbLine
 62
2
  6
CONTINUOUS
 10
363.757734375
 20
20.4239268494
 11
363.757734375
 21
21.6572602844
  0
LWPOLYLINE
  5
30E
100
AcDbEntity
  8
0
100
AcDbPolyline
 62
2
  6
CONTINUOUS
 90
4
 70
0
 10
363.757734375
 20
21.3489285278
 10
363.9543017578
 20
21.6572602844
 10
364.1508691406
 20
21.6572602844
 10
364.249152832
 20
21.503092804
  0
LWPOLYLINE
  5
30F
100
AcDbEntity
  8
0
100
AcDbPolyline
 62
2
  6
CONTINUOUS
 90
11
 70
0
 10
366.0182080078
 20
20.8864260864
 10
365.821640625
 20
20.5780943298
 10
365.625098877
 20
20.4239268494
 10
365.4285314941
 20
20.5780943298
 10
365.2319641113
 20
20.8864260864
 10
365.2319641113
 20
21.1947610474
 10
365.4285314941
 20
21.503092804
 10
365.625098877
 20
21.6572602844
 10
365.821640625
 20
21.503092804
 10
366.0182080078
 20
21.1947610474
 10
366.0182080078
 20
20.8864260864
  0
LWPOLYLINE
  5
310
100
AcDbEntity
  8
0
100
AcDbPolyline
 62
2
  6
CONTINUOUS
 90
10
 70
0
 10
367.5907214355
 20
20.8864260864
 10
367.3941540527
 20
20.5780943298
 10
367.1975866699
 20
20.4239268494
 10
367.0010192871
 20
20.5780943298
 10
366.8044775391
 20
20.8864260864
 10
366.8044775391
 20
21.1947610474
 10
367.0010192871
 20
21.503092804
 10
367.1975866699
 20
21.6572602844
 10
367.3941540527
 20
21.503092804
 10
367.5907214355
 20
21.1947610474
  0
LINE
  5
311
100
AcDbEntity
  8
0
100
AcDbLine
 62
2
  6
CONTINUOUS
 10
367.5907214355
 20
22.273927002
 11
367.5907214355
 21
20.4239268494
  0
LWPOLYLINE
  5
312
100
AcDbEntity
  8
0
100
AcDbPolyline
 62
2
  6
CONTINUOUS
 90
5
 70
0
 10
368.4752490234
 20
21.6572602844
 10
368.4752490234
 20
20.7322618103
 10
368.6718164063
 20
20.4239268494
 10
368.8683837891
 20
20.4239268494
 10
369.0649255371
 20
20.7322618103
  0
LINE
  5
313
100
AcDbEntity
  8
0
100
AcDbLine
 62
2
  6
CONTINUOUS
 10
369.0649255371
 20
21.6572602844
 11
369.0649255371
 21
20.4239268494
  0
LWPOLYLINE
  5
314
100
AcDbEntity
  8
0
100
AcDbPolyline
 62
2
  6
CONTINUOUS
 90
8
 70
0
 10
370.5391552734
 20
20.5780943298
 10
370.3425878906
 20
20.4239268494
 10
370.1460205078
 20
20.5780943298
 10
369.949453125
 20
20.8864260864
 10
369.949453125
 20
21.1947610474
 10
370.1460205078
 20
21.503092804
 10
370.3425878906
 20
21.6572602844
 10
370.5391552734
 20
21.503092804
  0
LINE
  5
315
100
AcDbEntity
  8
0
100
AcDbLine
 62
2
  6
CONTINUOUS
 10
371.9151013184
 20
20.4239268494
 11
371.9151013184
 21
22.273927002
  0
LINE
  5
316
100
AcDbEntity
  8
0
100
AcDbLine
 62
2
  6
CONTINUOUS
 10
371.6202502441
 20
21.503092804
 11
372.2099267578
 21
21.503092804
  0
LINE
  5
317
100
AcDbEntity
  8
0
100
AcDbLine
 62
2
  6
CONTINUOUS
 10
373.4875891113
 20
22.273927002
 11
373.4875891113
 21
22.1197595215
  0
LINE
  5
318
100
AcDbEntity
  8
0
100
AcDbLine
 62
2
  6
CONTINUOUS
 10
373.4875891113
 20
21.6572602844
 11
373.4875891113
 21
20.4239268494
  0
LWPOLYLINE
  5
319
100
AcDbEntity
  8
0
100
AcDbPolyline
 62
2
  6
CONTINUOUS
 90
11
 70
0
 10
375.4532116699
 20
20.8864260864
 10
375.2566442871
 20
20.5780943298
 10
375.0601025391
 20
20.4239268494
 10
374.8635351563
 20
20.5780943298
 10
374.6669677734
 20
20.8864260864
 10
374.6669677734
 20
21.1947610474
 10
374.8635351563
 20
21.503092804
 10
375.0601025391
 20
21.6572602844
 10
375.2566442871
 20
21.503092804
 10
375.4532116699
 20
21.1947610474
 10
375.4532116699
 20
20.8864260864
  0
LINE
  5
31A
100
AcDbEntity
  8
0
100
AcDbLine
 62
2
  6
CONTINUOUS
 10
376.3377392578
 20
20.4239268494
 11
376.3377392578
 21
21.6572602844
  0
LWPOLYLINE
  5
31B
100
AcDbEntity
  8
0
100
AcDbPolyline
 62
2
  6
CONTINUOUS
 90
5
 70
0
 10
376.3377392578
 20
21.3489285278
 10
376.5343066406
 20
21.6572602844
 10
376.7308740234
 20
21.6572602844
 10
376.9274414063
 20
21.3489285278
 10
376.9274414063
 20
20.4239268494
  0
LWPOLYLINE
  5
31C
100
AcDbEntity
  8
0
100
AcDbPolyline
 62
2
  6
CONTINUOUS
 90
14
 70
0
 10
378.4016455078
 20
21.503092804
 10
378.3033618164
 20
21.6572602844
 10
378.1068200684
 20
21.6572602844
 10
378.008536377
 20
21.503092804
 10
378.008536377
 20
21.3489285278
 10
378.205078125
 20
21.1947610474
 10
378.4016455078
 20
21.0405935669
 10
378.4999291992
 20
20.8864260864
 10
378.4999291992
 20
20.7322618103
 10
378.4016455078
 20
20.5780943298
 10
378.3033618164
 20
20.4239268494
 10
378.1068200684
 20
20.4239268494
 10
378.008536377
 20
20.5780943298
 10
377.9102526855
 20
20.7322618103
  0
LWPOLYLINE
  5
31D
100
AcDbEntity
  8
0
100
AcDbPolyline
 62
2
  6
CONTINUOUS
 90
10
 70
0
 10
381.7432141113
 20
20.8864260864
 10
381.5466467285
 20
20.5780943298
 10
381.3500793457
 20
20.4239268494
 10
381.1535375977
 20
20.5780943298
 10
380.9569702148
 20
20.8864260864
 10
380.9569702148
 20
21.1947610474
 10
381.1535375977
 20
21.503092804
 10
381.3500793457
 20
21.6572602844
 10
381.5466467285
 20
21.503092804
 10
381.7432141113
 20
21.1947610474
  0
LINE
  5
31E
100
AcDbEntity
  8
0
100
AcDbLine
 62
2
  6
CONTINUOUS
 10
381.7432141113
 20
21.6572602844
 11
381.7432141113
 21
20.4239268494
  0
LINE
  5
31F
100
AcDbEntity
  8
0
100
AcDbLine
 62
2
  6
CONTINUOUS
 10
382.6277416992
 20
20.4239268494
 11
382.6277416992
 21
21.6572602844
  0
LWPOLYLINE
  5
320
100
AcDbEntity
  8
0
100
AcDbPolyline
 62
2
  6
CONTINUOUS
 90
4
 70
0
 10
382.6277416992
 20
21.3489285278
 10
382.824309082
 20
21.6572602844
 10
383.0208764648
 20
21.6572602844
 10
383.1191601562
 20
21.503092804
  0
LWPOLYLINE
  5
321
100
AcDbEntity
  8
0
100
AcDbPolyline
 62
2
  6
CONTINUOUS
 90
11
 70
0
 10
384.7899316406
 20
20.7322618103
 10
384.6916479492
 20
20.5780943298
 10
384.4950805664
 20
20.4239268494
 10
384.2985388184
 20
20.5780943298
 10
384.1019714355
 20
20.8864260864
 10
384.1019714355
 20
21.1947610474
 10
384.2985388184
 20
21.503092804
 10
384.4950805664
 20
21.6572602844
 10
384.6916479492
 20
21.503092804
 10
384.7899316406
 20
21.1947610474
 10
384.1019714355
 20
21.1947610474
  0
LWPOLYLINE
  5
322
100
AcDbEntity
  8
0
100
AcDbPolyline
 62
2
  6
CONTINUOUS
 90
10
 70
0
 10
387.2469726562
 20
21.1947610474
 10
387.4435400391
 20
21.503092804
 10
387.6400817871
 20
21.6572602844
 10
387.8366491699
 20
21.503092804
 10
388.0332165527
 20
21.1947610474
 10
388.0332165527
 20
20.8864260864
 10
387.8366491699
 20
20.5780943298
 10
387.6400817871
 20
20.4239268494
 10
387.4435400391
 20
20.4239268494
 10
387.2469726562
 20
20.8864260864
  0
LINE
  5
323
100
AcDbEntity
  8
0
100
AcDbLine
 62
2
  6
CONTINUOUS
 10
387.2469726562
 20
21.6572602844
 11
387.2469726562
 21
19.8072601318
  0
LINE
  5
324
100
AcDbEntity
  8
0
100
AcDbLine
 62
2
  6
CONTINUOUS
 10
388.9177441406
 20
20.4239268494
 11
388.9177441406
 21
21.6572602844
  0
LWPOLYLINE
  5
325
100
AcDbEntity
  8
0
100
AcDbPolyline
 62
2
  6
CONTINUOUS
 90
4
 70
0
 10
388.9177441406
 20
21.3489285278
 10
389.1143115234
 20
21.6572602844
 10
389.3108789062
 20
21.6572602844
 10
389.4091625977
 20
21.503092804
  0
LWPOLYLINE
  5
326
100
AcDbEntity
  8
0
100
AcDbPolyline
 62
2
  6
CONTINUOUS
 90
11
 70
0
 10
391.1782177734
 20
20.8864260864
 10
390.9816503906
 20
20.5780943298
 10
390.7850830078
 20
20.4239268494
 10
390.588515625
 20
20.5780943298
 10
390.391973877
 20
20.8864260864
 10
390.391973877
 20
21.1947610474
 10
390.588515625
 20
21.503092804
 10
390.7850830078
 20
21.6572602844
 10
390.9816503906
 20
21.503092804
 10
391.1782177734
 20
21.1947610474
 10
391.1782177734
 20
20.8864260864
  0
LINE
  5
327
100
AcDbEntity
  8
0
100
AcDbLine
 62
2
  6
CONTINUOUS
 10
392.0627453613
 20
20.4239268494
 11
392.0627453613
 21
22.273927002
  0
LWPOLYLINE
  5
328
100
AcDbEntity
  8
0
100
AcDbPolyline
 62
2
  6
CONTINUOUS
 90
7
 70
0
 10
392.0627453613
 20
21.3489285278
 10
392.0627453613
 20
21.503092804
 10
392.2593127441
 20
21.6572602844
 10
392.3575964355
 20
21.6572602844
 10
392.455880127
 20
21.6572602844
 10
392.652421875
 20
21.3489285278
 10
392.652421875
 20
20.4239268494
  0
LINE
  5
329
100
AcDbEntity
  8
0
100
AcDbLine
 62
2
  6
CONTINUOUS
 10
393.9300842285
 20
22.273927002
 11
393.9300842285
 21
22.1197595215
  0
LINE
  5
32A
100
AcDbEntity
  8
0
100
AcDbLine
 62
2
  6
CONTINUOUS
 10
393.9300842285
 20
21.6572602844
 11
393.9300842285
 21
20.4239268494
  0
LWPOLYLINE
  5
32B
100
AcDbEntity
  8
0
100
AcDbPolyline
 62
2
  6
CONTINUOUS
 90
10
 70
0
 10
395.1094628906
 20
21.1947610474
 10
395.3060302734
 20
21.503092804
 10
395.5025976562
 20
21.6572602844
 10
395.6991650391
 20
21.503092804
 10
395.8957067871
 20
21.1947610474
 10
395.8957067871
 20
20.8864260864
 10
395.6991650391
 20
20.5780943298
 10
395.5025976562
 20
20.4239268494
 10
395.3060302734
 20
20.5780943298
 10
395.1094628906
 20
20.8864260864
  0
LINE
  5
32C
100
AcDbEntity
  8
0
100
AcDbLine
 62
2
  6
CONTINUOUS
 10
395.1094628906
 20
22.273927002
 11
395.1094628906
 21
20.4239268494
  0
LINE
  5
32D
100
AcDbEntity
  8
0
100
AcDbLine
 62
2
  6
CONTINUOUS
 10
397.0750854492
 20
22.273927002
 11
397.0750854492
 21
22.1197595215
  0
LINE
  5
32E
100
AcDbEntity
  8
0
100
AcDbLine
 62
2
  6
CONTINUOUS
 10
397.0750854492
 20
21.6572602844
 11
397.0750854492
 21
20.4239268494
  0
LINE
  5
32F
100
AcDbEntity
  8
0
100
AcDbLine
 62
2
  6
CONTINUOUS
 10
398.647598877
 20
20.4239268494
 11
398.647598877
 21
22.273927002
  0
LINE
  5
330
100
AcDbEntity
  8
0
100
AcDbLine
 62
2
  6
CONTINUOUS
 10
398.3527478027
 20
21.503092804
 11
398.9424243164
 21
21.503092804
  0
LWPOLYLINE
  5
331
100
AcDbEntity
  8
0
100
AcDbPolyline
 62
2
  6
CONTINUOUS
 90
11
 70
0
 10
400.5149377441
 20
20.7322618103
 10
400.4166540527
 20
20.5780943298
 10
400.2200866699
 20
20.4239268494
 10
400.0235192871
 20
20.5780943298
 10
399.8269775391
 20
20.8864260864
 10
399.8269775391
 20
21.1947610474
 10
400.0235192871
 20
21.503092804
 10
400.2200866699
 20
21.6572602844
 10
400.4166540527
 20
21.503092804
 10
400.5149377441
 20
21.1947610474
 10
399.8269775391
 20
21.1947610474
  0
LWPOLYLINE
  5
332
100
AcDbEntity
  8
0
100
AcDbPolyline
 62
2
  6
CONTINUOUS
 90
10
 70
0
 10
402.1857092285
 20
20.8864260864
 10
401.9891418457
 20
20.5780943298
 10
401.7926000977
 20
20.4239268494
 10
401.5960327148
 20
20.5780943298
 10
401.399465332
 20
20.8864260864
 10
401.399465332
 20
21.1947610474
 10
401.5960327148
 20
21.503092804
 10
401.7926000977
 20
21.6572602844
 10
401.9891418457
 20
21.503092804
 10
402.1857092285
 20
21.1947610474
  0
LINE
  5
333
100
AcDbEntity
  8
0
100
AcDbLine
 62
2
  6
CONTINUOUS
 10
402.1857092285
 20
22.273927002
 11
402.1857092285
 21
20.4239268494
  0
LWPOLYLINE
  5
334
100
AcDbEntity
  8
0
100
AcDbPolyline
 62
2
  6
CONTINUOUS
 90
5
 70
0
 10
321.1036889648
 20
18.8822616577
 10
321.3002563477
 20
17.6489282227
 10
321.5950817871
 20
18.8822616577
 10
321.7916491699
 20
17.6489282227
 10
322.0865002441
 20
18.8822616577
  0
LINE
  5
335
100
AcDbEntity
  8
0
100
AcDbLine
 62
2
  6
CONTINUOUS
 10
323.1675952148
 20
19.4989283752
 11
323.1675952148
 21
19.3447608948
  0
LINE
  5
336
100
AcDbEntity
  8
0
100
AcDbLine
 62
2
  6
CONTINUOUS
 10
323.1675952148
 20
18.8822616577
 11
323.1675952148
 21
17.6489282227
  0
LINE
  5
337
100
AcDbEntity
  8
0
100
AcDbLine
 62
2
  6
CONTINUOUS
 10
324.7400830078
 20
17.6489282227
 11
324.7400830078
 21
19.4989283752
  0
LINE
  5
338
100
AcDbEntity
  8
0
100
AcDbLine
 62
2
  6
CONTINUOUS
 10
324.4452575684
 20
18.7280941772
 11
325.034934082
 21
18.7280941772
  0
LINE
  5
339
100
AcDbEntity
  8
0
100
AcDbLine
 62
2
  6
CONTINUOUS
 10
326.0177453613
 20
17.6489282227
 11
326.0177453613
 21
19.4989283752
  0
LWPOLYLINE
  5
33A
100
AcDbEntity
  8
0
100
AcDbPolyline
 62
2
  6
CONTINUOUS
 90
7
 70
0
 10
326.0177453613
 20
18.5739266968
 10
326.0177453613
 20
18.7280941772
 10
326.2143127441
 20
18.8822616577
 10
326.3125964355
 20
18.8822616577
 10
326.410880127
 20
18.8822616577
 10
326.607421875
 20
18.5739266968
 10
326.607421875
 20
17.6489282227
  0
LWPOLYLINE
  5
33B
100
AcDbEntity
  8
0
100
AcDbPolyline
 62
2
  6
CONTINUOUS
 90
11
 70
0
 10
328.2782189941
 20
18.1114274597
 10
328.0816516113
 20
17.8030924988
 10
327.8850842285
 20
17.6489282227
 10
327.6885168457
 20
17.8030924988
 10
327.4919750977
 20
18.1114274597
 10
327.4919750977
 20
18.4197592163
 10
327.6885168457
 20
18.7280941772
 10
327.8850842285
 20
18.8822616577
 10
328.0816516113
 20
18.7280941772
 10
328.2782189941
 20
18.4197592163
 10
328.2782189941
 20
18.1114274597
  0
LWPOLYLINE
  5
33C
100
AcDbEntity
  8
0
100
AcDbPolyline
 62
2
  6
CONTINUOUS
 90
5
 70
0
 10
329.162746582
 20
18.8822616577
 10
329.162746582
 20
17.9572599792
 10
329.3593139648
 20
17.6489282227
 10
329.5558813477
 20
17.6489282227
 10
329.7524230957
 20
17.9572599792
  0
LINE
  5
33D
100
AcDbEntity
  8
0
100
AcDbLine
 62
2
  6
CONTINUOUS
 10
329.7524230957
 20
18.8822616577
 11
329.7524230957
 21
17.6489282227
  0
LINE
  5
33E
100
AcDbEntity
  8
0
100
AcDbLine
 62
2
  6
CONTINUOUS
 10
331.0300854492
 20
17.6489282227
 11
331.0300854492
 21
19.4989283752
  0
LINE
  5
33F
100
AcDbEntity
  8
0
100
AcDbLine
 62
2
  6
CONTINUOUS
 10
330.735234375
 20
18.7280941772
 11
331.3249365234
 21
18.7280941772
  0
LWPOLYLINE
  5
340
100
AcDbEntity
  8
0
100
AcDbPolyline
 62
2
  6
CONTINUOUS
 90
10
 70
0
 10
333.7819775391
 20
18.4197592163
 10
333.9785192871
 20
18.7280941772
 10
334.1750866699
 20
18.8822616577
 10
334.3716540527
 20
18.7280941772
 10
334.5682214355
 20
18.4197592163
 10
334.5682214355
 20
18.1114274597
 10
334.3716540527
 20
17.8030924988
 10
334.1750866699
 20
17.6489282227
 10
333.9785192871
 20
17.6489282227
 10
333.7819775391
 20
18.1114274597
  0
LINE
  5
341
100
AcDbEntity
  8
0
100
AcDbLine
 62
2
  6
CONTINUOUS
 10
333.7819775391
 20
18.8822616577
 11
333.7819775391
 21
17.0322615051
  0
LINE
  5
342
100
AcDbEntity
  8
0
100
AcDbLine
 62
2
  6
CONTINUOUS
 10
335.4527490234
 20
17.6489282227
 11
335.4527490234
 21
18.8822616577
  0
LWPOLYLINE
  5
343
100
AcDbEntity
  8
0
100
AcDbPolyline
 62
2
  6
CONTINUOUS
 90
4
 70
0
 10
335.4527490234
 20
18.5739266968
 10
335.6493164062
 20
18.8822616577
 10
335.8458837891
 20
18.8822616577
 10
335.9441418457
 20
18.7280941772
  0
LINE
  5
344
100
AcDbEntity
  8
0
100
AcDbLine
 62
2
  6
CONTINUOUS
 10
337.3200878906
 20
19.4989283752
 11
337.3200878906
 21
19.3447608948
  0
LINE
  5
345
100
AcDbEntity
  8
0
100
AcDbLine
 62
2
  6
CONTINUOUS
 10
337.3200878906
 20
18.8822616577
 11
337.3200878906
 21
17.6489282227
  0
LWPOLYLINE
  5
346
100
AcDbEntity
  8
0
100
AcDbPolyline
 62
2
  6
CONTINUOUS
 90
11
 70
0
 10
339.2857104492
 20
18.1114274597
 10
339.0891430664
 20
17.8030924988
 10
338.8926013184
 20
17.6489282227
 10
338.6960339355
 20
17.8030924988
 10
338.4994665527
 20
18.1114274597
 10
338.4994665527
 20
18.4197592163
 10
338.6960339355
 20
18.7280941772
 10
338.8926013184
 20
18.8822616577
 10
339.0891430664
 20
18.7280941772
 10
339.2857104492
 20
18.4197592163
 10
339.2857104492
 20
18.1114274597
  0
LINE
  5
347
100
AcDbEntity
  8
0
100
AcDbLine
 62
2
  6
CONTINUOUS
 10
340.1702380371
 20
17.6489282227
 11
340.1702380371
 21
18.8822616577
  0
LWPOLYLINE
  5
348
100
AcDbEntity
  8
0
100
AcDbPolyline
 62
2
  6
CONTINUOUS
 90
4
 70
0
 10
340.1702380371
 20
18.5739266968
 10
340.3668054199
 20
18.8822616577
 10
340.5633728027
 20
18.8822616577
 10
340.6616564941
 20
18.7280941772
  0
LWPOLYLINE
  5
349
100
AcDbEntity
  8
0
100
AcDbPolyline
 62
2
  6
CONTINUOUS
 90
10
 70
0
 10
344.0032250977
 20
18.1114274597
 10
343.8066577148
 20
17.8030924988
 10
343.610090332
 20
17.6489282227
 10
343.4135229492
 20
17.8030924988
 10
343.2169555664
 20
18.1114274597
 10
343.2169555664
 20
18.4197592163
 10
343.4135229492
 20
18.7280941772
 10
343.610090332
 20
18.8822616577
 10
343.8066577148
 20
18.7280941772
 10
344.0032250977
 20
18.4197592163
  0
LINE
  5
34A
100
AcDbEntity
  8
0
100
AcDbLine
 62
2
  6
CONTINUOUS
 10
344.0032250977
 20
18.8822616577
 11
344.0032250977
 21
17.6489282227
  0
LWPOLYLINE
  5
34B
100
AcDbEntity
  8
0
100
AcDbPolyline
 62
2
  6
CONTINUOUS
 90
5
 70
0
 10
344.8877526855
 20
18.8822616577
 10
344.8877526855
 20
17.9572599792
 10
345.0843200684
 20
17.6489282227
 10
345.2808618164
 20
17.6489282227
 10
345.4774291992
 20
17.9572599792
  0
LINE
  5
34C
100
AcDbEntity
  8
0
100
AcDbLine
 62
2
  6
CONTINUOUS
 10
345.4774291992
 20
18.8822616577
 11
345.4774291992
 21
17.6489282227
  0
LINE
  5
34D
100
AcDbEntity
  8
0
100
AcDbLine
 62
2
  6
CONTINUOUS
 10
346.7550915527
 20
17.6489282227
 11
346.7550915527
 21
19.4989283752
  0
LINE
  5
34E
100
AcDbEntity
  8
0
100
AcDbLine
 62
2
  6
CONTINUOUS
 10
346.4602404785
 20
18.7280941772
 11
347.049942627
 21
18.7280941772
  0
LINE
  5
34F
100
AcDbEntity
  8
0
100
AcDbLine
 62
2
  6
CONTINUOUS
 10
348.0327539062
 20
17.6489282227
 11
348.0327539062
 21
19.4989283752
  0
LWPOLYLINE
  5
350
100
AcDbEntity
  8
0
100
AcDbPolyline
 62
2
  6
CONTINUOUS
 90
7
 70
0
 10
348.0327539062
 20
18.5739266968
 10
348.0327539062
 20
18.7280941772
 10
348.2293212891
 20
18.8822616577
 10
348.3275793457
 20
18.8822616577
 10
348.4258630371
 20
18.8822616577
 10
348.6224304199
 20
18.5739266968
 10
348.6224304199
 20
17.6489282227
  0
LWPOLYLINE
  5
351
100
AcDbEntity
  8
0
100
AcDbPolyline
 62
2
  6
CONTINUOUS
 90
11
 70
0
 10
350.2932275391
 20
18.1114274597
 10
350.0966601562
 20
17.8030924988
 10
349.9000927734
 20
17.6489282227
 10
349.7035253906
 20
17.8030924988
 10
349.5069580078
 20
18.1114274597
 10
349.5069580078
 20
18.4197592163
 10
349.7035253906
 20
18.7280941772
 10
349.9000927734
 20
18.8822616577
 10
350.0966601562
 20
18.7280941772
 10
350.2932275391
 20
18.4197592163
 10
350.2932275391
 20
18.1114274597
  0
LINE
  5
352
100
AcDbEntity
  8
0
100
AcDbLine
 62
2
  6
CONTINUOUS
 10
351.177755127
 20
17.6489282227
 11
351.177755127
 21
18.8822616577
  0
LWPOLYLINE
  5
353
100
AcDbEntity
  8
0
100
AcDbPolyline
 62
2
  6
CONTINUOUS
 90
4
 70
0
 10
351.177755127
 20
18.5739266968
 10
351.374296875
 20
18.8822616577
 10
351.5708642578
 20
18.8822616577
 10
351.6691479492
 20
18.7280941772
  0
LINE
  5
354
100
AcDbEntity
  8
0
100
AcDbLine
 62
2
  6
CONTINUOUS
 10
353.0450939941
 20
19.4989283752
 11
353.0450939941
 21
19.3447608948
  0
LINE
  5
355
100
AcDbEntity
  8
0
100
AcDbLine
 62
2
  6
CONTINUOUS
 10
353.0450939941
 20
18.8822616577
 11
353.0450939941
 21
17.6489282227
  0
LWPOLYLINE
  5
356
100
AcDbEntity
  8
0
100
AcDbPolyline
 62
2
  6
CONTINUOUS
 90
14
 70
0
 10
354.8141491699
 20
18.7280941772
 10
354.7158654785
 20
18.8822616577
 10
354.5192980957
 20
18.8822616577
 10
354.4210400391
 20
18.7280941772
 10
354.4210400391
 20
18.5739266968
 10
354.6175817871
 20
18.4197592163
 10
354.8141491699
 20
18.2655949402
 10
354.9124328613
 20
18.1114274597
 10
354.9124328613
 20
17.9572599792
 10
354.8141491699
 20
17.8030924988
 10
354.7158654785
 20
17.6489282227
 10
354.5192980957
 20
17.6489282227
 10
354.4210400391
 20
17.8030924988
 10
354.3227563477
 20
17.9572599792
  0
LWPOLYLINE
  5
357
100
AcDbEntity
  8
0
100
AcDbPolyline
 62
2
  6
CONTINUOUS
 90
10
 70
0
 10
356.5832043457
 20
18.1114274597
 10
356.3866625977
 20
17.8030924988
 10
356.1900952148
 20
17.6489282227
 10
355.993527832
 20
17.8030924988
 10
355.7969604492
 20
18.1114274597
 10
355.7969604492
 20
18.4197592163
 10
355.993527832
 20
18.7280941772
 10
356.1900952148
 20
18.8822616577
 10
356.3866625977
 20
18.7280941772
 10
356.5832043457
 20
18.4197592163
  0
LINE
  5
358
100
AcDbEntity
  8
0
100
AcDbLine
 62
2
  6
CONTINUOUS
 10
356.5832043457
 20
18.8822616577
 11
356.5832043457
 21
17.6489282227
  0
LINE
  5
359
100
AcDbEntity
  8
0
100
AcDbLine
 62
2
  6
CONTINUOUS
 10
357.7625830078
 20
17.6489282227
 11
357.7625830078
 21
19.4989283752
  0
LINE
  5
35A
100
AcDbEntity
  8
0
100
AcDbLine
 62
2
  6
CONTINUOUS
 10
357.4677575684
 20
18.7280941772
 11
358.057434082
 21
18.7280941772
  0
LINE
  5
35B
100
AcDbEntity
  8
0
100
AcDbLine
 62
2
  6
CONTINUOUS
 10
359.3350964355
 20
19.4989283752
 11
359.3350964355
 21
19.3447608948
  0
LINE
  5
35C
100
AcDbEntity
  8
0
100
AcDbLine
 62
2
  6
CONTINUOUS
 10
359.3350964355
 20
18.8822616577
 11
359.3350964355
 21
17.6489282227
  0
LWPOLYLINE
  5
35D
100
AcDbEntity
  8
0
100
AcDbPolyline
 62
2
  6
CONTINUOUS
 90
11
 70
0
 10
361.3007189941
 20
18.1114274597
 10
361.1041516113
 20
17.8030924988
 10
360.9075842285
 20
17.6489282227
 10
360.7110168457
 20
17.8030924988
 10
360.5144750977
 20
18.1114274597
 10
360.5144750977
 20
18.4197592163
 10
360.7110168457
 20
18.7280941772
 10
360.9075842285
 20
18.8822616577
 10
361.1041516113
 20
18.7280941772
 10
361.3007189941
 20
18.4197592163
 10
361.3007189941
 20
18.1114274597
  0
LINE
  5
35E
100
AcDbEntity
  8
0
100
AcDbLine
 62
2
  6
CONTINUOUS
 10
362.185246582
 20
17.6489282227
 11
362.185246582
 21
18.8822616577
  0
LWPOLYLINE
  5
35F
100
AcDbEntity
  8
0
100
AcDbPolyline
 62
2
  6
CONTINUOUS
 90
5
 70
0
 10
362.185246582
 20
18.5739266968
 10
362.3818139648
 20
18.8822616577
 10
362.5783813477
 20
18.8822616577
 10
362.7749230957
 20
18.5739266968
 10
362.7749230957
 20
17.6489282227
  0
LWPOLYLINE
  5
360
100
AcDbEntity
  8
0
100
AcDbPolyline
 62
2
  6
CONTINUOUS
 90
11
 70
0
 10
366.0182080078
 20
18.1114274597
 10
365.821640625
 20
17.8030924988
 10
365.625098877
 20
17.6489282227
 10
365.4285314941
 20
17.8030924988
 10
365.2319641113
 20
18.1114274597
 10
365.2319641113
 20
18.4197592163
 10
365.4285314941
 20
18.7280941772
 10
365.625098877
 20
18.8822616577
 10
365.821640625
 20
18.7280941772
 10
366.0182080078
 20
18.4197592163
 10
366.0182080078
 20
18.1114274597
  0
LWPOLYLINE
  5
361
100
AcDbEntity
  8
0
100
AcDbPolyline
 62
2
  6
CONTINUOUS
 90
5
 70
0
 10
367.1975866699
 20
17.6489282227
 10
367.1975866699
 20
19.1905934143
 10
367.3941540527
 20
19.4989283752
 10
367.4924377441
 20
19.4989283752
 10
367.5907214355
 20
19.3447608948
  0
LINE
  5
362
100
AcDbEntity
  8
0
100
AcDbLine
 62
2
  6
CONTINUOUS
 10
367.0010192871
 20
18.7280941772
 11
367.3941540527
 21
18.7280941772
  0
LWPOLYLINE
  5
363
100
AcDbEntity
  8
0
100
AcDbPolyline
 62
2
  6
CONTINUOUS
 90
3
 70
0
 10
369.949453125
 20
19.4989283752
 10
369.949453125
 20
17.6489282227
 10
370.7357226563
 20
17.6489282227
  0
LWPOLYLINE
  5
364
100
AcDbEntity
  8
0
100
AcDbPolyline
 62
2
  6
CONTINUOUS
 90
19
 70
0
 10
373.9790075684
 20
18.1114274597
 10
373.880723877
 20
17.9572599792
 10
373.7824401855
 20
17.8030924988
 10
373.5858728027
 20
17.6489282227
 10
373.3893054199
 20
17.6489282227
 10
373.1927380371
 20
17.8030924988
 10
373.0944543457
 20
17.9572599792
 10
373.0944543457
 20
18.2655949402
 10
373.4875891113
 20
18.7280941772
 10
373.6841564941
 20
19.0364259338
 10
373.6841564941
 20
19.3447608948
 10
373.5858728027
 20
19.4989283752
 10
373.3893054199
 20
19.4989283752
 10
373.2910217285
 20
19.3447608948
 10
373.2910217285
 20
19.0364259338
 10
373.4875891113
 20
18.7280941772
 10
373.880723877
 20
17.9572599792
 10
373.9790075684
 20
17.8030924988
 10
374.077265625
 20
17.8030924988
  0
LWPOLYLINE
  5
365
100
AcDbEntity
  8
0
100
AcDbPolyline
 62
2
  6
CONTINUOUS
 90
3
 70
0
 10
376.2394555664
 20
19.4989283752
 10
376.2394555664
 20
17.6489282227
 10
377.0257250977
 20
17.6489282227
  0
LWPOLYLINE
  5
366
100
AcDbEntity
  8
0
100
AcDbPolyline
 62
2
  6
CONTINUOUS
 90
3
 70
0
 10
379.3844567871
 20
19.4989283752
 10
379.3844567871
 20
17.6489282227
 10
380.1707263184
 20
17.6489282227
  0
LWPOLYLINE
  5
367
100
AcDbEntity
  8
0
100
AcDbPolyline
 62
2
  6
CONTINUOUS
 90
5
 70
0
 10
381.0552539062
 20
18.8822616577
 10
381.0552539062
 20
17.9572599792
 10
381.2518212891
 20
17.6489282227
 10
381.4483630371
 20
17.6489282227
 10
381.6449304199
 20
17.9572599792
  0
LINE
  5
368
100
AcDbEntity
  8
0
100
AcDbLine
 62
2
  6
CONTINUOUS
 10
381.6449304199
 20
18.8822616577
 11
381.6449304199
 21
17.6489282227
  0
LWPOLYLINE
  5
369
100
AcDbEntity
  8
0
100
AcDbPolyline
 62
2
  6
CONTINUOUS
 90
8
 70
0
 10
383.1191601562
 20
17.8030924988
 10
382.9225927734
 20
17.6489282227
 10
382.7260253906
 20
17.8030924988
 10
382.5294580078
 20
18.1114274597
 10
382.5294580078
 20
18.4197592163
 10
382.7260253906
 20
18.7280941772
 10
382.9225927734
 20
18.8822616577
 10
383.1191601562
 20
18.7280941772
  0
LWPOLYLINE
  5
36A
100
AcDbEntity
  8
0
100
AcDbPolyline
 62
2
  6
CONTINUOUS
 90
11
 70
0
 10
384.7899316406
 20
17.9572599792
 10
384.6916479492
 20
17.8030924988
 10
384.4950805664
 20
17.6489282227
 10
384.2985388184
 20
17.8030924988
 10
384.1019714355
 20
18.1114274597
 10
384.1019714355
 20
18.4197592163
 10
384.2985388184
 20
18.7280941772
 10
384.4950805664
 20
18.8822616577
 10
384.6916479492
 20
18.7280941772
 10
384.7899316406
 20
18.4197592163
 10
384.1019714355
 20
18.4197592163
  0
LWPOLYLINE
  5
36B
100
AcDbEntity
  8
0
100
AcDbPolyline
 62
2
  6
CONTINUOUS
 90
19
 70
0
 10
388.1315002441
 20
18.1114274597
 10
388.0332165527
 20
17.9572599792
 10
387.9349328613
 20
17.8030924988
 10
387.7383654785
 20
17.6489282227
 10
387.5417980957
 20
17.6489282227
 10
387.3452563477
 20
17.8030924988
 10
387.2469726562
 20
17.9572599792
 10
387.2469726562
 20
18.2655949402
 10
387.6400817871
 20
18.7280941772
 10
387.8366491699
 20
19.0364259338
 10
387.8366491699
 20
19.3447608948
 10
387.7383654785
 20
19.4989283752
 10
387.5417980957
 20
19.4989283752
 10
387.4435400391
 20
19.3447608948
 10
387.4435400391
 20
19.0364259338
 10
387.6400817871
 20
18.7280941772
 10
388.0332165527
 20
17.9572599792
 10
388.1315002441
 20
17.8030924988
 10
388.2297839355
 20
17.8030924988
  0
LWPOLYLINE
  5
36C
100
AcDbEntity
  8
0
100
AcDbPolyline
 62
2
  6
CONTINUOUS
 90
3
 70
0
 10
390.391973877
 20
19.4989283752
 10
390.391973877
 20
17.6489282227
 10
391.1782177734
 20
17.6489282227
  0
LINE
  5
36D
100
AcDbEntity
  8
0
100
AcDbLine
 62
2
  6
CONTINUOUS
 10
392.3575964355
 20
19.4989283752
 11
392.3575964355
 21
19.3447608948
  0
LINE
  5
36E
100
AcDbEntity
  8
0
100
AcDbLine
 62
2
  6
CONTINUOUS
 10
392.3575964355
 20
18.8822616577
 11
392.3575964355
 21
17.6489282227
  0
LWPOLYLINE
  5
36F
100
AcDbEntity
  8
0
100
AcDbPolyline
 62
2
  6
CONTINUOUS
 90
10
 70
0
 10
394.3232189941
 20
18.1114274597
 10
394.1266516113
 20
17.8030924988
 10
393.9300842285
 20
17.6489282227
 10
393.7335168457
 20
17.8030924988
 10
393.5369750977
 20
18.1114274597
 10
393.5369750977
 20
18.4197592163
 10
393.7335168457
 20
18.7280941772
 10
393.9300842285
 20
18.8822616577
 10
394.1266516113
 20
18.7280941772
 10
394.3232189941
 20
18.4197592163
  0
LWPOLYLINE
  5
370
100
AcDbEntity
  8
0
100
AcDbPolyline
 62
2
  6
CONTINUOUS
 90
6
 70
0
 10
394.3232189941
 20
18.8822616577
 10
394.3232189941
 20
17.4947607422
 10
394.2249353027
 20
17.1864257812
 10
394.1266516113
 20
17.0322615051
 10
393.7335168457
 20
17.0322615051
 10
393.6352587891
 20
17.1864257812
  0
LINE
  5
371
100
AcDbEntity
  8
0
100
AcDbLine
 62
2
  6
CONTINUOUS
 10
395.207746582
 20
17.6489282227
 11
395.207746582
 21
19.4989283752
  0
LWPOLYLINE
  5
372
100
AcDbEntity
  8
0
100
AcDbPolyline
 62
2
  6
CONTINUOUS
 90
7
 70
0
 10
395.207746582
 20
18.5739266968
 10
395.207746582
 20
18.7280941772
 10
395.4043139648
 20
18.8822616577
 10
395.5025976562
 20
18.8822616577
 10
395.6008813477
 20
18.8822616577
 10
395.7974230957
 20
18.5739266968
 10
395.7974230957
 20
17.6489282227
  0
LINE
  5
373
100
AcDbEntity
  8
0
100
AcDbLine
 62
2
  6
CONTINUOUS
 10
397.0750854492
 20
17.6489282227
 11
397.0750854492
 21
19.4989283752
  0
LINE
  5
374
100
AcDbEntity
  8
0
100
AcDbLine
 62
2
  6
CONTINUOUS
 10
396.780234375
 20
18.7280941772
 11
397.3699365234
 21
18.7280941772
  0
LWPOLYLINE
  5
375
100
AcDbEntity
  8
0
100
AcDbPolyline
 62
2
  6
CONTINUOUS
 90
14
 70
0
 10
400.4166540527
 20
18.7280941772
 10
400.3183703613
 20
18.8822616577
 10
400.1218029785
 20
18.8822616577
 10
400.0235192871
 20
18.7280941772
 10
400.0235192871
 20
18.5739266968
 10
400.2200866699
 20
18.4197592163
 10
400.4166540527
 20
18.2655949402
 10
400.5149377441
 20
18.1114274597
 10
400.5149377441
 20
17.9572599792
 10
400.4166540527
 20
17.8030924988
 10
400.3183703613
 20
17.6489282227
 10
400.1218029785
 20
17.6489282227
 10
400.0235192871
 20
17.8030924988
 10
399.9252355957
 20
17.9572599792
  0
LWPOLYLINE
  5
376
100
AcDbEntity
  8
0
100
AcDbPolyline
 62
2
  6
CONTINUOUS
 90
4
 70
0
 10
401.7926000977
 20
17.6489282227
 10
401.6943164062
 20
17.6489282227
 10
401.6943164062
 20
17.8030924988
 10
401.7926000977
 20
17.6489282227
  0
LINE
  5
377
100
AcDbEntity
  8
0
100
AcDbLine
 62
2
  6
CONTINUOUS
 10
403.0702368164
 20
17.6489282227
 11
403.0702368164
 21
18.8822616577
  0
LWPOLYLINE
  5
378
100
AcDbEntity
  8
0
100
AcDbPolyline
 62
2
  6
CONTINUOUS
 90
4
 70
0
 10
403.0702368164
 20
18.5739266968
 10
403.2668041992
 20
18.8822616577
 10
403.463371582
 20
18.8822616577
 10
403.5616552734
 20
18.7280941772
  0
LWPOLYLINE
  5
379
100
AcDbEntity
  8
0
100
AcDbPolyline
 62
2
  6
CONTINUOUS
 90
4
 70
0
 10
404.9376013184
 20
17.6489282227
 10
404.839317627
 20
17.6489282227
 10
404.839317627
 20
17.8030924988
 10
404.9376013184
 20
17.6489282227
  0
LINE
  5
37A
100
AcDbEntity
  8
0
100
AcDbLine
 62
2
  6
CONTINUOUS
 10
406.5100891113
 20
17.6489282227
 11
406.5100891113
 21
19.4989283752
  0
LWPOLYLINE
  5
37B
100
AcDbEntity
  8
0
100
AcDbPolyline
 62
2
  6
CONTINUOUS
 90
4
 70
0
 10
408.0826025391
 20
17.6489282227
 10
407.9843188477
 20
17.6489282227
 10
407.9843188477
 20
17.8030924988
 10
408.0826025391
 20
17.6489282227
  0
LWPOLYLINE
  5
37C
100
AcDbEntity
  8
0
100
AcDbPolyline
 62
2
  6
CONTINUOUS
 90
5
 70
0
 10
409.655090332
 20
17.6489282227
 10
409.5568066406
 20
17.8030924988
 10
409.655090332
 20
17.8030924988
 10
409.655090332
 20
17.6489282227
 10
409.4585229492
 20
17.3405932617
  0
LINE
  5
37D
100
AcDbEntity
  8
0
100
AcDbLine
 62
2
  6
CONTINUOUS
 10
321.5950817871
 20
16.7239265442
 11
321.5950817871
 21
16.5697590637
  0
LINE
  5
37E
100
AcDbEntity
  8
0
100
AcDbLine
 62
2
  6
CONTINUOUS
 10
321.5950817871
 20
16.1072598267
 11
321.5950817871
 21
14.8739263916
  0
LINE
  5
37F
100
AcDbEntity
  8
0
100
AcDbLine
 62
2
  6
CONTINUOUS
 10
322.8727441406
 20
14.8739263916
 11
322.8727441406
 21
16.1072598267
  0
LWPOLYLINE
  5
380
100
AcDbEntity
  8
0
100
AcDbPolyline
 62
2
  6
CONTINUOUS
 90
5
 70
0
 10
322.8727441406
 20
15.7989280701
 10
323.0693115234
 20
16.1072598267
 10
323.2658789063
 20
16.1072598267
 10
323.4624462891
 20
15.7989280701
 10
323.4624462891
 20
14.8739263916
  0
LWPOLYLINE
  5
381
100
AcDbEntity
  8
0
100
AcDbPolyline
 62
2
  6
CONTINUOUS
 90
10
 70
0
 10
326.7057055664
 20
15.3364256287
 10
326.5091638184
 20
15.0280938721
 10
326.3125964355
 20
14.8739263916
 10
326.1160290527
 20
15.0280938721
 10
325.9194616699
 20
15.3364256287
 10
325.9194616699
 20
15.6447605896
 10
326.1160290527
 20
15.9530923462
 10
326.3125964355
 20
16.1072598267
 10
326.5091638184
 20
15.9530923462
 10
326.7057055664
 20
15.6447605896
  0
LINE
  5
382
100
AcDbEntity
  8
0
100
AcDbLine
 62
2
  6
CONTINUOUS
 10
326.7057055664
 20
16.1072598267
 11
326.7057055664
 21
14.8739263916
  0
LWPOLYLINE
  5
383
100
AcDbEntity
  8
0
100
AcDbPolyline
 62
2
  6
CONTINUOUS
 90
8
 70
0
 10
328.0816516113
 20
15.0280938721
 10
327.8850842285
 20
14.8739263916
 10
327.6885168457
 20
15.0280938721
 10
327.4919750977
 20
15.3364256287
 10
327.4919750977
 20
15.6447605896
 10
327.6885168457
 20
15.9530923462
 10
327.8850842285
 20
16.1072598267
 10
328.0816516113
 20
15.9530923462
  0
LWPOLYLINE
  5
384
100
AcDbEntity
  8
0
100
AcDbPolyline
 62
2
  6
CONTINUOUS
 90
8
 70
0
 10
329.6541650391
 20
15.0280938721
 10
329.4575976563
 20
14.8739263916
 10
329.2610302734
 20
15.0280938721
 10
329.0644628906
 20
15.3364256287
 10
329.0644628906
 20
15.6447605896
 10
329.2610302734
 20
15.9530923462
 10
329.4575976563
 20
16.1072598267
 10
329.6541650391
 20
15.9530923462
  0
LWPOLYLINE
  5
385
100
AcDbEntity
  8
0
100
AcDbPolyline
 62
2
  6
CONTINUOUS
 90
11
 70
0
 10
331.4232202148
 20
15.3364256287
 10
331.226652832
 20
15.0280938721
 10
331.0300854492
 20
14.8739263916
 10
330.8335180664
 20
15.0280938721
 10
330.6369763184
 20
15.3364256287
 10
330.6369763184
 20
15.6447605896
 10
330.8335180664
 20
15.9530923462
 10
331.0300854492
 20
16.1072598267
 10
331.226652832
 20
15.9530923462
 10
331.4232202148
 20
15.6447605896
 10
331.4232202148
 20
15.3364256287
  0
LINE
  5
386
100
AcDbEntity
  8
0
100
AcDbLine
 62
2
  6
CONTINUOUS
 10
332.3077478027
 20
14.8739263916
 11
332.3077478027
 21
16.1072598267
  0
LWPOLYLINE
  5
387
100
AcDbEntity
  8
0
100
AcDbPolyline
 62
2
  6
CONTINUOUS
 90
4
 70
0
 10
332.3077478027
 20
15.7989280701
 10
332.5043151855
 20
16.1072598267
 10
332.7008825684
 20
16.1072598267
 10
332.799140625
 20
15.9530923462
  0
LWPOLYLINE
  5
388
100
AcDbEntity
  8
0
100
AcDbPolyline
 62
2
  6
CONTINUOUS
 90
10
 70
0
 10
334.5682214355
 20
15.3364256287
 10
334.3716540527
 20
15.0280938721
 10
334.1750866699
 20
14.8739263916
 10
333.9785192871
 20
15.0280938721
 10
333.7819775391
 20
15.3364256287
 10
333.7819775391
 20
15.6447605896
 10
333.9785192871
 20
15.9530923462
 10
334.1750866699
 20
16.1072598267
 10
334.3716540527
 20
15.9530923462
 10
334.5682214355
 20
15.6447605896
  0
LINE
  5
389
100
AcDbEntity
  8
0
100
AcDbLine
 62
2
  6
CONTINUOUS
 10
334.5682214355
 20
16.7239265442
 11
334.5682214355
 21
14.8739263916
  0
LWPOLYLINE
  5
38A
100
AcDbEntity
  8
0
100
AcDbPolyline
 62
2
  6
CONTINUOUS
 90
10
 70
0
 10
336.1407092285
 20
15.3364256287
 10
335.9441418457
 20
15.0280938721
 10
335.7476000977
 20
14.8739263916
 10
335.5510327148
 20
15.0280938721
 10
335.354465332
 20
15.3364256287
 10
335.354465332
 20
15.6447605896
 10
335.5510327148
 20
15.9530923462
 10
335.7476000977
 20
16.1072598267
 10
335.9441418457
 20
15.9530923462
 10
336.1407092285
 20
15.6447605896
  0
LINE
  5
38B
100
AcDbEntity
  8
0
100
AcDbLine
 62
2
  6
CONTINUOUS
 10
336.1407092285
 20
16.1072598267
 11
336.1407092285
 21
14.8739263916
  0
LINE
  5
38C
100
AcDbEntity
  8
0
100
AcDbLine
 62
2
  6
CONTINUOUS
 10
337.0252368164
 20
14.8739263916
 11
337.0252368164
 21
16.1072598267
  0
LWPOLYLINE
  5
38D
100
AcDbEntity
  8
0
100
AcDbPolyline
 62
2
  6
CONTINUOUS
 90
5
 70
0
 10
337.0252368164
 20
15.7989280701
 10
337.2218041992
 20
16.1072598267
 10
337.418371582
 20
16.1072598267
 10
337.6149389648
 20
15.7989280701
 10
337.6149389648
 20
14.8739263916
  0
LWPOLYLINE
  5
38E
100
AcDbEntity
  8
0
100
AcDbPolyline
 62
2
  6
CONTINUOUS
 90
8
 70
0
 10
339.0891430664
 20
15.0280938721
 10
338.8926013184
 20
14.8739263916
 10
338.6960339355
 20
15.0280938721
 10
338.4994665527
 20
15.3364256287
 10
338.4994665527
 20
15.6447605896
 10
338.6960339355
 20
15.9530923462
 10
338.8926013184
 20
16.1072598267
 10
339.0891430664
 20
15.9530923462
  0
LWPOLYLINE
  5
38F
100
AcDbEntity
  8
0
100
AcDbPolyline
 62
2
  6
CONTINUOUS
 90
11
 70
0
 10
340.7599401855
 20
15.1822613525
 10
340.6616564941
 20
15.0280938721
 10
340.4650891113
 20
14.8739263916
 10
340.2685217285
 20
15.0280938721
 10
340.0719543457
 20
15.3364256287
 10
340.0719543457
 20
15.6447605896
 10
340.2685217285
 20
15.9530923462
 10
340.4650891113
 20
16.1072598267
 10
340.6616564941
 20
15.9530923462
 10
340.7599401855
 20
15.6447605896
 10
340.0719543457
 20
15.6447605896
  0
LWPOLYLINE
  5
390
100
AcDbEntity
  8
0
100
AcDbPolyline
 62
2
  6
CONTINUOUS
 90
5
 70
0
 10
343.118671875
 20
16.1072598267
 10
343.3152392578
 20
14.8739263916
 10
343.610090332
 20
16.1072598267
 10
343.8066577148
 20
14.8739263916
 10
344.1015087891
 20
16.1072598267
  0
LINE
  5
391
100
AcDbEntity
  8
0
100
AcDbLine
 62
2
  6
CONTINUOUS
 10
345.182578125
 20
16.7239265442
 11
345.182578125
 21
16.5697590637
  0
LINE
  5
392
100
AcDbEntity
  8
0
100
AcDbLine
 62
2
  6
CONTINUOUS
 10
345.182578125
 20
16.1072598267
 11
345.182578125
 21
14.8739263916
  0
LINE
  5
393
100
AcDbEntity
  8
0
100
AcDbLine
 62
2
  6
CONTINUOUS
 10
346.7550915527
 20
14.8739263916
 11
346.7550915527
 21
16.7239265442
  0
LINE
  5
394
100
AcDbEntity
  8
0
100
AcDbLine
 62
2
  6
CONTINUOUS
 10
346.4602404785
 20
15.9530923462
 11
347.049942627
 21
15.9530923462
  0
LINE
  5
395
100
AcDbEntity
  8
0
100
AcDbLine
 62
2
  6
CONTINUOUS
 10
348.0327539062
 20
14.8739263916
 11
348.0327539062
 21
16.7239265442
  0
LWPOLYLINE
  5
396
100
AcDbEntity
  8
0
100
AcDbPolyline
 62
2
  6
CONTINUOUS
 90
7
 70
0
 10
348.0327539062
 20
15.7989280701
 10
348.0327539062
 20
15.9530923462
 10
348.2293212891
 20
16.1072598267
 10
348.3275793457
 20
16.1072598267
 10
348.4258630371
 20
16.1072598267
 10
348.6224304199
 20
15.7989280701
 10
348.6224304199
 20
14.8739263916
  0
LINE
  5
397
100
AcDbEntity
  8
0
100
AcDbLine
 62
2
  6
CONTINUOUS
 10
351.4725805664
 20
14.8739263916
 11
351.4725805664
 21
16.7239265442
  0
LINE
  5
398
100
AcDbEntity
  8
0
100
AcDbLine
 62
2
  6
CONTINUOUS
 10
351.177755127
 20
15.9530923462
 11
351.7674316406
 21
15.9530923462
  0
LINE
  5
399
100
AcDbEntity
  8
0
100
AcDbLine
 62
2
  6
CONTINUOUS
 10
352.7502429199
 20
14.8739263916
 11
352.7502429199
 21
16.7239265442
  0
LWPOLYLINE
  5
39A
100
AcDbEntity
  8
0
100
AcDbPolyline
 62
2
  6
CONTINUOUS
 90
7
 70
0
 10
352.7502429199
 20
15.7989280701
 10
352.7502429199
 20
15.9530923462
 10
352.9468103027
 20
16.1072598267
 10
353.0450939941
 20
16.1072598267
 10
353.1433776855
 20
16.1072598267
 10
353.3399450684
 20
15.7989280701
 10
353.3399450684
 20
14.8739263916
  0
LWPOLYLINE
  5
39B
100
AcDbEntity
  8
0
100
AcDbPolyline
 62
2
  6
CONTINUOUS
 90
11
 70
0
 10
354.9124328613
 20
15.1822613525
 10
354.8141491699
 20
15.0280938721
 10
354.6175817871
 20
14.8739263916
 10
354.4210400391
 20
15.0280938721
 10
354.2244726562
 20
15.3364256287
 10
354.2244726562
 20
15.6447605896
 10
354.4210400391
 20
15.9530923462
 10
354.6175817871
 20
16.1072598267
 10
354.8141491699
 20
15.9530923462
 10
354.9124328613
 20
15.6447605896
 10
354.2244726562
 20
15.6447605896
  0
LINE
  5
39C
100
AcDbEntity
  8
0
100
AcDbLine
 62
2
  6
CONTINUOUS
 10
357.7625830078
 20
14.8739263916
 11
357.7625830078
 21
16.7239265442
  0
LWPOLYLINE
  5
39D
100
AcDbEntity
  8
0
100
AcDbPolyline
 62
2
  6
CONTINUOUS
 90
10
 70
0
 10
359.7282055664
 20
15.3364256287
 10
359.5316638184
 20
15.0280938721
 10
359.3350964355
 20
14.8739263916
 10
359.1385290527
 20
15.0280938721
 10
358.9419616699
 20
15.3364256287
 10
358.9419616699
 20
15.6447605896
 10
359.1385290527
 20
15.9530923462
 10
359.3350964355
 20
16.1072598267
 10
359.5316638184
 20
15.9530923462
 10
359.7282055664
 20
15.6447605896
  0
LINE
  5
39E
100
AcDbEntity
  8
0
100
AcDbLine
 62
2
  6
CONTINUOUS
 10
359.7282055664
 20
16.1072598267
 11
359.7282055664
 21
14.8739263916
  0
LWPOLYLINE
  5
39F
100
AcDbEntity
  8
0
100
AcDbPolyline
 62
2
  6
CONTINUOUS
 90
5
 70
0
 10
360.4161914062
 20
16.1072598267
 10
360.6127587891
 20
14.8739263916
 10
360.9075842285
 20
16.1072598267
 10
361.1041516113
 20
14.8739263916
 10
361.3990026855
 20
16.1072598267
  0
LINE
  5
3A0
100
AcDbEntity
  8
0
100
AcDbLine
 62
2
  6
CONTINUOUS
 10
364.0525854492
 20
16.7239265442
 11
364.0525854492
 21
16.5697590637
  0
LINE
  5
3A1
100
AcDbEntity
  8
0
100
AcDbLine
 62
2
  6
CONTINUOUS
 10
364.0525854492
 20
16.1072598267
 11
364.0525854492
 21
14.8739263916
  0
LINE
  5
3A2
100
AcDbEntity
  8
0
100
AcDbLine
 62
2
  6
CONTINUOUS
 10
365.3302478027
 20
14.8739263916
 11
365.3302478027
 21
16.1072598267
  0
LWPOLYLINE
  5
3A3
100
AcDbEntity
  8
0
100
AcDbPolyline
 62
2
  6
CONTINUOUS
 90
5
 70
0
 10
365.3302478027
 20
15.7989280701
 10
365.5268151855
 20
16.1072598267
 10
365.7233825684
 20
16.1072598267
 10
365.9199243164
 20
15.7989280701
 10
365.9199243164
 20
14.8739263916
  0
LWPOLYLINE
  5
3A4
100
AcDbEntity
  8
0
100
AcDbPolyline
 62
2
  6
CONTINUOUS
 90
5
 70
0
 10
368.7701000977
 20
14.8739263916
 10
368.7701000977
 20
16.4155947876
 10
368.9666418457
 20
16.7239265442
 10
369.0649255371
 20
16.7239265442
 10
369.1632092285
 20
16.5697590637
  0
LINE
  5
3A5
100
AcDbEntity
  8
0
100
AcDbLine
 62
2
  6
CONTINUOUS
 10
368.5735327148
 20
15.9530923462
 11
368.9666418457
 21
15.9530923462
  0
LWPOLYLINE
  5
3A6
100
AcDbEntity
  8
0
100
AcDbPolyline
 62
2
  6
CONTINUOUS
 90
11
 70
0
 10
370.7357226563
 20
15.3364256287
 10
370.5391552734
 20
15.0280938721
 10
370.3425878906
 20
14.8739263916
 10
370.1460205078
 20
15.0280938721
 10
369.949453125
 20
15.3364256287
 10
369.949453125
 20
15.6447605896
 10
370.1460205078
 20
15.9530923462
 10
370.3425878906
 20
16.1072598267
 10
370.5391552734
 20
15.9530923462
 10
370.7357226563
 20
15.6447605896
 10
370.7357226563
 20
15.3364256287
  0
LINE
  5
3A7
100
AcDbEntity
  8
0
100
AcDbLine
 62
2
  6
CONTINUOUS
 10
371.6202502441
 20
14.8739263916
 11
371.6202502441
 21
16.1072598267
  0
LWPOLYLINE
  5
3A8
100
AcDbEntity
  8
0
100
AcDbPolyline
 62
2
  6
CONTINUOUS
 90
4
 70
0
 10
371.6202502441
 20
15.7989280701
 10
371.816817627
 20
16.1072598267
 10
372.013359375
 20
16.1072598267
 10
372.1116430664
 20
15.9530923462
  0
LWPOLYLINE
  5
3A9
100
AcDbEntity
  8
0
100
AcDbPolyline
 62
2
  6
CONTINUOUS
 90
8
 70
0
 10
373.6841564941
 20
15.0280938721
 10
373.4875891113
 20
14.8739263916
 10
373.2910217285
 20
15.0280938721
 10
373.0944543457
 20
15.3364256287
 10
373.0944543457
 20
15.6447605896
 10
373.2910217285
 20
15.9530923462
 10
373.4875891113
 20
16.1072598267
 10
373.6841564941
 20
15.9530923462
  0
LWPOLYLINE
  5
3AA
100
AcDbEntity
  8
0
100
AcDbPolyline
 62
2
  6
CONTINUOUS
 90
11
 70
0
 10
375.3549279785
 20
15.1822613525
 10
375.2566442871
 20
15.0280938721
 10
375.0601025391
 20
14.8739263916
 10
374.8635351563
 20
15.0280938721
 10
374.6669677734
 20
15.3364256287
 10
374.6669677734
 20
15.6447605896
 10
374.8635351563
 20
15.9530923462
 10
375.0601025391
 20
16.1072598267
 10
375.2566442871
 20
15.9530923462
 10
375.3549279785
 20
15.6447605896
 10
374.6669677734
 20
15.6447605896
  0
LWPOLYLINE
  5
3AB
100
AcDbEntity
  8
0
100
AcDbPolyline
 62
2
  6
CONTINUOUS
 90
4
 70
0
 10
376.632590332
 20
14.8739263916
 10
376.5343066406
 20
14.8739263916
 10
376.5343066406
 20
15.0280938721
 10
376.632590332
 20
14.8739263916
  0
LWPOLYLINE
  5
3AC
100
AcDbEntity
  8
0
100
AcDbPolyline
 62
2
  6
CONTINUOUS
 90
3
 70
0
 10
321.1036889648
 20
12.0989277649
 10
321.5950817871
 20
13.9489279175
 10
322.0865002441
 20
12.0989277649
  0
LINE
  5
3AD
100
AcDbEntity
  8
0
100
AcDbLine
 62
2
  6
CONTINUOUS
 10
321.3002563477
 20
12.7155944824
 11
321.8899328613
 21
12.7155944824
  0
LINE
  5
3AE
100
AcDbEntity
  8
0
100
AcDbLine
 62
2
  6
CONTINUOUS
 10
323.1675952148
 20
12.0989277649
 11
323.1675952148
 21
13.9489279175
  0
LINE
  5
3AF
100
AcDbEntity
  8
0
100
AcDbLine
 62
2
  6
CONTINUOUS
 10
324.7400830078
 20
12.0989277649
 11
324.7400830078
 21
13.9489279175
  0
LINE
  5
3B0
100
AcDbEntity
  8
0
100
AcDbLine
 62
2
  6
CONTINUOUS
 10
327.5902587891
 20
12.0989277649
 11
327.5902587891
 21
13.3322612
  0
LWPOLYLINE
  5
3B1
100
AcDbEntity
  8
0
100
AcDbPolyline
 62
2
  6
CONTINUOUS
 90
4
 70
0
 10
327.5902587891
 20
13.023926239
 10
327.7868005371
 20
13.3322612
 10
327.9833679199
 20
13.3322612
 10
328.0816516113
 20
13.1780937195
  0
LINE
  5
3B2
100
AcDbEntity
  8
0
100
AcDbLine
 62
2
  6
CONTINUOUS
 10
329.4575976563
 20
13.9489279175
 11
329.4575976563
 21
13.794760437
  0
LINE
  5
3B3
100
AcDbEntity
  8
0
100
AcDbLine
 62
2
  6
CONTINUOUS
 10
329.4575976563
 20
13.3322612
 11
329.4575976563
 21
12.0989277649
  0
LWPOLYLINE
  5
3B4
100
AcDbEntity
  8
0
100
AcDbPolyline
 62
2
  6
CONTINUOUS
 90
10
 70
0
 10
331.4232202148
 20
12.561427002
 10
331.226652832
 20
12.2530952454
 10
331.0300854492
 20
12.0989277649
 10
330.8335180664
 20
12.2530952454
 10
330.6369763184
 20
12.561427002
 10
330.6369763184
 20
12.8697619629
 10
330.8335180664
 20
13.1780937195
 10
331.0300854492
 20
13.3322612
 10
331.226652832
 20
13.1780937195
 10
331.4232202148
 20
12.8697619629
  0
LWPOLYLINE
  5
3B5
100
AcDbEntity
  8
0
100
AcDbPolyline
 62
2
  6
CONTINUOUS
 90
6
 70
0
 10
331.4232202148
 20
13.3322612
 10
331.4232202148
 20
11.9447602844
 10
331.3249365234
 20
11.6364285278
 10
331.226652832
 20
11.4822610474
 10
330.8335180664
 20
11.4822610474
 10
330.735234375
 20
11.6364285278
  0
LINE
  5
3B6
100
AcDbEntity
  8
0
100
AcDbLine
 62
2
  6
CONTINUOUS
 10
332.3077478027
 20
12.0989277649
 11
332.3077478027
 21
13.9489279175
  0
LWPOLYLINE
  5
3B7
100
AcDbEntity
  8
0
100
AcDbPolyline
 62
2
  6
CONTINUOUS
 90
7
 70
0
 10
332.3077478027
 20
13.023926239
 10
332.3077478027
 20
13.1780937195
 10
332.5043151855
 20
13.3322612
 10
332.602598877
 20
13.3322612
 10
332.7008825684
 20
13.3322612
 10
332.8974243164
 20
13.023926239
 10
332.8974243164
 20
12.0989277649
  0
LINE
  5
3B8
100
AcDbEntity
  8
0
100
AcDbLine
 62
2
  6
CONTINUOUS
 10
334.1750866699
 20
12.0989277649
 11
334.1750866699
 21
13.9489279175
  0
LINE
  5
3B9
100
AcDbEntity
  8
0
100
AcDbLine
 62
2
  6
CONTINUOUS
 10
333.8802355957
 20
13.1780937195
 11
334.4699377441
 21
13.1780937195
  0
LWPOLYLINE
  5
3BA
100
AcDbEntity
  8
0
100
AcDbPolyline
 62
2
  6
CONTINUOUS
 90
14
 70
0
 10
335.9441418457
 20
13.1780937195
 10
335.8458837891
 20
13.3322612
 10
335.6493164062
 20
13.3322612
 10
335.5510327148
 20
13.1780937195
 10
335.5510327148
 20
13.023926239
 10
335.7476000977
 20
12.8697619629
 10
335.9441418457
 20
12.7155944824
 10
336.0424255371
 20
12.561427002
 10
336.0424255371
 20
12.4072595215
 10
335.9441418457
 20
12.2530952454
 10
335.8458837891
 20
12.0989277649
 10
335.6493164062
 20
12.0989277649
 10
335.5510327148
 20
12.2530952454
 10
335.4527490234
 20
12.4072595215
  0
LINE
  5
3BB
100
AcDbEntity
  8
0
100
AcDbLine
 62
2
  6
CONTINUOUS
 10
338.5977502441
 20
12.0989277649
 11
338.5977502441
 21
13.3322612
  0
LWPOLYLINE
  5
3BC
100
AcDbEntity
  8
0
100
AcDbPolyline
 62
2
  6
CONTINUOUS
 90
4
 70
0
 10
338.5977502441
 20
13.023926239
 10
338.794317627
 20
13.3322612
 10
338.990859375
 20
13.3322612
 10
339.0891430664
 20
13.1780937195
  0
LWPOLYLINE
  5
3BD
100
AcDbEntity
  8
0
100
AcDbPolyline
 62
2
  6
CONTINUOUS
 90
11
 70
0
 10
340.7599401855
 20
12.4072595215
 10
340.6616564941
 20
12.2530952454
 10
340.4650891113
 20
12.0989277649
 10
340.2685217285
 20
12.2530952454
 10
340.0719543457
 20
12.561427002
 10
340.0719543457
 20
12.8697619629
 10
340.2685217285
 20
13.1780937195
 10
340.4650891113
 20
13.3322612
 10
340.6616564941
 20
13.1780937195
 10
340.7599401855
 20
12.8697619629
 10
340.0719543457
 20
12.8697619629
  0
LWPOLYLINE
  5
3BE
100
AcDbEntity
  8
0
100
AcDbPolyline
 62
2
  6
CONTINUOUS
 90
14
 70
0
 10
342.2341442871
 20
13.1780937195
 10
342.1358605957
 20
13.3322612
 10
341.9393188477
 20
13.3322612
 10
341.8410351562
 20
13.1780937195
 10
341.8410351562
 20
13.023926239
 10
342.0376025391
 20
12.8697619629
 10
342.2341442871
 20
12.7155944824
 10
342.3324279785
 20
12.561427002
 10
342.3324279785
 20
12.4072595215
 10
342.2341442871
 20
12.2530952454
 10
342.1358605957
 20
12.0989277649
 10
341.9393188477
 20
12.0989277649
 10
341.8410351562
 20
12.2530952454
 10
341.7427514648
 20
12.4072595215
  0
LWPOLYLINE
  5
3BF
100
AcDbEntity
  8
0
100
AcDbPolyline
 62
2
  6
CONTINUOUS
 90
11
 70
0
 10
343.9049414062
 20
12.4072595215
 10
343.8066577148
 20
12.2530952454
 10
343.610090332
 20
12.0989277649
 10
343.4135229492
 20
12.2530952454
 10
343.2169555664
 20
12.561427002
 10
343.2169555664
 20
12.8697619629
 10
343.4135229492
 20
13.1780937195
 10
343.610090332
 20
13.3322612
 10
343.8066577148
 20
13.1780937195
 10
343.9049414062
 20
12.8697619629
 10
343.2169555664
 20
12.8697619629
  0
LINE
  5
3C0
100
AcDbEntity
  8
0
100
AcDbLine
 62
2
  6
CONTINUOUS
 10
344.8877526855
 20
12.0989277649
 11
344.8877526855
 21
13.3322612
  0
LWPOLYLINE
  5
3C1
100
AcDbEntity
  8
0
100
AcDbPolyline
 62
2
  6
CONTINUOUS
 90
4
 70
0
 10
344.8877526855
 20
13.023926239
 10
345.0843200684
 20
13.3322612
 10
345.2808618164
 20
13.3322612
 10
345.3791455078
 20
13.1780937195
  0
LWPOLYLINE
  5
3C2
100
AcDbEntity
  8
0
100
AcDbPolyline
 62
2
  6
CONTINUOUS
 90
3
 70
0
 10
346.4602404785
 20
13.3322612
 10
346.7550915527
 20
12.0989277649
 10
347.049942627
 20
13.3322612
  0
LWPOLYLINE
  5
3C3
100
AcDbEntity
  8
0
100
AcDbPolyline
 62
2
  6
CONTINUOUS
 90
11
 70
0
 10
348.6224304199
 20
12.4072595215
 10
348.5241467285
 20
12.2530952454
 10
348.3275793457
 20
12.0989277649
 10
348.1310375977
 20
12.2530952454
 10
347.9344702148
 20
12.561427002
 10
347.9344702148
 20
12.8697619629
 10
348.1310375977
 20
13.1780937195
 10
348.3275793457
 20
13.3322612
 10
348.5241467285
 20
13.1780937195
 10
348.6224304199
 20
12.8697619629
 10
347.9344702148
 20
12.8697619629
  0
LWPOLYLINE
  5
3C4
100
AcDbEntity
  8
0
100
AcDbPolyline
 62
2
  6
CONTINUOUS
 90
10
 70
0
 10
350.2932275391
 20
12.561427002
 10
350.0966601562
 20
12.2530952454
 10
349.9000927734
 20
12.0989277649
 10
349.7035253906
 20
12.2530952454
 10
349.5069580078
 20
12.561427002
 10
349.5069580078
 20
12.8697619629
 10
349.7035253906
 20
13.1780937195
 10
349.9000927734
 20
13.3322612
 10
350.0966601562
 20
13.1780937195
 10
350.2932275391
 20
12.8697619629
  0
LINE
  5
3C5
100
AcDbEntity
  8
0
100
AcDbLine
 62
2
  6
CONTINUOUS
 10
350.2932275391
 20
13.9489279175
 11
350.2932275391
 21
12.0989277649
  0
LWPOLYLINE
  5
3C6
100
AcDbEntity
  8
0
100
AcDbPolyline
 62
2
  6
CONTINUOUS
 90
4
 70
0
 10
351.4725805664
 20
12.0989277649
 10
351.374296875
 20
12.0989277649
 10
351.374296875
 20
12.2530952454
 10
351.4725805664
 20
12.0989277649
  0
ACAD_TABLE
  5
3C7
100
AcDbEntity
  8
0
 62
2
  6
CONTINUOUS
100
AcDbBlockReference
  2
*T1
 10
319.3213399098
 20
51.0239270671
 30
0.0
100
AcDbTable
342
       531
343
228
 11
1.0
 21
0.0
 31
0.0
 90
22
 91
5
 92
5
 93
0
 94
0
 95
0
 96
0
141
6.0
141
6.0
141
10.0
141
5.0
141
13.0
142
10.0
142
10.0
142
10.0
142
40.0
142
20.0
171
1
172
0
173
0
174
0
175
3
176
4
 91
1
178
0
145
0.0
170
5
171
1
172
0
173
1
174
0
175
1
176
1
 91
1
178
0
145
0.0
170
1
171
1
172
0
173
1
174
0
175
1
176
1
 91
1
178
0
145
0.0
170
1
171
1
172
0
173
0
174
0
175
1
176
1
 91
33
178
0
145
0.0
301
CELL_VALUE
 90
4
  1
{\Ftxt.shx;\W6.880952;\H3.000000; }
304
ACVALUE_END
170
4
140
3.0
171
1
172
0
173
0
174
0
175
1
176
1
 91
33
178
0
145
0.0
301
CELL_VALUE
 90
4
  1
{\Ftxt.shx;\W5.100000;\H3.500000; }
304
ACVALUE_END
170
1
140
3.5
171
1
172
0
173
1
174
0
175
1
176
1
 91
1
178
0
145
0.0
170
1
171
1
172
0
173
1
174
0
175
1
176
1
 91
1
178
0
145
0.0
170
1
171
1
172
0
173
1
174
0
175
1
176
1
 91
1
178
0
145
0.0
170
1
171
1
172
0
173
0
174
0
175
1
176
1
 91
33
178
0
145
0.0
301
CELL_VALUE
 90
4
  1
{\Ftxt.shx;\W3.714286;\H3.500000; }{\Ftxt.shx;\W1.500000;\H3.500000; }
304
ACVALUE_END
170
1
140
3.5
171
1
172
0
173
0
174
0
175
1
176
1
 91
33
178
0
145
0.0
301
CELL_VALUE
 90
4
  1
{\Ftxt.shx;\W1.571429;\H3.500000; }
304
ACVALUE_END
170
4
140
3.5
171
1
172
0
173
1
174
0
175
1
176
1
 91
1
178
0
145
0.0
170
1
171
1
172
0
173
1
174
0
175
1
176
1
 91
1
178
0
145
0.0
170
1
171
1
172
0
173
1
174
0
175
1
176
1
 91
1
178
0
145
0.0
170
1
171
1
172
0
173
0
174
0
175
2
176
1
 91
33
178
0
145
0.0
301
CELL_VALUE
 90
4
  1
{\Ftxt.shx;\W10.809524;\H3.500000; }
304
ACVALUE_END
170
4
140
3.5
171
1
172
0
173
1
174
0
175
1
176
1
 91
1
178
0
145
0.0
170
1
171
1
172
0
173
1
174
0
175
1
176
1
 91
1
178
0
145
0.0
170
1
171
1
172
0
173
1
174
0
175
1
176
1
 91
1
178
0
145
0.0
170
1
171
1
172
0
173
1
174
0
175
1
176
1
 91
1
178
0
145
0.0
170
1
171
1
172
0
173
0
174
0
175
2
176
1
 91
33
178
0
145
0.0
301
CELL_VALUE
 90
4
  1
{\Ftxt.shx;\W11.404762;\H2.500000; }
304
ACVALUE_END
170
4
140
2.5
171
1
172
0
173
1
174
0
175
1
176
1
 91
1
178
0
145
0.0
170
1
171
1
172
0
173
0
174
0
175
5
176
1
 91
33
178
0
145
0.0
301
CELL_VALUE
 90
4
  1
{\Ftxt.shx;\W45.050000;\H1.850000; }\P{\Ftxt.shx;\W28.050000;\H1.850000; }{\Ftxt.shx;\W7.650000;\H1.850000; }{\Ftxt.shx;\W13.600000;\H1.850000; }\P{\Ftxt.shx;\W31.450000;\H1.850000; }\P{\Ftxt.shx;\W17.000000;\H1.850000; }
304
ACVALUE_END
170
1
140
1.85
171
1
172
0
173
1
174
0
175
1
176
1
 91
1
178
0
145
0.0
170
1
171
1
172
0
173
1
174
0
175
1
176
1
 91
1
178
0
145
0.0
170
1
171
1
172
0
173
1
174
0
175
1
176
1
 91
1
178
0
145
0.0
170
1
171
1
172
0
173
1
174
0
175
1
176
1
 91
1
178
0
145
0.0
170
1
  0
LINE
  5
3C8
100
AcDbEntity
  8
0
100
AcDbLine
 62
7
  6
CONTINUOUS
 10
0.0
 20
0.0
 11
0.0
 21
297.0
  0
LWPOLYLINE
  5
3C9
100
AcDbEntity
  8
0
100
AcDbPolyline
 62
7
  6
CONTINUOUS
 90
2
 70
0
 43
0.1000000003
 10
7.0536312849
 20
0.0
 10
7.0536312849
 20
297.0
  0
LWPOLYLINE
  5
3CA
100
AcDbEntity
  8
0
100
AcDbPolyline
 62
7
  6
CONTINUOUS
 90
2
 70
0
 43
0.4999999952
 10
10.0536312849
 20
10.0318435754
 10
10.0536312849
 20
287.0
  0
LWPOLYLINE
  5
3CB
100
AcDbEntity
  8
0
100
AcDbPolyline
 62
2
  6
CONTINUOUS
 90
5
 70
0
 10
2.7895792007
 20
251.8807543945
 10
3.2657698059
 20
252.1664538574
 10
3.2657698059
 20
253.0236035156
 10
2.7895792007
 20
253.5950280762
 10
1.6467220688
 20
253.5950280762
  0
LINE
  5
3CC
100
AcDbEntity
  8
0
100
AcDbLine
 62
7
  6
CONTINUOUS
 10
0.0
 20
0.0
 11
420.0
 21
0.0
  0
LINE
  5
3CD
100
AcDbEntity
  8
0
100
AcDbLine
 62
2
  6
CONTINUOUS
 10
363.2799023437
 20
2.6920935059
 11
364.6298803711
 21
2.6920935059
  0
LINE
  5
3CE
100
AcDbEntity
  8
0
100
AcDbLine
 62
2
  6
CONTINUOUS
 10
262.8298937988
 20
3.6920928955
 11
264.4048937988
 21
3.6920928955
  0
LWPOLYLINE
  5
3CF
100
AcDbEntity
  8
0
100
AcDbPolyline
 62
2
  6
CONTINUOUS
 90
12
 70
0
 10
56.6978659058
 20
5.535344696
 10
57.5978704834
 20
5.535344696
 10
58.0478695679
 20
5.2020094299
 10
58.2728659058
 20
4.8686773682
 10
58.4978686523
 20
4.5353453064
 10
58.7228713989
 20
3.5353427124
 10
58.4978686523
 20
2.5353433228
 10
58.2728659058
 20
2.202011261
 10
58.0478695679
 20
1.8686759949
 10
57.5978704834
 20
1.5353439331
 10
56.6978659058
 20
1.5353439331
 10
56.6978659058
 20
5.535344696
  0
LWPOLYLINE
  5
3D0
100
AcDbEntity
  8
0
100
AcDbPolyline
 62
7
  6
CONTINUOUS
 90
2
 70
0
 43
0.1000000003
 10
0.0
 20
7.0318435754
 10
420.0
 20
7.0318435754
  0
LWPOLYLINE
  5
3D1
100
AcDbEntity
  8
0
100
AcDbPolyline
 62
7
  6
CONTINUOUS
 90
2
 70
0
 43
0.4999999952
 10
10.0536312849
 20
10.0318435754
 10
410.0
 20
10.0318435754
  0
LWPOLYLINE
  5
3D2
100
AcDbEntity
  8
0
100
AcDbPolyline
 62
2
  6
CONTINUOUS
 90
15
 70
0
 10
164.8548962402
 20
292.0254382324
 10
164.629887085
 20
291.6920837402
 10
164.1798944092
 20
291.3587548828
 10
163.729888916
 20
291.3587548828
 10
163.2798962402
 20
291.6920837402
 10
163.054887085
 20
292.0254382324
 10
162.8298907471
 20
292.3587670898
 10
162.6048944092
 20
293.3587536621
 10
162.8298907471
 20
294.3587658691
 10
163.054887085
 20
294.6920947266
 10
163.2798962402
 20
295.025423584
 10
163.729888916
 20
295.3587524414
 10
164.1798944092
 20
295.3587524414
 10
164.629887085
 20
295.025423584
 10
164.8548962402
 20
294.6920947266
  0
LINE
  5
3D3
100
AcDbEntity
  8
0
100
AcDbLine
 62
7
  6
CONTINUOUS
 10
113.0
 20
297.0
 11
113.0
 21
290.0
  0
LINE
  5
3D4
100
AcDbEntity
  8
0
100
AcDbLine
 62
7
  6
CONTINUOUS
 10
113.0
 20
7.0
 11
113.0
 21
0.0
  0
LWPOLYLINE
  5
3D5
100
AcDbEntity
  8
0
100
AcDbPolyline
 62
7
  6
CONTINUOUS
 90
2
 70
0
 43
0.1000000003
 10
123.0
 20
10.0
 10
123.0
 20
0.0
  0
LWPOLYLINE
  5
3D6
100
AcDbEntity
  8
0
100
AcDbPolyline
 62
7
  6
CONTINUOUS
 90
2
 70
0
 43
0.1000000003
 10
123.0
 20
287.0
 10
123.0
 20
297.0
  0
LWPOLYLINE
  5
3D7
100
AcDbEntity
  8
0
100
AcDbPolyline
 62
2
  6
CONTINUOUS
 90
3
 70
0
 10
1.6467220688
 20
52.4521728516
 10
2.7895792007
 20
53.5950283813
 10
2.7895792007
 20
49.5950244141
  0
LINE
  5
3D8
100
AcDbEntity
  8
0
100
AcDbLine
 62
7
  6
CONTINUOUS
 10
-0.0
 20
99.9681564246
 11
7.0
 21
99.9681564246
  0
LWPOLYLINE
  5
3D9
100
AcDbEntity
  8
0
100
AcDbPolyline
 62
2
  6
CONTINUOUS
 90
9
 70
0
 10
56.2378820801
 20
295.2461645508
 10
56.6878811646
 20
294.5794812012
 10
56.9128839111
 20
293.5794946289
 10
56.6878811646
 20
292.5794824219
 10
56.4628848267
 20
292.2461535645
 10
56.2378820801
 20
291.912824707
 10
55.7878829956
 20
291.5794958496
 10
54.8878848267
 20
291.5794958496
 10
54.8878848267
 20
295.5794934082
  0
LINE
  5
3DA
100
AcDbEntity
  8
0
100
AcDbLine
 62
7
  6
CONTINUOUS
 10
413.0
 20
107.0
 11
420.0
 21
107.0
  0
LWPOLYLINE
  5
3DB
100
AcDbEntity
  8
0
100
AcDbPolyline
 62
7
  6
CONTINUOUS
 90
2
 70
0
 43
0.1000000003
 10
210.0
 20
10.0
 10
210.0
 20
0.0
  0
LWPOLYLINE
  5
3DC
100
AcDbEntity
  8
0
100
AcDbPolyline
 62
7
  6
CONTINUOUS
 90
2
 70
0
 43
0.1000000003
 10
210.0
 20
287.0
 10
210.0
 20
297.0
  0
LWPOLYLINE
  5
3DD
100
AcDbEntity
  8
0
100
AcDbPolyline
 62
7
  6
CONTINUOUS
 90
2
 70
0
 43
0.1000000003
 10
10.0
 20
148.5
 10
0.0
 20
148.5
  0
LWPOLYLINE
  5
3DE
100
AcDbEntity
  8
0
100
AcDbPolyline
 62
7
  6
CONTINUOUS
 90
2
 70
0
 43
0.1000000003
 10
410.0
 20
148.5
 10
420.0
 20
148.5
  0
LWPOLYLINE
  5
3DF
100
AcDbEntity
  8
0
100
AcDbPolyline
 62
2
  6
CONTINUOUS
 90
7
 70
0
 10
3.6467220497
 20
149.5950274658
 10
1.6467220688
 20
149.5950274658
 10
3.6467220497
 20
152.4521759033
 10
3.6467220497
 20
153.0236004639
 10
3.0752934837
 20
153.5950250244
 10
2.2181506348
 20
153.5950250244
 10
1.6467220688
 20
152.7378881836
  0
LWPOLYLINE
  5
3E0
100
AcDbEntity
  8
0
100
AcDbPolyline
 62
2
  6
CONTINUOUS
 90
5
 70
0
 10
415.7895666504
 20
258.9125756836
 10
416.2657580566
 20
259.1983007812
 10
416.2657580566
 20
260.0554504395
 10
415.7895666504
 20
260.626875
 10
414.6467175293
 20
260.626875
  0
LWPOLYLINE
  5
3E1
100
AcDbEntity
  8
0
100
AcDbPolyline
 62
2
  6
CONTINUOUS
 90
7
 70
0
 10
416.6467163086
 20
156.6268743896
 10
414.6467175293
 20
156.6268743896
 10
416.6467163086
 20
159.4840100098
 10
416.6467163086
 20
160.0554473877
 10
416.075291748
 20
160.6268719482
 10
415.2181420898
 20
160.6268719482
 10
414.6467175293
 20
159.76972229
  0
LWPOLYLINE
  5
3E2
100
AcDbEntity
  8
0
100
AcDbPolyline
 62
2
  6
CONTINUOUS
 90
15
 70
0
 10
164.8548962402
 20
2.025426178
 10
164.629887085
 20
1.6920941162
 10
164.1798944092
 20
1.3587588501
 10
163.729888916
 20
1.3587588501
 10
163.2798962402
 20
1.6920941162
 10
163.054887085
 20
2.025426178
 10
162.8298907471
 20
2.3587614441
 10
162.6048944092
 20
3.3587608337
 10
162.8298907471
 20
4.3587602234
 10
163.054887085
 20
4.6920922852
 10
163.2798962402
 20
5.0254275513
 10
163.729888916
 20
5.358759613
 10
164.1798944092
 20
5.358759613
 10
164.629887085
 20
5.0254275513
 10
164.8548962402
 20
4.6920922852
  0
LWPOLYLINE
  5
3E3
100
AcDbEntity
  8
0
100
AcDbPolyline
 62
2
  6
CONTINUOUS
 90
6
 70
0
 10
262.8298937988
 20
295.3587524414
 10
262.8298937988
 20
291.3587548828
 10
264.4048937988
 20
291.3587548828
 10
264.6298901367
 20
291.6920837402
 10
264.8548864746
 20
292.0254382324
 10
264.8548864746
 20
293.0254248047
  0
LWPOLYLINE
  5
3E4
100
AcDbEntity
  8
0
100
AcDbPolyline
 62
2
  6
CONTINUOUS
 90
12
 70
0
 10
262.8298937988
 20
5.358759613
 10
262.8298937988
 20
1.3587588501
 10
264.4048937988
 20
1.3587588501
 10
264.6298901367
 20
1.6920941162
 10
264.8548864746
 20
2.025426178
 10
264.8548864746
 20
3.0254255676
 10
264.6298901367
 20
3.3587608337
 10
264.4048937988
 20
3.6920928955
 10
264.6298901367
 20
4.0254281616
 10
264.6298901367
 20
5.0254275513
 10
264.4048937988
 20
5.358759613
 10
262.8298937988
 20
5.358759613
  0
LINE
  5
3E5
100
AcDbEntity
  8
0
100
AcDbLine
 62
7
  6
CONTINUOUS
 10
-0.0
 20
199.9681564246
 11
7.0
 21
199.9681564246
  0
LWPOLYLINE
  5
3E6
100
AcDbEntity
  8
0
100
AcDbPolyline
 62
7
  6
CONTINUOUS
 90
2
 70
0
 43
0.1000000003
 10
10.0
 20
202.9681564246
 10
0.0
 20
202.9681564246
  0
LWPOLYLINE
  5
3E7
100
AcDbEntity
  8
0
100
AcDbPolyline
 62
7
  6
CONTINUOUS
 90
2
 70
0
 43
0.1000000003
 10
410.0
 20
210.0
 10
420.0
 20
210.0
  0
LINE
  5
3E8
100
AcDbEntity
  8
0
100
AcDbLine
 62
7
  6
CONTINUOUS
 10
313.0
 20
297.0
 11
313.0
 21
290.0
  0
LINE
  5
3E9
100
AcDbEntity
  8
0
100
AcDbLine
 62
7
  6
CONTINUOUS
 10
313.0
 20
7.0
 11
313.0
 21
0.0
  0
LWPOLYLINE
  5
3EA
100
AcDbEntity
  8
0
100
AcDbPolyline
 62
2
  6
CONTINUOUS
 90
6
 70
0
 10
1.6467220688
 20
249.5950305176
 10
3.0752934837
 20
249.5950305176
 10
3.3610077667
 20
249.8807299805
 10
3.3610077667
 20
251.3093041992
 10
2.7895792007
 20
251.8807543945
 10
2.2181506348
 20
251.8807543945
  0
LWPOLYLINE
  5
3EB
100
AcDbEntity
  8
0
100
AcDbPolyline
 62
2
  6
CONTINUOUS
 90
3
 70
0
 10
362.8298840332
 20
291.3587548828
 10
363.9548913574
 20
295.3587524414
 10
365.0798986816
 20
291.3587548828
  0
LWPOLYLINE
  5
3EC
100
AcDbEntity
  8
0
100
AcDbPolyline
 62
2
  6
CONTINUOUS
 90
6
 70
0
 10
414.6467175293
 20
256.6268774414
 10
416.075291748
 20
256.6268774414
 10
416.3610168457
 20
256.9125769043
 10
416.3610168457
 20
258.341151123
 10
415.7895666504
 20
258.9125756836
 10
415.2181420898
 20
258.9125756836
  0
LWPOLYLINE
  5
3ED
100
AcDbEntity
  8
0
100
AcDbPolyline
 62
2
  6
CONTINUOUS
 90
6
 70
0
 10
264.8548864746
 20
293.0254248047
 10
264.4048937988
 20
293.6920825195
 10
264.6298901367
 20
294.0254370117
 10
264.6298901367
 20
295.025423584
 10
264.4048937988
 20
295.3587524414
 10
262.8298937988
 20
295.3587524414
  0
LWPOLYLINE
  5
3EE
100
AcDbEntity
  8
0
100
AcDbPolyline
 62
7
  6
CONTINUOUS
 90
2
 70
0
 43
0.4999999952
 10
10.0536312849
 20
287.0
 10
410.0
 20
287.0
  0
LWPOLYLINE
  5
3EF
100
AcDbEntity
  8
0
100
AcDbPolyline
 62
7
  6
CONTINUOUS
 90
2
 70
0
 43
0.1000000003
 10
0.0
 20
290.0
 10
420.0
 20
290.0
  0
LINE
  5
3F0
100
AcDbEntity
  8
0
100
AcDbLine
 62
2
  6
CONTINUOUS
 10
363.2799023437
 20
292.6920959473
 11
364.6298803711
 21
292.6920959473
  0
LINE
  5
3F1
100
AcDbEntity
  8
0
100
AcDbLine
 62
2
  6
CONTINUOUS
 10
262.8298937988
 20
293.6920825195
 11
264.4048937988
 21
293.6920825195
  0
LWPOLYLINE
  5
3F2
100
AcDbEntity
  8
0
100
AcDbPolyline
 62
2
  6
CONTINUOUS
 90
3
 70
0
 10
54.8878848267
 20
295.5794934082
 10
55.7878829956
 20
295.5794934082
 10
56.2378820801
 20
295.2461645508
  0
LINE
  5
3F3
100
AcDbEntity
  8
0
100
AcDbLine
 62
7
  6
CONTINUOUS
 10
0.0
 20
297.0
 11
420.0
 21
297.0
  0
LWPOLYLINE
  5
3F4
100
AcDbEntity
  8
0
100
AcDbPolyline
 62
2
  6
CONTINUOUS
 90
3
 70
0
 10
362.8298840332
 20
1.3587588501
 10
363.9548913574
 20
5.358759613
 10
365.0798986816
 20
1.3587588501
  0
LWPOLYLINE
  5
3F5
100
AcDbEntity
  8
0
100
AcDbPolyline
 62
7
  6
CONTINUOUS
 90
2
 70
0
 43
0.4999999952
 10
410.0
 20
10.0318435754
 10
410.0
 20
287.0
  0
LWPOLYLINE
  5
3F6
100
AcDbEntity
  8
0
100
AcDbPolyline
 62
7
  6
CONTINUOUS
 90
2
 70
0
 43
0.1000000003
 10
413.0
 20
0.0
 10
413.0
 20
297.0
  0
LINE
  5
3F7
100
AcDbEntity
  8
0
100
AcDbLine
 62
7
  6
CONTINUOUS
 10
420.0
 20
0.0
 11
420.0
 21
297.0
  0
LWPOLYLINE
  5
3F8
100
AcDbEntity
  8
0
100
AcDbPolyline
 62
2
  6
CONTINUOUS
 90
3
 70
0
 10
414.6467175293
 20
59.4840133667
 10
415.7895666504
 20
60.6268688965
 10
415.7895666504
 20
56.6268713379
  0
LINE
  5
3F9
100
AcDbEntity
  8
7_ALL_FEATURES
100
AcDbLine
 62
7
  6
CONTINUOUS
 10
312.0619100586
 20
82.5940688366
 11
312.5526693893
 21
82.1201413762
  0
LINE
  5
3FA
100
AcDbEntity
  8
02___PRT_ALL_AXES
100
AcDbLine
 62
7
  6
CONTINUOUS
 10
300.3394321308
 20
117.3583042352
 11
300.4356615171
 21
118.0322200568
  0
LINE
  5
3FB
100
AcDbEntity
  8
3_ALL_AXES
100
AcDbLine
 62
7
  6
CONTINUOUS
 10
323.8977282449
 20
147.7173135647
 11
312.3641805867
 21
141.4789237188
  0
LINE
  5
3FC
100
AcDbEntity
  8
3_ALL_AXES
100
AcDbLine
 62
7
  6
CONTINUOUS
 10
324.0227622421
 20
147.6712523692
 11
347.9412754263
 21
160.6085561544
  0
LINE
  5
3FD
100
AcDbEntity
  8
02___PRT_ALL_AXES
100
AcDbLine
 62
7
  6
CONTINUOUS
 10
304.1273464834
 20
114.7741551383
 11
303.0977801147
 21
120.2116144313
  0
LINE
  5
3FE
100
AcDbEntity
  8
02___PRT_ALL_AXES
100
AcDbLine
 62
7
  6
CONTINUOUS
 10
305.6754736858
 20
115.6115229028
 11
304.9538220504
 21
119.4227889956
  0
LINE
  5
3FF
100
AcDbEntity
  8
02___PRT_ALL_AXES
100
AcDbLine
 62
7
  6
CONTINUOUS
 10
308.0081313674
 20
110.390247579
 11
304.1273464834
 21
114.7741551383
  0
LINE
  5
400
100
AcDbEntity
  8
3_ALL_AXES
100
AcDbLine
 62
7
  6
CONTINUOUS
 10
311.7064623914
 20
91.1545216288
 11
311.7029272057
 21
83.2939292314
  0
LINE
  5
401
100
AcDbEntity
  8
3_ALL_AXES
100
AcDbLine
 62
7
  6
CONTINUOUS
 10
312.5050086294
 20
92.271197298
 11
312.5072181205
 21
97.1840675464
  0
LINE
  5
402
100
AcDbEntity
  8
3_ALL_AXES
100
AcDbLine
 62
7
  6
CONTINUOUS
 10
327.5370589515
 20
95.8916917786
 11
317.787869934
 21
96.8063761246
  0
LINE
  5
403
100
AcDbEntity
  8
02___PRT_ALL_AXES
100
AcDbLine
 62
7
  6
CONTINUOUS
 10
304.6258770243
 20
109.4335163195
 11
305.510783415
 21
109.0198149711
  0
LINE
  5
404
100
AcDbEntity
  8
02___PRT_ALL_AXES
100
AcDbLine
 62
7
  6
CONTINUOUS
 10
305.4924246635
 20
109.0295249616
 11
305.5030655122
 21
109.0235697257
  0
LINE
  5
405
100
AcDbEntity
  8
02___PRT_ALL_AXES
100
AcDbLine
 62
7
  6
CONTINUOUS
 10
309.5562585699
 20
111.2276153436
 11
305.6754736858
 21
115.6115229028
  0
LINE
  5
406
100
AcDbEntity
  8
3_ALL_AXES
100
AcDbLine
 62
7
  6
CONTINUOUS
 10
317.5072176149
 20
97.1818188702
 11
317.5109699189
 21
105.5251804358
  0
LINE
  5
407
100
AcDbEntity
  8
3_ALL_AXES
100
AcDbLine
 62
7
  6
CONTINUOUS
 10
317.787869934
 20
96.8063761246
 11
317.7917479306
 21
105.4292189944
  0
LINE
  5
408
100
AcDbEntity
  8
02___PRT_ALL_AXES
100
AcDbLine
 62
7
  6
CONTINUOUS
 10
303.0977801147
 20
120.2116144313
 11
300.5820734108
 21
118.8508918139
  0
LINE
  5
409
100
AcDbEntity
  8
02___PRT_ALL_AXES
100
AcDbLine
 62
7
  6
CONTINUOUS
 10
303.0977801147
 20
120.2116144313
 11
304.5509021318
 21
120.7485565184
  0
LINE
  5
40A
100
AcDbEntity
  8
3_ALL_AXES
100
AcDbLine
 62
7
  6
CONTINUOUS
 10
327.5370589515
 20
95.8916917786
 11
327.5415058808
 21
105.7795736953
  0
LINE
  5
40B
100
AcDbEntity
  8
02___PRT_ALL_AXES
100
AcDbLine
 62
7
  6
CONTINUOUS
 10
306.4116382098
 20
116.0097075228
 11
305.6754736858
 21
115.6115229028
  0
LINE
  5
40C
100
AcDbEntity
  8
02___PRT_ALL_AXES
100
AcDbLine
 62
7
  6
CONTINUOUS
 10
304.1273464834
 20
114.7741551383
 11
301.6116397794
 21
113.4134325209
  0
LINE
  5
40D
100
AcDbEntity
  8
7_ALL_FEATURES
100
AcDbLine
 62
7
  6
CONTINUOUS
 10
350.6567161828
 20
92.3104100217
 11
351.1474755135
 21
91.8364825612
  0
LINE
  5
40E
100
AcDbEntity
  8
02___PRT_ALL_AXES
100
AcDbLine
 62
7
  6
CONTINUOUS
 10
309.6213749015
 20
111.2628361684
 11
309.5562585699
 21
111.2276153436
  0
LINE
  5
40F
100
AcDbEntity
  8
02___PRT_ALL_AXES
100
AcDbLine
 62
7
  6
CONTINUOUS
 10
308.0081313674
 20
110.390247579
 11
305.4924246635
 21
109.0295249616
  0
LINE
  5
410
100
AcDbEntity
  8
02___PRT_ALL_AXES
100
AcDbLine
 62
7
  6
CONTINUOUS
 10
309.9210538305
 20
110.9362836082
 11
308.3436431789
 21
110.0830766954
  0
LINE
  5
411
100
AcDbEntity
  8
3_ALL_AXES
100
AcDbLine
 62
7
  6
CONTINUOUS
 10
332.3072161181
 20
97.1751627887
 11
332.312134602
 21
108.1115605102
  0
LINE
  5
412
100
AcDbEntity
  8
02___PRT_ALL_AXES
100
AcDbLine
 62
7
  6
CONTINUOUS
 10
309.62902283
 20
111.2545024138
 11
309.5562585699
 21
111.2276153436
  0
LINE
  5
413
100
AcDbEntity
  8
02___PRT_ALL_AXES
100
AcDbLine
 62
7
  6
CONTINUOUS
 10
309.8108507368
 20
111.0563691361
 11
308.0081313674
 21
110.390247579
  0
LINE
  5
414
100
AcDbEntity
  8
3_ALL_AXES
100
AcDbLine
 62
7
  6
CONTINUOUS
 10
337.3050061214
 20
92.2600438642
 11
337.3072156125
 21
97.1729141125
  0
LINE
  5
415
100
AcDbEntity
  8
7_ALL_FEATURES
100
AcDbLine
 62
7
  6
CONTINUOUS
 10
312.5020212158
 20
92.2742963854
 11
312.0660746028
 21
91.854058846
  0
LINE
  5
416
100
AcDbEntity
  8
3_ALL_AXES
100
AcDbLine
 62
7
  6
CONTINUOUS
 10
330.0244618586
 20
107.1135534502
 11
327.702271055
 21
105.8575018034
  0
LINE
  5
417
100
AcDbEntity
  8
3_ALL_AXES
100
AcDbLine
 62
7
  6
CONTINUOUS
 10
335.3320159892
 20
109.0610589143
 11
333.089676872
 21
107.8481983102
  0
LINE
  5
418
100
AcDbEntity
  8
3_ALL_AXES
100
AcDbLine
 62
7
  6
CONTINUOUS
 10
342.9577765325
 20
112.6640354871
 11
366.8763418102
 21
125.6013674493
  0
LINE
  5
419
100
AcDbEntity
  8
3_ALL_AXES
100
AcDbLine
 62
7
  6
CONTINUOUS
 10
342.9278508361
 20
112.5341580187
 11
338.2265233313
 21
109.9912532129
  0
LINE
  5
41A
100
AcDbEntity
  8
3_ALL_AXES
100
AcDbLine
 62
7
  6
CONTINUOUS
 10
351.5064583664
 20
91.1366221665
 11
351.5029231807
 21
83.2760297691
  0
LINE
  5
41B
100
AcDbEntity
  8
7_ALL_FEATURES
100
AcDbLine
 62
7
  6
CONTINUOUS
 10
351.1433109693
 20
82.5764925518
 11
350.6521255534
 21
82.1030067066
  0
LWPOLYLINE
  5
41C
100
AcDbEntity
  8
0
100
AcDbPolyline
 62
2
  6
CONTINUOUS
 90
3
 70
0
 43
0.1500000036
 10
91.252869873
 20
160.8270281982
 10
89.7528707886
 20
160.8270281982
 10
90.3957266235
 20
163.1841705322
  0
LWPOLYLINE
  5
41D
100
AcDbEntity
  8
0
100
AcDbPolyline
 62
2
  6
CONTINUOUS
 90
8
 70
0
 43
0.1500000036
 10
65.9191204834
 20
254.0323059082
 10
66.6614263916
 20
254.4608679199
 10
66.8182919312
 20
255.0463146973
 10
66.3897235107
 20
255.7886206055
 10
65.8042831421
 20
255.9454797363
 10
65.0619772339
 20
255.5169177246
 10
64.4191213989
 20
256.6303894043
 10
65.5325802612
 20
257.2732324219
  0
LINE
  5
41E
100
AcDbEntity
  8
7_ALL_FEATURES
100
AcDbLine
 62
7
  6
CONTINUOUS
 10
109.5100128154
 20
171.4039694203
 11
70.7100128154
 21
171.4039694203
  0
LINE
  5
41F
100
AcDbEntity
  8
7_ALL_FEATURES
100
AcDbLine
 62
7
  6
CONTINUOUS
 10
110.0100128154
 20
171.9039694203
 11
70.2100128154
 21
171.9039694203
  0
LINE
  5
420
100
AcDbEntity
  8
7_ALL_FEATURES
100
AcDbLine
 62
7
  6
CONTINUOUS
 10
70.2100128154
 20
171.9039694203
 11
70.7100128154
 21
171.4039694203
  0
LINE
  5
421
100
AcDbEntity
  8
7_ALL_FEATURES
100
AcDbLine
 62
7
  6
CONTINUOUS
 10
54.1329501353
 20
200.9368275304
 11
56.8329501353
 21
196.26029035
  0
LINE
  5
422
100
AcDbEntity
  8
02___PRT_ALL_AXES
100
AcDbLine
 62
9
  6
CONTINUOUS
 10
61.0989058164
 20
195.6622996695
 11
55.7480528553
 21
204.9302488619
  0
LINE
  5
423
100
AcDbEntity
  8
02___PRT_ALL_AXES
100
AcDbLine
 62
7
  6
CONTINUOUS
 10
61.5319185183
 20
195.9122996695
 11
56.1810655572
 21
205.1802488619
  0
LINE
  5
424
100
AcDbEntity
  8
02___PRT_ALL_AXES
100
AcDbLine
 62
7
  6
CONTINUOUS
 10
56.1810655572
 20
205.1802488619
 11
56.2356652571
 21
205.3840177159
  0
LINE
  5
425
100
AcDbEntity
  8
7_ALL_FEATURES
100
AcDbLine
 62
7
  6
CONTINUOUS
 10
110.0100128154
 20
179.9039694203
 11
70.2100128154
 21
179.9039694203
  0
LINE
  5
426
100
AcDbEntity
  8
7_ALL_FEATURES
100
AcDbLine
 62
7
  6
CONTINUOUS
 10
109.5100128154
 20
180.4039694203
 11
71.4915858206
 21
180.4039694203
  0
LINE
  5
427
100
AcDbEntity
  8
3_ALL_AXES
100
AcDbLine
 62
7
  6
CONTINUOUS
 10
70.2100128154
 20
180.4039694203
 11
71.4915858206
 21
180.4039694203
  0
LINE
  5
428
100
AcDbEntity
  8
02___PRT_ALL_AXES
100
AcDbLine
 62
7
  6
CONTINUOUS
 10
65.2871000039
 20
197.9081345449
 11
59.7871000039
 21
207.4344139865
  0
LINE
  5
429
100
AcDbEntity
  8
3_ALL_AXES
100
AcDbLine
 62
7
  6
CONTINUOUS
 10
82.1984700835
 20
237.1167823414
 11
69.2080890267
 21
229.6167823414
  0
LINE
  5
42A
100
AcDbEntity
  8
3_ALL_AXES
100
AcDbLine
 62
7
  6
CONTINUOUS
 10
82.2484700835
 20
237.030179801
 11
109.0086550604
 21
252.480179801
  0
LINE
  5
42B
100
AcDbEntity
  8
3_ALL_AXES
100
AcDbLine
 62
7
  6
CONTINUOUS
 10
95.0100128154
 20
185.4039694203
 11
70.2100128154
 21
185.4039694203
  0
LINE
  5
42C
100
AcDbEntity
  8
02___PRT_ALL_AXES
100
AcDbLine
 62
7
  6
CONTINUOUS
 10
67.0191508114
 20
198.9081345449
 11
61.5191508114
 21
208.4344139865
  0
LINE
  5
42D
100
AcDbEntity
  8
02___PRT_ALL_AXES
100
AcDbLine
 62
7
  6
CONTINUOUS
 10
68.96770797
 20
200.0331345449
 11
63.46770797
 21
209.5594139865
  0
LINE
  5
42E
100
AcDbEntity
  8
02___PRT_ALL_AXES
100
AcDbLine
 62
7
  6
CONTINUOUS
 10
61.5319185183
 20
195.9122996695
 11
61.7356873722
 21
195.8576999697
  0
LINE
  5
42F
100
AcDbEntity
  8
7_ALL_FEATURES
100
AcDbLine
 62
7
  6
CONTINUOUS
 10
70.2100128154
 20
179.9039694203
 11
70.2100128154
 21
171.9039694203
  0
LINE
  5
430
100
AcDbEntity
  8
3_ALL_AXES
100
AcDbLine
 62
7
  6
CONTINUOUS
 10
70.2100128154
 20
179.9039694203
 11
70.2100128154
 21
171.9039694203
  0
LINE
  5
431
100
AcDbEntity
  8
3_ALL_AXES
100
AcDbLine
 62
7
  6
CONTINUOUS
 10
70.2100128154
 20
180.4039694203
 11
70.2100128154
 21
185.4039694203
  0
LINE
  5
432
100
AcDbEntity
  8
3_ALL_AXES
100
AcDbLine
 62
7
  6
CONTINUOUS
 10
75.2100128154
 20
185.4039694203
 11
75.2100128154
 21
195.3133963588
  0
LINE
  5
433
100
AcDbEntity
  8
3_ALL_AXES
100
AcDbLine
 62
7
  6
CONTINUOUS
 10
77.1547401366
 20
185.4039694203
 11
77.1547401366
 21
194.5497062681
  0
LINE
  5
434
100
AcDbEntity
  8
02___PRT_ALL_AXES
100
AcDbLine
 62
7
  6
CONTINUOUS
 10
63.46770797
 20
209.5594139865
 11
61.5191508114
 21
208.4344139865
  0
LINE
  5
435
100
AcDbEntity
  8
02___PRT_ALL_AXES
100
AcDbLine
 62
7
  6
CONTINUOUS
 10
56.235657164
 20
205.3839875069
 11
59.7871000039
 21
207.4344139865
  0
LINE
  5
436
100
AcDbEntity
  8
02___PRT_ALL_AXES
100
AcDbLine
 62
7
  6
CONTINUOUS
 10
55.7480528553
 20
204.9302488619
 11
56.1810655572
 21
205.1802488619
  0
LINE
  5
437
100
AcDbEntity
  8
02___PRT_ALL_AXES
100
AcDbLine
 62
7
  6
CONTINUOUS
 10
60.5371000039
 20
206.1353758809
 11
62.2691508114
 21
207.1353758809
  0
LINE
  5
438
100
AcDbEntity
  8
7_ALL_FEATURES
100
AcDbLine
 62
7
  6
CONTINUOUS
 10
109.5100128154
 20
180.4039694203
 11
110.0100128154
 21
179.9039694203
  0
LINE
  5
439
100
AcDbEntity
  8
3_ALL_AXES
100
AcDbLine
 62
9
  6
CONTINUOUS
 10
88.7474810409
 20
195.7735626239
 11
79.2080890267
 21
212.2962742657
  0
LINE
  5
43A
100
AcDbEntity
  8
7_ALL_FEATURES
100
AcDbLine
 62
9
  6
CONTINUOUS
 10
79.2080890267
 20
212.2962742657
 11
69.2080890267
 21
229.6167823414
  0
LINE
  5
43B
100
AcDbEntity
  8
3_ALL_AXES
100
AcDbLine
 62
7
  6
CONTINUOUS
 10
88.0652854942
 20
185.4039694203
 11
88.0652854942
 21
195.4145544908
  0
LINE
  5
43C
100
AcDbEntity
  8
02___PRT_ALL_AXES
100
AcDbLine
 62
7
  6
CONTINUOUS
 10
66.21770797
 20
204.7962742657
 11
64.2691508114
 21
203.6712742657
  0
LINE
  5
43D
100
AcDbEntity
  8
02___PRT_ALL_AXES
100
AcDbLine
 62
7
  6
CONTINUOUS
 10
62.5371000039
 20
202.6712742657
 11
59.7225174416
 21
201.0462742657
  0
LWPOLYLINE
  5
43E
100
AcDbEntity
  8
0
100
AcDbPolyline
 62
2
  6
CONTINUOUS
 90
2
 70
0
 43
0.1500000036
 10
130.4339300537
 20
241.1292260742
 10
131.7329718018
 20
241.8792224121
  0
LWPOLYLINE
  5
43F
100
AcDbEntity
  8
0
100
AcDbPolyline
 62
2
  6
CONTINUOUS
 90
13
 70
0
 43
0.1500000036
 10
131.8548010254
 20
240.3824597168
 10
132.9682727051
 20
241.0253283691
 10
133.4465661621
 20
241.0540393066
 10
134.0320001221
 20
240.8971801758
 10
134.1391534424
 20
240.7115844727
 10
133.9822814941
 20
240.1261633301
 10
133.718269043
 20
239.7262866211
 10
132.6048101807
 20
239.0834436035
 10
132.1265167236
 20
239.054732666
 10
131.5410699463
 20
239.2115917969
 10
131.4339294434
 20
239.3971618652
 10
131.5908013916
 20
239.9826086426
 10
131.8548010254
 20
240.3824597168
  0
LWPOLYLINE
  5
440
100
AcDbEntity
  8
0
100
AcDbPolyline
 62
2
  6
CONTINUOUS
 90
4
 70
0
 43
0.1500000036
 10
62.6992016602
 20
254.8950695801
 10
62.3777737427
 20
255.4518054199
 10
63.676809082
 20
256.2018017578
 10
64.4345022583
 20
253.17515625
  0
LINE
  5
441
100
AcDbEntity
  8
3_ALL_AXES
100
AcDbLine
 62
7
  6
CONTINUOUS
 10
90.0100128154
 20
185.4039694203
 11
90.0100128154
 21
196.5024856837
  0
LWPOLYLINE
  5
442
100
AcDbEntity
  8
0
100
AcDbPolyline
 62
2
  6
CONTINUOUS
 90
2
 70
0
 43
0.1500000036
 10
90.7528701782
 20
160.1841723633
 10
90.7528701782
 20
161.6841650391
  0
LINE
  5
443
100
AcDbEntity
  8
02___PRT_ALL_AXES
100
AcDbLine
 62
7
  6
CONTINUOUS
 10
64.5371000039
 20
199.2071726506
 11
66.2691508114
 21
200.2071726506
  0
LINE
  5
444
100
AcDbEntity
  8
3_ALL_AXES
100
AcDbLine
 62
7
  6
CONTINUOUS
 10
68.7177079696
 20
200.4661472466
 11
68.9477256867
 21
200.5989480375
  0
LINE
  5
445
100
AcDbEntity
  8
02___PRT_ALL_AXES
100
AcDbLine
 62
7
  6
CONTINUOUS
 10
61.0989058164
 20
195.6622996695
 11
61.5319185183
 21
195.9122996695
  0
LINE
  5
446
100
AcDbEntity
  8
02___PRT_ALL_AXES
100
AcDbLine
 62
7
  6
CONTINUOUS
 10
68.96770797
 20
200.0331345449
 11
67.0191508114
 21
198.9081345449
  0
LINE
  5
447
100
AcDbEntity
  8
02___PRT_ALL_AXES
100
AcDbLine
 62
7
  6
CONTINUOUS
 10
65.2871000039
 20
197.9081345449
 11
61.735657164
 21
195.8577080653
  0
LWPOLYLINE
  5
448
100
AcDbEntity
  8
0
100
AcDbPolyline
 62
2
  6
CONTINUOUS
 90
4
 70
0
 43
0.1500000036
 10
147.8887957764
 20
209.5849291992
 10
147.0316461182
 20
209.5849291992
 10
146.6030841064
 20
210.0134912109
 10
146.6030841064
 20
210.6563598633
  0
LWPOLYLINE
  5
449
100
AcDbEntity
  8
0
100
AcDbPolyline
 62
2
  6
CONTINUOUS
 90
13
 70
0
 43
0.1500000036
 10
147.4602209473
 20
211.9420715332
 10
146.1745092773
 20
211.9420715332
 10
145.7459344482
 20
212.1563525391
 10
145.3173596191
 20
212.5849401855
 10
145.3173596191
 20
212.7992211914
 10
145.7459344482
 20
213.2277832031
 10
146.1745092773
 20
213.442064209
 10
147.4602209473
 20
213.442064209
 10
147.8887957764
 20
213.2277832031
 10
148.3173577881
 20
212.7992211914
 10
148.3173577881
 20
212.5849401855
 10
147.8887957764
 20
212.1563525391
 10
147.4602209473
 20
211.9420715332
  0
LWPOLYLINE
  5
44A
100
AcDbEntity
  8
0
100
AcDbPolyline
 62
2
  6
CONTINUOUS
 90
13
 70
0
 43
0.1500000036
 10
92.1100131226
 20
161.0413092041
 10
92.1100131226
 20
162.327020874
 10
92.3243005371
 20
162.7555957031
 10
92.7528689575
 20
163.1841705322
 10
92.9671563721
 20
163.1841705322
 10
93.3957247925
 20
162.7555957031
 10
93.610012207
 20
162.327020874
 10
93.610012207
 20
161.0413092041
 10
93.3957247925
 20
160.612734375
 10
92.9671563721
 20
160.1841723633
 10
92.7528689575
 20
160.1841723633
 10
92.3243005371
 20
160.612734375
 10
92.1100131226
 20
161.0413092041
  0
LINE
  5
44B
100
AcDbEntity
  8
3_ALL_AXES
100
AcDbLine
 62
7
  6
CONTINUOUS
 10
95.0100128154
 20
180.4039694203
 11
95.0100128154
 21
185.4039694203
  0
LINE
  5
44C
100
AcDbEntity
  8
7_ALL_FEATURES
100
AcDbLine
 62
7
  6
CONTINUOUS
 10
70.7100128154
 20
180.4039694203
 11
70.2100128154
 21
179.9039694203
  0
LINE
  5
44D
100
AcDbEntity
  8
3_ALL_AXES
100
AcDbLine
 62
7
  6
CONTINUOUS
 10
82.1984700835
 20
237.1167823414
 11
102.1984700835
 21
202.47576619
  0
LWPOLYLINE
  5
44E
100
AcDbEntity
  8
0
100
AcDbPolyline
 62
2
  6
CONTINUOUS
 90
13
 70
0
 43
0.1500000036
 10
85.7528668213
 20
161.6841650391
 10
86.002869873
 20
162.434161377
 10
86.5028695679
 20
162.9341674805
 10
87.2528723145
 20
163.1841705322
 10
88.0028686523
 20
162.9341674805
 10
88.5028683472
 20
162.434161377
 10
88.7528713989
 20
161.6841650391
 10
88.5028683472
 20
160.9341687012
 10
88.0028686523
 20
160.4341625977
 10
87.2528723145
 20
160.1841723633
 10
86.5028695679
 20
160.4341625977
 10
86.002869873
 20
160.9341687012
 10
85.7528668213
 20
161.6841650391
  0
LINE
  5
44F
100
AcDbEntity
  8
3_ALL_AXES
100
AcDbLine
 62
7
  6
CONTINUOUS
 10
91.3455572522
 20
197.2735626239
 11
88.7474810409
 21
195.7735626239
  0
LINE
  5
450
100
AcDbEntity
  8
3_ALL_AXES
100
AcDbLine
 62
7
  6
CONTINUOUS
 10
102.1484700835
 20
202.5623687304
 11
128.9086550604
 21
218.0123687304
  0
LINE
  5
451
100
AcDbEntity
  8
3_ALL_AXES
100
AcDbLine
 62
7
  6
CONTINUOUS
 10
102.1984700835
 20
202.47576619
 11
97.0023182239
 21
199.4757665152
  0
LINE
  5
452
100
AcDbEntity
  8
7_ALL_FEATURES
100
AcDbLine
 62
7
  6
CONTINUOUS
 10
110.0100128154
 20
179.9039694203
 11
110.0100128154
 21
171.9039694203
  0
LINE
  5
453
100
AcDbEntity
  8
3_ALL_AXES
100
AcDbLine
 62
7
  6
CONTINUOUS
 10
110.0100128154
 20
179.9039694203
 11
110.0100128154
 21
171.9039694203
  0
LWPOLYLINE
  5
454
100
AcDbEntity
  8
0
100
AcDbPolyline
 62
2
  6
CONTINUOUS
 90
2
 70
0
 43
0.1500000036
 10
86.002869873
 20
159.434163208
 10
88.5028683472
 20
163.9341668701
  0
LWPOLYLINE
  5
455
100
AcDbEntity
  8
0
100
AcDbPolyline
 62
2
  6
CONTINUOUS
 90
13
 70
0
 43
0.1500000036
 10
129.2329669189
 20
246.2093444824
 10
130.0074829102
 20
246.3678442383
 10
130.6904956055
 20
246.1848376465
 10
131.2820050049
 20
245.6602990723
 10
131.4404919434
 20
244.8857958984
 10
131.2574853516
 20
244.2027832031
 10
130.7329724121
 20
243.6112609863
 10
129.9584436035
 20
243.4527868652
 10
129.2754309082
 20
243.635793457
 10
128.6839343262
 20
244.1603063965
 10
128.5254345703
 20
244.9348352051
 10
128.7084411621
 20
245.6178479004
 10
129.2329669189
 20
246.2093444824
  0
LWPOLYLINE
  5
456
100
AcDbEntity
  8
0
100
AcDbPolyline
 62
2
  6
CONTINUOUS
 90
2
 70
0
 43
0.1500000036
 10
127.4094122314
 20
244.8678515625
 10
132.5565270996
 20
244.952779541
  0
LINE
  5
457
100
AcDbEntity
  8
3_ALL_AXES
100
AcDbLine
 62
7
  6
CONTINUOUS
 10
128.9085969837
 20
218.0124693223
 11
109.0087131372
 21
252.4800792091
  0
LINE
  5
458
100
AcDbEntity
  8
7_ALL_FEATURES
100
AcDbLine
 62
7
  6
CONTINUOUS
 10
110.0100128154
 20
171.9039694203
 11
109.5100128154
 21
171.4039694203
  0
LWPOLYLINE
  5
459
100
AcDbEntity
  8
0
100
AcDbPolyline
 62
2
  6
CONTINUOUS
 90
13
 70
0
 43
0.1500000036
 10
146.6030841064
 20
210.0134912109
 10
146.3887902832
 20
209.727791748
 10
145.7459344482
 20
209.727791748
 10
145.3173596191
 20
210.0134912109
 10
145.3173596191
 20
210.6563598633
 10
145.7459344482
 20
210.9420849609
 10
146.3887902832
 20
210.9420849609
 10
146.6030841064
 20
210.6563598633
 10
147.0316461182
 20
211.084921875
 10
147.8887957764
 20
211.084921875
 10
148.3173577881
 20
210.6563598633
 10
148.3173577881
 20
210.0134912109
 10
147.8887957764
 20
209.5849291992
  0
LWPOLYLINE
  5
45A
100
AcDbEntity
  8
0
100
AcDbPolyline
 62
2
  6
CONTINUOUS
 90
3
 70
0
 43
0.1500000036
 10
131.2406561279
 20
241.0176379395
 10
130.49065979
 20
242.3166796875
 10
132.8534289551
 20
242.9385021973
  0
LINE
  5
45B
100
AcDbEntity
  8
7_ALL_FEATURES
100
AcDbLine
 62
7
  6
CONTINUOUS
 10
192.0499111939
 20
171.9039694203
 11
192.5499111939
 21
171.4039694203
  0
LINE
  5
45C
100
AcDbEntity
  8
7_ALL_FEATURES
100
AcDbLine
 62
7
  6
CONTINUOUS
 10
231.3499111939
 20
171.4039694203
 11
192.5499111939
 21
171.4039694203
  0
LINE
  5
45D
100
AcDbEntity
  8
7_ALL_FEATURES
100
AcDbLine
 62
7
  6
CONTINUOUS
 10
231.8499111939
 20
171.9039694203
 11
192.0499111939
 21
171.9039694203
  0
LINE
  5
45E
100
AcDbEntity
  8
7_ALL_FEATURES
100
AcDbLine
 62
7
  6
CONTINUOUS
 10
231.8499111939
 20
179.9039694203
 11
192.0499111939
 21
179.9039694203
  0
LINE
  5
45F
100
AcDbEntity
  8
7_ALL_FEATURES
100
AcDbLine
 62
7
  6
CONTINUOUS
 10
231.3499111939
 20
180.4039694203
 11
217.3959246925
 21
180.4039694203
  0
LINE
  5
460
100
AcDbEntity
  8
7_ALL_FEATURES
100
AcDbLine
 62
7
  6
CONTINUOUS
 10
206.5038976953
 20
180.4039694203
 11
192.5499111939
 21
180.4039694203
  0
LINE
  5
461
100
AcDbEntity
  8
3_ALL_AXES
100
AcDbLine
 62
7
  6
CONTINUOUS
 10
206.5038976953
 20
180.4039694203
 11
217.3959246925
 21
180.4039694203
  0
LINE
  5
462
100
AcDbEntity
  8
3_ALL_AXES
100
AcDbLine
 62
7
  6
CONTINUOUS
 10
224.3499111938
 20
185.4039694203
 11
199.5499111939
 21
185.4039694203
  0
LINE
  5
463
100
AcDbEntity
  8
7_ALL_FEATURES
100
AcDbLine
 62
7
  6
CONTINUOUS
 10
191.9499111939
 20
219.7962742657
 11
191.9499111939
 21
212.2962742657
  0
LINE
  5
464
100
AcDbEntity
  8
3_ALL_AXES
100
AcDbLine
 62
7
  6
CONTINUOUS
 10
191.9499111939
 20
219.7962742657
 11
191.9499111939
 21
212.2962742657
  0
LINE
  5
465
100
AcDbEntity
  8
3_ALL_AXES
100
AcDbLine
 62
7
  6
CONTINUOUS
 10
192.0499111937
 20
235.2462742657
 11
192.0499111937
 21
221.0071359974
  0
LINE
  5
466
100
AcDbEntity
  8
3_ALL_AXES
100
AcDbLine
 62
7
  6
CONTINUOUS
 10
192.0499111939
 20
179.9039694203
 11
192.0499111939
 21
171.9039694203
  0
LINE
  5
467
100
AcDbEntity
  8
02___PRT_ALL_AXES
100
AcDbLine
 62
7
  6
CONTINUOUS
 10
200.9354170216
 20
196.1539694203
 11
199.5499111939
 21
196.1539694203
  0
LINE
  5
468
100
AcDbEntity
  8
7_ALL_FEATURES
100
AcDbLine
 62
7
  6
CONTINUOUS
 10
199.5499111939
 20
196.1539694203
 11
200.9354170216
 21
196.1539694203
  0
LINE
  5
469
100
AcDbEntity
  8
7_ALL_FEATURES
100
AcDbLine
 62
7
  6
CONTINUOUS
 10
199.4499111939
 20
197.2717850628
 11
199.4499111939
 21
196.2539694203
  0
LINE
  5
46A
100
AcDbEntity
  8
7_ALL_FEATURES
100
AcDbLine
 62
9
  6
CONTINUOUS
 10
199.5499111939
 20
197.1835288744
 11
199.5499111939
 21
196.1539694203
  0
LINE
  5
46B
100
AcDbEntity
  8
3_ALL_AXES
100
AcDbLine
 62
7
  6
CONTINUOUS
 10
199.5499111939
 20
180.4039694203
 11
199.5499111939
 21
185.4039694203
  0
LINE
  5
46C
100
AcDbEntity
  8
02___PRT_ALL_AXES
100
AcDbLine
 62
7
  6
CONTINUOUS
 10
217.9499111939
 20
197.9039694203
 11
216.9499111939
 21
197.9039694203
  0
LINE
  5
46D
100
AcDbEntity
  8
02___PRT_ALL_AXES
100
AcDbLine
 62
7
  6
CONTINUOUS
 10
206.9499111939
 20
197.9039694203
 11
205.9499111939
 21
197.9039694203
  0
LINE
  5
46E
100
AcDbEntity
  8
7_ALL_FEATURES
100
AcDbLine
 62
7
  6
CONTINUOUS
 10
205.9499111939
 20
197.9039694203
 11
206.9499111939
 21
197.9039694203
  0
LINE
  5
46F
100
AcDbEntity
  8
7_ALL_FEATURES
100
AcDbLine
 62
7
  6
CONTINUOUS
 10
216.9499111939
 20
197.9039694203
 11
217.9499111939
 21
197.9039694203
  0
LINE
  5
470
100
AcDbEntity
  8
02___PRT_ALL_AXES
100
AcDbLine
 62
7
  6
CONTINUOUS
 10
205.5990582328
 20
203.6712742657
 11
205.9323915661
 21
203.1712742657
  0
LINE
  5
471
100
AcDbEntity
  8
02___PRT_ALL_AXES
100
AcDbLine
 62
7
  6
CONTINUOUS
 10
205.5990582328
 20
204.7962742657
 11
205.5990582328
 21
203.6712742657
  0
LINE
  5
472
100
AcDbEntity
  8
02___PRT_ALL_AXES
100
AcDbLine
 62
7
  6
CONTINUOUS
 10
205.5990582328
 20
202.6712742657
 11
205.5990582328
 21
201.0462742657
  0
LINE
  5
473
100
AcDbEntity
  8
3_ALL_AXES
100
AcDbLine
 62
7
  6
CONTINUOUS
 10
205.9499111939
 20
193.8532930357
 11
205.9499111939
 21
200.3600550183
  0
LINE
  5
474
100
AcDbEntity
  8
7_ALL_FEATURES
100
AcDbLine
 62
7
  6
CONTINUOUS
 10
231.3499111939
 20
180.4039694203
 11
231.8499111939
 21
179.9039694203
  0
LINE
  5
475
100
AcDbEntity
  8
02___PRT_ALL_AXES
100
AcDbLine
 62
7
  6
CONTINUOUS
 10
206.5990582328
 20
200.5462742657
 11
206.5990582328
 21
200.2962742657
  0
LINE
  5
476
100
AcDbEntity
  8
3_ALL_AXES
100
AcDbLine
 62
7
  6
CONTINUOUS
 10
206.9499111939
 20
185.4039694203
 11
206.9499111939
 21
198.5121729057
  0
LINE
  5
477
100
AcDbEntity
  8
02___PRT_ALL_AXES
100
AcDbLine
 62
7
  6
CONTINUOUS
 10
208.7744847133
 20
209.5594139865
 11
208.7744847133
 21
208.4344139865
  0
LINE
  5
478
100
AcDbEntity
  8
02___PRT_ALL_AXES
100
AcDbLine
 62
7
  6
CONTINUOUS
 10
208.7744847133
 20
207.4344139865
 11
208.7744847133
 21
205.8094139865
  0
LINE
  5
479
100
AcDbEntity
  8
02___PRT_ALL_AXES
100
AcDbLine
 62
7
  6
CONTINUOUS
 10
215.1253376744
 20
207.4344139865
 11
208.7744847133
 21
207.4344139865
  0
LINE
  5
47A
100
AcDbEntity
  8
02___PRT_ALL_AXES
100
AcDbLine
 62
7
  6
CONTINUOUS
 10
215.1253376744
 20
208.4344139865
 11
208.7744847133
 21
208.4344139865
  0
LINE
  5
47B
100
AcDbEntity
  8
02___PRT_ALL_AXES
100
AcDbLine
 62
7
  6
CONTINUOUS
 10
208.7744847133
 20
209.5594139865
 11
205.5990582328
 21
204.7962742657
  0
LINE
  5
47C
100
AcDbEntity
  8
02___PRT_ALL_AXES
100
AcDbLine
 62
7
  6
CONTINUOUS
 10
208.7744847133
 20
208.4344139865
 11
205.5990582328
 21
203.6712742657
  0
LINE
  5
47D
100
AcDbEntity
  8
02___PRT_ALL_AXES
100
AcDbLine
 62
7
  6
CONTINUOUS
 10
208.7744847133
 20
207.4344139865
 11
205.5990582328
 21
202.6712742657
  0
LINE
  5
47E
100
AcDbEntity
  8
02___PRT_ALL_AXES
100
AcDbLine
 62
7
  6
CONTINUOUS
 10
215.1253376744
 20
209.5594139865
 11
208.7744847133
 21
209.5594139865
  0
LINE
  5
47F
100
AcDbEntity
  8
02___PRT_ALL_AXES
100
AcDbLine
 62
7
  6
CONTINUOUS
 10
218.3007641549
 20
202.6712742657
 11
215.1253376744
 21
207.4344139865
  0
LINE
  5
480
100
AcDbEntity
  8
02___PRT_ALL_AXES
100
AcDbLine
 62
7
  6
CONTINUOUS
 10
215.1253376744
 20
209.5594139865
 11
215.1253376744
 21
208.4344139865
  0
LINE
  5
481
100
AcDbEntity
  8
02___PRT_ALL_AXES
100
AcDbLine
 62
7
  6
CONTINUOUS
 10
215.1253376744
 20
207.4344139865
 11
215.1253376744
 21
205.8094139865
  0
LINE
  5
482
100
AcDbEntity
  8
02___PRT_ALL_AXES
100
AcDbLine
 62
7
  6
CONTINUOUS
 10
218.3007641549
 20
203.6712742657
 11
215.1253376744
 21
208.4344139865
  0
LINE
  5
483
100
AcDbEntity
  8
02___PRT_ALL_AXES
100
AcDbLine
 62
7
  6
CONTINUOUS
 10
218.3007641549
 20
204.7962742657
 11
215.1253376744
 21
209.5594139865
  0
LINE
  5
484
100
AcDbEntity
  8
3_ALL_AXES
100
AcDbLine
 62
7
  6
CONTINUOUS
 10
216.9499111939
 20
185.4039694203
 11
216.9499111939
 21
198.5143519048
  0
LINE
  5
485
100
AcDbEntity
  8
02___PRT_ALL_AXES
100
AcDbLine
 62
7
  6
CONTINUOUS
 10
217.3007641549
 20
200.5462742657
 11
217.3007641549
 21
200.2962742657
  0
LINE
  5
486
100
AcDbEntity
  8
3_ALL_AXES
100
AcDbLine
 62
7
  6
CONTINUOUS
 10
217.9499111939
 20
200.3600540828
 11
217.9499111939
 21
193.8532785075
  0
LINE
  5
487
100
AcDbEntity
  8
02___PRT_ALL_AXES
100
AcDbLine
 62
7
  6
CONTINUOUS
 10
218.3007641549
 20
204.7962742657
 11
218.3007641549
 21
203.6712742657
  0
LINE
  5
488
100
AcDbEntity
  8
02___PRT_ALL_AXES
100
AcDbLine
 62
7
  6
CONTINUOUS
 10
218.3007641549
 20
202.6712742657
 11
218.3007641549
 21
201.0462742657
  0
LINE
  5
489
100
AcDbEntity
  8
7_ALL_FEATURES
100
AcDbLine
 62
7
  6
CONTINUOUS
 10
192.5499111939
 20
180.4039694203
 11
192.0499111939
 21
179.9039694203
  0
LINE
  5
48A
100
AcDbEntity
  8
3_ALL_AXES
100
AcDbLine
 62
7
  6
CONTINUOUS
 10
224.3499111939
 20
180.4039694203
 11
224.3499111939
 21
185.4039694203
  0
LINE
  5
48B
100
AcDbEntity
  8
02___PRT_ALL_AXES
100
AcDbLine
 62
7
  6
CONTINUOUS
 10
217.9674308216
 20
203.1712742657
 11
218.3007641549
 21
203.6712742657
  0
LINE
  5
48C
100
AcDbEntity
  8
3_ALL_AXES
100
AcDbLine
 62
7
  6
CONTINUOUS
 10
231.8499111937
 20
235.2462742657
 11
231.8499111937
 21
221.0071360009
  0
LINE
  5
48D
100
AcDbEntity
  8
3_ALL_AXES
100
AcDbLine
 62
7
  6
CONTINUOUS
 10
231.8499111939
 20
179.9039694203
 11
231.8499111939
 21
171.9039694203
  0
LINE
  5
48E
100
AcDbEntity
  8
7_ALL_FEATURES
100
AcDbLine
 62
7
  6
CONTINUOUS
 10
231.9499111939
 20
219.7962742657
 11
231.9499111939
 21
212.2962742657
  0
LINE
  5
48F
100
AcDbEntity
  8
3_ALL_AXES
100
AcDbLine
 62
7
  6
CONTINUOUS
 10
231.9499111939
 20
219.7962742657
 11
231.9499111939
 21
212.2962742657
  0
LINE
  5
490
100
AcDbEntity
  8
7_ALL_FEATURES
100
AcDbLine
 62
7
  6
CONTINUOUS
 10
231.8499111939
 20
171.9039694203
 11
231.3499111939
 21
171.4039694203
  0
LINE
  5
491
100
AcDbEntity
  8
02___PRT_ALL_AXES
100
AcDbLine
 62
7
  6
CONTINUOUS
 10
59.7871000039
 20
78.5575363879
 11
59.7871000039
 21
84.908389349
  0
LINE
  5
492
100
AcDbEntity
  8
02___PRT_ALL_AXES
100
AcDbLine
 62
7
  6
CONTINUOUS
 10
61.5191508114
 20
78.5575363879
 11
61.5191508114
 21
84.908389349
  0
LINE
  5
493
100
AcDbEntity
  8
02___PRT_ALL_AXES
100
AcDbLine
 62
7
  6
CONTINUOUS
 10
57.311833839
 20
86.1019160162
 11
57.4139169239
 21
86.2462832993
  0
LINE
  5
494
100
AcDbEntity
  8
02___PRT_ALL_AXES
100
AcDbLine
 62
7
  6
CONTINUOUS
 10
57.311833839
 20
77.3640097207
 11
57.4139006907
 21
77.2196653948
  0
LINE
  5
495
100
AcDbEntity
  8
02___PRT_ALL_AXES
100
AcDbLine
 62
7
  6
CONTINUOUS
 10
59.7871000039
 20
84.908389349
 11
62.5371000039
 21
88.0838158295
  0
LINE
  5
496
100
AcDbEntity
  8
02___PRT_ALL_AXES
100
AcDbLine
 62
7
  6
CONTINUOUS
 10
62.5371000039
 20
75.3821099073
 11
59.7871000039
 21
78.5575363879
  0
LINE
  5
497
100
AcDbEntity
  8
02___PRT_ALL_AXES
100
AcDbLine
 62
7
  6
CONTINUOUS
 10
61.5191508114
 20
84.908389349
 11
61.9890770893
 21
85.451013475
  0
LINE
  5
498
100
AcDbEntity
  8
02___PRT_ALL_AXES
100
AcDbLine
 62
7
  6
CONTINUOUS
 10
62.041221219
 20
77.9547014072
 11
61.5191508114
 21
78.5575363879
  0
LINE
  5
499
100
AcDbEntity
  8
7_ALL_FEATURES
100
AcDbLine
 62
7
  6
CONTINUOUS
 10
92.1984700835
 20
61.7329628684
 11
79.2080890267
 21
61.7329628684
  0
LINE
  5
49A
100
AcDbEntity
  8
3_ALL_AXES
100
AcDbLine
 62
7
  6
CONTINUOUS
 10
92.1984700835
 20
61.7329628684
 11
79.2080890267
 21
61.7329628684
  0
LINE
  5
49B
100
AcDbEntity
  8
3_ALL_AXES
100
AcDbLine
 62
7
  6
CONTINUOUS
 10
118.9586550604
 20
61.8329628686
 11
92.1118675431
 21
61.8329628686
  0
LINE
  5
49C
100
AcDbEntity
  8
02___PRT_ALL_AXES
100
AcDbLine
 62
7
  6
CONTINUOUS
 10
62.5371000039
 20
75.3821099073
 11
59.7225174416
 21
75.3821099073
  0
LINE
  5
49D
100
AcDbEntity
  8
02___PRT_ALL_AXES
100
AcDbLine
 62
7
  6
CONTINUOUS
 10
61.9557456954
 20
78.5575363879
 11
61.5191508114
 21
78.5575363879
  0
LINE
  5
49E
100
AcDbEntity
  8
02___PRT_ALL_AXES
100
AcDbLine
 62
7
  6
CONTINUOUS
 10
59.7871000039
 20
78.5575363879
 11
56.9725174416
 21
78.5575363879
  0
LINE
  5
49F
100
AcDbEntity
  8
02___PRT_ALL_AXES
100
AcDbLine
 62
7
  6
CONTINUOUS
 10
61.9380577142
 20
84.908389349
 11
61.5191508114
 21
84.908389349
  0
LINE
  5
4A0
100
AcDbEntity
  8
02___PRT_ALL_AXES
100
AcDbLine
 62
7
  6
CONTINUOUS
 10
59.7871000039
 20
84.908389349
 11
56.9725174416
 21
84.908389349
  0
LINE
  5
4A1
100
AcDbEntity
  8
02___PRT_ALL_AXES
100
AcDbLine
 62
7
  6
CONTINUOUS
 10
62.5371000039
 20
88.0838158295
 11
59.7225174416
 21
88.0838158295
  0
LINE
  5
4A2
100
AcDbEntity
  8
3_ALL_AXES
100
AcDbLine
 62
7
  6
CONTINUOUS
 10
118.9586550604
 20
101.6329628686
 11
92.1118675431
 21
101.6329628686
  0
LINE
  5
4A3
100
AcDbEntity
  8
7_ALL_FEATURES
100
AcDbLine
 62
7
  6
CONTINUOUS
 10
92.1984700835
 20
101.7329628684
 11
79.2080890267
 21
101.7329628684
  0
LINE
  5
4A4
100
AcDbEntity
  8
3_ALL_AXES
100
AcDbLine
 62
7
  6
CONTINUOUS
 10
92.1984700835
 20
101.7329628684
 11
79.2080890267
 21
101.7329628684
  0
ARC
  5
4A5
100
AcDbEntity
  8
3_ALL_AXES
100
AcDbCircle
 62
7
  6
CONTINUOUS
 10
336.0962383506
 20
140.482742846
 40
15.2665490524
100
AcDbArc
 50
176.0752615431
 51
176.7148144389
  0
ARC
  5
4A6
100
AcDbEntity
  8
3_ALL_AXES
100
AcDbCircle
 62
7
  6
CONTINUOUS
 10
327.8182849046
 20
117.5936962791
 40
11.079815158
100
AcDbArc
 50
293.9407241129
 51
298.4091925976
  0
ARC
  5
4A7
100
AcDbEntity
  8
3_ALL_AXES
100
AcDbCircle
 62
7
  6
CONTINUOUS
 10
340.9523464594
 20
120.48268129
 40
8.5044983136
100
AcDbArc
 50
255.6888502532
 51
257.8174769415
  0
ARC
  5
4A8
100
AcDbEntity
  8
3_ALL_AXES
100
AcDbCircle
 62
7
  6
CONTINUOUS
 10
326.1492750439
 20
143.7329192512
 40
4.575749142
100
AcDbArc
 50
107.9500481939
 51
118.3678481454
  0
ARC
  5
4A9
100
AcDbEntity
  8
3_ALL_AXES
100
AcDbCircle
 62
7
  6
CONTINUOUS
 10
340.8388088956
 20
116.5797361479
 40
4.5522514059
100
AcDbArc
 50
298.4188858939
 51
309.229329534
  0
ARC
  5
4AA
100
AcDbEntity
  8
3_ALL_AXES
100
AcDbCircle
 62
7
  6
CONTINUOUS
 10
326.1233651156
 20
143.7876028352
 40
4.5153227425
100
AcDbArc
 50
118.4082415929
 51
119.6184698528
  0
ARC
  5
4AB
100
AcDbEntity
  8
3_ALL_AXES
100
AcDbCircle
 62
7
  6
CONTINUOUS
 10
340.8572149228
 20
116.5475052407
 40
4.5151449802
100
AcDbArc
 50
297.2063978753
 51
298.4081148267
  0
ARC
  5
4AC
100
AcDbEntity
  8
02___PRT_ALL_AXES
100
AcDbCircle
 62
7
  6
CONTINUOUS
 10
303.980349693
 20
112.5855763719
 40
3.9255782063
100
AcDbArc
 50
293.2297527231
 51
294.0567889211
  0
ARC
  5
4AD
100
AcDbEntity
  8
3_ALL_AXES
100
AcDbCircle
 62
7
  6
CONTINUOUS
 10
350.9823974765
 20
153.0936396706
 40
3.658132601
100
AcDbArc
 50
104.4317542768
 51
111.1344939641
  0
ARC
  5
4AE
100
AcDbEntity
  8
3_ALL_AXES
100
AcDbCircle
 62
7
  6
CONTINUOUS
 10
362.2517360386
 20
132.2591313613
 40
3.6575374862
100
AcDbArc
 50
305.62417403
 51
312.3822362923
  0
ARC
  5
4AF
100
AcDbEntity
  8
7_ALL_FEATURES
100
AcDbCircle
 62
7
  6
CONTINUOUS
 10
313.6813986331
 20
91.1512933159
 40
1.6268992085
100
AcDbArc
 50
136.8418406703
 51
137.3945082677
  0
ARC
  5
4B0
100
AcDbEntity
  8
02___PRT_ALL_AXES
100
AcDbCircle
 62
9
  6
CONTINUOUS
 10
305.23685099
 20
110.3113607792
 40
1.3300258745
100
AcDbArc
 50
281.7762832466
 51
282.1312012461
  0
ARC
  5
4B1
100
AcDbEntity
  8
7_ALL_FEATURES
100
AcDbCircle
 62
7
  6
CONTINUOUS
 10
76.7080890267
 20
216.6264012846
 40
15.0
100
AcDbArc
 50
120.0
 51
210.0
  0
ARC
  5
4B2
100
AcDbEntity
  8
02___PRT_ALL_AXES
100
AcDbCircle
 62
7
  6
CONTINUOUS
 10
57.4980528553
 20
201.8991599487
 40
3.5
100
AcDbArc
 50
120.0
 51
195.9591608197
  0
ARC
  5
4B3
100
AcDbEntity
  8
02___PRT_ALL_AXES
100
AcDbCircle
 62
7
  6
CONTINUOUS
 10
59.3489058164
 20
198.6933885827
 40
3.5
100
AcDbArc
 50
224.0408391803
 51
300.0
  0
ARC
  5
4B4
100
AcDbEntity
  8
7_ALL_FEATURES
100
AcDbCircle
 62
7
  6
CONTINUOUS
 10
211.8172064504
 20
213.2661788932
 40
20.2801390128
100
AcDbArc
 50
236.2728537608
 51
253.1832072114
  0
ARC
  5
4B5
100
AcDbEntity
  8
7_ALL_FEATURES
100
AcDbCircle
 62
7
  6
CONTINUOUS
 10
210.7876591514
 20
212.3050757693
 40
18.8377500137
100
AcDbArc
 50
180.0267701305
 51
206.4891461749
  0
ARC
  5
4B6
100
AcDbEntity
  8
02___PRT_ALL_AXES
100
AcDbCircle
 62
9
  6
CONTINUOUS
 10
213.2887848173
 20
200.2961028929
 40
4.0119793413
100
AcDbArc
 50
0.0024474058
 51
3.5556312742
  0
ARC
  5
4B7
100
AcDbEntity
  8
02___PRT_ALL_AXES
100
AcDbCircle
 62
9
  6
CONTINUOUS
 10
210.6110375704
 20
200.2961028929
 40
4.0119793413
100
AcDbArc
 50
176.4443687258
 51
179.9975525942
  0
ARC
  5
4B8
100
AcDbEntity
  8
3_ALL_AXES
100
AcDbCircle
 62
7
  6
CONTINUOUS
 10
216.6066451548
 20
197.2811178857
 40
1.3441596251
100
AcDbArc
 50
23.9410500883
 51
27.9343210309
  0
ARC
  5
4B9
100
AcDbEntity
  8
3_ALL_AXES
100
AcDbCircle
 62
7
  6
CONTINUOUS
 10
207.2764388907
 20
197.2893962278
 40
1.3254935882
100
AcDbArc
 50
152.0428814395
 51
164.3306611989
  0
ARC
  5
4BA
100
AcDbEntity
  8
3_ALL_AXES
100
AcDbCircle
 62
7
  6
CONTINUOUS
 10
216.6299213063
 20
197.2918125697
 40
1.3185462489
100
AcDbArc
 50
15.6449713968
 51
23.9267464472
  0
ARC
  5
4BB
100
AcDbEntity
  8
7_ALL_FEATURES
100
AcDbCircle
 62
7
  6
CONTINUOUS
 10
199.5499111939
 20
196.2539694203
 40
0.1
100
AcDbArc
 50
180.0
 51
270.0
  0
ARC
  5
4BC
100
AcDbEntity
  8
3_ALL_AXES
100
AcDbCircle
 62
7
  6
CONTINUOUS
 10
92.1962742733
 20
96.6882066866
 40
5.0447566597
100
AcDbArc
 50
81.9888005257
 51
89.9750611038
  0
ARC
  5
4BD
100
AcDbEntity
  8
3_ALL_AXES
100
AcDbCircle
 62
7
  6
CONTINUOUS
 10
92.1978688348
 20
66.7550186391
 40
5.0220558066
100
AcDbArc
 50
270.0068595443
 51
278.0292788494
  0
ARC
  5
4BE
100
AcDbEntity
  8
3_ALL_AXES
100
AcDbCircle
 62
7
  6
CONTINUOUS
 10
118.0767326384
 20
70.2484328894
 40
4.0163952795
100
AcDbArc
 50
276.431369531
 51
282.4699989756
  0
ARC
  5
4BF
100
AcDbEntity
  8
3_ALL_AXES
100
AcDbCircle
 62
7
  6
CONTINUOUS
 10
118.0809416023
 20
93.2427783019
 40
3.9907977229
100
AcDbArc
 50
77.5106165811
 51
83.5880149122
  0
SPLINE
  5
4C0
100
AcDbEntity
  8
02___PRT_ALL_AXES
100
AcDbSpline
 62
7
  6
CONTINUOUS
 70
0
 71
3
 72
9
 73
5
 74
0
 42
0.0000001
 43
0.0000001
 44
0.0000000001
 40
0.0
 40
0.0
 40
0.0
 40
0.0
 40
0.251293041
 40
1.0
 40
1.0
 40
1.0
 40
1.0
 10
300.5820734108
 20
118.8508918139
 30
0.0
 10
300.5676058748
 20
118.7823534843
 30
0.0
 10
300.5119422106
 20
118.5092170095
 30
0.0
 10
300.4645377674
 20
118.2343529577
 30
0.0
 10
300.4350229975
 20
118.0277463047
 30
0.0
  0
SPLINE
  5
4C1
100
AcDbEntity
  8
02___PRT_ALL_AXES
100
AcDbSpline
 62
7
  6
CONTINUOUS
 70
0
 71
3
 72
15
 73
11
 74
0
 42
0.0000001
 43
0.0000001
 44
0.0000000001
 40
0.0
 40
0.0
 40
0.0
 40
0.0
 40
0.1255294376
 40
0.2507091573
 40
0.3752444528
 40
0.499005859
 40
0.6223752564
 40
0.7464548158
 40
0.8723328056
 40
1.0
 40
1.0
 40
1.0
 40
1.0
 10
300.4877331316
 20
118.3861775795
 30
0.0
 10
300.2367469449
 20
118.2233589574
 30
0.0
 10
299.7712080581
 20
117.8390113065
 30
0.0
 10
299.2231044667
 20
117.1233132151
 30
0.0
 10
298.8457654156
 20
116.3095184358
 30
0.0
 10
298.6450225723
 20
115.4408130504
 30
0.0
 10
298.610639108
 20
114.5521443168
 30
0.0
 10
298.7242038962
 20
113.6660777515
 30
0.0
 10
298.9669512632
 20
112.7966838018
 30
0.0
 10
299.2042190557
 20
112.2389033847
 30
0.0
 10
299.3402840398
 20
111.9667550075
 30
0.0
  0
SPLINE
  5
4C2
100
AcDbEntity
  8
02___PRT_ALL_AXES
100
AcDbSpline
 62
7
  6
CONTINUOUS
 70
0
 71
3
 72
16
 73
12
 74
0
 42
0.0000001
 43
0.0000001
 44
0.0000000001
 40
0.0
 40
0.0
 40
0.0
 40
0.0
 40
0.1279162448
 40
0.1914820603
 40
0.2545397861
 40
0.3790208918
 40
0.5022755958
 40
0.625659844
 40
0.7498209307
 40
0.8746992218
 40
1.0
 40
1.0
 40
1.0
 40
1.0
 10
299.3402840398
 20
111.9667550075
 30
0.0
 10
299.4847638864
 20
111.6777757668
 30
0.0
 10
299.7296774666
 20
111.2585986624
 30
0.0
 10
300.108152571
 20
110.7384369362
 30
0.0
 10
300.5162591987
 20
110.2523921495
 30
0.0
 10
301.085933398
 20
109.7074335501
 30
0.0
 10
301.8660092306
 20
109.1787505925
 30
0.0
 10
302.7336706245
 20
108.8091358121
 30
0.0
 10
303.6657064969
 20
108.6324186274
 30
0.0
 10
304.6187138888
 20
108.6733203435
 30
0.0
 10
305.2325463153
 20
108.8516337904
 30
0.0
 10
305.5235449163
 20
108.9760455481
 30
0.0
  0
LINE
  5
4C3
100
AcDbEntity
  8
02___PRT_ALL_AXES
100
AcDbLine
 62
7
  6
CONTINUOUS
 10
305.5235449163
 20
108.9760455481
 11
305.5286729037
 21
108.978242247
  0
SPLINE
  5
4C4
100
AcDbEntity
  8
02___PRT_ALL_AXES
100
AcDbSpline
 62
7
  6
CONTINUOUS
 70
0
 71
3
 72
11
 73
7
 74
0
 42
0.0000001
 43
0.0000001
 44
0.0000000001
 40
0.0
 40
0.0
 40
0.0
 40
0.0
 40
0.1322094513
 40
0.3309655443
 40
0.6151207087
 40
1.0
 40
1.0
 40
1.0
 40
1.0
 10
305.5029116083
 20
109.0234922408
 30
0.0
 10
305.517501749
 20
109.0166219269
 30
0.0
 10
305.5583032651
 20
109.0095896771
 30
0.0
 10
305.6332636943
 20
109.0138398557
 30
0.0
 10
305.7376682939
 20
109.0328292151
 30
0.0
 10
305.8166079283
 20
109.0536263743
 30
0.0
 10
305.8617396102
 20
109.0665559606
 30
0.0
  0
SPLINE
  5
4C5
100
AcDbEntity
  8
02___PRT_ALL_AXES
100
AcDbSpline
 62
7
  6
CONTINUOUS
 70
0
 71
3
 72
13
 73
9
 74
0
 42
0.0000001
 43
0.0000001
 44
0.0000000001
 40
0.0
 40
0.0
 40
0.0
 40
0.0
 40
0.0718595986
 40
0.1616226516
 40
0.2689712308
 40
0.392397997
 40
0.6781176117
 40
1.0
 40
1.0
 40
1.0
 40
1.0
 10
305.8617396102
 20
109.0665559606
 30
0.0
 10
305.9235312328
 20
109.0842583833
 30
0.0
 10
306.0613075862
 20
109.1282503175
 30
0.0
 10
306.2878089591
 20
109.2094460521
 30
0.0
 10
306.5552820905
 20
109.3127799814
 30
0.0
 10
306.9832829781
 20
109.4867639687
 30
0.0
 10
307.5842822422
 20
109.74452203
 30
0.0
 10
308.0809709177
 20
109.9651754127
 30
0.0
 10
308.3436431789
 20
110.0830766954
 30
0.0
  0
SPLINE
  5
4C6
100
AcDbEntity
  8
02___PRT_ALL_AXES
100
AcDbSpline
 62
7
  6
CONTINUOUS
 70
0
 71
3
 72
15
 73
11
 74
0
 42
0.0000001
 43
0.0000001
 44
0.0000000001
 40
0.0
 40
0.0
 40
0.0
 40
0.0
 40
0.1139784078
 40
0.2303261658
 40
0.3499310116
 40
0.4735088119
 40
0.6011309201
 40
0.7320911616
 40
0.8653465983
 40
1.0
 40
1.0
 40
1.0
 40
1.0
 10
301.6116397794
 20
113.4134325209
 30
0.0
 10
301.6674706811
 20
113.1892379357
 30
0.0
 10
301.7987395729
 20
112.7404211671
 30
0.0
 10
302.0671512586
 20
112.0822086408
 30
0.0
 10
302.4259623887
 20
111.4452821922
 30
0.0
 10
302.8853869299
 20
110.8470692384
 30
0.0
 10
303.4408648792
 20
110.3037467308
 30
0.0
 10
304.074286194
 20
109.8217905969
 30
0.0
 10
304.7636718164
 20
109.3974815747
 30
0.0
 10
305.2465315714
 20
109.148011373
 30
0.0
 10
305.4924246635
 20
109.0295249616
 30
0.0
  0
SPLINE
  5
4C7
100
AcDbEntity
  8
02___PRT_ALL_AXES
100
AcDbSpline
 62
7
  6
CONTINUOUS
 70
0
 71
3
 72
14
 73
10
 74
0
 42
0.0000001
 43
0.0000001
 44
0.0000000001
 40
0.0
 40
0.0
 40
0.0
 40
0.0
 40
0.2798186255
 40
0.4164518283
 40
0.5484140077
 40
0.6740269621
 40
0.7918504788
 40
0.9007475402
 40
1.0
 40
1.0
 40
1.0
 40
1.0
 10
301.2865266629
 20
113.1606400142
 30
0.0
 10
301.4986081009
 20
112.7364484446
 30
0.0
 10
301.8543543644
 20
112.1238760342
 30
0.0
 10
302.3974413483
 20
111.368963693
 30
0.0
 10
302.8243241247
 20
110.8542008494
 30
0.0
 10
303.2662840401
 20
110.3956224239
 30
0.0
 10
303.7156868854
 20
110.0011433363
 30
0.0
 10
304.1646589542
 20
109.677647547
 30
0.0
 10
304.4734904751
 20
109.504767149
 30
0.0
 10
304.6258764205
 20
109.4335192936
 30
0.0
  0
SPLINE
  5
4C8
100
AcDbEntity
  8
02___PRT_ALL_AXES
100
AcDbSpline
 62
9
  6
CONTINUOUS
 70
0
 71
3
 72
18
 73
14
 74
0
 42
0.0000001
 43
0.0000001
 44
0.0000000001
 40
0.0
 40
0.0
 40
0.0
 40
0.0
 40
0.1564210404
 40
0.3101382335
 40
0.4571097713
 40
0.5936918576
 40
0.7169925273
 40
0.7731084644
 40
0.825382192
 40
0.8738769775
 40
0.9188229343
 40
0.960647901
 40
1.0
 40
1.0
 40
1.0
 40
1.0
 10
300.8994948623
 20
112.9512980731
 30
0.0
 10
301.0485569
 20
112.6531538302
 30
0.0
 10
301.3704993066
 20
112.074795966
 30
0.0
 10
301.9186711537
 20
111.2680520848
 30
0.0
 10
302.5136754295
 20
110.5488658474
 30
0.0
 10
303.1351048067
 20
109.9418230039
 30
0.0
 10
303.6739722041
 20
109.5336671632
 30
0.0
 10
304.1017122607
 20
109.2859356433
 30
0.0
 10
304.4057333403
 20
109.145542016
 30
0.0
 10
304.700555669
 20
109.0459377517
 30
0.0
 10
304.9838567092
 20
108.9881574785
 30
0.0
 10
305.253210615
 20
108.9729649828
 30
0.0
 10
305.4262034641
 20
108.9922143752
 30
0.0
 10
305.5082970965
 20
109.0093293518
 30
0.0
  0
SPLINE
  5
4C9
100
AcDbEntity
  8
02___PRT_ALL_AXES
100
AcDbSpline
 62
7
  6
CONTINUOUS
 70
0
 71
3
 72
17
 73
13
 74
0
 42
0.0000001
 43
0.0000001
 44
0.0000000001
 40
0.0
 40
0.0
 40
0.0
 40
0.0
 40
0.1572622858
 40
0.3117126374
 40
0.4591774895
 40
0.5959137163
 40
0.7189814259
 40
0.8266692081
 40
0.8747932312
 40
0.9193609378
 40
0.960857627
 40
1.0
 40
1.0
 40
1.0
 40
1.0
 10
305.1827630598
 20
115.1641413698
 30
0.0
 10
305.2957195481
 20
114.9382131106
 30
0.0
 10
305.5398784294
 20
114.5002058469
 30
0.0
 10
305.9560679486
 20
113.8901166403
 30
0.0
 10
306.4077510328
 20
113.3478455638
 30
0.0
 10
306.879259098
 20
112.8921921037
 30
0.0
 10
307.3542624224
 20
112.538790541
 30
0.0
 10
307.7550395051
 20
112.3317754302
 30
0.0
 10
308.0626246556
 20
112.2345563561
 30
0.0
 10
308.2755440068
 20
112.1967184008
 30
0.0
 10
308.4774116516
 20
112.1916761006
 30
0.0
 10
308.6063503876
 20
112.2110330923
 30
0.0
 10
308.6673197607
 20
112.2263742296
 30
0.0
  0
SPLINE
  5
4CA
100
AcDbEntity
  8
02___PRT_ALL_AXES
100
AcDbSpline
 62
7
  6
CONTINUOUS
 70
0
 71
3
 72
17
 73
13
 74
0
 42
0.0000001
 43
0.0000001
 44
0.0000000001
 40
0.0
 40
0.0
 40
0.0
 40
0.0
 40
0.1624182685
 40
0.3192628405
 40
0.4668375687
 40
0.6020157316
 40
0.722588535
 40
0.8277177392
 40
0.8748680658
 40
0.9188499056
 40
0.9602840686
 40
1.0
 40
1.0
 40
1.0
 40
1.0
 10
305.1827630598
 20
115.1641413698
 30
0.0
 10
305.0764225291
 20
115.3768368185
 30
0.0
 10
304.884973587
 20
115.8040236477
 30
0.0
 10
304.6615682302
 20
116.4509732843
 30
0.0
 10
304.5113900967
 20
117.0780066246
 30
0.0
 10
304.439138385
 20
117.6656499358
 30
0.0
 10
304.4470334958
 20
118.1958164247
 30
0.0
 10
304.5237229832
 20
118.5912384561
 30
0.0
 10
304.6296425829
 20
118.8591758701
 30
0.0
 10
304.7257407057
 20
119.0286546656
 30
0.0
 10
304.8407256274
 20
119.1723330365
 30
0.0
 10
304.9307874609
 20
119.251040257
 30
0.0
 10
304.9780260175
 20
119.2849481674
 30
0.0
  0
SPLINE
  5
4CB
100
AcDbEntity
  8
02___PRT_ALL_AXES
100
AcDbSpline
 62
7
  6
CONTINUOUS
 70
0
 71
3
 72
14
 73
10
 74
0
 42
0.0000001
 43
0.0000001
 44
0.0000000001
 40
0.0
 40
0.0
 40
0.0
 40
0.0
 40
0.2818395425
 40
0.4178379827
 40
0.5487271167
 40
0.673287774
 40
0.7904958301
 40
0.8995626487
 40
1.0
 40
1.0
 40
1.0
 40
1.0
 10
301.2865266629
 20
113.1606400142
 30
0.0
 10
301.1033177848
 20
113.5270825578
 30
0.0
 10
300.8607974627
 20
114.0858604495
 30
0.0
 10
300.6095235013
 20
114.8432731318
 30
0.0
 10
300.4646699924
 20
115.3939975869
 30
0.0
 10
300.3631574479
 20
115.9265775236
 30
0.0
 10
300.3063270293
 20
116.4339754956
 30
0.0
 10
300.2949245458
 20
116.9093944978
 30
0.0
 10
300.318796793
 20
117.213771181
 30
0.0
 10
300.3394323911
 20
117.358303978
 30
0.0
  0
SPLINE
  5
4CC
100
AcDbEntity
  8
02___PRT_ALL_AXES
100
AcDbSpline
 62
7
  6
CONTINUOUS
 70
0
 71
3
 72
14
 73
10
 74
0
 42
0.0000001
 43
0.0000001
 44
0.0000000001
 40
0.0
 40
0.0
 40
0.0
 40
0.0
 40
0.1392783716
 40
0.2754181409
 40
0.4073672776
 40
0.5343648418
 40
0.6563469402
 40
0.7739807499
 40
1.0
 40
1.0
 40
1.0
 40
1.0
 10
300.4350229975
 20
118.0277463047
 30
0.0
 10
300.4026717271
 20
117.8012838339
 30
0.0
 10
300.3528679586
 20
117.3512081086
 30
0.0
 10
300.3342631724
 20
116.6814454173
 30
0.0
 10
300.3833003763
 20
116.0329769491
 30
0.0
 10
300.5062198043
 20
115.4177608902
 30
0.0
 10
300.7010667266
 20
114.8461144419
 30
0.0
 10
301.0385711014
 20
114.1579884937
 30
0.0
 10
301.3713809897
 20
113.6964317039
 30
0.0
 10
301.6116397794
 20
113.4134325209
 30
0.0
  0
SPLINE
  5
4CD
100
AcDbEntity
  8
02___PRT_ALL_AXES
100
AcDbSpline
 62
9
  6
CONTINUOUS
 70
0
 71
3
 72
17
 73
13
 74
0
 42
0.0000001
 43
0.0000001
 44
0.0000000001
 40
0.0
 40
0.0
 40
0.0
 40
0.0
 40
0.1593642777
 40
0.3137236381
 40
0.4597902935
 40
0.594717205
 40
0.7163829939
 40
0.82371823
 40
0.8721622663
 40
0.9173806056
 40
0.9597945471
 40
1.0
 40
1.0
 40
1.0
 40
1.0
 10
300.8994948623
 20
112.9512980731
 30
0.0
 10
300.7644224697
 20
113.221461133
 30
0.0
 10
300.519776038
 20
113.7642767878
 30
0.0
 10
300.2293443609
 20
114.5870356409
 30
0.0
 10
300.0265920185
 20
115.388202566
 30
0.0
 10
299.91725135
 20
116.1452083897
 30
0.0
 10
299.9043570547
 20
116.8368377127
 30
0.0
 10
299.9772102506
 20
117.3609699829
 30
0.0
 10
300.0892892415
 20
117.7258520838
 30
0.0
 10
300.194326328
 20
117.9622001771
 30
0.0
 10
300.3224994302
 20
118.1687686829
 30
0.0
 10
300.4252369209
 20
118.2880430534
 30
0.0
 10
300.4797844076
 20
118.3412538504
 30
0.0
  0
SPLINE
  5
4CE
100
AcDbEntity
  8
3_ALL_AXES
100
AcDbSpline
 62
7
  6
CONTINUOUS
 70
0
 71
3
 72
14
 73
10
 74
0
 42
0.0000001
 43
0.0000001
 44
0.0000000001
 40
0.0
 40
0.0
 40
0.0
 40
0.0
 40
0.3538065168
 40
0.5018511552
 40
0.6311162147
 40
0.742764449
 40
0.8388481959
 40
0.9228337447
 40
1.0
 40
1.0
 40
1.0
 40
1.0
 10
335.9851083104
 20
91.2260679722
 30
0.0
 10
336.1795930764
 20
91.2979319003
 30
0.0
 10
336.4521343183
 20
91.4109635374
 30
0.0
 10
336.7761425955
 20
91.5900664237
 30
0.0
 10
336.9648242702
 20
91.7187171995
 30
0.0
 10
337.1136140495
 20
91.8495616494
 30
0.0
 10
337.2221116125
 20
91.9830572764
 30
0.0
 10
337.2893327993
 20
92.1197767524
 30
0.0
 10
337.3049738114
 20
92.2147195316
 30
0.0
 10
337.3050001063
 20
92.2599404027
 30
0.0
  0
SPLINE
  5
4CF
100
AcDbEntity
  8
3_ALL_AXES
100
AcDbSpline
 62
7
  6
CONTINUOUS
 70
0
 71
3
 72
11
 73
7
 74
0
 42
0.0000001
 43
0.0000001
 44
0.0000000001
 40
0.0
 40
0.0
 40
0.0
 40
0.0
 40
0.2008951799
 40
0.4362546614
 40
0.7036335997
 40
1.0
 40
1.0
 40
1.0
 40
1.0
 10
313.8271159315
 20
98.2180434383
 30
0.0
 10
314.0633877996
 20
98.3053480889
 30
0.0
 10
314.5858958824
 20
98.4694254669
 30
0.0
 10
315.4430796914
 20
98.6796445163
 30
0.0
 10
316.4269630593
 20
98.870694335
 30
0.0
 10
317.1257119079
 20
98.978379517
 30
0.0
 10
317.4938034062
 20
99.0292450712
 30
0.0
  0
SPLINE
  5
4D0
100
AcDbEntity
  8
3_ALL_AXES
100
AcDbSpline
 62
7
  6
CONTINUOUS
 70
0
 71
3
 72
19
 73
15
 74
0
 42
0.0000001
 43
0.0000001
 44
0.0000000001
 40
0.0
 40
0.0
 40
0.0
 40
0.0
 40
0.202193786
 40
0.3845892295
 40
0.5450865575
 40
0.6820556604
 40
0.7413992431
 40
0.7945662181
 40
0.8416095156
 40
0.8827004369
 40
0.9181941367
 40
0.948747106
 40
0.975453704
 40
1.0
 40
1.0
 40
1.0
 40
1.0
 10
332.3213292912
 20
99.0227098611
 30
0.0
 10
332.6898822462
 20
98.971448305
 30
0.0
 10
333.3894604124
 20
98.8630116696
 30
0.0
 10
334.3743376779
 20
98.6707977596
 30
0.0
 10
335.2321590795
 20
98.4594556736
 30
0.0
 10
335.8591756038
 20
98.2618435899
 30
0.0
 10
336.2861959854
 20
98.0926489616
 30
0.0
 10
336.5526834352
 20
97.9688725706
 30
0.0
 10
336.7802793466
 20
97.8425117894
 30
0.0
 10
336.9684347811
 20
97.7138467641
 30
0.0
 10
337.1167478898
 20
97.5829472203
 30
0.0
 10
337.2249017718
 20
97.4495022634
 30
0.0
 10
337.2917652983
 20
97.3128243964
 30
0.0
 10
337.3072360325
 20
97.2179819133
 30
0.0
 10
337.3072095847
 20
97.1728089348
 30
0.0
  0
SPLINE
  5
4D1
100
AcDbEntity
  8
3_ALL_AXES
100
AcDbSpline
 62
7
  6
CONTINUOUS
 70
0
 71
3
 72
32
 73
28
 74
0
 42
0.0000001
 43
0.0000001
 44
0.0000000001
 40
0.0
 40
0.0
 40
0.0
 40
0.0
 40
0.0040147815
 40
0.0082182897
 40
0.0127752286
 40
0.0178135876
 40
0.029657453
 40
0.0442098831
 40
0.0616433038
 40
0.081996009
 40
0.1052248159
 40
0.131233362
 40
0.1598881942
 40
0.1910228211
 40
0.2599470884
 40
0.3362528727
 40
0.4179296345
 40
0.5027946127
 40
0.588565342
 40
0.6729311914
 40
0.7536250959
 40
0.8284952379
 40
0.8955790731
 40
0.9256606892
 40
0.9531876701
 40
0.9780116367
 40
1.0
 40
1.0
 40
1.0
 40
1.0
 10
312.5050146445
 20
92.2713007594
 30
0.0
 10
312.5049958527
 20
92.2389834467
 30
0.0
 10
312.5125997297
 20
92.1726084958
 30
0.0
 10
312.5463512338
 20
92.0747507874
 30
0.0
 10
312.6019447556
 20
91.9779425696
 30
0.0
 10
312.7105411407
 20
91.8431062423
 30
0.0
 10
312.9059359539
 20
91.6791294408
 30
0.0
 10
313.2091010353
 20
91.4972346602
 30
0.0
 10
313.5921835002
 20
91.3203582214
 30
0.0
 10
314.0530924702
 20
91.1497123596
 30
0.0
 10
314.5891985016
 20
90.9864034016
 30
0.0
 10
315.1969835741
 20
90.8316532291
 30
0.0
 10
315.8723610413
 20
90.6866104034
 30
0.0
 10
316.8918819742
 20
90.5012726622
 30
0.0
 10
318.2986337781
 20
90.3056770976
 30
0.0
 10
320.1170993267
 20
90.130200615
 30
0.0
 10
322.0687483555
 20
90.0123024616
 30
0.0
 10
324.0992923184
 20
89.9554389948
 30
0.0
 10
326.1522668747
 20
89.9613343001
 30
0.0
 10
328.1705210673
 20
90.0298134144
 30
0.0
 10
330.0979464708
 20
90.1587960163
 30
0.0
 10
331.8809508021
 20
90.3444821285
 30
0.0
 10
333.2513832332
 20
90.5482230069
 30
0.0
 10
334.2368133327
 20
90.7397664816
 30
0.0
 10
334.8836271879
 20
90.8885764796
 30
0.0
 10
335.4609475966
 20
91.0466804496
 30
0.0
 10
335.8190829261
 20
91.1647200501
 30
0.0
 10
335.9851083104
 20
91.2260679722
 30
0.0
  0
SPLINE
  5
4D2
100
AcDbEntity
  8
3_ALL_AXES
100
AcDbSpline
 62
7
  6
CONTINUOUS
 70
0
 71
3
 72
14
 73
10
 74
0
 42
0.0000001
 43
0.0000001
 44
0.0000000001
 40
0.0
 40
0.0
 40
0.0
 40
0.0
 40
0.0771662524
 40
0.161151853
 40
0.257235669
 40
0.3688839534
 40
0.4981490304
 40
0.6461936333
 40
1.0
 40
1.0
 40
1.0
 40
1.0
 10
312.5072241483
 20
97.1841727241
 30
0.0
 10
312.5072506241
 20
97.2293935498
 30
0.0
 10
312.5228919474
 20
97.3243362032
 30
0.0
 10
312.5901134832
 20
97.4610554114
 30
0.0
 10
312.6986112282
 20
97.59455079
 30
0.0
 10
312.8474010459
 20
97.7253950215
 30
0.0
 10
313.0360826296
 20
97.8540455675
 30
0.0
 10
313.3600905511
 20
98.033148149
 30
0.0
 10
313.6326314361
 20
98.1461796102
 30
0.0
 10
313.8271159315
 20
98.2180434383
 30
0.0
  0
SPLINE
  5
4D3
100
AcDbEntity
  8
3_ALL_AXES
100
AcDbSpline
 62
7
  6
CONTINUOUS
 70
0
 71
3
 72
14
 73
10
 74
0
 42
0.0000001
 43
0.0000001
 44
0.0000000001
 40
0.0
 40
0.0
 40
0.0
 40
0.0
 40
0.0771662524
 40
0.161151853
 40
0.257235669
 40
0.3688839534
 40
0.4981490304
 40
0.6461936333
 40
1.0
 40
1.0
 40
1.0
 40
1.0
 10
337.3072095847
 20
97.1728089348
 30
0.0
 10
337.3071831089
 20
97.1275881091
 30
0.0
 10
337.2915417856
 20
97.0326454557
 30
0.0
 10
337.2243202498
 20
96.8959262475
 30
0.0
 10
337.1158225048
 20
96.7624308689
 30
0.0
 10
336.9670326871
 20
96.6315866374
 30
0.0
 10
336.7783511034
 20
96.5029360914
 30
0.0
 10
336.4543431819
 20
96.3238335099
 30
0.0
 10
336.1818022969
 20
96.2108020487
 30
0.0
 10
335.9873178015
 20
96.1389382206
 30
0.0
  0
SPLINE
  5
4D4
100
AcDbEntity
  8
3_ALL_AXES
100
AcDbSpline
 62
7
  6
CONTINUOUS
 70
0
 71
3
 72
11
 73
7
 74
0
 42
0.0000001
 43
0.0000001
 44
0.0000000001
 40
0.0
 40
0.0
 40
0.0
 40
0.0
 40
0.3148785474
 40
0.5788478759
 40
0.8014948331
 40
1.0
 40
1.0
 40
1.0
 40
1.0
 10
317.787869934
 20
96.8063761246
 30
0.0
 10
317.7451630454
 20
96.8343904125
 30
0.0
 10
317.6692570676
 20
96.8902296175
 30
0.0
 10
317.5780472945
 20
96.9840062779
 30
0.0
 10
317.5207811433
 20
97.0809339288
 30
0.0
 10
317.5071942456
 20
97.1496987117
 30
0.0
 10
317.5072175057
 20
97.181897455
 30
0.0
  0
SPLINE
  5
4D5
100
AcDbEntity
  8
3_ALL_AXES
100
AcDbSpline
 62
7
  6
CONTINUOUS
 70
0
 71
3
 72
32
 73
28
 74
0
 42
0.0000001
 43
0.0000001
 44
0.0000000001
 40
0.0
 40
0.0
 40
0.0
 40
0.0
 40
0.0219883681
 40
0.0468123412
 40
0.0743393298
 40
0.1044209545
 40
0.1715048096
 40
0.2463749739
 40
0.3270689011
 40
0.4114347719
 40
0.4972055194
 40
0.5820705108
 40
0.6637472793
 40
0.7400530623
 40
0.8089773195
 40
0.840111938
 40
0.8687667594
 40
0.8947752921
 40
0.9180040841
 40
0.9383567715
 40
0.9557901739
 40
0.9703425845
 40
0.9821864313
 40
0.9872247823
 40
0.9917817152
 40
0.9959852195
 40
1.0
 40
1.0
 40
1.0
 40
1.0
 10
335.9873178015
 20
96.1389382206
 30
0.0
 10
335.8212923692
 20
96.0775902807
 30
0.0
 10
335.4631569264
 20
95.9595506479
 30
0.0
 10
334.8858363265
 20
95.8014466366
 30
0.0
 10
334.2390222431
 20
95.6526366051
 30
0.0
 10
333.2535917813
 20
95.4610930916
 30
0.0
 10
331.8831588413
 20
95.2573521884
 30
0.0
 10
330.1001538561
 20
95.0716660803
 30
0.0
 10
328.172727778
 20
94.9426835182
 30
0.0
 10
326.1544729382
 20
94.8742044798
 30
0.0
 10
324.1014978114
 20
94.8683092865
 30
0.0
 10
322.0709534023
 20
94.9251728987
 30
0.0
 10
320.1193040955
 20
95.043071225
 30
0.0
 10
318.300838474
 20
95.2185479004
 30
0.0
 10
316.8940867539
 20
95.4141436464
 30
0.0
 10
315.8745660141
 20
95.5994815427
 30
0.0
 10
315.1991887874
 20
95.7445244716
 30
0.0
 10
314.5914040228
 20
95.8992747568
 30
0.0
 10
314.0552983633
 20
96.0625838028
 30
0.0
 10
313.5943898341
 20
96.2332297747
 30
0.0
 10
313.2113078616
 20
96.4101062923
 30
0.0
 10
312.908143335
 20
96.5920011671
 30
0.0
 10
312.7127490319
 20
96.7559780515
 30
0.0
 10
312.6041531321
 20
96.8908144517
 30
0.0
 10
312.5485599431
 20
96.9876227066
 30
0.0
 10
312.5148088246
 20
97.0854804686
 30
0.0
 10
312.5072052272
 20
97.1518554168
 30
0.0
 10
312.5072241483
 20
97.1841727241
 30
0.0
  0
SPLINE
  5
4D6
100
AcDbEntity
  8
3_ALL_AXES
100
AcDbSpline
 62
7
  6
CONTINUOUS
 70
0
 71
3
 72
19
 73
15
 74
0
 42
0.0000001
 43
0.0000001
 44
0.0000000001
 40
0.0
 40
0.0
 40
0.0
 40
0.0
 40
0.0207578138
 40
0.0444717884
 40
0.0731391504
 40
0.1078388394
 40
0.1490632527
 40
0.1970002567
 40
0.2516306052
 40
0.3128260332
 40
0.4539239242
 40
0.6177774093
 40
0.8011035236
 40
1.0
 40
1.0
 40
1.0
 40
1.0
 10
332.3072162273
 20
97.1750842039
 30
0.0
 10
332.3071907498
 20
97.1398159548
 30
0.0
 10
332.2904358425
 20
97.0637688143
 30
0.0
 10
332.2215689768
 20
96.9582424855
 30
0.0
 10
332.1128419364
 20
96.8565502895
 30
0.0
 10
331.9646394168
 20
96.7575457911
 30
0.0
 10
331.7773296273
 20
96.6609373937
 30
0.0
 10
331.5515118796
 20
96.5671680898
 30
0.0
 10
331.2882615483
 20
96.4766476663
 30
0.0
 10
330.8688067294
 20
96.3552819068
 30
0.0
 10
330.2611786933
 20
96.2193857595
 30
0.0
 10
329.4425550755
 20
96.0832003288
 30
0.0
 10
328.5213382793
 20
95.9708052834
 30
0.0
 10
327.874160662
 20
95.9153680039
 30
0.0
 10
327.5370589515
 20
95.8916917786
 30
0.0
  0
SPLINE
  5
4D7
100
AcDbEntity
  8
3_ALL_AXES
100
AcDbSpline
 62
7
  6
CONTINUOUS
 70
0
 71
3
 72
27
 73
23
 74
0
 42
0.0000001
 43
0.0000001
 44
0.0000000001
 40
0.0
 40
0.0
 40
0.0
 40
0.0
 40
0.0467977418
 40
0.1044071379
 40
0.1714949584
 40
0.2463723186
 40
0.3270729531
 40
0.4114461454
 40
0.4972245475
 40
0.5820977062
 40
0.6637829762
 40
0.740097294
 40
0.8090297681
 40
0.8688193273
 40
0.8948313312
 40
0.9180640703
 40
0.9384201787
 40
0.9558568314
 40
0.9704126785
 40
0.982258893
 40
0.991827492
 40
1.0
 40
1.0
 40
1.0
 40
1.0
 10
346.7971422872
 20
90.2116658296
 30
0.0
 10
346.654678289
 20
90.1590240586
 30
0.0
 10
346.3284984187
 20
90.0644583369
 30
0.0
 10
345.783241651
 20
89.9515296898
 30
0.0
 10
345.1422833681
 20
89.8561826491
 30
0.0
 10
344.4233485099
 20
89.7813243873
 30
0.0
 10
343.6461826765
 20
89.7293118649
 30
0.0
 10
342.8323924707
 20
89.7016975132
 30
0.0
 10
342.0046004677
 20
89.699316674
 30
0.0
 10
341.1858443665
 20
89.7222364066
 30
0.0
 10
340.3989068869
 20
89.7697809021
 30
0.0
 10
339.6656233598
 20
89.8404932301
 30
0.0
 10
339.0063484579
 20
89.9322885426
 30
0.0
 10
338.5129172144
 20
90.0277058309
 30
0.0
 10
338.1698855397
 20
90.1149874888
 30
0.0
 10
337.9537082684
 20
90.1808403393
 30
0.0
 10
337.767832103
 20
90.249647832
 30
0.0
 10
337.6133835769
 20
90.3209576496
 30
0.0
 10
337.4910225607
 20
90.3943292881
 30
0.0
 10
337.4011365241
 20
90.4698739704
 30
0.0
 10
337.3436398519
 20
90.5485975639
 30
0.0
 10
337.3293697564
 20
90.6065563516
 30
0.0
 10
337.3293819514
 20
90.6330796389
 30
0.0
  0
SPLINE
  5
4D8
100
AcDbEntity
  8
7_ALL_FEATURES
100
AcDbSpline
 62
7
  6
CONTINUOUS
 70
0
 71
3
 72
11
 73
7
 74
0
 42
0.0000001
 43
0.0000001
 44
0.0000000001
 40
0.0
 40
0.0
 40
0.0
 40
0.0
 40
0.289887833
 40
0.5472662208
 40
0.7802578273
 40
1.0
 40
1.0
 40
1.0
 40
1.0
 10
312.0619309079
 20
82.5940695737
 30
0.0
 10
312.0058315305
 20
82.6482482587
 30
0.0
 10
311.9057587546
 20
82.757022201
 30
0.0
 10
311.7898181731
 20
82.9334008336
 30
0.0
 10
311.7190137475
 20
83.112510942
 30
0.0
 10
311.7029166822
 20
83.2348107292
 30
0.0
 10
311.7029367824
 20
83.2939292271
 30
0.0
  0
SPLINE
  5
4D9
100
AcDbEntity
  8
7_ALL_FEATURES
100
AcDbSpline
 62
7
  6
CONTINUOUS
 70
0
 71
3
 72
11
 73
7
 74
0
 42
0.0000001
 43
0.0000001
 44
0.0000000001
 40
0.0
 40
0.0
 40
0.0
 40
0.0
 40
0.1950478022
 40
0.4257566814
 40
0.6939726092
 40
1.0
 40
1.0
 40
1.0
 40
1.0
 10
350.6522304955
 20
82.103105747
 30
0.0
 10
350.5602672801
 20
82.0144404893
 30
0.0
 10
350.3404640387
 20
81.8406534918
 30
0.0
 10
349.9505507228
 20
81.6057390205
 30
0.0
 10
349.4752427539
 20
81.3762956828
 30
0.0
 10
349.1257065681
 20
81.2367655048
 30
0.0
 10
348.9377008681
 20
81.1672956518
 30
0.0
  0
SPLINE
  5
4DA
100
AcDbEntity
  8
7_ALL_FEATURES
100
AcDbSpline
 62
7
  6
CONTINUOUS
 70
0
 71
3
 72
18
 73
14
 74
0
 42
0.0000001
 43
0.0000001
 44
0.0000000001
 40
0.0
 40
0.0
 40
0.0
 40
0.0
 40
0.1782099493
 40
0.3460196572
 40
0.5005417098
 40
0.6391819588
 40
0.7597257538
 40
0.8126634316
 40
0.8604843948
 40
0.9030950872
 40
0.9404664299
 40
0.9726861445
 40
1.0
 40
1.0
 40
1.0
 40
1.0
 10
337.3144532771
 20
95.0806779357
 30
0.0
 10
338.1311107021
 20
95.0335990916
 30
0.0
 10
339.7156614549
 20
94.9210679071
 30
0.0
 10
342.001917691
 20
94.6896909429
 30
0.0
 10
344.099057805
 20
94.4043472637
 30
0.0
 10
345.9690510276
 20
94.070530268
 30
0.0
 10
347.3654439561
 20
93.7452988227
 30
0.0
 10
348.3404616274
 20
93.459379156
 30
0.0
 10
348.9633504716
 20
93.2462043071
 30
0.0
 10
349.5074985284
 20
93.0260757238
 30
0.0
 10
349.9707917497
 20
92.7997752437
 30
0.0
 10
350.3514932163
 20
92.5684257718
 30
0.0
 10
350.5664270207
 20
92.3975773865
 30
0.0
 10
350.6566161073
 20
92.3104863182
 30
0.0
  0
SPLINE
  5
4DB
100
AcDbEntity
  8
7_ALL_FEATURES
100
AcDbSpline
 62
7
  6
CONTINUOUS
 70
0
 71
3
 72
11
 73
7
 74
0
 42
0.0000001
 43
0.0000001
 44
0.0000000001
 40
0.0
 40
0.0
 40
0.0
 40
0.0
 40
0.289887833
 40
0.5472662208
 40
0.7802578273
 40
1.0
 40
1.0
 40
1.0
 40
1.0
 10
351.1474546642
 20
91.8364818241
 30
0.0
 10
351.2035540416
 20
91.7823031392
 30
0.0
 10
351.3036268175
 20
91.6735291968
 30
0.0
 10
351.419567399
 20
91.4971505642
 30
0.0
 10
351.4903718246
 20
91.3180404558
 30
0.0
 10
351.5064688899
 20
91.1957406686
 30
0.0
 10
351.5064487897
 20
91.1366221707
 30
0.0
  0
SPLINE
  5
4DC
100
AcDbEntity
  8
7_ALL_FEATURES
100
AcDbSpline
 62
7
  6
CONTINUOUS
 70
0
 71
3
 72
28
 73
24
 74
0
 42
0.0000001
 43
0.0000001
 44
0.0000000001
 40
0.0
 40
0.0
 40
0.0
 40
0.0
 40
0.0207618709
 40
0.0440300616
 40
0.0696975785
 40
0.0976455567
 40
0.1598017709
 40
0.2291626582
 40
0.304169101
 40
0.3831015746
 40
0.4641336309
 40
0.5453824319
 40
0.6249593656
 40
0.7010205498
 40
0.7718175493
 40
0.8357492324
 40
0.8914181576
 40
0.9157946537
 40
0.937713341
 40
0.9570969194
 40
0.9739084901
 40
0.9881707076
 40
1.0
 40
1.0
 40
1.0
 40
1.0
 10
348.9377008681
 20
81.1672956518
 30
0.0
 10
348.6975491511
 20
81.078557361
 30
0.0
 10
348.182006069
 20
80.9071596236
 30
0.0
 10
347.3540471723
 20
80.6757092488
 30
0.0
 10
346.4314003015
 20
80.4566467451
 30
0.0
 10
345.0320716932
 20
80.1728098147
 30
0.0
 10
343.0889258623
 20
79.8652410465
 30
0.0
 10
340.5582203534
 20
79.5750265717
 30
0.0
 10
337.812521173
 20
79.3597523011
 30
0.0
 10
334.9177108399
 20
79.2248740078
 30
0.0
 10
331.9432437208
 20
79.1738919613
 30
0.0
 10
328.9605955145
 20
79.2081012881
 30
0.0
 10
326.0414239514
 20
79.3266278139
 30
0.0
 10
323.2558465224
 20
79.5264576823
 30
0.0
 10
320.6705580327
 20
79.8023544643
 30
0.0
 10
318.3474777372
 20
80.1473077169
 30
0.0
 10
316.6056890517
 20
80.4979330254
 30
0.0
 10
315.3884726081
 20
80.814346088
 30
0.0
 10
314.6140470259
 20
81.0525752601
 30
0.0
 10
313.9413054548
 20
81.3007302306
 30
0.0
 10
313.3736818396
 20
81.5574515855
 30
0.0
 10
312.9140211052
 20
81.8211039317
 30
0.0
 10
312.6577025279
 20
82.0187364943
 30
0.0
 10
312.5527694648
 20
82.1200650797
 30
0.0
  0
SPLINE
  5
4DD
100
AcDbEntity
  8
7_ALL_FEATURES
100
AcDbSpline
 62
7
  6
CONTINUOUS
 70
0
 71
3
 72
11
 73
7
 74
0
 42
0.0000001
 43
0.0000001
 44
0.0000000001
 40
0.0
 40
0.0
 40
0.0
 40
0.0
 40
0.2197469334
 40
0.4527676054
 40
0.7101421542
 40
1.0
 40
1.0
 40
1.0
 40
1.0
 10
311.7064719681
 20
91.1545216245
 30
0.0
 10
311.7064920683
 20
91.2136401108
 30
0.0
 10
311.7226854483
 20
91.3359397949
 30
0.0
 10
311.793722327
 20
91.5149616725
 30
0.0
 10
311.9097820054
 20
91.6912467857
 30
0.0
 10
312.0099304413
 20
91.7999384642
 30
0.0
 10
312.066072418
 20
91.8540589252
 30
0.0
  0
SPLINE
  5
4DE
100
AcDbEntity
  8
7_ALL_FEATURES
100
AcDbSpline
 62
7
  6
CONTINUOUS
 70
0
 71
3
 72
11
 73
7
 74
0
 42
0.0000001
 43
0.0000001
 44
0.0000000001
 40
0.0
 40
0.0
 40
0.0
 40
0.0
 40
0.2197469334
 40
0.4527676054
 40
0.7101421542
 40
1.0
 40
1.0
 40
1.0
 40
1.0
 10
351.502913604
 20
83.2760297733
 30
0.0
 10
351.5028935038
 20
83.216911287
 30
0.0
 10
351.4867001238
 20
83.0946116029
 30
0.0
 10
351.4156632451
 20
82.9155897254
 30
0.0
 10
351.2996035667
 20
82.7393046121
 30
0.0
 10
351.1994551308
 20
82.6306129336
 30
0.0
 10
351.1433131541
 20
82.5764924726
 30
0.0
  0
SPLINE
  5
4DF
100
AcDbEntity
  8
3_ALL_AXES
100
AcDbSpline
 62
7
  6
CONTINUOUS
 70
0
 71
3
 72
13
 73
9
 74
0
 42
0.0000001
 43
0.0000001
 44
0.0000000001
 40
0.0
 40
0.0
 40
0.0
 40
0.0
 40
0.0771887649
 40
0.1611781147
 40
0.2572842696
 40
0.3689657597
 40
0.6461653544
 40
1.0
 40
1.0
 40
1.0
 40
1.0
 10
347.329337353
 20
90.6286008985
 30
0.0
 10
347.3293289688
 20
90.6103659089
 30
0.0
 10
347.3230474636
 20
90.5720838921
 30
0.0
 10
347.2959745906
 20
90.5169408247
 30
0.0
 10
347.2522285832
 20
90.4631096906
 30
0.0
 10
347.165858753
 20
90.387251463
 30
0.0
 10
347.0133300509
 20
90.2980301669
 30
0.0
 10
346.8755502222
 20
90.2406382901
 30
0.0
 10
346.7971422872
 20
90.2116658296
 30
0.0
  0
SPLINE
  5
4E0
100
AcDbEntity
  8
3_ALL_AXES
100
AcDbSpline
 62
7
  6
CONTINUOUS
 70
0
 71
3
 72
9
 73
5
 74
0
 42
0.0000001
 43
0.0000001
 44
0.0000000001
 40
0.0
 40
0.0
 40
0.0
 40
0.0
 40
0.2645302246
 40
1.0
 40
1.0
 40
1.0
 40
1.0
 10
337.8612676884
 20
90.362212873
 30
0.0
 10
337.8455915229
 20
90.3564203842
 30
0.0
 10
337.786522805
 20
90.3340148854
 30
0.0
 10
337.728232156
 20
90.3095055037
 30
0.0
 10
337.6860962034
 20
90.2899220831
 30
0.0
  0
SPLINE
  5
4E1
100
AcDbEntity
  8
7_ALL_FEATURES
100
AcDbSpline
 62
7
  6
CONTINUOUS
 70
0
 71
3
 72
36
 73
32
 74
0
 42
0.0000001
 43
0.0000001
 44
0.0000000001
 40
0.0
 40
0.0
 40
0.0
 40
0.0
 40
0.0230580331
 40
0.0492557978
 40
0.0784349002
 40
0.1104159623
 40
0.1818750153
 40
0.261583846
 40
0.3471698522
 40
0.4360464343
 40
0.5255111826
 40
0.6128412055
 40
0.6953881938
 40
0.7340871386
 40
0.7706802267
 40
0.80490183
 40
0.8365082336
 40
0.8652856399
 40
0.891053742
 40
0.9136733238
 40
0.9330643666
 40
0.9492283629
 40
0.9623084658
 40
0.9678171622
 40
0.9727467606
 40
0.9772318255
 40
0.9814544745
 40
0.9856327253
 40
0.98999203
 40
0.9947302808
 40
1.0
 40
1.0
 40
1.0
 40
1.0
 10
348.9416779521
 20
90.0104620989
 30
0.0
 10
348.6643760128
 20
89.9079964558
 30
0.0
 10
348.0636788403
 20
89.7115376994
 30
0.0
 10
347.0922592541
 20
89.450296755
 30
0.0
 10
345.9989810505
 20
89.2056732819
 30
0.0
 10
344.3274266399
 20
88.8928095826
 30
0.0
 10
342.0009268442
 20
88.5658742691
 30
0.0
 10
338.9784213201
 20
88.2780918289
 30
0.0
 10
335.7242693186
 20
88.0922514208
 30
0.0
 10
332.3407357582
 20
88.014543438
 30
0.0
 10
328.9340974678
 20
88.0476518558
 30
0.0
 10
325.6115288924
 20
88.1905100557
 30
0.0
 10
322.9449205276
 20
88.4010741171
 30
0.0
 10
320.9335088749
 20
88.6247021166
 30
0.0
 10
319.541877613
 20
88.8123131851
 30
0.0
 10
318.2453817127
 20
89.0218126017
 30
0.0
 10
317.05417292
 20
89.2515283744
 30
0.0
 10
315.9775302822
 20
89.4995199846
 30
0.0
 10
315.023698667
 20
89.7637024602
 30
0.0
 10
314.1998770255
 20
90.0418654383
 30
0.0
 10
313.5115599782
 20
90.3317551043
 30
0.0
 10
312.9633216141
 20
90.6311298581
 30
0.0
 10
312.6053835371
 20
90.9019305623
 30
0.0
 10
312.4023023897
 20
91.1260444406
 30
0.0
 10
312.2964023187
 20
91.2865035655
 30
0.0
 10
312.2288362547
 20
91.4491270082
 30
0.0
 10
312.2008201294
 20
91.6135185049
 30
0.0
 10
312.2132563604
 20
91.7782621002
 30
0.0
 10
312.2658024047
 20
91.9416261557
 30
0.0
 10
312.3570550329
 20
92.1028028914
 30
0.0
 10
312.4382127756
 20
92.2028874959
 30
0.0
 10
312.4839484198
 20
92.2526170744
 30
0.0
  0
SPLINE
  5
4E2
100
AcDbEntity
  8
7_ALL_FEATURES
100
AcDbSpline
 62
7
  6
CONTINUOUS
 70
0
 71
3
 72
32
 73
28
 74
0
 42
0.0000001
 43
0.0000001
 44
0.0000000001
 40
0.0
 40
0.0
 40
0.0
 40
0.0
 40
0.0219880641
 40
0.0468116505
 40
0.0743381769
 40
0.1044192717
 40
0.1715019057
 40
0.2463707119
 40
0.3270632494
 40
0.4114278108
 40
0.4971974428
 40
0.582061621
 40
0.6637379772
 40
0.7400438311
 40
0.8089687022
 40
0.8401038417
 40
0.8687593278
 40
0.8947686655
 40
0.9179983954
 40
0.938352138
 40
0.9557866868
 40
0.9703402851
 40
0.9821852642
 40
0.9872241007
 40
0.9917814201
 40
0.9959851657
 40
1.0
 40
1.0
 40
1.0
 40
1.0
 10
349.3882352665
 20
89.4772576302
 30
0.0
 10
349.1217960635
 20
89.378805869
 30
0.0
 10
348.54705754
 20
89.1893745588
 30
0.0
 10
347.6205697968
 20
88.9356469993
 30
0.0
 10
346.5825597728
 20
88.6968342219
 30
0.0
 10
345.0011383319
 20
88.3894415438
 30
0.0
 10
342.8018645023
 20
88.0624727492
 30
0.0
 10
339.9404932144
 20
87.7644761307
 30
0.0
 10
336.8473514979
 20
87.5574760251
 30
0.0
 10
333.6084416295
 20
87.4475706864
 30
0.0
 10
330.313803829
 20
87.4380988018
 30
0.0
 10
327.0551515639
 20
87.5293414725
 30
0.0
 10
323.9230967847
 20
87.7185323453
 30
0.0
 10
321.0047602057
 20
88.0001252078
 30
0.0
 10
318.7471424728
 20
88.31400704
 30
0.0
 10
317.1109570487
 20
88.6114290792
 30
0.0
 10
316.0270619182
 20
88.8441890899
 30
0.0
 10
315.0516352386
 20
89.0925280655
 30
0.0
 10
314.1912354681
 20
89.3546028023
 30
0.0
 10
313.4515086591
 20
89.6284526555
 30
0.0
 10
312.8366750497
 20
89.9123019447
 30
0.0
 10
312.3500908257
 20
90.2042053652
 30
0.0
 10
312.0364635663
 20
90.4673528263
 30
0.0
 10
311.8621382494
 20
90.6837373591
 30
0.0
 10
311.7728854388
 20
90.8390943771
 30
0.0
 10
311.7186834622
 20
90.9961357831
 30
0.0
 10
311.7064543342
 20
91.1026570832
 30
0.0
 10
311.7064719681
 20
91.1545216245
 30
0.0
  0
SPLINE
  5
4E3
100
AcDbEntity
  8
7_ALL_FEATURES
100
AcDbSpline
 62
7
  6
CONTINUOUS
 70
0
 71
3
 72
19
 73
15
 74
0
 42
0.0000001
 43
0.0000001
 44
0.0000000001
 40
0.0
 40
0.0
 40
0.0
 40
0.0
 40
0.0560262072
 40
0.106532768
 40
0.1525846305
 40
0.1956240746
 40
0.2374220711
 40
0.2799135445
 40
0.3736853943
 40
0.42803132
 40
0.4884652134
 40
0.6296045148
 40
0.7998941369
 40
1.0
 40
1.0
 40
1.0
 40
1.0
 10
350.6566161073
 20
92.3104863182
 30
0.0
 10
350.7041421818
 20
92.2645927766
 30
0.0
 10
350.7901346338
 20
92.172523022
 30
0.0
 10
350.8944818037
 20
92.0251362889
 30
0.0
 10
350.9664365479
 20
91.8760638281
 30
0.0
 10
351.0052283031
 20
91.7254963846
 30
0.0
 10
351.0100823413
 20
91.5741574908
 30
0.0
 10
350.9698303033
 20
91.3664370094
 30
0.0
 10
350.8573374314
 20
91.1654347144
 30
0.0
 10
350.6957233466
 20
90.9799309743
 30
0.0
 10
350.4719893102
 20
90.776341568
 30
0.0
 10
350.1067019565
 20
90.530261807
 30
0.0
 10
349.568454485
 20
90.2561070595
 30
0.0
 10
349.1630211411
 20
90.0922504639
 30
0.0
 10
348.9416779521
 20
90.0104620989
 30
0.0
  0
SPLINE
  5
4E4
100
AcDbEntity
  8
3_ALL_AXES
100
AcDbSpline
 62
7
  6
CONTINUOUS
 70
0
 71
3
 72
27
 73
23
 74
0
 42
0.0000001
 43
0.0000001
 44
0.0000000001
 40
0.0
 40
0.0
 40
0.0
 40
0.0
 40
0.0467977418
 40
0.1044071379
 40
0.1714949584
 40
0.2463723186
 40
0.3270729531
 40
0.4114461454
 40
0.4972245475
 40
0.5820977062
 40
0.6637829762
 40
0.740097294
 40
0.8090297681
 40
0.8688193273
 40
0.8948313312
 40
0.9180640703
 40
0.9384201787
 40
0.9558568314
 40
0.9704126785
 40
0.982258893
 40
0.991827492
 40
1.0
 40
1.0
 40
1.0
 40
1.0
 10
337.8615770171
 20
91.0500147078
 30
0.0
 10
338.0040410153
 20
91.1026564788
 30
0.0
 10
338.3302208857
 20
91.1972222005
 30
0.0
 10
338.8754776534
 20
91.3101508477
 30
0.0
 10
339.5164359363
 20
91.4054978883
 30
0.0
 10
340.2353707944
 20
91.4803561501
 30
0.0
 10
341.0125366278
 20
91.5323686725
 30
0.0
 10
341.8263268336
 20
91.5599830242
 30
0.0
 10
342.6541188366
 20
91.5623638634
 30
0.0
 10
343.4728749379
 20
91.5394441309
 30
0.0
 10
344.2598124175
 20
91.4918996353
 30
0.0
 10
344.9930959446
 20
91.4211873073
 30
0.0
 10
345.6523708465
 20
91.3293919948
 30
0.0
 10
346.14580209
 20
91.2339747065
 30
0.0
 10
346.4888337646
 20
91.1466930486
 30
0.0
 10
346.705011036
 20
91.0808401981
 30
0.0
 10
346.8908872013
 20
91.0120327054
 30
0.0
 10
347.0453357274
 20
90.9407228879
 30
0.0
 10
347.1676967436
 20
90.8673512493
 30
0.0
 10
347.2575827803
 20
90.791806567
 30
0.0
 10
347.3150794525
 20
90.7130829736
 30
0.0
 10
347.3293495479
 20
90.6551241858
 30
0.0
 10
347.329337353
 20
90.6286008985
 30
0.0
  0
SPLINE
  5
4E5
100
AcDbEntity
  8
7_ALL_FEATURES
100
AcDbSpline
 62
7
  6
CONTINUOUS
 70
0
 71
3
 72
28
 73
24
 74
0
 42
0.0000001
 43
0.0000001
 44
0.0000000001
 40
0.0
 40
0.0
 40
0.0
 40
0.0
 40
0.0201662525
 40
0.0426738609
 40
0.0674280472
 40
0.0943236861
 40
0.1540343791
 40
0.220637061
 40
0.292763948
 40
0.3689023281
 40
0.4474386956
 40
0.526700314
 40
0.6049967142
 40
0.6806610625
 40
0.7520916138
 40
0.8177936207
 40
0.8764232207
 40
0.9027228837
 40
0.926845281
 40
0.9486924455
 40
0.9681880512
 40
0.9852903275
 40
1.0
 40
1.0
 40
1.0
 40
1.0
 10
349.3847000807
 20
81.6166652327
 30
0.0
 10
349.1493958036
 20
81.529718116
 30
0.0
 10
348.6456208314
 20
81.361434384
 30
0.0
 10
347.8382955185
 20
81.1331650653
 30
0.0
 10
346.9414362506
 20
80.9164648079
 30
0.0
 10
345.5849448452
 20
80.6347419461
 30
0.0
 10
343.703352149
 20
80.3264964211
 30
0.0
 10
341.2521532541
 20
80.0305195063
 30
0.0
 10
338.588444962
 20
79.8041369014
 30
0.0
 10
335.7708528422
 20
79.65260016
 30
0.0
 10
332.861382967
 20
79.5795009031
 30
0.0
 10
329.9241716842
 20
79.5865376172
 30
0.0
 10
327.0239667606
 20
79.6735475141
 30
0.0
 10
324.2246958302
 20
79.8385113065
 30
0.0
 10
321.5879423951
 20
80.0775177723
 30
0.0
 10
319.1717223209
 20
80.3850177541
 30
0.0
 10
317.3241192192
 20
80.702355059
 30
0.0
 10
315.9984185709
 20
80.990877472
 30
0.0
 10
315.1267922961
 20
81.2117968182
 30
0.0
 10
314.3459100887
 20
81.4437439384
 30
0.0
 10
313.6598334746
 20
81.6854932942
 30
0.0
 10
313.07212894
 20
81.9355417018
 30
0.0
 10
312.7215053803
 20
82.1207404902
 30
0.0
 10
312.5653673647
 20
82.2161446552
 30
0.0
  0
SPLINE
  5
4E6
100
AcDbEntity
  8
7_ALL_FEATURES
100
AcDbSpline
 62
7
  6
CONTINUOUS
 70
0
 71
3
 72
9
 73
5
 74
0
 42
0.0000001
 43
0.0000001
 44
0.0000000001
 40
0.0
 40
0.0
 40
0.0
 40
0.0
 40
0.532734141
 40
1.0
 40
1.0
 40
1.0
 40
1.0
 10
312.5653673647
 20
82.2161446552
 30
0.0
 10
312.4698383223
 20
82.274515248
 30
0.0
 10
312.2946334698
 20
82.3910931376
 30
0.0
 10
312.1325623016
 20
82.5258564098
 30
0.0
 10
312.0619309079
 20
82.5940695737
 30
0.0
  0
SPLINE
  5
4E7
100
AcDbEntity
  8
7_ALL_FEATURES
100
AcDbSpline
 62
7
  6
CONTINUOUS
 70
0
 71
3
 72
9
 73
5
 74
0
 42
0.0000001
 43
0.0000001
 44
0.0000000001
 40
0.0
 40
0.0
 40
0.0
 40
0.0
 40
0.4661589434
 40
1.0
 40
1.0
 40
1.0
 40
1.0
 10
351.1433131541
 20
82.5764924726
 30
0.0
 10
351.0698579232
 20
82.5056821594
 30
0.0
 10
350.9004884997
 20
82.3659408223
 30
0.0
 10
350.7172390136
 20
82.2456676672
 30
0.0
 10
350.6171151847
 20
82.1854410578
 30
0.0
  0
SPLINE
  5
4E8
100
AcDbEntity
  8
7_ALL_FEATURES
100
AcDbSpline
 62
7
  6
CONTINUOUS
 70
0
 71
3
 72
9
 73
5
 74
0
 42
0.0000001
 43
0.0000001
 44
0.0000000001
 40
0.0
 40
0.0
 40
0.0
 40
0.0
 40
0.4591425489
 40
1.0
 40
1.0
 40
1.0
 40
1.0
 10
350.6171151847
 20
82.1854410578
 30
0.0
 10
350.4389155364
 20
82.0782501848
 30
0.0
 10
350.0346892784
 20
81.8715991038
 30
0.0
 10
349.6144796467
 20
81.7015709174
 30
0.0
 10
349.3847000807
 20
81.6166652327
 30
0.0
  0
SPLINE
  5
4E9
100
AcDbEntity
  8
3_ALL_AXES
100
AcDbSpline
 62
7
  6
CONTINUOUS
 70
0
 71
3
 72
13
 73
9
 74
0
 42
0.0000001
 43
0.0000001
 44
0.0000000001
 40
0.0
 40
0.0
 40
0.0
 40
0.0
 40
0.0771887649
 40
0.1611781147
 40
0.2572842696
 40
0.3689657597
 40
0.6461653544
 40
1.0
 40
1.0
 40
1.0
 40
1.0
 10
337.3293819514
 20
90.6330796389
 30
0.0
 10
337.3293903355
 20
90.6513146285
 30
0.0
 10
337.3356718407
 20
90.6895966453
 30
0.0
 10
337.3627447137
 20
90.7447397127
 30
0.0
 10
337.4064907212
 20
90.7985708468
 30
0.0
 10
337.4928605514
 20
90.8744290744
 30
0.0
 10
337.6453892534
 20
90.9636503706
 30
0.0
 10
337.7831690822
 20
91.0210422473
 30
0.0
 10
337.8615770171
 20
91.0500147078
 30
0.0
  0
SPLINE
  5
4EA
100
AcDbEntity
  8
7_ALL_FEATURES
100
AcDbSpline
 62
7
  6
CONTINUOUS
 70
0
 71
3
 72
15
 73
11
 74
0
 42
0.0000001
 43
0.0000001
 44
0.0000000001
 40
0.0
 40
0.0
 40
0.0
 40
0.0
 40
0.0771550612
 40
0.1611251088
 40
0.2571906515
 40
0.3688191433
 40
0.4980635974
 40
0.6460870988
 40
0.8133926172
 40
1.0
 40
1.0
 40
1.0
 40
1.0
 10
351.5064487897
 20
91.1366221707
 30
0.0
 10
351.5064241137
 20
91.0640453902
 30
0.0
 10
351.4813565201
 20
90.9116644522
 30
0.0
 10
351.3735082935
 20
90.6922255399
 30
0.0
 10
351.1994034488
 20
90.4779646165
 30
0.0
 10
350.9606252502
 20
90.267952093
 30
0.0
 10
350.6578069324
 20
90.0614977859
 30
0.0
 10
350.2914766073
 20
89.8588367967
 30
0.0
 10
349.8626829335
 20
89.6604562947
 30
0.0
 10
349.5528885191
 20
89.5380985369
 30
0.0
 10
349.3882352665
 20
89.4772576302
 30
0.0
  0
SPLINE
  5
4EB
100
AcDbEntity
  8
3_ALL_AXES
100
AcDbSpline
 62
7
  6
CONTINUOUS
 70
0
 71
3
 72
19
 73
15
 74
0
 42
0.0000001
 43
0.0000001
 44
0.0000000001
 40
0.0
 40
0.0
 40
0.0
 40
0.0
 40
0.0411403696
 40
0.0905551687
 40
0.1474420395
 40
0.2108395527
 40
0.3524075083
 40
0.5047703892
 40
0.6564607963
 40
0.7960699043
 40
0.85805722
 40
0.9132964245
 40
0.9608447455
 40
1.0
 40
1.0
 40
1.0
 40
1.0
 10
337.8612676884
 20
90.362212873
 30
0.0
 10
337.9783639508
 20
90.40548103
 30
0.0
 10
338.2418167997
 20
90.4851800731
 30
0.0
 10
338.6783599087
 20
90.584007026
 30
0.0
 10
339.1860922779
 20
90.6710377791
 30
0.0
 10
339.9742968292
 20
90.7725837876
 30
0.0
 10
341.0562449374
 20
90.8542528513
 30
0.0
 10
342.408647465
 20
90.8839410482
 30
0.0
 10
343.7548720896
 20
90.8451987676
 30
0.0
 10
344.8239794056
 20
90.7562381771
 30
0.0
 10
345.5960875896
 20
90.6490924298
 30
0.0
 10
346.0880712035
 20
90.5587112801
 30
0.0
 10
346.5068380898
 20
90.4571091981
 30
0.0
 10
346.7574778744
 20
90.3753508598
 30
0.0
 10
346.8676917348
 20
90.3309778686
 30
0.0
  0
SPLINE
  5
4EC
100
AcDbEntity
  8
3_ALL_AXES
100
AcDbSpline
 62
7
  6
CONTINUOUS
 70
0
 71
3
 72
9
 73
5
 74
0
 42
0.0000001
 43
0.0000001
 44
0.0000000001
 40
0.0
 40
0.0
 40
0.0
 40
0.0
 40
0.2592313413
 40
1.0
 40
1.0
 40
1.0
 40
1.0
 10
346.8676917348
 20
90.3309778686
 30
0.0
 10
346.8767035766
 20
90.3273496283
 30
0.0
 10
346.9113846471
 20
90.3131501046
 30
0.0
 10
346.9457264193
 20
90.2981141954
 30
0.0
 10
346.9709018916
 20
90.2864160097
 30
0.0
  0
SPLINE
  5
4ED
100
AcDbEntity
  8
3_ALL_AXES
100
AcDbSpline
 62
7
  6
CONTINUOUS
 70
0
 71
3
 72
17
 73
13
 74
0
 42
0.0000001
 43
0.0000001
 44
0.0000000001
 40
0.0
 40
0.0
 40
0.0
 40
0.0
 40
0.0247134323
 40
0.0577127575
 40
0.098642144
 40
0.146972587
 40
0.2629682168
 40
0.399157486
 40
0.5483405112
 40
0.7031850382
 40
0.8562242787
 40
1.0
 40
1.0
 40
1.0
 40
1.0
 10
338.2419470164
 20
109.9996098864
 30
0.0
 10
338.1787362753
 20
109.9653917867
 30
0.0
 10
338.0260245691
 20
109.8950692643
 30
0.0
 10
337.7587306763
 20
109.7907259211
 30
0.0
 10
337.4226084104
 20
109.6744387252
 30
0.0
 10
336.8534260143
 20
109.4942791419
 30
0.0
 10
336.0133820648
 20
109.2525599864
 30
0.0
 10
334.889247406
 20
108.9379372733
 30
0.0
 10
333.6606536293
 20
108.5772268773
 30
0.0
 10
332.3976102742
 20
108.1612349093
 30
0.0
 10
331.1726551532
 20
107.6846718342
 30
0.0
 10
330.392272141
 20
107.3124986489
 30
0.0
 10
330.0244618586
 20
107.1135534502
 30
0.0
  0
SPLINE
  5
4EE
100
AcDbEntity
  8
7_ALL_FEATURES
100
AcDbSpline
 62
7
  6
CONTINUOUS
 70
0
 71
3
 72
14
 73
10
 74
0
 42
0.0000001
 43
0.0000001
 44
0.0000000001
 40
0.0
 40
0.0
 40
0.0
 40
0.0
 40
0.1245199639
 40
0.2487578131
 40
0.3728516309
 40
0.4970989
 40
0.6218707746
 40
0.7474056661
 40
1.0
 40
1.0
 40
1.0
 40
1.0
 10
319.1036220716
 20
104.9808636838
 30
0.0
 10
318.3974417765
 20
105.1795824918
 30
0.0
 10
317.0104794812
 20
105.667009025
 30
0.0
 10
315.0385047828
 20
106.6460286925
 30
0.0
 10
313.1952795536
 20
107.8467399404
 30
0.0
 10
311.4924853367
 20
109.2432370763
 30
0.0
 10
309.9352662245
 20
110.8121385928
 30
0.0
 10
308.0565273508
 20
113.1070320002
 30
0.0
 10
306.8834348594
 20
115.0190091152
 30
0.0
 10
306.2179475188
 20
116.350073837
 30
0.0
  0
SPLINE
  5
4EF
100
AcDbEntity
  8
3_ALL_AXES
100
AcDbSpline
 62
7
  6
CONTINUOUS
 70
0
 71
3
 72
11
 73
7
 74
0
 42
0.0000001
 43
0.0000001
 44
0.0000000001
 40
0.0
 40
0.0
 40
0.0
 40
0.0
 40
0.2547993049
 40
0.5052109686
 40
0.7529117069
 40
1.0
 40
1.0
 40
1.0
 40
1.0
 10
319.103866922
 20
104.9807774242
 30
0.0
 10
319.8273983523
 20
104.7772601295
 30
0.0
 10
321.3017158544
 20
104.5002532144
 30
0.0
 10
323.5359824743
 20
104.5066862709
 30
0.0
 10
325.7047746717
 20
104.9418623478
 30
0.0
 10
327.0611789573
 20
105.5107409844
 30
0.0
 10
327.702271055
 20
105.8575018034
 30
0.0
  0
SPLINE
  5
4F0
100
AcDbEntity
  8
7_ALL_FEATURES
100
AcDbSpline
 62
7
  6
CONTINUOUS
 70
0
 71
3
 72
15
 73
11
 74
0
 42
0.0000001
 43
0.0000001
 44
0.0000000001
 40
0.0
 40
0.0
 40
0.0
 40
0.0
 40
0.126228608
 40
0.2512561319
 40
0.3754339552
 40
0.4996196784
 40
0.624235666
 40
0.7492698412
 40
0.874570015
 40
1.0
 40
1.0
 40
1.0
 40
1.0
 10
306.2179475188
 20
116.350073837
 30
0.0
 10
305.6784497299
 20
117.4291424091
 30
0.0
 10
304.7548468489
 20
119.6564259937
 30
0.0
 10
303.8853854135
 20
123.1521229455
 30
0.0
 10
303.605409835
 20
126.728274683
 30
0.0
 10
303.9887806368
 20
130.2948565046
 30
0.0
 10
305.0819095946
 20
133.7234968728
 30
0.0
 10
306.8810013792
 20
136.855583224
 30
0.0
 10
309.3227537457
 20
139.5272895114
 30
0.0
 10
311.309755049
 20
140.9085946439
 30
0.0
 10
312.3641805867
 20
141.4789237188
 30
0.0
  0
SPLINE
  5
4F1
100
AcDbEntity
  8
3_ALL_AXES
100
AcDbSpline
 62
7
  6
CONTINUOUS
 70
0
 71
3
 72
15
 73
11
 74
0
 42
0.0000001
 43
0.0000001
 44
0.0000000001
 40
0.0
 40
0.0
 40
0.0
 40
0.0
 40
0.1424329719
 40
0.2837279379
 40
0.4217309516
 40
0.5544052814
 40
0.679907541
 40
0.7966832473
 40
0.9035801118
 40
1.0
 40
1.0
 40
1.0
 40
1.0
 10
324.5112336455
 20
126.8498023284
 30
0.0
 10
324.9315753492
 20
126.0090620507
 30
0.0
 10
325.8253636502
 20
124.3618616099
 30
0.0
 10
327.3142758
 20
122.0080777254
 30
0.0
 10
328.9239168279
 20
119.8141900207
 30
0.0
 10
330.6225837302
 20
117.8232977089
 30
0.0
 10
332.3770097573
 20
116.0741573961
 30
0.0
 10
334.1534975176
 20
114.6004572737
 30
0.0
 10
335.9175971725
 20
113.4306881152
 30
0.0
 10
337.1275381147
 20
112.8375059377
 30
0.0
 10
337.7206372162
 20
112.6070265532
 30
0.0
  0
SPLINE
  5
4F2
100
AcDbEntity
  8
3_ALL_AXES
100
AcDbSpline
 62
7
  6
CONTINUOUS
 70
0
 71
3
 72
9
 73
5
 74
0
 42
0.0000001
 43
0.0000001
 44
0.0000000001
 40
0.0
 40
0.0
 40
0.0
 40
0.0
 40
0.2574575377
 40
1.0
 40
1.0
 40
1.0
 40
1.0
 10
337.7206372162
 20
112.6070265532
 30
0.0
 10
337.8156185368
 20
112.5701166401
 30
0.0
 10
338.1864915908
 20
112.4318757738
 30
0.0
 10
338.565356973
 20
112.3147159331
 30
0.0
 10
338.8501401165
 20
112.2420975692
 30
0.0
  0
SPLINE
  5
4F3
100
AcDbEntity
  8
3_ALL_AXES
100
AcDbSpline
 62
7
  6
CONTINUOUS
 70
0
 71
3
 72
11
 73
7
 74
0
 42
0.0000001
 43
0.0000001
 44
0.0000000001
 40
0.0
 40
0.0
 40
0.0
 40
0.0
 40
0.2722583352
 40
0.5263667938
 40
0.766960822
 40
1.0
 40
1.0
 40
1.0
 40
1.0
 10
339.1576707104
 20
112.1697016483
 30
0.0
 10
339.4995235667
 20
112.0960104953
 30
0.0
 10
340.17082465
 20
111.9956267437
 30
0.0
 10
341.1603362436
 20
112.001285658
 30
0.0
 10
342.0847831714
 20
112.1707900958
 30
0.0
 10
342.6553132926
 20
112.3950389881
 30
0.0
 10
342.9215267459
 20
112.5318918518
 30
0.0
  0
SPLINE
  5
4F4
100
AcDbEntity
  8
3_ALL_AXES
100
AcDbSpline
 62
9
  6
CONTINUOUS
 70
0
 71
3
 72
15
 73
11
 74
0
 42
0.0000001
 43
0.0000001
 44
0.0000000001
 40
0.0
 40
0.0
 40
0.0
 40
0.0
 40
0.0900063376
 40
0.192058791
 40
0.3061510969
 40
0.4312410007
 40
0.5655749864
 40
0.7069032106
 40
0.8526337476
 40
1.0
 40
1.0
 40
1.0
 40
1.0
 10
327.702271055
 20
105.8575018034
 30
0.0
 10
327.0704479836
 20
105.9806826858
 30
0.0
 10
325.7528268179
 20
106.4068576348
 30
0.0
 10
323.8116878105
 20
107.4360007351
 30
0.0
 10
321.8263085613
 20
108.8662706172
 30
0.0
 10
319.8437384193
 20
110.6635465463
 30
0.0
 10
317.910623069
 20
112.7848274952
 30
0.0
 10
316.0742783761
 20
115.1787135963
 30
0.0
 10
314.379851199
 20
117.786401157
 30
0.0
 10
313.3715961367
 20
119.6268473085
 30
0.0
 10
312.9002796272
 20
120.5695440943
 30
0.0
  0
SPLINE
  5
4F5
100
AcDbEntity
  8
3_ALL_AXES
100
AcDbSpline
 62
7
  6
CONTINUOUS
 70
0
 71
3
 72
12
 73
8
 74
0
 42
0.0000001
 43
0.0000001
 44
0.0000000001
 40
0.0
 40
0.0
 40
0.0
 40
0.0
 40
0.1101644945
 40
0.2221524516
 40
0.4568837578
 40
0.7141841258
 40
1.0
 40
1.0
 40
1.0
 40
1.0
 10
323.8917926873
 20
147.7129338997
 30
0.0
 10
323.7117266828
 20
147.6105655213
 30
0.0
 10
323.3624266651
 20
147.3786768889
 30
0.0
 10
322.7157944389
 20
146.8098415179
 30
0.0
 10
322.0194201869
 20
145.8970550748
 30
0.0
 10
321.4060039696
 20
144.5595823921
 30
0.0
 10
321.1505774355
 20
143.5655674694
 30
0.0
 10
321.0526995255
 20
143.0371671736
 30
0.0
  0
SPLINE
  5
4F6
100
AcDbEntity
  8
3_ALL_AXES
100
AcDbSpline
 62
7
  6
CONTINUOUS
 70
0
 71
3
 72
9
 73
5
 74
0
 42
0.0000001
 43
0.0000001
 44
0.0000000001
 40
0.0
 40
0.0
 40
0.0
 40
0.0
 40
0.2419924374
 40
1.0
 40
1.0
 40
1.0
 40
1.0
 10
321.0526995255
 20
143.0371671736
 30
0.0
 10
321.0303454248
 20
142.9164870993
 30
0.0
 10
320.9458520928
 20
142.4163464761
 30
0.0
 10
320.8918154048
 20
141.9112195718
 30
0.0
 10
320.8654921183
 20
141.527677856
 30
0.0
  0
SPLINE
  5
4F7
100
AcDbEntity
  8
3_ALL_AXES
100
AcDbSpline
 62
7
  6
CONTINUOUS
 70
0
 71
3
 72
13
 73
9
 74
0
 42
0.0000001
 43
0.0000001
 44
0.0000000001
 40
0.0
 40
0.0
 40
0.0
 40
0.0
 40
0.1042565381
 40
0.2159517337
 40
0.3345354565
 40
0.4592677011
 40
0.7233691526
 40
1.0
 40
1.0
 40
1.0
 40
1.0
 10
320.8547773215
 20
141.3576060731
 30
0.0
 10
320.8246688273
 20
140.8332988034
 30
0.0
 10
320.8171597495
 20
139.7437124313
 30
0.0
 10
320.9471772362
 20
138.0619947034
 30
0.0
 10
321.2164398365
 20
136.2925516443
 30
0.0
 10
321.7679703701
 20
133.7951709362
 30
0.0
 10
322.789875635
 20
130.5945651108
 30
0.0
 10
323.8880879749
 20
128.0961779782
 30
0.0
 10
324.5112336455
 20
126.8498023284
 30
0.0
  0
SPLINE
  5
4F8
100
AcDbEntity
  8
7_ALL_FEATURES
100
AcDbSpline
 62
9
  6
CONTINUOUS
 70
0
 71
3
 72
20
 73
16
 74
0
 42
0.0000001
 43
0.0000001
 44
0.0000000001
 40
0.0
 40
0.0
 40
0.0
 40
0.0
 40
0.1647772947
 40
0.3234826772
 40
0.47208557
 40
0.5415460217
 40
0.6073044367
 40
0.6691189291
 40
0.7268512337
 40
0.7804941989
 40
0.8301981909
 40
0.8763079392
 40
0.9193975398
 40
0.9602831722
 40
1.0
 40
1.0
 40
1.0
 40
1.0
 10
312.9002796272
 20
120.5695440943
 30
0.0
 10
312.3465977329
 20
121.6769827934
 30
0.0
 10
311.3547306239
 20
123.9004197975
 30
0.0
 10
310.2142303351
 20
127.2645670993
 30
0.0
 10
309.5823647085
 20
130.0310383584
 30
0.0
 10
309.3015466308
 20
132.1464340614
 30
0.0
 10
309.2058901693
 20
133.6251252299
 30
0.0
 10
309.2211815127
 20
135.0189198887
 30
0.0
 10
309.3475289883
 20
136.3159719702
 30
0.0
 10
309.5840849374
 20
137.5053191151
 30
0.0
 10
309.9295093802
 20
138.5769487527
 30
0.0
 10
310.3819234415
 20
139.5215606173
 30
0.0
 10
310.9389092669
 20
140.3304117465
 30
0.0
 10
311.596562692
 20
140.994408942
 30
0.0
 10
312.1016973437
 20
141.3369220927
 30
0.0
 10
312.3641908884
 20
141.478904673
 30
0.0
  0
SPLINE
  5
4F9
100
AcDbEntity
  8
3_ALL_AXES
100
AcDbSpline
 62
7
  6
CONTINUOUS
 70
0
 71
3
 72
20
 73
16
 74
0
 42
0.0000001
 43
0.0000001
 44
0.0000000001
 40
0.0
 40
0.0
 40
0.0
 40
0.0
 40
0.1618925389
 40
0.3202878621
 40
0.4702187254
 40
0.5406581918
 40
0.6074439418
 40
0.6702209487
 40
0.7287466093
 40
0.7829202238
 40
0.832820571
 40
0.8787516947
 40
0.9212904057
 40
0.9613178925
 40
1.0
 40
1.0
 40
1.0
 40
1.0
 10
366.3429232648
 20
146.4062001757
 30
0.0
 10
365.7367073083
 20
147.6187141067
 30
0.0
 10
364.4202478659
 20
149.9611120478
 30
0.0
 10
362.1632258889
 20
153.1946068192
 30
0.0
 10
360.0810990037
 20
155.5972146426
 30
0.0
 10
358.3434342691
 20
157.2613432953
 30
0.0
 10
357.0574119341
 20
158.3363763527
 30
0.0
 10
355.7748466715
 20
159.2533647612
 30
0.0
 10
354.5086033718
 20
160.0028983148
 30
0.0
 10
353.271212513
 20
160.5772042381
 30
0.0
 10
352.0745628066
 20
160.9700035217
 30
0.0
 10
350.9299949223
 20
161.1762753497
 30
0.0
 10
349.8484320415
 20
161.1917244604
 30
0.0
 10
348.8423273923
 20
161.0133753196
 30
0.0
 10
348.2262728689
 20
160.7627038996
 30
0.0
 10
347.9413704445
 20
160.6086072184
 30
0.0
  0
SPLINE
  5
4FA
100
AcDbEntity
  8
3_ALL_AXES
100
AcDbSpline
 62
7
  6
CONTINUOUS
 70
0
 71
3
 72
19
 73
15
 74
0
 42
0.0000001
 43
0.0000001
 44
0.0000000001
 40
0.0
 40
0.0
 40
0.0
 40
0.0
 40
0.1573392672
 40
0.3118530376
 40
0.4593481016
 40
0.5960737882
 40
0.6594728591
 40
0.719165789
 40
0.7749833412
 40
0.8268756685
 40
0.8749385754
 40
0.9194469415
 40
0.9608914898
 40
1.0
 40
1.0
 40
1.0
 40
1.0
 10
363.5934775307
 20
145.2575942409
 30
0.0
 10
363.1549800986
 20
146.1346484317
 30
0.0
 10
362.207047266
 20
147.8348404229
 30
0.0
 10
360.5909912169
 20
150.2026254317
 30
0.0
 10
358.8372073694
 20
152.3060872822
 30
0.0
 10
357.2743117139
 20
153.8146862284
 30
0.0
 10
356.0018420737
 20
154.8179691224
 30
0.0
 10
355.0769462992
 20
155.4427446398
 30
0.0
 10
354.1655837363
 20
155.9533574214
 30
0.0
 10
353.2755002258
 20
156.3452235017
 30
0.0
 10
352.4141793996
 20
156.6146468767
 30
0.0
 10
351.58860267
 20
156.7585596096
 30
0.0
 10
350.8061289676
 20
156.7746680102
 30
0.0
 10
350.3067167205
 20
156.697147385
 30
0.0
 10
350.0706933289
 20
156.6363405716
 30
0.0
  0
SPLINE
  5
4FB
100
AcDbEntity
  8
3_ALL_AXES
100
AcDbSpline
 62
7
  6
CONTINUOUS
 70
0
 71
3
 72
20
 73
16
 74
0
 42
0.0000001
 43
0.0000001
 44
0.0000000001
 40
0.0
 40
0.0
 40
0.0
 40
0.0
 40
0.1647761038
 40
0.3234845822
 40
0.4720861286
 40
0.5415472429
 40
0.6073056154
 40
0.6691195516
 40
0.7268520293
 40
0.7804947858
 40
0.8301985116
 40
0.8763082823
 40
0.9193975025
 40
0.9602830188
 40
1.0
 40
1.0
 40
1.0
 40
1.0
 10
366.3429232648
 20
146.4062001757
 30
0.0
 10
366.8938355502
 20
145.3043010691
 30
0.0
 10
367.8807417229
 20
143.0919532742
 30
0.0
 10
369.0155880361
 20
139.7446170794
 30
0.0
 10
369.6442398609
 20
136.9919334755
 30
0.0
 10
369.9236836603
 20
134.8871141573
 30
0.0
 10
370.0188555726
 20
133.4158068097
 30
0.0
 10
370.0036094028
 20
132.0289783634
 30
0.0
 10
369.8779064907
 20
130.7384085142
 30
0.0
 10
369.6425165985
 20
129.5550061993
 30
0.0
 10
369.2988005256
 20
128.4887398345
 30
0.0
 10
368.8486545074
 20
127.5488463106
 30
0.0
 10
368.2944161823
 20
126.7440614768
 30
0.0
 10
367.6400370053
 20
126.0834002143
 30
0.0
 10
367.1374328233
 20
125.7425854555
 30
0.0
 10
366.8762467919
 20
125.6013163853
 30
0.0
  0
SPLINE
  5
4FC
100
AcDbEntity
  8
3_ALL_AXES
100
AcDbSpline
 62
7
  6
CONTINUOUS
 70
0
 71
3
 72
17
 73
13
 74
0
 42
0.0000001
 43
0.0000001
 44
0.0000000001
 40
0.0
 40
0.0
 40
0.0
 40
0.0
 40
0.1600657941
 40
0.3149980656
 40
0.4614218797
 40
0.5964265596
 40
0.7178655819
 40
0.8247137755
 40
0.8728613583
 40
0.9177865405
 40
0.9599501496
 40
1.0
 40
1.0
 40
1.0
 40
1.0
 10
363.5934775307
 20
145.2575942409
 30
0.0
 10
363.9894759057
 20
144.4655439141
 30
0.0
 10
364.7057340302
 20
142.8742860349
 30
0.0
 10
365.5527663053
 20
140.4628130739
 30
0.0
 10
366.1392082182
 20
138.1170561775
 30
0.0
 10
366.4480942027
 20
135.9046028778
 30
0.0
 10
366.4705981893
 20
133.888843963
 30
0.0
 10
366.2407149312
 20
132.3665127634
 30
0.0
 10
365.897104406
 20
131.3127703498
 30
0.0
 10
365.577825496
 20
130.6336489844
 30
0.0
 10
365.1900302833
 20
130.0438383165
 30
0.0
 10
364.880888448
 20
129.7067467301
 30
0.0
 10
364.717184797
 20
129.5574387654
 30
0.0
  0
SPLINE
  5
4FD
100
AcDbEntity
  8
3_ALL_AXES
100
AcDbSpline
 62
7
  6
CONTINUOUS
 70
0
 71
3
 72
20
 73
16
 74
0
 42
0.0000001
 43
0.0000001
 44
0.0000000001
 40
0.0
 40
0.0
 40
0.0
 40
0.0
 40
0.0386821632
 40
0.0787095504
 40
0.1212479509
 40
0.1671787993
 40
0.2170792463
 40
0.2712527023
 40
0.3297778729
 40
0.3925545904
 40
0.4593406369
 40
0.5297803979
 40
0.679711287
 40
0.8381056396
 40
1.0
 40
1.0
 40
1.0
 40
1.0
 10
364.7830291584
 20
129.4715150144
 30
0.0
 10
364.5611205056
 20
129.3514861397
 30
0.0
 10
364.0812830225
 20
129.1562243948
 30
0.0
 10
363.2976342876
 20
129.0172955142
 30
0.0
 10
362.4552115523
 20
129.0293042205
 30
0.0
 10
361.5637082888
 20
129.1899499466
 30
0.0
 10
360.6316429961
 20
129.495904037
 30
0.0
 10
359.6678420135
 20
129.9432210144
 30
0.0
 10
358.6815635536
 20
130.527012796
 30
0.0
 10
357.6825689671
 20
131.2412392077
 30
0.0
 10
356.6808894898
 20
132.0785854328
 30
0.0
 10
355.3274267183
 20
133.3747787055
 30
0.0
 10
353.705645347
 20
135.2461456219
 30
0.0
 10
351.9476559041
 20
137.7647176322
 30
0.0
 10
350.9222619518
 20
139.5892099016
 30
0.0
 10
350.4500761046
 20
140.5336454805
 30
0.0
  0
SPLINE
  5
4FE
100
AcDbEntity
  8
3_ALL_AXES
100
AcDbSpline
 62
7
  6
CONTINUOUS
 70
0
 71
3
 72
19
 73
15
 74
0
 42
0.0000001
 43
0.0000001
 44
0.0000000001
 40
0.0
 40
0.0
 40
0.0
 40
0.0
 40
0.0397200403
 40
0.0806087434
 40
0.1237013506
 40
0.1698152749
 40
0.2195230353
 40
0.2731696826
 40
0.330907069
 40
0.3927262685
 40
0.5278781656
 40
0.6764918681
 40
0.8352105037
 40
1.0
 40
1.0
 40
1.0
 40
1.0
 10
350.0345880781
 20
156.7384085893
 30
0.0
 10
349.8311545032
 20
156.628372758
 30
0.0
 10
349.4396959034
 20
156.3628928343
 30
0.0
 10
348.9300147114
 20
155.8483052878
 30
0.0
 10
348.4983215776
 20
155.2214617217
 30
0.0
 10
348.1477371026
 20
154.4893684027
 30
0.0
 10
347.8800272831
 20
153.6588591148
 30
0.0
 10
347.6966812115
 20
152.73712237
 30
0.0
 10
347.598757121
 20
151.7318885395
 30
0.0
 10
347.5826436461
 20
150.2473353362
 30
0.0
 10
347.7937835544
 20
148.2391649297
 30
0.0
 10
348.3682445437
 20
145.7225475635
 30
0.0
 10
349.2523221982
 20
143.1149906391
 30
0.0
 10
350.020974401
 20
141.391906943
 30
0.0
 10
350.4500761046
 20
140.5336454805
 30
0.0
  0
SPLINE
  5
4FF
100
AcDbEntity
  8
3_ALL_AXES
100
AcDbSpline
 62
7
  6
CONTINUOUS
 70
0
 71
3
 72
19
 73
15
 74
0
 42
0.0000001
 43
0.0000001
 44
0.0000000001
 40
0.0
 40
0.0
 40
0.0
 40
0.0
 40
0.1647894963
 40
0.3235081319
 40
0.4721218344
 40
0.6072737315
 40
0.669092931
 40
0.7268303174
 40
0.7804769647
 40
0.8301847251
 40
0.8762986494
 40
0.9193912566
 40
0.9602799597
 40
1.0
 40
1.0
 40
1.0
 40
1.0
 10
364.3675411319
 20
145.6762781232
 30
0.0
 10
364.7966428354
 20
144.8180166607
 30
0.0
 10
365.5652950382
 20
143.0949329646
 30
0.0
 10
366.4493726927
 20
140.4873760402
 30
0.0
 10
367.0238336821
 20
137.970758674
 30
0.0
 10
367.2349735903
 20
135.9625882675
 30
0.0
 10
367.2188601155
 20
134.4780350642
 30
0.0
 10
367.120936025
 20
133.4728012336
 30
0.0
 10
366.9375899533
 20
132.5510644889
 30
0.0
 10
366.6698801338
 20
131.720555201
 30
0.0
 10
366.3192956588
 20
130.988461882
 30
0.0
 10
365.887602525
 20
130.3616183159
 30
0.0
 10
365.3779213331
 20
129.8470307693
 30
0.0
 10
364.9864627333
 20
129.5815508457
 30
0.0
 10
364.7830291584
 20
129.4715150144
 30
0.0
  0
SPLINE
  5
500
100
AcDbEntity
  8
3_ALL_AXES
100
AcDbSpline
 62
7
  6
CONTINUOUS
 70
0
 71
3
 72
20
 73
16
 74
0
 42
0.0000001
 43
0.0000001
 44
0.0000000001
 40
0.0
 40
0.0
 40
0.0
 40
0.0
 40
0.0397169812
 40
0.0806024975
 40
0.1236917177
 40
0.1698014884
 40
0.2195052142
 40
0.2731479707
 40
0.3308804484
 40
0.3926943846
 40
0.4584527571
 40
0.5279138714
 40
0.6765154178
 40
0.8352238962
 40
1.0
 40
1.0
 40
1.0
 40
1.0
 10
347.9413704445
 20
160.6086072184
 30
0.0
 10
347.6801844132
 20
160.4673381482
 30
0.0
 10
347.1775802311
 20
160.1265233893
 30
0.0
 10
346.5232010542
 20
159.4658621269
 30
0.0
 10
345.9689627291
 20
158.6610772931
 30
0.0
 10
345.5188167109
 20
157.7211837692
 30
0.0
 10
345.175100638
 20
156.6549174044
 30
0.0
 10
344.9397107458
 20
155.4715150895
 30
0.0
 10
344.8140078337
 20
154.1809452403
 30
0.0
 10
344.7987616639
 20
152.7941167939
 30
0.0
 10
344.8939335761
 20
151.3228094464
 30
0.0
 10
345.1733773755
 20
149.2179901282
 30
0.0
 10
345.8020292003
 20
146.4653065243
 30
0.0
 10
346.9368755136
 20
143.1179703295
 30
0.0
 10
347.9237816863
 20
140.9056225346
 30
0.0
 10
348.4746939717
 20
139.803723428
 30
0.0
  0
SPLINE
  5
501
100
AcDbEntity
  8
3_ALL_AXES
100
AcDbSpline
 62
7
  6
CONTINUOUS
 70
0
 71
3
 72
20
 73
16
 74
0
 42
0.0000001
 43
0.0000001
 44
0.0000000001
 40
0.0
 40
0.0
 40
0.0
 40
0.0
 40
0.1618943604
 40
0.320288713
 40
0.4702196021
 40
0.5406593631
 40
0.6074454096
 40
0.6702221271
 40
0.7287472977
 40
0.7829207537
 40
0.8328212007
 40
0.8787520491
 40
0.9212904496
 40
0.9613178368
 40
1.0
 40
1.0
 40
1.0
 40
1.0
 10
364.3675411319
 20
145.6762781232
 30
0.0
 10
363.8953552847
 20
146.6207137021
 30
0.0
 10
362.8699613324
 20
148.4452059715
 30
0.0
 10
361.1119718895
 20
150.9637779818
 30
0.0
 10
359.4901905182
 20
152.8351448982
 30
0.0
 10
358.1367277467
 20
154.1313381709
 30
0.0
 10
357.1350482694
 20
154.9686843959
 30
0.0
 10
356.1360536828
 20
155.6829108077
 30
0.0
 10
355.1497752229
 20
156.2667025893
 30
0.0
 10
354.1859742404
 20
156.7140195667
 30
0.0
 10
353.2539089476
 20
157.0199736571
 30
0.0
 10
352.3624056842
 20
157.1806193832
 30
0.0
 10
351.5199829489
 20
157.1926280894
 30
0.0
 10
350.7363342139
 20
157.0536992089
 30
0.0
 10
350.2564967308
 20
156.858437464
 30
0.0
 10
350.0345880781
 20
156.7384085893
 30
0.0
  0
SPLINE
  5
502
100
AcDbEntity
  8
3_ALL_AXES
100
AcDbSpline
 62
7
  6
CONTINUOUS
 70
0
 71
3
 72
20
 73
16
 74
0
 42
0.0000001
 43
0.0000001
 44
0.0000000001
 40
0.0
 40
0.0
 40
0.0
 40
0.0
 40
0.0386821075
 40
0.0787095943
 40
0.1212483053
 40
0.167179429
 40
0.2170797762
 40
0.2712533907
 40
0.3297790513
 40
0.3925560582
 40
0.4593418082
 40
0.5297812746
 40
0.6797121379
 40
0.8381074611
 40
1.0
 40
1.0
 40
1.0
 40
1.0
 10
366.8762467919
 20
125.6013163853
 30
0.0
 10
366.5913443675
 20
125.4472197041
 30
0.0
 10
365.9752898442
 20
125.1965482841
 30
0.0
 10
364.969185195
 20
125.0181991433
 30
0.0
 10
363.8876223141
 20
125.033648254
 30
0.0
 10
362.7430544298
 20
125.239920082
 30
0.0
 10
361.5464047235
 20
125.6327193655
 30
0.0
 10
360.3090138647
 20
126.2070252889
 30
0.0
 10
359.042770565
 20
126.9565588425
 30
0.0
 10
357.7602053023
 20
127.873547251
 30
0.0
 10
356.4741829674
 20
128.9485803084
 30
0.0
 10
354.7365182327
 20
130.6127089611
 30
0.0
 10
352.6543913476
 20
133.0153167844
 30
0.0
 10
350.3973693706
 20
136.2488115559
 30
0.0
 10
349.0809099281
 20
138.5912094969
 30
0.0
 10
348.4746939717
 20
139.803723428
 30
0.0
  0
SPLINE
  5
503
100
AcDbEntity
  8
02___PRT_ALL_AXES
100
AcDbSpline
 62
7
  6
CONTINUOUS
 70
0
 71
3
 72
15
 73
11
 74
0
 42
0.0000001
 43
0.0000001
 44
0.0000000001
 40
0.0
 40
0.0
 40
0.0
 40
0.0
 40
0.1268070762
 40
0.2523224618
 40
0.3765769124
 40
0.5000000474
 40
0.6234231675
 40
0.7476775799
 40
0.8731929293
 40
1.0
 40
1.0
 40
1.0
 40
1.0
 10
59.7225174416
 20
201.0462742657
 30
0.0
 10
59.7225174416
 20
200.8002278659
 30
0.0
 10
59.740856205
 20
200.3102820677
 30
0.0
 10
59.8420655819
 20
199.5850304002
 30
0.0
 10
60.0371610391
 20
198.8848890168
 30
0.0
 10
60.3422514165
 20
198.2286510721
 30
0.0
 10
60.7580249314
 20
197.6363161462
 30
0.0
 10
61.2668174026
 20
197.117288053
 30
0.0
 10
61.844298958
 20
196.6670124286
 30
0.0
 10
62.259435018
 20
196.4061577395
 30
0.0
 10
62.4725174416
 20
196.2831345449
 30
0.0
  0
SPLINE
  5
504
100
AcDbEntity
  8
02___PRT_ALL_AXES
100
AcDbSpline
 62
7
  6
CONTINUOUS
 70
0
 71
3
 72
15
 73
11
 74
0
 42
0.0000001
 43
0.0000001
 44
0.0000000001
 40
0.0
 40
0.0
 40
0.0
 40
0.0
 40
0.1268070762
 40
0.2523224618
 40
0.3765769124
 40
0.5000000474
 40
0.6234231675
 40
0.7476775799
 40
0.8731929293
 40
1.0
 40
1.0
 40
1.0
 40
1.0
 10
56.9725174416
 20
205.8094139865
 30
0.0
 10
56.9725174416
 20
205.5633675867
 30
0.0
 10
56.990856205
 20
205.0734217885
 30
0.0
 10
57.0920655819
 20
204.348170121
 30
0.0
 10
57.2871610391
 20
203.6480287376
 30
0.0
 10
57.5922514165
 20
202.9917907929
 30
0.0
 10
58.0080249314
 20
202.399455867
 30
0.0
 10
58.5168174026
 20
201.8804277738
 30
0.0
 10
59.094298958
 20
201.4301521494
 30
0.0
 10
59.509435018
 20
201.1692974603
 30
0.0
 10
59.7225174416
 20
201.0462742657
 30
0.0
  0
LINE
  5
505
100
AcDbEntity
  8
3_ALL_AXES
100
AcDbLine
 62
7
  6
CONTINUOUS
 10
96.9771742341
 20
199.4698084604
 11
97.0022852307
 21
199.4757727963
  0
SPLINE
  5
506
100
AcDbEntity
  8
3_ALL_AXES
100
AcDbSpline
 62
7
  6
CONTINUOUS
 70
0
 71
3
 72
15
 73
11
 74
0
 42
0.0000001
 43
0.0000001
 44
0.0000000001
 40
0.0
 40
0.0
 40
0.0
 40
0.0
 40
0.1250580463
 40
0.2500776912
 40
0.3750869166
 40
0.5000871164
 40
0.6250710386
 40
0.750046705
 40
0.8750204516
 40
1.0
 40
1.0
 40
1.0
 40
1.0
 10
68.9477256867
 20
200.5989480375
 30
0.0
 10
69.5077423915
 20
199.854737803
 30
0.0
 10
70.719724095
 20
198.4313052818
 30
0.0
 10
72.852319546
 20
196.606881542
 30
0.0
 10
75.2728867112
 20
195.1826377834
 30
0.0
 10
77.915011085
 20
194.2280045275
 30
0.0
 10
80.6902479182
 20
193.7895785485
 30
0.0
 10
83.4984861922
 20
193.8913349589
 30
0.0
 10
86.2334013755
 20
194.5331833039
 30
0.0
 10
87.941389117
 20
195.3081652346
 30
0.0
 10
88.7474810409
 20
195.7735626239
 30
0.0
  0
SPLINE
  5
507
100
AcDbEntity
  8
3_ALL_AXES
100
AcDbSpline
 62
7
  6
CONTINUOUS
 70
0
 71
3
 72
19
 73
15
 74
0
 42
0.0000001
 43
0.0000001
 44
0.0000000001
 40
0.0
 40
0.0
 40
0.0
 40
0.0
 40
0.019953843
 40
0.0446124125
 40
0.0786394597
 40
0.1215656957
 40
0.1728608823
 40
0.2319280726
 40
0.2981396839
 40
0.3708391721
 40
0.4493472432
 40
0.6209233507
 40
0.8067486055
 40
1.0
 40
1.0
 40
1.0
 40
1.0
 10
97.0022852307
 20
199.4757727963
 30
0.0
 10
97.0416747332
 20
199.4852659384
 30
0.0
 10
96.8296637688
 20
199.4346359396
 30
0.0
 10
96.7382690071
 20
199.4118549298
 30
0.0
 10
96.5123431794
 20
199.3551842935
 30
0.0
 10
96.2703160671
 20
199.2912938519
 30
0.0
 10
95.9668105269
 20
199.2076953681
 30
0.0
 10
95.6237386792
 20
199.1075663875
 30
0.0
 10
95.2393825589
 20
198.9884208123
 30
0.0
 10
94.8203891197
 20
198.8495747049
 30
0.0
 10
94.202712221
 20
198.6300882902
 30
0.0
 10
93.379695774
 20
198.3032492196
 30
0.0
 10
92.3640885597
 20
197.8341243316
 30
0.0
 10
91.685391665
 20
197.4697661136
 30
0.0
 10
91.3455572522
 20
197.2735626239
 30
0.0
  0
SPLINE
  5
508
100
AcDbEntity
  8
02___PRT_ALL_AXES
100
AcDbSpline
 62
7
  6
CONTINUOUS
 70
0
 71
3
 72
9
 73
5
 74
0
 42
0.0000001
 43
0.0000001
 44
0.0000000001
 40
0.0
 40
0.0
 40
0.0
 40
0.0
 40
0.4937558391
 40
1.0
 40
1.0
 40
1.0
 40
1.0
 10
206.8462632338
 20
198.7710417875
 30
0.0
 10
206.6221911201
 20
199.1346937474
 30
0.0
 10
206.1923193437
 20
199.8859963553
 30
0.0
 10
205.7949138248
 20
200.6545630817
 30
0.0
 10
205.5990582328
 20
201.0462742657
 30
0.0
  0
SPLINE
  5
509
100
AcDbEntity
  8
02___PRT_ALL_AXES
100
AcDbSpline
 62
7
  6
CONTINUOUS
 70
0
 71
3
 72
9
 73
5
 74
0
 42
0.0000001
 43
0.0000001
 44
0.0000000001
 40
0.0
 40
0.0
 40
0.0
 40
0.0
 40
0.5061841961
 40
1.0
 40
1.0
 40
1.0
 40
1.0
 10
218.3007641549
 20
201.0462742657
 30
0.0
 10
218.105605824
 20
200.6559576038
 30
0.0
 10
217.7096039648
 20
199.8900188916
 30
0.0
 10
217.2814066989
 20
199.1411973854
 30
0.0
 10
217.0582451021
 20
198.7786506547
 30
0.0
  0
SPLINE
  5
50A
100
AcDbEntity
  8
02___PRT_ALL_AXES
100
AcDbSpline
 62
7
  6
CONTINUOUS
 70
0
 71
3
 72
29
 73
25
 74
0
 42
0.0000001
 43
0.0000001
 44
0.0000000001
 40
0.0
 40
0.0
 40
0.0
 40
0.0
 40
0.0310907699
 40
0.0621909333
 40
0.0932961629
 40
0.1244151532
 40
0.1866371014
 40
0.2489782304
 40
0.2802452333
 40
0.311555823
 40
0.3742382033
 40
0.4370808435
 40
0.5000163376
 40
0.5629507822
 40
0.6257896935
 40
0.6884671878
 40
0.7197751537
 40
0.7510388479
 40
0.8133736165
 40
0.8755899577
 40
0.9067067335
 40
0.9378101375
 40
0.9689096085
 40
1.0
 40
1.0
 40
1.0
 40
1.0
 10
217.3007641549
 20
200.2962742657
 30
0.0
 10
217.3007641549
 20
200.1262162922
 30
0.0
 10
217.2829595439
 20
199.7857809434
 30
0.0
 10
217.2032714941
 20
199.2808570439
 30
0.0
 10
217.0715188072
 20
198.7866947225
 30
0.0
 10
216.8288730529
 20
198.1496417102
 30
0.0
 10
216.4041923339
 20
197.4042676758
 30
0.0
 10
215.8383776674
 20
196.7588657936
 30
0.0
 10
215.3167585685
 20
196.3160870293
 30
0.0
 10
214.7532248101
 20
195.9247796537
 30
0.0
 10
213.9807714949
 20
195.5389647989
 30
0.0
 10
212.9833337555
 20
195.2566628456
 30
0.0
 10
211.9496462547
 20
195.161708235
 30
0.0
 10
210.9159893096
 20
195.2567648117
 30
0.0
 10
209.918627485
 20
195.5391334042
 30
0.0
 10
209.146254487
 20
195.9249719315
 30
0.0
 10
208.582802883
 20
196.3162933946
 30
0.0
 10
208.0612587645
 20
196.759055881
 30
0.0
 10
207.4955320026
 20
197.4044212208
 30
0.0
 10
207.0709033417
 20
198.1497340154
 30
0.0
 10
206.8282909842
 20
198.7867430709
 30
0.0
 10
206.6965449087
 20
199.2808801034
 30
0.0
 10
206.6168631978
 20
199.7857890139
 30
0.0
 10
206.5990582328
 20
200.1262183624
 30
0.0
 10
206.5990582328
 20
200.2962742657
 30
0.0
  0
SPLINE
  5
50B
100
AcDbEntity
  8
7_ALL_FEATURES
100
AcDbSpline
 62
7
  6
CONTINUOUS
 70
0
 71
3
 72
15
 73
11
 74
0
 42
0.0000001
 43
0.0000001
 44
0.0000000001
 40
0.0
 40
0.0
 40
0.0
 40
0.0
 40
0.1160649286
 40
0.2335524994
 40
0.3536450113
 40
0.4770486459
 40
0.6039406499
 40
0.7339748879
 40
0.8663546295
 40
1.0
 40
1.0
 40
1.0
 40
1.0
 10
209.2499111939
 20
198.5985589402
 30
0.0
 10
209.2499111939
 20
198.7516014488
 30
0.0
 10
209.2852350334
 20
199.0606741665
 30
0.0
 10
209.4415574642
 20
199.5038665626
 30
0.0
 10
209.6945312374
 20
199.9113122148
 30
0.0
 10
210.0337451065
 20
200.2671836259
 30
0.0
 10
210.4456858303
 20
200.558394395
 30
0.0
 10
210.9145014486
 20
200.7742673061
 30
0.0
 10
211.4221659272
 20
200.9070210846
 30
0.0
 10
211.7736872215
 20
200.9368275304
 30
0.0
 10
211.9499111939
 20
200.9368275304
 30
0.0
  0
SPLINE
  5
50C
100
AcDbEntity
  8
7_ALL_FEATURES
100
AcDbSpline
 62
7
  6
CONTINUOUS
 70
0
 71
3
 72
15
 73
11
 74
0
 42
0.0000001
 43
0.0000001
 44
0.0000000001
 40
0.0
 40
0.0
 40
0.0
 40
0.0
 40
0.1336453705
 40
0.2660251121
 40
0.3960593501
 40
0.5229513541
 40
0.6463549887
 40
0.7664475006
 40
0.8839350714
 40
1.0
 40
1.0
 40
1.0
 40
1.0
 10
211.9499111939
 20
200.9368275304
 30
0.0
 10
212.1261351662
 20
200.9368275304
 30
0.0
 10
212.4776564605
 20
200.9070210846
 30
0.0
 10
212.9853209391
 20
200.7742673061
 30
0.0
 10
213.4541365574
 20
200.558394395
 30
0.0
 10
213.8660772812
 20
200.2671836259
 30
0.0
 10
214.2052911503
 20
199.9113122148
 30
0.0
 10
214.4582649235
 20
199.5038665626
 30
0.0
 10
214.6145873543
 20
199.0606741665
 30
0.0
 10
214.6499111939
 20
198.7516014488
 30
0.0
 10
214.6499111939
 20
198.5985589402
 30
0.0
  0
SPLINE
  5
50D
100
AcDbEntity
  8
02___PRT_ALL_AXES
100
AcDbSpline
 62
7
  6
CONTINUOUS
 70
0
 71
3
 72
13
 73
9
 74
0
 42
0.0000001
 43
0.0000001
 44
0.0000000001
 40
0.0
 40
0.0
 40
0.0
 40
0.0
 40
0.2443456936
 40
0.3712091204
 40
0.5000000504
 40
0.6287909642
 40
0.7556543486
 40
1.0
 40
1.0
 40
1.0
 40
1.0
 10
208.7744847133
 20
205.8094139865
 30
0.0
 10
209.2819268294
 20
205.6825534575
 30
0.0
 10
210.0621553444
 20
205.5221759141
 30
0.0
 10
211.1267473573
 20
205.404741642
 30
0.0
 10
211.9499114841
 20
205.3735321989
 30
0.0
 10
212.7730755213
 20
205.4047416452
 30
0.0
 10
213.8376673097
 20
205.5221759821
 30
0.0
 10
214.617895646
 20
205.6825534794
 30
0.0
 10
215.1253376744
 20
205.8094139865
 30
0.0
  0
SPLINE
  5
50E
100
AcDbEntity
  8
7_ALL_FEATURES
100
AcDbSpline
 62
7
  6
CONTINUOUS
 70
0
 71
3
 72
15
 73
11
 74
0
 42
0.0000001
 43
0.0000001
 44
0.0000000001
 40
0.0
 40
0.0
 40
0.0
 40
0.0
 40
0.1336453705
 40
0.2660251121
 40
0.3960593501
 40
0.5229513541
 40
0.6463549887
 40
0.7664475006
 40
0.8839350714
 40
1.0
 40
1.0
 40
1.0
 40
1.0
 10
211.9499111939
 20
196.26029035
 30
0.0
 10
211.7736872215
 20
196.26029035
 30
0.0
 10
211.4221659272
 20
196.2900967957
 30
0.0
 10
210.9145014486
 20
196.4228505743
 30
0.0
 10
210.4456858303
 20
196.6387234854
 30
0.0
 10
210.0337451065
 20
196.9299342544
 30
0.0
 10
209.6945312374
 20
197.2858056655
 30
0.0
 10
209.4415574642
 20
197.6932513178
 30
0.0
 10
209.2852350334
 20
198.1364437138
 30
0.0
 10
209.2499111939
 20
198.4455164315
 30
0.0
 10
209.2499111939
 20
198.5985589402
 30
0.0
  0
SPLINE
  5
50F
100
AcDbEntity
  8
02___PRT_ALL_AXES
100
AcDbSpline
 62
7
  6
CONTINUOUS
 70
0
 71
3
 72
12
 73
8
 74
0
 42
0.0000001
 43
0.0000001
 44
0.0000000001
 40
0.0
 40
0.0
 40
0.0
 40
0.0
 40
0.2871382985
 40
0.4271517857
 40
0.5612370601
 40
0.8008337004
 40
1.0
 40
1.0
 40
1.0
 40
1.0
 10
215.1253376744
 20
205.8094139865
 30
0.0
 10
215.371430481
 20
205.3172283733
 30
0.0
 10
215.7498888815
 20
204.5909047798
 30
0.0
 10
216.2895818909
 20
203.6602777132
 30
0.0
 10
216.8159644323
 20
202.8281393888
 30
0.0
 10
217.4649203968
 20
201.9401785934
 30
0.0
 10
218.0308698903
 20
201.3161685304
 30
0.0
 10
218.3007641549
 20
201.0462742657
 30
0.0
  0
SPLINE
  5
510
100
AcDbEntity
  8
02___PRT_ALL_AXES
100
AcDbSpline
 62
9
  6
CONTINUOUS
 70
0
 71
3
 72
21
 73
17
 74
0
 42
0.0000001
 43
0.0000001
 44
0.0000000001
 40
0.0
 40
0.0
 40
0.0
 40
0.0
 40
0.0580606291
 40
0.1169497817
 40
0.1771853591
 40
0.2390518831
 40
0.3025921951
 40
0.3676166169
 40
0.5
 40
0.6323833831
 40
0.6974078049
 40
0.7609481169
 40
0.8228146409
 40
0.8830502183
 40
0.9419393709
 40
1.0
 40
1.0
 40
1.0
 40
1.0
 10
217.2930413107
 20
200.5449164174
 30
0.0
 10
217.2748410642
 20
200.8379519492
 30
0.0
 10
217.1727566933
 20
201.4260972545
 30
0.0
 10
216.8313828607
 20
202.2614231501
 30
0.0
 10
216.314817458
 20
203.0246063002
 30
0.0
 10
215.6427337328
 20
203.6881299587
 30
0.0
 10
214.8396322374
 20
204.2292741123
 30
0.0
 10
213.6276691598
 20
204.7654670118
 30
0.0
 10
211.9499111939
 20
205.0407529973
 30
0.0
 10
210.2721532279
 20
204.7654670118
 30
0.0
 10
209.0601901503
 20
204.2292741123
 30
0.0
 10
208.2570886549
 20
203.6881299587
 30
0.0
 10
207.5850049297
 20
203.0246063002
 30
0.0
 10
207.068439527
 20
202.2614231501
 30
0.0
 10
206.7270656944
 20
201.4260972545
 30
0.0
 10
206.6249813235
 20
200.8379519492
 30
0.0
 10
206.606781077
 20
200.5449164174
 30
0.0
  0
SPLINE
  5
511
100
AcDbEntity
  8
7_ALL_FEATURES
100
AcDbSpline
 62
7
  6
CONTINUOUS
 70
0
 71
3
 72
15
 73
11
 74
0
 42
0.0000001
 43
0.0000001
 44
0.0000000001
 40
0.0
 40
0.0
 40
0.0
 40
0.0
 40
0.1160649286
 40
0.2335524994
 40
0.3536450113
 40
0.4770486459
 40
0.6039406499
 40
0.7339748879
 40
0.8663546295
 40
1.0
 40
1.0
 40
1.0
 40
1.0
 10
214.6499111939
 20
198.5985589402
 30
0.0
 10
214.6499111939
 20
198.4455164315
 30
0.0
 10
214.6145873543
 20
198.1364437138
 30
0.0
 10
214.4582649235
 20
197.6932513178
 30
0.0
 10
214.2052911503
 20
197.2858056655
 30
0.0
 10
213.8660772812
 20
196.9299342544
 30
0.0
 10
213.4541365574
 20
196.6387234854
 30
0.0
 10
212.9853209391
 20
196.4228505743
 30
0.0
 10
212.4776564605
 20
196.2900967957
 30
0.0
 10
212.1261351662
 20
196.26029035
 30
0.0
 10
211.9499111939
 20
196.26029035
 30
0.0
  0
SPLINE
  5
512
100
AcDbEntity
  8
02___PRT_ALL_AXES
100
AcDbSpline
 62
7
  6
CONTINUOUS
 70
0
 71
3
 72
12
 73
8
 74
0
 42
0.0000001
 43
0.0000001
 44
0.0000000001
 40
0.0
 40
0.0
 40
0.0
 40
0.0
 40
0.199166337
 40
0.4387630416
 40
0.572848302
 40
0.7128617489
 40
1.0
 40
1.0
 40
1.0
 40
1.0
 10
205.5990582328
 20
201.0462742657
 30
0.0
 10
205.868952548
 20
201.316168581
 30
0.0
 10
206.4349021663
 20
201.940178796
 30
0.0
 10
207.0838581949
 20
202.8281397526
 30
0.0
 10
207.6102407477
 20
203.6602780926
 30
0.0
 10
208.1499336182
 20
204.5909050143
 30
0.0
 10
208.5283919473
 20
205.3172284545
 30
0.0
 10
208.7744847133
 20
205.8094139865
 30
0.0
  0
SPLINE
  5
513
100
AcDbEntity
  8
02___PRT_ALL_AXES
100
AcDbSpline
 62
7
  6
CONTINUOUS
 70
0
 71
3
 72
21
 73
17
 74
0
 42
0.0000001
 43
0.0000001
 44
0.0000000001
 40
0.0
 40
0.0
 40
0.0
 40
0.0
 40
0.0580896369
 40
0.1168910495
 40
0.1769959692
 40
0.2387584412
 40
0.3022670424
 40
0.3673471053
 40
0.5
 40
0.6326528947
 40
0.6977329576
 40
0.7612415588
 40
0.8230040308
 40
0.8831089505
 40
0.9419103631
 40
1.0
 40
1.0
 40
1.0
 40
1.0
 10
217.3007641549
 20
200.5462742657
 30
0.0
 10
217.3007641549
 20
200.8495746227
 30
0.0
 10
217.2307557266
 20
201.4620948493
 30
0.0
 10
216.9209618047
 20
202.3404117892
 30
0.0
 10
216.4196090394
 20
203.1478885546
 30
0.0
 10
215.7474182143
 20
203.853156945
 30
0.0
 10
214.9308257034
 20
204.4302985028
 30
0.0
 10
213.6861561642
 20
205.0037137518
 30
0.0
 10
211.9499111939
 20
205.2986807797
 30
0.0
 10
210.2136662235
 20
205.0037137518
 30
0.0
 10
208.9689966844
 20
204.4302985028
 30
0.0
 10
208.1524041734
 20
203.853156945
 30
0.0
 10
207.4802133483
 20
203.1478885546
 30
0.0
 10
206.978860583
 20
202.3404117892
 30
0.0
 10
206.6690666611
 20
201.4620948493
 30
0.0
 10
206.5990582328
 20
200.8495746227
 30
0.0
 10
206.5990582328
 20
200.5462742657
 30
0.0
  0
SPLINE
  5
514
100
AcDbEntity
  8
3_ALL_AXES
100
AcDbSpline
 62
7
  6
CONTINUOUS
 70
0
 71
3
 72
27
 73
23
 74
0
 42
0.0000001
 43
0.0000001
 44
0.0000000001
 40
0.0
 40
0.0
 40
0.0
 40
0.0
 40
0.0290032533
 40
0.058103177
 40
0.0873792558
 40
0.1169162892
 40
0.1769398799
 40
0.2386193944
 40
0.3020425873
 40
0.3670351206
 40
0.4332036541
 40
0.5
 40
0.5667963459
 40
0.6329648794
 40
0.6979574127
 40
0.7613806056
 40
0.8230601201
 40
0.8830837108
 40
0.9126207442
 40
0.941896823
 40
0.9709967467
 40
1.0
 40
1.0
 40
1.0
 40
1.0
 10
192.0499111937
 20
235.2462742657
 30
0.0
 10
192.0499111937
 20
235.8102176894
 30
0.0
 10
192.1141736697
 20
236.9410277385
 30
0.0
 10
192.4019875615
 20
238.6189302902
 30
0.0
 10
192.8787613651
 20
240.2643443105
 30
0.0
 10
193.7634934147
 20
242.4031804564
 30
0.0
 10
195.3271016501
 20
244.9222339737
 30
0.0
 10
197.8269535648
 20
247.5445663697
 30
0.0
 10
200.8632559514
 20
249.6910254711
 30
0.0
 10
204.318366013
 20
251.2820979435
 30
0.0
 10
208.0609899372
 20
252.2604729917
 30
0.0
 10
211.9499111937
 20
252.5905350136
 30
0.0
 10
215.8388324503
 20
252.2604729917
 30
0.0
 10
219.5814563744
 20
251.2820979435
 30
0.0
 10
223.036566436
 20
249.6910254711
 30
0.0
 10
226.0728688226
 20
247.5445663697
 30
0.0
 10
228.5727207373
 20
244.9222339737
 30
0.0
 10
230.1363289727
 20
242.4031804564
 30
0.0
 10
231.0210610223
 20
240.2643443105
 30
0.0
 10
231.497834826
 20
238.6189302902
 30
0.0
 10
231.7856487177
 20
236.9410277385
 30
0.0
 10
231.8499111937
 20
235.8102176894
 30
0.0
 10
231.8499111937
 20
235.2462742657
 30
0.0
  0
SPLINE
  5
515
100
AcDbEntity
  8
3_ALL_AXES
100
AcDbSpline
 62
7
  6
CONTINUOUS
 70
0
 71
3
 72
23
 73
19
 74
0
 42
0.0000001
 43
0.0000001
 44
0.0000000001
 40
0.0
 40
0.0
 40
0.0
 40
0.0
 40
0.058032328
 40
0.1167766534
 40
0.1768222503
 40
0.2385242966
 40
0.3019705237
 40
0.3669867163
 40
0.4331793561
 40
0.5
 40
0.5668206439
 40
0.6330132837
 40
0.6980294763
 40
0.7614757034
 40
0.8231777497
 40
0.8832233466
 40
0.941967672
 40
1.0
 40
1.0
 40
1.0
 40
1.0
 10
191.9499111939
 20
219.7962742657
 30
0.0
 10
191.9499111939
 20
220.9299206017
 30
0.0
 10
192.2116005121
 20
223.2193507327
 30
0.0
 10
193.3694744938
 20
226.5022781336
 30
0.0
 10
195.2433817434
 20
229.5203889347
 30
0.0
 10
197.7560494287
 20
232.1564814468
 30
0.0
 10
200.8075270856
 20
234.3135798837
 30
0.0
 10
204.2800202283
 20
235.9126962168
 30
0.0
 10
208.041451588
 20
236.8959350445
 30
0.0
 10
211.9499111939
 20
237.2277273401
 30
0.0
 10
215.8583707997
 20
236.8959350445
 30
0.0
 10
219.6198021594
 20
235.9126962168
 30
0.0
 10
223.0922953021
 20
234.3135798837
 30
0.0
 10
226.143772959
 20
232.1564814468
 30
0.0
 10
228.6564406443
 20
229.5203889347
 30
0.0
 10
230.5303478939
 20
226.5022781336
 30
0.0
 10
231.6882218756
 20
223.2193507327
 30
0.0
 10
231.9499111939
 20
220.9299206017
 30
0.0
 10
231.9499111939
 20
219.7962742657
 30
0.0
  0
SPLINE
  5
516
100
AcDbEntity
  8
3_ALL_AXES
100
AcDbSpline
 62
7
  6
CONTINUOUS
 70
0
 71
3
 72
9
 73
5
 74
0
 42
0.0000001
 43
0.0000001
 44
0.0000000001
 40
0.0
 40
0.0
 40
0.0
 40
0.0
 40
0.2615176873
 40
1.0
 40
1.0
 40
1.0
 40
1.0
 10
198.3575250948
 20
198.2789694203
 30
0.0
 10
198.4504887683
 20
198.1877770792
 30
0.0
 10
198.8083983924
 20
197.8415739752
 30
0.0
 10
199.1759083685
 20
197.5051943597
 30
0.0
 10
199.4538509874
 20
197.2644167515
 30
0.0
  0
SPLINE
  5
517
100
AcDbEntity
  8
3_ALL_AXES
100
AcDbSpline
 62
7
  6
CONTINUOUS
 70
0
 71
3
 72
9
 73
5
 74
0
 42
0.0000001
 43
0.0000001
 44
0.0000000001
 40
0.0
 40
0.0
 40
0.0
 40
0.0
 40
0.5486522277
 40
1.0
 40
1.0
 40
1.0
 40
1.0
 10
199.4538509874
 20
197.2644167515
 30
0.0
 10
199.6477031558
 20
197.0964854652
 30
0.0
 10
200.0069835001
 20
196.7972880983
 30
0.0
 10
200.3814976235
 20
196.5166270294
 30
0.0
 10
200.5568926948
 20
196.3993542502
 30
0.0
  0
SPLINE
  5
518
100
AcDbEntity
  8
3_ALL_AXES
100
AcDbSpline
 62
7
  6
CONTINUOUS
 70
0
 71
3
 72
9
 73
5
 74
0
 42
0.0000001
 43
0.0000001
 44
0.0000000001
 40
0.0
 40
0.0
 40
0.0
 40
0.0
 40
0.2547291318
 40
1.0
 40
1.0
 40
1.0
 40
1.0
 10
205.9499111939
 20
197.2735626239
 30
0.0
 10
205.9499111939
 20
197.3056461712
 30
0.0
 10
205.9539533597
 20
197.4315554728
 30
0.0
 10
205.974901532
 20
197.556999276
 30
0.0
 10
206.000205393
 20
197.647392473
 30
0.0
  0
SPLINE
  5
519
100
AcDbEntity
  8
3_ALL_AXES
100
AcDbSpline
 62
7
  6
CONTINUOUS
 70
0
 71
3
 72
9
 73
5
 74
0
 42
0.0000001
 43
0.0000001
 44
0.0000000001
 40
0.0
 40
0.0
 40
0.0
 40
0.0
 40
0.2467344153
 40
1.0
 40
1.0
 40
1.0
 40
1.0
 10
217.8996169926
 20
197.6473924826
 30
0.0
 10
217.9079945399
 20
197.6174653005
 30
0.0
 10
217.9376831652
 20
197.495001716
 30
0.0
 10
217.9499111939
 20
197.3684408128
 30
0.0
 10
217.9499111939
 20
197.2735626239
 30
0.0
  0
SPLINE
  5
51A
100
AcDbEntity
  8
3_ALL_AXES
100
AcDbSpline
 62
7
  6
CONTINUOUS
 70
0
 71
3
 72
13
 73
9
 74
0
 42
0.0000001
 43
0.0000001
 44
0.0000000001
 40
0.0
 40
0.0
 40
0.0
 40
0.0
 40
0.0951142596
 40
0.2092925446
 40
0.3353588541
 40
0.4679541771
 40
0.7384549615
 40
1.0
 40
1.0
 40
1.0
 40
1.0
 10
193.9274931844
 20
203.9029406199
 30
0.0
 10
194.0288963213
 20
203.6990235254
 30
0.0
 10
194.2766570471
 20
203.2626909143
 30
0.0
 10
194.7121760094
 20
202.5878622276
 30
0.0
 10
195.2290268731
 20
201.859637491
 30
0.0
 10
196.0000147644
 20
200.8539400108
 30
0.0
 10
197.0300515958
 20
199.6394484528
 30
0.0
 10
197.9104717051
 20
198.717504642
 30
0.0
 10
198.3575250948
 20
198.2789694203
 30
0.0
  0
SPLINE
  5
51B
100
AcDbEntity
  8
7_ALL_FEATURES
100
AcDbSpline
 62
7
  6
CONTINUOUS
 70
0
 71
3
 72
17
 73
13
 74
0
 42
0.0000001
 43
0.0000001
 44
0.0000000001
 40
0.0
 40
0.0
 40
0.0
 40
0.0
 40
0.1253816951
 40
0.2506154334
 40
0.3757017601
 40
0.4382435845
 40
0.5007582653
 40
0.6256187592
 40
0.7504111671
 40
0.8128403953
 40
0.8752654885
 40
1.0
 40
1.0
 40
1.0
 40
1.0
 10
217.9499138631
 20
193.8533239989
 30
0.0
 10
218.9415063164
 20
194.1537544526
 30
0.0
 10
220.8813732056
 20
194.9057383754
 30
0.0
 10
223.5806189163
 20
196.462810097
 30
0.0
 10
225.6018910357
 20
198.0935016356
 30
0.0
 10
227.047222646
 20
199.573902387
 30
0.0
 10
228.3692134178
 20
201.1630415152
 30
0.0
 10
229.7758455295
 20
203.339592877
 30
0.0
 10
230.8115280854
 20
205.7147087697
 30
0.0
 10
231.3987387494
 20
207.694571809
 30
0.0
 10
231.8215585895
 20
209.7149618665
 30
0.0
 10
231.9499111939
 20
211.2655171058
 30
0.0
 10
231.9499111939
 20
212.2962742657
 30
0.0
  0
SPLINE
  5
51C
100
AcDbEntity
  8
7_ALL_FEATURES
100
AcDbSpline
 62
9
  6
CONTINUOUS
 70
0
 71
3
 72
23
 73
19
 74
0
 42
0.0000001
 43
0.0000001
 44
0.0000000001
 40
0.0
 40
0.0
 40
0.0
 40
0.0
 40
0.0580323318
 40
0.1167766541
 40
0.1768222498
 40
0.2385242957
 40
0.3019705242
 40
0.3669867161
 40
0.4331793561
 40
0.5000000001
 40
0.5668206442
 40
0.6330132841
 40
0.698029476
 40
0.7614757045
 40
0.8231777505
 40
0.8832233461
 40
0.9419676684
 40
1.0
 40
1.0
 40
1.0
 40
1.0
 10
231.9499111939
 20
212.2962742657
 30
0.0
 10
231.9499111939
 20
213.4299206768
 30
0.0
 10
231.6882219197
 20
215.7193508359
 30
0.0
 10
230.5303478144
 20
219.0022781808
 30
0.0
 10
228.6564406621
 20
222.0203889229
 30
0.0
 10
226.1437729713
 20
224.6564814293
 30
0.0
 10
223.0922953147
 20
226.8135798795
 30
0.0
 10
219.6198021538
 20
228.4126962172
 30
0.0
 10
215.8583708016
 20
229.3959350441
 30
0.0
 10
211.9499111877
 20
229.7277273408
 30
0.0
 10
208.0414515737
 20
229.3959350422
 30
0.0
 10
204.2800202224
 20
228.4126962127
 30
0.0
 10
200.8075270626
 20
226.8135798738
 30
0.0
 10
197.7560494073
 20
224.6564814215
 30
0.0
 10
195.2433817189
 20
222.0203889134
 30
0.0
 10
193.3694745672
 20
219.0022781697
 30
0.0
 10
192.2116004673
 20
215.7193508274
 30
0.0
 10
191.9499111939
 20
213.4299206723
 30
0.0
 10
191.9499111939
 20
212.2962742657
 30
0.0
  0
SPLINE
  5
51D
100
AcDbEntity
  8
02___PRT_ALL_AXES
100
AcDbSpline
 62
7
  6
CONTINUOUS
 70
0
 71
3
 72
12
 73
8
 74
0
 42
0.0000001
 43
0.0000001
 44
0.0000000001
 40
0.0
 40
0.0
 40
0.0
 40
0.0
 40
0.2815252858
 40
0.5468919177
 40
0.6711862011
 40
0.7885675146
 40
1.0
 40
1.0
 40
1.0
 40
1.0
 10
59.7225174416
 20
88.0838158295
 30
0.0
 10
59.4807413717
 20
87.9442263505
 30
0.0
 10
59.016660767
 20
87.6631515309
 30
0.0
 10
58.4697775076
 20
87.2823753728
 30
0.0
 10
58.0795897266
 20
86.9647208745
 30
0.0
 10
57.7489840208
 20
86.660340015
 30
0.0
 10
57.5323700389
 20
86.4137823862
 30
0.0
 10
57.4113108588
 20
86.2425914861
 30
0.0
  0
SPLINE
  5
51E
100
AcDbEntity
  8
02___PRT_ALL_AXES
100
AcDbSpline
 62
7
  6
CONTINUOUS
 70
0
 71
3
 72
23
 73
19
 74
0
 42
0.0000001
 43
0.0000001
 44
0.0000000001
 40
0.0
 40
0.0
 40
0.0
 40
0.0
 40
0.0626046097
 40
0.1250556736
 40
0.1872172992
 40
0.2490581736
 40
0.3108218778
 40
0.3730563032
 40
0.4361916646
 40
0.5000595023
 40
0.5639244891
 40
0.6270510084
 40
0.6892707152
 40
0.7510140761
 40
0.8128346249
 40
0.874970547
 40
0.9373996231
 40
1.0
 40
1.0
 40
1.0
 40
1.0
 10
58.2069714739
 20
87.077891775
 30
0.0
 10
57.8939437862
 20
87.0607584181
 30
0.0
 10
57.2702596295
 20
86.9514420177
 30
0.0
 10
56.4026985682
 20
86.5753546043
 30
0.0
 10
55.6455413761
 20
86.0158380274
 30
0.0
 10
55.0276919092
 20
85.3117372054
 30
0.0
 10
54.5580967557
 20
84.5022883067
 30
0.0
 10
54.231873862
 20
83.6195451907
 30
0.0
 10
54.0400811368
 20
82.6882569238
 30
0.0
 10
53.9768346422
 20
81.731723883
 30
0.0
 10
54.0404089693
 20
80.7752566203
 30
0.0
 10
54.2325151319
 20
79.8441672693
 30
0.0
 10
54.5590010716
 20
78.9617566026
 30
0.0
 10
55.0287494681
 20
78.1527219802
 30
0.0
 10
55.6466259665
 20
77.4490861917
 30
0.0
 10
56.4037047532
 20
76.8900558734
 30
0.0
 10
57.2710863578
 20
76.5142304843
 30
0.0
 10
57.894666153
 20
76.4050779163
 30
0.0
 10
58.2076755173
 20
76.3879976981
 30
0.0
  0
SPLINE
  5
51F
100
AcDbEntity
  8
02___PRT_ALL_AXES
100
AcDbSpline
 62
7
  6
CONTINUOUS
 70
0
 71
3
 72
12
 73
8
 74
0
 42
0.0000001
 43
0.0000001
 44
0.0000000001
 40
0.0
 40
0.0
 40
0.0
 40
0.0
 40
0.2114327234
 40
0.3288140616
 40
0.4531083417
 40
0.7184748527
 40
1.0
 40
1.0
 40
1.0
 40
1.0
 10
57.4113146619
 20
77.2233288027
 30
0.0
 10
57.532374076
 20
77.0521383511
 30
0.0
 10
57.7489882577
 20
76.8055815523
 30
0.0
 10
58.0795936489
 20
76.5012014568
 30
0.0
 10
58.469780734
 20
76.1835480357
 30
0.0
 10
59.0166626627
 20
75.8027730406
 30
0.0
 10
59.4807420293
 20
75.5216990067
 30
0.0
 10
59.7225174416
 20
75.3821099073
 30
0.0
  0
SPLINE
  5
520
100
AcDbEntity
  8
02___PRT_ALL_AXES
100
AcDbSpline
 62
7
  6
CONTINUOUS
 70
0
 71
3
 72
19
 73
15
 74
0
 42
0.0000001
 43
0.0000001
 44
0.0000000001
 40
0.0
 40
0.0
 40
0.0
 40
0.0
 40
0.0514239641
 40
0.1068973289
 40
0.1661277958
 40
0.228680884
 40
0.3614231141
 40
0.5
 40
0.6385768859
 40
0.771319116
 40
0.8338722042
 40
0.8931026711
 40
0.9485760359
 40
1.0
 40
1.0
 40
1.0
 40
1.0
 10
57.3118339929
 20
77.3640101558
 30
0.0
 10
57.2212697923
 20
77.4920827398
 30
0.0
 10
57.0493737621
 20
77.7700905585
 30
0.0
 10
56.8273087106
 20
78.2263264906
 30
0.0
 10
56.6338370884
 20
78.731897448
 30
0.0
 10
56.4133961616
 20
79.4769780369
 30
0.0
 10
56.2297165496
 20
80.481990966
 30
0.0
 10
56.1562169468
 20
81.7329628684
 30
0.0
 10
56.2297165496
 20
82.9839347709
 30
0.0
 10
56.4133961616
 20
83.9889477
 30
0.0
 10
56.6338370884
 20
84.7340282888
 30
0.0
 10
56.8273087106
 20
85.2395992462
 30
0.0
 10
57.0493737621
 20
85.6958351783
 30
0.0
 10
57.2212697923
 20
85.973842997
 30
0.0
 10
57.3118339929
 20
86.101915581
 30
0.0
  0
SPLINE
  5
521
100
AcDbEntity
  8
02___PRT_ALL_AXES
100
AcDbSpline
 62
7
  6
CONTINUOUS
 70
0
 71
3
 72
11
 73
7
 74
0
 42
0.0000001
 43
0.0000001
 44
0.0000000001
 40
0.0
 40
0.0
 40
0.0
 40
0.0
 40
0.2837572224
 40
0.539668355
 40
0.7759166417
 40
1.0
 40
1.0
 40
1.0
 40
1.0
 10
57.4113108588
 20
86.2425914861
 30
0.0
 10
57.3333893767
 20
86.1324020015
 30
0.0
 10
57.1993045529
 20
85.9121121504
 30
0.0
 10
57.0607423025
 20
85.5682797952
 30
0.0
 10
56.9869433049
 20
85.2342571307
 30
0.0
 10
56.9725174416
 20
85.0149652825
 30
0.0
 10
56.9725174416
 20
84.908389349
 30
0.0
  0
SPLINE
  5
522
100
AcDbEntity
  8
02___PRT_ALL_AXES
100
AcDbSpline
 62
7
  6
CONTINUOUS
 70
0
 71
3
 72
11
 73
7
 74
0
 42
0.0000001
 43
0.0000001
 44
0.0000000001
 40
0.0
 40
0.0
 40
0.0
 40
0.0
 40
0.2240831619
 40
0.4603313799
 40
0.7162425662
 40
1.0
 40
1.0
 40
1.0
 40
1.0
 10
56.9725174416
 20
78.5575363879
 30
0.0
 10
56.9725174416
 20
78.4509600522
 30
0.0
 10
56.9869434193
 20
78.2316673082
 30
0.0
 10
57.0607430386
 20
77.897643242
 30
0.0
 10
57.1993065418
 20
77.5538094178
 30
0.0
 10
57.3333925229
 20
77.3335187144
 30
0.0
 10
57.4113146619
 20
77.2233288027
 30
0.0
  0
SPLINE
  5
523
100
AcDbEntity
  8
02___PRT_ALL_AXES
100
AcDbSpline
 62
7
  6
CONTINUOUS
 70
0
 71
3
 72
24
 73
20
 74
0
 42
0.0000001
 43
0.0000001
 44
0.0000000001
 40
0.0
 40
0.0
 40
0.0
 40
0.0
 40
0.0922219963
 40
0.1191695317
 40
0.1476774373
 40
0.2091592811
 40
0.2760396354
 40
0.3472808112
 40
0.4215938272
 40
0.4975307397
 40
0.5735644417
 40
0.6481632206
 40
0.7198650064
 40
0.7873561583
 40
0.8495616932
 40
0.8784574043
 40
0.9057981102
 40
0.9557668211
 40
1.0
 40
1.0
 40
1.0
 40
1.0
 10
62.0519249755
 20
77.8524440502
 30
0.0
 10
61.8148207115
 20
77.971030325
 30
0.0
 10
61.5558513795
 20
78.2190934103
 30
0.0
 10
61.3121175006
 20
78.5654113782
 30
0.0
 10
61.1400664035
 20
78.8548683455
 30
0.0
 10
60.9515611167
 20
79.2658357906
 30
0.0
 10
60.7726467441
 20
79.8121123542
 30
0.0
 10
60.6403629764
 20
80.4091941417
 30
0.0
 10
60.5581749665
 20
81.0413598108
 30
0.0
 10
60.5282934817
 20
81.6918913935
 30
0.0
 10
60.5515207918
 20
82.3435148558
 30
0.0
 10
60.6272296006
 20
82.9789182266
 30
0.0
 10
60.7533981654
 20
83.5813044267
 30
0.0
 10
60.9266544711
 20
84.1347364192
 30
0.0
 10
61.1109015535
 20
84.5531463302
 30
0.0
 10
61.279616043
 20
84.8492237784
 30
0.0
 10
61.4504988244
 20
85.10249987
 30
0.0
 10
61.6807531477
 20
85.3678422181
 30
0.0
 10
61.9002759751
 20
85.5318310798
 30
0.0
 10
62.0119614349
 20
85.5926152942
 30
0.0
  0
SPLINE
  5
524
100
AcDbEntity
  8
02___PRT_ALL_AXES
100
AcDbSpline
 62
7
  6
CONTINUOUS
 70
0
 71
3
 72
15
 73
11
 74
0
 42
0.0000001
 43
0.0000001
 44
0.0000000001
 40
0.0
 40
0.0
 40
0.0
 40
0.0
 40
0.1236128837
 40
0.248233212
 40
0.3738100725
 40
0.500000049
 40
0.6261900099
 40
0.75176683
 40
0.8763871217
 40
1.0
 40
1.0
 40
1.0
 40
1.0
 10
56.9725174416
 20
84.908389349
 30
0.0
 10
56.8650544568
 20
84.6602142163
 30
0.0
 10
56.6650597482
 20
84.1547087759
 30
0.0
 10
56.4276516879
 20
83.3708951439
 30
0.0
 10
56.2720548859
 20
82.5604048201
 30
0.0
 10
56.2174139796
 20
81.7329625782
 30
0.0
 10
56.2720548918
 20
80.9055204209
 30
0.0
 10
56.427651773
 20
80.0950303194
 30
0.0
 10
56.6650597841
 20
79.3112168644
 30
0.0
 10
56.8650544615
 20
78.8057115098
 30
0.0
 10
56.9725174416
 20
78.5575363879
 30
0.0
  0
SPLINE
  5
525
100
AcDbEntity
  8
02___PRT_ALL_AXES
100
AcDbSpline
 62
9
  6
CONTINUOUS
 70
0
 71
3
 72
27
 73
23
 74
0
 42
0.0000001
 43
0.0000001
 44
0.0000000001
 40
0.0
 40
0.0
 40
0.0
 40
0.0
 40
0.0203994256
 40
0.041725687
 40
0.0643495839
 40
0.0885397013
 40
0.1421418471
 40
0.2030388351
 40
0.2706726024
 40
0.3438397507
 40
0.4209118849
 40
0.4999992375
 40
0.5790866295
 40
0.6561588796
 40
0.7293262129
 40
0.7969602213
 40
0.8578574862
 40
0.9114599144
 40
0.9356501608
 40
0.9582741701
 40
0.9796005189
 40
1.0
 40
1.0
 40
1.0
 40
1.0
 10
58.1849881596
 20
76.40343103
 30
0.0
 10
58.1015119558
 20
76.4183709737
 30
0.0
 10
57.9332714024
 20
76.4647933867
 30
0.0
 10
57.6901746293
 20
76.5790217592
 30
0.0
 10
57.4541541562
 20
76.7374254492
 30
0.0
 10
57.140811783
 20
77.0147854739
 30
0.0
 10
56.7809298516
 20
77.4709799516
 30
0.0
 10
56.4206809683
 20
78.1399597921
 30
0.0
 10
56.127473419
 20
78.9279176802
 30
0.0
 10
55.9108305695
 20
79.8091092832
 30
0.0
 10
55.7778218285
 20
80.7546371708
 30
0.0
 10
55.7329771678
 20
81.732943807
 30
0.0
 10
55.7778183624
 20
82.7112510827
 30
0.0
 10
55.910823756
 20
83.6567808636
 30
0.0
 10
56.1274634882
 20
84.5379755405
 30
0.0
 10
56.4206682394
 20
85.325937563
 30
0.0
 10
56.7809147177
 20
85.9949224366
 30
0.0
 10
57.1407948713
 20
86.4511218688
 30
0.0
 10
57.4541361928
 20
86.7284863405
 30
0.0
 10
57.6901560366
 20
86.8868933945
 30
0.0
 10
57.9332523302
 20
87.0011252466
 30
0.0
 10
58.1014928098
 20
87.047550131
 30
0.0
 10
58.1849690319
 20
87.0624912834
 30
0.0
  0
SPLINE
  5
526
100
AcDbEntity
  8
3_ALL_AXES
100
AcDbSpline
 62
7
  6
CONTINUOUS
 70
0
 71
3
 72
32
 73
28
 74
0
 42
0.0000001
 43
0.0000001
 44
0.0000000001
 40
0.0
 40
0.0
 40
0.0
 40
0.0
 40
0.0203418993
 40
0.0412601361
 40
0.0632519097
 40
0.0867214957
 40
0.1119458035
 40
0.1390882812
 40
0.168214628
 40
0.1993090789
 40
0.2494321347
 40
0.3032966292
 40
0.3602126656
 40
0.4193511579
 40
0.4797907802
 40
0.5405591659
 40
0.6006713696
 40
0.6591677014
 40
0.7151528227
 40
0.7678384392
 40
0.8165931307
 40
0.8610049871
 40
0.9009648266
 40
0.9367771938
 40
0.9692825652
 40
0.9847665581
 40
1.0
 40
1.0
 40
1.0
 40
1.0
 10
118.9586550604
 20
97.2329628686
 30
0.0
 10
118.7042506575
 20
97.2329628686
 30
0.0
 10
118.1868868689
 20
97.1813907832
 30
0.0
 10
117.4252220058
 20
96.9522606971
 30
0.0
 10
116.6813574495
 20
96.5749186532
 30
0.0
 10
115.9625809939
 20
96.0549285138
 30
0.0
 10
115.2748077789
 20
95.3982028292
 30
0.0
 10
114.6237783177
 20
94.6114482064
 30
0.0
 10
114.0150174757
 20
93.7021797172
 30
0.0
 10
113.3508946089
 20
92.4907649642
 30
0.0
 10
112.6871914351
 20
90.9333320127
 30
0.0
 10
112.0845890487
 20
89.0104553203
 30
0.0
 10
111.6282505144
 20
86.9324036777
 30
0.0
 10
111.3279424931
 20
84.7434127883
 30
0.0
 10
111.1901151185
 20
82.4900723902
 30
0.0
 10
111.2177490086
 20
80.2205471276
 30
0.0
 10
111.4102454313
 20
77.98335751
 30
0.0
 10
111.7634484726
 20
75.8262762984
 30
0.0
 10
112.2697786261
 20
73.7952007355
 30
0.0
 10
112.9184880007
 20
71.9330594321
 30
0.0
 10
113.6961652425
 20
70.2787813932
 30
0.0
 10
114.5873425416
 20
68.8664429251
 30
0.0
 10
115.576155636
 20
67.7249762948
 30
0.0
 10
116.6459349804
 20
66.8792526605
 30
0.0
 10
117.6093682225
 20
66.4343683331
 30
0.0
 10
118.3833738046
 20
66.261611004
 30
0.0
 10
118.7681391879
 20
66.2329628686
 30
0.0
 10
118.9586550604
 20
66.2329628686
 30
0.0
  0
SPLINE
  5
527
100
AcDbEntity
  8
3_ALL_AXES
100
AcDbSpline
 62
7
  6
CONTINUOUS
 70
0
 71
3
 72
33
 73
29
 74
0
 42
0.0000001
 43
0.0000001
 44
0.0000000001
 40
0.0
 40
0.0
 40
0.0
 40
0.0
 40
0.020341363
 40
0.0412570856
 40
0.0632477091
 40
0.0867157343
 40
0.1119381188
 40
0.1390789518
 40
0.1682034779
 40
0.1992956419
 40
0.2494154051
 40
0.303276284
 40
0.3601884481
 40
0.4193229153
 40
0.4797584553
 40
0.5405227436
 40
0.6006308977
 40
0.6591233171
 40
0.7151047345
 40
0.7677868679
 40
0.8165382549
 40
0.8609470255
 40
0.9009041142
 40
0.9367140569
 40
0.9533339454
 40
0.9692844278
 40
0.9847666626
 40
1.0
 40
1.0
 40
1.0
 40
1.0
 10
118.9586550604
 20
101.6329628686
 30
0.0
 10
119.2852909122
 20
101.6329628686
 30
0.0
 10
119.9495183936
 20
101.5667732745
 30
0.0
 10
120.9273907023
 20
101.2725674422
 30
0.0
 10
121.882403904
 20
100.7881150725
 30
0.0
 10
122.8052291854
 20
100.120523366
 30
0.0
 10
123.6882473682
 20
99.2773785201
 30
0.0
 10
124.5240806681
 20
98.2672799425
 30
0.0
 10
125.3056351969
 20
97.099884123
 30
0.0
 10
126.1583059952
 20
95.5445958797
 30
0.0
 10
127.0103982042
 20
93.5450456528
 30
0.0
 10
127.7840644207
 20
91.0763207216
 30
0.0
 10
128.3699449826
 20
88.4083712512
 30
0.0
 10
128.7555063279
 20
85.5979913178
 30
0.0
 10
128.9324595352
 20
82.7049935014
 30
0.0
 10
128.8969792148
 20
79.7912158377
 30
0.0
 10
128.6498388431
 20
76.9189526122
 30
0.0
 10
128.1963717724
 20
74.1495359919
 30
0.0
 10
127.5463198109
 20
71.541895236
 30
0.0
 10
126.7134403593
 20
69.1511357974
 30
0.0
 10
125.7150801658
 20
67.0272798866
 30
0.0
 10
124.5706592852
 20
65.2139539801
 30
0.0
 10
123.30197932
 20
63.7486910031
 30
0.0
 10
122.1277436985
 20
62.8215662292
 30
0.0
 10
121.1555718498
 20
62.3055343355
 30
0.0
 10
120.4308977947
 20
62.0336464476
 30
0.0
 10
119.6972336755
 20
61.8696773812
 30
0.0
 10
119.2032676832
 20
61.8329628686
 30
0.0
 10
118.9586550604
 20
61.8329628686
 30
0.0
  0
SPLINE
  5
528
100
AcDbEntity
  8
3_ALL_AXES
100
AcDbSpline
 62
7
  6
CONTINUOUS
 70
0
 71
3
 72
27
 73
23
 74
0
 42
0.0000001
 43
0.0000001
 44
0.0000000001
 40
0.0
 40
0.0
 40
0.0
 40
0.0
 40
0.0204592549
 40
0.0419132796
 40
0.0647016295
 40
0.0890628801
 40
0.1429560212
 40
0.2039946466
 40
0.2715911685
 40
0.3445562076
 40
0.4213031904
 40
0.5
 40
0.5786968096
 40
0.6554437924
 40
0.7284088315
 40
0.7960053534
 40
0.8570439788
 40
0.9109371199
 40
0.9352983705
 40
0.9580867204
 40
0.9795407451
 40
1.0
 40
1.0
 40
1.0
 40
1.0
 10
118.9439863623
 20
97.1391381682
 30
0.0
 10
119.1823866267
 20
97.0864630716
 30
0.0
 10
119.661857292
 20
96.9341690244
 30
0.0
 10
120.3522922355
 20
96.5821026525
 30
0.0
 10
121.0218866123
 20
96.1064994833
 30
0.0
 10
121.909403608
 20
95.2862321863
 30
0.0
 10
122.9269469612
 20
93.9565336205
 30
0.0
 10
123.9451093836
 20
92.0227164033
 30
0.0
 10
124.7728138594
 20
89.7571863933
 30
0.0
 10
125.3838508906
 20
87.2320908967
 30
0.0
 10
125.7587451501
 20
84.5280771636
 30
0.0
 10
125.8850873863
 20
81.7329628686
 30
0.0
 10
125.7587451501
 20
78.9378485735
 30
0.0
 10
125.3838508906
 20
76.2338348404
 30
0.0
 10
124.7728138594
 20
73.7087393439
 30
0.0
 10
123.9451093836
 20
71.4432093339
 30
0.0
 10
122.9269469612
 20
69.5093921166
 30
0.0
 10
121.909403608
 20
68.1796935509
 30
0.0
 10
121.0218866123
 20
67.3594262539
 30
0.0
 10
120.3522922355
 20
66.8838230847
 30
0.0
 10
119.661857292
 20
66.5317567128
 30
0.0
 10
119.1823866267
 20
66.3794626655
 30
0.0
 10
118.9439863623
 20
66.3267875689
 30
0.0
  0
SPLINE
  5
529
100
AcDbEntity
  8
3_ALL_AXES
100
AcDbSpline
 62
7
  6
CONTINUOUS
 70
0
 71
3
 72
32
 73
28
 74
0
 42
0.0000001
 43
0.0000001
 44
0.0000000001
 40
0.0
 40
0.0
 40
0.0
 40
0.0
 40
0.0203418993
 40
0.0412601361
 40
0.0632519097
 40
0.0867214957
 40
0.1119458035
 40
0.1390882812
 40
0.168214628
 40
0.1993090789
 40
0.2494321347
 40
0.3032966292
 40
0.3602126656
 40
0.4193511579
 40
0.4797907802
 40
0.5405591659
 40
0.6006713696
 40
0.6591677014
 40
0.7151528227
 40
0.7678384392
 40
0.8165931307
 40
0.8610049871
 40
0.9009648266
 40
0.9367771938
 40
0.9692825652
 40
0.9847665581
 40
1.0
 40
1.0
 40
1.0
 40
1.0
 10
118.9586550604
 20
97.2329628686
 30
0.0
 10
119.2130594633
 20
97.2329628686
 30
0.0
 10
119.730423252
 20
97.1813907832
 30
0.0
 10
120.4920881151
 20
96.9522606971
 30
0.0
 10
121.2359526713
 20
96.5749186532
 30
0.0
 10
121.9547291269
 20
96.0549285138
 30
0.0
 10
122.6425023419
 20
95.3982028292
 30
0.0
 10
123.2935318031
 20
94.6114482064
 30
0.0
 10
123.9022926452
 20
93.7021797172
 30
0.0
 10
124.566415512
 20
92.4907649642
 30
0.0
 10
125.2301186858
 20
90.9333320127
 30
0.0
 10
125.8327210721
 20
89.0104553203
 30
0.0
 10
126.2890596064
 20
86.9324036777
 30
0.0
 10
126.5893676278
 20
84.7434127883
 30
0.0
 10
126.7271950024
 20
82.4900723902
 30
0.0
 10
126.6995611123
 20
80.2205471276
 30
0.0
 10
126.5070646896
 20
77.98335751
 30
0.0
 10
126.1538616482
 20
75.8262762984
 30
0.0
 10
125.6475314948
 20
73.7952007355
 30
0.0
 10
124.9988221202
 20
71.9330594321
 30
0.0
 10
124.2211448783
 20
70.2787813932
 30
0.0
 10
123.3299675793
 20
68.8664429251
 30
0.0
 10
122.3411544849
 20
67.7249762948
 30
0.0
 10
121.2713751405
 20
66.8792526605
 30
0.0
 10
120.3079418984
 20
66.4343683331
 30
0.0
 10
119.5339363162
 20
66.261611004
 30
0.0
 10
119.1491709329
 20
66.2329628686
 30
0.0
 10
118.9586550604
 20
66.2329628686
 30
0.0
  0
SPLINE
  5
52A
100
AcDbEntity
  8
3_ALL_AXES
100
AcDbSpline
 62
7
  6
CONTINUOUS
 70
0
 71
3
 72
33
 73
29
 74
0
 42
0.0000001
 43
0.0000001
 44
0.0000000001
 40
0.0
 40
0.0
 40
0.0
 40
0.0
 40
0.020341363
 40
0.0412570856
 40
0.0632477091
 40
0.0867157343
 40
0.1119381188
 40
0.1390789518
 40
0.1682034779
 40
0.1992956419
 40
0.2494154051
 40
0.303276284
 40
0.3601884481
 40
0.4193229153
 40
0.4797584553
 40
0.5405227436
 40
0.6006308977
 40
0.6591233171
 40
0.7151047345
 40
0.7677868679
 40
0.8165382549
 40
0.8609470255
 40
0.9009041142
 40
0.9367140569
 40
0.9533339454
 40
0.9692844278
 40
0.9847666626
 40
1.0
 40
1.0
 40
1.0
 40
1.0
 10
118.9586550604
 20
101.6329628686
 30
0.0
 10
118.6320192086
 20
101.6329628686
 30
0.0
 10
117.9677917272
 20
101.5667732745
 30
0.0
 10
116.9899194185
 20
101.2725674422
 30
0.0
 10
116.0349062169
 20
100.7881150725
 30
0.0
 10
115.1120809354
 20
100.120523366
 30
0.0
 10
114.2290627527
 20
99.2773785201
 30
0.0
 10
113.3932294528
 20
98.2672799425
 30
0.0
 10
112.611674924
 20
97.099884123
 30
0.0
 10
111.7590041256
 20
95.5445958797
 30
0.0
 10
110.9069119167
 20
93.5450456528
 30
0.0
 10
110.1332457001
 20
91.0763207216
 30
0.0
 10
109.5473651383
 20
88.4083712512
 30
0.0
 10
109.1618037929
 20
85.5979913178
 30
0.0
 10
108.9848505857
 20
82.7049935014
 30
0.0
 10
109.020330906
 20
79.7912158377
 30
0.0
 10
109.2674712777
 20
76.9189526122
 30
0.0
 10
109.7209383485
 20
74.1495359919
 30
0.0
 10
110.3709903099
 20
71.541895236
 30
0.0
 10
111.2038697615
 20
69.1511357974
 30
0.0
 10
112.202229955
 20
67.0272798866
 30
0.0
 10
113.3466508356
 20
65.2139539801
 30
0.0
 10
114.6153308008
 20
63.7486910031
 30
0.0
 10
115.7895664224
 20
62.8215662292
 30
0.0
 10
116.761738271
 20
62.3055343355
 30
0.0
 10
117.4864123261
 20
62.0336464476
 30
0.0
 10
118.2200764453
 20
61.8696773812
 30
0.0
 10
118.7140424377
 20
61.8329628686
 30
0.0
 10
118.9586550604
 20
61.8329628686
 30
0.0
  0
SPLINE
  5
52B
100
AcDbEntity
  8
7_ALL_FEATURES
100
AcDbSpline
 62
7
  6
CONTINUOUS
 70
0
 71
3
 72
23
 73
19
 74
0
 42
0.0000001
 43
0.0000001
 44
0.0000000001
 40
0.0
 40
0.0
 40
0.0
 40
0.0
 40
0.0626321254
 40
0.1252059516
 40
0.1876618016
 40
0.249925075
 40
0.3120348764
 40
0.3742321713
 40
0.4368977453
 40
0.5000581392
 40
0.5632156033
 40
0.6258728029
 40
0.6880571348
 40
0.7501441877
 40
0.8123841009
 40
0.8748152209
 40
0.937372293
 40
1.0
 40
1.0
 40
1.0
 40
1.0
 10
79.2080890267
 20
61.7329628684
 30
0.0
 10
77.9734550574
 20
61.7329628684
 30
0.0
 10
75.4961404442
 20
62.0169873971
 30
0.0
 10
71.9825360192
 20
63.267342202
 30
0.0
 10
68.8394424355
 20
65.2618412141
 30
0.0
 10
66.2071939172
 20
67.8766916903
 30
0.0
 10
64.1653738818
 20
70.9641161347
 30
0.0
 10
62.7338268135
 20
74.3815216191
 30
0.0
 10
61.8922607692
 20
78.007383834
 30
0.0
 10
61.6153776777
 20
81.7363765401
 30
0.0
 10
61.8932815768
 20
85.4651259178
 30
0.0
 10
62.7357422152
 20
89.0902905393
 30
0.0
 10
64.1679320166
 20
92.506473226
 30
0.0
 10
66.209814617
 20
95.5924400722
 30
0.0
 10
68.8416433914
 20
98.2057051746
 30
0.0
 10
71.9838792765
 20
100.1990806132
 30
0.0
 10
75.4966379094
 20
101.449049565
 30
0.0
 10
77.9735421557
 20
101.7329628684
 30
0.0
 10
79.2080890267
 20
101.7329628684
 30
0.0
  0
SPLINE
  5
52C
100
AcDbEntity
  8
7_ALL_FEATURES
100
AcDbSpline
 62
9
  6
CONTINUOUS
 70
0
 71
3
 72
33
 73
29
 74
0
 42
0.0000001
 43
0.0000001
 44
0.0000000001
 40
0.0
 40
0.0
 40
0.0
 40
0.0
 40
0.02033997
 40
0.041257479
 40
0.0632476757
 40
0.0867156491
 40
0.1119382747
 40
0.1390787907
 40
0.1682033629
 40
0.1992957212
 40
0.2494154128
 40
0.3032762704
 40
0.3601884394
 40
0.4193228998
 40
0.4797584089
 40
0.5405226816
 40
0.6006308436
 40
0.6591232642
 40
0.715104654
 40
0.7677867604
 40
0.8165381959
 40
0.8609470642
 40
0.9009042228
 40
0.9367140799
 40
0.9533333481
 40
0.9692848486
 40
0.9847681727
 40
1.0
 40
1.0
 40
1.0
 40
1.0
 10
79.2080890267
 20
61.7329628684
 30
0.0
 10
78.8798343314
 20
61.7329628684
 30
0.0
 10
78.2122685054
 20
61.7995230095
 30
0.0
 10
77.2294696477
 20
62.0951522442
 30
0.0
 10
76.2696314078
 20
62.5820448089
 30
0.0
 10
75.3421969472
 20
63.2530222413
 30
0.0
 10
74.4547395944
 20
64.1003956272
 30
0.0
 10
73.6146884295
 20
65.1155552279
 30
0.0
 10
72.829210037
 20
66.2888190372
 30
0.0
 10
71.9722716584
 20
67.851934484
 30
0.0
 10
71.1158854221
 20
69.8615280237
 30
0.0
 10
70.3383349077
 20
72.34265844
 30
0.0
 10
69.7495124048
 20
75.0240140442
 30
0.0
 10
69.3620172827
 20
77.8485159401
 30
0.0
 10
69.1841732807
 20
80.756049754
 30
0.0
 10
69.219827174
 20
83.6844683875
 30
0.0
 10
69.4682061566
 20
86.5711647871
 30
0.0
 10
69.9239515964
 20
89.3544973695
 30
0.0
 10
70.5772720984
 20
91.9752399986
 30
0.0
 10
71.4143398338
 20
94.378011675
 30
0.0
 10
72.4177144909
 20
96.5125422724
 30
0.0
 10
73.5678816382
 20
98.3349882265
 30
0.0
 10
74.8429379
 20
99.8076114879
 30
0.0
 10
76.023057053
 20
100.7394059548
 30
0.0
 10
77.0001301493
 20
101.2580077292
 30
0.0
 10
77.7284636558
 20
101.5312878024
 30
0.0
 10
78.4658343356
 20
101.6960312673
 30
0.0
 10
78.9622716134
 20
101.7329628684
 30
0.0
 10
79.2080890267
 20
101.7329628684
 30
0.0
  0
SPLINE
  5
52D
100
AcDbEntity
  8
3_ALL_AXES
100
AcDbSpline
 62
7
  6
CONTINUOUS
 70
0
 71
3
 72
33
 73
29
 74
0
 42
0.0000001
 43
0.0000001
 44
0.0000000001
 40
0.0
 40
0.0
 40
0.0
 40
0.0
 40
0.0203399677
 40
0.0412574765
 40
0.0632476762
 40
0.0867156484
 40
0.1119382738
 40
0.1390787913
 40
0.1682033644
 40
0.1992957222
 40
0.2494154124
 40
0.3032762702
 40
0.3601884397
 40
0.4193228999
 40
0.4797584088
 40
0.5405226814
 40
0.6006308432
 40
0.6591232638
 40
0.7151046542
 40
0.7677867603
 40
0.8165381943
 40
0.8609470635
 40
0.9009042238
 40
0.9367140793
 40
0.9533333496
 40
0.9692848519
 40
0.9847681742
 40
1.0
 40
1.0
 40
1.0
 40
1.0
 10
92.1984700835
 20
101.7329628684
 30
0.0
 10
91.8702154261
 20
101.7329628684
 30
0.0
 10
91.2026496295
 20
101.6664028111
 30
0.0
 10
90.2198507967
 20
101.3707734604
 30
0.0
 10
89.2600124936
 20
100.8838809745
 30
0.0
 10
88.3325780056
 20
100.2129035192
 30
0.0
 10
87.4451206775
 20
99.3655301084
 30
0.0
 10
86.6050694663
 20
98.3503705003
 30
0.0
 10
85.8195910726
 20
97.1771066545
 30
0.0
 10
84.9626526969
 20
95.6139912245
 30
0.0
 10
84.1062664789
 20
93.604397707
 30
0.0
 10
83.3287159663
 20
91.1232673026
 30
0.0
 10
82.739893461
 20
88.4419116913
 30
0.0
 10
82.3523983391
 20
85.617409794
 30
0.0
 10
82.1745543377
 20
82.7098759865
 30
0.0
 10
82.2102082305
 20
79.7814573605
 30
0.0
 10
82.4585872112
 20
76.8947609657
 30
0.0
 10
82.9143326502
 20
74.1114283774
 30
0.0
 10
83.5676531542
 20
71.4906857438
 30
0.0
 10
84.4047208829
 20
69.0879140847
 30
0.0
 10
85.4080955289
 20
66.9533835008
 30
0.0
 10
86.558262674
 20
65.1309375198
 30
0.0
 10
87.8333189656
 20
63.6583142711
 30
0.0
 10
89.0134381151
 20
62.7265197283
 30
0.0
 10
89.9905112893
 20
62.2079180204
 30
0.0
 10
90.7188448108
 20
61.9346379019
 30
0.0
 10
91.456215466
 20
61.7698944155
 30
0.0
 10
91.9526526943
 20
61.7329628684
 30
0.0
 10
92.1984700835
 20
61.7329628684
 30
0.0
  0
ENDSEC
  0
SECTION
  2
OBJECTS
  0
DICTIONARY
  5
C
100
AcDbDictionary
280
0
281
1
  3
ACAD_GROUP
350
D
  3
ACAD_MLINESTYLE
350
17
  3
ACAD_LAYOUT
350
1A
  3
ACAD_PLOTSETTINGS
350
19
  3
ACAD_PLOTSTYLENAME
350
E
  3
ACAD_TABLESTYLE
350
       52E
  0
DICTIONARY
  5
D
102
{ACAD_REACTORS
330
C
102
}
100
AcDbDictionary
280
0
281
1
  0
ACDBDICTIONARYWDFLT
  5
E
102
{ACAD_REACTORS
330
C
102
}
100
AcDbDictionary
281
1
  3
Normal
350
F
100
AcDbDictionaryWithDefault
340
F
  0
DICTIONARY
  5
17
102
{ACAD_REACTORS
330
C
102
}
100
AcDbDictionary
280
0
281
1
  3
Standard
350
18
  0
DICTIONARY
  5
52E
330
C
100
AcDbDictionary
281
1
  3
Standard
350
       531
  3
Standard1
350
       532
  0
DICTIONARY
  5
19
102
{ACAD_REACTORS
330
C
102
}
100
AcDbDictionary
281
1
  0
DICTIONARY
  5
1A
102
{ACAD_REACTORS
330
C
102
}
100
AcDbDictionary
281
1
  3
Model
350
52F
  3
Layout1
350
530
  0
ACDBPLACEHOLDER
  5
F
102
{ACAD_REACTORS
330
E
102
}
  0
MLINESTYLE
  5
18
102
{ACAD_REACTORS
330
17
102
}
100
AcDbMlineStyle
  2
STANDARD
 70
0
  3

 62
256
 51
90.0
 52
90.0
 71
2
 49
0.5
 62
256
  6
BYLAYER
 49
-0.5
 62
256
  6
BYLAYER
  0
LAYOUT
  5
52F
102
{ACAD_REACTORS
330
1A
102
}
100
AcDbPlotSettings
  1

  2
none_device
  4
ISO_A3_(420.00_x_297.00_MM)
  6

 40
0.0
 41
0.0
 42
0.0
 43
0.0
 44
420.0
 45
297.0
 46
0.0
 47
0.0
 48
0.0
 49
0.0
140
0.0
141
0.0
142
1.0
143
1.0
 70
1024
 72
1
 73
0
 74
0
  7

 75
0
147
1.0
148
0.0
149
0.0
100
AcDbLayout
  1
Model
 70
0
 71
0
 10
0.0
 20
0.0
 11
420.0
 21
297.0
 12
0.0
 22
0.0
 32
0.0
 14
0.0
 24
0.0
 34
0.0
 15
0.0
 25
0.0
 35
0.0
146
0.0
 13
0.0
 23
0.0
 33
0.0
 16
1.0
 26
0.0
 36
0.0
 17
0.0
 27
1.0
 37
0.0
 76
0
330
220
345
0
346
0
  0
LAYOUT
  5
530
102
{ACAD_REACTORS
330
1A
102
}
100
AcDbPlotSettings
  1

  2
none_device
  4
ISO_A3_(420.00_x_297.00_MM)
  6

 40
0.0
 41
0.0
 42
0.0
 43
0.0
 44
420.0
 45
297.0
 46
0.0
 47
0.0
 48
0.0
 49
0.0
140
0.0
141
0.0
142
1.0
143
1.0
 70
0
 72
1
 73
0
 74
0
  7

 75
0
147
1.0
148
0.0
149
0.0
100
AcDbLayout
  1
Layout1
 70
0
 71
1
 10
0.0
 20
0.0
 11
420.0
 21
297.0
 12
0.0
 22
0.0
 32
0.0
 14
0.0
 24
0.0
 34
0.0
 15
0.0
 25
0.0
 35
0.0
146
0.0
 13
0.0
 23
0.0
 33
0.0
 16
1.0
 26
0.0
 36
0.0
 17
0.0
 27
1.0
 37
0.0
 76
0
330
221
345
0
346
0
  0
TABLESTYLE
  5
531
102
{ACAD_REACTORS
330
52E
330
3C7
102
}
330
52E
100
AcDbTableStyle
  3
Standard
 70
0
 71
0
 40
0.06
 41
0.06
280
1
281
1
  7
Standard
140
0.18
170
1
 62
0
 63
7
283
0
  7
Standard
140
0.18
170
1
 62
0
 63
7
283
0
  7
Standard
140
0.18
170
1
 62
0
 63
7
283
0
  0
TABLESTYLE
  5
532
102
{ACAD_REACTORS
330
52E
102
}
330
52E
100
AcDbTableStyle
  3
Standard1
 70
1
 71
0
 40
0.06
 41
0.06
280
1
281
1
  7
Standard
140
0.18
170
1
 62
0
 63
7
283
0
  7
Standard
140
0.18
170
1
 62
0
 63
7
283
0
  7
Standard
140
0.18
170
1
 62
0
 63
7
283
0
  0
ENDSEC
  0
EOF
