999
DXF file: 2f9_c_001.dxf
999
Pro/ENGINEER 2016360 by Parametric Technology Corporation
  0
SECTION
  2
HEADER
  9
$ACADVER
  1
AC1014
  9
$DWGCODEPAGE
  3
ANSI_1252
  9
$EXTMAX
 10
420.0
 20
297.0
 30
0.0
  9
$EXTMIN
 10
0.0
 20
0.0
 30
0.0
  9
$LIMMIN
 10
0.0
 20
0.0
  9
$LIMMAX
 10
420.0
 20
297.0
  9
$VIEWCTR
 10
210.0
 20
148.5
  9
$VIEWSIZE
 40
297.0
  9
$CLAYER
  8
0
  9
$LTSCALE
 40
23.1
  9
$CELTYPE
  6
BYLAYER
  9
$DIMSCALE
 40
1.0
  9
$DIMASZ
 40
2.5
  9
$DIMEXO
 40
0.75
  9
$DIMDLI
 40
15.96
  9
$DIMEXE
 40
0.75
  9
$DIMCEN
 40
3.78
  9
$DIMLFAC
 40
1.0
  9
$DIMBLK
  1
_CLOSED
  9
$DIMALT
 70
0
  9
$DIMALTF
 40
25.4
  9
$DIMTXT
 40
3.0
  9
$DIMTOL
 70
1
  9
$DIMLIM
 70
0
  9
$DIMTFAC
 40
1.0
  9
$DIMTP
 40
0.01
  9
$DIMTM
 40
0.01
  9
$DIMGAP
 40
0.625
  9
$AUNITS
 70
0
  9
$PDMODE
 70
3
  9
$PDSIZE
 40
0.3125
  9
$HANDSEED
  5
4FF
  9
$TILEMODE
 70
1
  9
$MEASUREMENT
 70
1
  0
ENDSEC
  0
SECTION
  2
CLASSES
  0
ENDSEC
  0
SECTION
  2
TABLES
  0
TABLE
  2
VPORT
  5
8
100
AcDbSymbolTable
 70
2
  0
VPORT
  5
1F4
100
AcDbSymbolTableRecord
100
AcDbViewportTableRecord
  2
*ACTIVE
 70
0
 10
0.0
 20
0.0
 11
1.0
 21
1.0
 12
210.0
 22
148.5
 13
0.0
 23
0.0
 14
1.0
 24
1.0
 15
0.0
 25
0.0
 16
0.0
 26
0.0
 36
1.0
 17
0.0
 27
0.0
 37
0.0
 40
297.0
 41
1.4141414141
 42
50.0
 43
0.0
 44
0.0
 50
0.0
 51
0.0
 71
0
 72
100
 73
1
 74
1
 75
0
 76
0
 77
0
 78
0
  0
ENDTAB
  0
TABLE
  2
LTYPE
  5
5
100
AcDbSymbolTable
 70
6
  0
LTYPE
  5
14
100
AcDbSymbolTableRecord
100
AcDbLinetypeTableRecord
  2
BYBLOCK
 70
0
  3

 72
65
 73
0
 40
0.0
  0
LTYPE
  5
15
100
AcDbSymbolTableRecord
100
AcDbLinetypeTableRecord
  2
BYLAYER
 70
0
  3

 72
65
 73
0
 40
0.0
  0
LTYPE
  5
16
100
AcDbSymbolTableRecord
100
AcDbLinetypeTableRecord
  2
CONTINUOUS
 70
64
  3
Solid line
 72
65
 73
0
 40
0.0
  0
LTYPE
  5
1F5
100
AcDbSymbolTableRecord
100
AcDbLinetypeTableRecord
  2
CENTER
 70
64
  3
____ _ ____ _ ____ _ ____ _ ____ _ ____ _ ____
 72
65
 73
4
 40
0.6
 49
0.375
 74
0
 49
-0.075
 74
0
 49
0.075
 74
0
 49
-0.075
 74
0
  0
LTYPE
  5
1F6
100
AcDbSymbolTableRecord
100
AcDbLinetypeTableRecord
  2
HIDDEN
 70
64
  3
- - - - - - - - - - - - - - - - - - - -
 72
65
 73
2
 40
0.2
 49
0.1
 74
0
 49
-0.1
 74
0
  0
LTYPE
  5
1F7
100
AcDbSymbolTableRecord
100
AcDbLinetypeTableRecord
  2
PHANTOM
 70
64
  3
_____ _ _ _____ _ _ _____ _ _ _____
 72
65
 73
6
 40
0.8
 49
0.45
 74
0
 49
-0.05
 74
0
 49
0.1
 74
0
 49
-0.05
 74
0
 49
0.1
 74
0
 49
-0.05
 74
0
  0
LTYPE
  5
1F8
100
AcDbSymbolTableRecord
100
AcDbLinetypeTableRecord
  2
DOT
 70
64
  3
. . . . . . . . . . . . . . . . . . . .
 72
65
 73
2
 40
0.2
 49
0.1
 74
0
 49
-0.1
 74
0
  0
LTYPE
  5
1F9
100
AcDbSymbolTableRecord
100
AcDbLinetypeTableRecord
  2
DASHED
 70
64
  3
- - - - - - - - - - - - - - - - - - - -
 72
65
 73
2
 40
0.2
 49
0.1
 74
0
 49
-0.1
 74
0
  0
ENDTAB
  0
TABLE
  2
LAYER
  5
2
100
AcDbSymbolTable
 70
36
  0
LAYER
  5
10
100
AcDbSymbolTableRecord
100
AcDbLayerTableRecord
  2
0
 70
0
 62
7
  6
CONTINUOUS
  0
LAYER
  5
1FA
100
AcDbSymbolTableRecord
100
AcDbLayerTableRecord
  2
DEFAULT_1
 70
0
 62
7
  6
CENTER
  0
LAYER
  5
1FB
100
AcDbSymbolTableRecord
100
AcDbLayerTableRecord
  2
DEFAULT_2
 70
0
 62
8
  6
HIDDEN
  0
LAYER
  5
1FC
100
AcDbSymbolTableRecord
100
AcDbLayerTableRecord
  2
DEFAULT_3
 70
0
 62
7
  6
PHANTOM
  0
LAYER
  5
1FD
100
AcDbSymbolTableRecord
100
AcDbLayerTableRecord
  2
01_ALL_DTM_PLN
 70
0
 62
7
  6
CONTINUOUS
  0
LAYER
  5
1FE
100
AcDbSymbolTableRecord
100
AcDbLayerTableRecord
  2
01__ASM_ALL_DTM_PLN
 70
0
 62
7
  6
CONTINUOUS
  0
LAYER
  5
1FF
100
AcDbSymbolTableRecord
100
AcDbLayerTableRecord
  2
01__ASM_DEF_DTM_PLN
 70
0
 62
7
  6
CONTINUOUS
  0
LAYER
  5
200
100
AcDbSymbolTableRecord
100
AcDbLayerTableRecord
  2
01___PRT_ALL_DTM_PLN
 70
0
 62
7
  6
CONTINUOUS
  0
LAYER
  5
201
100
AcDbSymbolTableRecord
100
AcDbLayerTableRecord
  2
01___PRT_DEF_DTM_PLN
 70
0
 62
7
  6
CONTINUOUS
  0
LAYER
  5
202
100
AcDbSymbolTableRecord
100
AcDbLayerTableRecord
  2
02_ALL_AXES
 70
0
 62
7
  6
CONTINUOUS
  0
LAYER
  5
203
100
AcDbSymbolTableRecord
100
AcDbLayerTableRecord
  2
02__ASM_ALL_AXES
 70
0
 62
7
  6
CONTINUOUS
  0
LAYER
  5
204
100
AcDbSymbolTableRecord
100
AcDbLayerTableRecord
  2
02___PRT_ALL_AXES
 70
0
 62
7
  6
CONTINUOUS
  0
LAYER
  5
205
100
AcDbSymbolTableRecord
100
AcDbLayerTableRecord
  2
03_ALL_CURVES
 70
0
 62
7
  6
CONTINUOUS
  0
LAYER
  5
206
100
AcDbSymbolTableRecord
100
AcDbLayerTableRecord
  2
03__ASM_ALL_CURVES
 70
0
 62
7
  6
CONTINUOUS
  0
LAYER
  5
207
100
AcDbSymbolTableRecord
100
AcDbLayerTableRecord
  2
03___PRT_ALL_CURVES
 70
0
 62
7
  6
CONTINUOUS
  0
LAYER
  5
208
100
AcDbSymbolTableRecord
100
AcDbLayerTableRecord
  2
04_ALL_DTM_PNT
 70
0
 62
7
  6
CONTINUOUS
  0
LAYER
  5
209
100
AcDbSymbolTableRecord
100
AcDbLayerTableRecord
  2
04__ASM_ALL_DTM_PNT
 70
0
 62
7
  6
CONTINUOUS
  0
LAYER
  5
20A
100
AcDbSymbolTableRecord
100
AcDbLayerTableRecord
  2
04___PRT_ALL_DTM_PNT
 70
0
 62
7
  6
CONTINUOUS
  0
LAYER
  5
20B
100
AcDbSymbolTableRecord
100
AcDbLayerTableRecord
  2
05_ALL_DTM_CSYS
 70
0
 62
7
  6
CONTINUOUS
  0
LAYER
  5
20C
100
AcDbSymbolTableRecord
100
AcDbLayerTableRecord
  2
05__ASM_ALL_DTM_CSYS
 70
0
 62
7
  6
CONTINUOUS
  0
LAYER
  5
20D
100
AcDbSymbolTableRecord
100
AcDbLayerTableRecord
  2
05__ASM_DEF_DTM_CSYS
 70
0
 62
7
  6
CONTINUOUS
  0
LAYER
  5
20E
100
AcDbSymbolTableRecord
100
AcDbLayerTableRecord
  2
05___PRT_ALL_DTM_CSYS
 70
0
 62
7
  6
CONTINUOUS
  0
LAYER
  5
20F
100
AcDbSymbolTableRecord
100
AcDbLayerTableRecord
  2
05___PRT_DEF_DTM_CSYS
 70
0
 62
7
  6
CONTINUOUS
  0
LAYER
  5
210
100
AcDbSymbolTableRecord
100
AcDbLayerTableRecord
  2
06_ALL_SURFS
 70
0
 62
7
  6
CONTINUOUS
  0
LAYER
  5
211
100
AcDbSymbolTableRecord
100
AcDbLayerTableRecord
  2
06__ASM_ALL_SURFS
 70
0
 62
7
  6
CONTINUOUS
  0
LAYER
  5
212
100
AcDbSymbolTableRecord
100
AcDbLayerTableRecord
  2
06___PRT_ALL_SURFS
 70
0
 62
7
  6
CONTINUOUS
  0
LAYER
  5
213
100
AcDbSymbolTableRecord
100
AcDbLayerTableRecord
  2
07__ASM_ALL_SKELETONS
 70
0
 62
7
  6
CONTINUOUS
  0
LAYER
  5
214
100
AcDbSymbolTableRecord
100
AcDbLayerTableRecord
  2
1_ALL_PLANES
 70
0
 62
7
  6
CONTINUOUS
  0
LAYER
  5
215
100
AcDbSymbolTableRecord
100
AcDbLayerTableRecord
  2
2_ALL_CSYS
 70
0
 62
7
  6
CONTINUOUS
  0
LAYER
  5
216
100
AcDbSymbolTableRecord
100
AcDbLayerTableRecord
  2
3_ALL_AXES
 70
0
 62
7
  6
CONTINUOUS
  0
LAYER
  5
217
100
AcDbSymbolTableRecord
100
AcDbLayerTableRecord
  2
4_ALL_POINTS
 70
0
 62
7
  6
CONTINUOUS
  0
LAYER
  5
218
100
AcDbSymbolTableRecord
100
AcDbLayerTableRecord
  2
5_ALL_CURVES
 70
0
 62
7
  6
CONTINUOUS
  0
LAYER
  5
219
100
AcDbSymbolTableRecord
100
AcDbLayerTableRecord
  2
5__COSTRUZIONE
 70
0
 62
7
  6
CONTINUOUS
  0
LAYER
  5
21A
100
AcDbSymbolTableRecord
100
AcDbLayerTableRecord
  2
6_ALL_SURFS
 70
0
 62
7
  6
CONTINUOUS
  0
LAYER
  5
21B
100
AcDbSymbolTableRecord
100
AcDbLayerTableRecord
  2
7_ALL_FEATURES
 70
0
 62
7
  6
CONTINUOUS
  0
LAYER
  5
21C
100
AcDbSymbolTableRecord
100
AcDbLayerTableRecord
  2
9_SOLID
 70
0
 62
7
  6
CONTINUOUS
  0
LAYER
  5
21D
100
AcDbSymbolTableRecord
100
AcDbLayerTableRecord
  2
CLOSED_SHELL
 70
0
 62
7
  6
CONTINUOUS
  0
LAYER
  5
21E
100
AcDbSymbolTableRecord
100
AcDbLayerTableRecord
  2
INTFCLR_2
 70
0
 62
7
  6
CONTINUOUS
  0
LAYER
  5
21F
100
AcDbSymbolTableRecord
100
AcDbLayerTableRecord
  2
INTFCLR_3
 70
0
 62
7
  6
CONTINUOUS
  0
LAYER
  5
220
100
AcDbSymbolTableRecord
100
AcDbLayerTableRecord
  2
INTF_CYAN
 70
0
 62
7
  6
CONTINUOUS
  0
LAYER
  5
221
100
AcDbSymbolTableRecord
100
AcDbLayerTableRecord
  2
XXX_SOLIDO
 70
0
 62
7
  6
CONTINUOUS
  0
ENDTAB
  0
TABLE
  2
STYLE
  5
3
100
AcDbSymbolTable
 70
1
  0
STYLE
  5
11
100
AcDbSymbolTableRecord
100
AcDbTextStyleTableRecord
  2
STANDARD
 70
0
 40
0.0
 41
1.0
 50
0.0
 71
0
 42
0.2
  3
arial.ttf
  4

  0
STYLE
  5
222
100
AcDbSymbolTableRecord
100
AcDbTextStyleTableRecord
  2
TEXTSTYLE_1
 70
0
 40
0.0
 41
0.8
 50
0.0
 71
0
 42
0.2
  3
gdt
  4

  0
STYLE
  5
223
100
AcDbSymbolTableRecord
100
AcDbTextStyleTableRecord
  2
TEXTSTYLE_2
 70
0
 40
0.0
 41
0.85
 50
0.0
 71
0
 42
0.2
  3
gdt
  4

  0
STYLE
  5
224
100
AcDbSymbolTableRecord
100
AcDbTextStyleTableRecord
  2
TEXTSTYLE_3
 70
0
 40
0.0
 41
0.85
 50
0.0
 71
0
 42
0.2
  3
txt
  4

  0
ENDTAB
  0
TABLE
  2
VIEW
  5
6
100
AcDbSymbolTable
 70
0
  0
ENDTAB
  0
TABLE
  2
UCS
  5
7
100
AcDbSymbolTable
 70
0
  0
ENDTAB
  0
TABLE
  2
APPID
  5
9
100
AcDbSymbolTable
 70
1
  0
APPID
  5
225
100
AcDbSymbolTableRecord
100
AcDbRegAppTableRecord
  2
ACAD
 70
0
  0
ENDTAB
  0
TABLE
  2
BLOCK_RECORD
  5
1
100
AcDbSymbolTable
 70
0
  0
BLOCK_RECORD
  5
1F
100
AcDbSymbolTableRecord
100
AcDbBlockTableRecord
  2
*MODEL_SPACE
  0
BLOCK_RECORD
  5
1B
100
AcDbSymbolTableRecord
100
AcDbBlockTableRecord
  2
*PAPER_SPACE
  0
BLOCK_RECORD
  5
226
100
AcDbSymbolTableRecord
100
AcDbBlockTableRecord
  2
_CLOSED
  0
BLOCK_RECORD
  5
227
100
AcDbSymbolTableRecord
100
AcDbBlockTableRecord
  2
*D0
  0
BLOCK_RECORD
  5
228
100
AcDbSymbolTableRecord
100
AcDbBlockTableRecord
  2
*D1
  0
BLOCK_RECORD
  5
229
100
AcDbSymbolTableRecord
100
AcDbBlockTableRecord
  2
*D2
  0
BLOCK_RECORD
  5
22A
100
AcDbSymbolTableRecord
100
AcDbBlockTableRecord
  2
*D3
  0
BLOCK_RECORD
  5
22B
100
AcDbSymbolTableRecord
100
AcDbBlockTableRecord
  2
*D4
  0
BLOCK_RECORD
  5
22C
100
AcDbSymbolTableRecord
100
AcDbBlockTableRecord
  2
*D5
  0
BLOCK_RECORD
  5
22D
100
AcDbSymbolTableRecord
100
AcDbBlockTableRecord
  2
*D6
  0
BLOCK_RECORD
  5
22E
100
AcDbSymbolTableRecord
100
AcDbBlockTableRecord
  2
LOGO2_BL0
  0
ENDTAB
  0
TABLE
  2
DIMSTYLE
  5
A
100
AcDbSymbolTable
 70
1
  0
DIMSTYLE
105
22F
100
AcDbSymbolTableRecord
100
AcDbDimStyleTableRecord
  2
STANDARD
 70
0
  3

  4

  5
_CLOSED
  6
_CLOSED
  7
_CLOSED
 40
1.0
 41
2.5
 42
0.75
 43
0.38
 44
0.75
 45
0.0
 46
0.0
 47
0.01
 48
0.01
140
3.0
141
0.09
142
0.0
143
25.4
144
1.0
145
0.0
146
1.0
147
0.625
 71
1.0
 72
0.0
 73
0
 74
0
 75
0
 76
0
 77
1
 78
8
 79
2
170
0
171
1
172
0
173
0
174
0
175
0
176
0
177
0
178
0
270
2
179
2
271
2
272
2
273
2
274
2
275
0
280
0
281
0
282
0
283
1
284
8
285
0
286
0
287
3
288
0
340
11
  0
DIMSTYLE
105
230
100
AcDbSymbolTableRecord
100
AcDbDimStyleTableRecord
  2
DIMSTYLE_1
 70
0
  3

  4

  5
_CLOSED
  6
_CLOSED
  7
_CLOSED
 40
1.0
 41
2.5
 42
0.75
 43
0.38
 44
0.75
 45
0.0
 46
0.0
 47
0.3
 48
0.3
140
3.0
141
0.09
142
0.0
143
25.4
144
1.0
145
0.0
146
1.0
147
0.75
 71
0.0
 72
0.0
 73
0
 74
0
 75
0
 76
0
 77
1
 78
8
 79
2
170
0
171
1
172
0
173
0
174
0
175
0
176
0
177
0
178
0
270
2
179
2
271
2
272
2
273
2
274
2
275
0
280
0
281
0
282
0
283
1
284
8
285
0
286
0
287
3
288
0
340
11
  0
DIMSTYLE
105
231
100
AcDbSymbolTableRecord
100
AcDbDimStyleTableRecord
  2
DIMSTYLE_2
 70
0
  3

  4

  5
_CLOSED
  6
_CLOSED
  7
_CLOSED
 40
1.0
 41
2.5
 42
0.75
 43
0.38
 44
0.75
 45
0.0
 46
0.0
 47
0.2
 48
0.2
140
3.0
141
0.09
142
0.0
143
25.4
144
1.0
145
0.0
146
1.0
147
0.75
 71
0.0
 72
0.0
 73
0
 74
0
 75
0
 76
0
 77
1
 78
8
 79
2
170
0
171
1
172
0
173
0
174
0
175
0
176
0
177
0
178
0
270
2
179
2
271
2
272
2
273
2
274
2
275
0
280
0
281
0
282
0
283
1
284
8
285
0
286
0
287
3
288
0
340
11
  0
ENDTAB
  0
ENDSEC
  0
SECTION
  2
BLOCKS
  0
BLOCK
  5
20
100
AcDbEntity
  8
0
100
AcDbBlockBegin
  2
*MODEL_SPACE
 70
0
 10
0.0
 20
0.0
 30
0.0
  3
*MODEL_SPACE
  1

  0
ENDBLK
  5
21
100
AcDbEntity
  8
0
100
AcDbBlockEnd
  0
BLOCK
  5
1C
100
AcDbEntity
  8
0
100
AcDbBlockBegin
  2
*PAPER_SPACE
 70
0
 10
0.0
 20
0.0
 30
0.0
  3
*PAPER_SPACE
  1

  0
ENDBLK
  5
1D
100
AcDbEntity
  8
0
100
AcDbBlockEnd
  0
BLOCK
  5
232
100
AcDbEntity
  8
0
100
AcDbBlockBegin
 62
2
  6
CONTINUOUS
  2
LOGO2_BL0
 70
64
 10
333.6475659158
 20
36.9217920391
  3
LOGO2_BL0
  1

  0
LINE
  5
233
100
AcDbEntity
  8
0
100
AcDbLine
 62
7
  6
CONTINUOUS
 10
325.390491144
 20
40.1172833779
 11
324.0861502147
 21
40.1172833779
  0
LINE
  5
234
100
AcDbEntity
  8
0
100
AcDbLine
 62
7
  6
CONTINUOUS
 10
324.0861502147
 20
40.1172833779
 11
324.0861502147
 21
29.6582173181
  0
LINE
  5
235
100
AcDbEntity
  8
0
100
AcDbLine
 62
7
  6
CONTINUOUS
 10
324.0861502147
 20
29.6582173181
 11
328.567205103
 21
29.6582173181
  0
LINE
  5
236
100
AcDbEntity
  8
0
100
AcDbLine
 62
7
  6
CONTINUOUS
 10
328.567205103
 20
29.6582173181
 11
328.567205103
 21
30.8510716431
  0
LINE
  5
237
100
AcDbEntity
  8
0
100
AcDbLine
 62
7
  6
CONTINUOUS
 10
328.567205103
 20
30.8510716431
 11
325.390491144
 21
30.8510716431
  0
LINE
  5
238
100
AcDbEntity
  8
0
100
AcDbLine
 62
7
  6
CONTINUOUS
 10
325.390491144
 20
30.8510716431
 11
325.390491144
 21
40.1172833779
  0
LINE
  5
239
100
AcDbEntity
  8
0
100
AcDbLine
 62
7
  6
CONTINUOUS
 10
340.3268173604
 20
40.1172833779
 11
339.0229998423
 21
40.1172833779
  0
LINE
  5
23A
100
AcDbEntity
  8
0
100
AcDbLine
 62
7
  6
CONTINUOUS
 10
339.0229998423
 20
40.1172833779
 11
339.0229998423
 21
29.6582173181
  0
LINE
  5
23B
100
AcDbEntity
  8
0
100
AcDbLine
 62
7
  6
CONTINUOUS
 10
339.0229998423
 20
29.6582173181
 11
343.5041855834
 21
29.6582173181
  0
LINE
  5
23C
100
AcDbEntity
  8
0
100
AcDbLine
 62
7
  6
CONTINUOUS
 10
343.5041855834
 20
29.6582173181
 11
343.5041855834
 21
30.8510716431
  0
LINE
  5
23D
100
AcDbEntity
  8
0
100
AcDbLine
 62
7
  6
CONTINUOUS
 10
343.5041855834
 20
30.8510716431
 11
340.3268173604
 21
30.8510716431
  0
LINE
  5
23E
100
AcDbEntity
  8
0
100
AcDbLine
 62
7
  6
CONTINUOUS
 10
340.3268173604
 20
30.8510716431
 11
340.3268173604
 21
40.1172833779
  0
LWPOLYLINE
  5
23F
100
AcDbEntity
  8
0
100
AcDbPolyline
 62
7
  6
CONTINUOUS
 90
2
 70
0
 43
0.2
 10
322.4405451256
 20
26.3146660112
 10
322.4405451256
 20
24.4576027618
  0
LWPOLYLINE
  5
240
100
AcDbEntity
  8
0
100
AcDbPolyline
 62
7
  6
CONTINUOUS
 90
2
 70
0
 43
0.2
 10
322.4405451256
 20
24.4576027618
 10
323.236261136
 20
24.4576027618
  0
LWPOLYLINE
  5
241
100
AcDbEntity
  8
0
100
AcDbPolyline
 62
7
  6
CONTINUOUS
 90
2
 70
0
 43
0.2
 10
323.236261136
 20
24.4576027618
 10
323.236261136
 20
24.6695843334
  0
LWPOLYLINE
  5
242
100
AcDbEntity
  8
0
100
AcDbPolyline
 62
7
  6
CONTINUOUS
 90
2
 70
0
 43
0.2
 10
323.236261136
 20
24.6695843334
 10
322.6721546205
 20
24.6695843334
  0
LWPOLYLINE
  5
243
100
AcDbEntity
  8
0
100
AcDbPolyline
 62
7
  6
CONTINUOUS
 90
2
 70
0
 43
0.2
 10
322.6721546205
 20
24.6695843334
 10
322.6721546205
 20
26.3146660112
  0
LWPOLYLINE
  5
244
100
AcDbEntity
  8
0
100
AcDbPolyline
 62
7
  6
CONTINUOUS
 90
2
 70
0
 43
0.2
 10
322.6721546205
 20
26.3146660112
 10
322.4405451256
 20
26.3146660112
  0
SPLINE
  5
245
100
AcDbEntity
  8
0
100
AcDbSpline
 62
7
  6
CONTINUOUS
 70
2
 71
3
 72
35
 73
31
 74
0
 42
0.0000001
 43
0.0000001
 44
0.0000000001
 40
0.0
 40
0.0
 40
0.0
 40
0.0
 40
1.0
 40
1.0
 40
1.0
 40
2.0
 40
2.0
 40
2.0
 40
3.0
 40
3.0
 40
3.0
 40
4.0
 40
4.0
 40
4.0
 40
5.0
 40
5.0
 40
5.0
 40
6.0
 40
6.0
 40
6.0
 40
7.0
 40
7.0
 40
7.0
 40
8.0
 40
8.0
 40
8.0
 40
9.0
 40
9.0
 40
9.0
 40
10.0
 40
10.0
 40
10.0
 40
10.0
 10
324.6345543915
 20
25.6101544177
 30
0.0
 10
324.6345543915
 20
25.6101544177
 30
0.0
 10
324.6345543915
 20
24.9480391385
 30
0.0
 10
324.6345543915
 20
24.9480391385
 30
0.0
 10
324.6345543915
 20
24.6329455432
 30
0.0
 10
324.7824180804
 20
24.4183469152
 30
0.0
 10
325.1225045647
 20
24.4183469152
 30
0.0
 10
325.4620676377
 20
24.4183469152
 30
0.0
 10
325.6101930321
 20
24.6329455432
 30
0.0
 10
325.6101930321
 20
24.9480391385
 30
0.0
 10
325.6101930321
 20
24.9480391385
 30
0.0
 10
325.6101930321
 20
25.6101544177
 30
0.0
 10
325.6101930321
 20
25.6101544177
 30
0.0
 10
325.6101930321
 20
25.6101544177
 30
0.0
 10
325.3881357933
 20
25.6101544177
 30
0.0
 10
325.3881357933
 20
25.6101544177
 30
0.0
 10
325.3881357933
 20
25.6101544177
 30
0.0
 10
325.3881357933
 20
24.9731628803
 30
0.0
 10
325.3881357933
 20
24.9731628803
 30
0.0
 10
325.3881357933
 20
24.7873518732
 30
0.0
 10
325.3414213358
 20
24.6245709626
 30
0.0
 10
325.1225045647
 20
24.6245709626
 30
0.0
 10
324.9030643822
 20
24.6245709626
 30
0.0
 10
324.8563499248
 20
24.7873518732
 30
0.0
 10
324.8563499248
 20
24.9731628803
 30
0.0
 10
324.8563499248
 20
24.9731628803
 30
0.0
 10
324.8563499248
 20
25.6101544177
 30
0.0
 10
324.8563499248
 20
25.6101544177
 30
0.0
 10
324.8563499248
 20
25.6101544177
 30
0.0
 10
324.6345543915
 20
25.6101544177
 30
0.0
 10
324.6345543915
 20
25.6101544177
 30
0.0
  0
SPLINE
  5
246
100
AcDbEntity
  8
0
100
AcDbSpline
 62
7
  6
CONTINUOUS
 70
2
 71
3
 72
35
 73
31
 74
0
 42
0.0000001
 43
0.0000001
 44
0.0000000001
 40
0.0
 40
0.0
 40
0.0
 40
0.0
 40
1.0
 40
1.0
 40
1.0
 40
2.0
 40
2.0
 40
2.0
 40
3.0
 40
3.0
 40
3.0
 40
4.0
 40
4.0
 40
4.0
 40
5.0
 40
5.0
 40
5.0
 40
6.0
 40
6.0
 40
6.0
 40
7.0
 40
7.0
 40
7.0
 40
8.0
 40
8.0
 40
8.0
 40
9.0
 40
9.0
 40
9.0
 40
10.0
 40
10.0
 40
10.0
 40
10.0
 10
328.0333255893
 20
25.5688049259
 30
0.0
 10
327.9448690817
 20
25.6200992322
 30
0.0
 10
327.831419685
 20
25.645222974
 30
0.0
 10
327.72778425
 20
25.645222974
 30
0.0
 10
327.3729113969
 20
25.645222974
 30
0.0
 10
327.0974662066
 20
25.3814236849
 30
0.0
 10
327.0974662066
 20
25.0239337753
 30
0.0
 10
327.0974662066
 20
24.6790057366
 30
0.0
 10
327.3759210118
 20
24.4188703265
 30
0.0
 10
327.7154840848
 20
24.4188703265
 30
0.0
 10
327.831419685
 20
24.4188703265
 30
0.0
 10
327.9321763579
 20
24.4408536006
 30
0.0
 10
328.0333255893
 20
24.4947649632
 30
0.0
 10
328.0333255893
 20
24.4947649632
 30
0.0
 10
328.0333255893
 20
24.7774070587
 30
0.0
 10
328.0333255893
 20
24.7774070587
 30
0.0
 10
327.9494489304
 20
24.6842398494
 30
0.0
 10
327.8459443483
 20
24.6250943739
 30
0.0
 10
327.7178394356
 20
24.6250943739
 30
0.0
 10
327.4841362955
 20
24.6250943739
 30
0.0
 10
327.3188691814
 20
24.7972966876
 30
0.0
 10
327.3188691814
 20
25.0338785897
 30
0.0
 10
327.3188691814
 20
25.2458601613
 30
0.0
 10
327.4866224991
 20
25.437952104
 30
0.0
 10
327.7034456251
 20
25.437952104
 30
0.0
 10
327.8362612394
 20
25.437952104
 30
0.0
 10
327.9448690817
 20
25.3840407413
 30
0.0
 10
328.0333255893
 20
25.2830223628
 30
0.0
 10
328.0333255893
 20
25.2830223628
 30
0.0
 10
328.0333255893
 20
25.5688049259
 30
0.0
 10
328.0333255893
 20
25.5688049259
 30
0.0
  0
SPLINE
  5
247
100
AcDbEntity
  8
0
100
AcDbSpline
 62
7
  6
CONTINUOUS
 70
2
 71
3
 72
32
 73
28
 74
0
 42
0.0000001
 43
0.0000001
 44
0.0000000001
 40
0.0
 40
0.0
 40
0.0
 40
0.0
 40
1.0
 40
1.0
 40
1.0
 40
2.0
 40
2.0
 40
2.0
 40
3.0
 40
3.0
 40
3.0
 40
4.0
 40
4.0
 40
4.0
 40
5.0
 40
5.0
 40
5.0
 40
6.0
 40
6.0
 40
6.0
 40
7.0
 40
7.0
 40
7.0
 40
8.0
 40
8.0
 40
8.0
 40
9.0
 40
9.0
 40
9.0
 40
9.0
 10
330.5651968416
 20
24.9972397996
 30
0.0
 10
330.5651968416
 20
24.9972397996
 30
0.0
 10
330.5651968416
 20
25.0312615333
 30
0.0
 10
330.5651968416
 20
25.0312615333
 30
0.0
 10
330.5651968416
 20
25.3735725156
 30
0.0
 10
330.3923402638
 20
25.645222974
 30
0.0
 10
330.0256906566
 20
25.645222974
 30
0.0
 10
329.6540686422
 20
25.645222974
 30
0.0
 10
329.4643320504
 20
25.3788066284
 30
0.0
 10
329.4643320504
 20
25.0239337753
 30
0.0
 10
329.4643320504
 20
24.6842398494
 30
0.0
 10
329.6784072671
 20
24.4183469152
 30
0.0
 10
330.030532211
 20
24.4183469152
 30
0.0
 10
330.2545522422
 20
24.4183469152
 30
0.0
 10
330.4567198522
 20
24.5340208098
 30
0.0
 10
330.5651968416
 20
24.7334405105
 30
0.0
 10
330.5651968416
 20
24.7334405105
 30
0.0
 10
330.3775538949
 20
24.8402164132
 30
0.0
 10
330.3775538949
 20
24.8402164132
 30
0.0
 10
330.2940697945
 20
24.7015124219
 30
0.0
 10
330.2028653775
 20
24.6156729707
 30
0.0
 10
330.0332801203
 20
24.6156729707
 30
0.0
 10
329.8212985487
 20
24.6156729707
 30
0.0
 10
329.6883520816
 20
24.8004371554
 30
0.0
 10
329.6859967308
 20
24.9972397996
 30
0.0
 10
329.6859967308
 20
24.9972397996
 30
0.0
 10
330.5651968416
 20
24.9972397996
 30
0.0
 10
330.5651968416
 20
24.9972397996
 30
0.0
  0
SPLINE
  5
248
100
AcDbEntity
  8
0
100
AcDbSpline
 62
7
  6
CONTINUOUS
 70
2
 71
3
 72
14
 73
10
 74
0
 42
0.0000001
 43
0.0000001
 44
0.0000000001
 40
0.0
 40
0.0
 40
0.0
 40
0.0
 40
1.0
 40
1.0
 40
1.0
 40
2.0
 40
2.0
 40
2.0
 40
3.0
 40
3.0
 40
3.0
 40
3.0
 10
329.6980351904
 20
25.1647314117
 30
0.0
 10
329.7256451358
 20
25.3296059674
 30
0.0
 10
329.8534883429
 20
25.45260762
 30
0.0
 10
330.0256906566
 20
25.45260762
 30
0.0
 10
330.2028653775
 20
25.45260762
 30
0.0
 10
330.3163147742
 20
25.3369337254
 30
0.0
 10
330.3435321612
 20
25.1647314117
 30
0.0
 10
330.3435321612
 20
25.1647314117
 30
0.0
 10
329.6980351904
 20
25.1647314117
 30
0.0
 10
329.6980351904
 20
25.1647314117
 30
0.0
  0
SPLINE
  5
249
100
AcDbEntity
  8
0
100
AcDbSpline
 62
7
  6
CONTINUOUS
 70
2
 71
3
 72
20
 73
16
 74
0
 42
0.0000001
 43
0.0000001
 44
0.0000000001
 40
0.0
 40
0.0
 40
0.0
 40
0.0
 40
1.0
 40
1.0
 40
1.0
 40
2.0
 40
2.0
 40
2.0
 40
3.0
 40
3.0
 40
3.0
 40
4.0
 40
4.0
 40
4.0
 40
5.0
 40
5.0
 40
5.0
 40
5.0
 10
332.5892282918
 20
25.3740959269
 30
0.0
 10
332.5892282918
 20
25.3740959269
 30
0.0
 10
333.0003678584
 20
24.8716210905
 30
0.0
 10
333.0003678584
 20
24.8716210905
 30
0.0
 10
332.8843014053
 20
24.7559471959
 30
0.0
 10
332.7465133838
 20
24.6256177852
 30
0.0
 10
332.5745727757
 20
24.6256177852
 30
0.0
 10
332.3971363491
 20
24.6256177852
 30
0.0
 10
332.229644737
 20
24.7899689296
 30
0.0
 10
332.229644737
 20
24.9668819449
 30
0.0
 10
332.229644737
 20
25.1448417828
 30
0.0
 10
332.4394018106
 20
25.2709839031
 30
0.0
 10
332.566983312
 20
25.3589169995
 30
0.0
 10
332.566983312
 20
25.3589169995
 30
0.0
 10
332.5892282918
 20
25.3740959269
 30
0.0
 10
332.5892282918
 20
25.3740959269
 30
0.0
  0
SPLINE
  5
24A
100
AcDbEntity
  8
0
100
AcDbSpline
 62
7
  6
CONTINUOUS
 70
2
 71
3
 72
23
 73
19
 74
0
 42
0.0000001
 43
0.0000001
 44
0.0000000001
 40
0.0
 40
0.0
 40
0.0
 40
0.0
 40
1.0
 40
1.0
 40
1.0
 40
2.0
 40
2.0
 40
2.0
 40
3.0
 40
3.0
 40
3.0
 40
4.0
 40
4.0
 40
4.0
 40
5.0
 40
5.0
 40
5.0
 40
6.0
 40
6.0
 40
6.0
 40
6.0
 10
332.6385598056
 20
25.6651126029
 30
0.0
 10
332.6385598056
 20
25.6651126029
 30
0.0
 10
332.5769281265
 20
25.7436242961
 30
0.0
 10
332.5769281265
 20
25.7436242961
 30
0.0
 10
332.5230167639
 20
25.8121911748
 30
0.0
 10
332.4662266391
 20
25.8812814648
 30
0.0
 10
332.4662266391
 20
25.9749720853
 30
0.0
 10
332.4662266391
 20
26.0937864477
 30
0.0
 10
332.5621417576
 20
26.1712513183
 30
0.0
 10
332.6731049506
 20
26.1712513183
 30
0.0
 10
332.7963683089
 20
26.1712513183
 30
0.0
 10
332.889666371
 20
26.1000673831
 30
0.0
 10
332.889666371
 20
25.9697379725
 30
0.0
 10
332.889666371
 20
25.8346978602
 30
0.0
 10
332.7615614583
 20
25.7582798122
 30
0.0
 10
332.6680016906
 20
25.6844788206
 30
0.0
 10
332.6680016906
 20
25.6844788206
 30
0.0
 10
332.6385598056
 20
25.6651126029
 30
0.0
 10
332.6385598056
 20
25.6651126029
 30
0.0
  0
SPLINE
  5
24B
100
AcDbEntity
  8
0
100
AcDbSpline
 62
7
  6
CONTINUOUS
 70
2
 71
3
 72
50
 73
46
 74
0
 42
0.0000001
 43
0.0000001
 44
0.0000000001
 40
0.0
 40
0.0
 40
0.0
 40
0.0
 40
1.0
 40
1.0
 40
1.0
 40
2.0
 40
2.0
 40
2.0
 40
3.0
 40
3.0
 40
3.0
 40
4.0
 40
4.0
 40
4.0
 40
5.0
 40
5.0
 40
5.0
 40
6.0
 40
6.0
 40
6.0
 40
7.0
 40
7.0
 40
7.0
 40
8.0
 40
8.0
 40
8.0
 40
9.0
 40
9.0
 40
9.0
 40
10.0
 40
10.0
 40
10.0
 40
11.0
 40
11.0
 40
11.0
 40
12.0
 40
12.0
 40
12.0
 40
13.0
 40
13.0
 40
13.0
 40
14.0
 40
14.0
 40
14.0
 40
15.0
 40
15.0
 40
15.0
 40
15.0
 10
333.3407160483
 20
24.4581261731
 30
0.0
 10
333.3407160483
 20
24.4581261731
 30
0.0
 10
333.626106053
 20
24.4581261731
 30
0.0
 10
333.626106053
 20
24.4581261731
 30
0.0
 10
333.626106053
 20
24.4581261731
 30
0.0
 10
333.2937398852
 20
24.8690040341
 30
0.0
 10
333.2937398852
 20
24.8690040341
 30
0.0
 10
333.2937398852
 20
24.8690040341
 30
0.0
 10
333.5202461201
 20
25.1348969683
 30
0.0
 10
333.5202461201
 20
25.1348969683
 30
0.0
 10
333.5202461201
 20
25.1348969683
 30
0.0
 10
333.3719898728
 20
25.2877330644
 30
0.0
 10
333.3719898728
 20
25.2877330644
 30
0.0
 10
333.3719898728
 20
25.2877330644
 30
0.0
 10
333.1560827165
 20
25.0364956462
 30
0.0
 10
333.1560827165
 20
25.0364956462
 30
0.0
 10
333.1560827165
 20
25.0364956462
 30
0.0
 10
332.7690200692
 20
25.5044253375
 30
0.0
 10
332.7690200692
 20
25.5044253375
 30
0.0
 10
332.9244732216
 20
25.6185289983
 30
0.0
 10
333.1067512026
 20
25.7582798122
 30
0.0
 10
333.1067512026
 20
25.9676443273
 30
0.0
 10
333.1067512026
 20
26.2115539874
 30
0.0
 10
332.9047144455
 20
26.3549686803
 30
0.0
 10
332.6782082107
 20
26.3549686803
 30
0.0
 10
332.4340368449
 20
26.3549686803
 30
0.0
 10
332.2496652188
 20
26.2042262294
 30
0.0
 10
332.2496652188
 20
25.9477546984
 30
0.0
 10
332.2496652188
 20
25.7902079007
 30
0.0
 10
332.3483282465
 20
25.652550732
 30
0.0
 10
332.4536647682
 20
25.541587539
 30
0.0
 10
332.4536647682
 20
25.541587539
 30
0.0
 10
332.3381217264
 20
25.4578417329
 30
0.0
 10
332.3381217264
 20
25.4578417329
 30
0.0
 10
332.1604235942
 20
25.3296059674
 30
0.0
 10
332.0130833166
 20
25.2018936131
 30
0.0
 10
332.0130833166
 20
24.9647882997
 30
0.0
 10
332.0130833166
 20
24.6444605916
 30
0.0
 10
332.2716484929
 20
24.4183469152
 30
0.0
 10
332.5820313866
 20
24.4183469152
 30
0.0
 10
332.8009481577
 20
24.4183469152
 30
0.0
 10
332.9981433604
 20
24.543442213
 30
0.0
 10
333.1384175856
 20
24.7093635913
 30
0.0
 10
333.1384175856
 20
24.7093635913
 30
0.0
 10
333.3407160483
 20
24.4581261731
 30
0.0
 10
333.3407160483
 20
24.4581261731
 30
0.0
  0
LWPOLYLINE
  5
24C
100
AcDbEntity
  8
0
100
AcDbPolyline
 62
7
  6
CONTINUOUS
 90
2
 70
0
 43
0.2
 10
335.276160138
 20
26.3146660112
 10
335.0448123488
 20
26.3146660112
  0
LWPOLYLINE
  5
24D
100
AcDbEntity
  8
0
100
AcDbPolyline
 62
7
  6
CONTINUOUS
 90
2
 70
0
 43
0.2
 10
335.0448123488
 20
26.3146660112
 10
335.0448123488
 20
24.4576027618
  0
LWPOLYLINE
  5
24E
100
AcDbEntity
  8
0
100
AcDbPolyline
 62
7
  6
CONTINUOUS
 90
2
 70
0
 43
0.2
 10
335.0448123488
 20
24.4576027618
 10
335.8401358007
 20
24.4576027618
  0
LWPOLYLINE
  5
24F
100
AcDbEntity
  8
0
100
AcDbPolyline
 62
7
  6
CONTINUOUS
 90
2
 70
0
 43
0.2
 10
335.8401358007
 20
24.4576027618
 10
335.8401358007
 20
24.6695843334
  0
LWPOLYLINE
  5
250
100
AcDbEntity
  8
0
100
AcDbPolyline
 62
7
  6
CONTINUOUS
 90
2
 70
0
 43
0.2
 10
335.8401358007
 20
24.6695843334
 10
335.276160138
 20
24.6695843334
  0
LWPOLYLINE
  5
251
100
AcDbEntity
  8
0
100
AcDbPolyline
 62
7
  6
CONTINUOUS
 90
2
 70
0
 43
0.2
 10
335.276160138
 20
24.6695843334
 10
335.276160138
 20
26.3146660112
  0
LWPOLYLINE
  5
252
100
AcDbEntity
  8
0
100
AcDbPolyline
 62
7
  6
CONTINUOUS
 90
2
 70
0
 43
0.2
 10
337.5192392122
 20
25.6101544177
 10
337.2980979431
 20
25.6101544177
  0
LWPOLYLINE
  5
253
100
AcDbEntity
  8
0
100
AcDbPolyline
 62
7
  6
CONTINUOUS
 90
2
 70
0
 43
0.2
 10
337.2980979431
 20
25.6101544177
 10
337.2980979431
 20
24.4581261731
  0
LWPOLYLINE
  5
254
100
AcDbEntity
  8
0
100
AcDbPolyline
 62
7
  6
CONTINUOUS
 90
2
 70
0
 43
0.2
 10
337.2980979431
 20
24.4581261731
 10
337.5192392122
 20
24.4581261731
  0
LWPOLYLINE
  5
255
100
AcDbEntity
  8
0
100
AcDbPolyline
 62
7
  6
CONTINUOUS
 90
2
 70
0
 43
0.2
 10
337.5192392122
 20
24.4581261731
 10
337.5192392122
 20
25.6101544177
  0
LWPOLYLINE
  5
256
100
AcDbEntity
  8
0
100
AcDbPolyline
 62
7
  6
CONTINUOUS
 90
2
 70
1
 43
0.2
 10
337.256215935
 20
26.1401083467
 42
1.0
 10
337.5613829259
 20
26.1401083467
 42
1.0
  0
SPLINE
  5
257
100
AcDbEntity
  8
0
100
AcDbSpline
 62
7
  6
CONTINUOUS
 70
2
 71
3
 72
17
 73
13
 74
0
 42
0.0000001
 43
0.0000001
 44
0.0000000001
 40
0.0
 40
0.0
 40
0.0
 40
0.0
 40
1.0
 40
1.0
 40
1.0
 40
2.0
 40
2.0
 40
2.0
 40
3.0
 40
3.0
 40
3.0
 40
4.0
 40
4.0
 40
4.0
 40
4.0
 10
339.6495231538
 20
24.6156729707
 30
0.0
 10
339.4155583082
 20
24.6156729707
 30
0.0
 10
339.2852288975
 20
24.8177097279
 30
0.0
 10
339.2852288975
 20
25.0338785897
 30
0.0
 10
339.2852288975
 20
25.2484772178
 30
0.0
 10
339.4210541267
 20
25.4473735072
 30
0.0
 10
339.6495231538
 20
25.4473735072
 30
0.0
 10
339.888983818
 20
25.4473735072
 30
0.0
 10
340.0245473416
 20
25.2584220322
 30
0.0
 10
340.0245473416
 20
25.0338785897
 30
0.0
 10
340.0245473416
 20
24.8077649134
 30
0.0
 10
339.8913391688
 20
24.6156729707
 30
0.0
 10
339.6495231538
 20
24.6156729707
 30
0.0
  0
SPLINE
  5
258
100
AcDbEntity
  8
0
100
AcDbSpline
 62
7
  6
CONTINUOUS
 70
2
 71
3
 72
50
 73
46
 74
0
 42
0.0000001
 43
0.0000001
 44
0.0000000001
 40
0.0
 40
0.0
 40
0.0
 40
0.0
 40
1.0
 40
1.0
 40
1.0
 40
2.0
 40
2.0
 40
2.0
 40
3.0
 40
3.0
 40
3.0
 40
4.0
 40
4.0
 40
4.0
 40
5.0
 40
5.0
 40
5.0
 40
6.0
 40
6.0
 40
6.0
 40
7.0
 40
7.0
 40
7.0
 40
8.0
 40
8.0
 40
8.0
 40
9.0
 40
9.0
 40
9.0
 40
10.0
 40
10.0
 40
10.0
 40
11.0
 40
11.0
 40
11.0
 40
12.0
 40
12.0
 40
12.0
 40
13.0
 40
13.0
 40
13.0
 40
14.0
 40
14.0
 40
14.0
 40
15.0
 40
15.0
 40
15.0
 40
15.0
 10
340.2336501511
 20
25.610677829
 30
0.0
 10
340.2336501511
 20
25.610677829
 30
0.0
 10
340.0119854707
 20
25.610677829
 30
0.0
 10
340.0119854707
 20
25.610677829
 30
0.0
 10
340.0119854707
 20
25.610677829
 30
0.0
 10
340.0119854707
 20
25.4133517734
 30
0.0
 10
340.0119854707
 20
25.4133517734
 30
0.0
 10
340.0119854707
 20
25.4133517734
 30
0.0
 10
340.0072747691
 20
25.4133517734
 30
0.0
 10
340.0072747691
 20
25.4133517734
 30
0.0
 10
339.9159394994
 20
25.556243055
 30
0.0
 10
339.778020625
 20
25.6446995627
 30
0.0
 10
339.6052949
 20
25.6446995627
 30
0.0
 10
339.2729287322
 20
25.6446995627
 30
0.0
 10
339.0638259227
 20
25.3568233544
 30
0.0
 10
339.0638259227
 20
25.0412063478
 30
0.0
 10
339.0638259227
 20
24.7114572364
 30
0.0
 10
339.2608902726
 20
24.4183469152
 30
0.0
 10
339.6157631258
 20
24.4183469152
 30
0.0
 10
339.778020625
 20
24.4183469152
 30
0.0
 10
339.9180331445
 20
24.5068034229
 30
0.0
 10
340.0072747691
 20
24.6376562448
 30
0.0
 10
340.0072747691
 20
24.6376562448
 30
0.0
 10
340.0119854707
 20
24.6376562448
 30
0.0
 10
340.0119854707
 20
24.6376562448
 30
0.0
 10
340.0119854707
 20
24.6376562448
 30
0.0
 10
340.0119854707
 20
24.4183469152
 30
0.0
 10
340.0119854707
 20
24.4183469152
 30
0.0
 10
340.0119854707
 20
24.1817650131
 30
0.0
 10
339.9554570516
 20
23.9949071833
 30
0.0
 10
339.6822363593
 20
23.9949071833
 30
0.0
 10
339.4799378966
 20
23.9949071833
 30
0.0
 10
339.3373083206
 20
24.1131981344
 30
0.0
 10
339.3373083206
 20
24.3194221818
 30
0.0
 10
339.3373083206
 20
24.3194221818
 30
0.0
 10
339.1156436402
 20
24.3194221818
 30
0.0
 10
339.1156436402
 20
24.3194221818
 30
0.0
 10
339.1206160475
 20
23.9949071833
 30
0.0
 10
339.351702131
 20
23.7981045391
 30
0.0
 10
339.6720298392
 20
23.7981045391
 30
0.0
 10
340.1200699016
 20
23.7981045391
 30
0.0
 10
340.2336501511
 20
24.083363691
 30
0.0
 10
340.2336501511
 20
24.4801094472
 30
0.0
 10
340.2336501511
 20
24.4801094472
 30
0.0
 10
340.2336501511
 20
25.610677829
 30
0.0
 10
340.2336501511
 20
25.610677829
 30
0.0
  0
SPLINE
  5
259
100
AcDbEntity
  8
0
100
AcDbSpline
 62
7
  6
CONTINUOUS
 70
2
 71
3
 72
44
 73
40
 74
0
 42
0.0000001
 43
0.0000001
 44
0.0000000001
 40
0.0
 40
0.0
 40
0.0
 40
0.0
 40
1.0
 40
1.0
 40
1.0
 40
2.0
 40
2.0
 40
2.0
 40
3.0
 40
3.0
 40
3.0
 40
4.0
 40
4.0
 40
4.0
 40
5.0
 40
5.0
 40
5.0
 40
6.0
 40
6.0
 40
6.0
 40
7.0
 40
7.0
 40
7.0
 40
8.0
 40
8.0
 40
8.0
 40
9.0
 40
9.0
 40
9.0
 40
10.0
 40
10.0
 40
10.0
 40
11.0
 40
11.0
 40
11.0
 40
12.0
 40
12.0
 40
12.0
 40
13.0
 40
13.0
 40
13.0
 40
13.0
 10
341.8025754865
 20
26.5957378727
 30
0.0
 10
341.8025754865
 20
26.5957378727
 30
0.0
 10
341.8025754865
 20
24.4576027618
 30
0.0
 10
341.8025754865
 20
24.4576027618
 30
0.0
 10
341.8025754865
 20
24.4576027618
 30
0.0
 10
342.0239784613
 20
24.4576027618
 30
0.0
 10
342.0239784613
 20
24.4576027618
 30
0.0
 10
342.0239784613
 20
24.4576027618
 30
0.0
 10
342.0239784613
 20
24.9872949851
 30
0.0
 10
342.0239784613
 20
24.9872949851
 30
0.0
 10
342.0239784613
 20
25.1971829116
 30
0.0
 10
342.0239784613
 20
25.4478969184
 30
0.0
 10
342.3092376132
 20
25.4478969184
 30
0.0
 10
342.5361364065
 20
25.4478969184
 30
0.0
 10
342.5630920878
 20
25.3149504513
 30
0.0
 10
342.5630920878
 20
25.1186712184
 30
0.0
 10
342.5630920878
 20
25.1186712184
 30
0.0
 10
342.5630920878
 20
24.4576027618
 30
0.0
 10
342.5630920878
 20
24.4576027618
 30
0.0
 10
342.5630920878
 20
24.4576027618
 30
0.0
 10
342.7850184738
 20
24.4576027618
 30
0.0
 10
342.7850184738
 20
24.4576027618
 30
0.0
 10
342.7850184738
 20
24.4576027618
 30
0.0
 10
342.7850184738
 20
25.1448417828
 30
0.0
 10
342.7850184738
 20
25.1448417828
 30
0.0
 10
342.7850184738
 20
25.4253902331
 30
0.0
 10
342.7010109621
 20
25.645222974
 30
0.0
 10
342.3759725524
 20
25.645222974
 30
0.0
 10
342.2362217385
 20
25.645222974
 30
0.0
 10
342.0980411585
 20
25.5787497404
 30
0.0
 10
342.0286891629
 20
25.4557480878
 30
0.0
 10
342.0286891629
 20
25.4557480878
 30
0.0
 10
342.0239784613
 20
25.4557480878
 30
0.0
 10
342.0239784613
 20
25.4557480878
 30
0.0
 10
342.0239784613
 20
25.4557480878
 30
0.0
 10
342.0239784613
 20
26.5957378727
 30
0.0
 10
342.0239784613
 20
26.5957378727
 30
0.0
 10
342.0239784613
 20
26.5957378727
 30
0.0
 10
341.8025754865
 20
26.5957378727
 30
0.0
 10
341.8025754865
 20
26.5957378727
 30
0.0
  0
LWPOLYLINE
  5
25A
100
AcDbEntity
  8
0
100
AcDbPolyline
 62
7
  6
CONTINUOUS
 90
2
 70
0
 43
0.2
 10
344.6248091507
 20
25.403406959
 10
344.8412397182
 20
25.403406959
  0
LWPOLYLINE
  5
25B
100
AcDbEntity
  8
0
100
AcDbPolyline
 62
7
  6
CONTINUOUS
 90
2
 70
0
 43
0.2
 10
344.8412397182
 20
25.403406959
 10
344.8412397182
 20
25.6101544177
  0
LWPOLYLINE
  5
25C
100
AcDbEntity
  8
0
100
AcDbPolyline
 62
7
  6
CONTINUOUS
 90
2
 70
0
 43
0.2
 10
344.8412397182
 20
25.6101544177
 10
344.6248091507
 20
25.6101544177
  0
LWPOLYLINE
  5
25D
100
AcDbEntity
  8
0
100
AcDbPolyline
 62
7
  6
CONTINUOUS
 90
2
 70
0
 43
0.2
 10
344.6248091507
 20
25.6101544177
 10
344.6248091507
 20
26.0508667221
  0
LWPOLYLINE
  5
25E
100
AcDbEntity
  8
0
100
AcDbPolyline
 62
7
  6
CONTINUOUS
 90
2
 70
0
 43
0.2
 10
344.6248091507
 20
26.0508667221
 10
344.4031444703
 20
26.0508667221
  0
LWPOLYLINE
  5
25F
100
AcDbEntity
  8
0
100
AcDbPolyline
 62
7
  6
CONTINUOUS
 90
2
 70
0
 43
0.2
 10
344.4031444703
 20
26.0508667221
 10
344.4031444703
 20
25.6101544177
  0
LWPOLYLINE
  5
260
100
AcDbEntity
  8
0
100
AcDbPolyline
 62
7
  6
CONTINUOUS
 90
2
 70
0
 43
0.2
 10
344.4031444703
 20
25.6101544177
 10
344.2824981684
 20
25.6101544177
  0
LWPOLYLINE
  5
261
100
AcDbEntity
  8
0
100
AcDbPolyline
 62
7
  6
CONTINUOUS
 90
2
 70
0
 43
0.2
 10
344.2824981684
 20
25.6101544177
 10
344.2824981684
 20
25.403406959
  0
LWPOLYLINE
  5
262
100
AcDbEntity
  8
0
100
AcDbPolyline
 62
7
  6
CONTINUOUS
 90
2
 70
0
 43
0.2
 10
344.2824981684
 20
25.403406959
 10
344.4031444703
 20
25.403406959
  0
LWPOLYLINE
  5
263
100
AcDbEntity
  8
0
100
AcDbPolyline
 62
7
  6
CONTINUOUS
 90
2
 70
0
 43
0.2
 10
344.4031444703
 20
25.403406959
 10
344.4031444703
 20
24.4576027618
  0
LWPOLYLINE
  5
264
100
AcDbEntity
  8
0
100
AcDbPolyline
 62
7
  6
CONTINUOUS
 90
2
 70
0
 43
0.2
 10
344.4031444703
 20
24.4576027618
 10
344.6248091507
 20
24.4576027618
  0
LWPOLYLINE
  5
265
100
AcDbEntity
  8
0
100
AcDbPolyline
 62
7
  6
CONTINUOUS
 90
2
 70
0
 43
0.2
 10
344.6248091507
 20
24.4576027618
 10
344.6248091507
 20
25.403406959
  0
SPLINE
  5
266
100
AcDbEntity
  8
0
100
AcDbSpline
 62
7
  6
CONTINUOUS
 70
2
 71
3
 72
20
 73
16
 74
0
 42
0.0000001
 43
0.0000001
 44
0.0000000001
 40
0.0
 40
0.0
 40
0.0
 40
0.0
 40
1.0
 40
1.0
 40
1.0
 40
2.0
 40
2.0
 40
2.0
 40
3.0
 40
3.0
 40
3.0
 40
4.0
 40
4.0
 40
4.0
 40
5.0
 40
5.0
 40
5.0
 40
5.0
 10
332.4068194579
 20
34.8185292052
 30
0.0
 10
332.4068194579
 20
34.8185292052
 30
0.0
 10
334.7231761124
 20
31.988967783
 30
0.0
 10
334.7231761124
 20
31.988967783
 30
0.0
 10
334.071529059
 20
31.3367973183
 30
0.0
 10
333.294655855
 20
30.6008810475
 30
0.0
 10
332.3234662104
 20
30.6008810475
 30
0.0
 10
331.3249283259
 20
30.6008810475
 30
0.0
 10
330.3816103324
 20
31.5304594948
 30
0.0
 10
330.3816103324
 20
32.5296516433
 30
0.0
 10
330.3816103324
 20
33.5288437919
 30
0.0
 10
331.5604634055
 20
34.2354490305
 30
0.0
 10
332.2819858658
 20
34.7353068104
 30
0.0
 10
332.2819858658
 20
34.7353068104
 30
0.0
 10
332.4068194579
 20
34.8185292052
 30
0.0
 10
332.4068194579
 20
34.8185292052
 30
0.0
  0
SPLINE
  5
267
100
AcDbEntity
  8
0
100
AcDbSpline
 62
7
  6
CONTINUOUS
 70
2
 71
3
 72
23
 73
19
 74
0
 42
0.0000001
 43
0.0000001
 44
0.0000000001
 40
0.0
 40
0.0
 40
0.0
 40
0.0
 40
1.0
 40
1.0
 40
1.0
 40
2.0
 40
2.0
 40
2.0
 40
3.0
 40
3.0
 40
3.0
 40
4.0
 40
4.0
 40
4.0
 40
5.0
 40
5.0
 40
5.0
 40
6.0
 40
6.0
 40
6.0
 40
6.0
 10
332.6842274405
 20
36.4562831249
 30
0.0
 10
332.6842274405
 20
36.4562831249
 30
0.0
 10
332.3377291679
 20
36.8996124858
 30
0.0
 10
332.3377291679
 20
36.8996124858
 30
0.0
 10
332.031926123
 20
37.2877219557
 30
0.0
 10
331.7130377959
 20
37.6762239841
 30
0.0
 10
331.7130377959
 20
38.2031682982
 30
0.0
 10
331.7130377959
 20
38.8693400148
 30
0.0
 10
332.2543759204
 20
39.3130619341
 30
0.0
 10
332.8782821755
 20
39.3130619341
 30
0.0
 10
333.5720638376
 20
39.3130619341
 30
0.0
 10
334.0992698573
 20
38.9108203594
 30
0.0
 10
334.0992698573
 20
38.1758200584
 30
0.0
 10
334.0992698573
 20
37.4125555479
 30
0.0
 10
333.3780091026
 20
36.9824423221
 30
0.0
 10
332.8509339357
 20
36.5667229067
 30
0.0
 10
332.8509339357
 20
36.5667229067
 30
0.0
 10
332.6842274405
 20
36.4562831249
 30
0.0
 10
332.6842274405
 20
36.4562831249
 30
0.0
  0
SPLINE
  5
268
100
AcDbEntity
  8
0
100
AcDbSpline
 62
7
  6
CONTINUOUS
 70
2
 71
3
 72
50
 73
46
 74
0
 42
0.0000001
 43
0.0000001
 44
0.0000000001
 40
0.0
 40
0.0
 40
0.0
 40
0.0
 40
1.0
 40
1.0
 40
1.0
 40
2.0
 40
2.0
 40
2.0
 40
3.0
 40
3.0
 40
3.0
 40
4.0
 40
4.0
 40
4.0
 40
5.0
 40
5.0
 40
5.0
 40
6.0
 40
6.0
 40
6.0
 40
7.0
 40
7.0
 40
7.0
 40
8.0
 40
8.0
 40
8.0
 40
9.0
 40
9.0
 40
9.0
 40
10.0
 40
10.0
 40
10.0
 40
11.0
 40
11.0
 40
11.0
 40
12.0
 40
12.0
 40
12.0
 40
13.0
 40
13.0
 40
13.0
 40
14.0
 40
14.0
 40
14.0
 40
15.0
 40
15.0
 40
15.0
 40
15.0
 10
336.6378146034
 20
29.6576939068
 30
0.0
 10
336.6378146034
 20
29.6576939068
 30
0.0
 10
338.247042608
 20
29.6576939068
 30
0.0
 10
338.247042608
 20
29.6576939068
 30
0.0
 10
338.247042608
 20
29.6576939068
 30
0.0
 10
336.3740153144
 20
31.9748356782
 30
0.0
 10
336.3740153144
 20
31.9748356782
 30
0.0
 10
336.3740153144
 20
31.9748356782
 30
0.0
 10
337.6503537398
 20
33.4723153728
 30
0.0
 10
337.6503537398
 20
33.4723153728
 30
0.0
 10
337.6503537398
 20
33.4723153728
 30
0.0
 10
336.8181297921
 20
34.3333269413
 30
0.0
 10
336.8181297921
 20
34.3333269413
 30
0.0
 10
336.8181297921
 20
34.3333269413
 30
0.0
 10
335.5975346688
 20
32.9180228189
 30
0.0
 10
335.5975346688
 20
32.9180228189
 30
0.0
 10
335.5975346688
 20
32.9180228189
 30
0.0
 10
333.4196203
 20
35.5533986534
 30
0.0
 10
333.4196203
 20
35.5533986534
 30
0.0
 10
334.2931937394
 20
36.1914370133
 30
0.0
 10
335.3198649806
 20
36.9824423221
 30
0.0
 10
335.3198649806
 20
38.1612953952
 30
0.0
 10
335.3198649806
 20
39.5349883202
 30
0.0
 10
334.1819688408
 20
40.3394714696
 30
0.0
 10
332.9066772379
 20
40.3394714696
 30
0.0
 10
331.5332460185
 20
40.3394714696
 30
0.0
 10
330.4923118197
 20
39.49324627
 30
0.0
 10
330.4923118197
 20
38.0505939078
 30
0.0
 10
330.4923118197
 20
37.1630192164
 30
0.0
 10
331.0476511962
 20
36.3861460124
 30
0.0
 10
331.6438166531
 20
35.7617163459
 30
0.0
 10
331.6438166531
 20
35.7617163459
 30
0.0
 10
330.991907894
 20
35.2901227756
 30
0.0
 10
330.991907894
 20
35.2901227756
 30
0.0
 10
329.9933700096
 20
34.5688620209
 30
0.0
 10
329.1604917978
 20
33.8476012662
 30
0.0
 10
329.1604917978
 20
32.5160429498
 30
0.0
 10
329.1604917978
 20
30.7123676518
 30
0.0
 10
330.6175379704
 20
29.4357675207
 30
0.0
 10
332.3650774077
 20
29.4357675207
 30
0.0
 10
333.5999354886
 20
29.4357675207
 30
0.0
 10
334.7093057133
 20
30.1439429932
 30
0.0
 10
335.5001801693
 20
31.0724746179
 30
0.0
 10
335.5001801693
 20
31.0724746179
 30
0.0
 10
336.6378146034
 20
29.6576939068
 30
0.0
 10
336.6378146034
 20
29.6576939068
 30
0.0
  0
LINE
  5
269
100
AcDbEntity
  8
0
100
AcDbLine
 62
7
  6
CONTINUOUS
 10
322.4406759784
 20
27.6315688114
 11
344.8545867061
 21
27.6315688114
  0
LINE
  5
26A
100
AcDbEntity
  8
0
100
AcDbLine
 62
7
  6
CONTINUOUS
 10
344.8545867061
 20
27.6315688114
 11
344.8545867061
 21
50.0454795391
  0
LINE
  5
26B
100
AcDbEntity
  8
0
100
AcDbLine
 62
7
  6
CONTINUOUS
 10
344.8545867061
 20
50.0454795391
 11
322.4406759784
 21
50.0454795391
  0
LINE
  5
26C
100
AcDbEntity
  8
0
100
AcDbLine
 62
7
  6
CONTINUOUS
 10
322.4406759784
 20
50.0454795391
 11
322.4406759784
 21
27.6315688114
  0
ENDBLK
  5
26D
100
AcDbEntity
  8
0
  6
BYBLOCK
 62
0
100
AcDbBlockEnd
  0
BLOCK
  5
26E
100
AcDbEntity
  8
0
100
AcDbBlockBegin
  2
_CLOSED
 70
64
 10
0.0
 20
0.0
  3
_CLOSED
  1

  0
LINE
  5
26F
100
AcDbEntity
  8
0
  6
BYBLOCK
 62
0
100
AcDbLine
 10
0.0
 20
0.0
 11
-1.0
 21
0.2
  0
LINE
  5
270
100
AcDbEntity
  8
0
  6
BYBLOCK
 62
0
100
AcDbLine
 10
-1.0
 20
0.2
 11
-1.0
 21
-0.2
  0
LINE
  5
271
100
AcDbEntity
  8
0
  6
BYBLOCK
 62
0
100
AcDbLine
 10
-1.0
 20
-0.2
 11
0.0
 21
0.0
  0
LINE
  5
272
100
AcDbEntity
  8
0
  6
BYBLOCK
 62
0
100
AcDbLine
 10
-1.0
 20
0.0
 11
0.0
 21
0.0
  0
ENDBLK
  5
273
100
AcDbEntity
  8
0
  6
BYBLOCK
 62
0
100
AcDbBlockEnd
  0
BLOCK
  5
274
100
AcDbEntity
  8
0
100
AcDbBlockBegin
 62
2
  6
CONTINUOUS
  2
*D0
 70
65
 10
0.0
 20
0.0
  3
*D0
  1

  0
MTEXT
  5
275
100
AcDbEntity
  8
0
100
AcDbMText
 62
2
  6
CONTINUOUS
  7
STANDARD
 71
2
 72
1
 10
48.7813150237
 20
75.3781284761
 30
0.0
 11
0.0
 21
1.0
 31
0.0
  1
95
 40
3.0
 41
4.6617100372
  0
LINE
  5
276
100
AcDbEntity
  8
0
100
AcDbLine
 62
2
  6
CONTINUOUS
 10
68.1557508343
 20
122.8781284761
 11
51.7813150237
 21
122.8781284761
  0
LINE
  5
277
100
AcDbEntity
  8
0
100
AcDbLine
 62
2
  6
CONTINUOUS
 10
68.0346562847
 20
27.8781284761
 11
51.7813150237
 21
27.8781284761
  0
LINE
  5
278
100
AcDbEntity
  8
0
100
AcDbLine
 62
2
  6
CONTINUOUS
 10
52.5313150237
 20
122.8781284761
 11
52.5313150237
 21
75.3781284761
  0
LINE
  5
279
100
AcDbEntity
  8
0
100
AcDbLine
 62
2
  6
CONTINUOUS
 10
52.5313150237
 20
27.8781284761
 11
52.5313150237
 21
75.3781284761
  0
INSERT
  5
27A
100
AcDbEntity
  8
0
100
AcDbBlockReference
 62
2
  6
CONTINUOUS
  2
_CLOSED
 10
52.5313150237
 20
122.8781284761
 41
2.5
 42
2.5
 43
2.5
 50
90.0
  0
INSERT
  5
27B
100
AcDbEntity
  8
0
100
AcDbBlockReference
 62
2
  6
CONTINUOUS
  2
_CLOSED
 10
52.5313150237
 20
27.8781284761
 41
2.5
 42
2.5
 43
2.5
 50
270.0
  0
ENDBLK
  5
27C
100
AcDbEntity
  8
0
  6
BYBLOCK
 62
0
100
AcDbBlockEnd
  0
BLOCK
  5
27D
100
AcDbEntity
  8
0
100
AcDbBlockBegin
 62
2
  6
CONTINUOUS
  2
*D1
 70
65
 10
0.0
 20
0.0
  3
*D1
  1

  0
MTEXT
  5
27E
100
AcDbEntity
  8
0
100
AcDbMText
 62
2
  6
CONTINUOUS
  7
STANDARD
 71
2
 72
1
 10
119.3367630701
 20
144.368211115
 30
0.0
 11
1.0
 21
0.0
 31
0.0
  1
95
 40
3.0
 41
4.6617100372
  0
LINE
  5
27F
100
AcDbEntity
  8
0
100
AcDbLine
 62
2
  6
CONTINUOUS
 10
166.8367630701
 20
126.2816323693
 11
166.8367630701
 21
141.368211115
  0
LINE
  5
280
100
AcDbEntity
  8
0
100
AcDbLine
 62
2
  6
CONTINUOUS
 10
71.8367630701
 20
126.5969827586
 11
71.8367630701
 21
141.368211115
  0
LINE
  5
281
100
AcDbEntity
  8
0
100
AcDbLine
 62
2
  6
CONTINUOUS
 10
166.8367630701
 20
140.618211115
 11
119.3367630701
 21
140.618211115
  0
LINE
  5
282
100
AcDbEntity
  8
0
100
AcDbLine
 62
2
  6
CONTINUOUS
 10
71.8367630701
 20
140.618211115
 11
119.3367630701
 21
140.618211115
  0
INSERT
  5
283
100
AcDbEntity
  8
0
100
AcDbBlockReference
 62
2
  6
CONTINUOUS
  2
_CLOSED
 10
166.8367630701
 20
140.618211115
 41
2.5
 42
2.5
 43
2.5
  0
INSERT
  5
284
100
AcDbEntity
  8
0
100
AcDbBlockReference
 62
2
  6
CONTINUOUS
  2
_CLOSED
 10
71.8367630701
 20
140.618211115
 41
2.5
 42
2.5
 43
2.5
 50
180.0
  0
ENDBLK
  5
285
100
AcDbEntity
  8
0
  6
BYBLOCK
 62
0
100
AcDbBlockEnd
  0
BLOCK
  5
286
100
AcDbEntity
  8
0
100
AcDbBlockBegin
 62
2
  6
CONTINUOUS
  2
*D2
 70
65
 10
0.0
 20
0.0
  3
*D2
  1

  0
MTEXT
  5
287
100
AcDbEntity
  8
0
100
AcDbMText
 62
2
  6
CONTINUOUS
  7
STANDARD
 71
2
 72
1
 10
49.7072805179
 20
220.156754847
 30
0.0
 11
0.0
 21
1.0
 31
0.0
  1
100,1
 40
3.0
 41
10.4832713755
  0
LINE
  5
288
100
AcDbEntity
  8
0
100
AcDbLine
 62
2
  6
CONTINUOUS
 10
67.8025583982
 20
270.206754847
 11
52.7072805179
 21
270.206754847
  0
LINE
  5
289
100
AcDbEntity
  8
0
100
AcDbLine
 62
2
  6
CONTINUOUS
 10
69.3437686569
 20
170.106754847
 11
52.7072805179
 21
170.106754847
  0
LINE
  5
28A
100
AcDbEntity
  8
0
100
AcDbLine
 62
2
  6
CONTINUOUS
 10
53.4572805179
 20
270.206754847
 11
53.4572805179
 21
220.156754847
  0
LINE
  5
28B
100
AcDbEntity
  8
0
100
AcDbLine
 62
2
  6
CONTINUOUS
 10
53.4572805179
 20
170.106754847
 11
53.4572805179
 21
220.156754847
  0
INSERT
  5
28C
100
AcDbEntity
  8
0
100
AcDbBlockReference
 62
2
  6
CONTINUOUS
  2
_CLOSED
 10
53.4572805179
 20
270.206754847
 41
2.5
 42
2.5
 43
2.5
 50
90.0
  0
INSERT
  5
28D
100
AcDbEntity
  8
0
100
AcDbBlockReference
 62
2
  6
CONTINUOUS
  2
_CLOSED
 10
53.4572805179
 20
170.106754847
 41
2.5
 42
2.5
 43
2.5
 50
270.0
  0
ENDBLK
  5
28E
100
AcDbEntity
  8
0
  6
BYBLOCK
 62
0
100
AcDbBlockEnd
  0
BLOCK
  5
28F
100
AcDbEntity
  8
0
100
AcDbBlockBegin
 62
2
  6
CONTINUOUS
  2
*D3
 70
65
 10
0.0
 20
0.0
  3
*D3
  1

  0
MTEXT
  5
290
100
AcDbEntity
  8
0
100
AcDbMText
 62
2
  6
CONTINUOUS
  7
STANDARD
 71
2
 72
1
 10
178.5639755035
 20
264.406754847
 30
0.0
 11
0.0
 21
1.0
 31
0.0
  1
11,6
 40
3.0
 41
8.1524163569
  0
LINE
  5
291
100
AcDbEntity
  8
0
100
AcDbLine
 62
2
  6
CONTINUOUS
 10
169.4112842244
 20
270.206754847
 11
183.0639755035
 21
270.206754847
  0
LINE
  5
292
100
AcDbEntity
  8
0
100
AcDbLine
 62
2
  6
CONTINUOUS
 10
169.4112842244
 20
258.606754847
 11
183.0639755035
 21
258.606754847
  0
LINE
  5
293
100
AcDbEntity
  8
0
100
AcDbLine
 62
2
  6
CONTINUOUS
 10
182.3139755035
 20
270.206754847
 11
182.3139755035
 21
271.206754847
  0
LINE
  5
294
100
AcDbEntity
  8
0
100
AcDbLine
 62
2
  6
CONTINUOUS
 10
182.3139755035
 20
271.206754847
 11
182.3139755035
 21
264.406754847
  0
LINE
  5
295
100
AcDbEntity
  8
0
100
AcDbLine
 62
2
  6
CONTINUOUS
 10
182.3139755035
 20
258.606754847
 11
182.3139755035
 21
257.606754847
  0
LINE
  5
296
100
AcDbEntity
  8
0
100
AcDbLine
 62
2
  6
CONTINUOUS
 10
182.3139755035
 20
257.606754847
 11
182.3139755035
 21
264.406754847
  0
INSERT
  5
297
100
AcDbEntity
  8
0
100
AcDbBlockReference
 62
2
  6
CONTINUOUS
  2
_CLOSED
 10
182.3139755035
 20
270.206754847
 41
2.5
 42
2.5
 43
2.5
 50
270.0
  0
INSERT
  5
298
100
AcDbEntity
  8
0
100
AcDbBlockReference
 62
2
  6
CONTINUOUS
  2
_CLOSED
 10
182.3139755035
 20
258.606754847
 41
2.5
 42
2.5
 43
2.5
 50
90.0
  0
ENDBLK
  5
299
100
AcDbEntity
  8
0
  6
BYBLOCK
 62
0
100
AcDbBlockEnd
  0
BLOCK
  5
29A
100
AcDbEntity
  8
0
100
AcDbBlockBegin
 62
2
  6
CONTINUOUS
  2
*D4
 70
65
 10
0.0
 20
0.0
  3
*D4
  1

  0
MTEXT
  5
29B
100
AcDbEntity
  8
0
100
AcDbMText
 62
2
  6
CONTINUOUS
  7
STANDARD
 71
2
 72
1
 10
178.5639755035
 20
224.356754847
 30
0.0
 11
0.0
 21
1.0
 31
0.0
  1
68,5
 40
3.0
 41
8.1524163569
  0
LINE
  5
29C
100
AcDbEntity
  8
0
100
AcDbLine
 62
2
  6
CONTINUOUS
 10
169.6841716744
 20
258.606754847
 11
183.0639755035
 21
258.606754847
  0
LINE
  5
29D
100
AcDbEntity
  8
0
100
AcDbLine
 62
2
  6
CONTINUOUS
 10
169.4112842244
 20
190.106754847
 11
183.0639755035
 21
190.106754847
  0
LINE
  5
29E
100
AcDbEntity
  8
0
100
AcDbLine
 62
2
  6
CONTINUOUS
 10
182.3139755035
 20
258.606754847
 11
182.3139755035
 21
224.356754847
  0
LINE
  5
29F
100
AcDbEntity
  8
0
100
AcDbLine
 62
2
  6
CONTINUOUS
 10
182.3139755035
 20
190.106754847
 11
182.3139755035
 21
224.356754847
  0
INSERT
  5
2A0
100
AcDbEntity
  8
0
100
AcDbBlockReference
 62
2
  6
CONTINUOUS
  2
_CLOSED
 10
182.3139755035
 20
258.606754847
 41
2.5
 42
2.5
 43
2.5
 50
90.0
  0
INSERT
  5
2A1
100
AcDbEntity
  8
0
100
AcDbBlockReference
 62
2
  6
CONTINUOUS
  2
_CLOSED
 10
182.3139755035
 20
190.106754847
 41
2.5
 42
2.5
 43
2.5
 50
270.0
  0
ENDBLK
  5
2A2
100
AcDbEntity
  8
0
  6
BYBLOCK
 62
0
100
AcDbBlockEnd
  0
BLOCK
  5
2A3
100
AcDbEntity
  8
0
100
AcDbBlockBegin
 62
2
  6
CONTINUOUS
  2
*D5
 70
65
 10
0.0
 20
0.0
  3
*D5
  1

  0
MTEXT
  5
2A4
100
AcDbEntity
  8
0
100
AcDbMText
 62
2
  6
CONTINUOUS
  7
TEXTSTYLE_2
 71
2
 72
1
 10
285.0592346477
 20
149.4570453869
 30
0.0
 11
1.0
 21
0.0
 31
0.0
  1
{\Fgdt;n}\Farial.ttf;75
 40
3.0
 41
8.6617100372
  0
LINE
  5
2A5
100
AcDbEntity
  8
0
100
AcDbLine
 62
2
  6
CONTINUOUS
 10
247.1555861493
 20
169.1186582901
 11
247.1555861493
 21
144.9570453869
  0
LINE
  5
2A6
100
AcDbEntity
  8
0
100
AcDbLine
 62
2
  6
CONTINUOUS
 10
322.1555861493
 20
169.1186582901
 11
322.1555861493
 21
144.9570453869
  0
LINE
  5
2A7
100
AcDbEntity
  8
0
100
AcDbLine
 62
2
  6
CONTINUOUS
 10
247.1555861493
 20
145.7070453869
 11
284.6555861493
 21
145.7070453869
  0
LINE
  5
2A8
100
AcDbEntity
  8
0
100
AcDbLine
 62
2
  6
CONTINUOUS
 10
322.1555861493
 20
145.7070453869
 11
284.6555861493
 21
145.7070453869
  0
INSERT
  5
2A9
100
AcDbEntity
  8
0
100
AcDbBlockReference
 62
2
  6
CONTINUOUS
  2
_CLOSED
 10
247.1555861493
 20
145.7070453869
 41
2.5
 42
2.5
 43
2.5
 50
180.0
  0
INSERT
  5
2AA
100
AcDbEntity
  8
0
100
AcDbBlockReference
 62
2
  6
CONTINUOUS
  2
_CLOSED
 10
322.1555861493
 20
145.7070453869
 41
2.5
 42
2.5
 43
2.5
  0
ENDBLK
  5
2AB
100
AcDbEntity
  8
0
  6
BYBLOCK
 62
0
100
AcDbBlockEnd
  0
BLOCK
  5
2AC
100
AcDbEntity
  8
0
100
AcDbBlockBegin
 62
2
  6
CONTINUOUS
  2
*D6
 70
65
 10
0.0
 20
0.0
  3
*D6
  1

  0
MTEXT
  5
2AD
100
AcDbEntity
  8
0
100
AcDbMText
 62
2
  6
CONTINUOUS
  7
TEXTSTYLE_2
 71
2
 72
1
 10
284.6555861493
 20
159.346433596
 30
0.0
 11
1.0
 21
0.0
 31
0.0
  1
{\Fgdt;n}\Farial.ttf;55
 40
3.0
 41
8.6617100372
  0
LINE
  5
2AE
100
AcDbEntity
  8
0
100
AcDbLine
 62
2
  6
CONTINUOUS
 10
257.1555861493
 20
169.1652086846
 11
257.1555861493
 21
154.846433596
  0
LINE
  5
2AF
100
AcDbEntity
  8
0
100
AcDbLine
 62
2
  6
CONTINUOUS
 10
312.1555861493
 20
169.1186582901
 11
312.1555861493
 21
154.846433596
  0
LINE
  5
2B0
100
AcDbEntity
  8
0
100
AcDbLine
 62
2
  6
CONTINUOUS
 10
257.1555861493
 20
155.596433596
 11
284.6555861493
 21
155.596433596
  0
LINE
  5
2B1
100
AcDbEntity
  8
0
100
AcDbLine
 62
2
  6
CONTINUOUS
 10
312.1555861493
 20
155.596433596
 11
284.6555861493
 21
155.596433596
  0
INSERT
  5
2B2
100
AcDbEntity
  8
0
100
AcDbBlockReference
 62
2
  6
CONTINUOUS
  2
_CLOSED
 10
257.1555861493
 20
155.596433596
 41
2.5
 42
2.5
 43
2.5
 50
180.0
  0
INSERT
  5
2B3
100
AcDbEntity
  8
0
100
AcDbBlockReference
 62
2
  6
CONTINUOUS
  2
_CLOSED
 10
312.1555861493
 20
155.596433596
 41
2.5
 42
2.5
 43
2.5
 50
360.0
  0
ENDBLK
  5
2B4
100
AcDbEntity
  8
0
  6
BYBLOCK
 62
0
100
AcDbBlockEnd
  0
ENDSEC
  0
SECTION
  2
ENTITIES
  0
DIMENSION
  5
2B5
100
AcDbEntity
  8
0
100
AcDbDimension
 62
2
  6
CONTINUOUS
  2
*D0
 10
52.5313150237
 20
27.8781284761
 11
52.5313150237
 21
75.3812338549
 70
160
  3
DIMSTYLE_1
100
AcDbAlignedDimension
 13
68.9057508343
 23
122.8781284761
 14
68.7846562847
 24
27.8781284761
 50
270.0
100
AcDbRotatedDimension
  0
DIMENSION
  5
2B6
100
AcDbEntity
  8
0
100
AcDbDimension
 62
2
  6
CONTINUOUS
  2
*D1
 10
71.8367630701
 20
140.618211115
 11
119.3398699951
 21
140.618211115
 70
160
  3
DIMSTYLE_1
100
AcDbAlignedDimension
 13
166.8367630701
 23
125.5316323693
 14
71.8367630701
 24
125.8469827586
 50
180.0
100
AcDbRotatedDimension
  0
DIMENSION
  5
2B7
100
AcDbEntity
  8
0
100
AcDbDimension
 62
2
  6
CONTINUOUS
  2
*D2
 10
53.4572805179
 20
170.106754847
 11
53.4572805179
 21
219.9942560302
 70
160
  3
DIMSTYLE_1
100
AcDbAlignedDimension
 13
68.5525583982
 23
270.206754847
 14
70.0937686569
 24
170.106754847
 50
270.0
100
AcDbRotatedDimension
  0
DIMENSION
  5
2B8
100
AcDbEntity
  8
0
100
AcDbDimension
 62
2
  6
CONTINUOUS
  2
*D3
 10
182.3139755035
 20
258.606754847
 11
182.3139755035
 21
264.5366932354
 70
160
  3
DIMSTYLE_2
100
AcDbAlignedDimension
 13
168.6612842244
 23
270.206754847
 14
168.6612842244
 24
258.606754847
 50
270.0
100
AcDbRotatedDimension
  0
DIMENSION
  5
2B9
100
AcDbEntity
  8
0
100
AcDbDimension
 62
2
  6
CONTINUOUS
  2
*D4
 10
182.3139755035
 20
190.106754847
 11
182.3139755035
 21
224.3472849712
 70
160
  3
DIMSTYLE_1
100
AcDbAlignedDimension
 13
168.9341716744
 23
258.606754847
 14
168.6612842244
 24
190.106754847
 50
270.0
100
AcDbRotatedDimension
  0
DIMENSION
  5
2BA
100
AcDbEntity
  8
0
100
AcDbDimension
 62
2
  6
CONTINUOUS
  2
*D5
 10
322.1555861493
 20
145.7070453869
 11
285.0592346477
 21
145.7070453869
 70
160
  1
%%c<>
  3
DIMSTYLE_1
100
AcDbAlignedDimension
 13
247.1555861493
 23
169.8686582901
 14
322.1555861493
 24
169.8686582901
100
AcDbRotatedDimension
  0
DIMENSION
  5
2BB
100
AcDbEntity
  8
0
100
AcDbDimension
 62
2
  6
CONTINUOUS
  2
*D6
 10
312.1555861493
 20
155.596433596
 11
284.6555861493
 21
155.596433596
 70
160
  1
%%c<>
  3
DIMSTYLE_1
100
AcDbAlignedDimension
 13
257.1555861493
 23
169.9152086846
 14
312.1555861493
 24
169.8686582901
 50
360.0
100
AcDbRotatedDimension
  0
LINE
  5
2BC
100
AcDbEntity
  8
0
100
AcDbLine
 62
2
  6
CONTINUOUS
 10
319.8215188711
 20
50.4217920391
 11
409.8215188711
 21
50.4217920391
  0
LINE
  5
2BD
100
AcDbEntity
  8
0
100
AcDbLine
 62
2
  6
CONTINUOUS
 10
319.8215188711
 20
50.4217920391
 11
319.8215188711
 21
10.4217920391
  0
LINE
  5
2BE
100
AcDbEntity
  8
0
100
AcDbLine
 62
2
  6
CONTINUOUS
 10
349.8215188711
 20
44.4217920391
 11
409.8215188711
 21
44.4217920391
  0
LINE
  5
2BF
100
AcDbEntity
  8
0
100
AcDbLine
 62
2
  6
CONTINUOUS
 10
349.8215188711
 20
38.4217920391
 11
409.8215188711
 21
38.4217920391
  0
LINE
  5
2C0
100
AcDbEntity
  8
0
100
AcDbLine
 62
2
  6
CONTINUOUS
 10
349.8215188711
 20
28.4217920391
 11
409.8215188711
 21
28.4217920391
  0
LINE
  5
2C1
100
AcDbEntity
  8
0
100
AcDbLine
 62
2
  6
CONTINUOUS
 10
319.8215188711
 20
23.4217920391
 11
409.8215188711
 21
23.4217920391
  0
LINE
  5
2C2
100
AcDbEntity
  8
0
100
AcDbLine
 62
2
  6
CONTINUOUS
 10
319.8215188711
 20
10.4217920391
 11
409.8215188711
 21
10.4217920391
  0
LINE
  5
2C3
100
AcDbEntity
  8
0
100
AcDbLine
 62
2
  6
CONTINUOUS
 10
349.8215188711
 20
50.4217920391
 11
349.8215188711
 21
23.4217920391
  0
LINE
  5
2C4
100
AcDbEntity
  8
0
100
AcDbLine
 62
2
  6
CONTINUOUS
 10
389.8215188711
 20
50.4217920391
 11
389.8215188711
 21
38.4217920391
  0
LINE
  5
2C5
100
AcDbEntity
  8
0
100
AcDbLine
 62
2
  6
CONTINUOUS
 10
409.8215188711
 20
50.4217920391
 11
409.8215188711
 21
10.4217920391
  0
INSERT
  5
2C6
100
AcDbEntity
  8
0
100
AcDbBlockReference
 62
2
  6
CONTINUOUS
  2
LOGO2_BL0
 10
333.6475659158
 20
36.9217920391
  0
MTEXT
  5
2C7
100
AcDbEntity
  8
9_SOLID
100
AcDbMText
 62
2
  6
CONTINUOUS
  7
TEXTSTYLE_3
 71
1
 72
1
 10
351.3090188711
 20
48.9217920391
 30
0.0
 11
1.0
 21
0.0
 31
0.0
  1
2F9_C_001
 40
3.0
 41
31.6071428571
  0
MTEXT
  5
2C8
100
AcDbEntity
  8
0
100
AcDbMText
 62
2
  6
CONTINUOUS
  7
TEXTSTYLE_3
 71
1
 72
1
 10
391.3090188711
 20
49.1717920391
 30
0.0
 11
1.0
 21
0.0
 31
0.0
  1
Rev:00
 40
3.5
 41
22.75
  0
MTEXT
  5
2C9
100
AcDbEntity
  8
9_SOLID
100
AcDbMText
 62
2
  6
CONTINUOUS
  7
TEXTSTYLE_3
 71
1
 72
1
 10
351.3090188711
 20
42.6717920391
 30
0.0
 11
1.0
 21
0.0
 31
0.0
  1
Scale:1:1
 40
3.5
 41
28.375
  0
MTEXT
  5
2CA
100
AcDbEntity
  8
9_SOLID
100
AcDbMText
 62
2
  6
CONTINUOUS
  7
TEXTSTYLE_3
 71
1
 72
1
 10
391.3090188711
 20
43.1717920391
 30
0.0
 11
1.0
 21
0.0
 31
0.0
  1
A3
 40
3.5
 41
9.25
  0
MTEXT
  5
2CB
100
AcDbEntity
  8
0
100
AcDbMText
 62
2
  6
CONTINUOUS
  7
TEXTSTYLE_3
 71
1
 72
1
 10
351.3090188711
 20
35.1717920391
 30
0.0
 11
1.0
 21
0.0
 31
0.0
  1
LITUS 5.7
 40
3.5
 41
35.5
  0
MTEXT
  5
2CC
100
AcDbEntity
  8
0
100
AcDbMText
 62
2
  6
CONTINUOUS
  7
TEXTSTYLE_3
 71
1
 72
1
 10
351.3090188711
 20
27.1717920391
 30
0.0
 11
1.0
 21
0.0
 31
0.0
  1
DATE:06/07/2018
 40
2.5
 41
43.0357142857
  0
MTEXT
  5
2CD
100
AcDbEntity
  8
9_SOLID
100
AcDbMText
 62
2
  6
CONTINUOUS
  7
TEXTSTYLE_3
 71
1
 72
1
 10
321.3090188711
 20
23.1092920391
 30
0.0
 11
1.0
 21
0.0
 31
0.0
  1
Any integral or partial reproductions are prohibited \Pwithout prior authorisation of L {\Ftxt.shx;\W0.190476;\H2.250000; }& L Luce & Light s.r.l., \Pin accordance with the law in force. \PAll rights reserved.
 40
2.25
 41
134.5982142857
  0
LINE
  5
2CE
100
AcDbEntity
  8
0
100
AcDbLine
 62
7
  6
CONTINUOUS
 10
0.0
 20
0.0
 11
0.0
 21
297.0
  0
LINE
  5
2CF
100
AcDbEntity
  8
0
100
AcDbLine
 62
7
  6
CONTINUOUS
 10
0.0
 20
0.0
 11
420.0
 21
0.0
  0
LINE
  5
2D0
100
AcDbEntity
  8
0
100
AcDbLine
 62
7
  6
CONTINUOUS
 10
0.0
 20
297.0
 11
420.0
 21
297.0
  0
LINE
  5
2D1
100
AcDbEntity
  8
0
100
AcDbLine
 62
7
  6
CONTINUOUS
 10
420.0
 20
0.0
 11
420.0
 21
297.0
  0
LINE
  5
2D2
100
AcDbEntity
  8
7_ALL_FEATURES
100
AcDbLine
 62
7
  6
CONTINUOUS
 10
71.8367630701
 20
122.3781284761
 11
72.3367630701
 21
122.8781284761
  0
LINE
  5
2D3
100
AcDbEntity
  8
7_ALL_FEATURES
100
AcDbLine
 62
7
  6
CONTINUOUS
 10
72.3367630701
 20
27.8781284761
 11
71.8367630701
 21
28.3781284761
  0
LINE
  5
2D4
100
AcDbEntity
  8
7_ALL_FEATURES
100
AcDbLine
 62
7
  6
CONTINUOUS
 10
71.8367630701
 20
122.3781284761
 11
71.8367630701
 21
28.3781284761
  0
LINE
  5
2D5
100
AcDbEntity
  8
7_ALL_FEATURES
100
AcDbLine
 62
7
  6
CONTINUOUS
 10
72.3367630701
 20
122.3781284761
 11
72.3367630701
 21
28.3781284761
  0
LINE
  5
2D6
100
AcDbEntity
  8
7_ALL_FEATURES
100
AcDbLine
 62
7
  6
CONTINUOUS
 10
72.3367630701
 20
27.8781284761
 11
166.3367630701
 21
27.8781284761
  0
LINE
  5
2D7
100
AcDbEntity
  8
7_ALL_FEATURES
100
AcDbLine
 62
7
  6
CONTINUOUS
 10
72.3367630701
 20
28.3781284761
 11
166.3367630701
 21
28.3781284761
  0
LINE
  5
2D8
100
AcDbEntity
  8
7_ALL_FEATURES
100
AcDbLine
 62
7
  6
CONTINUOUS
 10
166.5867630701
 20
122.6281284761
 11
166.3367630701
 21
122.3781284761
  0
LINE
  5
2D9
100
AcDbEntity
  8
7_ALL_FEATURES
100
AcDbLine
 62
7
  6
CONTINUOUS
 10
72.3367630701
 20
28.3781284761
 11
72.0867630701
 21
28.1281284761
  0
LINE
  5
2DA
100
AcDbEntity
  8
7_ALL_FEATURES
100
AcDbLine
 62
7
  6
CONTINUOUS
 10
166.5867630701
 20
28.1281284761
 11
166.3367630701
 21
28.3781284761
  0
LINE
  5
2DB
100
AcDbEntity
  8
7_ALL_FEATURES
100
AcDbLine
 62
7
  6
CONTINUOUS
 10
72.0867630701
 20
122.6281284761
 11
72.3367630701
 21
122.3781284761
  0
LINE
  5
2DC
100
AcDbEntity
  8
7_ALL_FEATURES
100
AcDbLine
 62
7
  6
CONTINUOUS
 10
166.3367630701
 20
28.3781284761
 11
166.3367630701
 21
122.3781284761
  0
LINE
  5
2DD
100
AcDbEntity
  8
7_ALL_FEATURES
100
AcDbLine
 62
7
  6
CONTINUOUS
 10
166.8367630701
 20
28.3781284761
 11
166.8367630701
 21
122.3781284761
  0
LINE
  5
2DE
100
AcDbEntity
  8
7_ALL_FEATURES
100
AcDbLine
 62
7
  6
CONTINUOUS
 10
166.3367630701
 20
122.3781284761
 11
72.3367630701
 21
122.3781284761
  0
LINE
  5
2DF
100
AcDbEntity
  8
7_ALL_FEATURES
100
AcDbLine
 62
7
  6
CONTINUOUS
 10
166.3367630701
 20
122.8781284761
 11
72.3367630701
 21
122.8781284761
  0
LINE
  5
2E0
100
AcDbEntity
  8
7_ALL_FEATURES
100
AcDbLine
 62
7
  6
CONTINUOUS
 10
166.3367630701
 20
27.8781284761
 11
166.8367630701
 21
28.3781284761
  0
LINE
  5
2E1
100
AcDbEntity
  8
7_ALL_FEATURES
100
AcDbLine
 62
7
  6
CONTINUOUS
 10
166.3367630701
 20
122.8781284761
 11
166.8367630701
 21
122.3781284761
  0
LINE
  5
2E2
100
AcDbEntity
  8
7_ALL_FEATURES
100
AcDbLine
 62
7
  6
CONTINUOUS
 10
72.3367630701
 20
270.206754847
 11
71.8367630701
 21
269.706754847
  0
LINE
  5
2E3
100
AcDbEntity
  8
7_ALL_FEATURES
100
AcDbLine
 62
7
  6
CONTINUOUS
 10
72.3367630701
 20
264.706754847
 11
72.0867630701
 21
264.456754847
  0
LINE
  5
2E4
100
AcDbEntity
  8
7_ALL_FEATURES
100
AcDbLine
 62
7
  6
CONTINUOUS
 10
72.4399348191
 20
262.606754847
 11
72.5085439791
 21
262.7737781397
  0
LINE
  5
2E5
100
AcDbEntity
  8
7_ALL_FEATURES
100
AcDbLine
 62
7
  6
CONTINUOUS
 10
72.6370829266
 20
263.0860239964
 11
72.6456236537
 21
263.106754847
  0
LINE
  5
2E6
100
AcDbEntity
  8
7_ALL_FEATURES
100
AcDbLine
 62
7
  6
CONTINUOUS
 10
71.8367630701
 20
262.606754847
 11
72.3367630701
 21
263.106754847
  0
LINE
  5
2E7
100
AcDbEntity
  8
02___PRT_ALL_AXES
100
AcDbLine
 62
7
  6
CONTINUOUS
 10
114.4951034733
 20
170.106754847
 11
124.1784226668
 21
170.106754847
  0
LINE
  5
2E8
100
AcDbEntity
  8
7_ALL_FEATURES
100
AcDbLine
 62
7
  6
CONTINUOUS
 10
71.8367630701
 20
259.106754847
 11
71.8367630701
 21
262.606754847
  0
LINE
  5
2E9
100
AcDbEntity
  8
7_ALL_FEATURES
100
AcDbLine
 62
7
  6
CONTINUOUS
 10
71.8367630701
 20
264.706754847
 11
71.8367630701
 21
269.706754847
  0
LINE
  5
2EA
100
AcDbEntity
  8
7_ALL_FEATURES
100
AcDbLine
 62
7
  6
CONTINUOUS
 10
72.3367630701
 20
264.706754847
 11
72.3367630701
 21
269.706754847
  0
LINE
  5
2EB
100
AcDbEntity
  8
7_ALL_FEATURES
100
AcDbLine
 62
7
  6
CONTINUOUS
 10
72.4399348191
 20
259.106754847
 11
72.4399348191
 21
262.606754847
  0
LINE
  5
2EC
100
AcDbEntity
  8
7_ALL_FEATURES
100
AcDbLine
 62
7
  6
CONTINUOUS
 10
72.5867630701
 20
263.106754847
 11
72.5867630701
 21
264.206754847
  0
LINE
  5
2ED
100
AcDbEntity
  8
02___PRT_ALL_AXES
100
AcDbLine
 62
9
  6
CONTINUOUS
 10
128.4348790523
 20
174.3632112325
 11
128.3201468747
 21
174.3632112325
  0
LINE
  5
2EE
100
AcDbEntity
  8
02___PRT_ALL_AXES
100
AcDbLine
 62
9
  6
CONTINUOUS
 10
125.0758111298
 20
174.3632112325
 11
122.581098815
 21
174.3632112325
  0
LINE
  5
2EF
100
AcDbEntity
  8
02___PRT_ALL_AXES
100
AcDbLine
 62
9
  6
CONTINUOUS
 10
116.0924273251
 20
174.3632112325
 11
113.5977150104
 21
174.3632112325
  0
LINE
  5
2F0
100
AcDbEntity
  8
02___PRT_ALL_AXES
100
AcDbLine
 62
9
  6
CONTINUOUS
 10
110.3533792654
 20
174.3632112325
 11
110.2386470879
 21
174.3632112325
  0
LINE
  5
2F1
100
AcDbEntity
  8
02___PRT_ALL_AXES
100
AcDbLine
 62
7
  6
CONTINUOUS
 10
125.0758111298
 20
174.389916253
 11
122.581098815
 21
174.389916253
  0
LINE
  5
2F2
100
AcDbEntity
  8
02___PRT_ALL_AXES
100
AcDbLine
 62
7
  6
CONTINUOUS
 10
116.0924273251
 20
174.389916253
 11
113.5977150104
 21
174.389916253
  0
LINE
  5
2F3
100
AcDbEntity
  8
02___PRT_ALL_AXES
100
AcDbLine
 62
7
  6
CONTINUOUS
 10
110.2386470879
 20
174.389916253
 11
110.3533792654
 21
174.389916253
  0
LINE
  5
2F4
100
AcDbEntity
  8
02___PRT_ALL_AXES
100
AcDbLine
 62
7
  6
CONTINUOUS
 10
128.3201468747
 20
174.389916253
 11
128.4348790523
 21
174.389916253
  0
LINE
  5
2F5
100
AcDbEntity
  8
7_ALL_FEATURES
100
AcDbLine
 62
9
  6
CONTINUOUS
 10
74.5867630701
 20
263.106754847
 11
74.5867630701
 21
264.206754847
  0
LINE
  5
2F6
100
AcDbEntity
  8
02___PRT_ALL_AXES
100
AcDbLine
 62
7
  6
CONTINUOUS
 10
129.1517176463
 20
178.606754847
 11
127.5198538398
 21
178.606754847
  0
LINE
  5
2F7
100
AcDbEntity
  8
02___PRT_ALL_AXES
100
AcDbLine
 62
7
  6
CONTINUOUS
 10
125.8761041647
 20
178.606754847
 11
120.9805127451
 21
178.606754847
  0
LINE
  5
2F8
100
AcDbEntity
  8
02___PRT_ALL_AXES
100
AcDbLine
 62
7
  6
CONTINUOUS
 10
117.693013395
 20
178.606754847
 11
112.7974219754
 21
178.606754847
  0
LINE
  5
2F9
100
AcDbEntity
  8
02___PRT_ALL_AXES
100
AcDbLine
 62
7
  6
CONTINUOUS
 10
111.1536723004
 20
178.606754847
 11
109.5218084939
 21
178.606754847
  0
LINE
  5
2FA
100
AcDbEntity
  8
3_ALL_AXES
100
AcDbLine
 62
7
  6
CONTINUOUS
 10
81.6367630701
 20
227.571754847
 11
81.6367630701
 21
223.641754847
  0
LINE
  5
2FB
100
AcDbEntity
  8
7_ALL_FEATURES
100
AcDbLine
 62
7
  6
CONTINUOUS
 10
81.8367630701
 20
258.106754847
 11
81.8367630701
 21
229.856754847
  0
LINE
  5
2FC
100
AcDbEntity
  8
7_ALL_FEATURES
100
AcDbLine
 62
7
  6
CONTINUOUS
 10
81.8367630701
 20
221.356754847
 11
81.8367630701
 21
211.3567830058
  0
LINE
  5
2FD
100
AcDbEntity
  8
02___PRT_ALL_AXES
100
AcDbLine
 62
7
  6
CONTINUOUS
 10
110.6793498959
 20
182.606754847
 11
127.9941762442
 21
182.606754847
  0
LINE
  5
2FE
100
AcDbEntity
  8
7_ALL_FEATURES
100
AcDbLine
 62
7
  6
CONTINUOUS
 10
92.8367630701
 20
190.106754847
 11
91.8367630701
 21
191.106754847
  0
LINE
  5
2FF
100
AcDbEntity
  8
02___PRT_ALL_AXES
100
AcDbLine
 62
7
  6
CONTINUOUS
 10
110.2386470879
 20
174.389916253
 11
109.5218084939
 21
175.106754847
  0
LINE
  5
300
100
AcDbEntity
  8
7_ALL_FEATURES
100
AcDbLine
 62
7
  6
CONTINUOUS
 10
86.6688085965
 20
227.606754847
 11
86.6688085965
 21
223.9057277859
  0
LINE
  5
301
100
AcDbEntity
  8
7_ALL_FEATURES
100
AcDbLine
 62
7
  6
CONTINUOUS
 10
86.6688085965
 20
218.2501452934
 11
86.6688085965
 21
211.356754847
  0
LINE
  5
302
100
AcDbEntity
  8
02___PRT_ALL_AXES
100
AcDbLine
 62
7
  6
CONTINUOUS
 10
129.1517176463
 20
186.606754847
 11
109.5218084939
 21
186.606754847
  0
LINE
  5
303
100
AcDbEntity
  8
7_ALL_FEATURES
100
AcDbLine
 62
7
  6
CONTINUOUS
 10
83.0868189477
 20
210.106754847
 11
81.8367630702
 21
211.3567830054
  0
LINE
  5
304
100
AcDbEntity
  8
7_ALL_FEATURES
100
AcDbLine
 62
7
  6
CONTINUOUS
 10
91.8367630701
 20
209.606754847
 11
91.8367630701
 21
191.106754847
  0
LINE
  5
305
100
AcDbEntity
  8
7_ALL_FEATURES
100
AcDbLine
 62
7
  6
CONTINUOUS
 10
145.8367630701
 20
190.106754847
 11
92.8367630701
 21
190.106754847
  0
LINE
  5
306
100
AcDbEntity
  8
7_ALL_FEATURES
100
AcDbLine
 62
7
  6
CONTINUOUS
 10
146.8367630701
 20
191.106754847
 11
91.8367630701
 21
191.106754847
  0
LINE
  5
307
100
AcDbEntity
  8
7_ALL_FEATURES
100
AcDbLine
 62
7
  6
CONTINUOUS
 10
72.4399348191
 20
259.106754847
 11
72.5085439791
 21
258.9397315542
  0
LINE
  5
308
100
AcDbEntity
  8
7_ALL_FEATURES
100
AcDbLine
 62
3
  6
CONTINUOUS
 10
86.3566493044
 20
219.0981818798
 11
89.6324690029
 21
210.1988313724
  0
LINE
  5
309
100
AcDbEntity
  8
7_ALL_FEATURES
100
AcDbLine
 62
4
  6
CONTINUOUS
 10
88.7828093797
 20
217.3095391256
 11
90.7418428335
 21
211.9874741266
  0
LINE
  5
30A
100
AcDbEntity
  8
7_ALL_FEATURES
100
AcDbLine
 62
7
  6
CONTINUOUS
 10
90.084751348
 20
214.9571863961
 11
90.9347541966
 21
212.648001527
  0
LINE
  5
30B
100
AcDbEntity
  8
3_ALL_AXES
100
AcDbLine
 62
7
  6
CONTINUOUS
 10
92.9093460721
 20
209.606754847
 11
92.9093460721
 21
209.226754847
  0
LINE
  5
30C
100
AcDbEntity
  8
7_ALL_FEATURES
100
AcDbLine
 62
4
  6
CONTINUOUS
 10
92.8000785013
 20
212.951637913
 11
92.9605067978
 21
213.4645832449
  0
LINE
  5
30D
100
AcDbEntity
  8
7_ALL_FEATURES
100
AcDbLine
 62
4
  6
CONTINUOUS
 10
93.3998845575
 20
212.4853828743
 11
91.5403679349
 21
214.3111378612
  0
LINE
  5
30E
100
AcDbEntity
  8
7_ALL_FEATURES
100
AcDbLine
 62
7
  6
CONTINUOUS
 10
92.9131784728
 20
214.9571863961
 11
93.7631813213
 21
212.648001527
  0
LINE
  5
30F
100
AcDbEntity
  8
7_ALL_FEATURES
100
AcDbLine
 62
4
  6
CONTINUOUS
 10
94.9844835206
 20
211.9874741266
 11
93.0254500669
 21
217.3095391256
  0
LINE
  5
310
100
AcDbEntity
  8
7_ALL_FEATURES
100
AcDbLine
 62
3
  6
CONTINUOUS
 10
97.4106435959
 20
210.1988313724
 11
94.1348238975
 21
219.0981818798
  0
LINE
  5
311
100
AcDbEntity
  8
7_ALL_FEATURES
100
AcDbLine
 62
7
  6
CONTINUOUS
 10
97.7242492835
 20
210.429705679
 11
94.448429585
 21
219.3290561864
  0
LINE
  5
312
100
AcDbEntity
  8
7_ALL_FEATURES
100
AcDbLine
 62
3
  6
CONTINUOUS
 10
94.2833387515
 20
224.3580311547
 11
93.9932932666
 21
225.348308383
  0
LINE
  5
313
100
AcDbEntity
  8
7_ALL_FEATURES
100
AcDbLine
 62
7
  6
CONTINUOUS
 10
94.2432932666
 20
224.9947549924
 11
94.5333387515
 21
224.0044777641
  0
LINE
  5
314
100
AcDbEntity
  8
7_ALL_FEATURES
100
AcDbLine
 62
9
  6
CONTINUOUS
 10
98.1005761086
 20
209.606754847
 11
98.1005761086
 21
210.106754847
  0
LINE
  5
315
100
AcDbEntity
  8
3_ALL_AXES
100
AcDbLine
 62
7
  6
CONTINUOUS
 10
100.5093460721
 20
209.606754847
 11
100.5093460721
 21
209.226754847
  0
LINE
  5
316
100
AcDbEntity
  8
7_ALL_FEATURES
100
AcDbLine
 62
7
  6
CONTINUOUS
 10
100.9233236707
 20
227.606754847
 11
100.9233236707
 21
211.356754847
  0
LINE
  5
317
100
AcDbEntity
  8
7_ALL_FEATURES
100
AcDbLine
 62
4
  6
CONTINUOUS
 10
91.7170745023
 20
213.5966415332
 11
92.1162333457
 21
214.2520814283
  0
LINE
  5
318
100
AcDbEntity
  8
7_ALL_FEATURES
100
AcDbLine
 62
3
  6
CONTINUOUS
 10
89.0435457983
 20
225.348308383
 11
87.3530368265
 21
224.3580311547
  0
LINE
  5
319
100
AcDbEntity
  8
03___PRT_ALL_CURVES
100
AcDbLine
 62
40
  6
CONTINUOUS
 10
97.4106435959
 20
210.1988313724
 11
86.3566493044
 21
219.0981818798
  0
LINE
  5
31A
100
AcDbEntity
  8
7_ALL_FEATURES
100
AcDbLine
 62
7
  6
CONTINUOUS
 10
94.6800996902
 20
223.5485902993
 11
94.4275653516
 21
223.9057277859
  0
LINE
  5
31B
100
AcDbEntity
  8
7_ALL_FEATURES
100
AcDbLine
 62
7
  6
CONTINUOUS
 10
103.2854391371
 20
209.606754847
 11
103.2854391371
 21
210.106754847
  0
LINE
  5
31C
100
AcDbEntity
  8
7_ALL_FEATURES
100
AcDbLine
 62
9
  6
CONTINUOUS
 10
94.1348238975
 20
219.0981818798
 11
94.448429585
 21
219.3290561864
  0
LINE
  5
31D
100
AcDbEntity
  8
7_ALL_FEATURES
100
AcDbLine
 62
7
  6
CONTINUOUS
 10
94.2432932666
 20
224.9947549924
 11
93.9932932666
 21
225.348308383
  0
LINE
  5
31E
100
AcDbEntity
  8
02___PRT_ALL_AXES
100
AcDbLine
 62
7
  6
CONTINUOUS
 10
109.5218084939
 20
190.106754847
 11
109.5218084939
 21
186.606754847
  0
LINE
  5
31F
100
AcDbEntity
  8
02___PRT_ALL_AXES
100
AcDbLine
 62
7
  6
CONTINUOUS
 10
109.5218084939
 20
178.606754847
 11
109.5218084939
 21
175.106754847
  0
LINE
  5
320
100
AcDbEntity
  8
02___PRT_ALL_AXES
100
AcDbLine
 62
7
  6
CONTINUOUS
 10
110.2386470879
 20
174.3632112325
 11
110.2386470879
 21
174.389916253
  0
LINE
  5
321
100
AcDbEntity
  8
02___PRT_ALL_AXES
100
AcDbLine
 62
7
  6
CONTINUOUS
 10
110.3533792654
 20
174.3632112325
 11
110.3533792654
 21
174.389916253
  0
LINE
  5
322
100
AcDbEntity
  8
02___PRT_ALL_AXES
100
AcDbLine
 62
7
  6
CONTINUOUS
 10
110.679285782
 20
178.606754847
 11
110.679285782
 21
182.606754847
  0
LINE
  5
323
100
AcDbEntity
  8
3_ALL_AXES
100
AcDbLine
 62
7
  6
CONTINUOUS
 10
94.7443804176
 20
207.406754847
 11
98.6743117266
 21
207.406754847
  0
LINE
  5
324
100
AcDbEntity
  8
3_ALL_AXES
100
AcDbLine
 62
7
  6
CONTINUOUS
 10
139.9992144135
 20
207.406754847
 11
143.9291457226
 21
207.406754847
  0
LINE
  5
325
100
AcDbEntity
  8
3_ALL_AXES
100
AcDbLine
 62
7
  6
CONTINUOUS
 10
92.9093460721
 20
209.226754847
 11
100.5093460721
 21
209.226754847
  0
LINE
  5
326
100
AcDbEntity
  8
3_ALL_AXES
100
AcDbLine
 62
7
  6
CONTINUOUS
 10
138.164180068
 20
209.226754847
 11
145.764180068
 21
209.226754847
  0
LINE
  5
327
100
AcDbEntity
  8
3_ALL_AXES
100
AcDbLine
 62
7
  6
CONTINUOUS
 10
95.2010262861
 20
209.606754847
 11
93.2382439753
 21
209.606754847
  0
LINE
  5
328
100
AcDbEntity
  8
7_ALL_FEATURES
100
AcDbLine
 62
3
  6
CONTINUOUS
 10
90.3224015155
 20
209.606754847
 11
93.2382439753
 21
209.606754847
  0
LINE
  5
329
100
AcDbEntity
  8
7_ALL_FEATURES
100
AcDbLine
 62
3
  6
CONTINUOUS
 10
95.2010262861
 20
209.606754847
 11
103.2854391371
 21
209.606754847
  0
LINE
  5
32A
100
AcDbEntity
  8
7_ALL_FEATURES
100
AcDbLine
 62
7
  6
CONTINUOUS
 10
103.2854391371
 20
209.606754847
 11
135.388087003
 21
209.606754847
  0
LINE
  5
32B
100
AcDbEntity
  8
7_ALL_FEATURES
100
AcDbLine
 62
3
  6
CONTINUOUS
 10
135.388087003
 20
209.606754847
 11
143.4724998541
 21
209.606754847
  0
LINE
  5
32C
100
AcDbEntity
  8
3_ALL_AXES
100
AcDbLine
 62
7
  6
CONTINUOUS
 10
143.4724998541
 20
209.606754847
 11
145.4352821649
 21
209.606754847
  0
LINE
  5
32D
100
AcDbEntity
  8
7_ALL_FEATURES
100
AcDbLine
 62
3
  6
CONTINUOUS
 10
145.4352821649
 20
209.606754847
 11
148.3511246246
 21
209.606754847
  0
LINE
  5
32E
100
AcDbEntity
  8
7_ALL_FEATURES
100
AcDbLine
 62
7
  6
CONTINUOUS
 10
155.5863286491
 20
210.106754847
 11
148.9992452119
 21
210.106754847
  0
LINE
  5
32F
100
AcDbEntity
  8
7_ALL_FEATURES
100
AcDbLine
 62
7
  6
CONTINUOUS
 10
140.5729500316
 20
210.106754847
 11
98.1005761086
 21
210.106754847
  0
LINE
  5
330
100
AcDbEntity
  8
7_ALL_FEATURES
100
AcDbLine
 62
7
  6
CONTINUOUS
 10
89.6742809283
 20
210.106754847
 11
83.0871974911
 21
210.106754847
  0
LINE
  5
331
100
AcDbEntity
  8
7_ALL_FEATURES
100
AcDbLine
 62
9
  6
CONTINUOUS
 10
89.6324690029
 20
210.1988313724
 11
97.4106435959
 21
210.1988313724
  0
LINE
  5
332
100
AcDbEntity
  8
7_ALL_FEATURES
100
AcDbLine
 62
9
  6
CONTINUOUS
 10
141.2628825442
 20
210.1988313724
 11
149.0410571373
 21
210.1988313724
  0
LINE
  5
333
100
AcDbEntity
  8
7_ALL_FEATURES
100
AcDbLine
 62
7
  6
CONTINUOUS
 10
156.8367630701
 20
211.3567830055
 11
149.4672847057
 21
211.356754847
  0
LINE
  5
334
100
AcDbEntity
  8
7_ALL_FEATURES
100
AcDbLine
 62
7
  6
CONTINUOUS
 10
141.2905204028
 20
211.356754847
 11
97.3830057373
 21
211.356754847
  0
LINE
  5
335
100
AcDbEntity
  8
7_ALL_FEATURES
100
AcDbLine
 62
7
  6
CONTINUOUS
 10
89.2062414345
 20
211.356754847
 11
81.8367630702
 21
211.3567830052
  0
LINE
  5
336
100
AcDbEntity
  8
02___PRT_ALL_AXES
100
AcDbLine
 62
7
  6
CONTINUOUS
 10
111.1536723004
 20
178.606754847
 11
111.1536723004
 21
182.606754847
  0
LINE
  5
337
100
AcDbEntity
  8
02___PRT_ALL_AXES
100
AcDbLine
 62
7
  6
CONTINUOUS
 10
111.8367630701
 20
186.606754847
 11
111.8367630701
 21
182.606754847
  0
LINE
  5
338
100
AcDbEntity
  8
02___PRT_ALL_AXES
100
AcDbLine
 62
7
  6
CONTINUOUS
 10
112.7974219754
 20
178.606754847
 11
112.7974219754
 21
182.606754847
  0
LINE
  5
339
100
AcDbEntity
  8
02___PRT_ALL_AXES
100
AcDbLine
 62
7
  6
CONTINUOUS
 10
113.5977150104
 20
174.3632112325
 11
113.5977150104
 21
174.389916253
  0
LINE
  5
33A
100
AcDbEntity
  8
02___PRT_ALL_AXES
100
AcDbLine
 62
7
  6
CONTINUOUS
 10
114.429285782
 20
190.106754847
 11
114.429285782
 21
186.606754847
  0
LINE
  5
33B
100
AcDbEntity
  8
02___PRT_ALL_AXES
100
AcDbLine
 62
7
  6
CONTINUOUS
 10
114.429285782
 20
178.606754847
 11
114.429285782
 21
175.106754847
  0
LINE
  5
33C
100
AcDbEntity
  8
7_ALL_FEATURES
100
AcDbLine
 62
9
  6
CONTINUOUS
 10
97.4106435959
 20
210.1988313724
 11
97.7242492835
 21
210.429705679
  0
LINE
  5
33D
100
AcDbEntity
  8
7_ALL_FEATURES
100
AcDbLine
 62
4
  6
CONTINUOUS
 10
90.7418428335
 20
211.9874741266
 11
94.9844835206
 21
211.9874741266
  0
LINE
  5
33E
100
AcDbEntity
  8
7_ALL_FEATURES
100
AcDbLine
 62
4
  6
CONTINUOUS
 10
143.6890426196
 20
211.9874741266
 11
147.9316833067
 21
211.9874741266
  0
LINE
  5
33F
100
AcDbEntity
  8
7_ALL_FEATURES
100
AcDbLine
 62
7
  6
CONTINUOUS
 10
147.9108345937
 20
212.648001527
 11
147.1966567447
 21
212.648001527
  0
LINE
  5
340
100
AcDbEntity
  8
7_ALL_FEATURES
100
AcDbLine
 62
7
  6
CONTINUOUS
 10
145.0824074689
 20
212.648001527
 11
144.3682296199
 21
212.648001527
  0
LINE
  5
341
100
AcDbEntity
  8
7_ALL_FEATURES
100
AcDbLine
 62
7
  6
CONTINUOUS
 10
94.4773591703
 20
212.648001527
 11
93.7631813213
 21
212.648001527
  0
LINE
  5
342
100
AcDbEntity
  8
7_ALL_FEATURES
100
AcDbLine
 62
7
  6
CONTINUOUS
 10
91.6489320456
 20
212.648001527
 11
90.9347541966
 21
212.648001527
  0
LINE
  5
343
100
AcDbEntity
  8
7_ALL_FEATURES
100
AcDbLine
 62
7
  6
CONTINUOUS
 10
71.8367630701
 20
259.106754847
 11
72.3367630701
 21
258.606754847
  0
LINE
  5
344
100
AcDbEntity
  8
02___PRT_ALL_AXES
100
AcDbLine
 62
7
  6
CONTINUOUS
 10
116.0924273251
 20
174.3632112325
 11
116.0924273251
 21
174.389916253
  0
LINE
  5
345
100
AcDbEntity
  8
02___PRT_ALL_AXES
100
AcDbLine
 62
7
  6
CONTINUOUS
 10
117.693013395
 20
178.606754847
 11
117.693013395
 21
182.606754847
  0
LINE
  5
346
100
AcDbEntity
  8
7_ALL_FEATURES
100
AcDbLine
 62
7
  6
CONTINUOUS
 10
166.3367630701
 20
269.706754847
 11
166.5867630701
 21
269.956754847
  0
LINE
  5
347
100
AcDbEntity
  8
7_ALL_FEATURES
100
AcDbLine
 62
7
  6
CONTINUOUS
 10
156.8367630701
 20
258.106754847
 11
157.3367630701
 21
258.606754847
  0
LINE
  5
348
100
AcDbEntity
  8
7_ALL_FEATURES
100
AcDbLine
 62
4
  6
CONTINUOUS
 10
149.8907167604
 20
217.3095391256
 11
145.6480760733
 21
217.3095391256
  0
LINE
  5
349
100
AcDbEntity
  8
7_ALL_FEATURES
100
AcDbLine
 62
4
  6
CONTINUOUS
 10
93.0254500669
 20
217.3095391256
 11
88.7828093797
 21
217.3095391256
  0
LINE
  5
34A
100
AcDbEntity
  8
7_ALL_FEATURES
100
AcDbLine
 62
9
  6
CONTINUOUS
 10
86.3566493044
 20
219.0981818798
 11
94.1348238975
 21
219.0981818798
  0
LINE
  5
34B
100
AcDbEntity
  8
7_ALL_FEATURES
100
AcDbLine
 62
9
  6
CONTINUOUS
 10
144.5387022427
 20
219.0981818798
 11
152.3168768357
 21
219.0981818798
  0
LINE
  5
34C
100
AcDbEntity
  8
7_ALL_FEATURES
100
AcDbLine
 62
7
  6
CONTINUOUS
 10
71.8367630701
 20
264.706754847
 11
72.3367630701
 21
264.206754847
  0
LINE
  5
34D
100
AcDbEntity
  8
7_ALL_FEATURES
100
AcDbLine
 62
7
  6
CONTINUOUS
 10
81.8367630701
 20
258.106754847
 11
81.3367630701
 21
258.606754847
  0
LINE
  5
34E
100
AcDbEntity
  8
02___PRT_ALL_AXES
100
AcDbLine
 62
7
  6
CONTINUOUS
 10
120.9805127451
 20
178.606754847
 11
120.9805127451
 21
182.606754847
  0
LINE
  5
34F
100
AcDbEntity
  8
02___PRT_ALL_AXES
100
AcDbLine
 62
7
  6
CONTINUOUS
 10
122.581098815
 20
174.3632112325
 11
122.581098815
 21
174.389916253
  0
LINE
  5
350
100
AcDbEntity
  8
02___PRT_ALL_AXES
100
AcDbLine
 62
7
  6
CONTINUOUS
 10
124.2442403582
 20
190.106754847
 11
124.2442403582
 21
186.606754847
  0
LINE
  5
351
100
AcDbEntity
  8
02___PRT_ALL_AXES
100
AcDbLine
 62
7
  6
CONTINUOUS
 10
124.2442403582
 20
178.606754847
 11
124.2442403582
 21
175.106754847
  0
LINE
  5
352
100
AcDbEntity
  8
7_ALL_FEATURES
100
AcDbLine
 62
7
  6
CONTINUOUS
 10
166.3367630701
 20
264.206754847
 11
166.8367630701
 21
264.706754847
  0
LINE
  5
353
100
AcDbEntity
  8
7_ALL_FEATURES
100
AcDbLine
 62
9
  6
CONTINUOUS
 10
87.3530368265
 20
224.3580311547
 11
94.2833387515
 21
224.3580311547
  0
LINE
  5
354
100
AcDbEntity
  8
7_ALL_FEATURES
100
AcDbLine
 62
9
  6
CONTINUOUS
 10
144.3901873887
 20
224.3580311547
 11
151.3204893136
 21
224.3580311547
  0
LINE
  5
355
100
AcDbEntity
  8
7_ALL_FEATURES
100
AcDbLine
 62
3
  6
CONTINUOUS
 10
149.6299803419
 20
225.348308383
 11
144.6802328736
 21
225.348308383
  0
LINE
  5
356
100
AcDbEntity
  8
7_ALL_FEATURES
100
AcDbLine
 62
3
  6
CONTINUOUS
 10
93.9932932666
 20
225.348308383
 11
89.0435457983
 21
225.348308383
  0
LINE
  5
357
100
AcDbEntity
  8
7_ALL_FEATURES
100
AcDbLine
 62
9
  6
CONTINUOUS
 10
141.2628825442
 20
210.1988313724
 11
140.9492768567
 21
210.429705679
  0
LINE
  5
358
100
AcDbEntity
  8
7_ALL_FEATURES
100
AcDbLine
 62
7
  6
CONTINUOUS
 10
72.3367630701
 20
269.706754847
 11
72.0867630701
 21
269.956754847
  0
LINE
  5
359
100
AcDbEntity
  8
02___PRT_ALL_AXES
100
AcDbLine
 62
7
  6
CONTINUOUS
 10
125.0758111298
 20
174.3632112325
 11
125.0758111298
 21
174.389916253
  0
LINE
  5
35A
100
AcDbEntity
  8
02___PRT_ALL_AXES
100
AcDbLine
 62
7
  6
CONTINUOUS
 10
125.8761041647
 20
178.606754847
 11
125.8761041647
 21
182.606754847
  0
LINE
  5
35B
100
AcDbEntity
  8
02___PRT_ALL_AXES
100
AcDbLine
 62
7
  6
CONTINUOUS
 10
126.8367630701
 20
186.606754847
 11
126.8367630701
 21
182.606754847
  0
LINE
  5
35C
100
AcDbEntity
  8
02___PRT_ALL_AXES
100
AcDbLine
 62
7
  6
CONTINUOUS
 10
127.5198538398
 20
178.606754847
 11
127.5198538398
 21
182.606754847
  0
LINE
  5
35D
100
AcDbEntity
  8
02___PRT_ALL_AXES
100
AcDbLine
 62
7
  6
CONTINUOUS
 10
127.9942403582
 20
178.606754847
 11
127.9942403582
 21
182.606754847
  0
LINE
  5
35E
100
AcDbEntity
  8
02___PRT_ALL_AXES
100
AcDbLine
 62
7
  6
CONTINUOUS
 10
128.3201468747
 20
174.3632112325
 11
128.3201468747
 21
174.389916253
  0
LINE
  5
35F
100
AcDbEntity
  8
02___PRT_ALL_AXES
100
AcDbLine
 62
7
  6
CONTINUOUS
 10
128.4348790523
 20
174.3632112325
 11
128.4348790523
 21
174.389916253
  0
LINE
  5
360
100
AcDbEntity
  8
02___PRT_ALL_AXES
100
AcDbLine
 62
7
  6
CONTINUOUS
 10
129.1517176463
 20
190.106754847
 11
129.1517176463
 21
186.606754847
  0
LINE
  5
361
100
AcDbEntity
  8
02___PRT_ALL_AXES
100
AcDbLine
 62
7
  6
CONTINUOUS
 10
129.1517176463
 20
178.606754847
 11
129.1517176463
 21
175.106754847
  0
LINE
  5
362
100
AcDbEntity
  8
7_ALL_FEATURES
100
AcDbLine
 62
7
  6
CONTINUOUS
 10
166.8367630701
 20
259.106754847
 11
166.3367630701
 21
258.606754847
  0
LINE
  5
363
100
AcDbEntity
  8
03___PRT_ALL_CURVES
100
AcDbLine
 62
40
  6
CONTINUOUS
 10
156.5347132824
 20
225.456754847
 11
156.2778986848
 21
225.456754847
  0
LINE
  5
364
100
AcDbEntity
  8
03___PRT_ALL_CURVES
100
AcDbLine
 62
40
  6
CONTINUOUS
 10
156.277898678
 20
225.756754847
 11
156.5347132774
 21
225.756754847
  0
LINE
  5
365
100
AcDbEntity
  8
7_ALL_FEATURES
100
AcDbLine
 62
7
  6
CONTINUOUS
 10
152.0047175439
 20
227.606754847
 11
137.7502024692
 21
227.606754847
  0
LINE
  5
366
100
AcDbEntity
  8
7_ALL_FEATURES
100
AcDbLine
 62
7
  6
CONTINUOUS
 10
100.9233236709
 20
227.606754847
 11
86.6688085963
 21
227.606754847
  0
LINE
  5
367
100
AcDbEntity
  8
7_ALL_FEATURES
100
AcDbLine
 62
9
  6
CONTINUOUS
 10
144.5387022427
 20
219.0981818798
 11
144.2250965551
 21
219.3290561864
  0
LINE
  5
368
100
AcDbEntity
  8
7_ALL_FEATURES
100
AcDbLine
 62
7
  6
CONTINUOUS
 10
135.388087003
 20
209.606754847
 11
135.388087003
 21
210.106754847
  0
LINE
  5
369
100
AcDbEntity
  8
7_ALL_FEATURES
100
AcDbLine
 62
7
  6
CONTINUOUS
 10
137.7502024694
 20
227.606754847
 11
137.7502024694
 21
211.356754847
  0
LINE
  5
36A
100
AcDbEntity
  8
3_ALL_AXES
100
AcDbLine
 62
7
  6
CONTINUOUS
 10
138.164180068
 20
209.606754847
 11
138.164180068
 21
209.226754847
  0
LINE
  5
36B
100
AcDbEntity
  8
7_ALL_FEATURES
100
AcDbLine
 62
7
  6
CONTINUOUS
 10
144.4302328736
 20
224.9947549924
 11
144.6802328736
 21
225.348308383
  0
LINE
  5
36C
100
AcDbEntity
  8
7_ALL_FEATURES
100
AcDbLine
 62
7
  6
CONTINUOUS
 10
143.99342645
 20
223.5485902993
 11
144.2459607885
 21
223.9057277859
  0
LINE
  5
36D
100
AcDbEntity
  8
7_ALL_FEATURES
100
AcDbLine
 62
9
  6
CONTINUOUS
 10
140.5729500316
 20
209.606754847
 11
140.5729500316
 21
210.106754847
  0
LINE
  5
36E
100
AcDbEntity
  8
7_ALL_FEATURES
100
AcDbLine
 62
7
  6
CONTINUOUS
 10
144.1401873887
 20
224.0044777641
 11
144.4302328736
 21
224.9947549924
  0
LINE
  5
36F
100
AcDbEntity
  8
7_ALL_FEATURES
100
AcDbLine
 62
3
  6
CONTINUOUS
 10
144.6802328736
 20
225.348308383
 11
144.3901873887
 21
224.3580311547
  0
LINE
  5
370
100
AcDbEntity
  8
7_ALL_FEATURES
100
AcDbLine
 62
4
  6
CONTINUOUS
 10
145.8489320416
 20
213.5966415332
 11
146.7306211366
 21
214.2520814283
  0
LINE
  5
371
100
AcDbEntity
  8
7_ALL_FEATURES
100
AcDbLine
 62
3
  6
CONTINUOUS
 10
151.3204893136
 20
224.3580311547
 11
149.6299803419
 21
225.348308383
  0
LINE
  5
372
100
AcDbEntity
  8
03___PRT_ALL_CURVES
100
AcDbLine
 62
40
  6
CONTINUOUS
 10
149.0410571373
 20
210.1988313724
 11
144.5387022427
 21
219.0981818798
  0
LINE
  5
373
100
AcDbEntity
  8
3_ALL_AXES
100
AcDbLine
 62
7
  6
CONTINUOUS
 10
145.764180068
 20
209.606754847
 11
145.764180068
 21
209.226754847
  0
LINE
  5
374
100
AcDbEntity
  8
7_ALL_FEATURES
100
AcDbLine
 62
7
  6
CONTINUOUS
 10
146.8367630701
 20
209.606754847
 11
146.8367630701
 21
191.106754847
  0
LINE
  5
375
100
AcDbEntity
  8
7_ALL_FEATURES
100
AcDbLine
 62
7
  6
CONTINUOUS
 10
144.2250965551
 20
219.3290561864
 11
140.9492768567
 21
210.429705679
  0
LINE
  5
376
100
AcDbEntity
  8
7_ALL_FEATURES
100
AcDbLine
 62
3
  6
CONTINUOUS
 10
144.5387022427
 20
219.0981818798
 11
141.2628825442
 21
210.1988313724
  0
LINE
  5
377
100
AcDbEntity
  8
7_ALL_FEATURES
100
AcDbLine
 62
4
  6
CONTINUOUS
 10
145.6480760733
 20
217.3095391256
 11
143.6890426196
 21
211.9874741266
  0
LINE
  5
378
100
AcDbEntity
  8
7_ALL_FEATURES
100
AcDbLine
 62
7
  6
CONTINUOUS
 10
145.2182324685
 20
214.9571863961
 11
144.3682296199
 21
212.648001527
  0
LINE
  5
379
100
AcDbEntity
  8
7_ALL_FEATURES
100
AcDbLine
 62
4
  6
CONTINUOUS
 10
146.4570889014
 20
212.951637913
 11
146.9951439519
 21
213.4645832449
  0
LINE
  5
37A
100
AcDbEntity
  8
7_ALL_FEATURES
100
AcDbLine
 62
4
  6
CONTINUOUS
 10
146.7136412698
 20
212.4853828743
 11
146.1982326573
 21
214.3111378612
  0
LINE
  5
37B
100
AcDbEntity
  8
7_ALL_FEATURES
100
AcDbLine
 62
7
  6
CONTINUOUS
 10
152.0047175436
 20
227.606754847
 11
152.0047175436
 21
223.9057277859
  0
LINE
  5
37C
100
AcDbEntity
  8
7_ALL_FEATURES
100
AcDbLine
 62
7
  6
CONTINUOUS
 10
152.0047175436
 20
218.2501452934
 11
152.0047175436
 21
211.356754847
  0
LINE
  5
37D
100
AcDbEntity
  8
7_ALL_FEATURES
100
AcDbLine
 62
7
  6
CONTINUOUS
 10
148.0466595932
 20
214.9571863961
 11
147.1966567447
 21
212.648001527
  0
LINE
  5
37E
100
AcDbEntity
  8
7_ALL_FEATURES
100
AcDbLine
 62
4
  6
CONTINUOUS
 10
147.9316833067
 20
211.9874741266
 11
149.8907167604
 21
217.3095391256
  0
LINE
  5
37F
100
AcDbEntity
  8
7_ALL_FEATURES
100
AcDbLine
 62
3
  6
CONTINUOUS
 10
149.0410571373
 20
210.1988313724
 11
152.3168768357
 21
219.0981818798
  0
LINE
  5
380
100
AcDbEntity
  8
7_ALL_FEATURES
100
AcDbLine
 62
7
  6
CONTINUOUS
 10
166.233591321
 20
259.106754847
 11
166.164982161
 21
258.9397315542
  0
LINE
  5
381
100
AcDbEntity
  8
7_ALL_FEATURES
100
AcDbLine
 62
7
  6
CONTINUOUS
 10
155.5867071925
 20
210.106754847
 11
156.8367630699
 21
211.3567830054
  0
LINE
  5
382
100
AcDbEntity
  8
03___PRT_ALL_CURVES
100
AcDbLine
 62
40
  6
CONTINUOUS
 10
156.8362202319
 20
250.243862597
 11
156.8367624246
 21
250.4130304531
  0
LINE
  5
383
100
AcDbEntity
  8
03___PRT_ALL_CURVES
100
AcDbLine
 62
40
  6
CONTINUOUS
 10
156.8367630521
 20
250.614940472
 11
156.8352259619
 21
250.3555859492
  0
LINE
  5
384
100
AcDbEntity
  8
03___PRT_ALL_CURVES
100
AcDbLine
 62
40
  6
CONTINUOUS
 10
156.8353270854
 20
248.8018435149
 11
156.8367630522
 21
248.5726484359
  0
LINE
  5
385
100
AcDbEntity
  8
03___PRT_ALL_CURVES
100
AcDbLine
 62
40
  6
CONTINUOUS
 10
156.8367629087
 20
248.7745583878
 11
156.8362264537
 21
248.939633443
  0
LINE
  5
386
100
AcDbEntity
  8
03___PRT_ALL_CURVES
100
AcDbLine
 62
40
  6
CONTINUOUS
 10
156.8364630689
 20
232.056754847
 11
156.8364630689
 21
230.356754847
  0
LINE
  5
387
100
AcDbEntity
  8
03___PRT_ALL_CURVES
100
AcDbLine
 62
40
  6
CONTINUOUS
 10
156.8364630689
 20
245.756754847
 11
156.8364630689
 21
247.956754847
  0
LINE
  5
388
100
AcDbEntity
  8
7_ALL_FEATURES
100
AcDbLine
 62
7
  6
CONTINUOUS
 10
156.8367630701
 20
258.106754847
 11
156.8367630701
 21
229.8575122937
  0
LINE
  5
389
100
AcDbEntity
  8
7_ALL_FEATURES
100
AcDbLine
 62
7
  6
CONTINUOUS
 10
156.8367630701
 20
221.3559974003
 11
156.8367630701
 21
211.3567830058
  0
LINE
  5
38A
100
AcDbEntity
  8
02___PRT_ALL_AXES
100
AcDbLine
 62
7
  6
CONTINUOUS
 10
128.4348790523
 20
174.389916253
 11
129.1517176463
 21
175.106754847
  0
LINE
  5
38B
100
AcDbEntity
  8
7_ALL_FEATURES
100
AcDbLine
 62
7
  6
CONTINUOUS
 10
145.8367630701
 20
190.106754847
 11
146.8367630701
 21
191.106754847
  0
LINE
  5
38C
100
AcDbEntity
  8
02___PRT_ALL_AXES
100
AcDbLine
 62
7
  6
CONTINUOUS
 10
128.3797276396
 20
174.4354216469
 11
128.3926094985
 21
174.4452602931
  0
LINE
  5
38D
100
AcDbEntity
  8
7_ALL_FEATURES
100
AcDbLine
 62
7
  6
CONTINUOUS
 10
81.8367630701
 20
258.106754847
 11
156.8367630701
 21
258.106754847
  0
LINE
  5
38E
100
AcDbEntity
  8
7_ALL_FEATURES
100
AcDbLine
 62
7
  6
CONTINUOUS
 10
166.3367630701
 20
258.606754847
 11
72.3367630701
 21
258.606754847
  0
LINE
  5
38F
100
AcDbEntity
  8
7_ALL_FEATURES
100
AcDbLine
 62
7
  6
CONTINUOUS
 10
166.8367630701
 20
259.106754847
 11
71.8367630701
 21
259.106754847
  0
LINE
  5
390
100
AcDbEntity
  8
7_ALL_FEATURES
100
AcDbLine
 62
9
  6
CONTINUOUS
 10
164.0867630701
 20
263.106754847
 11
164.0867630701
 21
264.206754847
  0
LINE
  5
391
100
AcDbEntity
  8
02___PRT_ALL_AXES
100
AcDbLine
 62
7
  6
CONTINUOUS
 10
128.3801060831
 20
174.4333649837
 11
128.3930432172
 21
174.4429187813
  0
LINE
  5
392
100
AcDbEntity
  8
7_ALL_FEATURES
100
AcDbLine
 62
7
  6
CONTINUOUS
 10
71.8367630701
 20
262.606754847
 11
166.8367630701
 21
262.606754847
  0
LINE
  5
393
100
AcDbEntity
  8
7_ALL_FEATURES
100
AcDbLine
 62
7
  6
CONTINUOUS
 10
72.3367630701
 20
263.106754847
 11
166.3367630701
 21
263.106754847
  0
LINE
  5
394
100
AcDbEntity
  8
7_ALL_FEATURES
100
AcDbLine
 62
7
  6
CONTINUOUS
 10
166.3367630701
 20
264.206754847
 11
72.3367630701
 21
264.206754847
  0
LINE
  5
395
100
AcDbEntity
  8
06___PRT_ALL_SURFS
100
AcDbLine
 62
7
  6
CONTINUOUS
 10
166.3367630701
 20
264.206754847
 11
72.3367630701
 21
264.206754847
  0
LINE
  5
396
100
AcDbEntity
  8
7_ALL_FEATURES
100
AcDbLine
 62
7
  6
CONTINUOUS
 10
166.3367630701
 20
264.706754847
 11
72.3367630701
 21
264.706754847
  0
LINE
  5
397
100
AcDbEntity
  8
7_ALL_FEATURES
100
AcDbLine
 62
7
  6
CONTINUOUS
 10
166.0867630701
 20
263.106754847
 11
166.0867630701
 21
264.206754847
  0
LINE
  5
398
100
AcDbEntity
  8
7_ALL_FEATURES
100
AcDbLine
 62
7
  6
CONTINUOUS
 10
166.233591321
 20
259.106754847
 11
166.233591321
 21
262.606754847
  0
LINE
  5
399
100
AcDbEntity
  8
7_ALL_FEATURES
100
AcDbLine
 62
7
  6
CONTINUOUS
 10
166.3367630701
 20
264.706754847
 11
166.3367630701
 21
269.706754847
  0
LINE
  5
39A
100
AcDbEntity
  8
7_ALL_FEATURES
100
AcDbLine
 62
7
  6
CONTINUOUS
 10
166.8367630701
 20
259.106754847
 11
166.8367630701
 21
262.606754847
  0
LINE
  5
39B
100
AcDbEntity
  8
7_ALL_FEATURES
100
AcDbLine
 62
7
  6
CONTINUOUS
 10
166.8367630701
 20
264.706754847
 11
166.8367630701
 21
269.706754847
  0
LINE
  5
39C
100
AcDbEntity
  8
7_ALL_FEATURES
100
AcDbLine
 62
7
  6
CONTINUOUS
 10
72.3367630701
 20
269.706754847
 11
166.3367630701
 21
269.706754847
  0
LINE
  5
39D
100
AcDbEntity
  8
7_ALL_FEATURES
100
AcDbLine
 62
7
  6
CONTINUOUS
 10
72.3367630701
 20
270.206754847
 11
166.3367630701
 21
270.206754847
  0
LINE
  5
39E
100
AcDbEntity
  8
7_ALL_FEATURES
100
AcDbLine
 62
7
  6
CONTINUOUS
 10
166.0364482685
 20
263.0860250383
 11
166.0279024865
 21
263.106754847
  0
LINE
  5
39F
100
AcDbEntity
  8
7_ALL_FEATURES
100
AcDbLine
 62
7
  6
CONTINUOUS
 10
166.233591321
 20
262.606754847
 11
166.164982161
 21
262.7737781397
  0
LINE
  5
3A0
100
AcDbEntity
  8
7_ALL_FEATURES
100
AcDbLine
 62
7
  6
CONTINUOUS
 10
166.3367630701
 20
263.106754847
 11
166.8367630701
 21
262.606754847
  0
LINE
  5
3A1
100
AcDbEntity
  8
7_ALL_FEATURES
100
AcDbLine
 62
7
  6
CONTINUOUS
 10
166.3367630701
 20
264.706754847
 11
166.5867630701
 21
264.456754847
  0
LINE
  5
3A2
100
AcDbEntity
  8
7_ALL_FEATURES
100
AcDbLine
 62
7
  6
CONTINUOUS
 10
166.8367630701
 20
269.706754847
 11
166.3367630701
 21
270.206754847
  0
LINE
  5
3A3
100
AcDbEntity
  8
7_ALL_FEATURES
100
AcDbLine
 62
7
  6
CONTINUOUS
 10
237.1555861493
 20
269.706754847
 11
237.6555861493
 21
270.206754847
  0
LINE
  5
3A4
100
AcDbEntity
  8
7_ALL_FEATURES
100
AcDbLine
 62
7
  6
CONTINUOUS
 10
237.4055861493
 20
264.456754847
 11
237.6555861493
 21
264.706754847
  0
LINE
  5
3A5
100
AcDbEntity
  8
7_ALL_FEATURES
100
AcDbLine
 62
7
  6
CONTINUOUS
 10
237.7587578984
 20
262.606754847
 11
237.8273670584
 21
262.7737781397
  0
LINE
  5
3A6
100
AcDbEntity
  8
7_ALL_FEATURES
100
AcDbLine
 62
7
  6
CONTINUOUS
 10
237.9559060058
 20
263.0860239964
 11
237.9644467329
 21
263.106754847
  0
LINE
  5
3A7
100
AcDbEntity
  8
7_ALL_FEATURES
100
AcDbLine
 62
7
  6
CONTINUOUS
 10
237.1555861493
 20
262.606754847
 11
237.6555861493
 21
263.106754847
  0
LINE
  5
3A8
100
AcDbEntity
  8
02___PRT_ALL_AXES
100
AcDbLine
 62
7
  6
CONTINUOUS
 10
279.8139265526
 20
170.106754847
 11
289.4972457461
 21
170.106754847
  0
LINE
  5
3A9
100
AcDbEntity
  8
7_ALL_FEATURES
100
AcDbLine
 62
7
  6
CONTINUOUS
 10
237.1555861493
 20
259.106754847
 11
237.1555861493
 21
262.606754847
  0
LINE
  5
3AA
100
AcDbEntity
  8
7_ALL_FEATURES
100
AcDbLine
 62
7
  6
CONTINUOUS
 10
237.1555861493
 20
264.706754847
 11
237.1555861493
 21
269.706754847
  0
LINE
  5
3AB
100
AcDbEntity
  8
7_ALL_FEATURES
100
AcDbLine
 62
7
  6
CONTINUOUS
 10
237.6555861493
 20
264.706754847
 11
237.6555861493
 21
269.706754847
  0
LINE
  5
3AC
100
AcDbEntity
  8
7_ALL_FEATURES
100
AcDbLine
 62
7
  6
CONTINUOUS
 10
237.7587578984
 20
259.106754847
 11
237.7587578984
 21
262.606754847
  0
LINE
  5
3AD
100
AcDbEntity
  8
7_ALL_FEATURES
100
AcDbLine
 62
7
  6
CONTINUOUS
 10
237.9055861493
 20
263.106754847
 11
237.9055861493
 21
264.206754847
  0
LINE
  5
3AE
100
AcDbEntity
  8
02___PRT_ALL_AXES
100
AcDbLine
 62
9
  6
CONTINUOUS
 10
293.1555861493
 20
174.3632112325
 11
291.7152633228
 21
174.3632112325
  0
LINE
  5
3AF
100
AcDbEntity
  8
02___PRT_ALL_AXES
100
AcDbLine
 62
9
  6
CONTINUOUS
 10
276.1555861493
 20
174.3632112325
 11
277.5959089758
 21
174.3632112325
  0
LINE
  5
3B0
100
AcDbEntity
  8
02___PRT_ALL_AXES
100
AcDbLine
 62
9
  6
CONTINUOUS
 10
283.2152633228
 20
174.3632112325
 11
286.0959089758
 21
174.3632112325
  0
LINE
  5
3B1
100
AcDbEntity
  8
02___PRT_ALL_AXES
100
AcDbLine
 62
7
  6
CONTINUOUS
 10
293.1555861493
 20
174.389916253
 11
291.7152633228
 21
174.389916253
  0
LINE
  5
3B2
100
AcDbEntity
  8
02___PRT_ALL_AXES
100
AcDbLine
 62
7
  6
CONTINUOUS
 10
276.1555861493
 20
174.389916253
 11
277.5959089758
 21
174.389916253
  0
LINE
  5
3B3
100
AcDbEntity
  8
02___PRT_ALL_AXES
100
AcDbLine
 62
7
  6
CONTINUOUS
 10
283.2152633228
 20
174.389916253
 11
286.0959089758
 21
174.389916253
  0
LINE
  5
3B4
100
AcDbEntity
  8
7_ALL_FEATURES
100
AcDbLine
 62
9
  6
CONTINUOUS
 10
239.9055861493
 20
263.106754847
 11
239.9055861493
 21
264.206754847
  0
LINE
  5
3B5
100
AcDbEntity
  8
02___PRT_ALL_AXES
100
AcDbLine
 62
7
  6
CONTINUOUS
 10
293.1555861493
 20
178.606754847
 11
290.3291151254
 21
178.606754847
  0
LINE
  5
3B6
100
AcDbEntity
  8
02___PRT_ALL_AXES
100
AcDbLine
 62
7
  6
CONTINUOUS
 10
287.4820571733
 20
178.606754847
 11
281.8291151254
 21
178.606754847
  0
LINE
  5
3B7
100
AcDbEntity
  8
02___PRT_ALL_AXES
100
AcDbLine
 62
7
  6
CONTINUOUS
 10
278.9820571733
 20
178.606754847
 11
276.1555861493
 21
178.606754847
  0
LINE
  5
3B8
100
AcDbEntity
  8
7_ALL_FEATURES
100
AcDbLine
 62
7
  6
CONTINUOUS
 10
247.1555861493
 20
258.106754847
 11
247.1555861493
 21
211.356754847
  0
LINE
  5
3B9
100
AcDbEntity
  8
02___PRT_ALL_AXES
100
AcDbLine
 62
7
  6
CONTINUOUS
 10
276.1555861493
 20
182.606754847
 11
293.1555861493
 21
182.606754847
  0
LINE
  5
3BA
100
AcDbEntity
  8
7_ALL_FEATURES
100
AcDbLine
 62
7
  6
CONTINUOUS
 10
258.15558615
 20
190.1067548463
 11
257.15558615
 21
191.1067548462
  0
LINE
  5
3BB
100
AcDbEntity
  8
7_ALL_FEATURES
100
AcDbLine
 62
7
  6
CONTINUOUS
 10
251.9876316758
 20
227.606754847
 11
251.9876316758
 21
223.9057277859
  0
LINE
  5
3BC
100
AcDbEntity
  8
7_ALL_FEATURES
100
AcDbLine
 62
7
  6
CONTINUOUS
 10
251.9876316758
 20
218.2501452934
 11
251.9876316758
 21
211.356754847
  0
LINE
  5
3BD
100
AcDbEntity
  8
02___PRT_ALL_AXES
100
AcDbLine
 62
7
  6
CONTINUOUS
 10
293.1555861493
 20
186.606754847
 11
276.1555861493
 21
186.606754847
  0
LINE
  5
3BE
100
AcDbEntity
  8
7_ALL_FEATURES
100
AcDbLine
 62
7
  6
CONTINUOUS
 10
248.4055861493
 20
210.106754847
 11
247.1555861493
 21
211.356754847
  0
LINE
  5
3BF
100
AcDbEntity
  8
7_ALL_FEATURES
100
AcDbLine
 62
7
  6
CONTINUOUS
 10
257.1555861493
 20
209.606754847
 11
257.1555861493
 21
191.106754847
  0
LINE
  5
3C0
100
AcDbEntity
  8
7_ALL_FEATURES
100
AcDbLine
 62
7
  6
CONTINUOUS
 10
311.1555861493
 20
190.106754847
 11
258.1555861493
 21
190.106754847
  0
LINE
  5
3C1
100
AcDbEntity
  8
7_ALL_FEATURES
100
AcDbLine
 62
7
  6
CONTINUOUS
 10
312.1555861493
 20
191.106754847
 11
257.1555861493
 21
191.106754847
  0
LINE
  5
3C2
100
AcDbEntity
  8
7_ALL_FEATURES
100
AcDbLine
 62
7
  6
CONTINUOUS
 10
237.7587578984
 20
259.106754847
 11
237.8273670584
 21
258.9397315542
  0
LINE
  5
3C3
100
AcDbEntity
  8
7_ALL_FEATURES
100
AcDbLine
 62
3
  6
CONTINUOUS
 10
251.6754723837
 20
219.0981818798
 11
254.9512920821
 21
210.1988313724
  0
LINE
  5
3C4
100
AcDbEntity
  8
7_ALL_FEATURES
100
AcDbLine
 62
4
  6
CONTINUOUS
 10
254.101632459
 20
217.3095391256
 11
256.0606659127
 21
211.9874741266
  0
LINE
  5
3C5
100
AcDbEntity
  8
7_ALL_FEATURES
100
AcDbLine
 62
7
  6
CONTINUOUS
 10
255.4035744273
 20
214.9571863961
 11
256.2535772758
 21
212.648001527
  0
LINE
  5
3C6
100
AcDbEntity
  8
3_ALL_AXES
100
AcDbLine
 62
7
  6
CONTINUOUS
 10
258.2281691514
 20
209.226754847
 11
258.2281691514
 21
209.606754847
  0
LINE
  5
3C7
100
AcDbEntity
  8
7_ALL_FEATURES
100
AcDbLine
 62
4
  6
CONTINUOUS
 10
258.1189015805
 20
212.951637913
 11
258.279329877
 21
213.4645832449
  0
LINE
  5
3C8
100
AcDbEntity
  8
7_ALL_FEATURES
100
AcDbLine
 62
4
  6
CONTINUOUS
 10
258.7187076367
 20
212.4853828743
 11
256.8591910141
 21
214.3111378612
  0
LINE
  5
3C9
100
AcDbEntity
  8
7_ALL_FEATURES
100
AcDbLine
 62
7
  6
CONTINUOUS
 10
258.232001552
 20
214.9571863961
 11
259.0820044006
 21
212.648001527
  0
LINE
  5
3CA
100
AcDbEntity
  8
7_ALL_FEATURES
100
AcDbLine
 62
4
  6
CONTINUOUS
 10
260.3033065998
 20
211.9874741266
 11
258.3442731461
 21
217.3095391256
  0
LINE
  5
3CB
100
AcDbEntity
  8
7_ALL_FEATURES
100
AcDbLine
 62
3
  6
CONTINUOUS
 10
262.7294666752
 20
210.1988313724
 11
259.4536469767
 21
219.0981818798
  0
LINE
  5
3CC
100
AcDbEntity
  8
7_ALL_FEATURES
100
AcDbLine
 62
7
  6
CONTINUOUS
 10
263.0430723627
 20
210.429705679
 11
259.7672526643
 21
219.3290561864
  0
LINE
  5
3CD
100
AcDbEntity
  8
7_ALL_FEATURES
100
AcDbLine
 62
3
  6
CONTINUOUS
 10
259.6021618307
 20
224.3580311547
 11
259.3121163458
 21
225.348308383
  0
LINE
  5
3CE
100
AcDbEntity
  8
7_ALL_FEATURES
100
AcDbLine
 62
7
  6
CONTINUOUS
 10
259.5621163458
 20
224.9947549924
 11
259.8521618307
 21
224.0044777641
  0
LINE
  5
3CF
100
AcDbEntity
  8
7_ALL_FEATURES
100
AcDbLine
 62
9
  6
CONTINUOUS
 10
263.4193991878
 20
209.606754847
 11
263.4193991878
 21
210.106754847
  0
LINE
  5
3D0
100
AcDbEntity
  8
3_ALL_AXES
100
AcDbLine
 62
7
  6
CONTINUOUS
 10
265.8281691514
 20
209.226754847
 11
265.8281691514
 21
209.606754847
  0
LINE
  5
3D1
100
AcDbEntity
  8
7_ALL_FEATURES
100
AcDbLine
 62
7
  6
CONTINUOUS
 10
266.24214675
 20
227.606754847
 11
266.24214675
 21
211.356754847
  0
LINE
  5
3D2
100
AcDbEntity
  8
7_ALL_FEATURES
100
AcDbLine
 62
4
  6
CONTINUOUS
 10
257.0358975815
 20
213.5966415332
 11
257.4350564249
 21
214.2520814283
  0
LINE
  5
3D3
100
AcDbEntity
  8
7_ALL_FEATURES
100
AcDbLine
 62
3
  6
CONTINUOUS
 10
254.3623688775
 20
225.348308383
 11
252.6718599058
 21
224.3580311547
  0
LINE
  5
3D4
100
AcDbEntity
  8
03___PRT_ALL_CURVES
100
AcDbLine
 62
40
  6
CONTINUOUS
 10
262.7294666752
 20
210.1988313724
 11
251.6754723837
 21
219.0981818798
  0
LINE
  5
3D5
100
AcDbEntity
  8
7_ALL_FEATURES
100
AcDbLine
 62
7
  6
CONTINUOUS
 10
259.9989227694
 20
223.5485902993
 11
259.7463884309
 21
223.9057277859
  0
LINE
  5
3D6
100
AcDbEntity
  8
7_ALL_FEATURES
100
AcDbLine
 62
7
  6
CONTINUOUS
 10
268.6042622164
 20
209.606754847
 11
268.6042622164
 21
210.106754847
  0
LINE
  5
3D7
100
AcDbEntity
  8
7_ALL_FEATURES
100
AcDbLine
 62
9
  6
CONTINUOUS
 10
259.4536469767
 20
219.0981818798
 11
259.7672526643
 21
219.3290561864
  0
LINE
  5
3D8
100
AcDbEntity
  8
7_ALL_FEATURES
100
AcDbLine
 62
7
  6
CONTINUOUS
 10
259.5621163458
 20
224.9947549924
 11
259.3121163458
 21
225.348308383
  0
LINE
  5
3D9
100
AcDbEntity
  8
3_ALL_AXES
100
AcDbLine
 62
7
  6
CONTINUOUS
 10
309.2480031473
 20
207.406754847
 11
305.3180031473
 21
207.406754847
  0
LINE
  5
3DA
100
AcDbEntity
  8
3_ALL_AXES
100
AcDbLine
 62
7
  6
CONTINUOUS
 10
263.9931691514
 20
207.406754847
 11
260.0631691514
 21
207.406754847
  0
LINE
  5
3DB
100
AcDbEntity
  8
3_ALL_AXES
100
AcDbLine
 62
7
  6
CONTINUOUS
 10
311.0830031473
 20
209.226754847
 11
303.4830031473
 21
209.226754847
  0
LINE
  5
3DC
100
AcDbEntity
  8
3_ALL_AXES
100
AcDbLine
 62
7
  6
CONTINUOUS
 10
265.8281691514
 20
209.226754847
 11
258.2281691514
 21
209.226754847
  0
LINE
  5
3DD
100
AcDbEntity
  8
3_ALL_AXES
100
AcDbLine
 62
7
  6
CONTINUOUS
 10
310.7703978814
 20
209.606754847
 11
308.8076155706
 21
209.606754847
  0
LINE
  5
3DE
100
AcDbEntity
  8
3_ALL_AXES
100
AcDbLine
 62
7
  6
CONTINUOUS
 10
260.5035567281
 20
209.606754847
 11
258.5407744172
 21
209.606754847
  0
LINE
  5
3DF
100
AcDbEntity
  8
7_ALL_FEATURES
100
AcDbLine
 62
3
  6
CONTINUOUS
 10
255.6412245948
 20
209.606754847
 11
258.5407744172
 21
209.606754847
  0
LINE
  5
3E0
100
AcDbEntity
  8
7_ALL_FEATURES
100
AcDbLine
 62
3
  6
CONTINUOUS
 10
260.5035567281
 20
209.606754847
 11
268.6042622164
 21
209.606754847
  0
LINE
  5
3E1
100
AcDbEntity
  8
7_ALL_FEATURES
100
AcDbLine
 62
7
  6
CONTINUOUS
 10
268.6042622164
 20
209.606754847
 11
300.7069100823
 21
209.606754847
  0
LINE
  5
3E2
100
AcDbEntity
  8
7_ALL_FEATURES
100
AcDbLine
 62
3
  6
CONTINUOUS
 10
300.7069100823
 20
209.606754847
 11
308.8076155706
 21
209.606754847
  0
LINE
  5
3E3
100
AcDbEntity
  8
7_ALL_FEATURES
100
AcDbLine
 62
3
  6
CONTINUOUS
 10
310.7703978814
 20
209.606754847
 11
313.6699477039
 21
209.606754847
  0
LINE
  5
3E4
100
AcDbEntity
  8
7_ALL_FEATURES
100
AcDbLine
 62
7
  6
CONTINUOUS
 10
320.9052066036
 20
210.106754847
 11
314.3180682911
 21
210.106754847
  0
LINE
  5
3E5
100
AcDbEntity
  8
7_ALL_FEATURES
100
AcDbLine
 62
7
  6
CONTINUOUS
 10
305.8917731108
 20
210.106754847
 11
263.4193991878
 21
210.106754847
  0
LINE
  5
3E6
100
AcDbEntity
  8
7_ALL_FEATURES
100
AcDbLine
 62
7
  6
CONTINUOUS
 10
254.9931040076
 20
210.106754847
 11
248.4059656951
 21
210.106754847
  0
LINE
  5
3E7
100
AcDbEntity
  8
7_ALL_FEATURES
100
AcDbLine
 62
9
  6
CONTINUOUS
 10
254.9512920821
 20
210.1988313724
 11
262.7294666752
 21
210.1988313724
  0
LINE
  5
3E8
100
AcDbEntity
  8
7_ALL_FEATURES
100
AcDbLine
 62
9
  6
CONTINUOUS
 10
306.5817056235
 20
210.1988313724
 11
314.3598802165
 21
210.1988313724
  0
LINE
  5
3E9
100
AcDbEntity
  8
7_ALL_FEATURES
100
AcDbLine
 62
7
  6
CONTINUOUS
 10
322.1555861493
 20
211.356754847
 11
314.7861077849
 21
211.356754847
  0
LINE
  5
3EA
100
AcDbEntity
  8
7_ALL_FEATURES
100
AcDbLine
 62
7
  6
CONTINUOUS
 10
254.5250645137
 20
211.356754847
 11
247.1555861493
 21
211.356754847
  0
LINE
  5
3EB
100
AcDbEntity
  8
7_ALL_FEATURES
100
AcDbLine
 62
7
  6
CONTINUOUS
 10
262.7018288166
 20
211.356754847
 11
306.6093434821
 21
211.356754847
  0
LINE
  5
3EC
100
AcDbEntity
  8
02___PRT_ALL_AXES
100
AcDbLine
 62
7
  6
CONTINUOUS
 10
276.1555861493
 20
190.106754847
 11
276.1555861493
 21
186.606754847
  0
LINE
  5
3ED
100
AcDbEntity
  8
02___PRT_ALL_AXES
100
AcDbLine
 62
7
  6
CONTINUOUS
 10
276.1555861493
 20
172.1874451528
 11
276.1555861493
 21
182.606754847
  0
LINE
  5
3EE
100
AcDbEntity
  8
02___PRT_ALL_AXES
100
AcDbLine
 62
7
  6
CONTINUOUS
 10
277.1555861493
 20
182.606754847
 11
277.1555861493
 21
186.606754847
  0
LINE
  5
3EF
100
AcDbEntity
  8
02___PRT_ALL_AXES
100
AcDbLine
 62
7
  6
CONTINUOUS
 10
277.5959089758
 20
174.3632112325
 11
277.5959089758
 21
174.389916253
  0
LINE
  5
3F0
100
AcDbEntity
  8
02___PRT_ALL_AXES
100
AcDbLine
 62
7
  6
CONTINUOUS
 10
278.9820571733
 20
178.606754847
 11
278.9820571733
 21
182.606754847
  0
LINE
  5
3F1
100
AcDbEntity
  8
7_ALL_FEATURES
100
AcDbLine
 62
9
  6
CONTINUOUS
 10
262.7294666752
 20
210.1988313724
 11
263.0430723627
 21
210.429705679
  0
LINE
  5
3F2
100
AcDbEntity
  8
7_ALL_FEATURES
100
AcDbLine
 62
7
  6
CONTINUOUS
 10
284.6555861493
 20
227.0501305199
 11
283.4055861493
 21
226.3284426835
  0
LINE
  5
3F3
100
AcDbEntity
  8
7_ALL_FEATURES
100
AcDbLine
 62
4
  6
CONTINUOUS
 10
256.0606659127
 20
211.9874741266
 11
260.3033065998
 21
211.9874741266
  0
LINE
  5
3F4
100
AcDbEntity
  8
7_ALL_FEATURES
100
AcDbLine
 62
4
  6
CONTINUOUS
 10
309.0078656988
 20
211.9874741266
 11
313.2505063859
 21
211.9874741266
  0
LINE
  5
3F5
100
AcDbEntity
  8
7_ALL_FEATURES
100
AcDbLine
 62
7
  6
CONTINUOUS
 10
313.2296576729
 20
212.648001527
 11
312.5154798239
 21
212.648001527
  0
LINE
  5
3F6
100
AcDbEntity
  8
7_ALL_FEATURES
100
AcDbLine
 62
7
  6
CONTINUOUS
 10
310.4012305482
 20
212.648001527
 11
309.6870526992
 21
212.648001527
  0
LINE
  5
3F7
100
AcDbEntity
  8
7_ALL_FEATURES
100
AcDbLine
 62
7
  6
CONTINUOUS
 10
259.7961822496
 20
212.648001527
 11
259.0820044006
 21
212.648001527
  0
LINE
  5
3F8
100
AcDbEntity
  8
7_ALL_FEATURES
100
AcDbLine
 62
7
  6
CONTINUOUS
 10
256.9677551248
 20
212.648001527
 11
256.2535772758
 21
212.648001527
  0
LINE
  5
3F9
100
AcDbEntity
  8
7_ALL_FEATURES
100
AcDbLine
 62
7
  6
CONTINUOUS
 10
237.1555861493
 20
259.106754847
 11
237.6555861493
 21
258.606754847
  0
LINE
  5
3FA
100
AcDbEntity
  8
02___PRT_ALL_AXES
100
AcDbLine
 62
7
  6
CONTINUOUS
 10
281.8291151254
 20
178.606754847
 11
281.8291151254
 21
182.606754847
  0
LINE
  5
3FB
100
AcDbEntity
  8
02___PRT_ALL_AXES
100
AcDbLine
 62
7
  6
CONTINUOUS
 10
283.2152633228
 20
174.3632112325
 11
283.2152633228
 21
174.389916253
  0
LINE
  5
3FC
100
AcDbEntity
  8
7_ALL_FEATURES
100
AcDbLine
 62
7
  6
CONTINUOUS
 10
283.4055861493
 20
226.3284426835
 11
283.4055861493
 21
224.8850670105
  0
LINE
  5
3FD
100
AcDbEntity
  8
02___PRT_ALL_AXES
100
AcDbLine
 62
7
  6
CONTINUOUS
 10
284.6555861493
 20
190.106754847
 11
284.6555861493
 21
186.606754847
  0
LINE
  5
3FE
100
AcDbEntity
  8
02___PRT_ALL_AXES
100
AcDbLine
 62
7
  6
CONTINUOUS
 10
284.6555861493
 20
178.606754847
 11
284.6555861493
 21
175.106754847
  0
LINE
  5
3FF
100
AcDbEntity
  8
7_ALL_FEATURES
100
AcDbLine
 62
7
  6
CONTINUOUS
 10
331.9055861493
 20
269.956754847
 11
331.6555861493
 21
269.706754847
  0
LINE
  5
400
100
AcDbEntity
  8
7_ALL_FEATURES
100
AcDbLine
 62
7
  6
CONTINUOUS
 10
322.1555861489
 20
258.1067548465
 11
322.6555861489
 21
258.6067548465
  0
LINE
  5
401
100
AcDbEntity
  8
7_ALL_FEATURES
100
AcDbLine
 62
7
  6
CONTINUOUS
 10
284.6555861493
 20
224.163379174
 11
285.9055861493
 21
224.8850670105
  0
LINE
  5
402
100
AcDbEntity
  8
7_ALL_FEATURES
100
AcDbLine
 62
4
  6
CONTINUOUS
 10
315.2095398397
 20
217.3095391256
 11
310.9668991525
 21
217.3095391256
  0
LINE
  5
403
100
AcDbEntity
  8
7_ALL_FEATURES
100
AcDbLine
 62
4
  6
CONTINUOUS
 10
258.3442731461
 20
217.3095391256
 11
254.101632459
 21
217.3095391256
  0
LINE
  5
404
100
AcDbEntity
  8
7_ALL_FEATURES
100
AcDbLine
 62
9
  6
CONTINUOUS
 10
251.6754723837
 20
219.0981818798
 11
259.4536469767
 21
219.0981818798
  0
LINE
  5
405
100
AcDbEntity
  8
7_ALL_FEATURES
100
AcDbLine
 62
9
  6
CONTINUOUS
 10
309.8575253219
 20
219.0981818798
 11
317.635699915
 21
219.0981818798
  0
LINE
  5
406
100
AcDbEntity
  8
7_ALL_FEATURES
100
AcDbLine
 62
7
  6
CONTINUOUS
 10
237.6555861493
 20
264.206754847
 11
237.1555861493
 21
264.706754847
  0
LINE
  5
407
100
AcDbEntity
  8
7_ALL_FEATURES
100
AcDbLine
 62
7
  6
CONTINUOUS
 10
247.1555861497
 20
258.1067548465
 11
246.6555861497
 21
258.6067548465
  0
LINE
  5
408
100
AcDbEntity
  8
7_ALL_FEATURES
100
AcDbLine
 62
7
  6
CONTINUOUS
 10
285.9055861493
 20
224.8850670105
 11
285.9055861493
 21
226.3284426835
  0
LINE
  5
409
100
AcDbEntity
  8
02___PRT_ALL_AXES
100
AcDbLine
 62
7
  6
CONTINUOUS
 10
286.0959089758
 20
174.3632112325
 11
286.0959089758
 21
174.389916253
  0
LINE
  5
40A
100
AcDbEntity
  8
02___PRT_ALL_AXES
100
AcDbLine
 62
7
  6
CONTINUOUS
 10
287.4820571733
 20
178.606754847
 11
287.4820571733
 21
182.606754847
  0
LINE
  5
40B
100
AcDbEntity
  8
7_ALL_FEATURES
100
AcDbLine
 62
7
  6
CONTINUOUS
 10
332.1555861493
 20
264.706754847
 11
331.6555861493
 21
264.206754847
  0
LINE
  5
40C
100
AcDbEntity
  8
7_ALL_FEATURES
100
AcDbLine
 62
9
  6
CONTINUOUS
 10
252.6718599058
 20
224.3580311547
 11
259.6021618307
 21
224.3580311547
  0
LINE
  5
40D
100
AcDbEntity
  8
7_ALL_FEATURES
100
AcDbLine
 62
9
  6
CONTINUOUS
 10
309.7090104679
 20
224.3580311547
 11
316.6393123929
 21
224.3580311547
  0
LINE
  5
40E
100
AcDbEntity
  8
7_ALL_FEATURES
100
AcDbLine
 62
3
  6
CONTINUOUS
 10
314.9488034211
 20
225.348308383
 11
309.9990559528
 21
225.348308383
  0
LINE
  5
40F
100
AcDbEntity
  8
7_ALL_FEATURES
100
AcDbLine
 62
3
  6
CONTINUOUS
 10
259.3121163458
 20
225.348308383
 11
254.3623688775
 21
225.348308383
  0
LINE
  5
410
100
AcDbEntity
  8
7_ALL_FEATURES
100
AcDbLine
 62
7
  6
CONTINUOUS
 10
283.4055861493
 20
224.8850670105
 11
284.6555861493
 21
224.163379174
  0
LINE
  5
411
100
AcDbEntity
  8
7_ALL_FEATURES
100
AcDbLine
 62
9
  6
CONTINUOUS
 10
306.5817056235
 20
210.1988313724
 11
306.2680999359
 21
210.429705679
  0
LINE
  5
412
100
AcDbEntity
  8
7_ALL_FEATURES
100
AcDbLine
 62
7
  6
CONTINUOUS
 10
237.6555861493
 20
269.706754847
 11
237.4055861493
 21
269.956754847
  0
LINE
  5
413
100
AcDbEntity
  8
02___PRT_ALL_AXES
100
AcDbLine
 62
7
  6
CONTINUOUS
 10
290.3291151254
 20
178.606754847
 11
290.3291151254
 21
182.606754847
  0
LINE
  5
414
100
AcDbEntity
  8
02___PRT_ALL_AXES
100
AcDbLine
 62
7
  6
CONTINUOUS
 10
291.7152633228
 20
174.3632112325
 11
291.7152633228
 21
174.389916253
  0
LINE
  5
415
100
AcDbEntity
  8
02___PRT_ALL_AXES
100
AcDbLine
 62
7
  6
CONTINUOUS
 10
292.1555861493
 20
182.606754847
 11
292.1555861493
 21
186.606754847
  0
LINE
  5
416
100
AcDbEntity
  8
02___PRT_ALL_AXES
100
AcDbLine
 62
7
  6
CONTINUOUS
 10
293.1555861493
 20
190.106754847
 11
293.1555861493
 21
186.606754847
  0
LINE
  5
417
100
AcDbEntity
  8
02___PRT_ALL_AXES
100
AcDbLine
 62
7
  6
CONTINUOUS
 10
293.1555861493
 20
172.1874451528
 11
293.1555861493
 21
182.606754847
  0
LINE
  5
418
100
AcDbEntity
  8
7_ALL_FEATURES
100
AcDbLine
 62
7
  6
CONTINUOUS
 10
332.1555861493
 20
259.106754847
 11
331.6555861493
 21
258.606754847
  0
LINE
  5
419
100
AcDbEntity
  8
7_ALL_FEATURES
100
AcDbLine
 62
7
  6
CONTINUOUS
 10
317.3235406231
 20
227.606754847
 11
303.0690255485
 21
227.606754847
  0
LINE
  5
41A
100
AcDbEntity
  8
7_ALL_FEATURES
100
AcDbLine
 62
7
  6
CONTINUOUS
 10
266.2421467502
 20
227.606754847
 11
251.9876316755
 21
227.606754847
  0
LINE
  5
41B
100
AcDbEntity
  8
7_ALL_FEATURES
100
AcDbLine
 62
7
  6
CONTINUOUS
 10
285.9055861493
 20
226.3284426835
 11
284.6555861493
 21
227.0501305199
  0
LINE
  5
41C
100
AcDbEntity
  8
7_ALL_FEATURES
100
AcDbLine
 62
9
  6
CONTINUOUS
 10
309.8575253219
 20
219.0981818798
 11
309.5439196344
 21
219.3290561864
  0
LINE
  5
41D
100
AcDbEntity
  8
7_ALL_FEATURES
100
AcDbLine
 62
7
  6
CONTINUOUS
 10
300.7069100823
 20
209.606754847
 11
300.7069100823
 21
210.106754847
  0
LINE
  5
41E
100
AcDbEntity
  8
7_ALL_FEATURES
100
AcDbLine
 62
7
  6
CONTINUOUS
 10
303.0690255487
 20
227.606754847
 11
303.0690255487
 21
211.356754847
  0
LINE
  5
41F
100
AcDbEntity
  8
3_ALL_AXES
100
AcDbLine
 62
7
  6
CONTINUOUS
 10
303.4830031473
 20
209.226754847
 11
303.4830031473
 21
209.606754847
  0
LINE
  5
420
100
AcDbEntity
  8
7_ALL_FEATURES
100
AcDbLine
 62
7
  6
CONTINUOUS
 10
309.7490559528
 20
224.9947549924
 11
309.9990559528
 21
225.348308383
  0
LINE
  5
421
100
AcDbEntity
  8
7_ALL_FEATURES
100
AcDbLine
 62
7
  6
CONTINUOUS
 10
309.3122495292
 20
223.5485902993
 11
309.5647838678
 21
223.9057277859
  0
LINE
  5
422
100
AcDbEntity
  8
7_ALL_FEATURES
100
AcDbLine
 62
9
  6
CONTINUOUS
 10
305.8917731108
 20
209.606754847
 11
305.8917731108
 21
210.106754847
  0
LINE
  5
423
100
AcDbEntity
  8
7_ALL_FEATURES
100
AcDbLine
 62
7
  6
CONTINUOUS
 10
309.4590104679
 20
224.0044777641
 11
309.7490559528
 21
224.9947549924
  0
LINE
  5
424
100
AcDbEntity
  8
7_ALL_FEATURES
100
AcDbLine
 62
3
  6
CONTINUOUS
 10
309.9990559528
 20
225.348308383
 11
309.7090104679
 21
224.3580311547
  0
LINE
  5
425
100
AcDbEntity
  8
7_ALL_FEATURES
100
AcDbLine
 62
4
  6
CONTINUOUS
 10
311.1677551209
 20
213.5966415332
 11
312.0494442159
 21
214.2520814283
  0
LINE
  5
426
100
AcDbEntity
  8
7_ALL_FEATURES
100
AcDbLine
 62
3
  6
CONTINUOUS
 10
316.6393123929
 20
224.3580311547
 11
314.9488034211
 21
225.348308383
  0
LINE
  5
427
100
AcDbEntity
  8
03___PRT_ALL_CURVES
100
AcDbLine
 62
40
  6
CONTINUOUS
 10
314.3598802165
 20
210.1988313724
 11
309.8575253219
 21
219.0981818798
  0
LINE
  5
428
100
AcDbEntity
  8
3_ALL_AXES
100
AcDbLine
 62
7
  6
CONTINUOUS
 10
311.0830031473
 20
209.226754847
 11
311.0830031473
 21
209.606754847
  0
LINE
  5
429
100
AcDbEntity
  8
7_ALL_FEATURES
100
AcDbLine
 62
7
  6
CONTINUOUS
 10
312.1555861493
 20
209.606754847
 11
312.1555861493
 21
191.106754847
  0
LINE
  5
42A
100
AcDbEntity
  8
7_ALL_FEATURES
100
AcDbLine
 62
7
  6
CONTINUOUS
 10
309.5439196344
 20
219.3290561864
 11
306.2680999359
 21
210.429705679
  0
LINE
  5
42B
100
AcDbEntity
  8
7_ALL_FEATURES
100
AcDbLine
 62
3
  6
CONTINUOUS
 10
309.8575253219
 20
219.0981818798
 11
306.5817056235
 21
210.1988313724
  0
LINE
  5
42C
100
AcDbEntity
  8
7_ALL_FEATURES
100
AcDbLine
 62
4
  6
CONTINUOUS
 10
310.9668991525
 20
217.3095391256
 11
309.0078656988
 21
211.9874741266
  0
LINE
  5
42D
100
AcDbEntity
  8
7_ALL_FEATURES
100
AcDbLine
 62
7
  6
CONTINUOUS
 10
310.5370555477
 20
214.9571863961
 11
309.6870526992
 21
212.648001527
  0
LINE
  5
42E
100
AcDbEntity
  8
7_ALL_FEATURES
100
AcDbLine
 62
4
  6
CONTINUOUS
 10
311.7759119806
 20
212.951637913
 11
312.3139670311
 21
213.4645832449
  0
LINE
  5
42F
100
AcDbEntity
  8
7_ALL_FEATURES
100
AcDbLine
 62
4
  6
CONTINUOUS
 10
312.0324643491
 20
212.4853828743
 11
311.5170557365
 21
214.3111378612
  0
LINE
  5
430
100
AcDbEntity
  8
7_ALL_FEATURES
100
AcDbLine
 62
7
  6
CONTINUOUS
 10
317.3235406229
 20
227.606754847
 11
317.3235406229
 21
223.9057277859
  0
LINE
  5
431
100
AcDbEntity
  8
7_ALL_FEATURES
100
AcDbLine
 62
7
  6
CONTINUOUS
 10
317.3235406229
 20
218.2501452934
 11
317.3235406229
 21
211.356754847
  0
LINE
  5
432
100
AcDbEntity
  8
7_ALL_FEATURES
100
AcDbLine
 62
7
  6
CONTINUOUS
 10
313.3654826725
 20
214.9571863961
 11
312.5154798239
 21
212.648001527
  0
LINE
  5
433
100
AcDbEntity
  8
7_ALL_FEATURES
100
AcDbLine
 62
4
  6
CONTINUOUS
 10
313.2505063859
 20
211.9874741266
 11
315.2095398397
 21
217.3095391256
  0
LINE
  5
434
100
AcDbEntity
  8
7_ALL_FEATURES
100
AcDbLine
 62
3
  6
CONTINUOUS
 10
314.3598802165
 20
210.1988313724
 11
317.635699915
 21
219.0981818798
  0
LINE
  5
435
100
AcDbEntity
  8
7_ALL_FEATURES
100
AcDbLine
 62
7
  6
CONTINUOUS
 10
331.5524144003
 20
259.106754847
 11
331.4838052403
 21
258.9397315542
  0
LINE
  5
436
100
AcDbEntity
  8
7_ALL_FEATURES
100
AcDbLine
 62
7
  6
CONTINUOUS
 10
320.9055861493
 20
210.106754847
 11
322.1555861493
 21
211.356754847
  0
LINE
  5
437
100
AcDbEntity
  8
7_ALL_FEATURES
100
AcDbLine
 62
7
  6
CONTINUOUS
 10
322.1555861493
 20
258.106754847
 11
322.1555861493
 21
211.356754847
  0
LINE
  5
438
100
AcDbEntity
  8
7_ALL_FEATURES
100
AcDbLine
 62
7
  6
CONTINUOUS
 10
311.1555861486
 20
190.1067548463
 11
312.1555861486
 21
191.1067548462
  0
LINE
  5
439
100
AcDbEntity
  8
7_ALL_FEATURES
100
AcDbLine
 62
7
  6
CONTINUOUS
 10
247.1555861493
 20
258.106754847
 11
322.1555861493
 21
258.106754847
  0
LINE
  5
43A
100
AcDbEntity
  8
7_ALL_FEATURES
100
AcDbLine
 62
7
  6
CONTINUOUS
 10
331.6555861493
 20
258.606754847
 11
237.6555861493
 21
258.606754847
  0
LINE
  5
43B
100
AcDbEntity
  8
7_ALL_FEATURES
100
AcDbLine
 62
7
  6
CONTINUOUS
 10
332.1555861493
 20
259.106754847
 11
237.1555861493
 21
259.106754847
  0
LINE
  5
43C
100
AcDbEntity
  8
7_ALL_FEATURES
100
AcDbLine
 62
9
  6
CONTINUOUS
 10
329.4055861493
 20
263.106754847
 11
329.4055861493
 21
264.206754847
  0
LINE
  5
43D
100
AcDbEntity
  8
7_ALL_FEATURES
100
AcDbLine
 62
7
  6
CONTINUOUS
 10
237.1555861493
 20
262.606754847
 11
332.1555861493
 21
262.606754847
  0
LINE
  5
43E
100
AcDbEntity
  8
7_ALL_FEATURES
100
AcDbLine
 62
7
  6
CONTINUOUS
 10
237.6555861493
 20
263.106754847
 11
331.6555861493
 21
263.106754847
  0
LINE
  5
43F
100
AcDbEntity
  8
7_ALL_FEATURES
100
AcDbLine
 62
7
  6
CONTINUOUS
 10
331.6555861493
 20
264.206754847
 11
237.6555861493
 21
264.206754847
  0
LINE
  5
440
100
AcDbEntity
  8
06___PRT_ALL_SURFS
100
AcDbLine
 62
7
  6
CONTINUOUS
 10
331.6555861493
 20
264.206754847
 11
237.6555861493
 21
264.206754847
  0
LINE
  5
441
100
AcDbEntity
  8
7_ALL_FEATURES
100
AcDbLine
 62
7
  6
CONTINUOUS
 10
331.6555861493
 20
264.706754847
 11
237.6555861493
 21
264.706754847
  0
LINE
  5
442
100
AcDbEntity
  8
7_ALL_FEATURES
100
AcDbLine
 62
7
  6
CONTINUOUS
 10
331.4055861493
 20
263.106754847
 11
331.4055861493
 21
264.206754847
  0
LINE
  5
443
100
AcDbEntity
  8
7_ALL_FEATURES
100
AcDbLine
 62
7
  6
CONTINUOUS
 10
331.5524144003
 20
259.106754847
 11
331.5524144003
 21
262.606754847
  0
LINE
  5
444
100
AcDbEntity
  8
7_ALL_FEATURES
100
AcDbLine
 62
7
  6
CONTINUOUS
 10
331.6555861493
 20
264.706754847
 11
331.6555861493
 21
269.706754847
  0
LINE
  5
445
100
AcDbEntity
  8
7_ALL_FEATURES
100
AcDbLine
 62
7
  6
CONTINUOUS
 10
332.1555861493
 20
259.106754847
 11
332.1555861493
 21
262.606754847
  0
LINE
  5
446
100
AcDbEntity
  8
7_ALL_FEATURES
100
AcDbLine
 62
7
  6
CONTINUOUS
 10
332.1555861493
 20
264.706754847
 11
332.1555861493
 21
269.706754847
  0
LINE
  5
447
100
AcDbEntity
  8
7_ALL_FEATURES
100
AcDbLine
 62
7
  6
CONTINUOUS
 10
237.6555861493
 20
269.706754847
 11
331.6555861493
 21
269.706754847
  0
LINE
  5
448
100
AcDbEntity
  8
7_ALL_FEATURES
100
AcDbLine
 62
7
  6
CONTINUOUS
 10
237.6555861493
 20
270.206754847
 11
331.6555861493
 21
270.206754847
  0
LINE
  5
449
100
AcDbEntity
  8
7_ALL_FEATURES
100
AcDbLine
 62
7
  6
CONTINUOUS
 10
331.3552713478
 20
263.0860250383
 11
331.3467255657
 21
263.106754847
  0
LINE
  5
44A
100
AcDbEntity
  8
7_ALL_FEATURES
100
AcDbLine
 62
7
  6
CONTINUOUS
 10
331.5524144003
 20
262.606754847
 11
331.4838052403
 21
262.7737781397
  0
LINE
  5
44B
100
AcDbEntity
  8
7_ALL_FEATURES
100
AcDbLine
 62
7
  6
CONTINUOUS
 10
332.1555861493
 20
262.606754847
 11
331.6555861493
 21
263.106754847
  0
LINE
  5
44C
100
AcDbEntity
  8
7_ALL_FEATURES
100
AcDbLine
 62
7
  6
CONTINUOUS
 10
331.6555861493
 20
264.706754847
 11
331.9055861493
 21
264.456754847
  0
LINE
  5
44D
100
AcDbEntity
  8
7_ALL_FEATURES
100
AcDbLine
 62
7
  6
CONTINUOUS
 10
331.6555861493
 20
270.206754847
 11
332.1555861493
 21
269.706754847
  0
ARC
  5
44E
100
AcDbEntity
  8
03___PRT_ALL_CURVES
100
AcDbCircle
 62
40
  6
CONTINUOUS
 10
408.1234673137
 20
249.7395655351
 40
251.2877555363
100
AcDbArc
 50
179.8850158342
 51
180.0333926012
  0
ARC
  5
44F
100
AcDbEntity
  8
03___PRT_ALL_CURVES
100
AcDbCircle
 62
40
  6
CONTINUOUS
 10
403.4263801067
 20
249.44280351
 40
246.5906696597
100
AcDbArc
 50
179.9650754893
 51
180.11691254
  0
ARC
  5
450
100
AcDbEntity
  8
03___PRT_ALL_CURVES
100
AcDbCircle
 62
40
  6
CONTINUOUS
 10
365.9289519871
 20
249.6442100419
 40
209.0949538051
100
AcDbArc
 50
179.8050698094
 51
180.0140017017
  0
ARC
  5
451
100
AcDbEntity
  8
03___PRT_ALL_CURVES
100
AcDbCircle
 62
40
  6
CONTINUOUS
 10
318.6524434073
 20
249.4586289502
 40
161.8184496274
100
AcDbArc
 50
179.9523828888
 51
180.2325515848
  0
ARC
  5
452
100
AcDbEntity
  8
7_ALL_FEATURES
100
AcDbCircle
 62
7
  6
CONTINUOUS
 10
44.5756580729
 20
225.606754847
 40
37.5026991777
100
AcDbArc
 50
353.4929667963
 51
6.5070332037
  0
ARC
  5
453
100
AcDbEntity
  8
7_ALL_FEATURES
100
AcDbCircle
 62
7
  6
CONTINUOUS
 10
193.2074774102
 20
225.6068758681
 40
36.6189016176
100
AcDbArc
 50
179.7638777435
 51
180.2365049604
  0
ARC
  5
454
100
AcDbEntity
  8
02___PRT_ALL_AXES
100
AcDbCircle
 62
7
  6
CONTINUOUS
 10
113.2237930877
 20
178.4141808696
 40
4.9430740654
100
AcDbArc
 50
233.6422316278
 51
234.5006250002
  0
ARC
  5
455
100
AcDbEntity
  8
02___PRT_ALL_AXES
100
AcDbCircle
 62
7
  6
CONTINUOUS
 10
125.4497388813
 20
178.4141728263
 40
4.9430641324
100
AcDbArc
 50
305.4993741336
 51
306.3576671247
  0
ARC
  5
456
100
AcDbEntity
  8
02___PRT_ALL_AXES
100
AcDbCircle
 62
7
  6
CONTINUOUS
 10
124.1784226668
 20
174.3632112325
 40
4.2564563855
100
AcDbArc
 50
270.0
 51
360.0
  0
ARC
  5
457
100
AcDbEntity
  8
02___PRT_ALL_AXES
100
AcDbCircle
 62
7
  6
CONTINUOUS
 10
114.4951034733
 20
174.3632112325
 40
4.2564563855
100
AcDbArc
 50
180.0
 51
270.0
  0
ARC
  5
458
100
AcDbEntity
  8
3_ALL_AXES
100
AcDbCircle
 62
7
  6
CONTINUOUS
 10
85.3094031618
 20
225.7491976443
 40
4.1
100
AcDbArc
 50
144.1668323733
 51
153.6069742257
  0
ARC
  5
459
100
AcDbEntity
  8
3_ALL_AXES
100
AcDbCircle
 62
7
  6
CONTINUOUS
 10
85.3094031618
 20
225.4643120496
 40
4.1
100
AcDbArc
 50
206.3930257743
 51
215.8329852256
  0
ARC
  5
45A
100
AcDbEntity
  8
3_ALL_AXES
100
AcDbCircle
 62
7
  6
CONTINUOUS
 10
142.1066228654
 20
211.0793949387
 40
4.1
100
AcDbArc
 50
296.3930257743
 51
333.1366968699
  0
ARC
  5
45B
100
AcDbEntity
  8
3_ALL_AXES
100
AcDbCircle
 62
7
  6
CONTINUOUS
 10
141.8217372707
 20
211.0793949387
 40
4.1
100
AcDbArc
 50
206.8633031301
 51
243.6069742257
  0
ARC
  5
45C
100
AcDbEntity
  8
3_ALL_AXES
100
AcDbCircle
 62
7
  6
CONTINUOUS
 10
96.8517888695
 20
211.0793949387
 40
4.1
100
AcDbArc
 50
296.3930257743
 51
333.1366968699
  0
ARC
  5
45D
100
AcDbEntity
  8
3_ALL_AXES
100
AcDbCircle
 62
7
  6
CONTINUOUS
 10
96.5669032748
 20
211.0793949387
 40
4.1
100
AcDbArc
 50
206.8633031301
 51
243.6069742257
  0
ARC
  5
45E
100
AcDbEntity
  8
02___PRT_ALL_AXES
100
AcDbCircle
 62
7
  6
CONTINUOUS
 10
289.4972457461
 20
174.3632112325
 40
4.2564563855
100
AcDbArc
 50
270.0
 51
329.2582807839
  0
ARC
  5
45F
100
AcDbEntity
  8
02___PRT_ALL_AXES
100
AcDbCircle
 62
7
  6
CONTINUOUS
 10
279.8139265526
 20
174.3632112325
 40
4.2564563855
100
AcDbArc
 50
210.7417192161
 51
270.0
  0
CIRCLE
  5
460
100
AcDbEntity
  8
7_ALL_FEATURES
100
AcDbCircle
 62
7
  6
CONTINUOUS
 10
284.6555861493
 20
225.606754847
 40
4.25
  0
ARC
  5
461
100
AcDbEntity
  8
3_ALL_AXES
100
AcDbCircle
 62
7
  6
CONTINUOUS
 10
307.4254459446
 20
211.0793949387
 40
4.1
100
AcDbArc
 50
296.3930257743
 51
333.1366968699
  0
ARC
  5
462
100
AcDbEntity
  8
3_ALL_AXES
100
AcDbCircle
 62
7
  6
CONTINUOUS
 10
307.1405603499
 20
211.0793949387
 40
4.1
100
AcDbArc
 50
206.8633031301
 51
243.6069742257
  0
ARC
  5
463
100
AcDbEntity
  8
3_ALL_AXES
100
AcDbCircle
 62
7
  6
CONTINUOUS
 10
262.1706119487
 20
211.0793949387
 40
4.1
100
AcDbArc
 50
296.3930257743
 51
333.1366968699
  0
ARC
  5
464
100
AcDbEntity
  8
3_ALL_AXES
100
AcDbCircle
 62
7
  6
CONTINUOUS
 10
261.885726354
 20
211.0793949387
 40
4.1
100
AcDbArc
 50
206.8633031301
 51
243.6069742257
  0
CIRCLE
  5
465
100
AcDbEntity
  8
3_ALL_AXES
100
AcDbCircle
 62
7
  6
CONTINUOUS
 10
284.6555861493
 20
225.606754847
 40
3.8
  0
CIRCLE
  5
466
100
AcDbEntity
  8
3_ALL_AXES
100
AcDbCircle
 62
7
  6
CONTINUOUS
 10
284.6555861493
 20
225.606754847
 40
1.965
  0
SPLINE
  5
467
100
AcDbEntity
  8
7_ALL_FEATURES
100
AcDbSpline
 62
7
  6
CONTINUOUS
 70
0
 71
3
 72
11
 73
7
 74
0
 42
0.0000001
 43
0.0000001
 44
0.0000000001
 40
0.0
 40
0.0
 40
0.0
 40
0.0
 40
0.2831751286
 40
0.5424836409
 40
0.7785831462
 40
1.0
 40
1.0
 40
1.0
 40
1.0
 10
140.9492768567
 20
210.429705679
 30
0.0
 10
140.9321344564
 20
210.3831352807
 30
0.0
 10
140.8899184549
 20
210.2968804506
 30
0.0
 10
140.8005750941
 20
210.191570341
 30
0.0
 10
140.6926252217
 20
210.123009136
 30
0.0
 10
140.6117523915
 20
210.106754847
 30
0.0
 10
140.5729500316
 20
210.106754847
 30
0.0
  0
SPLINE
  5
468
100
AcDbEntity
  8
7_ALL_FEATURES
100
AcDbSpline
 62
7
  6
CONTINUOUS
 70
0
 71
3
 72
11
 73
7
 74
0
 42
0.0000001
 43
0.0000001
 44
0.0000000001
 40
0.0
 40
0.0
 40
0.0
 40
0.0
 40
0.2414252117
 40
0.4947937597
 40
0.7509014051
 40
1.0
 40
1.0
 40
1.0
 40
1.0
 10
143.99342645
 20
223.5485902993
 30
0.0
 10
144.1546049068
 20
223.2391905262
 30
0.0
 10
144.40764674
 20
222.5629972819
 30
0.0
 10
144.5722351871
 20
221.4836614634
 30
0.0
 10
144.5251197017
 20
220.3818885371
 30
0.0
 10
144.3494377355
 20
219.6668512572
 30
0.0
 10
144.2250965551
 20
219.3290561864
 30
0.0
  0
SPLINE
  5
469
100
AcDbEntity
  8
7_ALL_FEATURES
100
AcDbSpline
 62
4
  6
CONTINUOUS
 70
0
 71
3
 72
28
 73
24
 74
0
 42
0.0000001
 43
0.0000001
 44
0.0000000001
 40
0.0
 40
0.0
 40
0.0
 40
0.0
 40
0.125
 40
0.15625
 40
0.1875
 40
0.25
 40
0.3125
 40
0.34375
 40
0.375
 40
0.4375
 40
0.46875
 40
0.5
 40
0.53125
 40
0.5625
 40
0.625
 40
0.65625
 40
0.6875
 40
0.75
 40
0.8125
 40
0.84375
 40
0.875
 40
0.9375
 40
1.0
 40
1.0
 40
1.0
 40
1.0
 10
145.976695924
 20
212.6054913723
 30
0.0
 10
145.9972006952
 20
212.6166327772
 30
0.0
 10
146.0228115574
 20
212.6307645795
 30
0.0
 10
146.0536048975
 20
212.6471076041
 30
0.0
 10
146.0740051394
 20
212.6593152484
 30
0.0
 10
146.0994522573
 20
212.6750843991
 30
0.0
 10
146.1249436214
 20
212.6905228796
 30
0.0
 10
146.1452730695
 20
212.7032595961
 30
0.0
 10
146.1653790854
 20
212.7172858268
 30
0.0
 10
146.1855615141
 20
212.7308951606
 30
0.0
 10
146.2056822784
 20
212.7447880494
 30
0.0
 10
146.2208814321
 20
212.7547739481
 30
0.0
 10
146.2356770961
 20
212.7663531407
 30
0.0
 10
146.2555523444
 20
212.7812158207
 30
0.0
 10
146.2753483939
 20
212.7963493733
 30
0.0
 10
146.2952712678
 20
212.8111024909
 30
0.0
 10
146.3147924426
 20
212.8270161851
 30
0.0
 10
146.3390694368
 20
212.8473639302
 30
0.0
 10
146.3633535563
 20
212.8673332473
 30
0.0
 10
146.3828633306
 20
212.8838524262
 30
0.0
 10
146.4027124859
 20
212.902234064
 30
0.0
 10
146.4274067096
 20
212.9245678278
 30
0.0
 10
146.4471978129
 20
212.9426308871
 30
0.0
 10
146.4570888989
 20
212.9516379107
 30
0.0
  0
SPLINE
  5
46A
100
AcDbEntity
  8
7_ALL_FEATURES
100
AcDbSpline
 62
4
  6
CONTINUOUS
 70
0
 71
3
 72
66
 73
62
 74
0
 42
0.0000001
 43
0.0000001
 44
0.0000000001
 40
0.0
 40
0.0
 40
0.0
 40
0.0
 40
0.0625
 40
0.09375
 40
0.109375
 40
0.1171875
 40
0.125
 40
0.1328125
 40
0.140625
 40
0.15625
 40
0.1875
 40
0.21875
 40
0.234375
 40
0.2421875
 40
0.25
 40
0.2578125
 40
0.265625
 40
0.28125
 40
0.3125
 40
0.34375
 40
0.359375
 40
0.3671875
 40
0.375
 40
0.3828125
 40
0.390625
 40
0.40625
 40
0.4375
 40
0.46875
 40
0.484375
 40
0.4921875
 40
0.5
 40
0.5078125
 40
0.515625
 40
0.53125
 40
0.5625
 40
0.59375
 40
0.609375
 40
0.6171875
 40
0.625
 40
0.6328125
 40
0.640625
 40
0.65625
 40
0.6875
 40
0.71875
 40
0.734375
 40
0.7421875
 40
0.75
 40
0.7578125
 40
0.765625
 40
0.78125
 40
0.8125
 40
0.84375
 40
0.859375
 40
0.8671875
 40
0.875
 40
0.8828125
 40
0.890625
 40
0.90625
 40
0.9375
 40
0.96875
 40
1.0
 40
1.0
 40
1.0
 40
1.0
 10
146.5269784442
 20
214.9367493835
 30
0.0
 10
146.514087481
 20
214.928275978
 30
0.0
 10
146.4947459223
 20
214.9155883944
 30
0.0
 10
146.472198669
 20
214.9007073776
 30
0.0
 10
146.4609026692
 20
214.8933654141
 30
0.0
 10
146.4544836092
 20
214.8890123345
 30
0.0
 10
146.4495683154
 20
214.8861923847
 30
0.0
 10
146.4450391183
 20
214.881671831
 30
0.0
 10
146.4388654261
 20
214.876237743
 30
0.0
 10
146.4281251347
 20
214.8664503754
 30
0.0
 10
146.4127414797
 20
214.8526238843
 30
0.0
 10
146.3973980745
 20
214.8387045211
 30
0.0
 10
146.3866014334
 20
214.8290471745
 30
0.0
 10
146.3805162906
 20
214.8234087678
 30
0.0
 10
146.375715408
 20
214.8195151008
 30
0.0
 10
146.3718204442
 20
214.8143408429
 30
0.0
 10
146.3663110428
 20
214.8078886039
 30
0.0
 10
146.3568180965
 20
214.7963881534
 30
0.0
 10
146.3431692715
 20
214.780075249
 30
0.0
 10
146.3295874699
 20
214.7636952589
 30
0.0
 10
146.3200006909
 20
214.7522887284
 30
0.0
 10
146.3146387408
 20
214.7456889009
 30
0.0
 10
146.3102913696
 20
214.7409674711
 30
0.0
 10
146.3071895282
 20
214.7353731829
 30
0.0
 10
146.3026191355
 20
214.7282186376
 30
0.0
 10
146.2948249378
 20
214.7155558788
 30
0.0
 10
146.2835716533
 20
214.6975440804
 30
0.0
 10
146.2724046827
 20
214.6794919099
 30
0.0
 10
146.2644896456
 20
214.666885672
 30
0.0
 10
146.2601091434
 20
214.6596423081
 30
0.0
 10
146.2564246834
 20
214.6543205313
 30
0.0
 10
146.2542653685
 20
214.6485756697
 30
0.0
 10
146.2508541244
 20
214.6410634274
 30
0.0
 10
146.2451340943
 20
214.6278482806
 30
0.0
 10
146.2368183814
 20
214.6090051532
 30
0.0
 10
146.2286041154
 20
214.5901503117
 30
0.0
 10
146.2227420597
 20
214.5769515644
 30
0.0
 10
146.2195539987
 20
214.5694135515
 30
0.0
 10
146.2167099174
 20
214.563747759
 30
0.0
 10
146.2155971356
 20
214.5581290336
 30
0.0
 10
146.2135093477
 20
214.5506209327
 30
0.0
 10
146.2101389989
 20
214.537489925
 30
0.0
 10
146.2051613962
 20
214.5187230755
 30
0.0
 10
146.2002954871
 20
214.4999737343
 30
0.0
 10
146.1967687672
 20
214.4868182149
 30
0.0
 10
146.1949267052
 20
214.4793486324
 30
0.0
 10
146.1930599918
 20
214.4736117258
 30
0.0
 10
146.1930473424
 20
214.4683897693
 30
0.0
 10
146.1923835699
 20
214.4612474562
 30
0.0
 10
146.1915252631
 20
214.4488329801
 30
0.0
 10
146.1901253386
 20
214.4310470043
 30
0.0
 10
146.1888427968
 20
214.4133039789
 30
0.0
 10
146.1878201542
 20
214.4008293723
 30
0.0
 10
146.1874146236
 20
214.39378155
 30
0.0
 10
146.1866096409
 20
214.3882696785
 30
0.0
 10
146.1877185791
 20
214.383621564
 30
0.0
 10
146.188529565
 20
214.3771227894
 30
0.0
 10
146.1902598494
 20
214.3658903156
 30
0.0
 10
146.1925689573
 20
214.3497704852
 30
0.0
 10
146.1954099845
 20
214.3304583241
 30
0.0
 10
146.1972906506
 20
214.3175775242
 30
0.0
 10
146.1982326527
 20
214.3111378775
 30
0.0
  0
SPLINE
  5
46B
100
AcDbEntity
  8
7_ALL_FEATURES
100
AcDbSpline
 62
4
  6
CONTINUOUS
 70
0
 71
3
 72
50
 73
46
 74
0
 42
0.0000001
 43
0.0000001
 44
0.0000000001
 40
0.0
 40
0.0
 40
0.0
 40
0.0
 40
0.0625
 40
0.125
 40
0.140625
 40
0.15625
 40
0.1640625
 40
0.171875
 40
0.1875
 40
0.21875
 40
0.25
 40
0.28125
 40
0.3125
 40
0.328125
 40
0.3359375
 40
0.34375
 40
0.359375
 40
0.375
 40
0.4375
 40
0.46875
 40
0.484375
 40
0.4921875
 40
0.5
 40
0.5078125
 40
0.515625
 40
0.53125
 40
0.5625
 40
0.625
 40
0.640625
 40
0.65625
 40
0.6640625
 40
0.671875
 40
0.6875
 40
0.71875
 40
0.75
 40
0.78125
 40
0.8125
 40
0.828125
 40
0.8359375
 40
0.84375
 40
0.859375
 40
0.875
 40
0.90625
 40
0.9375
 40
1.0
 40
1.0
 40
1.0
 40
1.0
 10
145.8489320416
 20
213.5966415332
 30
0.0
 10
145.8362193121
 20
213.5857032251
 30
0.0
 10
145.8107863905
 20
213.5638387099
 30
0.0
 10
145.7822079353
 20
213.5391866752
 30
0.0
 10
145.7631066586
 20
213.5228313991
 30
0.0
 10
145.7552200871
 20
213.5158994709
 30
0.0
 10
145.7487422221
 20
213.5106273386
 30
0.0
 10
145.7428809532
 20
213.5043553492
 30
0.0
 10
145.7329104319
 20
213.4929145541
 30
0.0
 10
145.7185156678
 20
213.4768149663
 30
0.0
 10
145.7013122168
 20
213.4573847472
 30
0.0
 10
145.6840695618
 20
213.4380063348
 30
0.0
 10
145.6697728077
 20
213.4217772302
 30
0.0
 10
145.659630769
 20
213.4105630895
 30
0.0
 10
145.6540439278
 20
213.403928453
 30
0.0
 10
145.6492424763
 20
213.3964410684
 30
0.0
 10
145.6429719598
 20
213.3873734
 30
0.0
 10
145.6281460919
 20
213.3653702417
 30
0.0
 10
145.6107511281
 20
213.3397874385
 30
0.0
 10
145.593455068
 20
213.3141526509
 30
0.0
 10
145.5847175531
 20
213.3013607049
 30
0.0
 10
145.5798639609
 20
213.294014823
 30
0.0
 10
145.5758315134
 20
213.2886067359
 30
0.0
 10
145.5732984428
 20
213.282811451
 30
0.0
 10
145.5693979863
 20
213.2752194659
 30
0.0
 10
145.562816174
 20
213.2618705386
 30
0.0
 10
145.5494706115
 20
213.235219052
 30
0.0
 10
145.5362407304
 20
213.2085411714
 30
0.0
 10
145.5247828993
 20
213.1856978552
 30
0.0
 10
145.5201502717
 20
213.1761533109
 30
0.0
 10
145.5161164382
 20
213.1685789217
 30
0.0
 10
145.5132803552
 20
213.1607807443
 30
0.0
 10
145.5088740644
 20
213.1470300105
 30
0.0
 10
145.5022859795
 20
213.1274399973
 30
0.0
 10
145.4945157093
 20
213.1039108376
 30
0.0
 10
145.4866731266
 20
213.0803800256
 30
0.0
 10
145.4802658228
 20
213.0607941431
 30
0.0
 10
145.4755431652
 20
213.0470361805
 30
0.0
 10
145.473213269
 20
213.0392495691
 30
0.0
 10
145.4722717903
 20
213.0317458607
 30
0.0
 10
145.4706195495
 20
213.0222693595
 30
0.0
 10
145.468241641
 20
213.0071610918
 30
0.0
 10
145.4651782484
 20
212.9882572136
 30
0.0
 10
145.4603279118
 20
212.9580214189
 30
0.0
 10
145.4566786638
 20
212.9353422306
 30
0.0
 10
145.4542483863
 20
212.9202232922
 30
0.0
  0
SPLINE
  5
46C
100
AcDbEntity
  8
7_ALL_FEATURES
100
AcDbSpline
 62
4
  6
CONTINUOUS
 70
0
 71
3
 72
43
 73
39
 74
0
 42
0.0000001
 43
0.0000001
 44
0.0000000001
 40
0.0
 40
0.0
 40
0.0
 40
0.0
 40
0.0625
 40
0.125
 40
0.140625
 40
0.15625
 40
0.171875
 40
0.1875
 40
0.21875
 40
0.25
 40
0.28125
 40
0.3125
 40
0.328125
 40
0.3359375
 40
0.34375
 40
0.359375
 40
0.375
 40
0.4375
 40
0.46875
 40
0.484375
 40
0.5
 40
0.515625
 40
0.53125
 40
0.5625
 40
0.625
 40
0.640625
 40
0.65625
 40
0.671875
 40
0.6875
 40
0.71875
 40
0.75
 40
0.78125
 40
0.8125
 40
0.828125
 40
0.84375
 40
0.875
 40
0.9375
 40
1.0
 40
1.0
 40
1.0
 40
1.0
 10
146.9312632011
 20
214.9367493835
 30
0.0
 10
146.9249250637
 20
214.9411408579
 30
0.0
 10
146.9122438567
 20
214.9499161415
 30
0.0
 10
146.8979996936
 20
214.9598228297
 30
0.0
 10
146.8884712176
 20
214.9663769844
 30
0.0
 10
146.8837643159
 20
214.9697431717
 30
0.0
 10
146.8788345425
 20
214.9727629802
 30
0.0
 10
146.8712005815
 20
214.9751405124
 30
0.0
 10
146.862023044
 20
214.9786796454
 30
0.0
 10
146.8508498083
 20
214.9826772784
 30
0.0
 10
146.8397334733
 20
214.986764669
 30
0.0
 10
146.8304136842
 20
214.9900794082
 30
0.0
 10
146.8239829085
 20
214.9925524379
 30
0.0
 10
146.8201654725
 20
214.9937312312
 30
0.0
 10
146.8158113476
 20
214.9940286446
 30
0.0
 10
146.8105520203
 20
214.9947012065
 30
0.0
 10
146.7977797446
 20
214.9960718615
 30
0.0
 10
146.782916406
 20
214.9977042961
 30
0.0
 10
146.768071272
 20
214.9994497764
 30
0.0
 10
146.7595313135
 20
215.0002305413
 30
0.0
 10
146.7532922176
 20
215.0014337735
 30
0.0
 10
146.746418142
 20
215.0002746977
 30
0.0
 10
146.7374743898
 20
214.999553865
 30
0.0
 10
146.7217175931
 20
214.997902169
 30
0.0
 10
146.7060102628
 20
214.9964273267
 30
0.0
 10
146.6925160019
 20
214.9950629457
 30
0.0
 10
146.6858022748
 20
214.9944801569
 30
0.0
 10
146.6789611012
 20
214.9935198075
 30
0.0
 10
146.6692338557
 20
214.9904446776
 30
0.0
 10
146.6572828037
 20
214.987220453
 30
0.0
 10
146.6428516388
 20
214.9830688778
 30
0.0
 10
146.628447276
 20
214.979055825
 30
0.0
 10
146.616429219
 20
214.9754852945
 30
0.0
 10
146.6068359835
 20
214.9731027764
 30
0.0
 10
146.5971694447
 20
214.9690056888
 30
0.0
 10
146.5802191211
 20
214.9610395243
 30
0.0
 10
146.556022205
 20
214.9500783742
 30
0.0
 10
146.5366592376
 20
214.941181733
 30
0.0
 10
146.5269784333
 20
214.9367493775
 30
0.0
  0
SPLINE
  5
46D
100
AcDbEntity
  8
7_ALL_FEATURES
100
AcDbSpline
 62
4
  6
CONTINUOUS
 70
0
 71
3
 72
59
 73
55
 74
0
 42
0.0000001
 43
0.0000001
 44
0.0000000001
 40
0.0
 40
0.0
 40
0.0
 40
0.0
 40
0.0625
 40
0.09375
 40
0.1015625
 40
0.109375
 40
0.125
 40
0.140625
 40
0.15625
 40
0.1875
 40
0.203125
 40
0.21875
 40
0.234375
 40
0.25
 40
0.28125
 40
0.3125
 40
0.328125
 40
0.3359375
 40
0.34375
 40
0.359375
 40
0.375
 40
0.40625
 40
0.421875
 40
0.4375
 40
0.46875
 40
0.5
 40
0.53125
 40
0.5625
 40
0.578125
 40
0.59375
 40
0.625
 40
0.640625
 40
0.65625
 40
0.6640625
 40
0.671875
 40
0.6875
 40
0.71875
 40
0.75
 40
0.765625
 40
0.78125
 40
0.7890625
 40
0.796875
 40
0.8125
 40
0.828125
 40
0.84375
 40
0.859375
 40
0.875
 40
0.8828125
 40
0.890625
 40
0.8984375
 40
0.90625
 40
0.921875
 40
0.9375
 40
1.0
 40
1.0
 40
1.0
 40
1.0
 10
146.7306211366
 20
214.2520814283
 30
0.0
 10
146.7443978274
 20
214.2640201754
 30
0.0
 10
146.7650390523
 20
214.2819656097
 30
0.0
 10
146.7874777659
 20
214.3012852275
 30
0.0
 10
146.7977596851
 20
214.3103185793
 30
0.0
 10
146.8047968509
 20
214.3160547426
 30
0.0
 10
146.8122613655
 20
214.3253121785
 30
0.0
 10
146.821599014
 20
214.3358264423
 30
0.0
 10
146.8339062469
 20
214.3500633733
 30
0.0
 10
146.8463108086
 20
214.3641821473
 30
0.0
 10
146.8585306077
 20
214.3784919578
 30
0.0
 10
146.868152416
 20
214.3887693631
 30
0.0
 10
146.8760387695
 20
214.4007710605
 30
0.0
 10
146.8865050986
 20
214.4168182521
 30
0.0
 10
146.8996345229
 20
214.4368551993
 30
0.0
 10
146.9126389065
 20
214.4569241556
 30
0.0
 10
146.9219720015
 20
214.4709206355
 30
0.0
 10
146.9269483796
 20
214.4789978032
 30
0.0
 10
146.9305808693
 20
214.487372818
 30
0.0
 10
146.9355834113
 20
214.4977393896
 30
0.0
 10
146.9433189038
 20
214.51438427
 30
0.0
 10
146.9511876691
 20
214.5310059854
 30
0.0
 10
146.9588580468
 20
214.5476534212
 30
0.0
 10
146.9671442778
 20
214.5642288622
 30
0.0
 10
146.9731311519
 20
214.5854559742
 30
0.0
 10
146.9807120024
 20
214.6108952787
 30
0.0
 10
146.9880827643
 20
214.6363110823
 30
0.0
 10
146.9945948602
 20
214.6575969464
 30
0.0
 10
146.9958231623
 20
214.6733832919
 30
0.0
 10
146.9977528693
 20
214.6893892608
 30
0.0
 10
146.9994555216
 20
214.7053198351
 30
0.0
 10
147.0013132844
 20
214.7213118756
 30
0.0
 10
147.002275822
 20
214.7312160642
 30
0.0
 10
147.0034836286
 20
214.7393420567
 30
0.0
 10
147.0030991802
 20
214.7467301522
 30
0.0
 10
147.0016879295
 20
214.7593172265
 30
0.0
 10
147.0000503555
 20
214.7774728221
 30
0.0
 10
146.9983053894
 20
214.7955837793
 30
0.0
 10
146.9968643588
 20
214.8100404287
 30
0.0
 10
146.9961300551
 20
214.8191784445
 30
0.0
 10
146.9935488864
 20
214.8252649874
 30
0.0
 10
146.9913159404
 20
214.8315652915
 30
0.0
 10
146.9884052444
 20
214.8393672991
 30
0.0
 10
146.9849637399
 20
214.8487612547
 30
0.0
 10
146.9815081342
 20
214.8581464207
 30
0.0
 10
146.9780576028
 20
214.8675351985
 30
0.0
 10
146.9751769964
 20
214.8753544653
 30
0.0
 10
146.9728823668
 20
214.8816193882
 30
0.0
 10
146.971134926
 20
214.8862923807
 30
0.0
 10
146.9680145237
 20
214.8896318584
 30
0.0
 10
146.9643335012
 20
214.8945502325
 30
0.0
 10
146.9595682717
 20
214.9005389591
 30
0.0
 10
146.948267113
 20
214.9150434052
 30
0.0
 10
146.9388142224
 20
214.9270961983
 30
0.0
 10
146.9312631926
 20
214.9367493913
 30
0.0
  0
SPLINE
  5
46E
100
AcDbEntity
  8
7_ALL_FEATURES
100
AcDbSpline
 62
4
  6
CONTINUOUS
 70
0
 71
3
 72
76
 73
72
 74
0
 42
0.0000001
 43
0.0000001
 44
0.0000000001
 40
0.0
 40
0.0
 40
0.0
 40
0.0
 40
0.03125
 40
0.0625
 40
0.09375
 40
0.109375
 40
0.1171875
 40
0.125
 40
0.1328125
 40
0.140625
 40
0.15625
 40
0.1875
 40
0.21875
 40
0.234375
 40
0.2421875
 40
0.24609375
 40
0.25
 40
0.25390625
 40
0.2578125
 40
0.265625
 40
0.28125
 40
0.3125
 40
0.34375
 40
0.359375
 40
0.3671875
 40
0.37109375
 40
0.375
 40
0.37890625
 40
0.3828125
 40
0.390625
 40
0.40625
 40
0.4375
 40
0.46875
 40
0.484375
 40
0.4921875
 40
0.49609375
 40
0.5
 40
0.50390625
 40
0.5078125
 40
0.515625
 40
0.53125
 40
0.5625
 40
0.59375
 40
0.609375
 40
0.6171875
 40
0.62109375
 40
0.625
 40
0.62890625
 40
0.6328125
 40
0.640625
 40
0.65625
 40
0.6875
 40
0.71875
 40
0.734375
 40
0.7421875
 40
0.75
 40
0.7578125
 40
0.765625
 40
0.78125
 40
0.8125
 40
0.84375
 40
0.859375
 40
0.8671875
 40
0.875
 40
0.8828125
 40
0.890625
 40
0.90625
 40
0.921875
 40
0.9375
 40
0.96875
 40
1.0
 40
1.0
 40
1.0
 40
1.0
 10
145.4542483869
 20
212.9202233003
 30
0.0
 10
145.4545014147
 20
212.9113433481
 30
0.0
 10
145.4550115879
 20
212.8935856344
 30
0.0
 10
145.4557521426
 20
212.8669359203
 30
0.0
 10
145.4564413282
 20
212.8447661602
 30
0.0
 10
145.4567832475
 20
212.8291725749
 30
0.0
 10
145.4571978883
 20
212.8203786027
 30
0.0
 10
145.4568912398
 20
212.8134545376
 30
0.0
 10
145.4589454785
 20
212.8077864924
 30
0.0
 10
145.4608610301
 20
212.7997910465
 30
0.0
 10
145.4645961907
 20
212.7860024958
 30
0.0
 10
145.46973762
 20
212.7662031513
 30
0.0
 10
145.4749276875
 20
212.7464218863
 30
0.0
 10
145.4785947546
 20
212.7326080242
 30
0.0
 10
145.4803644908
 20
212.7256468121
 30
0.0
 10
145.4814802755
 20
212.7217573123
 30
0.0
 10
145.4820218212
 20
212.7185906893
 30
0.0
 10
145.483692285
 20
212.7163778911
 30
0.0
 10
145.48552582
 20
212.7130948119
 30
0.0
 10
145.4889176682
 20
212.7075041943
 30
0.0
 10
145.4955706084
 20
212.6962122844
 30
0.0
 10
145.5051489375
 20
212.6801452193
 30
0.0
 10
145.5146798107
 20
212.6640320244
 30
0.0
 10
145.5213991892
 20
212.652804696
 30
0.0
 10
145.5246996847
 20
212.6471252789
 30
0.0
 10
145.5266803333
 20
212.6439852016
 30
0.0
 10
145.5278987789
 20
212.6413330185
 30
0.0
 10
145.5301380619
 20
212.6398166836
 30
0.0
 10
145.5327677199
 20
212.6373987352
 30
0.0
 10
145.5375352442
 20
212.633351627
 30
0.0
 10
145.5469520948
 20
212.6251256765
 30
0.0
 10
145.560471448
 20
212.6134503167
 30
0.0
 10
145.5739491021
 20
212.6017218868
 30
0.0
 10
145.5834243315
 20
212.5935702343
 30
0.0
 10
145.5881115849
 20
212.5894209663
 30
0.0
 10
145.5908705103
 20
212.587167535
 30
0.0
 10
145.5927126087
 20
212.5851457077
 30
0.0
 10
145.5954228423
 20
212.5843921065
 30
0.0
 10
145.5987336949
 20
212.582944965
 30
0.0
 10
145.6046685313
 20
212.5806182441
 30
0.0
 10
145.6164377309
 20
212.5758177666
 30
0.0
 10
145.6333072476
 20
212.5690443813
 30
0.0
 10
145.6501426445
 20
212.5622133051
 30
0.0
 10
145.6619596118
 20
212.5574935947
 30
0.0
 10
145.6678287677
 20
212.5550558189
 30
0.0
 10
145.6712453915
 20
212.5537875191
 30
0.0
 10
145.6736306346
 20
212.5524844125
 30
0.0
 10
145.6766933667
 20
212.5525264756
 30
0.0
 10
145.6805407228
 20
212.5521134147
 30
0.0
 10
145.6873833953
 20
212.5516084862
 30
0.0
 10
145.700991653
 20
212.5504465044
 30
0.0
 10
145.7204653449
 20
212.5488451548
 30
0.0
 10
145.739952575
 20
212.5472990689
 30
0.0
 10
145.7535418793
 20
212.5460597179
 30
0.0
 10
145.7613918604
 20
212.5456042368
 30
0.0
 10
145.7670401407
 20
212.5445493505
 30
0.0
 10
145.7736029108
 20
212.5462212065
 30
0.0
 10
145.7820342258
 20
212.5474989605
 30
0.0
 10
145.7969382859
 20
212.5501809989
 30
0.0
 10
145.8181468573
 20
212.553757594
 30
0.0
 10
145.8394028984
 20
212.5575042774
 30
0.0
 10
145.8542405009
 20
212.5599481923
 30
0.0
 10
145.8627762493
 20
212.5616001404
 30
0.0
 10
145.8690185988
 20
212.562123901
 30
0.0
 10
145.875870236
 20
212.5653807506
 30
0.0
 10
145.8847929201
 20
212.5687685131
 30
0.0
 10
145.8960192971
 20
212.5733307712
 30
0.0
 10
145.9094596929
 20
212.5786652729
 30
0.0
 10
145.9273911425
 20
212.585826934
 30
0.0
 10
145.9498016822
 20
212.5947620887
 30
0.0
 10
145.9677312635
 20
212.6019153696
 30
0.0
 10
145.9766959105
 20
212.6054913654
 30
0.0
  0
SPLINE
  5
46F
100
AcDbEntity
  8
7_ALL_FEATURES
100
AcDbSpline
 62
7
  6
CONTINUOUS
 70
0
 71
3
 72
11
 73
7
 74
0
 42
0.0000001
 43
0.0000001
 44
0.0000000001
 40
0.0
 40
0.0
 40
0.0
 40
0.0
 40
0.2831751286
 40
0.5424836409
 40
0.7785831462
 40
1.0
 40
1.0
 40
1.0
 40
1.0
 10
97.7242492835
 20
210.429705679
 30
0.0
 10
97.7413916837
 20
210.3831352807
 30
0.0
 10
97.7836076853
 20
210.2968804506
 30
0.0
 10
97.8729510461
 20
210.191570341
 30
0.0
 10
97.9809009185
 20
210.123009136
 30
0.0
 10
98.0617737486
 20
210.106754847
 30
0.0
 10
98.1005761086
 20
210.106754847
 30
0.0
  0
SPLINE
  5
470
100
AcDbEntity
  8
7_ALL_FEATURES
100
AcDbSpline
 62
7
  6
CONTINUOUS
 70
0
 71
3
 72
11
 73
7
 74
0
 42
0.0000001
 43
0.0000001
 44
0.0000000001
 40
0.0
 40
0.0
 40
0.0
 40
0.0
 40
0.2414252117
 40
0.4947937597
 40
0.7509014051
 40
1.0
 40
1.0
 40
1.0
 40
1.0
 10
94.6800996902
 20
223.5485902993
 30
0.0
 10
94.5189212334
 20
223.2391905262
 30
0.0
 10
94.2658794002
 20
222.5629972819
 30
0.0
 10
94.101290953
 20
221.4836614634
 30
0.0
 10
94.1484064385
 20
220.3818885371
 30
0.0
 10
94.3240884046
 20
219.6668512572
 30
0.0
 10
94.448429585
 20
219.3290561864
 30
0.0
  0
SPLINE
  5
471
100
AcDbEntity
  8
7_ALL_FEATURES
100
AcDbSpline
 62
4
  6
CONTINUOUS
 70
0
 71
3
 72
72
 73
68
 74
0
 42
0.0000001
 43
0.0000001
 44
0.0000000001
 40
0.0
 40
0.0
 40
0.0
 40
0.0
 40
0.03125
 40
0.0625
 40
0.09375
 40
0.109375
 40
0.1171875
 40
0.125
 40
0.1328125
 40
0.140625
 40
0.15625
 40
0.1875
 40
0.21875
 40
0.234375
 40
0.2421875
 40
0.25
 40
0.2578125
 40
0.265625
 40
0.28125
 40
0.3125
 40
0.34375
 40
0.359375
 40
0.3671875
 40
0.375
 40
0.3828125
 40
0.390625
 40
0.40625
 40
0.4375
 40
0.46875
 40
0.484375
 40
0.4921875
 40
0.5
 40
0.5078125
 40
0.515625
 40
0.53125
 40
0.5625
 40
0.59375
 40
0.609375
 40
0.6171875
 40
0.625
 40
0.6328125
 40
0.640625
 40
0.65625
 40
0.6875
 40
0.71875
 40
0.734375
 40
0.7421875
 40
0.74609375
 40
0.75
 40
0.75390625
 40
0.7578125
 40
0.765625
 40
0.78125
 40
0.8125
 40
0.84375
 40
0.859375
 40
0.8671875
 40
0.87109375
 40
0.875
 40
0.87890625
 40
0.8828125
 40
0.890625
 40
0.90625
 40
0.921875
 40
0.9375
 40
0.96875
 40
1.0
 40
1.0
 40
1.0
 40
1.0
 10
91.8203652042
 20
212.9202233003
 30
0.0
 10
91.8271555905
 20
212.9113433481
 30
0.0
 10
91.840738868
 20
212.8935856345
 30
0.0
 10
91.861098755
 20
212.86693592
 30
0.0
 10
91.878109163
 20
212.8447661612
 30
0.0
 10
91.8899309694
 20
212.8291725736
 30
0.0
 10
91.8968196724
 20
212.8203786051
 30
0.0
 10
91.9016104671
 20
212.8134545287
 30
0.0
 10
91.9078374997
 20
212.8077865257
 30
0.0
 10
91.9156391485
 20
212.7997908698
 30
0.0
 10
91.929526346
 20
212.7860045604
 30
0.0
 10
91.9492357897
 20
212.7661870549
 30
0.0
 10
91.9690165644
 20
212.7464681109
 30
0.0
 10
91.9828038984
 20
212.7325438153
 30
0.0
 10
91.9907624757
 20
212.7247649948
 30
0.0
 10
91.996508023
 20
212.7184317014
 30
0.0
 10
92.0031070627
 20
212.7140061603
 30
0.0
 10
92.011608037
 20
212.7074397707
 30
0.0
 10
92.0266238446
 20
212.6962609709
 30
0.0
 10
92.0479992358
 20
212.6801099524
 30
0.0
 10
92.0694127198
 20
212.6640891385
 30
0.0
 10
92.0843751974
 20
212.6527280523
 30
0.0
 10
92.092959976
 20
212.6464481128
 30
0.0
 10
92.0993018891
 20
212.6411436906
 30
0.0
 10
92.1060130895
 20
212.638111084
 30
0.0
 10
92.1148325568
 20
212.6332749248
 30
0.0
 10
92.1303265185
 20
212.6251834713
 30
0.0
 10
92.1524303731
 20
212.6134097438
 30
0.0
 10
92.1745416493
 20
212.6017858107
 30
0.0
 10
92.1900252207
 20
212.5934846449
 30
0.0
 10
92.1988610154
 20
212.5889780334
 30
0.0
 10
92.2055221202
 20
212.5849343145
 30
0.0
 10
92.2120521702
 20
212.583427181
 30
0.0
 10
92.2208046773
 20
212.5805326158
 30
0.0
 10
92.2360996326
 20
212.5758821436
 30
0.0
 10
92.2579659059
 20
212.5690002761
 30
0.0
 10
92.2798086061
 20
212.5622812435
 30
0.0
 10
92.2951365636
 20
212.5574028024
 30
0.0
 10
92.3038372101
 20
212.5548664742
 30
0.0
 10
92.3105263778
 20
212.5522602044
 30
0.0
 10
92.3165899071
 20
212.5523443528
 30
0.0
 10
92.324892807
 20
212.5515181881
 30
0.0
 10
92.3393215771
 20
212.5505087419
 30
0.0
 10
92.3599842039
 20
212.5488454613
 30
0.0
 10
92.3806393996
 20
212.5472359118
 30
0.0
 10
92.3950785734
 20
212.546151242
 30
0.0
 10
92.4023293057
 20
212.5455317804
 30
0.0
 10
92.4064219696
 20
212.5453040174
 30
0.0
 10
92.4096344038
 20
212.544776586
 30
0.0
 10
92.412300399
 20
212.5456124841
 30
0.0
 10
92.4160456504
 20
212.5462515048
 30
0.0
 10
92.4225111698
 20
212.5475909937
 30
0.0
 10
92.4355056503
 20
212.5501119676
 30
0.0
 10
92.4540320976
 20
212.5538036633
 30
0.0
 10
92.4725860889
 20
212.557435101
 30
0.0
 10
92.4855420078
 20
212.5600404361
 30
0.0
 10
92.4920605495
 20
212.5612639283
 30
0.0
 10
92.4957204144
 20
212.5620897489
 30
0.0
 10
92.4986487664
 20
212.5623516891
 30
0.0
 10
92.5008758133
 20
212.5639799895
 30
0.0
 10
92.5040898323
 20
212.5656744548
 30
0.0
 10
92.5096003911
 20
212.5688618269
 30
0.0
 10
92.5175322051
 20
212.5732991209
 30
0.0
 10
92.527024876
 20
212.5786735674
 30
0.0
 10
92.539690683
 20
212.5858221319
 30
0.0
 10
92.5555198634
 20
212.5947638349
 30
0.0
 10
92.5681841459
 20
212.6019153696
 30
0.0
 10
92.5745161698
 20
212.6054913654
 30
0.0
  0
SPLINE
  5
472
100
AcDbEntity
  8
7_ALL_FEATURES
100
AcDbSpline
 62
4
  6
CONTINUOUS
 70
0
 71
3
 72
30
 73
26
 74
0
 42
0.0000001
 43
0.0000001
 44
0.0000000001
 40
0.0
 40
0.0
 40
0.0
 40
0.0
 40
0.0625
 40
0.125
 40
0.15625
 40
0.1875
 40
0.25
 40
0.3125
 40
0.34375
 40
0.375
 40
0.4375
 40
0.46875
 40
0.5
 40
0.53125
 40
0.5625
 40
0.625
 40
0.65625
 40
0.6875
 40
0.75
 40
0.8125
 40
0.828125
 40
0.84375
 40
0.875
 40
0.9375
 40
1.0
 40
1.0
 40
1.0
 40
1.0
 10
92.5745161782
 20
212.6054913723
 30
0.0
 10
92.5806674518
 20
212.6110620747
 30
0.0
 10
92.5929992777
 20
212.6221683827
 30
0.0
 10
92.6082676656
 20
212.6362267527
 30
0.0
 10
92.6207898046
 20
212.6471049301
 30
0.0
 10
92.6321993446
 20
212.6593167937
 30
0.0
 10
92.6460390618
 20
212.6750838618
 30
0.0
 10
92.6601642211
 20
212.6905229461
 30
0.0
 10
92.6711170537
 20
212.7032595838
 30
0.0
 10
92.6808970405
 20
212.7172858342
 30
0.0
 10
92.6910603812
 20
212.7308951578
 30
0.0
 10
92.7009532946
 20
212.7447880525
 30
0.0
 10
92.7088009077
 20
212.7547739369
 30
0.0
 10
92.7150720223
 20
212.7663531821
 30
0.0
 10
92.7240056143
 20
212.7812156008
 30
0.0
 10
92.7326595678
 20
212.7963507472
 30
0.0
 10
92.7417233576
 20
212.8111001415
 30
0.0
 10
92.7495206533
 20
212.8270289074
 30
0.0
 10
92.7588815965
 20
212.8472611758
 30
0.0
 10
92.7673080605
 20
212.8655920268
 30
0.0
 10
92.7731158494
 20
212.8774489229
 30
0.0
 10
92.7764799342
 20
212.8862691729
 30
0.0
 10
92.7821203052
 20
212.9021481977
 30
0.0
 10
92.7903078608
 20
212.9245990519
 30
0.0
 10
92.796818322
 20
212.9426308871
 30
0.0
 10
92.8000785005
 20
212.9516379107
 30
0.0
  0
SPLINE
  5
473
100
AcDbEntity
  8
7_ALL_FEATURES
100
AcDbSpline
 62
4
  6
CONTINUOUS
 70
0
 71
3
 72
66
 73
62
 74
0
 42
0.0000001
 43
0.0000001
 44
0.0000000001
 40
0.0
 40
0.0
 40
0.0
 40
0.0
 40
0.03125
 40
0.0625
 40
0.09375
 40
0.109375
 40
0.1171875
 40
0.125
 40
0.1328125
 40
0.140625
 40
0.15625
 40
0.1875
 40
0.21875
 40
0.234375
 40
0.2421875
 40
0.25
 40
0.2578125
 40
0.265625
 40
0.28125
 40
0.3125
 40
0.34375
 40
0.359375
 40
0.3671875
 40
0.375
 40
0.3828125
 40
0.390625
 40
0.40625
 40
0.4375
 40
0.46875
 40
0.484375
 40
0.4921875
 40
0.5
 40
0.5078125
 40
0.515625
 40
0.53125
 40
0.5625
 40
0.59375
 40
0.609375
 40
0.6171875
 40
0.625
 40
0.6328125
 40
0.640625
 40
0.65625
 40
0.6875
 40
0.71875
 40
0.734375
 40
0.7421875
 40
0.75
 40
0.7578125
 40
0.765625
 40
0.78125
 40
0.8125
 40
0.84375
 40
0.859375
 40
0.8671875
 40
0.875
 40
0.8828125
 40
0.890625
 40
0.90625
 40
0.9375
 40
1.0
 40
1.0
 40
1.0
 40
1.0
 10
91.408542909
 20
214.9367493835
 30
0.0
 10
91.4052164582
 20
214.9325126808
 30
0.0
 10
91.3985664136
 20
214.9240363093
 30
0.0
 10
91.3885742051
 20
214.911339548
 30
0.0
 10
91.3802973606
 20
214.9007070091
 30
0.0
 10
91.3744060775
 20
214.8933654456
 30
0.0
 10
91.3711917603
 20
214.8890123285
 30
0.0
 10
91.3683524864
 20
214.8861923863
 30
0.0
 10
91.3671512912
 20
214.8816718306
 30
0.0
 10
91.3649781359
 20
214.8762377432
 30
0.0
 10
91.3614432361
 20
214.8664503752
 30
0.0
 10
91.3562385467
 20
214.8526238844
 30
0.0
 10
91.351142479
 20
214.8387045211
 30
0.0
 10
91.3474555088
 20
214.8290471745
 30
0.0
 10
91.3455213214
 20
214.8234087678
 30
0.0
 10
91.343586929
 20
214.8195151008
 30
0.0
 10
91.3435012176
 20
214.8143408429
 30
0.0
 10
91.3427419094
 20
214.8078886039
 30
0.0
 10
91.3417155139
 20
214.7963881534
 30
0.0
 10
91.3400761348
 20
214.780075249
 30
0.0
 10
91.3385531669
 20
214.7636952589
 30
0.0
 10
91.3373637956
 20
214.7522887284
 30
0.0
 10
91.3368605922
 20
214.7456889009
 30
0.0
 10
91.3359891045
 20
214.7409674711
 30
0.0
 10
91.3370057388
 20
214.7353731829
 30
0.0
 10
91.3377024722
 20
214.7282186376
 30
0.0
 10
91.3392305087
 20
214.7155558788
 30
0.0
 10
91.3412373838
 20
214.6975440804
 30
0.0
 10
91.3433602944
 20
214.6794919099
 30
0.0
 10
91.3447258812
 20
214.666885672
 30
0.0
 10
91.3456778926
 20
214.6596423081
 30
0.0
 10
91.3459112874
 20
214.6543205313
 30
0.0
 10
91.3479812993
 20
214.6485756697
 30
0.0
 10
91.3501005152
 20
214.6410634274
 30
0.0
 10
91.3541093835
 20
214.6278482806
 30
0.0
 10
91.3596658488
 20
214.6090051532
 30
0.0
 10
91.3653323848
 20
214.5901503117
 30
0.0
 10
91.3691871542
 20
214.5769515644
 30
0.0
 10
91.3715485254
 20
214.5694135515
 30
0.0
 10
91.3728755608
 20
214.563747759
 30
0.0
 10
91.3758992452
 20
214.5581290336
 30
0.0
 10
91.3793388685
 20
214.5506209327
 30
0.0
 10
91.3856354754
 20
214.537489925
 30
0.0
 10
91.3944738957
 20
214.5187230755
 30
0.0
 10
91.4034111199
 20
214.4999737343
 30
0.0
 10
91.4095694012
 20
214.4868182149
 30
0.0
 10
91.4132263934
 20
214.4793486324
 30
0.0
 10
91.4155831504
 20
214.4736117258
 30
0.0
 10
91.4194148687
 20
214.4683897693
 30
0.0
 10
91.424009217
 20
214.4612474562
 30
0.0
 10
91.4322903604
 20
214.4488329801
 30
0.0
 10
91.4439843465
 20
214.4310470043
 30
0.0
 10
91.4557640953
 20
214.4133039788
 30
0.0
 10
91.4639251709
 20
214.4008293724
 30
0.0
 10
91.4687081971
 20
214.3937815498
 30
0.0
 10
91.4719610171
 20
214.3882696793
 30
0.0
 10
91.4764918588
 20
214.383621561
 30
0.0
 10
91.4820872252
 20
214.3771228054
 30
0.0
 10
91.4920864774
 20
214.3658901284
 30
0.0
 10
91.5119368669
 20
214.3433246706
 30
0.0
 10
91.5290022687
 20
214.3240171709
 30
0.0
 10
91.5403679183
 20
214.3111378775
 30
0.0
  0
SPLINE
  5
474
100
AcDbEntity
  8
7_ALL_FEATURES
100
AcDbSpline
 62
4
  6
CONTINUOUS
 70
0
 71
3
 72
42
 73
38
 74
0
 42
0.0000001
 43
0.0000001
 44
0.0000000001
 40
0.0
 40
0.0
 40
0.0
 40
0.0
 40
0.0625
 40
0.125
 40
0.15625
 40
0.171875
 40
0.1875
 40
0.21875
 40
0.25
 40
0.28125
 40
0.3125
 40
0.328125
 40
0.34375
 40
0.375
 40
0.4375
 40
0.46875
 40
0.484375
 40
0.5
 40
0.515625
 40
0.53125
 40
0.5625
 40
0.625
 40
0.640625
 40
0.65625
 40
0.671875
 40
0.6875
 40
0.71875
 40
0.75
 40
0.78125
 40
0.8125
 40
0.828125
 40
0.8359375
 40
0.84375
 40
0.859375
 40
0.875
 40
0.9375
 40
1.0
 40
1.0
 40
1.0
 40
1.0
 10
91.8128276659
 20
214.9367493835
 30
0.0
 10
91.8032565558
 20
214.9411408579
 30
0.0
 10
91.7841114133
 20
214.9499553135
 30
0.0
 10
91.7601945967
 20
214.9608158498
 30
0.0
 10
91.7434259765
 20
214.9687076923
 30
0.0
 10
91.7338855505
 20
214.9727683473
 30
0.0
 10
91.724502084
 20
214.9751371865
 30
0.0
 10
91.7127183854
 20
214.978682743
 30
0.0
 10
91.6986034618
 20
214.9826694984
 30
0.0
 10
91.684473464
 20
214.9867926916
 30
0.0
 10
91.6727274509
 20
214.9899971534
 30
0.0
 10
91.6632686134
 20
214.9930481819
 30
0.0
 10
91.6540346962
 20
214.9943346004
 30
0.0
 10
91.6379756273
 20
214.9957741508
 30
0.0
 10
91.6196047693
 20
214.9977149807
 30
0.0
 10
91.6034762778
 20
214.9994488617
 30
0.0
 10
91.5943613708
 20
215.0002307135
 30
0.0
 10
91.5872364949
 20
215.0014337274
 30
0.0
 10
91.5812157145
 20
215.0002747098
 30
0.0
 10
91.5728026369
 20
214.9995538582
 30
0.0
 10
91.5582618061
 20
214.9979021733
 30
0.0
 10
91.5436402418
 20
214.9964273303
 30
0.0
 10
91.5311504336
 20
214.9950629426
 30
0.0
 10
91.5248657407
 20
214.9944801694
 30
0.0
 10
91.5187316105
 20
214.9935197609
 30
0.0
 10
91.51126805
 20
214.9904449252
 30
0.0
 10
91.5016922053
 20
214.9872184575
 30
0.0
 10
91.4903109637
 20
214.9830761634
 30
0.0
 10
91.4788848645
 20
214.9790286781
 30
0.0
 10
91.4694211638
 20
214.9755651883
 30
0.0
 10
91.4626942963
 20
214.9732894958
 30
0.0
 10
91.4590082895
 20
214.9717612752
 30
0.0
 10
91.4559165153
 20
214.9693762676
 30
0.0
 10
91.4518486819
 20
214.966687868
 30
0.0
 10
91.442253094
 20
214.9599946159
 30
0.0
 10
91.4277889167
 20
214.9500568135
 30
0.0
 10
91.4149606378
 20
214.941181733
 30
0.0
 10
91.4085429025
 20
214.9367493775
 30
0.0
  0
SPLINE
  5
475
100
AcDbEntity
  8
7_ALL_FEATURES
100
AcDbSpline
 62
4
  6
CONTINUOUS
 70
0
 71
3
 72
50
 73
46
 74
0
 42
0.0000001
 43
0.0000001
 44
0.0000000001
 40
0.0
 40
0.0
 40
0.0
 40
0.0
 40
0.0625
 40
0.09375
 40
0.125
 40
0.140625
 40
0.15625
 40
0.1640625
 40
0.171875
 40
0.1875
 40
0.21875
 40
0.25
 40
0.28125
 40
0.3125
 40
0.328125
 40
0.3359375
 40
0.34375
 40
0.359375
 40
0.375
 40
0.4375
 40
0.46875
 40
0.484375
 40
0.4921875
 40
0.5
 40
0.5078125
 40
0.515625
 40
0.53125
 40
0.5625
 40
0.625
 40
0.640625
 40
0.65625
 40
0.6640625
 40
0.671875
 40
0.6875
 40
0.71875
 40
0.75
 40
0.78125
 40
0.8125
 40
0.828125
 40
0.8359375
 40
0.84375
 40
0.859375
 40
0.875
 40
0.9375
 40
1.0
 40
1.0
 40
1.0
 40
1.0
 10
91.7170745023
 20
213.5966415332
 30
0.0
 10
91.7124144785
 20
213.5857032251
 30
0.0
 10
91.7054281763
 20
213.5692930031
 30
0.0
 10
91.6960981725
 20
213.5474237461
 30
0.0
 10
91.6902980333
 20
213.5337324626
 30
0.0
 10
91.6855869839
 20
213.5228318708
 30
0.0
 10
91.6828043665
 20
213.5158994125
 30
0.0
 10
91.6802077148
 20
213.5106273493
 30
0.0
 10
91.6789638633
 20
213.504355343
 30
0.0
 10
91.6774159608
 20
213.4929145585
 30
0.0
 10
91.6748736083
 20
213.4768149648
 30
0.0
 10
91.6719745456
 20
213.4573847476
 30
0.0
 10
91.6689981426
 20
213.4380063347
 30
0.0
 10
91.6666491412
 20
213.4217772302
 30
0.0
 10
91.6647628742
 20
213.4105630895
 30
0.0
 10
91.6640604059
 20
213.403928453
 30
0.0
 10
91.6647711144
 20
213.3964410684
 30
0.0
 10
91.6651761517
 20
213.3873734
 30
0.0
 10
91.6665488546
 20
213.3653702417
 30
0.0
 10
91.6679877709
 20
213.3397874385
 30
0.0
 10
91.6695638616
 20
213.3141526509
 30
0.0
 10
91.6702436876
 20
213.3013607049
 30
0.0
 10
91.6707980821
 20
213.294014823
 30
0.0
 10
91.6707470303
 20
213.2886067359
 30
0.0
 10
91.6724804079
 20
213.282811451
 30
0.0
 10
91.6741691174
 20
213.2752194659
 30
0.0
 10
91.6774146918
 20
213.2618705386
 30
0.0
 10
91.6836897667
 20
213.235219052
 30
0.0
 10
91.6900999542
 20
213.2085411714
 30
0.0
 10
91.6954592122
 20
213.1856978552
 30
0.0
 10
91.697853211
 20
213.1761533109
 30
0.0
 10
91.6993955897
 20
213.1685789217
 30
0.0
 10
91.7023004702
 20
213.1607807443
 30
0.0
 10
91.7080173732
 20
213.1470300105
 30
0.0
 10
91.7158513185
 20
213.1274399972
 30
0.0
 10
91.7254030511
 20
213.1039108377
 30
0.0
 10
91.7348836848
 20
213.0803800252
 30
0.0
 10
91.7428953772
 20
213.0607941444
 30
0.0
 10
91.7483012227
 20
213.0470361788
 30
0.0
 10
91.7517037951
 20
213.0392495721
 30
0.0
 10
91.7562864123
 20
213.0317458442
 30
0.0
 10
91.7616113308
 20
213.022269493
 30
0.0
 10
91.7747231899
 20
212.9996058499
 30
0.0
 10
91.7942503909
 20
212.9655766837
 30
0.0
 10
91.8116650307
 20
212.9353422306
 30
0.0
 10
91.8203652096
 20
212.9202232922
 30
0.0
  0
SPLINE
  5
476
100
AcDbEntity
  8
7_ALL_FEATURES
100
AcDbSpline
 62
4
  6
CONTINUOUS
 70
0
 71
3
 72
58
 73
54
 74
0
 42
0.0000001
 43
0.0000001
 44
0.0000000001
 40
0.0
 40
0.0
 40
0.0
 40
0.0
 40
0.0625
 40
0.078125
 40
0.09375
 40
0.1015625
 40
0.109375
 40
0.125
 40
0.140625
 40
0.15625
 40
0.171875
 40
0.1875
 40
0.203125
 40
0.2109375
 40
0.21875
 40
0.234375
 40
0.25
 40
0.28125
 40
0.3125
 40
0.328125
 40
0.3359375
 40
0.34375
 40
0.359375
 40
0.375
 40
0.40625
 40
0.421875
 40
0.4375
 40
0.46875
 40
0.5
 40
0.53125
 40
0.5625
 40
0.578125
 40
0.59375
 40
0.625
 40
0.640625
 40
0.65625
 40
0.6640625
 40
0.671875
 40
0.6875
 40
0.71875
 40
0.75
 40
0.765625
 40
0.78125
 40
0.796875
 40
0.8125
 40
0.84375
 40
0.859375
 40
0.875
 40
0.890625
 40
0.8984375
 40
0.90625
 40
0.9375
 40
1.0
 40
1.0
 40
1.0
 40
1.0
 10
92.1162333457
 20
214.2520814283
 30
0.0
 10
92.1212208147
 20
214.2640201754
 30
0.0
 10
92.1274669467
 20
214.2789350259
 30
0.0
 10
92.1349269176
 20
214.2968585967
 30
0.0
 10
92.1380824221
 20
214.3042924175
 30
0.0
 10
92.1404971247
 20
214.3103193
 30
0.0
 10
92.1433128846
 20
214.316054346
 30
0.0
 10
92.1439617811
 20
214.3253121449
 30
0.0
 10
92.1455574463
 20
214.3358270459
 30
0.0
 10
92.1469332793
 20
214.3465017598
 30
0.0
 10
92.1483714516
 20
214.3571316797
 30
0.0
 10
92.149780099
 20
214.3677809625
 30
0.0
 10
92.1510004387
 20
214.3766281503
 30
0.0
 10
92.1518799525
 20
214.3837615341
 30
0.0
 10
92.1531093247
 20
214.3906941553
 30
0.0
 10
92.152143049
 20
214.4007961088
 30
0.0
 10
92.1508644491
 20
214.4168037763
 30
0.0
 10
92.149208791
 20
214.43686024
 30
0.0
 10
92.147448464
 20
214.4569235091
 30
0.0
 10
92.1464762256
 20
214.4709206907
 30
0.0
 10
92.1455063635
 20
214.478997793
 30
0.0
 10
92.1429731981
 20
214.4873728238
 30
0.0
 10
92.1403439565
 20
214.4977393876
 30
0.0
 10
92.1358255994
 20
214.5143842711
 30
0.0
 10
92.1314575768
 20
214.5310059852
 30
0.0
 10
92.1268722287
 20
214.5476534213
 30
0.0
 10
92.1229557364
 20
214.5642288622
 30
0.0
 10
92.1133153596
 20
214.5854559742
 30
0.0
 10
92.1021679727
 20
214.6108952787
 30
0.0
 10
92.0908277983
 20
214.6363110823
 30
0.0
 10
92.0816693903
 20
214.6575969464
 30
0.0
 10
92.0712758957
 20
214.673383292
 30
0.0
 10
92.0614221205
 20
214.6893892606
 30
0.0
 10
92.051396797
 20
214.7053198363
 30
0.0
 10
92.041481329
 20
214.7213118735
 30
0.0
 10
92.0351524798
 20
214.7312160705
 30
0.0
 10
92.0303779725
 20
214.7393420458
 30
0.0
 10
92.0245545223
 20
214.746730211
 30
0.0
 10
92.013876088
 20
214.7593165381
 30
0.0
 10
91.9988779046
 20
214.7774781899
 30
0.0
 10
91.9837812042
 20
214.7955683643
 30
0.0
 10
91.9717349065
 20
214.8100671021
 30
0.0
 10
91.9626661057
 20
214.8209042469
 30
0.0
 10
91.9519577726
 20
214.8299044568
 30
0.0
 10
91.9382548187
 20
214.842551674
 30
0.0
 10
91.9243819878
 20
214.854991137
 30
0.0
 10
91.9105876703
 20
214.8675686598
 30
0.0
 10
91.9001762688
 20
214.8767953764
 30
0.0
 10
91.8916862648
 20
214.8851148671
 30
0.0
 10
91.8842702976
 20
214.8896445486
 30
0.0
 10
91.8733066951
 20
214.8969853944
 30
0.0
 10
91.8494578152
 20
214.9125689025
 30
0.0
 10
91.8274852944
 20
214.9270961983
 30
0.0
 10
91.8128276516
 20
214.9367493913
 30
0.0
  0
SPLINE
  5
477
100
AcDbEntity
  8
02___PRT_ALL_AXES
100
AcDbSpline
 62
7
  6
CONTINUOUS
 70
0
 71
3
 72
9
 73
5
 74
0
 42
0.0000001
 43
0.0000001
 44
0.0000000001
 40
0.0
 40
0.0
 40
0.0
 40
0.0
 40
0.488799579
 40
1.0
 40
1.0
 40
1.0
 40
1.0
 10
113.5977150104
 20
174.389916253
 30
0.0
 10
113.7434768263
 20
174.4938719006
 30
0.0
 10
114.0300339015
 20
174.7230393285
 30
0.0
 10
114.2968877147
 20
174.9743567797
 30
0.0
 10
114.429285782
 20
175.106754847
 30
0.0
  0
SPLINE
  5
478
100
AcDbEntity
  8
02___PRT_ALL_AXES
100
AcDbSpline
 62
7
  6
CONTINUOUS
 70
0
 71
3
 72
23
 73
19
 74
0
 42
0.0000001
 43
0.0000001
 44
0.0000000001
 40
0.0
 40
0.0
 40
0.0
 40
0.0
 40
0.0883067072
 40
0.1696615916
 40
0.2411930189
 40
0.3034932575
 40
0.3584989719
 40
0.4083235872
 40
0.4548897038
 40
0.4998948851
 40
0.5449032342
 40
0.5914783529
 40
0.6413115337
 40
0.6963271007
 40
0.7586529233
 40
0.8302324804
 40
0.9116393795
 40
1.0
 40
1.0
 40
1.0
 40
1.0
 10
110.3533792654
 20
174.3632112325
 30
0.0
 10
110.3533792654
 20
174.1865019275
 30
0.0
 10
110.3829192022
 20
173.8461780995
 30
0.0
 10
110.5086155477
 20
173.3776447397
 30
0.0
 10
110.6943623917
 20
172.9864003457
 30
0.0
 10
110.9192134229
 20
172.679767284
 30
0.0
 10
111.167953125
 20
172.4528080781
 30
0.0
 10
111.4307040776
 20
172.2976241895
 30
0.0
 10
111.7011214736
 20
172.2073830654
 30
0.0
 10
111.9749160183
 20
172.1777086556
 30
0.0
 10
112.2487615782
 20
172.2070907532
 30
0.0
 10
112.5193075293
 20
172.2970925436
 30
0.0
 10
112.7822195144
 20
172.452117757
 30
0.0
 10
113.0311790794
 20
172.6789687209
 30
0.0
 10
113.256295735
 20
172.9856226133
 30
0.0
 10
113.442267285
 20
173.3770458263
 30
0.0
 10
113.5681376428
 20
173.8458559148
 30
0.0
 10
113.5977150104
 20
174.1863940423
 30
0.0
 10
113.5977150104
 20
174.3632112325
 30
0.0
  0
SPLINE
  5
479
100
AcDbEntity
  8
02___PRT_ALL_AXES
100
AcDbSpline
 62
7
  6
CONTINUOUS
 70
0
 71
3
 72
23
 73
19
 74
0
 42
0.0000001
 43
0.0000001
 44
0.0000000001
 40
0.0
 40
0.0
 40
0.0
 40
0.0
 40
0.0883278798
 40
0.1697006582
 40
0.2412466372
 40
0.3035573166
 40
0.3585713384
 40
0.4084044648
 40
0.4549801525
 40
0.4999928796
 40
0.5450046259
 40
0.5915772496
 40
0.6414085404
 40
0.6964217238
 40
0.7587324758
 40
0.8302803327
 40
0.9116602039
 40
1.0
 40
1.0
 40
1.0
 40
1.0
 10
125.0758111298
 20
174.3632112325
 30
0.0
 10
125.0758111298
 20
174.186459748
 30
0.0
 10
125.1053635076
 20
173.8460572557
 30
0.0
 10
125.2311205853
 20
173.3774277865
 30
0.0
 10
125.416948695
 20
172.9861252569
 30
0.0
 10
125.6418968433
 20
172.6794783873
 30
0.0
 10
125.8907353131
 20
172.4525447969
 30
0.0
 10
126.1535807391
 20
172.2974137265
 30
0.0
 10
126.424083687
 20
172.2072627789
 30
0.0
 10
126.6979342155
 20
172.1777058941
 30
0.0
 10
126.9717806749
 20
172.2072428556
 30
0.0
 10
127.2422789705
 20
172.2973688066
 30
0.0
 10
127.5051292424
 20
172.4524693729
 30
0.0
 10
127.7539782745
 20
172.6793844469
 30
0.0
 10
127.9789462294
 20
172.9860192838
 30
0.0
 10
128.1648051435
 20
173.3773279588
 30
0.0
 10
128.290585348
 20
173.8459953676
 30
0.0
 10
128.3201468747
 20
174.1864359024
 30
0.0
 10
128.3201468747
 20
174.3632112325
 30
0.0
  0
SPLINE
  5
47A
100
AcDbEntity
  8
02___PRT_ALL_AXES
100
AcDbSpline
 62
7
  6
CONTINUOUS
 70
0
 71
3
 72
8
 73
4
 74
0
 42
0.0000001
 43
0.0000001
 44
0.0000000001
 40
0.0
 40
0.0
 40
0.0
 40
0.0
 40
1.0
 40
1.0
 40
1.0
 40
1.0
 10
122.581098815
 20
174.389916253
 30
0.0
 10
123.1497110412
 20
174.592680097
 30
0.0
 10
123.7042899603
 20
174.836779648
 30
0.0
 10
124.2442403582
 20
175.106754847
 30
0.0
  0
SPLINE
  5
47B
100
AcDbEntity
  8
02___PRT_ALL_AXES
100
AcDbSpline
 62
7
  6
CONTINUOUS
 70
0
 71
3
 72
9
 73
5
 74
0
 42
0.0000001
 43
0.0000001
 44
0.0000000001
 40
0.0
 40
0.0
 40
0.0
 40
0.0
 40
0.2576422386
 40
1.0
 40
1.0
 40
1.0
 40
1.0
 10
109.5218084939
 20
175.106754847
 30
0.0
 10
109.5840302377
 20
175.0445331031
 30
0.0
 10
109.8289382111
 20
174.8065480052
 30
0.0
 10
110.089217364
 20
174.5836656676
 30
0.0
 10
110.2934129629
 20
174.4333702059
 30
0.0
  0
SPLINE
  5
47C
100
AcDbEntity
  8
02___PRT_ALL_AXES
100
AcDbSpline
 62
7
  6
CONTINUOUS
 70
0
 71
3
 72
25
 73
21
 74
0
 42
0.0000001
 43
0.0000001
 44
0.0000000001
 40
0.0
 40
0.0
 40
0.0
 40
0.0
 40
0.0312854252
 40
0.0625800971
 40
0.1249732141
 40
0.1874202887
 40
0.2499067589
 40
0.3124186823
 40
0.3749443087
 40
0.4374745481
 40
0.5000064337
 40
0.5625383022
 40
0.625068508
 40
0.6875942926
 40
0.7501063389
 40
0.8125906562
 40
0.8750350262
 40
0.9374248106
 40
0.9687165161
 40
1.0
 40
1.0
 40
1.0
 40
1.0
 10
116.0924273251
 20
174.3632112325
 30
0.0
 10
116.0924273251
 20
174.2734726174
 30
0.0
 10
116.1085491157
 20
174.0935574323
 30
0.0
 10
116.2021759588
 20
173.7459795482
 30
0.0
 10
116.4241632144
 20
173.3483715127
 30
0.0
 10
116.8042488595
 20
172.9619216614
 30
0.0
 10
117.2549154909
 20
172.663058097
 30
0.0
 10
117.748091168
 20
172.4433752909
 30
0.0
 10
118.2663195548
 20
172.2935192104
 30
0.0
 10
118.798465289
 20
172.2064667742
 30
0.0
 10
119.3368186675
 20
172.1779274214
 30
0.0
 10
119.875171228
 20
172.2064801448
 30
0.0
 10
120.4073151295
 20
172.2935460586
 30
0.0
 10
120.9255401296
 20
172.4434159127
 30
0.0
 10
121.4187060462
 20
172.6631083406
 30
0.0
 10
121.8693490999
 20
172.9619827069
 30
0.0
 10
122.2494050122
 20
173.3484293302
 30
0.0
 10
122.4713624201
 20
173.7460219375
 30
0.0
 10
122.5649855943
 20
174.093576397
 30
0.0
 10
122.581098815
 20
174.2734781858
 30
0.0
 10
122.581098815
 20
174.3632112325
 30
0.0
  0
SPLINE
  5
47D
100
AcDbEntity
  8
02___PRT_ALL_AXES
100
AcDbSpline
 62
7
  6
CONTINUOUS
 70
0
 71
3
 72
8
 73
4
 74
0
 42
0.0000001
 43
0.0000001
 44
0.0000000001
 40
0.0
 40
0.0
 40
0.0
 40
0.0
 40
1.0
 40
1.0
 40
1.0
 40
1.0
 10
114.429285782
 20
175.106754847
 30
0.0
 10
114.9692361799
 20
174.836779648
 30
0.0
 10
115.5238150989
 20
174.592680097
 30
0.0
 10
116.0924273251
 20
174.389916253
 30
0.0
  0
SPLINE
  5
47E
100
AcDbEntity
  8
02___PRT_ALL_AXES
100
AcDbSpline
 62
7
  6
CONTINUOUS
 70
0
 71
3
 72
9
 73
5
 74
0
 42
0.0000001
 43
0.0000001
 44
0.0000000001
 40
0.0
 40
0.0
 40
0.0
 40
0.0
 40
0.5112005452
 40
1.0
 40
1.0
 40
1.0
 40
1.0
 10
124.2442403582
 20
175.106754847
 30
0.0
 10
124.3766384575
 20
174.9743567476
 30
0.0
 10
124.6434922794
 20
174.7230393057
 30
0.0
 10
124.930049351
 20
174.4938718741
 30
0.0
 10
125.0758111298
 20
174.389916253
 30
0.0
  0
SPLINE
  5
47F
100
AcDbEntity
  8
02___PRT_ALL_AXES
100
AcDbSpline
 62
7
  6
CONTINUOUS
 70
0
 71
3
 72
9
 73
5
 74
0
 42
0.0000001
 43
0.0000001
 44
0.0000000001
 40
0.0
 40
0.0
 40
0.0
 40
0.0
 40
0.2423815515
 40
1.0
 40
1.0
 40
1.0
 40
1.0
 10
128.3930432172
 20
174.4429187813
 30
0.0
 10
128.4585216539
 20
174.4914331144
 30
0.0
 10
128.7238719127
 20
174.6980677802
 30
0.0
 10
128.9716005707
 20
174.9266377714
 30
0.0
 10
129.1517176463
 20
175.106754847
 30
0.0
  0
SPLINE
  5
480
100
AcDbEntity
  8
7_ALL_FEATURES
100
AcDbSpline
 62
7
  6
CONTINUOUS
 70
0
 71
3
 72
18
 73
14
 74
0
 42
0.0000001
 43
0.0000001
 44
0.0000000001
 40
0.0
 40
0.0
 40
0.0
 40
0.0
 40
0.00476356
 40
0.018949618
 40
0.0424238297
 40
0.0749739938
 40
0.1163161559
 40
0.1661301312
 40
0.2892594951
 40
0.4400021674
 40
0.6130334725
 40
0.8020503117
 40
1.0
 40
1.0
 40
1.0
 40
1.0
 10
156.8367630701
 20
221.3567548473
 30
0.0
 10
156.8367563678
 20
221.3632786056
 30
0.0
 10
156.8319465897
 20
221.3889506371
 30
0.0
 10
156.8270774903
 20
221.4467754122
 30
0.0
 10
156.8152840255
 20
221.5422624653
 30
0.0
 10
156.8011208451
 20
221.6748318936
 30
0.0
 10
156.7831364899
 20
221.8433005729
 30
0.0
 10
156.7537643523
 20
222.135291908
 30
0.0
 10
156.713486651
 20
222.5767670967
 30
0.0
 10
156.6671672562
 20
223.1870800651
 30
0.0
 10
156.6267255292
 20
223.8882344097
 30
0.0
 10
156.5981802382
 20
224.6546825744
 30
0.0
 10
156.5900067852
 20
225.1846286066
 30
0.0
 10
156.5888877606
 20
225.455721152
 30
0.0
  0
SPLINE
  5
481
100
AcDbEntity
  8
7_ALL_FEATURES
100
AcDbSpline
 62
7
  6
CONTINUOUS
 70
0
 71
3
 72
15
 73
11
 74
0
 42
0.0000001
 43
0.0000001
 44
0.0000000001
 40
0.0
 40
0.0
 40
0.0
 40
0.0
 40
0.3869586457
 40
0.7107378988
 40
0.8338785401
 40
0.9250271852
 40
0.9575777509
 40
0.9810740067
 40
0.9952806197
 40
1.0
 40
1.0
 40
1.0
 40
1.0
 10
156.5888867518
 20
225.7577859923
 30
0.0
 10
156.5910706388
 20
226.2877077096
 30
0.0
 10
156.6164402568
 20
227.2601037602
 30
0.0
 10
156.6921068206
 20
228.4028852568
 30
0.0
 10
156.7587345242
 20
229.1322249004
 30
0.0
 10
156.7938308862
 20
229.4757797278
 30
0.0
 10
156.8152835958
 20
229.6660150527
 30
0.0
 10
156.8271088708
 20
229.7786305436
 30
0.0
 10
156.8318944161
 20
229.8060414212
 30
0.0
 10
156.8367630701
 20
229.8632178719
 30
0.0
 10
156.8367630701
 20
229.856754847
 30
0.0
  0
LINE
  5
482
100
AcDbEntity
  8
7_ALL_FEATURES
100
AcDbLine
 62
7
  6
CONTINUOUS
 10
72.5085439791
 20
258.9397315542
 11
72.6456236537
 21
258.606754847
  0
SPLINE
  5
483
100
AcDbEntity
  8
7_ALL_FEATURES
100
AcDbSpline
 62
7
  6
CONTINUOUS
 70
0
 71
3
 72
8
 73
4
 74
0
 42
0.0000001
 43
0.0000001
 44
0.0000000001
 40
0.0
 40
0.0
 40
0.0
 40
0.0
 40
1.0
 40
1.0
 40
1.0
 40
1.0
 10
101.6851476801
 20
210.106754847
 30
0.0
 10
101.4314649508
 20
210.5235790141
 30
0.0
 10
101.1775188998
 20
210.9402430237
 30
0.0
 10
100.9233236707
 20
211.356754847
 30
0.0
  0
SPLINE
  5
484
100
AcDbEntity
  8
7_ALL_FEATURES
100
AcDbSpline
 62
7
  6
CONTINUOUS
 70
0
 71
3
 72
8
 73
4
 74
0
 42
0.0000001
 43
0.0000001
 44
0.0000000001
 40
0.0
 40
0.0
 40
0.0
 40
0.0
 40
1.0
 40
1.0
 40
1.0
 40
1.0
 10
137.7502024694
 20
211.356754847
 30
0.0
 10
137.4960072403
 20
210.9402430237
 30
0.0
 10
137.2420611894
 20
210.5235790141
 30
0.0
 10
136.98837846
 20
210.106754847
 30
0.0
  0
SPLINE
  5
485
100
AcDbEntity
  8
7_ALL_FEATURES
100
AcDbSpline
 62
7
  6
CONTINUOUS
 70
0
 71
3
 72
8
 73
4
 74
0
 42
0.0000001
 43
0.0000001
 44
0.0000000001
 40
0.0
 40
0.0
 40
0.0
 40
0.0
 40
1.0
 40
1.0
 40
1.0
 40
1.0
 10
150.9987746001
 20
210.106754847
 30
0.0
 10
151.3343186714
 20
210.5232365114
 30
0.0
 10
151.6695997833
 20
210.9399300788
 30
0.0
 10
152.0047175436
 20
211.356754847
 30
0.0
  0
LINE
  5
486
100
AcDbEntity
  8
7_ALL_FEATURES
100
AcDbLine
 62
7
  6
CONTINUOUS
 10
72.5085439791
 20
262.7737781397
 11
72.6370778716
 21
263.0860250383
  0
LINE
  5
487
100
AcDbEntity
  8
7_ALL_FEATURES
100
AcDbLine
 62
7
  6
CONTINUOUS
 10
166.164982161
 20
262.7737781397
 11
166.0364482685
 21
263.0860250383
  0
SPLINE
  5
488
100
AcDbEntity
  8
7_ALL_FEATURES
100
AcDbSpline
 62
7
  6
CONTINUOUS
 70
0
 71
3
 72
8
 73
4
 74
0
 42
0.0000001
 43
0.0000001
 44
0.0000000001
 40
0.0
 40
0.0
 40
0.0
 40
0.0
 40
1.0
 40
1.0
 40
1.0
 40
1.0
 10
86.6688085965
 20
211.356754847
 30
0.0
 10
87.0039263566
 20
210.9399300786
 30
0.0
 10
87.3392074689
 20
210.5232365115
 30
0.0
 10
87.6747515401
 20
210.106754847
 30
0.0
  0
LINE
  5
489
100
AcDbEntity
  8
7_ALL_FEATURES
100
AcDbLine
 62
7
  6
CONTINUOUS
 10
166.164982161
 20
258.9397315542
 11
166.0279024865
 21
258.606754847
  0
LINE
  5
48A
100
AcDbEntity
  8
03___PRT_ALL_CURVES
100
AcDbLine
 62
40
  6
CONTINUOUS
 10
156.8364630689
 20
230.356754847
 11
156.8367630701
 21
230.206754847
  0
SPLINE
  5
48B
100
AcDbEntity
  8
03___PRT_ALL_CURVES
100
AcDbSpline
 62
40
  6
CONTINUOUS
 70
0
 71
3
 72
10
 73
6
 74
0
 42
0.0000001
 43
0.0000001
 44
0.0000000001
 40
0.0
 40
0.0
 40
0.0
 40
0.0
 40
0.3333333333
 40
0.6666666667
 40
1.0
 40
1.0
 40
1.0
 40
1.0
 10
156.2426615687
 20
247.9063694758
 30
0.0
 10
156.2382589628
 20
247.9249093843
 30
0.0
 10
156.230384331
 20
247.9699627733
 30
0.0
 10
156.2205214717
 20
248.0567846381
 30
0.0
 10
156.2151473212
 20
248.1225158291
 30
0.0
 10
156.2126430819
 20
248.1574727812
 30
0.0
  0
SPLINE
  5
48C
100
AcDbEntity
  8
03___PRT_ALL_CURVES
100
AcDbSpline
 62
40
  6
CONTINUOUS
 70
0
 71
3
 72
10
 73
6
 74
0
 42
0.0000001
 43
0.0000001
 44
0.0000000001
 40
0.0
 40
0.0
 40
0.0
 40
0.0
 40
0.3333333333
 40
0.6666666667
 40
1.0
 40
1.0
 40
1.0
 40
1.0
 10
156.2763484826
 20
247.8611804266
 30
0.0
 10
156.2725170935
 20
247.8553089944
 30
0.0
 10
156.2648954471
 20
247.8512106842
 30
0.0
 10
156.2535313362
 20
247.8672143118
 30
0.0
 10
156.246267606
 20
247.8911840147
 30
0.0
 10
156.2426615687
 20
247.9063694758
 30
0.0
  0
SPLINE
  5
48D
100
AcDbEntity
  8
03___PRT_ALL_CURVES
100
AcDbSpline
 62
40
  6
CONTINUOUS
 70
0
 71
3
 72
13
 73
9
 74
0
 42
0.0000001
 43
0.0000001
 44
0.0000000001
 40
0.0
 40
0.0
 40
0.0
 40
0.0
 40
0.1666666667
 40
0.3333333333
 40
0.5
 40
0.6666666667
 40
0.8333333333
 40
1.0
 40
1.0
 40
1.0
 40
1.0
 10
156.3053419304
 20
248.042418159
 30
0.0
 10
156.3044573479
 20
248.027010635
 30
0.0
 10
156.302504536
 20
247.9979893858
 30
0.0
 10
156.298903471
 20
247.9589428033
 30
0.0
 10
156.2945084317
 20
247.9246518176
 30
0.0
 10
156.2893101956
 20
247.8963604423
 30
0.0
 10
156.2833424107
 20
247.8747710286
 30
0.0
 10
156.2787714639
 20
247.8648935368
 30
0.0
 10
156.2763484826
 20
247.8611804266
 30
0.0
  0
SPLINE
  5
48E
100
AcDbEntity
  8
03___PRT_ALL_CURVES
100
AcDbSpline
 62
40
  6
CONTINUOUS
 70
0
 71
3
 72
10
 73
6
 74
0
 42
0.0000001
 43
0.0000001
 44
0.0000000001
 40
0.0
 40
0.0
 40
0.0
 40
0.0
 40
0.3333333333
 40
0.6666666667
 40
1.0
 40
1.0
 40
1.0
 40
1.0
 10
156.3040957953
 20
248.4127115675
 30
0.0
 10
156.3061462242
 20
248.3677957338
 30
0.0
 10
156.3091383585
 20
248.2806947674
 30
0.0
 10
156.3098680223
 20
248.1542243561
 30
0.0
 10
156.3074085352
 20
248.0784139683
 30
0.0
 10
156.3053419304
 20
248.042418159
 30
0.0
  0
SPLINE
  5
48F
100
AcDbEntity
  8
03___PRT_ALL_CURVES
100
AcDbSpline
 62
40
  6
CONTINUOUS
 70
0
 71
3
 72
10
 73
6
 74
0
 42
0.0000001
 43
0.0000001
 44
0.0000000001
 40
0.0
 40
0.0
 40
0.0
 40
0.0
 40
0.3333333333
 40
0.6666666667
 40
1.0
 40
1.0
 40
1.0
 40
1.0
 10
156.2748979256
 20
248.7120379067
 30
0.0
 10
156.2796628275
 20
248.6897482868
 30
0.0
 10
156.2880092526
 20
248.636875209
 30
0.0
 10
156.297672773
 20
248.5332844123
 30
0.0
 10
156.3021782487
 20
248.4547165389
 30
0.0
 10
156.3040957953
 20
248.4127115675
 30
0.0
  0
SPLINE
  5
490
100
AcDbEntity
  8
03___PRT_ALL_CURVES
100
AcDbSpline
 62
40
  6
CONTINUOUS
 70
0
 71
3
 72
10
 73
6
 74
0
 42
0.0000001
 43
0.0000001
 44
0.0000000001
 40
0.0
 40
0.0
 40
0.0
 40
0.0
 40
0.3333333333
 40
0.6666666667
 40
1.0
 40
1.0
 40
1.0
 40
1.0
 10
156.2326522065
 20
248.7714597419
 30
0.0
 10
156.2376545841
 20
248.7788366457
 30
0.0
 10
156.2474397347
 20
248.7844440431
 30
0.0
 10
156.2617312465
 20
248.7640168377
 30
0.0
 10
156.2705720243
 20
248.7322739368
 30
0.0
 10
156.2748979256
 20
248.7120379067
 30
0.0
  0
SPLINE
  5
491
100
AcDbEntity
  8
03___PRT_ALL_CURVES
100
AcDbSpline
 62
40
  6
CONTINUOUS
 70
0
 71
3
 72
10
 73
6
 74
0
 42
0.0000001
 43
0.0000001
 44
0.0000000001
 40
0.0
 40
0.0
 40
0.0
 40
0.0
 40
0.3333333333
 40
0.6666666667
 40
1.0
 40
1.0
 40
1.0
 40
1.0
 10
156.2092177879
 20
248.6835678602
 30
0.0
 10
156.211395617
 20
248.6986244014
 30
0.0
 10
156.216039107
 20
248.7252179847
 30
0.0
 10
156.2238828818
 20
248.7546021624
 30
0.0
 10
156.229640801
 20
248.767018884
 30
0.0
 10
156.2326522065
 20
248.7714597419
 30
0.0
  0
SPLINE
  5
492
100
AcDbEntity
  8
03___PRT_ALL_CURVES
100
AcDbSpline
 62
40
  6
CONTINUOUS
 70
0
 71
3
 72
10
 73
6
 74
0
 42
0.0000001
 43
0.0000001
 44
0.0000000001
 40
0.0
 40
0.0
 40
0.0
 40
0.0
 40
0.3333333333
 40
0.6666666667
 40
1.0
 40
1.0
 40
1.0
 40
1.0
 10
156.1969330152
 20
248.5175900038
 30
0.0
 10
156.1974709713
 20
248.5392346075
 30
0.0
 10
156.1990906237
 20
248.5804053508
 30
0.0
 10
156.2032655113
 20
248.6366351317
 30
0.0
 10
156.2070667574
 20
248.6686965929
 30
0.0
 10
156.2092177879
 20
248.6835678602
 30
0.0
  0
SPLINE
  5
493
100
AcDbEntity
  8
03___PRT_ALL_CURVES
100
AcDbSpline
 62
40
  6
CONTINUOUS
 70
0
 71
3
 72
13
 73
9
 74
0
 42
0.0000001
 43
0.0000001
 44
0.0000000001
 40
0.0
 40
0.0
 40
0.0
 40
0.0
 40
0.1666666667
 40
0.3333333333
 40
0.5
 40
0.6666666667
 40
0.8333333333
 40
1.0
 40
1.0
 40
1.0
 40
1.0
 10
156.2303863913
 20
248.9926903907
 30
0.0
 10
156.2276064317
 20
248.9885986968
 30
0.0
 10
156.2221938206
 20
248.9781016377
 30
0.0
 10
156.2145939158
 20
248.9556650568
 30
0.0
 10
156.2074061373
 20
248.9262032972
 30
0.0
 10
156.2007742932
 20
248.8903185445
 30
0.0
 10
156.1947848295
 20
248.8492229261
 30
0.0
 10
156.1911392619
 20
248.8183568017
 30
0.0
 10
156.189388824
 20
248.8020079239
 30
0.0
  0
SPLINE
  5
494
100
AcDbEntity
  8
03___PRT_ALL_CURVES
100
AcDbSpline
 62
40
  6
CONTINUOUS
 70
0
 71
3
 72
10
 73
6
 74
0
 42
0.0000001
 43
0.0000001
 44
0.0000000001
 40
0.0
 40
0.0
 40
0.0
 40
0.0
 40
0.3333333333
 40
0.6666666667
 40
1.0
 40
1.0
 40
1.0
 40
1.0
 10
156.2906906897
 20
248.9016325218
 30
0.0
 10
156.2844609761
 20
248.9306803102
 30
0.0
 10
156.2718057995
 20
248.9770263295
 30
0.0
 10
156.2514381795
 20
249.0095669657
 30
0.0
 10
156.2374842531
 20
249.0031374053
 30
0.0
 10
156.2303863913
 20
248.9926903907
 30
0.0
  0
SPLINE
  5
495
100
AcDbEntity
  8
03___PRT_ALL_CURVES
100
AcDbSpline
 62
40
  6
CONTINUOUS
 70
0
 71
3
 72
10
 73
6
 74
0
 42
0.0000001
 43
0.0000001
 44
0.0000000001
 40
0.0
 40
0.0
 40
0.0
 40
0.0
 40
0.3333333333
 40
0.6666666667
 40
1.0
 40
1.0
 40
1.0
 40
1.0
 10
156.332622485
 20
248.4779808499
 30
0.0
 10
156.3299376464
 20
248.5384699267
 30
0.0
 10
156.3234830613
 20
248.650879041
 30
0.0
 10
156.3093783396
 20
248.7969561085
 30
0.0
 10
156.2974061866
 20
248.8703196325
 30
0.0
 10
156.2906906897
 20
248.9016325218
 30
0.0
  0
SPLINE
  5
496
100
AcDbEntity
  8
03___PRT_ALL_CURVES
100
AcDbSpline
 62
40
  6
CONTINUOUS
 70
0
 71
3
 72
10
 73
6
 74
0
 42
0.0000001
 43
0.0000001
 44
0.0000000001
 40
0.0
 40
0.0
 40
0.0
 40
0.0
 40
0.3333333333
 40
0.6666666667
 40
1.0
 40
1.0
 40
1.0
 40
1.0
 10
156.3333699552
 20
247.958262899
 30
0.0
 10
156.3359200172
 20
248.0101539646
 30
0.0
 10
156.3393343295
 20
248.1177062952
 30
0.0
 10
156.3391465217
 20
248.2933343001
 30
0.0
 10
156.3354024452
 20
248.4153486962
 30
0.0
 10
156.332622485
 20
248.4779808499
 30
0.0
  0
SPLINE
  5
497
100
AcDbEntity
  8
03___PRT_ALL_CURVES
100
AcDbSpline
 62
40
  6
CONTINUOUS
 70
0
 71
3
 72
13
 73
9
 74
0
 42
0.0000001
 43
0.0000001
 44
0.0000000001
 40
0.0
 40
0.0
 40
0.0
 40
0.0
 40
0.1666666667
 40
0.3333333333
 40
0.5
 40
0.6666666667
 40
0.8333333333
 40
1.0
 40
1.0
 40
1.0
 40
1.0
 10
156.2858360708
 20
247.6667506408
 30
0.0
 10
156.2898030097
 20
247.6728831024
 30
0.0
 10
156.297277267
 20
247.6883488769
 30
0.0
 10
156.3072034367
 20
247.7214577268
 30
0.0
 10
156.3159131405
 20
247.7653241406
 30
0.0
 10
156.3232246224
 20
247.8196049878
 30
0.0
 10
156.3290796327
 20
247.8832347705
 30
0.0
 10
156.3320872175
 20
247.9321605432
 30
0.0
 10
156.3333699552
 20
247.958262899
 30
0.0
  0
SPLINE
  5
498
100
AcDbEntity
  8
03___PRT_ALL_CURVES
100
AcDbSpline
 62
40
  6
CONTINUOUS
 70
0
 71
3
 72
10
 73
6
 74
0
 42
0.0000001
 43
0.0000001
 44
0.0000000001
 40
0.0
 40
0.0
 40
0.0
 40
0.0
 40
0.3333333333
 40
0.6666666667
 40
1.0
 40
1.0
 40
1.0
 40
1.0
 10
156.2264153716
 20
247.729835224
 30
0.0
 10
156.2328920538
 20
247.7053421174
 30
0.0
 10
156.245941141
 20
247.6680356078
 30
0.0
 10
156.265850517
 20
247.6471224672
 30
0.0
 10
156.2791571613
 20
247.6564257639
 30
0.0
 10
156.2858360708
 20
247.6667506408
 30
0.0
  0
SPLINE
  5
499
100
AcDbEntity
  8
03___PRT_ALL_CURVES
100
AcDbSpline
 62
40
  6
CONTINUOUS
 70
0
 71
3
 72
10
 73
6
 74
0
 42
0.0000001
 43
0.0000001
 44
0.0000000001
 40
0.0
 40
0.0
 40
0.0
 40
0.0
 40
0.3333333333
 40
0.6666666667
 40
1.0
 40
1.0
 40
1.0
 40
1.0
 10
156.1812136512
 20
248.0898681271
 30
0.0
 10
156.1845952759
 20
248.0374399213
 30
0.0
 10
156.1922696019
 20
247.9403868908
 30
0.0
 10
156.2075764789
 20
247.815813492
 30
0.0
 10
156.2197640847
 20
247.7549886398
 30
0.0
 10
156.2264153716
 20
247.729835224
 30
0.0
  0
SPLINE
  5
49A
100
AcDbEntity
  8
03___PRT_ALL_CURVES
100
AcDbSpline
 62
40
  6
CONTINUOUS
 70
0
 71
3
 72
10
 73
6
 74
0
 42
0.0000001
 43
0.0000001
 44
0.0000000001
 40
0.0
 40
0.0
 40
0.0
 40
0.0
 40
0.3333333333
 40
0.6666666667
 40
1.0
 40
1.0
 40
1.0
 40
1.0
 10
155.9843667454
 20
248.734515316
 30
0.0
 10
155.9876660257
 20
248.756788587
 30
0.0
 10
155.9938693459
 20
248.8013617736
 30
0.0
 10
156.0019142268
 20
248.8690468298
 30
0.0
 10
156.0062527001
 20
248.9145062746
 30
0.0
 10
156.0081213044
 20
248.9374580577
 30
0.0
  0
SPLINE
  5
49B
100
AcDbEntity
  8
03___PRT_ALL_CURVES
100
AcDbSpline
 62
40
  6
CONTINUOUS
 70
0
 71
3
 72
10
 73
6
 74
0
 42
0.0000001
 43
0.0000001
 44
0.0000000001
 40
0.0
 40
0.0
 40
0.0
 40
0.0
 40
0.3333333333
 40
0.6666666667
 40
1.0
 40
1.0
 40
1.0
 40
1.0
 10
155.9529411833
 20
248.5629631482
 30
0.0
 10
155.9568098023
 20
248.5788526349
 30
0.0
 10
155.9642099136
 20
248.6131694977
 30
0.0
 10
155.9746185696
 20
248.6710599992
 30
0.0
 10
155.9811588279
 20
248.7128588305
 30
0.0
 10
155.9843667454
 20
248.734515316
 30
0.0
  0
SPLINE
  5
49C
100
AcDbEntity
  8
03___PRT_ALL_CURVES
100
AcDbSpline
 62
40
  6
CONTINUOUS
 70
0
 71
3
 72
10
 73
6
 74
0
 42
0.0000001
 43
0.0000001
 44
0.0000000001
 40
0.0
 40
0.0
 40
0.0
 40
0.0
 40
0.3333333333
 40
0.6666666667
 40
1.0
 40
1.0
 40
1.0
 40
1.0
 10
155.9791213397
 20
249.0818961718
 30
0.0
 10
155.975742643
 20
249.0452858447
 30
0.0
 10
155.9682650072
 20
248.9751024264
 30
0.0
 10
155.9550629262
 20
248.8792509551
 30
0.0
 10
155.9447990504
 20
248.8203618845
 30
0.0
 10
155.939306863
 20
248.7922552234
 30
0.0
  0
SPLINE
  5
49D
100
AcDbEntity
  8
03___PRT_ALL_CURVES
100
AcDbSpline
 62
40
  6
CONTINUOUS
 70
0
 71
3
 72
10
 73
6
 74
0
 42
0.0000001
 43
0.0000001
 44
0.0000000001
 40
0.0
 40
0.0
 40
0.0
 40
0.0
 40
0.3333333333
 40
0.6666666667
 40
1.0
 40
1.0
 40
1.0
 40
1.0
 10
155.995994708
 20
249.38134041
 30
0.0
 10
155.9955007716
 20
249.3489560878
 30
0.0
 10
155.9935079104
 20
249.2836246681
 30
0.0
 10
155.9877343143
 20
249.1831449009
 30
0.0
 10
155.982253222
 20
249.1158321081
 30
0.0
 10
155.9791213397
 20
249.0818961718
 30
0.0
  0
SPLINE
  5
49E
100
AcDbEntity
  8
03___PRT_ALL_CURVES
100
AcDbSpline
 62
40
  6
CONTINUOUS
 70
0
 71
3
 72
31
 73
27
 74
0
 42
0.0000001
 43
0.0000001
 44
0.0000000001
 40
0.0
 40
0.0
 40
0.0
 40
0.0
 40
0.025
 40
0.05
 40
0.075
 40
0.1
 40
0.15
 40
0.175
 40
0.2
 40
0.25
 40
0.3
 40
0.35
 40
0.4
 40
0.5
 40
0.6
 40
0.65
 40
0.7
 40
0.75
 40
0.8
 40
0.825
 40
0.85
 40
0.9
 40
0.925
 40
0.95
 40
0.975
 40
1.0
 40
1.0
 40
1.0
 40
1.0
 10
156.277898678
 20
225.456754847
 30
0.0
 10
156.2771096266
 20
225.456754847
 30
0.0
 10
156.2756770948
 20
225.4571247908
 30
0.0
 10
156.2734762545
 20
225.4587224925
 30
0.0
 10
156.2713713442
 20
225.461292052
 30
0.0
 10
156.2686571055
 20
225.4659235212
 30
0.0
 10
156.2661146623
 20
225.4722265481
 30
0.0
 10
156.2637540947
 20
225.4800084214
 30
0.0
 10
156.261528139
 20
225.4886872891
 30
0.0
 10
156.2589341928
 20
225.5014626902
 30
0.0
 10
156.25622069
 20
225.5197266776
 30
0.0
 10
156.2540589447
 20
225.5401818233
 30
0.0
 10
156.2520411931
 20
225.5683561065
 30
0.0
 10
156.2509630087
 20
225.6067566741
 30
0.0
 10
156.2520413591
 20
225.6451570245
 30
0.0
 10
156.254059194
 20
225.6733306541
 30
0.0
 10
156.2562209625
 20
225.6937851291
 30
0.0
 10
156.2589344537
 20
225.7120484688
 30
0.0
 10
156.2615283767
 20
225.7248234479
 30
0.0
 10
156.2637543117
 20
225.7335020459
 30
0.0
 10
156.2661148521
 20
225.7412836694
 30
0.0
 10
156.2686572606
 20
225.7475864889
 30
0.0
 10
156.2713714569
 20
225.7522178008
 30
0.0
 10
156.2734763326
 20
225.7547872712
 30
0.0
 10
156.275677134
 20
225.7563849165
 30
0.0
 10
156.2771096421
 20
225.756754847
 30
0.0
 10
156.277898678
 20
225.756754847
 30
0.0
  0
SPLINE
  5
49F
100
AcDbEntity
  8
03___PRT_ALL_CURVES
100
AcDbSpline
 62
40
  6
CONTINUOUS
 70
0
 71
3
 72
31
 73
27
 74
0
 42
0.0000001
 43
0.0000001
 44
0.0000000001
 40
0.0
 40
0.0
 40
0.0
 40
0.0
 40
0.025
 40
0.05
 40
0.075
 40
0.1
 40
0.15
 40
0.175
 40
0.2
 40
0.25
 40
0.3
 40
0.35
 40
0.4
 40
0.5
 40
0.6
 40
0.65
 40
0.7
 40
0.75
 40
0.8
 40
0.825
 40
0.85
 40
0.9
 40
0.925
 40
0.95
 40
0.975
 40
1.0
 40
1.0
 40
1.0
 40
1.0
 10
156.5347132824
 20
225.756754847
 30
0.0
 10
156.5352877211
 20
225.756754847
 30
0.0
 10
156.5363261297
 20
225.7563891312
 30
0.0
 10
156.5379172715
 20
225.7548076143
 30
0.0
 10
156.5394327432
 20
225.7522612248
 30
0.0
 10
156.5413802809
 20
225.7476663132
 30
0.0
 10
156.5431952668
 20
225.7414032443
 30
0.0
 10
156.5448734282
 20
225.7336556436
 30
0.0
 10
156.546451507
 20
225.7250062143
 30
0.0
 10
156.548284526
 20
225.7122458056
 30
0.0
 10
156.5501933126
 20
225.6939591976
 30
0.0
 10
156.5517064457
 20
225.6734571252
 30
0.0
 10
156.5531121745
 20
225.6452243198
 30
0.0
 10
156.5538591825
 20
225.6067527631
 30
0.0
 10
156.5531120433
 20
225.5682814562
 30
0.0
 10
156.5517062489
 20
225.5400494163
 30
0.0
 10
156.5501930986
 20
225.519548132
 30
0.0
 10
156.5482843234
 20
225.501262278
 30
0.0
 10
156.546451324
 20
225.4885023483
 30
0.0
 10
156.5448732616
 20
225.4798532172
 30
0.0
 10
156.5431951214
 20
225.4721058902
 30
0.0
 10
156.5413801622
 20
225.4658430449
 30
0.0
 10
156.5394326568
 20
225.4612483012
 30
0.0
 10
156.5379172115
 20
225.4587020061
 30
0.0
 10
156.5363260996
 20
225.4571205487
 30
0.0
 10
156.5352877089
 20
225.456754847
 30
0.0
 10
156.5347132824
 20
225.456754847
 30
0.0
  0
SPLINE
  5
4A0
100
AcDbEntity
  8
03___PRT_ALL_CURVES
100
AcDbSpline
 62
40
  6
CONTINUOUS
 70
0
 71
3
 72
31
 73
27
 74
0
 42
0.0000001
 43
0.0000001
 44
0.0000000001
 40
0.0
 40
0.0
 40
0.0
 40
0.0
 40
0.025
 40
0.05
 40
0.075
 40
0.1
 40
0.15
 40
0.175
 40
0.2
 40
0.25
 40
0.3
 40
0.35
 40
0.4
 40
0.5
 40
0.6
 40
0.65
 40
0.7
 40
0.75
 40
0.8
 40
0.825
 40
0.85
 40
0.9
 40
0.925
 40
0.95
 40
0.975
 40
1.0
 40
1.0
 40
1.0
 40
1.0
 10
156.8185640562
 20
245.7228654344
 30
0.0
 10
156.8185726386
 20
245.7184099544
 30
0.0
 10
156.8185769694
 20
245.710336011
 30
0.0
 10
156.8185524515
 20
245.6978457137
 30
0.0
 10
156.8184971977
 20
245.6858463405
 30
0.0
 10
156.8183853431
 20
245.6702890723
 30
0.0
 10
156.8182193882
 20
245.6555899534
 30
0.0
 10
156.8180035945
 20
245.6418084977
 30
0.0
 10
156.8177567158
 20
245.6287226791
 30
0.0
 10
156.817381149
 20
245.6132678605
 30
0.0
 10
156.8168228826
 20
245.5967640655
 30
0.0
 10
156.816176036
 20
245.5832470341
 30
0.0
 10
156.8152592165
 20
245.5700701751
 30
0.0
 10
156.8139576824
 20
245.5615186299
 30
0.0
 10
156.8125791967
 20
245.5650392617
 30
0.0
 10
156.8115255344
 20
245.5745239996
 30
0.0
 10
156.8107383979
 20
245.5853602729
 30
0.0
 10
156.8100152156
 20
245.5994751883
 30
0.0
 10
156.8094952158
 20
245.6132651048
 30
0.0
 10
156.8091340952
 20
245.6252227812
 30
0.0
 10
156.8088039869
 20
245.6379935139
 30
0.0
 10
156.8085263515
 20
245.6518747213
 30
0.0
 10
156.8083092323
 20
245.6668294782
 30
0.0
 10
156.8081795978
 20
245.6784928838
 30
0.0
 10
156.8080853619
 20
245.6907711831
 30
0.0
 10
156.8080495043
 20
245.6987922673
 30
0.0
 10
156.8080374234
 20
245.7032446315
 30
0.0
  0
SPLINE
  5
4A1
100
AcDbEntity
  8
03___PRT_ALL_CURVES
100
AcDbSpline
 62
40
  6
CONTINUOUS
 70
0
 71
3
 72
31
 73
27
 74
0
 42
0.0000001
 43
0.0000001
 44
0.0000000001
 40
0.0
 40
0.0
 40
0.0
 40
0.0
 40
0.025
 40
0.05
 40
0.075
 40
0.1
 40
0.15
 40
0.175
 40
0.2
 40
0.25
 40
0.3
 40
0.35
 40
0.4
 40
0.5
 40
0.6
 40
0.65
 40
0.7
 40
0.75
 40
0.8
 40
0.825
 40
0.85
 40
0.9
 40
0.925
 40
0.95
 40
0.975
 40
1.0
 40
1.0
 40
1.0
 40
1.0
 10
156.8052848145
 20
246.7510240874
 30
0.0
 10
156.8052721298
 20
246.7555016468
 30
0.0
 10
156.8052640639
 20
246.7636120087
 30
0.0
 10
156.8052930749
 20
246.7761695451
 30
0.0
 10
156.8053629364
 20
246.7882368555
 30
0.0
 10
156.8055063295
 20
246.8038874891
 30
0.0
 10
156.8057200786
 20
246.8186806142
 30
0.0
 10
156.8059961799
 20
246.8325551136
 30
0.0
 10
156.8063101158
 20
246.8457318847
 30
0.0
 10
156.8067826746
 20
246.8613039627
 30
0.0
 10
156.8074704625
 20
246.8779446552
 30
0.0
 10
156.8082461633
 20
246.8915763346
 30
0.0
 10
156.8093134698
 20
246.904859316
 30
0.0
 10
156.8107604392
 20
246.9134792363
 30
0.0
 10
156.8121873535
 20
246.9099161555
 30
0.0
 10
156.8132248256
 20
246.9003425378
 30
0.0
 10
156.813975351
 20
246.8894056088
 30
0.0
 10
156.8146431318
 20
246.8751642667
 30
0.0
 10
156.8151098546
 20
246.8612594153
 30
0.0
 10
156.8154283623
 20
246.849207941
 30
0.0
 10
156.8157162199
 20
246.8363392402
 30
0.0
 10
156.8159541483
 20
246.8223554689
 30
0.0
 10
156.8161375046
 20
246.8072948942
 30
0.0
 10
156.8162457012
 20
246.7955521741
 30
0.0
 10
156.8163230752
 20
246.7831929791
 30
0.0
 10
156.8163515856
 20
246.7751251501
 30
0.0
 10
156.816360751
 20
246.7706449034
 30
0.0
  0
SPLINE
  5
4A2
100
AcDbEntity
  8
03___PRT_ALL_CURVES
100
AcDbSpline
 62
40
  6
CONTINUOUS
 70
0
 71
3
 72
31
 73
27
 74
0
 42
0.0000001
 43
0.0000001
 44
0.0000000001
 40
0.0
 40
0.0
 40
0.0
 40
0.0
 40
0.025
 40
0.05
 40
0.075
 40
0.1
 40
0.15
 40
0.175
 40
0.2
 40
0.25
 40
0.3
 40
0.35
 40
0.4
 40
0.5
 40
0.6
 40
0.65
 40
0.7
 40
0.75
 40
0.8
 40
0.825
 40
0.85
 40
0.9
 40
0.925
 40
0.95
 40
0.975
 40
1.0
 40
1.0
 40
1.0
 40
1.0
 10
156.6453749761
 20
245.3982940079
 30
0.0
 10
156.6454614487
 20
245.3939226398
 30
0.0
 10
156.6455820492
 20
245.3859559374
 30
0.0
 10
156.6456683984
 20
245.3734964453
 30
0.0
 10
156.6456497413
 20
245.361391962
 30
0.0
 10
156.645497138
 20
245.345526873
 30
0.0
 10
156.6451614073
 20
245.3302810828
 30
0.0
 10
156.6446576624
 20
245.3157346168
 30
0.0
 10
156.6440485364
 20
245.301749065
 30
0.0
 10
156.6430687682
 20
245.2848811412
 30
0.0
 10
156.6415419484
 20
245.2662382784
 30
0.0
 10
156.639719994
 20
245.2502387725
 30
0.0
 10
156.6370905675
 20
245.233564307
 30
0.0
 10
156.6332860383
 20
245.2200883939
 30
0.0
 10
156.6291852294
 20
245.2185109121
 30
0.0
 10
156.6260034211
 20
245.2241557957
 30
0.0
 10
156.6235936072
 20
245.2321598871
 30
0.0
 10
156.6213411209
 20
245.2436951889
 30
0.0
 10
156.6196842673
 20
245.2556173733
 30
0.0
 10
156.6185063144
 20
245.2662498016
 30
0.0
 10
156.6174062871
 20
245.2777923162
 30
0.0
 10
156.6164401494
 20
245.2906055396
 30
0.0
 10
156.6156279248
 20
245.3046759203
 30
0.0
 10
156.6151045988
 20
245.3157775904
 30
0.0
 10
156.6146702751
 20
245.3276021478
 30
0.0
 10
156.6144573832
 20
245.3354067282
 30
0.0
 10
156.6143606473
 20
245.3397673167
 30
0.0
  0
SPLINE
  5
4A3
100
AcDbEntity
  8
03___PRT_ALL_CURVES
100
AcDbSpline
 62
40
  6
CONTINUOUS
 70
0
 71
3
 72
31
 73
27
 74
0
 42
0.0000001
 43
0.0000001
 44
0.0000000001
 40
0.0
 40
0.0
 40
0.0
 40
0.0
 40
0.025
 40
0.05
 40
0.075
 40
0.1
 40
0.15
 40
0.175
 40
0.2
 40
0.25
 40
0.3
 40
0.35
 40
0.4
 40
0.5
 40
0.6
 40
0.65
 40
0.7
 40
0.75
 40
0.8
 40
0.825
 40
0.85
 40
0.9
 40
0.925
 40
0.95
 40
0.975
 40
1.0
 40
1.0
 40
1.0
 40
1.0
 10
156.5913805863
 20
246.3696189624
 30
0.0
 10
156.5912784338
 20
246.3740049209
 30
0.0
 10
156.591134597
 20
246.3819944469
 30
0.0
 10
156.5910264536
 20
246.3945026427
 30
0.0
 10
156.5910388294
 20
246.4066591656
 30
0.0
 10
156.5912016988
 20
246.4225997309
 30
0.0
 10
156.5915742505
 20
246.4379265864
 30
0.0
 10
156.5921377552
 20
246.4525580129
 30
0.0
 10
156.5928202935
 20
246.4666291698
 30
0.0
 10
156.5939189495
 20
246.4836159514
 30
0.0
 10
156.5956260635
 20
246.5024081883
 30
0.0
 10
156.5976501787
 20
246.5185388027
 30
0.0
 10
156.6005457435
 20
246.5353378647
 30
0.0
 10
156.6046780607
 20
246.5489093002
 30
0.0
 10
156.6090292653
 20
246.550472804
 30
0.0
 10
156.6123455793
 20
246.5447558289
 30
0.0
 10
156.6148289066
 20
246.5366607493
 30
0.0
 10
156.6171220853
 20
246.5250030047
 30
0.0
 10
156.618789569
 20
246.5129652131
 30
0.0
 10
156.619966085
 20
246.5022372039
 30
0.0
 10
156.6210593206
 20
246.4905939099
 30
0.0
 10
156.6220119871
 20
246.4776739449
 30
0.0
 10
156.6228068831
 20
246.4634919162
 30
0.0
 10
156.6233160205
 20
246.4523056442
 30
0.0
 10
156.6237354301
 20
246.4403935361
 30
0.0
 10
156.6239388391
 20
246.4325373501
 30
0.0
 10
156.6240305585
 20
246.4281456928
 30
0.0
  0
SPLINE
  5
4A4
100
AcDbEntity
  8
03___PRT_ALL_CURVES
100
AcDbSpline
 62
40
  6
CONTINUOUS
 70
0
 71
3
 72
31
 73
27
 74
0
 42
0.0000001
 43
0.0000001
 44
0.0000000001
 40
0.0
 40
0.0
 40
0.0
 40
0.0
 40
0.025
 40
0.05
 40
0.075
 40
0.1
 40
0.15
 40
0.175
 40
0.2
 40
0.25
 40
0.3
 40
0.35
 40
0.4
 40
0.5
 40
0.6
 40
0.65
 40
0.7
 40
0.75
 40
0.8
 40
0.825
 40
0.85
 40
0.9
 40
0.925
 40
0.95
 40
0.975
 40
1.0
 40
1.0
 40
1.0
 40
1.0
 10
156.4517116349
 20
245.0313373899
 30
0.0
 10
156.4518780159
 20
245.0270377905
 30
0.0
 10
156.4522278857
 20
245.0193716929
 30
0.0
 10
156.4529055137
 20
245.0078125869
 30
0.0
 10
156.4536940517
 20
244.997025711
 30
0.0
 10
156.4548901578
 20
244.9834360909
 30
0.0
 10
156.4562788076
 20
244.9711860739
 30
0.0
 10
156.4578345515
 20
244.9602782479
 30
0.0
 10
156.4594861563
 20
244.9503244382
 30
0.0
 10
156.4617873715
 20
244.9393436948
 30
0.0
 10
156.4648827376
 20
244.9291003853
 30
0.0
 10
156.4681604849
 20
244.922518807
 30
0.0
 10
156.4724435283
 20
244.9188054553
 30
0.0
 10
156.4778905346
 20
244.9229379318
 30
0.0
 10
156.4828480847
 20
244.9388668077
 30
0.0
 10
156.4862098199
 20
244.9572543626
 30
0.0
 10
156.4885017081
 20
244.9744578573
 30
0.0
 10
156.4903755433
 20
244.9941195046
 30
0.0
 10
156.4915327979
 20
245.0116396098
 30
0.0
 10
156.4922196496
 20
245.0260252101
 30
0.0
 10
156.492759926
 20
245.0409002566
 30
0.0
 10
156.4930680734
 20
245.0563594483
 30
0.0
 10
156.493124182
 20
245.0723120638
 30
0.0
 10
156.4930354684
 20
245.0844159117
 30
0.0
 10
156.4928020821
 20
245.0968026169
 30
0.0
 10
156.4925649257
 20
245.1046754879
 30
0.0
 10
156.4924074188
 20
245.1089831035
 30
0.0
  0
SPLINE
  5
4A5
100
AcDbEntity
  8
03___PRT_ALL_CURVES
100
AcDbSpline
 62
40
  6
CONTINUOUS
 70
0
 71
3
 72
31
 73
27
 74
0
 42
0.0000001
 43
0.0000001
 44
0.0000000001
 40
0.0
 40
0.0
 40
0.0
 40
0.0
 40
0.025
 40
0.05
 40
0.075
 40
0.1
 40
0.15
 40
0.175
 40
0.2
 40
0.25
 40
0.3
 40
0.35
 40
0.4
 40
0.5
 40
0.6
 40
0.65
 40
0.7
 40
0.75
 40
0.8
 40
0.825
 40
0.85
 40
0.9
 40
0.925
 40
0.95
 40
0.975
 40
1.0
 40
1.0
 40
1.0
 40
1.0
 10
156.4102521775
 20
247.2340199213
 30
0.0
 10
156.4100770898
 20
247.2383153778
 30
0.0
 10
156.4097088585
 20
247.2459722592
 30
0.0
 10
156.408994533
 20
247.2575207999
 30
0.0
 10
156.4081616935
 20
247.2682992535
 30
0.0
 10
156.4068954777
 20
247.2818812915
 30
0.0
 10
156.4054199153
 20
247.2941290792
 30
0.0
 10
156.4037585401
 20
247.3050395763
 30
0.0
 10
156.4019889247
 20
247.3149981507
 30
0.0
 10
156.3995095606
 20
247.3259925414
 30
0.0
 10
156.3961463349
 20
247.3362531839
 30
0.0
 10
156.3925536026
 20
247.3428426995
 30
0.0
 10
156.3878209329
 20
247.3465534625
 30
0.0
 10
156.3817250171
 20
247.3424058716
 30
0.0
 10
156.3760810433
 20
247.3264536849
 30
0.0
 10
156.3722145051
 20
247.308046196
 30
0.0
 10
156.3695607179
 20
247.2908184944
 30
0.0
 10
156.3673795808
 20
247.2711330475
 30
0.0
 10
156.3660282701
 20
247.2536050747
 30
0.0
 10
156.3652254517
 20
247.2392242083
 30
0.0
 10
156.364593554
 20
247.2243574591
 30
0.0
 10
156.364233265
 20
247.2089133225
 30
0.0
 10
156.3641686115
 20
247.192981782
 30
0.0
 10
156.3642734727
 20
247.1808966166
 30
0.0
 10
156.3645477671
 20
247.1685310611
 30
0.0
 10
156.3648258314
 20
247.1606739132
 30
0.0
 10
156.3650103226
 20
247.1563742078
 30
0.0
  0
SPLINE
  5
4A6
100
AcDbEntity
  8
03___PRT_ALL_CURVES
100
AcDbSpline
 62
40
  6
CONTINUOUS
 70
0
 71
3
 72
31
 73
27
 74
0
 42
0.0000001
 43
0.0000001
 44
0.0000000001
 40
0.0
 40
0.0
 40
0.0
 40
0.0
 40
0.025
 40
0.05
 40
0.075
 40
0.1
 40
0.15
 40
0.175
 40
0.2
 40
0.25
 40
0.3
 40
0.35
 40
0.4
 40
0.5
 40
0.6
 40
0.65
 40
0.7
 40
0.75
 40
0.8
 40
0.825
 40
0.85
 40
0.9
 40
0.925
 40
0.95
 40
0.975
 40
1.0
 40
1.0
 40
1.0
 40
1.0
 10
156.7336635054
 20
245.5647898748
 30
0.0
 10
156.7337068657
 20
245.5603574841
 30
0.0
 10
156.7338116806
 20
245.5523995228
 30
0.0
 10
156.734046894
 20
245.5402757177
 30
0.0
 10
156.7343466203
 20
245.5288241292
 30
0.0
 10
156.7348279937
 20
245.5142224129
 30
0.0
 10
156.7354203639
 20
245.5007924428
 30
0.0
 10
156.7361093994
 20
245.4885599727
 30
0.0
 10
156.7368553278
 20
245.4771940348
 30
0.0
 10
156.7379175744
 20
245.4642561174
 30
0.0
 10
156.7393805732
 20
245.4513453013
 30
0.0
 10
156.7409627943
 20
245.4418578744
 30
0.0
 10
156.7430713116
 20
245.4342341189
 30
0.0
 10
156.7458207129
 20
245.4332401037
 30
0.0
 10
156.7484100557
 20
245.444310155
 30
0.0
 10
156.7502249368
 20
245.4593208099
 30
0.0
 10
156.7514981075
 20
245.4741672938
 30
0.0
 10
156.7525845089
 20
245.4918459766
 30
0.0
 10
156.7533008971
 20
245.508101202
 30
0.0
 10
156.7537604836
 20
245.5217130516
 30
0.0
 10
156.7541527404
 20
245.5359558922
 30
0.0
 10
156.7544370453
 20
245.5510100131
 30
0.0
 10
156.7546033639
 20
245.5668044291
 30
0.0
 10
156.7546659318
 20
245.5789184122
 30
0.0
 10
156.7546609094
 20
245.5914559212
 30
0.0
 10
156.7546147014
 20
245.5995131279
 30
0.0
 10
156.7545759845
 20
245.6039477325
 30
0.0
  0
SPLINE
  5
4A7
100
AcDbEntity
  8
03___PRT_ALL_CURVES
100
AcDbSpline
 62
40
  6
CONTINUOUS
 70
0
 71
3
 72
31
 73
27
 74
0
 42
0.0000001
 43
0.0000001
 44
0.0000000001
 40
0.0
 40
0.0
 40
0.0
 40
0.0
 40
0.025
 40
0.05
 40
0.075
 40
0.1
 40
0.15
 40
0.175
 40
0.2
 40
0.25
 40
0.3
 40
0.35
 40
0.4
 40
0.5
 40
0.6
 40
0.65
 40
0.7
 40
0.75
 40
0.8
 40
0.825
 40
0.85
 40
0.9
 40
0.925
 40
0.95
 40
0.975
 40
1.0
 40
1.0
 40
1.0
 40
1.0
 10
156.7344256436
 20
247.7851264275
 30
0.0
 10
156.7343824467
 20
247.7895586037
 30
0.0
 10
156.7342779856
 20
247.7975159408
 30
0.0
 10
156.7340431147
 20
247.8096390616
 30
0.0
 10
156.7337430309
 20
247.8210901286
 30
0.0
 10
156.7332595046
 20
247.8356915148
 30
0.0
 10
156.7326612661
 20
247.8491217375
 30
0.0
 10
156.7319599867
 20
247.8613549614
 30
0.0
 10
156.7311967377
 20
247.8727218595
 30
0.0
 10
156.7301007022
 20
247.8856614318
 30
0.0
 10
156.7285702291
 20
247.8985737981
 30
0.0
 10
156.7268887577
 20
247.9080615077
 30
0.0
 10
156.7246118976
 20
247.9156841225
 30
0.0
 10
156.7215687709
 20
247.9166742934
 30
0.0
 10
156.7186013696
 20
247.9055978655
 30
0.0
 10
156.7164746375
 20
247.8905796796
 30
0.0
 10
156.7149612746
 20
247.8757228633
 30
0.0
 10
156.7136530887
 20
247.8580330224
 30
0.0
 10
156.7127816661
 20
247.8417731313
 30
0.0
 10
156.7122196723
 20
247.8281623172
 30
0.0
 10
156.7117383856
 20
247.8139219445
 30
0.0
 10
156.7113879617
 20
247.7988731421
 30
0.0
 10
156.7111826189
 20
247.7830866477
 30
0.0
 10
156.7111053441
 20
247.7709799011
 30
0.0
 10
156.7111116564
 20
247.7584507196
 30
0.0
 10
156.7111688424
 20
247.7504000017
 30
0.0
 10
156.7112167018
 20
247.7459685698
 30
0.0
  0
LINE
  5
4A8
100
AcDbEntity
  8
03___PRT_ALL_CURVES
100
AcDbLine
 62
40
  6
CONTINUOUS
 10
156.8364630689
 20
247.956754847
 11
156.8367630701
 21
248.1067548469
  0
SPLINE
  5
4A9
100
AcDbEntity
  8
7_ALL_FEATURES
100
AcDbSpline
 62
3
  6
CONTINUOUS
 70
0
 71
3
 72
12
 73
8
 74
0
 42
0.0000001
 43
0.0000001
 44
0.0000000001
 40
0.0
 40
0.0
 40
0.0
 40
0.0
 40
0.2828944285
 40
0.5419458986
 40
0.777811368
 40
0.8899203884
 40
1.0
 40
1.0
 40
1.0
 40
1.0
 10
149.0410571373
 20
210.1988313724
 30
0.0
 10
149.0096294035
 20
210.1134523088
 30
0.0
 10
148.9321696922
 20
209.9553203957
 30
0.0
 10
148.7686324247
 20
209.7622439696
 30
0.0
 10
148.6001660935
 20
209.6557176257
 30
0.0
 10
148.4581721901
 20
209.6137510588
 30
0.0
 10
148.3865265189
 20
209.606754847
 30
0.0
 10
148.3511246246
 20
209.606754847
 30
0.0
  0
SPLINE
  5
4AA
100
AcDbEntity
  8
7_ALL_FEATURES
100
AcDbSpline
 62
3
  6
CONTINUOUS
 70
0
 71
3
 72
11
 73
7
 74
0
 42
0.0000001
 43
0.0000001
 44
0.0000000001
 40
0.0
 40
0.0
 40
0.0
 40
0.0
 40
0.2408198638
 40
0.4941501693
 40
0.7505632867
 40
1.0
 40
1.0
 40
1.0
 40
1.0
 10
152.0241353816
 20
223.9057277859
 30
0.0
 10
152.2126203807
 20
223.5563734034
 30
0.0
 10
152.5097305951
 20
222.7890090977
 30
0.0
 10
152.7064846722
 20
221.5595163323
 30
0.0
 10
152.6582438125
 20
220.3012603642
 30
0.0
 10
152.4589071003
 20
219.4840325137
 30
0.0
 10
152.3168768357
 20
219.0981818798
 30
0.0
  0
SPLINE
  5
4AB
100
AcDbEntity
  8
7_ALL_FEATURES
100
AcDbSpline
 62
3
  6
CONTINUOUS
 70
0
 71
3
 72
11
 73
7
 74
0
 42
0.0000001
 43
0.0000001
 44
0.0000000001
 40
0.0
 40
0.0
 40
0.0
 40
0.0
 40
0.2408198638
 40
0.4941501693
 40
0.7505632867
 40
1.0
 40
1.0
 40
1.0
 40
1.0
 10
144.2459607885
 20
223.9057277859
 30
0.0
 10
144.4344457876
 20
223.5563734034
 30
0.0
 10
144.7315560021
 20
222.7890090977
 30
0.0
 10
144.9283100791
 20
221.5595163323
 30
0.0
 10
144.8800692194
 20
220.3012603642
 30
0.0
 10
144.6807325073
 20
219.4840325137
 30
0.0
 10
144.5387022427
 20
219.0981818798
 30
0.0
  0
SPLINE
  5
4AC
100
AcDbEntity
  8
7_ALL_FEATURES
100
AcDbSpline
 62
3
  6
CONTINUOUS
 70
0
 71
3
 72
12
 73
8
 74
0
 42
0.0000001
 43
0.0000001
 44
0.0000000001
 40
0.0
 40
0.0
 40
0.0
 40
0.0
 40
0.2828944285
 40
0.5419458986
 40
0.777811368
 40
0.8899203884
 40
1.0
 40
1.0
 40
1.0
 40
1.0
 10
141.2628825442
 20
210.1988313724
 30
0.0
 10
141.2314548104
 20
210.1134523088
 30
0.0
 10
141.1539950992
 20
209.9553203957
 30
0.0
 10
140.9904578316
 20
209.7622439696
 30
0.0
 10
140.8219915004
 20
209.6557176257
 30
0.0
 10
140.6799975971
 20
209.6137510588
 30
0.0
 10
140.6083519258
 20
209.606754847
 30
0.0
 10
140.5729500316
 20
209.606754847
 30
0.0
  0
SPLINE
  5
4AD
100
AcDbEntity
  8
7_ALL_FEATURES
100
AcDbSpline
 62
3
  6
CONTINUOUS
 70
0
 71
3
 72
12
 73
8
 74
0
 42
0.0000001
 43
0.0000001
 44
0.0000000001
 40
0.0
 40
0.0
 40
0.0
 40
0.0
 40
0.2828944285
 40
0.5419458986
 40
0.777811368
 40
0.8899203884
 40
1.0
 40
1.0
 40
1.0
 40
1.0
 10
89.6324690029
 20
210.1988313724
 30
0.0
 10
89.6638967367
 20
210.1134523088
 30
0.0
 10
89.7413564479
 20
209.9553203957
 30
0.0
 10
89.9048937155
 20
209.7622439696
 30
0.0
 10
90.0733600467
 20
209.6557176257
 30
0.0
 10
90.21535395
 20
209.6137510588
 30
0.0
 10
90.2869996213
 20
209.606754847
 30
0.0
 10
90.3224015155
 20
209.606754847
 30
0.0
  0
SPLINE
  5
4AE
100
AcDbEntity
  8
7_ALL_FEATURES
100
AcDbSpline
 62
3
  6
CONTINUOUS
 70
0
 71
3
 72
11
 73
7
 74
0
 42
0.0000001
 43
0.0000001
 44
0.0000000001
 40
0.0
 40
0.0
 40
0.0
 40
0.0
 40
0.2408198638
 40
0.4941501693
 40
0.7505632867
 40
1.0
 40
1.0
 40
1.0
 40
1.0
 10
86.6493907586
 20
223.9057277859
 30
0.0
 10
86.4609057595
 20
223.5563734034
 30
0.0
 10
86.163795545
 20
222.7890090977
 30
0.0
 10
85.967041468
 20
221.5595163323
 30
0.0
 10
86.0152823277
 20
220.3012603642
 30
0.0
 10
86.2146190398
 20
219.4840325137
 30
0.0
 10
86.3566493044
 20
219.0981818798
 30
0.0
  0
SPLINE
  5
4AF
100
AcDbEntity
  8
7_ALL_FEATURES
100
AcDbSpline
 62
3
  6
CONTINUOUS
 70
0
 71
3
 72
12
 73
8
 74
0
 42
0.0000001
 43
0.0000001
 44
0.0000000001
 40
0.0
 40
0.0
 40
0.0
 40
0.0
 40
0.2828944285
 40
0.5419458986
 40
0.777811368
 40
0.8899203884
 40
1.0
 40
1.0
 40
1.0
 40
1.0
 10
97.4106435959
 20
210.1988313724
 30
0.0
 10
97.4420713297
 20
210.1134523088
 30
0.0
 10
97.519531041
 20
209.9553203957
 30
0.0
 10
97.6830683085
 20
209.7622439696
 30
0.0
 10
97.8515346397
 20
209.6557176257
 30
0.0
 10
97.9935285431
 20
209.6137510588
 30
0.0
 10
98.0651742143
 20
209.606754847
 30
0.0
 10
98.1005761086
 20
209.606754847
 30
0.0
  0
SPLINE
  5
4B0
100
AcDbEntity
  8
7_ALL_FEATURES
100
AcDbSpline
 62
3
  6
CONTINUOUS
 70
0
 71
3
 72
11
 73
7
 74
0
 42
0.0000001
 43
0.0000001
 44
0.0000000001
 40
0.0
 40
0.0
 40
0.0
 40
0.0
 40
0.2408198638
 40
0.4941501693
 40
0.7505632867
 40
1.0
 40
1.0
 40
1.0
 40
1.0
 10
94.4275653516
 20
223.9057277859
 30
0.0
 10
94.2390803525
 20
223.5563734034
 30
0.0
 10
93.9419701381
 20
222.7890090977
 30
0.0
 10
93.745216061
 20
221.5595163323
 30
0.0
 10
93.7934569207
 20
220.3012603642
 30
0.0
 10
93.9927936329
 20
219.4840325137
 30
0.0
 10
94.1348238975
 20
219.0981818798
 30
0.0
  0
SPLINE
  5
4B1
100
AcDbEntity
  8
7_ALL_FEATURES
100
AcDbSpline
 62
7
  6
CONTINUOUS
 70
0
 71
3
 72
11
 73
7
 74
0
 42
0.0000001
 43
0.0000001
 44
0.0000000001
 40
0.0
 40
0.0
 40
0.0
 40
0.0
 40
0.2831751286
 40
0.5424836409
 40
0.7785831462
 40
1.0
 40
1.0
 40
1.0
 40
1.0
 10
306.2680999359
 20
210.429705679
 30
0.0
 10
306.2509575357
 20
210.3831352807
 30
0.0
 10
306.2087415341
 20
210.2968804506
 30
0.0
 10
306.1193981733
 20
210.191570341
 30
0.0
 10
306.0114483009
 20
210.123009136
 30
0.0
 10
305.9305754708
 20
210.106754847
 30
0.0
 10
305.8917731108
 20
210.106754847
 30
0.0
  0
SPLINE
  5
4B2
100
AcDbEntity
  8
7_ALL_FEATURES
100
AcDbSpline
 62
7
  6
CONTINUOUS
 70
0
 71
3
 72
11
 73
7
 74
0
 42
0.0000001
 43
0.0000001
 44
0.0000000001
 40
0.0
 40
0.0
 40
0.0
 40
0.0
 40
0.2414252117
 40
0.4947937597
 40
0.7509014051
 40
1.0
 40
1.0
 40
1.0
 40
1.0
 10
309.3122495292
 20
223.5485902993
 30
0.0
 10
309.473427986
 20
223.2391905262
 30
0.0
 10
309.7264698192
 20
222.5629972819
 30
0.0
 10
309.8910582664
 20
221.4836614634
 30
0.0
 10
309.8439427809
 20
220.3818885371
 30
0.0
 10
309.6682608148
 20
219.6668512572
 30
0.0
 10
309.5439196344
 20
219.3290561864
 30
0.0
  0
SPLINE
  5
4B3
100
AcDbEntity
  8
7_ALL_FEATURES
100
AcDbSpline
 62
4
  6
CONTINUOUS
 70
0
 71
3
 72
28
 73
24
 74
0
 42
0.0000001
 43
0.0000001
 44
0.0000000001
 40
0.0
 40
0.0
 40
0.0
 40
0.0
 40
0.125
 40
0.15625
 40
0.1875
 40
0.25
 40
0.3125
 40
0.34375
 40
0.375
 40
0.4375
 40
0.46875
 40
0.5
 40
0.53125
 40
0.5625
 40
0.625
 40
0.65625
 40
0.6875
 40
0.75
 40
0.8125
 40
0.84375
 40
0.875
 40
0.9375
 40
1.0
 40
1.0
 40
1.0
 40
1.0
 10
311.2955190032
 20
212.6054913723
 30
0.0
 10
311.3160237744
 20
212.6166327772
 30
0.0
 10
311.3416346367
 20
212.6307645795
 30
0.0
 10
311.3724279767
 20
212.6471076041
 30
0.0
 10
311.3928282186
 20
212.6593152484
 30
0.0
 10
311.4182753366
 20
212.6750843991
 30
0.0
 10
311.4437667006
 20
212.6905228796
 30
0.0
 10
311.4640961487
 20
212.7032595961
 30
0.0
 10
311.4842021646
 20
212.7172858268
 30
0.0
 10
311.5043845933
 20
212.7308951606
 30
0.0
 10
311.5245053576
 20
212.7447880494
 30
0.0
 10
311.5397045113
 20
212.7547739481
 30
0.0
 10
311.5545001753
 20
212.7663531407
 30
0.0
 10
311.5743754237
 20
212.7812158207
 30
0.0
 10
311.5941714732
 20
212.7963493733
 30
0.0
 10
311.614094347
 20
212.8111024909
 30
0.0
 10
311.6336155218
 20
212.8270161851
 30
0.0
 10
311.657892516
 20
212.8473639302
 30
0.0
 10
311.6821766355
 20
212.8673332473
 30
0.0
 10
311.7016864099
 20
212.8838524262
 30
0.0
 10
311.7215355651
 20
212.902234064
 30
0.0
 10
311.7462297888
 20
212.9245678278
 30
0.0
 10
311.7660208921
 20
212.9426308871
 30
0.0
 10
311.7759119782
 20
212.9516379107
 30
0.0
  0
SPLINE
  5
4B4
100
AcDbEntity
  8
7_ALL_FEATURES
100
AcDbSpline
 62
4
  6
CONTINUOUS
 70
0
 71
3
 72
66
 73
62
 74
0
 42
0.0000001
 43
0.0000001
 44
0.0000000001
 40
0.0
 40
0.0
 40
0.0
 40
0.0
 40
0.0625
 40
0.09375
 40
0.109375
 40
0.1171875
 40
0.125
 40
0.1328125
 40
0.140625
 40
0.15625
 40
0.1875
 40
0.21875
 40
0.234375
 40
0.2421875
 40
0.25
 40
0.2578125
 40
0.265625
 40
0.28125
 40
0.3125
 40
0.34375
 40
0.359375
 40
0.3671875
 40
0.375
 40
0.3828125
 40
0.390625
 40
0.40625
 40
0.4375
 40
0.46875
 40
0.484375
 40
0.4921875
 40
0.5
 40
0.5078125
 40
0.515625
 40
0.53125
 40
0.5625
 40
0.59375
 40
0.609375
 40
0.6171875
 40
0.625
 40
0.6328125
 40
0.640625
 40
0.65625
 40
0.6875
 40
0.71875
 40
0.734375
 40
0.7421875
 40
0.75
 40
0.7578125
 40
0.765625
 40
0.78125
 40
0.8125
 40
0.84375
 40
0.859375
 40
0.8671875
 40
0.875
 40
0.8828125
 40
0.890625
 40
0.90625
 40
0.9375
 40
0.96875
 40
1.0
 40
1.0
 40
1.0
 40
1.0
 10
311.8458015235
 20
214.9367493835
 30
0.0
 10
311.8329105603
 20
214.928275978
 30
0.0
 10
311.8135690016
 20
214.9155883944
 30
0.0
 10
311.7910217483
 20
214.9007073776
 30
0.0
 10
311.7797257485
 20
214.8933654141
 30
0.0
 10
311.7733066885
 20
214.8890123345
 30
0.0
 10
311.7683913947
 20
214.8861923847
 30
0.0
 10
311.7638621976
 20
214.881671831
 30
0.0
 10
311.7576885054
 20
214.876237743
 30
0.0
 10
311.7469482139
 20
214.8664503754
 30
0.0
 10
311.731564559
 20
214.8526238843
 30
0.0
 10
311.7162211537
 20
214.8387045211
 30
0.0
 10
311.7054245127
 20
214.8290471745
 30
0.0
 10
311.6993393699
 20
214.8234087678
 30
0.0
 10
311.6945384872
 20
214.8195151008
 30
0.0
 10
311.6906435235
 20
214.8143408429
 30
0.0
 10
311.6851341221
 20
214.8078886039
 30
0.0
 10
311.6756411757
 20
214.7963881534
 30
0.0
 10
311.6619923508
 20
214.780075249
 30
0.0
 10
311.6484105491
 20
214.7636952589
 30
0.0
 10
311.6388237701
 20
214.7522887284
 30
0.0
 10
311.63346182
 20
214.7456889009
 30
0.0
 10
311.6291144489
 20
214.7409674711
 30
0.0
 10
311.6260126074
 20
214.7353731829
 30
0.0
 10
311.6214422147
 20
214.7282186376
 30
0.0
 10
311.613648017
 20
214.7155558788
 30
0.0
 10
311.6023947326
 20
214.6975440804
 30
0.0
 10
311.5912277619
 20
214.6794919099
 30
0.0
 10
311.5833127249
 20
214.666885672
 30
0.0
 10
311.5789322226
 20
214.6596423081
 30
0.0
 10
311.5752477627
 20
214.6543205313
 30
0.0
 10
311.5730884478
 20
214.6485756697
 30
0.0
 10
311.5696772037
 20
214.6410634274
 30
0.0
 10
311.5639571736
 20
214.6278482806
 30
0.0
 10
311.5556414607
 20
214.6090051532
 30
0.0
 10
311.5474271947
 20
214.5901503117
 30
0.0
 10
311.5415651389
 20
214.5769515644
 30
0.0
 10
311.5383770779
 20
214.5694135515
 30
0.0
 10
311.5355329967
 20
214.563747759
 30
0.0
 10
311.5344202149
 20
214.5581290336
 30
0.0
 10
311.532332427
 20
214.5506209327
 30
0.0
 10
311.5289620781
 20
214.537489925
 30
0.0
 10
311.5239844754
 20
214.5187230755
 30
0.0
 10
311.5191185663
 20
214.4999737343
 30
0.0
 10
311.5155918465
 20
214.4868182149
 30
0.0
 10
311.5137497844
 20
214.4793486324
 30
0.0
 10
311.5118830711
 20
214.4736117258
 30
0.0
 10
311.5118704216
 20
214.4683897693
 30
0.0
 10
311.5112066492
 20
214.4612474562
 30
0.0
 10
311.5103483423
 20
214.4488329801
 30
0.0
 10
311.5089484178
 20
214.4310470043
 30
0.0
 10
311.507665876
 20
214.4133039789
 30
0.0
 10
311.5066432334
 20
214.4008293723
 30
0.0
 10
311.5062377029
 20
214.39378155
 30
0.0
 10
311.5054327202
 20
214.3882696785
 30
0.0
 10
311.5065416583
 20
214.383621564
 30
0.0
 10
311.5073526443
 20
214.3771227894
 30
0.0
 10
311.5090829287
 20
214.3658903156
 30
0.0
 10
311.5113920365
 20
214.3497704852
 30
0.0
 10
311.5142330637
 20
214.3304583241
 30
0.0
 10
311.5161137299
 20
214.3175775242
 30
0.0
 10
311.5170557319
 20
214.3111378775
 30
0.0
  0
SPLINE
  5
4B5
100
AcDbEntity
  8
7_ALL_FEATURES
100
AcDbSpline
 62
4
  6
CONTINUOUS
 70
0
 71
3
 72
50
 73
46
 74
0
 42
0.0000001
 43
0.0000001
 44
0.0000000001
 40
0.0
 40
0.0
 40
0.0
 40
0.0
 40
0.0625
 40
0.125
 40
0.140625
 40
0.15625
 40
0.1640625
 40
0.171875
 40
0.1875
 40
0.21875
 40
0.25
 40
0.28125
 40
0.3125
 40
0.328125
 40
0.3359375
 40
0.34375
 40
0.359375
 40
0.375
 40
0.4375
 40
0.46875
 40
0.484375
 40
0.4921875
 40
0.5
 40
0.5078125
 40
0.515625
 40
0.53125
 40
0.5625
 40
0.625
 40
0.640625
 40
0.65625
 40
0.6640625
 40
0.671875
 40
0.6875
 40
0.71875
 40
0.75
 40
0.78125
 40
0.8125
 40
0.828125
 40
0.8359375
 40
0.84375
 40
0.859375
 40
0.875
 40
0.90625
 40
0.9375
 40
1.0
 40
1.0
 40
1.0
 40
1.0
 10
311.1677551209
 20
213.5966415332
 30
0.0
 10
311.1550423914
 20
213.5857032251
 30
0.0
 10
311.1296094697
 20
213.5638387099
 30
0.0
 10
311.1010310145
 20
213.5391866752
 30
0.0
 10
311.0819297379
 20
213.5228313991
 30
0.0
 10
311.0740431664
 20
213.5158994709
 30
0.0
 10
311.0675653014
 20
213.5106273386
 30
0.0
 10
311.0617040325
 20
213.5043553492
 30
0.0
 10
311.0517335111
 20
213.4929145541
 30
0.0
 10
311.0373387471
 20
213.4768149663
 30
0.0
 10
311.020135296
 20
213.4573847472
 30
0.0
 10
311.002892641
 20
213.4380063348
 30
0.0
 10
310.9885958869
 20
213.4217772302
 30
0.0
 10
310.9784538482
 20
213.4105630895
 30
0.0
 10
310.9728670071
 20
213.403928453
 30
0.0
 10
310.9680655556
 20
213.3964410684
 30
0.0
 10
310.961795039
 20
213.3873734
 30
0.0
 10
310.9469691712
 20
213.3653702417
 30
0.0
 10
310.9295742073
 20
213.3397874385
 30
0.0
 10
310.9122781472
 20
213.3141526509
 30
0.0
 10
310.9035406323
 20
213.3013607049
 30
0.0
 10
310.8986870402
 20
213.294014823
 30
0.0
 10
310.8946545926
 20
213.2886067359
 30
0.0
 10
310.8921215221
 20
213.282811451
 30
0.0
 10
310.8882210655
 20
213.2752194659
 30
0.0
 10
310.8816392533
 20
213.2618705386
 30
0.0
 10
310.8682936908
 20
213.235219052
 30
0.0
 10
310.8550638097
 20
213.2085411714
 30
0.0
 10
310.8436059786
 20
213.1856978552
 30
0.0
 10
310.8389733509
 20
213.1761533109
 30
0.0
 10
310.8349395174
 20
213.1685789217
 30
0.0
 10
310.8321034345
 20
213.1607807443
 30
0.0
 10
310.8276971436
 20
213.1470300105
 30
0.0
 10
310.8211090588
 20
213.1274399973
 30
0.0
 10
310.8133387885
 20
213.1039108376
 30
0.0
 10
310.8054962059
 20
213.0803800256
 30
0.0
 10
310.799088902
 20
213.0607941431
 30
0.0
 10
310.7943662444
 20
213.0470361805
 30
0.0
 10
310.7920363483
 20
213.0392495691
 30
0.0
 10
310.7910948696
 20
213.0317458607
 30
0.0
 10
310.7894426287
 20
213.0222693595
 30
0.0
 10
310.7870647203
 20
213.0071610918
 30
0.0
 10
310.7840013276
 20
212.9882572136
 30
0.0
 10
310.7791509911
 20
212.9580214189
 30
0.0
 10
310.775501743
 20
212.9353422306
 30
0.0
 10
310.7730714656
 20
212.9202232922
 30
0.0
  0
SPLINE
  5
4B6
100
AcDbEntity
  8
7_ALL_FEATURES
100
AcDbSpline
 62
4
  6
CONTINUOUS
 70
0
 71
3
 72
43
 73
39
 74
0
 42
0.0000001
 43
0.0000001
 44
0.0000000001
 40
0.0
 40
0.0
 40
0.0
 40
0.0
 40
0.0625
 40
0.125
 40
0.140625
 40
0.15625
 40
0.171875
 40
0.1875
 40
0.21875
 40
0.25
 40
0.28125
 40
0.3125
 40
0.328125
 40
0.3359375
 40
0.34375
 40
0.359375
 40
0.375
 40
0.4375
 40
0.46875
 40
0.484375
 40
0.5
 40
0.515625
 40
0.53125
 40
0.5625
 40
0.625
 40
0.640625
 40
0.65625
 40
0.671875
 40
0.6875
 40
0.71875
 40
0.75
 40
0.78125
 40
0.8125
 40
0.828125
 40
0.84375
 40
0.875
 40
0.9375
 40
1.0
 40
1.0
 40
1.0
 40
1.0
 10
312.2500862803
 20
214.9367493835
 30
0.0
 10
312.2437481429
 20
214.9411408579
 30
0.0
 10
312.231066936
 20
214.9499161415
 30
0.0
 10
312.2168227728
 20
214.9598228297
 30
0.0
 10
312.2072942968
 20
214.9663769844
 30
0.0
 10
312.2025873951
 20
214.9697431717
 30
0.0
 10
312.1976576217
 20
214.9727629802
 30
0.0
 10
312.1900236608
 20
214.9751405124
 30
0.0
 10
312.1808461232
 20
214.9786796454
 30
0.0
 10
312.1696728876
 20
214.9826772784
 30
0.0
 10
312.1585565525
 20
214.986764669
 30
0.0
 10
312.1492367634
 20
214.9900794082
 30
0.0
 10
312.1428059878
 20
214.9925524379
 30
0.0
 10
312.1389885518
 20
214.9937312312
 30
0.0
 10
312.1346344268
 20
214.9940286446
 30
0.0
 10
312.1293750995
 20
214.9947012065
 30
0.0
 10
312.1166028238
 20
214.9960718615
 30
0.0
 10
312.1017394852
 20
214.9977042961
 30
0.0
 10
312.0868943512
 20
214.9994497764
 30
0.0
 10
312.0783543927
 20
215.0002305413
 30
0.0
 10
312.0721152968
 20
215.0014337735
 30
0.0
 10
312.0652412213
 20
215.0002746977
 30
0.0
 10
312.056297469
 20
214.999553865
 30
0.0
 10
312.0405406723
 20
214.997902169
 30
0.0
 10
312.024833342
 20
214.9964273267
 30
0.0
 10
312.0113390811
 20
214.9950629457
 30
0.0
 10
312.0046253541
 20
214.9944801569
 30
0.0
 10
311.9977841804
 20
214.9935198075
 30
0.0
 10
311.9880569349
 20
214.9904446776
 30
0.0
 10
311.9761058829
 20
214.987220453
 30
0.0
 10
311.9616747181
 20
214.9830688778
 30
0.0
 10
311.9472703552
 20
214.979055825
 30
0.0
 10
311.9352522983
 20
214.9754852945
 30
0.0
 10
311.9256590627
 20
214.9731027764
 30
0.0
 10
311.915992524
 20
214.9690056888
 30
0.0
 10
311.8990422003
 20
214.9610395243
 30
0.0
 10
311.8748452843
 20
214.9500783742
 30
0.0
 10
311.8554823169
 20
214.941181733
 30
0.0
 10
311.8458015125
 20
214.9367493775
 30
0.0
  0
SPLINE
  5
4B7
100
AcDbEntity
  8
7_ALL_FEATURES
100
AcDbSpline
 62
4
  6
CONTINUOUS
 70
0
 71
3
 72
59
 73
55
 74
0
 42
0.0000001
 43
0.0000001
 44
0.0000000001
 40
0.0
 40
0.0
 40
0.0
 40
0.0
 40
0.0625
 40
0.09375
 40
0.1015625
 40
0.109375
 40
0.125
 40
0.140625
 40
0.15625
 40
0.1875
 40
0.203125
 40
0.21875
 40
0.234375
 40
0.25
 40
0.28125
 40
0.3125
 40
0.328125
 40
0.3359375
 40
0.34375
 40
0.359375
 40
0.375
 40
0.40625
 40
0.421875
 40
0.4375
 40
0.46875
 40
0.5
 40
0.53125
 40
0.5625
 40
0.578125
 40
0.59375
 40
0.625
 40
0.640625
 40
0.65625
 40
0.6640625
 40
0.671875
 40
0.6875
 40
0.71875
 40
0.75
 40
0.765625
 40
0.78125
 40
0.7890625
 40
0.796875
 40
0.8125
 40
0.828125
 40
0.84375
 40
0.859375
 40
0.875
 40
0.8828125
 40
0.890625
 40
0.8984375
 40
0.90625
 40
0.921875
 40
0.9375
 40
1.0
 40
1.0
 40
1.0
 40
1.0
 10
312.0494442159
 20
214.2520814283
 30
0.0
 10
312.0632209067
 20
214.2640201754
 30
0.0
 10
312.0838621316
 20
214.2819656097
 30
0.0
 10
312.1063008452
 20
214.3012852275
 30
0.0
 10
312.1165827643
 20
214.3103185793
 30
0.0
 10
312.1236199302
 20
214.3160547426
 30
0.0
 10
312.1310844447
 20
214.3253121785
 30
0.0
 10
312.1404220933
 20
214.3358264423
 30
0.0
 10
312.1527293261
 20
214.3500633733
 30
0.0
 10
312.1651338878
 20
214.3641821473
 30
0.0
 10
312.1773536869
 20
214.3784919578
 30
0.0
 10
312.1869754953
 20
214.3887693631
 30
0.0
 10
312.1948618488
 20
214.4007710605
 30
0.0
 10
312.2053281778
 20
214.4168182521
 30
0.0
 10
312.2184576022
 20
214.4368551993
 30
0.0
 10
312.2314619857
 20
214.4569241556
 30
0.0
 10
312.2407950807
 20
214.4709206355
 30
0.0
 10
312.2457714589
 20
214.4789978032
 30
0.0
 10
312.2494039485
 20
214.487372818
 30
0.0
 10
312.2544064906
 20
214.4977393896
 30
0.0
 10
312.262141983
 20
214.51438427
 30
0.0
 10
312.2700107483
 20
214.5310059854
 30
0.0
 10
312.2776811261
 20
214.5476534212
 30
0.0
 10
312.285967357
 20
214.5642288622
 30
0.0
 10
312.2919542311
 20
214.5854559742
 30
0.0
 10
312.2995350817
 20
214.6108952787
 30
0.0
 10
312.3069058435
 20
214.6363110823
 30
0.0
 10
312.3134179394
 20
214.6575969464
 30
0.0
 10
312.3146462416
 20
214.6733832919
 30
0.0
 10
312.3165759486
 20
214.6893892608
 30
0.0
 10
312.3182786008
 20
214.7053198351
 30
0.0
 10
312.3201363637
 20
214.7213118756
 30
0.0
 10
312.3210989012
 20
214.7312160642
 30
0.0
 10
312.3223067078
 20
214.7393420567
 30
0.0
 10
312.3219222595
 20
214.7467301522
 30
0.0
 10
312.3205110087
 20
214.7593172265
 30
0.0
 10
312.3188734347
 20
214.7774728221
 30
0.0
 10
312.3171284687
 20
214.7955837793
 30
0.0
 10
312.315687438
 20
214.8100404287
 30
0.0
 10
312.3149531344
 20
214.8191784445
 30
0.0
 10
312.3123719656
 20
214.8252649874
 30
0.0
 10
312.3101390196
 20
214.8315652915
 30
0.0
 10
312.3072283236
 20
214.8393672991
 30
0.0
 10
312.3037868192
 20
214.8487612547
 30
0.0
 10
312.3003312134
 20
214.8581464207
 30
0.0
 10
312.2968806821
 20
214.8675351985
 30
0.0
 10
312.2940000756
 20
214.8753544653
 30
0.0
 10
312.2917054461
 20
214.8816193882
 30
0.0
 10
312.2899580053
 20
214.8862923807
 30
0.0
 10
312.2868376029
 20
214.8896318584
 30
0.0
 10
312.2831565805
 20
214.8945502325
 30
0.0
 10
312.2783913509
 20
214.9005389591
 30
0.0
 10
312.2670901922
 20
214.9150434052
 30
0.0
 10
312.2576373016
 20
214.9270961983
 30
0.0
 10
312.2500862718
 20
214.9367493913
 30
0.0
  0
SPLINE
  5
4B8
100
AcDbEntity
  8
7_ALL_FEATURES
100
AcDbSpline
 62
4
  6
CONTINUOUS
 70
0
 71
3
 72
76
 73
72
 74
0
 42
0.0000001
 43
0.0000001
 44
0.0000000001
 40
0.0
 40
0.0
 40
0.0
 40
0.0
 40
0.03125
 40
0.0625
 40
0.09375
 40
0.109375
 40
0.1171875
 40
0.125
 40
0.1328125
 40
0.140625
 40
0.15625
 40
0.1875
 40
0.21875
 40
0.234375
 40
0.2421875
 40
0.24609375
 40
0.25
 40
0.25390625
 40
0.2578125
 40
0.265625
 40
0.28125
 40
0.3125
 40
0.34375
 40
0.359375
 40
0.3671875
 40
0.37109375
 40
0.375
 40
0.37890625
 40
0.3828125
 40
0.390625
 40
0.40625
 40
0.4375
 40
0.46875
 40
0.484375
 40
0.4921875
 40
0.49609375
 40
0.5
 40
0.50390625
 40
0.5078125
 40
0.515625
 40
0.53125
 40
0.5625
 40
0.59375
 40
0.609375
 40
0.6171875
 40
0.62109375
 40
0.625
 40
0.62890625
 40
0.6328125
 40
0.640625
 40
0.65625
 40
0.6875
 40
0.71875
 40
0.734375
 40
0.7421875
 40
0.75
 40
0.7578125
 40
0.765625
 40
0.78125
 40
0.8125
 40
0.84375
 40
0.859375
 40
0.8671875
 40
0.875
 40
0.8828125
 40
0.890625
 40
0.90625
 40
0.921875
 40
0.9375
 40
0.96875
 40
1.0
 40
1.0
 40
1.0
 40
1.0
 10
310.7730714661
 20
212.9202233003
 30
0.0
 10
310.773324494
 20
212.9113433481
 30
0.0
 10
310.7738346672
 20
212.8935856344
 30
0.0
 10
310.7745752219
 20
212.8669359203
 30
0.0
 10
310.7752644075
 20
212.8447661602
 30
0.0
 10
310.7756063268
 20
212.8291725749
 30
0.0
 10
310.7760209676
 20
212.8203786027
 30
0.0
 10
310.7757143191
 20
212.8134545376
 30
0.0
 10
310.7777685578
 20
212.8077864924
 30
0.0
 10
310.7796841093
 20
212.7997910465
 30
0.0
 10
310.78341927
 20
212.7860024958
 30
0.0
 10
310.7885606992
 20
212.7662031513
 30
0.0
 10
310.7937507667
 20
212.7464218863
 30
0.0
 10
310.7974178338
 20
212.7326080242
 30
0.0
 10
310.79918757
 20
212.7256468121
 30
0.0
 10
310.8003033548
 20
212.7217573123
 30
0.0
 10
310.8008449004
 20
212.7185906893
 30
0.0
 10
310.8025153642
 20
212.7163778911
 30
0.0
 10
310.8043488992
 20
212.7130948119
 30
0.0
 10
310.8077407475
 20
212.7075041943
 30
0.0
 10
310.8143936876
 20
212.6962122844
 30
0.0
 10
310.8239720168
 20
212.6801452193
 30
0.0
 10
310.83350289
 20
212.6640320244
 30
0.0
 10
310.8402222685
 20
212.652804696
 30
0.0
 10
310.843522764
 20
212.6471252789
 30
0.0
 10
310.8455034125
 20
212.6439852016
 30
0.0
 10
310.8467218582
 20
212.6413330185
 30
0.0
 10
310.8489611412
 20
212.6398166836
 30
0.0
 10
310.8515907991
 20
212.6373987352
 30
0.0
 10
310.8563583234
 20
212.633351627
 30
0.0
 10
310.865775174
 20
212.6251256765
 30
0.0
 10
310.8792945273
 20
212.6134503167
 30
0.0
 10
310.8927721813
 20
212.6017218868
 30
0.0
 10
310.9022474108
 20
212.5935702343
 30
0.0
 10
310.9069346642
 20
212.5894209663
 30
0.0
 10
310.9096935896
 20
212.587167535
 30
0.0
 10
310.9115356879
 20
212.5851457077
 30
0.0
 10
310.9142459215
 20
212.5843921065
 30
0.0
 10
310.9175567741
 20
212.582944965
 30
0.0
 10
310.9234916106
 20
212.5806182441
 30
0.0
 10
310.9352608102
 20
212.5758177666
 30
0.0
 10
310.9521303268
 20
212.5690443813
 30
0.0
 10
310.9689657238
 20
212.5622133051
 30
0.0
 10
310.980782691
 20
212.5574935947
 30
0.0
 10
310.9866518469
 20
212.5550558189
 30
0.0
 10
310.9900684708
 20
212.5537875191
 30
0.0
 10
310.9924537138
 20
212.5524844125
 30
0.0
 10
310.9955164459
 20
212.5525264756
 30
0.0
 10
310.999363802
 20
212.5521134147
 30
0.0
 10
311.0062064746
 20
212.5516084862
 30
0.0
 10
311.0198147323
 20
212.5504465044
 30
0.0
 10
311.0392884242
 20
212.5488451548
 30
0.0
 10
311.0587756542
 20
212.5472990689
 30
0.0
 10
311.0723649585
 20
212.5460597179
 30
0.0
 10
311.0802149396
 20
212.5456042368
 30
0.0
 10
311.08586322
 20
212.5445493505
 30
0.0
 10
311.09242599
 20
212.5462212065
 30
0.0
 10
311.100857305
 20
212.5474989605
 30
0.0
 10
311.1157613651
 20
212.5501809989
 30
0.0
 10
311.1369699365
 20
212.553757594
 30
0.0
 10
311.1582259776
 20
212.5575042774
 30
0.0
 10
311.1730635802
 20
212.5599481923
 30
0.0
 10
311.1815993285
 20
212.5616001404
 30
0.0
 10
311.187841678
 20
212.562123901
 30
0.0
 10
311.1946933152
 20
212.5653807506
 30
0.0
 10
311.2036159994
 20
212.5687685131
 30
0.0
 10
311.2148423764
 20
212.5733307712
 30
0.0
 10
311.2282827722
 20
212.5786652729
 30
0.0
 10
311.2462142218
 20
212.585826934
 30
0.0
 10
311.2686247614
 20
212.5947620887
 30
0.0
 10
311.2865543428
 20
212.6019153696
 30
0.0
 10
311.2955189898
 20
212.6054913654
 30
0.0
  0
SPLINE
  5
4B9
100
AcDbEntity
  8
7_ALL_FEATURES
100
AcDbSpline
 62
7
  6
CONTINUOUS
 70
0
 71
3
 72
11
 73
7
 74
0
 42
0.0000001
 43
0.0000001
 44
0.0000000001
 40
0.0
 40
0.0
 40
0.0
 40
0.0
 40
0.2831751286
 40
0.5424836409
 40
0.7785831462
 40
1.0
 40
1.0
 40
1.0
 40
1.0
 10
263.0430723627
 20
210.429705679
 30
0.0
 10
263.060214763
 20
210.3831352807
 30
0.0
 10
263.1024307645
 20
210.2968804506
 30
0.0
 10
263.1917741253
 20
210.191570341
 30
0.0
 10
263.2997239977
 20
210.123009136
 30
0.0
 10
263.3805968279
 20
210.106754847
 30
0.0
 10
263.4193991878
 20
210.106754847
 30
0.0
  0
SPLINE
  5
4BA
100
AcDbEntity
  8
7_ALL_FEATURES
100
AcDbSpline
 62
7
  6
CONTINUOUS
 70
0
 71
3
 72
11
 73
7
 74
0
 42
0.0000001
 43
0.0000001
 44
0.0000000001
 40
0.0
 40
0.0
 40
0.0
 40
0.0
 40
0.2414252117
 40
0.4947937597
 40
0.7509014051
 40
1.0
 40
1.0
 40
1.0
 40
1.0
 10
259.9989227694
 20
223.5485902993
 30
0.0
 10
259.8377443126
 20
223.2391905262
 30
0.0
 10
259.5847024794
 20
222.5629972819
 30
0.0
 10
259.4201140323
 20
221.4836614634
 30
0.0
 10
259.4672295177
 20
220.3818885371
 30
0.0
 10
259.6429114839
 20
219.6668512572
 30
0.0
 10
259.7672526643
 20
219.3290561864
 30
0.0
  0
SPLINE
  5
4BB
100
AcDbEntity
  8
7_ALL_FEATURES
100
AcDbSpline
 62
4
  6
CONTINUOUS
 70
0
 71
3
 72
72
 73
68
 74
0
 42
0.0000001
 43
0.0000001
 44
0.0000000001
 40
0.0
 40
0.0
 40
0.0
 40
0.0
 40
0.03125
 40
0.0625
 40
0.09375
 40
0.109375
 40
0.1171875
 40
0.125
 40
0.1328125
 40
0.140625
 40
0.15625
 40
0.1875
 40
0.21875
 40
0.234375
 40
0.2421875
 40
0.25
 40
0.2578125
 40
0.265625
 40
0.28125
 40
0.3125
 40
0.34375
 40
0.359375
 40
0.3671875
 40
0.375
 40
0.3828125
 40
0.390625
 40
0.40625
 40
0.4375
 40
0.46875
 40
0.484375
 40
0.4921875
 40
0.5
 40
0.5078125
 40
0.515625
 40
0.53125
 40
0.5625
 40
0.59375
 40
0.609375
 40
0.6171875
 40
0.625
 40
0.6328125
 40
0.640625
 40
0.65625
 40
0.6875
 40
0.71875
 40
0.734375
 40
0.7421875
 40
0.74609375
 40
0.75
 40
0.75390625
 40
0.7578125
 40
0.765625
 40
0.78125
 40
0.8125
 40
0.84375
 40
0.859375
 40
0.8671875
 40
0.87109375
 40
0.875
 40
0.87890625
 40
0.8828125
 40
0.890625
 40
0.90625
 40
0.921875
 40
0.9375
 40
0.96875
 40
1.0
 40
1.0
 40
1.0
 40
1.0
 10
257.1391882834
 20
212.9202233003
 30
0.0
 10
257.1459786698
 20
212.9113433481
 30
0.0
 10
257.1595619473
 20
212.8935856345
 30
0.0
 10
257.1799218343
 20
212.86693592
 30
0.0
 10
257.1969322422
 20
212.8447661612
 30
0.0
 10
257.2087540486
 20
212.8291725736
 30
0.0
 10
257.2156427517
 20
212.8203786051
 30
0.0
 10
257.2204335463
 20
212.8134545287
 30
0.0
 10
257.226660579
 20
212.8077865257
 30
0.0
 10
257.2344622277
 20
212.7997908698
 30
0.0
 10
257.2483494253
 20
212.7860045604
 30
0.0
 10
257.2680588689
 20
212.7661870549
 30
0.0
 10
257.2878396437
 20
212.7464681109
 30
0.0
 10
257.3016269776
 20
212.7325438153
 30
0.0
 10
257.3095855549
 20
212.7247649948
 30
0.0
 10
257.3153311022
 20
212.7184317014
 30
0.0
 10
257.321930142
 20
212.7140061603
 30
0.0
 10
257.3304311163
 20
212.7074397707
 30
0.0
 10
257.3454469239
 20
212.6962609709
 30
0.0
 10
257.366822315
 20
212.6801099524
 30
0.0
 10
257.388235799
 20
212.6640891385
 30
0.0
 10
257.4031982767
 20
212.6527280523
 30
0.0
 10
257.4117830552
 20
212.6464481128
 30
0.0
 10
257.4181249684
 20
212.6411436906
 30
0.0
 10
257.4248361688
 20
212.638111084
 30
0.0
 10
257.4336556361
 20
212.6332749248
 30
0.0
 10
257.4491495977
 20
212.6251834713
 30
0.0
 10
257.4712534523
 20
212.6134097438
 30
0.0
 10
257.4933647285
 20
212.6017858107
 30
0.0
 10
257.5088482999
 20
212.5934846449
 30
0.0
 10
257.5176840947
 20
212.5889780334
 30
0.0
 10
257.5243451995
 20
212.5849343145
 30
0.0
 10
257.5308752495
 20
212.583427181
 30
0.0
 10
257.5396277565
 20
212.5805326158
 30
0.0
 10
257.5549227119
 20
212.5758821436
 30
0.0
 10
257.5767889851
 20
212.5690002761
 30
0.0
 10
257.5986316853
 20
212.5622812435
 30
0.0
 10
257.6139596429
 20
212.5574028024
 30
0.0
 10
257.6226602893
 20
212.5548664742
 30
0.0
 10
257.6293494571
 20
212.5522602044
 30
0.0
 10
257.6354129863
 20
212.5523443528
 30
0.0
 10
257.6437158862
 20
212.5515181881
 30
0.0
 10
257.6581446563
 20
212.5505087419
 30
0.0
 10
257.6788072832
 20
212.5488454613
 30
0.0
 10
257.6994624788
 20
212.5472359118
 30
0.0
 10
257.7139016526
 20
212.546151242
 30
0.0
 10
257.7211523849
 20
212.5455317804
 30
0.0
 10
257.7252450489
 20
212.5453040174
 30
0.0
 10
257.728457483
 20
212.544776586
 30
0.0
 10
257.7311234782
 20
212.5456124841
 30
0.0
 10
257.7348687296
 20
212.5462515048
 30
0.0
 10
257.7413342491
 20
212.5475909937
 30
0.0
 10
257.7543287296
 20
212.5501119676
 30
0.0
 10
257.7728551769
 20
212.5538036633
 30
0.0
 10
257.7914091682
 20
212.557435101
 30
0.0
 10
257.8043650871
 20
212.5600404361
 30
0.0
 10
257.8108836288
 20
212.5612639283
 30
0.0
 10
257.8145434937
 20
212.5620897489
 30
0.0
 10
257.8174718456
 20
212.5623516891
 30
0.0
 10
257.8196988926
 20
212.5639799895
 30
0.0
 10
257.8229129115
 20
212.5656744548
 30
0.0
 10
257.8284234703
 20
212.5688618269
 30
0.0
 10
257.8363552844
 20
212.5732991209
 30
0.0
 10
257.8458479553
 20
212.5786735674
 30
0.0
 10
257.8585137622
 20
212.5858221319
 30
0.0
 10
257.8743429427
 20
212.5947638349
 30
0.0
 10
257.8870072251
 20
212.6019153696
 30
0.0
 10
257.8933392491
 20
212.6054913654
 30
0.0
  0
SPLINE
  5
4BC
100
AcDbEntity
  8
7_ALL_FEATURES
100
AcDbSpline
 62
4
  6
CONTINUOUS
 70
0
 71
3
 72
30
 73
26
 74
0
 42
0.0000001
 43
0.0000001
 44
0.0000000001
 40
0.0
 40
0.0
 40
0.0
 40
0.0
 40
0.0625
 40
0.125
 40
0.15625
 40
0.1875
 40
0.25
 40
0.3125
 40
0.34375
 40
0.375
 40
0.4375
 40
0.46875
 40
0.5
 40
0.53125
 40
0.5625
 40
0.625
 40
0.65625
 40
0.6875
 40
0.75
 40
0.8125
 40
0.828125
 40
0.84375
 40
0.875
 40
0.9375
 40
1.0
 40
1.0
 40
1.0
 40
1.0
 10
257.8933392575
 20
212.6054913723
 30
0.0
 10
257.899490531
 20
212.6110620747
 30
0.0
 10
257.911822357
 20
212.6221683827
 30
0.0
 10
257.9270907449
 20
212.6362267527
 30
0.0
 10
257.9396128838
 20
212.6471049301
 30
0.0
 10
257.9510224239
 20
212.6593167937
 30
0.0
 10
257.964862141
 20
212.6750838618
 30
0.0
 10
257.9789873004
 20
212.6905229461
 30
0.0
 10
257.9899401329
 20
212.7032595838
 30
0.0
 10
257.9997201198
 20
212.7172858342
 30
0.0
 10
258.0098834605
 20
212.7308951578
 30
0.0
 10
258.0197763739
 20
212.7447880525
 30
0.0
 10
258.027623987
 20
212.7547739369
 30
0.0
 10
258.0338951015
 20
212.7663531821
 30
0.0
 10
258.0428286936
 20
212.7812156008
 30
0.0
 10
258.051482647
 20
212.7963507472
 30
0.0
 10
258.0605464368
 20
212.8111001415
 30
0.0
 10
258.0683437326
 20
212.8270289074
 30
0.0
 10
258.0777046757
 20
212.8472611758
 30
0.0
 10
258.0861311397
 20
212.8655920268
 30
0.0
 10
258.0919389287
 20
212.8774489229
 30
0.0
 10
258.0953030134
 20
212.8862691729
 30
0.0
 10
258.1009433844
 20
212.9021481977
 30
0.0
 10
258.10913094
 20
212.9245990519
 30
0.0
 10
258.1156414012
 20
212.9426308871
 30
0.0
 10
258.1189015797
 20
212.9516379107
 30
0.0
  0
SPLINE
  5
4BD
100
AcDbEntity
  8
7_ALL_FEATURES
100
AcDbSpline
 62
4
  6
CONTINUOUS
 70
0
 71
3
 72
66
 73
62
 74
0
 42
0.0000001
 43
0.0000001
 44
0.0000000001
 40
0.0
 40
0.0
 40
0.0
 40
0.0
 40
0.03125
 40
0.0625
 40
0.09375
 40
0.109375
 40
0.1171875
 40
0.125
 40
0.1328125
 40
0.140625
 40
0.15625
 40
0.1875
 40
0.21875
 40
0.234375
 40
0.2421875
 40
0.25
 40
0.2578125
 40
0.265625
 40
0.28125
 40
0.3125
 40
0.34375
 40
0.359375
 40
0.3671875
 40
0.375
 40
0.3828125
 40
0.390625
 40
0.40625
 40
0.4375
 40
0.46875
 40
0.484375
 40
0.4921875
 40
0.5
 40
0.5078125
 40
0.515625
 40
0.53125
 40
0.5625
 40
0.59375
 40
0.609375
 40
0.6171875
 40
0.625
 40
0.6328125
 40
0.640625
 40
0.65625
 40
0.6875
 40
0.71875
 40
0.734375
 40
0.7421875
 40
0.75
 40
0.7578125
 40
0.765625
 40
0.78125
 40
0.8125
 40
0.84375
 40
0.859375
 40
0.8671875
 40
0.875
 40
0.8828125
 40
0.890625
 40
0.90625
 40
0.9375
 40
1.0
 40
1.0
 40
1.0
 40
1.0
 10
256.7273659883
 20
214.9367493835
 30
0.0
 10
256.7240395375
 20
214.9325126808
 30
0.0
 10
256.7173894928
 20
214.9240363093
 30
0.0
 10
256.7073972843
 20
214.911339548
 30
0.0
 10
256.6991204398
 20
214.9007070091
 30
0.0
 10
256.6932291567
 20
214.8933654456
 30
0.0
 10
256.6900148395
 20
214.8890123285
 30
0.0
 10
256.6871755657
 20
214.8861923863
 30
0.0
 10
256.6859743704
 20
214.8816718306
 30
0.0
 10
256.6838012151
 20
214.8762377432
 30
0.0
 10
256.6802663153
 20
214.8664503752
 30
0.0
 10
256.6750616259
 20
214.8526238844
 30
0.0
 10
256.6699655583
 20
214.8387045211
 30
0.0
 10
256.666278588
 20
214.8290471745
 30
0.0
 10
256.6643444006
 20
214.8234087678
 30
0.0
 10
256.6624100083
 20
214.8195151008
 30
0.0
 10
256.6623242969
 20
214.8143408429
 30
0.0
 10
256.6615649886
 20
214.8078886039
 30
0.0
 10
256.6605385932
 20
214.7963881534
 30
0.0
 10
256.658899214
 20
214.780075249
 30
0.0
 10
256.6573762461
 20
214.7636952589
 30
0.0
 10
256.6561868749
 20
214.7522887284
 30
0.0
 10
256.6556836715
 20
214.7456889009
 30
0.0
 10
256.6548121837
 20
214.7409674711
 30
0.0
 10
256.6558288181
 20
214.7353731829
 30
0.0
 10
256.6565255514
 20
214.7282186376
 30
0.0
 10
256.6580535879
 20
214.7155558788
 30
0.0
 10
256.660060463
 20
214.6975440804
 30
0.0
 10
256.6621833736
 20
214.6794919099
 30
0.0
 10
256.6635489605
 20
214.666885672
 30
0.0
 10
256.6645009719
 20
214.6596423081
 30
0.0
 10
256.6647343666
 20
214.6543205313
 30
0.0
 10
256.6668043786
 20
214.6485756697
 30
0.0
 10
256.6689235945
 20
214.6410634274
 30
0.0
 10
256.6729324627
 20
214.6278482806
 30
0.0
 10
256.6784889281
 20
214.6090051532
 30
0.0
 10
256.684155464
 20
214.5901503117
 30
0.0
 10
256.6880102334
 20
214.5769515644
 30
0.0
 10
256.6903716046
 20
214.5694135515
 30
0.0
 10
256.6916986401
 20
214.563747759
 30
0.0
 10
256.6947223245
 20
214.5581290336
 30
0.0
 10
256.6981619478
 20
214.5506209327
 30
0.0
 10
256.7044585547
 20
214.537489925
 30
0.0
 10
256.7132969749
 20
214.5187230755
 30
0.0
 10
256.7222341992
 20
214.4999737343
 30
0.0
 10
256.7283924804
 20
214.4868182149
 30
0.0
 10
256.7320494726
 20
214.4793486324
 30
0.0
 10
256.7344062297
 20
214.4736117258
 30
0.0
 10
256.7382379479
 20
214.4683897693
 30
0.0
 10
256.7428322963
 20
214.4612474562
 30
0.0
 10
256.7511134396
 20
214.4488329801
 30
0.0
 10
256.7628074257
 20
214.4310470043
 30
0.0
 10
256.7745871745
 20
214.4133039788
 30
0.0
 10
256.7827482501
 20
214.4008293724
 30
0.0
 10
256.7875312764
 20
214.3937815498
 30
0.0
 10
256.7907840964
 20
214.3882696793
 30
0.0
 10
256.7953149381
 20
214.383621561
 30
0.0
 10
256.8009103044
 20
214.3771228054
 30
0.0
 10
256.8109095567
 20
214.3658901284
 30
0.0
 10
256.8307599461
 20
214.3433246706
 30
0.0
 10
256.8478253479
 20
214.3240171709
 30
0.0
 10
256.8591909975
 20
214.3111378775
 30
0.0
  0
SPLINE
  5
4BE
100
AcDbEntity
  8
7_ALL_FEATURES
100
AcDbSpline
 62
4
  6
CONTINUOUS
 70
0
 71
3
 72
42
 73
38
 74
0
 42
0.0000001
 43
0.0000001
 44
0.0000000001
 40
0.0
 40
0.0
 40
0.0
 40
0.0
 40
0.0625
 40
0.125
 40
0.15625
 40
0.171875
 40
0.1875
 40
0.21875
 40
0.25
 40
0.28125
 40
0.3125
 40
0.328125
 40
0.34375
 40
0.375
 40
0.4375
 40
0.46875
 40
0.484375
 40
0.5
 40
0.515625
 40
0.53125
 40
0.5625
 40
0.625
 40
0.640625
 40
0.65625
 40
0.671875
 40
0.6875
 40
0.71875
 40
0.75
 40
0.78125
 40
0.8125
 40
0.828125
 40
0.8359375
 40
0.84375
 40
0.859375
 40
0.875
 40
0.9375
 40
1.0
 40
1.0
 40
1.0
 40
1.0
 10
257.1316507451
 20
214.9367493835
 30
0.0
 10
257.1220796351
 20
214.9411408579
 30
0.0
 10
257.1029344926
 20
214.9499553135
 30
0.0
 10
257.079017676
 20
214.9608158498
 30
0.0
 10
257.0622490558
 20
214.9687076923
 30
0.0
 10
257.0527086298
 20
214.9727683473
 30
0.0
 10
257.0433251632
 20
214.9751371865
 30
0.0
 10
257.0315414646
 20
214.978682743
 30
0.0
 10
257.0174265411
 20
214.9826694984
 30
0.0
 10
257.0032965433
 20
214.9867926916
 30
0.0
 10
256.9915505302
 20
214.9899971534
 30
0.0
 10
256.9820916926
 20
214.9930481819
 30
0.0
 10
256.9728577754
 20
214.9943346004
 30
0.0
 10
256.9567987065
 20
214.9957741508
 30
0.0
 10
256.9384278486
 20
214.9977149807
 30
0.0
 10
256.9222993571
 20
214.9994488617
 30
0.0
 10
256.91318445
 20
215.0002307135
 30
0.0
 10
256.9060595742
 20
215.0014337274
 30
0.0
 10
256.9000387938
 20
215.0002747098
 30
0.0
 10
256.8916257161
 20
214.9995538582
 30
0.0
 10
256.8770848854
 20
214.9979021733
 30
0.0
 10
256.8624633211
 20
214.9964273303
 30
0.0
 10
256.8499735128
 20
214.9950629426
 30
0.0
 10
256.8436888199
 20
214.9944801694
 30
0.0
 10
256.8375546898
 20
214.9935197609
 30
0.0
 10
256.8300911293
 20
214.9904449252
 30
0.0
 10
256.8205152846
 20
214.9872184575
 30
0.0
 10
256.8091340429
 20
214.9830761634
 30
0.0
 10
256.7977079437
 20
214.9790286781
 30
0.0
 10
256.7882442431
 20
214.9755651883
 30
0.0
 10
256.7815173755
 20
214.9732894958
 30
0.0
 10
256.7778313687
 20
214.9717612752
 30
0.0
 10
256.7747395945
 20
214.9693762676
 30
0.0
 10
256.7706717612
 20
214.966687868
 30
0.0
 10
256.7610761733
 20
214.9599946159
 30
0.0
 10
256.7466119959
 20
214.9500568135
 30
0.0
 10
256.7337837171
 20
214.941181733
 30
0.0
 10
256.7273659817
 20
214.9367493775
 30
0.0
  0
SPLINE
  5
4BF
100
AcDbEntity
  8
7_ALL_FEATURES
100
AcDbSpline
 62
4
  6
CONTINUOUS
 70
0
 71
3
 72
50
 73
46
 74
0
 42
0.0000001
 43
0.0000001
 44
0.0000000001
 40
0.0
 40
0.0
 40
0.0
 40
0.0
 40
0.0625
 40
0.09375
 40
0.125
 40
0.140625
 40
0.15625
 40
0.1640625
 40
0.171875
 40
0.1875
 40
0.21875
 40
0.25
 40
0.28125
 40
0.3125
 40
0.328125
 40
0.3359375
 40
0.34375
 40
0.359375
 40
0.375
 40
0.4375
 40
0.46875
 40
0.484375
 40
0.4921875
 40
0.5
 40
0.5078125
 40
0.515625
 40
0.53125
 40
0.5625
 40
0.625
 40
0.640625
 40
0.65625
 40
0.6640625
 40
0.671875
 40
0.6875
 40
0.71875
 40
0.75
 40
0.78125
 40
0.8125
 40
0.828125
 40
0.8359375
 40
0.84375
 40
0.859375
 40
0.875
 40
0.9375
 40
1.0
 40
1.0
 40
1.0
 40
1.0
 10
257.0358975815
 20
213.5966415332
 30
0.0
 10
257.0312375577
 20
213.5857032251
 30
0.0
 10
257.0242512556
 20
213.5692930031
 30
0.0
 10
257.0149212518
 20
213.5474237461
 30
0.0
 10
257.0091211125
 20
213.5337324626
 30
0.0
 10
257.0044100631
 20
213.5228318708
 30
0.0
 10
257.0016274457
 20
213.5158994125
 30
0.0
 10
256.999030794
 20
213.5106273493
 30
0.0
 10
256.9977869425
 20
213.504355343
 30
0.0
 10
256.99623904
 20
213.4929145585
 30
0.0
 10
256.9936966875
 20
213.4768149648
 30
0.0
 10
256.9907976249
 20
213.4573847476
 30
0.0
 10
256.9878212218
 20
213.4380063347
 30
0.0
 10
256.9854722204
 20
213.4217772302
 30
0.0
 10
256.9835859534
 20
213.4105630895
 30
0.0
 10
256.9828834851
 20
213.403928453
 30
0.0
 10
256.9835941936
 20
213.3964410684
 30
0.0
 10
256.983999231
 20
213.3873734
 30
0.0
 10
256.9853719338
 20
213.3653702417
 30
0.0
 10
256.9868108501
 20
213.3397874385
 30
0.0
 10
256.9883869408
 20
213.3141526509
 30
0.0
 10
256.9890667668
 20
213.3013607049
 30
0.0
 10
256.9896211613
 20
213.294014823
 30
0.0
 10
256.9895701096
 20
213.2886067359
 30
0.0
 10
256.9913034871
 20
213.282811451
 30
0.0
 10
256.9929921967
 20
213.2752194659
 30
0.0
 10
256.9962377711
 20
213.2618705386
 30
0.0
 10
257.002512846
 20
213.235219052
 30
0.0
 10
257.0089230334
 20
213.2085411714
 30
0.0
 10
257.0142822914
 20
213.1856978552
 30
0.0
 10
257.0166762903
 20
213.1761533109
 30
0.0
 10
257.0182186689
 20
213.1685789217
 30
0.0
 10
257.0211235495
 20
213.1607807443
 30
0.0
 10
257.0268404524
 20
213.1470300105
 30
0.0
 10
257.0346743977
 20
213.1274399972
 30
0.0
 10
257.0442261303
 20
213.1039108377
 30
0.0
 10
257.0537067641
 20
213.0803800252
 30
0.0
 10
257.0617184565
 20
213.0607941444
 30
0.0
 10
257.067124302
 20
213.0470361788
 30
0.0
 10
257.0705268744
 20
213.0392495721
 30
0.0
 10
257.0751094916
 20
213.0317458442
 30
0.0
 10
257.08043441
 20
213.022269493
 30
0.0
 10
257.0935462692
 20
212.9996058499
 30
0.0
 10
257.1130734702
 20
212.9655766837
 30
0.0
 10
257.1304881099
 20
212.9353422306
 30
0.0
 10
257.1391882888
 20
212.9202232922
 30
0.0
  0
SPLINE
  5
4C0
100
AcDbEntity
  8
7_ALL_FEATURES
100
AcDbSpline
 62
4
  6
CONTINUOUS
 70
0
 71
3
 72
58
 73
54
 74
0
 42
0.0000001
 43
0.0000001
 44
0.0000000001
 40
0.0
 40
0.0
 40
0.0
 40
0.0
 40
0.0625
 40
0.078125
 40
0.09375
 40
0.1015625
 40
0.109375
 40
0.125
 40
0.140625
 40
0.15625
 40
0.171875
 40
0.1875
 40
0.203125
 40
0.2109375
 40
0.21875
 40
0.234375
 40
0.25
 40
0.28125
 40
0.3125
 40
0.328125
 40
0.3359375
 40
0.34375
 40
0.359375
 40
0.375
 40
0.40625
 40
0.421875
 40
0.4375
 40
0.46875
 40
0.5
 40
0.53125
 40
0.5625
 40
0.578125
 40
0.59375
 40
0.625
 40
0.640625
 40
0.65625
 40
0.6640625
 40
0.671875
 40
0.6875
 40
0.71875
 40
0.75
 40
0.765625
 40
0.78125
 40
0.796875
 40
0.8125
 40
0.84375
 40
0.859375
 40
0.875
 40
0.890625
 40
0.8984375
 40
0.90625
 40
0.9375
 40
1.0
 40
1.0
 40
1.0
 40
1.0
 10
257.4350564249
 20
214.2520814283
 30
0.0
 10
257.4400438939
 20
214.2640201754
 30
0.0
 10
257.4462900259
 20
214.2789350259
 30
0.0
 10
257.4537499969
 20
214.2968585967
 30
0.0
 10
257.4569055013
 20
214.3042924175
 30
0.0
 10
257.459320204
 20
214.3103193
 30
0.0
 10
257.4621359638
 20
214.316054346
 30
0.0
 10
257.4627848604
 20
214.3253121449
 30
0.0
 10
257.4643805255
 20
214.3358270459
 30
0.0
 10
257.4657563586
 20
214.3465017598
 30
0.0
 10
257.4671945308
 20
214.3571316797
 30
0.0
 10
257.4686031783
 20
214.3677809625
 30
0.0
 10
257.469823518
 20
214.3766281503
 30
0.0
 10
257.4707030317
 20
214.3837615341
 30
0.0
 10
257.4719324039
 20
214.3906941553
 30
0.0
 10
257.4709661282
 20
214.4007961088
 30
0.0
 10
257.4696875283
 20
214.4168037763
 30
0.0
 10
257.4680318703
 20
214.43686024
 30
0.0
 10
257.4662715433
 20
214.4569235091
 30
0.0
 10
257.4652993049
 20
214.4709206907
 30
0.0
 10
257.4643294428
 20
214.478997793
 30
0.0
 10
257.4617962774
 20
214.4873728238
 30
0.0
 10
257.4591670357
 20
214.4977393876
 30
0.0
 10
257.4546486787
 20
214.5143842711
 30
0.0
 10
257.450280656
 20
214.5310059852
 30
0.0
 10
257.4456953079
 20
214.5476534213
 30
0.0
 10
257.4417788156
 20
214.5642288622
 30
0.0
 10
257.4321384388
 20
214.5854559742
 30
0.0
 10
257.4209910519
 20
214.6108952787
 30
0.0
 10
257.4096508775
 20
214.6363110823
 30
0.0
 10
257.4004924696
 20
214.6575969464
 30
0.0
 10
257.390098975
 20
214.673383292
 30
0.0
 10
257.3802451998
 20
214.6893892606
 30
0.0
 10
257.3702198763
 20
214.7053198363
 30
0.0
 10
257.3603044082
 20
214.7213118735
 30
0.0
 10
257.353975559
 20
214.7312160705
 30
0.0
 10
257.3492010517
 20
214.7393420458
 30
0.0
 10
257.3433776015
 20
214.746730211
 30
0.0
 10
257.3326991672
 20
214.7593165381
 30
0.0
 10
257.3177009839
 20
214.7774781899
 30
0.0
 10
257.3026042835
 20
214.7955683643
 30
0.0
 10
257.2905579858
 20
214.8100671021
 30
0.0
 10
257.281489185
 20
214.8209042469
 30
0.0
 10
257.2707808518
 20
214.8299044568
 30
0.0
 10
257.257077898
 20
214.842551674
 30
0.0
 10
257.243205067
 20
214.854991137
 30
0.0
 10
257.2294107495
 20
214.8675686598
 30
0.0
 10
257.2189993481
 20
214.8767953764
 30
0.0
 10
257.210509344
 20
214.8851148671
 30
0.0
 10
257.2030933769
 20
214.8896445486
 30
0.0
 10
257.1921297744
 20
214.8969853944
 30
0.0
 10
257.1682808944
 20
214.9125689025
 30
0.0
 10
257.1463083736
 20
214.9270961983
 30
0.0
 10
257.1316507309
 20
214.9367493913
 30
0.0
  0
SPLINE
  5
4C1
100
AcDbEntity
  8
02___PRT_ALL_AXES
100
AcDbSpline
 62
7
  6
CONTINUOUS
 70
0
 71
3
 72
9
 73
5
 74
0
 42
0.0000001
 43
0.0000001
 44
0.0000000001
 40
0.0
 40
0.0
 40
0.0
 40
0.0
 40
0.2487419215
 40
1.0
 40
1.0
 40
1.0
 40
1.0
 10
291.7152633228
 20
174.389916253
 30
0.0
 10
291.8386661944
 20
174.440728565
 30
0.0
 10
292.3306317935
 20
174.6550600897
 30
0.0
 10
292.8065224317
 20
174.9052228156
 30
0.0
 10
293.1555861493
 20
175.106754847
 30
0.0
  0
SPLINE
  5
4C2
100
AcDbEntity
  8
02___PRT_ALL_AXES
100
AcDbSpline
 62
7
  6
CONTINUOUS
 70
0
 71
3
 72
19
 73
15
 74
0
 42
0.0000001
 43
0.0000001
 44
0.0000000001
 40
0.0
 40
0.0
 40
0.0
 40
0.0
 40
0.0679785409
 40
0.1342854818
 40
0.1983938441
 40
0.2606331787
 40
0.3812346686
 40
0.4998615428
 40
0.6185201017
 40
0.7391776997
 40
0.801460969
 40
0.8656242454
 40
0.9319792387
 40
1.0
 40
1.0
 40
1.0
 40
1.0
 10
286.0959089758
 20
174.3632112325
 30
0.0
 10
286.0959089758
 20
174.1851358598
 30
0.0
 10
286.150780823
 20
173.8311138053
 30
0.0
 10
286.3779002256
 20
173.3567238409
 30
0.0
 10
286.7063620872
 20
172.9673808421
 30
0.0
 10
287.2219158881
 20
172.5703774243
 30
0.0
 10
287.9649359026
 20
172.2638135136
 30
0.0
 10
288.9045618354
 20
172.1497003701
 30
0.0
 10
289.8444122072
 20
172.2632810574
 30
0.0
 10
290.5879053036
 20
172.5696124251
 30
0.0
 10
291.1040079278
 20
172.9665758159
 30
0.0
 10
291.4328756959
 20
173.3560921618
 30
0.0
 10
291.6603154634
 20
173.8307613559
 30
0.0
 10
291.7152633228
 20
174.1850252599
 30
0.0
 10
291.7152633228
 20
174.3632112325
 30
0.0
  0
SPLINE
  5
4C3
100
AcDbEntity
  8
02___PRT_ALL_AXES
100
AcDbSpline
 62
7
  6
CONTINUOUS
 70
0
 71
3
 72
9
 73
5
 74
0
 42
0.0000001
 43
0.0000001
 44
0.0000000001
 40
0.0
 40
0.0
 40
0.0
 40
0.0
 40
0.2513562251
 40
1.0
 40
1.0
 40
1.0
 40
1.0
 10
284.6555861493
 20
175.106754847
 30
0.0
 10
284.7723695287
 20
175.0393299314
 30
0.0
 10
285.2405047036
 20
174.7773446131
 30
0.0
 10
285.7245214291
 20
174.5428386257
 30
0.0
 10
286.0959089758
 20
174.389916253
 30
0.0
  0
SPLINE
  5
4C4
100
AcDbEntity
  8
02___PRT_ALL_AXES
100
AcDbSpline
 62
7
  6
CONTINUOUS
 70
0
 71
3
 72
9
 73
5
 74
0
 42
0.0000001
 43
0.0000001
 44
0.0000000001
 40
0.0
 40
0.0
 40
0.0
 40
0.0
 40
0.2513562251
 40
1.0
 40
1.0
 40
1.0
 40
1.0
 10
276.1555861493
 20
175.106754847
 30
0.0
 10
276.2723695287
 20
175.0393299314
 30
0.0
 10
276.7405047036
 20
174.7773446131
 30
0.0
 10
277.2245214291
 20
174.5428386257
 30
0.0
 10
277.5959089758
 20
174.389916253
 30
0.0
  0
SPLINE
  5
4C5
100
AcDbEntity
  8
02___PRT_ALL_AXES
100
AcDbSpline
 62
7
  6
CONTINUOUS
 70
0
 71
3
 72
9
 73
5
 74
0
 42
0.0000001
 43
0.0000001
 44
0.0000000001
 40
0.0
 40
0.0
 40
0.0
 40
0.0
 40
0.2487419215
 40
1.0
 40
1.0
 40
1.0
 40
1.0
 10
283.2152633228
 20
174.389916253
 30
0.0
 10
283.3386661944
 20
174.440728565
 30
0.0
 10
283.8306317935
 20
174.6550600897
 30
0.0
 10
284.3065224317
 20
174.9052228156
 30
0.0
 10
284.6555861493
 20
175.106754847
 30
0.0
  0
SPLINE
  5
4C6
100
AcDbEntity
  8
02___PRT_ALL_AXES
100
AcDbSpline
 62
7
  6
CONTINUOUS
 70
0
 71
3
 72
19
 73
15
 74
0
 42
0.0000001
 43
0.0000001
 44
0.0000000001
 40
0.0
 40
0.0
 40
0.0
 40
0.0
 40
0.0679950228
 40
0.1343185368
 40
0.1984442238
 40
0.2607004275
 40
0.3813349733
 40
0.4999906576
 40
0.6186424657
 40
0.7392776354
 40
0.8015360431
 40
0.8656654115
 40
0.9319956439
 40
1.0
 40
1.0
 40
1.0
 40
1.0
 10
277.5959089758
 20
174.3632112325
 30
0.0
 10
277.5959089758
 20
174.1850927252
 30
0.0
 10
277.6508061849
 20
173.8309820083
 30
0.0
 10
277.8780381352
 20
173.3564951013
 30
0.0
 10
278.2066452415
 20
172.9670971611
 30
0.0
 10
278.722417566
 20
172.5700851509
 30
0.0
 10
279.4656969866
 20
172.2635980374
 30
0.0
 10
280.4055018294
 20
172.1496898247
 30
0.0
 10
281.3453117283
 20
172.2635568474
 30
0.0
 10
282.0886062807
 20
172.5699994345
 30
0.0
 10
282.6044147539
 20
172.9669916182
 30
0.0
 10
282.9330731974
 20
173.3563902792
 30
0.0
 10
283.1603487387
 20
173.8309154928
 30
0.0
 10
283.2152633228
 20
174.1850682758
 30
0.0
 10
283.2152633228
 20
174.3632112325
 30
0.0
  0
SPLINE
  5
4C7
100
AcDbEntity
  8
7_ALL_FEATURES
100
AcDbSpline
 62
7
  6
CONTINUOUS
 70
0
 71
3
 72
8
 73
4
 74
0
 42
0.0000001
 43
0.0000001
 44
0.0000000001
 40
0.0
 40
0.0
 40
0.0
 40
0.0
 40
1.0
 40
1.0
 40
1.0
 40
1.0
 10
303.0690255487
 20
211.356754847
 30
0.0
 10
302.8148483309
 20
210.9402320319
 30
0.0
 10
302.560866498
 20
210.523589829
 30
0.0
 10
302.3072015393
 20
210.106754847
 30
0.0
  0
LINE
  5
4C8
100
AcDbEntity
  8
7_ALL_FEATURES
100
AcDbLine
 62
7
  6
CONTINUOUS
 10
331.4838052403
 20
258.9397315542
 11
331.3467255657
 21
258.606754847
  0
LINE
  5
4C9
100
AcDbEntity
  8
7_ALL_FEATURES
100
AcDbLine
 62
7
  6
CONTINUOUS
 10
237.8273670584
 20
258.9397315542
 11
237.9644467329
 21
258.606754847
  0
SPLINE
  5
4CA
100
AcDbEntity
  8
7_ALL_FEATURES
100
AcDbSpline
 62
7
  6
CONTINUOUS
 70
0
 71
3
 72
8
 73
4
 74
0
 42
0.0000001
 43
0.0000001
 44
0.0000000001
 40
0.0
 40
0.0
 40
0.0
 40
0.0
 40
1.0
 40
1.0
 40
1.0
 40
1.0
 10
316.3175976793
 20
210.106754847
 30
0.0
 10
316.6531269951
 20
210.523248399
 30
0.0
 10
316.9884378889
 20
210.9399179984
 30
0.0
 10
317.3235406229
 20
211.356754847
 30
0.0
  0
SPLINE
  5
4CB
100
AcDbEntity
  8
7_ALL_FEATURES
100
AcDbSpline
 62
7
  6
CONTINUOUS
 70
0
 71
3
 72
8
 73
4
 74
0
 42
0.0000001
 43
0.0000001
 44
0.0000000001
 40
0.0
 40
0.0
 40
0.0
 40
0.0
 40
1.0
 40
1.0
 40
1.0
 40
1.0
 10
251.9876316758
 20
211.356754847
 30
0.0
 10
252.3227344098
 20
210.9399179984
 30
0.0
 10
252.6580453036
 20
210.523248399
 30
0.0
 10
252.9935746193
 20
210.106754847
 30
0.0
  0
SPLINE
  5
4CC
100
AcDbEntity
  8
7_ALL_FEATURES
100
AcDbSpline
 62
7
  6
CONTINUOUS
 70
0
 71
3
 72
8
 73
4
 74
0
 42
0.0000001
 43
0.0000001
 44
0.0000000001
 40
0.0
 40
0.0
 40
0.0
 40
0.0
 40
1.0
 40
1.0
 40
1.0
 40
1.0
 10
267.0039707594
 20
210.106754847
 30
0.0
 10
266.7503058008
 20
210.5235898291
 30
0.0
 10
266.4963239674
 20
210.9402320317
 30
0.0
 10
266.24214675
 20
211.356754847
 30
0.0
  0
LINE
  5
4CD
100
AcDbEntity
  8
7_ALL_FEATURES
100
AcDbLine
 62
7
  6
CONTINUOUS
 10
237.8273670584
 20
262.7737781397
 11
237.9559009509
 21
263.0860250383
  0
LINE
  5
4CE
100
AcDbEntity
  8
7_ALL_FEATURES
100
AcDbLine
 62
7
  6
CONTINUOUS
 10
331.4838052403
 20
262.7737781397
 11
331.3552713478
 21
263.0860250383
  0
SPLINE
  5
4CF
100
AcDbEntity
  8
7_ALL_FEATURES
100
AcDbSpline
 62
3
  6
CONTINUOUS
 70
0
 71
3
 72
12
 73
8
 74
0
 42
0.0000001
 43
0.0000001
 44
0.0000000001
 40
0.0
 40
0.0
 40
0.0
 40
0.0
 40
0.2828944285
 40
0.5419458986
 40
0.777811368
 40
0.8899203884
 40
1.0
 40
1.0
 40
1.0
 40
1.0
 10
314.3598802165
 20
210.1988313724
 30
0.0
 10
314.3284524827
 20
210.1134523088
 30
0.0
 10
314.2509927715
 20
209.9553203957
 30
0.0
 10
314.0874555039
 20
209.7622439696
 30
0.0
 10
313.9189891727
 20
209.6557176257
 30
0.0
 10
313.7769952694
 20
209.6137510588
 30
0.0
 10
313.7053495981
 20
209.606754847
 30
0.0
 10
313.6699477039
 20
209.606754847
 30
0.0
  0
SPLINE
  5
4D0
100
AcDbEntity
  8
7_ALL_FEATURES
100
AcDbSpline
 62
3
  6
CONTINUOUS
 70
0
 71
3
 72
11
 73
7
 74
0
 42
0.0000001
 43
0.0000001
 44
0.0000000001
 40
0.0
 40
0.0
 40
0.0
 40
0.0
 40
0.2408198638
 40
0.4941501693
 40
0.7505632867
 40
1.0
 40
1.0
 40
1.0
 40
1.0
 10
317.3429584608
 20
223.9057277859
 30
0.0
 10
317.5314434599
 20
223.5563734034
 30
0.0
 10
317.8285536744
 20
222.7890090977
 30
0.0
 10
318.0253077514
 20
221.5595163323
 30
0.0
 10
317.9770668917
 20
220.3012603642
 30
0.0
 10
317.7777301796
 20
219.4840325137
 30
0.0
 10
317.635699915
 20
219.0981818798
 30
0.0
  0
SPLINE
  5
4D1
100
AcDbEntity
  8
7_ALL_FEATURES
100
AcDbSpline
 62
3
  6
CONTINUOUS
 70
0
 71
3
 72
11
 73
7
 74
0
 42
0.0000001
 43
0.0000001
 44
0.0000000001
 40
0.0
 40
0.0
 40
0.0
 40
0.0
 40
0.2408198638
 40
0.4941501693
 40
0.7505632867
 40
1.0
 40
1.0
 40
1.0
 40
1.0
 10
309.5647838678
 20
223.9057277859
 30
0.0
 10
309.7532688669
 20
223.5563734034
 30
0.0
 10
310.0503790813
 20
222.7890090977
 30
0.0
 10
310.2471331584
 20
221.5595163323
 30
0.0
 10
310.1988922987
 20
220.3012603642
 30
0.0
 10
309.9995555865
 20
219.4840325137
 30
0.0
 10
309.8575253219
 20
219.0981818798
 30
0.0
  0
SPLINE
  5
4D2
100
AcDbEntity
  8
7_ALL_FEATURES
100
AcDbSpline
 62
3
  6
CONTINUOUS
 70
0
 71
3
 72
12
 73
8
 74
0
 42
0.0000001
 43
0.0000001
 44
0.0000000001
 40
0.0
 40
0.0
 40
0.0
 40
0.0
 40
0.2828944285
 40
0.5419458986
 40
0.777811368
 40
0.8899203884
 40
1.0
 40
1.0
 40
1.0
 40
1.0
 10
306.5817056235
 20
210.1988313724
 30
0.0
 10
306.5502778897
 20
210.1134523088
 30
0.0
 10
306.4728181784
 20
209.9553203957
 30
0.0
 10
306.3092809109
 20
209.7622439696
 30
0.0
 10
306.1408145797
 20
209.6557176257
 30
0.0
 10
305.9988206763
 20
209.6137510588
 30
0.0
 10
305.9271750051
 20
209.606754847
 30
0.0
 10
305.8917731108
 20
209.606754847
 30
0.0
  0
SPLINE
  5
4D3
100
AcDbEntity
  8
7_ALL_FEATURES
100
AcDbSpline
 62
3
  6
CONTINUOUS
 70
0
 71
3
 72
12
 73
8
 74
0
 42
0.0000001
 43
0.0000001
 44
0.0000000001
 40
0.0
 40
0.0
 40
0.0
 40
0.0
 40
0.2828944285
 40
0.5419458986
 40
0.777811368
 40
0.8899203884
 40
1.0
 40
1.0
 40
1.0
 40
1.0
 10
254.9512920821
 20
210.1988313724
 30
0.0
 10
254.9827198159
 20
210.1134523088
 30
0.0
 10
255.0601795272
 20
209.9553203957
 30
0.0
 10
255.2237167947
 20
209.7622439696
 30
0.0
 10
255.3921831259
 20
209.6557176257
 30
0.0
 10
255.5341770293
 20
209.6137510588
 30
0.0
 10
255.6058227005
 20
209.606754847
 30
0.0
 10
255.6412245948
 20
209.606754847
 30
0.0
  0
SPLINE
  5
4D4
100
AcDbEntity
  8
7_ALL_FEATURES
100
AcDbSpline
 62
3
  6
CONTINUOUS
 70
0
 71
3
 72
11
 73
7
 74
0
 42
0.0000001
 43
0.0000001
 44
0.0000000001
 40
0.0
 40
0.0
 40
0.0
 40
0.0
 40
0.2408198638
 40
0.4941501693
 40
0.7505632867
 40
1.0
 40
1.0
 40
1.0
 40
1.0
 10
251.9682138378
 20
223.9057277859
 30
0.0
 10
251.7797288387
 20
223.5563734034
 30
0.0
 10
251.4826186243
 20
222.7890090977
 30
0.0
 10
251.2858645472
 20
221.5595163323
 30
0.0
 10
251.3341054069
 20
220.3012603642
 30
0.0
 10
251.5334421191
 20
219.4840325137
 30
0.0
 10
251.6754723837
 20
219.0981818798
 30
0.0
  0
SPLINE
  5
4D5
100
AcDbEntity
  8
7_ALL_FEATURES
100
AcDbSpline
 62
3
  6
CONTINUOUS
 70
0
 71
3
 72
12
 73
8
 74
0
 42
0.0000001
 43
0.0000001
 44
0.0000000001
 40
0.0
 40
0.0
 40
0.0
 40
0.0
 40
0.2828944285
 40
0.5419458986
 40
0.777811368
 40
0.8899203884
 40
1.0
 40
1.0
 40
1.0
 40
1.0
 10
262.7294666752
 20
210.1988313724
 30
0.0
 10
262.760894409
 20
210.1134523088
 30
0.0
 10
262.8383541202
 20
209.9553203957
 30
0.0
 10
263.0018913878
 20
209.7622439696
 30
0.0
 10
263.170357719
 20
209.6557176257
 30
0.0
 10
263.3123516223
 20
209.6137510588
 30
0.0
 10
263.3839972936
 20
209.606754847
 30
0.0
 10
263.4193991878
 20
209.606754847
 30
0.0
  0
SPLINE
  5
4D6
100
AcDbEntity
  8
7_ALL_FEATURES
100
AcDbSpline
 62
3
  6
CONTINUOUS
 70
0
 71
3
 72
11
 73
7
 74
0
 42
0.0000001
 43
0.0000001
 44
0.0000000001
 40
0.0
 40
0.0
 40
0.0
 40
0.0
 40
0.2408198638
 40
0.4941501693
 40
0.7505632867
 40
1.0
 40
1.0
 40
1.0
 40
1.0
 10
259.7463884309
 20
223.9057277859
 30
0.0
 10
259.5579034318
 20
223.5563734034
 30
0.0
 10
259.2607932173
 20
222.7890090977
 30
0.0
 10
259.0640391403
 20
221.5595163323
 30
0.0
 10
259.11228
 20
220.3012603642
 30
0.0
 10
259.3116167121
 20
219.4840325137
 30
0.0
 10
259.4536469767
 20
219.0981818798
 30
0.0
  0
ELLIPSE
  5
4D7
100
AcDbEntity
  8
7_ALL_FEATURES
100
AcDbEllipse
 62
7
  6
CONTINUOUS
 10
142.1401873887
 20
221.1760506394
 30
0.0
 11
2.0630841583
 21
3.9855725407
 31
0.0
 40
0.1645246646
 41
-0.8508900122
 42
-0.700438936
  0
ELLIPSE
  5
4D8
100
AcDbEntity
  8
7_ALL_FEATURES
100
AcDbEllipse
 62
7
  6
CONTINUOUS
 10
96.5333387515
 20
221.1760506394
 30
0.0
 11
-2.0630841583
 21
3.9855725407
 31
0.0
 40
0.1645246646
 41
0.700438936
 42
0.8508900122
  0
ELLIPSE
  5
4D9
100
AcDbEntity
  8
03___PRT_ALL_CURVES
100
AcDbEllipse
 62
40
  6
CONTINUOUS
 10
119.3367630701
 20
249.0546474136
 30
0.0
 11
37.5
 21
0.0
 31
0.0
 40
0.0778606828
 41
-0.1894277497
 42
-0.1849912224
  0
ELLIPSE
  5
4DA
100
AcDbEntity
  8
03___PRT_ALL_CURVES
100
AcDbEllipse
 62
40
  6
CONTINUOUS
 10
119.3367630701
 20
194.77065513
 30
0.0
 11
-0.0
 21
285.3695635886
 31
0.0
 40
0.131408548
 41
-1.3813685771
 42
-1.3776967694
  0
ELLIPSE
  5
4DB
100
AcDbEntity
  8
03___PRT_ALL_CURVES
100
AcDbEllipse
 62
40
  6
CONTINUOUS
 10
119.3367630701
 20
251.4618241001
 30
0.0
 11
37.5
 21
0.0
 31
0.0
 40
0.2679491924
 41
-0.1930995574
 42
-0.1749609538
  0
ELLIPSE
  5
4DC
100
AcDbEntity
  8
03___PRT_ALL_CURVES
100
AcDbEllipse
 62
40
  6
CONTINUOUS
 10
119.3367630701
 20
225.3513709622
 30
0.0
 11
-0.0
 21
139.9519052838
 31
0.0
 40
0.2679491924
 41
-1.3974797749
 42
-1.395835373
  0
ELLIPSE
  5
4DD
100
AcDbEntity
  8
03___PRT_ALL_CURVES
100
AcDbEllipse
 62
40
  6
CONTINUOUS
 10
119.3367630701
 20
251.2188943065
 30
0.0
 11
37.5
 21
0.0
 31
0.0
 40
0.2679491924
 41
-0.1878910707
 42
-0.1733165519
  0
ELLIPSE
  5
4DE
100
AcDbEntity
  8
03___PRT_ALL_CURVES
100
AcDbEllipse
 62
40
  6
CONTINUOUS
 10
119.3367630701
 20
192.6017522485
 30
0.0
 11
-0.0
 21
303.7691702034
 31
0.0
 40
0.123448999
 41
-1.3847145518
 42
-1.3829052561
  0
ELLIPSE
  5
4DF
100
AcDbEntity
  8
03___PRT_ALL_CURVES
100
AcDbEllipse
 62
40
  6
CONTINUOUS
 10
119.3367630701
 20
250.8997013739
 30
0.0
 11
37.5
 21
0.0
 31
0.0
 40
0.4024885688
 41
-0.1872564517
 42
-0.1826995988
  0
ELLIPSE
  5
4E0
100
AcDbEntity
  8
03___PRT_ALL_CURVES
100
AcDbEllipse
 62
40
  6
CONTINUOUS
 10
119.3367630701
 20
219.6791591085
 30
0.0
 11
-0.0
 21
139.9519052838
 31
0.0
 40
0.2679491924
 41
-1.3712143197
 42
-1.3601830455
  0
ELLIPSE
  5
4E1
100
AcDbEntity
  8
03___PRT_ALL_CURVES
100
AcDbEllipse
 62
40
  6
CONTINUOUS
 10
119.3367630701
 20
218.3574351439
 30
0.0
 11
-0.0
 21
139.9519052838
 31
0.0
 40
0.2679491924
 41
-1.3532566769
 42
-1.3515784555
  0
ELLIPSE
  5
4E2
100
AcDbEntity
  8
03___PRT_ALL_CURVES
100
AcDbEllipse
 62
40
  6
CONTINUOUS
 10
119.3367630701
 20
251.4971337399
 30
0.0
 11
37.5
 21
-0.0
 31
0.0
 40
0.2679491924
 41
-0.2121545377
 42
-0.2092222247
  0
ELLIPSE
  5
4E3
100
AcDbEntity
  8
03___PRT_ALL_CURVES
100
AcDbEllipse
 62
40
  6
CONTINUOUS
 10
119.3367630701
 20
220.3422614548
 30
0.0
 11
-0.0
 21
139.9519052838
 31
0.0
 40
0.2679491924
 41
-1.3757224916
 42
-1.3615741021
  0
ELLIPSE
  5
4E4
100
AcDbEntity
  8
03___PRT_ALL_CURVES
100
AcDbEllipse
 62
40
  6
CONTINUOUS
 10
119.3367630701
 20
249.4181069964
 30
0.0
 11
37.5
 21
0.0
 31
0.0
 40
0.2679491924
 41
-0.1995820071
 42
-0.1950738352
  0
ELLIPSE
  5
4E5
100
AcDbEntity
  8
03___PRT_ALL_CURVES
100
AcDbEllipse
 62
40
  6
CONTINUOUS
 10
119.3367630701
 20
250.295196346
 30
0.0
 11
37.5
 21
0.0
 31
0.0
 40
0.2679491924
 41
-0.2355819093
 42
-0.2216894014
  0
ELLIPSE
  5
4E6
100
AcDbEntity
  8
03___PRT_ALL_CURVES
100
AcDbEllipse
 62
40
  6
CONTINUOUS
 10
119.3367630701
 20
217.3134973345
 30
0.0
 11
-0.0
 21
139.9519052838
 31
0.0
 40
0.2679491924
 41
-1.3508536114
 42
-1.3491069254
  0
ELLIPSE
  5
4E7
100
AcDbEntity
  8
03___PRT_ALL_CURVES
100
AcDbEllipse
 62
40
  6
CONTINUOUS
 10
119.3367630701
 20
250.0395551635
 30
0.0
 11
37.5
 21
-0.0
 31
0.0
 40
0.2679491924
 41
-0.2338295909
 42
-0.2199427154
  0
ELLIPSE
  5
4E8
100
AcDbEntity
  8
03___PRT_ALL_CURVES
100
AcDbEllipse
 62
40
  6
CONTINUOUS
 10
119.3367630701
 20
215.2838671681
 30
0.0
 11
-0.0
 21
139.9519052838
 31
0.0
 40
0.2679491924
 41
-1.3369667359
 42
-1.3352144175
  0
ELLIPSE
  5
4E9
100
AcDbEntity
  8
03___PRT_ALL_CURVES
100
AcDbEllipse
 62
40
  6
CONTINUOUS
 10
119.3367630701
 20
227.9001810993
 30
0.0
 11
-0.0
 21
572.140276348
 31
0.0
 40
0.0655433668
 41
-1.5396403869
 42
-1.5378081112
  0
ELLIPSE
  5
4EA
100
AcDbEntity
  8
03___PRT_ALL_CURVES
100
AcDbEllipse
 62
40
  6
CONTINUOUS
 10
119.3367630701
 20
223.3133352844
 30
0.0
 11
-0.0
 21
572.1386002743
 31
0.0
 40
0.0655435588
 41
-1.5316526156
 42
-1.5298198064
  0
ELLIPSE
  5
4EB
100
AcDbEntity
  8
03___PRT_ALL_CURVES
100
AcDbEllipse
 62
40
  6
CONTINUOUS
 10
119.3367630701
 20
226.3756146516
 30
0.0
 11
-0.0
 21
188.5253251413
 31
0.0
 40
0.198912268
 41
-1.4697218029
 42
-1.4642295527
  0
ELLIPSE
  5
4EC
100
AcDbEntity
  8
03___PRT_ALL_CURVES
100
AcDbEllipse
 62
40
  6
CONTINUOUS
 10
119.3367630701
 20
224.8378957813
 30
0.0
 11
-0.0
 21
188.5251367683
 31
0.0
 40
0.1989124668
 41
-1.4618320866
 42
-1.4563351396
  0
ELLIPSE
  5
4ED
100
AcDbEntity
  8
03___PRT_ALL_CURVES
100
AcDbEllipse
 62
40
  6
CONTINUOUS
 10
119.3367630701
 20
226.1863103427
 30
0.0
 11
0.0
 21
139.9519052838
 31
0.0
 40
0.2679491924
 41
-1.435172539
 42
-1.4198311035
  0
ELLIPSE
  5
4EE
100
AcDbEntity
  8
03___PRT_ALL_CURVES
100
AcDbEllipse
 62
40
  6
CONTINUOUS
 10
119.3367630701
 20
225.0271993512
 30
0.0
 11
-0.0
 21
139.9519052838
 31
0.0
 40
0.2679491924
 41
-1.4273692816
 42
-1.4120100649
  0
ELLIPSE
  5
4EF
100
AcDbEntity
  8
03___PRT_ALL_CURVES
100
AcDbEllipse
 62
40
  6
CONTINUOUS
 10
119.3367630701
 20
226.7559494833
 30
0.0
 11
-0.0
 21
284.8407792272
 31
0.0
 40
0.1316524976
 41
-1.504577649
 42
-1.4969012636
  0
ELLIPSE
  5
4F0
100
AcDbEntity
  8
03___PRT_ALL_CURVES
100
AcDbEllipse
 62
40
  6
CONTINUOUS
 10
119.3367630701
 20
224.4575602106
 30
0.0
 11
-0.0
 21
284.8407792272
 31
0.0
 40
0.1316524976
 41
-1.4966264887
 42
-1.4889455736
  0
ELLIPSE
  5
4F1
100
AcDbEntity
  8
7_ALL_FEATURES
100
AcDbEllipse
 62
3
  6
CONTINUOUS
 10
149.0704893136
 20
221.1760506394
 30
0.0
 11
5.6033164748
 21
-2.9004900388
 31
0.0
 40
0.6140144074
 41
1.3522094343
 42
1.4858370994
  0
ELLIPSE
  5
4F2
100
AcDbEntity
  8
7_ALL_FEATURES
100
AcDbEllipse
 62
3
  6
CONTINUOUS
 10
142.1401873887
 20
221.1760506394
 30
0.0
 11
2.3209696781
 21
4.4837691083
 31
0.0
 40
0.1645246646
 41
-0.8340666012
 42
-0.700438936
  0
ELLIPSE
  5
4F3
100
AcDbEntity
  8
7_ALL_FEATURES
100
AcDbEllipse
 62
3
  6
CONTINUOUS
 10
89.6030368265
 20
221.1760506394
 30
0.0
 11
5.6033164748
 21
2.9004900388
 31
0.0
 40
0.6140144074
 41
1.6557555542
 42
1.7893832193
  0
ELLIPSE
  5
4F4
100
AcDbEntity
  8
7_ALL_FEATURES
100
AcDbEllipse
 62
3
  6
CONTINUOUS
 10
96.5333387515
 20
221.1760506394
 30
0.0
 11
-2.3209696781
 21
4.4837691083
 31
0.0
 40
0.1645246646
 41
0.700438936
 42
0.8340666012
  0
ELLIPSE
  5
4F5
100
AcDbEntity
  8
7_ALL_FEATURES
100
AcDbEllipse
 62
7
  6
CONTINUOUS
 10
307.4590104679
 20
221.1760506394
 30
0.0
 11
2.0630841583
 21
3.9855725407
 31
0.0
 40
0.1645246646
 41
-0.8508900122
 42
-0.700438936
  0
ELLIPSE
  5
4F6
100
AcDbEntity
  8
7_ALL_FEATURES
100
AcDbEllipse
 62
7
  6
CONTINUOUS
 10
261.8521618307
 20
221.1760506394
 30
0.0
 11
-2.0630841583
 21
3.9855725407
 31
0.0
 40
0.1645246646
 41
0.700438936
 42
0.8508900122
  0
ELLIPSE
  5
4F7
100
AcDbEntity
  8
7_ALL_FEATURES
100
AcDbEllipse
 62
3
  6
CONTINUOUS
 10
314.3893123929
 20
221.1760506394
 30
0.0
 11
5.6033164748
 21
-2.9004900388
 31
0.0
 40
0.6140144074
 41
1.3522094343
 42
1.4858370994
  0
ELLIPSE
  5
4F8
100
AcDbEntity
  8
7_ALL_FEATURES
100
AcDbEllipse
 62
3
  6
CONTINUOUS
 10
307.4590104679
 20
221.1760506394
 30
0.0
 11
2.3209696781
 21
4.4837691083
 31
0.0
 40
0.1645246646
 41
-0.8340666012
 42
-0.700438936
  0
ELLIPSE
  5
4F9
100
AcDbEntity
  8
7_ALL_FEATURES
100
AcDbEllipse
 62
3
  6
CONTINUOUS
 10
254.9218599058
 20
221.1760506394
 30
0.0
 11
5.6033164748
 21
2.9004900388
 31
0.0
 40
0.6140144074
 41
1.6557555542
 42
1.7893832193
  0
ELLIPSE
  5
4FA
100
AcDbEntity
  8
7_ALL_FEATURES
100
AcDbEllipse
 62
3
  6
CONTINUOUS
 10
261.8521618307
 20
221.1760506394
 30
0.0
 11
-2.3209696781
 21
4.4837691083
 31
0.0
 40
0.1645246646
 41
0.700438936
 42
0.8340666012
  0
ENDSEC
  0
SECTION
  2
OBJECTS
  0
DICTIONARY
  5
4FB
100
AcDbDictionary
  3
ACAD_GROUP
350
4FC
  3
ACAD_MLINESTYLE
350
4FD
  0
DICTIONARY
  5
4FC
102
{ACAD_REACTORS
330
4FB
102
}
100
AcDbDictionary
  0
DICTIONARY
  5
4FD
102
{ACAD_REACTORS
330
4FB
102
}
100
AcDbDictionary
  3
STANDARD
350
4FE
  0
MLINESTYLE
  5
4FE
102
{ACAD_REACTORS
330
4FD
102
}
100
AcDbMlineStyle
  2
STANDARD
 70
0
  3

 62
256
 51
90.0
 52
90.0
 71
2
 49
0.5
 62
256
  6
BYLAYER
 49
-0.5
 62
256
  6
BYLAYER
  0
ENDSEC
  0
EOF
