999
DXF file: 2f8_c_001.dxf
999
Pro/ENGINEER 2016360 by Parametric Technology Corporation
  0
SECTION
  2
HEADER
  9
$ACADVER
  1
AC1014
  9
$DWGCODEPAGE
  3
ANSI_1252
  9
$EXTMAX
 10
420.0
 20
297.0
 30
0.0
  9
$EXTMIN
 10
0.0
 20
0.0
 30
0.0
  9
$LIMMIN
 10
0.0
 20
0.0
  9
$LIMMAX
 10
420.0
 20
297.0
  9
$VIEWCTR
 10
210.0
 20
148.5
  9
$VIEWSIZE
 40
297.0
  9
$CLAYER
  8
0
  9
$LTSCALE
 40
23.1
  9
$CELTYPE
  6
BYLAYER
  9
$DIMSCALE
 40
1.0
  9
$DIMASZ
 40
2.5
  9
$DIMEXO
 40
0.75
  9
$DIMDLI
 40
15.96
  9
$DIMEXE
 40
0.75
  9
$DIMCEN
 40
3.78
  9
$DIMLFAC
 40
1.0
  9
$DIMBLK
  1
_CLOSED
  9
$DIMALT
 70
0
  9
$DIMALTF
 40
25.4
  9
$DIMTXT
 40
3.0
  9
$DIMTOL
 70
1
  9
$DIMLIM
 70
0
  9
$DIMTFAC
 40
1.0
  9
$DIMTP
 40
0.01
  9
$DIMTM
 40
0.01
  9
$DIMGAP
 40
0.625
  9
$AUNITS
 70
0
  9
$PDMODE
 70
3
  9
$PDSIZE
 40
0.3125
  9
$HANDSEED
  5
4B9
  9
$TILEMODE
 70
1
  9
$MEASUREMENT
 70
1
  0
ENDSEC
  0
SECTION
  2
CLASSES
  0
ENDSEC
  0
SECTION
  2
TABLES
  0
TABLE
  2
VPORT
  5
8
100
AcDbSymbolTable
 70
2
  0
VPORT
  5
1F4
100
AcDbSymbolTableRecord
100
AcDbViewportTableRecord
  2
*ACTIVE
 70
0
 10
0.0
 20
0.0
 11
1.0
 21
1.0
 12
210.0
 22
148.5
 13
0.0
 23
0.0
 14
1.0
 24
1.0
 15
0.0
 25
0.0
 16
0.0
 26
0.0
 36
1.0
 17
0.0
 27
0.0
 37
0.0
 40
297.0
 41
1.4141414141
 42
50.0
 43
0.0
 44
0.0
 50
0.0
 51
0.0
 71
0
 72
100
 73
1
 74
1
 75
0
 76
0
 77
0
 78
0
  0
ENDTAB
  0
TABLE
  2
LTYPE
  5
5
100
AcDbSymbolTable
 70
6
  0
LTYPE
  5
14
100
AcDbSymbolTableRecord
100
AcDbLinetypeTableRecord
  2
BYBLOCK
 70
0
  3

 72
65
 73
0
 40
0.0
  0
LTYPE
  5
15
100
AcDbSymbolTableRecord
100
AcDbLinetypeTableRecord
  2
BYLAYER
 70
0
  3

 72
65
 73
0
 40
0.0
  0
LTYPE
  5
16
100
AcDbSymbolTableRecord
100
AcDbLinetypeTableRecord
  2
CONTINUOUS
 70
64
  3
Solid line
 72
65
 73
0
 40
0.0
  0
LTYPE
  5
1F5
100
AcDbSymbolTableRecord
100
AcDbLinetypeTableRecord
  2
CENTER
 70
64
  3
____ _ ____ _ ____ _ ____ _ ____ _ ____ _ ____
 72
65
 73
4
 40
0.6
 49
0.375
 74
0
 49
-0.075
 74
0
 49
0.075
 74
0
 49
-0.075
 74
0
  0
LTYPE
  5
1F6
100
AcDbSymbolTableRecord
100
AcDbLinetypeTableRecord
  2
HIDDEN
 70
64
  3
- - - - - - - - - - - - - - - - - - - -
 72
65
 73
2
 40
0.2
 49
0.1
 74
0
 49
-0.1
 74
0
  0
LTYPE
  5
1F7
100
AcDbSymbolTableRecord
100
AcDbLinetypeTableRecord
  2
PHANTOM
 70
64
  3
_____ _ _ _____ _ _ _____ _ _ _____
 72
65
 73
6
 40
0.8
 49
0.45
 74
0
 49
-0.05
 74
0
 49
0.1
 74
0
 49
-0.05
 74
0
 49
0.1
 74
0
 49
-0.05
 74
0
  0
LTYPE
  5
1F8
100
AcDbSymbolTableRecord
100
AcDbLinetypeTableRecord
  2
DOT
 70
64
  3
. . . . . . . . . . . . . . . . . . . .
 72
65
 73
2
 40
0.2
 49
0.1
 74
0
 49
-0.1
 74
0
  0
LTYPE
  5
1F9
100
AcDbSymbolTableRecord
100
AcDbLinetypeTableRecord
  2
DASHED
 70
64
  3
- - - - - - - - - - - - - - - - - - - -
 72
65
 73
2
 40
0.2
 49
0.1
 74
0
 49
-0.1
 74
0
  0
ENDTAB
  0
TABLE
  2
LAYER
  5
2
100
AcDbSymbolTable
 70
36
  0
LAYER
  5
10
100
AcDbSymbolTableRecord
100
AcDbLayerTableRecord
  2
0
 70
0
 62
7
  6
CONTINUOUS
  0
LAYER
  5
1FA
100
AcDbSymbolTableRecord
100
AcDbLayerTableRecord
  2
DEFAULT_1
 70
0
 62
7
  6
CENTER
  0
LAYER
  5
1FB
100
AcDbSymbolTableRecord
100
AcDbLayerTableRecord
  2
DEFAULT_2
 70
0
 62
8
  6
HIDDEN
  0
LAYER
  5
1FC
100
AcDbSymbolTableRecord
100
AcDbLayerTableRecord
  2
DEFAULT_3
 70
0
 62
7
  6
PHANTOM
  0
LAYER
  5
1FD
100
AcDbSymbolTableRecord
100
AcDbLayerTableRecord
  2
01_ALL_DTM_PLN
 70
0
 62
7
  6
CONTINUOUS
  0
LAYER
  5
1FE
100
AcDbSymbolTableRecord
100
AcDbLayerTableRecord
  2
01__ASM_ALL_DTM_PLN
 70
0
 62
7
  6
CONTINUOUS
  0
LAYER
  5
1FF
100
AcDbSymbolTableRecord
100
AcDbLayerTableRecord
  2
01__ASM_DEF_DTM_PLN
 70
0
 62
7
  6
CONTINUOUS
  0
LAYER
  5
200
100
AcDbSymbolTableRecord
100
AcDbLayerTableRecord
  2
01___PRT_ALL_DTM_PLN
 70
0
 62
7
  6
CONTINUOUS
  0
LAYER
  5
201
100
AcDbSymbolTableRecord
100
AcDbLayerTableRecord
  2
01___PRT_DEF_DTM_PLN
 70
0
 62
7
  6
CONTINUOUS
  0
LAYER
  5
202
100
AcDbSymbolTableRecord
100
AcDbLayerTableRecord
  2
02_ALL_AXES
 70
0
 62
7
  6
CONTINUOUS
  0
LAYER
  5
203
100
AcDbSymbolTableRecord
100
AcDbLayerTableRecord
  2
02__ASM_ALL_AXES
 70
0
 62
7
  6
CONTINUOUS
  0
LAYER
  5
204
100
AcDbSymbolTableRecord
100
AcDbLayerTableRecord
  2
02___PRT_ALL_AXES
 70
0
 62
7
  6
CONTINUOUS
  0
LAYER
  5
205
100
AcDbSymbolTableRecord
100
AcDbLayerTableRecord
  2
03_ALL_CURVES
 70
0
 62
7
  6
CONTINUOUS
  0
LAYER
  5
206
100
AcDbSymbolTableRecord
100
AcDbLayerTableRecord
  2
03__ASM_ALL_CURVES
 70
0
 62
7
  6
CONTINUOUS
  0
LAYER
  5
207
100
AcDbSymbolTableRecord
100
AcDbLayerTableRecord
  2
03___PRT_ALL_CURVES
 70
0
 62
7
  6
CONTINUOUS
  0
LAYER
  5
208
100
AcDbSymbolTableRecord
100
AcDbLayerTableRecord
  2
04_ALL_DTM_PNT
 70
0
 62
7
  6
CONTINUOUS
  0
LAYER
  5
209
100
AcDbSymbolTableRecord
100
AcDbLayerTableRecord
  2
04__ASM_ALL_DTM_PNT
 70
0
 62
7
  6
CONTINUOUS
  0
LAYER
  5
20A
100
AcDbSymbolTableRecord
100
AcDbLayerTableRecord
  2
04___PRT_ALL_DTM_PNT
 70
0
 62
7
  6
CONTINUOUS
  0
LAYER
  5
20B
100
AcDbSymbolTableRecord
100
AcDbLayerTableRecord
  2
05_ALL_DTM_CSYS
 70
0
 62
7
  6
CONTINUOUS
  0
LAYER
  5
20C
100
AcDbSymbolTableRecord
100
AcDbLayerTableRecord
  2
05__ASM_ALL_DTM_CSYS
 70
0
 62
7
  6
CONTINUOUS
  0
LAYER
  5
20D
100
AcDbSymbolTableRecord
100
AcDbLayerTableRecord
  2
05__ASM_DEF_DTM_CSYS
 70
0
 62
7
  6
CONTINUOUS
  0
LAYER
  5
20E
100
AcDbSymbolTableRecord
100
AcDbLayerTableRecord
  2
05___PRT_ALL_DTM_CSYS
 70
0
 62
7
  6
CONTINUOUS
  0
LAYER
  5
20F
100
AcDbSymbolTableRecord
100
AcDbLayerTableRecord
  2
05___PRT_DEF_DTM_CSYS
 70
0
 62
7
  6
CONTINUOUS
  0
LAYER
  5
210
100
AcDbSymbolTableRecord
100
AcDbLayerTableRecord
  2
06_ALL_SURFS
 70
0
 62
7
  6
CONTINUOUS
  0
LAYER
  5
211
100
AcDbSymbolTableRecord
100
AcDbLayerTableRecord
  2
06__ASM_ALL_SURFS
 70
0
 62
7
  6
CONTINUOUS
  0
LAYER
  5
212
100
AcDbSymbolTableRecord
100
AcDbLayerTableRecord
  2
06___PRT_ALL_SURFS
 70
0
 62
7
  6
CONTINUOUS
  0
LAYER
  5
213
100
AcDbSymbolTableRecord
100
AcDbLayerTableRecord
  2
07__ASM_ALL_SKELETONS
 70
0
 62
7
  6
CONTINUOUS
  0
LAYER
  5
214
100
AcDbSymbolTableRecord
100
AcDbLayerTableRecord
  2
1_ALL_PLANES
 70
0
 62
7
  6
CONTINUOUS
  0
LAYER
  5
215
100
AcDbSymbolTableRecord
100
AcDbLayerTableRecord
  2
2_ALL_CSYS
 70
0
 62
7
  6
CONTINUOUS
  0
LAYER
  5
216
100
AcDbSymbolTableRecord
100
AcDbLayerTableRecord
  2
3_ALL_AXES
 70
0
 62
7
  6
CONTINUOUS
  0
LAYER
  5
217
100
AcDbSymbolTableRecord
100
AcDbLayerTableRecord
  2
4_ALL_POINTS
 70
0
 62
7
  6
CONTINUOUS
  0
LAYER
  5
218
100
AcDbSymbolTableRecord
100
AcDbLayerTableRecord
  2
5_ALL_CURVES
 70
0
 62
7
  6
CONTINUOUS
  0
LAYER
  5
219
100
AcDbSymbolTableRecord
100
AcDbLayerTableRecord
  2
5__COSTRUZIONE
 70
0
 62
7
  6
CONTINUOUS
  0
LAYER
  5
21A
100
AcDbSymbolTableRecord
100
AcDbLayerTableRecord
  2
6_ALL_SURFS
 70
0
 62
7
  6
CONTINUOUS
  0
LAYER
  5
21B
100
AcDbSymbolTableRecord
100
AcDbLayerTableRecord
  2
7_ALL_FEATURES
 70
0
 62
7
  6
CONTINUOUS
  0
LAYER
  5
21C
100
AcDbSymbolTableRecord
100
AcDbLayerTableRecord
  2
9_SOLID
 70
0
 62
7
  6
CONTINUOUS
  0
LAYER
  5
21D
100
AcDbSymbolTableRecord
100
AcDbLayerTableRecord
  2
CLOSED_SHELL
 70
0
 62
7
  6
CONTINUOUS
  0
LAYER
  5
21E
100
AcDbSymbolTableRecord
100
AcDbLayerTableRecord
  2
INTFCLR_2
 70
0
 62
7
  6
CONTINUOUS
  0
LAYER
  5
21F
100
AcDbSymbolTableRecord
100
AcDbLayerTableRecord
  2
INTFCLR_3
 70
0
 62
7
  6
CONTINUOUS
  0
LAYER
  5
220
100
AcDbSymbolTableRecord
100
AcDbLayerTableRecord
  2
INTF_CYAN
 70
0
 62
7
  6
CONTINUOUS
  0
LAYER
  5
221
100
AcDbSymbolTableRecord
100
AcDbLayerTableRecord
  2
XXX_SOLIDO
 70
0
 62
7
  6
CONTINUOUS
  0
ENDTAB
  0
TABLE
  2
STYLE
  5
3
100
AcDbSymbolTable
 70
1
  0
STYLE
  5
11
100
AcDbSymbolTableRecord
100
AcDbTextStyleTableRecord
  2
STANDARD
 70
0
 40
0.0
 41
1.0
 50
0.0
 71
0
 42
0.2
  3
arial.ttf
  4

  0
STYLE
  5
222
100
AcDbSymbolTableRecord
100
AcDbTextStyleTableRecord
  2
TEXTSTYLE_1
 70
0
 40
0.0
 41
0.8
 50
0.0
 71
0
 42
0.2
  3
gdt
  4

  0
STYLE
  5
223
100
AcDbSymbolTableRecord
100
AcDbTextStyleTableRecord
  2
TEXTSTYLE_2
 70
0
 40
0.0
 41
0.85
 50
0.0
 71
0
 42
0.2
  3
gdt
  4

  0
STYLE
  5
224
100
AcDbSymbolTableRecord
100
AcDbTextStyleTableRecord
  2
TEXTSTYLE_3
 70
0
 40
0.0
 41
0.85
 50
0.0
 71
0
 42
0.2
  3
txt
  4

  0
ENDTAB
  0
TABLE
  2
VIEW
  5
6
100
AcDbSymbolTable
 70
0
  0
ENDTAB
  0
TABLE
  2
UCS
  5
7
100
AcDbSymbolTable
 70
0
  0
ENDTAB
  0
TABLE
  2
APPID
  5
9
100
AcDbSymbolTable
 70
1
  0
APPID
  5
225
100
AcDbSymbolTableRecord
100
AcDbRegAppTableRecord
  2
ACAD
 70
0
  0
ENDTAB
  0
TABLE
  2
BLOCK_RECORD
  5
1
100
AcDbSymbolTable
 70
0
  0
BLOCK_RECORD
  5
1F
100
AcDbSymbolTableRecord
100
AcDbBlockTableRecord
  2
*MODEL_SPACE
  0
BLOCK_RECORD
  5
1B
100
AcDbSymbolTableRecord
100
AcDbBlockTableRecord
  2
*PAPER_SPACE
  0
BLOCK_RECORD
  5
226
100
AcDbSymbolTableRecord
100
AcDbBlockTableRecord
  2
_CLOSED
  0
BLOCK_RECORD
  5
227
100
AcDbSymbolTableRecord
100
AcDbBlockTableRecord
  2
*D0
  0
BLOCK_RECORD
  5
228
100
AcDbSymbolTableRecord
100
AcDbBlockTableRecord
  2
*D1
  0
BLOCK_RECORD
  5
229
100
AcDbSymbolTableRecord
100
AcDbBlockTableRecord
  2
*D2
  0
BLOCK_RECORD
  5
22A
100
AcDbSymbolTableRecord
100
AcDbBlockTableRecord
  2
*D3
  0
BLOCK_RECORD
  5
22B
100
AcDbSymbolTableRecord
100
AcDbBlockTableRecord
  2
*D4
  0
BLOCK_RECORD
  5
22C
100
AcDbSymbolTableRecord
100
AcDbBlockTableRecord
  2
*D5
  0
BLOCK_RECORD
  5
22D
100
AcDbSymbolTableRecord
100
AcDbBlockTableRecord
  2
LOGO2_BL0
  0
ENDTAB
  0
TABLE
  2
DIMSTYLE
  5
A
100
AcDbSymbolTable
 70
1
  0
DIMSTYLE
105
22E
100
AcDbSymbolTableRecord
100
AcDbDimStyleTableRecord
  2
STANDARD
 70
0
  3

  4

  5
_CLOSED
  6
_CLOSED
  7
_CLOSED
 40
1.0
 41
2.5
 42
0.75
 43
0.38
 44
0.75
 45
0.0
 46
0.0
 47
0.01
 48
0.01
140
3.0
141
0.09
142
0.0
143
25.4
144
1.0
145
0.0
146
1.0
147
0.625
 71
1.0
 72
0.0
 73
0
 74
0
 75
0
 76
0
 77
1
 78
8
 79
2
170
0
171
1
172
0
173
0
174
0
175
0
176
0
177
0
178
0
270
2
179
2
271
2
272
2
273
2
274
2
275
0
280
0
281
0
282
0
283
1
284
8
285
0
286
0
287
3
288
0
340
11
  0
DIMSTYLE
105
22F
100
AcDbSymbolTableRecord
100
AcDbDimStyleTableRecord
  2
DIMSTYLE_1
 70
0
  3
<>
  4

  5
_CLOSED
  6
_CLOSED
  7
_CLOSED
 40
1.0
 41
2.5
 42
0.75
 43
0.38
 44
0.75
 45
0.0
 46
0.0
 47
0.3
 48
0.3
140
3.0
141
0.09
142
0.0
143
25.4
144
1.0
145
0.0
146
1.0
147
0.625
 71
0.0
 72
0.0
 73
0
 74
0
 75
0
 76
0
 77
1
 78
8
 79
2
170
0
171
1
172
1
173
0
174
0
175
0
176
0
177
0
178
0
270
2
179
2
271
2
272
2
273
2
274
2
275
0
280
0
281
0
282
0
283
1
284
8
285
0
286
0
287
3
288
1
340
11
  0
DIMSTYLE
105
230
100
AcDbSymbolTableRecord
100
AcDbDimStyleTableRecord
  2
DIMSTYLE_2
 70
0
  3

  4

  5
_CLOSED
  6
_CLOSED
  7
_CLOSED
 40
1.0
 41
2.5
 42
0.75
 43
0.38
 44
0.75
 45
0.0
 46
0.0
 47
0.3
 48
0.3
140
3.0
141
0.09
142
0.0
143
25.4
144
1.0
145
0.0
146
1.0
147
0.75
 71
0.0
 72
0.0
 73
0
 74
0
 75
0
 76
0
 77
1
 78
8
 79
2
170
0
171
1
172
0
173
0
174
0
175
0
176
0
177
0
178
0
270
2
179
2
271
2
272
2
273
2
274
2
275
0
280
0
281
0
282
0
283
1
284
8
285
0
286
0
287
3
288
0
340
11
  0
DIMSTYLE
105
231
100
AcDbSymbolTableRecord
100
AcDbDimStyleTableRecord
  2
DIMSTYLE_3
 70
0
  3

  4

  5
_CLOSED
  6
_CLOSED
  7
_CLOSED
 40
1.0
 41
2.5
 42
0.75
 43
0.38
 44
0.75
 45
0.0
 46
0.0
 47
0.2
 48
0.2
140
3.0
141
0.09
142
0.0
143
25.4
144
1.0
145
0.0
146
1.0
147
0.75
 71
0.0
 72
0.0
 73
0
 74
0
 75
0
 76
0
 77
1
 78
8
 79
2
170
0
171
1
172
0
173
0
174
0
175
0
176
0
177
0
178
0
270
2
179
2
271
2
272
2
273
2
274
2
275
0
280
0
281
0
282
0
283
1
284
8
285
0
286
0
287
3
288
0
340
11
  0
ENDTAB
  0
ENDSEC
  0
SECTION
  2
BLOCKS
  0
BLOCK
  5
20
100
AcDbEntity
  8
0
100
AcDbBlockBegin
  2
*MODEL_SPACE
 70
0
 10
0.0
 20
0.0
 30
0.0
  3
*MODEL_SPACE
  1

  0
ENDBLK
  5
21
100
AcDbEntity
  8
0
100
AcDbBlockEnd
  0
BLOCK
  5
1C
100
AcDbEntity
  8
0
100
AcDbBlockBegin
  2
*PAPER_SPACE
 70
0
 10
0.0
 20
0.0
 30
0.0
  3
*PAPER_SPACE
  1

  0
ENDBLK
  5
1D
100
AcDbEntity
  8
0
100
AcDbBlockEnd
  0
BLOCK
  5
232
100
AcDbEntity
  8
0
100
AcDbBlockBegin
 62
2
  6
CONTINUOUS
  2
LOGO2_BL0
 70
64
 10
333.6475659158
 20
36.9217920391
  3
LOGO2_BL0
  1

  0
LINE
  5
233
100
AcDbEntity
  8
0
100
AcDbLine
 62
7
  6
CONTINUOUS
 10
325.390491144
 20
40.1172833779
 11
324.0861502147
 21
40.1172833779
  0
LINE
  5
234
100
AcDbEntity
  8
0
100
AcDbLine
 62
7
  6
CONTINUOUS
 10
324.0861502147
 20
40.1172833779
 11
324.0861502147
 21
29.6582173181
  0
LINE
  5
235
100
AcDbEntity
  8
0
100
AcDbLine
 62
7
  6
CONTINUOUS
 10
324.0861502147
 20
29.6582173181
 11
328.567205103
 21
29.6582173181
  0
LINE
  5
236
100
AcDbEntity
  8
0
100
AcDbLine
 62
7
  6
CONTINUOUS
 10
328.567205103
 20
29.6582173181
 11
328.567205103
 21
30.8510716431
  0
LINE
  5
237
100
AcDbEntity
  8
0
100
AcDbLine
 62
7
  6
CONTINUOUS
 10
328.567205103
 20
30.8510716431
 11
325.390491144
 21
30.8510716431
  0
LINE
  5
238
100
AcDbEntity
  8
0
100
AcDbLine
 62
7
  6
CONTINUOUS
 10
325.390491144
 20
30.8510716431
 11
325.390491144
 21
40.1172833779
  0
LINE
  5
239
100
AcDbEntity
  8
0
100
AcDbLine
 62
7
  6
CONTINUOUS
 10
340.3268173604
 20
40.1172833779
 11
339.0229998423
 21
40.1172833779
  0
LINE
  5
23A
100
AcDbEntity
  8
0
100
AcDbLine
 62
7
  6
CONTINUOUS
 10
339.0229998423
 20
40.1172833779
 11
339.0229998423
 21
29.6582173181
  0
LINE
  5
23B
100
AcDbEntity
  8
0
100
AcDbLine
 62
7
  6
CONTINUOUS
 10
339.0229998423
 20
29.6582173181
 11
343.5041855834
 21
29.6582173181
  0
LINE
  5
23C
100
AcDbEntity
  8
0
100
AcDbLine
 62
7
  6
CONTINUOUS
 10
343.5041855834
 20
29.6582173181
 11
343.5041855834
 21
30.8510716431
  0
LINE
  5
23D
100
AcDbEntity
  8
0
100
AcDbLine
 62
7
  6
CONTINUOUS
 10
343.5041855834
 20
30.8510716431
 11
340.3268173604
 21
30.8510716431
  0
LINE
  5
23E
100
AcDbEntity
  8
0
100
AcDbLine
 62
7
  6
CONTINUOUS
 10
340.3268173604
 20
30.8510716431
 11
340.3268173604
 21
40.1172833779
  0
LWPOLYLINE
  5
23F
100
AcDbEntity
  8
0
100
AcDbPolyline
 62
7
  6
CONTINUOUS
 90
2
 70
0
 43
0.2
 10
322.4405451256
 20
26.3146660112
 10
322.4405451256
 20
24.4576027618
  0
LWPOLYLINE
  5
240
100
AcDbEntity
  8
0
100
AcDbPolyline
 62
7
  6
CONTINUOUS
 90
2
 70
0
 43
0.2
 10
322.4405451256
 20
24.4576027618
 10
323.236261136
 20
24.4576027618
  0
LWPOLYLINE
  5
241
100
AcDbEntity
  8
0
100
AcDbPolyline
 62
7
  6
CONTINUOUS
 90
2
 70
0
 43
0.2
 10
323.236261136
 20
24.4576027618
 10
323.236261136
 20
24.6695843334
  0
LWPOLYLINE
  5
242
100
AcDbEntity
  8
0
100
AcDbPolyline
 62
7
  6
CONTINUOUS
 90
2
 70
0
 43
0.2
 10
323.236261136
 20
24.6695843334
 10
322.6721546205
 20
24.6695843334
  0
LWPOLYLINE
  5
243
100
AcDbEntity
  8
0
100
AcDbPolyline
 62
7
  6
CONTINUOUS
 90
2
 70
0
 43
0.2
 10
322.6721546205
 20
24.6695843334
 10
322.6721546205
 20
26.3146660112
  0
LWPOLYLINE
  5
244
100
AcDbEntity
  8
0
100
AcDbPolyline
 62
7
  6
CONTINUOUS
 90
2
 70
0
 43
0.2
 10
322.6721546205
 20
26.3146660112
 10
322.4405451256
 20
26.3146660112
  0
SPLINE
  5
245
100
AcDbEntity
  8
0
100
AcDbSpline
 62
7
  6
CONTINUOUS
 70
2
 71
3
 72
35
 73
31
 74
0
 42
0.0000001
 43
0.0000001
 44
0.0000000001
 40
0.0
 40
0.0
 40
0.0
 40
0.0
 40
1.0
 40
1.0
 40
1.0
 40
2.0
 40
2.0
 40
2.0
 40
3.0
 40
3.0
 40
3.0
 40
4.0
 40
4.0
 40
4.0
 40
5.0
 40
5.0
 40
5.0
 40
6.0
 40
6.0
 40
6.0
 40
7.0
 40
7.0
 40
7.0
 40
8.0
 40
8.0
 40
8.0
 40
9.0
 40
9.0
 40
9.0
 40
10.0
 40
10.0
 40
10.0
 40
10.0
 10
324.6345543915
 20
25.6101544177
 30
0.0
 10
324.6345543915
 20
25.6101544177
 30
0.0
 10
324.6345543915
 20
24.9480391385
 30
0.0
 10
324.6345543915
 20
24.9480391385
 30
0.0
 10
324.6345543915
 20
24.6329455432
 30
0.0
 10
324.7824180804
 20
24.4183469152
 30
0.0
 10
325.1225045647
 20
24.4183469152
 30
0.0
 10
325.4620676377
 20
24.4183469152
 30
0.0
 10
325.6101930321
 20
24.6329455432
 30
0.0
 10
325.6101930321
 20
24.9480391385
 30
0.0
 10
325.6101930321
 20
24.9480391385
 30
0.0
 10
325.6101930321
 20
25.6101544177
 30
0.0
 10
325.6101930321
 20
25.6101544177
 30
0.0
 10
325.6101930321
 20
25.6101544177
 30
0.0
 10
325.3881357933
 20
25.6101544177
 30
0.0
 10
325.3881357933
 20
25.6101544177
 30
0.0
 10
325.3881357933
 20
25.6101544177
 30
0.0
 10
325.3881357933
 20
24.9731628803
 30
0.0
 10
325.3881357933
 20
24.9731628803
 30
0.0
 10
325.3881357933
 20
24.7873518732
 30
0.0
 10
325.3414213358
 20
24.6245709626
 30
0.0
 10
325.1225045647
 20
24.6245709626
 30
0.0
 10
324.9030643822
 20
24.6245709626
 30
0.0
 10
324.8563499248
 20
24.7873518732
 30
0.0
 10
324.8563499248
 20
24.9731628803
 30
0.0
 10
324.8563499248
 20
24.9731628803
 30
0.0
 10
324.8563499248
 20
25.6101544177
 30
0.0
 10
324.8563499248
 20
25.6101544177
 30
0.0
 10
324.8563499248
 20
25.6101544177
 30
0.0
 10
324.6345543915
 20
25.6101544177
 30
0.0
 10
324.6345543915
 20
25.6101544177
 30
0.0
  0
SPLINE
  5
246
100
AcDbEntity
  8
0
100
AcDbSpline
 62
7
  6
CONTINUOUS
 70
2
 71
3
 72
35
 73
31
 74
0
 42
0.0000001
 43
0.0000001
 44
0.0000000001
 40
0.0
 40
0.0
 40
0.0
 40
0.0
 40
1.0
 40
1.0
 40
1.0
 40
2.0
 40
2.0
 40
2.0
 40
3.0
 40
3.0
 40
3.0
 40
4.0
 40
4.0
 40
4.0
 40
5.0
 40
5.0
 40
5.0
 40
6.0
 40
6.0
 40
6.0
 40
7.0
 40
7.0
 40
7.0
 40
8.0
 40
8.0
 40
8.0
 40
9.0
 40
9.0
 40
9.0
 40
10.0
 40
10.0
 40
10.0
 40
10.0
 10
328.0333255893
 20
25.5688049259
 30
0.0
 10
327.9448690817
 20
25.6200992322
 30
0.0
 10
327.831419685
 20
25.645222974
 30
0.0
 10
327.72778425
 20
25.645222974
 30
0.0
 10
327.3729113969
 20
25.645222974
 30
0.0
 10
327.0974662066
 20
25.3814236849
 30
0.0
 10
327.0974662066
 20
25.0239337753
 30
0.0
 10
327.0974662066
 20
24.6790057366
 30
0.0
 10
327.3759210118
 20
24.4188703265
 30
0.0
 10
327.7154840848
 20
24.4188703265
 30
0.0
 10
327.831419685
 20
24.4188703265
 30
0.0
 10
327.9321763579
 20
24.4408536006
 30
0.0
 10
328.0333255893
 20
24.4947649632
 30
0.0
 10
328.0333255893
 20
24.4947649632
 30
0.0
 10
328.0333255893
 20
24.7774070587
 30
0.0
 10
328.0333255893
 20
24.7774070587
 30
0.0
 10
327.9494489304
 20
24.6842398494
 30
0.0
 10
327.8459443483
 20
24.6250943739
 30
0.0
 10
327.7178394356
 20
24.6250943739
 30
0.0
 10
327.4841362955
 20
24.6250943739
 30
0.0
 10
327.3188691814
 20
24.7972966876
 30
0.0
 10
327.3188691814
 20
25.0338785897
 30
0.0
 10
327.3188691814
 20
25.2458601613
 30
0.0
 10
327.4866224991
 20
25.437952104
 30
0.0
 10
327.7034456251
 20
25.437952104
 30
0.0
 10
327.8362612394
 20
25.437952104
 30
0.0
 10
327.9448690817
 20
25.3840407413
 30
0.0
 10
328.0333255893
 20
25.2830223628
 30
0.0
 10
328.0333255893
 20
25.2830223628
 30
0.0
 10
328.0333255893
 20
25.5688049259
 30
0.0
 10
328.0333255893
 20
25.5688049259
 30
0.0
  0
SPLINE
  5
247
100
AcDbEntity
  8
0
100
AcDbSpline
 62
7
  6
CONTINUOUS
 70
2
 71
3
 72
32
 73
28
 74
0
 42
0.0000001
 43
0.0000001
 44
0.0000000001
 40
0.0
 40
0.0
 40
0.0
 40
0.0
 40
1.0
 40
1.0
 40
1.0
 40
2.0
 40
2.0
 40
2.0
 40
3.0
 40
3.0
 40
3.0
 40
4.0
 40
4.0
 40
4.0
 40
5.0
 40
5.0
 40
5.0
 40
6.0
 40
6.0
 40
6.0
 40
7.0
 40
7.0
 40
7.0
 40
8.0
 40
8.0
 40
8.0
 40
9.0
 40
9.0
 40
9.0
 40
9.0
 10
330.5651968416
 20
24.9972397996
 30
0.0
 10
330.5651968416
 20
24.9972397996
 30
0.0
 10
330.5651968416
 20
25.0312615333
 30
0.0
 10
330.5651968416
 20
25.0312615333
 30
0.0
 10
330.5651968416
 20
25.3735725156
 30
0.0
 10
330.3923402638
 20
25.645222974
 30
0.0
 10
330.0256906566
 20
25.645222974
 30
0.0
 10
329.6540686422
 20
25.645222974
 30
0.0
 10
329.4643320504
 20
25.3788066284
 30
0.0
 10
329.4643320504
 20
25.0239337753
 30
0.0
 10
329.4643320504
 20
24.6842398494
 30
0.0
 10
329.6784072671
 20
24.4183469152
 30
0.0
 10
330.030532211
 20
24.4183469152
 30
0.0
 10
330.2545522422
 20
24.4183469152
 30
0.0
 10
330.4567198522
 20
24.5340208098
 30
0.0
 10
330.5651968416
 20
24.7334405105
 30
0.0
 10
330.5651968416
 20
24.7334405105
 30
0.0
 10
330.3775538949
 20
24.8402164132
 30
0.0
 10
330.3775538949
 20
24.8402164132
 30
0.0
 10
330.2940697945
 20
24.7015124219
 30
0.0
 10
330.2028653775
 20
24.6156729707
 30
0.0
 10
330.0332801203
 20
24.6156729707
 30
0.0
 10
329.8212985487
 20
24.6156729707
 30
0.0
 10
329.6883520816
 20
24.8004371554
 30
0.0
 10
329.6859967308
 20
24.9972397996
 30
0.0
 10
329.6859967308
 20
24.9972397996
 30
0.0
 10
330.5651968416
 20
24.9972397996
 30
0.0
 10
330.5651968416
 20
24.9972397996
 30
0.0
  0
SPLINE
  5
248
100
AcDbEntity
  8
0
100
AcDbSpline
 62
7
  6
CONTINUOUS
 70
2
 71
3
 72
14
 73
10
 74
0
 42
0.0000001
 43
0.0000001
 44
0.0000000001
 40
0.0
 40
0.0
 40
0.0
 40
0.0
 40
1.0
 40
1.0
 40
1.0
 40
2.0
 40
2.0
 40
2.0
 40
3.0
 40
3.0
 40
3.0
 40
3.0
 10
329.6980351904
 20
25.1647314117
 30
0.0
 10
329.7256451358
 20
25.3296059674
 30
0.0
 10
329.8534883429
 20
25.45260762
 30
0.0
 10
330.0256906566
 20
25.45260762
 30
0.0
 10
330.2028653775
 20
25.45260762
 30
0.0
 10
330.3163147742
 20
25.3369337254
 30
0.0
 10
330.3435321612
 20
25.1647314117
 30
0.0
 10
330.3435321612
 20
25.1647314117
 30
0.0
 10
329.6980351904
 20
25.1647314117
 30
0.0
 10
329.6980351904
 20
25.1647314117
 30
0.0
  0
SPLINE
  5
249
100
AcDbEntity
  8
0
100
AcDbSpline
 62
7
  6
CONTINUOUS
 70
2
 71
3
 72
20
 73
16
 74
0
 42
0.0000001
 43
0.0000001
 44
0.0000000001
 40
0.0
 40
0.0
 40
0.0
 40
0.0
 40
1.0
 40
1.0
 40
1.0
 40
2.0
 40
2.0
 40
2.0
 40
3.0
 40
3.0
 40
3.0
 40
4.0
 40
4.0
 40
4.0
 40
5.0
 40
5.0
 40
5.0
 40
5.0
 10
332.5892282918
 20
25.3740959269
 30
0.0
 10
332.5892282918
 20
25.3740959269
 30
0.0
 10
333.0003678584
 20
24.8716210905
 30
0.0
 10
333.0003678584
 20
24.8716210905
 30
0.0
 10
332.8843014053
 20
24.7559471959
 30
0.0
 10
332.7465133838
 20
24.6256177852
 30
0.0
 10
332.5745727757
 20
24.6256177852
 30
0.0
 10
332.3971363491
 20
24.6256177852
 30
0.0
 10
332.229644737
 20
24.7899689296
 30
0.0
 10
332.229644737
 20
24.9668819449
 30
0.0
 10
332.229644737
 20
25.1448417828
 30
0.0
 10
332.4394018106
 20
25.2709839031
 30
0.0
 10
332.566983312
 20
25.3589169995
 30
0.0
 10
332.566983312
 20
25.3589169995
 30
0.0
 10
332.5892282918
 20
25.3740959269
 30
0.0
 10
332.5892282918
 20
25.3740959269
 30
0.0
  0
SPLINE
  5
24A
100
AcDbEntity
  8
0
100
AcDbSpline
 62
7
  6
CONTINUOUS
 70
2
 71
3
 72
23
 73
19
 74
0
 42
0.0000001
 43
0.0000001
 44
0.0000000001
 40
0.0
 40
0.0
 40
0.0
 40
0.0
 40
1.0
 40
1.0
 40
1.0
 40
2.0
 40
2.0
 40
2.0
 40
3.0
 40
3.0
 40
3.0
 40
4.0
 40
4.0
 40
4.0
 40
5.0
 40
5.0
 40
5.0
 40
6.0
 40
6.0
 40
6.0
 40
6.0
 10
332.6385598056
 20
25.6651126029
 30
0.0
 10
332.6385598056
 20
25.6651126029
 30
0.0
 10
332.5769281265
 20
25.7436242961
 30
0.0
 10
332.5769281265
 20
25.7436242961
 30
0.0
 10
332.5230167639
 20
25.8121911748
 30
0.0
 10
332.4662266391
 20
25.8812814648
 30
0.0
 10
332.4662266391
 20
25.9749720853
 30
0.0
 10
332.4662266391
 20
26.0937864477
 30
0.0
 10
332.5621417576
 20
26.1712513183
 30
0.0
 10
332.6731049506
 20
26.1712513183
 30
0.0
 10
332.7963683089
 20
26.1712513183
 30
0.0
 10
332.889666371
 20
26.1000673831
 30
0.0
 10
332.889666371
 20
25.9697379725
 30
0.0
 10
332.889666371
 20
25.8346978602
 30
0.0
 10
332.7615614583
 20
25.7582798122
 30
0.0
 10
332.6680016906
 20
25.6844788206
 30
0.0
 10
332.6680016906
 20
25.6844788206
 30
0.0
 10
332.6385598056
 20
25.6651126029
 30
0.0
 10
332.6385598056
 20
25.6651126029
 30
0.0
  0
SPLINE
  5
24B
100
AcDbEntity
  8
0
100
AcDbSpline
 62
7
  6
CONTINUOUS
 70
2
 71
3
 72
50
 73
46
 74
0
 42
0.0000001
 43
0.0000001
 44
0.0000000001
 40
0.0
 40
0.0
 40
0.0
 40
0.0
 40
1.0
 40
1.0
 40
1.0
 40
2.0
 40
2.0
 40
2.0
 40
3.0
 40
3.0
 40
3.0
 40
4.0
 40
4.0
 40
4.0
 40
5.0
 40
5.0
 40
5.0
 40
6.0
 40
6.0
 40
6.0
 40
7.0
 40
7.0
 40
7.0
 40
8.0
 40
8.0
 40
8.0
 40
9.0
 40
9.0
 40
9.0
 40
10.0
 40
10.0
 40
10.0
 40
11.0
 40
11.0
 40
11.0
 40
12.0
 40
12.0
 40
12.0
 40
13.0
 40
13.0
 40
13.0
 40
14.0
 40
14.0
 40
14.0
 40
15.0
 40
15.0
 40
15.0
 40
15.0
 10
333.3407160483
 20
24.4581261731
 30
0.0
 10
333.3407160483
 20
24.4581261731
 30
0.0
 10
333.626106053
 20
24.4581261731
 30
0.0
 10
333.626106053
 20
24.4581261731
 30
0.0
 10
333.626106053
 20
24.4581261731
 30
0.0
 10
333.2937398852
 20
24.8690040341
 30
0.0
 10
333.2937398852
 20
24.8690040341
 30
0.0
 10
333.2937398852
 20
24.8690040341
 30
0.0
 10
333.5202461201
 20
25.1348969683
 30
0.0
 10
333.5202461201
 20
25.1348969683
 30
0.0
 10
333.5202461201
 20
25.1348969683
 30
0.0
 10
333.3719898728
 20
25.2877330644
 30
0.0
 10
333.3719898728
 20
25.2877330644
 30
0.0
 10
333.3719898728
 20
25.2877330644
 30
0.0
 10
333.1560827165
 20
25.0364956462
 30
0.0
 10
333.1560827165
 20
25.0364956462
 30
0.0
 10
333.1560827165
 20
25.0364956462
 30
0.0
 10
332.7690200692
 20
25.5044253375
 30
0.0
 10
332.7690200692
 20
25.5044253375
 30
0.0
 10
332.9244732216
 20
25.6185289983
 30
0.0
 10
333.1067512026
 20
25.7582798122
 30
0.0
 10
333.1067512026
 20
25.9676443273
 30
0.0
 10
333.1067512026
 20
26.2115539874
 30
0.0
 10
332.9047144455
 20
26.3549686803
 30
0.0
 10
332.6782082107
 20
26.3549686803
 30
0.0
 10
332.4340368449
 20
26.3549686803
 30
0.0
 10
332.2496652188
 20
26.2042262294
 30
0.0
 10
332.2496652188
 20
25.9477546984
 30
0.0
 10
332.2496652188
 20
25.7902079007
 30
0.0
 10
332.3483282465
 20
25.652550732
 30
0.0
 10
332.4536647682
 20
25.541587539
 30
0.0
 10
332.4536647682
 20
25.541587539
 30
0.0
 10
332.3381217264
 20
25.4578417329
 30
0.0
 10
332.3381217264
 20
25.4578417329
 30
0.0
 10
332.1604235942
 20
25.3296059674
 30
0.0
 10
332.0130833166
 20
25.2018936131
 30
0.0
 10
332.0130833166
 20
24.9647882997
 30
0.0
 10
332.0130833166
 20
24.6444605916
 30
0.0
 10
332.2716484929
 20
24.4183469152
 30
0.0
 10
332.5820313866
 20
24.4183469152
 30
0.0
 10
332.8009481577
 20
24.4183469152
 30
0.0
 10
332.9981433604
 20
24.543442213
 30
0.0
 10
333.1384175856
 20
24.7093635913
 30
0.0
 10
333.1384175856
 20
24.7093635913
 30
0.0
 10
333.3407160483
 20
24.4581261731
 30
0.0
 10
333.3407160483
 20
24.4581261731
 30
0.0
  0
LWPOLYLINE
  5
24C
100
AcDbEntity
  8
0
100
AcDbPolyline
 62
7
  6
CONTINUOUS
 90
2
 70
0
 43
0.2
 10
335.276160138
 20
26.3146660112
 10
335.0448123488
 20
26.3146660112
  0
LWPOLYLINE
  5
24D
100
AcDbEntity
  8
0
100
AcDbPolyline
 62
7
  6
CONTINUOUS
 90
2
 70
0
 43
0.2
 10
335.0448123488
 20
26.3146660112
 10
335.0448123488
 20
24.4576027618
  0
LWPOLYLINE
  5
24E
100
AcDbEntity
  8
0
100
AcDbPolyline
 62
7
  6
CONTINUOUS
 90
2
 70
0
 43
0.2
 10
335.0448123488
 20
24.4576027618
 10
335.8401358007
 20
24.4576027618
  0
LWPOLYLINE
  5
24F
100
AcDbEntity
  8
0
100
AcDbPolyline
 62
7
  6
CONTINUOUS
 90
2
 70
0
 43
0.2
 10
335.8401358007
 20
24.4576027618
 10
335.8401358007
 20
24.6695843334
  0
LWPOLYLINE
  5
250
100
AcDbEntity
  8
0
100
AcDbPolyline
 62
7
  6
CONTINUOUS
 90
2
 70
0
 43
0.2
 10
335.8401358007
 20
24.6695843334
 10
335.276160138
 20
24.6695843334
  0
LWPOLYLINE
  5
251
100
AcDbEntity
  8
0
100
AcDbPolyline
 62
7
  6
CONTINUOUS
 90
2
 70
0
 43
0.2
 10
335.276160138
 20
24.6695843334
 10
335.276160138
 20
26.3146660112
  0
LWPOLYLINE
  5
252
100
AcDbEntity
  8
0
100
AcDbPolyline
 62
7
  6
CONTINUOUS
 90
2
 70
0
 43
0.2
 10
337.5192392122
 20
25.6101544177
 10
337.2980979431
 20
25.6101544177
  0
LWPOLYLINE
  5
253
100
AcDbEntity
  8
0
100
AcDbPolyline
 62
7
  6
CONTINUOUS
 90
2
 70
0
 43
0.2
 10
337.2980979431
 20
25.6101544177
 10
337.2980979431
 20
24.4581261731
  0
LWPOLYLINE
  5
254
100
AcDbEntity
  8
0
100
AcDbPolyline
 62
7
  6
CONTINUOUS
 90
2
 70
0
 43
0.2
 10
337.2980979431
 20
24.4581261731
 10
337.5192392122
 20
24.4581261731
  0
LWPOLYLINE
  5
255
100
AcDbEntity
  8
0
100
AcDbPolyline
 62
7
  6
CONTINUOUS
 90
2
 70
0
 43
0.2
 10
337.5192392122
 20
24.4581261731
 10
337.5192392122
 20
25.6101544177
  0
LWPOLYLINE
  5
256
100
AcDbEntity
  8
0
100
AcDbPolyline
 62
7
  6
CONTINUOUS
 90
2
 70
1
 43
0.2
 10
337.256215935
 20
26.1401083467
 42
1.0
 10
337.5613829259
 20
26.1401083467
 42
1.0
  0
SPLINE
  5
257
100
AcDbEntity
  8
0
100
AcDbSpline
 62
7
  6
CONTINUOUS
 70
2
 71
3
 72
17
 73
13
 74
0
 42
0.0000001
 43
0.0000001
 44
0.0000000001
 40
0.0
 40
0.0
 40
0.0
 40
0.0
 40
1.0
 40
1.0
 40
1.0
 40
2.0
 40
2.0
 40
2.0
 40
3.0
 40
3.0
 40
3.0
 40
4.0
 40
4.0
 40
4.0
 40
4.0
 10
339.6495231538
 20
24.6156729707
 30
0.0
 10
339.4155583082
 20
24.6156729707
 30
0.0
 10
339.2852288975
 20
24.8177097279
 30
0.0
 10
339.2852288975
 20
25.0338785897
 30
0.0
 10
339.2852288975
 20
25.2484772178
 30
0.0
 10
339.4210541267
 20
25.4473735072
 30
0.0
 10
339.6495231538
 20
25.4473735072
 30
0.0
 10
339.888983818
 20
25.4473735072
 30
0.0
 10
340.0245473416
 20
25.2584220322
 30
0.0
 10
340.0245473416
 20
25.0338785897
 30
0.0
 10
340.0245473416
 20
24.8077649134
 30
0.0
 10
339.8913391688
 20
24.6156729707
 30
0.0
 10
339.6495231538
 20
24.6156729707
 30
0.0
  0
SPLINE
  5
258
100
AcDbEntity
  8
0
100
AcDbSpline
 62
7
  6
CONTINUOUS
 70
2
 71
3
 72
50
 73
46
 74
0
 42
0.0000001
 43
0.0000001
 44
0.0000000001
 40
0.0
 40
0.0
 40
0.0
 40
0.0
 40
1.0
 40
1.0
 40
1.0
 40
2.0
 40
2.0
 40
2.0
 40
3.0
 40
3.0
 40
3.0
 40
4.0
 40
4.0
 40
4.0
 40
5.0
 40
5.0
 40
5.0
 40
6.0
 40
6.0
 40
6.0
 40
7.0
 40
7.0
 40
7.0
 40
8.0
 40
8.0
 40
8.0
 40
9.0
 40
9.0
 40
9.0
 40
10.0
 40
10.0
 40
10.0
 40
11.0
 40
11.0
 40
11.0
 40
12.0
 40
12.0
 40
12.0
 40
13.0
 40
13.0
 40
13.0
 40
14.0
 40
14.0
 40
14.0
 40
15.0
 40
15.0
 40
15.0
 40
15.0
 10
340.2336501511
 20
25.610677829
 30
0.0
 10
340.2336501511
 20
25.610677829
 30
0.0
 10
340.0119854707
 20
25.610677829
 30
0.0
 10
340.0119854707
 20
25.610677829
 30
0.0
 10
340.0119854707
 20
25.610677829
 30
0.0
 10
340.0119854707
 20
25.4133517734
 30
0.0
 10
340.0119854707
 20
25.4133517734
 30
0.0
 10
340.0119854707
 20
25.4133517734
 30
0.0
 10
340.0072747691
 20
25.4133517734
 30
0.0
 10
340.0072747691
 20
25.4133517734
 30
0.0
 10
339.9159394994
 20
25.556243055
 30
0.0
 10
339.778020625
 20
25.6446995627
 30
0.0
 10
339.6052949
 20
25.6446995627
 30
0.0
 10
339.2729287322
 20
25.6446995627
 30
0.0
 10
339.0638259227
 20
25.3568233544
 30
0.0
 10
339.0638259227
 20
25.0412063478
 30
0.0
 10
339.0638259227
 20
24.7114572364
 30
0.0
 10
339.2608902726
 20
24.4183469152
 30
0.0
 10
339.6157631258
 20
24.4183469152
 30
0.0
 10
339.778020625
 20
24.4183469152
 30
0.0
 10
339.9180331445
 20
24.5068034229
 30
0.0
 10
340.0072747691
 20
24.6376562448
 30
0.0
 10
340.0072747691
 20
24.6376562448
 30
0.0
 10
340.0119854707
 20
24.6376562448
 30
0.0
 10
340.0119854707
 20
24.6376562448
 30
0.0
 10
340.0119854707
 20
24.6376562448
 30
0.0
 10
340.0119854707
 20
24.4183469152
 30
0.0
 10
340.0119854707
 20
24.4183469152
 30
0.0
 10
340.0119854707
 20
24.1817650131
 30
0.0
 10
339.9554570516
 20
23.9949071833
 30
0.0
 10
339.6822363593
 20
23.9949071833
 30
0.0
 10
339.4799378966
 20
23.9949071833
 30
0.0
 10
339.3373083206
 20
24.1131981344
 30
0.0
 10
339.3373083206
 20
24.3194221818
 30
0.0
 10
339.3373083206
 20
24.3194221818
 30
0.0
 10
339.1156436402
 20
24.3194221818
 30
0.0
 10
339.1156436402
 20
24.3194221818
 30
0.0
 10
339.1206160475
 20
23.9949071833
 30
0.0
 10
339.351702131
 20
23.7981045391
 30
0.0
 10
339.6720298392
 20
23.7981045391
 30
0.0
 10
340.1200699016
 20
23.7981045391
 30
0.0
 10
340.2336501511
 20
24.083363691
 30
0.0
 10
340.2336501511
 20
24.4801094472
 30
0.0
 10
340.2336501511
 20
24.4801094472
 30
0.0
 10
340.2336501511
 20
25.610677829
 30
0.0
 10
340.2336501511
 20
25.610677829
 30
0.0
  0
SPLINE
  5
259
100
AcDbEntity
  8
0
100
AcDbSpline
 62
7
  6
CONTINUOUS
 70
2
 71
3
 72
44
 73
40
 74
0
 42
0.0000001
 43
0.0000001
 44
0.0000000001
 40
0.0
 40
0.0
 40
0.0
 40
0.0
 40
1.0
 40
1.0
 40
1.0
 40
2.0
 40
2.0
 40
2.0
 40
3.0
 40
3.0
 40
3.0
 40
4.0
 40
4.0
 40
4.0
 40
5.0
 40
5.0
 40
5.0
 40
6.0
 40
6.0
 40
6.0
 40
7.0
 40
7.0
 40
7.0
 40
8.0
 40
8.0
 40
8.0
 40
9.0
 40
9.0
 40
9.0
 40
10.0
 40
10.0
 40
10.0
 40
11.0
 40
11.0
 40
11.0
 40
12.0
 40
12.0
 40
12.0
 40
13.0
 40
13.0
 40
13.0
 40
13.0
 10
341.8025754865
 20
26.5957378727
 30
0.0
 10
341.8025754865
 20
26.5957378727
 30
0.0
 10
341.8025754865
 20
24.4576027618
 30
0.0
 10
341.8025754865
 20
24.4576027618
 30
0.0
 10
341.8025754865
 20
24.4576027618
 30
0.0
 10
342.0239784613
 20
24.4576027618
 30
0.0
 10
342.0239784613
 20
24.4576027618
 30
0.0
 10
342.0239784613
 20
24.4576027618
 30
0.0
 10
342.0239784613
 20
24.9872949851
 30
0.0
 10
342.0239784613
 20
24.9872949851
 30
0.0
 10
342.0239784613
 20
25.1971829116
 30
0.0
 10
342.0239784613
 20
25.4478969184
 30
0.0
 10
342.3092376132
 20
25.4478969184
 30
0.0
 10
342.5361364065
 20
25.4478969184
 30
0.0
 10
342.5630920878
 20
25.3149504513
 30
0.0
 10
342.5630920878
 20
25.1186712184
 30
0.0
 10
342.5630920878
 20
25.1186712184
 30
0.0
 10
342.5630920878
 20
24.4576027618
 30
0.0
 10
342.5630920878
 20
24.4576027618
 30
0.0
 10
342.5630920878
 20
24.4576027618
 30
0.0
 10
342.7850184738
 20
24.4576027618
 30
0.0
 10
342.7850184738
 20
24.4576027618
 30
0.0
 10
342.7850184738
 20
24.4576027618
 30
0.0
 10
342.7850184738
 20
25.1448417828
 30
0.0
 10
342.7850184738
 20
25.1448417828
 30
0.0
 10
342.7850184738
 20
25.4253902331
 30
0.0
 10
342.7010109621
 20
25.645222974
 30
0.0
 10
342.3759725524
 20
25.645222974
 30
0.0
 10
342.2362217385
 20
25.645222974
 30
0.0
 10
342.0980411585
 20
25.5787497404
 30
0.0
 10
342.0286891629
 20
25.4557480878
 30
0.0
 10
342.0286891629
 20
25.4557480878
 30
0.0
 10
342.0239784613
 20
25.4557480878
 30
0.0
 10
342.0239784613
 20
25.4557480878
 30
0.0
 10
342.0239784613
 20
25.4557480878
 30
0.0
 10
342.0239784613
 20
26.5957378727
 30
0.0
 10
342.0239784613
 20
26.5957378727
 30
0.0
 10
342.0239784613
 20
26.5957378727
 30
0.0
 10
341.8025754865
 20
26.5957378727
 30
0.0
 10
341.8025754865
 20
26.5957378727
 30
0.0
  0
LWPOLYLINE
  5
25A
100
AcDbEntity
  8
0
100
AcDbPolyline
 62
7
  6
CONTINUOUS
 90
2
 70
0
 43
0.2
 10
344.6248091507
 20
25.403406959
 10
344.8412397182
 20
25.403406959
  0
LWPOLYLINE
  5
25B
100
AcDbEntity
  8
0
100
AcDbPolyline
 62
7
  6
CONTINUOUS
 90
2
 70
0
 43
0.2
 10
344.8412397182
 20
25.403406959
 10
344.8412397182
 20
25.6101544177
  0
LWPOLYLINE
  5
25C
100
AcDbEntity
  8
0
100
AcDbPolyline
 62
7
  6
CONTINUOUS
 90
2
 70
0
 43
0.2
 10
344.8412397182
 20
25.6101544177
 10
344.6248091507
 20
25.6101544177
  0
LWPOLYLINE
  5
25D
100
AcDbEntity
  8
0
100
AcDbPolyline
 62
7
  6
CONTINUOUS
 90
2
 70
0
 43
0.2
 10
344.6248091507
 20
25.6101544177
 10
344.6248091507
 20
26.0508667221
  0
LWPOLYLINE
  5
25E
100
AcDbEntity
  8
0
100
AcDbPolyline
 62
7
  6
CONTINUOUS
 90
2
 70
0
 43
0.2
 10
344.6248091507
 20
26.0508667221
 10
344.4031444703
 20
26.0508667221
  0
LWPOLYLINE
  5
25F
100
AcDbEntity
  8
0
100
AcDbPolyline
 62
7
  6
CONTINUOUS
 90
2
 70
0
 43
0.2
 10
344.4031444703
 20
26.0508667221
 10
344.4031444703
 20
25.6101544177
  0
LWPOLYLINE
  5
260
100
AcDbEntity
  8
0
100
AcDbPolyline
 62
7
  6
CONTINUOUS
 90
2
 70
0
 43
0.2
 10
344.4031444703
 20
25.6101544177
 10
344.2824981684
 20
25.6101544177
  0
LWPOLYLINE
  5
261
100
AcDbEntity
  8
0
100
AcDbPolyline
 62
7
  6
CONTINUOUS
 90
2
 70
0
 43
0.2
 10
344.2824981684
 20
25.6101544177
 10
344.2824981684
 20
25.403406959
  0
LWPOLYLINE
  5
262
100
AcDbEntity
  8
0
100
AcDbPolyline
 62
7
  6
CONTINUOUS
 90
2
 70
0
 43
0.2
 10
344.2824981684
 20
25.403406959
 10
344.4031444703
 20
25.403406959
  0
LWPOLYLINE
  5
263
100
AcDbEntity
  8
0
100
AcDbPolyline
 62
7
  6
CONTINUOUS
 90
2
 70
0
 43
0.2
 10
344.4031444703
 20
25.403406959
 10
344.4031444703
 20
24.4576027618
  0
LWPOLYLINE
  5
264
100
AcDbEntity
  8
0
100
AcDbPolyline
 62
7
  6
CONTINUOUS
 90
2
 70
0
 43
0.2
 10
344.4031444703
 20
24.4576027618
 10
344.6248091507
 20
24.4576027618
  0
LWPOLYLINE
  5
265
100
AcDbEntity
  8
0
100
AcDbPolyline
 62
7
  6
CONTINUOUS
 90
2
 70
0
 43
0.2
 10
344.6248091507
 20
24.4576027618
 10
344.6248091507
 20
25.403406959
  0
SPLINE
  5
266
100
AcDbEntity
  8
0
100
AcDbSpline
 62
7
  6
CONTINUOUS
 70
2
 71
3
 72
20
 73
16
 74
0
 42
0.0000001
 43
0.0000001
 44
0.0000000001
 40
0.0
 40
0.0
 40
0.0
 40
0.0
 40
1.0
 40
1.0
 40
1.0
 40
2.0
 40
2.0
 40
2.0
 40
3.0
 40
3.0
 40
3.0
 40
4.0
 40
4.0
 40
4.0
 40
5.0
 40
5.0
 40
5.0
 40
5.0
 10
332.4068194579
 20
34.8185292052
 30
0.0
 10
332.4068194579
 20
34.8185292052
 30
0.0
 10
334.7231761124
 20
31.988967783
 30
0.0
 10
334.7231761124
 20
31.988967783
 30
0.0
 10
334.071529059
 20
31.3367973183
 30
0.0
 10
333.294655855
 20
30.6008810475
 30
0.0
 10
332.3234662104
 20
30.6008810475
 30
0.0
 10
331.3249283259
 20
30.6008810475
 30
0.0
 10
330.3816103324
 20
31.5304594948
 30
0.0
 10
330.3816103324
 20
32.5296516433
 30
0.0
 10
330.3816103324
 20
33.5288437919
 30
0.0
 10
331.5604634055
 20
34.2354490305
 30
0.0
 10
332.2819858658
 20
34.7353068104
 30
0.0
 10
332.2819858658
 20
34.7353068104
 30
0.0
 10
332.4068194579
 20
34.8185292052
 30
0.0
 10
332.4068194579
 20
34.8185292052
 30
0.0
  0
SPLINE
  5
267
100
AcDbEntity
  8
0
100
AcDbSpline
 62
7
  6
CONTINUOUS
 70
2
 71
3
 72
23
 73
19
 74
0
 42
0.0000001
 43
0.0000001
 44
0.0000000001
 40
0.0
 40
0.0
 40
0.0
 40
0.0
 40
1.0
 40
1.0
 40
1.0
 40
2.0
 40
2.0
 40
2.0
 40
3.0
 40
3.0
 40
3.0
 40
4.0
 40
4.0
 40
4.0
 40
5.0
 40
5.0
 40
5.0
 40
6.0
 40
6.0
 40
6.0
 40
6.0
 10
332.6842274405
 20
36.4562831249
 30
0.0
 10
332.6842274405
 20
36.4562831249
 30
0.0
 10
332.3377291679
 20
36.8996124858
 30
0.0
 10
332.3377291679
 20
36.8996124858
 30
0.0
 10
332.031926123
 20
37.2877219557
 30
0.0
 10
331.7130377959
 20
37.6762239841
 30
0.0
 10
331.7130377959
 20
38.2031682982
 30
0.0
 10
331.7130377959
 20
38.8693400148
 30
0.0
 10
332.2543759204
 20
39.3130619341
 30
0.0
 10
332.8782821755
 20
39.3130619341
 30
0.0
 10
333.5720638376
 20
39.3130619341
 30
0.0
 10
334.0992698573
 20
38.9108203594
 30
0.0
 10
334.0992698573
 20
38.1758200584
 30
0.0
 10
334.0992698573
 20
37.4125555479
 30
0.0
 10
333.3780091026
 20
36.9824423221
 30
0.0
 10
332.8509339357
 20
36.5667229067
 30
0.0
 10
332.8509339357
 20
36.5667229067
 30
0.0
 10
332.6842274405
 20
36.4562831249
 30
0.0
 10
332.6842274405
 20
36.4562831249
 30
0.0
  0
SPLINE
  5
268
100
AcDbEntity
  8
0
100
AcDbSpline
 62
7
  6
CONTINUOUS
 70
2
 71
3
 72
50
 73
46
 74
0
 42
0.0000001
 43
0.0000001
 44
0.0000000001
 40
0.0
 40
0.0
 40
0.0
 40
0.0
 40
1.0
 40
1.0
 40
1.0
 40
2.0
 40
2.0
 40
2.0
 40
3.0
 40
3.0
 40
3.0
 40
4.0
 40
4.0
 40
4.0
 40
5.0
 40
5.0
 40
5.0
 40
6.0
 40
6.0
 40
6.0
 40
7.0
 40
7.0
 40
7.0
 40
8.0
 40
8.0
 40
8.0
 40
9.0
 40
9.0
 40
9.0
 40
10.0
 40
10.0
 40
10.0
 40
11.0
 40
11.0
 40
11.0
 40
12.0
 40
12.0
 40
12.0
 40
13.0
 40
13.0
 40
13.0
 40
14.0
 40
14.0
 40
14.0
 40
15.0
 40
15.0
 40
15.0
 40
15.0
 10
336.6378146034
 20
29.6576939068
 30
0.0
 10
336.6378146034
 20
29.6576939068
 30
0.0
 10
338.247042608
 20
29.6576939068
 30
0.0
 10
338.247042608
 20
29.6576939068
 30
0.0
 10
338.247042608
 20
29.6576939068
 30
0.0
 10
336.3740153144
 20
31.9748356782
 30
0.0
 10
336.3740153144
 20
31.9748356782
 30
0.0
 10
336.3740153144
 20
31.9748356782
 30
0.0
 10
337.6503537398
 20
33.4723153728
 30
0.0
 10
337.6503537398
 20
33.4723153728
 30
0.0
 10
337.6503537398
 20
33.4723153728
 30
0.0
 10
336.8181297921
 20
34.3333269413
 30
0.0
 10
336.8181297921
 20
34.3333269413
 30
0.0
 10
336.8181297921
 20
34.3333269413
 30
0.0
 10
335.5975346688
 20
32.9180228189
 30
0.0
 10
335.5975346688
 20
32.9180228189
 30
0.0
 10
335.5975346688
 20
32.9180228189
 30
0.0
 10
333.4196203
 20
35.5533986534
 30
0.0
 10
333.4196203
 20
35.5533986534
 30
0.0
 10
334.2931937394
 20
36.1914370133
 30
0.0
 10
335.3198649806
 20
36.9824423221
 30
0.0
 10
335.3198649806
 20
38.1612953952
 30
0.0
 10
335.3198649806
 20
39.5349883202
 30
0.0
 10
334.1819688408
 20
40.3394714696
 30
0.0
 10
332.9066772379
 20
40.3394714696
 30
0.0
 10
331.5332460185
 20
40.3394714696
 30
0.0
 10
330.4923118197
 20
39.49324627
 30
0.0
 10
330.4923118197
 20
38.0505939078
 30
0.0
 10
330.4923118197
 20
37.1630192164
 30
0.0
 10
331.0476511962
 20
36.3861460124
 30
0.0
 10
331.6438166531
 20
35.7617163459
 30
0.0
 10
331.6438166531
 20
35.7617163459
 30
0.0
 10
330.991907894
 20
35.2901227756
 30
0.0
 10
330.991907894
 20
35.2901227756
 30
0.0
 10
329.9933700096
 20
34.5688620209
 30
0.0
 10
329.1604917978
 20
33.8476012662
 30
0.0
 10
329.1604917978
 20
32.5160429498
 30
0.0
 10
329.1604917978
 20
30.7123676518
 30
0.0
 10
330.6175379704
 20
29.4357675207
 30
0.0
 10
332.3650774077
 20
29.4357675207
 30
0.0
 10
333.5999354886
 20
29.4357675207
 30
0.0
 10
334.7093057133
 20
30.1439429932
 30
0.0
 10
335.5001801693
 20
31.0724746179
 30
0.0
 10
335.5001801693
 20
31.0724746179
 30
0.0
 10
336.6378146034
 20
29.6576939068
 30
0.0
 10
336.6378146034
 20
29.6576939068
 30
0.0
  0
LINE
  5
269
100
AcDbEntity
  8
0
100
AcDbLine
 62
7
  6
CONTINUOUS
 10
322.4406759784
 20
27.6315688114
 11
344.8545867061
 21
27.6315688114
  0
LINE
  5
26A
100
AcDbEntity
  8
0
100
AcDbLine
 62
7
  6
CONTINUOUS
 10
344.8545867061
 20
27.6315688114
 11
344.8545867061
 21
50.0454795391
  0
LINE
  5
26B
100
AcDbEntity
  8
0
100
AcDbLine
 62
7
  6
CONTINUOUS
 10
344.8545867061
 20
50.0454795391
 11
322.4406759784
 21
50.0454795391
  0
LINE
  5
26C
100
AcDbEntity
  8
0
100
AcDbLine
 62
7
  6
CONTINUOUS
 10
322.4406759784
 20
50.0454795391
 11
322.4406759784
 21
27.6315688114
  0
ENDBLK
  5
26D
100
AcDbEntity
  8
0
  6
BYBLOCK
 62
0
100
AcDbBlockEnd
  0
BLOCK
  5
26E
100
AcDbEntity
  8
0
100
AcDbBlockBegin
  2
_CLOSED
 70
64
 10
0.0
 20
0.0
  3
_CLOSED
  1

  0
LINE
  5
26F
100
AcDbEntity
  8
0
  6
BYBLOCK
 62
0
100
AcDbLine
 10
0.0
 20
0.0
 11
-1.0
 21
0.2
  0
LINE
  5
270
100
AcDbEntity
  8
0
  6
BYBLOCK
 62
0
100
AcDbLine
 10
-1.0
 20
0.2
 11
-1.0
 21
-0.2
  0
LINE
  5
271
100
AcDbEntity
  8
0
  6
BYBLOCK
 62
0
100
AcDbLine
 10
-1.0
 20
-0.2
 11
0.0
 21
0.0
  0
LINE
  5
272
100
AcDbEntity
  8
0
  6
BYBLOCK
 62
0
100
AcDbLine
 10
-1.0
 20
0.0
 11
0.0
 21
0.0
  0
ENDBLK
  5
273
100
AcDbEntity
  8
0
  6
BYBLOCK
 62
0
100
AcDbBlockEnd
  0
BLOCK
  5
274
100
AcDbEntity
  8
0
100
AcDbBlockBegin
 62
2
  6
CONTINUOUS
  2
*D0
 70
65
 10
0.0
 20
0.0
  3
*D0
  1

  0
MTEXT
  5
275
100
AcDbEntity
  8
0
100
AcDbMText
 62
2
  6
CONTINUOUS
  7
TEXTSTYLE_2
 71
1
 72
1
 10
172.6088761551
 20
102.389274965
 30
0.0
 11
0.912269039
 21
0.4095915044
 31
0.0
  1
{\Fgdt;n}\Farial.ttf;95,5
 40
3.0
 41
12.1524163569
  0
LINE
  5
276
100
AcDbEntity
  8
0
100
AcDbLine
 62
2
  6
CONTINUOUS
 10
165.1641906061
 20
94.9361228104
 11
185.231117488
 21
103.9457925662
  0
INSERT
  5
277
100
AcDbEntity
  8
0
100
AcDbBlockReference
 62
2
  6
CONTINUOUS
  2
_CLOSED
 10
165.1641906061
 20
94.9361228104
 41
2.5
 42
2.5
 43
2.5
 50
204.1791763304
  0
ENDBLK
  5
278
100
AcDbEntity
  8
0
  6
BYBLOCK
 62
0
100
AcDbBlockEnd
  0
BLOCK
  5
279
100
AcDbEntity
  8
0
100
AcDbBlockBegin
 62
2
  6
CONTINUOUS
  2
*D1
 70
65
 10
0.0
 20
0.0
  3
*D1
  1

  0
MTEXT
  5
27A
100
AcDbEntity
  8
0
100
AcDbMText
 62
2
  6
CONTINUOUS
  7
STANDARD
 71
2
 72
1
 10
51.9749785508
 20
211.8268389845
 30
0.0
 11
0.0
 21
1.0
 31
0.0
  1
99,5
 40
3.0
 41
8.1524163569
  0
LINE
  5
27B
100
AcDbEntity
  8
0
100
AcDbLine
 62
2
  6
CONTINUOUS
 10
69.1884385428
 20
261.5768389845
 11
54.9749785508
 21
261.5768389845
  0
LINE
  5
27C
100
AcDbEntity
  8
0
100
AcDbLine
 62
2
  6
CONTINUOUS
 10
69.9705275557
 20
162.0768389845
 11
54.9749785508
 21
162.0768389845
  0
LINE
  5
27D
100
AcDbEntity
  8
0
100
AcDbLine
 62
2
  6
CONTINUOUS
 10
55.7249785508
 20
261.5768389845
 11
55.7249785508
 21
211.8268389845
  0
LINE
  5
27E
100
AcDbEntity
  8
0
100
AcDbLine
 62
2
  6
CONTINUOUS
 10
55.7249785508
 20
162.0768389845
 11
55.7249785508
 21
211.8268389845
  0
INSERT
  5
27F
100
AcDbEntity
  8
0
100
AcDbBlockReference
 62
2
  6
CONTINUOUS
  2
_CLOSED
 10
55.7249785508
 20
261.5768389845
 41
2.5
 42
2.5
 43
2.5
 50
90.0
  0
INSERT
  5
280
100
AcDbEntity
  8
0
100
AcDbBlockReference
 62
2
  6
CONTINUOUS
  2
_CLOSED
 10
55.7249785508
 20
162.0768389845
 41
2.5
 42
2.5
 43
2.5
 50
270.0
  0
ENDBLK
  5
281
100
AcDbEntity
  8
0
  6
BYBLOCK
 62
0
100
AcDbBlockEnd
  0
BLOCK
  5
282
100
AcDbEntity
  8
0
100
AcDbBlockBegin
 62
2
  6
CONTINUOUS
  2
*D2
 70
65
 10
0.0
 20
0.0
  3
*D2
  1

  0
MTEXT
  5
283
100
AcDbEntity
  8
0
100
AcDbMText
 62
2
  6
CONTINUOUS
  7
STANDARD
 71
2
 72
1
 10
180.4045781059
 20
256.0768389845
 30
0.0
 11
0.0
 21
1.0
 31
0.0
  1
11
 40
3.0
 41
4.6617100372
  0
LINE
  5
284
100
AcDbEntity
  8
0
100
AcDbLine
 62
2
  6
CONTINUOUS
 10
172.348153782
 20
261.5768389845
 11
184.9045781059
 21
261.5768389845
  0
LINE
  5
285
100
AcDbEntity
  8
0
100
AcDbLine
 62
2
  6
CONTINUOUS
 10
172.7879743586
 20
250.5768389845
 11
184.9045781059
 21
250.5768389845
  0
LINE
  5
286
100
AcDbEntity
  8
0
100
AcDbLine
 62
2
  6
CONTINUOUS
 10
184.1545781059
 20
261.5768389845
 11
184.1545781059
 21
262.5768389845
  0
LINE
  5
287
100
AcDbEntity
  8
0
100
AcDbLine
 62
2
  6
CONTINUOUS
 10
184.1545781059
 20
262.5768389845
 11
184.1545781059
 21
256.0768389845
  0
LINE
  5
288
100
AcDbEntity
  8
0
100
AcDbLine
 62
2
  6
CONTINUOUS
 10
184.1545781059
 20
250.5768389845
 11
184.1545781059
 21
249.5768389845
  0
LINE
  5
289
100
AcDbEntity
  8
0
100
AcDbLine
 62
2
  6
CONTINUOUS
 10
184.1545781059
 20
249.5768389845
 11
184.1545781059
 21
256.0768389845
  0
INSERT
  5
28A
100
AcDbEntity
  8
0
100
AcDbBlockReference
 62
2
  6
CONTINUOUS
  2
_CLOSED
 10
184.1545781059
 20
261.5768389845
 41
2.5
 42
2.5
 43
2.5
 50
270.0
  0
INSERT
  5
28B
100
AcDbEntity
  8
0
100
AcDbBlockReference
 62
2
  6
CONTINUOUS
  2
_CLOSED
 10
184.1545781059
 20
250.5768389845
 41
2.5
 42
2.5
 43
2.5
 50
90.0
  0
ENDBLK
  5
28C
100
AcDbEntity
  8
0
  6
BYBLOCK
 62
0
100
AcDbBlockEnd
  0
BLOCK
  5
28D
100
AcDbEntity
  8
0
100
AcDbBlockBegin
 62
2
  6
CONTINUOUS
  2
*D3
 70
65
 10
0.0
 20
0.0
  3
*D3
  1

  0
MTEXT
  5
28E
100
AcDbEntity
  8
0
100
AcDbMText
 62
2
  6
CONTINUOUS
  7
STANDARD
 71
2
 72
1
 10
180.4045781059
 20
216.3268389845
 30
0.0
 11
0.0
 21
1.0
 31
0.0
  1
68,5
 40
3.0
 41
8.1524163569
  0
LINE
  5
28F
100
AcDbEntity
  8
0
100
AcDbLine
 62
2
  6
CONTINUOUS
 10
172.7879743586
 20
250.5768389845
 11
184.9045781059
 21
250.5768389845
  0
LINE
  5
290
100
AcDbEntity
  8
0
100
AcDbLine
 62
2
  6
CONTINUOUS
 10
172.7879743586
 20
182.0768389845
 11
184.9045781059
 21
182.0768389845
  0
LINE
  5
291
100
AcDbEntity
  8
0
100
AcDbLine
 62
2
  6
CONTINUOUS
 10
184.1545781059
 20
250.5768389845
 11
184.1545781059
 21
216.3268389845
  0
LINE
  5
292
100
AcDbEntity
  8
0
100
AcDbLine
 62
2
  6
CONTINUOUS
 10
184.1545781059
 20
182.0768389845
 11
184.1545781059
 21
216.3268389845
  0
INSERT
  5
293
100
AcDbEntity
  8
0
100
AcDbBlockReference
 62
2
  6
CONTINUOUS
  2
_CLOSED
 10
184.1545781059
 20
250.5768389845
 41
2.5
 42
2.5
 43
2.5
 50
90.0
  0
INSERT
  5
294
100
AcDbEntity
  8
0
100
AcDbBlockReference
 62
2
  6
CONTINUOUS
  2
_CLOSED
 10
184.1545781059
 20
182.0768389845
 41
2.5
 42
2.5
 43
2.5
 50
270.0
  0
ENDBLK
  5
295
100
AcDbEntity
  8
0
  6
BYBLOCK
 62
0
100
AcDbBlockEnd
  0
BLOCK
  5
296
100
AcDbEntity
  8
0
100
AcDbBlockBegin
 62
2
  6
CONTINUOUS
  2
*D4
 70
65
 10
0.0
 20
0.0
  3
*D4
  1

  0
MTEXT
  5
297
100
AcDbEntity
  8
0
100
AcDbMText
 62
2
  6
CONTINUOUS
  7
TEXTSTYLE_2
 71
2
 72
1
 10
270.393526037
 20
155.1711200493
 30
0.0
 11
1.0
 21
0.0
 31
0.0
  1
{\Fgdt;n}\Farial.ttf;55
 40
3.0
 41
8.6617100372
  0
LINE
  5
298
100
AcDbEntity
  8
0
100
AcDbLine
 62
2
  6
CONTINUOUS
 10
242.893526037
 20
165.0600243875
 11
242.893526037
 21
150.6711200493
  0
LINE
  5
299
100
AcDbEntity
  8
0
100
AcDbLine
 62
2
  6
CONTINUOUS
 10
297.893526037
 20
165.0600243875
 11
297.893526037
 21
150.6711200493
  0
LINE
  5
29A
100
AcDbEntity
  8
0
100
AcDbLine
 62
2
  6
CONTINUOUS
 10
242.893526037
 20
151.4211200493
 11
270.393526037
 21
151.4211200493
  0
LINE
  5
29B
100
AcDbEntity
  8
0
100
AcDbLine
 62
2
  6
CONTINUOUS
 10
297.893526037
 20
151.4211200493
 11
270.393526037
 21
151.4211200493
  0
INSERT
  5
29C
100
AcDbEntity
  8
0
100
AcDbBlockReference
 62
2
  6
CONTINUOUS
  2
_CLOSED
 10
242.893526037
 20
151.4211200493
 41
2.5
 42
2.5
 43
2.5
 50
180.0
  0
INSERT
  5
29D
100
AcDbEntity
  8
0
100
AcDbBlockReference
 62
2
  6
CONTINUOUS
  2
_CLOSED
 10
297.893526037
 20
151.4211200493
 41
2.5
 42
2.5
 43
2.5
  0
ENDBLK
  5
29E
100
AcDbEntity
  8
0
  6
BYBLOCK
 62
0
100
AcDbBlockEnd
  0
BLOCK
  5
29F
100
AcDbEntity
  8
0
100
AcDbBlockBegin
 62
2
  6
CONTINUOUS
  2
*D5
 70
65
 10
0.0
 20
0.0
  3
*D5
  1

  0
MTEXT
  5
2A0
100
AcDbEntity
  8
0
100
AcDbMText
 62
2
  6
CONTINUOUS
  7
TEXTSTYLE_2
 71
2
 72
1
 10
270.393526037
 20
144.5753469681
 30
0.0
 11
1.0
 21
0.0
 31
0.0
  1
{\Fgdt;n}\Farial.ttf;75
 40
3.0
 41
8.6617100372
  0
LINE
  5
2A1
100
AcDbEntity
  8
0
100
AcDbLine
 62
2
  6
CONTINUOUS
 10
232.893526037
 20
165.0600243875
 11
232.893526037
 21
140.0753469681
  0
LINE
  5
2A2
100
AcDbEntity
  8
0
100
AcDbLine
 62
2
  6
CONTINUOUS
 10
307.893526037
 20
165.4916207458
 11
307.893526037
 21
140.0753469681
  0
LINE
  5
2A3
100
AcDbEntity
  8
0
100
AcDbLine
 62
2
  6
CONTINUOUS
 10
232.893526037
 20
140.8253469681
 11
270.393526037
 21
140.8253469681
  0
LINE
  5
2A4
100
AcDbEntity
  8
0
100
AcDbLine
 62
2
  6
CONTINUOUS
 10
307.893526037
 20
140.8253469681
 11
270.393526037
 21
140.8253469681
  0
INSERT
  5
2A5
100
AcDbEntity
  8
0
100
AcDbBlockReference
 62
2
  6
CONTINUOUS
  2
_CLOSED
 10
232.893526037
 20
140.8253469681
 41
2.5
 42
2.5
 43
2.5
 50
180.0
  0
INSERT
  5
2A6
100
AcDbEntity
  8
0
100
AcDbBlockReference
 62
2
  6
CONTINUOUS
  2
_CLOSED
 10
307.893526037
 20
140.8253469681
 41
2.5
 42
2.5
 43
2.5
  0
ENDBLK
  5
2A7
100
AcDbEntity
  8
0
  6
BYBLOCK
 62
0
100
AcDbBlockEnd
  0
ENDSEC
  0
SECTION
  2
ENTITIES
  0
DIMENSION
  5
2A8
100
AcDbEntity
  8
0
100
AcDbDimension
 62
2
  6
CONTINUOUS
  2
*D0
 10
165.1641906061
 20
94.9361228104
 11
178.7664000074
 21
103.5096346552
 70
163
  1
%%c<>
  3
DIMSTYLE_1
100
AcDbDiametricDimension
 15
78.0424973806
 25
55.8201341418
  0
DIMENSION
  5
2A9
100
AcDbEntity
  8
0
100
AcDbDimension
 62
2
  6
CONTINUOUS
  2
*D1
 10
55.7249785508
 20
162.0768389845
 11
55.7249785508
 21
211.8285167877
 70
160
  3
DIMSTYLE_2
100
AcDbAlignedDimension
 13
69.9384385428
 23
261.5768389845
 14
70.7205275557
 24
162.0768389845
 50
270.0
100
AcDbRotatedDimension
  0
DIMENSION
  5
2AA
100
AcDbEntity
  8
0
100
AcDbDimension
 62
2
  6
CONTINUOUS
  2
*D2
 10
184.1545781059
 20
250.5768389845
 11
184.1545781059
 21
255.9182353889
 70
160
  3
DIMSTYLE_3
100
AcDbAlignedDimension
 13
171.598153782
 23
261.5768389845
 14
172.0379743586
 24
250.5768389845
 50
270.0
100
AcDbRotatedDimension
  0
DIMENSION
  5
2AB
100
AcDbEntity
  8
0
100
AcDbDimension
 62
2
  6
CONTINUOUS
  2
*D3
 10
184.1545781059
 20
182.0768389845
 11
184.1545781059
 21
216.317368313
 70
160
  3
DIMSTYLE_2
100
AcDbAlignedDimension
 13
172.0379743586
 23
250.5768389845
 14
172.0379743586
 24
182.0768389845
 50
270.0
100
AcDbRotatedDimension
  0
DIMENSION
  5
2AC
100
AcDbEntity
  8
0
100
AcDbDimension
 62
2
  6
CONTINUOUS
  2
*D4
 10
297.893526037
 20
151.4211200493
 11
270.393526037
 21
151.4211200493
 70
160
  1
%%c<>
  3
DIMSTYLE_2
100
AcDbAlignedDimension
 13
242.893526037
 23
165.8100243875
 14
297.893526037
 24
165.8100243875
100
AcDbRotatedDimension
  0
DIMENSION
  5
2AD
100
AcDbEntity
  8
0
100
AcDbDimension
 62
2
  6
CONTINUOUS
  2
*D5
 10
307.893526037
 20
140.8253469681
 11
270.393526037
 21
140.8253469681
 70
160
  1
%%c<>
  3
DIMSTYLE_2
100
AcDbAlignedDimension
 13
232.893526037
 23
165.8100243875
 14
307.893526037
 24
166.2416207458
100
AcDbRotatedDimension
  0
LINE
  5
2AE
100
AcDbEntity
  8
0
100
AcDbLine
 62
2
  6
CONTINUOUS
 10
319.8215188711
 20
50.4217920391
 11
409.8215188711
 21
50.4217920391
  0
LINE
  5
2AF
100
AcDbEntity
  8
0
100
AcDbLine
 62
2
  6
CONTINUOUS
 10
319.8215188711
 20
50.4217920391
 11
319.8215188711
 21
10.4217920391
  0
LINE
  5
2B0
100
AcDbEntity
  8
0
100
AcDbLine
 62
2
  6
CONTINUOUS
 10
349.8215188711
 20
44.4217920391
 11
409.8215188711
 21
44.4217920391
  0
LINE
  5
2B1
100
AcDbEntity
  8
0
100
AcDbLine
 62
2
  6
CONTINUOUS
 10
349.8215188711
 20
38.4217920391
 11
409.8215188711
 21
38.4217920391
  0
LINE
  5
2B2
100
AcDbEntity
  8
0
100
AcDbLine
 62
2
  6
CONTINUOUS
 10
349.8215188711
 20
28.4217920391
 11
409.8215188711
 21
28.4217920391
  0
LINE
  5
2B3
100
AcDbEntity
  8
0
100
AcDbLine
 62
2
  6
CONTINUOUS
 10
319.8215188711
 20
23.4217920391
 11
409.8215188711
 21
23.4217920391
  0
LINE
  5
2B4
100
AcDbEntity
  8
0
100
AcDbLine
 62
2
  6
CONTINUOUS
 10
319.8215188711
 20
10.4217920391
 11
409.8215188711
 21
10.4217920391
  0
LINE
  5
2B5
100
AcDbEntity
  8
0
100
AcDbLine
 62
2
  6
CONTINUOUS
 10
349.8215188711
 20
50.4217920391
 11
349.8215188711
 21
23.4217920391
  0
LINE
  5
2B6
100
AcDbEntity
  8
0
100
AcDbLine
 62
2
  6
CONTINUOUS
 10
389.8215188711
 20
50.4217920391
 11
389.8215188711
 21
38.4217920391
  0
LINE
  5
2B7
100
AcDbEntity
  8
0
100
AcDbLine
 62
2
  6
CONTINUOUS
 10
409.8215188711
 20
50.4217920391
 11
409.8215188711
 21
10.4217920391
  0
INSERT
  5
2B8
100
AcDbEntity
  8
0
100
AcDbBlockReference
 62
2
  6
CONTINUOUS
  2
LOGO2_BL0
 10
333.6475659158
 20
36.9217920391
  0
MTEXT
  5
2B9
100
AcDbEntity
  8
9_SOLID
100
AcDbMText
 62
2
  6
CONTINUOUS
  7
TEXTSTYLE_3
 71
1
 72
1
 10
351.3090188711
 20
48.9217920391
 30
0.0
 11
1.0
 21
0.0
 31
0.0
  1
2F8_C_001
 40
3.0
 41
31.6071428571
  0
MTEXT
  5
2BA
100
AcDbEntity
  8
0
100
AcDbMText
 62
2
  6
CONTINUOUS
  7
TEXTSTYLE_3
 71
1
 72
1
 10
391.3090188711
 20
49.1717920391
 30
0.0
 11
1.0
 21
0.0
 31
0.0
  1
Rev:00
 40
3.5
 41
22.75
  0
MTEXT
  5
2BB
100
AcDbEntity
  8
9_SOLID
100
AcDbMText
 62
2
  6
CONTINUOUS
  7
TEXTSTYLE_3
 71
1
 72
1
 10
351.3090188711
 20
42.6717920391
 30
0.0
 11
1.0
 21
0.0
 31
0.0
  1
Scale:1:1
 40
3.5
 41
28.375
  0
MTEXT
  5
2BC
100
AcDbEntity
  8
9_SOLID
100
AcDbMText
 62
2
  6
CONTINUOUS
  7
TEXTSTYLE_3
 71
1
 72
1
 10
391.3090188711
 20
43.1717920391
 30
0.0
 11
1.0
 21
0.0
 31
0.0
  1
A3
 40
3.5
 41
9.25
  0
MTEXT
  5
2BD
100
AcDbEntity
  8
0
100
AcDbMText
 62
2
  6
CONTINUOUS
  7
TEXTSTYLE_3
 71
1
 72
1
 10
351.3090188711
 20
35.1717920391
 30
0.0
 11
1.0
 21
0.0
 31
0.0
  1
LITUS 5.6
 40
3.5
 41
35.5
  0
MTEXT
  5
2BE
100
AcDbEntity
  8
0
100
AcDbMText
 62
2
  6
CONTINUOUS
  7
TEXTSTYLE_3
 71
1
 72
1
 10
351.3090188711
 20
27.1717920391
 30
0.0
 11
1.0
 21
0.0
 31
0.0
  1
DATE:06/07/2018
 40
2.5
 41
43.0357142857
  0
MTEXT
  5
2BF
100
AcDbEntity
  8
9_SOLID
100
AcDbMText
 62
2
  6
CONTINUOUS
  7
TEXTSTYLE_3
 71
1
 72
1
 10
321.3090188711
 20
23.1092920391
 30
0.0
 11
1.0
 21
0.0
 31
0.0
  1
Any integral or partial reproductions are prohibited \Pwithout prior authorisation of L {\Ftxt.shx;\W0.190476;\H2.250000; }& L Luce & Light s.r.l., \Pin accordance with the law in force. \PAll rights reserved.
 40
2.25
 41
134.5982142857
  0
LINE
  5
2C0
100
AcDbEntity
  8
0
100
AcDbLine
 62
7
  6
CONTINUOUS
 10
0.0
 20
0.0
 11
0.0
 21
297.0
  0
LINE
  5
2C1
100
AcDbEntity
  8
0
100
AcDbLine
 62
7
  6
CONTINUOUS
 10
0.0
 20
0.0
 11
420.0
 21
0.0
  0
LINE
  5
2C2
100
AcDbEntity
  8
0
100
AcDbLine
 62
7
  6
CONTINUOUS
 10
0.0
 20
297.0
 11
420.0
 21
297.0
  0
LINE
  5
2C3
100
AcDbEntity
  8
0
100
AcDbLine
 62
7
  6
CONTINUOUS
 10
420.0
 20
0.0
 11
420.0
 21
297.0
  0
LINE
  5
2C4
100
AcDbEntity
  8
7_ALL_FEATURES
100
AcDbLine
 62
7
  6
CONTINUOUS
 10
74.3533439933
 20
261.5768389845
 11
73.8533439933
 21
261.0768389845
  0
LINE
  5
2C5
100
AcDbEntity
  8
7_ALL_FEATURES
100
AcDbLine
 62
7
  6
CONTINUOUS
 10
74.3533439937
 20
254.4768389849
 11
73.8533439937
 21
253.9768389849
  0
LINE
  5
2C6
100
AcDbEntity
  8
7_ALL_FEATURES
100
AcDbLine
 62
7
  6
CONTINUOUS
 10
73.8533439933
 20
261.0768389845
 11
73.8533439933
 21
256.0768389845
  0
LINE
  5
2C7
100
AcDbEntity
  8
7_ALL_FEATURES
100
AcDbLine
 62
7
  6
CONTINUOUS
 10
73.8533439933
 20
251.8268389845
 11
73.8533439933
 21
253.9768389845
  0
LINE
  5
2C8
100
AcDbEntity
  8
7_ALL_FEATURES
100
AcDbLine
 62
7
  6
CONTINUOUS
 10
74.3533439933
 20
255.5768389845
 11
74.3533439933
 21
254.4768389845
  0
LINE
  5
2C9
100
AcDbEntity
  8
02___PRT_ALL_AXES
100
AcDbLine
 62
7
  6
CONTINUOUS
 10
116.7616843966
 20
162.0768389845
 11
126.4450035901
 21
162.0768389845
  0
LINE
  5
2CA
100
AcDbEntity
  8
02___PRT_ALL_AXES
100
AcDbLine
 62
9
  6
CONTINUOUS
 10
130.7014599755
 20
166.33329537
 11
130.586727798
 21
166.33329537
  0
LINE
  5
2CB
100
AcDbEntity
  8
02___PRT_ALL_AXES
100
AcDbLine
 62
9
  6
CONTINUOUS
 10
127.342392053
 20
166.33329537
 11
124.8476797383
 21
166.33329537
  0
LINE
  5
2CC
100
AcDbEntity
  8
02___PRT_ALL_AXES
100
AcDbLine
 62
9
  6
CONTINUOUS
 10
118.3590082484
 20
166.33329537
 11
115.8642959336
 21
166.33329537
  0
LINE
  5
2CD
100
AcDbEntity
  8
02___PRT_ALL_AXES
100
AcDbLine
 62
9
  6
CONTINUOUS
 10
112.6199601887
 20
166.33329537
 11
112.5052280111
 21
166.33329537
  0
LINE
  5
2CE
100
AcDbEntity
  8
02___PRT_ALL_AXES
100
AcDbLine
 62
7
  6
CONTINUOUS
 10
127.342392053
 20
166.3600003905
 11
124.8476797383
 21
166.3600003905
  0
LINE
  5
2CF
100
AcDbEntity
  8
02___PRT_ALL_AXES
100
AcDbLine
 62
7
  6
CONTINUOUS
 10
118.3590082484
 20
166.3600003905
 11
115.8642959336
 21
166.3600003905
  0
LINE
  5
2D0
100
AcDbEntity
  8
02___PRT_ALL_AXES
100
AcDbLine
 62
7
  6
CONTINUOUS
 10
112.5052280111
 20
166.3600003905
 11
112.6199601887
 21
166.3600003905
  0
LINE
  5
2D1
100
AcDbEntity
  8
02___PRT_ALL_AXES
100
AcDbLine
 62
7
  6
CONTINUOUS
 10
130.586727798
 20
166.3600003905
 11
130.7014599755
 21
166.3600003905
  0
LINE
  5
2D2
100
AcDbEntity
  8
02___PRT_ALL_AXES
100
AcDbLine
 62
7
  6
CONTINUOUS
 10
131.4182985695
 20
170.5768389845
 11
129.786434763
 21
170.5768389845
  0
LINE
  5
2D3
100
AcDbEntity
  8
02___PRT_ALL_AXES
100
AcDbLine
 62
7
  6
CONTINUOUS
 10
128.142685088
 20
170.5768389845
 11
123.2470936684
 21
170.5768389845
  0
LINE
  5
2D4
100
AcDbEntity
  8
02___PRT_ALL_AXES
100
AcDbLine
 62
7
  6
CONTINUOUS
 10
119.9595943183
 20
170.5768389845
 11
115.0640028987
 21
170.5768389845
  0
LINE
  5
2D5
100
AcDbEntity
  8
02___PRT_ALL_AXES
100
AcDbLine
 62
7
  6
CONTINUOUS
 10
113.4202532236
 20
170.5768389845
 11
111.7883894171
 21
170.5768389845
  0
LINE
  5
2D6
100
AcDbEntity
  8
3_ALL_AXES
100
AcDbLine
 62
7
  6
CONTINUOUS
 10
83.9033439933
 20
219.5418389845
 11
83.9033439933
 21
215.6118389845
  0
LINE
  5
2D7
100
AcDbEntity
  8
7_ALL_FEATURES
100
AcDbLine
 62
7
  6
CONTINUOUS
 10
84.1033439933
 20
250.0768389845
 11
84.1033439933
 21
221.8268389845
  0
LINE
  5
2D8
100
AcDbEntity
  8
7_ALL_FEATURES
100
AcDbLine
 62
7
  6
CONTINUOUS
 10
84.1033439933
 20
213.3268389845
 11
84.1033439933
 21
203.3268671414
  0
LINE
  5
2D9
100
AcDbEntity
  8
02___PRT_ALL_AXES
100
AcDbLine
 62
7
  6
CONTINUOUS
 10
112.9459308192
 20
174.5768389845
 11
130.2607571675
 21
174.5768389845
  0
LINE
  5
2DA
100
AcDbEntity
  8
7_ALL_FEATURES
100
AcDbLine
 62
7
  6
CONTINUOUS
 10
95.1033439933
 20
182.0768389845
 11
94.1033439933
 21
183.0768389845
  0
LINE
  5
2DB
100
AcDbEntity
  8
02___PRT_ALL_AXES
100
AcDbLine
 62
7
  6
CONTINUOUS
 10
112.5052280111
 20
166.3600003905
 11
111.7883894171
 21
167.0768389845
  0
LINE
  5
2DC
100
AcDbEntity
  8
7_ALL_FEATURES
100
AcDbLine
 62
7
  6
CONTINUOUS
 10
88.9353895198
 20
219.5768389845
 11
88.9353895198
 21
215.8758119234
  0
LINE
  5
2DD
100
AcDbEntity
  8
7_ALL_FEATURES
100
AcDbLine
 62
7
  6
CONTINUOUS
 10
88.9353895198
 20
210.220229431
 11
88.9353895198
 21
203.3268389845
  0
LINE
  5
2DE
100
AcDbEntity
  8
02___PRT_ALL_AXES
100
AcDbLine
 62
7
  6
CONTINUOUS
 10
131.4182985695
 20
178.5768389845
 11
111.7883894171
 21
178.5768389845
  0
LINE
  5
2DF
100
AcDbEntity
  8
7_ALL_FEATURES
100
AcDbLine
 62
7
  6
CONTINUOUS
 10
85.3533998681
 20
202.0768389845
 11
84.1033439935
 21
203.3268671411
  0
LINE
  5
2E0
100
AcDbEntity
  8
7_ALL_FEATURES
100
AcDbLine
 62
7
  6
CONTINUOUS
 10
94.1033439933
 20
201.5768389845
 11
94.1033439933
 21
183.0768389845
  0
LINE
  5
2E1
100
AcDbEntity
  8
7_ALL_FEATURES
100
AcDbLine
 62
7
  6
CONTINUOUS
 10
148.1033439933
 20
182.0768389845
 11
95.1033439933
 21
182.0768389845
  0
LINE
  5
2E2
100
AcDbEntity
  8
7_ALL_FEATURES
100
AcDbLine
 62
7
  6
CONTINUOUS
 10
149.1033439933
 20
183.0768389845
 11
94.1033439933
 21
183.0768389845
  0
LINE
  5
2E3
100
AcDbEntity
  8
7_ALL_FEATURES
100
AcDbLine
 62
3
  6
CONTINUOUS
 10
88.6232302277
 20
211.0682660173
 11
91.8990499261
 21
202.1689155099
  0
LINE
  5
2E4
100
AcDbEntity
  8
7_ALL_FEATURES
100
AcDbLine
 62
4
  6
CONTINUOUS
 10
91.049390303
 20
209.2796232632
 11
93.0084237567
 21
203.9575582641
  0
LINE
  5
2E5
100
AcDbEntity
  8
7_ALL_FEATURES
100
AcDbLine
 62
7
  6
CONTINUOUS
 10
92.3513322713
 20
206.9272705336
 11
93.2013351198
 21
204.6180856646
  0
LINE
  5
2E6
100
AcDbEntity
  8
3_ALL_AXES
100
AcDbLine
 62
7
  6
CONTINUOUS
 10
95.1759269954
 20
201.5768389845
 11
95.1759269954
 21
201.1968389845
  0
LINE
  5
2E7
100
AcDbEntity
  8
7_ALL_FEATURES
100
AcDbLine
 62
4
  6
CONTINUOUS
 10
95.0666594245
 20
204.9217220506
 11
95.227087721
 21
205.4346673824
  0
LINE
  5
2E8
100
AcDbEntity
  8
7_ALL_FEATURES
100
AcDbLine
 62
4
  6
CONTINUOUS
 10
95.6664654807
 20
204.4554670118
 11
93.8069488581
 21
206.2812219987
  0
LINE
  5
2E9
100
AcDbEntity
  8
7_ALL_FEATURES
100
AcDbLine
 62
7
  6
CONTINUOUS
 10
95.179759396
 20
206.9272705336
 11
96.0297622446
 21
204.6180856646
  0
LINE
  5
2EA
100
AcDbEntity
  8
7_ALL_FEATURES
100
AcDbLine
 62
4
  6
CONTINUOUS
 10
97.2510644438
 20
203.9575582641
 11
95.2920309901
 21
209.2796232632
  0
LINE
  5
2EB
100
AcDbEntity
  8
7_ALL_FEATURES
100
AcDbLine
 62
3
  6
CONTINUOUS
 10
99.6772245192
 20
202.1689155099
 11
96.4014048207
 21
211.0682660173
  0
LINE
  5
2EC
100
AcDbEntity
  8
7_ALL_FEATURES
100
AcDbLine
 62
7
  6
CONTINUOUS
 10
99.9908302067
 20
202.3997898166
 11
96.7150105083
 21
211.299140324
  0
LINE
  5
2ED
100
AcDbEntity
  8
7_ALL_FEATURES
100
AcDbLine
 62
3
  6
CONTINUOUS
 10
96.5499196747
 20
216.3281152922
 11
96.2598741898
 21
217.3183925206
  0
LINE
  5
2EE
100
AcDbEntity
  8
7_ALL_FEATURES
100
AcDbLine
 62
7
  6
CONTINUOUS
 10
96.5098741898
 20
216.96483913
 11
96.7999196747
 21
215.9745619016
  0
LINE
  5
2EF
100
AcDbEntity
  8
7_ALL_FEATURES
100
AcDbLine
 62
9
  6
CONTINUOUS
 10
100.3671570318
 20
201.5768389845
 11
100.3671570318
 21
202.0768389845
  0
LINE
  5
2F0
100
AcDbEntity
  8
3_ALL_AXES
100
AcDbLine
 62
7
  6
CONTINUOUS
 10
102.7759269954
 20
201.5768389845
 11
102.7759269954
 21
201.1968389845
  0
LINE
  5
2F1
100
AcDbEntity
  8
7_ALL_FEATURES
100
AcDbLine
 62
7
  6
CONTINUOUS
 10
103.189904594
 20
219.5768389845
 11
103.189904594
 21
203.3268389845
  0
LINE
  5
2F2
100
AcDbEntity
  8
7_ALL_FEATURES
100
AcDbLine
 62
4
  6
CONTINUOUS
 10
93.9836554255
 20
205.5667256708
 11
94.3828142689
 21
206.2221655659
  0
LINE
  5
2F3
100
AcDbEntity
  8
7_ALL_FEATURES
100
AcDbLine
 62
3
  6
CONTINUOUS
 10
91.3101267215
 20
217.3183925206
 11
89.6196177498
 21
216.3281152922
  0
LINE
  5
2F4
100
AcDbEntity
  8
03___PRT_ALL_CURVES
100
AcDbLine
 62
40
  6
CONTINUOUS
 10
99.6772245192
 20
202.1689155099
 11
88.6232302277
 21
211.0682660173
  0
LINE
  5
2F5
100
AcDbEntity
  8
7_ALL_FEATURES
100
AcDbLine
 62
7
  6
CONTINUOUS
 10
96.9466806135
 20
215.5186744368
 11
96.6941462749
 21
215.8758119234
  0
LINE
  5
2F6
100
AcDbEntity
  8
7_ALL_FEATURES
100
AcDbLine
 62
7
  6
CONTINUOUS
 10
105.5520200604
 20
201.5768389845
 11
105.5520200604
 21
202.0768389845
  0
LINE
  5
2F7
100
AcDbEntity
  8
7_ALL_FEATURES
100
AcDbLine
 62
9
  6
CONTINUOUS
 10
96.4014048207
 20
211.0682660173
 11
96.7150105083
 21
211.299140324
  0
LINE
  5
2F8
100
AcDbEntity
  8
7_ALL_FEATURES
100
AcDbLine
 62
7
  6
CONTINUOUS
 10
96.5098741898
 20
216.96483913
 11
96.2598741898
 21
217.3183925206
  0
LINE
  5
2F9
100
AcDbEntity
  8
02___PRT_ALL_AXES
100
AcDbLine
 62
7
  6
CONTINUOUS
 10
111.7883894171
 20
182.0768389845
 11
111.7883894171
 21
178.5768389845
  0
LINE
  5
2FA
100
AcDbEntity
  8
02___PRT_ALL_AXES
100
AcDbLine
 62
7
  6
CONTINUOUS
 10
111.7883894171
 20
170.5768389845
 11
111.7883894171
 21
167.0768389845
  0
LINE
  5
2FB
100
AcDbEntity
  8
02___PRT_ALL_AXES
100
AcDbLine
 62
7
  6
CONTINUOUS
 10
112.5052280111
 20
166.33329537
 11
112.5052280111
 21
166.3600003905
  0
LINE
  5
2FC
100
AcDbEntity
  8
02___PRT_ALL_AXES
100
AcDbLine
 62
7
  6
CONTINUOUS
 10
112.6199601887
 20
166.33329537
 11
112.6199601887
 21
166.3600003905
  0
LINE
  5
2FD
100
AcDbEntity
  8
02___PRT_ALL_AXES
100
AcDbLine
 62
7
  6
CONTINUOUS
 10
112.9458667052
 20
170.5768389845
 11
112.9458667052
 21
174.5768389845
  0
LINE
  5
2FE
100
AcDbEntity
  8
3_ALL_AXES
100
AcDbLine
 62
7
  6
CONTINUOUS
 10
97.0109613408
 20
199.3768389845
 11
100.9408926499
 21
199.3768389845
  0
LINE
  5
2FF
100
AcDbEntity
  8
3_ALL_AXES
100
AcDbLine
 62
7
  6
CONTINUOUS
 10
142.2657953368
 20
199.3768389845
 11
146.1957266458
 21
199.3768389845
  0
LINE
  5
300
100
AcDbEntity
  8
3_ALL_AXES
100
AcDbLine
 62
7
  6
CONTINUOUS
 10
95.1759269954
 20
201.1968389845
 11
102.7759269954
 21
201.1968389845
  0
LINE
  5
301
100
AcDbEntity
  8
3_ALL_AXES
100
AcDbLine
 62
7
  6
CONTINUOUS
 10
140.4307609913
 20
201.1968389845
 11
148.0307609913
 21
201.1968389845
  0
LINE
  5
302
100
AcDbEntity
  8
3_ALL_AXES
100
AcDbLine
 62
7
  6
CONTINUOUS
 10
97.4676072093
 20
201.5768389845
 11
95.5048248985
 21
201.5768389845
  0
LINE
  5
303
100
AcDbEntity
  8
7_ALL_FEATURES
100
AcDbLine
 62
3
  6
CONTINUOUS
 10
92.5889824388
 20
201.5768389845
 11
95.5048248985
 21
201.5768389845
  0
LINE
  5
304
100
AcDbEntity
  8
7_ALL_FEATURES
100
AcDbLine
 62
3
  6
CONTINUOUS
 10
97.4676072093
 20
201.5768389845
 11
105.5520200604
 21
201.5768389845
  0
LINE
  5
305
100
AcDbEntity
  8
7_ALL_FEATURES
100
AcDbLine
 62
7
  6
CONTINUOUS
 10
105.5520200604
 20
201.5768389845
 11
137.6546679263
 21
201.5768389845
  0
LINE
  5
306
100
AcDbEntity
  8
7_ALL_FEATURES
100
AcDbLine
 62
3
  6
CONTINUOUS
 10
137.6546679263
 20
201.5768389845
 11
145.7390807773
 21
201.5768389845
  0
LINE
  5
307
100
AcDbEntity
  8
3_ALL_AXES
100
AcDbLine
 62
7
  6
CONTINUOUS
 10
145.7390807773
 20
201.5768389845
 11
147.7018630881
 21
201.5768389845
  0
LINE
  5
308
100
AcDbEntity
  8
7_ALL_FEATURES
100
AcDbLine
 62
3
  6
CONTINUOUS
 10
147.7018630881
 20
201.5768389845
 11
150.6177055479
 21
201.5768389845
  0
LINE
  5
309
100
AcDbEntity
  8
7_ALL_FEATURES
100
AcDbLine
 62
7
  6
CONTINUOUS
 10
157.8529095752
 20
202.0768389845
 11
151.2658261351
 21
202.0768389845
  0
LINE
  5
30A
100
AcDbEntity
  8
7_ALL_FEATURES
100
AcDbLine
 62
7
  6
CONTINUOUS
 10
142.8395309548
 20
202.0768389845
 11
100.3671570318
 21
202.0768389845
  0
LINE
  5
30B
100
AcDbEntity
  8
7_ALL_FEATURES
100
AcDbLine
 62
7
  6
CONTINUOUS
 10
91.9408618516
 20
202.0768389845
 11
85.3537784115
 21
202.0768389845
  0
LINE
  5
30C
100
AcDbEntity
  8
7_ALL_FEATURES
100
AcDbLine
 62
9
  6
CONTINUOUS
 10
91.8990499261
 20
202.1689155099
 11
99.6772245192
 21
202.1689155099
  0
LINE
  5
30D
100
AcDbEntity
  8
7_ALL_FEATURES
100
AcDbLine
 62
9
  6
CONTINUOUS
 10
143.5294634675
 20
202.1689155099
 11
151.3076380605
 21
202.1689155099
  0
LINE
  5
30E
100
AcDbEntity
  8
02___PRT_ALL_AXES
100
AcDbLine
 62
7
  6
CONTINUOUS
 10
113.4202532236
 20
170.5768389845
 11
113.4202532236
 21
174.5768389845
  0
LINE
  5
30F
100
AcDbEntity
  8
02___PRT_ALL_AXES
100
AcDbLine
 62
7
  6
CONTINUOUS
 10
114.1033439933
 20
178.5768389845
 11
114.1033439933
 21
174.5768389845
  0
LINE
  5
310
100
AcDbEntity
  8
02___PRT_ALL_AXES
100
AcDbLine
 62
7
  6
CONTINUOUS
 10
115.0640028987
 20
170.5768389845
 11
115.0640028987
 21
174.5768389845
  0
LINE
  5
311
100
AcDbEntity
  8
02___PRT_ALL_AXES
100
AcDbLine
 62
7
  6
CONTINUOUS
 10
115.8642959336
 20
166.33329537
 11
115.8642959336
 21
166.3600003905
  0
LINE
  5
312
100
AcDbEntity
  8
02___PRT_ALL_AXES
100
AcDbLine
 62
7
  6
CONTINUOUS
 10
116.6958667052
 20
182.0768389845
 11
116.6958667052
 21
178.5768389845
  0
LINE
  5
313
100
AcDbEntity
  8
02___PRT_ALL_AXES
100
AcDbLine
 62
7
  6
CONTINUOUS
 10
116.6958667052
 20
170.5768389845
 11
116.6958667052
 21
167.0768389845
  0
LINE
  5
314
100
AcDbEntity
  8
7_ALL_FEATURES
100
AcDbLine
 62
9
  6
CONTINUOUS
 10
99.6772245192
 20
202.1689155099
 11
99.9908302067
 21
202.3997898166
  0
LINE
  5
315
100
AcDbEntity
  8
7_ALL_FEATURES
100
AcDbLine
 62
7
  6
CONTINUOUS
 10
159.1033439933
 20
203.3268671412
 11
151.7338656289
 21
203.3268389845
  0
LINE
  5
316
100
AcDbEntity
  8
7_ALL_FEATURES
100
AcDbLine
 62
7
  6
CONTINUOUS
 10
143.5571013261
 20
203.3268389845
 11
99.6495866606
 21
203.3268389845
  0
LINE
  5
317
100
AcDbEntity
  8
7_ALL_FEATURES
100
AcDbLine
 62
7
  6
CONTINUOUS
 10
91.4728223577
 20
203.3268389845
 11
84.1033439935
 21
203.3268671409
  0
LINE
  5
318
100
AcDbEntity
  8
7_ALL_FEATURES
100
AcDbLine
 62
4
  6
CONTINUOUS
 10
93.0084237567
 20
203.9575582641
 11
97.2510644438
 21
203.9575582641
  0
LINE
  5
319
100
AcDbEntity
  8
7_ALL_FEATURES
100
AcDbLine
 62
4
  6
CONTINUOUS
 10
145.9556235428
 20
203.9575582641
 11
150.1982642299
 21
203.9575582641
  0
LINE
  5
31A
100
AcDbEntity
  8
7_ALL_FEATURES
100
AcDbLine
 62
7
  6
CONTINUOUS
 10
150.1774155169
 20
204.6180856646
 11
149.4632376679
 21
204.6180856646
  0
LINE
  5
31B
100
AcDbEntity
  8
7_ALL_FEATURES
100
AcDbLine
 62
7
  6
CONTINUOUS
 10
147.3489883922
 20
204.6180856646
 11
146.6348105432
 21
204.6180856646
  0
LINE
  5
31C
100
AcDbEntity
  8
7_ALL_FEATURES
100
AcDbLine
 62
7
  6
CONTINUOUS
 10
96.7439400936
 20
204.6180856646
 11
96.0297622446
 21
204.6180856646
  0
LINE
  5
31D
100
AcDbEntity
  8
7_ALL_FEATURES
100
AcDbLine
 62
7
  6
CONTINUOUS
 10
93.9155129688
 20
204.6180856646
 11
93.2013351198
 21
204.6180856646
  0
LINE
  5
31E
100
AcDbEntity
  8
7_ALL_FEATURES
100
AcDbLine
 62
7
  6
CONTINUOUS
 10
73.8533439935
 20
251.8268389843
 11
75.1033439935
 21
250.5768389843
  0
LINE
  5
31F
100
AcDbEntity
  8
02___PRT_ALL_AXES
100
AcDbLine
 62
7
  6
CONTINUOUS
 10
118.3590082484
 20
166.33329537
 11
118.3590082484
 21
166.3600003905
  0
LINE
  5
320
100
AcDbEntity
  8
02___PRT_ALL_AXES
100
AcDbLine
 62
7
  6
CONTINUOUS
 10
119.9595943183
 20
170.5768389845
 11
119.9595943183
 21
174.5768389845
  0
LINE
  5
321
100
AcDbEntity
  8
7_ALL_FEATURES
100
AcDbLine
 62
7
  6
CONTINUOUS
 10
159.1033439933
 20
250.0768389845
 11
159.6033439933
 21
250.5768389845
  0
LINE
  5
322
100
AcDbEntity
  8
7_ALL_FEATURES
100
AcDbLine
 62
4
  6
CONTINUOUS
 10
152.1572976837
 20
209.2796232632
 11
147.9146569965
 21
209.2796232632
  0
LINE
  5
323
100
AcDbEntity
  8
7_ALL_FEATURES
100
AcDbLine
 62
4
  6
CONTINUOUS
 10
95.2920309901
 20
209.2796232632
 11
91.049390303
 21
209.2796232632
  0
LINE
  5
324
100
AcDbEntity
  8
7_ALL_FEATURES
100
AcDbLine
 62
9
  6
CONTINUOUS
 10
88.6232302277
 20
211.0682660173
 11
96.4014048207
 21
211.0682660173
  0
LINE
  5
325
100
AcDbEntity
  8
7_ALL_FEATURES
100
AcDbLine
 62
9
  6
CONTINUOUS
 10
146.8052831659
 20
211.0682660173
 11
154.583457759
 21
211.0682660173
  0
LINE
  5
326
100
AcDbEntity
  8
7_ALL_FEATURES
100
AcDbLine
 62
7
  6
CONTINUOUS
 10
74.3533439933
 20
255.5768389845
 11
73.8533439933
 21
256.0768389845
  0
LINE
  5
327
100
AcDbEntity
  8
7_ALL_FEATURES
100
AcDbLine
 62
7
  6
CONTINUOUS
 10
84.1033439933
 20
250.0768389845
 11
83.6033439933
 21
250.5768389845
  0
LINE
  5
328
100
AcDbEntity
  8
02___PRT_ALL_AXES
100
AcDbLine
 62
7
  6
CONTINUOUS
 10
123.2470936684
 20
170.5768389845
 11
123.2470936684
 21
174.5768389845
  0
LINE
  5
329
100
AcDbEntity
  8
02___PRT_ALL_AXES
100
AcDbLine
 62
7
  6
CONTINUOUS
 10
124.8476797383
 20
166.33329537
 11
124.8476797383
 21
166.3600003905
  0
LINE
  5
32A
100
AcDbEntity
  8
02___PRT_ALL_AXES
100
AcDbLine
 62
7
  6
CONTINUOUS
 10
126.5108212814
 20
182.0768389845
 11
126.5108212814
 21
178.5768389845
  0
LINE
  5
32B
100
AcDbEntity
  8
02___PRT_ALL_AXES
100
AcDbLine
 62
7
  6
CONTINUOUS
 10
126.5108212814
 20
170.5768389845
 11
126.5108212814
 21
167.0768389845
  0
LINE
  5
32C
100
AcDbEntity
  8
7_ALL_FEATURES
100
AcDbLine
 62
7
  6
CONTINUOUS
 10
168.8533439933
 20
255.5768389845
 11
169.3533439933
 21
256.0768389845
  0
LINE
  5
32D
100
AcDbEntity
  8
7_ALL_FEATURES
100
AcDbLine
 62
9
  6
CONTINUOUS
 10
89.6196177498
 20
216.3281152922
 11
96.5499196747
 21
216.3281152922
  0
LINE
  5
32E
100
AcDbEntity
  8
7_ALL_FEATURES
100
AcDbLine
 62
9
  6
CONTINUOUS
 10
146.6567683119
 20
216.3281152922
 11
153.5870702369
 21
216.3281152922
  0
LINE
  5
32F
100
AcDbEntity
  8
02___PRT_ALL_AXES
100
AcDbLine
 62
7
  6
CONTINUOUS
 10
127.342392053
 20
166.33329537
 11
127.342392053
 21
166.3600003905
  0
LINE
  5
330
100
AcDbEntity
  8
02___PRT_ALL_AXES
100
AcDbLine
 62
7
  6
CONTINUOUS
 10
128.142685088
 20
170.5768389845
 11
128.142685088
 21
174.5768389845
  0
LINE
  5
331
100
AcDbEntity
  8
02___PRT_ALL_AXES
100
AcDbLine
 62
7
  6
CONTINUOUS
 10
129.1033439933
 20
178.5768389845
 11
129.1033439933
 21
174.5768389845
  0
LINE
  5
332
100
AcDbEntity
  8
02___PRT_ALL_AXES
100
AcDbLine
 62
7
  6
CONTINUOUS
 10
129.786434763
 20
170.5768389845
 11
129.786434763
 21
174.5768389845
  0
LINE
  5
333
100
AcDbEntity
  8
02___PRT_ALL_AXES
100
AcDbLine
 62
7
  6
CONTINUOUS
 10
130.2608212814
 20
170.5768389845
 11
130.2608212814
 21
174.5768389845
  0
LINE
  5
334
100
AcDbEntity
  8
02___PRT_ALL_AXES
100
AcDbLine
 62
7
  6
CONTINUOUS
 10
130.586727798
 20
166.33329537
 11
130.586727798
 21
166.3600003905
  0
LINE
  5
335
100
AcDbEntity
  8
02___PRT_ALL_AXES
100
AcDbLine
 62
7
  6
CONTINUOUS
 10
130.7014599755
 20
166.33329537
 11
130.7014599755
 21
166.3600003905
  0
LINE
  5
336
100
AcDbEntity
  8
7_ALL_FEATURES
100
AcDbLine
 62
7
  6
CONTINUOUS
 10
169.3533439931
 20
251.8268389843
 11
168.1033439931
 21
250.5768389843
  0
LINE
  5
337
100
AcDbEntity
  8
7_ALL_FEATURES
100
AcDbLine
 62
3
  6
CONTINUOUS
 10
151.8965612651
 20
217.3183925206
 11
146.9468137968
 21
217.3183925206
  0
LINE
  5
338
100
AcDbEntity
  8
7_ALL_FEATURES
100
AcDbLine
 62
3
  6
CONTINUOUS
 10
96.2598741898
 20
217.3183925206
 11
91.3101267215
 21
217.3183925206
  0
LINE
  5
339
100
AcDbEntity
  8
03___PRT_ALL_CURVES
100
AcDbLine
 62
40
  6
CONTINUOUS
 10
158.8012942057
 20
217.4268389845
 11
158.544479608
 21
217.4268389845
  0
LINE
  5
33A
100
AcDbEntity
  8
03___PRT_ALL_CURVES
100
AcDbLine
 62
40
  6
CONTINUOUS
 10
158.5444796012
 20
217.7268389845
 11
158.8012942007
 21
217.7268389845
  0
LINE
  5
33B
100
AcDbEntity
  8
7_ALL_FEATURES
100
AcDbLine
 62
7
  6
CONTINUOUS
 10
154.2712984671
 20
219.5768389845
 11
140.0167833924
 21
219.5768389845
  0
LINE
  5
33C
100
AcDbEntity
  8
7_ALL_FEATURES
100
AcDbLine
 62
7
  6
CONTINUOUS
 10
103.1899045942
 20
219.5768389845
 11
88.9353895195
 21
219.5768389845
  0
LINE
  5
33D
100
AcDbEntity
  8
7_ALL_FEATURES
100
AcDbLine
 62
9
  6
CONTINUOUS
 10
143.5294634675
 20
202.1689155099
 11
143.2158577799
 21
202.3997898166
  0
LINE
  5
33E
100
AcDbEntity
  8
02___PRT_ALL_AXES
100
AcDbLine
 62
7
  6
CONTINUOUS
 10
131.4182985695
 20
182.0768389845
 11
131.4182985695
 21
178.5768389845
  0
LINE
  5
33F
100
AcDbEntity
  8
02___PRT_ALL_AXES
100
AcDbLine
 62
7
  6
CONTINUOUS
 10
131.4182985695
 20
170.5768389845
 11
131.4182985695
 21
167.0768389845
  0
LINE
  5
340
100
AcDbEntity
  8
7_ALL_FEATURES
100
AcDbLine
 62
9
  6
CONTINUOUS
 10
146.8052831659
 20
211.0682660173
 11
146.4916774784
 21
211.299140324
  0
LINE
  5
341
100
AcDbEntity
  8
7_ALL_FEATURES
100
AcDbLine
 62
7
  6
CONTINUOUS
 10
137.6546679263
 20
201.5768389845
 11
137.6546679263
 21
202.0768389845
  0
LINE
  5
342
100
AcDbEntity
  8
7_ALL_FEATURES
100
AcDbLine
 62
7
  6
CONTINUOUS
 10
140.0167833927
 20
219.5768389845
 11
140.0167833927
 21
203.3268389845
  0
LINE
  5
343
100
AcDbEntity
  8
3_ALL_AXES
100
AcDbLine
 62
7
  6
CONTINUOUS
 10
140.4307609913
 20
201.5768389845
 11
140.4307609913
 21
201.1968389845
  0
LINE
  5
344
100
AcDbEntity
  8
7_ALL_FEATURES
100
AcDbLine
 62
7
  6
CONTINUOUS
 10
146.6968137968
 20
216.96483913
 11
146.9468137968
 21
217.3183925206
  0
LINE
  5
345
100
AcDbEntity
  8
7_ALL_FEATURES
100
AcDbLine
 62
7
  6
CONTINUOUS
 10
146.2600073732
 20
215.5186744368
 11
146.5125417118
 21
215.8758119234
  0
LINE
  5
346
100
AcDbEntity
  8
7_ALL_FEATURES
100
AcDbLine
 62
9
  6
CONTINUOUS
 10
142.8395309548
 20
201.5768389845
 11
142.8395309548
 21
202.0768389845
  0
LINE
  5
347
100
AcDbEntity
  8
7_ALL_FEATURES
100
AcDbLine
 62
7
  6
CONTINUOUS
 10
146.4067683119
 20
215.9745619016
 11
146.6968137968
 21
216.96483913
  0
LINE
  5
348
100
AcDbEntity
  8
7_ALL_FEATURES
100
AcDbLine
 62
3
  6
CONTINUOUS
 10
146.9468137968
 20
217.3183925206
 11
146.6567683119
 21
216.3281152922
  0
LINE
  5
349
100
AcDbEntity
  8
7_ALL_FEATURES
100
AcDbLine
 62
7
  6
CONTINUOUS
 10
146.4916774784
 20
211.299140324
 11
143.2158577799
 21
202.3997898166
  0
LINE
  5
34A
100
AcDbEntity
  8
7_ALL_FEATURES
100
AcDbLine
 62
4
  6
CONTINUOUS
 10
148.1155129649
 20
205.5667256708
 11
148.9972020599
 21
206.2221655659
  0
LINE
  5
34B
100
AcDbEntity
  8
7_ALL_FEATURES
100
AcDbLine
 62
3
  6
CONTINUOUS
 10
153.5870702369
 20
216.3281152922
 11
151.8965612651
 21
217.3183925206
  0
LINE
  5
34C
100
AcDbEntity
  8
03___PRT_ALL_CURVES
100
AcDbLine
 62
40
  6
CONTINUOUS
 10
151.3076380605
 20
202.1689155099
 11
146.8052831659
 21
211.0682660173
  0
LINE
  5
34D
100
AcDbEntity
  8
3_ALL_AXES
100
AcDbLine
 62
7
  6
CONTINUOUS
 10
148.0307609913
 20
201.5768389845
 11
148.0307609913
 21
201.1968389845
  0
LINE
  5
34E
100
AcDbEntity
  8
7_ALL_FEATURES
100
AcDbLine
 62
7
  6
CONTINUOUS
 10
149.1033439933
 20
201.5768389845
 11
149.1033439933
 21
183.0768389845
  0
LINE
  5
34F
100
AcDbEntity
  8
7_ALL_FEATURES
100
AcDbLine
 62
3
  6
CONTINUOUS
 10
146.8052831659
 20
211.0682660173
 11
143.5294634675
 21
202.1689155099
  0
LINE
  5
350
100
AcDbEntity
  8
7_ALL_FEATURES
100
AcDbLine
 62
4
  6
CONTINUOUS
 10
147.9146569965
 20
209.2796232632
 11
145.9556235428
 21
203.9575582641
  0
LINE
  5
351
100
AcDbEntity
  8
7_ALL_FEATURES
100
AcDbLine
 62
7
  6
CONTINUOUS
 10
147.4848133917
 20
206.9272705336
 11
146.6348105432
 21
204.6180856646
  0
LINE
  5
352
100
AcDbEntity
  8
7_ALL_FEATURES
100
AcDbLine
 62
4
  6
CONTINUOUS
 10
148.7236698246
 20
204.9217220506
 11
149.2617248752
 21
205.4346673824
  0
LINE
  5
353
100
AcDbEntity
  8
7_ALL_FEATURES
100
AcDbLine
 62
4
  6
CONTINUOUS
 10
148.9802221931
 20
204.4554670118
 11
148.4648135805
 21
206.2812219987
  0
LINE
  5
354
100
AcDbEntity
  8
7_ALL_FEATURES
100
AcDbLine
 62
7
  6
CONTINUOUS
 10
154.2712984669
 20
219.5768389845
 11
154.2712984669
 21
215.8758119234
  0
LINE
  5
355
100
AcDbEntity
  8
7_ALL_FEATURES
100
AcDbLine
 62
7
  6
CONTINUOUS
 10
154.2712984669
 20
210.220229431
 11
154.2712984669
 21
203.3268389845
  0
LINE
  5
356
100
AcDbEntity
  8
7_ALL_FEATURES
100
AcDbLine
 62
7
  6
CONTINUOUS
 10
150.3132405165
 20
206.9272705336
 11
149.4632376679
 21
204.6180856646
  0
LINE
  5
357
100
AcDbEntity
  8
7_ALL_FEATURES
100
AcDbLine
 62
4
  6
CONTINUOUS
 10
150.1982642299
 20
203.9575582641
 11
152.1572976837
 21
209.2796232632
  0
LINE
  5
358
100
AcDbEntity
  8
7_ALL_FEATURES
100
AcDbLine
 62
3
  6
CONTINUOUS
 10
151.3076380605
 20
202.1689155099
 11
154.583457759
 21
211.0682660173
  0
LINE
  5
359
100
AcDbEntity
  8
7_ALL_FEATURES
100
AcDbLine
 62
7
  6
CONTINUOUS
 10
157.8532881186
 20
202.0768389845
 11
159.1033439932
 21
203.3268671411
  0
LINE
  5
35A
100
AcDbEntity
  8
03___PRT_ALL_CURVES
100
AcDbLine
 62
40
  6
CONTINUOUS
 10
159.1033439754
 20
242.5850246096
 11
159.1018068852
 21
242.3256700867
  0
LINE
  5
35B
100
AcDbEntity
  8
03___PRT_ALL_CURVES
100
AcDbLine
 62
40
  6
CONTINUOUS
 10
159.1019080087
 20
240.7719276524
 11
159.1033439754
 21
240.5427325735
  0
LINE
  5
35C
100
AcDbEntity
  8
03___PRT_ALL_CURVES
100
AcDbLine
 62
40
  6
CONTINUOUS
 10
159.103343832
 20
240.7446425253
 11
159.1028073769
 21
240.9097175805
  0
LINE
  5
35D
100
AcDbEntity
  8
03___PRT_ALL_CURVES
100
AcDbLine
 62
40
  6
CONTINUOUS
 10
159.1030439921
 20
224.0268389845
 11
159.1030439921
 21
222.3268389845
  0
LINE
  5
35E
100
AcDbEntity
  8
03___PRT_ALL_CURVES
100
AcDbLine
 62
40
  6
CONTINUOUS
 10
159.1030439921
 20
237.7268389845
 11
159.1030439921
 21
239.9268389845
  0
LINE
  5
35F
100
AcDbEntity
  8
7_ALL_FEATURES
100
AcDbLine
 62
7
  6
CONTINUOUS
 10
159.1033439933
 20
250.0768389845
 11
159.1033439933
 21
221.8275962733
  0
LINE
  5
360
100
AcDbEntity
  8
7_ALL_FEATURES
100
AcDbLine
 62
7
  6
CONTINUOUS
 10
159.1033439933
 20
213.3260816957
 11
159.1033439933
 21
203.3268671414
  0
LINE
  5
361
100
AcDbEntity
  8
03___PRT_ALL_CURVES
100
AcDbLine
 62
40
  6
CONTINUOUS
 10
159.1028011552
 20
242.2139467345
 11
159.1033433479
 21
242.3831145907
  0
LINE
  5
362
100
AcDbEntity
  8
02___PRT_ALL_AXES
100
AcDbLine
 62
7
  6
CONTINUOUS
 10
130.7014599755
 20
166.3600003905
 11
131.4182985695
 21
167.0768389845
  0
LINE
  5
363
100
AcDbEntity
  8
7_ALL_FEATURES
100
AcDbLine
 62
7
  6
CONTINUOUS
 10
148.1033439933
 20
182.0768389845
 11
149.1033439933
 21
183.0768389845
  0
LINE
  5
364
100
AcDbEntity
  8
02___PRT_ALL_AXES
100
AcDbLine
 62
7
  6
CONTINUOUS
 10
130.6463085628
 20
166.4055057844
 11
130.6591904218
 21
166.4153444306
  0
LINE
  5
365
100
AcDbEntity
  8
02___PRT_ALL_AXES
100
AcDbLine
 62
7
  6
CONTINUOUS
 10
130.6466870063
 20
166.4034491213
 11
130.6596241404
 21
166.4130029188
  0
LINE
  5
366
100
AcDbEntity
  8
7_ALL_FEATURES
100
AcDbLine
 62
7
  6
CONTINUOUS
 10
84.1033439933
 20
250.0768389845
 11
159.1033439933
 21
250.0768389845
  0
LINE
  5
367
100
AcDbEntity
  8
7_ALL_FEATURES
100
AcDbLine
 62
7
  6
CONTINUOUS
 10
75.1033439933
 20
250.5768389845
 11
168.1033439933
 21
250.5768389845
  0
LINE
  5
368
100
AcDbEntity
  8
7_ALL_FEATURES
100
AcDbLine
 62
7
  6
CONTINUOUS
 10
73.8533439933
 20
251.8268389845
 11
169.3533439933
 21
251.8268389845
  0
LINE
  5
369
100
AcDbEntity
  8
7_ALL_FEATURES
100
AcDbLine
 62
7
  6
CONTINUOUS
 10
73.8533439933
 20
253.9768389845
 11
169.3533439933
 21
253.9768389845
  0
LINE
  5
36A
100
AcDbEntity
  8
7_ALL_FEATURES
100
AcDbLine
 62
7
  6
CONTINUOUS
 10
168.8533439933
 20
254.4768389845
 11
74.3533439933
 21
254.4768389845
  0
LINE
  5
36B
100
AcDbEntity
  8
7_ALL_FEATURES
100
AcDbLine
 62
7
  6
CONTINUOUS
 10
168.8533439933
 20
255.5768389845
 11
74.3533439933
 21
255.5768389845
  0
LINE
  5
36C
100
AcDbEntity
  8
06___PRT_ALL_SURFS
100
AcDbLine
 62
7
  6
CONTINUOUS
 10
168.8533439933
 20
255.5768389845
 11
74.3533467625
 21
255.5768389845
  0
LINE
  5
36D
100
AcDbEntity
  8
7_ALL_FEATURES
100
AcDbLine
 62
7
  6
CONTINUOUS
 10
169.3533439933
 20
256.0768389845
 11
73.8533439933
 21
256.0768389845
  0
LINE
  5
36E
100
AcDbEntity
  8
7_ALL_FEATURES
100
AcDbLine
 62
7
  6
CONTINUOUS
 10
168.8533439933
 20
255.5768389845
 11
168.8533439933
 21
254.4768389845
  0
LINE
  5
36F
100
AcDbEntity
  8
7_ALL_FEATURES
100
AcDbLine
 62
7
  6
CONTINUOUS
 10
169.3533439933
 20
261.0768389845
 11
169.3533439933
 21
256.0768389845
  0
LINE
  5
370
100
AcDbEntity
  8
7_ALL_FEATURES
100
AcDbLine
 62
7
  6
CONTINUOUS
 10
169.3533439933
 20
251.8268389845
 11
169.3533439933
 21
253.9768389845
  0
LINE
  5
371
100
AcDbEntity
  8
7_ALL_FEATURES
100
AcDbLine
 62
7
  6
CONTINUOUS
 10
73.8533439933
 20
261.0768389845
 11
169.3533439933
 21
261.0768389845
  0
LINE
  5
372
100
AcDbEntity
  8
7_ALL_FEATURES
100
AcDbLine
 62
7
  6
CONTINUOUS
 10
74.3533467625
 20
261.5768389845
 11
168.8533412242
 21
261.5768389845
  0
LINE
  5
373
100
AcDbEntity
  8
7_ALL_FEATURES
100
AcDbLine
 62
7
  6
CONTINUOUS
 10
168.8533439929
 20
254.4768389849
 11
169.3533439929
 21
253.9768389849
  0
LINE
  5
374
100
AcDbEntity
  8
7_ALL_FEATURES
100
AcDbLine
 62
7
  6
CONTINUOUS
 10
168.8533439933
 20
261.5768389845
 11
169.3533439933
 21
261.0768389845
  0
LINE
  5
375
100
AcDbEntity
  8
7_ALL_FEATURES
100
AcDbLine
 62
7
  6
CONTINUOUS
 10
223.143526037
 20
261.5768389845
 11
222.643526037
 21
261.0768389845
  0
LINE
  5
376
100
AcDbEntity
  8
7_ALL_FEATURES
100
AcDbLine
 62
7
  6
CONTINUOUS
 10
223.143526037
 20
254.4768389845
 11
222.643526037
 21
253.9768389845
  0
LINE
  5
377
100
AcDbEntity
  8
7_ALL_FEATURES
100
AcDbLine
 62
7
  6
CONTINUOUS
 10
222.643526037
 20
261.0768389845
 11
222.643526037
 21
256.0768389845
  0
LINE
  5
378
100
AcDbEntity
  8
02___PRT_ALL_AXES
100
AcDbLine
 62
7
  6
CONTINUOUS
 10
222.643526037
 20
253.9768389845
 11
222.643526037
 21
251.8268389845
  0
LINE
  5
379
100
AcDbEntity
  8
7_ALL_FEATURES
100
AcDbLine
 62
7
  6
CONTINUOUS
 10
223.143526037
 20
255.5768389845
 11
223.143526037
 21
254.4768389845
  0
LINE
  5
37A
100
AcDbEntity
  8
02___PRT_ALL_AXES
100
AcDbLine
 62
7
  6
CONTINUOUS
 10
265.5518664402
 20
162.0768389845
 11
275.2351856337
 21
162.0768389845
  0
LINE
  5
37B
100
AcDbEntity
  8
02___PRT_ALL_AXES
100
AcDbLine
 62
9
  6
CONTINUOUS
 10
278.893526037
 20
166.33329537
 11
277.4532032105
 21
166.33329537
  0
LINE
  5
37C
100
AcDbEntity
  8
02___PRT_ALL_AXES
100
AcDbLine
 62
9
  6
CONTINUOUS
 10
261.893526037
 20
166.33329537
 11
263.3338488634
 21
166.33329537
  0
LINE
  5
37D
100
AcDbEntity
  8
02___PRT_ALL_AXES
100
AcDbLine
 62
9
  6
CONTINUOUS
 10
268.9532032105
 20
166.33329537
 11
271.8338488634
 21
166.33329537
  0
LINE
  5
37E
100
AcDbEntity
  8
02___PRT_ALL_AXES
100
AcDbLine
 62
7
  6
CONTINUOUS
 10
278.893526037
 20
166.3600003905
 11
277.4532032105
 21
166.3600003905
  0
LINE
  5
37F
100
AcDbEntity
  8
02___PRT_ALL_AXES
100
AcDbLine
 62
7
  6
CONTINUOUS
 10
261.893526037
 20
166.3600003905
 11
263.3338488634
 21
166.3600003905
  0
LINE
  5
380
100
AcDbEntity
  8
02___PRT_ALL_AXES
100
AcDbLine
 62
7
  6
CONTINUOUS
 10
268.9532032105
 20
166.3600003905
 11
271.8338488634
 21
166.3600003905
  0
LINE
  5
381
100
AcDbEntity
  8
02___PRT_ALL_AXES
100
AcDbLine
 62
7
  6
CONTINUOUS
 10
278.893526037
 20
170.5768389845
 11
276.067055013
 21
170.5768389845
  0
LINE
  5
382
100
AcDbEntity
  8
02___PRT_ALL_AXES
100
AcDbLine
 62
7
  6
CONTINUOUS
 10
273.2199970609
 20
170.5768389845
 11
267.567055013
 21
170.5768389845
  0
LINE
  5
383
100
AcDbEntity
  8
02___PRT_ALL_AXES
100
AcDbLine
 62
7
  6
CONTINUOUS
 10
264.7199970609
 20
170.5768389845
 11
261.893526037
 21
170.5768389845
  0
LINE
  5
384
100
AcDbEntity
  8
7_ALL_FEATURES
100
AcDbLine
 62
7
  6
CONTINUOUS
 10
232.893526037
 20
250.0768389845
 11
232.893526037
 21
203.3268389845
  0
LINE
  5
385
100
AcDbEntity
  8
02___PRT_ALL_AXES
100
AcDbLine
 62
7
  6
CONTINUOUS
 10
261.893526037
 20
174.5768389845
 11
278.893526037
 21
174.5768389845
  0
LINE
  5
386
100
AcDbEntity
  8
7_ALL_FEATURES
100
AcDbLine
 62
7
  6
CONTINUOUS
 10
243.8935260376
 20
182.0768389838
 11
242.8935260377
 21
183.0768389838
  0
LINE
  5
387
100
AcDbEntity
  8
7_ALL_FEATURES
100
AcDbLine
 62
7
  6
CONTINUOUS
 10
237.7255715634
 20
219.5768389845
 11
237.7255715634
 21
215.8758119234
  0
LINE
  5
388
100
AcDbEntity
  8
7_ALL_FEATURES
100
AcDbLine
 62
7
  6
CONTINUOUS
 10
237.7255715634
 20
210.220229431
 11
237.7255715634
 21
203.3268389845
  0
LINE
  5
389
100
AcDbEntity
  8
02___PRT_ALL_AXES
100
AcDbLine
 62
7
  6
CONTINUOUS
 10
278.893526037
 20
178.5768389845
 11
261.893526037
 21
178.5768389845
  0
LINE
  5
38A
100
AcDbEntity
  8
7_ALL_FEATURES
100
AcDbLine
 62
7
  6
CONTINUOUS
 10
234.143526037
 20
202.0768389845
 11
232.893526037
 21
203.3268389845
  0
LINE
  5
38B
100
AcDbEntity
  8
7_ALL_FEATURES
100
AcDbLine
 62
7
  6
CONTINUOUS
 10
242.893526037
 20
201.5768389845
 11
242.893526037
 21
183.0768389845
  0
LINE
  5
38C
100
AcDbEntity
  8
7_ALL_FEATURES
100
AcDbLine
 62
7
  6
CONTINUOUS
 10
296.893526037
 20
182.0768389845
 11
243.893526037
 21
182.0768389845
  0
LINE
  5
38D
100
AcDbEntity
  8
7_ALL_FEATURES
100
AcDbLine
 62
7
  6
CONTINUOUS
 10
297.893526037
 20
183.0768389845
 11
242.893526037
 21
183.0768389845
  0
LINE
  5
38E
100
AcDbEntity
  8
7_ALL_FEATURES
100
AcDbLine
 62
3
  6
CONTINUOUS
 10
237.4134122713
 20
211.0682660173
 11
240.6892319698
 21
202.1689155099
  0
LINE
  5
38F
100
AcDbEntity
  8
7_ALL_FEATURES
100
AcDbLine
 62
4
  6
CONTINUOUS
 10
239.8395723466
 20
209.2796232632
 11
241.7986058004
 21
203.9575582641
  0
LINE
  5
390
100
AcDbEntity
  8
7_ALL_FEATURES
100
AcDbLine
 62
7
  6
CONTINUOUS
 10
241.1415143149
 20
206.9272705336
 11
241.9915171634
 21
204.6180856646
  0
LINE
  5
391
100
AcDbEntity
  8
3_ALL_AXES
100
AcDbLine
 62
7
  6
CONTINUOUS
 10
243.966109039
 20
201.1968389845
 11
243.966109039
 21
201.5768389845
  0
LINE
  5
392
100
AcDbEntity
  8
7_ALL_FEATURES
100
AcDbLine
 62
4
  6
CONTINUOUS
 10
243.8568414681
 20
204.9217220506
 11
244.0172697647
 21
205.4346673824
  0
LINE
  5
393
100
AcDbEntity
  8
7_ALL_FEATURES
100
AcDbLine
 62
4
  6
CONTINUOUS
 10
244.4566475244
 20
204.4554670118
 11
242.5971309018
 21
206.2812219987
  0
LINE
  5
394
100
AcDbEntity
  8
7_ALL_FEATURES
100
AcDbLine
 62
7
  6
CONTINUOUS
 10
243.9699414397
 20
206.9272705336
 11
244.8199442882
 21
204.6180856646
  0
LINE
  5
395
100
AcDbEntity
  8
7_ALL_FEATURES
100
AcDbLine
 62
4
  6
CONTINUOUS
 10
246.0412464875
 20
203.9575582641
 11
244.0822130337
 21
209.2796232632
  0
LINE
  5
396
100
AcDbEntity
  8
7_ALL_FEATURES
100
AcDbLine
 62
3
  6
CONTINUOUS
 10
248.4674065628
 20
202.1689155099
 11
245.1915868643
 21
211.0682660173
  0
LINE
  5
397
100
AcDbEntity
  8
7_ALL_FEATURES
100
AcDbLine
 62
7
  6
CONTINUOUS
 10
248.7810122504
 20
202.3997898166
 11
245.5051925519
 21
211.299140324
  0
LINE
  5
398
100
AcDbEntity
  8
7_ALL_FEATURES
100
AcDbLine
 62
3
  6
CONTINUOUS
 10
245.3401017184
 20
216.3281152922
 11
245.0500562335
 21
217.3183925206
  0
LINE
  5
399
100
AcDbEntity
  8
7_ALL_FEATURES
100
AcDbLine
 62
7
  6
CONTINUOUS
 10
245.3000562335
 20
216.96483913
 11
245.5901017184
 21
215.9745619016
  0
LINE
  5
39A
100
AcDbEntity
  8
7_ALL_FEATURES
100
AcDbLine
 62
9
  6
CONTINUOUS
 10
249.1573390755
 20
201.5768389845
 11
249.1573390755
 21
202.0768389845
  0
LINE
  5
39B
100
AcDbEntity
  8
3_ALL_AXES
100
AcDbLine
 62
7
  6
CONTINUOUS
 10
251.566109039
 20
201.1968389845
 11
251.566109039
 21
201.5768389845
  0
LINE
  5
39C
100
AcDbEntity
  8
7_ALL_FEATURES
100
AcDbLine
 62
7
  6
CONTINUOUS
 10
251.9800866376
 20
219.5768389845
 11
251.9800866376
 21
203.3268389845
  0
LINE
  5
39D
100
AcDbEntity
  8
7_ALL_FEATURES
100
AcDbLine
 62
4
  6
CONTINUOUS
 10
242.7738374692
 20
205.5667256708
 11
243.1729963126
 21
206.2221655659
  0
LINE
  5
39E
100
AcDbEntity
  8
7_ALL_FEATURES
100
AcDbLine
 62
3
  6
CONTINUOUS
 10
240.1003087651
 20
217.3183925206
 11
238.4097997934
 21
216.3281152922
  0
LINE
  5
39F
100
AcDbEntity
  8
03___PRT_ALL_CURVES
100
AcDbLine
 62
40
  6
CONTINUOUS
 10
248.4674065628
 20
202.1689155099
 11
237.4134122713
 21
211.0682660173
  0
LINE
  5
3A0
100
AcDbEntity
  8
7_ALL_FEATURES
100
AcDbLine
 62
7
  6
CONTINUOUS
 10
245.7368626571
 20
215.5186744368
 11
245.4843283185
 21
215.8758119234
  0
LINE
  5
3A1
100
AcDbEntity
  8
7_ALL_FEATURES
100
AcDbLine
 62
7
  6
CONTINUOUS
 10
254.342202104
 20
201.5768389845
 11
254.342202104
 21
202.0768389845
  0
LINE
  5
3A2
100
AcDbEntity
  8
7_ALL_FEATURES
100
AcDbLine
 62
9
  6
CONTINUOUS
 10
245.1915868643
 20
211.0682660173
 11
245.5051925519
 21
211.299140324
  0
LINE
  5
3A3
100
AcDbEntity
  8
7_ALL_FEATURES
100
AcDbLine
 62
7
  6
CONTINUOUS
 10
245.3000562335
 20
216.96483913
 11
245.0500562335
 21
217.3183925206
  0
LINE
  5
3A4
100
AcDbEntity
  8
3_ALL_AXES
100
AcDbLine
 62
7
  6
CONTINUOUS
 10
294.9859430349
 20
199.3768389845
 11
291.0559430349
 21
199.3768389845
  0
LINE
  5
3A5
100
AcDbEntity
  8
3_ALL_AXES
100
AcDbLine
 62
7
  6
CONTINUOUS
 10
249.731109039
 20
199.3768389845
 11
245.801109039
 21
199.3768389845
  0
LINE
  5
3A6
100
AcDbEntity
  8
3_ALL_AXES
100
AcDbLine
 62
7
  6
CONTINUOUS
 10
296.8209430349
 20
201.1968389845
 11
289.2209430349
 21
201.1968389845
  0
LINE
  5
3A7
100
AcDbEntity
  8
3_ALL_AXES
100
AcDbLine
 62
7
  6
CONTINUOUS
 10
251.566109039
 20
201.1968389845
 11
243.966109039
 21
201.1968389845
  0
LINE
  5
3A8
100
AcDbEntity
  8
3_ALL_AXES
100
AcDbLine
 62
7
  6
CONTINUOUS
 10
296.508337769
 20
201.5768389845
 11
294.5455554582
 21
201.5768389845
  0
LINE
  5
3A9
100
AcDbEntity
  8
3_ALL_AXES
100
AcDbLine
 62
7
  6
CONTINUOUS
 10
246.2414966157
 20
201.5768389845
 11
244.2787143049
 21
201.5768389845
  0
LINE
  5
3AA
100
AcDbEntity
  8
7_ALL_FEATURES
100
AcDbLine
 62
3
  6
CONTINUOUS
 10
241.3791644824
 20
201.5768389845
 11
244.2787143049
 21
201.5768389845
  0
LINE
  5
3AB
100
AcDbEntity
  8
7_ALL_FEATURES
100
AcDbLine
 62
3
  6
CONTINUOUS
 10
246.2414966157
 20
201.5768389845
 11
254.342202104
 21
201.5768389845
  0
LINE
  5
3AC
100
AcDbEntity
  8
7_ALL_FEATURES
100
AcDbLine
 62
7
  6
CONTINUOUS
 10
254.342202104
 20
201.5768389845
 11
286.4448499699
 21
201.5768389845
  0
LINE
  5
3AD
100
AcDbEntity
  8
7_ALL_FEATURES
100
AcDbLine
 62
3
  6
CONTINUOUS
 10
286.4448499699
 20
201.5768389845
 11
294.5455554582
 21
201.5768389845
  0
LINE
  5
3AE
100
AcDbEntity
  8
7_ALL_FEATURES
100
AcDbLine
 62
3
  6
CONTINUOUS
 10
296.508337769
 20
201.5768389845
 11
299.4078875915
 21
201.5768389845
  0
LINE
  5
3AF
100
AcDbEntity
  8
7_ALL_FEATURES
100
AcDbLine
 62
7
  6
CONTINUOUS
 10
306.6431464911
 20
202.0768389845
 11
300.0560081787
 21
202.0768389845
  0
LINE
  5
3B0
100
AcDbEntity
  8
7_ALL_FEATURES
100
AcDbLine
 62
7
  6
CONTINUOUS
 10
291.6297129985
 20
202.0768389845
 11
249.1573390755
 21
202.0768389845
  0
LINE
  5
3B1
100
AcDbEntity
  8
7_ALL_FEATURES
100
AcDbLine
 62
7
  6
CONTINUOUS
 10
240.7310438952
 20
202.0768389845
 11
234.1439055828
 21
202.0768389845
  0
LINE
  5
3B2
100
AcDbEntity
  8
7_ALL_FEATURES
100
AcDbLine
 62
9
  6
CONTINUOUS
 10
240.6892319698
 20
202.1689155099
 11
248.4674065628
 21
202.1689155099
  0
LINE
  5
3B3
100
AcDbEntity
  8
7_ALL_FEATURES
100
AcDbLine
 62
9
  6
CONTINUOUS
 10
292.3196455111
 20
202.1689155099
 11
300.0978201042
 21
202.1689155099
  0
LINE
  5
3B4
100
AcDbEntity
  8
02___PRT_ALL_AXES
100
AcDbLine
 62
7
  6
CONTINUOUS
 10
261.893526037
 20
182.0768389845
 11
261.893526037
 21
178.5768389845
  0
LINE
  5
3B5
100
AcDbEntity
  8
02___PRT_ALL_AXES
100
AcDbLine
 62
7
  6
CONTINUOUS
 10
261.893526037
 20
164.1575292904
 11
261.893526037
 21
174.5768389845
  0
LINE
  5
3B6
100
AcDbEntity
  8
02___PRT_ALL_AXES
100
AcDbLine
 62
7
  6
CONTINUOUS
 10
262.893526037
 20
174.5768389845
 11
262.893526037
 21
178.5768389845
  0
LINE
  5
3B7
100
AcDbEntity
  8
02___PRT_ALL_AXES
100
AcDbLine
 62
7
  6
CONTINUOUS
 10
263.3338488634
 20
166.33329537
 11
263.3338488634
 21
166.3600003905
  0
LINE
  5
3B8
100
AcDbEntity
  8
02___PRT_ALL_AXES
100
AcDbLine
 62
7
  6
CONTINUOUS
 10
264.7199970609
 20
170.5768389845
 11
264.7199970609
 21
174.5768389845
  0
LINE
  5
3B9
100
AcDbEntity
  8
7_ALL_FEATURES
100
AcDbLine
 62
9
  6
CONTINUOUS
 10
248.4674065628
 20
202.1689155099
 11
248.7810122504
 21
202.3997898166
  0
LINE
  5
3BA
100
AcDbEntity
  8
7_ALL_FEATURES
100
AcDbLine
 62
7
  6
CONTINUOUS
 10
270.393526037
 20
219.0202146575
 11
269.143526037
 21
218.298526821
  0
LINE
  5
3BB
100
AcDbEntity
  8
7_ALL_FEATURES
100
AcDbLine
 62
7
  6
CONTINUOUS
 10
307.893526037
 20
203.3268389845
 11
300.5240476726
 21
203.3268389845
  0
LINE
  5
3BC
100
AcDbEntity
  8
7_ALL_FEATURES
100
AcDbLine
 62
7
  6
CONTINUOUS
 10
240.2630044013
 20
203.3268389845
 11
232.893526037
 21
203.3268389845
  0
LINE
  5
3BD
100
AcDbEntity
  8
7_ALL_FEATURES
100
AcDbLine
 62
7
  6
CONTINUOUS
 10
248.4397687042
 20
203.3268389845
 11
292.3472833697
 21
203.3268389845
  0
LINE
  5
3BE
100
AcDbEntity
  8
7_ALL_FEATURES
100
AcDbLine
 62
4
  6
CONTINUOUS
 10
241.7986058004
 20
203.9575582641
 11
246.0412464875
 21
203.9575582641
  0
LINE
  5
3BF
100
AcDbEntity
  8
7_ALL_FEATURES
100
AcDbLine
 62
4
  6
CONTINUOUS
 10
294.7458055864
 20
203.9575582641
 11
298.9884462736
 21
203.9575582641
  0
LINE
  5
3C0
100
AcDbEntity
  8
7_ALL_FEATURES
100
AcDbLine
 62
7
  6
CONTINUOUS
 10
298.9675975606
 20
204.6180856646
 11
298.2534197116
 21
204.6180856646
  0
LINE
  5
3C1
100
AcDbEntity
  8
7_ALL_FEATURES
100
AcDbLine
 62
7
  6
CONTINUOUS
 10
296.1391704358
 20
204.6180856646
 11
295.4249925868
 21
204.6180856646
  0
LINE
  5
3C2
100
AcDbEntity
  8
7_ALL_FEATURES
100
AcDbLine
 62
7
  6
CONTINUOUS
 10
245.5341221372
 20
204.6180856646
 11
244.8199442882
 21
204.6180856646
  0
LINE
  5
3C3
100
AcDbEntity
  8
7_ALL_FEATURES
100
AcDbLine
 62
7
  6
CONTINUOUS
 10
242.7056950124
 20
204.6180856646
 11
241.9915171634
 21
204.6180856646
  0
LINE
  5
3C4
100
AcDbEntity
  8
7_ALL_FEATURES
100
AcDbLine
 62
7
  6
CONTINUOUS
 10
223.893526037
 20
250.5768389845
 11
222.643526037
 21
251.8268389845
  0
LINE
  5
3C5
100
AcDbEntity
  8
02___PRT_ALL_AXES
100
AcDbLine
 62
7
  6
CONTINUOUS
 10
267.567055013
 20
170.5768389845
 11
267.567055013
 21
174.5768389845
  0
LINE
  5
3C6
100
AcDbEntity
  8
02___PRT_ALL_AXES
100
AcDbLine
 62
7
  6
CONTINUOUS
 10
268.9532032105
 20
166.33329537
 11
268.9532032105
 21
166.3600003905
  0
LINE
  5
3C7
100
AcDbEntity
  8
7_ALL_FEATURES
100
AcDbLine
 62
7
  6
CONTINUOUS
 10
269.143526037
 20
218.298526821
 11
269.143526037
 21
216.855151148
  0
LINE
  5
3C8
100
AcDbEntity
  8
02___PRT_ALL_AXES
100
AcDbLine
 62
7
  6
CONTINUOUS
 10
270.393526037
 20
182.0768389845
 11
270.393526037
 21
178.5768389845
  0
LINE
  5
3C9
100
AcDbEntity
  8
02___PRT_ALL_AXES
100
AcDbLine
 62
7
  6
CONTINUOUS
 10
270.393526037
 20
170.5768389845
 11
270.393526037
 21
167.0768389845
  0
LINE
  5
3CA
100
AcDbEntity
  8
7_ALL_FEATURES
100
AcDbLine
 62
7
  6
CONTINUOUS
 10
307.8935260365
 20
250.0768389841
 11
308.3935260365
 21
250.5768389841
  0
LINE
  5
3CB
100
AcDbEntity
  8
7_ALL_FEATURES
100
AcDbLine
 62
7
  6
CONTINUOUS
 10
270.393526037
 20
216.1334633115
 11
271.643526037
 21
216.855151148
  0
LINE
  5
3CC
100
AcDbEntity
  8
7_ALL_FEATURES
100
AcDbLine
 62
4
  6
CONTINUOUS
 10
300.9474797273
 20
209.2796232632
 11
296.7048390402
 21
209.2796232632
  0
LINE
  5
3CD
100
AcDbEntity
  8
7_ALL_FEATURES
100
AcDbLine
 62
4
  6
CONTINUOUS
 10
244.0822130337
 20
209.2796232632
 11
239.8395723466
 21
209.2796232632
  0
LINE
  5
3CE
100
AcDbEntity
  8
7_ALL_FEATURES
100
AcDbLine
 62
9
  6
CONTINUOUS
 10
237.4134122713
 20
211.0682660173
 11
245.1915868643
 21
211.0682660173
  0
LINE
  5
3CF
100
AcDbEntity
  8
7_ALL_FEATURES
100
AcDbLine
 62
9
  6
CONTINUOUS
 10
295.5954652096
 20
211.0682660173
 11
303.3736398026
 21
211.0682660173
  0
LINE
  5
3D0
100
AcDbEntity
  8
7_ALL_FEATURES
100
AcDbLine
 62
7
  6
CONTINUOUS
 10
223.143526037
 20
255.5768389845
 11
222.643526037
 21
256.0768389845
  0
LINE
  5
3D1
100
AcDbEntity
  8
7_ALL_FEATURES
100
AcDbLine
 62
7
  6
CONTINUOUS
 10
232.8935260374
 20
250.0768389841
 11
232.3935260374
 21
250.5768389841
  0
LINE
  5
3D2
100
AcDbEntity
  8
7_ALL_FEATURES
100
AcDbLine
 62
7
  6
CONTINUOUS
 10
271.643526037
 20
216.855151148
 11
271.643526037
 21
218.298526821
  0
LINE
  5
3D3
100
AcDbEntity
  8
02___PRT_ALL_AXES
100
AcDbLine
 62
7
  6
CONTINUOUS
 10
271.8338488634
 20
166.33329537
 11
271.8338488634
 21
166.3600003905
  0
LINE
  5
3D4
100
AcDbEntity
  8
02___PRT_ALL_AXES
100
AcDbLine
 62
7
  6
CONTINUOUS
 10
273.2199970609
 20
170.5768389845
 11
273.2199970609
 21
174.5768389845
  0
LINE
  5
3D5
100
AcDbEntity
  8
7_ALL_FEATURES
100
AcDbLine
 62
7
  6
CONTINUOUS
 10
317.643526037
 20
255.5768389845
 11
318.143526037
 21
256.0768389845
  0
LINE
  5
3D6
100
AcDbEntity
  8
7_ALL_FEATURES
100
AcDbLine
 62
9
  6
CONTINUOUS
 10
238.4097997934
 20
216.3281152922
 11
245.3401017184
 21
216.3281152922
  0
LINE
  5
3D7
100
AcDbEntity
  8
7_ALL_FEATURES
100
AcDbLine
 62
9
  6
CONTINUOUS
 10
295.4469503555
 20
216.3281152922
 11
302.3772522805
 21
216.3281152922
  0
LINE
  5
3D8
100
AcDbEntity
  8
7_ALL_FEATURES
100
AcDbLine
 62
7
  6
CONTINUOUS
 10
269.143526037
 20
216.855151148
 11
270.393526037
 21
216.1334633115
  0
LINE
  5
3D9
100
AcDbEntity
  8
02___PRT_ALL_AXES
100
AcDbLine
 62
7
  6
CONTINUOUS
 10
276.067055013
 20
170.5768389845
 11
276.067055013
 21
174.5768389845
  0
LINE
  5
3DA
100
AcDbEntity
  8
02___PRT_ALL_AXES
100
AcDbLine
 62
7
  6
CONTINUOUS
 10
277.4532032105
 20
166.33329537
 11
277.4532032105
 21
166.3600003905
  0
LINE
  5
3DB
100
AcDbEntity
  8
02___PRT_ALL_AXES
100
AcDbLine
 62
7
  6
CONTINUOUS
 10
277.893526037
 20
174.5768389845
 11
277.893526037
 21
178.5768389845
  0
LINE
  5
3DC
100
AcDbEntity
  8
02___PRT_ALL_AXES
100
AcDbLine
 62
7
  6
CONTINUOUS
 10
278.893526037
 20
182.0768389845
 11
278.893526037
 21
178.5768389845
  0
LINE
  5
3DD
100
AcDbEntity
  8
02___PRT_ALL_AXES
100
AcDbLine
 62
7
  6
CONTINUOUS
 10
278.893526037
 20
164.1575292904
 11
278.893526037
 21
174.5768389845
  0
LINE
  5
3DE
100
AcDbEntity
  8
7_ALL_FEATURES
100
AcDbLine
 62
7
  6
CONTINUOUS
 10
316.893526037
 20
250.5768389845
 11
318.143526037
 21
251.8268389845
  0
LINE
  5
3DF
100
AcDbEntity
  8
7_ALL_FEATURES
100
AcDbLine
 62
3
  6
CONTINUOUS
 10
300.6867433088
 20
217.3183925206
 11
295.7369958405
 21
217.3183925206
  0
LINE
  5
3E0
100
AcDbEntity
  8
7_ALL_FEATURES
100
AcDbLine
 62
3
  6
CONTINUOUS
 10
245.0500562335
 20
217.3183925206
 11
240.1003087651
 21
217.3183925206
  0
LINE
  5
3E1
100
AcDbEntity
  8
7_ALL_FEATURES
100
AcDbLine
 62
7
  6
CONTINUOUS
 10
303.0614805108
 20
219.5768389845
 11
288.8069654361
 21
219.5768389845
  0
LINE
  5
3E2
100
AcDbEntity
  8
7_ALL_FEATURES
100
AcDbLine
 62
7
  6
CONTINUOUS
 10
251.9800866378
 20
219.5768389845
 11
237.7255715632
 21
219.5768389845
  0
LINE
  5
3E3
100
AcDbEntity
  8
7_ALL_FEATURES
100
AcDbLine
 62
7
  6
CONTINUOUS
 10
271.643526037
 20
218.298526821
 11
270.393526037
 21
219.0202146575
  0
LINE
  5
3E4
100
AcDbEntity
  8
7_ALL_FEATURES
100
AcDbLine
 62
9
  6
CONTINUOUS
 10
292.3196455111
 20
202.1689155099
 11
292.0060398235
 21
202.3997898166
  0
LINE
  5
3E5
100
AcDbEntity
  8
7_ALL_FEATURES
100
AcDbLine
 62
9
  6
CONTINUOUS
 10
295.5954652096
 20
211.0682660173
 11
295.281859522
 21
211.299140324
  0
LINE
  5
3E6
100
AcDbEntity
  8
7_ALL_FEATURES
100
AcDbLine
 62
7
  6
CONTINUOUS
 10
286.4448499699
 20
201.5768389845
 11
286.4448499699
 21
202.0768389845
  0
LINE
  5
3E7
100
AcDbEntity
  8
7_ALL_FEATURES
100
AcDbLine
 62
7
  6
CONTINUOUS
 10
288.8069654363
 20
219.5768389845
 11
288.8069654363
 21
203.3268389845
  0
LINE
  5
3E8
100
AcDbEntity
  8
3_ALL_AXES
100
AcDbLine
 62
7
  6
CONTINUOUS
 10
289.2209430349
 20
201.1968389845
 11
289.2209430349
 21
201.5768389845
  0
LINE
  5
3E9
100
AcDbEntity
  8
7_ALL_FEATURES
100
AcDbLine
 62
7
  6
CONTINUOUS
 10
295.4869958405
 20
216.96483913
 11
295.7369958405
 21
217.3183925206
  0
LINE
  5
3EA
100
AcDbEntity
  8
7_ALL_FEATURES
100
AcDbLine
 62
7
  6
CONTINUOUS
 10
295.0501894168
 20
215.5186744368
 11
295.3027237554
 21
215.8758119234
  0
LINE
  5
3EB
100
AcDbEntity
  8
7_ALL_FEATURES
100
AcDbLine
 62
9
  6
CONTINUOUS
 10
291.6297129985
 20
201.5768389845
 11
291.6297129985
 21
202.0768389845
  0
LINE
  5
3EC
100
AcDbEntity
  8
7_ALL_FEATURES
100
AcDbLine
 62
7
  6
CONTINUOUS
 10
295.1969503555
 20
215.9745619016
 11
295.4869958405
 21
216.96483913
  0
LINE
  5
3ED
100
AcDbEntity
  8
7_ALL_FEATURES
100
AcDbLine
 62
3
  6
CONTINUOUS
 10
295.7369958405
 20
217.3183925206
 11
295.4469503555
 21
216.3281152922
  0
LINE
  5
3EE
100
AcDbEntity
  8
7_ALL_FEATURES
100
AcDbLine
 62
7
  6
CONTINUOUS
 10
295.281859522
 20
211.299140324
 11
292.0060398235
 21
202.3997898166
  0
LINE
  5
3EF
100
AcDbEntity
  8
7_ALL_FEATURES
100
AcDbLine
 62
4
  6
CONTINUOUS
 10
296.9056950085
 20
205.5667256708
 11
297.7873841035
 21
206.2221655659
  0
LINE
  5
3F0
100
AcDbEntity
  8
7_ALL_FEATURES
100
AcDbLine
 62
3
  6
CONTINUOUS
 10
302.3772522805
 20
216.3281152922
 11
300.6867433088
 21
217.3183925206
  0
LINE
  5
3F1
100
AcDbEntity
  8
03___PRT_ALL_CURVES
100
AcDbLine
 62
40
  6
CONTINUOUS
 10
300.0978201042
 20
202.1689155099
 11
295.5954652096
 21
211.0682660173
  0
LINE
  5
3F2
100
AcDbEntity
  8
3_ALL_AXES
100
AcDbLine
 62
7
  6
CONTINUOUS
 10
296.8209430349
 20
201.1968389845
 11
296.8209430349
 21
201.5768389845
  0
LINE
  5
3F3
100
AcDbEntity
  8
7_ALL_FEATURES
100
AcDbLine
 62
7
  6
CONTINUOUS
 10
297.893526037
 20
201.5768389845
 11
297.893526037
 21
183.0768389845
  0
LINE
  5
3F4
100
AcDbEntity
  8
7_ALL_FEATURES
100
AcDbLine
 62
3
  6
CONTINUOUS
 10
295.5954652096
 20
211.0682660173
 11
292.3196455111
 21
202.1689155099
  0
LINE
  5
3F5
100
AcDbEntity
  8
7_ALL_FEATURES
100
AcDbLine
 62
4
  6
CONTINUOUS
 10
296.7048390402
 20
209.2796232632
 11
294.7458055864
 21
203.9575582641
  0
LINE
  5
3F6
100
AcDbEntity
  8
7_ALL_FEATURES
100
AcDbLine
 62
7
  6
CONTINUOUS
 10
296.2749954354
 20
206.9272705336
 11
295.4249925868
 21
204.6180856646
  0
LINE
  5
3F7
100
AcDbEntity
  8
7_ALL_FEATURES
100
AcDbLine
 62
4
  6
CONTINUOUS
 10
297.5138518683
 20
204.9217220506
 11
298.0519069188
 21
205.4346673824
  0
LINE
  5
3F8
100
AcDbEntity
  8
7_ALL_FEATURES
100
AcDbLine
 62
4
  6
CONTINUOUS
 10
297.7704042367
 20
204.4554670118
 11
297.2549956242
 21
206.2812219987
  0
LINE
  5
3F9
100
AcDbEntity
  8
7_ALL_FEATURES
100
AcDbLine
 62
7
  6
CONTINUOUS
 10
303.0614805105
 20
219.5768389845
 11
303.0614805105
 21
215.8758119234
  0
LINE
  5
3FA
100
AcDbEntity
  8
7_ALL_FEATURES
100
AcDbLine
 62
7
  6
CONTINUOUS
 10
303.0614805105
 20
210.220229431
 11
303.0614805105
 21
203.3268389845
  0
LINE
  5
3FB
100
AcDbEntity
  8
7_ALL_FEATURES
100
AcDbLine
 62
7
  6
CONTINUOUS
 10
299.1034225601
 20
206.9272705336
 11
298.2534197116
 21
204.6180856646
  0
LINE
  5
3FC
100
AcDbEntity
  8
7_ALL_FEATURES
100
AcDbLine
 62
4
  6
CONTINUOUS
 10
298.9884462736
 20
203.9575582641
 11
300.9474797273
 21
209.2796232632
  0
LINE
  5
3FD
100
AcDbEntity
  8
7_ALL_FEATURES
100
AcDbLine
 62
3
  6
CONTINUOUS
 10
300.0978201042
 20
202.1689155099
 11
303.3736398026
 21
211.0682660173
  0
LINE
  5
3FE
100
AcDbEntity
  8
7_ALL_FEATURES
100
AcDbLine
 62
7
  6
CONTINUOUS
 10
306.643526037
 20
202.0768389845
 11
307.893526037
 21
203.3268389845
  0
LINE
  5
3FF
100
AcDbEntity
  8
7_ALL_FEATURES
100
AcDbLine
 62
7
  6
CONTINUOUS
 10
307.893526037
 20
250.0768389845
 11
307.893526037
 21
203.3268389845
  0
LINE
  5
400
100
AcDbEntity
  8
7_ALL_FEATURES
100
AcDbLine
 62
7
  6
CONTINUOUS
 10
296.8935260363
 20
182.0768389838
 11
297.8935260362
 21
183.0768389838
  0
LINE
  5
401
100
AcDbEntity
  8
7_ALL_FEATURES
100
AcDbLine
 62
7
  6
CONTINUOUS
 10
232.893526037
 20
250.0768389845
 11
307.893526037
 21
250.0768389845
  0
LINE
  5
402
100
AcDbEntity
  8
7_ALL_FEATURES
100
AcDbLine
 62
7
  6
CONTINUOUS
 10
223.893526037
 20
250.5768389845
 11
316.893526037
 21
250.5768389845
  0
LINE
  5
403
100
AcDbEntity
  8
7_ALL_FEATURES
100
AcDbLine
 62
7
  6
CONTINUOUS
 10
222.643526037
 20
251.8268389845
 11
318.143526037
 21
251.8268389845
  0
LINE
  5
404
100
AcDbEntity
  8
7_ALL_FEATURES
100
AcDbLine
 62
7
  6
CONTINUOUS
 10
222.643526037
 20
253.9768389845
 11
318.143526037
 21
253.9768389845
  0
LINE
  5
405
100
AcDbEntity
  8
7_ALL_FEATURES
100
AcDbLine
 62
7
  6
CONTINUOUS
 10
317.643526037
 20
254.4768389845
 11
223.143526037
 21
254.4768389845
  0
LINE
  5
406
100
AcDbEntity
  8
7_ALL_FEATURES
100
AcDbLine
 62
7
  6
CONTINUOUS
 10
317.643526037
 20
255.5768389845
 11
223.143526037
 21
255.5768389845
  0
LINE
  5
407
100
AcDbEntity
  8
06___PRT_ALL_SURFS
100
AcDbLine
 62
7
  6
CONTINUOUS
 10
317.643526037
 20
255.5768389845
 11
223.143526037
 21
255.5768389845
  0
LINE
  5
408
100
AcDbEntity
  8
7_ALL_FEATURES
100
AcDbLine
 62
7
  6
CONTINUOUS
 10
318.143526037
 20
256.0768389845
 11
222.643526037
 21
256.0768389845
  0
LINE
  5
409
100
AcDbEntity
  8
7_ALL_FEATURES
100
AcDbLine
 62
7
  6
CONTINUOUS
 10
317.643526037
 20
255.5768389845
 11
317.643526037
 21
254.4768389845
  0
LINE
  5
40A
100
AcDbEntity
  8
7_ALL_FEATURES
100
AcDbLine
 62
7
  6
CONTINUOUS
 10
318.143526037
 20
261.0768389845
 11
318.143526037
 21
256.0768389845
  0
LINE
  5
40B
100
AcDbEntity
  8
02___PRT_ALL_AXES
100
AcDbLine
 62
7
  6
CONTINUOUS
 10
318.143526037
 20
253.9768389845
 11
318.143526037
 21
251.8268389845
  0
LINE
  5
40C
100
AcDbEntity
  8
7_ALL_FEATURES
100
AcDbLine
 62
7
  6
CONTINUOUS
 10
222.643526037
 20
261.0768389845
 11
318.143526037
 21
261.0768389845
  0
LINE
  5
40D
100
AcDbEntity
  8
7_ALL_FEATURES
100
AcDbLine
 62
7
  6
CONTINUOUS
 10
223.143526037
 20
261.5768389845
 11
317.643526037
 21
261.5768389845
  0
LINE
  5
40E
100
AcDbEntity
  8
7_ALL_FEATURES
100
AcDbLine
 62
7
  6
CONTINUOUS
 10
317.643526037
 20
254.4768389845
 11
318.143526037
 21
253.9768389845
  0
LINE
  5
40F
100
AcDbEntity
  8
7_ALL_FEATURES
100
AcDbLine
 62
7
  6
CONTINUOUS
 10
317.643526037
 20
261.5768389845
 11
318.143526037
 21
261.0768389845
  0
CIRCLE
  5
410
100
AcDbEntity
  8
7_ALL_FEATURES
100
AcDbCircle
 62
7
  6
CONTINUOUS
 10
121.6033439933
 20
75.3781284761
 40
47.75
  0
CIRCLE
  5
411
100
AcDbEntity
  8
7_ALL_FEATURES
100
AcDbCircle
 62
7
  6
CONTINUOUS
 10
121.6033439933
 20
75.3781284761
 40
47.25
  0
ARC
  5
412
100
AcDbEntity
  8
03___PRT_ALL_CURVES
100
AcDbCircle
 62
40
  6
CONTINUOUS
 10
410.4363929928
 20
241.7096048622
 40
251.3341003016
100
AcDbArc
 50
179.8850268214
 51
180.0333762284
  0
ARC
  5
413
100
AcDbEntity
  8
03___PRT_ALL_CURVES
100
AcDbCircle
 62
40
  6
CONTINUOUS
 10
405.0380175154
 20
241.4124146086
 40
245.9357263561
100
AcDbArc
 50
179.9648722789
 51
180.1171136819
  0
ARC
  5
414
100
AcDbEntity
  8
03___PRT_ALL_CURVES
100
AcDbCircle
 62
40
  6
CONTINUOUS
 10
368.1174092129
 20
241.6144222848
 40
209.0168301134
100
AcDbArc
 50
179.805032067
 51
180.0140420514
  0
ARC
  5
415
100
AcDbEntity
  8
03___PRT_ALL_CURVES
100
AcDbCircle
 62
40
  6
CONTINUOUS
 10
339.119389658
 20
241.4585652403
 40
180.0188111751
100
AcDbArc
 50
179.9666983384
 51
180.2185412477
  0
ARC
  5
416
100
AcDbEntity
  8
7_ALL_FEATURES
100
AcDbCircle
 62
7
  6
CONTINUOUS
 10
46.8433795344
 20
217.5768389845
 40
37.5015659871
100
AcDbArc
 50
353.4927693225
 51
6.5072306775
  0
ARC
  5
417
100
AcDbEntity
  8
02___PRT_ALL_AXES
100
AcDbCircle
 62
7
  6
CONTINUOUS
 10
115.490374011
 20
170.3842650072
 40
4.9430740654
100
AcDbArc
 50
233.6422316278
 51
234.5006250002
  0
ARC
  5
418
100
AcDbEntity
  8
02___PRT_ALL_AXES
100
AcDbCircle
 62
7
  6
CONTINUOUS
 10
127.7163198037
 20
170.384256965
 40
4.9430641338
100
AcDbArc
 50
305.4993741337
 51
306.3576671245
  0
ARC
  5
419
100
AcDbEntity
  8
02___PRT_ALL_AXES
100
AcDbCircle
 62
7
  6
CONTINUOUS
 10
126.4450035901
 20
166.33329537
 40
4.2564563855
100
AcDbArc
 50
270.0
 51
360.0
  0
ARC
  5
41A
100
AcDbEntity
  8
02___PRT_ALL_AXES
100
AcDbCircle
 62
7
  6
CONTINUOUS
 10
116.7616843966
 20
166.33329537
 40
4.2564563855
100
AcDbArc
 50
180.0
 51
270.0
  0
ARC
  5
41B
100
AcDbEntity
  8
3_ALL_AXES
100
AcDbCircle
 62
7
  6
CONTINUOUS
 10
87.575984085
 20
217.7192817819
 40
4.1
100
AcDbArc
 50
144.1798772934
 51
153.6069742257
  0
ARC
  5
41C
100
AcDbEntity
  8
3_ALL_AXES
100
AcDbCircle
 62
7
  6
CONTINUOUS
 10
87.575984085
 20
217.4343961872
 40
4.1
100
AcDbArc
 50
206.3930257743
 51
215.8200901656
  0
ARC
  5
41D
100
AcDbEntity
  8
3_ALL_AXES
100
AcDbCircle
 62
7
  6
CONTINUOUS
 10
144.3732037886
 20
203.0494790762
 40
4.1
100
AcDbArc
 50
296.3930257743
 51
333.1366968699
  0
ARC
  5
41E
100
AcDbEntity
  8
3_ALL_AXES
100
AcDbCircle
 62
7
  6
CONTINUOUS
 10
144.0883181939
 20
203.0494790762
 40
4.1
100
AcDbArc
 50
206.8633031301
 51
243.6069742257
  0
ARC
  5
41F
100
AcDbEntity
  8
3_ALL_AXES
100
AcDbCircle
 62
7
  6
CONTINUOUS
 10
99.1183697927
 20
203.0494790762
 40
4.1
100
AcDbArc
 50
296.3930257743
 51
333.1366968699
  0
ARC
  5
420
100
AcDbEntity
  8
3_ALL_AXES
100
AcDbCircle
 62
7
  6
CONTINUOUS
 10
98.833484198
 20
203.0494790762
 40
4.1
100
AcDbArc
 50
206.8633031301
 51
243.6069742257
  0
ARC
  5
421
100
AcDbEntity
  8
02___PRT_ALL_AXES
100
AcDbCircle
 62
7
  6
CONTINUOUS
 10
275.2351856337
 20
166.33329537
 40
4.2564563855
100
AcDbArc
 50
270.0
 51
329.2582807839
  0
ARC
  5
422
100
AcDbEntity
  8
02___PRT_ALL_AXES
100
AcDbCircle
 62
7
  6
CONTINUOUS
 10
265.5518664402
 20
166.33329537
 40
4.2564563855
100
AcDbArc
 50
210.7417192161
 51
270.0
  0
CIRCLE
  5
423
100
AcDbEntity
  8
7_ALL_FEATURES
100
AcDbCircle
 62
7
  6
CONTINUOUS
 10
270.393526037
 20
217.5768389845
 40
4.25
  0
ARC
  5
424
100
AcDbEntity
  8
3_ALL_AXES
100
AcDbCircle
 62
7
  6
CONTINUOUS
 10
293.1633858323
 20
203.0494790762
 40
4.1
100
AcDbArc
 50
296.3930257743
 51
333.1366968699
  0
ARC
  5
425
100
AcDbEntity
  8
3_ALL_AXES
100
AcDbCircle
 62
7
  6
CONTINUOUS
 10
292.8785002376
 20
203.0494790762
 40
4.1
100
AcDbArc
 50
206.8633031301
 51
243.6069742257
  0
ARC
  5
426
100
AcDbEntity
  8
3_ALL_AXES
100
AcDbCircle
 62
7
  6
CONTINUOUS
 10
247.9085518363
 20
203.0494790762
 40
4.1
100
AcDbArc
 50
296.3930257743
 51
333.1366968699
  0
ARC
  5
427
100
AcDbEntity
  8
3_ALL_AXES
100
AcDbCircle
 62
7
  6
CONTINUOUS
 10
247.6236662416
 20
203.0494790762
 40
4.1
100
AcDbArc
 50
206.8633031301
 51
243.6069742257
  0
CIRCLE
  5
428
100
AcDbEntity
  8
3_ALL_AXES
100
AcDbCircle
 62
7
  6
CONTINUOUS
 10
270.393526037
 20
217.5768389845
 40
3.8
  0
CIRCLE
  5
429
100
AcDbEntity
  8
3_ALL_AXES
100
AcDbCircle
 62
7
  6
CONTINUOUS
 10
270.393526037
 20
217.5768389845
 40
1.965
  0
SPLINE
  5
42A
100
AcDbEntity
  8
7_ALL_FEATURES
100
AcDbSpline
 62
7
  6
CONTINUOUS
 70
0
 71
3
 72
11
 73
7
 74
0
 42
0.0000001
 43
0.0000001
 44
0.0000000001
 40
0.0
 40
0.0
 40
0.0
 40
0.0
 40
0.2831751286
 40
0.5424836409
 40
0.7785831462
 40
1.0
 40
1.0
 40
1.0
 40
1.0
 10
143.2158577799
 20
202.3997898166
 30
0.0
 10
143.1987153797
 20
202.3532194182
 30
0.0
 10
143.1564993781
 20
202.2669645882
 30
0.0
 10
143.0671560173
 20
202.1616544786
 30
0.0
 10
142.9592061449
 20
202.0930932735
 30
0.0
 10
142.8783333148
 20
202.0768389845
 30
0.0
 10
142.8395309548
 20
202.0768389845
 30
0.0
  0
SPLINE
  5
42B
100
AcDbEntity
  8
7_ALL_FEATURES
100
AcDbSpline
 62
7
  6
CONTINUOUS
 70
0
 71
3
 72
11
 73
7
 74
0
 42
0.0000001
 43
0.0000001
 44
0.0000000001
 40
0.0
 40
0.0
 40
0.0
 40
0.0
 40
0.2414252117
 40
0.4947937597
 40
0.7509014051
 40
1.0
 40
1.0
 40
1.0
 40
1.0
 10
146.2600073732
 20
215.5186744368
 30
0.0
 10
146.42118583
 20
215.2092746638
 30
0.0
 10
146.6742276632
 20
214.5330814194
 30
0.0
 10
146.8388161104
 20
213.453745601
 30
0.0
 10
146.7917006249
 20
212.3519726746
 30
0.0
 10
146.6160186588
 20
211.6369353947
 30
0.0
 10
146.4916774784
 20
211.299140324
 30
0.0
  0
SPLINE
  5
42C
100
AcDbEntity
  8
7_ALL_FEATURES
100
AcDbSpline
 62
4
  6
CONTINUOUS
 70
0
 71
3
 72
29
 73
25
 74
0
 42
0.0000001
 43
0.0000001
 44
0.0000000001
 40
0.0
 40
0.0
 40
0.0
 40
0.0
 40
0.125
 40
0.15625
 40
0.1875
 40
0.25
 40
0.3125
 40
0.34375
 40
0.375
 40
0.4375
 40
0.46875
 40
0.5
 40
0.53125
 40
0.5625
 40
0.625
 40
0.65625
 40
0.6875
 40
0.75
 40
0.8125
 40
0.828125
 40
0.84375
 40
0.875
 40
0.9375
 40
1.0
 40
1.0
 40
1.0
 40
1.0
 10
148.2432768472
 20
204.5755755098
 30
0.0
 10
148.2637816184
 20
204.5867169148
 30
0.0
 10
148.2893924807
 20
204.600848717
 30
0.0
 10
148.3201858207
 20
204.6171917416
 30
0.0
 10
148.3405860626
 20
204.629399386
 30
0.0
 10
148.3660331806
 20
204.6451685366
 30
0.0
 10
148.3915245446
 20
204.6606070171
 30
0.0
 10
148.4118539927
 20
204.6733437336
 30
0.0
 10
148.4319600087
 20
204.6873699646
 30
0.0
 10
148.452142437
 20
204.7009792965
 30
0.0
 10
148.4722632022
 20
204.7148721898
 30
0.0
 10
148.4874623533
 20
204.7248580745
 30
0.0
 10
148.5022580269
 20
204.7364373196
 30
0.0
 10
148.5221332273
 20
204.7512997383
 30
0.0
 10
148.5419295694
 20
204.7664348848
 30
0.0
 10
148.5618517598
 20
204.7811842791
 30
0.0
 10
148.5813757012
 20
204.797113045
 30
0.0
 10
148.6056314983
 20
204.8173453134
 30
0.0
 10
148.6275530062
 20
204.8356761644
 30
0.0
 10
148.6420897589
 20
204.8475330604
 30
0.0
 10
148.6519472497
 20
204.8563533104
 30
0.0
 10
148.6692776474
 20
204.8722323353
 30
0.0
 10
148.6939933644
 20
204.8946831894
 30
0.0
 10
148.7137787361
 20
204.9127150246
 30
0.0
 10
148.7236698222
 20
204.9217220483
 30
0.0
  0
SPLINE
  5
42D
100
AcDbEntity
  8
7_ALL_FEATURES
100
AcDbSpline
 62
4
  6
CONTINUOUS
 70
0
 71
3
 72
67
 73
63
 74
0
 42
0.0000001
 43
0.0000001
 44
0.0000000001
 40
0.0
 40
0.0
 40
0.0
 40
0.0
 40
0.03125
 40
0.0625
 40
0.09375
 40
0.109375
 40
0.1171875
 40
0.125
 40
0.1328125
 40
0.140625
 40
0.15625
 40
0.1875
 40
0.21875
 40
0.234375
 40
0.2421875
 40
0.25
 40
0.2578125
 40
0.265625
 40
0.28125
 40
0.3125
 40
0.34375
 40
0.359375
 40
0.3671875
 40
0.375
 40
0.3828125
 40
0.390625
 40
0.40625
 40
0.4375
 40
0.46875
 40
0.484375
 40
0.4921875
 40
0.5
 40
0.5078125
 40
0.515625
 40
0.53125
 40
0.5625
 40
0.59375
 40
0.609375
 40
0.6171875
 40
0.625
 40
0.6328125
 40
0.640625
 40
0.65625
 40
0.6875
 40
0.71875
 40
0.734375
 40
0.7421875
 40
0.75
 40
0.7578125
 40
0.765625
 40
0.78125
 40
0.8125
 40
0.84375
 40
0.859375
 40
0.8671875
 40
0.875
 40
0.8828125
 40
0.890625
 40
0.90625
 40
0.9375
 40
0.96875
 40
1.0
 40
1.0
 40
1.0
 40
1.0
 10
148.7935593675
 20
206.906833521
 30
0.0
 10
148.7871138859
 20
206.9025968183
 30
0.0
 10
148.774223596
 20
206.8941204469
 30
0.0
 10
148.754884121
 20
206.8814236856
 30
0.0
 10
148.7387796759
 20
206.8707911466
 30
0.0
 10
148.7274835853
 20
206.8634495831
 30
0.0
 10
148.7210645338
 20
206.8590964661
 30
0.0
 10
148.7161492383
 20
206.8562765239
 30
0.0
 10
148.7116200417
 20
206.8517559681
 30
0.0
 10
148.7054463493
 20
206.8463218807
 30
0.0
 10
148.6947060579
 20
206.8365345128
 30
0.0
 10
148.679322403
 20
206.8227080219
 30
0.0
 10
148.6639789978
 20
206.8087886586
 30
0.0
 10
148.6531823567
 20
206.799131312
 30
0.0
 10
148.6470972139
 20
206.7934929053
 30
0.0
 10
148.6422963312
 20
206.7895992384
 30
0.0
 10
148.6384013675
 20
206.7844249805
 30
0.0
 10
148.6328919661
 20
206.7779727414
 30
0.0
 10
148.6233990197
 20
206.766472291
 30
0.0
 10
148.6097501948
 20
206.7501593865
 30
0.0
 10
148.5961683931
 20
206.7337793964
 30
0.0
 10
148.5865816141
 20
206.7223728659
 30
0.0
 10
148.581219664
 20
206.7157730384
 30
0.0
 10
148.5768722929
 20
206.7110516087
 30
0.0
 10
148.5737704514
 20
206.7054573204
 30
0.0
 10
148.5692000587
 20
206.6983027751
 30
0.0
 10
148.561405861
 20
206.6856400163
 30
0.0
 10
148.5501525766
 20
206.6676282179
 30
0.0
 10
148.5389856059
 20
206.6495760474
 30
0.0
 10
148.5310705689
 20
206.6369698095
 30
0.0
 10
148.5266900666
 20
206.6297264456
 30
0.0
 10
148.5230056067
 20
206.6244046689
 30
0.0
 10
148.5208462918
 20
206.6186598072
 30
0.0
 10
148.5174350477
 20
206.611147565
 30
0.0
 10
148.5117150176
 20
206.5979324182
 30
0.0
 10
148.5033993047
 20
206.5790892907
 30
0.0
 10
148.4951850387
 20
206.5602344493
 30
0.0
 10
148.4893229829
 20
206.547035702
 30
0.0
 10
148.4861349219
 20
206.5394976891
 30
0.0
 10
148.4832908407
 20
206.5338318966
 30
0.0
 10
148.4821780589
 20
206.5282131712
 30
0.0
 10
148.480090271
 20
206.5207050703
 30
0.0
 10
148.4767199221
 20
206.5075740625
 30
0.0
 10
148.4717423194
 20
206.488807213
 30
0.0
 10
148.4668764103
 20
206.4700578719
 30
0.0
 10
148.4633496905
 20
206.4569023525
 30
0.0
 10
148.4615076284
 20
206.4494327699
 30
0.0
 10
148.4596409151
 20
206.4436958633
 30
0.0
 10
148.4596282656
 20
206.4384739068
 30
0.0
 10
148.4589644932
 20
206.4313315937
 30
0.0
 10
148.4581061863
 20
206.4189171176
 30
0.0
 10
148.4567062618
 20
206.4011311418
 30
0.0
 10
148.45542372
 20
206.3833881165
 30
0.0
 10
148.4544010774
 20
206.3709135098
 30
0.0
 10
148.4539955469
 20
206.3638656875
 30
0.0
 10
148.4531905642
 20
206.358353816
 30
0.0
 10
148.4542995024
 20
206.3537057016
 30
0.0
 10
148.4551104883
 20
206.347206927
 30
0.0
 10
148.4568407727
 20
206.3359744531
 30
0.0
 10
148.4591498805
 20
206.3198546227
 30
0.0
 10
148.4619909077
 20
206.3005424616
 30
0.0
 10
148.4638715739
 20
206.2876616618
 30
0.0
 10
148.464813576
 20
206.2812220151
 30
0.0
  0
SPLINE
  5
42E
100
AcDbEntity
  8
7_ALL_FEATURES
100
AcDbSpline
 62
4
  6
CONTINUOUS
 70
0
 71
3
 72
50
 73
46
 74
0
 42
0.0000001
 43
0.0000001
 44
0.0000000001
 40
0.0
 40
0.0
 40
0.0
 40
0.0
 40
0.0625
 40
0.125
 40
0.140625
 40
0.15625
 40
0.1640625
 40
0.171875
 40
0.1875
 40
0.21875
 40
0.25
 40
0.28125
 40
0.3125
 40
0.328125
 40
0.3359375
 40
0.34375
 40
0.359375
 40
0.375
 40
0.4375
 40
0.46875
 40
0.484375
 40
0.4921875
 40
0.5
 40
0.5078125
 40
0.515625
 40
0.53125
 40
0.5625
 40
0.625
 40
0.640625
 40
0.65625
 40
0.6640625
 40
0.671875
 40
0.6875
 40
0.71875
 40
0.75
 40
0.78125
 40
0.8125
 40
0.828125
 40
0.8359375
 40
0.84375
 40
0.859375
 40
0.875
 40
0.90625
 40
0.9375
 40
1.0
 40
1.0
 40
1.0
 40
1.0
 10
148.1155129649
 20
205.5667256708
 30
0.0
 10
148.1028002354
 20
205.5557873626
 30
0.0
 10
148.0773673137
 20
205.5339228474
 30
0.0
 10
148.0487888585
 20
205.5092708127
 30
0.0
 10
148.0296875819
 20
205.4929155366
 30
0.0
 10
148.0218010104
 20
205.4859836084
 30
0.0
 10
148.0153231454
 20
205.4807114761
 30
0.0
 10
148.0094618765
 20
205.4744394867
 30
0.0
 10
147.9994913552
 20
205.4629986916
 30
0.0
 10
147.9850965911
 20
205.4468991038
 30
0.0
 10
147.96789314
 20
205.4274688847
 30
0.0
 10
147.9506504851
 20
205.4080904723
 30
0.0
 10
147.9363537309
 20
205.3918613677
 30
0.0
 10
147.9262116922
 20
205.380647227
 30
0.0
 10
147.9206248511
 20
205.3740125905
 30
0.0
 10
147.9158233996
 20
205.3665252059
 30
0.0
 10
147.909552883
 20
205.3574575375
 30
0.0
 10
147.8947270152
 20
205.3354543793
 30
0.0
 10
147.8773320513
 20
205.3098715761
 30
0.0
 10
147.8600359912
 20
205.2842367885
 30
0.0
 10
147.8512984763
 20
205.2714448424
 30
0.0
 10
147.8464448842
 20
205.2640989606
 30
0.0
 10
147.8424124366
 20
205.2586908735
 30
0.0
 10
147.8398793661
 20
205.2528955885
 30
0.0
 10
147.8359789095
 20
205.2453036035
 30
0.0
 10
147.8293970973
 20
205.2319546762
 30
0.0
 10
147.8160515348
 20
205.2053031896
 30
0.0
 10
147.8028216537
 20
205.1786253089
 30
0.0
 10
147.7913638226
 20
205.1557819927
 30
0.0
 10
147.7867311949
 20
205.1462374485
 30
0.0
 10
147.7826973614
 20
205.1386630593
 30
0.0
 10
147.7798612785
 20
205.1308648818
 30
0.0
 10
147.7754549876
 20
205.117114148
 30
0.0
 10
147.7688669028
 20
205.0975241348
 30
0.0
 10
147.7610966325
 20
205.0739949751
 30
0.0
 10
147.7532540499
 20
205.0504641631
 30
0.0
 10
147.746846746
 20
205.0308782806
 30
0.0
 10
147.7421240885
 20
205.0171203181
 30
0.0
 10
147.7397941923
 20
205.0093337066
 30
0.0
 10
147.7388527136
 20
205.0018299982
 30
0.0
 10
147.7372004727
 20
204.9923534971
 30
0.0
 10
147.7348225643
 20
204.9772452294
 30
0.0
 10
147.7317591716
 20
204.9583413512
 30
0.0
 10
147.7269088351
 20
204.9281055565
 30
0.0
 10
147.723259587
 20
204.9054263681
 30
0.0
 10
147.7208293096
 20
204.8903074298
 30
0.0
  0
SPLINE
  5
42F
100
AcDbEntity
  8
7_ALL_FEATURES
100
AcDbSpline
 62
4
  6
CONTINUOUS
 70
0
 71
3
 72
46
 73
42
 74
0
 42
0.0000001
 43
0.0000001
 44
0.0000000001
 40
0.0
 40
0.0
 40
0.0
 40
0.0
 40
0.0625
 40
0.125
 40
0.140625
 40
0.15625
 40
0.1640625
 40
0.171875
 40
0.1875
 40
0.21875
 40
0.25
 40
0.28125
 40
0.3125
 40
0.328125
 40
0.3359375
 40
0.34375
 40
0.359375
 40
0.375
 40
0.4375
 40
0.46875
 40
0.484375
 40
0.5
 40
0.515625
 40
0.53125
 40
0.5625
 40
0.625
 40
0.640625
 40
0.65625
 40
0.6640625
 40
0.671875
 40
0.6875
 40
0.71875
 40
0.75
 40
0.78125
 40
0.8125
 40
0.828125
 40
0.84375
 40
0.859375
 40
0.875
 40
0.9375
 40
1.0
 40
1.0
 40
1.0
 40
1.0
 10
149.1978441243
 20
206.906833521
 30
0.0
 10
149.1915059869
 20
206.9112249955
 30
0.0
 10
149.178836296
 20
206.9200181768
 30
0.0
 10
149.1645532664
 20
206.92986446
 30
0.0
 10
149.155074453
 20
206.9364957989
 30
0.0
 10
149.1510611667
 20
206.9391597305
 30
0.0
 10
149.1479992909
 20
206.9415220638
 30
0.0
 10
149.1443934265
 20
206.943038946
 30
0.0
 10
149.1378302587
 20
206.9453004216
 30
0.0
 10
149.1285874012
 20
206.9487380364
 30
0.0
 10
149.117435178
 20
206.9527683264
 30
0.0
 10
149.106313177
 20
206.9568469112
 30
0.0
 10
149.0969947638
 20
206.9601637888
 30
0.0
 10
149.0905638184
 20
206.9626365547
 30
0.0
 10
149.0867463982
 20
206.9638153725
 30
0.0
 10
149.0823922694
 20
206.9641127799
 30
0.0
 10
149.077132944
 20
206.9647853448
 30
0.0
 10
149.0643606671
 20
206.9661559978
 30
0.0
 10
149.0494973308
 20
206.9677884381
 30
0.0
 10
149.0346521932
 20
206.9695339081
 30
0.0
 10
149.0261122401
 20
206.970314689
 30
0.0
 10
149.0198731277
 20
206.9715178721
 30
0.0
 10
149.0129991144
 20
206.9703589808
 30
0.0
 10
149.0040550521
 20
206.9696372297
 30
0.0
 10
148.9883015647
 20
206.9679953348
 30
0.0
 10
148.972575464
 20
206.9664648999
 30
0.0
 10
148.9591096763
 20
206.9651848489
 30
0.0
 10
148.9534630116
 20
206.9645455009
 30
0.0
 10
148.9490305147
 20
206.9642852316
 30
0.0
 10
148.9442874142
 20
206.9631049207
 30
0.0
 10
148.9358426136
 20
206.9606112625
 30
0.0
 10
148.9238542659
 20
206.9572765015
 30
0.0
 10
148.9094351124
 20
206.9531608167
 30
0.0
 10
148.895027459
 20
206.949136846
 30
0.0
 10
148.8830103609
 20
206.9455727998
 30
0.0
 10
148.8734166611
 20
206.9431814752
 30
0.0
 10
148.8661678825
 20
206.940134687
 30
0.0
 10
148.8589041446
 20
206.9367368631
 30
0.0
 10
148.8443843657
 20
206.9301218313
 30
0.0
 10
148.8226014386
 20
206.920122813
 30
0.0
 10
148.8032401609
 20
206.9112658705
 30
0.0
 10
148.7935593565
 20
206.9068335151
 30
0.0
  0
SPLINE
  5
430
100
AcDbEntity
  8
7_ALL_FEATURES
100
AcDbSpline
 62
4
  6
CONTINUOUS
 70
0
 71
3
 72
63
 73
59
 74
0
 42
0.0000001
 43
0.0000001
 44
0.0000000001
 40
0.0
 40
0.0
 40
0.0
 40
0.0
 40
0.0625
 40
0.09375
 40
0.1015625
 40
0.109375
 40
0.125
 40
0.140625
 40
0.15625
 40
0.1875
 40
0.203125
 40
0.21875
 40
0.234375
 40
0.25
 40
0.28125
 40
0.3125
 40
0.328125
 40
0.3359375
 40
0.34375
 40
0.359375
 40
0.375
 40
0.40625
 40
0.421875
 40
0.4375
 40
0.46875
 40
0.5
 40
0.53125
 40
0.546875
 40
0.5546875
 40
0.5625
 40
0.578125
 40
0.59375
 40
0.609375
 40
0.625
 40
0.640625
 40
0.65625
 40
0.6640625
 40
0.671875
 40
0.6796875
 40
0.6875
 40
0.71875
 40
0.75
 40
0.765625
 40
0.78125
 40
0.7890625
 40
0.796875
 40
0.8125
 40
0.828125
 40
0.84375
 40
0.859375
 40
0.875
 40
0.8828125
 40
0.890625
 40
0.8984375
 40
0.90625
 40
0.921875
 40
0.9375
 40
1.0
 40
1.0
 40
1.0
 40
1.0
 10
148.9972020599
 20
206.2221655659
 30
0.0
 10
149.0109787507
 20
206.234104313
 30
0.0
 10
149.0316199756
 20
206.2520497472
 30
0.0
 10
149.0540586892
 20
206.271369365
 30
0.0
 10
149.0643406084
 20
206.2804027169
 30
0.0
 10
149.0713777742
 20
206.2861388801
 30
0.0
 10
149.0788422887
 20
206.295396316
 30
0.0
 10
149.0881799373
 20
206.3059105798
 30
0.0
 10
149.1004871701
 20
206.3201475108
 30
0.0
 10
149.1128917318
 20
206.3342662848
 30
0.0
 10
149.1251115309
 20
206.3485760953
 30
0.0
 10
149.1347333393
 20
206.3588535006
 30
0.0
 10
149.1426196928
 20
206.370855198
 30
0.0
 10
149.1530860218
 20
206.3869023897
 30
0.0
 10
149.1662154462
 20
206.4069393368
 30
0.0
 10
149.1792198296
 20
206.4270082931
 30
0.0
 10
149.1885529248
 20
206.441004773
 30
0.0
 10
149.1935293027
 20
206.4490819407
 30
0.0
 10
149.1971617933
 20
206.4574569558
 30
0.0
 10
149.202164328
 20
206.467823525
 30
0.0
 10
149.2098998612
 20
206.4844684183
 30
0.0
 10
149.2177683792
 20
206.5010900557
 30
0.0
 10
149.2254393345
 20
206.5177376737
 30
0.0
 10
149.2337232277
 20
206.5343123773
 30
0.0
 10
149.239728013
 20
206.5555451393
 30
0.0
 10
149.2472347296
 20
206.5809610583
 30
0.0
 10
149.2536062332
 20
206.6022131961
 30
0.0
 10
149.257691206
 20
206.616965797
 30
0.0
 10
149.260633698
 20
206.6255865855
 30
0.0
 10
149.2612861901
 20
206.6334916491
 30
0.0
 10
149.262521965
 20
206.643504354
 30
0.0
 10
149.263823672
 20
206.6554627704
 30
0.0
 10
149.2651780147
 20
206.6674383038
 30
0.0
 10
149.2665030374
 20
206.679402199
 30
0.0
 10
149.2678927044
 20
206.6913955299
 30
0.0
 10
149.2688597123
 20
206.7013015519
 30
0.0
 10
149.2700595117
 20
206.7094238607
 30
0.0
 10
149.2697954108
 20
206.7149761708
 30
0.0
 10
149.2692051483
 20
206.7203773104
 30
0.0
 10
149.2681929497
 20
206.7312576863
 30
0.0
 10
149.2665959681
 20
206.7475405762
 30
0.0
 10
149.2648907052
 20
206.7656699548
 30
0.0
 10
149.2634444376
 20
206.7801241744
 30
0.0
 10
149.2627110829
 20
206.7892626306
 30
0.0
 10
149.2601297903
 20
206.795349116
 30
0.0
 10
149.2578968748
 20
206.8016494342
 30
0.0
 10
149.2549861638
 20
206.8094514349
 30
0.0
 10
149.2515446642
 20
206.8188453927
 30
0.0
 10
149.2480890571
 20
206.8282305581
 30
0.0
 10
149.2446385262
 20
206.8376193361
 30
0.0
 10
149.2417579196
 20
206.8454386028
 30
0.0
 10
149.2394632901
 20
206.8517035257
 30
0.0
 10
149.2377158493
 20
206.8563765182
 30
0.0
 10
149.2345954469
 20
206.859715996
 30
0.0
 10
149.2309144245
 20
206.8646343701
 30
0.0
 10
149.2261491949
 20
206.8706230967
 30
0.0
 10
149.2148480362
 20
206.8851275428
 30
0.0
 10
149.2053951456
 20
206.8971803358
 30
0.0
 10
149.1978441158
 20
206.9068335288
 30
0.0
  0
SPLINE
  5
431
100
AcDbEntity
  8
7_ALL_FEATURES
100
AcDbSpline
 62
4
  6
CONTINUOUS
 70
0
 71
3
 72
81
 73
77
 74
0
 42
0.0000001
 43
0.0000001
 44
0.0000000001
 40
0.0
 40
0.0
 40
0.0
 40
0.0
 40
0.03125
 40
0.0625
 40
0.078125
 40
0.09375
 40
0.109375
 40
0.1171875
 40
0.125
 40
0.1328125
 40
0.140625
 40
0.15625
 40
0.1875
 40
0.21875
 40
0.234375
 40
0.2421875
 40
0.24609375
 40
0.25
 40
0.25390625
 40
0.2578125
 40
0.265625
 40
0.28125
 40
0.3125
 40
0.34375
 40
0.359375
 40
0.3671875
 40
0.37109375
 40
0.375
 40
0.37890625
 40
0.3828125
 40
0.390625
 40
0.40625
 40
0.4375
 40
0.46875
 40
0.484375
 40
0.4921875
 40
0.49609375
 40
0.5
 40
0.50390625
 40
0.5078125
 40
0.515625
 40
0.53125
 40
0.5625
 40
0.59375
 40
0.609375
 40
0.6171875
 40
0.62109375
 40
0.625
 40
0.62890625
 40
0.6328125
 40
0.640625
 40
0.65625
 40
0.6875
 40
0.71875
 40
0.734375
 40
0.7421875
 40
0.74609375
 40
0.75
 40
0.75390625
 40
0.7578125
 40
0.765625
 40
0.78125
 40
0.8125
 40
0.84375
 40
0.859375
 40
0.8671875
 40
0.87109375
 40
0.875
 40
0.87890625
 40
0.8828125
 40
0.890625
 40
0.90625
 40
0.921875
 40
0.9375
 40
0.96875
 40
1.0
 40
1.0
 40
1.0
 40
1.0
 10
147.7208293101
 20
204.8903074378
 30
0.0
 10
147.721082338
 20
204.8814274857
 30
0.0
 10
147.7215872799
 20
204.8636669888
 30
0.0
 10
147.7222240263
 20
204.8414693305
 30
0.0
 10
147.7227217284
 20
204.8237049819
 30
0.0
 10
147.7231267486
 20
204.8103986085
 30
0.0
 10
147.7233633262
 20
204.7992562631
 30
0.0
 10
147.7237789706
 20
204.7904628249
 30
0.0
 10
147.7234721205
 20
204.7835386525
 30
0.0
 10
147.7255264129
 20
204.7778706359
 30
0.0
 10
147.727441947
 20
204.7698751807
 30
0.0
 10
147.7311771185
 20
204.7560866358
 30
0.0
 10
147.7363185416
 20
204.736287288
 30
0.0
 10
147.7415086109
 20
204.7165060239
 30
0.0
 10
147.7451756778
 20
204.7026921618
 30
0.0
 10
147.7469454141
 20
204.6957309497
 30
0.0
 10
147.7480611988
 20
204.6918414499
 30
0.0
 10
147.7486027444
 20
204.6886748268
 30
0.0
 10
147.7502732082
 20
204.6864620287
 30
0.0
 10
147.7521067432
 20
204.6831789494
 30
0.0
 10
147.7554985915
 20
204.6775883319
 30
0.0
 10
147.7621515316
 20
204.666296422
 30
0.0
 10
147.7717298608
 20
204.6502293568
 30
0.0
 10
147.781260734
 20
204.634116162
 30
0.0
 10
147.7879801125
 20
204.6228888336
 30
0.0
 10
147.791280608
 20
204.6172094165
 30
0.0
 10
147.7932612565
 20
204.6140693391
 30
0.0
 10
147.7944797022
 20
204.6114171561
 30
0.0
 10
147.7967189852
 20
204.6099008212
 30
0.0
 10
147.7993486431
 20
204.6074828727
 30
0.0
 10
147.8041161674
 20
204.6034357646
 30
0.0
 10
147.813533018
 20
204.595209814
 30
0.0
 10
147.8270523713
 20
204.5835344542
 30
0.0
 10
147.8405300254
 20
204.5718060243
 30
0.0
 10
147.8500052548
 20
204.5636543719
 30
0.0
 10
147.8546925082
 20
204.5595051038
 30
0.0
 10
147.8574514336
 20
204.5572516726
 30
0.0
 10
147.8592935319
 20
204.5552298453
 30
0.0
 10
147.8620037655
 20
204.554476244
 30
0.0
 10
147.8653146181
 20
204.5530291026
 30
0.0
 10
147.8712494546
 20
204.5507023817
 30
0.0
 10
147.8830186542
 20
204.5459019041
 30
0.0
 10
147.8998881709
 20
204.5391285188
 30
0.0
 10
147.9167235677
 20
204.5322974425
 30
0.0
 10
147.9285405351
 20
204.5275777324
 30
0.0
 10
147.9344096909
 20
204.5251399563
 30
0.0
 10
147.9378263149
 20
204.523871657
 30
0.0
 10
147.9402115574
 20
204.5225685489
 30
0.0
 10
147.9432742914
 20
204.5226106173
 30
0.0
 10
147.9471216385
 20
204.5221975299
 30
0.0
 10
147.9539644062
 20
204.5216928851
 30
0.0
 10
147.9675715844
 20
204.5205276845
 30
0.0
 10
147.9870539856
 20
204.5189523032
 30
0.0
 10
148.0065113377
 20
204.5173171313
 30
0.0
 10
148.0201535847
 20
204.5162356374
 30
0.0
 10
148.0269481327
 20
204.5156158958
 30
0.0
 10
148.0308731324
 20
204.5153881591
 30
0.0
 10
148.0336972726
 20
204.5148607224
 30
0.0
 10
148.0369786508
 20
204.5156966219
 30
0.0
 10
148.0411943445
 20
204.5163356422
 30
0.0
 10
148.0486459865
 20
204.5176751314
 30
0.0
 10
148.0634963901
 20
204.520196105
 30
0.0
 10
148.084740638
 20
204.5238878009
 30
0.0
 10
148.1059680682
 20
204.5275192385
 30
0.0
 10
148.1208420165
 20
204.5301245736
 30
0.0
 10
148.1282612846
 20
204.5313480658
 30
0.0
 10
148.1325291129
 20
204.5321738865
 30
0.0
 10
148.1356503034
 20
204.5324358267
 30
0.0
 10
148.1390760936
 20
204.534064127
 30
0.0
 10
148.1435375661
 20
204.5357585924
 30
0.0
 10
148.1513946458
 20
204.5389459644
 30
0.0
 10
148.1625931646
 20
204.5433832585
 30
0.0
 10
148.1760424653
 20
204.548757705
 30
0.0
 10
148.1939709952
 20
204.5559062694
 30
0.0
 10
148.2163829947
 20
204.5648479725
 30
0.0
 10
148.2343121868
 20
204.5719995071
 30
0.0
 10
148.2432768338
 20
204.5755755029
 30
0.0
  0
SPLINE
  5
432
100
AcDbEntity
  8
7_ALL_FEATURES
100
AcDbSpline
 62
7
  6
CONTINUOUS
 70
0
 71
3
 72
11
 73
7
 74
0
 42
0.0000001
 43
0.0000001
 44
0.0000000001
 40
0.0
 40
0.0
 40
0.0
 40
0.0
 40
0.2831751286
 40
0.5424836409
 40
0.7785831462
 40
1.0
 40
1.0
 40
1.0
 40
1.0
 10
99.9908302067
 20
202.3997898166
 30
0.0
 10
100.007972607
 20
202.3532194182
 30
0.0
 10
100.0501886085
 20
202.2669645882
 30
0.0
 10
100.1395319693
 20
202.1616544786
 30
0.0
 10
100.2474818417
 20
202.0930932735
 30
0.0
 10
100.3283546719
 20
202.0768389845
 30
0.0
 10
100.3671570318
 20
202.0768389845
 30
0.0
  0
SPLINE
  5
433
100
AcDbEntity
  8
7_ALL_FEATURES
100
AcDbSpline
 62
7
  6
CONTINUOUS
 70
0
 71
3
 72
11
 73
7
 74
0
 42
0.0000001
 43
0.0000001
 44
0.0000000001
 40
0.0
 40
0.0
 40
0.0
 40
0.0
 40
0.2414252117
 40
0.4947937597
 40
0.7509014051
 40
1.0
 40
1.0
 40
1.0
 40
1.0
 10
96.9466806135
 20
215.5186744368
 30
0.0
 10
96.7855021566
 20
215.2092746638
 30
0.0
 10
96.5324603234
 20
214.5330814194
 30
0.0
 10
96.3678718763
 20
213.453745601
 30
0.0
 10
96.4149873617
 20
212.3519726746
 30
0.0
 10
96.5906693279
 20
211.6369353947
 30
0.0
 10
96.7150105083
 20
211.299140324
 30
0.0
  0
SPLINE
  5
434
100
AcDbEntity
  8
7_ALL_FEATURES
100
AcDbSpline
 62
4
  6
CONTINUOUS
 70
0
 71
3
 72
74
 73
70
 74
0
 42
0.0000001
 43
0.0000001
 44
0.0000000001
 40
0.0
 40
0.0
 40
0.0
 40
0.0
 40
0.03125
 40
0.0625
 40
0.09375
 40
0.109375
 40
0.1171875
 40
0.125
 40
0.1328125
 40
0.140625
 40
0.15625
 40
0.1875
 40
0.21875
 40
0.234375
 40
0.2421875
 40
0.25
 40
0.2578125
 40
0.265625
 40
0.28125
 40
0.3125
 40
0.34375
 40
0.359375
 40
0.3671875
 40
0.375
 40
0.3828125
 40
0.390625
 40
0.40625
 40
0.4375
 40
0.46875
 40
0.484375
 40
0.4921875
 40
0.5
 40
0.5078125
 40
0.515625
 40
0.53125
 40
0.5625
 40
0.59375
 40
0.609375
 40
0.6171875
 40
0.62109375
 40
0.625
 40
0.62890625
 40
0.6328125
 40
0.640625
 40
0.65625
 40
0.6875
 40
0.71875
 40
0.734375
 40
0.7421875
 40
0.74609375
 40
0.75
 40
0.75390625
 40
0.7578125
 40
0.765625
 40
0.78125
 40
0.8125
 40
0.84375
 40
0.859375
 40
0.8671875
 40
0.87109375
 40
0.875
 40
0.87890625
 40
0.8828125
 40
0.890625
 40
0.90625
 40
0.921875
 40
0.9375
 40
0.96875
 40
1.0
 40
1.0
 40
1.0
 40
1.0
 10
94.0869461274
 20
204.8903074378
 30
0.0
 10
94.0937365138
 20
204.8814274857
 30
0.0
 10
94.1073197913
 20
204.863669772
 30
0.0
 10
94.1276796783
 20
204.8370200575
 30
0.0
 10
94.1446900862
 20
204.8148502987
 30
0.0
 10
94.1565118926
 20
204.7992567111
 30
0.0
 10
94.1634005957
 20
204.7904627426
 30
0.0
 10
94.1681913903
 20
204.7835386663
 30
0.0
 10
94.174418423
 20
204.7778706632
 30
0.0
 10
94.1822200717
 20
204.7698750073
 30
0.0
 10
94.1961072693
 20
204.7560886979
 30
0.0
 10
94.2158167129
 20
204.7362711924
 30
0.0
 10
94.2355974877
 20
204.7165522485
 30
0.0
 10
94.2493848216
 20
204.7026279529
 30
0.0
 10
94.2573433989
 20
204.6948491324
 30
0.0
 10
94.2630889462
 20
204.6885158389
 30
0.0
 10
94.269687986
 20
204.6840902978
 30
0.0
 10
94.2781889603
 20
204.6775239082
 30
0.0
 10
94.2932047679
 20
204.6663451084
 30
0.0
 10
94.314580159
 20
204.6501940899
 30
0.0
 10
94.3359936431
 20
204.6341732761
 30
0.0
 10
94.3509561207
 20
204.6228121898
 30
0.0
 10
94.3595408992
 20
204.6165322504
 30
0.0
 10
94.3658828124
 20
204.6112278282
 30
0.0
 10
94.3725940128
 20
204.6081952216
 30
0.0
 10
94.3814134801
 20
204.6033590624
 30
0.0
 10
94.3969074417
 20
204.5952676088
 30
0.0
 10
94.4190112962
 20
204.5834938818
 30
0.0
 10
94.4411225728
 20
204.5718699469
 30
0.0
 10
94.4566061435
 20
204.5635687843
 30
0.0
 10
94.4654419394
 20
204.5590621677
 30
0.0
 10
94.4721030406
 20
204.5550184646
 30
0.0
 10
94.4786331044
 20
204.5535112716
 30
0.0
 10
94.4873855426
 20
204.5506170026
 30
0.0
 10
94.502681233
 20
204.5459633697
 30
0.0
 10
94.5245415501
 20
204.5391071133
 30
0.0
 10
94.5464046893
 20
204.5323001936
 30
0.0
 10
94.5616964288
 20
204.5275774893
 30
0.0
 10
94.5693602446
 20
204.5251399771
 30
0.0
 10
94.573710583
 20
204.5238716531
 30
0.0
 10
94.5770551643
 20
204.52256855
 30
0.0
 10
94.5800869278
 20
204.5226106171
 30
0.0
 10
94.584238387
 20
204.52219753
 30
0.0
 10
94.5914526707
 20
204.521692885
 30
0.0
 10
94.6059176614
 20
204.5205276846
 30
0.0
 10
94.6265598473
 20
204.5189523031
 30
0.0
 10
94.6472210014
 20
204.5173171313
 30
0.0
 10
94.6616594367
 20
204.5162356374
 30
0.0
 10
94.668910234
 20
204.5156158958
 30
0.0
 10
94.6730028919
 20
204.5153881591
 30
0.0
 10
94.6762153273
 20
204.5148607224
 30
0.0
 10
94.6788813222
 20
204.5156966219
 30
0.0
 10
94.6826265736
 20
204.5163356422
 30
0.0
 10
94.6890920931
 20
204.5176751314
 30
0.0
 10
94.7020865736
 20
204.520196105
 30
0.0
 10
94.7206130209
 20
204.5238878009
 30
0.0
 10
94.7391670122
 20
204.5275192385
 30
0.0
 10
94.7521229311
 20
204.5301245736
 30
0.0
 10
94.7586414728
 20
204.5313480658
 30
0.0
 10
94.7623013377
 20
204.5321738865
 30
0.0
 10
94.7652296896
 20
204.5324358267
 30
0.0
 10
94.7674567366
 20
204.534064127
 30
0.0
 10
94.7706707555
 20
204.5357585924
 30
0.0
 10
94.7761813143
 20
204.5389459644
 30
0.0
 10
94.7841131284
 20
204.5433832585
 30
0.0
 10
94.7936057993
 20
204.548757705
 30
0.0
 10
94.8062716062
 20
204.5559062694
 30
0.0
 10
94.8221007867
 20
204.5648479725
 30
0.0
 10
94.8347650691
 20
204.5719995071
 30
0.0
 10
94.8410970931
 20
204.5755755029
 30
0.0
  0
SPLINE
  5
435
100
AcDbEntity
  8
7_ALL_FEATURES
100
AcDbSpline
 62
4
  6
CONTINUOUS
 70
0
 71
3
 72
30
 73
26
 74
0
 42
0.0000001
 43
0.0000001
 44
0.0000000001
 40
0.0
 40
0.0
 40
0.0
 40
0.0
 40
0.0625
 40
0.125
 40
0.15625
 40
0.1875
 40
0.25
 40
0.3125
 40
0.34375
 40
0.375
 40
0.4375
 40
0.46875
 40
0.5
 40
0.53125
 40
0.5625
 40
0.625
 40
0.65625
 40
0.6875
 40
0.75
 40
0.8125
 40
0.828125
 40
0.84375
 40
0.875
 40
0.9375
 40
1.0
 40
1.0
 40
1.0
 40
1.0
 10
94.8410971015
 20
204.5755755098
 30
0.0
 10
94.847248375
 20
204.5811462123
 30
0.0
 10
94.859580201
 20
204.5922525203
 30
0.0
 10
94.8748485889
 20
204.6063108902
 30
0.0
 10
94.8873707278
 20
204.6171890677
 30
0.0
 10
94.8987802679
 20
204.6294009312
 30
0.0
 10
94.912619985
 20
204.6451679993
 30
0.0
 10
94.9267451444
 20
204.6606070836
 30
0.0
 10
94.9376979769
 20
204.6733437213
 30
0.0
 10
94.9474779638
 20
204.6873699718
 30
0.0
 10
94.9576413045
 20
204.7009792953
 30
0.0
 10
94.9675342179
 20
204.71487219
 30
0.0
 10
94.975381831
 20
204.7248580745
 30
0.0
 10
94.9816529455
 20
204.7364373196
 30
0.0
 10
94.9905865376
 20
204.7512997383
 30
0.0
 10
94.999240491
 20
204.7664348848
 30
0.0
 10
95.0083042808
 20
204.7811842791
 30
0.0
 10
95.0161015766
 20
204.797113045
 30
0.0
 10
95.0254625197
 20
204.8173453134
 30
0.0
 10
95.0338889837
 20
204.8356761644
 30
0.0
 10
95.0396967727
 20
204.8475330604
 30
0.0
 10
95.0430608574
 20
204.8563533104
 30
0.0
 10
95.0487012284
 20
204.8722323353
 30
0.0
 10
95.056888784
 20
204.8946831894
 30
0.0
 10
95.0633992452
 20
204.9127150246
 30
0.0
 10
95.0666594237
 20
204.9217220483
 30
0.0
  0
SPLINE
  5
436
100
AcDbEntity
  8
7_ALL_FEATURES
100
AcDbSpline
 62
4
  6
CONTINUOUS
 70
0
 71
3
 72
66
 73
62
 74
0
 42
0.0000001
 43
0.0000001
 44
0.0000000001
 40
0.0
 40
0.0
 40
0.0
 40
0.0
 40
0.03125
 40
0.0625
 40
0.09375
 40
0.109375
 40
0.1171875
 40
0.125
 40
0.1328125
 40
0.140625
 40
0.15625
 40
0.1875
 40
0.21875
 40
0.234375
 40
0.2421875
 40
0.25
 40
0.2578125
 40
0.265625
 40
0.28125
 40
0.3125
 40
0.34375
 40
0.359375
 40
0.3671875
 40
0.375
 40
0.3828125
 40
0.390625
 40
0.40625
 40
0.4375
 40
0.46875
 40
0.484375
 40
0.4921875
 40
0.5
 40
0.5078125
 40
0.515625
 40
0.53125
 40
0.5625
 40
0.59375
 40
0.609375
 40
0.6171875
 40
0.625
 40
0.6328125
 40
0.640625
 40
0.65625
 40
0.6875
 40
0.71875
 40
0.734375
 40
0.7421875
 40
0.75
 40
0.7578125
 40
0.765625
 40
0.78125
 40
0.8125
 40
0.84375
 40
0.859375
 40
0.8671875
 40
0.875
 40
0.8828125
 40
0.890625
 40
0.90625
 40
0.9375
 40
1.0
 40
1.0
 40
1.0
 40
1.0
 10
93.6751238323
 20
206.906833521
 30
0.0
 10
93.6717973815
 20
206.9025968183
 30
0.0
 10
93.6651473368
 20
206.8941204469
 30
0.0
 10
93.6551551283
 20
206.8814236856
 30
0.0
 10
93.6468782838
 20
206.8707911466
 30
0.0
 10
93.6409870007
 20
206.8634495831
 30
0.0
 10
93.6377726835
 20
206.8590964661
 30
0.0
 10
93.6349334097
 20
206.8562765239
 30
0.0
 10
93.6337322144
 20
206.8517559681
 30
0.0
 10
93.6315590591
 20
206.8463218807
 30
0.0
 10
93.6280241593
 20
206.8365345128
 30
0.0
 10
93.6228194699
 20
206.8227080219
 30
0.0
 10
93.6177234023
 20
206.8087886586
 30
0.0
 10
93.614036432
 20
206.799131312
 30
0.0
 10
93.6121022446
 20
206.7934929053
 30
0.0
 10
93.6101678523
 20
206.7895992384
 30
0.0
 10
93.6100821409
 20
206.7844249805
 30
0.0
 10
93.6093228326
 20
206.7779727414
 30
0.0
 10
93.6082964372
 20
206.766472291
 30
0.0
 10
93.606657058
 20
206.7501593865
 30
0.0
 10
93.6051340901
 20
206.7337793964
 30
0.0
 10
93.6039447189
 20
206.7223728659
 30
0.0
 10
93.6034415155
 20
206.7157730384
 30
0.0
 10
93.6025700277
 20
206.7110516087
 30
0.0
 10
93.6035866621
 20
206.7054573204
 30
0.0
 10
93.6042833954
 20
206.6983027751
 30
0.0
 10
93.6058114319
 20
206.6856400163
 30
0.0
 10
93.607818307
 20
206.6676282179
 30
0.0
 10
93.6099412176
 20
206.6495760474
 30
0.0
 10
93.6113068045
 20
206.6369698095
 30
0.0
 10
93.6122588159
 20
206.6297264456
 30
0.0
 10
93.6124922106
 20
206.6244046689
 30
0.0
 10
93.6145622226
 20
206.6186598072
 30
0.0
 10
93.6166814385
 20
206.611147565
 30
0.0
 10
93.6206903067
 20
206.5979324182
 30
0.0
 10
93.6262467721
 20
206.5790892907
 30
0.0
 10
93.631913308
 20
206.5602344493
 30
0.0
 10
93.6357680774
 20
206.547035702
 30
0.0
 10
93.6381294486
 20
206.5394976891
 30
0.0
 10
93.6394564841
 20
206.5338318966
 30
0.0
 10
93.6424801685
 20
206.5282131712
 30
0.0
 10
93.6459197918
 20
206.5207050703
 30
0.0
 10
93.6522163987
 20
206.5075740625
 30
0.0
 10
93.6610548189
 20
206.488807213
 30
0.0
 10
93.6699920432
 20
206.4700578719
 30
0.0
 10
93.6761503244
 20
206.4569023525
 30
0.0
 10
93.6798073166
 20
206.4494327699
 30
0.0
 10
93.6821640737
 20
206.4436958633
 30
0.0
 10
93.6859957919
 20
206.4384739068
 30
0.0
 10
93.6905901403
 20
206.4313315937
 30
0.0
 10
93.6988712836
 20
206.4189171176
 30
0.0
 10
93.7105652697
 20
206.4011311419
 30
0.0
 10
93.7223450186
 20
206.3833881164
 30
0.0
 10
93.7305060941
 20
206.3709135099
 30
0.0
 10
93.7352891204
 20
206.3638656873
 30
0.0
 10
93.7385419404
 20
206.3583538168
 30
0.0
 10
93.7430727821
 20
206.3537056986
 30
0.0
 10
93.7486681484
 20
206.347206943
 30
0.0
 10
93.7586674007
 20
206.335974266
 30
0.0
 10
93.7785177901
 20
206.3134088082
 30
0.0
 10
93.7955831919
 20
206.2941013085
 30
0.0
 10
93.8069488415
 20
206.2812220151
 30
0.0
  0
SPLINE
  5
437
100
AcDbEntity
  8
7_ALL_FEATURES
100
AcDbSpline
 62
4
  6
CONTINUOUS
 70
0
 71
3
 72
45
 73
41
 74
0
 42
0.0000001
 43
0.0000001
 44
0.0000000001
 40
0.0
 40
0.0
 40
0.0
 40
0.0
 40
0.0625
 40
0.125
 40
0.140625
 40
0.15625
 40
0.171875
 40
0.1875
 40
0.21875
 40
0.25
 40
0.28125
 40
0.3125
 40
0.328125
 40
0.34375
 40
0.359375
 40
0.375
 40
0.4375
 40
0.46875
 40
0.484375
 40
0.5
 40
0.515625
 40
0.53125
 40
0.5625
 40
0.625
 40
0.640625
 40
0.65625
 40
0.6640625
 40
0.671875
 40
0.6875
 40
0.71875
 40
0.75
 40
0.78125
 40
0.8125
 40
0.828125
 40
0.8359375
 40
0.84375
 40
0.859375
 40
0.875
 40
0.9375
 40
1.0
 40
1.0
 40
1.0
 40
1.0
 10
94.0794085891
 20
206.906833521
 30
0.0
 10
94.0698374791
 20
206.9112249955
 30
0.0
 10
94.0506959697
 20
206.9200002807
 30
0.0
 10
94.029158573
 20
206.9299069633
 30
0.0
 10
94.0148049733
 20
206.9364611252
 30
0.0
 10
94.0076199101
 20
206.939827297
 30
0.0
 10
94.0004669674
 20
206.9428471639
 30
0.0
 10
93.991082721
 20
206.9452244052
 30
0.0
 10
93.9792994165
 20
206.9487657553
 30
0.0
 10
93.9651843186
 20
206.9527542144
 30
0.0
 10
93.9510545452
 20
206.9568756404
 30
0.0
 10
93.9393079293
 20
206.960084573
 30
0.0
 10
93.9298503057
 20
206.9631266495
 30
0.0
 10
93.9229211635
 20
206.9641187689
 30
0.0
 10
93.9160382856
 20
206.9647491657
 30
0.0
 10
93.9022466657
 20
206.9662006061
 30
0.0
 10
93.8861883137
 20
206.967779789
 30
0.0
 10
93.8700569788
 20
206.9695346485
 30
0.0
 10
93.8609423323
 20
206.9703145496
 30
0.0
 10
93.8538174224
 20
206.9715179094
 30
0.0
 10
93.8477965827
 20
206.9703589711
 30
0.0
 10
93.8393838665
 20
206.9696372353
 30
0.0
 10
93.8248391317
 20
206.9679953309
 30
0.0
 10
93.8102397267
 20
206.9664648993
 30
0.0
 10
93.7977163025
 20
206.9651848496
 30
0.0
 10
93.7925403233
 20
206.9645454987
 30
0.0
 10
93.7882994306
 20
206.9642852355
 30
0.0
 10
93.784425284
 20
206.9631048996
 30
0.0
 10
93.7778161116
 20
206.9606115088
 30
0.0
 10
93.7682842946
 20
206.9572745808
 30
0.0
 10
93.7568888899
 20
206.9531678201
 30
0.0
 10
93.7454666097
 20
206.9491107534
 30
0.0
 10
93.7360019816
 20
206.9456495903
 30
0.0
 10
93.7292752285
 20
206.9433736107
 30
0.0
 10
93.7255892111
 20
206.9418454169
 30
0.0
 10
93.7224974395
 20
206.9394604028
 30
0.0
 10
93.7184296049
 20
206.9367720063
 30
0.0
 10
93.7088340176
 20
206.9300787525
 30
0.0
 10
93.6943698398
 20
206.9201409515
 30
0.0
 10
93.6815415611
 20
206.9112658705
 30
0.0
 10
93.6751238257
 20
206.9068335151
 30
0.0
  0
SPLINE
  5
438
100
AcDbEntity
  8
7_ALL_FEATURES
100
AcDbSpline
 62
4
  6
CONTINUOUS
 70
0
 71
3
 72
51
 73
47
 74
0
 42
0.0000001
 43
0.0000001
 44
0.0000000001
 40
0.0
 40
0.0
 40
0.0
 40
0.0
 40
0.0625
 40
0.09375
 40
0.125
 40
0.140625
 40
0.15625
 40
0.1640625
 40
0.171875
 40
0.1796875
 40
0.1875
 40
0.21875
 40
0.25
 40
0.28125
 40
0.3125
 40
0.328125
 40
0.3359375
 40
0.34375
 40
0.359375
 40
0.375
 40
0.4375
 40
0.46875
 40
0.484375
 40
0.4921875
 40
0.5
 40
0.5078125
 40
0.515625
 40
0.53125
 40
0.5625
 40
0.625
 40
0.640625
 40
0.65625
 40
0.6640625
 40
0.671875
 40
0.6875
 40
0.71875
 40
0.75
 40
0.78125
 40
0.8125
 40
0.828125
 40
0.8359375
 40
0.84375
 40
0.859375
 40
0.875
 40
0.9375
 40
1.0
 40
1.0
 40
1.0
 40
1.0
 10
93.9836554255
 20
205.5667256708
 30
0.0
 10
93.9789954017
 20
205.5557873626
 30
0.0
 10
93.9720090056
 20
205.5393772101
 30
0.0
 10
93.9626792524
 20
205.5175077678
 30
0.0
 10
93.9568784868
 20
205.5038169475
 30
0.0
 10
93.9521687214
 20
205.4929154064
 30
0.0
 10
93.9493828351
 20
205.4859853647
 30
0.0
 10
93.9467928934
 20
205.4807083409
 30
0.0
 10
93.9458395051
 20
205.4760194917
 30
0.0
 10
93.9451632507
 20
205.4711257928
 30
0.0
 10
93.9436683243
 20
205.4614436853
 30
0.0
 10
93.9414836933
 20
205.4468775428
 30
0.0
 10
93.9385476418
 20
205.4274746717
 30
0.0
 10
93.9355812125
 20
205.4080888851
 30
0.0
 10
93.9332297891
 20
205.3918615712
 30
0.0
 10
93.9313438209
 20
205.3806472097
 30
0.0
 10
93.9306413248
 20
205.3740125937
 30
0.0
 10
93.9313520401
 20
205.3665252041
 30
0.0
 10
93.9317570742
 20
205.3574575381
 30
0.0
 10
93.9331297788
 20
205.3354543785
 30
0.0
 10
93.9345686939
 20
205.3098715762
 30
0.0
 10
93.9361447848
 20
205.2842367884
 30
0.0
 10
93.9368246108
 20
205.2714448424
 30
0.0
 10
93.9373790053
 20
205.2640989606
 30
0.0
 10
93.9373279536
 20
205.2586908735
 30
0.0
 10
93.9390613311
 20
205.2528955885
 30
0.0
 10
93.9407500407
 20
205.2453036035
 30
0.0
 10
93.9439956151
 20
205.2319546762
 30
0.0
 10
93.95027069
 20
205.2053031896
 30
0.0
 10
93.9566808774
 20
205.1786253089
 30
0.0
 10
93.9620401354
 20
205.1557819927
 30
0.0
 10
93.9644341343
 20
205.1462374485
 30
0.0
 10
93.9659765129
 20
205.1386630593
 30
0.0
 10
93.9688813935
 20
205.1308648818
 30
0.0
 10
93.9745982964
 20
205.117114148
 30
0.0
 10
93.9824322417
 20
205.0975241348
 30
0.0
 10
93.9919839743
 20
205.0739949752
 30
0.0
 10
94.0014646081
 20
205.0504641627
 30
0.0
 10
94.0094763005
 20
205.0308782819
 30
0.0
 10
94.014882146
 20
205.0171203163
 30
0.0
 10
94.0182847184
 20
205.0093337097
 30
0.0
 10
94.0228673356
 20
205.0018299817
 30
0.0
 10
94.028192254
 20
204.9923536305
 30
0.0
 10
94.0413041132
 20
204.9696899874
 30
0.0
 10
94.0608313142
 20
204.9356608213
 30
0.0
 10
94.0782459539
 20
204.9054263681
 30
0.0
 10
94.0869461328
 20
204.8903074298
 30
0.0
  0
SPLINE
  5
439
100
AcDbEntity
  8
7_ALL_FEATURES
100
AcDbSpline
 62
4
  6
CONTINUOUS
 70
0
 71
3
 72
59
 73
55
 74
0
 42
0.0000001
 43
0.0000001
 44
0.0000000001
 40
0.0
 40
0.0
 40
0.0
 40
0.0
 40
0.0625
 40
0.078125
 40
0.09375
 40
0.1015625
 40
0.109375
 40
0.1171875
 40
0.125
 40
0.140625
 40
0.15625
 40
0.171875
 40
0.1875
 40
0.203125
 40
0.2109375
 40
0.21875
 40
0.234375
 40
0.25
 40
0.28125
 40
0.3125
 40
0.328125
 40
0.3359375
 40
0.34375
 40
0.359375
 40
0.375
 40
0.40625
 40
0.421875
 40
0.4375
 40
0.46875
 40
0.5
 40
0.53125
 40
0.5625
 40
0.578125
 40
0.59375
 40
0.625
 40
0.640625
 40
0.65625
 40
0.6640625
 40
0.671875
 40
0.6875
 40
0.71875
 40
0.75
 40
0.765625
 40
0.78125
 40
0.796875
 40
0.8125
 40
0.84375
 40
0.859375
 40
0.875
 40
0.890625
 40
0.8984375
 40
0.90625
 40
0.9375
 40
1.0
 40
1.0
 40
1.0
 40
1.0
 10
94.3828142689
 20
206.2221655659
 30
0.0
 10
94.3878017379
 20
206.234104313
 30
0.0
 10
94.3940508592
 20
206.2490169881
 30
0.0
 10
94.4015054494
 20
206.2669444745
 30
0.0
 10
94.4046706692
 20
206.2743712255
 30
0.0
 10
94.4070653433
 20
206.2804126826
 30
0.0
 10
94.4092383699
 20
206.2846694277
 30
0.0
 10
94.409972063
 20
206.2899735352
 30
0.0
 10
94.4109133242
 20
206.2970725948
 30
0.0
 10
94.4121028061
 20
206.3059370625
 30
0.0
 10
94.4135237328
 20
206.3165789622
 30
0.0
 10
94.4149498172
 20
206.3272176785
 30
0.0
 10
94.4163617227
 20
206.3378645904
 30
0.0
 10
94.4175812752
 20
206.3467123509
 30
0.0
 10
94.4184608917
 20
206.35384566
 30
0.0
 10
94.4196902387
 20
206.3607782996
 30
0.0
 10
94.4187239753
 20
206.3708802441
 30
0.0
 10
94.4174453706
 20
206.3868879152
 30
0.0
 10
94.4157897149
 20
206.4069443771
 30
0.0
 10
94.4140293872
 20
206.4270076467
 30
0.0
 10
94.4130571489
 20
206.4410048282
 30
0.0
 10
94.4120872868
 20
206.4490819306
 30
0.0
 10
94.4095541214
 20
206.4574569614
 30
0.0
 10
94.4069248797
 20
206.4678235252
 30
0.0
 10
94.4024065227
 20
206.4844684086
 30
0.0
 10
94.3980385
 20
206.5010901228
 30
0.0
 10
94.3934531519
 20
206.5177375588
 30
0.0
 10
94.3895366596
 20
206.5343129998
 30
0.0
 10
94.3798962828
 20
206.5555401117
 30
0.0
 10
94.3687488959
 20
206.5809794162
 30
0.0
 10
94.3574087215
 20
206.6063952198
 30
0.0
 10
94.3482503136
 20
206.627681084
 30
0.0
 10
94.337856819
 20
206.6434674295
 30
0.0
 10
94.3280030438
 20
206.6594733982
 30
0.0
 10
94.3179777203
 20
206.6754039739
 30
0.0
 10
94.3080622522
 20
206.6913960111
 30
0.0
 10
94.301733403
 20
206.701300208
 30
0.0
 10
94.2969588957
 20
206.7094261834
 30
0.0
 10
94.2911354455
 20
206.7168143485
 30
0.0
 10
94.2804570112
 20
206.7294006756
 30
0.0
 10
94.2654588279
 20
206.7475623275
 30
0.0
 10
94.2503621275
 20
206.7656525018
 30
0.0
 10
94.2383158298
 20
206.7801512397
 30
0.0
 10
94.229247029
 20
206.7909883844
 30
0.0
 10
94.2185386958
 20
206.7999885944
 30
0.0
 10
94.204835742
 20
206.8126358116
 30
0.0
 10
94.190962911
 20
206.8250752745
 30
0.0
 10
94.1771685935
 20
206.8376527974
 30
0.0
 10
94.1667571921
 20
206.846879514
 30
0.0
 10
94.158267188
 20
206.8551990046
 30
0.0
 10
94.1508512209
 20
206.8597286862
 30
0.0
 10
94.1398876184
 20
206.867069532
 30
0.0
 10
94.1160387384
 20
206.88265304
 30
0.0
 10
94.0940662176
 20
206.8971803358
 30
0.0
 10
94.0794085749
 20
206.9068335288
 30
0.0
  0
SPLINE
  5
43A
100
AcDbEntity
  8
02___PRT_ALL_AXES
100
AcDbSpline
 62
7
  6
CONTINUOUS
 70
0
 71
3
 72
9
 73
5
 74
0
 42
0.0000001
 43
0.0000001
 44
0.0000000001
 40
0.0
 40
0.0
 40
0.0
 40
0.0
 40
0.488799579
 40
1.0
 40
1.0
 40
1.0
 40
1.0
 10
115.8642959336
 20
166.3600003905
 30
0.0
 10
116.0100577495
 20
166.4639560381
 30
0.0
 10
116.2966148247
 20
166.6931234661
 30
0.0
 10
116.563468638
 20
166.9444409173
 30
0.0
 10
116.6958667052
 20
167.0768389845
 30
0.0
  0
SPLINE
  5
43B
100
AcDbEntity
  8
02___PRT_ALL_AXES
100
AcDbSpline
 62
7
  6
CONTINUOUS
 70
0
 71
3
 72
23
 73
19
 74
0
 42
0.0000001
 43
0.0000001
 44
0.0000000001
 40
0.0
 40
0.0
 40
0.0
 40
0.0
 40
0.0883067072
 40
0.1696615916
 40
0.2411930189
 40
0.3034932575
 40
0.3584989719
 40
0.4083235872
 40
0.4548897038
 40
0.4998948851
 40
0.5449032342
 40
0.5914783529
 40
0.6413115337
 40
0.6963271007
 40
0.7586529233
 40
0.8302324804
 40
0.9116393795
 40
1.0
 40
1.0
 40
1.0
 40
1.0
 10
112.6199601887
 20
166.33329537
 30
0.0
 10
112.6199601887
 20
166.156586065
 30
0.0
 10
112.6495001254
 20
165.816262237
 30
0.0
 10
112.775196471
 20
165.3477288773
 30
0.0
 10
112.960943315
 20
164.9564844833
 30
0.0
 10
113.1857943462
 20
164.6498514215
 30
0.0
 10
113.4345340482
 20
164.4228922157
 30
0.0
 10
113.6972850009
 20
164.2677083271
 30
0.0
 10
113.9677023969
 20
164.1774672029
 30
0.0
 10
114.2414969416
 20
164.1477927932
 30
0.0
 10
114.5153425015
 20
164.1771748907
 30
0.0
 10
114.7858884526
 20
164.2671766811
 30
0.0
 10
115.0488004377
 20
164.4222018945
 30
0.0
 10
115.2977600027
 20
164.6490528585
 30
0.0
 10
115.5228766582
 20
164.9557067508
 30
0.0
 10
115.7088482082
 20
165.3471299638
 30
0.0
 10
115.834718566
 20
165.8159400523
 30
0.0
 10
115.8642959336
 20
166.1564781799
 30
0.0
 10
115.8642959336
 20
166.33329537
 30
0.0
  0
SPLINE
  5
43C
100
AcDbEntity
  8
02___PRT_ALL_AXES
100
AcDbSpline
 62
7
  6
CONTINUOUS
 70
0
 71
3
 72
23
 73
19
 74
0
 42
0.0000001
 43
0.0000001
 44
0.0000000001
 40
0.0
 40
0.0
 40
0.0
 40
0.0
 40
0.0883278798
 40
0.1697006582
 40
0.2412466372
 40
0.3035573166
 40
0.3585713384
 40
0.4084044648
 40
0.4549801525
 40
0.4999928796
 40
0.5450046259
 40
0.5915772496
 40
0.6414085404
 40
0.6964217238
 40
0.7587324758
 40
0.8302803327
 40
0.9116602039
 40
1.0
 40
1.0
 40
1.0
 40
1.0
 10
127.342392053
 20
166.33329537
 30
0.0
 10
127.342392053
 20
166.1565438855
 30
0.0
 10
127.3719444309
 20
165.8161413932
 30
0.0
 10
127.4977015085
 20
165.347511924
 30
0.0
 10
127.6835296183
 20
164.9562093944
 30
0.0
 10
127.9084777665
 20
164.6495625248
 30
0.0
 10
128.1573162364
 20
164.4226289345
 30
0.0
 10
128.4201616623
 20
164.267497864
 30
0.0
 10
128.6906646102
 20
164.1773469164
 30
0.0
 10
128.9645151387
 20
164.1477900317
 30
0.0
 10
129.2383615982
 20
164.1773269932
 30
0.0
 10
129.5088598938
 20
164.2674529442
 30
0.0
 10
129.7717101657
 20
164.4225535105
 30
0.0
 10
130.0205591978
 20
164.6494685845
 30
0.0
 10
130.2455271527
 20
164.9561034213
 30
0.0
 10
130.4313860667
 20
165.3474120963
 30
0.0
 10
130.5571662713
 20
165.8160795051
 30
0.0
 10
130.586727798
 20
166.1565200399
 30
0.0
 10
130.586727798
 20
166.33329537
 30
0.0
  0
SPLINE
  5
43D
100
AcDbEntity
  8
02___PRT_ALL_AXES
100
AcDbSpline
 62
7
  6
CONTINUOUS
 70
0
 71
3
 72
8
 73
4
 74
0
 42
0.0000001
 43
0.0000001
 44
0.0000000001
 40
0.0
 40
0.0
 40
0.0
 40
0.0
 40
1.0
 40
1.0
 40
1.0
 40
1.0
 10
124.8476797383
 20
166.3600003905
 30
0.0
 10
125.4162919645
 20
166.5627642346
 30
0.0
 10
125.9708708835
 20
166.8068637855
 30
0.0
 10
126.5108212814
 20
167.0768389845
 30
0.0
  0
SPLINE
  5
43E
100
AcDbEntity
  8
02___PRT_ALL_AXES
100
AcDbSpline
 62
7
  6
CONTINUOUS
 70
0
 71
3
 72
9
 73
5
 74
0
 42
0.0000001
 43
0.0000001
 44
0.0000000001
 40
0.0
 40
0.0
 40
0.0
 40
0.0
 40
0.2576422386
 40
1.0
 40
1.0
 40
1.0
 40
1.0
 10
111.7883894171
 20
167.0768389845
 30
0.0
 10
111.850611161
 20
167.0146172406
 30
0.0
 10
112.0955191344
 20
166.7766321427
 30
0.0
 10
112.3557982873
 20
166.5537498051
 30
0.0
 10
112.5599938862
 20
166.4034543435
 30
0.0
  0
SPLINE
  5
43F
100
AcDbEntity
  8
02___PRT_ALL_AXES
100
AcDbSpline
 62
7
  6
CONTINUOUS
 70
0
 71
3
 72
25
 73
21
 74
0
 42
0.0000001
 43
0.0000001
 44
0.0000000001
 40
0.0
 40
0.0
 40
0.0
 40
0.0
 40
0.0312854252
 40
0.0625800971
 40
0.1249732141
 40
0.1874202887
 40
0.2499067589
 40
0.3124186823
 40
0.3749443087
 40
0.4374745481
 40
0.5000064337
 40
0.5625383022
 40
0.625068508
 40
0.6875942926
 40
0.7501063389
 40
0.8125906562
 40
0.8750350262
 40
0.9374248106
 40
0.9687165161
 40
1.0
 40
1.0
 40
1.0
 40
1.0
 10
118.3590082484
 20
166.33329537
 30
0.0
 10
118.3590082484
 20
166.243556755
 30
0.0
 10
118.3751300389
 20
166.0636415698
 30
0.0
 10
118.468756882
 20
165.7160636857
 30
0.0
 10
118.6907441377
 20
165.3184556503
 30
0.0
 10
119.0708297827
 20
164.9320057989
 30
0.0
 10
119.5214964142
 20
164.6331422346
 30
0.0
 10
120.0146720912
 20
164.4134594285
 30
0.0
 10
120.5329004781
 20
164.2636033479
 30
0.0
 10
121.0650462123
 20
164.1765509117
 30
0.0
 10
121.6033995907
 20
164.1480115589
 30
0.0
 10
122.1417521513
 20
164.1765642823
 30
0.0
 10
122.6738960528
 20
164.2636301962
 30
0.0
 10
123.1921210529
 20
164.4135000502
 30
0.0
 10
123.6852869695
 20
164.6331924781
 30
0.0
 10
124.1359300231
 20
164.9320668444
 30
0.0
 10
124.5159859355
 20
165.3185134678
 30
0.0
 10
124.7379433434
 20
165.716106075
 30
0.0
 10
124.8315665176
 20
166.0636605345
 30
0.0
 10
124.8476797383
 20
166.2435623233
 30
0.0
 10
124.8476797383
 20
166.33329537
 30
0.0
  0
SPLINE
  5
440
100
AcDbEntity
  8
02___PRT_ALL_AXES
100
AcDbSpline
 62
7
  6
CONTINUOUS
 70
0
 71
3
 72
8
 73
4
 74
0
 42
0.0000001
 43
0.0000001
 44
0.0000000001
 40
0.0
 40
0.0
 40
0.0
 40
0.0
 40
1.0
 40
1.0
 40
1.0
 40
1.0
 10
116.6958667052
 20
167.0768389845
 30
0.0
 10
117.2358171031
 20
166.8068637855
 30
0.0
 10
117.7903960222
 20
166.5627642346
 30
0.0
 10
118.3590082484
 20
166.3600003905
 30
0.0
  0
SPLINE
  5
441
100
AcDbEntity
  8
02___PRT_ALL_AXES
100
AcDbSpline
 62
7
  6
CONTINUOUS
 70
0
 71
3
 72
9
 73
5
 74
0
 42
0.0000001
 43
0.0000001
 44
0.0000000001
 40
0.0
 40
0.0
 40
0.0
 40
0.0
 40
0.5112005452
 40
1.0
 40
1.0
 40
1.0
 40
1.0
 10
126.5108212814
 20
167.0768389845
 30
0.0
 10
126.6432193808
 20
166.9444408852
 30
0.0
 10
126.9100732027
 20
166.6931234432
 30
0.0
 10
127.1966302742
 20
166.4639560117
 30
0.0
 10
127.342392053
 20
166.3600003905
 30
0.0
  0
SPLINE
  5
442
100
AcDbEntity
  8
02___PRT_ALL_AXES
100
AcDbSpline
 62
7
  6
CONTINUOUS
 70
0
 71
3
 72
9
 73
5
 74
0
 42
0.0000001
 43
0.0000001
 44
0.0000000001
 40
0.0
 40
0.0
 40
0.0
 40
0.0
 40
0.2423815515
 40
1.0
 40
1.0
 40
1.0
 40
1.0
 10
130.6596241404
 20
166.4130029188
 30
0.0
 10
130.7251025771
 20
166.461517252
 30
0.0
 10
130.990452836
 20
166.6681519177
 30
0.0
 10
131.238181494
 20
166.8967219089
 30
0.0
 10
131.4182985695
 20
167.0768389845
 30
0.0
  0
SPLINE
  5
443
100
AcDbEntity
  8
7_ALL_FEATURES
100
AcDbSpline
 62
7
  6
CONTINUOUS
 70
0
 71
3
 72
27
 73
23
 74
0
 42
0.0000001
 43
0.0000001
 44
0.0000000001
 40
0.0
 40
0.0
 40
0.0
 40
0.0
 40
0.0024036996
 40
0.0095615604
 40
0.0214033611
 40
0.0378161457
 40
0.0586529306
 40
0.0837416008
 40
0.1456666974
 40
0.2212980768
 40
0.3078356704
 40
0.4019699841
 40
0.5000128438
 40
0.6921767263
 40
0.8543388548
 40
0.9162667068
 40
0.9413539435
 40
0.9621866887
 40
0.9785982637
 40
0.9904496556
 40
0.9976177342
 40
1.0
 40
1.0
 40
1.0
 40
1.0
 10
159.1033439933
 20
213.3268389848
 30
0.0
 10
159.1033365604
 20
213.3336646671
 30
0.0
 10
159.0983058974
 20
213.3605236247
 30
0.0
 10
159.0932155726
 20
213.4210144051
 30
0.0
 10
159.0808930861
 20
213.5208772108
 30
0.0
 10
159.0661313637
 20
213.6594743202
 30
0.0
 10
159.0474232488
 20
213.8355110647
 30
0.0
 10
159.0169852105
 20
214.1402515379
 30
0.0
 10
158.9755363193
 20
214.6002627285
 30
0.0
 10
158.9284980127
 20
215.2349047964
 30
0.0
 10
158.8883788957
 20
215.9616592157
 30
0.0
 10
158.8614407393
 20
216.7527312292
 30
0.0
 10
158.8488717418
 20
217.8440925669
 30
0.0
 10
158.8778786308
 20
219.1291193756
 30
0.0
 10
158.9534906892
 20
220.3081434085
 30
0.0
 10
159.0169854957
 20
221.0140799892
 30
0.0
 10
159.0474212646
 20
221.3174428066
 30
0.0
 10
159.0661384428
 20
221.4964417379
 30
0.0
 10
159.0808862752
 20
221.6272144615
 30
0.0
 10
159.0932494567
 20
221.7451150805
 30
0.0
 10
159.098252333
 20
221.7737738343
 30
0.0
 10
159.1033439933
 20
221.8336038062
 30
0.0
 10
159.1033439933
 20
221.8268389845
 30
0.0
  0
SPLINE
  5
444
100
AcDbEntity
  8
7_ALL_FEATURES
100
AcDbSpline
 62
7
  6
CONTINUOUS
 70
0
 71
3
 72
8
 73
4
 74
0
 42
0.0000001
 43
0.0000001
 44
0.0000000001
 40
0.0
 40
0.0
 40
0.0
 40
0.0
 40
1.0
 40
1.0
 40
1.0
 40
1.0
 10
88.9353895198
 20
203.3268389845
 30
0.0
 10
89.2705072793
 20
202.9100142157
 30
0.0
 10
89.6057883927
 20
202.4933206495
 30
0.0
 10
89.9413324633
 20
202.0768389845
 30
0.0
  0
SPLINE
  5
445
100
AcDbEntity
  8
7_ALL_FEATURES
100
AcDbSpline
 62
7
  6
CONTINUOUS
 70
0
 71
3
 72
8
 73
4
 74
0
 42
0.0000001
 43
0.0000001
 44
0.0000000001
 40
0.0
 40
0.0
 40
0.0
 40
0.0
 40
1.0
 40
1.0
 40
1.0
 40
1.0
 10
103.9517286034
 20
202.0768389845
 30
0.0
 10
103.698045874
 20
202.4936631517
 30
0.0
 10
103.4440998231
 20
202.9103271612
 30
0.0
 10
103.189904594
 20
203.3268389845
 30
0.0
  0
SPLINE
  5
446
100
AcDbEntity
  8
7_ALL_FEATURES
100
AcDbSpline
 62
7
  6
CONTINUOUS
 70
0
 71
3
 72
8
 73
4
 74
0
 42
0.0000001
 43
0.0000001
 44
0.0000000001
 40
0.0
 40
0.0
 40
0.0
 40
0.0
 40
1.0
 40
1.0
 40
1.0
 40
1.0
 10
140.0167833927
 20
203.3268389845
 30
0.0
 10
139.7625881636
 20
202.9103271612
 30
0.0
 10
139.5086421126
 20
202.4936631517
 30
0.0
 10
139.2549593833
 20
202.0768389845
 30
0.0
  0
SPLINE
  5
447
100
AcDbEntity
  8
7_ALL_FEATURES
100
AcDbSpline
 62
7
  6
CONTINUOUS
 70
0
 71
3
 72
8
 73
4
 74
0
 42
0.0000001
 43
0.0000001
 44
0.0000000001
 40
0.0
 40
0.0
 40
0.0
 40
0.0
 40
1.0
 40
1.0
 40
1.0
 40
1.0
 10
153.2653555233
 20
202.0768389845
 30
0.0
 10
153.6008995941
 20
202.4933206494
 30
0.0
 10
153.9361807071
 20
202.9100142159
 30
0.0
 10
154.2712984669
 20
203.3268389845
 30
0.0
  0
SPLINE
  5
448
100
AcDbEntity
  8
03___PRT_ALL_CURVES
100
AcDbSpline
 62
40
  6
CONTINUOUS
 70
0
 71
3
 72
23
 73
19
 74
0
 42
0.0000001
 43
0.0000001
 44
0.0000000001
 40
0.0
 40
0.0
 40
0.0
 40
0.0
 40
0.0416666667
 40
0.0833333333
 40
0.125
 40
0.1666666667
 40
0.25
 40
0.3333333333
 40
0.4166666667
 40
0.5
 40
0.5833333333
 40
0.6666666667
 40
0.75
 40
0.8333333333
 40
0.875
 40
0.9166666667
 40
0.9583333333
 40
1.0
 40
1.0
 40
1.0
 40
1.0
 10
158.5444796012
 20
217.4268389845
 30
0.0
 10
158.5432085167
 20
217.4268389845
 30
0.0
 10
158.5408632874
 20
217.4278229467
 30
0.0
 10
158.5373688684
 20
217.4319687809
 30
0.0
 10
158.5340928065
 20
217.4385710459
 30
0.0
 10
158.5300215503
 20
217.4502347191
 30
0.0
 10
158.5253192002
 20
217.471005334
 30
0.0
 10
158.5211141361
 20
217.5029032242
 30
0.0
 10
158.5185573481
 20
217.5387022836
 30
0.0
 10
158.5176841243
 20
217.5768417295
 30
0.0
 10
158.5185575883
 20
217.6149807826
 30
0.0
 10
158.5211145729
 20
217.6507789438
 30
0.0
 10
158.5253196056
 20
217.6826747118
 30
0.0
 10
158.5300217808
 20
217.7034440288
 30
0.0
 10
158.5340929601
 20
217.7151072801
 30
0.0
 10
158.5373689632
 20
217.7217093216
 30
0.0
 10
158.5408633287
 20
217.7258550449
 30
0.0
 10
158.5432085358
 20
217.7268389845
 30
0.0
 10
158.5444796012
 20
217.7268389845
 30
0.0
  0
SPLINE
  5
449
100
AcDbEntity
  8
03___PRT_ALL_CURVES
100
AcDbSpline
 62
40
  6
CONTINUOUS
 70
0
 71
3
 72
27
 73
23
 74
0
 42
0.0000001
 43
0.0000001
 44
0.0000000001
 40
0.0
 40
0.0
 40
0.0
 40
0.0
 40
0.0208333333
 40
0.0416666667
 40
0.0625
 40
0.0833333333
 40
0.125
 40
0.1666666667
 40
0.25
 40
0.3333333333
 40
0.4166666667
 40
0.5
 40
0.5833333333
 40
0.6666666667
 40
0.75
 40
0.8333333333
 40
0.875
 40
0.9166666667
 40
0.9375
 40
0.9583333333
 40
0.9791666667
 40
1.0
 40
1.0
 40
1.0
 40
1.0
 10
158.8012942057
 20
217.7268389845
 30
0.0
 10
158.8017562587
 20
217.7268389845
 30
0.0
 10
158.8026118817
 20
217.726596686
 30
0.0
 10
158.8039172434
 20
217.7255382809
 30
0.0
 10
158.8051783212
 20
217.7238157253
 30
0.0
 10
158.8068180249
 20
217.7206771051
 30
0.0
 10
158.808777117
 20
217.7152173172
 30
0.0
 10
158.8116766375
 20
217.7036219285
 30
0.0
 10
158.815010034
 20
217.6828635475
 30
0.0
 10
158.817959439
 20
217.6508960296
 30
0.0
 10
158.8197376209
 20
217.6150459786
 30
0.0
 10
158.8203431503
 20
217.5768359199
 30
0.0
 10
158.8197374353
 20
217.5386262983
 30
0.0
 10
158.8179590989
 20
217.5027772523
 30
0.0
 10
158.8150097187
 20
217.470812144
 30
0.0
 10
158.8116764636
 20
217.4500552212
 30
0.0
 10
158.8087770029
 20
217.4384602843
 30
0.0
 10
158.806817949
 20
217.4330006929
 30
0.0
 10
158.8051782715
 20
217.4298621659
 30
0.0
 10
158.8039172115
 20
217.428139657
 30
0.0
 10
158.8026118677
 20
217.4270812777
 30
0.0
 10
158.8017562516
 20
217.4268389845
 30
0.0
 10
158.8012942057
 20
217.4268389845
 30
0.0
  0
LINE
  5
44A
100
AcDbEntity
  8
03___PRT_ALL_CURVES
100
AcDbLine
 62
40
  6
CONTINUOUS
 10
159.1030439921
 20
222.3268389845
 11
159.1033439933
 21
222.1768389845
  0
SPLINE
  5
44B
100
AcDbEntity
  8
03___PRT_ALL_CURVES
100
AcDbSpline
 62
40
  6
CONTINUOUS
 70
0
 71
3
 72
10
 73
6
 74
0
 42
0.0000001
 43
0.0000001
 44
0.0000000001
 40
0.0
 40
0.0
 40
0.0
 40
0.0
 40
0.3333333333
 40
0.6666666667
 40
1.0
 40
1.0
 40
1.0
 40
1.0
 10
158.509242492
 20
239.8764536133
 30
0.0
 10
158.5048578213
 20
239.8949179943
 30
0.0
 10
158.4969991414
 20
239.9398120981
 30
0.0
 10
158.4871269801
 20
240.0265946208
 30
0.0
 10
158.4817370047
 20
240.0924776822
 30
0.0
 10
158.4792240051
 20
240.1275569187
 30
0.0
  0
SPLINE
  5
44C
100
AcDbEntity
  8
03___PRT_ALL_CURVES
100
AcDbSpline
 62
40
  6
CONTINUOUS
 70
0
 71
3
 72
10
 73
6
 74
0
 42
0.0000001
 43
0.0000001
 44
0.0000000001
 40
0.0
 40
0.0
 40
0.0
 40
0.0
 40
0.3333333333
 40
0.6666666667
 40
1.0
 40
1.0
 40
1.0
 40
1.0
 10
158.5429294059
 20
239.8312645641
 30
0.0
 10
158.5391080451
 20
239.8254085
 30
0.0
 10
158.5315012161
 20
239.8212965395
 30
0.0
 10
158.520146613
 20
239.8372113417
 30
0.0
 10
158.5128613612
 20
239.8612141152
 30
0.0
 10
158.509242492
 20
239.8764536133
 30
0.0
  0
SPLINE
  5
44D
100
AcDbEntity
  8
03___PRT_ALL_CURVES
100
AcDbSpline
 62
40
  6
CONTINUOUS
 70
0
 71
3
 72
12
 73
8
 74
0
 42
0.0000001
 43
0.0000001
 44
0.0000000001
 40
0.0
 40
0.0
 40
0.0
 40
0.0
 40
0.1666666667
 40
0.3333333333
 40
0.5
 40
0.6666666667
 40
1.0
 40
1.0
 40
1.0
 40
1.0
 10
158.5719228537
 20
240.0125022966
 30
0.0
 10
158.5710347922
 20
239.9970341763
 30
0.0
 10
158.5690736146
 20
239.9679106603
 30
0.0
 10
158.5654619078
 20
239.9288136807
 30
0.0
 10
158.5610606273
 20
239.8945554416
 30
0.0
 10
158.5541400361
 20
239.8569454667
 30
0.0
 10
158.5477615191
 20
239.838669561
 30
0.0
 10
158.5429294059
 20
239.8312645641
 30
0.0
  0
SPLINE
  5
44E
100
AcDbEntity
  8
03___PRT_ALL_CURVES
100
AcDbSpline
 62
40
  6
CONTINUOUS
 70
0
 71
3
 72
10
 73
6
 74
0
 42
0.0000001
 43
0.0000001
 44
0.0000000001
 40
0.0
 40
0.0
 40
0.0
 40
0.0
 40
0.3333333333
 40
0.6666666667
 40
1.0
 40
1.0
 40
1.0
 40
1.0
 10
158.5706767186
 20
240.382795705
 30
0.0
 10
158.572734624
 20
240.3377160923
 30
0.0
 10
158.575729479
 20
240.2503876824
 30
0.0
 10
158.5764427738
 20
240.1239273708
 30
0.0
 10
158.5739807331
 20
240.0483461288
 30
0.0
 10
158.5719228537
 20
240.0125022966
 30
0.0
  0
SPLINE
  5
44F
100
AcDbEntity
  8
03___PRT_ALL_CURVES
100
AcDbSpline
 62
40
  6
CONTINUOUS
 70
0
 71
3
 72
10
 73
6
 74
0
 42
0.0000001
 43
0.0000001
 44
0.0000000001
 40
0.0
 40
0.0
 40
0.0
 40
0.0
 40
0.3333333333
 40
0.6666666667
 40
1.0
 40
1.0
 40
1.0
 40
1.0
 10
158.5414788489
 20
240.6821220442
 30
0.0
 10
158.546223247
 20
240.6599283384
 30
0.0
 10
158.5545528709
 20
240.6072518816
 30
0.0
 10
158.564230418
 20
240.5037181008
 30
0.0
 10
158.5687520713
 20
240.4249562202
 30
0.0
 10
158.5706767186
 20
240.382795705
 30
0.0
  0
SPLINE
  5
450
100
AcDbEntity
  8
03___PRT_ALL_CURVES
100
AcDbSpline
 62
40
  6
CONTINUOUS
 70
0
 71
3
 72
10
 73
6
 74
0
 42
0.0000001
 43
0.0000001
 44
0.0000000001
 40
0.0
 40
0.0
 40
0.0
 40
0.0
 40
0.3333333333
 40
0.6666666667
 40
1.0
 40
1.0
 40
1.0
 40
1.0
 10
158.4992331297
 20
240.7415438794
 30
0.0
 10
158.5042250463
 20
240.7489053564
 30
0.0
 10
158.5139955781
 20
240.7545177297
 30
0.0
 10
158.5282655635
 20
240.7342215428
 30
0.0
 10
158.5371364721
 20
240.7024351445
 30
0.0
 10
158.5414788489
 20
240.6821220442
 30
0.0
  0
SPLINE
  5
451
100
AcDbEntity
  8
03___PRT_ALL_CURVES
100
AcDbSpline
 62
40
  6
CONTINUOUS
 70
0
 71
3
 72
10
 73
6
 74
0
 42
0.0000001
 43
0.0000001
 44
0.0000000001
 40
0.0
 40
0.0
 40
0.0
 40
0.0
 40
0.3333333333
 40
0.6666666667
 40
1.0
 40
1.0
 40
1.0
 40
1.0
 10
158.4757987111
 20
240.6536519978
 30
0.0
 10
158.4779824899
 20
240.6687496722
 30
0.0
 10
158.4826368833
 20
240.6953836209
 30
0.0
 10
158.490477239
 20
240.7247198322
 30
0.0
 10
158.4962277308
 20
240.7371118793
 30
0.0
 10
158.4992331297
 20
240.7415438794
 30
0.0
  0
SPLINE
  5
452
100
AcDbEntity
  8
03___PRT_ALL_CURVES
100
AcDbSpline
 62
40
  6
CONTINUOUS
 70
0
 71
3
 72
10
 73
6
 74
0
 42
0.0000001
 43
0.0000001
 44
0.0000000001
 40
0.0
 40
0.0
 40
0.0
 40
0.0
 40
0.3333333333
 40
0.6666666667
 40
1.0
 40
1.0
 40
1.0
 40
1.0
 10
158.4635139384
 20
240.4876741414
 30
0.0
 10
158.4640532321
 20
240.50937256
 30
0.0
 10
158.4656780609
 20
240.5506117147
 30
0.0
 10
158.4698539667
 20
240.6067894516
 30
0.0
 10
158.473651592
 20
240.6388077719
 30
0.0
 10
158.4757987111
 20
240.6536519978
 30
0.0
  0
SPLINE
  5
453
100
AcDbEntity
  8
03___PRT_ALL_CURVES
100
AcDbSpline
 62
40
  6
CONTINUOUS
 70
0
 71
3
 72
13
 73
9
 74
0
 42
0.0000001
 43
0.0000001
 44
0.0000000001
 40
0.0
 40
0.0
 40
0.0
 40
0.0
 40
0.1666666667
 40
0.3333333333
 40
0.5
 40
0.6666666667
 40
0.8333333333
 40
1.0
 40
1.0
 40
1.0
 40
1.0
 10
158.4969673145
 20
240.9627745282
 30
0.0
 10
158.4941946006
 20
240.9586934988
 30
0.0
 10
158.4887943283
 20
240.9482283973
 30
0.0
 10
158.4812039455
 20
240.9258476606
 30
0.0
 10
158.4740216516
 20
240.8964489443
 30
0.0
 10
158.4673871601
 20
240.8606005516
 30
0.0
 10
158.4613844809
 20
240.8194583546
 30
0.0
 10
158.4577263712
 20
240.7884987158
 30
0.0
 10
158.4559697472
 20
240.7720920615
 30
0.0
  0
SPLINE
  5
454
100
AcDbEntity
  8
03___PRT_ALL_CURVES
100
AcDbSpline
 62
40
  6
CONTINUOUS
 70
0
 71
3
 72
10
 73
6
 74
0
 42
0.0000001
 43
0.0000001
 44
0.0000000001
 40
0.0
 40
0.0
 40
0.0
 40
0.0
 40
0.3333333333
 40
0.6666666667
 40
1.0
 40
1.0
 40
1.0
 40
1.0
 10
158.557271613
 20
240.8717166593
 30
0.0
 10
158.5510165863
 20
240.9008824773
 30
0.0
 10
158.5383170127
 20
240.947307393
 30
0.0
 10
158.5179672921
 20
240.9796523867
 30
0.0
 10
158.5040439086
 20
240.9731902398
 30
0.0
 10
158.4969673145
 20
240.9627745282
 30
0.0
  0
SPLINE
  5
455
100
AcDbEntity
  8
03___PRT_ALL_CURVES
100
AcDbSpline
 62
40
  6
CONTINUOUS
 70
0
 71
3
 72
10
 73
6
 74
0
 42
0.0000001
 43
0.0000001
 44
0.0000000001
 40
0.0
 40
0.0
 40
0.0
 40
0.0
 40
0.3333333333
 40
0.6666666667
 40
1.0
 40
1.0
 40
1.0
 40
1.0
 10
158.5992034083
 20
240.4480649875
 30
0.0
 10
158.5965080878
 20
240.5087902182
 30
0.0
 10
158.5900280613
 20
240.6214914804
 30
0.0
 10
158.5759026584
 20
240.7674643807
 30
0.0
 10
158.5639567699
 20
240.8405452388
 30
0.0
 10
158.557271613
 20
240.8717166593
 30
0.0
  0
SPLINE
  5
456
100
AcDbEntity
  8
03___PRT_ALL_CURVES
100
AcDbSpline
 62
40
  6
CONTINUOUS
 70
0
 71
3
 72
10
 73
6
 74
0
 42
0.0000001
 43
0.0000001
 44
0.0000000001
 40
0.0
 40
0.0
 40
0.0
 40
0.0
 40
0.3333333333
 40
0.6666666667
 40
1.0
 40
1.0
 40
1.0
 40
1.0
 10
158.5999508784
 20
239.9283470366
 30
0.0
 10
158.6024948226
 20
239.9801136089
 30
0.0
 10
158.6059079851
 20
240.0874871691
 30
0.0
 10
158.6057364159
 20
240.2629303448
 30
0.0
 10
158.6019923449
 20
240.3852305952
 30
0.0
 10
158.5992034083
 20
240.4480649875
 30
0.0
  0
SPLINE
  5
457
100
AcDbEntity
  8
03___PRT_ALL_CURVES
100
AcDbSpline
 62
40
  6
CONTINUOUS
 70
0
 71
3
 72
13
 73
9
 74
0
 42
0.0000001
 43
0.0000001
 44
0.0000000001
 40
0.0
 40
0.0
 40
0.0
 40
0.0
 40
0.1666666667
 40
0.3333333333
 40
0.5
 40
0.6666666667
 40
0.8333333333
 40
1.0
 40
1.0
 40
1.0
 40
1.0
 10
158.552416994
 20
239.6368347783
 30
0.0
 10
158.5563898498
 20
239.6429763867
 30
0.0
 10
158.5638730406
 20
239.6584675648
 30
0.0
 10
158.5738014025
 20
239.691614827
 30
0.0
 10
158.5824962703
 20
239.7354338265
 30
0.0
 10
158.5897980349
 20
239.7896264462
 30
0.0
 10
158.5956564765
 20
239.853258168
 30
0.0
 10
158.5986669639
 20
239.9022207334
 30
0.0
 10
158.5999508784
 20
239.9283470366
 30
0.0
  0
SPLINE
  5
458
100
AcDbEntity
  8
03___PRT_ALL_CURVES
100
AcDbSpline
 62
40
  6
CONTINUOUS
 70
0
 71
3
 72
10
 73
6
 74
0
 42
0.0000001
 43
0.0000001
 44
0.0000000001
 40
0.0
 40
0.0
 40
0.0
 40
0.0
 40
0.3333333333
 40
0.6666666667
 40
1.0
 40
1.0
 40
1.0
 40
1.0
 10
158.4929962949
 20
239.6999193616
 30
0.0
 10
158.4994795125
 20
239.6754015397
 30
0.0
 10
158.5125408288
 20
239.6380954602
 30
0.0
 10
158.5324107063
 20
239.617222017
 30
0.0
 10
158.5457301958
 20
239.6264977063
 30
0.0
 10
158.552416994
 20
239.6368347783
 30
0.0
  0
SPLINE
  5
459
100
AcDbEntity
  8
03___PRT_ALL_CURVES
100
AcDbSpline
 62
40
  6
CONTINUOUS
 70
0
 71
3
 72
10
 73
6
 74
0
 42
0.0000001
 43
0.0000001
 44
0.0000000001
 40
0.0
 40
0.0
 40
0.0
 40
0.0
 40
0.3333333333
 40
0.6666666667
 40
1.0
 40
1.0
 40
1.0
 40
1.0
 10
158.4477945744
 20
240.0599522647
 30
0.0
 10
158.4511892769
 20
240.0073213027
 30
0.0
 10
158.4588913582
 20
239.9100211965
 30
0.0
 10
158.4742162697
 20
239.7855408077
 30
0.0
 10
158.4863749503
 20
239.7249595433
 30
0.0
 10
158.4929962949
 20
239.6999193616
 30
0.0
  0
SPLINE
  5
45A
100
AcDbEntity
  8
03___PRT_ALL_CURVES
100
AcDbSpline
 62
40
  6
CONTINUOUS
 70
0
 71
3
 72
10
 73
6
 74
0
 42
0.0000001
 43
0.0000001
 44
0.0000000001
 40
0.0
 40
0.0
 40
0.0
 40
0.0
 40
0.3333333333
 40
0.6666666667
 40
1.0
 40
1.0
 40
1.0
 40
1.0
 10
158.2509476687
 20
240.7045994535
 30
0.0
 10
158.2542530136
 20
240.7269136663
 30
0.0
 10
158.2604633641
 20
240.7715445533
 30
0.0
 10
158.2685060415
 20
240.8392347197
 30
0.0
 10
158.2728373843
 20
240.8846366068
 30
0.0
 10
158.2747022276
 20
240.9075421952
 30
0.0
  0
SPLINE
  5
45B
100
AcDbEntity
  8
03___PRT_ALL_CURVES
100
AcDbSpline
 62
40
  6
CONTINUOUS
 70
0
 71
3
 72
10
 73
6
 74
0
 42
0.0000001
 43
0.0000001
 44
0.0000000001
 40
0.0
 40
0.0
 40
0.0
 40
0.0
 40
0.3333333333
 40
0.6666666667
 40
1.0
 40
1.0
 40
1.0
 40
1.0
 10
158.2195221065
 20
240.5330472858
 30
0.0
 10
158.223382913
 20
240.5489046839
 30
0.0
 10
158.2307742949
 20
240.5831706744
 30
0.0
 10
158.2411848944
 20
240.6410545613
 30
0.0
 10
158.2477338815
 20
240.6829033424
 30
0.0
 10
158.2509476687
 20
240.7045994535
 30
0.0
  0
SPLINE
  5
45C
100
AcDbEntity
  8
03___PRT_ALL_CURVES
100
AcDbSpline
 62
40
  6
CONTINUOUS
 70
0
 71
3
 72
10
 73
6
 74
0
 42
0.0000001
 43
0.0000001
 44
0.0000000001
 40
0.0
 40
0.0
 40
0.0
 40
0.0
 40
0.3333333333
 40
0.6666666667
 40
1.0
 40
1.0
 40
1.0
 40
1.0
 10
158.2457022629
 20
241.0519803093
 30
0.0
 10
158.2423235658
 20
241.015369978
 30
0.0
 10
158.2348459294
 20
240.9451865542
 30
0.0
 10
158.2216438476
 20
240.8493350809
 30
0.0
 10
158.2113799728
 20
240.7904460174
 30
0.0
 10
158.2058877863
 20
240.762339361
 30
0.0
  0
SPLINE
  5
45D
100
AcDbEntity
  8
03___PRT_ALL_CURVES
100
AcDbSpline
 62
40
  6
CONTINUOUS
 70
0
 71
3
 72
10
 73
6
 74
0
 42
0.0000001
 43
0.0000001
 44
0.0000000001
 40
0.0
 40
0.0
 40
0.0
 40
0.0
 40
0.3333333333
 40
0.6666666667
 40
1.0
 40
1.0
 40
1.0
 40
1.0
 10
158.2625756312
 20
241.3514245476
 30
0.0
 10
158.2620830113
 20
241.3191265349
 30
0.0
 10
158.2600970234
 20
241.2539080956
 30
0.0
 10
158.2543297298
 20
241.1534258193
 30
0.0
 10
158.2488417005
 20
241.0859981116
 30
0.0
 10
158.2457022629
 20
241.0519803093
 30
0.0
  0
LINE
  5
45E
100
AcDbEntity
  8
03___PRT_ALL_CURVES
100
AcDbLine
 62
40
  6
CONTINUOUS
 10
159.1030439921
 20
239.9268389845
 11
159.1033439933
 21
240.0768389845
  0
SPLINE
  5
45F
100
AcDbEntity
  8
03___PRT_ALL_CURVES
100
AcDbSpline
 62
40
  6
CONTINUOUS
 70
0
 71
3
 72
31
 73
27
 74
0
 42
0.0000001
 43
0.0000001
 44
0.0000000001
 40
0.0
 40
0.0
 40
0.0
 40
0.0
 40
0.0208333333
 40
0.0416666667
 40
0.0625
 40
0.0833333333
 40
0.125
 40
0.1458333333
 40
0.1666666667
 40
0.2083333333
 40
0.25
 40
0.3333333333
 40
0.4166666667
 40
0.5
 40
0.5833333333
 40
0.6666666667
 40
0.75
 40
0.7916666667
 40
0.8333333333
 40
0.8541666667
 40
0.875
 40
0.9166666667
 40
0.9375
 40
0.9583333333
 40
0.9791666667
 40
1.0
 40
1.0
 40
1.0
 40
1.0
 10
159.0010065669
 20
239.755210565
 30
0.0
 10
159.0009718942
 20
239.7587681126
 30
0.0
 10
159.0008902732
 20
239.7653205625
 30
0.0
 10
159.0007154382
 20
239.7752731976
 30
0.0
 10
159.000495353
 20
239.7848269038
 30
0.0
 10
159.0001426035
 20
239.7971806999
 30
0.0
 10
158.9997056353
 20
239.8088530293
 30
0.0
 10
158.9991891174
 20
239.8198185781
 30
0.0
 10
158.9986231257
 20
239.8302545212
 30
0.0
 10
158.9978065033
 20
239.8425822921
 30
0.0
 10
158.9962640599
 20
239.8602709232
 30
0.0
 10
158.9940606686
 20
239.8764570291
 30
0.0
 10
158.9911695723
 20
239.886097601
 30
0.0
 10
158.9881543084
 20
239.8859722816
 30
0.0
 10
158.9852014015
 20
239.8760825493
 30
0.0
 10
158.9824989891
 20
239.857051704
 30
0.0
 10
158.9805731962
 20
239.8339181697
 30
0.0
 10
158.9793375052
 20
239.8115420536
 30
0.0
 10
158.9787392083
 20
239.7968191694
 30
0.0
 10
158.9783620208
 20
239.7847810572
 30
0.0
 10
158.9780469102
 20
239.7723989586
 30
0.0
 10
158.9778294638
 20
239.7596053213
 30
0.0
 10
158.9777153437
 20
239.7464437091
 30
0.0
 10
158.9776830547
 20
239.7364479613
 30
0.0
 10
158.9777074177
 20
239.7262242623
 30
0.0
 10
158.9777592069
 20
239.7196099469
 30
0.0
 10
158.977797625
 20
239.7160527074
 30
0.0
  0
SPLINE
  5
460
100
AcDbEntity
  8
03___PRT_ALL_CURVES
100
AcDbSpline
 62
40
  6
CONTINUOUS
 70
0
 71
3
 72
31
 73
27
 74
0
 42
0.0000001
 43
0.0000001
 44
0.0000000001
 40
0.0
 40
0.0
 40
0.0
 40
0.0
 40
0.0208333333
 40
0.0416666667
 40
0.0625
 40
0.0833333333
 40
0.125
 40
0.1458333333
 40
0.1666666667
 40
0.2083333333
 40
0.25
 40
0.3333333333
 40
0.4166666667
 40
0.5
 40
0.5833333333
 40
0.6666666667
 40
0.75
 40
0.7916666667
 40
0.8333333333
 40
0.8541666667
 40
0.875
 40
0.9166666667
 40
0.9375
 40
0.9583333333
 40
0.9791666667
 40
1.0
 40
1.0
 40
1.0
 40
1.0
 10
159.0002444287
 20
237.5348740124
 30
0.0
 10
159.0002792341
 20
237.5313161218
 30
0.0
 10
159.000361141
 20
237.5247628516
 30
0.0
 10
159.0005363323
 20
237.5148092915
 30
0.0
 10
159.0007564358
 20
237.5052548542
 30
0.0
 10
159.0011083689
 20
237.4929004524
 30
0.0
 10
159.0015426136
 20
237.481228089
 30
0.0
 10
159.0020529794
 20
237.4702630561
 30
0.0
 10
159.0026100066
 20
237.4598278905
 30
0.0
 10
159.00340872
 20
237.4475018363
 30
0.0
 10
159.0049016082
 20
237.4298162379
 30
0.0
 10
159.0069978091
 20
237.4136315301
 30
0.0
 10
159.009675862
 20
237.4039888439
 30
0.0
 10
159.0123916343
 20
237.404110676
 30
0.0
 10
159.0149768587
 20
237.4139936324
 30
0.0
 10
159.0172815357
 20
237.4330162902
 30
0.0
 10
159.018886059
 20
237.4561365136
 30
0.0
 10
159.0199026044
 20
237.4784997676
 30
0.0
 10
159.0203914225
 20
237.4932195898
 30
0.0
 10
159.0206985742
 20
237.5052595177
 30
0.0
 10
159.020954626
 20
237.5176448916
 30
0.0
 10
159.0211308432
 20
237.5304445676
 30
0.0
 10
159.0212232882
 20
237.5436147415
 30
0.0
 10
159.021249483
 20
237.5536181263
 30
0.0
 10
159.021229858
 20
237.5638504967
 30
0.0
 10
159.0211879932
 20
237.5704713598
 30
0.0
 10
159.0211569078
 20
237.57403187
 30
0.0
  0
SPLINE
  5
461
100
AcDbEntity
  8
03___PRT_ALL_CURVES
100
AcDbSpline
 62
40
  6
CONTINUOUS
 70
0
 71
3
 72
25
 73
21
 74
0
 42
0.0000001
 43
0.0000001
 44
0.0000000001
 40
0.0
 40
0.0
 40
0.0
 40
0.0
 40
0.0833333333
 40
0.1666666667
 40
0.25
 40
0.3333333333
 40
0.4166666667
 40
0.5
 40
0.5833333333
 40
0.6666666667
 40
0.75
 40
0.7916666667
 40
0.8333333333
 40
0.8541666667
 40
0.875
 40
0.9166666667
 40
0.9375
 40
0.9583333333
 40
0.9791666667
 40
1.0
 40
1.0
 40
1.0
 40
1.0
 10
158.6768331007
 20
239.2041040588
 30
0.0
 10
158.6762721533
 20
239.2178658795
 30
0.0
 10
158.6746958117
 20
239.2418410479
 30
0.0
 10
158.6710825317
 20
239.2726929679
 30
0.0
 10
158.6661244197
 20
239.2973475506
 30
0.0
 10
158.6603504716
 20
239.3122722878
 30
0.0
 10
158.654349199
 20
239.3169212591
 30
0.0
 10
158.6483274254
 20
239.3117097715
 30
0.0
 10
158.6426920951
 20
239.296968002
 30
0.0
 10
158.6377791514
 20
239.2736465958
 30
0.0
 10
158.6345005546
 20
239.2475438866
 30
0.0
 10
158.6325662255
 20
239.223329289
 30
0.0
 10
158.6317162319
 20
239.2077709393
 30
0.0
 10
158.6312400512
 20
239.195249863
 30
0.0
 10
158.6308918301
 20
239.1824949226
 30
0.0
 10
158.6307415437
 20
239.1695015745
 30
0.0
 10
158.6307979174
 20
239.1563196503
 30
0.0
 10
158.6309451737
 20
239.1463998631
 30
0.0
 10
158.6312057888
 20
239.1363488321
 30
0.0
 10
158.6314432794
 20
239.1299068154
 30
0.0
 10
158.6315912459
 20
239.1264583453
 30
0.0
  0
SPLINE
  5
462
100
AcDbEntity
  8
03___PRT_ALL_CURVES
100
AcDbSpline
 62
40
  6
CONTINUOUS
 70
0
 71
3
 72
25
 73
21
 74
0
 42
0.0000001
 43
0.0000001
 44
0.0000000001
 40
0.0
 40
0.0
 40
0.0
 40
0.0
 40
0.0833333333
 40
0.1666666667
 40
0.25
 40
0.3333333333
 40
0.4166666667
 40
0.5
 40
0.5833333333
 40
0.6666666667
 40
0.75
 40
0.7916666667
 40
0.8333333333
 40
0.8541666667
 40
0.875
 40
0.9166666667
 40
0.9375
 40
0.9583333333
 40
0.9791666667
 40
1.0
 40
1.0
 40
1.0
 40
1.0
 10
158.7182925581
 20
237.0014215275
 30
0.0
 10
158.7188258564
 20
236.9876400966
 30
0.0
 10
158.7203232843
 20
236.9636333579
 30
0.0
 10
158.7237288657
 20
236.9327780455
 30
0.0
 10
158.7283433479
 20
236.9081651111
 30
0.0
 10
158.7336425263
 20
236.8932594731
 30
0.0
 10
158.739074013
 20
236.8886061002
 30
0.0
 10
158.7444461278
 20
236.8938010378
 30
0.0
 10
158.7494050936
 20
236.9085206899
 30
0.0
 10
158.7536754282
 20
236.9318230622
 30
0.0
 10
158.7564945632
 20
236.9578944243
 30
0.0
 10
158.7581503799
 20
236.9820807901
 30
0.0
 10
158.758877121
 20
236.9976343068
 30
0.0
 10
158.7592843815
 20
237.0101618336
 30
0.0
 10
158.7595823414
 20
237.0229268131
 30
0.0
 10
158.7597114836
 20
237.0359368027
 30
0.0
 10
158.7596643491
 20
237.0491411122
 30
0.0
 10
158.7595393499
 20
237.0590803357
 30
0.0
 10
158.7593174046
 20
237.0691530094
 30
0.0
 10
158.7591147255
 20
237.0756108123
 30
0.0
 10
158.758988342
 20
237.079067241
 30
0.0
  0
SPLINE
  5
463
100
AcDbEntity
  8
03___PRT_ALL_CURVES
100
AcDbSpline
 62
40
  6
CONTINUOUS
 70
0
 71
3
 72
31
 73
27
 74
0
 42
0.0000001
 43
0.0000001
 44
0.0000000001
 40
0.0
 40
0.0
 40
0.0
 40
0.0
 40
0.0208333333
 40
0.0416666667
 40
0.0625
 40
0.0833333333
 40
0.125
 40
0.1458333333
 40
0.1666666667
 40
0.2083333333
 40
0.25
 40
0.3333333333
 40
0.4166666667
 40
0.5
 40
0.5833333333
 40
0.6666666667
 40
0.75
 40
0.7916666667
 40
0.8333333333
 40
0.8541666667
 40
0.875
 40
0.9166666667
 40
0.9375
 40
0.9583333333
 40
0.9791666667
 40
1.0
 40
1.0
 40
1.0
 40
1.0
 10
158.8579615095
 20
238.3397031
 30
0.0
 10
158.8578795475
 20
238.343222173
 30
0.0
 10
158.8577546833
 20
238.3497795186
 30
0.0
 10
158.8576395268
 20
238.3599656183
 30
0.0
 10
158.8576055035
 20
238.3699723579
 30
0.0
 10
158.8576610461
 20
238.3832105733
 30
0.0
 10
158.857864478
 20
238.3961708505
 30
0.0
 10
158.8582086437
 20
238.4088056084
 30
0.0
 10
158.8586430601
 20
238.4211504942
 30
0.0
 10
158.8593679778
 20
238.4363729708
 30
0.0
 10
158.8609328688
 20
238.4597967632
 30
0.0
 10
158.8634712373
 20
238.4845501293
 30
0.0
 10
158.8671507385
 20
238.5058397481
 30
0.0
 10
158.8712713579
 20
238.5182080059
 30
0.0
 10
158.8755739282
 20
238.5208677929
 30
0.0
 10
158.8797850077
 20
238.5136464563
 30
0.0
 10
158.8830682993
 20
238.4992829368
 30
0.0
 10
158.8854138508
 20
238.4828485655
 30
0.0
 10
158.886674991
 20
238.4711906003
 30
0.0
 10
158.8875611067
 20
238.4612288715
 30
0.0
 10
158.8883793559
 20
238.4506994283
 30
0.0
 10
158.8890873127
 20
238.4394035819
 30
0.0
 10
158.8896781033
 20
238.4273620925
 30
0.0
 10
158.8900588497
 20
238.4180086422
 30
0.0
 10
158.8903769079
 20
238.4082204428
 30
0.0
 10
158.890537923
 20
238.4017519281
 30
0.0
 10
158.8906114818
 20
238.3982298303
 30
0.0
  0
SPLINE
  5
464
100
AcDbEntity
  8
03___PRT_ALL_CURVES
100
AcDbSpline
 62
40
  6
CONTINUOUS
 70
0
 71
3
 72
31
 73
27
 74
0
 42
0.0000001
 43
0.0000001
 44
0.0000000001
 40
0.0
 40
0.0
 40
0.0
 40
0.0
 40
0.0208333333
 40
0.0416666667
 40
0.0625
 40
0.0833333333
 40
0.125
 40
0.1458333333
 40
0.1666666667
 40
0.2083333333
 40
0.25
 40
0.3333333333
 40
0.4166666667
 40
0.5
 40
0.5833333333
 40
0.6666666667
 40
0.75
 40
0.7916666667
 40
0.8333333333
 40
0.8541666667
 40
0.875
 40
0.9166666667
 40
0.9375
 40
0.9583333333
 40
0.9791666667
 40
1.0
 40
1.0
 40
1.0
 40
1.0
 10
158.9119558994
 20
237.3683781454
 30
0.0
 10
158.9120253129
 20
237.3648691465
 30
0.0
 10
158.9121302905
 20
237.3583279081
 30
0.0
 10
158.9122242847
 20
237.3481758752
 30
0.0
 10
158.9122474788
 20
237.338206406
 30
0.0
 10
158.9121902773
 20
237.3250236685
 30
0.0
 10
158.9120039609
 20
237.3121257708
 30
0.0
 10
158.9116943487
 20
237.2995596214
 30
0.0
 10
158.9113054053
 20
237.2872860052
 30
0.0
 10
158.910658823
 20
237.2721656645
 30
0.0
 10
158.9092639585
 20
237.2489236932
 30
0.0
 10
158.9069912445
 20
237.22436592
 30
0.0
 10
158.9036519485
 20
237.2032348227
 30
0.0
 10
158.8998497425
 20
237.1909513102
 30
0.0
 10
158.8958027217
 20
237.1882873471
 30
0.0
 10
158.8917625601
 20
237.1954175395
 30
0.0
 10
158.8885501848
 20
237.2096284764
 30
0.0
 10
158.8862230912
 20
237.2258971899
 30
0.0
 10
158.8849599009
 20
237.2374469006
 30
0.0
 10
158.8840667269
 20
237.2473226159
 30
0.0
 10
158.8832384861
 20
237.2577638935
 30
0.0
 10
158.8825170468
 20
237.2689699426
 30
0.0
 10
158.8819109599
 20
237.2809206658
 30
0.0
 10
158.881518248
 20
237.2902064751
 30
0.0
 10
158.8811879687
 20
237.2999259299
 30
0.0
 10
158.8810191739
 20
237.3063533069
 30
0.0
 10
158.8809415705
 20
237.3098514542
 30
0.0
  0
SPLINE
  5
465
100
AcDbEntity
  8
03___PRT_ALL_CURVES
100
AcDbSpline
 62
40
  6
CONTINUOUS
 70
0
 71
3
 72
31
 73
27
 74
0
 42
0.0000001
 43
0.0000001
 44
0.0000000001
 40
0.0
 40
0.0
 40
0.0
 40
0.0
 40
0.0208333333
 40
0.0416666667
 40
0.0625
 40
0.0833333333
 40
0.125
 40
0.1458333333
 40
0.1666666667
 40
0.2083333333
 40
0.25
 40
0.3333333333
 40
0.4166666667
 40
0.5
 40
0.5833333333
 40
0.6666666667
 40
0.75
 40
0.7916666667
 40
0.8333333333
 40
0.8541666667
 40
0.875
 40
0.9166666667
 40
0.9375
 40
0.9583333333
 40
0.9791666667
 40
1.0
 40
1.0
 40
1.0
 40
1.0
 10
159.0718657378
 20
238.721108225
 30
0.0
 10
159.0718555525
 20
238.7247034939
 30
0.0
 10
159.0718465074
 20
238.7313724767
 30
0.0
 10
159.0718605398
 20
238.7416366996
 30
0.0
 10
159.071902442
 20
238.7516266518
 30
0.0
 10
159.0719934932
 20
238.7647222798
 30
0.0
 10
159.0721352177
 20
238.777364203
 30
0.0
 10
159.0723242773
 20
238.789512326
 30
0.0
 10
159.0725430592
 20
238.8012642505
 30
0.0
 10
159.0728779096
 20
238.8155201452
 30
0.0
 10
159.0735456023
 20
238.8369128669
 30
0.0
 10
159.07454859
 20
238.8584992228
 30
0.0
 10
159.0759052293
 20
238.8753299796
 30
0.0
 10
159.077340065
 20
238.8827700945
 30
0.0
 10
159.0787588966
 20
238.880350772
 30
0.0
 10
159.0800761576
 20
238.8682310194
 30
0.0
 10
159.0810453394
 20
238.8501316533
 30
0.0
 10
159.0817034407
 20
238.8310931234
 30
0.0
 10
159.0820435441
 20
238.8180393994
 30
0.0
 10
159.0822744109
 20
238.8070903465
 30
0.0
 10
159.0824814625
 20
238.7956512978
 30
0.0
 10
159.0826507853
 20
238.7835690186
 30
0.0
 10
159.0827805997
 20
238.7708741997
 30
0.0
 10
159.0828573084
 20
238.7611018287
 30
0.0
 10
159.0829127961
 20
238.7509685389
 30
0.0
 10
159.0829343146
 20
238.7443265979
 30
0.0
 10
159.0829416742
 20
238.740729041
 30
0.0
  0
SPLINE
  5
466
100
AcDbEntity
  8
03___PRT_ALL_CURVES
100
AcDbSpline
 62
40
  6
CONTINUOUS
 70
0
 71
3
 72
27
 73
23
 74
0
 42
0.0000001
 43
0.0000001
 44
0.0000000001
 40
0.0
 40
0.0
 40
0.0
 40
0.0
 40
0.0208333333
 40
0.0416666667
 40
0.0625
 40
0.0833333333
 40
0.125
 40
0.1666666667
 40
0.25
 40
0.3333333333
 40
0.4166666667
 40
0.5
 40
0.5833333333
 40
0.6666666667
 40
0.75
 40
0.8333333333
 40
0.875
 40
0.9166666667
 40
0.9375
 40
0.9583333333
 40
0.9791666667
 40
1.0
 40
1.0
 40
1.0
 40
1.0
 10
159.0851449795
 20
237.6929495719
 30
0.0
 10
159.0851518727
 20
237.6893710138
 30
0.0
 10
159.0851572471
 20
237.682730477
 30
0.0
 10
159.085144485
 20
237.6725177227
 30
0.0
 10
159.0851107496
 20
237.6625795224
 30
0.0
 10
159.0850392573
 20
237.649560979
 30
0.0
 10
159.0849008824
 20
237.6338244082
 30
0.0
 10
159.0845855023
 20
237.6101766897
 30
0.0
 10
159.0839833012
 20
237.5822292334
 30
0.0
 10
159.0829961704
 20
237.5564465822
 30
0.0
 10
159.081833275
 20
237.5397775167
 30
0.0
 10
159.0805335946
 20
237.5323860491
 30
0.0
 10
159.0791716512
 20
237.5347815275
 30
0.0
 10
159.0778341813
 20
237.5467659435
 30
0.0
 10
159.076582208
 20
237.5683683042
 30
0.0
 10
159.0757240672
 20
237.5936059016
 30
0.0
 10
159.0752208156
 20
237.6157409664
 30
0.0
 10
159.0749705947
 20
237.6307635475
 30
0.0
 10
159.0748158422
 20
237.6433693501
 30
0.0
 10
159.0747232921
 20
237.6530791317
 30
0.0
 10
159.074655282
 20
237.6631485653
 30
0.0
 10
159.0746280492
 20
237.6697529245
 30
0.0
 10
159.0746183466
 20
237.6733287691
 30
0.0
  0
SPLINE
  5
467
100
AcDbEntity
  8
7_ALL_FEATURES
100
AcDbSpline
 62
3
  6
CONTINUOUS
 70
0
 71
3
 72
12
 73
8
 74
0
 42
0.0000001
 43
0.0000001
 44
0.0000000001
 40
0.0
 40
0.0
 40
0.0
 40
0.0
 40
0.2828944285
 40
0.5419458986
 40
0.777811368
 40
0.8899203884
 40
1.0
 40
1.0
 40
1.0
 40
1.0
 10
151.3076380605
 20
202.1689155099
 30
0.0
 10
151.2762103267
 20
202.0835364463
 30
0.0
 10
151.1987506155
 20
201.9254045332
 30
0.0
 10
151.0352133479
 20
201.7323281072
 30
0.0
 10
150.8667470167
 20
201.6258017633
 30
0.0
 10
150.7247531134
 20
201.5838351963
 30
0.0
 10
150.6531074421
 20
201.5768389845
 30
0.0
 10
150.6177055479
 20
201.5768389845
 30
0.0
  0
SPLINE
  5
468
100
AcDbEntity
  8
7_ALL_FEATURES
100
AcDbSpline
 62
3
  6
CONTINUOUS
 70
0
 71
3
 72
11
 73
7
 74
0
 42
0.0000001
 43
0.0000001
 44
0.0000000001
 40
0.0
 40
0.0
 40
0.0
 40
0.0
 40
0.2408198638
 40
0.4941501693
 40
0.7505632867
 40
1.0
 40
1.0
 40
1.0
 40
1.0
 10
154.2907163048
 20
215.8758119234
 30
0.0
 10
154.4792013039
 20
215.526457541
 30
0.0
 10
154.7763115184
 20
214.7590932352
 30
0.0
 10
154.9730655954
 20
213.5296004699
 30
0.0
 10
154.9248247357
 20
212.2713445017
 30
0.0
 10
154.7254880236
 20
211.4541166513
 30
0.0
 10
154.583457759
 20
211.0682660173
 30
0.0
  0
SPLINE
  5
469
100
AcDbEntity
  8
7_ALL_FEATURES
100
AcDbSpline
 62
3
  6
CONTINUOUS
 70
0
 71
3
 72
11
 73
7
 74
0
 42
0.0000001
 43
0.0000001
 44
0.0000000001
 40
0.0
 40
0.0
 40
0.0
 40
0.0
 40
0.2408198638
 40
0.4941501693
 40
0.7505632867
 40
1.0
 40
1.0
 40
1.0
 40
1.0
 10
146.5125417118
 20
215.8758119234
 30
0.0
 10
146.7010267109
 20
215.526457541
 30
0.0
 10
146.9981369253
 20
214.7590932352
 30
0.0
 10
147.1948910024
 20
213.5296004699
 30
0.0
 10
147.1466501427
 20
212.2713445017
 30
0.0
 10
146.9473134305
 20
211.4541166513
 30
0.0
 10
146.8052831659
 20
211.0682660173
 30
0.0
  0
SPLINE
  5
46A
100
AcDbEntity
  8
7_ALL_FEATURES
100
AcDbSpline
 62
3
  6
CONTINUOUS
 70
0
 71
3
 72
12
 73
8
 74
0
 42
0.0000001
 43
0.0000001
 44
0.0000000001
 40
0.0
 40
0.0
 40
0.0
 40
0.0
 40
0.2828944285
 40
0.5419458986
 40
0.777811368
 40
0.8899203884
 40
1.0
 40
1.0
 40
1.0
 40
1.0
 10
143.5294634675
 20
202.1689155099
 30
0.0
 10
143.4980357337
 20
202.0835364463
 30
0.0
 10
143.4205760224
 20
201.9254045332
 30
0.0
 10
143.2570387549
 20
201.7323281072
 30
0.0
 10
143.0885724237
 20
201.6258017633
 30
0.0
 10
142.9465785203
 20
201.5838351963
 30
0.0
 10
142.8749328491
 20
201.5768389845
 30
0.0
 10
142.8395309548
 20
201.5768389845
 30
0.0
  0
SPLINE
  5
46B
100
AcDbEntity
  8
7_ALL_FEATURES
100
AcDbSpline
 62
3
  6
CONTINUOUS
 70
0
 71
3
 72
12
 73
8
 74
0
 42
0.0000001
 43
0.0000001
 44
0.0000000001
 40
0.0
 40
0.0
 40
0.0
 40
0.0
 40
0.2828944285
 40
0.5419458986
 40
0.777811368
 40
0.8899203884
 40
1.0
 40
1.0
 40
1.0
 40
1.0
 10
91.8990499261
 20
202.1689155099
 30
0.0
 10
91.9304776599
 20
202.0835364463
 30
0.0
 10
92.0079373712
 20
201.9254045332
 30
0.0
 10
92.1714746387
 20
201.7323281072
 30
0.0
 10
92.3399409699
 20
201.6258017633
 30
0.0
 10
92.4819348733
 20
201.5838351963
 30
0.0
 10
92.5535805445
 20
201.5768389845
 30
0.0
 10
92.5889824388
 20
201.5768389845
 30
0.0
  0
SPLINE
  5
46C
100
AcDbEntity
  8
7_ALL_FEATURES
100
AcDbSpline
 62
3
  6
CONTINUOUS
 70
0
 71
3
 72
11
 73
7
 74
0
 42
0.0000001
 43
0.0000001
 44
0.0000000001
 40
0.0
 40
0.0
 40
0.0
 40
0.0
 40
0.2408198638
 40
0.4941501693
 40
0.7505632867
 40
1.0
 40
1.0
 40
1.0
 40
1.0
 10
88.9159716818
 20
215.8758119234
 30
0.0
 10
88.7274866827
 20
215.526457541
 30
0.0
 10
88.4303764683
 20
214.7590932352
 30
0.0
 10
88.2336223912
 20
213.5296004699
 30
0.0
 10
88.2818632509
 20
212.2713445017
 30
0.0
 10
88.4811999631
 20
211.4541166513
 30
0.0
 10
88.6232302277
 20
211.0682660173
 30
0.0
  0
SPLINE
  5
46D
100
AcDbEntity
  8
7_ALL_FEATURES
100
AcDbSpline
 62
3
  6
CONTINUOUS
 70
0
 71
3
 72
12
 73
8
 74
0
 42
0.0000001
 43
0.0000001
 44
0.0000000001
 40
0.0
 40
0.0
 40
0.0
 40
0.0
 40
0.2828944285
 40
0.5419458986
 40
0.777811368
 40
0.8899203884
 40
1.0
 40
1.0
 40
1.0
 40
1.0
 10
99.6772245192
 20
202.1689155099
 30
0.0
 10
99.708652253
 20
202.0835364463
 30
0.0
 10
99.7861119642
 20
201.9254045332
 30
0.0
 10
99.9496492318
 20
201.7323281072
 30
0.0
 10
100.118115563
 20
201.6258017633
 30
0.0
 10
100.2601094663
 20
201.5838351963
 30
0.0
 10
100.3317551376
 20
201.5768389845
 30
0.0
 10
100.3671570318
 20
201.5768389845
 30
0.0
  0
SPLINE
  5
46E
100
AcDbEntity
  8
7_ALL_FEATURES
100
AcDbSpline
 62
3
  6
CONTINUOUS
 70
0
 71
3
 72
11
 73
7
 74
0
 42
0.0000001
 43
0.0000001
 44
0.0000000001
 40
0.0
 40
0.0
 40
0.0
 40
0.0
 40
0.2408198638
 40
0.4941501693
 40
0.7505632867
 40
1.0
 40
1.0
 40
1.0
 40
1.0
 10
96.6941462749
 20
215.8758119234
 30
0.0
 10
96.5056612758
 20
215.526457541
 30
0.0
 10
96.2085510613
 20
214.7590932352
 30
0.0
 10
96.0117969843
 20
213.5296004699
 30
0.0
 10
96.060037844
 20
212.2713445017
 30
0.0
 10
96.2593745561
 20
211.4541166513
 30
0.0
 10
96.4014048207
 20
211.0682660173
 30
0.0
  0
SPLINE
  5
46F
100
AcDbEntity
  8
7_ALL_FEATURES
100
AcDbSpline
 62
7
  6
CONTINUOUS
 70
0
 71
3
 72
11
 73
7
 74
0
 42
0.0000001
 43
0.0000001
 44
0.0000000001
 40
0.0
 40
0.0
 40
0.0
 40
0.0
 40
0.2831751286
 40
0.5424836409
 40
0.7785831462
 40
1.0
 40
1.0
 40
1.0
 40
1.0
 10
292.0060398235
 20
202.3997898166
 30
0.0
 10
291.9888974233
 20
202.3532194182
 30
0.0
 10
291.9466814217
 20
202.2669645882
 30
0.0
 10
291.8573380609
 20
202.1616544786
 30
0.0
 10
291.7493881885
 20
202.0930932735
 30
0.0
 10
291.6685153584
 20
202.0768389845
 30
0.0
 10
291.6297129985
 20
202.0768389845
 30
0.0
  0
SPLINE
  5
470
100
AcDbEntity
  8
7_ALL_FEATURES
100
AcDbSpline
 62
7
  6
CONTINUOUS
 70
0
 71
3
 72
11
 73
7
 74
0
 42
0.0000001
 43
0.0000001
 44
0.0000000001
 40
0.0
 40
0.0
 40
0.0
 40
0.0
 40
0.2414252117
 40
0.4947937597
 40
0.7509014051
 40
1.0
 40
1.0
 40
1.0
 40
1.0
 10
295.0501894168
 20
215.5186744368
 30
0.0
 10
295.2113678737
 20
215.2092746638
 30
0.0
 10
295.4644097068
 20
214.5330814194
 30
0.0
 10
295.628998154
 20
213.453745601
 30
0.0
 10
295.5818826686
 20
212.3519726746
 30
0.0
 10
295.4062007024
 20
211.6369353947
 30
0.0
 10
295.281859522
 20
211.299140324
 30
0.0
  0
SPLINE
  5
471
100
AcDbEntity
  8
7_ALL_FEATURES
100
AcDbSpline
 62
4
  6
CONTINUOUS
 70
0
 71
3
 72
29
 73
25
 74
0
 42
0.0000001
 43
0.0000001
 44
0.0000000001
 40
0.0
 40
0.0
 40
0.0
 40
0.0
 40
0.125
 40
0.15625
 40
0.1875
 40
0.25
 40
0.3125
 40
0.34375
 40
0.375
 40
0.4375
 40
0.46875
 40
0.5
 40
0.53125
 40
0.5625
 40
0.625
 40
0.65625
 40
0.6875
 40
0.75
 40
0.8125
 40
0.828125
 40
0.84375
 40
0.875
 40
0.9375
 40
1.0
 40
1.0
 40
1.0
 40
1.0
 10
297.0334588908
 20
204.5755755098
 30
0.0
 10
297.0539636621
 20
204.5867169148
 30
0.0
 10
297.0795745243
 20
204.600848717
 30
0.0
 10
297.1103678644
 20
204.6171917416
 30
0.0
 10
297.1307681063
 20
204.629399386
 30
0.0
 10
297.1562152242
 20
204.6451685366
 30
0.0
 10
297.1817065883
 20
204.6606070171
 30
0.0
 10
297.2020360364
 20
204.6733437336
 30
0.0
 10
297.2221420523
 20
204.6873699646
 30
0.0
 10
297.2423244807
 20
204.7009792965
 30
0.0
 10
297.2624452458
 20
204.7148721898
 30
0.0
 10
297.2776443969
 20
204.7248580745
 30
0.0
 10
297.2924400706
 20
204.7364373196
 30
0.0
 10
297.3123152709
 20
204.7512997383
 30
0.0
 10
297.332111613
 20
204.7664348848
 30
0.0
 10
297.3520338034
 20
204.7811842791
 30
0.0
 10
297.3715577448
 20
204.797113045
 30
0.0
 10
297.395813542
 20
204.8173453134
 30
0.0
 10
297.4177350499
 20
204.8356761644
 30
0.0
 10
297.4322718025
 20
204.8475330604
 30
0.0
 10
297.4421292934
 20
204.8563533104
 30
0.0
 10
297.459459691
 20
204.8722323353
 30
0.0
 10
297.484175408
 20
204.8946831894
 30
0.0
 10
297.5039607797
 20
204.9127150246
 30
0.0
 10
297.5138518658
 20
204.9217220483
 30
0.0
  0
SPLINE
  5
472
100
AcDbEntity
  8
7_ALL_FEATURES
100
AcDbSpline
 62
4
  6
CONTINUOUS
 70
0
 71
3
 72
67
 73
63
 74
0
 42
0.0000001
 43
0.0000001
 44
0.0000000001
 40
0.0
 40
0.0
 40
0.0
 40
0.0
 40
0.03125
 40
0.0625
 40
0.09375
 40
0.109375
 40
0.1171875
 40
0.125
 40
0.1328125
 40
0.140625
 40
0.15625
 40
0.1875
 40
0.21875
 40
0.234375
 40
0.2421875
 40
0.25
 40
0.2578125
 40
0.265625
 40
0.28125
 40
0.3125
 40
0.34375
 40
0.359375
 40
0.3671875
 40
0.375
 40
0.3828125
 40
0.390625
 40
0.40625
 40
0.4375
 40
0.46875
 40
0.484375
 40
0.4921875
 40
0.5
 40
0.5078125
 40
0.515625
 40
0.53125
 40
0.5625
 40
0.59375
 40
0.609375
 40
0.6171875
 40
0.625
 40
0.6328125
 40
0.640625
 40
0.65625
 40
0.6875
 40
0.71875
 40
0.734375
 40
0.7421875
 40
0.75
 40
0.7578125
 40
0.765625
 40
0.78125
 40
0.8125
 40
0.84375
 40
0.859375
 40
0.8671875
 40
0.875
 40
0.8828125
 40
0.890625
 40
0.90625
 40
0.9375
 40
0.96875
 40
1.0
 40
1.0
 40
1.0
 40
1.0
 10
297.5837414111
 20
206.906833521
 30
0.0
 10
297.5772959295
 20
206.9025968183
 30
0.0
 10
297.5644056397
 20
206.8941204469
 30
0.0
 10
297.5450661646
 20
206.8814236856
 30
0.0
 10
297.5289617195
 20
206.8707911466
 30
0.0
 10
297.5176656289
 20
206.8634495831
 30
0.0
 10
297.5112465774
 20
206.8590964661
 30
0.0
 10
297.506331282
 20
206.8562765239
 30
0.0
 10
297.5018020853
 20
206.8517559681
 30
0.0
 10
297.495628393
 20
206.8463218807
 30
0.0
 10
297.4848881016
 20
206.8365345128
 30
0.0
 10
297.4695044466
 20
206.8227080219
 30
0.0
 10
297.4541610414
 20
206.8087886586
 30
0.0
 10
297.4433644003
 20
206.799131312
 30
0.0
 10
297.4372792575
 20
206.7934929053
 30
0.0
 10
297.4324783749
 20
206.7895992384
 30
0.0
 10
297.4285834111
 20
206.7844249805
 30
0.0
 10
297.4230740097
 20
206.7779727414
 30
0.0
 10
297.4135810634
 20
206.766472291
 30
0.0
 10
297.3999322384
 20
206.7501593865
 30
0.0
 10
297.3863504368
 20
206.7337793964
 30
0.0
 10
297.3767636578
 20
206.7223728659
 30
0.0
 10
297.3714017077
 20
206.7157730384
 30
0.0
 10
297.3670543365
 20
206.7110516087
 30
0.0
 10
297.3639524951
 20
206.7054573204
 30
0.0
 10
297.3593821024
 20
206.6983027751
 30
0.0
 10
297.3515879047
 20
206.6856400163
 30
0.0
 10
297.3403346202
 20
206.6676282179
 30
0.0
 10
297.3291676496
 20
206.6495760474
 30
0.0
 10
297.3212526125
 20
206.6369698095
 30
0.0
 10
297.3168721103
 20
206.6297264456
 30
0.0
 10
297.3131876503
 20
206.6244046689
 30
0.0
 10
297.3110283354
 20
206.6186598072
 30
0.0
 10
297.3076170913
 20
206.611147565
 30
0.0
 10
297.3018970612
 20
206.5979324182
 30
0.0
 10
297.2935813483
 20
206.5790892907
 30
0.0
 10
297.2853670823
 20
206.5602344493
 30
0.0
 10
297.2795050266
 20
206.547035702
 30
0.0
 10
297.2763169656
 20
206.5394976891
 30
0.0
 10
297.2734728843
 20
206.5338318966
 30
0.0
 10
297.2723601025
 20
206.5282131712
 30
0.0
 10
297.2702723146
 20
206.5207050703
 30
0.0
 10
297.2669019658
 20
206.5075740625
 30
0.0
 10
297.2619243631
 20
206.488807213
 30
0.0
 10
297.257058454
 20
206.4700578719
 30
0.0
 10
297.2535317341
 20
206.4569023525
 30
0.0
 10
297.251689672
 20
206.4494327699
 30
0.0
 10
297.2498229587
 20
206.4436958633
 30
0.0
 10
297.2498103093
 20
206.4384739068
 30
0.0
 10
297.2491465368
 20
206.4313315937
 30
0.0
 10
297.24828823
 20
206.4189171176
 30
0.0
 10
297.2468883055
 20
206.4011311418
 30
0.0
 10
297.2456057637
 20
206.3833881165
 30
0.0
 10
297.2445831211
 20
206.3709135098
 30
0.0
 10
297.2441775905
 20
206.3638656875
 30
0.0
 10
297.2433726078
 20
206.358353816
 30
0.0
 10
297.244481546
 20
206.3537057016
 30
0.0
 10
297.2452925319
 20
206.347206927
 30
0.0
 10
297.2470228163
 20
206.3359744531
 30
0.0
 10
297.2493319241
 20
206.3198546227
 30
0.0
 10
297.2521729513
 20
206.3005424616
 30
0.0
 10
297.2540536175
 20
206.2876616618
 30
0.0
 10
297.2549956196
 20
206.2812220151
 30
0.0
  0
SPLINE
  5
473
100
AcDbEntity
  8
7_ALL_FEATURES
100
AcDbSpline
 62
4
  6
CONTINUOUS
 70
0
 71
3
 72
50
 73
46
 74
0
 42
0.0000001
 43
0.0000001
 44
0.0000000001
 40
0.0
 40
0.0
 40
0.0
 40
0.0
 40
0.0625
 40
0.125
 40
0.140625
 40
0.15625
 40
0.1640625
 40
0.171875
 40
0.1875
 40
0.21875
 40
0.25
 40
0.28125
 40
0.3125
 40
0.328125
 40
0.3359375
 40
0.34375
 40
0.359375
 40
0.375
 40
0.4375
 40
0.46875
 40
0.484375
 40
0.4921875
 40
0.5
 40
0.5078125
 40
0.515625
 40
0.53125
 40
0.5625
 40
0.625
 40
0.640625
 40
0.65625
 40
0.6640625
 40
0.671875
 40
0.6875
 40
0.71875
 40
0.75
 40
0.78125
 40
0.8125
 40
0.828125
 40
0.8359375
 40
0.84375
 40
0.859375
 40
0.875
 40
0.90625
 40
0.9375
 40
1.0
 40
1.0
 40
1.0
 40
1.0
 10
296.9056950085
 20
205.5667256708
 30
0.0
 10
296.892982279
 20
205.5557873626
 30
0.0
 10
296.8675493574
 20
205.5339228474
 30
0.0
 10
296.8389709022
 20
205.5092708127
 30
0.0
 10
296.8198696255
 20
205.4929155366
 30
0.0
 10
296.811983054
 20
205.4859836084
 30
0.0
 10
296.805505189
 20
205.4807114761
 30
0.0
 10
296.7996439201
 20
205.4744394867
 30
0.0
 10
296.7896733988
 20
205.4629986916
 30
0.0
 10
296.7752786347
 20
205.4468991038
 30
0.0
 10
296.7580751837
 20
205.4274688847
 30
0.0
 10
296.7408325287
 20
205.4080904723
 30
0.0
 10
296.7265357745
 20
205.3918613677
 30
0.0
 10
296.7163937358
 20
205.380647227
 30
0.0
 10
296.7108068947
 20
205.3740125905
 30
0.0
 10
296.7060054432
 20
205.3665252059
 30
0.0
 10
296.6997349267
 20
205.3574575375
 30
0.0
 10
296.6849090588
 20
205.3354543793
 30
0.0
 10
296.6675140949
 20
205.3098715761
 30
0.0
 10
296.6502180349
 20
205.2842367885
 30
0.0
 10
296.64148052
 20
205.2714448424
 30
0.0
 10
296.6366269278
 20
205.2640989606
 30
0.0
 10
296.6325944803
 20
205.2586908735
 30
0.0
 10
296.6300614097
 20
205.2528955885
 30
0.0
 10
296.6261609531
 20
205.2453036035
 30
0.0
 10
296.6195791409
 20
205.2319546762
 30
0.0
 10
296.6062335784
 20
205.2053031896
 30
0.0
 10
296.5930036973
 20
205.1786253089
 30
0.0
 10
296.5815458662
 20
205.1557819927
 30
0.0
 10
296.5769132386
 20
205.1462374485
 30
0.0
 10
296.5728794051
 20
205.1386630593
 30
0.0
 10
296.5700433221
 20
205.1308648818
 30
0.0
 10
296.5656370313
 20
205.117114148
 30
0.0
 10
296.5590489464
 20
205.0975241348
 30
0.0
 10
296.5512786762
 20
205.0739949751
 30
0.0
 10
296.5434360935
 20
205.0504641631
 30
0.0
 10
296.5370287897
 20
205.0308782806
 30
0.0
 10
296.5323061321
 20
205.0171203181
 30
0.0
 10
296.5299762359
 20
205.0093337066
 30
0.0
 10
296.5290347572
 20
205.0018299982
 30
0.0
 10
296.5273825163
 20
204.9923534971
 30
0.0
 10
296.5250046079
 20
204.9772452294
 30
0.0
 10
296.5219412152
 20
204.9583413512
 30
0.0
 10
296.5170908787
 20
204.9281055565
 30
0.0
 10
296.5134416306
 20
204.9054263681
 30
0.0
 10
296.5110113532
 20
204.8903074298
 30
0.0
  0
SPLINE
  5
474
100
AcDbEntity
  8
7_ALL_FEATURES
100
AcDbSpline
 62
4
  6
CONTINUOUS
 70
0
 71
3
 72
46
 73
42
 74
0
 42
0.0000001
 43
0.0000001
 44
0.0000000001
 40
0.0
 40
0.0
 40
0.0
 40
0.0
 40
0.0625
 40
0.125
 40
0.140625
 40
0.15625
 40
0.1640625
 40
0.171875
 40
0.1875
 40
0.21875
 40
0.25
 40
0.28125
 40
0.3125
 40
0.328125
 40
0.3359375
 40
0.34375
 40
0.359375
 40
0.375
 40
0.4375
 40
0.46875
 40
0.484375
 40
0.5
 40
0.515625
 40
0.53125
 40
0.5625
 40
0.625
 40
0.640625
 40
0.65625
 40
0.6640625
 40
0.671875
 40
0.6875
 40
0.71875
 40
0.75
 40
0.78125
 40
0.8125
 40
0.828125
 40
0.84375
 40
0.859375
 40
0.875
 40
0.9375
 40
1.0
 40
1.0
 40
1.0
 40
1.0
 10
297.988026168
 20
206.906833521
 30
0.0
 10
297.9816880306
 20
206.9112249955
 30
0.0
 10
297.9690183396
 20
206.9200181768
 30
0.0
 10
297.95473531
 20
206.92986446
 30
0.0
 10
297.9452564967
 20
206.9364957989
 30
0.0
 10
297.9412432103
 20
206.9391597305
 30
0.0
 10
297.9381813345
 20
206.9415220638
 30
0.0
 10
297.9345754701
 20
206.943038946
 30
0.0
 10
297.9280123023
 20
206.9453004216
 30
0.0
 10
297.9187694448
 20
206.9487380364
 30
0.0
 10
297.9076172216
 20
206.9527683264
 30
0.0
 10
297.8964952206
 20
206.9568469112
 30
0.0
 10
297.8871768075
 20
206.9601637888
 30
0.0
 10
297.880745862
 20
206.9626365547
 30
0.0
 10
297.8769284419
 20
206.9638153725
 30
0.0
 10
297.8725743131
 20
206.9641127799
 30
0.0
 10
297.8673149877
 20
206.9647853448
 30
0.0
 10
297.8545427108
 20
206.9661559978
 30
0.0
 10
297.8396793744
 20
206.9677884381
 30
0.0
 10
297.8248342369
 20
206.9695339081
 30
0.0
 10
297.8162942838
 20
206.970314689
 30
0.0
 10
297.8100551713
 20
206.9715178721
 30
0.0
 10
297.803181158
 20
206.9703589808
 30
0.0
 10
297.7942370957
 20
206.9696372297
 30
0.0
 10
297.7784836083
 20
206.9679953348
 30
0.0
 10
297.7627575077
 20
206.9664648999
 30
0.0
 10
297.74929172
 20
206.9651848489
 30
0.0
 10
297.7436450553
 20
206.9645455009
 30
0.0
 10
297.7392125584
 20
206.9642852316
 30
0.0
 10
297.7344694579
 20
206.9631049207
 30
0.0
 10
297.7260246572
 20
206.9606112625
 30
0.0
 10
297.7140363096
 20
206.9572765015
 30
0.0
 10
297.699617156
 20
206.9531608167
 30
0.0
 10
297.6852095027
 20
206.949136846
 30
0.0
 10
297.6731924046
 20
206.9455727998
 30
0.0
 10
297.6635987047
 20
206.9431814752
 30
0.0
 10
297.6563499261
 20
206.940134687
 30
0.0
 10
297.6490861882
 20
206.9367368631
 30
0.0
 10
297.6345664093
 20
206.9301218313
 30
0.0
 10
297.6127834822
 20
206.920122813
 30
0.0
 10
297.5934222045
 20
206.9112658705
 30
0.0
 10
297.5837414002
 20
206.9068335151
 30
0.0
  0
SPLINE
  5
475
100
AcDbEntity
  8
7_ALL_FEATURES
100
AcDbSpline
 62
4
  6
CONTINUOUS
 70
0
 71
3
 72
63
 73
59
 74
0
 42
0.0000001
 43
0.0000001
 44
0.0000000001
 40
0.0
 40
0.0
 40
0.0
 40
0.0
 40
0.0625
 40
0.09375
 40
0.1015625
 40
0.109375
 40
0.125
 40
0.140625
 40
0.15625
 40
0.1875
 40
0.203125
 40
0.21875
 40
0.234375
 40
0.25
 40
0.28125
 40
0.3125
 40
0.328125
 40
0.3359375
 40
0.34375
 40
0.359375
 40
0.375
 40
0.40625
 40
0.421875
 40
0.4375
 40
0.46875
 40
0.5
 40
0.53125
 40
0.546875
 40
0.5546875
 40
0.5625
 40
0.578125
 40
0.59375
 40
0.609375
 40
0.625
 40
0.640625
 40
0.65625
 40
0.6640625
 40
0.671875
 40
0.6796875
 40
0.6875
 40
0.71875
 40
0.75
 40
0.765625
 40
0.78125
 40
0.7890625
 40
0.796875
 40
0.8125
 40
0.828125
 40
0.84375
 40
0.859375
 40
0.875
 40
0.8828125
 40
0.890625
 40
0.8984375
 40
0.90625
 40
0.921875
 40
0.9375
 40
1.0
 40
1.0
 40
1.0
 40
1.0
 10
297.7873841035
 20
206.2221655659
 30
0.0
 10
297.8011607943
 20
206.234104313
 30
0.0
 10
297.8218020192
 20
206.2520497472
 30
0.0
 10
297.8442407328
 20
206.271369365
 30
0.0
 10
297.854522652
 20
206.2804027169
 30
0.0
 10
297.8615598178
 20
206.2861388801
 30
0.0
 10
297.8690243324
 20
206.295396316
 30
0.0
 10
297.8783619809
 20
206.3059105798
 30
0.0
 10
297.8906692138
 20
206.3201475108
 30
0.0
 10
297.9030737755
 20
206.3342662848
 30
0.0
 10
297.9152935746
 20
206.3485760953
 30
0.0
 10
297.9249153829
 20
206.3588535006
 30
0.0
 10
297.9328017364
 20
206.370855198
 30
0.0
 10
297.9432680655
 20
206.3869023897
 30
0.0
 10
297.9563974898
 20
206.4069393368
 30
0.0
 10
297.9694018733
 20
206.4270082931
 30
0.0
 10
297.9787349685
 20
206.441004773
 30
0.0
 10
297.9837113464
 20
206.4490819407
 30
0.0
 10
297.987343837
 20
206.4574569558
 30
0.0
 10
297.9923463716
 20
206.467823525
 30
0.0
 10
298.0000819048
 20
206.4844684183
 30
0.0
 10
298.0079504229
 20
206.5010900557
 30
0.0
 10
298.0156213781
 20
206.5177376737
 30
0.0
 10
298.0239052713
 20
206.5343123773
 30
0.0
 10
298.0299100566
 20
206.5555451393
 30
0.0
 10
298.0374167732
 20
206.5809610583
 30
0.0
 10
298.0437882768
 20
206.6022131961
 30
0.0
 10
298.0478732496
 20
206.616965797
 30
0.0
 10
298.0508157416
 20
206.6255865855
 30
0.0
 10
298.0514682338
 20
206.6334916491
 30
0.0
 10
298.0527040086
 20
206.643504354
 30
0.0
 10
298.0540057156
 20
206.6554627704
 30
0.0
 10
298.0553600583
 20
206.6674383038
 30
0.0
 10
298.056685081
 20
206.679402199
 30
0.0
 10
298.0580747481
 20
206.6913955299
 30
0.0
 10
298.0590417559
 20
206.7013015519
 30
0.0
 10
298.0602415553
 20
206.7094238607
 30
0.0
 10
298.0599774544
 20
206.7149761708
 30
0.0
 10
298.0593871919
 20
206.7203773104
 30
0.0
 10
298.0583749933
 20
206.7312576863
 30
0.0
 10
298.0567780118
 20
206.7475405762
 30
0.0
 10
298.0550727488
 20
206.7656699548
 30
0.0
 10
298.0536264813
 20
206.7801241744
 30
0.0
 10
298.0528931265
 20
206.7892626306
 30
0.0
 10
298.050311834
 20
206.795349116
 30
0.0
 10
298.0480789184
 20
206.8016494342
 30
0.0
 10
298.0451682075
 20
206.8094514349
 30
0.0
 10
298.0417267078
 20
206.8188453927
 30
0.0
 10
298.0382711008
 20
206.8282305581
 30
0.0
 10
298.0348205698
 20
206.8376193361
 30
0.0
 10
298.0319399633
 20
206.8454386028
 30
0.0
 10
298.0296453337
 20
206.8517035257
 30
0.0
 10
298.0278978929
 20
206.8563765182
 30
0.0
 10
298.0247774905
 20
206.859715996
 30
0.0
 10
298.0210964681
 20
206.8646343701
 30
0.0
 10
298.0163312386
 20
206.8706230967
 30
0.0
 10
298.0050300799
 20
206.8851275428
 30
0.0
 10
297.9955771893
 20
206.8971803358
 30
0.0
 10
297.9880261594
 20
206.9068335288
 30
0.0
  0
SPLINE
  5
476
100
AcDbEntity
  8
7_ALL_FEATURES
100
AcDbSpline
 62
4
  6
CONTINUOUS
 70
0
 71
3
 72
81
 73
77
 74
0
 42
0.0000001
 43
0.0000001
 44
0.0000000001
 40
0.0
 40
0.0
 40
0.0
 40
0.0
 40
0.03125
 40
0.0625
 40
0.078125
 40
0.09375
 40
0.109375
 40
0.1171875
 40
0.125
 40
0.1328125
 40
0.140625
 40
0.15625
 40
0.1875
 40
0.21875
 40
0.234375
 40
0.2421875
 40
0.24609375
 40
0.25
 40
0.25390625
 40
0.2578125
 40
0.265625
 40
0.28125
 40
0.3125
 40
0.34375
 40
0.359375
 40
0.3671875
 40
0.37109375
 40
0.375
 40
0.37890625
 40
0.3828125
 40
0.390625
 40
0.40625
 40
0.4375
 40
0.46875
 40
0.484375
 40
0.4921875
 40
0.49609375
 40
0.5
 40
0.50390625
 40
0.5078125
 40
0.515625
 40
0.53125
 40
0.5625
 40
0.59375
 40
0.609375
 40
0.6171875
 40
0.62109375
 40
0.625
 40
0.62890625
 40
0.6328125
 40
0.640625
 40
0.65625
 40
0.6875
 40
0.71875
 40
0.734375
 40
0.7421875
 40
0.74609375
 40
0.75
 40
0.75390625
 40
0.7578125
 40
0.765625
 40
0.78125
 40
0.8125
 40
0.84375
 40
0.859375
 40
0.8671875
 40
0.87109375
 40
0.875
 40
0.87890625
 40
0.8828125
 40
0.890625
 40
0.90625
 40
0.921875
 40
0.9375
 40
0.96875
 40
1.0
 40
1.0
 40
1.0
 40
1.0
 10
296.5110113538
 20
204.8903074378
 30
0.0
 10
296.5112643816
 20
204.8814274857
 30
0.0
 10
296.5117693235
 20
204.8636669888
 30
0.0
 10
296.5124060699
 20
204.8414693305
 30
0.0
 10
296.512903772
 20
204.8237049819
 30
0.0
 10
296.5133087922
 20
204.8103986085
 30
0.0
 10
296.5135453699
 20
204.7992562631
 30
0.0
 10
296.5139610143
 20
204.7904628249
 30
0.0
 10
296.5136541642
 20
204.7835386525
 30
0.0
 10
296.5157084566
 20
204.7778706359
 30
0.0
 10
296.5176239906
 20
204.7698751807
 30
0.0
 10
296.5213591622
 20
204.7560866358
 30
0.0
 10
296.5265005853
 20
204.736287288
 30
0.0
 10
296.5316906546
 20
204.7165060239
 30
0.0
 10
296.5353577215
 20
204.7026921618
 30
0.0
 10
296.5371274577
 20
204.6957309497
 30
0.0
 10
296.5382432424
 20
204.6918414499
 30
0.0
 10
296.5387847881
 20
204.6886748268
 30
0.0
 10
296.5404552519
 20
204.6864620287
 30
0.0
 10
296.5422887869
 20
204.6831789494
 30
0.0
 10
296.5456806351
 20
204.6775883319
 30
0.0
 10
296.5523335753
 20
204.666296422
 30
0.0
 10
296.5619119044
 20
204.6502293568
 30
0.0
 10
296.5714427776
 20
204.634116162
 30
0.0
 10
296.5781621561
 20
204.6228888336
 30
0.0
 10
296.5814626516
 20
204.6172094165
 30
0.0
 10
296.5834433001
 20
204.6140693391
 30
0.0
 10
296.5846617458
 20
204.6114171561
 30
0.0
 10
296.5869010288
 20
204.6099008212
 30
0.0
 10
296.5895306868
 20
204.6074828727
 30
0.0
 10
296.5942982111
 20
204.6034357646
 30
0.0
 10
296.6037150616
 20
204.595209814
 30
0.0
 10
296.6172344149
 20
204.5835344542
 30
0.0
 10
296.630712069
 20
204.5718060243
 30
0.0
 10
296.6401872984
 20
204.5636543719
 30
0.0
 10
296.6448745518
 20
204.5595051038
 30
0.0
 10
296.6476334772
 20
204.5572516726
 30
0.0
 10
296.6494755756
 20
204.5552298453
 30
0.0
 10
296.6521858092
 20
204.554476244
 30
0.0
 10
296.6554966618
 20
204.5530291026
 30
0.0
 10
296.6614314982
 20
204.5507023817
 30
0.0
 10
296.6732006978
 20
204.5459019041
 30
0.0
 10
296.6900702145
 20
204.5391285188
 30
0.0
 10
296.7069056114
 20
204.5322974425
 30
0.0
 10
296.7187225787
 20
204.5275777324
 30
0.0
 10
296.7245917345
 20
204.5251399563
 30
0.0
 10
296.7280083585
 20
204.523871657
 30
0.0
 10
296.7303936011
 20
204.5225685489
 30
0.0
 10
296.733456335
 20
204.5226106173
 30
0.0
 10
296.7373036822
 20
204.5221975299
 30
0.0
 10
296.7441464499
 20
204.5216928851
 30
0.0
 10
296.757753628
 20
204.5205276845
 30
0.0
 10
296.7772360293
 20
204.5189523032
 30
0.0
 10
296.7966933813
 20
204.5173171313
 30
0.0
 10
296.8103356284
 20
204.5162356374
 30
0.0
 10
296.8171301763
 20
204.5156158958
 30
0.0
 10
296.8210551761
 20
204.5153881591
 30
0.0
 10
296.8238793162
 20
204.5148607224
 30
0.0
 10
296.8271606944
 20
204.5156966219
 30
0.0
 10
296.8313763882
 20
204.5163356422
 30
0.0
 10
296.8388280301
 20
204.5176751314
 30
0.0
 10
296.8536784338
 20
204.520196105
 30
0.0
 10
296.8749226816
 20
204.5238878009
 30
0.0
 10
296.8961501119
 20
204.5275192385
 30
0.0
 10
296.9110240602
 20
204.5301245736
 30
0.0
 10
296.9184433282
 20
204.5313480658
 30
0.0
 10
296.9227111565
 20
204.5321738865
 30
0.0
 10
296.925832347
 20
204.5324358267
 30
0.0
 10
296.9292581372
 20
204.534064127
 30
0.0
 10
296.9337196097
 20
204.5357585924
 30
0.0
 10
296.9415766894
 20
204.5389459644
 30
0.0
 10
296.9527752082
 20
204.5433832585
 30
0.0
 10
296.9662245089
 20
204.548757705
 30
0.0
 10
296.9841530389
 20
204.5559062694
 30
0.0
 10
297.0065650383
 20
204.5648479725
 30
0.0
 10
297.0244942304
 20
204.5719995071
 30
0.0
 10
297.0334588774
 20
204.5755755029
 30
0.0
  0
SPLINE
  5
477
100
AcDbEntity
  8
7_ALL_FEATURES
100
AcDbSpline
 62
7
  6
CONTINUOUS
 70
0
 71
3
 72
11
 73
7
 74
0
 42
0.0000001
 43
0.0000001
 44
0.0000000001
 40
0.0
 40
0.0
 40
0.0
 40
0.0
 40
0.2831751286
 40
0.5424836409
 40
0.7785831462
 40
1.0
 40
1.0
 40
1.0
 40
1.0
 10
248.7810122504
 20
202.3997898166
 30
0.0
 10
248.7981546506
 20
202.3532194182
 30
0.0
 10
248.8403706522
 20
202.2669645882
 30
0.0
 10
248.929714013
 20
202.1616544786
 30
0.0
 10
249.0376638854
 20
202.0930932735
 30
0.0
 10
249.1185367155
 20
202.0768389845
 30
0.0
 10
249.1573390755
 20
202.0768389845
 30
0.0
  0
SPLINE
  5
478
100
AcDbEntity
  8
7_ALL_FEATURES
100
AcDbSpline
 62
7
  6
CONTINUOUS
 70
0
 71
3
 72
11
 73
7
 74
0
 42
0.0000001
 43
0.0000001
 44
0.0000000001
 40
0.0
 40
0.0
 40
0.0
 40
0.0
 40
0.2414252117
 40
0.4947937597
 40
0.7509014051
 40
1.0
 40
1.0
 40
1.0
 40
1.0
 10
245.7368626571
 20
215.5186744368
 30
0.0
 10
245.5756842003
 20
215.2092746638
 30
0.0
 10
245.3226423671
 20
214.5330814194
 30
0.0
 10
245.1580539199
 20
213.453745601
 30
0.0
 10
245.2051694053
 20
212.3519726746
 30
0.0
 10
245.3808513715
 20
211.6369353947
 30
0.0
 10
245.5051925519
 20
211.299140324
 30
0.0
  0
SPLINE
  5
479
100
AcDbEntity
  8
7_ALL_FEATURES
100
AcDbSpline
 62
4
  6
CONTINUOUS
 70
0
 71
3
 72
74
 73
70
 74
0
 42
0.0000001
 43
0.0000001
 44
0.0000000001
 40
0.0
 40
0.0
 40
0.0
 40
0.0
 40
0.03125
 40
0.0625
 40
0.09375
 40
0.109375
 40
0.1171875
 40
0.125
 40
0.1328125
 40
0.140625
 40
0.15625
 40
0.1875
 40
0.21875
 40
0.234375
 40
0.2421875
 40
0.25
 40
0.2578125
 40
0.265625
 40
0.28125
 40
0.3125
 40
0.34375
 40
0.359375
 40
0.3671875
 40
0.375
 40
0.3828125
 40
0.390625
 40
0.40625
 40
0.4375
 40
0.46875
 40
0.484375
 40
0.4921875
 40
0.5
 40
0.5078125
 40
0.515625
 40
0.53125
 40
0.5625
 40
0.59375
 40
0.609375
 40
0.6171875
 40
0.62109375
 40
0.625
 40
0.62890625
 40
0.6328125
 40
0.640625
 40
0.65625
 40
0.6875
 40
0.71875
 40
0.734375
 40
0.7421875
 40
0.74609375
 40
0.75
 40
0.75390625
 40
0.7578125
 40
0.765625
 40
0.78125
 40
0.8125
 40
0.84375
 40
0.859375
 40
0.8671875
 40
0.87109375
 40
0.875
 40
0.87890625
 40
0.8828125
 40
0.890625
 40
0.90625
 40
0.921875
 40
0.9375
 40
0.96875
 40
1.0
 40
1.0
 40
1.0
 40
1.0
 10
242.8771281711
 20
204.8903074378
 30
0.0
 10
242.8839185574
 20
204.8814274857
 30
0.0
 10
242.8975018349
 20
204.863669772
 30
0.0
 10
242.9178617219
 20
204.8370200575
 30
0.0
 10
242.9348721299
 20
204.8148502987
 30
0.0
 10
242.9466939363
 20
204.7992567111
 30
0.0
 10
242.9535826393
 20
204.7904627426
 30
0.0
 10
242.9583734339
 20
204.7835386663
 30
0.0
 10
242.9646004666
 20
204.7778706632
 30
0.0
 10
242.9724021154
 20
204.7698750073
 30
0.0
 10
242.9862893129
 20
204.7560886979
 30
0.0
 10
243.0059987565
 20
204.7362711924
 30
0.0
 10
243.0257795313
 20
204.7165522485
 30
0.0
 10
243.0395668652
 20
204.7026279529
 30
0.0
 10
243.0475254426
 20
204.6948491324
 30
0.0
 10
243.0532709898
 20
204.6885158389
 30
0.0
 10
243.0598700296
 20
204.6840902978
 30
0.0
 10
243.0683710039
 20
204.6775239082
 30
0.0
 10
243.0833868115
 20
204.6663451084
 30
0.0
 10
243.1047622027
 20
204.6501940899
 30
0.0
 10
243.1261756867
 20
204.6341732761
 30
0.0
 10
243.1411381643
 20
204.6228121898
 30
0.0
 10
243.1497229428
 20
204.6165322504
 30
0.0
 10
243.156064856
 20
204.6112278282
 30
0.0
 10
243.1627760564
 20
204.6081952216
 30
0.0
 10
243.1715955237
 20
204.6033590624
 30
0.0
 10
243.1870894854
 20
204.5952676088
 30
0.0
 10
243.2091933398
 20
204.5834938818
 30
0.0
 10
243.2313046164
 20
204.5718699469
 30
0.0
 10
243.2467881871
 20
204.5635687843
 30
0.0
 10
243.2556239831
 20
204.5590621677
 30
0.0
 10
243.2622850842
 20
204.5550184646
 30
0.0
 10
243.268815148
 20
204.5535112716
 30
0.0
 10
243.2775675862
 20
204.5506170026
 30
0.0
 10
243.2928632766
 20
204.5459633697
 30
0.0
 10
243.3147235937
 20
204.5391071133
 30
0.0
 10
243.3365867329
 20
204.5323001936
 30
0.0
 10
243.3518784724
 20
204.5275774893
 30
0.0
 10
243.3595422883
 20
204.5251399771
 30
0.0
 10
243.3638926266
 20
204.5238716531
 30
0.0
 10
243.3672372079
 20
204.52256855
 30
0.0
 10
243.3702689715
 20
204.5226106171
 30
0.0
 10
243.3744204307
 20
204.52219753
 30
0.0
 10
243.3816347143
 20
204.521692885
 30
0.0
 10
243.396099705
 20
204.5205276846
 30
0.0
 10
243.4167418909
 20
204.5189523031
 30
0.0
 10
243.437403045
 20
204.5173171313
 30
0.0
 10
243.4518414803
 20
204.5162356374
 30
0.0
 10
243.4590922777
 20
204.5156158958
 30
0.0
 10
243.4631849355
 20
204.5153881591
 30
0.0
 10
243.4663973709
 20
204.5148607224
 30
0.0
 10
243.4690633658
 20
204.5156966219
 30
0.0
 10
243.4728086173
 20
204.5163356422
 30
0.0
 10
243.4792741367
 20
204.5176751314
 30
0.0
 10
243.4922686172
 20
204.520196105
 30
0.0
 10
243.5107950645
 20
204.5238878009
 30
0.0
 10
243.5293490558
 20
204.5275192385
 30
0.0
 10
243.5423049747
 20
204.5301245736
 30
0.0
 10
243.5488235164
 20
204.5313480658
 30
0.0
 10
243.5524833813
 20
204.5321738865
 30
0.0
 10
243.5554117333
 20
204.5324358267
 30
0.0
 10
243.5576387802
 20
204.534064127
 30
0.0
 10
243.5608527992
 20
204.5357585924
 30
0.0
 10
243.5663633579
 20
204.5389459644
 30
0.0
 10
243.574295172
 20
204.5433832585
 30
0.0
 10
243.5837878429
 20
204.548757705
 30
0.0
 10
243.5964536499
 20
204.5559062694
 30
0.0
 10
243.6122828303
 20
204.5648479725
 30
0.0
 10
243.6249471128
 20
204.5719995071
 30
0.0
 10
243.6312791367
 20
204.5755755029
 30
0.0
  0
SPLINE
  5
47A
100
AcDbEntity
  8
7_ALL_FEATURES
100
AcDbSpline
 62
4
  6
CONTINUOUS
 70
0
 71
3
 72
30
 73
26
 74
0
 42
0.0000001
 43
0.0000001
 44
0.0000000001
 40
0.0
 40
0.0
 40
0.0
 40
0.0
 40
0.0625
 40
0.125
 40
0.15625
 40
0.1875
 40
0.25
 40
0.3125
 40
0.34375
 40
0.375
 40
0.4375
 40
0.46875
 40
0.5
 40
0.53125
 40
0.5625
 40
0.625
 40
0.65625
 40
0.6875
 40
0.75
 40
0.8125
 40
0.828125
 40
0.84375
 40
0.875
 40
0.9375
 40
1.0
 40
1.0
 40
1.0
 40
1.0
 10
243.6312791451
 20
204.5755755098
 30
0.0
 10
243.6374304186
 20
204.5811462123
 30
0.0
 10
243.6497622446
 20
204.5922525203
 30
0.0
 10
243.6650306325
 20
204.6063108902
 30
0.0
 10
243.6775527715
 20
204.6171890677
 30
0.0
 10
243.6889623115
 20
204.6294009312
 30
0.0
 10
243.7028020287
 20
204.6451679993
 30
0.0
 10
243.716927188
 20
204.6606070836
 30
0.0
 10
243.7278800206
 20
204.6733437213
 30
0.0
 10
243.7376600074
 20
204.6873699718
 30
0.0
 10
243.7478233481
 20
204.7009792953
 30
0.0
 10
243.7577162615
 20
204.71487219
 30
0.0
 10
243.7655638746
 20
204.7248580745
 30
0.0
 10
243.7718349892
 20
204.7364373196
 30
0.0
 10
243.7807685812
 20
204.7512997383
 30
0.0
 10
243.7894225346
 20
204.7664348848
 30
0.0
 10
243.7984863245
 20
204.7811842791
 30
0.0
 10
243.8062836202
 20
204.797113045
 30
0.0
 10
243.8156445633
 20
204.8173453134
 30
0.0
 10
243.8240710274
 20
204.8356761644
 30
0.0
 10
243.8298788163
 20
204.8475330604
 30
0.0
 10
243.833242901
 20
204.8563533104
 30
0.0
 10
243.838883272
 20
204.8722323353
 30
0.0
 10
243.8470708277
 20
204.8946831894
 30
0.0
 10
243.8535812889
 20
204.9127150246
 30
0.0
 10
243.8568414674
 20
204.9217220483
 30
0.0
  0
SPLINE
  5
47B
100
AcDbEntity
  8
7_ALL_FEATURES
100
AcDbSpline
 62
4
  6
CONTINUOUS
 70
0
 71
3
 72
66
 73
62
 74
0
 42
0.0000001
 43
0.0000001
 44
0.0000000001
 40
0.0
 40
0.0
 40
0.0
 40
0.0
 40
0.03125
 40
0.0625
 40
0.09375
 40
0.109375
 40
0.1171875
 40
0.125
 40
0.1328125
 40
0.140625
 40
0.15625
 40
0.1875
 40
0.21875
 40
0.234375
 40
0.2421875
 40
0.25
 40
0.2578125
 40
0.265625
 40
0.28125
 40
0.3125
 40
0.34375
 40
0.359375
 40
0.3671875
 40
0.375
 40
0.3828125
 40
0.390625
 40
0.40625
 40
0.4375
 40
0.46875
 40
0.484375
 40
0.4921875
 40
0.5
 40
0.5078125
 40
0.515625
 40
0.53125
 40
0.5625
 40
0.59375
 40
0.609375
 40
0.6171875
 40
0.625
 40
0.6328125
 40
0.640625
 40
0.65625
 40
0.6875
 40
0.71875
 40
0.734375
 40
0.7421875
 40
0.75
 40
0.7578125
 40
0.765625
 40
0.78125
 40
0.8125
 40
0.84375
 40
0.859375
 40
0.8671875
 40
0.875
 40
0.8828125
 40
0.890625
 40
0.90625
 40
0.9375
 40
1.0
 40
1.0
 40
1.0
 40
1.0
 10
242.4653058759
 20
206.906833521
 30
0.0
 10
242.4619794251
 20
206.9025968183
 30
0.0
 10
242.4553293804
 20
206.8941204469
 30
0.0
 10
242.445337172
 20
206.8814236856
 30
0.0
 10
242.4370603275
 20
206.8707911466
 30
0.0
 10
242.4311690444
 20
206.8634495831
 30
0.0
 10
242.4279547271
 20
206.8590964661
 30
0.0
 10
242.4251154533
 20
206.8562765239
 30
0.0
 10
242.423914258
 20
206.8517559681
 30
0.0
 10
242.4217411027
 20
206.8463218807
 30
0.0
 10
242.418206203
 20
206.8365345128
 30
0.0
 10
242.4130015135
 20
206.8227080219
 30
0.0
 10
242.4079054459
 20
206.8087886586
 30
0.0
 10
242.4042184756
 20
206.799131312
 30
0.0
 10
242.4022842883
 20
206.7934929053
 30
0.0
 10
242.4003498959
 20
206.7895992384
 30
0.0
 10
242.4002641845
 20
206.7844249805
 30
0.0
 10
242.3995048762
 20
206.7779727414
 30
0.0
 10
242.3984784808
 20
206.766472291
 30
0.0
 10
242.3968391016
 20
206.7501593865
 30
0.0
 10
242.3953161338
 20
206.7337793964
 30
0.0
 10
242.3941267625
 20
206.7223728659
 30
0.0
 10
242.3936235591
 20
206.7157730384
 30
0.0
 10
242.3927520714
 20
206.7110516087
 30
0.0
 10
242.3937687057
 20
206.7054573204
 30
0.0
 10
242.394465439
 20
206.6983027751
 30
0.0
 10
242.3959934755
 20
206.6856400163
 30
0.0
 10
242.3980003507
 20
206.6676282179
 30
0.0
 10
242.4001232613
 20
206.6495760474
 30
0.0
 10
242.4014888481
 20
206.6369698095
 30
0.0
 10
242.4024408595
 20
206.6297264456
 30
0.0
 10
242.4026742543
 20
206.6244046689
 30
0.0
 10
242.4047442662
 20
206.6186598072
 30
0.0
 10
242.4068634821
 20
206.611147565
 30
0.0
 10
242.4108723504
 20
206.5979324182
 30
0.0
 10
242.4164288157
 20
206.5790892907
 30
0.0
 10
242.4220953517
 20
206.5602344493
 30
0.0
 10
242.4259501211
 20
206.547035702
 30
0.0
 10
242.4283114923
 20
206.5394976891
 30
0.0
 10
242.4296385277
 20
206.5338318966
 30
0.0
 10
242.4326622121
 20
206.5282131712
 30
0.0
 10
242.4361018354
 20
206.5207050703
 30
0.0
 10
242.4423984423
 20
206.5075740625
 30
0.0
 10
242.4512368625
 20
206.488807213
 30
0.0
 10
242.4601740868
 20
206.4700578719
 30
0.0
 10
242.4663323681
 20
206.4569023525
 30
0.0
 10
242.4699893602
 20
206.4494327699
 30
0.0
 10
242.4723461173
 20
206.4436958633
 30
0.0
 10
242.4761778356
 20
206.4384739068
 30
0.0
 10
242.4807721839
 20
206.4313315937
 30
0.0
 10
242.4890533272
 20
206.4189171176
 30
0.0
 10
242.5007473134
 20
206.4011311419
 30
0.0
 10
242.5125270622
 20
206.3833881164
 30
0.0
 10
242.5206881377
 20
206.3709135099
 30
0.0
 10
242.525471164
 20
206.3638656873
 30
0.0
 10
242.528723984
 20
206.3583538168
 30
0.0
 10
242.5332548257
 20
206.3537056986
 30
0.0
 10
242.5388501921
 20
206.347206943
 30
0.0
 10
242.5488494443
 20
206.335974266
 30
0.0
 10
242.5686998337
 20
206.3134088082
 30
0.0
 10
242.5857652356
 20
206.2941013085
 30
0.0
 10
242.5971308852
 20
206.2812220151
 30
0.0
  0
SPLINE
  5
47C
100
AcDbEntity
  8
7_ALL_FEATURES
100
AcDbSpline
 62
4
  6
CONTINUOUS
 70
0
 71
3
 72
45
 73
41
 74
0
 42
0.0000001
 43
0.0000001
 44
0.0000000001
 40
0.0
 40
0.0
 40
0.0
 40
0.0
 40
0.0625
 40
0.125
 40
0.140625
 40
0.15625
 40
0.171875
 40
0.1875
 40
0.21875
 40
0.25
 40
0.28125
 40
0.3125
 40
0.328125
 40
0.34375
 40
0.359375
 40
0.375
 40
0.4375
 40
0.46875
 40
0.484375
 40
0.5
 40
0.515625
 40
0.53125
 40
0.5625
 40
0.625
 40
0.640625
 40
0.65625
 40
0.6640625
 40
0.671875
 40
0.6875
 40
0.71875
 40
0.75
 40
0.78125
 40
0.8125
 40
0.828125
 40
0.8359375
 40
0.84375
 40
0.859375
 40
0.875
 40
0.9375
 40
1.0
 40
1.0
 40
1.0
 40
1.0
 10
242.8695906328
 20
206.906833521
 30
0.0
 10
242.8600195227
 20
206.9112249955
 30
0.0
 10
242.8408780133
 20
206.9200002807
 30
0.0
 10
242.8193406166
 20
206.9299069633
 30
0.0
 10
242.8049870169
 20
206.9364611252
 30
0.0
 10
242.7978019537
 20
206.939827297
 30
0.0
 10
242.790649011
 20
206.9428471639
 30
0.0
 10
242.7812647647
 20
206.9452244052
 30
0.0
 10
242.7694814602
 20
206.9487657553
 30
0.0
 10
242.7553663622
 20
206.9527542144
 30
0.0
 10
242.7412365889
 20
206.9568756404
 30
0.0
 10
242.729489973
 20
206.960084573
 30
0.0
 10
242.7200323494
 20
206.9631266495
 30
0.0
 10
242.7131032072
 20
206.9641187689
 30
0.0
 10
242.7062203292
 20
206.9647491657
 30
0.0
 10
242.6924287093
 20
206.9662006061
 30
0.0
 10
242.6763703574
 20
206.967779789
 30
0.0
 10
242.6602390225
 20
206.9695346485
 30
0.0
 10
242.6511243759
 20
206.9703145496
 30
0.0
 10
242.643999466
 20
206.9715179094
 30
0.0
 10
242.6379786263
 20
206.9703589711
 30
0.0
 10
242.6295659101
 20
206.9696372353
 30
0.0
 10
242.6150211753
 20
206.9679953309
 30
0.0
 10
242.6004217703
 20
206.9664648993
 30
0.0
 10
242.5878983461
 20
206.9651848496
 30
0.0
 10
242.582722367
 20
206.9645454987
 30
0.0
 10
242.5784814742
 20
206.9642852355
 30
0.0
 10
242.5746073277
 20
206.9631048996
 30
0.0
 10
242.5679981553
 20
206.9606115088
 30
0.0
 10
242.5584663382
 20
206.9572745808
 30
0.0
 10
242.5470709336
 20
206.9531678201
 30
0.0
 10
242.5356486533
 20
206.9491107534
 30
0.0
 10
242.5261840253
 20
206.9456495903
 30
0.0
 10
242.5194572721
 20
206.9433736107
 30
0.0
 10
242.5157712547
 20
206.9418454169
 30
0.0
 10
242.5126794831
 20
206.9394604028
 30
0.0
 10
242.5086116485
 20
206.9367720063
 30
0.0
 10
242.4990160613
 20
206.9300787525
 30
0.0
 10
242.4845518834
 20
206.9201409515
 30
0.0
 10
242.4717236047
 20
206.9112658705
 30
0.0
 10
242.4653058693
 20
206.9068335151
 30
0.0
  0
SPLINE
  5
47D
100
AcDbEntity
  8
7_ALL_FEATURES
100
AcDbSpline
 62
4
  6
CONTINUOUS
 70
0
 71
3
 72
51
 73
47
 74
0
 42
0.0000001
 43
0.0000001
 44
0.0000000001
 40
0.0
 40
0.0
 40
0.0
 40
0.0
 40
0.0625
 40
0.09375
 40
0.125
 40
0.140625
 40
0.15625
 40
0.1640625
 40
0.171875
 40
0.1796875
 40
0.1875
 40
0.21875
 40
0.25
 40
0.28125
 40
0.3125
 40
0.328125
 40
0.3359375
 40
0.34375
 40
0.359375
 40
0.375
 40
0.4375
 40
0.46875
 40
0.484375
 40
0.4921875
 40
0.5
 40
0.5078125
 40
0.515625
 40
0.53125
 40
0.5625
 40
0.625
 40
0.640625
 40
0.65625
 40
0.6640625
 40
0.671875
 40
0.6875
 40
0.71875
 40
0.75
 40
0.78125
 40
0.8125
 40
0.828125
 40
0.8359375
 40
0.84375
 40
0.859375
 40
0.875
 40
0.9375
 40
1.0
 40
1.0
 40
1.0
 40
1.0
 10
242.7738374692
 20
205.5667256708
 30
0.0
 10
242.7691774453
 20
205.5557873626
 30
0.0
 10
242.7621910493
 20
205.5393772101
 30
0.0
 10
242.752861296
 20
205.5175077678
 30
0.0
 10
242.7470605304
 20
205.5038169475
 30
0.0
 10
242.742350765
 20
205.4929154064
 30
0.0
 10
242.7395648788
 20
205.4859853647
 30
0.0
 10
242.736974937
 20
205.4807083409
 30
0.0
 10
242.7360215487
 20
205.4760194917
 30
0.0
 10
242.7353452943
 20
205.4711257928
 30
0.0
 10
242.7338503679
 20
205.4614436853
 30
0.0
 10
242.7316657369
 20
205.4468775428
 30
0.0
 10
242.7287296854
 20
205.4274746717
 30
0.0
 10
242.7257632561
 20
205.4080888851
 30
0.0
 10
242.7234118328
 20
205.3918615712
 30
0.0
 10
242.7215258646
 20
205.3806472097
 30
0.0
 10
242.7208233684
 20
205.3740125937
 30
0.0
 10
242.7215340838
 20
205.3665252041
 30
0.0
 10
242.7219391178
 20
205.3574575381
 30
0.0
 10
242.7233118224
 20
205.3354543785
 30
0.0
 10
242.7247507376
 20
205.3098715762
 30
0.0
 10
242.7263268285
 20
205.2842367884
 30
0.0
 10
242.7270066545
 20
205.2714448424
 30
0.0
 10
242.727561049
 20
205.2640989606
 30
0.0
 10
242.7275099972
 20
205.2586908735
 30
0.0
 10
242.7292433747
 20
205.2528955885
 30
0.0
 10
242.7309320843
 20
205.2453036035
 30
0.0
 10
242.7341776587
 20
205.2319546762
 30
0.0
 10
242.7404527336
 20
205.2053031896
 30
0.0
 10
242.7468629211
 20
205.1786253089
 30
0.0
 10
242.7522221791
 20
205.1557819927
 30
0.0
 10
242.7546161779
 20
205.1462374485
 30
0.0
 10
242.7561585566
 20
205.1386630593
 30
0.0
 10
242.7590634371
 20
205.1308648818
 30
0.0
 10
242.7647803401
 20
205.117114148
 30
0.0
 10
242.7726142853
 20
205.0975241348
 30
0.0
 10
242.7821660179
 20
205.0739949752
 30
0.0
 10
242.7916466517
 20
205.0504641627
 30
0.0
 10
242.7996583441
 20
205.0308782819
 30
0.0
 10
242.8050641896
 20
205.0171203163
 30
0.0
 10
242.808466762
 20
205.0093337097
 30
0.0
 10
242.8130493792
 20
205.0018299817
 30
0.0
 10
242.8183742976
 20
204.9923536305
 30
0.0
 10
242.8314861568
 20
204.9696899874
 30
0.0
 10
242.8510133578
 20
204.9356608213
 30
0.0
 10
242.8684279976
 20
204.9054263681
 30
0.0
 10
242.8771281765
 20
204.8903074298
 30
0.0
  0
SPLINE
  5
47E
100
AcDbEntity
  8
7_ALL_FEATURES
100
AcDbSpline
 62
4
  6
CONTINUOUS
 70
0
 71
3
 72
59
 73
55
 74
0
 42
0.0000001
 43
0.0000001
 44
0.0000000001
 40
0.0
 40
0.0
 40
0.0
 40
0.0
 40
0.0625
 40
0.078125
 40
0.09375
 40
0.1015625
 40
0.109375
 40
0.1171875
 40
0.125
 40
0.140625
 40
0.15625
 40
0.171875
 40
0.1875
 40
0.203125
 40
0.2109375
 40
0.21875
 40
0.234375
 40
0.25
 40
0.28125
 40
0.3125
 40
0.328125
 40
0.3359375
 40
0.34375
 40
0.359375
 40
0.375
 40
0.40625
 40
0.421875
 40
0.4375
 40
0.46875
 40
0.5
 40
0.53125
 40
0.5625
 40
0.578125
 40
0.59375
 40
0.625
 40
0.640625
 40
0.65625
 40
0.6640625
 40
0.671875
 40
0.6875
 40
0.71875
 40
0.75
 40
0.765625
 40
0.78125
 40
0.796875
 40
0.8125
 40
0.84375
 40
0.859375
 40
0.875
 40
0.890625
 40
0.8984375
 40
0.90625
 40
0.9375
 40
1.0
 40
1.0
 40
1.0
 40
1.0
 10
243.1729963126
 20
206.2221655659
 30
0.0
 10
243.1779837815
 20
206.234104313
 30
0.0
 10
243.1842329029
 20
206.2490169881
 30
0.0
 10
243.1916874931
 20
206.2669444745
 30
0.0
 10
243.1948527129
 20
206.2743712255
 30
0.0
 10
243.1972473869
 20
206.2804126826
 30
0.0
 10
243.1994204135
 20
206.2846694277
 30
0.0
 10
243.2001541066
 20
206.2899735352
 30
0.0
 10
243.2010953678
 20
206.2970725948
 30
0.0
 10
243.2022848497
 20
206.3059370625
 30
0.0
 10
243.2037057765
 20
206.3165789622
 30
0.0
 10
243.2051318608
 20
206.3272176785
 30
0.0
 10
243.2065437664
 20
206.3378645904
 30
0.0
 10
243.2077633189
 20
206.3467123509
 30
0.0
 10
243.2086429353
 20
206.35384566
 30
0.0
 10
243.2098722824
 20
206.3607782996
 30
0.0
 10
243.2089060189
 20
206.3708802441
 30
0.0
 10
243.2076274142
 20
206.3868879152
 30
0.0
 10
243.2059717585
 20
206.4069443771
 30
0.0
 10
243.2042114308
 20
206.4270076467
 30
0.0
 10
243.2032391925
 20
206.4410048282
 30
0.0
 10
243.2022693304
 20
206.4490819306
 30
0.0
 10
243.199736165
 20
206.4574569614
 30
0.0
 10
243.1971069234
 20
206.4678235252
 30
0.0
 10
243.1925885663
 20
206.4844684086
 30
0.0
 10
243.1882205436
 20
206.5010901228
 30
0.0
 10
243.1836351956
 20
206.5177375588
 30
0.0
 10
243.1797187033
 20
206.5343129998
 30
0.0
 10
243.1700783264
 20
206.5555401117
 30
0.0
 10
243.1589309396
 20
206.5809794162
 30
0.0
 10
243.1475907651
 20
206.6063952198
 30
0.0
 10
243.1384323572
 20
206.627681084
 30
0.0
 10
243.1280388626
 20
206.6434674295
 30
0.0
 10
243.1181850874
 20
206.6594733982
 30
0.0
 10
243.1081597639
 20
206.6754039739
 30
0.0
 10
243.0982442958
 20
206.6913960111
 30
0.0
 10
243.0919154467
 20
206.701300208
 30
0.0
 10
243.0871409394
 20
206.7094261834
 30
0.0
 10
243.0813174892
 20
206.7168143485
 30
0.0
 10
243.0706390549
 20
206.7294006756
 30
0.0
 10
243.0556408715
 20
206.7475623275
 30
0.0
 10
243.0405441711
 20
206.7656525018
 30
0.0
 10
243.0284978734
 20
206.7801512397
 30
0.0
 10
243.0194290726
 20
206.7909883844
 30
0.0
 10
243.0087207395
 20
206.7999885944
 30
0.0
 10
242.9950177856
 20
206.8126358116
 30
0.0
 10
242.9811449546
 20
206.8250752745
 30
0.0
 10
242.9673506372
 20
206.8376527974
 30
0.0
 10
242.9569392357
 20
206.846879514
 30
0.0
 10
242.9484492317
 20
206.8551990046
 30
0.0
 10
242.9410332645
 20
206.8597286862
 30
0.0
 10
242.930069662
 20
206.867069532
 30
0.0
 10
242.906220782
 20
206.88265304
 30
0.0
 10
242.8842482613
 20
206.8971803358
 30
0.0
 10
242.8695906185
 20
206.9068335288
 30
0.0
  0
SPLINE
  5
47F
100
AcDbEntity
  8
02___PRT_ALL_AXES
100
AcDbSpline
 62
7
  6
CONTINUOUS
 70
0
 71
3
 72
9
 73
5
 74
0
 42
0.0000001
 43
0.0000001
 44
0.0000000001
 40
0.0
 40
0.0
 40
0.0
 40
0.0
 40
0.2487419215
 40
1.0
 40
1.0
 40
1.0
 40
1.0
 10
277.4532032105
 20
166.3600003905
 30
0.0
 10
277.5766060821
 20
166.4108127026
 30
0.0
 10
278.0685716811
 20
166.6251442273
 30
0.0
 10
278.5444623193
 20
166.8753069531
 30
0.0
 10
278.893526037
 20
167.0768389845
 30
0.0
  0
SPLINE
  5
480
100
AcDbEntity
  8
02___PRT_ALL_AXES
100
AcDbSpline
 62
7
  6
CONTINUOUS
 70
0
 71
3
 72
19
 73
15
 74
0
 42
0.0000001
 43
0.0000001
 44
0.0000000001
 40
0.0
 40
0.0
 40
0.0
 40
0.0
 40
0.0679785409
 40
0.1342854818
 40
0.1983938441
 40
0.2606331787
 40
0.3812346686
 40
0.4998615428
 40
0.6185201017
 40
0.7391776997
 40
0.801460969
 40
0.8656242454
 40
0.9319792387
 40
1.0
 40
1.0
 40
1.0
 40
1.0
 10
271.8338488634
 20
166.33329537
 30
0.0
 10
271.8338488634
 20
166.1552199974
 30
0.0
 10
271.8887207106
 20
165.8011979428
 30
0.0
 10
272.1158401133
 20
165.3268079784
 30
0.0
 10
272.4443019749
 20
164.9374649796
 30
0.0
 10
272.9598557757
 20
164.5404615619
 30
0.0
 10
273.7028757902
 20
164.2338976512
 30
0.0
 10
274.642501723
 20
164.1197845077
 30
0.0
 10
275.5823520948
 20
164.233365195
 30
0.0
 10
276.3258451912
 20
164.5396965626
 30
0.0
 10
276.8419478155
 20
164.9366599534
 30
0.0
 10
277.1708155835
 20
165.3261762994
 30
0.0
 10
277.398255351
 20
165.8008454934
 30
0.0
 10
277.4532032105
 20
166.1551093975
 30
0.0
 10
277.4532032105
 20
166.33329537
 30
0.0
  0
SPLINE
  5
481
100
AcDbEntity
  8
02___PRT_ALL_AXES
100
AcDbSpline
 62
7
  6
CONTINUOUS
 70
0
 71
3
 72
9
 73
5
 74
0
 42
0.0000001
 43
0.0000001
 44
0.0000000001
 40
0.0
 40
0.0
 40
0.0
 40
0.0
 40
0.2513562251
 40
1.0
 40
1.0
 40
1.0
 40
1.0
 10
270.393526037
 20
167.0768389845
 30
0.0
 10
270.5103094164
 20
167.009414069
 30
0.0
 10
270.9784445913
 20
166.7474287506
 30
0.0
 10
271.4624613167
 20
166.5129227632
 30
0.0
 10
271.8338488634
 20
166.3600003905
 30
0.0
  0
SPLINE
  5
482
100
AcDbEntity
  8
02___PRT_ALL_AXES
100
AcDbSpline
 62
7
  6
CONTINUOUS
 70
0
 71
3
 72
9
 73
5
 74
0
 42
0.0000001
 43
0.0000001
 44
0.0000000001
 40
0.0
 40
0.0
 40
0.0
 40
0.0
 40
0.2513562251
 40
1.0
 40
1.0
 40
1.0
 40
1.0
 10
261.893526037
 20
167.0768389845
 30
0.0
 10
262.0103094164
 20
167.009414069
 30
0.0
 10
262.4784445913
 20
166.7474287506
 30
0.0
 10
262.9624613167
 20
166.5129227632
 30
0.0
 10
263.3338488634
 20
166.3600003905
 30
0.0
  0
SPLINE
  5
483
100
AcDbEntity
  8
02___PRT_ALL_AXES
100
AcDbSpline
 62
7
  6
CONTINUOUS
 70
0
 71
3
 72
9
 73
5
 74
0
 42
0.0000001
 43
0.0000001
 44
0.0000000001
 40
0.0
 40
0.0
 40
0.0
 40
0.0
 40
0.2487419215
 40
1.0
 40
1.0
 40
1.0
 40
1.0
 10
268.9532032105
 20
166.3600003905
 30
0.0
 10
269.0766060821
 20
166.4108127026
 30
0.0
 10
269.5685716811
 20
166.6251442273
 30
0.0
 10
270.0444623193
 20
166.8753069531
 30
0.0
 10
270.393526037
 20
167.0768389845
 30
0.0
  0
SPLINE
  5
484
100
AcDbEntity
  8
02___PRT_ALL_AXES
100
AcDbSpline
 62
7
  6
CONTINUOUS
 70
0
 71
3
 72
19
 73
15
 74
0
 42
0.0000001
 43
0.0000001
 44
0.0000000001
 40
0.0
 40
0.0
 40
0.0
 40
0.0
 40
0.0679950228
 40
0.1343185368
 40
0.1984442238
 40
0.2607004275
 40
0.3813349733
 40
0.4999906576
 40
0.6186424657
 40
0.7392776354
 40
0.8015360431
 40
0.8656654115
 40
0.9319956439
 40
1.0
 40
1.0
 40
1.0
 40
1.0
 10
263.3338488634
 20
166.33329537
 30
0.0
 10
263.3338488634
 20
166.1551768628
 30
0.0
 10
263.3887460726
 20
165.8010661459
 30
0.0
 10
263.6159780228
 20
165.3265792389
 30
0.0
 10
263.9445851291
 20
164.9371812987
 30
0.0
 10
264.4603574536
 20
164.5401692885
 30
0.0
 10
265.2036368743
 20
164.233682175
 30
0.0
 10
266.143441717
 20
164.1197739623
 30
0.0
 10
267.083251616
 20
164.2336409849
 30
0.0
 10
267.8265461684
 20
164.540083572
 30
0.0
 10
268.3423546415
 20
164.9370757557
 30
0.0
 10
268.6710130851
 20
165.3264744167
 30
0.0
 10
268.8982886263
 20
165.8009996304
 30
0.0
 10
268.9532032105
 20
166.1551524134
 30
0.0
 10
268.9532032105
 20
166.33329537
 30
0.0
  0
SPLINE
  5
485
100
AcDbEntity
  8
7_ALL_FEATURES
100
AcDbSpline
 62
7
  6
CONTINUOUS
 70
0
 71
3
 72
8
 73
4
 74
0
 42
0.0000001
 43
0.0000001
 44
0.0000000001
 40
0.0
 40
0.0
 40
0.0
 40
0.0
 40
1.0
 40
1.0
 40
1.0
 40
1.0
 10
288.8069654363
 20
203.3268389845
 30
0.0
 10
288.5527882179
 20
202.9103161699
 30
0.0
 10
288.2988063862
 20
202.4936739661
 30
0.0
 10
288.0451414269
 20
202.0768389845
 30
0.0
  0
SPLINE
  5
486
100
AcDbEntity
  8
7_ALL_FEATURES
100
AcDbSpline
 62
7
  6
CONTINUOUS
 70
0
 71
3
 72
8
 73
4
 74
0
 42
0.0000001
 43
0.0000001
 44
0.0000000001
 40
0.0
 40
0.0
 40
0.0
 40
0.0
 40
1.0
 40
1.0
 40
1.0
 40
1.0
 10
302.0555375669
 20
202.0768389845
 30
0.0
 10
302.3910668827
 20
202.4933325365
 30
0.0
 10
302.7263777765
 20
202.910002136
 30
0.0
 10
303.0614805105
 20
203.3268389845
 30
0.0
  0
SPLINE
  5
487
100
AcDbEntity
  8
7_ALL_FEATURES
100
AcDbSpline
 62
7
  6
CONTINUOUS
 70
0
 71
3
 72
8
 73
4
 74
0
 42
0.0000001
 43
0.0000001
 44
0.0000000001
 40
0.0
 40
0.0
 40
0.0
 40
0.0
 40
1.0
 40
1.0
 40
1.0
 40
1.0
 10
237.7255715634
 20
203.3268389845
 30
0.0
 10
238.0606742974
 20
202.910002136
 30
0.0
 10
238.3959851912
 20
202.4933325365
 30
0.0
 10
238.731514507
 20
202.0768389845
 30
0.0
  0
SPLINE
  5
488
100
AcDbEntity
  8
7_ALL_FEATURES
100
AcDbSpline
 62
7
  6
CONTINUOUS
 70
0
 71
3
 72
8
 73
4
 74
0
 42
0.0000001
 43
0.0000001
 44
0.0000000001
 40
0.0
 40
0.0
 40
0.0
 40
0.0
 40
1.0
 40
1.0
 40
1.0
 40
1.0
 10
252.741910647
 20
202.0768389845
 30
0.0
 10
252.4882456878
 20
202.4936739662
 30
0.0
 10
252.2342638556
 20
202.9103161696
 30
0.0
 10
251.9800866376
 20
203.3268389845
 30
0.0
  0
SPLINE
  5
489
100
AcDbEntity
  8
7_ALL_FEATURES
100
AcDbSpline
 62
3
  6
CONTINUOUS
 70
0
 71
3
 72
12
 73
8
 74
0
 42
0.0000001
 43
0.0000001
 44
0.0000000001
 40
0.0
 40
0.0
 40
0.0
 40
0.0
 40
0.2828944285
 40
0.5419458986
 40
0.777811368
 40
0.8899203884
 40
1.0
 40
1.0
 40
1.0
 40
1.0
 10
300.0978201042
 20
202.1689155099
 30
0.0
 10
300.0663923704
 20
202.0835364463
 30
0.0
 10
299.9889326591
 20
201.9254045332
 30
0.0
 10
299.8253953916
 20
201.7323281072
 30
0.0
 10
299.6569290604
 20
201.6258017633
 30
0.0
 10
299.514935157
 20
201.5838351963
 30
0.0
 10
299.4432894858
 20
201.5768389845
 30
0.0
 10
299.4078875915
 20
201.5768389845
 30
0.0
  0
SPLINE
  5
48A
100
AcDbEntity
  8
7_ALL_FEATURES
100
AcDbSpline
 62
3
  6
CONTINUOUS
 70
0
 71
3
 72
11
 73
7
 74
0
 42
0.0000001
 43
0.0000001
 44
0.0000000001
 40
0.0
 40
0.0
 40
0.0
 40
0.0
 40
0.2408198638
 40
0.4941501693
 40
0.7505632867
 40
1.0
 40
1.0
 40
1.0
 40
1.0
 10
303.0808983485
 20
215.8758119234
 30
0.0
 10
303.2693833476
 20
215.526457541
 30
0.0
 10
303.566493562
 20
214.7590932352
 30
0.0
 10
303.7632476391
 20
213.5296004699
 30
0.0
 10
303.7150067794
 20
212.2713445017
 30
0.0
 10
303.5156700672
 20
211.4541166513
 30
0.0
 10
303.3736398026
 20
211.0682660173
 30
0.0
  0
SPLINE
  5
48B
100
AcDbEntity
  8
7_ALL_FEATURES
100
AcDbSpline
 62
3
  6
CONTINUOUS
 70
0
 71
3
 72
11
 73
7
 74
0
 42
0.0000001
 43
0.0000001
 44
0.0000000001
 40
0.0
 40
0.0
 40
0.0
 40
0.0
 40
0.2408198638
 40
0.4941501693
 40
0.7505632867
 40
1.0
 40
1.0
 40
1.0
 40
1.0
 10
295.3027237554
 20
215.8758119234
 30
0.0
 10
295.4912087545
 20
215.526457541
 30
0.0
 10
295.788318969
 20
214.7590932352
 30
0.0
 10
295.985073046
 20
213.5296004699
 30
0.0
 10
295.9368321863
 20
212.2713445017
 30
0.0
 10
295.7374954742
 20
211.4541166513
 30
0.0
 10
295.5954652096
 20
211.0682660173
 30
0.0
  0
SPLINE
  5
48C
100
AcDbEntity
  8
7_ALL_FEATURES
100
AcDbSpline
 62
3
  6
CONTINUOUS
 70
0
 71
3
 72
12
 73
8
 74
0
 42
0.0000001
 43
0.0000001
 44
0.0000000001
 40
0.0
 40
0.0
 40
0.0
 40
0.0
 40
0.2828944285
 40
0.5419458986
 40
0.777811368
 40
0.8899203884
 40
1.0
 40
1.0
 40
1.0
 40
1.0
 10
292.3196455111
 20
202.1689155099
 30
0.0
 10
292.2882177773
 20
202.0835364463
 30
0.0
 10
292.2107580661
 20
201.9254045332
 30
0.0
 10
292.0472207985
 20
201.7323281072
 30
0.0
 10
291.8787544673
 20
201.6258017633
 30
0.0
 10
291.7367605639
 20
201.5838351963
 30
0.0
 10
291.6651148927
 20
201.5768389845
 30
0.0
 10
291.6297129985
 20
201.5768389845
 30
0.0
  0
SPLINE
  5
48D
100
AcDbEntity
  8
7_ALL_FEATURES
100
AcDbSpline
 62
3
  6
CONTINUOUS
 70
0
 71
3
 72
12
 73
8
 74
0
 42
0.0000001
 43
0.0000001
 44
0.0000000001
 40
0.0
 40
0.0
 40
0.0
 40
0.0
 40
0.2828944285
 40
0.5419458986
 40
0.777811368
 40
0.8899203884
 40
1.0
 40
1.0
 40
1.0
 40
1.0
 10
240.6892319698
 20
202.1689155099
 30
0.0
 10
240.7206597035
 20
202.0835364463
 30
0.0
 10
240.7981194148
 20
201.9254045332
 30
0.0
 10
240.9616566823
 20
201.7323281072
 30
0.0
 10
241.1301230136
 20
201.6258017633
 30
0.0
 10
241.2721169169
 20
201.5838351963
 30
0.0
 10
241.3437625882
 20
201.5768389845
 30
0.0
 10
241.3791644824
 20
201.5768389845
 30
0.0
  0
SPLINE
  5
48E
100
AcDbEntity
  8
7_ALL_FEATURES
100
AcDbSpline
 62
3
  6
CONTINUOUS
 70
0
 71
3
 72
11
 73
7
 74
0
 42
0.0000001
 43
0.0000001
 44
0.0000000001
 40
0.0
 40
0.0
 40
0.0
 40
0.0
 40
0.2408198638
 40
0.4941501693
 40
0.7505632867
 40
1.0
 40
1.0
 40
1.0
 40
1.0
 10
237.7061537254
 20
215.8758119234
 30
0.0
 10
237.5176687264
 20
215.526457541
 30
0.0
 10
237.2205585119
 20
214.7590932352
 30
0.0
 10
237.0238044349
 20
213.5296004699
 30
0.0
 10
237.0720452945
 20
212.2713445017
 30
0.0
 10
237.2713820067
 20
211.4541166513
 30
0.0
 10
237.4134122713
 20
211.0682660173
 30
0.0
  0
SPLINE
  5
48F
100
AcDbEntity
  8
7_ALL_FEATURES
100
AcDbSpline
 62
3
  6
CONTINUOUS
 70
0
 71
3
 72
12
 73
8
 74
0
 42
0.0000001
 43
0.0000001
 44
0.0000000001
 40
0.0
 40
0.0
 40
0.0
 40
0.0
 40
0.2828944285
 40
0.5419458986
 40
0.777811368
 40
0.8899203884
 40
1.0
 40
1.0
 40
1.0
 40
1.0
 10
248.4674065628
 20
202.1689155099
 30
0.0
 10
248.4988342966
 20
202.0835364463
 30
0.0
 10
248.5762940079
 20
201.9254045332
 30
0.0
 10
248.7398312754
 20
201.7323281072
 30
0.0
 10
248.9082976066
 20
201.6258017633
 30
0.0
 10
249.05029151
 20
201.5838351963
 30
0.0
 10
249.1219371812
 20
201.5768389845
 30
0.0
 10
249.1573390755
 20
201.5768389845
 30
0.0
  0
SPLINE
  5
490
100
AcDbEntity
  8
7_ALL_FEATURES
100
AcDbSpline
 62
3
  6
CONTINUOUS
 70
0
 71
3
 72
11
 73
7
 74
0
 42
0.0000001
 43
0.0000001
 44
0.0000000001
 40
0.0
 40
0.0
 40
0.0
 40
0.0
 40
0.2408198638
 40
0.4941501693
 40
0.7505632867
 40
1.0
 40
1.0
 40
1.0
 40
1.0
 10
245.4843283185
 20
215.8758119234
 30
0.0
 10
245.2958433194
 20
215.526457541
 30
0.0
 10
244.998733105
 20
214.7590932352
 30
0.0
 10
244.8019790279
 20
213.5296004699
 30
0.0
 10
244.8502198876
 20
212.2713445017
 30
0.0
 10
245.0495565997
 20
211.4541166513
 30
0.0
 10
245.1915868643
 20
211.0682660173
 30
0.0
  0
ELLIPSE
  5
491
100
AcDbEntity
  8
7_ALL_FEATURES
100
AcDbEllipse
 62
7
  6
CONTINUOUS
 10
144.4067683119
 20
213.1461347769
 30
0.0
 11
2.0630841583
 21
3.9855725407
 31
0.0
 40
0.1645246646
 41
-0.8508900122
 42
-0.700438936
  0
ELLIPSE
  5
492
100
AcDbEntity
  8
7_ALL_FEATURES
100
AcDbEllipse
 62
7
  6
CONTINUOUS
 10
98.7999196747
 20
213.1461347769
 30
0.0
 11
-2.0630841583
 21
3.9855725407
 31
0.0
 40
0.1645246646
 41
0.700438936
 42
0.8508900122
  0
ELLIPSE
  5
493
100
AcDbEntity
  8
03___PRT_ALL_CURVES
100
AcDbEllipse
 62
40
  6
CONTINUOUS
 10
121.6033439933
 20
241.0247315511
 30
0.0
 11
37.5
 21
0.0
 31
0.0
 40
0.0778606828
 41
-0.1894277497
 42
-0.1849912224
  0
ELLIPSE
  5
494
100
AcDbEntity
  8
03___PRT_ALL_CURVES
100
AcDbEllipse
 62
40
  6
CONTINUOUS
 10
121.6033439933
 20
186.7407392676
 30
0.0
 11
-0.0
 21
285.3695635886
 31
0.0
 40
0.131408548
 41
-1.3813685771
 42
-1.3776967694
  0
ELLIPSE
  5
495
100
AcDbEntity
  8
03___PRT_ALL_CURVES
100
AcDbEllipse
 62
40
  6
CONTINUOUS
 10
121.6033439933
 20
243.4319082376
 30
0.0
 11
37.5
 21
-0.0
 31
0.0
 40
0.2679491924
 41
-0.1930995574
 42
-0.1749609538
  0
ELLIPSE
  5
496
100
AcDbEntity
  8
03___PRT_ALL_CURVES
100
AcDbEllipse
 62
40
  6
CONTINUOUS
 10
121.6033439933
 20
217.3214550997
 30
0.0
 11
-0.0
 21
139.9519052838
 31
0.0
 40
0.2679491924
 41
-1.3974797749
 42
-1.395835373
  0
ELLIPSE
  5
497
100
AcDbEntity
  8
03___PRT_ALL_CURVES
100
AcDbEllipse
 62
40
  6
CONTINUOUS
 10
121.6033439933
 20
243.188978444
 30
0.0
 11
37.5
 21
0.0
 31
0.0
 40
0.2679491924
 41
-0.1878910707
 42
-0.1733165519
  0
ELLIPSE
  5
498
100
AcDbEntity
  8
03___PRT_ALL_CURVES
100
AcDbEllipse
 62
40
  6
CONTINUOUS
 10
121.6033439933
 20
184.5718363861
 30
0.0
 11
-0.0
 21
303.7691702034
 31
0.0
 40
0.123448999
 41
-1.3847145518
 42
-1.3829052561
  0
ELLIPSE
  5
499
100
AcDbEntity
  8
03___PRT_ALL_CURVES
100
AcDbEllipse
 62
40
  6
CONTINUOUS
 10
121.6033439933
 20
242.8697855115
 30
0.0
 11
37.5
 21
0.0
 31
0.0
 40
0.4024885688
 41
-0.1872564517
 42
-0.1826995988
  0
ELLIPSE
  5
49A
100
AcDbEntity
  8
03___PRT_ALL_CURVES
100
AcDbEllipse
 62
40
  6
CONTINUOUS
 10
121.6033439933
 20
211.649243246
 30
0.0
 11
-0.0
 21
139.9519052838
 31
0.0
 40
0.2679491924
 41
-1.3712143197
 42
-1.3601830455
  0
ELLIPSE
  5
49B
100
AcDbEntity
  8
03___PRT_ALL_CURVES
100
AcDbEllipse
 62
40
  6
CONTINUOUS
 10
121.6033439933
 20
210.3275192815
 30
0.0
 11
-0.0
 21
139.9519052838
 31
0.0
 40
0.2679491924
 41
-1.3532566769
 42
-1.3515784555
  0
ELLIPSE
  5
49C
100
AcDbEntity
  8
03___PRT_ALL_CURVES
100
AcDbEllipse
 62
40
  6
CONTINUOUS
 10
121.6033439933
 20
243.4672178774
 30
0.0
 11
37.5
 21
0.0
 31
0.0
 40
0.2679491924
 41
-0.2121545377
 42
-0.2092222247
  0
ELLIPSE
  5
49D
100
AcDbEntity
  8
03___PRT_ALL_CURVES
100
AcDbEllipse
 62
40
  6
CONTINUOUS
 10
121.6033439933
 20
212.3123455924
 30
0.0
 11
-0.0
 21
139.9519052838
 31
0.0
 40
0.2679491924
 41
-1.3757224916
 42
-1.3615741021
  0
ELLIPSE
  5
49E
100
AcDbEntity
  8
03___PRT_ALL_CURVES
100
AcDbEllipse
 62
40
  6
CONTINUOUS
 10
121.6033439933
 20
241.3881911339
 30
0.0
 11
37.5
 21
0.0
 31
0.0
 40
0.2679491924
 41
-0.1995820071
 42
-0.1950738352
  0
ELLIPSE
  5
49F
100
AcDbEntity
  8
03___PRT_ALL_CURVES
100
AcDbEllipse
 62
40
  6
CONTINUOUS
 10
121.6033439933
 20
242.2652804835
 30
0.0
 11
37.5
 21
0.0
 31
0.0
 40
0.2679491924
 41
-0.2355819093
 42
-0.2216894014
  0
ELLIPSE
  5
4A0
100
AcDbEntity
  8
03___PRT_ALL_CURVES
100
AcDbEllipse
 62
40
  6
CONTINUOUS
 10
121.6033439933
 20
209.283581472
 30
0.0
 11
-0.0
 21
139.9519052838
 31
0.0
 40
0.2679491924
 41
-1.3508536114
 42
-1.3491069254
  0
ELLIPSE
  5
4A1
100
AcDbEntity
  8
03___PRT_ALL_CURVES
100
AcDbEllipse
 62
40
  6
CONTINUOUS
 10
121.6033439933
 20
242.009639301
 30
0.0
 11
37.5
 21
0.0
 31
0.0
 40
0.2679491924
 41
-0.2338295909
 42
-0.2199427154
  0
ELLIPSE
  5
4A2
100
AcDbEntity
  8
03___PRT_ALL_CURVES
100
AcDbEllipse
 62
40
  6
CONTINUOUS
 10
121.6033439933
 20
207.2539513056
 30
0.0
 11
-0.0
 21
139.9519052838
 31
0.0
 40
0.2679491924
 41
-1.3369667359
 42
-1.3352144175
  0
ELLIPSE
  5
4A3
100
AcDbEntity
  8
03___PRT_ALL_CURVES
100
AcDbEllipse
 62
40
  6
CONTINUOUS
 10
121.6033439933
 20
216.4276443482
 30
0.0
 11
-0.0
 21
284.8407792272
 31
0.0
 40
0.1316524976
 41
-1.4966264887
 42
-1.4889455736
  0
ELLIPSE
  5
4A4
100
AcDbEntity
  8
03___PRT_ALL_CURVES
100
AcDbEllipse
 62
40
  6
CONTINUOUS
 10
121.6033439933
 20
218.7260336208
 30
0.0
 11
-0.0
 21
284.8407792272
 31
0.0
 40
0.1316524976
 41
-1.504577649
 42
-1.4969012636
  0
ELLIPSE
  5
4A5
100
AcDbEntity
  8
03___PRT_ALL_CURVES
100
AcDbEllipse
 62
40
  6
CONTINUOUS
 10
121.6033439933
 20
216.9972834887
 30
0.0
 11
-0.0
 21
139.9519052838
 31
0.0
 40
0.2679491924
 41
-1.4273692816
 42
-1.4120100649
  0
ELLIPSE
  5
4A6
100
AcDbEntity
  8
03___PRT_ALL_CURVES
100
AcDbEllipse
 62
40
  6
CONTINUOUS
 10
121.6033439933
 20
218.1563944803
 30
0.0
 11
-0.0
 21
139.9519052838
 31
0.0
 40
0.2679491924
 41
-1.435172539
 42
-1.4198311035
  0
ELLIPSE
  5
4A7
100
AcDbEntity
  8
03___PRT_ALL_CURVES
100
AcDbEllipse
 62
40
  6
CONTINUOUS
 10
121.6033439933
 20
216.8079799188
 30
0.0
 11
-0.0
 21
188.5251367683
 31
0.0
 40
0.1989124668
 41
-1.4618320866
 42
-1.4563351396
  0
ELLIPSE
  5
4A8
100
AcDbEntity
  8
03___PRT_ALL_CURVES
100
AcDbEllipse
 62
40
  6
CONTINUOUS
 10
121.6033439933
 20
218.3456987892
 30
0.0
 11
-0.0
 21
188.5253251413
 31
0.0
 40
0.198912268
 41
-1.4697218029
 42
-1.4642295527
  0
ELLIPSE
  5
4A9
100
AcDbEntity
  8
03___PRT_ALL_CURVES
100
AcDbEllipse
 62
40
  6
CONTINUOUS
 10
121.6033439933
 20
215.283419422
 30
0.0
 11
-0.0
 21
572.1386002743
 31
0.0
 40
0.0655435588
 41
-1.5316526156
 42
-1.5298198064
  0
ELLIPSE
  5
4AA
100
AcDbEntity
  8
03___PRT_ALL_CURVES
100
AcDbEllipse
 62
40
  6
CONTINUOUS
 10
121.6033439933
 20
219.8702652369
 30
0.0
 11
-0.0
 21
572.140276348
 31
0.0
 40
0.0655433668
 41
-1.5396403869
 42
-1.5378081112
  0
ELLIPSE
  5
4AB
100
AcDbEntity
  8
7_ALL_FEATURES
100
AcDbEllipse
 62
3
  6
CONTINUOUS
 10
151.3370702369
 20
213.1461347769
 30
0.0
 11
5.6033164748
 21
-2.9004900388
 31
0.0
 40
0.6140144074
 41
1.3522094343
 42
1.4858370994
  0
ELLIPSE
  5
4AC
100
AcDbEntity
  8
7_ALL_FEATURES
100
AcDbEllipse
 62
3
  6
CONTINUOUS
 10
144.4067683119
 20
213.1461347769
 30
0.0
 11
2.3209696781
 21
4.4837691083
 31
0.0
 40
0.1645246646
 41
-0.8340666012
 42
-0.700438936
  0
ELLIPSE
  5
4AD
100
AcDbEntity
  8
7_ALL_FEATURES
100
AcDbEllipse
 62
3
  6
CONTINUOUS
 10
91.8696177498
 20
213.1461347769
 30
0.0
 11
5.6033164748
 21
2.9004900388
 31
0.0
 40
0.6140144074
 41
1.6557555542
 42
1.7893832193
  0
ELLIPSE
  5
4AE
100
AcDbEntity
  8
7_ALL_FEATURES
100
AcDbEllipse
 62
3
  6
CONTINUOUS
 10
98.7999196747
 20
213.1461347769
 30
0.0
 11
-2.3209696781
 21
4.4837691083
 31
0.0
 40
0.1645246646
 41
0.700438936
 42
0.8340666012
  0
ELLIPSE
  5
4AF
100
AcDbEntity
  8
7_ALL_FEATURES
100
AcDbEllipse
 62
7
  6
CONTINUOUS
 10
293.1969503555
 20
213.1461347769
 30
0.0
 11
2.0630841583
 21
3.9855725407
 31
0.0
 40
0.1645246646
 41
-0.8508900122
 42
-0.700438936
  0
ELLIPSE
  5
4B0
100
AcDbEntity
  8
7_ALL_FEATURES
100
AcDbEllipse
 62
7
  6
CONTINUOUS
 10
247.5901017184
 20
213.1461347769
 30
0.0
 11
-2.0630841583
 21
3.9855725407
 31
0.0
 40
0.1645246646
 41
0.700438936
 42
0.8508900122
  0
ELLIPSE
  5
4B1
100
AcDbEntity
  8
7_ALL_FEATURES
100
AcDbEllipse
 62
3
  6
CONTINUOUS
 10
300.1272522805
 20
213.1461347769
 30
0.0
 11
5.6033164748
 21
-2.9004900388
 31
0.0
 40
0.6140144074
 41
1.3522094343
 42
1.4858370994
  0
ELLIPSE
  5
4B2
100
AcDbEntity
  8
7_ALL_FEATURES
100
AcDbEllipse
 62
3
  6
CONTINUOUS
 10
293.1969503555
 20
213.1461347769
 30
0.0
 11
2.3209696781
 21
4.4837691083
 31
0.0
 40
0.1645246646
 41
-0.8340666012
 42
-0.700438936
  0
ELLIPSE
  5
4B3
100
AcDbEntity
  8
7_ALL_FEATURES
100
AcDbEllipse
 62
3
  6
CONTINUOUS
 10
240.6597997934
 20
213.1461347769
 30
0.0
 11
5.6033164748
 21
2.9004900388
 31
0.0
 40
0.6140144074
 41
1.6557555542
 42
1.7893832193
  0
ELLIPSE
  5
4B4
100
AcDbEntity
  8
7_ALL_FEATURES
100
AcDbEllipse
 62
3
  6
CONTINUOUS
 10
247.5901017184
 20
213.1461347769
 30
0.0
 11
-2.3209696781
 21
4.4837691083
 31
0.0
 40
0.1645246646
 41
0.700438936
 42
0.8340666012
  0
ENDSEC
  0
SECTION
  2
OBJECTS
  0
DICTIONARY
  5
4B5
100
AcDbDictionary
  3
ACAD_GROUP
350
4B6
  3
ACAD_MLINESTYLE
350
4B7
  0
DICTIONARY
  5
4B6
102
{ACAD_REACTORS
330
4B5
102
}
100
AcDbDictionary
  0
DICTIONARY
  5
4B7
102
{ACAD_REACTORS
330
4B5
102
}
100
AcDbDictionary
  3
STANDARD
350
4B8
  0
MLINESTYLE
  5
4B8
102
{ACAD_REACTORS
330
4B7
102
}
100
AcDbMlineStyle
  2
STANDARD
 70
0
  3

 62
256
 51
90.0
 52
90.0
 71
2
 49
0.5
 62
256
  6
BYLAYER
 49
-0.5
 62
256
  6
BYLAYER
  0
ENDSEC
  0
EOF
