999
DXF file: 2f6_c_001.dxf
999
Pro/ENGINEER 2016360 by Parametric Technology Corporation
  0
SECTION
  2
HEADER
  9
$ACADVER
  1
AC1014
  9
$DWGCODEPAGE
  3
ANSI_1252
  9
$EXTMAX
 10
420.0
 20
297.0
 30
0.0
  9
$EXTMIN
 10
0.0
 20
0.0
 30
0.0
  9
$LIMMIN
 10
0.0
 20
0.0
  9
$LIMMAX
 10
420.0
 20
297.0
  9
$VIEWCTR
 10
210.0
 20
148.5
  9
$VIEWSIZE
 40
297.0
  9
$CLAYER
  8
0
  9
$LTSCALE
 40
23.1
  9
$CELTYPE
  6
BYLAYER
  9
$DIMSCALE
 40
1.0
  9
$DIMASZ
 40
2.5
  9
$DIMEXO
 40
0.75
  9
$DIMDLI
 40
15.96
  9
$DIMEXE
 40
0.75
  9
$DIMCEN
 40
3.78
  9
$DIMLFAC
 40
1.0
  9
$DIMBLK
  1
_CLOSED
  9
$DIMALT
 70
0
  9
$DIMALTF
 40
25.4
  9
$DIMTXT
 40
3.0
  9
$DIMTOL
 70
1
  9
$DIMLIM
 70
0
  9
$DIMTFAC
 40
1.0
  9
$DIMTP
 40
0.01
  9
$DIMTM
 40
0.01
  9
$DIMGAP
 40
0.625
  9
$AUNITS
 70
0
  9
$PDMODE
 70
3
  9
$PDSIZE
 40
0.3125
  9
$HANDSEED
  5
44D
  9
$TILEMODE
 70
1
  9
$MEASUREMENT
 70
1
  0
ENDSEC
  0
SECTION
  2
CLASSES
  0
ENDSEC
  0
SECTION
  2
TABLES
  0
TABLE
  2
VPORT
  5
8
100
AcDbSymbolTable
 70
2
  0
VPORT
  5
1F4
100
AcDbSymbolTableRecord
100
AcDbViewportTableRecord
  2
*ACTIVE
 70
0
 10
0.0
 20
0.0
 11
1.0
 21
1.0
 12
210.0
 22
148.5
 13
0.0
 23
0.0
 14
1.0
 24
1.0
 15
0.0
 25
0.0
 16
0.0
 26
0.0
 36
1.0
 17
0.0
 27
0.0
 37
0.0
 40
297.0
 41
1.4141414141
 42
50.0
 43
0.0
 44
0.0
 50
0.0
 51
0.0
 71
0
 72
100
 73
1
 74
1
 75
0
 76
0
 77
0
 78
0
  0
ENDTAB
  0
TABLE
  2
LTYPE
  5
5
100
AcDbSymbolTable
 70
6
  0
LTYPE
  5
14
100
AcDbSymbolTableRecord
100
AcDbLinetypeTableRecord
  2
BYBLOCK
 70
0
  3

 72
65
 73
0
 40
0.0
  0
LTYPE
  5
15
100
AcDbSymbolTableRecord
100
AcDbLinetypeTableRecord
  2
BYLAYER
 70
0
  3

 72
65
 73
0
 40
0.0
  0
LTYPE
  5
16
100
AcDbSymbolTableRecord
100
AcDbLinetypeTableRecord
  2
CONTINUOUS
 70
64
  3
Solid line
 72
65
 73
0
 40
0.0
  0
LTYPE
  5
1F5
100
AcDbSymbolTableRecord
100
AcDbLinetypeTableRecord
  2
CENTER
 70
64
  3
____ _ ____ _ ____ _ ____ _ ____ _ ____ _ ____
 72
65
 73
4
 40
0.6
 49
0.375
 74
0
 49
-0.075
 74
0
 49
0.075
 74
0
 49
-0.075
 74
0
  0
LTYPE
  5
1F6
100
AcDbSymbolTableRecord
100
AcDbLinetypeTableRecord
  2
HIDDEN
 70
64
  3
- - - - - - - - - - - - - - - - - - - -
 72
65
 73
2
 40
0.2
 49
0.1
 74
0
 49
-0.1
 74
0
  0
LTYPE
  5
1F7
100
AcDbSymbolTableRecord
100
AcDbLinetypeTableRecord
  2
PHANTOM
 70
64
  3
_____ _ _ _____ _ _ _____ _ _ _____
 72
65
 73
6
 40
0.8
 49
0.45
 74
0
 49
-0.05
 74
0
 49
0.1
 74
0
 49
-0.05
 74
0
 49
0.1
 74
0
 49
-0.05
 74
0
  0
LTYPE
  5
1F8
100
AcDbSymbolTableRecord
100
AcDbLinetypeTableRecord
  2
DOT
 70
64
  3
. . . . . . . . . . . . . . . . . . . .
 72
65
 73
2
 40
0.2
 49
0.1
 74
0
 49
-0.1
 74
0
  0
LTYPE
  5
1F9
100
AcDbSymbolTableRecord
100
AcDbLinetypeTableRecord
  2
DASHED
 70
64
  3
- - - - - - - - - - - - - - - - - - - -
 72
65
 73
2
 40
0.2
 49
0.1
 74
0
 49
-0.1
 74
0
  0
ENDTAB
  0
TABLE
  2
LAYER
  5
2
100
AcDbSymbolTable
 70
36
  0
LAYER
  5
10
100
AcDbSymbolTableRecord
100
AcDbLayerTableRecord
  2
0
 70
0
 62
7
  6
CONTINUOUS
  0
LAYER
  5
1FA
100
AcDbSymbolTableRecord
100
AcDbLayerTableRecord
  2
DEFAULT_1
 70
0
 62
7
  6
CENTER
  0
LAYER
  5
1FB
100
AcDbSymbolTableRecord
100
AcDbLayerTableRecord
  2
DEFAULT_2
 70
0
 62
8
  6
HIDDEN
  0
LAYER
  5
1FC
100
AcDbSymbolTableRecord
100
AcDbLayerTableRecord
  2
DEFAULT_3
 70
0
 62
7
  6
PHANTOM
  0
LAYER
  5
1FD
100
AcDbSymbolTableRecord
100
AcDbLayerTableRecord
  2
01_ALL_DTM_PLN
 70
0
 62
7
  6
CONTINUOUS
  0
LAYER
  5
1FE
100
AcDbSymbolTableRecord
100
AcDbLayerTableRecord
  2
01__ASM_ALL_DTM_PLN
 70
0
 62
7
  6
CONTINUOUS
  0
LAYER
  5
1FF
100
AcDbSymbolTableRecord
100
AcDbLayerTableRecord
  2
01__ASM_DEF_DTM_PLN
 70
0
 62
7
  6
CONTINUOUS
  0
LAYER
  5
200
100
AcDbSymbolTableRecord
100
AcDbLayerTableRecord
  2
01___PRT_ALL_DTM_PLN
 70
0
 62
7
  6
CONTINUOUS
  0
LAYER
  5
201
100
AcDbSymbolTableRecord
100
AcDbLayerTableRecord
  2
01___PRT_DEF_DTM_PLN
 70
0
 62
7
  6
CONTINUOUS
  0
LAYER
  5
202
100
AcDbSymbolTableRecord
100
AcDbLayerTableRecord
  2
02_ALL_AXES
 70
0
 62
7
  6
CONTINUOUS
  0
LAYER
  5
203
100
AcDbSymbolTableRecord
100
AcDbLayerTableRecord
  2
02__ASM_ALL_AXES
 70
0
 62
7
  6
CONTINUOUS
  0
LAYER
  5
204
100
AcDbSymbolTableRecord
100
AcDbLayerTableRecord
  2
02___PRT_ALL_AXES
 70
0
 62
7
  6
CONTINUOUS
  0
LAYER
  5
205
100
AcDbSymbolTableRecord
100
AcDbLayerTableRecord
  2
03_ALL_CURVES
 70
0
 62
7
  6
CONTINUOUS
  0
LAYER
  5
206
100
AcDbSymbolTableRecord
100
AcDbLayerTableRecord
  2
03__ASM_ALL_CURVES
 70
0
 62
7
  6
CONTINUOUS
  0
LAYER
  5
207
100
AcDbSymbolTableRecord
100
AcDbLayerTableRecord
  2
03___PRT_ALL_CURVES
 70
0
 62
7
  6
CONTINUOUS
  0
LAYER
  5
208
100
AcDbSymbolTableRecord
100
AcDbLayerTableRecord
  2
04_ALL_DTM_PNT
 70
0
 62
7
  6
CONTINUOUS
  0
LAYER
  5
209
100
AcDbSymbolTableRecord
100
AcDbLayerTableRecord
  2
04__ASM_ALL_DTM_PNT
 70
0
 62
7
  6
CONTINUOUS
  0
LAYER
  5
20A
100
AcDbSymbolTableRecord
100
AcDbLayerTableRecord
  2
04___PRT_ALL_DTM_PNT
 70
0
 62
7
  6
CONTINUOUS
  0
LAYER
  5
20B
100
AcDbSymbolTableRecord
100
AcDbLayerTableRecord
  2
05_ALL_DTM_CSYS
 70
0
 62
7
  6
CONTINUOUS
  0
LAYER
  5
20C
100
AcDbSymbolTableRecord
100
AcDbLayerTableRecord
  2
05__ASM_ALL_DTM_CSYS
 70
0
 62
7
  6
CONTINUOUS
  0
LAYER
  5
20D
100
AcDbSymbolTableRecord
100
AcDbLayerTableRecord
  2
05__ASM_DEF_DTM_CSYS
 70
0
 62
7
  6
CONTINUOUS
  0
LAYER
  5
20E
100
AcDbSymbolTableRecord
100
AcDbLayerTableRecord
  2
05___PRT_ALL_DTM_CSYS
 70
0
 62
7
  6
CONTINUOUS
  0
LAYER
  5
20F
100
AcDbSymbolTableRecord
100
AcDbLayerTableRecord
  2
05___PRT_DEF_DTM_CSYS
 70
0
 62
7
  6
CONTINUOUS
  0
LAYER
  5
210
100
AcDbSymbolTableRecord
100
AcDbLayerTableRecord
  2
06_ALL_SURFS
 70
0
 62
7
  6
CONTINUOUS
  0
LAYER
  5
211
100
AcDbSymbolTableRecord
100
AcDbLayerTableRecord
  2
06__ASM_ALL_SURFS
 70
0
 62
7
  6
CONTINUOUS
  0
LAYER
  5
212
100
AcDbSymbolTableRecord
100
AcDbLayerTableRecord
  2
06___PRT_ALL_SURFS
 70
0
 62
7
  6
CONTINUOUS
  0
LAYER
  5
213
100
AcDbSymbolTableRecord
100
AcDbLayerTableRecord
  2
07__ASM_ALL_SKELETONS
 70
0
 62
7
  6
CONTINUOUS
  0
LAYER
  5
214
100
AcDbSymbolTableRecord
100
AcDbLayerTableRecord
  2
1_ALL_PLANES
 70
0
 62
7
  6
CONTINUOUS
  0
LAYER
  5
215
100
AcDbSymbolTableRecord
100
AcDbLayerTableRecord
  2
2_ALL_CSYS
 70
0
 62
7
  6
CONTINUOUS
  0
LAYER
  5
216
100
AcDbSymbolTableRecord
100
AcDbLayerTableRecord
  2
3_ALL_AXES
 70
0
 62
7
  6
CONTINUOUS
  0
LAYER
  5
217
100
AcDbSymbolTableRecord
100
AcDbLayerTableRecord
  2
4_ALL_POINTS
 70
0
 62
7
  6
CONTINUOUS
  0
LAYER
  5
218
100
AcDbSymbolTableRecord
100
AcDbLayerTableRecord
  2
5_ALL_CURVES
 70
0
 62
7
  6
CONTINUOUS
  0
LAYER
  5
219
100
AcDbSymbolTableRecord
100
AcDbLayerTableRecord
  2
5__COSTRUZIONE
 70
0
 62
7
  6
CONTINUOUS
  0
LAYER
  5
21A
100
AcDbSymbolTableRecord
100
AcDbLayerTableRecord
  2
6_ALL_SURFS
 70
0
 62
7
  6
CONTINUOUS
  0
LAYER
  5
21B
100
AcDbSymbolTableRecord
100
AcDbLayerTableRecord
  2
7_ALL_FEATURES
 70
0
 62
7
  6
CONTINUOUS
  0
LAYER
  5
21C
100
AcDbSymbolTableRecord
100
AcDbLayerTableRecord
  2
9_SOLID
 70
0
 62
7
  6
CONTINUOUS
  0
LAYER
  5
21D
100
AcDbSymbolTableRecord
100
AcDbLayerTableRecord
  2
CLOSED_SHELL
 70
0
 62
7
  6
CONTINUOUS
  0
LAYER
  5
21E
100
AcDbSymbolTableRecord
100
AcDbLayerTableRecord
  2
F15255
 70
0
 62
7
  6
CONTINUOUS
  0
LAYER
  5
21F
100
AcDbSymbolTableRecord
100
AcDbLayerTableRecord
  2
F15340_001
 70
0
 62
7
  6
CONTINUOUS
  0
LAYER
  5
220
100
AcDbSymbolTableRecord
100
AcDbLayerTableRecord
  2
FP_001
 70
0
 62
7
  6
CONTINUOUS
  0
LAYER
  5
221
100
AcDbSymbolTableRecord
100
AcDbLayerTableRecord
  2
FP_HEKLA-PIC-X_001
 70
0
 62
7
  6
CONTINUOUS
  0
LAYER
  5
222
100
AcDbSymbolTableRecord
100
AcDbLayerTableRecord
  2
INTFCLR_2
 70
0
 62
7
  6
CONTINUOUS
  0
LAYER
  5
223
100
AcDbSymbolTableRecord
100
AcDbLayerTableRecord
  2
INTFCLR_3
 70
0
 62
7
  6
CONTINUOUS
  0
LAYER
  5
224
100
AcDbSymbolTableRecord
100
AcDbLayerTableRecord
  2
INTF_CYAN
 70
0
 62
7
  6
CONTINUOUS
  0
LAYER
  5
225
100
AcDbSymbolTableRecord
100
AcDbLayerTableRecord
  2
XXX_SOLIDO
 70
0
 62
7
  6
CONTINUOUS
  0
ENDTAB
  0
TABLE
  2
STYLE
  5
3
100
AcDbSymbolTable
 70
1
  0
STYLE
  5
11
100
AcDbSymbolTableRecord
100
AcDbTextStyleTableRecord
  2
STANDARD
 70
0
 40
0.0
 41
1.0
 50
0.0
 71
0
 42
0.2
  3
arial.ttf
  4

  0
STYLE
  5
226
100
AcDbSymbolTableRecord
100
AcDbTextStyleTableRecord
  2
TEXTSTYLE_1
 70
0
 40
0.0
 41
0.8
 50
0.0
 71
0
 42
0.2
  3
gdt
  4

  0
STYLE
  5
227
100
AcDbSymbolTableRecord
100
AcDbTextStyleTableRecord
  2
TEXTSTYLE_2
 70
0
 40
0.0
 41
0.85
 50
0.0
 71
0
 42
0.2
  3
gdt
  4

  0
STYLE
  5
228
100
AcDbSymbolTableRecord
100
AcDbTextStyleTableRecord
  2
TEXTSTYLE_3
 70
0
 40
0.0
 41
0.85
 50
0.0
 71
0
 42
0.2
  3
txt
  4

  0
ENDTAB
  0
TABLE
  2
VIEW
  5
6
100
AcDbSymbolTable
 70
0
  0
ENDTAB
  0
TABLE
  2
UCS
  5
7
100
AcDbSymbolTable
 70
0
  0
ENDTAB
  0
TABLE
  2
APPID
  5
9
100
AcDbSymbolTable
 70
1
  0
APPID
  5
229
100
AcDbSymbolTableRecord
100
AcDbRegAppTableRecord
  2
ACAD
 70
0
  0
ENDTAB
  0
TABLE
  2
BLOCK_RECORD
  5
1
100
AcDbSymbolTable
 70
0
  0
BLOCK_RECORD
  5
1F
100
AcDbSymbolTableRecord
100
AcDbBlockTableRecord
  2
*MODEL_SPACE
  0
BLOCK_RECORD
  5
1B
100
AcDbSymbolTableRecord
100
AcDbBlockTableRecord
  2
*PAPER_SPACE
  0
BLOCK_RECORD
  5
22A
100
AcDbSymbolTableRecord
100
AcDbBlockTableRecord
  2
_CLOSED
  0
BLOCK_RECORD
  5
22B
100
AcDbSymbolTableRecord
100
AcDbBlockTableRecord
  2
*D0
  0
BLOCK_RECORD
  5
22C
100
AcDbSymbolTableRecord
100
AcDbBlockTableRecord
  2
*D1
  0
BLOCK_RECORD
  5
22D
100
AcDbSymbolTableRecord
100
AcDbBlockTableRecord
  2
*D2
  0
BLOCK_RECORD
  5
22E
100
AcDbSymbolTableRecord
100
AcDbBlockTableRecord
  2
*D3
  0
BLOCK_RECORD
  5
22F
100
AcDbSymbolTableRecord
100
AcDbBlockTableRecord
  2
*D4
  0
BLOCK_RECORD
  5
230
100
AcDbSymbolTableRecord
100
AcDbBlockTableRecord
  2
LOGO2_BL0
  0
ENDTAB
  0
TABLE
  2
DIMSTYLE
  5
A
100
AcDbSymbolTable
 70
1
  0
DIMSTYLE
105
231
100
AcDbSymbolTableRecord
100
AcDbDimStyleTableRecord
  2
STANDARD
 70
0
  3

  4

  5
_CLOSED
  6
_CLOSED
  7
_CLOSED
 40
1.0
 41
2.5
 42
0.75
 43
0.38
 44
0.75
 45
0.0
 46
0.0
 47
0.01
 48
0.01
140
3.0
141
0.09
142
0.0
143
25.4
144
1.0
145
0.0
146
1.0
147
0.625
 71
1.0
 72
0.0
 73
0
 74
0
 75
0
 76
0
 77
1
 78
8
 79
2
170
0
171
1
172
0
173
0
174
0
175
0
176
0
177
0
178
0
270
2
179
2
271
2
272
2
273
2
274
2
275
0
280
0
281
0
282
0
283
1
284
8
285
0
286
0
287
3
288
0
340
11
  0
DIMSTYLE
105
232
100
AcDbSymbolTableRecord
100
AcDbDimStyleTableRecord
  2
DIMSTYLE_1
 70
0
  3
<>
  4

  5
_CLOSED
  6
_CLOSED
  7
_CLOSED
 40
1.0
 41
2.5
 42
0.75
 43
0.38
 44
0.75
 45
0.0
 46
0.0
 47
0.3
 48
0.3
140
3.0
141
0.09
142
0.0
143
25.4
144
1.0
145
0.0
146
1.0
147
0.625
 71
0.0
 72
0.0
 73
0
 74
0
 75
0
 76
0
 77
1
 78
8
 79
2
170
0
171
1
172
1
173
0
174
0
175
0
176
0
177
0
178
0
270
2
179
2
271
2
272
2
273
2
274
2
275
0
280
0
281
0
282
0
283
1
284
8
285
0
286
0
287
3
288
1
340
11
  0
DIMSTYLE
105
233
100
AcDbSymbolTableRecord
100
AcDbDimStyleTableRecord
  2
DIMSTYLE_2
 70
0
  3

  4

  5
_CLOSED
  6
_CLOSED
  7
_CLOSED
 40
1.0
 41
2.5
 42
0.75
 43
0.38
 44
0.75
 45
0.0
 46
0.0
 47
0.3
 48
0.3
140
3.0
141
0.09
142
0.0
143
25.4
144
1.0
145
0.0
146
1.0
147
0.75
 71
0.0
 72
0.0
 73
0
 74
0
 75
0
 76
0
 77
1
 78
8
 79
2
170
0
171
1
172
0
173
0
174
0
175
0
176
0
177
0
178
0
270
2
179
2
271
2
272
2
273
2
274
2
275
0
280
0
281
0
282
0
283
1
284
8
285
0
286
0
287
3
288
0
340
11
  0
DIMSTYLE
105
234
100
AcDbSymbolTableRecord
100
AcDbDimStyleTableRecord
  2
DIMSTYLE_3
 70
0
  3

  4

  5
_CLOSED
  6
_CLOSED
  7
_CLOSED
 40
1.0
 41
2.5
 42
0.75
 43
0.38
 44
0.75
 45
0.0
 46
0.0
 47
0.2
 48
0.2
140
3.0
141
0.09
142
0.0
143
25.4
144
1.0
145
0.0
146
1.0
147
0.75
 71
0.0
 72
0.0
 73
0
 74
0
 75
0
 76
0
 77
1
 78
8
 79
2
170
0
171
1
172
0
173
0
174
0
175
0
176
0
177
0
178
0
270
2
179
2
271
2
272
2
273
2
274
2
275
0
280
0
281
0
282
0
283
1
284
8
285
0
286
0
287
3
288
0
340
11
  0
ENDTAB
  0
ENDSEC
  0
SECTION
  2
BLOCKS
  0
BLOCK
  5
20
100
AcDbEntity
  8
0
100
AcDbBlockBegin
  2
*MODEL_SPACE
 70
0
 10
0.0
 20
0.0
 30
0.0
  3
*MODEL_SPACE
  1

  0
ENDBLK
  5
21
100
AcDbEntity
  8
0
100
AcDbBlockEnd
  0
BLOCK
  5
1C
100
AcDbEntity
  8
0
100
AcDbBlockBegin
  2
*PAPER_SPACE
 70
0
 10
0.0
 20
0.0
 30
0.0
  3
*PAPER_SPACE
  1

  0
ENDBLK
  5
1D
100
AcDbEntity
  8
0
100
AcDbBlockEnd
  0
BLOCK
  5
235
100
AcDbEntity
  8
0
100
AcDbBlockBegin
 62
2
  6
CONTINUOUS
  2
LOGO2_BL0
 70
64
 10
333.6475659158
 20
36.9217920391
  3
LOGO2_BL0
  1

  0
LINE
  5
236
100
AcDbEntity
  8
0
100
AcDbLine
 62
7
  6
CONTINUOUS
 10
325.390491144
 20
40.1172833779
 11
324.0861502147
 21
40.1172833779
  0
LINE
  5
237
100
AcDbEntity
  8
0
100
AcDbLine
 62
7
  6
CONTINUOUS
 10
324.0861502147
 20
40.1172833779
 11
324.0861502147
 21
29.6582173181
  0
LINE
  5
238
100
AcDbEntity
  8
0
100
AcDbLine
 62
7
  6
CONTINUOUS
 10
324.0861502147
 20
29.6582173181
 11
328.567205103
 21
29.6582173181
  0
LINE
  5
239
100
AcDbEntity
  8
0
100
AcDbLine
 62
7
  6
CONTINUOUS
 10
328.567205103
 20
29.6582173181
 11
328.567205103
 21
30.8510716431
  0
LINE
  5
23A
100
AcDbEntity
  8
0
100
AcDbLine
 62
7
  6
CONTINUOUS
 10
328.567205103
 20
30.8510716431
 11
325.390491144
 21
30.8510716431
  0
LINE
  5
23B
100
AcDbEntity
  8
0
100
AcDbLine
 62
7
  6
CONTINUOUS
 10
325.390491144
 20
30.8510716431
 11
325.390491144
 21
40.1172833779
  0
LINE
  5
23C
100
AcDbEntity
  8
0
100
AcDbLine
 62
7
  6
CONTINUOUS
 10
340.3268173604
 20
40.1172833779
 11
339.0229998423
 21
40.1172833779
  0
LINE
  5
23D
100
AcDbEntity
  8
0
100
AcDbLine
 62
7
  6
CONTINUOUS
 10
339.0229998423
 20
40.1172833779
 11
339.0229998423
 21
29.6582173181
  0
LINE
  5
23E
100
AcDbEntity
  8
0
100
AcDbLine
 62
7
  6
CONTINUOUS
 10
339.0229998423
 20
29.6582173181
 11
343.5041855834
 21
29.6582173181
  0
LINE
  5
23F
100
AcDbEntity
  8
0
100
AcDbLine
 62
7
  6
CONTINUOUS
 10
343.5041855834
 20
29.6582173181
 11
343.5041855834
 21
30.8510716431
  0
LINE
  5
240
100
AcDbEntity
  8
0
100
AcDbLine
 62
7
  6
CONTINUOUS
 10
343.5041855834
 20
30.8510716431
 11
340.3268173604
 21
30.8510716431
  0
LINE
  5
241
100
AcDbEntity
  8
0
100
AcDbLine
 62
7
  6
CONTINUOUS
 10
340.3268173604
 20
30.8510716431
 11
340.3268173604
 21
40.1172833779
  0
LWPOLYLINE
  5
242
100
AcDbEntity
  8
0
100
AcDbPolyline
 62
7
  6
CONTINUOUS
 90
2
 70
0
 43
0.2
 10
322.4405451256
 20
26.3146660112
 10
322.4405451256
 20
24.4576027618
  0
LWPOLYLINE
  5
243
100
AcDbEntity
  8
0
100
AcDbPolyline
 62
7
  6
CONTINUOUS
 90
2
 70
0
 43
0.2
 10
322.4405451256
 20
24.4576027618
 10
323.236261136
 20
24.4576027618
  0
LWPOLYLINE
  5
244
100
AcDbEntity
  8
0
100
AcDbPolyline
 62
7
  6
CONTINUOUS
 90
2
 70
0
 43
0.2
 10
323.236261136
 20
24.4576027618
 10
323.236261136
 20
24.6695843334
  0
LWPOLYLINE
  5
245
100
AcDbEntity
  8
0
100
AcDbPolyline
 62
7
  6
CONTINUOUS
 90
2
 70
0
 43
0.2
 10
323.236261136
 20
24.6695843334
 10
322.6721546205
 20
24.6695843334
  0
LWPOLYLINE
  5
246
100
AcDbEntity
  8
0
100
AcDbPolyline
 62
7
  6
CONTINUOUS
 90
2
 70
0
 43
0.2
 10
322.6721546205
 20
24.6695843334
 10
322.6721546205
 20
26.3146660112
  0
LWPOLYLINE
  5
247
100
AcDbEntity
  8
0
100
AcDbPolyline
 62
7
  6
CONTINUOUS
 90
2
 70
0
 43
0.2
 10
322.6721546205
 20
26.3146660112
 10
322.4405451256
 20
26.3146660112
  0
SPLINE
  5
248
100
AcDbEntity
  8
0
100
AcDbSpline
 62
7
  6
CONTINUOUS
 70
2
 71
3
 72
35
 73
31
 74
0
 42
0.0000001
 43
0.0000001
 44
0.0000000001
 40
0.0
 40
0.0
 40
0.0
 40
0.0
 40
1.0
 40
1.0
 40
1.0
 40
2.0
 40
2.0
 40
2.0
 40
3.0
 40
3.0
 40
3.0
 40
4.0
 40
4.0
 40
4.0
 40
5.0
 40
5.0
 40
5.0
 40
6.0
 40
6.0
 40
6.0
 40
7.0
 40
7.0
 40
7.0
 40
8.0
 40
8.0
 40
8.0
 40
9.0
 40
9.0
 40
9.0
 40
10.0
 40
10.0
 40
10.0
 40
10.0
 10
324.6345543915
 20
25.6101544177
 30
0.0
 10
324.6345543915
 20
25.6101544177
 30
0.0
 10
324.6345543915
 20
24.9480391385
 30
0.0
 10
324.6345543915
 20
24.9480391385
 30
0.0
 10
324.6345543915
 20
24.6329455432
 30
0.0
 10
324.7824180804
 20
24.4183469152
 30
0.0
 10
325.1225045647
 20
24.4183469152
 30
0.0
 10
325.4620676377
 20
24.4183469152
 30
0.0
 10
325.6101930321
 20
24.6329455432
 30
0.0
 10
325.6101930321
 20
24.9480391385
 30
0.0
 10
325.6101930321
 20
24.9480391385
 30
0.0
 10
325.6101930321
 20
25.6101544177
 30
0.0
 10
325.6101930321
 20
25.6101544177
 30
0.0
 10
325.6101930321
 20
25.6101544177
 30
0.0
 10
325.3881357933
 20
25.6101544177
 30
0.0
 10
325.3881357933
 20
25.6101544177
 30
0.0
 10
325.3881357933
 20
25.6101544177
 30
0.0
 10
325.3881357933
 20
24.9731628803
 30
0.0
 10
325.3881357933
 20
24.9731628803
 30
0.0
 10
325.3881357933
 20
24.7873518732
 30
0.0
 10
325.3414213358
 20
24.6245709626
 30
0.0
 10
325.1225045647
 20
24.6245709626
 30
0.0
 10
324.9030643822
 20
24.6245709626
 30
0.0
 10
324.8563499248
 20
24.7873518732
 30
0.0
 10
324.8563499248
 20
24.9731628803
 30
0.0
 10
324.8563499248
 20
24.9731628803
 30
0.0
 10
324.8563499248
 20
25.6101544177
 30
0.0
 10
324.8563499248
 20
25.6101544177
 30
0.0
 10
324.8563499248
 20
25.6101544177
 30
0.0
 10
324.6345543915
 20
25.6101544177
 30
0.0
 10
324.6345543915
 20
25.6101544177
 30
0.0
  0
SPLINE
  5
249
100
AcDbEntity
  8
0
100
AcDbSpline
 62
7
  6
CONTINUOUS
 70
2
 71
3
 72
35
 73
31
 74
0
 42
0.0000001
 43
0.0000001
 44
0.0000000001
 40
0.0
 40
0.0
 40
0.0
 40
0.0
 40
1.0
 40
1.0
 40
1.0
 40
2.0
 40
2.0
 40
2.0
 40
3.0
 40
3.0
 40
3.0
 40
4.0
 40
4.0
 40
4.0
 40
5.0
 40
5.0
 40
5.0
 40
6.0
 40
6.0
 40
6.0
 40
7.0
 40
7.0
 40
7.0
 40
8.0
 40
8.0
 40
8.0
 40
9.0
 40
9.0
 40
9.0
 40
10.0
 40
10.0
 40
10.0
 40
10.0
 10
328.0333255893
 20
25.5688049259
 30
0.0
 10
327.9448690817
 20
25.6200992322
 30
0.0
 10
327.831419685
 20
25.645222974
 30
0.0
 10
327.72778425
 20
25.645222974
 30
0.0
 10
327.3729113969
 20
25.645222974
 30
0.0
 10
327.0974662066
 20
25.3814236849
 30
0.0
 10
327.0974662066
 20
25.0239337753
 30
0.0
 10
327.0974662066
 20
24.6790057366
 30
0.0
 10
327.3759210118
 20
24.4188703265
 30
0.0
 10
327.7154840848
 20
24.4188703265
 30
0.0
 10
327.831419685
 20
24.4188703265
 30
0.0
 10
327.9321763579
 20
24.4408536006
 30
0.0
 10
328.0333255893
 20
24.4947649632
 30
0.0
 10
328.0333255893
 20
24.4947649632
 30
0.0
 10
328.0333255893
 20
24.7774070587
 30
0.0
 10
328.0333255893
 20
24.7774070587
 30
0.0
 10
327.9494489304
 20
24.6842398494
 30
0.0
 10
327.8459443483
 20
24.6250943739
 30
0.0
 10
327.7178394356
 20
24.6250943739
 30
0.0
 10
327.4841362955
 20
24.6250943739
 30
0.0
 10
327.3188691814
 20
24.7972966876
 30
0.0
 10
327.3188691814
 20
25.0338785897
 30
0.0
 10
327.3188691814
 20
25.2458601613
 30
0.0
 10
327.4866224991
 20
25.437952104
 30
0.0
 10
327.7034456251
 20
25.437952104
 30
0.0
 10
327.8362612394
 20
25.437952104
 30
0.0
 10
327.9448690817
 20
25.3840407413
 30
0.0
 10
328.0333255893
 20
25.2830223628
 30
0.0
 10
328.0333255893
 20
25.2830223628
 30
0.0
 10
328.0333255893
 20
25.5688049259
 30
0.0
 10
328.0333255893
 20
25.5688049259
 30
0.0
  0
SPLINE
  5
24A
100
AcDbEntity
  8
0
100
AcDbSpline
 62
7
  6
CONTINUOUS
 70
2
 71
3
 72
32
 73
28
 74
0
 42
0.0000001
 43
0.0000001
 44
0.0000000001
 40
0.0
 40
0.0
 40
0.0
 40
0.0
 40
1.0
 40
1.0
 40
1.0
 40
2.0
 40
2.0
 40
2.0
 40
3.0
 40
3.0
 40
3.0
 40
4.0
 40
4.0
 40
4.0
 40
5.0
 40
5.0
 40
5.0
 40
6.0
 40
6.0
 40
6.0
 40
7.0
 40
7.0
 40
7.0
 40
8.0
 40
8.0
 40
8.0
 40
9.0
 40
9.0
 40
9.0
 40
9.0
 10
330.5651968416
 20
24.9972397996
 30
0.0
 10
330.5651968416
 20
24.9972397996
 30
0.0
 10
330.5651968416
 20
25.0312615333
 30
0.0
 10
330.5651968416
 20
25.0312615333
 30
0.0
 10
330.5651968416
 20
25.3735725156
 30
0.0
 10
330.3923402638
 20
25.645222974
 30
0.0
 10
330.0256906566
 20
25.645222974
 30
0.0
 10
329.6540686422
 20
25.645222974
 30
0.0
 10
329.4643320504
 20
25.3788066284
 30
0.0
 10
329.4643320504
 20
25.0239337753
 30
0.0
 10
329.4643320504
 20
24.6842398494
 30
0.0
 10
329.6784072671
 20
24.4183469152
 30
0.0
 10
330.030532211
 20
24.4183469152
 30
0.0
 10
330.2545522422
 20
24.4183469152
 30
0.0
 10
330.4567198522
 20
24.5340208098
 30
0.0
 10
330.5651968416
 20
24.7334405105
 30
0.0
 10
330.5651968416
 20
24.7334405105
 30
0.0
 10
330.3775538949
 20
24.8402164132
 30
0.0
 10
330.3775538949
 20
24.8402164132
 30
0.0
 10
330.2940697945
 20
24.7015124219
 30
0.0
 10
330.2028653775
 20
24.6156729707
 30
0.0
 10
330.0332801203
 20
24.6156729707
 30
0.0
 10
329.8212985487
 20
24.6156729707
 30
0.0
 10
329.6883520816
 20
24.8004371554
 30
0.0
 10
329.6859967308
 20
24.9972397996
 30
0.0
 10
329.6859967308
 20
24.9972397996
 30
0.0
 10
330.5651968416
 20
24.9972397996
 30
0.0
 10
330.5651968416
 20
24.9972397996
 30
0.0
  0
SPLINE
  5
24B
100
AcDbEntity
  8
0
100
AcDbSpline
 62
7
  6
CONTINUOUS
 70
2
 71
3
 72
14
 73
10
 74
0
 42
0.0000001
 43
0.0000001
 44
0.0000000001
 40
0.0
 40
0.0
 40
0.0
 40
0.0
 40
1.0
 40
1.0
 40
1.0
 40
2.0
 40
2.0
 40
2.0
 40
3.0
 40
3.0
 40
3.0
 40
3.0
 10
329.6980351904
 20
25.1647314117
 30
0.0
 10
329.7256451358
 20
25.3296059674
 30
0.0
 10
329.8534883429
 20
25.45260762
 30
0.0
 10
330.0256906566
 20
25.45260762
 30
0.0
 10
330.2028653775
 20
25.45260762
 30
0.0
 10
330.3163147742
 20
25.3369337254
 30
0.0
 10
330.3435321612
 20
25.1647314117
 30
0.0
 10
330.3435321612
 20
25.1647314117
 30
0.0
 10
329.6980351904
 20
25.1647314117
 30
0.0
 10
329.6980351904
 20
25.1647314117
 30
0.0
  0
SPLINE
  5
24C
100
AcDbEntity
  8
0
100
AcDbSpline
 62
7
  6
CONTINUOUS
 70
2
 71
3
 72
20
 73
16
 74
0
 42
0.0000001
 43
0.0000001
 44
0.0000000001
 40
0.0
 40
0.0
 40
0.0
 40
0.0
 40
1.0
 40
1.0
 40
1.0
 40
2.0
 40
2.0
 40
2.0
 40
3.0
 40
3.0
 40
3.0
 40
4.0
 40
4.0
 40
4.0
 40
5.0
 40
5.0
 40
5.0
 40
5.0
 10
332.5892282918
 20
25.3740959269
 30
0.0
 10
332.5892282918
 20
25.3740959269
 30
0.0
 10
333.0003678584
 20
24.8716210905
 30
0.0
 10
333.0003678584
 20
24.8716210905
 30
0.0
 10
332.8843014053
 20
24.7559471959
 30
0.0
 10
332.7465133838
 20
24.6256177852
 30
0.0
 10
332.5745727757
 20
24.6256177852
 30
0.0
 10
332.3971363491
 20
24.6256177852
 30
0.0
 10
332.229644737
 20
24.7899689296
 30
0.0
 10
332.229644737
 20
24.9668819449
 30
0.0
 10
332.229644737
 20
25.1448417828
 30
0.0
 10
332.4394018106
 20
25.2709839031
 30
0.0
 10
332.566983312
 20
25.3589169995
 30
0.0
 10
332.566983312
 20
25.3589169995
 30
0.0
 10
332.5892282918
 20
25.3740959269
 30
0.0
 10
332.5892282918
 20
25.3740959269
 30
0.0
  0
SPLINE
  5
24D
100
AcDbEntity
  8
0
100
AcDbSpline
 62
7
  6
CONTINUOUS
 70
2
 71
3
 72
23
 73
19
 74
0
 42
0.0000001
 43
0.0000001
 44
0.0000000001
 40
0.0
 40
0.0
 40
0.0
 40
0.0
 40
1.0
 40
1.0
 40
1.0
 40
2.0
 40
2.0
 40
2.0
 40
3.0
 40
3.0
 40
3.0
 40
4.0
 40
4.0
 40
4.0
 40
5.0
 40
5.0
 40
5.0
 40
6.0
 40
6.0
 40
6.0
 40
6.0
 10
332.6385598056
 20
25.6651126029
 30
0.0
 10
332.6385598056
 20
25.6651126029
 30
0.0
 10
332.5769281265
 20
25.7436242961
 30
0.0
 10
332.5769281265
 20
25.7436242961
 30
0.0
 10
332.5230167639
 20
25.8121911748
 30
0.0
 10
332.4662266391
 20
25.8812814648
 30
0.0
 10
332.4662266391
 20
25.9749720853
 30
0.0
 10
332.4662266391
 20
26.0937864477
 30
0.0
 10
332.5621417576
 20
26.1712513183
 30
0.0
 10
332.6731049506
 20
26.1712513183
 30
0.0
 10
332.7963683089
 20
26.1712513183
 30
0.0
 10
332.889666371
 20
26.1000673831
 30
0.0
 10
332.889666371
 20
25.9697379725
 30
0.0
 10
332.889666371
 20
25.8346978602
 30
0.0
 10
332.7615614583
 20
25.7582798122
 30
0.0
 10
332.6680016906
 20
25.6844788206
 30
0.0
 10
332.6680016906
 20
25.6844788206
 30
0.0
 10
332.6385598056
 20
25.6651126029
 30
0.0
 10
332.6385598056
 20
25.6651126029
 30
0.0
  0
SPLINE
  5
24E
100
AcDbEntity
  8
0
100
AcDbSpline
 62
7
  6
CONTINUOUS
 70
2
 71
3
 72
50
 73
46
 74
0
 42
0.0000001
 43
0.0000001
 44
0.0000000001
 40
0.0
 40
0.0
 40
0.0
 40
0.0
 40
1.0
 40
1.0
 40
1.0
 40
2.0
 40
2.0
 40
2.0
 40
3.0
 40
3.0
 40
3.0
 40
4.0
 40
4.0
 40
4.0
 40
5.0
 40
5.0
 40
5.0
 40
6.0
 40
6.0
 40
6.0
 40
7.0
 40
7.0
 40
7.0
 40
8.0
 40
8.0
 40
8.0
 40
9.0
 40
9.0
 40
9.0
 40
10.0
 40
10.0
 40
10.0
 40
11.0
 40
11.0
 40
11.0
 40
12.0
 40
12.0
 40
12.0
 40
13.0
 40
13.0
 40
13.0
 40
14.0
 40
14.0
 40
14.0
 40
15.0
 40
15.0
 40
15.0
 40
15.0
 10
333.3407160483
 20
24.4581261731
 30
0.0
 10
333.3407160483
 20
24.4581261731
 30
0.0
 10
333.626106053
 20
24.4581261731
 30
0.0
 10
333.626106053
 20
24.4581261731
 30
0.0
 10
333.626106053
 20
24.4581261731
 30
0.0
 10
333.2937398852
 20
24.8690040341
 30
0.0
 10
333.2937398852
 20
24.8690040341
 30
0.0
 10
333.2937398852
 20
24.8690040341
 30
0.0
 10
333.5202461201
 20
25.1348969683
 30
0.0
 10
333.5202461201
 20
25.1348969683
 30
0.0
 10
333.5202461201
 20
25.1348969683
 30
0.0
 10
333.3719898728
 20
25.2877330644
 30
0.0
 10
333.3719898728
 20
25.2877330644
 30
0.0
 10
333.3719898728
 20
25.2877330644
 30
0.0
 10
333.1560827165
 20
25.0364956462
 30
0.0
 10
333.1560827165
 20
25.0364956462
 30
0.0
 10
333.1560827165
 20
25.0364956462
 30
0.0
 10
332.7690200692
 20
25.5044253375
 30
0.0
 10
332.7690200692
 20
25.5044253375
 30
0.0
 10
332.9244732216
 20
25.6185289983
 30
0.0
 10
333.1067512026
 20
25.7582798122
 30
0.0
 10
333.1067512026
 20
25.9676443273
 30
0.0
 10
333.1067512026
 20
26.2115539874
 30
0.0
 10
332.9047144455
 20
26.3549686803
 30
0.0
 10
332.6782082107
 20
26.3549686803
 30
0.0
 10
332.4340368449
 20
26.3549686803
 30
0.0
 10
332.2496652188
 20
26.2042262294
 30
0.0
 10
332.2496652188
 20
25.9477546984
 30
0.0
 10
332.2496652188
 20
25.7902079007
 30
0.0
 10
332.3483282465
 20
25.652550732
 30
0.0
 10
332.4536647682
 20
25.541587539
 30
0.0
 10
332.4536647682
 20
25.541587539
 30
0.0
 10
332.3381217264
 20
25.4578417329
 30
0.0
 10
332.3381217264
 20
25.4578417329
 30
0.0
 10
332.1604235942
 20
25.3296059674
 30
0.0
 10
332.0130833166
 20
25.2018936131
 30
0.0
 10
332.0130833166
 20
24.9647882997
 30
0.0
 10
332.0130833166
 20
24.6444605916
 30
0.0
 10
332.2716484929
 20
24.4183469152
 30
0.0
 10
332.5820313866
 20
24.4183469152
 30
0.0
 10
332.8009481577
 20
24.4183469152
 30
0.0
 10
332.9981433604
 20
24.543442213
 30
0.0
 10
333.1384175856
 20
24.7093635913
 30
0.0
 10
333.1384175856
 20
24.7093635913
 30
0.0
 10
333.3407160483
 20
24.4581261731
 30
0.0
 10
333.3407160483
 20
24.4581261731
 30
0.0
  0
LWPOLYLINE
  5
24F
100
AcDbEntity
  8
0
100
AcDbPolyline
 62
7
  6
CONTINUOUS
 90
2
 70
0
 43
0.2
 10
335.276160138
 20
26.3146660112
 10
335.0448123488
 20
26.3146660112
  0
LWPOLYLINE
  5
250
100
AcDbEntity
  8
0
100
AcDbPolyline
 62
7
  6
CONTINUOUS
 90
2
 70
0
 43
0.2
 10
335.0448123488
 20
26.3146660112
 10
335.0448123488
 20
24.4576027618
  0
LWPOLYLINE
  5
251
100
AcDbEntity
  8
0
100
AcDbPolyline
 62
7
  6
CONTINUOUS
 90
2
 70
0
 43
0.2
 10
335.0448123488
 20
24.4576027618
 10
335.8401358007
 20
24.4576027618
  0
LWPOLYLINE
  5
252
100
AcDbEntity
  8
0
100
AcDbPolyline
 62
7
  6
CONTINUOUS
 90
2
 70
0
 43
0.2
 10
335.8401358007
 20
24.4576027618
 10
335.8401358007
 20
24.6695843334
  0
LWPOLYLINE
  5
253
100
AcDbEntity
  8
0
100
AcDbPolyline
 62
7
  6
CONTINUOUS
 90
2
 70
0
 43
0.2
 10
335.8401358007
 20
24.6695843334
 10
335.276160138
 20
24.6695843334
  0
LWPOLYLINE
  5
254
100
AcDbEntity
  8
0
100
AcDbPolyline
 62
7
  6
CONTINUOUS
 90
2
 70
0
 43
0.2
 10
335.276160138
 20
24.6695843334
 10
335.276160138
 20
26.3146660112
  0
LWPOLYLINE
  5
255
100
AcDbEntity
  8
0
100
AcDbPolyline
 62
7
  6
CONTINUOUS
 90
2
 70
0
 43
0.2
 10
337.5192392122
 20
25.6101544177
 10
337.2980979431
 20
25.6101544177
  0
LWPOLYLINE
  5
256
100
AcDbEntity
  8
0
100
AcDbPolyline
 62
7
  6
CONTINUOUS
 90
2
 70
0
 43
0.2
 10
337.2980979431
 20
25.6101544177
 10
337.2980979431
 20
24.4581261731
  0
LWPOLYLINE
  5
257
100
AcDbEntity
  8
0
100
AcDbPolyline
 62
7
  6
CONTINUOUS
 90
2
 70
0
 43
0.2
 10
337.2980979431
 20
24.4581261731
 10
337.5192392122
 20
24.4581261731
  0
LWPOLYLINE
  5
258
100
AcDbEntity
  8
0
100
AcDbPolyline
 62
7
  6
CONTINUOUS
 90
2
 70
0
 43
0.2
 10
337.5192392122
 20
24.4581261731
 10
337.5192392122
 20
25.6101544177
  0
LWPOLYLINE
  5
259
100
AcDbEntity
  8
0
100
AcDbPolyline
 62
7
  6
CONTINUOUS
 90
2
 70
1
 43
0.2
 10
337.256215935
 20
26.1401083467
 42
1.0
 10
337.5613829259
 20
26.1401083467
 42
1.0
  0
SPLINE
  5
25A
100
AcDbEntity
  8
0
100
AcDbSpline
 62
7
  6
CONTINUOUS
 70
2
 71
3
 72
17
 73
13
 74
0
 42
0.0000001
 43
0.0000001
 44
0.0000000001
 40
0.0
 40
0.0
 40
0.0
 40
0.0
 40
1.0
 40
1.0
 40
1.0
 40
2.0
 40
2.0
 40
2.0
 40
3.0
 40
3.0
 40
3.0
 40
4.0
 40
4.0
 40
4.0
 40
4.0
 10
339.6495231538
 20
24.6156729707
 30
0.0
 10
339.4155583082
 20
24.6156729707
 30
0.0
 10
339.2852288975
 20
24.8177097279
 30
0.0
 10
339.2852288975
 20
25.0338785897
 30
0.0
 10
339.2852288975
 20
25.2484772178
 30
0.0
 10
339.4210541267
 20
25.4473735072
 30
0.0
 10
339.6495231538
 20
25.4473735072
 30
0.0
 10
339.888983818
 20
25.4473735072
 30
0.0
 10
340.0245473416
 20
25.2584220322
 30
0.0
 10
340.0245473416
 20
25.0338785897
 30
0.0
 10
340.0245473416
 20
24.8077649134
 30
0.0
 10
339.8913391688
 20
24.6156729707
 30
0.0
 10
339.6495231538
 20
24.6156729707
 30
0.0
  0
SPLINE
  5
25B
100
AcDbEntity
  8
0
100
AcDbSpline
 62
7
  6
CONTINUOUS
 70
2
 71
3
 72
50
 73
46
 74
0
 42
0.0000001
 43
0.0000001
 44
0.0000000001
 40
0.0
 40
0.0
 40
0.0
 40
0.0
 40
1.0
 40
1.0
 40
1.0
 40
2.0
 40
2.0
 40
2.0
 40
3.0
 40
3.0
 40
3.0
 40
4.0
 40
4.0
 40
4.0
 40
5.0
 40
5.0
 40
5.0
 40
6.0
 40
6.0
 40
6.0
 40
7.0
 40
7.0
 40
7.0
 40
8.0
 40
8.0
 40
8.0
 40
9.0
 40
9.0
 40
9.0
 40
10.0
 40
10.0
 40
10.0
 40
11.0
 40
11.0
 40
11.0
 40
12.0
 40
12.0
 40
12.0
 40
13.0
 40
13.0
 40
13.0
 40
14.0
 40
14.0
 40
14.0
 40
15.0
 40
15.0
 40
15.0
 40
15.0
 10
340.2336501511
 20
25.610677829
 30
0.0
 10
340.2336501511
 20
25.610677829
 30
0.0
 10
340.0119854707
 20
25.610677829
 30
0.0
 10
340.0119854707
 20
25.610677829
 30
0.0
 10
340.0119854707
 20
25.610677829
 30
0.0
 10
340.0119854707
 20
25.4133517734
 30
0.0
 10
340.0119854707
 20
25.4133517734
 30
0.0
 10
340.0119854707
 20
25.4133517734
 30
0.0
 10
340.0072747691
 20
25.4133517734
 30
0.0
 10
340.0072747691
 20
25.4133517734
 30
0.0
 10
339.9159394994
 20
25.556243055
 30
0.0
 10
339.778020625
 20
25.6446995627
 30
0.0
 10
339.6052949
 20
25.6446995627
 30
0.0
 10
339.2729287322
 20
25.6446995627
 30
0.0
 10
339.0638259227
 20
25.3568233544
 30
0.0
 10
339.0638259227
 20
25.0412063478
 30
0.0
 10
339.0638259227
 20
24.7114572364
 30
0.0
 10
339.2608902726
 20
24.4183469152
 30
0.0
 10
339.6157631258
 20
24.4183469152
 30
0.0
 10
339.778020625
 20
24.4183469152
 30
0.0
 10
339.9180331445
 20
24.5068034229
 30
0.0
 10
340.0072747691
 20
24.6376562448
 30
0.0
 10
340.0072747691
 20
24.6376562448
 30
0.0
 10
340.0119854707
 20
24.6376562448
 30
0.0
 10
340.0119854707
 20
24.6376562448
 30
0.0
 10
340.0119854707
 20
24.6376562448
 30
0.0
 10
340.0119854707
 20
24.4183469152
 30
0.0
 10
340.0119854707
 20
24.4183469152
 30
0.0
 10
340.0119854707
 20
24.1817650131
 30
0.0
 10
339.9554570516
 20
23.9949071833
 30
0.0
 10
339.6822363593
 20
23.9949071833
 30
0.0
 10
339.4799378966
 20
23.9949071833
 30
0.0
 10
339.3373083206
 20
24.1131981344
 30
0.0
 10
339.3373083206
 20
24.3194221818
 30
0.0
 10
339.3373083206
 20
24.3194221818
 30
0.0
 10
339.1156436402
 20
24.3194221818
 30
0.0
 10
339.1156436402
 20
24.3194221818
 30
0.0
 10
339.1206160475
 20
23.9949071833
 30
0.0
 10
339.351702131
 20
23.7981045391
 30
0.0
 10
339.6720298392
 20
23.7981045391
 30
0.0
 10
340.1200699016
 20
23.7981045391
 30
0.0
 10
340.2336501511
 20
24.083363691
 30
0.0
 10
340.2336501511
 20
24.4801094472
 30
0.0
 10
340.2336501511
 20
24.4801094472
 30
0.0
 10
340.2336501511
 20
25.610677829
 30
0.0
 10
340.2336501511
 20
25.610677829
 30
0.0
  0
SPLINE
  5
25C
100
AcDbEntity
  8
0
100
AcDbSpline
 62
7
  6
CONTINUOUS
 70
2
 71
3
 72
44
 73
40
 74
0
 42
0.0000001
 43
0.0000001
 44
0.0000000001
 40
0.0
 40
0.0
 40
0.0
 40
0.0
 40
1.0
 40
1.0
 40
1.0
 40
2.0
 40
2.0
 40
2.0
 40
3.0
 40
3.0
 40
3.0
 40
4.0
 40
4.0
 40
4.0
 40
5.0
 40
5.0
 40
5.0
 40
6.0
 40
6.0
 40
6.0
 40
7.0
 40
7.0
 40
7.0
 40
8.0
 40
8.0
 40
8.0
 40
9.0
 40
9.0
 40
9.0
 40
10.0
 40
10.0
 40
10.0
 40
11.0
 40
11.0
 40
11.0
 40
12.0
 40
12.0
 40
12.0
 40
13.0
 40
13.0
 40
13.0
 40
13.0
 10
341.8025754865
 20
26.5957378727
 30
0.0
 10
341.8025754865
 20
26.5957378727
 30
0.0
 10
341.8025754865
 20
24.4576027618
 30
0.0
 10
341.8025754865
 20
24.4576027618
 30
0.0
 10
341.8025754865
 20
24.4576027618
 30
0.0
 10
342.0239784613
 20
24.4576027618
 30
0.0
 10
342.0239784613
 20
24.4576027618
 30
0.0
 10
342.0239784613
 20
24.4576027618
 30
0.0
 10
342.0239784613
 20
24.9872949851
 30
0.0
 10
342.0239784613
 20
24.9872949851
 30
0.0
 10
342.0239784613
 20
25.1971829116
 30
0.0
 10
342.0239784613
 20
25.4478969184
 30
0.0
 10
342.3092376132
 20
25.4478969184
 30
0.0
 10
342.5361364065
 20
25.4478969184
 30
0.0
 10
342.5630920878
 20
25.3149504513
 30
0.0
 10
342.5630920878
 20
25.1186712184
 30
0.0
 10
342.5630920878
 20
25.1186712184
 30
0.0
 10
342.5630920878
 20
24.4576027618
 30
0.0
 10
342.5630920878
 20
24.4576027618
 30
0.0
 10
342.5630920878
 20
24.4576027618
 30
0.0
 10
342.7850184738
 20
24.4576027618
 30
0.0
 10
342.7850184738
 20
24.4576027618
 30
0.0
 10
342.7850184738
 20
24.4576027618
 30
0.0
 10
342.7850184738
 20
25.1448417828
 30
0.0
 10
342.7850184738
 20
25.1448417828
 30
0.0
 10
342.7850184738
 20
25.4253902331
 30
0.0
 10
342.7010109621
 20
25.645222974
 30
0.0
 10
342.3759725524
 20
25.645222974
 30
0.0
 10
342.2362217385
 20
25.645222974
 30
0.0
 10
342.0980411585
 20
25.5787497404
 30
0.0
 10
342.0286891629
 20
25.4557480878
 30
0.0
 10
342.0286891629
 20
25.4557480878
 30
0.0
 10
342.0239784613
 20
25.4557480878
 30
0.0
 10
342.0239784613
 20
25.4557480878
 30
0.0
 10
342.0239784613
 20
25.4557480878
 30
0.0
 10
342.0239784613
 20
26.5957378727
 30
0.0
 10
342.0239784613
 20
26.5957378727
 30
0.0
 10
342.0239784613
 20
26.5957378727
 30
0.0
 10
341.8025754865
 20
26.5957378727
 30
0.0
 10
341.8025754865
 20
26.5957378727
 30
0.0
  0
LWPOLYLINE
  5
25D
100
AcDbEntity
  8
0
100
AcDbPolyline
 62
7
  6
CONTINUOUS
 90
2
 70
0
 43
0.2
 10
344.6248091507
 20
25.403406959
 10
344.8412397182
 20
25.403406959
  0
LWPOLYLINE
  5
25E
100
AcDbEntity
  8
0
100
AcDbPolyline
 62
7
  6
CONTINUOUS
 90
2
 70
0
 43
0.2
 10
344.8412397182
 20
25.403406959
 10
344.8412397182
 20
25.6101544177
  0
LWPOLYLINE
  5
25F
100
AcDbEntity
  8
0
100
AcDbPolyline
 62
7
  6
CONTINUOUS
 90
2
 70
0
 43
0.2
 10
344.8412397182
 20
25.6101544177
 10
344.6248091507
 20
25.6101544177
  0
LWPOLYLINE
  5
260
100
AcDbEntity
  8
0
100
AcDbPolyline
 62
7
  6
CONTINUOUS
 90
2
 70
0
 43
0.2
 10
344.6248091507
 20
25.6101544177
 10
344.6248091507
 20
26.0508667221
  0
LWPOLYLINE
  5
261
100
AcDbEntity
  8
0
100
AcDbPolyline
 62
7
  6
CONTINUOUS
 90
2
 70
0
 43
0.2
 10
344.6248091507
 20
26.0508667221
 10
344.4031444703
 20
26.0508667221
  0
LWPOLYLINE
  5
262
100
AcDbEntity
  8
0
100
AcDbPolyline
 62
7
  6
CONTINUOUS
 90
2
 70
0
 43
0.2
 10
344.4031444703
 20
26.0508667221
 10
344.4031444703
 20
25.6101544177
  0
LWPOLYLINE
  5
263
100
AcDbEntity
  8
0
100
AcDbPolyline
 62
7
  6
CONTINUOUS
 90
2
 70
0
 43
0.2
 10
344.4031444703
 20
25.6101544177
 10
344.2824981684
 20
25.6101544177
  0
LWPOLYLINE
  5
264
100
AcDbEntity
  8
0
100
AcDbPolyline
 62
7
  6
CONTINUOUS
 90
2
 70
0
 43
0.2
 10
344.2824981684
 20
25.6101544177
 10
344.2824981684
 20
25.403406959
  0
LWPOLYLINE
  5
265
100
AcDbEntity
  8
0
100
AcDbPolyline
 62
7
  6
CONTINUOUS
 90
2
 70
0
 43
0.2
 10
344.2824981684
 20
25.403406959
 10
344.4031444703
 20
25.403406959
  0
LWPOLYLINE
  5
266
100
AcDbEntity
  8
0
100
AcDbPolyline
 62
7
  6
CONTINUOUS
 90
2
 70
0
 43
0.2
 10
344.4031444703
 20
25.403406959
 10
344.4031444703
 20
24.4576027618
  0
LWPOLYLINE
  5
267
100
AcDbEntity
  8
0
100
AcDbPolyline
 62
7
  6
CONTINUOUS
 90
2
 70
0
 43
0.2
 10
344.4031444703
 20
24.4576027618
 10
344.6248091507
 20
24.4576027618
  0
LWPOLYLINE
  5
268
100
AcDbEntity
  8
0
100
AcDbPolyline
 62
7
  6
CONTINUOUS
 90
2
 70
0
 43
0.2
 10
344.6248091507
 20
24.4576027618
 10
344.6248091507
 20
25.403406959
  0
SPLINE
  5
269
100
AcDbEntity
  8
0
100
AcDbSpline
 62
7
  6
CONTINUOUS
 70
2
 71
3
 72
20
 73
16
 74
0
 42
0.0000001
 43
0.0000001
 44
0.0000000001
 40
0.0
 40
0.0
 40
0.0
 40
0.0
 40
1.0
 40
1.0
 40
1.0
 40
2.0
 40
2.0
 40
2.0
 40
3.0
 40
3.0
 40
3.0
 40
4.0
 40
4.0
 40
4.0
 40
5.0
 40
5.0
 40
5.0
 40
5.0
 10
332.4068194579
 20
34.8185292052
 30
0.0
 10
332.4068194579
 20
34.8185292052
 30
0.0
 10
334.7231761124
 20
31.988967783
 30
0.0
 10
334.7231761124
 20
31.988967783
 30
0.0
 10
334.071529059
 20
31.3367973183
 30
0.0
 10
333.294655855
 20
30.6008810475
 30
0.0
 10
332.3234662104
 20
30.6008810475
 30
0.0
 10
331.3249283259
 20
30.6008810475
 30
0.0
 10
330.3816103324
 20
31.5304594948
 30
0.0
 10
330.3816103324
 20
32.5296516433
 30
0.0
 10
330.3816103324
 20
33.5288437919
 30
0.0
 10
331.5604634055
 20
34.2354490305
 30
0.0
 10
332.2819858658
 20
34.7353068104
 30
0.0
 10
332.2819858658
 20
34.7353068104
 30
0.0
 10
332.4068194579
 20
34.8185292052
 30
0.0
 10
332.4068194579
 20
34.8185292052
 30
0.0
  0
SPLINE
  5
26A
100
AcDbEntity
  8
0
100
AcDbSpline
 62
7
  6
CONTINUOUS
 70
2
 71
3
 72
23
 73
19
 74
0
 42
0.0000001
 43
0.0000001
 44
0.0000000001
 40
0.0
 40
0.0
 40
0.0
 40
0.0
 40
1.0
 40
1.0
 40
1.0
 40
2.0
 40
2.0
 40
2.0
 40
3.0
 40
3.0
 40
3.0
 40
4.0
 40
4.0
 40
4.0
 40
5.0
 40
5.0
 40
5.0
 40
6.0
 40
6.0
 40
6.0
 40
6.0
 10
332.6842274405
 20
36.4562831249
 30
0.0
 10
332.6842274405
 20
36.4562831249
 30
0.0
 10
332.3377291679
 20
36.8996124858
 30
0.0
 10
332.3377291679
 20
36.8996124858
 30
0.0
 10
332.031926123
 20
37.2877219557
 30
0.0
 10
331.7130377959
 20
37.6762239841
 30
0.0
 10
331.7130377959
 20
38.2031682982
 30
0.0
 10
331.7130377959
 20
38.8693400148
 30
0.0
 10
332.2543759204
 20
39.3130619341
 30
0.0
 10
332.8782821755
 20
39.3130619341
 30
0.0
 10
333.5720638376
 20
39.3130619341
 30
0.0
 10
334.0992698573
 20
38.9108203594
 30
0.0
 10
334.0992698573
 20
38.1758200584
 30
0.0
 10
334.0992698573
 20
37.4125555479
 30
0.0
 10
333.3780091026
 20
36.9824423221
 30
0.0
 10
332.8509339357
 20
36.5667229067
 30
0.0
 10
332.8509339357
 20
36.5667229067
 30
0.0
 10
332.6842274405
 20
36.4562831249
 30
0.0
 10
332.6842274405
 20
36.4562831249
 30
0.0
  0
SPLINE
  5
26B
100
AcDbEntity
  8
0
100
AcDbSpline
 62
7
  6
CONTINUOUS
 70
2
 71
3
 72
50
 73
46
 74
0
 42
0.0000001
 43
0.0000001
 44
0.0000000001
 40
0.0
 40
0.0
 40
0.0
 40
0.0
 40
1.0
 40
1.0
 40
1.0
 40
2.0
 40
2.0
 40
2.0
 40
3.0
 40
3.0
 40
3.0
 40
4.0
 40
4.0
 40
4.0
 40
5.0
 40
5.0
 40
5.0
 40
6.0
 40
6.0
 40
6.0
 40
7.0
 40
7.0
 40
7.0
 40
8.0
 40
8.0
 40
8.0
 40
9.0
 40
9.0
 40
9.0
 40
10.0
 40
10.0
 40
10.0
 40
11.0
 40
11.0
 40
11.0
 40
12.0
 40
12.0
 40
12.0
 40
13.0
 40
13.0
 40
13.0
 40
14.0
 40
14.0
 40
14.0
 40
15.0
 40
15.0
 40
15.0
 40
15.0
 10
336.6378146034
 20
29.6576939068
 30
0.0
 10
336.6378146034
 20
29.6576939068
 30
0.0
 10
338.247042608
 20
29.6576939068
 30
0.0
 10
338.247042608
 20
29.6576939068
 30
0.0
 10
338.247042608
 20
29.6576939068
 30
0.0
 10
336.3740153144
 20
31.9748356782
 30
0.0
 10
336.3740153144
 20
31.9748356782
 30
0.0
 10
336.3740153144
 20
31.9748356782
 30
0.0
 10
337.6503537398
 20
33.4723153728
 30
0.0
 10
337.6503537398
 20
33.4723153728
 30
0.0
 10
337.6503537398
 20
33.4723153728
 30
0.0
 10
336.8181297921
 20
34.3333269413
 30
0.0
 10
336.8181297921
 20
34.3333269413
 30
0.0
 10
336.8181297921
 20
34.3333269413
 30
0.0
 10
335.5975346688
 20
32.9180228189
 30
0.0
 10
335.5975346688
 20
32.9180228189
 30
0.0
 10
335.5975346688
 20
32.9180228189
 30
0.0
 10
333.4196203
 20
35.5533986534
 30
0.0
 10
333.4196203
 20
35.5533986534
 30
0.0
 10
334.2931937394
 20
36.1914370133
 30
0.0
 10
335.3198649806
 20
36.9824423221
 30
0.0
 10
335.3198649806
 20
38.1612953952
 30
0.0
 10
335.3198649806
 20
39.5349883202
 30
0.0
 10
334.1819688408
 20
40.3394714696
 30
0.0
 10
332.9066772379
 20
40.3394714696
 30
0.0
 10
331.5332460185
 20
40.3394714696
 30
0.0
 10
330.4923118197
 20
39.49324627
 30
0.0
 10
330.4923118197
 20
38.0505939078
 30
0.0
 10
330.4923118197
 20
37.1630192164
 30
0.0
 10
331.0476511962
 20
36.3861460124
 30
0.0
 10
331.6438166531
 20
35.7617163459
 30
0.0
 10
331.6438166531
 20
35.7617163459
 30
0.0
 10
330.991907894
 20
35.2901227756
 30
0.0
 10
330.991907894
 20
35.2901227756
 30
0.0
 10
329.9933700096
 20
34.5688620209
 30
0.0
 10
329.1604917978
 20
33.8476012662
 30
0.0
 10
329.1604917978
 20
32.5160429498
 30
0.0
 10
329.1604917978
 20
30.7123676518
 30
0.0
 10
330.6175379704
 20
29.4357675207
 30
0.0
 10
332.3650774077
 20
29.4357675207
 30
0.0
 10
333.5999354886
 20
29.4357675207
 30
0.0
 10
334.7093057133
 20
30.1439429932
 30
0.0
 10
335.5001801693
 20
31.0724746179
 30
0.0
 10
335.5001801693
 20
31.0724746179
 30
0.0
 10
336.6378146034
 20
29.6576939068
 30
0.0
 10
336.6378146034
 20
29.6576939068
 30
0.0
  0
LINE
  5
26C
100
AcDbEntity
  8
0
100
AcDbLine
 62
7
  6
CONTINUOUS
 10
322.4406759784
 20
27.6315688114
 11
344.8545867061
 21
27.6315688114
  0
LINE
  5
26D
100
AcDbEntity
  8
0
100
AcDbLine
 62
7
  6
CONTINUOUS
 10
344.8545867061
 20
27.6315688114
 11
344.8545867061
 21
50.0454795391
  0
LINE
  5
26E
100
AcDbEntity
  8
0
100
AcDbLine
 62
7
  6
CONTINUOUS
 10
344.8545867061
 20
50.0454795391
 11
322.4406759784
 21
50.0454795391
  0
LINE
  5
26F
100
AcDbEntity
  8
0
100
AcDbLine
 62
7
  6
CONTINUOUS
 10
322.4406759784
 20
50.0454795391
 11
322.4406759784
 21
27.6315688114
  0
ENDBLK
  5
270
100
AcDbEntity
  8
0
  6
BYBLOCK
 62
0
100
AcDbBlockEnd
  0
BLOCK
  5
271
100
AcDbEntity
  8
0
100
AcDbBlockBegin
  2
_CLOSED
 70
64
 10
0.0
 20
0.0
  3
_CLOSED
  1

  0
LINE
  5
272
100
AcDbEntity
  8
0
  6
BYBLOCK
 62
0
100
AcDbLine
 10
0.0
 20
0.0
 11
-1.0
 21
0.2
  0
LINE
  5
273
100
AcDbEntity
  8
0
  6
BYBLOCK
 62
0
100
AcDbLine
 10
-1.0
 20
0.2
 11
-1.0
 21
-0.2
  0
LINE
  5
274
100
AcDbEntity
  8
0
  6
BYBLOCK
 62
0
100
AcDbLine
 10
-1.0
 20
-0.2
 11
0.0
 21
0.0
  0
LINE
  5
275
100
AcDbEntity
  8
0
  6
BYBLOCK
 62
0
100
AcDbLine
 10
-1.0
 20
0.0
 11
0.0
 21
0.0
  0
ENDBLK
  5
276
100
AcDbEntity
  8
0
  6
BYBLOCK
 62
0
100
AcDbBlockEnd
  0
BLOCK
  5
277
100
AcDbEntity
  8
0
100
AcDbBlockBegin
 62
2
  6
CONTINUOUS
  2
*D0
 70
65
 10
0.0
 20
0.0
  3
*D0
  1

  0
MTEXT
  5
278
100
AcDbEntity
  8
0
100
AcDbMText
 62
2
  6
CONTINUOUS
  7
TEXTSTYLE_2
 71
1
 72
1
 10
153.6311543642
 20
118.3881308077
 30
0.0
 11
0.7182839812
 21
0.695750043
 31
0.0
  1
{\Fgdt;n}\Farial.ttf;95,5
 40
3.0
 41
12.1524163569
  0
LINE
  5
279
100
AcDbEntity
  8
0
100
AcDbLine
 62
2
  6
CONTINUOUS
 10
153.0158248508
 20
112.5713290348
 11
164.9691030277
 21
124.1496100808
  0
INSERT
  5
27A
100
AcDbEntity
  8
0
100
AcDbBlockReference
 62
2
  6
CONTINUOUS
  2
_CLOSED
 10
153.0158248508
 20
112.5713290348
 41
2.5
 42
2.5
 43
2.5
 50
224.0870161126
  0
ENDBLK
  5
27B
100
AcDbEntity
  8
0
  6
BYBLOCK
 62
0
100
AcDbBlockEnd
  0
BLOCK
  5
27C
100
AcDbEntity
  8
0
100
AcDbBlockBegin
 62
2
  6
CONTINUOUS
  2
*D1
 70
65
 10
0.0
 20
0.0
  3
*D1
  1

  0
MTEXT
  5
27D
100
AcDbEntity
  8
0
100
AcDbMText
 62
2
  6
CONTINUOUS
  7
STANDARD
 71
2
 72
1
 10
51.0025619521
 20
214.3586499111
 30
0.0
 11
0.0
 21
1.0
 31
0.0
  1
69,45
 40
3.0
 41
10.4832713755
  0
LINE
  5
27E
100
AcDbEntity
  8
0
100
AcDbLine
 62
2
  6
CONTINUOUS
 10
66.681279764
 20
249.0836499111
 11
54.0025619521
 21
249.0836499111
  0
LINE
  5
27F
100
AcDbEntity
  8
0
100
AcDbLine
 62
2
  6
CONTINUOUS
 10
66.4965745359
 20
179.6336499111
 11
54.0025619521
 21
179.6336499111
  0
LINE
  5
280
100
AcDbEntity
  8
0
100
AcDbLine
 62
2
  6
CONTINUOUS
 10
54.7525619521
 20
249.0836499111
 11
54.7525619521
 21
214.3586499111
  0
LINE
  5
281
100
AcDbEntity
  8
0
100
AcDbLine
 62
2
  6
CONTINUOUS
 10
54.7525619521
 20
179.6336499111
 11
54.7525619521
 21
214.3586499111
  0
INSERT
  5
282
100
AcDbEntity
  8
0
100
AcDbBlockReference
 62
2
  6
CONTINUOUS
  2
_CLOSED
 10
54.7525619521
 20
249.0836499111
 41
2.5
 42
2.5
 43
2.5
 50
90.0
  0
INSERT
  5
283
100
AcDbEntity
  8
0
100
AcDbBlockReference
 62
2
  6
CONTINUOUS
  2
_CLOSED
 10
54.7525619521
 20
179.6336499111
 41
2.5
 42
2.5
 43
2.5
 50
270.0
  0
ENDBLK
  5
284
100
AcDbEntity
  8
0
  6
BYBLOCK
 62
0
100
AcDbBlockEnd
  0
BLOCK
  5
285
100
AcDbEntity
  8
0
100
AcDbBlockBegin
 62
2
  6
CONTINUOUS
  2
*D2
 70
65
 10
0.0
 20
0.0
  3
*D2
  1

  0
MTEXT
  5
286
100
AcDbEntity
  8
0
100
AcDbMText
 62
2
  6
CONTINUOUS
  7
STANDARD
 71
2
 72
1
 10
179.5222255784
 20
243.6086499111
 30
0.0
 11
0.0
 21
1.0
 31
0.0
  1
10,95
 40
3.0
 41
10.4832713755
  0
LINE
  5
287
100
AcDbEntity
  8
0
100
AcDbLine
 62
2
  6
CONTINUOUS
 10
169.2171848665
 20
249.0836499111
 11
184.0222255784
 21
249.0836499111
  0
LINE
  5
288
100
AcDbEntity
  8
0
100
AcDbLine
 62
2
  6
CONTINUOUS
 10
169.2171848665
 20
238.1336499111
 11
184.0222255784
 21
238.1336499111
  0
LINE
  5
289
100
AcDbEntity
  8
0
100
AcDbLine
 62
2
  6
CONTINUOUS
 10
183.2722255784
 20
249.0836499111
 11
183.2722255784
 21
250.0836499111
  0
LINE
  5
28A
100
AcDbEntity
  8
0
100
AcDbLine
 62
2
  6
CONTINUOUS
 10
183.2722255784
 20
250.0836499111
 11
183.2722255784
 21
243.6086499111
  0
LINE
  5
28B
100
AcDbEntity
  8
0
100
AcDbLine
 62
2
  6
CONTINUOUS
 10
183.2722255784
 20
238.1336499111
 11
183.2722255784
 21
237.1336499111
  0
LINE
  5
28C
100
AcDbEntity
  8
0
100
AcDbLine
 62
2
  6
CONTINUOUS
 10
183.2722255784
 20
237.1336499111
 11
183.2722255784
 21
243.6086499111
  0
INSERT
  5
28D
100
AcDbEntity
  8
0
100
AcDbBlockReference
 62
2
  6
CONTINUOUS
  2
_CLOSED
 10
183.2722255784
 20
249.0836499111
 41
2.5
 42
2.5
 43
2.5
 50
270.0
  0
INSERT
  5
28E
100
AcDbEntity
  8
0
100
AcDbBlockReference
 62
2
  6
CONTINUOUS
  2
_CLOSED
 10
183.2722255784
 20
238.1336499111
 41
2.5
 42
2.5
 43
2.5
 50
90.0
  0
ENDBLK
  5
28F
100
AcDbEntity
  8
0
  6
BYBLOCK
 62
0
100
AcDbBlockEnd
  0
BLOCK
  5
290
100
AcDbEntity
  8
0
100
AcDbBlockBegin
 62
2
  6
CONTINUOUS
  2
*D3
 70
65
 10
0.0
 20
0.0
  3
*D3
  1

  0
MTEXT
  5
291
100
AcDbEntity
  8
0
100
AcDbMText
 62
2
  6
CONTINUOUS
  7
STANDARD
 71
2
 72
1
 10
179.5222255784
 20
208.8836499111
 30
0.0
 11
0.0
 21
1.0
 31
0.0
  1
58,5
 40
3.0
 41
8.1524163569
  0
LINE
  5
292
100
AcDbEntity
  8
0
100
AcDbLine
 62
2
  6
CONTINUOUS
 10
169.2171848665
 20
238.1336499111
 11
184.0222255784
 21
238.1336499111
  0
LINE
  5
293
100
AcDbEntity
  8
0
100
AcDbLine
 62
2
  6
CONTINUOUS
 10
169.2012481733
 20
179.6336499111
 11
184.0222255784
 21
179.6336499111
  0
LINE
  5
294
100
AcDbEntity
  8
0
100
AcDbLine
 62
2
  6
CONTINUOUS
 10
183.2722255784
 20
238.1336499111
 11
183.2722255784
 21
208.8836499111
  0
LINE
  5
295
100
AcDbEntity
  8
0
100
AcDbLine
 62
2
  6
CONTINUOUS
 10
183.2722255784
 20
179.6336499111
 11
183.2722255784
 21
208.8836499111
  0
INSERT
  5
296
100
AcDbEntity
  8
0
100
AcDbBlockReference
 62
2
  6
CONTINUOUS
  2
_CLOSED
 10
183.2722255784
 20
238.1336499111
 41
2.5
 42
2.5
 43
2.5
 50
90.0
  0
INSERT
  5
297
100
AcDbEntity
  8
0
100
AcDbBlockReference
 62
2
  6
CONTINUOUS
  2
_CLOSED
 10
183.2722255784
 20
179.6336499111
 41
2.5
 42
2.5
 43
2.5
 50
270.0
  0
ENDBLK
  5
298
100
AcDbEntity
  8
0
  6
BYBLOCK
 62
0
100
AcDbBlockEnd
  0
BLOCK
  5
299
100
AcDbEntity
  8
0
100
AcDbBlockBegin
 62
2
  6
CONTINUOUS
  2
*D4
 70
65
 10
0.0
 20
0.0
  3
*D4
  1

  0
MTEXT
  5
29A
100
AcDbEntity
  8
0
100
AcDbMText
 62
2
  6
CONTINUOUS
  7
TEXTSTYLE_2
 71
2
 72
1
 10
118.7177647473
 20
167.8634783509
 30
0.0
 11
1.0
 21
0.0
 31
0.0
  1
{\Fgdt;n}\Farial.ttf;56
 40
3.0
 41
8.6617100372
  0
LINE
  5
29B
100
AcDbEntity
  8
0
100
AcDbLine
 62
2
  6
CONTINUOUS
 10
90.7177647473
 20
176.2508134261
 11
90.7177647473
 21
163.3634783509
  0
LINE
  5
29C
100
AcDbEntity
  8
0
100
AcDbLine
 62
2
  6
CONTINUOUS
 10
146.7177647473
 20
175.8471649278
 11
146.7177647473
 21
163.3634783509
  0
LINE
  5
29D
100
AcDbEntity
  8
0
100
AcDbLine
 62
2
  6
CONTINUOUS
 10
90.7177647473
 20
164.1134783509
 11
118.7177647473
 21
164.1134783509
  0
LINE
  5
29E
100
AcDbEntity
  8
0
100
AcDbLine
 62
2
  6
CONTINUOUS
 10
146.7177647473
 20
164.1134783509
 11
118.7177647473
 21
164.1134783509
  0
INSERT
  5
29F
100
AcDbEntity
  8
0
100
AcDbBlockReference
 62
2
  6
CONTINUOUS
  2
_CLOSED
 10
90.7177647473
 20
164.1134783509
 41
2.5
 42
2.5
 43
2.5
 50
180.0
  0
INSERT
  5
2A0
100
AcDbEntity
  8
0
100
AcDbBlockReference
 62
2
  6
CONTINUOUS
  2
_CLOSED
 10
146.7177647473
 20
164.1134783509
 41
2.5
 42
2.5
 43
2.5
  0
ENDBLK
  5
2A1
100
AcDbEntity
  8
0
  6
BYBLOCK
 62
0
100
AcDbBlockEnd
  0
ENDSEC
  0
SECTION
  2
ENTITIES
  0
DIMENSION
  5
2A2
100
AcDbEntity
  8
0
100
AcDbDimension
 62
2
  6
CONTINUOUS
  2
*D0
 10
153.0158248508
 20
112.5713290348
 11
159.0392224299
 21
121.5382269372
 70
163
  1
%%c<>
  3
DIMSTYLE_1
100
AcDbDiametricDimension
 15
84.4197046438
 25
46.1271999296
  0
DIMENSION
  5
2A3
100
AcDbEntity
  8
0
100
AcDbDimension
 62
2
  6
CONTINUOUS
  2
*D1
 10
54.7525619521
 20
179.6336499111
 11
54.7525619521
 21
214.3467088935
 70
160
  3
DIMSTYLE_2
100
AcDbAlignedDimension
 13
67.431279764
 23
249.0836499111
 14
67.2465745359
 24
179.6336499111
 50
270.0
100
AcDbRotatedDimension
  0
DIMENSION
  5
2A4
100
AcDbEntity
  8
0
100
AcDbDimension
 62
2
  6
CONTINUOUS
  2
*D2
 10
183.2722255784
 20
238.1336499111
 11
183.2722255784
 21
243.7472617895
 70
160
  3
DIMSTYLE_3
100
AcDbAlignedDimension
 13
168.4671848665
 23
249.0836499111
 14
168.4671848665
 24
238.1336499111
 50
270.0
100
AcDbRotatedDimension
  0
DIMENSION
  5
2A5
100
AcDbEntity
  8
0
100
AcDbDimension
 62
2
  6
CONTINUOUS
  2
*D3
 10
183.2722255784
 20
179.6336499111
 11
183.2722255784
 21
208.8853278486
 70
160
  3
DIMSTYLE_2
100
AcDbAlignedDimension
 13
168.4671848665
 23
238.1336499111
 14
168.4512481733
 24
179.6336499111
 50
270.0
100
AcDbRotatedDimension
  0
DIMENSION
  5
2A6
100
AcDbEntity
  8
0
100
AcDbDimension
 62
2
  6
CONTINUOUS
  2
*D4
 10
146.7177647473
 20
164.1134783509
 11
118.7177647473
 21
164.1134783509
 70
160
  1
%%c<>
  3
DIMSTYLE_2
100
AcDbAlignedDimension
 13
90.7177647473
 23
177.0008134261
 14
146.7177647473
 24
176.5971649278
100
AcDbRotatedDimension
  0
LINE
  5
2A7
100
AcDbEntity
  8
0
100
AcDbLine
 62
2
  6
CONTINUOUS
 10
319.8215188711
 20
50.4217920391
 11
409.8215188711
 21
50.4217920391
  0
LINE
  5
2A8
100
AcDbEntity
  8
0
100
AcDbLine
 62
2
  6
CONTINUOUS
 10
319.8215188711
 20
50.4217920391
 11
319.8215188711
 21
10.4217920391
  0
LINE
  5
2A9
100
AcDbEntity
  8
0
100
AcDbLine
 62
2
  6
CONTINUOUS
 10
349.8215188711
 20
44.4217920391
 11
409.8215188711
 21
44.4217920391
  0
LINE
  5
2AA
100
AcDbEntity
  8
0
100
AcDbLine
 62
2
  6
CONTINUOUS
 10
349.8215188711
 20
38.4217920391
 11
409.8215188711
 21
38.4217920391
  0
LINE
  5
2AB
100
AcDbEntity
  8
0
100
AcDbLine
 62
2
  6
CONTINUOUS
 10
349.8215188711
 20
28.4217920391
 11
409.8215188711
 21
28.4217920391
  0
LINE
  5
2AC
100
AcDbEntity
  8
0
100
AcDbLine
 62
2
  6
CONTINUOUS
 10
319.8215188711
 20
23.4217920391
 11
409.8215188711
 21
23.4217920391
  0
LINE
  5
2AD
100
AcDbEntity
  8
0
100
AcDbLine
 62
2
  6
CONTINUOUS
 10
319.8215188711
 20
10.4217920391
 11
409.8215188711
 21
10.4217920391
  0
LINE
  5
2AE
100
AcDbEntity
  8
0
100
AcDbLine
 62
2
  6
CONTINUOUS
 10
349.8215188711
 20
50.4217920391
 11
349.8215188711
 21
23.4217920391
  0
LINE
  5
2AF
100
AcDbEntity
  8
0
100
AcDbLine
 62
2
  6
CONTINUOUS
 10
389.8215188711
 20
50.4217920391
 11
389.8215188711
 21
38.4217920391
  0
LINE
  5
2B0
100
AcDbEntity
  8
0
100
AcDbLine
 62
2
  6
CONTINUOUS
 10
409.8215188711
 20
50.4217920391
 11
409.8215188711
 21
10.4217920391
  0
INSERT
  5
2B1
100
AcDbEntity
  8
0
100
AcDbBlockReference
 62
2
  6
CONTINUOUS
  2
LOGO2_BL0
 10
333.6475659158
 20
36.9217920391
  0
MTEXT
  5
2B2
100
AcDbEntity
  8
9_SOLID
100
AcDbMText
 62
2
  6
CONTINUOUS
  7
TEXTSTYLE_3
 71
1
 72
1
 10
351.3090188711
 20
48.9217920391
 30
0.0
 11
1.0
 21
0.0
 31
0.0
  1
2F6_C_001
 40
3.0
 41
31.6071428571
  0
MTEXT
  5
2B3
100
AcDbEntity
  8
0
100
AcDbMText
 62
2
  6
CONTINUOUS
  7
TEXTSTYLE_3
 71
1
 72
1
 10
391.3090188711
 20
49.1717920391
 30
0.0
 11
1.0
 21
0.0
 31
0.0
  1
Rev:00
 40
3.5
 41
22.75
  0
MTEXT
  5
2B4
100
AcDbEntity
  8
9_SOLID
100
AcDbMText
 62
2
  6
CONTINUOUS
  7
TEXTSTYLE_3
 71
1
 72
1
 10
351.3090188711
 20
42.6717920391
 30
0.0
 11
1.0
 21
0.0
 31
0.0
  1
Scale:1:1
 40
3.5
 41
28.375
  0
MTEXT
  5
2B5
100
AcDbEntity
  8
9_SOLID
100
AcDbMText
 62
2
  6
CONTINUOUS
  7
TEXTSTYLE_3
 71
1
 72
1
 10
391.3090188711
 20
43.1717920391
 30
0.0
 11
1.0
 21
0.0
 31
0.0
  1
A3
 40
3.5
 41
9.25
  0
MTEXT
  5
2B6
100
AcDbEntity
  8
0
100
AcDbMText
 62
2
  6
CONTINUOUS
  7
TEXTSTYLE_3
 71
1
 72
1
 10
351.3090188711
 20
35.1717920391
 30
0.0
 11
1.0
 21
0.0
 31
0.0
  1
LITUS 5.4
 40
3.5
 41
35.5
  0
MTEXT
  5
2B7
100
AcDbEntity
  8
0
100
AcDbMText
 62
2
  6
CONTINUOUS
  7
TEXTSTYLE_3
 71
1
 72
1
 10
351.3090188711
 20
27.1717920391
 30
0.0
 11
1.0
 21
0.0
 31
0.0
  1
DATE:06/07/2018
 40
2.5
 41
43.0357142857
  0
MTEXT
  5
2B8
100
AcDbEntity
  8
9_SOLID
100
AcDbMText
 62
2
  6
CONTINUOUS
  7
TEXTSTYLE_3
 71
1
 72
1
 10
321.3090188711
 20
23.1092920391
 30
0.0
 11
1.0
 21
0.0
 31
0.0
  1
Any integral or partial reproductions are prohibited \Pwithout prior authorisation of L {\Ftxt.shx;\W0.190476;\H2.250000; }& L Luce & Light s.r.l., \Pin accordance with the law in force. \PAll rights reserved.
 40
2.25
 41
134.5982142857
  0
LINE
  5
2B9
100
AcDbEntity
  8
0
100
AcDbLine
 62
7
  6
CONTINUOUS
 10
0.0
 20
0.0
 11
0.0
 21
297.0
  0
LINE
  5
2BA
100
AcDbEntity
  8
0
100
AcDbLine
 62
7
  6
CONTINUOUS
 10
0.0
 20
0.0
 11
420.0
 21
0.0
  0
LINE
  5
2BB
100
AcDbEntity
  8
0
100
AcDbLine
 62
7
  6
CONTINUOUS
 10
0.0
 20
297.0
 11
420.0
 21
297.0
  0
LINE
  5
2BC
100
AcDbEntity
  8
0
100
AcDbLine
 62
7
  6
CONTINUOUS
 10
420.0
 20
0.0
 11
420.0
 21
297.0
  0
LINE
  5
2BD
100
AcDbEntity
  8
7_ALL_FEATURES
100
AcDbLine
 62
7
  6
CONTINUOUS
 10
71.4677647473
 20
249.0836499111
 11
70.9677647473
 21
248.5836499111
  0
LINE
  5
2BE
100
AcDbEntity
  8
7_ALL_FEATURES
100
AcDbLine
 62
7
  6
CONTINUOUS
 10
71.4677647477
 20
242.0336499115
 11
70.9677647477
 21
241.5336499115
  0
LINE
  5
2BF
100
AcDbEntity
  8
7_ALL_FEATURES
100
AcDbLine
 62
7
  6
CONTINUOUS
 10
70.9677647473
 20
248.5836499111
 11
70.9677647473
 21
243.5836499111
  0
LINE
  5
2C0
100
AcDbEntity
  8
7_ALL_FEATURES
100
AcDbLine
 62
7
  6
CONTINUOUS
 10
70.9677647473
 20
239.3836499111
 11
70.9677647473
 21
241.5336499111
  0
LINE
  5
2C1
100
AcDbEntity
  8
7_ALL_FEATURES
100
AcDbLine
 62
7
  6
CONTINUOUS
 10
71.4677647473
 20
243.0836499111
 11
71.4677647473
 21
242.0336499111
  0
LINE
  5
2C2
100
AcDbEntity
  8
7_ALL_FEATURES
100
AcDbLine
 62
7
  6
CONTINUOUS
 10
91.7177647473
 20
179.6336499111
 11
90.7177647473
 21
180.6336499111
  0
LINE
  5
2C3
100
AcDbEntity
  8
7_ALL_FEATURES
100
AcDbLine
 62
3
  6
CONTINUOUS
 10
82.2095492167
 20
189.7257264365
 11
77.5768405713
 21
198.6250769439
  0
LINE
  5
2C4
100
AcDbEntity
  8
7_ALL_FEATURES
100
AcDbLine
 62
7
  6
CONTINUOUS
 10
82.6530546333
 20
189.9566007431
 11
78.0203459879
 21
198.8559512505
  0
LINE
  5
2C5
100
AcDbEntity
  8
7_ALL_FEATURES
100
AcDbLine
 62
7
  6
CONTINUOUS
 10
83.5977647473
 20
189.6336499111
 11
82.5977647473
 21
190.6336499111
  0
LINE
  5
2C6
100
AcDbEntity
  8
7_ALL_FEATURES
100
AcDbLine
 62
7
  6
CONTINUOUS
 10
81.2177647473
 20
237.6336499111
 11
81.2177647473
 21
224.6336499111
  0
LINE
  5
2C7
100
AcDbEntity
  8
7_ALL_FEATURES
100
AcDbLine
 62
7
  6
CONTINUOUS
 10
81.2177647473
 20
222.1336499111
 11
81.2177647473
 21
219.6336499111
  0
LINE
  5
2C8
100
AcDbEntity
  8
7_ALL_FEATURES
100
AcDbLine
 62
7
  6
CONTINUOUS
 10
81.2177647473
 20
217.1336499111
 11
81.2177647473
 21
214.6336499111
  0
LINE
  5
2C9
100
AcDbEntity
  8
7_ALL_FEATURES
100
AcDbLine
 62
7
  6
CONTINUOUS
 10
81.2177647473
 20
212.1336499111
 11
81.2177647473
 21
209.6336499111
  0
LINE
  5
2CA
100
AcDbEntity
  8
7_ALL_FEATURES
100
AcDbLine
 62
7
  6
CONTINUOUS
 10
82.5977647473
 20
207.1336499111
 11
82.5977647473
 21
204.6336499111
  0
LINE
  5
2CB
100
AcDbEntity
  8
7_ALL_FEATURES
100
AcDbLine
 62
7
  6
CONTINUOUS
 10
82.5977647473
 20
202.1336499111
 11
82.5977647473
 21
199.6336499111
  0
LINE
  5
2CC
100
AcDbEntity
  8
7_ALL_FEATURES
100
AcDbLine
 62
7
  6
CONTINUOUS
 10
82.5977647473
 20
197.1336499111
 11
82.5977647473
 21
194.6336499111
  0
LINE
  5
2CD
100
AcDbEntity
  8
7_ALL_FEATURES
100
AcDbLine
 62
7
  6
CONTINUOUS
 10
82.5977647473
 20
192.1336499111
 11
82.5977647473
 21
190.6336499111
  0
LINE
  5
2CE
100
AcDbEntity
  8
3_ALL_AXES
100
AcDbLine
 62
7
  6
CONTINUOUS
 10
82.9177647473
 20
189.1336499111
 11
82.9177647473
 21
188.7536499111
  0
LINE
  5
2CF
100
AcDbEntity
  8
7_ALL_FEATURES
100
AcDbLine
 62
9
  6
CONTINUOUS
 10
83.1852611332
 20
189.1336499111
 11
83.1852611332
 21
189.6336499111
  0
LINE
  5
2D0
100
AcDbEntity
  8
7_ALL_FEATURES
100
AcDbLine
 62
7
  6
CONTINUOUS
 10
78.3479769926
 20
203.0754853634
 11
77.990839506
 21
203.43262285
  0
LINE
  5
2D1
100
AcDbEntity
  8
7_ALL_FEATURES
100
AcDbLine
 62
7
  6
CONTINUOUS
 10
84.2177647473
 20
202.1336499111
 11
84.2177647473
 21
204.6336499111
  0
LINE
  5
2D2
100
AcDbEntity
  8
7_ALL_FEATURES
100
AcDbLine
 62
7
  6
CONTINUOUS
 10
84.2177647473
 20
207.1336499111
 11
84.2177647473
 21
209.6336499111
  0
LINE
  5
2D3
100
AcDbEntity
  8
7_ALL_FEATURES
100
AcDbLine
 62
7
  6
CONTINUOUS
 10
84.2177647473
 20
212.1336499111
 11
84.2177647473
 21
214.6336499111
  0
LINE
  5
2D4
100
AcDbEntity
  8
7_ALL_FEATURES
100
AcDbLine
 62
7
  6
CONTINUOUS
 10
84.2177647473
 20
217.1336499111
 11
84.2177647473
 21
219.6336499111
  0
LINE
  5
2D5
100
AcDbEntity
  8
7_ALL_FEATURES
100
AcDbLine
 62
7
  6
CONTINUOUS
 10
84.2177647473
 20
222.1336499111
 11
84.2177647473
 21
224.6336499111
  0
LINE
  5
2D6
100
AcDbEntity
  8
0
100
AcDbLine
 62
2
  6
CONTINUOUS
 10
84.7177647473
 20
194.6336499111
 11
84.7177647473
 21
192.1336499111
  0
LINE
  5
2D7
100
AcDbEntity
  8
3_ALL_AXES
100
AcDbLine
 62
7
  6
CONTINUOUS
 10
84.7177647473
 20
194.6336499111
 11
84.7177647473
 21
192.1336499111
  0
LINE
  5
2D8
100
AcDbEntity
  8
7_ALL_FEATURES
100
AcDbLine
 62
7
  6
CONTINUOUS
 10
145.7177647473
 20
179.6336499111
 11
91.7177647473
 21
179.6336499111
  0
LINE
  5
2D9
100
AcDbEntity
  8
7_ALL_FEATURES
100
AcDbLine
 62
7
  6
CONTINUOUS
 10
146.7177647473
 20
180.6336499111
 11
90.7177647473
 21
180.6336499111
  0
LINE
  5
2DA
100
AcDbEntity
  8
7_ALL_FEATURES
100
AcDbLine
 62
7
  6
CONTINUOUS
 10
90.7177647473
 20
182.3836499111
 11
146.7177647473
 21
182.3836499111
  0
LINE
  5
2DB
100
AcDbEntity
  8
7_ALL_FEATURES
100
AcDbLine
 62
7
  6
CONTINUOUS
 10
79.7302394242
 20
204.5216500566
 11
79.3766860336
 21
204.8752034472
  0
LINE
  5
2DC
100
AcDbEntity
  8
0
100
AcDbLine
 62
2
  6
CONTINUOUS
 10
88.7177647473
 20
194.6336499111
 11
88.7177647473
 21
192.1336499111
  0
LINE
  5
2DD
100
AcDbEntity
  8
3_ALL_AXES
100
AcDbLine
 62
7
  6
CONTINUOUS
 10
88.7177647473
 20
194.6336499111
 11
88.7177647473
 21
192.1336499111
  0
LINE
  5
2DE
100
AcDbEntity
  8
7_ALL_FEATURES
100
AcDbLine
 62
7
  6
CONTINUOUS
 10
89.2177647473
 20
192.1336499111
 11
89.2177647473
 21
194.6336499111
  0
LINE
  5
2DF
100
AcDbEntity
  8
7_ALL_FEATURES
100
AcDbLine
 62
7
  6
CONTINUOUS
 10
89.2177647473
 20
197.1336499111
 11
89.2177647473
 21
199.6336499111
  0
LINE
  5
2E0
100
AcDbEntity
  8
3_ALL_AXES
100
AcDbLine
 62
7
  6
CONTINUOUS
 10
90.5177647473
 20
189.1336499111
 11
90.5177647473
 21
188.7536499111
  0
LINE
  5
2E1
100
AcDbEntity
  8
7_ALL_FEATURES
100
AcDbLine
 62
7
  6
CONTINUOUS
 10
90.5177647473
 20
189.1336499111
 11
90.5177647473
 21
189.6336499111
  0
LINE
  5
2E2
100
AcDbEntity
  8
02___PRT_ALL_AXES
100
AcDbLine
 62
7
  6
CONTINUOUS
 10
90.7177647473
 20
187.1336499111
 11
90.7177647473
 21
184.8836499111
  0
LINE
  5
2E3
100
AcDbEntity
  8
02___PRT_ALL_AXES
100
AcDbLine
 62
7
  6
CONTINUOUS
 10
90.7177647473
 20
182.3836499111
 11
90.7177647473
 21
180.6336499111
  0
LINE
  5
2E4
100
AcDbEntity
  8
7_ALL_FEATURES
100
AcDbLine
 62
7
  6
CONTINUOUS
 10
146.7177647473
 20
184.8836499111
 11
90.7177647473
 21
184.8836499111
  0
LINE
  5
2E5
100
AcDbEntity
  8
3_ALL_AXES
100
AcDbLine
 62
7
  6
CONTINUOUS
 10
84.7527990928
 20
186.9336499111
 11
88.6827304018
 21
186.9336499111
  0
LINE
  5
2E6
100
AcDbEntity
  8
3_ALL_AXES
100
AcDbLine
 62
7
  6
CONTINUOUS
 10
116.7527990928
 20
186.9336499111
 11
120.6827304018
 21
186.9336499111
  0
LINE
  5
2E7
100
AcDbEntity
  8
3_ALL_AXES
100
AcDbLine
 62
7
  6
CONTINUOUS
 10
148.7527990928
 20
186.9336499111
 11
152.6827304018
 21
186.9336499111
  0
LINE
  5
2E8
100
AcDbEntity
  8
7_ALL_FEATURES
100
AcDbLine
 62
7
  6
CONTINUOUS
 10
90.7177647473
 20
187.1336499111
 11
116.4072936552
 21
187.1336499111
  0
LINE
  5
2E9
100
AcDbEntity
  8
7_ALL_FEATURES
100
AcDbLine
 62
7
  6
CONTINUOUS
 10
121.0282358393
 20
187.1336499111
 11
146.7177647473
 21
187.1336499111
  0
LINE
  5
2EA
100
AcDbEntity
  8
7_ALL_FEATURES
100
AcDbLine
 62
7
  6
CONTINUOUS
 10
92.7177647473
 20
182.3836499111
 11
92.7177647473
 21
184.8836499111
  0
LINE
  5
2EB
100
AcDbEntity
  8
7_ALL_FEATURES
100
AcDbLine
 62
7
  6
CONTINUOUS
 10
92.7177647473
 20
187.1336499111
 11
92.7177647473
 21
189.6336499111
  0
LINE
  5
2EC
100
AcDbEntity
  8
3_ALL_AXES
100
AcDbLine
 62
7
  6
CONTINUOUS
 10
82.9177647473
 20
188.7536499111
 11
90.5177647473
 21
188.7536499111
  0
LINE
  5
2ED
100
AcDbEntity
  8
3_ALL_AXES
100
AcDbLine
 62
7
  6
CONTINUOUS
 10
114.9177647473
 20
188.7536499111
 11
122.5177647473
 21
188.7536499111
  0
LINE
  5
2EE
100
AcDbEntity
  8
3_ALL_AXES
100
AcDbLine
 62
7
  6
CONTINUOUS
 10
146.9177647473
 20
188.7536499111
 11
154.5177647473
 21
188.7536499111
  0
LINE
  5
2EF
100
AcDbEntity
  8
7_ALL_FEATURES
100
AcDbLine
 62
3
  6
CONTINUOUS
 10
154.2502683613
 20
189.1336499111
 11
146.9177647473
 21
189.1336499111
  0
LINE
  5
2F0
100
AcDbEntity
  8
7_ALL_FEATURES
100
AcDbLine
 62
3
  6
CONTINUOUS
 10
90.5177647473
 20
189.1336499111
 11
83.1852611332
 21
189.1336499111
  0
LINE
  5
2F1
100
AcDbEntity
  8
3_ALL_AXES
100
AcDbLine
 62
7
  6
CONTINUOUS
 10
83.1852611332
 20
189.1336499111
 11
82.9177957006
 21
189.1336499111
  0
LINE
  5
2F2
100
AcDbEntity
  8
7_ALL_FEATURES
100
AcDbLine
 62
3
  6
CONTINUOUS
 10
113.2177647473
 20
189.1336499111
 11
117.336369185
 21
189.1336499111
  0
LINE
  5
2F3
100
AcDbEntity
  8
3_ALL_AXES
100
AcDbLine
 62
7
  6
CONTINUOUS
 10
117.336369185
 20
189.1336499111
 11
120.0991603096
 21
189.1336499111
  0
LINE
  5
2F4
100
AcDbEntity
  8
7_ALL_FEATURES
100
AcDbLine
 62
3
  6
CONTINUOUS
 10
120.0991603096
 20
189.1336499111
 11
124.2177647473
 21
189.1336499111
  0
LINE
  5
2F5
100
AcDbEntity
  8
3_ALL_AXES
100
AcDbLine
 62
7
  6
CONTINUOUS
 10
154.2502683613
 20
189.1336499111
 11
154.5177337939
 21
189.1336499111
  0
LINE
  5
2F6
100
AcDbEntity
  8
7_ALL_FEATURES
100
AcDbLine
 62
7
  6
CONTINUOUS
 10
154.2502683613
 20
189.6336499111
 11
124.2177647473
 21
189.6336499111
  0
LINE
  5
2F7
100
AcDbEntity
  8
7_ALL_FEATURES
100
AcDbLine
 62
7
  6
CONTINUOUS
 10
113.2177647473
 20
189.6336499111
 11
83.1852611332
 21
189.6336499111
  0
LINE
  5
2F8
100
AcDbEntity
  8
7_ALL_FEATURES
100
AcDbLine
 62
9
  6
CONTINUOUS
 10
113.2177647473
 20
189.7257264365
 11
124.2177647473
 21
189.7257264365
  0
LINE
  5
2F9
100
AcDbEntity
  8
7_ALL_FEATURES
100
AcDbLine
 62
7
  6
CONTINUOUS
 10
82.5977647473
 20
190.6336499111
 11
113.2177647473
 21
190.6336499111
  0
LINE
  5
2FA
100
AcDbEntity
  8
7_ALL_FEATURES
100
AcDbLine
 62
7
  6
CONTINUOUS
 10
124.2177647473
 20
190.6336499111
 11
154.8377647473
 21
190.6336499111
  0
LINE
  5
2FB
100
AcDbEntity
  8
7_ALL_FEATURES
100
AcDbLine
 62
3
  6
CONTINUOUS
 10
78.3864088052
 20
203.8849262188
 11
79.3766860336
 21
204.8752034472
  0
LINE
  5
2FC
100
AcDbEntity
  8
7_ALL_FEATURES
100
AcDbLine
 62
7
  6
CONTINUOUS
 10
79.7302394242
 20
204.5216500566
 11
78.7399621958
 21
203.5313728282
  0
LINE
  5
2FD
100
AcDbEntity
  8
7_ALL_FEATURES
100
AcDbLine
 62
4
  6
CONTINUOUS
 10
115.7177647473
 20
191.5143691907
 11
121.7177647473
 21
191.5143691907
  0
LINE
  5
2FE
100
AcDbEntity
  8
7_ALL_FEATURES
100
AcDbLine
 62
7
  6
CONTINUOUS
 10
82.5977647473
 20
192.1336499111
 11
113.2177647473
 21
192.1336499111
  0
LINE
  5
2FF
100
AcDbEntity
  8
7_ALL_FEATURES
100
AcDbLine
 62
7
  6
CONTINUOUS
 10
124.2177647473
 20
192.1336499111
 11
154.8377647473
 21
192.1336499111
  0
LINE
  5
300
100
AcDbEntity
  8
7_ALL_FEATURES
100
AcDbLine
 62
7
  6
CONTINUOUS
 10
121.344431414
 20
192.1748965911
 11
120.334431414
 21
192.1748965911
  0
LINE
  5
301
100
AcDbEntity
  8
7_ALL_FEATURES
100
AcDbLine
 62
7
  6
CONTINUOUS
 10
117.344431414
 20
192.1748965911
 11
116.334431414
 21
192.1748965911
  0
LINE
  5
302
100
AcDbEntity
  8
7_ALL_FEATURES
100
AcDbLine
 62
7
  6
CONTINUOUS
 10
82.5977647473
 20
194.6336499111
 11
113.2177647473
 21
194.6336499111
  0
LINE
  5
303
100
AcDbEntity
  8
7_ALL_FEATURES
100
AcDbLine
 62
7
  6
CONTINUOUS
 10
124.2177647473
 20
194.6336499111
 11
154.8377647473
 21
194.6336499111
  0
LINE
  5
304
100
AcDbEntity
  8
7_ALL_FEATURES
100
AcDbLine
 62
4
  6
CONTINUOUS
 10
121.7177647473
 20
196.8364341898
 11
115.7177647473
 21
196.8364341898
  0
LINE
  5
305
100
AcDbEntity
  8
7_ALL_FEATURES
100
AcDbLine
 62
7
  6
CONTINUOUS
 10
82.5977647473
 20
197.1336499111
 11
113.2177647473
 21
197.1336499111
  0
LINE
  5
306
100
AcDbEntity
  8
7_ALL_FEATURES
100
AcDbLine
 62
7
  6
CONTINUOUS
 10
124.2177647473
 20
197.1336499111
 11
154.8377647473
 21
197.1336499111
  0
LINE
  5
307
100
AcDbEntity
  8
7_ALL_FEATURES
100
AcDbLine
 62
9
  6
CONTINUOUS
 10
113.2177647473
 20
198.6250769439
 11
124.2177647473
 21
198.6250769439
  0
LINE
  5
308
100
AcDbEntity
  8
03___PRT_ALL_CURVES
100
AcDbLine
 62
40
  6
CONTINUOUS
 10
124.2177647473
 20
189.7257264365
 11
113.2177647473
 21
198.6250769439
  0
LINE
  5
309
100
AcDbEntity
  8
7_ALL_FEATURES
100
AcDbLine
 62
7
  6
CONTINUOUS
 10
70.9677647475
 20
239.3836499109
 11
72.2177647475
 21
238.1336499109
  0
LINE
  5
30A
100
AcDbEntity
  8
7_ALL_FEATURES
100
AcDbLine
 62
7
  6
CONTINUOUS
 10
82.5977647473
 20
199.6336499111
 11
113.2177647473
 21
199.6336499111
  0
LINE
  5
30B
100
AcDbEntity
  8
7_ALL_FEATURES
100
AcDbLine
 62
7
  6
CONTINUOUS
 10
124.2177647473
 20
199.6336499111
 11
154.8377647473
 21
199.6336499111
  0
LINE
  5
30C
100
AcDbEntity
  8
7_ALL_FEATURES
100
AcDbLine
 62
7
  6
CONTINUOUS
 10
82.5977647473
 20
202.1336499111
 11
113.2177647473
 21
202.1336499111
  0
LINE
  5
30D
100
AcDbEntity
  8
7_ALL_FEATURES
100
AcDbLine
 62
7
  6
CONTINUOUS
 10
124.2177647473
 20
202.1336499111
 11
154.8377647473
 21
202.1336499111
  0
LINE
  5
30E
100
AcDbEntity
  8
7_ALL_FEATURES
100
AcDbLine
 62
7
  6
CONTINUOUS
 10
71.4677647473
 20
243.0836499111
 11
70.9677647473
 21
243.5836499111
  0
LINE
  5
30F
100
AcDbEntity
  8
7_ALL_FEATURES
100
AcDbLine
 62
4
  6
CONTINUOUS
 10
119.735998291
 20
192.0122779384
 11
118.0566725524
 21
193.8380329253
  0
LINE
  5
310
100
AcDbEntity
  8
7_ALL_FEATURES
100
AcDbLine
 62
7
  6
CONTINUOUS
 10
108.6383004758
 20
207.1336499111
 11
108.6383004758
 21
204.6336499111
  0
LINE
  5
311
100
AcDbEntity
  8
7_ALL_FEATURES
100
AcDbLine
 62
7
  6
CONTINUOUS
 10
108.6383004758
 20
202.1336499111
 11
108.6383004758
 21
199.6336499111
  0
LINE
  5
312
100
AcDbEntity
  8
7_ALL_FEATURES
100
AcDbLine
 62
7
  6
CONTINUOUS
 10
108.6383004758
 20
197.1336499111
 11
108.6383004758
 21
194.6336499111
  0
LINE
  5
313
100
AcDbEntity
  8
7_ALL_FEATURES
100
AcDbLine
 62
7
  6
CONTINUOUS
 10
108.6383004758
 20
192.1336499111
 11
108.6383004758
 21
190.6336499111
  0
LINE
  5
314
100
AcDbEntity
  8
7_ALL_FEATURES
100
AcDbLine
 62
9
  6
CONTINUOUS
 10
113.8173012605
 20
203.8849262188
 11
123.6182282341
 21
203.8849262188
  0
LINE
  5
315
100
AcDbEntity
  8
7_ALL_FEATURES
100
AcDbLine
 62
7
  6
CONTINUOUS
 10
82.5977647473
 20
204.6336499111
 11
114.8761564605
 21
204.6336499111
  0
LINE
  5
316
100
AcDbEntity
  8
7_ALL_FEATURES
100
AcDbLine
 62
7
  6
CONTINUOUS
 10
122.559373034
 20
204.6336499111
 11
154.8377647473
 21
204.6336499111
  0
LINE
  5
317
100
AcDbEntity
  8
7_ALL_FEATURES
100
AcDbLine
 62
3
  6
CONTINUOUS
 10
122.2177647473
 20
204.8752034472
 11
115.2177647473
 21
204.8752034472
  0
LINE
  5
318
100
AcDbEntity
  8
7_ALL_FEATURES
100
AcDbLine
 62
7
  6
CONTINUOUS
 10
81.2177647473
 20
237.6336499111
 11
80.7177647473
 21
238.1336499111
  0
LINE
  5
319
100
AcDbEntity
  8
7_ALL_FEATURES
100
AcDbLine
 62
3
  6
CONTINUOUS
 10
113.2177647473
 20
203.43262285
 11
113.2177647473
 21
189.1336499111
  0
LINE
  5
31A
100
AcDbEntity
  8
3_ALL_AXES
100
AcDbLine
 62
7
  6
CONTINUOUS
 10
114.9177647473
 20
189.1336499111
 11
114.9177647473
 21
188.7536499111
  0
LINE
  5
31B
100
AcDbEntity
  8
7_ALL_FEATURES
100
AcDbLine
 62
9
  6
CONTINUOUS
 10
77.5768405713
 20
198.6250769439
 11
78.0203459879
 21
198.8559512505
  0
LINE
  5
31C
100
AcDbEntity
  8
7_ALL_FEATURES
100
AcDbLine
 62
7
  6
CONTINUOUS
 10
82.5977647473
 20
207.1336499111
 11
154.8377647473
 21
207.1336499111
  0
LINE
  5
31D
100
AcDbEntity
  8
7_ALL_FEATURES
100
AcDbLine
 62
7
  6
CONTINUOUS
 10
156.2173252366
 20
209.6336499111
 11
81.218204258
 21
209.6336499111
  0
LINE
  5
31E
100
AcDbEntity
  8
7_ALL_FEATURES
100
AcDbLine
 62
9
  6
CONTINUOUS
 10
155.2259802778
 20
189.7257264365
 11
154.7824748612
 21
189.9566007431
  0
LINE
  5
31F
100
AcDbEntity
  8
7_ALL_FEATURES
100
AcDbLine
 62
3
  6
CONTINUOUS
 10
123.6182282341
 20
203.8849262188
 11
122.2177647473
 21
204.8752034472
  0
LINE
  5
320
100
AcDbEntity
  8
7_ALL_FEATURES
100
AcDbLine
 62
4
  6
CONTINUOUS
 10
115.7177647473
 20
196.8364341898
 11
115.7177647473
 21
191.5143691907
  0
LINE
  5
321
100
AcDbEntity
  8
7_ALL_FEATURES
100
AcDbLine
 62
7
  6
CONTINUOUS
 10
116.334431414
 20
194.4840814602
 11
116.334431414
 21
192.1748965911
  0
LINE
  5
322
100
AcDbEntity
  8
7_ALL_FEATURES
100
AcDbLine
 62
7
  6
CONTINUOUS
 10
81.218204258
 20
212.1336499111
 11
156.2173252366
 21
212.1336499111
  0
LINE
  5
323
100
AcDbEntity
  8
7_ALL_FEATURES
100
AcDbLine
 62
7
  6
CONTINUOUS
 10
156.2173252366
 20
214.6336499111
 11
81.218204258
 21
214.6336499111
  0
LINE
  5
324
100
AcDbEntity
  8
7_ALL_FEATURES
100
AcDbLine
 62
7
  6
CONTINUOUS
 10
120.334431414
 20
194.4840814602
 11
120.334431414
 21
192.1748965911
  0
LINE
  5
325
100
AcDbEntity
  8
7_ALL_FEATURES
100
AcDbLine
 62
4
  6
CONTINUOUS
 10
121.7177647473
 20
191.5143691907
 11
121.7177647473
 21
196.8364341898
  0
LINE
  5
326
100
AcDbEntity
  8
3_ALL_AXES
100
AcDbLine
 62
7
  6
CONTINUOUS
 10
122.5177647473
 20
189.1336499111
 11
122.5177647473
 21
188.7536499111
  0
LINE
  5
327
100
AcDbEntity
  8
7_ALL_FEATURES
100
AcDbLine
 62
7
  6
CONTINUOUS
 10
81.218204258
 20
217.1336499111
 11
156.2173252366
 21
217.1336499111
  0
LINE
  5
328
100
AcDbEntity
  8
7_ALL_FEATURES
100
AcDbLine
 62
3
  6
CONTINUOUS
 10
124.2177647473
 20
189.1336499111
 11
124.2177647473
 21
203.43262285
  0
LINE
  5
329
100
AcDbEntity
  8
7_ALL_FEATURES
100
AcDbLine
 62
3
  6
CONTINUOUS
 10
115.2177647473
 20
204.8752034472
 11
113.8173012605
 21
203.8849262188
  0
LINE
  5
32A
100
AcDbEntity
  8
7_ALL_FEATURES
100
AcDbLine
 62
9
  6
CONTINUOUS
 10
82.2095492167
 20
189.7257264365
 11
82.6530546333
 21
189.9566007431
  0
LINE
  5
32B
100
AcDbEntity
  8
7_ALL_FEATURES
100
AcDbLine
 62
7
  6
CONTINUOUS
 10
156.2173252366
 20
219.6336499111
 11
81.218204258
 21
219.6336499111
  0
LINE
  5
32C
100
AcDbEntity
  8
7_ALL_FEATURES
100
AcDbLine
 62
7
  6
CONTINUOUS
 10
81.218204258
 20
222.1336499111
 11
156.2173252366
 21
222.1336499111
  0
LINE
  5
32D
100
AcDbEntity
  8
7_ALL_FEATURES
100
AcDbLine
 62
9
  6
CONTINUOUS
 10
159.8586889233
 20
198.6250769439
 11
159.4151835067
 21
198.8559512505
  0
LINE
  5
32E
100
AcDbEntity
  8
7_ALL_FEATURES
100
AcDbLine
 62
7
  6
CONTINUOUS
 10
128.7972290188
 20
207.1336499111
 11
128.7972290188
 21
204.6336499111
  0
LINE
  5
32F
100
AcDbEntity
  8
7_ALL_FEATURES
100
AcDbLine
 62
7
  6
CONTINUOUS
 10
128.7972290188
 20
202.1336499111
 11
128.7972290188
 21
199.6336499111
  0
LINE
  5
330
100
AcDbEntity
  8
7_ALL_FEATURES
100
AcDbLine
 62
7
  6
CONTINUOUS
 10
128.7972290188
 20
197.1336499111
 11
128.7972290188
 21
194.6336499111
  0
LINE
  5
331
100
AcDbEntity
  8
7_ALL_FEATURES
100
AcDbLine
 62
7
  6
CONTINUOUS
 10
128.7972290188
 20
192.1336499111
 11
128.7972290188
 21
190.6336499111
  0
LINE
  5
332
100
AcDbEntity
  8
7_ALL_FEATURES
100
AcDbLine
 62
7
  6
CONTINUOUS
 10
156.2177647473
 20
237.6336499111
 11
156.7177647473
 21
238.1336499111
  0
LINE
  5
333
100
AcDbEntity
  8
7_ALL_FEATURES
100
AcDbLine
 62
7
  6
CONTINUOUS
 10
156.2173252366
 20
224.6336499111
 11
81.218204258
 21
224.6336499111
  0
LINE
  5
334
100
AcDbEntity
  8
7_ALL_FEATURES
100
AcDbLine
 62
4
  6
CONTINUOUS
 10
119.1304614418
 20
192.4785329771
 11
119.624363753
 21
192.991478309
  0
LINE
  5
335
100
AcDbEntity
  8
7_ALL_FEATURES
100
AcDbLine
 62
7
  6
CONTINUOUS
 10
165.9677647473
 20
243.0836499111
 11
166.4677647473
 21
243.5836499111
  0
LINE
  5
336
100
AcDbEntity
  8
7_ALL_FEATURES
100
AcDbLine
 62
7
  6
CONTINUOUS
 10
166.4677647471
 20
239.3836499109
 11
165.2177647471
 21
238.1336499109
  0
LINE
  5
337
100
AcDbEntity
  8
7_ALL_FEATURES
100
AcDbLine
 62
4
  6
CONTINUOUS
 10
117.9346301305
 20
193.1235365974
 11
118.8403263934
 21
193.7789764925
  0
LINE
  5
338
100
AcDbEntity
  8
7_ALL_FEATURES
100
AcDbLine
 62
7
  6
CONTINUOUS
 10
81.2177647473
 20
237.6336499111
 11
156.2177647473
 21
237.6336499111
  0
LINE
  5
339
100
AcDbEntity
  8
7_ALL_FEATURES
100
AcDbLine
 62
7
  6
CONTINUOUS
 10
72.2177647473
 20
238.1336499111
 11
165.2177647473
 21
238.1336499111
  0
LINE
  5
33A
100
AcDbEntity
  8
7_ALL_FEATURES
100
AcDbLine
 62
7
  6
CONTINUOUS
 10
158.6955672987
 20
203.5313728282
 11
157.7052900704
 21
204.5216500566
  0
LINE
  5
33B
100
AcDbEntity
  8
7_ALL_FEATURES
100
AcDbLine
 62
3
  6
CONTINUOUS
 10
158.058843461
 20
204.8752034472
 11
159.0491206893
 21
203.8849262188
  0
LINE
  5
33C
100
AcDbEntity
  8
7_ALL_FEATURES
100
AcDbLine
 62
7
  6
CONTINUOUS
 10
144.7177647473
 20
182.3836499111
 11
144.7177647473
 21
184.8836499111
  0
LINE
  5
33D
100
AcDbEntity
  8
7_ALL_FEATURES
100
AcDbLine
 62
7
  6
CONTINUOUS
 10
144.7177647473
 20
187.1336499111
 11
144.7177647473
 21
189.6336499111
  0
LINE
  5
33E
100
AcDbEntity
  8
02___PRT_ALL_AXES
100
AcDbLine
 62
7
  6
CONTINUOUS
 10
146.7177647473
 20
187.1336499111
 11
146.7177647473
 21
184.8836499111
  0
LINE
  5
33F
100
AcDbEntity
  8
02___PRT_ALL_AXES
100
AcDbLine
 62
7
  6
CONTINUOUS
 10
146.7177647473
 20
182.3836499111
 11
146.7177647473
 21
180.6336499111
  0
LINE
  5
340
100
AcDbEntity
  8
7_ALL_FEATURES
100
AcDbLine
 62
7
  6
CONTINUOUS
 10
70.9677647473
 20
239.3836499111
 11
166.4677647473
 21
239.3836499111
  0
LINE
  5
341
100
AcDbEntity
  8
7_ALL_FEATURES
100
AcDbLine
 62
7
  6
CONTINUOUS
 10
70.9677647473
 20
241.5336499111
 11
166.4677647473
 21
241.5336499111
  0
LINE
  5
342
100
AcDbEntity
  8
7_ALL_FEATURES
100
AcDbLine
 62
7
  6
CONTINUOUS
 10
165.9677647473
 20
242.0336499111
 11
71.4677647473
 21
242.0336499111
  0
LINE
  5
343
100
AcDbEntity
  8
3_ALL_AXES
100
AcDbLine
 62
7
  6
CONTINUOUS
 10
146.9177647473
 20
189.1336499111
 11
146.9177647473
 21
188.7536499111
  0
LINE
  5
344
100
AcDbEntity
  8
7_ALL_FEATURES
100
AcDbLine
 62
7
  6
CONTINUOUS
 10
146.9177647473
 20
189.1336499111
 11
146.9177647473
 21
189.6336499111
  0
LINE
  5
345
100
AcDbEntity
  8
7_ALL_FEATURES
100
AcDbLine
 62
7
  6
CONTINUOUS
 10
148.2177647473
 20
192.1336499111
 11
148.2177647473
 21
194.6336499111
  0
LINE
  5
346
100
AcDbEntity
  8
7_ALL_FEATURES
100
AcDbLine
 62
7
  6
CONTINUOUS
 10
148.2177647473
 20
197.1336499111
 11
148.2177647473
 21
199.6336499111
  0
LINE
  5
347
100
AcDbEntity
  8
0
100
AcDbLine
 62
2
  6
CONTINUOUS
 10
148.7177647473
 20
194.6336499111
 11
148.7177647473
 21
192.1336499111
  0
LINE
  5
348
100
AcDbEntity
  8
3_ALL_AXES
100
AcDbLine
 62
7
  6
CONTINUOUS
 10
148.7177647473
 20
194.6336499111
 11
148.7177647473
 21
192.1336499111
  0
LINE
  5
349
100
AcDbEntity
  8
7_ALL_FEATURES
100
AcDbLine
 62
7
  6
CONTINUOUS
 10
165.9677619781
 20
243.0836499111
 11
71.4677675164
 21
243.0836499111
  0
LINE
  5
34A
100
AcDbEntity
  8
06___PRT_ALL_SURFS
100
AcDbLine
 62
7
  6
CONTINUOUS
 10
165.9677647473
 20
243.0836499111
 11
71.4677675164
 21
243.0836499111
  0
LINE
  5
34B
100
AcDbEntity
  8
7_ALL_FEATURES
100
AcDbLine
 62
7
  6
CONTINUOUS
 10
166.4677647473
 20
243.5836499111
 11
70.9677647473
 21
243.5836499111
  0
LINE
  5
34C
100
AcDbEntity
  8
0
100
AcDbLine
 62
2
  6
CONTINUOUS
 10
152.7177647473
 20
194.6336499111
 11
152.7177647473
 21
192.1336499111
  0
LINE
  5
34D
100
AcDbEntity
  8
3_ALL_AXES
100
AcDbLine
 62
7
  6
CONTINUOUS
 10
152.7177647473
 20
194.6336499111
 11
152.7177647473
 21
192.1336499111
  0
LINE
  5
34E
100
AcDbEntity
  8
7_ALL_FEATURES
100
AcDbLine
 62
7
  6
CONTINUOUS
 10
153.2177647473
 20
202.1336499111
 11
153.2177647473
 21
204.6336499111
  0
LINE
  5
34F
100
AcDbEntity
  8
7_ALL_FEATURES
100
AcDbLine
 62
7
  6
CONTINUOUS
 10
153.2177647473
 20
207.1336499111
 11
153.2177647473
 21
209.6336499111
  0
LINE
  5
350
100
AcDbEntity
  8
7_ALL_FEATURES
100
AcDbLine
 62
7
  6
CONTINUOUS
 10
153.2177647473
 20
212.1336499111
 11
153.2177647473
 21
214.6336499111
  0
LINE
  5
351
100
AcDbEntity
  8
7_ALL_FEATURES
100
AcDbLine
 62
7
  6
CONTINUOUS
 10
153.2177647473
 20
217.1336499111
 11
153.2177647473
 21
219.6336499111
  0
LINE
  5
352
100
AcDbEntity
  8
7_ALL_FEATURES
100
AcDbLine
 62
7
  6
CONTINUOUS
 10
153.2177647473
 20
222.1336499111
 11
153.2177647473
 21
224.6336499111
  0
LINE
  5
353
100
AcDbEntity
  8
7_ALL_FEATURES
100
AcDbLine
 62
9
  6
CONTINUOUS
 10
154.2502683613
 20
189.1336499111
 11
154.2502683613
 21
189.6336499111
  0
LINE
  5
354
100
AcDbEntity
  8
3_ALL_AXES
100
AcDbLine
 62
7
  6
CONTINUOUS
 10
154.5177647473
 20
189.1336499111
 11
154.5177647473
 21
188.7536499111
  0
LINE
  5
355
100
AcDbEntity
  8
7_ALL_FEATURES
100
AcDbLine
 62
7
  6
CONTINUOUS
 10
157.7052900704
 20
204.5216500566
 11
158.058843461
 21
204.8752034472
  0
LINE
  5
356
100
AcDbEntity
  8
7_ALL_FEATURES
100
AcDbLine
 62
7
  6
CONTINUOUS
 10
70.9677647473
 20
248.5836499111
 11
166.4677647473
 21
248.5836499111
  0
LINE
  5
357
100
AcDbEntity
  8
7_ALL_FEATURES
100
AcDbLine
 62
7
  6
CONTINUOUS
 10
71.4677675164
 20
249.0836499111
 11
165.9677619781
 21
249.0836499111
  0
LINE
  5
358
100
AcDbEntity
  8
7_ALL_FEATURES
100
AcDbLine
 62
7
  6
CONTINUOUS
 10
154.8377647473
 20
207.1336499111
 11
154.8377647473
 21
204.6336499111
  0
LINE
  5
359
100
AcDbEntity
  8
7_ALL_FEATURES
100
AcDbLine
 62
7
  6
CONTINUOUS
 10
154.8377647473
 20
202.1336499111
 11
154.8377647473
 21
199.6336499111
  0
LINE
  5
35A
100
AcDbEntity
  8
7_ALL_FEATURES
100
AcDbLine
 62
7
  6
CONTINUOUS
 10
154.8377647473
 20
197.1336499111
 11
154.8377647473
 21
194.6336499111
  0
LINE
  5
35B
100
AcDbEntity
  8
7_ALL_FEATURES
100
AcDbLine
 62
7
  6
CONTINUOUS
 10
154.8377647473
 20
192.1336499111
 11
154.8377647473
 21
190.6336499111
  0
LINE
  5
35C
100
AcDbEntity
  8
7_ALL_FEATURES
100
AcDbLine
 62
7
  6
CONTINUOUS
 10
156.2177647473
 20
237.6336499111
 11
156.2177647473
 21
224.6336499111
  0
LINE
  5
35D
100
AcDbEntity
  8
7_ALL_FEATURES
100
AcDbLine
 62
7
  6
CONTINUOUS
 10
156.2177647473
 20
222.1336499111
 11
156.2177647473
 21
219.6336499111
  0
LINE
  5
35E
100
AcDbEntity
  8
7_ALL_FEATURES
100
AcDbLine
 62
7
  6
CONTINUOUS
 10
156.2177647473
 20
217.1336499111
 11
156.2177647473
 21
214.6336499111
  0
LINE
  5
35F
100
AcDbEntity
  8
7_ALL_FEATURES
100
AcDbLine
 62
7
  6
CONTINUOUS
 10
156.2177647473
 20
212.1336499111
 11
156.2177647473
 21
209.6336499111
  0
LINE
  5
360
100
AcDbEntity
  8
7_ALL_FEATURES
100
AcDbLine
 62
7
  6
CONTINUOUS
 10
159.087552502
 20
203.0754853634
 11
159.4446899886
 21
203.43262285
  0
LINE
  5
361
100
AcDbEntity
  8
7_ALL_FEATURES
100
AcDbLine
 62
7
  6
CONTINUOUS
 10
159.4151835067
 20
198.8559512505
 11
154.7824748612
 21
189.9566007431
  0
LINE
  5
362
100
AcDbEntity
  8
7_ALL_FEATURES
100
AcDbLine
 62
3
  6
CONTINUOUS
 10
159.8586889233
 20
198.6250769439
 11
155.2259802778
 21
189.7257264365
  0
LINE
  5
363
100
AcDbEntity
  8
7_ALL_FEATURES
100
AcDbLine
 62
7
  6
CONTINUOUS
 10
153.8377647473
 20
189.6336499111
 11
154.8377647473
 21
190.6336499111
  0
LINE
  5
364
100
AcDbEntity
  8
7_ALL_FEATURES
100
AcDbLine
 62
7
  6
CONTINUOUS
 10
145.7177647473
 20
179.6336499111
 11
146.7177647473
 21
180.6336499111
  0
LINE
  5
365
100
AcDbEntity
  8
7_ALL_FEATURES
100
AcDbLine
 62
7
  6
CONTINUOUS
 10
165.9677647473
 20
243.0836499111
 11
165.9677647473
 21
242.0336499111
  0
LINE
  5
366
100
AcDbEntity
  8
7_ALL_FEATURES
100
AcDbLine
 62
7
  6
CONTINUOUS
 10
166.4677647473
 20
248.5836499111
 11
166.4677647473
 21
243.5836499111
  0
LINE
  5
367
100
AcDbEntity
  8
7_ALL_FEATURES
100
AcDbLine
 62
7
  6
CONTINUOUS
 10
166.4677647473
 20
239.3836499111
 11
166.4677647473
 21
241.5336499111
  0
LINE
  5
368
100
AcDbEntity
  8
7_ALL_FEATURES
100
AcDbLine
 62
7
  6
CONTINUOUS
 10
165.9677647469
 20
242.0336499115
 11
166.4677647469
 21
241.5336499115
  0
LINE
  5
369
100
AcDbEntity
  8
7_ALL_FEATURES
100
AcDbLine
 62
7
  6
CONTINUOUS
 10
165.9677647473
 20
249.0836499111
 11
166.4677647473
 21
248.5836499111
  0
LINE
  5
36A
100
AcDbEntity
  8
7_ALL_FEATURES
100
AcDbLine
 62
7
  6
CONTINUOUS
 10
249.3450937239
 20
249.0836499111
 11
248.8450937239
 21
248.5836499111
  0
LINE
  5
36B
100
AcDbEntity
  8
7_ALL_FEATURES
100
AcDbLine
 62
7
  6
CONTINUOUS
 10
249.3450937239
 20
242.0336499111
 11
248.8450937239
 21
241.5336499111
  0
LINE
  5
36C
100
AcDbEntity
  8
7_ALL_FEATURES
100
AcDbLine
 62
7
  6
CONTINUOUS
 10
248.8450937239
 20
248.5836499111
 11
248.8450937239
 21
243.5836499111
  0
LINE
  5
36D
100
AcDbEntity
  8
02___PRT_ALL_AXES
100
AcDbLine
 62
7
  6
CONTINUOUS
 10
248.8450937239
 20
241.5336499111
 11
248.8450937239
 21
239.3836499111
  0
LINE
  5
36E
100
AcDbEntity
  8
7_ALL_FEATURES
100
AcDbLine
 62
7
  6
CONTINUOUS
 10
249.3450937239
 20
243.0836499111
 11
249.3450937239
 21
242.0336499111
  0
LINE
  5
36F
100
AcDbEntity
  8
7_ALL_FEATURES
100
AcDbLine
 62
7
  6
CONTINUOUS
 10
269.5950937246
 20
179.6336499104
 11
268.5950937246
 21
180.6336499104
  0
LINE
  5
370
100
AcDbEntity
  8
7_ALL_FEATURES
100
AcDbLine
 62
3
  6
CONTINUOUS
 10
260.0868781934
 20
189.7257264365
 11
255.4541695479
 21
198.6250769439
  0
LINE
  5
371
100
AcDbEntity
  8
7_ALL_FEATURES
100
AcDbLine
 62
7
  6
CONTINUOUS
 10
260.53038361
 20
189.9566007431
 11
255.8976749645
 21
198.8559512505
  0
LINE
  5
372
100
AcDbEntity
  8
7_ALL_FEATURES
100
AcDbLine
 62
7
  6
CONTINUOUS
 10
261.4750937239
 20
189.6336499111
 11
260.4750937239
 21
190.6336499111
  0
LINE
  5
373
100
AcDbEntity
  8
7_ALL_FEATURES
100
AcDbLine
 62
7
  6
CONTINUOUS
 10
259.0950937239
 20
237.6336499111
 11
259.0950937239
 21
224.6336499111
  0
LINE
  5
374
100
AcDbEntity
  8
7_ALL_FEATURES
100
AcDbLine
 62
7
  6
CONTINUOUS
 10
259.0950937239
 20
222.1336499111
 11
259.0950937239
 21
219.6336499111
  0
LINE
  5
375
100
AcDbEntity
  8
7_ALL_FEATURES
100
AcDbLine
 62
7
  6
CONTINUOUS
 10
259.0950937239
 20
217.1336499111
 11
259.0950937239
 21
214.6336499111
  0
LINE
  5
376
100
AcDbEntity
  8
7_ALL_FEATURES
100
AcDbLine
 62
7
  6
CONTINUOUS
 10
259.0950937239
 20
212.1336499111
 11
259.0950937239
 21
209.6336499111
  0
LINE
  5
377
100
AcDbEntity
  8
7_ALL_FEATURES
100
AcDbLine
 62
7
  6
CONTINUOUS
 10
260.4750937239
 20
207.1336499111
 11
260.4750937239
 21
204.6336499111
  0
LINE
  5
378
100
AcDbEntity
  8
7_ALL_FEATURES
100
AcDbLine
 62
7
  6
CONTINUOUS
 10
260.4750937239
 20
202.1336499111
 11
260.4750937239
 21
199.6336499111
  0
LINE
  5
379
100
AcDbEntity
  8
7_ALL_FEATURES
100
AcDbLine
 62
7
  6
CONTINUOUS
 10
260.4750937239
 20
197.1336499111
 11
260.4750937239
 21
194.6336499111
  0
LINE
  5
37A
100
AcDbEntity
  8
7_ALL_FEATURES
100
AcDbLine
 62
7
  6
CONTINUOUS
 10
260.4750937239
 20
192.1336499111
 11
260.4750937239
 21
190.6336499111
  0
LINE
  5
37B
100
AcDbEntity
  8
3_ALL_AXES
100
AcDbLine
 62
7
  6
CONTINUOUS
 10
260.7950937239
 20
188.7536499111
 11
260.7950937239
 21
189.1336499111
  0
LINE
  5
37C
100
AcDbEntity
  8
7_ALL_FEATURES
100
AcDbLine
 62
9
  6
CONTINUOUS
 10
261.0625901099
 20
189.1336499111
 11
261.0625901099
 21
189.6336499111
  0
LINE
  5
37D
100
AcDbEntity
  8
7_ALL_FEATURES
100
AcDbLine
 62
7
  6
CONTINUOUS
 10
256.2253059692
 20
203.0754853634
 11
255.8681684826
 21
203.43262285
  0
LINE
  5
37E
100
AcDbEntity
  8
7_ALL_FEATURES
100
AcDbLine
 62
7
  6
CONTINUOUS
 10
262.0950937239
 20
202.1336499111
 11
262.0950937239
 21
204.6336499111
  0
LINE
  5
37F
100
AcDbEntity
  8
7_ALL_FEATURES
100
AcDbLine
 62
7
  6
CONTINUOUS
 10
262.0950937239
 20
207.1336499111
 11
262.0950937239
 21
209.6336499111
  0
LINE
  5
380
100
AcDbEntity
  8
7_ALL_FEATURES
100
AcDbLine
 62
7
  6
CONTINUOUS
 10
262.0950937239
 20
212.1336499111
 11
262.0950937239
 21
214.6336499111
  0
LINE
  5
381
100
AcDbEntity
  8
7_ALL_FEATURES
100
AcDbLine
 62
7
  6
CONTINUOUS
 10
262.0950937239
 20
217.1336499111
 11
262.0950937239
 21
219.6336499111
  0
LINE
  5
382
100
AcDbEntity
  8
7_ALL_FEATURES
100
AcDbLine
 62
7
  6
CONTINUOUS
 10
262.0950937239
 20
222.1336499111
 11
262.0950937239
 21
224.6336499111
  0
LINE
  5
383
100
AcDbEntity
  8
0
100
AcDbLine
 62
2
  6
CONTINUOUS
 10
262.5950937239
 20
194.6336499111
 11
262.5950937239
 21
192.1336499111
  0
LINE
  5
384
100
AcDbEntity
  8
7_ALL_FEATURES
100
AcDbLine
 62
7
  6
CONTINUOUS
 10
262.5950937239
 20
192.1336499111
 11
262.5950937239
 21
194.6336499111
  0
LINE
  5
385
100
AcDbEntity
  8
7_ALL_FEATURES
100
AcDbLine
 62
7
  6
CONTINUOUS
 10
323.5950937239
 20
179.6336499111
 11
269.5950937239
 21
179.6336499111
  0
LINE
  5
386
100
AcDbEntity
  8
7_ALL_FEATURES
100
AcDbLine
 62
7
  6
CONTINUOUS
 10
324.5950937239
 20
180.6336499111
 11
268.5950937239
 21
180.6336499111
  0
LINE
  5
387
100
AcDbEntity
  8
7_ALL_FEATURES
100
AcDbLine
 62
7
  6
CONTINUOUS
 10
268.5950937239
 20
182.3836499111
 11
324.5950937239
 21
182.3836499111
  0
LINE
  5
388
100
AcDbEntity
  8
7_ALL_FEATURES
100
AcDbLine
 62
7
  6
CONTINUOUS
 10
257.6075684008
 20
204.5216500566
 11
257.2540150102
 21
204.8752034472
  0
LINE
  5
389
100
AcDbEntity
  8
0
100
AcDbLine
 62
2
  6
CONTINUOUS
 10
266.5950937239
 20
194.6336499111
 11
266.5950937239
 21
192.1336499111
  0
LINE
  5
38A
100
AcDbEntity
  8
7_ALL_FEATURES
100
AcDbLine
 62
7
  6
CONTINUOUS
 10
266.5950937239
 20
192.1336499111
 11
266.5950937239
 21
194.6336499111
  0
LINE
  5
38B
100
AcDbEntity
  8
7_ALL_FEATURES
100
AcDbLine
 62
7
  6
CONTINUOUS
 10
267.0950937239
 20
192.1336499111
 11
267.0950937239
 21
194.6336499111
  0
LINE
  5
38C
100
AcDbEntity
  8
7_ALL_FEATURES
100
AcDbLine
 62
7
  6
CONTINUOUS
 10
267.0950937239
 20
197.1336499111
 11
267.0950937239
 21
199.6336499111
  0
LINE
  5
38D
100
AcDbEntity
  8
3_ALL_AXES
100
AcDbLine
 62
7
  6
CONTINUOUS
 10
268.3950937239
 20
188.7536499111
 11
268.3950937239
 21
189.1336499111
  0
LINE
  5
38E
100
AcDbEntity
  8
7_ALL_FEATURES
100
AcDbLine
 62
7
  6
CONTINUOUS
 10
268.3950937239
 20
189.1336499111
 11
268.3950937239
 21
189.6336499111
  0
LINE
  5
38F
100
AcDbEntity
  8
7_ALL_FEATURES
100
AcDbLine
 62
7
  6
CONTINUOUS
 10
268.5950937239
 20
180.6336499111
 11
268.5950937239
 21
182.3836499111
  0
LINE
  5
390
100
AcDbEntity
  8
7_ALL_FEATURES
100
AcDbLine
 62
7
  6
CONTINUOUS
 10
268.5950937239
 20
184.8836499111
 11
268.5950937239
 21
187.1336499111
  0
LINE
  5
391
100
AcDbEntity
  8
7_ALL_FEATURES
100
AcDbLine
 62
7
  6
CONTINUOUS
 10
324.5950937239
 20
184.8836499111
 11
268.5950937239
 21
184.8836499111
  0
LINE
  5
392
100
AcDbEntity
  8
3_ALL_AXES
100
AcDbLine
 62
7
  6
CONTINUOUS
 10
330.5600937239
 20
186.9336499111
 11
326.6300937239
 21
186.9336499111
  0
LINE
  5
393
100
AcDbEntity
  8
3_ALL_AXES
100
AcDbLine
 62
7
  6
CONTINUOUS
 10
298.5600937239
 20
186.9336499111
 11
294.6300937239
 21
186.9336499111
  0
LINE
  5
394
100
AcDbEntity
  8
3_ALL_AXES
100
AcDbLine
 62
7
  6
CONTINUOUS
 10
266.5600937239
 20
186.9336499111
 11
262.6300937239
 21
186.9336499111
  0
LINE
  5
395
100
AcDbEntity
  8
7_ALL_FEATURES
100
AcDbLine
 62
7
  6
CONTINUOUS
 10
268.5950937239
 20
187.1336499111
 11
294.2846226319
 21
187.1336499111
  0
LINE
  5
396
100
AcDbEntity
  8
7_ALL_FEATURES
100
AcDbLine
 62
7
  6
CONTINUOUS
 10
298.905564816
 20
187.1336499111
 11
324.5950937239
 21
187.1336499111
  0
LINE
  5
397
100
AcDbEntity
  8
7_ALL_FEATURES
100
AcDbLine
 62
7
  6
CONTINUOUS
 10
270.5950937239
 20
182.3836499111
 11
270.5950937239
 21
184.8836499111
  0
LINE
  5
398
100
AcDbEntity
  8
7_ALL_FEATURES
100
AcDbLine
 62
7
  6
CONTINUOUS
 10
270.5950937239
 20
187.1336499111
 11
270.5950937239
 21
189.6336499111
  0
LINE
  5
399
100
AcDbEntity
  8
3_ALL_AXES
100
AcDbLine
 62
7
  6
CONTINUOUS
 10
332.3950937239
 20
188.7536499111
 11
324.7950937239
 21
188.7536499111
  0
LINE
  5
39A
100
AcDbEntity
  8
3_ALL_AXES
100
AcDbLine
 62
7
  6
CONTINUOUS
 10
300.3950937239
 20
188.7536499111
 11
292.7950937239
 21
188.7536499111
  0
LINE
  5
39B
100
AcDbEntity
  8
3_ALL_AXES
100
AcDbLine
 62
7
  6
CONTINUOUS
 10
268.3950937239
 20
188.7536499111
 11
260.7950937239
 21
188.7536499111
  0
LINE
  5
39C
100
AcDbEntity
  8
3_ALL_AXES
100
AcDbLine
 62
7
  6
CONTINUOUS
 10
332.3950937239
 20
189.1336499111
 11
332.127597338
 21
189.1336499111
  0
LINE
  5
39D
100
AcDbEntity
  8
7_ALL_FEATURES
100
AcDbLine
 62
3
  6
CONTINUOUS
 10
332.127597338
 20
189.1336499111
 11
324.7950937239
 21
189.1336499111
  0
LINE
  5
39E
100
AcDbEntity
  8
3_ALL_AXES
100
AcDbLine
 62
7
  6
CONTINUOUS
 10
297.9783456767
 20
189.1336499111
 11
295.2118417712
 21
189.1336499111
  0
LINE
  5
39F
100
AcDbEntity
  8
7_ALL_FEATURES
100
AcDbLine
 62
3
  6
CONTINUOUS
 10
268.3950937239
 20
189.1336499111
 11
261.0625901099
 21
189.1336499111
  0
LINE
  5
3A0
100
AcDbEntity
  8
3_ALL_AXES
100
AcDbLine
 62
7
  6
CONTINUOUS
 10
261.0625901099
 20
189.1336499111
 11
260.7950937239
 21
189.1336499111
  0
LINE
  5
3A1
100
AcDbEntity
  8
7_ALL_FEATURES
100
AcDbLine
 62
3
  6
CONTINUOUS
 10
291.0950937239
 20
189.1336499111
 11
295.2118417712
 21
189.1336499111
  0
LINE
  5
3A2
100
AcDbEntity
  8
7_ALL_FEATURES
100
AcDbLine
 62
3
  6
CONTINUOUS
 10
297.9783456767
 20
189.1336499111
 11
302.0950937239
 21
189.1336499111
  0
LINE
  5
3A3
100
AcDbEntity
  8
7_ALL_FEATURES
100
AcDbLine
 62
7
  6
CONTINUOUS
 10
332.127597338
 20
189.6336499111
 11
302.0950937239
 21
189.6336499111
  0
LINE
  5
3A4
100
AcDbEntity
  8
7_ALL_FEATURES
100
AcDbLine
 62
7
  6
CONTINUOUS
 10
291.0950937239
 20
189.6336499111
 11
261.0625901099
 21
189.6336499111
  0
LINE
  5
3A5
100
AcDbEntity
  8
7_ALL_FEATURES
100
AcDbLine
 62
9
  6
CONTINUOUS
 10
291.0950937239
 20
189.7257264365
 11
302.0950937239
 21
189.7257264365
  0
LINE
  5
3A6
100
AcDbEntity
  8
7_ALL_FEATURES
100
AcDbLine
 62
7
  6
CONTINUOUS
 10
260.4750937239
 20
190.6336499111
 11
291.0950937239
 21
190.6336499111
  0
LINE
  5
3A7
100
AcDbEntity
  8
7_ALL_FEATURES
100
AcDbLine
 62
7
  6
CONTINUOUS
 10
302.0950937239
 20
190.6336499111
 11
332.7150937239
 21
190.6336499111
  0
LINE
  5
3A8
100
AcDbEntity
  8
7_ALL_FEATURES
100
AcDbLine
 62
3
  6
CONTINUOUS
 10
256.2637377819
 20
203.8849262188
 11
257.2540150102
 21
204.8752034472
  0
LINE
  5
3A9
100
AcDbEntity
  8
7_ALL_FEATURES
100
AcDbLine
 62
7
  6
CONTINUOUS
 10
257.6075684008
 20
204.5216500566
 11
256.6172911725
 21
203.5313728282
  0
LINE
  5
3AA
100
AcDbEntity
  8
7_ALL_FEATURES
100
AcDbLine
 62
4
  6
CONTINUOUS
 10
293.5950937239
 20
191.5143691907
 11
299.5950937239
 21
191.5143691907
  0
LINE
  5
3AB
100
AcDbEntity
  8
7_ALL_FEATURES
100
AcDbLine
 62
7
  6
CONTINUOUS
 10
260.4750937239
 20
192.1336499111
 11
291.0950937239
 21
192.1336499111
  0
LINE
  5
3AC
100
AcDbEntity
  8
7_ALL_FEATURES
100
AcDbLine
 62
7
  6
CONTINUOUS
 10
302.0950937239
 20
192.1336499111
 11
332.7150937239
 21
192.1336499111
  0
LINE
  5
3AD
100
AcDbEntity
  8
7_ALL_FEATURES
100
AcDbLine
 62
7
  6
CONTINUOUS
 10
299.2217603906
 20
192.1748965911
 11
298.2117603906
 21
192.1748965911
  0
LINE
  5
3AE
100
AcDbEntity
  8
7_ALL_FEATURES
100
AcDbLine
 62
7
  6
CONTINUOUS
 10
295.2217603906
 20
192.1748965911
 11
294.2117603906
 21
192.1748965911
  0
LINE
  5
3AF
100
AcDbEntity
  8
7_ALL_FEATURES
100
AcDbLine
 62
7
  6
CONTINUOUS
 10
260.4750937239
 20
194.6336499111
 11
291.0950937239
 21
194.6336499111
  0
LINE
  5
3B0
100
AcDbEntity
  8
7_ALL_FEATURES
100
AcDbLine
 62
7
  6
CONTINUOUS
 10
302.0950937239
 20
194.6336499111
 11
332.7150937239
 21
194.6336499111
  0
LINE
  5
3B1
100
AcDbEntity
  8
7_ALL_FEATURES
100
AcDbLine
 62
4
  6
CONTINUOUS
 10
299.5950937239
 20
196.8364341898
 11
293.5950937239
 21
196.8364341898
  0
LINE
  5
3B2
100
AcDbEntity
  8
7_ALL_FEATURES
100
AcDbLine
 62
7
  6
CONTINUOUS
 10
260.4750937239
 20
197.1336499111
 11
291.0950937239
 21
197.1336499111
  0
LINE
  5
3B3
100
AcDbEntity
  8
7_ALL_FEATURES
100
AcDbLine
 62
7
  6
CONTINUOUS
 10
302.0950937239
 20
197.1336499111
 11
332.7150937239
 21
197.1336499111
  0
LINE
  5
3B4
100
AcDbEntity
  8
7_ALL_FEATURES
100
AcDbLine
 62
9
  6
CONTINUOUS
 10
291.0950937239
 20
198.6250769439
 11
302.0950937239
 21
198.6250769439
  0
LINE
  5
3B5
100
AcDbEntity
  8
03___PRT_ALL_CURVES
100
AcDbLine
 62
40
  6
CONTINUOUS
 10
302.0950937239
 20
189.7257264365
 11
291.0950937239
 21
198.6250769439
  0
LINE
  5
3B6
100
AcDbEntity
  8
7_ALL_FEATURES
100
AcDbLine
 62
7
  6
CONTINUOUS
 10
250.0950937239
 20
238.1336499111
 11
248.8450937239
 21
239.3836499111
  0
LINE
  5
3B7
100
AcDbEntity
  8
7_ALL_FEATURES
100
AcDbLine
 62
7
  6
CONTINUOUS
 10
260.4750937239
 20
199.6336499111
 11
291.0950937239
 21
199.6336499111
  0
LINE
  5
3B8
100
AcDbEntity
  8
7_ALL_FEATURES
100
AcDbLine
 62
7
  6
CONTINUOUS
 10
302.0950937239
 20
199.6336499111
 11
332.7150937239
 21
199.6336499111
  0
LINE
  5
3B9
100
AcDbEntity
  8
7_ALL_FEATURES
100
AcDbLine
 62
7
  6
CONTINUOUS
 10
260.4750937239
 20
202.1336499111
 11
291.0950937239
 21
202.1336499111
  0
LINE
  5
3BA
100
AcDbEntity
  8
7_ALL_FEATURES
100
AcDbLine
 62
7
  6
CONTINUOUS
 10
302.0950937239
 20
202.1336499111
 11
332.7150937239
 21
202.1336499111
  0
LINE
  5
3BB
100
AcDbEntity
  8
7_ALL_FEATURES
100
AcDbLine
 62
7
  6
CONTINUOUS
 10
249.3450937239
 20
243.0836499111
 11
248.8450937239
 21
243.5836499111
  0
LINE
  5
3BC
100
AcDbEntity
  8
7_ALL_FEATURES
100
AcDbLine
 62
4
  6
CONTINUOUS
 10
297.6133272676
 20
192.0122779384
 11
295.934001529
 21
193.8380329253
  0
LINE
  5
3BD
100
AcDbEntity
  8
7_ALL_FEATURES
100
AcDbLine
 62
7
  6
CONTINUOUS
 10
286.5156294525
 20
207.1336499111
 11
286.5156294525
 21
204.6336499111
  0
LINE
  5
3BE
100
AcDbEntity
  8
7_ALL_FEATURES
100
AcDbLine
 62
7
  6
CONTINUOUS
 10
286.5156294525
 20
202.1336499111
 11
286.5156294525
 21
199.6336499111
  0
LINE
  5
3BF
100
AcDbEntity
  8
7_ALL_FEATURES
100
AcDbLine
 62
7
  6
CONTINUOUS
 10
286.5156294525
 20
197.1336499111
 11
286.5156294525
 21
194.6336499111
  0
LINE
  5
3C0
100
AcDbEntity
  8
7_ALL_FEATURES
100
AcDbLine
 62
7
  6
CONTINUOUS
 10
286.5156294525
 20
192.1336499111
 11
286.5156294525
 21
190.6336499111
  0
LINE
  5
3C1
100
AcDbEntity
  8
7_ALL_FEATURES
100
AcDbLine
 62
9
  6
CONTINUOUS
 10
291.6946302371
 20
203.8849262188
 11
301.4955572108
 21
203.8849262188
  0
LINE
  5
3C2
100
AcDbEntity
  8
7_ALL_FEATURES
100
AcDbLine
 62
7
  6
CONTINUOUS
 10
260.4750937239
 20
204.6336499111
 11
292.7534854372
 21
204.6336499111
  0
LINE
  5
3C3
100
AcDbEntity
  8
7_ALL_FEATURES
100
AcDbLine
 62
7
  6
CONTINUOUS
 10
300.4367020107
 20
204.6336499111
 11
332.7150937239
 21
204.6336499111
  0
LINE
  5
3C4
100
AcDbEntity
  8
7_ALL_FEATURES
100
AcDbLine
 62
3
  6
CONTINUOUS
 10
300.0950937239
 20
204.8752034472
 11
293.0950937239
 21
204.8752034472
  0
LINE
  5
3C5
100
AcDbEntity
  8
7_ALL_FEATURES
100
AcDbLine
 62
7
  6
CONTINUOUS
 10
259.0950937243
 20
237.6336499107
 11
258.5950937243
 21
238.1336499107
  0
LINE
  5
3C6
100
AcDbEntity
  8
7_ALL_FEATURES
100
AcDbLine
 62
3
  6
CONTINUOUS
 10
291.0950937239
 20
203.43262285
 11
291.0950937239
 21
189.1336499111
  0
LINE
  5
3C7
100
AcDbEntity
  8
3_ALL_AXES
100
AcDbLine
 62
7
  6
CONTINUOUS
 10
292.7950937239
 20
188.7536499111
 11
292.7950937239
 21
189.1336499111
  0
LINE
  5
3C8
100
AcDbEntity
  8
7_ALL_FEATURES
100
AcDbLine
 62
9
  6
CONTINUOUS
 10
255.4541695479
 20
198.6250769439
 11
255.8976749645
 21
198.8559512505
  0
LINE
  5
3C9
100
AcDbEntity
  8
7_ALL_FEATURES
100
AcDbLine
 62
7
  6
CONTINUOUS
 10
260.4750937239
 20
207.1336499111
 11
332.7150937239
 21
207.1336499111
  0
LINE
  5
3CA
100
AcDbEntity
  8
7_ALL_FEATURES
100
AcDbLine
 62
7
  6
CONTINUOUS
 10
334.0950937239
 20
209.6336499111
 11
259.0950937239
 21
209.6336499111
  0
LINE
  5
3CB
100
AcDbEntity
  8
7_ALL_FEATURES
100
AcDbLine
 62
9
  6
CONTINUOUS
 10
333.1033092545
 20
189.7257264365
 11
332.6598038379
 21
189.9566007431
  0
LINE
  5
3CC
100
AcDbEntity
  8
7_ALL_FEATURES
100
AcDbLine
 62
3
  6
CONTINUOUS
 10
301.4955572108
 20
203.8849262188
 11
300.0950937239
 21
204.8752034472
  0
LINE
  5
3CD
100
AcDbEntity
  8
7_ALL_FEATURES
100
AcDbLine
 62
4
  6
CONTINUOUS
 10
293.5950937239
 20
196.8364341898
 11
293.5950937239
 21
191.5143691907
  0
LINE
  5
3CE
100
AcDbEntity
  8
7_ALL_FEATURES
100
AcDbLine
 62
7
  6
CONTINUOUS
 10
294.2117603906
 20
194.4840814602
 11
294.2117603906
 21
192.1748965911
  0
LINE
  5
3CF
100
AcDbEntity
  8
7_ALL_FEATURES
100
AcDbLine
 62
7
  6
CONTINUOUS
 10
259.0950937239
 20
212.1336499111
 11
334.0950937239
 21
212.1336499111
  0
LINE
  5
3D0
100
AcDbEntity
  8
7_ALL_FEATURES
100
AcDbLine
 62
7
  6
CONTINUOUS
 10
334.0950937239
 20
214.6336499111
 11
259.0950937239
 21
214.6336499111
  0
LINE
  5
3D1
100
AcDbEntity
  8
7_ALL_FEATURES
100
AcDbLine
 62
7
  6
CONTINUOUS
 10
298.2117603906
 20
194.4840814602
 11
298.2117603906
 21
192.1748965911
  0
LINE
  5
3D2
100
AcDbEntity
  8
7_ALL_FEATURES
100
AcDbLine
 62
4
  6
CONTINUOUS
 10
299.5950937239
 20
191.5143691907
 11
299.5950937239
 21
196.8364341898
  0
LINE
  5
3D3
100
AcDbEntity
  8
3_ALL_AXES
100
AcDbLine
 62
7
  6
CONTINUOUS
 10
300.3950937239
 20
188.7536499111
 11
300.3950937239
 21
189.1336499111
  0
LINE
  5
3D4
100
AcDbEntity
  8
7_ALL_FEATURES
100
AcDbLine
 62
7
  6
CONTINUOUS
 10
259.0950937239
 20
217.1336499111
 11
334.0950937239
 21
217.1336499111
  0
LINE
  5
3D5
100
AcDbEntity
  8
7_ALL_FEATURES
100
AcDbLine
 62
3
  6
CONTINUOUS
 10
302.0950937239
 20
189.1336499111
 11
302.0950937239
 21
203.43262285
  0
LINE
  5
3D6
100
AcDbEntity
  8
7_ALL_FEATURES
100
AcDbLine
 62
3
  6
CONTINUOUS
 10
293.0950937239
 20
204.8752034472
 11
291.6946302371
 21
203.8849262188
  0
LINE
  5
3D7
100
AcDbEntity
  8
7_ALL_FEATURES
100
AcDbLine
 62
9
  6
CONTINUOUS
 10
260.0868781934
 20
189.7257264365
 11
260.53038361
 21
189.9566007431
  0
LINE
  5
3D8
100
AcDbEntity
  8
7_ALL_FEATURES
100
AcDbLine
 62
7
  6
CONTINUOUS
 10
334.0950937239
 20
219.6336499111
 11
259.0950937239
 21
219.6336499111
  0
LINE
  5
3D9
100
AcDbEntity
  8
7_ALL_FEATURES
100
AcDbLine
 62
7
  6
CONTINUOUS
 10
259.0950937239
 20
222.1336499111
 11
334.0950937239
 21
222.1336499111
  0
LINE
  5
3DA
100
AcDbEntity
  8
7_ALL_FEATURES
100
AcDbLine
 62
9
  6
CONTINUOUS
 10
337.7360178999
 20
198.6250769439
 11
337.2925124834
 21
198.8559512505
  0
LINE
  5
3DB
100
AcDbEntity
  8
7_ALL_FEATURES
100
AcDbLine
 62
7
  6
CONTINUOUS
 10
306.6745579954
 20
207.1336499111
 11
306.6745579954
 21
204.6336499111
  0
LINE
  5
3DC
100
AcDbEntity
  8
7_ALL_FEATURES
100
AcDbLine
 62
7
  6
CONTINUOUS
 10
306.6745579954
 20
202.1336499111
 11
306.6745579954
 21
199.6336499111
  0
LINE
  5
3DD
100
AcDbEntity
  8
7_ALL_FEATURES
100
AcDbLine
 62
7
  6
CONTINUOUS
 10
306.6745579954
 20
197.1336499111
 11
306.6745579954
 21
194.6336499111
  0
LINE
  5
3DE
100
AcDbEntity
  8
7_ALL_FEATURES
100
AcDbLine
 62
7
  6
CONTINUOUS
 10
306.6745579954
 20
192.1336499111
 11
306.6745579954
 21
190.6336499111
  0
LINE
  5
3DF
100
AcDbEntity
  8
7_ALL_FEATURES
100
AcDbLine
 62
7
  6
CONTINUOUS
 10
334.0950937239
 20
237.6336499111
 11
334.5950937239
 21
238.1336499111
  0
LINE
  5
3E0
100
AcDbEntity
  8
7_ALL_FEATURES
100
AcDbLine
 62
7
  6
CONTINUOUS
 10
334.0950937239
 20
224.6336499111
 11
259.0950937239
 21
224.6336499111
  0
LINE
  5
3E1
100
AcDbEntity
  8
7_ALL_FEATURES
100
AcDbLine
 62
4
  6
CONTINUOUS
 10
297.0077904184
 20
192.4785329771
 11
297.5016927297
 21
192.991478309
  0
LINE
  5
3E2
100
AcDbEntity
  8
7_ALL_FEATURES
100
AcDbLine
 62
7
  6
CONTINUOUS
 10
343.8450937239
 20
243.0836499111
 11
344.3450937239
 21
243.5836499111
  0
LINE
  5
3E3
100
AcDbEntity
  8
7_ALL_FEATURES
100
AcDbLine
 62
7
  6
CONTINUOUS
 10
343.0950937239
 20
238.1336499111
 11
344.3450937239
 21
239.3836499111
  0
LINE
  5
3E4
100
AcDbEntity
  8
7_ALL_FEATURES
100
AcDbLine
 62
4
  6
CONTINUOUS
 10
295.8119591071
 20
193.1235365974
 11
296.71765537
 21
193.7789764925
  0
LINE
  5
3E5
100
AcDbEntity
  8
7_ALL_FEATURES
100
AcDbLine
 62
7
  6
CONTINUOUS
 10
259.0950937239
 20
237.6336499111
 11
334.0950937239
 21
237.6336499111
  0
LINE
  5
3E6
100
AcDbEntity
  8
7_ALL_FEATURES
100
AcDbLine
 62
7
  6
CONTINUOUS
 10
250.0954725357
 20
238.1336499111
 11
343.0947149122
 21
238.1336499111
  0
LINE
  5
3E7
100
AcDbEntity
  8
7_ALL_FEATURES
100
AcDbLine
 62
7
  6
CONTINUOUS
 10
336.5728962754
 20
203.5313728282
 11
335.582619047
 21
204.5216500566
  0
LINE
  5
3E8
100
AcDbEntity
  8
7_ALL_FEATURES
100
AcDbLine
 62
3
  6
CONTINUOUS
 10
335.9361724376
 20
204.8752034472
 11
336.926449666
 21
203.8849262188
  0
LINE
  5
3E9
100
AcDbEntity
  8
7_ALL_FEATURES
100
AcDbLine
 62
7
  6
CONTINUOUS
 10
322.5950937239
 20
182.3836499111
 11
322.5950937239
 21
184.8836499111
  0
LINE
  5
3EA
100
AcDbEntity
  8
7_ALL_FEATURES
100
AcDbLine
 62
7
  6
CONTINUOUS
 10
322.5950937239
 20
187.1336499111
 11
322.5950937239
 21
189.6336499111
  0
LINE
  5
3EB
100
AcDbEntity
  8
7_ALL_FEATURES
100
AcDbLine
 62
7
  6
CONTINUOUS
 10
324.5950937239
 20
180.6336499111
 11
324.5950937239
 21
182.3836499111
  0
LINE
  5
3EC
100
AcDbEntity
  8
7_ALL_FEATURES
100
AcDbLine
 62
7
  6
CONTINUOUS
 10
324.5950937239
 20
184.8836499111
 11
324.5950937239
 21
187.1336499111
  0
LINE
  5
3ED
100
AcDbEntity
  8
7_ALL_FEATURES
100
AcDbLine
 62
7
  6
CONTINUOUS
 10
248.8450937239
 20
239.3836499111
 11
344.3450937239
 21
239.3836499111
  0
LINE
  5
3EE
100
AcDbEntity
  8
7_ALL_FEATURES
100
AcDbLine
 62
7
  6
CONTINUOUS
 10
248.8450937239
 20
241.5336499111
 11
344.3450937239
 21
241.5336499111
  0
LINE
  5
3EF
100
AcDbEntity
  8
7_ALL_FEATURES
100
AcDbLine
 62
7
  6
CONTINUOUS
 10
343.8450937239
 20
242.0336499111
 11
249.3450937239
 21
242.0336499111
  0
LINE
  5
3F0
100
AcDbEntity
  8
3_ALL_AXES
100
AcDbLine
 62
7
  6
CONTINUOUS
 10
324.7950937239
 20
188.7536499111
 11
324.7950937239
 21
189.1336499111
  0
LINE
  5
3F1
100
AcDbEntity
  8
7_ALL_FEATURES
100
AcDbLine
 62
7
  6
CONTINUOUS
 10
324.7950937239
 20
189.1336499111
 11
324.7950937239
 21
189.6336499111
  0
LINE
  5
3F2
100
AcDbEntity
  8
7_ALL_FEATURES
100
AcDbLine
 62
7
  6
CONTINUOUS
 10
326.0950937239
 20
192.1336499111
 11
326.0950937239
 21
194.6336499111
  0
LINE
  5
3F3
100
AcDbEntity
  8
7_ALL_FEATURES
100
AcDbLine
 62
7
  6
CONTINUOUS
 10
326.0950937239
 20
197.1336499111
 11
326.0950937239
 21
199.6336499111
  0
LINE
  5
3F4
100
AcDbEntity
  8
0
100
AcDbLine
 62
2
  6
CONTINUOUS
 10
326.5950937239
 20
194.6336499111
 11
326.5950937239
 21
192.1336499111
  0
LINE
  5
3F5
100
AcDbEntity
  8
7_ALL_FEATURES
100
AcDbLine
 62
7
  6
CONTINUOUS
 10
326.5950937239
 20
192.1336499111
 11
326.5950937239
 21
194.6336499111
  0
LINE
  5
3F6
100
AcDbEntity
  8
7_ALL_FEATURES
100
AcDbLine
 62
7
  6
CONTINUOUS
 10
343.8450937239
 20
243.0836499111
 11
249.3450937239
 21
243.0836499111
  0
LINE
  5
3F7
100
AcDbEntity
  8
06___PRT_ALL_SURFS
100
AcDbLine
 62
7
  6
CONTINUOUS
 10
343.8450937239
 20
243.0836499111
 11
249.3450937239
 21
243.0836499111
  0
LINE
  5
3F8
100
AcDbEntity
  8
7_ALL_FEATURES
100
AcDbLine
 62
7
  6
CONTINUOUS
 10
344.3450937239
 20
243.5836499111
 11
248.8450937239
 21
243.5836499111
  0
LINE
  5
3F9
100
AcDbEntity
  8
0
100
AcDbLine
 62
2
  6
CONTINUOUS
 10
330.5950937239
 20
194.6336499111
 11
330.5950937239
 21
192.1336499111
  0
LINE
  5
3FA
100
AcDbEntity
  8
7_ALL_FEATURES
100
AcDbLine
 62
7
  6
CONTINUOUS
 10
330.5950937239
 20
192.1336499111
 11
330.5950937239
 21
194.6336499111
  0
LINE
  5
3FB
100
AcDbEntity
  8
7_ALL_FEATURES
100
AcDbLine
 62
7
  6
CONTINUOUS
 10
331.0950937239
 20
202.1336499111
 11
331.0950937239
 21
204.6336499111
  0
LINE
  5
3FC
100
AcDbEntity
  8
7_ALL_FEATURES
100
AcDbLine
 62
7
  6
CONTINUOUS
 10
331.0950937239
 20
207.1336499111
 11
331.0950937239
 21
209.6336499111
  0
LINE
  5
3FD
100
AcDbEntity
  8
7_ALL_FEATURES
100
AcDbLine
 62
7
  6
CONTINUOUS
 10
331.0950937239
 20
212.1336499111
 11
331.0950937239
 21
214.6336499111
  0
LINE
  5
3FE
100
AcDbEntity
  8
7_ALL_FEATURES
100
AcDbLine
 62
7
  6
CONTINUOUS
 10
331.0950937239
 20
217.1336499111
 11
331.0950937239
 21
219.6336499111
  0
LINE
  5
3FF
100
AcDbEntity
  8
7_ALL_FEATURES
100
AcDbLine
 62
7
  6
CONTINUOUS
 10
331.0950937239
 20
222.1336499111
 11
331.0950937239
 21
224.6336499111
  0
LINE
  5
400
100
AcDbEntity
  8
7_ALL_FEATURES
100
AcDbLine
 62
9
  6
CONTINUOUS
 10
332.127597338
 20
189.1336499111
 11
332.127597338
 21
189.6336499111
  0
LINE
  5
401
100
AcDbEntity
  8
3_ALL_AXES
100
AcDbLine
 62
7
  6
CONTINUOUS
 10
332.3950937239
 20
188.7536499111
 11
332.3950937239
 21
189.1336499111
  0
LINE
  5
402
100
AcDbEntity
  8
7_ALL_FEATURES
100
AcDbLine
 62
7
  6
CONTINUOUS
 10
335.582619047
 20
204.5216500566
 11
335.9361724376
 21
204.8752034472
  0
LINE
  5
403
100
AcDbEntity
  8
7_ALL_FEATURES
100
AcDbLine
 62
7
  6
CONTINUOUS
 10
248.8450937239
 20
248.5836499111
 11
344.3450937239
 21
248.5836499111
  0
LINE
  5
404
100
AcDbEntity
  8
7_ALL_FEATURES
100
AcDbLine
 62
7
  6
CONTINUOUS
 10
249.3450937239
 20
249.0836499111
 11
343.8450937239
 21
249.0836499111
  0
LINE
  5
405
100
AcDbEntity
  8
7_ALL_FEATURES
100
AcDbLine
 62
7
  6
CONTINUOUS
 10
332.7150937239
 20
207.1336499111
 11
332.7150937239
 21
204.6336499111
  0
LINE
  5
406
100
AcDbEntity
  8
7_ALL_FEATURES
100
AcDbLine
 62
7
  6
CONTINUOUS
 10
332.7150937239
 20
202.1336499111
 11
332.7150937239
 21
199.6336499111
  0
LINE
  5
407
100
AcDbEntity
  8
7_ALL_FEATURES
100
AcDbLine
 62
7
  6
CONTINUOUS
 10
332.7150937239
 20
197.1336499111
 11
332.7150937239
 21
194.6336499111
  0
LINE
  5
408
100
AcDbEntity
  8
7_ALL_FEATURES
100
AcDbLine
 62
7
  6
CONTINUOUS
 10
332.7150937239
 20
192.1336499111
 11
332.7150937239
 21
190.6336499111
  0
LINE
  5
409
100
AcDbEntity
  8
7_ALL_FEATURES
100
AcDbLine
 62
7
  6
CONTINUOUS
 10
334.0950937239
 20
237.6336499111
 11
334.0950937239
 21
224.6336499111
  0
LINE
  5
40A
100
AcDbEntity
  8
7_ALL_FEATURES
100
AcDbLine
 62
7
  6
CONTINUOUS
 10
334.0950937239
 20
222.1336499111
 11
334.0950937239
 21
219.6336499111
  0
LINE
  5
40B
100
AcDbEntity
  8
7_ALL_FEATURES
100
AcDbLine
 62
7
  6
CONTINUOUS
 10
334.0950937239
 20
217.1336499111
 11
334.0950937239
 21
214.6336499111
  0
LINE
  5
40C
100
AcDbEntity
  8
7_ALL_FEATURES
100
AcDbLine
 62
7
  6
CONTINUOUS
 10
334.0950937239
 20
212.1336499111
 11
334.0950937239
 21
209.6336499111
  0
LINE
  5
40D
100
AcDbEntity
  8
7_ALL_FEATURES
100
AcDbLine
 62
7
  6
CONTINUOUS
 10
336.9648814786
 20
203.0754853634
 11
337.3220189652
 21
203.43262285
  0
LINE
  5
40E
100
AcDbEntity
  8
7_ALL_FEATURES
100
AcDbLine
 62
7
  6
CONTINUOUS
 10
337.2925124834
 20
198.8559512505
 11
332.6598038379
 21
189.9566007431
  0
LINE
  5
40F
100
AcDbEntity
  8
7_ALL_FEATURES
100
AcDbLine
 62
3
  6
CONTINUOUS
 10
337.7360178999
 20
198.6250769439
 11
333.1033092545
 21
189.7257264365
  0
LINE
  5
410
100
AcDbEntity
  8
7_ALL_FEATURES
100
AcDbLine
 62
7
  6
CONTINUOUS
 10
331.7150937239
 20
189.6336499111
 11
332.7150937239
 21
190.6336499111
  0
LINE
  5
411
100
AcDbEntity
  8
7_ALL_FEATURES
100
AcDbLine
 62
7
  6
CONTINUOUS
 10
323.5950937233
 20
179.6336499104
 11
324.5950937233
 21
180.6336499104
  0
LINE
  5
412
100
AcDbEntity
  8
7_ALL_FEATURES
100
AcDbLine
 62
7
  6
CONTINUOUS
 10
343.8450937239
 20
243.0836499111
 11
343.8450937239
 21
242.0336499111
  0
LINE
  5
413
100
AcDbEntity
  8
7_ALL_FEATURES
100
AcDbLine
 62
7
  6
CONTINUOUS
 10
344.3450937239
 20
248.5836499111
 11
344.3450937239
 21
243.5836499111
  0
LINE
  5
414
100
AcDbEntity
  8
02___PRT_ALL_AXES
100
AcDbLine
 62
7
  6
CONTINUOUS
 10
344.3450937239
 20
241.5336499111
 11
344.3450937239
 21
239.3836499111
  0
LINE
  5
415
100
AcDbEntity
  8
7_ALL_FEATURES
100
AcDbLine
 62
7
  6
CONTINUOUS
 10
343.8450937239
 20
242.0336499111
 11
344.3450937239
 21
241.5336499111
  0
LINE
  5
416
100
AcDbEntity
  8
7_ALL_FEATURES
100
AcDbLine
 62
7
  6
CONTINUOUS
 10
343.8450937239
 20
249.0836499111
 11
344.3450937239
 21
248.5836499111
  0
CIRCLE
  5
417
100
AcDbEntity
  8
7_ALL_FEATURES
100
AcDbCircle
 62
7
  6
CONTINUOUS
 10
118.7177647473
 20
79.3492644822
 40
47.75
  0
CIRCLE
  5
418
100
AcDbEntity
  8
7_ALL_FEATURES
100
AcDbCircle
 62
7
  6
CONTINUOUS
 10
118.7177647473
 20
79.3492644822
 40
47.25
  0
ARC
  5
419
100
AcDbEntity
  8
7_ALL_FEATURES
100
AcDbCircle
 62
3
  6
CONTINUOUS
 10
155.867140174
 20
200.7029457035
 40
4.5
100
AcDbArc
 50
332.5
 51
45.0
  0
ARC
  5
41A
100
AcDbEntity
  8
7_ALL_FEATURES
100
AcDbCircle
 62
3
  6
CONTINUOUS
 10
81.5683893206
 20
200.7029457035
 40
4.5
100
AcDbArc
 50
135.0
 51
207.5
  0
ARC
  5
41B
100
AcDbEntity
  8
3_ALL_AXES
100
AcDbCircle
 62
7
  6
CONTINUOUS
 10
86.8602075446
 20
190.6062900028
 40
4.1
100
AcDbArc
 50
296.3930257743
 51
333.1366968699
  0
ARC
  5
41C
100
AcDbEntity
  8
3_ALL_AXES
100
AcDbCircle
 62
7
  6
CONTINUOUS
 10
86.5753219499
 20
190.6062900028
 40
4.1
100
AcDbArc
 50
206.8633031301
 51
243.6069742257
  0
ARC
  5
41D
100
AcDbEntity
  8
3_ALL_AXES
100
AcDbCircle
 62
7
  6
CONTINUOUS
 10
150.8602075446
 20
190.6062900028
 40
4.1
100
AcDbArc
 50
296.3930257743
 51
333.1366968699
  0
ARC
  5
41E
100
AcDbEntity
  8
3_ALL_AXES
100
AcDbCircle
 62
7
  6
CONTINUOUS
 10
150.5753219499
 20
190.6062900028
 40
4.1
100
AcDbArc
 50
206.8633031301
 51
243.6069742257
  0
ARC
  5
41F
100
AcDbEntity
  8
3_ALL_AXES
100
AcDbCircle
 62
7
  6
CONTINUOUS
 10
118.8602075446
 20
190.6062900028
 40
4.1
100
AcDbArc
 50
296.3930257743
 51
333.1366968699
  0
ARC
  5
420
100
AcDbEntity
  8
3_ALL_AXES
100
AcDbCircle
 62
7
  6
CONTINUOUS
 10
118.5753219499
 20
190.6062900028
 40
4.1
100
AcDbArc
 50
206.8633031301
 51
243.6069742257
  0
ARC
  5
421
100
AcDbEntity
  8
7_ALL_FEATURES
100
AcDbCircle
 62
7
  6
CONTINUOUS
 10
155.867140174
 20
200.7029457035
 40
4.0
100
AcDbArc
 50
332.5
 51
45.0
  0
ARC
  5
422
100
AcDbEntity
  8
7_ALL_FEATURES
100
AcDbCircle
 62
7
  6
CONTINUOUS
 10
81.5683893206
 20
200.7029457035
 40
4.0
100
AcDbArc
 50
135.0
 51
207.5
  0
ARC
  5
423
100
AcDbEntity
  8
7_ALL_FEATURES
100
AcDbCircle
 62
3
  6
CONTINUOUS
 10
154.2502683613
 20
190.2336499111
 40
1.1
100
AcDbArc
 50
270.0
 51
332.5
  0
ARC
  5
424
100
AcDbEntity
  8
7_ALL_FEATURES
100
AcDbCircle
 62
3
  6
CONTINUOUS
 10
83.1852611332
 20
190.2336499111
 40
1.1
100
AcDbArc
 50
207.5
 51
270.0
  0
ARC
  5
425
100
AcDbEntity
  8
7_ALL_FEATURES
100
AcDbCircle
 62
7
  6
CONTINUOUS
 10
154.2502683613
 20
190.2336499111
 40
0.6
100
AcDbArc
 50
270.0
 51
332.5
  0
ARC
  5
426
100
AcDbEntity
  8
7_ALL_FEATURES
100
AcDbCircle
 62
7
  6
CONTINUOUS
 10
83.1852611332
 20
190.2336499111
 40
0.6
100
AcDbArc
 50
207.5
 51
270.0
  0
ARC
  5
427
100
AcDbEntity
  8
7_ALL_FEATURES
100
AcDbCircle
 62
3
  6
CONTINUOUS
 10
333.7444691506
 20
200.7029457035
 40
4.5
100
AcDbArc
 50
332.5
 51
45.0
  0
ARC
  5
428
100
AcDbEntity
  8
7_ALL_FEATURES
100
AcDbCircle
 62
3
  6
CONTINUOUS
 10
259.4457182972
 20
200.7029457035
 40
4.5
100
AcDbArc
 50
135.0
 51
207.5
  0
ARC
  5
429
100
AcDbEntity
  8
3_ALL_AXES
100
AcDbCircle
 62
7
  6
CONTINUOUS
 10
328.7375365213
 20
190.6062900028
 40
4.1
100
AcDbArc
 50
296.3930257743
 51
333.1366968699
  0
ARC
  5
42A
100
AcDbEntity
  8
3_ALL_AXES
100
AcDbCircle
 62
7
  6
CONTINUOUS
 10
328.4526509266
 20
190.6062900028
 40
4.1
100
AcDbArc
 50
206.8633031301
 51
243.6069742257
  0
ARC
  5
42B
100
AcDbEntity
  8
3_ALL_AXES
100
AcDbCircle
 62
7
  6
CONTINUOUS
 10
264.7375365213
 20
190.6062900028
 40
4.1
100
AcDbArc
 50
296.3930257743
 51
333.1366968699
  0
ARC
  5
42C
100
AcDbEntity
  8
3_ALL_AXES
100
AcDbCircle
 62
7
  6
CONTINUOUS
 10
264.4526509266
 20
190.6062900028
 40
4.1
100
AcDbArc
 50
206.8633031301
 51
243.6069742257
  0
ARC
  5
42D
100
AcDbEntity
  8
3_ALL_AXES
100
AcDbCircle
 62
7
  6
CONTINUOUS
 10
296.7375365213
 20
190.6062900028
 40
4.1
100
AcDbArc
 50
296.3930257743
 51
333.1366968699
  0
ARC
  5
42E
100
AcDbEntity
  8
3_ALL_AXES
100
AcDbCircle
 62
7
  6
CONTINUOUS
 10
296.4526509266
 20
190.6062900028
 40
4.1
100
AcDbArc
 50
206.8633031301
 51
243.6069742257
  0
ARC
  5
42F
100
AcDbEntity
  8
7_ALL_FEATURES
100
AcDbCircle
 62
7
  6
CONTINUOUS
 10
333.7444691506
 20
200.7029457035
 40
4.0
100
AcDbArc
 50
332.5
 51
45.0
  0
ARC
  5
430
100
AcDbEntity
  8
7_ALL_FEATURES
100
AcDbCircle
 62
7
  6
CONTINUOUS
 10
259.4457182972
 20
200.7029457035
 40
4.0
100
AcDbArc
 50
135.0
 51
207.5
  0
ARC
  5
431
100
AcDbEntity
  8
7_ALL_FEATURES
100
AcDbCircle
 62
3
  6
CONTINUOUS
 10
332.127597338
 20
190.2336499111
 40
1.1
100
AcDbArc
 50
270.0
 51
332.5
  0
ARC
  5
432
100
AcDbEntity
  8
7_ALL_FEATURES
100
AcDbCircle
 62
3
  6
CONTINUOUS
 10
261.0625901099
 20
190.2336499111
 40
1.1
100
AcDbArc
 50
207.5
 51
270.0
  0
ARC
  5
433
100
AcDbEntity
  8
7_ALL_FEATURES
100
AcDbCircle
 62
7
  6
CONTINUOUS
 10
332.127597338
 20
190.2336499111
 40
0.6
100
AcDbArc
 50
270.0
 51
332.5
  0
ARC
  5
434
100
AcDbEntity
  8
7_ALL_FEATURES
100
AcDbCircle
 62
7
  6
CONTINUOUS
 10
261.0625901099
 20
190.2336499111
 40
0.6
100
AcDbArc
 50
207.5
 51
270.0
  0
SPLINE
  5
435
100
AcDbEntity
  8
7_ALL_FEATURES
100
AcDbSpline
 62
4
  6
CONTINUOUS
 70
0
 71
3
 72
130
 73
126
 74
0
 42
0.0000001
 43
0.0000001
 44
0.0000000001
 40
0.0
 40
0.0
 40
0.0
 40
0.0
 40
0.03125
 40
0.0625
 40
0.078125
 40
0.09375
 40
0.109375
 40
0.125
 40
0.140625
 40
0.1484375
 40
0.15234375
 40
0.15625
 40
0.16015625
 40
0.1640625
 40
0.1650390625
 40
0.166015625
 40
0.1669921875
 40
0.16796875
 40
0.169921875
 40
0.171875
 40
0.17578125
 40
0.1796875
 40
0.1875
 40
0.1953125
 40
0.203125
 40
0.21875
 40
0.25
 40
0.28125
 40
0.296875
 40
0.3046875
 40
0.3125
 40
0.3203125
 40
0.32421875
 40
0.328125
 40
0.330078125
 40
0.33203125
 40
0.3330078125
 40
0.3334960938
 40
0.333984375
 40
0.3349609375
 40
0.3359375
 40
0.33984375
 40
0.34375
 40
0.34765625
 40
0.3515625
 40
0.359375
 40
0.375
 40
0.390625
 40
0.40625
 40
0.421875
 40
0.4375
 40
0.453125
 40
0.4609375
 40
0.46875
 40
0.4765625
 40
0.484375
 40
0.48828125
 40
0.4921875
 40
0.494140625
 40
0.49609375
 40
0.498046875
 40
0.4990234375
 40
0.5
 40
0.5009765625
 40
0.501953125
 40
0.50390625
 40
0.505859375
 40
0.5078125
 40
0.51171875
 40
0.515625
 40
0.5234375
 40
0.53125
 40
0.5390625
 40
0.546875
 40
0.5625
 40
0.578125
 40
0.59375
 40
0.609375
 40
0.625
 40
0.640625
 40
0.6484375
 40
0.65234375
 40
0.65625
 40
0.66015625
 40
0.6640625
 40
0.6650390625
 40
0.666015625
 40
0.6665039062
 40
0.6669921875
 40
0.66796875
 40
0.669921875
 40
0.671875
 40
0.67578125
 40
0.6796875
 40
0.6875
 40
0.6953125
 40
0.703125
 40
0.71875
 40
0.75
 40
0.78125
 40
0.796875
 40
0.8046875
 40
0.8125
 40
0.8203125
 40
0.82421875
 40
0.828125
 40
0.830078125
 40
0.83203125
 40
0.8330078125
 40
0.8334960938
 40
0.833984375
 40
0.8349609375
 40
0.8359375
 40
0.83984375
 40
0.84375
 40
0.84765625
 40
0.8515625
 40
0.859375
 40
0.875
 40
0.890625
 40
0.90625
 40
0.921875
 40
0.9375
 40
0.96875
 40
1.0
 40
1.0
 40
1.0
 40
1.0
 10
117.9346301305
 20
193.1235365974
 30
0.0
 10
117.9284879346
 20
193.1180674433
 30
0.0
 10
117.916203543
 20
193.1071291351
 30
0.0
 10
117.9008480533
 20
193.09345625
 30
0.0
 10
117.8885636618
 20
193.0825179416
 30
0.0
 10
117.8793503674
 20
193.074314211
 30
0.0
 10
117.870137076
 20
193.0661104781
 30
0.0
 10
117.8609237732
 20
193.0579067535
 30
0.0
 10
117.8532460566
 20
193.0510702907
 30
0.0
 10
117.8478715849
 20
193.046284817
 30
0.0
 10
117.8448005676
 20
193.043550182
 30
0.0
 10
117.8424969965
 20
193.0414994271
 30
0.0
 10
117.8401946034
 20
193.0394478263
 30
0.0
 10
117.8384645056
 20
193.0379114974
 30
0.0
 10
117.8373162439
 20
193.0368835896
 30
0.0
 10
117.8367329403
 20
193.0363762221
 30
0.0
 10
117.8361853005
 20
193.0358432469
 30
0.0
 10
117.8356248092
 20
193.0350107669
 30
0.0
 10
117.8348660918
 20
193.0340118868
 30
0.0
 10
117.8336846148
 20
193.0323903637
 30
0.0
 10
117.8321966506
 20
193.0303714428
 30
0.0
 10
117.8298221216
 20
193.0271367077
 30
0.0
 10
117.8268518285
 20
193.0230948197
 30
0.0
 10
117.8232883892
 20
193.0182438988
 30
0.0
 10
117.8185368185
 20
193.0117762329
 30
0.0
 10
117.8102217184
 20
193.0004577108
 30
0.0
 10
117.7983429233
 20
192.9842884511
 30
0.0
 10
117.786464168
 20
192.9681191646
 30
0.0
 10
117.7781490121
 20
192.95680068
 30
0.0
 10
117.7733975292
 20
192.9503329552
 30
0.0
 10
117.7698338203
 20
192.9454822148
 30
0.0
 10
117.7668643711
 20
192.941439762
 30
0.0
 10
117.7644881203
 20
192.9382061791
 30
0.0
 10
117.7630045379
 20
192.9361843261
 30
0.0
 10
117.7618140664
 20
192.9345688216
 30
0.0
 10
117.7610782486
 20
192.9335546185
 30
0.0
 10
117.7605466884
 20
192.9328537205
 30
0.0
 10
117.7602687363
 20
192.9324390569
 30
0.0
 10
117.7600879468
 20
192.9319710957
 30
0.0
 10
117.7598287494
 20
192.9314043615
 30
0.0
 10
117.7592340093
 20
192.9300292058
 30
0.0
 10
117.7583304187
 20
192.9279727698
 30
0.0
 10
117.757132193
 20
192.9252272557
 30
0.0
 10
117.7559322121
 20
192.9224827044
 30
0.0
 10
117.7543328498
 20
192.9188229669
 30
0.0
 10
117.7515336804
 20
192.9124185826
 30
0.0
 10
117.7475350162
 20
192.9032693805
 30
0.0
 10
117.7427365552
 20
192.892290373
 30
0.0
 10
117.7379381113
 20
192.8813113561
 30
0.0
 10
117.733139663
 20
192.8703323417
 30
0.0
 10
117.7283412153
 20
192.8593533267
 30
0.0
 10
117.7243425104
 20
192.8502041475
 30
0.0
 10
117.7211435427
 20
192.8428848046
 30
0.0
 10
117.7187443272
 20
192.8373952958
 30
0.0
 10
117.7163450725
 20
192.8319057935
 30
0.0
 10
117.7143458157
 20
192.8273311879
 30
0.0
 10
117.7127461369
 20
192.823671549
 30
0.0
 10
117.7117469598
 20
192.821384171
 30
0.0
 10
117.7109461933
 20
192.8195545061
 30
0.0
 10
117.7103495197
 20
192.8181816069
 30
0.0
 10
117.7098398812
 20
192.8170395937
 30
0.0
 10
117.7094600049
 20
192.8161213418
 30
0.0
 10
117.7090990405
 20
192.8154453353
 30
0.0
 10
117.7090283873
 20
192.8147209197
 30
0.0
 10
117.7088327736
 20
192.8137719422
 30
0.0
 10
117.7086230495
 20
192.8125799186
 30
0.0
 10
117.7083564881
 20
192.8111519735
 30
0.0
 10
117.7080062745
 20
192.8092471795
 30
0.0
 10
117.7075667264
 20
192.8068664839
 30
0.0
 10
117.706864445
 20
192.803057205
 30
0.0
 10
117.7059862516
 20
192.7982956633
 30
0.0
 10
117.704932566
 20
192.7925817889
 30
0.0
 10
117.7038788412
 20
192.786867921
 30
0.0
 10
117.7024738885
 20
192.7792494282
 30
0.0
 10
117.7007176929
 20
192.7697263129
 30
0.0
 10
117.6986102599
 20
192.7582985744
 30
0.0
 10
117.6965028278
 20
192.7468708357
 30
0.0
 10
117.6943953905
 20
192.7354430976
 30
0.0
 10
117.6922879731
 20
192.7240153572
 30
0.0
 10
117.6905317299
 20
192.7144922477
 30
0.0
 10
117.6893024813
 20
192.7078260561
 30
0.0
 10
117.6885998636
 20
192.7040168272
 30
0.0
 10
117.6880734351
 20
192.7011598395
 30
0.0
 10
117.6875449626
 20
192.6983031044
 30
0.0
 10
117.6871543392
 20
192.6961598446
 30
0.0
 10
117.6868850108
 20
192.6947321065
 30
0.0
 10
117.6867860534
 20
192.6941355763
 30
0.0
 10
117.686675948
 20
192.6936621764
 30
0.0
 10
117.6866789903
 20
192.6931747906
 30
0.0
 10
117.6867368852
 20
192.6923153674
 30
0.0
 10
117.6867921633
 20
192.6910910103
 30
0.0
 10
117.6868959368
 20
192.6891301443
 30
0.0
 10
117.6870204052
 20
192.6866797105
 30
0.0
 10
117.687222488
 20
192.6827586538
 30
0.0
 10
117.6874740852
 20
192.6778574574
 30
0.0
 10
117.6877764325
 20
192.6719759684
 30
0.0
 10
117.6881794119
 20
192.6641340017
 30
0.0
 10
117.6888846963
 20
192.6504105513
 30
0.0
 10
117.6898922053
 20
192.6308056262
 30
0.0
 10
117.6908997411
 20
192.6112007016
 30
0.0
 10
117.6916049879
 20
192.5974772506
 30
0.0
 10
117.6920080265
 20
192.5896352848
 30
0.0
 10
117.6923101924
 20
192.5837537929
 30
0.0
 10
117.6925623573
 20
192.5788526057
 30
0.0
 10
117.6927632816
 20
192.5749315302
 30
0.0
 10
117.6928906985
 20
192.5724811444
 30
0.0
 10
117.6929884198
 20
192.5705201797
 30
0.0
 10
117.6930591065
 20
192.5692960738
 30
0.0
 10
117.6930893257
 20
192.5684361995
 30
0.0
 10
117.6931367303
 20
192.5679495367
 30
0.0
 10
117.6932976437
 20
192.5674805537
 30
0.0
 10
117.6934599876
 20
192.5668882819
 30
0.0
 10
117.6938815455
 20
192.5654718032
 30
0.0
 10
117.6945004702
 20
192.5633449961
 30
0.0
 10
117.6953333689
 20
192.5605104474
 30
0.0
 10
117.6961642171
 20
192.5576755793
 30
0.0
 10
117.69727273
 20
192.5538958666
 30
0.0
 10
117.6992122941
 20
192.5472813174
 30
0.0
 10
117.7019832744
 20
192.5378319886
 30
0.0
 10
117.705308376
 20
192.5264927823
 30
0.0
 10
117.7086334976
 20
192.5151535792
 30
0.0
 10
117.7119586138
 20
192.5038143752
 30
0.0
 10
117.716392104
 20
192.4886954369
 30
0.0
 10
117.7219339661
 20
192.4697967639
 30
0.0
 10
117.726367456
 20
192.4546778255
 30
0.0
 10
117.7285842009
 20
192.4471183563
 30
0.0
  0
SPLINE
  5
436
100
AcDbEntity
  8
7_ALL_FEATURES
100
AcDbSpline
 62
4
  6
CONTINUOUS
 70
0
 71
3
 72
195
 73
191
 74
0
 42
0.0000001
 43
0.0000001
 44
0.0000000001
 40
0.0
 40
0.0
 40
0.0
 40
0.0
 40
0.03125
 40
0.046875
 40
0.0625
 40
0.078125
 40
0.0859375
 40
0.09375
 40
0.1015625
 40
0.109375
 40
0.11328125
 40
0.1171875
 40
0.119140625
 40
0.12109375
 40
0.123046875
 40
0.1240234375
 40
0.1245117188
 40
0.125
 40
0.1254882812
 40
0.1259765625
 40
0.126953125
 40
0.12890625
 40
0.130859375
 40
0.1328125
 40
0.13671875
 40
0.140625
 40
0.1484375
 40
0.15625
 40
0.1640625
 40
0.171875
 40
0.1875
 40
0.203125
 40
0.2109375
 40
0.21875
 40
0.2265625
 40
0.234375
 40
0.23828125
 40
0.2421875
 40
0.244140625
 40
0.24609375
 40
0.248046875
 40
0.2490234375
 40
0.2495117188
 40
0.25
 40
0.2504882812
 40
0.2509765625
 40
0.251953125
 40
0.25390625
 40
0.255859375
 40
0.2578125
 40
0.26171875
 40
0.265625
 40
0.2734375
 40
0.28125
 40
0.2890625
 40
0.296875
 40
0.3125
 40
0.328125
 40
0.3359375
 40
0.34375
 40
0.3515625
 40
0.359375
 40
0.36328125
 40
0.3671875
 40
0.369140625
 40
0.37109375
 40
0.373046875
 40
0.3740234375
 40
0.3745117188
 40
0.375
 40
0.3754882812
 40
0.3759765625
 40
0.376953125
 40
0.37890625
 40
0.380859375
 40
0.3828125
 40
0.38671875
 40
0.390625
 40
0.3984375
 40
0.40625
 40
0.4140625
 40
0.421875
 40
0.4375
 40
0.453125
 40
0.4609375
 40
0.46875
 40
0.4765625
 40
0.484375
 40
0.48828125
 40
0.4921875
 40
0.494140625
 40
0.49609375
 40
0.498046875
 40
0.4990234375
 40
0.4995117188
 40
0.5
 40
0.5004882812
 40
0.5009765625
 40
0.501953125
 40
0.50390625
 40
0.505859375
 40
0.5078125
 40
0.51171875
 40
0.515625
 40
0.5234375
 40
0.53125
 40
0.5390625
 40
0.546875
 40
0.5625
 40
0.578125
 40
0.5859375
 40
0.59375
 40
0.6015625
 40
0.609375
 40
0.61328125
 40
0.6171875
 40
0.619140625
 40
0.62109375
 40
0.623046875
 40
0.6240234375
 40
0.6245117188
 40
0.625
 40
0.6254882812
 40
0.6259765625
 40
0.626953125
 40
0.62890625
 40
0.630859375
 40
0.6328125
 40
0.63671875
 40
0.640625
 40
0.6484375
 40
0.65625
 40
0.6640625
 40
0.671875
 40
0.6875
 40
0.703125
 40
0.7109375
 40
0.71875
 40
0.7265625
 40
0.734375
 40
0.73828125
 40
0.7421875
 40
0.744140625
 40
0.74609375
 40
0.748046875
 40
0.7490234375
 40
0.7495117188
 40
0.75
 40
0.7504882812
 40
0.7509765625
 40
0.751953125
 40
0.75390625
 40
0.755859375
 40
0.7578125
 40
0.76171875
 40
0.765625
 40
0.7734375
 40
0.78125
 40
0.7890625
 40
0.796875
 40
0.8125
 40
0.828125
 40
0.8359375
 40
0.84375
 40
0.8515625
 40
0.859375
 40
0.86328125
 40
0.8671875
 40
0.869140625
 40
0.87109375
 40
0.873046875
 40
0.8740234375
 40
0.8745117188
 40
0.875
 40
0.8754882812
 40
0.8759765625
 40
0.876953125
 40
0.87890625
 40
0.880859375
 40
0.8828125
 40
0.88671875
 40
0.890625
 40
0.8984375
 40
0.90625
 40
0.9140625
 40
0.921875
 40
0.9375
 40
0.953125
 40
0.96875
 40
1.0
 40
1.0
 40
1.0
 40
1.0
 10
117.7285841975
 20
192.4471183644
 30
0.0
 10
117.7335646435
 20
192.4382384123
 30
0.0
 10
117.7410353124
 20
192.424918484
 30
0.0
 10
117.7509962042
 20
192.4071585796
 30
0.0
 10
117.7584668732
 20
192.3938386515
 30
0.0
 10
117.7646924301
 20
192.382738711
 30
0.0
 10
117.7696728771
 20
192.3738587594
 30
0.0
 10
117.7734082082
 20
192.3671987936
 30
0.0
 10
117.7771435553
 20
192.3605388354
 30
0.0
 10
117.7802562945
 20
192.3549888469
 30
0.0
 10
117.7827465979
 20
192.3505489084
 30
0.0
 10
117.7843027826
 20
192.3477738276
 30
0.0
 10
117.7855483142
 20
192.3455540361
 30
0.0
 10
117.7864808642
 20
192.3438884446
 30
0.0
 10
117.787263075
 20
192.3425028308
 30
0.0
 10
117.7878006418
 20
192.3415282322
 30
0.0
 10
117.788123407
 20
192.3409786089
 30
0.0
 10
117.7883215802
 20
192.3405458547
 30
0.0
 10
117.788687564
 20
192.3401916025
 30
0.0
 10
117.7891170082
 20
192.3396918839
 30
0.0
 10
117.7898958077
 20
192.3388301343
 30
0.0
 10
117.7909941203
 20
192.3375923934
 30
0.0
 10
117.7923181984
 20
192.3361099592
 30
0.0
 10
117.7940815041
 20
192.3341323832
 30
0.0
 10
117.7962863662
 20
192.3316607547
 30
0.0
 10
117.7998137376
 20
192.3277059581
 30
0.0
 10
117.8042230918
 20
192.3227625279
 30
0.0
 10
117.8095142568
 20
192.3168303836
 30
0.0
 10
117.8148054379
 20
192.3108982468
 30
0.0
 10
117.8218603405
 20
192.3029887284
 30
0.0
 10
117.8306789707
 20
192.2931018315
 30
0.0
 10
117.8394975996
 20
192.2832149337
 30
0.0
 10
117.8465525042
 20
192.2753054166
 30
0.0
 10
117.8518436791
 20
192.2693732759
 30
0.0
 10
117.8571348672
 20
192.2634411465
 30
0.0
 10
117.8615441497
 20
192.2584976698
 30
0.0
 10
117.8650716674
 20
192.254542968
 30
0.0
 10
117.8672761571
 20
192.2520710983
 30
0.0
 10
117.8690402273
 20
192.2500940173
 30
0.0
 10
117.8703619699
 20
192.2486100707
 30
0.0
 10
117.8714675894
 20
192.247377062
 30
0.0
 10
117.8722333449
 20
192.2465068646
 30
0.0
 10
117.8726836889
 20
192.2460206814
 30
0.0
 10
117.8729854751
 20
192.2456248526
 30
0.0
 10
117.8734247639
 20
192.2453482535
 30
0.0
 10
117.8739625198
 20
192.2449378661
 30
0.0
 10
117.8749259392
 20
192.244239065
 30
0.0
 10
117.8762905696
 20
192.2432306473
 30
0.0
 10
117.8779331268
 20
192.2420248823
 30
0.0
 10
117.8801214564
 20
192.240415681
 30
0.0
 10
117.8828574665
 20
192.2384046979
 30
0.0
 10
117.8872347483
 20
192.2351868352
 30
0.0
 10
117.8927064653
 20
192.2311646063
 30
0.0
 10
117.8992724766
 20
192.2263378889
 30
0.0
 10
117.905838501
 20
192.221511183
 30
0.0
 10
117.9145931956
 20
192.2150755711
 30
0.0
 10
117.9255365655
 20
192.2070310577
 30
0.0
 10
117.9364799344
 20
192.1989865432
 30
0.0
 10
117.9452346307
 20
192.192550933
 30
0.0
 10
117.9518006501
 20
192.1877242218
 30
0.0
 10
117.9583666798
 20
192.1828975242
 30
0.0
 10
117.9638383395
 20
192.1788752339
 30
0.0
 10
117.9682157383
 20
192.1756574963
 30
0.0
 10
117.9709514507
 20
192.1736461947
 30
0.0
 10
117.9731403913
 20
192.1720376474
 30
0.0
 10
117.9747810817
 20
192.1708298842
 30
0.0
 10
117.9761515529
 20
192.169827718
 30
0.0
 10
117.9771045455
 20
192.169117757
 30
0.0
 10
117.9776590078
 20
192.1687252506
 30
0.0
 10
117.9780469799
 20
192.1683937269
 30
0.0
 10
117.9785415028
 20
192.1682041858
 30
0.0
 10
117.9791637006
 20
192.1679019392
 30
0.0
 10
117.9802698631
 20
192.1673960824
 30
0.0
 10
117.981841042
 20
192.1666613661
 30
0.0
 10
117.9837303317
 20
192.1657848701
 30
0.0
 10
117.9862480313
 20
192.1646144053
 30
0.0
 10
117.9893956191
 20
192.1631519418
 30
0.0
 10
117.9944315006
 20
192.1608116551
 30
0.0
 10
118.0007264414
 20
192.1578864152
 30
0.0
 10
118.0082803323
 20
192.1543760765
 30
0.0
 10
118.0158342333
 20
192.1508657513
 30
0.0
 10
118.0259060978
 20
192.1461853131
 30
0.0
 10
118.0384959297
 20
192.140334767
 30
0.0
 10
118.0510857608
 20
192.1344842197
 30
0.0
 10
118.0611576265
 20
192.1298037835
 30
0.0
 10
118.068711524
 20
192.1262934523
 30
0.0
 10
118.0762654282
 20
192.1227831363
 30
0.0
 10
118.0825603273
 20
192.1198578257
 30
0.0
 10
118.0875962939
 20
192.117517683
 30
0.0
 10
118.0907436652
 20
192.116054853
 30
0.0
 10
118.0932618091
 20
192.1148851406
 30
0.0
 10
118.0951497412
 20
192.1140063459
 30
0.0
 10
118.096725168
 20
192.1132788216
 30
0.0
 10
118.0978237473
 20
192.1127601258
 30
0.0
 10
118.0984580952
 20
192.1124784505
 30
0.0
 10
118.0989152969
 20
192.1122257212
 30
0.0
 10
118.099443441
 20
192.1121315219
 30
0.0
 10
118.1001228876
 20
192.1119506258
 30
0.0
 10
118.1013234485
 20
192.1116598215
 30
0.0
 10
118.1030325079
 20
192.1112309172
 30
0.0
 10
118.1050859592
 20
192.1107219975
 30
0.0
 10
118.1078229931
 20
192.1100414241
 30
0.0
 10
118.111244594
 20
192.1091913968
 30
0.0
 10
118.116718983
 20
192.1078309679
 30
0.0
 10
118.1235620284
 20
192.1061305639
 30
0.0
 10
118.1317736576
 20
192.1040900225
 30
0.0
 10
118.1399852935
 20
192.1020494962
 30
0.0
 10
118.1509341391
 20
192.0993287892
 30
0.0
 10
118.1646201969
 20
192.0959279075
 30
0.0
 10
118.1783062542
 20
192.0925270244
 30
0.0
 10
118.1892551005
 20
192.0898063196
 30
0.0
 10
118.1974667344
 20
192.0877657867
 30
0.0
 10
118.2056783713
 20
192.08572527
 30
0.0
 10
118.2125213925
 20
192.0840247892
 30
0.0
 10
118.217995831
 20
192.0826645168
 30
0.0
 10
118.221417306
 20
192.0818140911
 30
0.0
 10
118.2241545982
 20
192.0811343357
 30
0.0
 10
118.2262072603
 20
192.0806229171
 30
0.0
 10
118.2279187889
 20
192.080201831
 30
0.0
 10
118.2291149418
 20
192.0798970699
 30
0.0
 10
118.2298014512
 20
192.0797385362
 30
0.0
 10
118.2303079007
 20
192.0795756468
 30
0.0
 10
118.2308465835
 20
192.0795809062
 30
0.0
 10
118.2315535839
 20
192.0795292666
 30
0.0
 10
118.232796073
 20
192.0794662245
 30
0.0
 10
118.2345683187
 20
192.0793618774
 30
0.0
 10
118.2366961859
 20
192.0792427761
 30
0.0
 10
118.2395329326
 20
192.0790818384
 30
0.0
 10
118.2430790062
 20
192.0788813977
 30
0.0
 10
118.2487526456
 20
192.0785602838
 30
0.0
 10
118.2558447218
 20
192.0781590316
 30
0.0
 10
118.2643552017
 20
192.0776774689
 30
0.0
 10
118.2728656847
 20
192.0771959223
 30
0.0
 10
118.2842129942
 20
192.0765538545
 30
0.0
 10
118.2983971315
 20
192.0757512719
 30
0.0
 10
118.3125812687
 20
192.0749486879
 30
0.0
 10
118.3239285784
 20
192.0743066224
 30
0.0
 10
118.3324390608
 20
192.0738250689
 30
0.0
 10
118.3409495426
 20
192.0733435318
 30
0.0
 10
118.348041613
 20
192.0729422001
 30
0.0
 10
118.3537152641
 20
192.0726212485
 30
0.0
 10
118.357261308
 20
192.0724203948
 30
0.0
 10
118.3600981157
 20
192.0722603048
 30
0.0
 10
118.3622257966
 20
192.0721386137
 30
0.0
 10
118.3639986251
 20
192.0720423693
 30
0.0
 10
118.3652400739
 20
192.0719648624
 30
0.0
 10
118.3659487411
 20
192.0719363991
 30
0.0
 10
118.3664823041
 20
192.0718704685
 30
0.0
 10
118.3670079825
 20
192.0719749569
 30
0.0
 10
118.3677116373
 20
192.0720548307
 30
0.0
 10
118.3689417519
 20
192.072222306
 30
0.0
 10
118.3706997284
 20
192.0724470765
 30
0.0
 10
118.3728090134
 20
192.0727229989
 30
0.0
 10
118.3756214935
 20
192.0730887307
 30
0.0
 10
118.3791370594
 20
192.0735466367
 30
0.0
 10
118.3847619839
 20
192.0742788721
 30
0.0
 10
118.3917931331
 20
192.0751943084
 30
0.0
 10
118.4002305149
 20
192.076292771
 30
0.0
 10
118.4086678959
 20
192.07739125
 30
0.0
 10
118.4199177376
 20
192.0788558829
 30
0.0
 10
118.4339800395
 20
192.0806866761
 30
0.0
 10
118.4480423416
 20
192.0825174679
 30
0.0
 10
118.459292183
 20
192.0839821031
 30
0.0
 10
118.4677295649
 20
192.0850805751
 30
0.0
 10
118.4761669434
 20
192.0861790636
 30
0.0
 10
118.4831981026
 20
192.0870944197
 30
0.0
 10
118.4888230066
 20
192.0878268186
 30
0.0
 10
118.4923386249
 20
192.0882843084
 30
0.0
 10
118.4951509975
 20
192.0886508945
 30
0.0
 10
118.497260611
 20
192.0889242069
 30
0.0
 10
118.4990175596
 20
192.0891571436
 30
0.0
 10
118.5002495091
 20
192.0893100409
 30
0.0
 10
118.5009502239
 20
192.0894132722
 30
0.0
 10
118.5014849331
 20
192.0894460139
 30
0.0
 10
118.501984578
 20
192.0896495517
 30
0.0
 10
118.502663002
 20
192.0898613598
 30
0.0
 10
118.5038445455
 20
192.0902597813
 30
0.0
 10
118.505535444
 20
192.0908144431
 30
0.0
 10
118.507563247
 20
192.0914862488
 30
0.0
 10
118.5102674297
 20
192.0923798201
 30
0.0
 10
118.5136475057
 20
192.0934975271
 30
0.0
 10
118.5190557123
 20
192.0952854431
 30
0.0
 10
118.5258159414
 20
192.0975204807
 30
0.0
 10
118.5339282289
 20
192.1002024646
 30
0.0
 10
118.542040513
 20
192.1028844649
 30
0.0
 10
118.552856893
 20
192.1064604596
 30
0.0
 10
118.5663773676
 20
192.1109304549
 30
0.0
 10
118.5826019373
 20
192.1162944484
 30
0.0
 10
118.6042346968
 20
192.12344644
 30
0.0
 10
118.6204592664
 20
192.1288104337
 30
0.0
 10
118.6312756462
 20
192.1323864295
 30
0.0
  0
SPLINE
  5
437
100
AcDbEntity
  8
7_ALL_FEATURES
100
AcDbSpline
 62
4
  6
CONTINUOUS
 70
0
 71
3
 72
179
 73
175
 74
0
 42
0.0000001
 43
0.0000001
 44
0.0000000001
 40
0.0
 40
0.0
 40
0.0
 40
0.0
 40
0.03125
 40
0.046875
 40
0.0625
 40
0.078125
 40
0.0859375
 40
0.09375
 40
0.1015625
 40
0.109375
 40
0.11328125
 40
0.1171875
 40
0.12109375
 40
0.123046875
 40
0.1240234375
 40
0.125
 40
0.1259765625
 40
0.126953125
 40
0.12890625
 40
0.1328125
 40
0.13671875
 40
0.140625
 40
0.1484375
 40
0.15625
 40
0.1640625
 40
0.171875
 40
0.1875
 40
0.203125
 40
0.2109375
 40
0.21875
 40
0.2265625
 40
0.234375
 40
0.23828125
 40
0.2421875
 40
0.244140625
 40
0.24609375
 40
0.248046875
 40
0.2490234375
 40
0.25
 40
0.2509765625
 40
0.251953125
 40
0.25390625
 40
0.255859375
 40
0.2578125
 40
0.26171875
 40
0.265625
 40
0.2734375
 40
0.28125
 40
0.2890625
 40
0.296875
 40
0.3125
 40
0.328125
 40
0.3359375
 40
0.34375
 40
0.3515625
 40
0.359375
 40
0.36328125
 40
0.3671875
 40
0.369140625
 40
0.37109375
 40
0.373046875
 40
0.3740234375
 40
0.375
 40
0.3759765625
 40
0.376953125
 40
0.37890625
 40
0.380859375
 40
0.3828125
 40
0.38671875
 40
0.390625
 40
0.3984375
 40
0.40625
 40
0.4140625
 40
0.421875
 40
0.4375
 40
0.453125
 40
0.4609375
 40
0.46875
 40
0.4765625
 40
0.484375
 40
0.48828125
 40
0.4921875
 40
0.494140625
 40
0.49609375
 40
0.498046875
 40
0.4990234375
 40
0.5
 40
0.5009765625
 40
0.501953125
 40
0.50390625
 40
0.505859375
 40
0.5078125
 40
0.51171875
 40
0.515625
 40
0.5234375
 40
0.53125
 40
0.5390625
 40
0.546875
 40
0.5625
 40
0.578125
 40
0.5859375
 40
0.59375
 40
0.6015625
 40
0.609375
 40
0.61328125
 40
0.6171875
 40
0.619140625
 40
0.62109375
 40
0.623046875
 40
0.6240234375
 40
0.625
 40
0.6259765625
 40
0.626953125
 40
0.62890625
 40
0.630859375
 40
0.6328125
 40
0.63671875
 40
0.640625
 40
0.6484375
 40
0.65625
 40
0.6640625
 40
0.671875
 40
0.6875
 40
0.703125
 40
0.7109375
 40
0.71875
 40
0.7265625
 40
0.734375
 40
0.73828125
 40
0.7421875
 40
0.744140625
 40
0.74609375
 40
0.748046875
 40
0.7490234375
 40
0.75
 40
0.7509765625
 40
0.751953125
 40
0.75390625
 40
0.755859375
 40
0.7578125
 40
0.76171875
 40
0.765625
 40
0.7734375
 40
0.78125
 40
0.7890625
 40
0.796875
 40
0.8125
 40
0.828125
 40
0.8359375
 40
0.84375
 40
0.8515625
 40
0.859375
 40
0.86328125
 40
0.8671875
 40
0.869140625
 40
0.87109375
 40
0.873046875
 40
0.8740234375
 40
0.875
 40
0.8759765625
 40
0.876953125
 40
0.87890625
 40
0.880859375
 40
0.8828125
 40
0.88671875
 40
0.890625
 40
0.8984375
 40
0.90625
 40
0.9140625
 40
0.921875
 40
0.9375
 40
0.953125
 40
0.96875
 40
1.0
 40
1.0
 40
1.0
 40
1.0
 10
118.1959165579
 20
194.4636444476
 30
0.0
 10
118.1890067583
 20
194.4594077449
 30
0.0
 10
118.1786420589
 20
194.4530526906
 30
0.0
 10
118.1648224592
 20
194.4445792856
 30
0.0
 10
118.1544577607
 20
194.4382242303
 30
0.0
 10
118.1458205081
 20
194.4329283555
 30
0.0
 10
118.1389107146
 20
194.4286916455
 30
0.0
 10
118.133728346
 20
194.4255141408
 30
0.0
 10
118.1285460669
 20
194.4223365298
 30
0.0
 10
118.1242272223
 20
194.4196888517
 30
0.0
 10
118.1207727706
 20
194.4175699679
 30
0.0
 10
118.1181802272
 20
194.4159828304
 30
0.0
 10
118.1160251965
 20
194.4146537734
 30
0.0
 10
118.1145060343
 20
194.4137360765
 30
0.0
 10
118.1136545563
 20
194.4131919373
 30
0.0
 10
118.1129691438
 20
194.4128394437
 30
0.0
 10
118.1124626399
 20
194.412274377
 30
0.0
 10
118.111724896
 20
194.4115951026
 30
0.0
 10
118.11046292
 20
194.4103718255
 30
0.0
 10
118.108644896
 20
194.4086423482
 30
0.0
 10
118.1064697738
 20
194.4065592446
 30
0.0
 10
118.103567338
 20
194.4037844737
 30
0.0
 10
118.0999400731
 20
194.4003150833
 30
0.0
 10
118.095587021
 20
194.3961522121
 30
0.0
 10
118.0912340583
 20
194.3919892347
 30
0.0
 10
118.0854300769
 20
194.3864386352
 30
0.0
 10
118.0781751105
 20
194.3795003733
 30
0.0
 10
118.0709201415
 20
194.3725621151
 30
0.0
 10
118.0651161641
 20
194.3670115096
 30
0.0
 10
118.0607631895
 20
194.36284855
 30
0.0
 10
118.056410182
 20
194.3586856119
 30
0.0
 10
118.0527827782
 20
194.3552164296
 30
0.0
 10
118.0498806259
 20
194.3524412344
 30
0.0
 10
118.0480673026
 20
194.3507063943
 30
0.0
 10
118.0466154487
 20
194.349319308
 30
0.0
 10
118.0455298308
 20
194.3482768419
 30
0.0
 10
118.0446147391
 20
194.3474149642
 30
0.0
 10
118.0439060137
 20
194.3467101118
 30
0.0
 10
118.0433106718
 20
194.3462234167
 30
0.0
 10
118.0429588474
 20
194.34557662
 30
0.0
 10
118.0424046844
 20
194.3447701499
 30
0.0
 10
118.0417411656
 20
194.3437428745
 30
0.0
 10
118.0409324509
 20
194.342518357
 30
0.0
 10
118.039858528
 20
194.3408827983
 30
0.0
 10
118.0385146303
 20
194.3388393323
 30
0.0
 10
118.036365229
 20
194.3355692376
 30
0.0
 10
118.0336781908
 20
194.3314818077
 30
0.0
 10
118.0304538678
 20
194.3265768109
 30
0.0
 10
118.027229512
 20
194.3216718359
 30
0.0
 10
118.0229303824
 20
194.3151318615
 30
0.0
 10
118.017556466
 20
194.3069568963
 30
0.0
 10
118.0121825528
 20
194.2987819295
 30
0.0
 10
118.0078834183
 20
194.2922419577
 30
0.0
 10
118.0046590772
 20
194.2873369749
 30
0.0
 10
118.0014346988
 20
194.2824320069
 30
0.0
 10
117.9987478332
 20
194.2783444877
 30
0.0
 10
117.9965980799
 20
194.2750745751
 30
0.0
 10
117.9952550778
 20
194.2730306458
 30
0.0
 10
117.9941793165
 20
194.271396038
 30
0.0
 10
117.9933762183
 20
194.2701686156
 30
0.0
 10
117.9926951271
 20
194.2691504287
 30
0.0
 10
117.992176815
 20
194.2683254164
 30
0.0
 10
117.9917155042
 20
194.2677352466
 30
0.0
 10
117.9915312201
 20
194.2670359503
 30
0.0
 10
117.9911887389
 20
194.2661416747
 30
0.0
 10
117.9907938384
 20
194.2650107515
 30
0.0
 10
117.9903057467
 20
194.2636592418
 30
0.0
 10
117.9896599215
 20
194.2618552735
 30
0.0
 10
117.9888509403
 20
194.2596009827
 30
0.0
 10
117.9875575204
 20
194.2559937432
 30
0.0
 10
117.9859404195
 20
194.2514848222
 30
0.0
 10
117.9840000382
 20
194.246074062
 30
0.0
 10
117.9820596195
 20
194.2406633165
 30
0.0
 10
117.9794724077
 20
194.233448984
 30
0.0
 10
117.976238388
 20
194.2244310703
 30
0.0
 10
117.9730043717
 20
194.2154131555
 30
0.0
 10
117.9704171545
 20
194.2081988246
 30
0.0
 10
117.9684767521
 20
194.2027880745
 30
0.0
 10
117.9665363096
 20
194.1973773315
 30
0.0
 10
117.9649193991
 20
194.1928683568
 30
0.0
 10
117.9636255909
 20
194.1892612269
 30
0.0
 10
117.9628175978
 20
194.1870066573
 30
0.0
 10
117.9621697446
 20
194.1852032612
 30
0.0
 10
117.9616878484
 20
194.1838500034
 30
0.0
 10
117.9612735637
 20
194.1827245497
 30
0.0
 10
117.9609706301
 20
194.1818191153
 30
0.0
 10
117.96066557
 20
194.1811538971
 30
0.0
 10
117.9606577025
 20
194.1804357841
 30
0.0
 10
117.9605433993
 20
194.1794967769
 30
0.0
 10
117.960436138
 20
194.1783166786
 30
0.0
 10
117.960292179
 20
194.1769032741
 30
0.0
 10
117.9601055586
 20
194.175017787
 30
0.0
 10
117.9598704597
 20
194.1726612527
 30
0.0
 10
117.9594953207
 20
194.1688906164
 30
0.0
 10
117.9590260472
 20
194.1641773832
 30
0.0
 10
117.9584630689
 20
194.1585214767
 30
0.0
 10
117.9579000504
 20
194.1528655774
 30
0.0
 10
117.9571493733
 20
194.1453243757
 30
0.0
 10
117.9562110216
 20
194.1358978745
 30
0.0
 10
117.9552726734
 20
194.1264713731
 30
0.0
 10
117.9545219905
 20
194.1189301719
 30
0.0
 10
117.9539589892
 20
194.1132742712
 30
0.0
 10
117.9533959469
 20
194.1076183697
 30
0.0
 10
117.9529268724
 20
194.102905121
 30
0.0
 10
117.9525513275
 20
194.0991345164
 30
0.0
 10
117.9523172614
 20
194.0967779012
 30
0.0
 10
117.9521285212
 20
194.0948925801
 30
0.0
 10
117.9519910384
 20
194.0934786684
 30
0.0
 10
117.9518635146
 20
194.0923001571
 30
0.0
 10
117.9517905508
 20
194.0913579122
 30
0.0
 10
117.9516564352
 20
194.0906496869
 30
0.0
 10
117.9518253632
 20
194.0899473461
 30
0.0
 10
117.9519447435
 20
194.0890088361
 30
0.0
 10
117.9521302879
 20
194.0878364038
 30
0.0
 10
117.9523373955
 20
194.0864291833
 30
0.0
 10
117.9526189688
 20
194.0845529946
 30
0.0
 10
117.9529690762
 20
194.0822077227
 30
0.0
 10
117.9535302871
 20
194.0784553078
 30
0.0
 10
117.9542314442
 20
194.0737647823
 30
0.0
 10
117.9550729856
 20
194.0681361546
 30
0.0
 10
117.955914486
 20
194.0625075261
 30
0.0
 10
117.957036501
 20
194.0550026885
 30
0.0
 10
117.9584390144
 20
194.0456216412
 30
0.0
 10
117.9598415312
 20
194.0362405943
 30
0.0
 10
117.9609635405
 20
194.028735756
 30
0.0
 10
117.961805058
 20
194.0231071295
 30
0.0
 10
117.9626465357
 20
194.0174784944
 30
0.0
 10
117.9633478908
 20
194.0127879922
 30
0.0
 10
117.9639086979
 20
194.0090355298
 30
0.0
 10
117.964259833
 20
194.0066903787
 30
0.0
 10
117.9645392967
 20
194.0048139419
 30
0.0
 10
117.9647528493
 20
194.0034074795
 30
0.0
 10
117.9649182289
 20
194.0022326753
 30
0.0
 10
117.9650787493
 20
194.0012990046
 30
0.0
 10
117.965122038
 20
194.0005818849
 30
0.0
 10
117.9654596249
 20
193.9999291454
 30
0.0
 10
117.9658069386
 20
193.9990363374
 30
0.0
 10
117.9662763517
 20
193.9979280431
 30
0.0
 10
117.9668245502
 20
193.9965947873
 30
0.0
 10
117.9675607548
 20
193.9948182665
 30
0.0
 10
117.9684792049
 20
193.9925972205
 30
0.0
 10
117.9699497343
 20
193.9890437676
 30
0.0
 10
117.9717875497
 20
193.9846018758
 30
0.0
 10
117.9739930767
 20
193.9792716382
 30
0.0
 10
117.976198564
 20
193.9739413918
 30
0.0
 10
117.9791392275
 20
193.9668343997
 30
0.0
 10
117.9828150518
 20
193.9579506583
 30
0.0
 10
117.9864908795
 20
193.949066918
 30
0.0
 10
117.9894315376
 20
193.9419599242
 30
0.0
 10
117.9916370413
 20
193.9366296827
 30
0.0
 10
117.9938425068
 20
193.9312994267
 30
0.0
 10
117.9956805134
 20
193.926857592
 30
0.0
 10
117.997150653
 20
193.9233040226
 30
0.0
 10
117.998070095
 20
193.9210832732
 30
0.0
 10
117.9988042636
 20
193.9193061436
 30
0.0
 10
117.9993586822
 20
193.9179747477
 30
0.0
 10
117.9998086345
 20
193.9168606345
 30
0.0
 10
118.0001956518
 20
193.915979698
 30
0.0
 10
118.0004119863
 20
193.9152907035
 30
0.0
 10
118.0009105069
 20
193.9147097006
 30
0.0
 10
118.0014766297
 20
193.9138973071
 30
0.0
 10
118.0022181025
 20
193.9128947579
 30
0.0
 10
118.0030933941
 20
193.911686159
 30
0.0
 10
118.0042655057
 20
193.9100766287
 30
0.0
 10
118.0057289139
 20
193.9080640533
 30
0.0
 10
118.0080713347
 20
193.9048443029
 30
0.0
 10
118.0109990286
 20
193.9008194879
 30
0.0
 10
118.0145124037
 20
193.8959897644
 30
0.0
 10
118.0180257407
 20
193.8911600263
 30
0.0
 10
118.0227102033
 20
193.8847203806
 30
0.0
 10
118.0285657771
 20
193.8766708218
 30
0.0
 10
118.0355924675
 20
193.8670113519
 30
0.0
 10
118.0449613874
 20
193.8541320584
 30
0.0
 10
118.0519880774
 20
193.8444725884
 30
0.0
 10
118.0566725374
 20
193.8380329417
 30
0.0
  0
SPLINE
  5
438
100
AcDbEntity
  8
7_ALL_FEATURES
100
AcDbSpline
 62
4
  6
CONTINUOUS
 70
0
 71
3
 72
105
 73
101
 74
0
 42
0.0000001
 43
0.0000001
 44
0.0000000001
 40
0.0
 40
0.0
 40
0.0
 40
0.0
 40
0.0625
 40
0.09375
 40
0.109375
 40
0.125
 40
0.140625
 40
0.1484375
 40
0.15625
 40
0.16015625
 40
0.1640625
 40
0.166015625
 40
0.1669921875
 40
0.16796875
 40
0.169921875
 40
0.171875
 40
0.1796875
 40
0.1875
 40
0.1953125
 40
0.203125
 40
0.21875
 40
0.25
 40
0.28125
 40
0.296875
 40
0.3046875
 40
0.3125
 40
0.3203125
 40
0.328125
 40
0.330078125
 40
0.33203125
 40
0.3330078125
 40
0.333984375
 40
0.3359375
 40
0.33984375
 40
0.34375
 40
0.3515625
 40
0.359375
 40
0.375
 40
0.390625
 40
0.40625
 40
0.421875
 40
0.4375
 40
0.453125
 40
0.46875
 40
0.4765625
 40
0.484375
 40
0.48828125
 40
0.4921875
 40
0.49609375
 40
0.498046875
 40
0.5
 40
0.501953125
 40
0.50390625
 40
0.5078125
 40
0.51171875
 40
0.515625
 40
0.5234375
 40
0.53125
 40
0.546875
 40
0.5625
 40
0.578125
 40
0.59375
 40
0.609375
 40
0.625
 40
0.640625
 40
0.6484375
 40
0.65625
 40
0.66015625
 40
0.6640625
 40
0.666015625
 40
0.6669921875
 40
0.66796875
 40
0.669921875
 40
0.671875
 40
0.6796875
 40
0.6875
 40
0.6953125
 40
0.703125
 40
0.71875
 40
0.75
 40
0.78125
 40
0.796875
 40
0.8046875
 40
0.8125
 40
0.8203125
 40
0.828125
 40
0.830078125
 40
0.83203125
 40
0.8330078125
 40
0.833984375
 40
0.8359375
 40
0.83984375
 40
0.84375
 40
0.8515625
 40
0.859375
 40
0.875
 40
0.890625
 40
0.90625
 40
0.9375
 40
1.0
 40
1.0
 40
1.0
 40
1.0
 10
118.7676615441
 20
194.4636444476
 30
0.0
 10
118.7564120074
 20
194.4680359221
 30
0.0
 10
118.7395376993
 20
194.4746231262
 30
0.0
 10
118.7198510167
 20
194.4823082241
 30
0.0
 10
118.7086014692
 20
194.486699671
 30
0.0
 10
118.7001643496
 20
194.4899933614
 30
0.0
 10
118.693133286
 20
194.4927377682
 30
0.0
 10
118.6875087279
 20
194.4949340456
 30
0.0
 10
118.6839927124
 20
194.4963050066
 30
0.0
 10
118.681181427
 20
194.4974056972
 30
0.0
 10
118.6794208893
 20
194.4980846804
 30
0.0
 10
118.678195496
 20
194.4985779025
 30
0.0
 10
118.6774843456
 20
194.4988316845
 30
0.0
 10
118.6767320439
 20
194.4989797823
 30
0.0
 10
118.6758057325
 20
194.4992010279
 30
0.0
 10
118.6735710085
 20
194.4997022861
 30
0.0
 10
118.6702237848
 20
194.5004666608
 30
0.0
 10
118.6657580407
 20
194.5014786898
 30
0.0
 10
118.6612930401
 20
194.502492628
 30
0.0
 10
118.6553394465
 20
194.5038438795
 30
0.0
 10
118.6449207792
 20
194.506208882
 30
0.0
 10
118.6300369
 20
194.5095872778
 30
0.0
 10
118.615153065
 20
194.5129657951
 30
0.0
 10
118.6047343357
 20
194.5153306275
 30
0.0
 10
118.5987808396
 20
194.5166821463
 30
0.0
 10
118.59431554
 20
194.5176952645
 30
0.0
 10
118.5898509184
 20
194.5187103732
 30
0.0
 10
118.5865005516
 20
194.5194661238
 30
0.0
 10
118.5842699295
 20
194.5199786371
 30
0.0
 10
118.5833361053
 20
194.5201792685
 30
0.0
 10
118.5825993063
 20
194.5203699037
 30
0.0
 10
118.5818249843
 20
194.5204503512
 30
0.0
 10
118.5804524868
 20
194.5205399384
 30
0.0
 10
118.5785008722
 20
194.5206946315
 30
0.0
 10
118.5753732054
 20
194.520927213
 30
0.0
 10
118.5714653625
 20
194.521223051
 30
0.0
 10
118.5652118411
 20
194.5216935352
 30
0.0
 10
118.5573952731
 20
194.5222826206
 30
0.0
 10
118.5480152485
 20
194.5229891031
 30
0.0
 10
118.5386352622
 20
194.5236956974
 30
0.0
 10
118.5292552653
 20
194.5244022644
 30
0.0
 10
118.5198752727
 20
194.5251088288
 30
0.0
 10
118.5104952737
 20
194.525815431
 30
0.0
 10
118.5026786254
 20
194.5264041424
 30
0.0
 10
118.4964252678
 20
194.5268753895
 30
0.0
 10
118.4925170081
 20
194.527169286
 30
0.0
 10
118.4893901969
 20
194.5274058527
 30
0.0
 10
118.4870456457
 20
194.5275793089
 30
0.0
 10
118.4850900803
 20
194.5277364814
 30
0.0
 10
118.483529604
 20
194.5278339021
 30
0.0
 10
118.4823483823
 20
194.5279843443
 30
0.0
 10
118.4812086304
 20
194.5278394381
 30
0.0
 10
118.4796744753
 20
194.5277493989
 30
0.0
 10
118.4777617514
 20
194.5276014532
 30
0.0
 10
118.4754643555
 20
194.5274390692
 30
0.0
 10
118.4724019039
 20
194.5272172653
 30
0.0
 10
118.468573585
 20
194.5269418224
 30
0.0
 10
118.462448417
 20
194.526500101
 30
0.0
 10
118.4547919081
 20
194.5259482967
 30
0.0
 10
118.4456041184
 20
194.5252859832
 30
0.0
 10
118.4364163232
 20
194.5246237073
 30
0.0
 10
118.4272285291
 20
194.5239614292
 30
0.0
 10
118.418040736
 20
194.5232991224
 30
0.0
 10
118.4088529379
 20
194.5226369324
 30
0.0
 10
118.4011964553
 20
194.522084742
 30
0.0
 10
118.3950712338
 20
194.5216438083
 30
0.0
 10
118.3912430509
 20
194.521366361
 30
0.0
 10
118.3881803203
 20
194.5211486714
 30
0.0
 10
118.386266534
 20
194.5210028765
 30
0.0
 10
118.3849260412
 20
194.5209203382
 30
0.0
 10
118.3841613633
 20
194.5208426355
 30
0.0
 10
118.3834016501
 20
194.5206499123
 30
0.0
 10
118.3824503115
 20
194.5204483228
 30
0.0
 10
118.3801684957
 20
194.5199321504
 30
0.0
 10
118.3767451854
 20
194.5191714823
 30
0.0
 10
118.372181107
 20
194.5181494904
 30
0.0
 10
118.3676169388
 20
194.5171295763
 30
0.0
 10
118.3615314126
 20
194.515768966
 30
0.0
 10
118.3508817263
 20
194.5133882376
 30
0.0
 10
118.3356679038
 20
194.509987004
 30
0.0
 10
118.3204540507
 20
194.5065858954
 30
0.0
 10
118.3098044071
 20
194.5042049919
 30
0.0
 10
118.3037188138
 20
194.5028446566
 30
0.0
 10
118.2991548517
 20
194.5018238988
 30
0.0
 10
118.2945899992
 20
194.5008050758
 30
0.0
 10
118.2911688566
 20
194.5000355337
 30
0.0
 10
118.2888842117
 20
194.4995309425
 30
0.0
 10
118.2879380546
 20
194.4993081416
 30
0.0
 10
118.2871676495
 20
194.4991591882
 30
0.0
 10
118.2864465395
 20
194.4989031292
 30
0.0
 10
118.2852075008
 20
194.4984052623
 30
0.0
 10
118.2834254954
 20
194.497719988
 30
0.0
 10
118.2805809651
 20
194.4966090392
 30
0.0
 10
118.2770230155
 20
194.4952253214
 30
0.0
 10
118.2713315741
 20
194.4930085962
 30
0.0
 10
118.264216834
 20
194.4902386424
 30
0.0
 10
118.2556793335
 20
194.48691429
 30
0.0
 10
118.244295934
 20
194.4824819625
 30
0.0
 10
118.2243750156
 20
194.4747253227
 30
0.0
 10
118.2072999322
 20
194.4680767971
 30
0.0
 10
118.1959165455
 20
194.4636444417
 30
0.0
  0
SPLINE
  5
439
100
AcDbEntity
  8
7_ALL_FEATURES
100
AcDbSpline
 62
4
  6
CONTINUOUS
 70
0
 71
3
 72
164
 73
160
 74
0
 42
0.0000001
 43
0.0000001
 44
0.0000000001
 40
0.0
 40
0.0
 40
0.0
 40
0.0
 40
0.03125
 40
0.046875
 40
0.0625
 40
0.0703125
 40
0.078125
 40
0.0859375
 40
0.09375
 40
0.09765625
 40
0.1015625
 40
0.10546875
 40
0.107421875
 40
0.109375
 40
0.1103515625
 40
0.111328125
 40
0.1123046875
 40
0.11328125
 40
0.115234375
 40
0.1171875
 40
0.125
 40
0.1328125
 40
0.140625
 40
0.15625
 40
0.171875
 40
0.1875
 40
0.1953125
 40
0.203125
 40
0.2109375
 40
0.21484375
 40
0.21875
 40
0.220703125
 40
0.22265625
 40
0.2236328125
 40
0.224609375
 40
0.2265625
 40
0.23046875
 40
0.234375
 40
0.2421875
 40
0.25
 40
0.265625
 40
0.28125
 40
0.296875
 40
0.3046875
 40
0.3125
 40
0.3203125
 40
0.32421875
 40
0.328125
 40
0.330078125
 40
0.33203125
 40
0.3330078125
 40
0.3334960938
 40
0.333984375
 40
0.3349609375
 40
0.3359375
 40
0.33984375
 40
0.34375
 40
0.34765625
 40
0.3515625
 40
0.359375
 40
0.375
 40
0.390625
 40
0.40625
 40
0.4140625
 40
0.421875
 40
0.4296875
 40
0.43359375
 40
0.4375
 40
0.44140625
 40
0.443359375
 40
0.4438476562
 40
0.4443359375
 40
0.4453125
 40
0.447265625
 40
0.44921875
 40
0.453125
 40
0.45703125
 40
0.4609375
 40
0.46875
 40
0.484375
 40
0.5
 40
0.515625
 40
0.53125
 40
0.5390625
 40
0.54296875
 40
0.546875
 40
0.55078125
 40
0.552734375
 40
0.5546875
 40
0.5556640625
 40
0.556640625
 40
0.55859375
 40
0.5625
 40
0.56640625
 40
0.5703125
 40
0.578125
 40
0.5859375
 40
0.59375
 40
0.609375
 40
0.625
 40
0.640625
 40
0.6484375
 40
0.65234375
 40
0.65625
 40
0.66015625
 40
0.6640625
 40
0.6650390625
 40
0.666015625
 40
0.6665039062
 40
0.6669921875
 40
0.66796875
 40
0.669921875
 40
0.671875
 40
0.67578125
 40
0.6796875
 40
0.6875
 40
0.6953125
 40
0.703125
 40
0.71875
 40
0.734375
 40
0.75
 40
0.7578125
 40
0.765625
 40
0.76953125
 40
0.7734375
 40
0.775390625
 40
0.7763671875
 40
0.77734375
 40
0.779296875
 40
0.78125
 40
0.78515625
 40
0.7890625
 40
0.796875
 40
0.8046875
 40
0.8125
 40
0.828125
 40
0.84375
 40
0.859375
 40
0.8671875
 40
0.875
 40
0.8828125
 40
0.884765625
 40
0.88671875
 40
0.8876953125
 40
0.888671875
 40
0.8896484375
 40
0.890625
 40
0.892578125
 40
0.89453125
 40
0.8984375
 40
0.90234375
 40
0.90625
 40
0.9140625
 40
0.921875
 40
0.9296875
 40
0.9375
 40
0.953125
 40
0.96875
 40
1.0
 40
1.0
 40
1.0
 40
1.0
 10
118.8403263934
 20
193.7789764924
 30
0.0
 10
118.8469605257
 20
193.784945866
 30
0.0
 10
118.8569117242
 20
193.7938999263
 30
0.0
 10
118.8701799887
 20
193.8058386734
 30
0.0
 10
118.8784726542
 20
193.8133003903
 30
0.0
 10
118.8851067864
 20
193.8192697639
 30
0.0
 10
118.890082386
 20
193.8237467938
 30
0.0
 10
118.8950579837
 20
193.828223825
 30
0.0
 10
118.899204321
 20
193.8319546803
 30
0.0
 10
118.9025213779
 20
193.8349393736
 30
0.0
 10
118.9050092057
 20
193.8371778688
 30
0.0
 10
118.9070822836
 20
193.8390433602
 30
0.0
 10
118.9087409972
 20
193.8405355767
 30
0.0
 10
118.909777121
 20
193.8414686142
 30
0.0
 10
118.9106073304
 20
193.8422141232
 30
0.0
 10
118.9112263997
 20
193.8427757765
 30
0.0
 10
118.9116591803
 20
193.8434683504
 30
0.0
 10
118.9123012825
 20
193.8443460582
 30
0.0
 10
118.913081672
 20
193.8454588217
 30
0.0
 10
118.9149729097
 20
193.8481165909
 30
0.0
 10
118.9178020803
 20
193.8521086465
 30
0.0
 10
118.9215786941
 20
193.8574283045
 30
0.0
 10
118.9266126474
 20
193.8645222585
 30
0.0
 10
118.9329056116
 20
193.8733893331
 30
0.0
 10
118.9404569579
 20
193.8840299735
 30
0.0
 10
118.9467497522
 20
193.8928971612
 30
0.0
 10
118.9517840793
 20
193.8999908663
 30
0.0
 10
118.9555595462
 20
193.905311288
 30
0.0
 10
118.9587066585
 20
193.9097445152
 30
0.0
 10
118.9612223519
 20
193.9132921236
 30
0.0
 10
118.9627992063
 20
193.9155070412
 30
0.0
 10
118.9640502784
 20
193.9172843289
 30
0.0
 10
118.9648559542
 20
193.9183829183
 30
0.0
 10
118.965221193
 20
193.9194054098
 30
0.0
 10
118.9656351433
 20
193.9204028533
 30
0.0
 10
118.9663368637
 20
193.9221600481
 30
0.0
 10
118.9673511613
 20
193.9246642383
 30
0.0
 10
118.9689674208
 20
193.928674345
 30
0.0
 10
118.9709900108
 20
193.9336858134
 30
0.0
 10
118.9742248883
 20
193.9417048139
 30
0.0
 10
118.9782689213
 20
193.9517283409
 30
0.0
 10
118.9831215674
 20
193.9637566702
 30
0.0
 10
118.9871655027
 20
193.9737802531
 30
0.0
 10
118.9904005951
 20
193.9817991307
 30
0.0
 10
118.9928270437
 20
193.9878132698
 30
0.0
 10
118.9948486765
 20
193.9928251115
 30
0.0
 10
118.9964668967
 20
193.9968344524
 30
0.0
 10
118.9974762031
 20
193.9993405921
 30
0.0
 10
118.9982884147
 20
194.0013448131
 30
0.0
 10
118.9987851715
 20
194.0025990273
 30
0.0
 10
118.999154697
 20
194.0034738186
 30
0.0
 10
118.9993317529
 20
194.0039786412
 30
0.0
 10
118.9993803654
 20
194.004502077
 30
0.0
 10
118.9994850336
 20
194.0051500097
 30
0.0
 10
118.9997001035
 20
194.0067102844
 30
0.0
 10
119.0000378849
 20
194.0090484972
 30
0.0
 10
119.0004795858
 20
194.0121673713
 30
0.0
 10
119.0009236071
 20
194.0152859092
 30
0.0
 10
119.0015148261
 20
194.0194440769
 30
0.0
 10
119.0025498365
 20
194.0267208158
 30
0.0
 10
119.0040282244
 20
194.0371161857
 30
0.0
 10
119.0058023805
 20
194.0495906169
 30
0.0
 10
119.0072808065
 20
194.0599859804
 30
0.0
 10
119.0084635916
 20
194.0683022675
 30
0.0
 10
119.0093505701
 20
194.0745394915
 30
0.0
 10
119.0100900682
 20
194.0797371506
 30
0.0
 10
119.0106808832
 20
194.0838953399
 30
0.0
 10
119.0111261354
 20
194.0870138123
 30
0.0
 10
119.0114903689
 20
194.0896130786
 30
0.0
 10
119.0117395305
 20
194.091301619
 30
0.0
 10
119.0118414859
 20
194.0920819781
 30
0.0
 10
119.0119416899
 20
194.092599665
 30
0.0
 10
119.0117877226
 20
194.0935316948
 30
0.0
 10
119.0116804931
 20
194.0948542398
 30
0.0
 10
119.0114459245
 20
194.0969753005
 30
0.0
 10
119.0111743289
 20
194.0996249149
 30
0.0
 10
119.0108391632
 20
194.1028051847
 30
0.0
 10
119.0103955024
 20
194.1070452889
 30
0.0
 10
119.0096175922
 20
194.1144655902
 30
0.0
 10
119.0085070813
 20
194.1250659591
 30
0.0
 10
119.0071741166
 20
194.137786425
 30
0.0
 10
119.0058412951
 20
194.1505068968
 30
0.0
 10
119.0047304264
 20
194.1611072508
 30
0.0
 10
119.0039531422
 20
194.1685275783
 30
0.0
 10
119.0035084798
 20
194.1727676406
 30
0.0
 10
119.0031763905
 20
194.1759480388
 30
0.0
 10
119.0028951661
 20
194.1785972513
 30
0.0
 10
119.0026802428
 20
194.1807191321
 30
0.0
 10
119.0025230169
 20
194.1820395901
 30
0.0
 10
119.0024496793
 20
194.1831090508
 30
0.0
 10
119.0020180727
 20
194.1840890572
 30
0.0
 10
119.0014296854
 20
194.1858457469
 30
0.0
 10
119.0005018622
 20
194.1883335136
 30
0.0
 10
118.9994258288
 20
194.1913281606
 30
0.0
 10
118.9979780693
 20
194.1953177652
 30
0.0
 10
118.9961728467
 20
194.2003058887
 30
0.0
 10
118.9940046634
 20
194.2062911585
 30
0.0
 10
118.9911144212
 20
194.2142716852
 30
0.0
 10
118.9875013932
 20
194.224247288
 30
0.0
 10
118.9831658373
 20
194.2362180276
 30
0.0
 10
118.9795529155
 20
194.2461936637
 30
0.0
 10
118.9770237491
 20
194.2531765604
 30
0.0
 10
118.9755787064
 20
194.2571668644
 30
0.0
 10
118.9744943731
 20
194.2601593744
 30
0.0
 10
118.9734121477
 20
194.2631527174
 30
0.0
 10
118.9725945682
 20
194.2653953894
 30
0.0
 10
118.9720587072
 20
194.2668941358
 30
0.0
 10
118.9718217537
 20
194.2675132092
 30
0.0
 10
118.9716640989
 20
194.2680210751
 30
0.0
 10
118.9713897546
 20
194.2684828359
 30
0.0
 10
118.9708554352
 20
194.2692694958
 30
0.0
 10
118.9701204094
 20
194.2704044724
 30
0.0
 10
118.9689285596
 20
194.2722141888
 30
0.0
 10
118.9674441602
 20
194.2744784731
 30
0.0
 10
118.965066096
 20
194.2781001325
 30
0.0
 10
118.9620945537
 20
194.282627617
 30
0.0
 10
118.9585282583
 20
194.2880604227
 30
0.0
 10
118.9537733546
 20
194.2953042257
 30
0.0
 10
118.9478296608
 20
194.3043589524
 30
0.0
 10
118.9406973011
 20
194.3152246614
 30
0.0
 10
118.9347535108
 20
194.3242793317
 30
0.0
 10
118.9299988194
 20
194.3315232588
 30
0.0
 10
118.9270263639
 20
194.3360502797
 30
0.0
 10
118.9246501703
 20
194.3396728893
 30
0.0
 10
118.9231610089
 20
194.3419347547
 30
0.0
 10
118.9221266935
 20
194.343522601
 30
0.0
 10
118.9215229867
 20
194.3444228378
 30
0.0
 10
118.9209668729
 20
194.3453497607
 30
0.0
 10
118.9199306198
 20
194.3463171482
 30
0.0
 10
118.9183097513
 20
194.3478857913
 30
0.0
 10
118.9162709502
 20
194.3498394653
 30
0.0
 10
118.9130159751
 20
194.3529693286
 30
0.0
 10
118.9089448179
 20
194.3568802906
 30
0.0
 10
118.9040604728
 20
194.3615740299
 30
0.0
 10
118.8975476495
 20
194.3678321462
 30
0.0
 10
118.8894067344
 20
194.3756548497
 30
0.0
 10
118.8796376342
 20
194.3850421191
 30
0.0
 10
118.8714965721
 20
194.3928646821
 30
0.0
 10
118.864984072
 20
194.3991231075
 30
0.0
 10
118.8600987354
 20
194.4038158984
 30
0.0
 10
118.8564374866
 20
194.4073384354
 30
0.0
 10
118.853992365
 20
194.4096822084
 30
0.0
 10
118.852979948
 20
194.4106656043
 30
0.0
 10
118.8521551225
 20
194.4114364023
 30
0.0
 10
118.8515773488
 20
194.412058163
 30
0.0
 10
118.8508436396
 20
194.412513234
 30
0.0
 10
118.8498613564
 20
194.4131157148
 30
0.0
 10
118.8486348735
 20
194.4138702816
 30
0.0
 10
118.8466717345
 20
194.4150767692
 30
0.0
 10
118.8442180737
 20
194.4165851597
 30
0.0
 10
118.8412735683
 20
194.4183951081
 30
0.0
 10
118.8373476003
 20
194.4208084147
 30
0.0
 10
118.8324401268
 20
194.4238250334
 30
0.0
 10
118.8265511644
 20
194.4274449821
 30
0.0
 10
118.8206622005
 20
194.4310649291
 30
0.0
 10
118.8128102491
 20
194.4358915257
 30
0.0
 10
118.8029953097
 20
194.4419247712
 30
0.0
 10
118.7872914067
 20
194.4515779642
 30
0.0
 10
118.7755134795
 20
194.4588178589
 30
0.0
 10
118.767661528
 20
194.4636444554
 30
0.0
  0
SPLINE
  5
43A
100
AcDbEntity
  8
7_ALL_FEATURES
100
AcDbSpline
 62
4
  6
CONTINUOUS
 70
0
 71
3
 72
78
 73
74
 74
0
 42
0.0000001
 43
0.0000001
 44
0.0000000001
 40
0.0
 40
0.0
 40
0.0
 40
0.0
 40
0.0625
 40
0.09375
 40
0.109375
 40
0.125
 40
0.140625
 40
0.15625
 40
0.16015625
 40
0.1640625
 40
0.16796875
 40
0.171875
 40
0.1796875
 40
0.1875
 40
0.203125
 40
0.21875
 40
0.25
 40
0.28125
 40
0.296875
 40
0.3125
 40
0.3203125
 40
0.328125
 40
0.33203125
 40
0.3359375
 40
0.33984375
 40
0.34375
 40
0.359375
 40
0.375
 40
0.390625
 40
0.40625
 40
0.4375
 40
0.453125
 40
0.46875
 40
0.484375
 40
0.4921875
 40
0.49609375
 40
0.5
 40
0.50390625
 40
0.5078125
 40
0.515625
 40
0.53125
 40
0.546875
 40
0.5625
 40
0.59375
 40
0.609375
 40
0.625
 40
0.640625
 40
0.65625
 40
0.66015625
 40
0.6640625
 40
0.66796875
 40
0.671875
 40
0.6796875
 40
0.6875
 40
0.703125
 40
0.71875
 40
0.75
 40
0.78125
 40
0.796875
 40
0.8125
 40
0.8203125
 40
0.828125
 40
0.83203125
 40
0.833984375
 40
0.8359375
 40
0.83984375
 40
0.84375
 40
0.859375
 40
0.875
 40
0.890625
 40
0.90625
 40
0.9375
 40
1.0
 40
1.0
 40
1.0
 40
1.0
 10
118.6312756616
 20
192.1323864364
 30
0.0
 10
118.6428748002
 20
192.1379571389
 30
0.0
 10
118.6602734942
 20
192.1463132138
 30
0.0
 10
118.6805720194
 20
192.1560618937
 30
0.0
 10
118.6921711067
 20
192.1616326739
 30
0.0
 10
118.700870618
 20
192.1658104622
 30
0.0
 10
118.709569381
 20
192.169989385
 30
0.0
 10
118.7160955515
 20
192.1731203963
 30
0.0
 10
118.7204430685
 20
192.175212684
 30
0.0
 10
118.7226226542
 20
192.1762499944
 30
0.0
 10
118.7247795841
 20
192.1773216491
 30
0.0
 10
118.7275476907
 20
192.1789139384
 30
0.0
 10
118.7310447346
 20
192.1808483464
 30
0.0
 10
118.736619377
 20
192.1839746693
 30
0.0
 10
118.7435947463
 20
192.1878718616
 30
0.0
 10
118.7547513682
 20
192.1941133816
 30
0.0
 10
118.7686986477
 20
192.2019130346
 30
0.0
 10
118.7826448803
 20
192.2097141602
 30
0.0
 10
118.7938031771
 20
192.2159533241
 30
0.0
 10
118.8007743592
 20
192.2198564067
 30
0.0
 10
118.8063575853
 20
192.2229706546
 30
0.0
 10
118.8098327774
 20
192.2249358024
 30
0.0
 10
118.8126457391
 20
192.2264649922
 30
0.0
 10
118.8146656308
 20
192.2277294244
 30
0.0
 10
118.8166603506
 20
192.2290267936
 30
0.0
 10
118.8206627386
 20
192.2316045891
 30
0.0
 10
118.8266608826
 20
192.2354783981
 30
0.0
 10
118.8346615142
 20
192.240639412
 30
0.0
 10
118.8426613219
 20
192.245801505
 30
0.0
 10
118.8533279842
 20
192.2526839595
 30
0.0
 10
118.8639947826
 20
192.2595662731
 30
0.0
 10
118.8746609835
 20
192.2664492618
 30
0.0
 10
118.8826622907
 20
192.2716096188
 30
0.0
 10
118.889324774
 20
192.2759159166
 30
0.0
 10
118.8939988601
 20
192.2789185489
 30
0.0
 10
118.8966536093
 20
192.2806527265
 30
0.0
 10
118.8986901861
 20
192.2819015612
 30
0.0
 10
118.9005527819
 20
192.2833483959
 30
0.0
 10
118.9030969296
 20
192.2852084443
 30
0.0
 10
118.907520913
 20
192.2884957073
 30
0.0
 10
118.9138556717
 20
192.2931749743
 30
0.0
 10
118.9214510552
 20
192.2987972951
 30
0.0
 10
118.931580441
 20
192.3062912096
 30
0.0
 10
118.9417092345
 20
192.3137858029
 30
0.0
 10
118.9518381489
 20
192.3212802447
 30
0.0
 10
118.9594350643
 20
192.3269008519
 30
0.0
 10
118.9670310009
 20
192.3325224313
 30
0.0
 10
118.9727307174
 20
192.3367358674
 30
0.0
 10
118.9765262275
 20
192.3395491017
 30
0.0
 10
118.9784316631
 20
192.3409480813
 30
0.0
 10
118.9803072368
 20
192.3423767555
 30
0.0
 10
118.9826659137
 20
192.3444229469
 30
0.0
 10
118.9856629105
 20
192.3469323078
 30
0.0
 10
118.990430917
 20
192.3509743216
 30
0.0
 10
118.9964002351
 20
192.3560175791
 30
0.0
 10
119.0059459367
 20
192.3640919803
 30
0.0
 10
119.0178798796
 20
192.3741831026
 30
0.0
 10
119.0298130682
 20
192.3842752554
 30
0.0
 10
119.0393599768
 20
192.3923480078
 30
0.0
 10
119.0453262773
 20
192.3973953873
 30
0.0
 10
119.05010047
 20
192.4014289511
 30
0.0
 10
119.0530817184
 20
192.4039598236
 30
0.0
 10
119.0551738466
 20
192.4057116038
 30
0.0
 10
119.0563611276
 20
192.4067436477
 30
0.0
 10
119.0575174447
 20
192.4078925531
 30
0.0
 10
119.0589734247
 20
192.4092887412
 30
0.0
 10
119.062459066
 20
192.412672468
 30
0.0
 10
119.0676911864
 20
192.4177342501
 30
0.0
 10
119.074665256
 20
192.424491185
 30
0.0
 10
119.0816398849
 20
192.4312460088
 30
0.0
 10
119.0909391949
 20
192.4402531771
 30
0.0
 10
119.107213079
 20
192.4560153763
 30
0.0
 10
119.1211620911
 20
192.4695259512
 30
0.0
 10
119.1304614395
 20
192.4785329748
 30
0.0
  0
SPLINE
  5
43B
100
AcDbEntity
  8
7_ALL_FEATURES
100
AcDbSpline
 62
7
  6
CONTINUOUS
 70
0
 71
3
 72
8
 73
4
 74
0
 42
0.0000001
 43
0.0000001
 44
0.0000000001
 40
0.0
 40
0.0
 40
0.0
 40
0.0
 40
1.0
 40
1.0
 40
1.0
 40
1.0
 10
108.7761552197
 20
189.6336499111
 30
0.0
 10
108.7298568675
 20
189.9669352566
 30
0.0
 10
108.683978249
 20
190.3002789466
 30
0.0
 10
108.6383004758
 20
190.6336499111
 30
0.0
  0
SPLINE
  5
43C
100
AcDbEntity
  8
7_ALL_FEATURES
100
AcDbSpline
 62
7
  6
CONTINUOUS
 70
0
 71
3
 72
8
 73
4
 74
0
 42
0.0000001
 43
0.0000001
 44
0.0000000001
 40
0.0
 40
0.0
 40
0.0
 40
0.0
 40
1.0
 40
1.0
 40
1.0
 40
1.0
 10
128.6593742749
 20
189.6336499111
 30
0.0
 10
128.7056386772
 20
189.966939971
 30
0.0
 10
128.7515856343
 20
190.3002742365
 30
0.0
 10
128.7972290188
 20
190.6336499111
 30
0.0
  0
SPLINE
  5
43D
100
AcDbEntity
  8
7_ALL_FEATURES
100
AcDbSpline
 62
4
  6
CONTINUOUS
 70
0
 71
3
 72
130
 73
126
 74
0
 42
0.0000001
 43
0.0000001
 44
0.0000000001
 40
0.0
 40
0.0
 40
0.0
 40
0.0
 40
0.03125
 40
0.0625
 40
0.078125
 40
0.09375
 40
0.109375
 40
0.125
 40
0.140625
 40
0.1484375
 40
0.15234375
 40
0.15625
 40
0.16015625
 40
0.1640625
 40
0.1650390625
 40
0.166015625
 40
0.1669921875
 40
0.16796875
 40
0.169921875
 40
0.171875
 40
0.17578125
 40
0.1796875
 40
0.1875
 40
0.1953125
 40
0.203125
 40
0.21875
 40
0.25
 40
0.28125
 40
0.296875
 40
0.3046875
 40
0.3125
 40
0.3203125
 40
0.32421875
 40
0.328125
 40
0.330078125
 40
0.33203125
 40
0.3330078125
 40
0.3334960938
 40
0.333984375
 40
0.3349609375
 40
0.3359375
 40
0.33984375
 40
0.34375
 40
0.34765625
 40
0.3515625
 40
0.359375
 40
0.375
 40
0.390625
 40
0.40625
 40
0.421875
 40
0.4375
 40
0.453125
 40
0.4609375
 40
0.46875
 40
0.4765625
 40
0.484375
 40
0.48828125
 40
0.4921875
 40
0.494140625
 40
0.49609375
 40
0.498046875
 40
0.4990234375
 40
0.5
 40
0.5009765625
 40
0.501953125
 40
0.50390625
 40
0.505859375
 40
0.5078125
 40
0.51171875
 40
0.515625
 40
0.5234375
 40
0.53125
 40
0.5390625
 40
0.546875
 40
0.5625
 40
0.578125
 40
0.59375
 40
0.609375
 40
0.625
 40
0.640625
 40
0.6484375
 40
0.65234375
 40
0.65625
 40
0.66015625
 40
0.6640625
 40
0.6650390625
 40
0.666015625
 40
0.6665039062
 40
0.6669921875
 40
0.66796875
 40
0.669921875
 40
0.671875
 40
0.67578125
 40
0.6796875
 40
0.6875
 40
0.6953125
 40
0.703125
 40
0.71875
 40
0.75
 40
0.78125
 40
0.796875
 40
0.8046875
 40
0.8125
 40
0.8203125
 40
0.82421875
 40
0.828125
 40
0.830078125
 40
0.83203125
 40
0.8330078125
 40
0.8334960938
 40
0.833984375
 40
0.8349609375
 40
0.8359375
 40
0.83984375
 40
0.84375
 40
0.84765625
 40
0.8515625
 40
0.859375
 40
0.875
 40
0.890625
 40
0.90625
 40
0.921875
 40
0.9375
 40
0.96875
 40
1.0
 40
1.0
 40
1.0
 40
1.0
 10
295.8119591071
 20
193.1235365974
 30
0.0
 10
295.8058169113
 20
193.1180674433
 30
0.0
 10
295.7935325196
 20
193.1071291351
 30
0.0
 10
295.7781770299
 20
193.09345625
 30
0.0
 10
295.7658926384
 20
193.0825179416
 30
0.0
 10
295.756679344
 20
193.074314211
 30
0.0
 10
295.7474660527
 20
193.0661104781
 30
0.0
 10
295.7382527499
 20
193.0579067535
 30
0.0
 10
295.7305750333
 20
193.0510702907
 30
0.0
 10
295.7252005616
 20
193.046284817
 30
0.0
 10
295.7221295443
 20
193.043550182
 30
0.0
 10
295.7198259731
 20
193.0414994271
 30
0.0
 10
295.71752358
 20
193.0394478263
 30
0.0
 10
295.7157934822
 20
193.0379114974
 30
0.0
 10
295.7146452205
 20
193.0368835896
 30
0.0
 10
295.7140619169
 20
193.0363762221
 30
0.0
 10
295.7135142771
 20
193.0358432469
 30
0.0
 10
295.7129537858
 20
193.0350107669
 30
0.0
 10
295.7121950685
 20
193.0340118868
 30
0.0
 10
295.7110135915
 20
193.0323903637
 30
0.0
 10
295.7095256272
 20
193.0303714428
 30
0.0
 10
295.7071510983
 20
193.0271367077
 30
0.0
 10
295.7041808051
 20
193.0230948197
 30
0.0
 10
295.7006173658
 20
193.0182438988
 30
0.0
 10
295.6958657951
 20
193.0117762329
 30
0.0
 10
295.6875506951
 20
193.0004577108
 30
0.0
 10
295.6756718999
 20
192.9842884511
 30
0.0
 10
295.6637931447
 20
192.9681191646
 30
0.0
 10
295.6554779887
 20
192.95680068
 30
0.0
 10
295.6507265059
 20
192.9503329552
 30
0.0
 10
295.6471627969
 20
192.9454822148
 30
0.0
 10
295.6441933477
 20
192.941439762
 30
0.0
 10
295.641817097
 20
192.9382061791
 30
0.0
 10
295.6403335146
 20
192.9361843261
 30
0.0
 10
295.6391430431
 20
192.9345688216
 30
0.0
 10
295.6384072253
 20
192.9335546185
 30
0.0
 10
295.6378756651
 20
192.9328537205
 30
0.0
 10
295.637597713
 20
192.9324390569
 30
0.0
 10
295.6374169235
 20
192.9319710957
 30
0.0
 10
295.637157726
 20
192.9314043615
 30
0.0
 10
295.636562986
 20
192.9300292058
 30
0.0
 10
295.6356593954
 20
192.9279727698
 30
0.0
 10
295.6344611697
 20
192.9252272557
 30
0.0
 10
295.6332611887
 20
192.9224827044
 30
0.0
 10
295.6316618264
 20
192.9188229669
 30
0.0
 10
295.628862657
 20
192.9124185826
 30
0.0
 10
295.6248639928
 20
192.9032693805
 30
0.0
 10
295.6200655319
 20
192.892290373
 30
0.0
 10
295.615267088
 20
192.8813113561
 30
0.0
 10
295.6104686396
 20
192.8703323417
 30
0.0
 10
295.605670192
 20
192.8593533267
 30
0.0
 10
295.601671487
 20
192.8502041475
 30
0.0
 10
295.5984725193
 20
192.8428848046
 30
0.0
 10
295.5960733038
 20
192.8373952958
 30
0.0
 10
295.5936740492
 20
192.8319057935
 30
0.0
 10
295.5916747923
 20
192.8273311879
 30
0.0
 10
295.5900751135
 20
192.823671549
 30
0.0
 10
295.5890759365
 20
192.821384171
 30
0.0
 10
295.58827517
 20
192.8195545061
 30
0.0
 10
295.5876784963
 20
192.8181816069
 30
0.0
 10
295.5871688578
 20
192.8170395937
 30
0.0
 10
295.5867889815
 20
192.8161213418
 30
0.0
 10
295.5864280172
 20
192.8154453353
 30
0.0
 10
295.586357364
 20
192.8147209197
 30
0.0
 10
295.5861617502
 20
192.8137719422
 30
0.0
 10
295.5859520262
 20
192.8125799186
 30
0.0
 10
295.5856854647
 20
192.8111519735
 30
0.0
 10
295.5853352511
 20
192.8092471795
 30
0.0
 10
295.5848957031
 20
192.8068664839
 30
0.0
 10
295.5841934216
 20
192.803057205
 30
0.0
 10
295.5833152283
 20
192.7982956633
 30
0.0
 10
295.5822615426
 20
192.7925817889
 30
0.0
 10
295.5812078178
 20
192.786867921
 30
0.0
 10
295.5798028651
 20
192.7792494282
 30
0.0
 10
295.5780466696
 20
192.7697263129
 30
0.0
 10
295.5759392366
 20
192.7582985744
 30
0.0
 10
295.5738318045
 20
192.7468708357
 30
0.0
 10
295.5717243672
 20
192.7354430976
 30
0.0
 10
295.5696169498
 20
192.7240153572
 30
0.0
 10
295.5678607066
 20
192.7144922477
 30
0.0
 10
295.5666314579
 20
192.7078260561
 30
0.0
 10
295.5659288403
 20
192.7040168272
 30
0.0
 10
295.5654024118
 20
192.7011598395
 30
0.0
 10
295.5648739393
 20
192.6983031044
 30
0.0
 10
295.5644833159
 20
192.6961598446
 30
0.0
 10
295.5642139874
 20
192.6947321065
 30
0.0
 10
295.56411503
 20
192.6941355763
 30
0.0
 10
295.5640049247
 20
192.6936621764
 30
0.0
 10
295.5640079669
 20
192.6931747906
 30
0.0
 10
295.5640658618
 20
192.6923153674
 30
0.0
 10
295.5641211399
 20
192.6910910103
 30
0.0
 10
295.5642249135
 20
192.6891301443
 30
0.0
 10
295.5643493819
 20
192.6866797105
 30
0.0
 10
295.5645514647
 20
192.6827586538
 30
0.0
 10
295.5648030618
 20
192.6778574574
 30
0.0
 10
295.5651054091
 20
192.6719759684
 30
0.0
 10
295.5655083885
 20
192.6641340017
 30
0.0
 10
295.566213673
 20
192.6504105513
 30
0.0
 10
295.5672211819
 20
192.6308056262
 30
0.0
 10
295.5682287178
 20
192.6112007016
 30
0.0
 10
295.5689339646
 20
192.5974772506
 30
0.0
 10
295.5693370031
 20
192.5896352848
 30
0.0
 10
295.569639169
 20
192.5837537929
 30
0.0
 10
295.569891334
 20
192.5788526057
 30
0.0
 10
295.5700922582
 20
192.5749315302
 30
0.0
 10
295.5702196751
 20
192.5724811444
 30
0.0
 10
295.5703173964
 20
192.5705201797
 30
0.0
 10
295.5703880832
 20
192.5692960738
 30
0.0
 10
295.5704183024
 20
192.5684361995
 30
0.0
 10
295.570465707
 20
192.5679495367
 30
0.0
 10
295.5706266203
 20
192.5674805537
 30
0.0
 10
295.5707889643
 20
192.5668882819
 30
0.0
 10
295.5712105221
 20
192.5654718032
 30
0.0
 10
295.5718294469
 20
192.5633449961
 30
0.0
 10
295.5726623456
 20
192.5605104474
 30
0.0
 10
295.5734931938
 20
192.5576755793
 30
0.0
 10
295.5746017066
 20
192.5538958666
 30
0.0
 10
295.5765412708
 20
192.5472813174
 30
0.0
 10
295.579312251
 20
192.5378319886
 30
0.0
 10
295.5826373526
 20
192.5264927823
 30
0.0
 10
295.5859624742
 20
192.5151535792
 30
0.0
 10
295.5892875905
 20
192.5038143752
 30
0.0
 10
295.5937210807
 20
192.4886954369
 30
0.0
 10
295.5992629428
 20
192.4697967639
 30
0.0
 10
295.6036964327
 20
192.4546778255
 30
0.0
 10
295.6059131776
 20
192.4471183563
 30
0.0
  0
SPLINE
  5
43E
100
AcDbEntity
  8
7_ALL_FEATURES
100
AcDbSpline
 62
4
  6
CONTINUOUS
 70
0
 71
3
 72
195
 73
191
 74
0
 42
0.0000001
 43
0.0000001
 44
0.0000000001
 40
0.0
 40
0.0
 40
0.0
 40
0.0
 40
0.03125
 40
0.046875
 40
0.0625
 40
0.078125
 40
0.0859375
 40
0.09375
 40
0.1015625
 40
0.109375
 40
0.11328125
 40
0.1171875
 40
0.119140625
 40
0.12109375
 40
0.123046875
 40
0.1240234375
 40
0.1245117188
 40
0.125
 40
0.1254882812
 40
0.1259765625
 40
0.126953125
 40
0.12890625
 40
0.130859375
 40
0.1328125
 40
0.13671875
 40
0.140625
 40
0.1484375
 40
0.15625
 40
0.1640625
 40
0.171875
 40
0.1875
 40
0.203125
 40
0.2109375
 40
0.21875
 40
0.2265625
 40
0.234375
 40
0.23828125
 40
0.2421875
 40
0.244140625
 40
0.24609375
 40
0.248046875
 40
0.2490234375
 40
0.2495117188
 40
0.25
 40
0.2504882812
 40
0.2509765625
 40
0.251953125
 40
0.25390625
 40
0.255859375
 40
0.2578125
 40
0.26171875
 40
0.265625
 40
0.2734375
 40
0.28125
 40
0.2890625
 40
0.296875
 40
0.3125
 40
0.328125
 40
0.3359375
 40
0.34375
 40
0.3515625
 40
0.359375
 40
0.36328125
 40
0.3671875
 40
0.369140625
 40
0.37109375
 40
0.373046875
 40
0.3740234375
 40
0.3745117188
 40
0.375
 40
0.3754882812
 40
0.3759765625
 40
0.376953125
 40
0.37890625
 40
0.380859375
 40
0.3828125
 40
0.38671875
 40
0.390625
 40
0.3984375
 40
0.40625
 40
0.4140625
 40
0.421875
 40
0.4375
 40
0.453125
 40
0.4609375
 40
0.46875
 40
0.4765625
 40
0.484375
 40
0.48828125
 40
0.4921875
 40
0.494140625
 40
0.49609375
 40
0.498046875
 40
0.4990234375
 40
0.4995117188
 40
0.5
 40
0.5004882812
 40
0.5009765625
 40
0.501953125
 40
0.50390625
 40
0.505859375
 40
0.5078125
 40
0.51171875
 40
0.515625
 40
0.5234375
 40
0.53125
 40
0.5390625
 40
0.546875
 40
0.5625
 40
0.578125
 40
0.5859375
 40
0.59375
 40
0.6015625
 40
0.609375
 40
0.61328125
 40
0.6171875
 40
0.619140625
 40
0.62109375
 40
0.623046875
 40
0.6240234375
 40
0.6245117188
 40
0.625
 40
0.6254882812
 40
0.6259765625
 40
0.626953125
 40
0.62890625
 40
0.630859375
 40
0.6328125
 40
0.63671875
 40
0.640625
 40
0.6484375
 40
0.65625
 40
0.6640625
 40
0.671875
 40
0.6875
 40
0.703125
 40
0.7109375
 40
0.71875
 40
0.7265625
 40
0.734375
 40
0.73828125
 40
0.7421875
 40
0.744140625
 40
0.74609375
 40
0.748046875
 40
0.7490234375
 40
0.7495117188
 40
0.75
 40
0.7504882812
 40
0.7509765625
 40
0.751953125
 40
0.75390625
 40
0.755859375
 40
0.7578125
 40
0.76171875
 40
0.765625
 40
0.7734375
 40
0.78125
 40
0.7890625
 40
0.796875
 40
0.8125
 40
0.828125
 40
0.8359375
 40
0.84375
 40
0.8515625
 40
0.859375
 40
0.86328125
 40
0.8671875
 40
0.869140625
 40
0.87109375
 40
0.873046875
 40
0.8740234375
 40
0.8745117188
 40
0.875
 40
0.8754882812
 40
0.8759765625
 40
0.876953125
 40
0.87890625
 40
0.880859375
 40
0.8828125
 40
0.88671875
 40
0.890625
 40
0.8984375
 40
0.90625
 40
0.9140625
 40
0.921875
 40
0.9375
 40
0.953125
 40
0.96875
 40
1.0
 40
1.0
 40
1.0
 40
1.0
 10
295.6059131742
 20
192.4471183644
 30
0.0
 10
295.6108936201
 20
192.4382384123
 30
0.0
 10
295.618364289
 20
192.424918484
 30
0.0
 10
295.6283251808
 20
192.4071585796
 30
0.0
 10
295.6357958499
 20
192.3938386515
 30
0.0
 10
295.6420214067
 20
192.382738711
 30
0.0
 10
295.6470018537
 20
192.3738587594
 30
0.0
 10
295.6507371848
 20
192.3671987936
 30
0.0
 10
295.6544725319
 20
192.3605388354
 30
0.0
 10
295.6575852712
 20
192.3549888469
 30
0.0
 10
295.6600755746
 20
192.3505489084
 30
0.0
 10
295.6616317592
 20
192.3477738276
 30
0.0
 10
295.6628772909
 20
192.3455540361
 30
0.0
 10
295.6638098409
 20
192.3438884446
 30
0.0
 10
295.6645920517
 20
192.3425028308
 30
0.0
 10
295.6651296185
 20
192.3415282322
 30
0.0
 10
295.6654523836
 20
192.3409786089
 30
0.0
 10
295.6656505568
 20
192.3405458547
 30
0.0
 10
295.6660165406
 20
192.3401916025
 30
0.0
 10
295.6664459848
 20
192.3396918839
 30
0.0
 10
295.6672247844
 20
192.3388301343
 30
0.0
 10
295.668323097
 20
192.3375923934
 30
0.0
 10
295.669647175
 20
192.3361099592
 30
0.0
 10
295.6714104808
 20
192.3341323832
 30
0.0
 10
295.6736153428
 20
192.3316607547
 30
0.0
 10
295.6771427142
 20
192.3277059581
 30
0.0
 10
295.6815520684
 20
192.3227625279
 30
0.0
 10
295.6868432335
 20
192.3168303836
 30
0.0
 10
295.6921344146
 20
192.3108982468
 30
0.0
 10
295.6991893171
 20
192.3029887284
 30
0.0
 10
295.7080079473
 20
192.2931018315
 30
0.0
 10
295.7168265763
 20
192.2832149337
 30
0.0
 10
295.7238814808
 20
192.2753054166
 30
0.0
 10
295.7291726558
 20
192.2693732759
 30
0.0
 10
295.7344638439
 20
192.2634411465
 30
0.0
 10
295.7388731263
 20
192.2584976698
 30
0.0
 10
295.7424006441
 20
192.254542968
 30
0.0
 10
295.7446051337
 20
192.2520710983
 30
0.0
 10
295.7463692039
 20
192.2500940173
 30
0.0
 10
295.7476909466
 20
192.2486100707
 30
0.0
 10
295.748796566
 20
192.247377062
 30
0.0
 10
295.7495623215
 20
192.2465068646
 30
0.0
 10
295.7500126656
 20
192.2460206814
 30
0.0
 10
295.7503144518
 20
192.2456248526
 30
0.0
 10
295.7507537405
 20
192.2453482535
 30
0.0
 10
295.7512914964
 20
192.2449378661
 30
0.0
 10
295.7522549158
 20
192.244239065
 30
0.0
 10
295.7536195462
 20
192.2432306473
 30
0.0
 10
295.7552621034
 20
192.2420248823
 30
0.0
 10
295.757450433
 20
192.240415681
 30
0.0
 10
295.7601864431
 20
192.2384046979
 30
0.0
 10
295.764563725
 20
192.2351868352
 30
0.0
 10
295.770035442
 20
192.2311646063
 30
0.0
 10
295.7766014532
 20
192.2263378889
 30
0.0
 10
295.7831674776
 20
192.221511183
 30
0.0
 10
295.7919221722
 20
192.2150755711
 30
0.0
 10
295.8028655422
 20
192.2070310577
 30
0.0
 10
295.8138089111
 20
192.1989865432
 30
0.0
 10
295.8225636073
 20
192.192550933
 30
0.0
 10
295.8291296268
 20
192.1877242218
 30
0.0
 10
295.8356956565
 20
192.1828975242
 30
0.0
 10
295.8411673161
 20
192.1788752339
 30
0.0
 10
295.845544715
 20
192.1756574963
 30
0.0
 10
295.8482804273
 20
192.1736461947
 30
0.0
 10
295.850469368
 20
192.1720376474
 30
0.0
 10
295.8521100584
 20
192.1708298842
 30
0.0
 10
295.8534805296
 20
192.169827718
 30
0.0
 10
295.8544335222
 20
192.169117757
 30
0.0
 10
295.8549879844
 20
192.1687252506
 30
0.0
 10
295.8553759566
 20
192.1683937269
 30
0.0
 10
295.8558704795
 20
192.1682041858
 30
0.0
 10
295.8564926772
 20
192.1679019392
 30
0.0
 10
295.8575988397
 20
192.1673960824
 30
0.0
 10
295.8591700186
 20
192.1666613661
 30
0.0
 10
295.8610593084
 20
192.1657848701
 30
0.0
 10
295.8635770079
 20
192.1646144053
 30
0.0
 10
295.8667245957
 20
192.1631519418
 30
0.0
 10
295.8717604773
 20
192.1608116551
 30
0.0
 10
295.8780554181
 20
192.1578864152
 30
0.0
 10
295.8856093089
 20
192.1543760765
 30
0.0
 10
295.8931632099
 20
192.1508657513
 30
0.0
 10
295.9032350744
 20
192.1461853131
 30
0.0
 10
295.9158249063
 20
192.140334767
 30
0.0
 10
295.9284147375
 20
192.1344842197
 30
0.0
 10
295.9384866031
 20
192.1298037835
 30
0.0
 10
295.9460405006
 20
192.1262934523
 30
0.0
 10
295.9535944048
 20
192.1227831363
 30
0.0
 10
295.9598893039
 20
192.1198578257
 30
0.0
 10
295.9649252705
 20
192.117517683
 30
0.0
 10
295.9680726419
 20
192.116054853
 30
0.0
 10
295.9705907858
 20
192.1148851406
 30
0.0
 10
295.9724787178
 20
192.1140063459
 30
0.0
 10
295.9740541446
 20
192.1132788216
 30
0.0
 10
295.975152724
 20
192.1127601258
 30
0.0
 10
295.9757870718
 20
192.1124784505
 30
0.0
 10
295.9762442736
 20
192.1122257212
 30
0.0
 10
295.9767724176
 20
192.1121315219
 30
0.0
 10
295.9774518642
 20
192.1119506258
 30
0.0
 10
295.9786524252
 20
192.1116598215
 30
0.0
 10
295.9803614845
 20
192.1112309172
 30
0.0
 10
295.9824149358
 20
192.1107219975
 30
0.0
 10
295.9851519697
 20
192.1100414241
 30
0.0
 10
295.9885735706
 20
192.1091913968
 30
0.0
 10
295.9940479596
 20
192.1078309679
 30
0.0
 10
296.0008910051
 20
192.1061305639
 30
0.0
 10
296.0091026342
 20
192.1040900225
 30
0.0
 10
296.0173142702
 20
192.1020494962
 30
0.0
 10
296.0282631157
 20
192.0993287892
 30
0.0
 10
296.0419491735
 20
192.0959279075
 30
0.0
 10
296.0556352309
 20
192.0925270244
 30
0.0
 10
296.0665840771
 20
192.0898063196
 30
0.0
 10
296.074795711
 20
192.0877657867
 30
0.0
 10
296.083007348
 20
192.08572527
 30
0.0
 10
296.0898503691
 20
192.0840247892
 30
0.0
 10
296.0953248076
 20
192.0826645168
 30
0.0
 10
296.0987462827
 20
192.0818140911
 30
0.0
 10
296.1014835749
 20
192.0811343357
 30
0.0
 10
296.103536237
 20
192.0806229171
 30
0.0
 10
296.1052477656
 20
192.080201831
 30
0.0
 10
296.1064439185
 20
192.0798970699
 30
0.0
 10
296.1071304279
 20
192.0797385362
 30
0.0
 10
296.1076368774
 20
192.0795756468
 30
0.0
 10
296.1081755602
 20
192.0795809062
 30
0.0
 10
296.1088825605
 20
192.0795292666
 30
0.0
 10
296.1101250496
 20
192.0794662245
 30
0.0
 10
296.1118972954
 20
192.0793618774
 30
0.0
 10
296.1140251625
 20
192.0792427761
 30
0.0
 10
296.1168619092
 20
192.0790818384
 30
0.0
 10
296.1204079829
 20
192.0788813977
 30
0.0
 10
296.1260816223
 20
192.0785602838
 30
0.0
 10
296.1331736985
 20
192.0781590316
 30
0.0
 10
296.1416841783
 20
192.0776774689
 30
0.0
 10
296.1501946613
 20
192.0771959223
 30
0.0
 10
296.1615419708
 20
192.0765538545
 30
0.0
 10
296.1757261081
 20
192.0757512719
 30
0.0
 10
296.1899102453
 20
192.0749486879
 30
0.0
 10
296.201257555
 20
192.0743066224
 30
0.0
 10
296.2097680375
 20
192.0738250689
 30
0.0
 10
296.2182785192
 20
192.0733435318
 30
0.0
 10
296.2253705897
 20
192.0729422001
 30
0.0
 10
296.2310442407
 20
192.0726212485
 30
0.0
 10
296.2345902847
 20
192.0724203948
 30
0.0
 10
296.2374270924
 20
192.0722603048
 30
0.0
 10
296.2395547733
 20
192.0721386137
 30
0.0
 10
296.2413276017
 20
192.0720423693
 30
0.0
 10
296.2425690506
 20
192.0719648624
 30
0.0
 10
296.2432777177
 20
192.0719363991
 30
0.0
 10
296.2438112807
 20
192.0718704685
 30
0.0
 10
296.2443369592
 20
192.0719749569
 30
0.0
 10
296.245040614
 20
192.0720548307
 30
0.0
 10
296.2462707286
 20
192.072222306
 30
0.0
 10
296.248028705
 20
192.0724470765
 30
0.0
 10
296.25013799
 20
192.0727229989
 30
0.0
 10
296.2529504701
 20
192.0730887307
 30
0.0
 10
296.256466036
 20
192.0735466367
 30
0.0
 10
296.2620909606
 20
192.0742788721
 30
0.0
 10
296.2691221097
 20
192.0751943084
 30
0.0
 10
296.2775594915
 20
192.076292771
 30
0.0
 10
296.2859968726
 20
192.07739125
 30
0.0
 10
296.2972467142
 20
192.0788558829
 30
0.0
 10
296.3113090161
 20
192.0806866761
 30
0.0
 10
296.3253713182
 20
192.0825174679
 30
0.0
 10
296.3366211596
 20
192.0839821031
 30
0.0
 10
296.3450585415
 20
192.0850805751
 30
0.0
 10
296.35349592
 20
192.0861790636
 30
0.0
 10
296.3605270793
 20
192.0870944197
 30
0.0
 10
296.3661519833
 20
192.0878268186
 30
0.0
 10
296.3696676015
 20
192.0882843084
 30
0.0
 10
296.3724799741
 20
192.0886508945
 30
0.0
 10
296.3745895877
 20
192.0889242069
 30
0.0
 10
296.3763465362
 20
192.0891571436
 30
0.0
 10
296.3775784857
 20
192.0893100409
 30
0.0
 10
296.3782792005
 20
192.0894132722
 30
0.0
 10
296.3788139098
 20
192.0894460139
 30
0.0
 10
296.3793135547
 20
192.0896495517
 30
0.0
 10
296.3799919787
 20
192.0898613598
 30
0.0
 10
296.3811735222
 20
192.0902597813
 30
0.0
 10
296.3828644207
 20
192.0908144431
 30
0.0
 10
296.3848922237
 20
192.0914862488
 30
0.0
 10
296.3875964064
 20
192.0923798201
 30
0.0
 10
296.3909764823
 20
192.0934975271
 30
0.0
 10
296.396384689
 20
192.0952854431
 30
0.0
 10
296.4031449181
 20
192.0975204807
 30
0.0
 10
296.4112572056
 20
192.1002024646
 30
0.0
 10
296.4193694897
 20
192.1028844649
 30
0.0
 10
296.4301858697
 20
192.1064604596
 30
0.0
 10
296.4437063442
 20
192.1109304549
 30
0.0
 10
296.4599309139
 20
192.1162944484
 30
0.0
 10
296.4815636734
 20
192.12344644
 30
0.0
 10
296.4977882431
 20
192.1288104337
 30
0.0
 10
296.5086046228
 20
192.1323864295
 30
0.0
  0
SPLINE
  5
43F
100
AcDbEntity
  8
7_ALL_FEATURES
100
AcDbSpline
 62
4
  6
CONTINUOUS
 70
0
 71
3
 72
179
 73
175
 74
0
 42
0.0000001
 43
0.0000001
 44
0.0000000001
 40
0.0
 40
0.0
 40
0.0
 40
0.0
 40
0.03125
 40
0.046875
 40
0.0625
 40
0.078125
 40
0.0859375
 40
0.09375
 40
0.1015625
 40
0.109375
 40
0.11328125
 40
0.1171875
 40
0.12109375
 40
0.123046875
 40
0.1240234375
 40
0.125
 40
0.1259765625
 40
0.126953125
 40
0.12890625
 40
0.1328125
 40
0.13671875
 40
0.140625
 40
0.1484375
 40
0.15625
 40
0.1640625
 40
0.171875
 40
0.1875
 40
0.203125
 40
0.2109375
 40
0.21875
 40
0.2265625
 40
0.234375
 40
0.23828125
 40
0.2421875
 40
0.244140625
 40
0.24609375
 40
0.248046875
 40
0.2490234375
 40
0.25
 40
0.2509765625
 40
0.251953125
 40
0.25390625
 40
0.255859375
 40
0.2578125
 40
0.26171875
 40
0.265625
 40
0.2734375
 40
0.28125
 40
0.2890625
 40
0.296875
 40
0.3125
 40
0.328125
 40
0.3359375
 40
0.34375
 40
0.3515625
 40
0.359375
 40
0.36328125
 40
0.3671875
 40
0.369140625
 40
0.37109375
 40
0.373046875
 40
0.3740234375
 40
0.375
 40
0.3759765625
 40
0.376953125
 40
0.37890625
 40
0.380859375
 40
0.3828125
 40
0.38671875
 40
0.390625
 40
0.3984375
 40
0.40625
 40
0.4140625
 40
0.421875
 40
0.4375
 40
0.453125
 40
0.4609375
 40
0.46875
 40
0.4765625
 40
0.484375
 40
0.48828125
 40
0.4921875
 40
0.494140625
 40
0.49609375
 40
0.498046875
 40
0.4990234375
 40
0.5
 40
0.5009765625
 40
0.501953125
 40
0.50390625
 40
0.505859375
 40
0.5078125
 40
0.51171875
 40
0.515625
 40
0.5234375
 40
0.53125
 40
0.5390625
 40
0.546875
 40
0.5625
 40
0.578125
 40
0.5859375
 40
0.59375
 40
0.6015625
 40
0.609375
 40
0.61328125
 40
0.6171875
 40
0.619140625
 40
0.62109375
 40
0.623046875
 40
0.6240234375
 40
0.625
 40
0.6259765625
 40
0.626953125
 40
0.62890625
 40
0.630859375
 40
0.6328125
 40
0.63671875
 40
0.640625
 40
0.6484375
 40
0.65625
 40
0.6640625
 40
0.671875
 40
0.6875
 40
0.703125
 40
0.7109375
 40
0.71875
 40
0.7265625
 40
0.734375
 40
0.73828125
 40
0.7421875
 40
0.744140625
 40
0.74609375
 40
0.748046875
 40
0.7490234375
 40
0.75
 40
0.7509765625
 40
0.751953125
 40
0.75390625
 40
0.755859375
 40
0.7578125
 40
0.76171875
 40
0.765625
 40
0.7734375
 40
0.78125
 40
0.7890625
 40
0.796875
 40
0.8125
 40
0.828125
 40
0.8359375
 40
0.84375
 40
0.8515625
 40
0.859375
 40
0.86328125
 40
0.8671875
 40
0.869140625
 40
0.87109375
 40
0.873046875
 40
0.8740234375
 40
0.875
 40
0.8759765625
 40
0.876953125
 40
0.87890625
 40
0.880859375
 40
0.8828125
 40
0.88671875
 40
0.890625
 40
0.8984375
 40
0.90625
 40
0.9140625
 40
0.921875
 40
0.9375
 40
0.953125
 40
0.96875
 40
1.0
 40
1.0
 40
1.0
 40
1.0
 10
296.0732455346
 20
194.4636444476
 30
0.0
 10
296.0663357349
 20
194.4594077449
 30
0.0
 10
296.0559710355
 20
194.4530526906
 30
0.0
 10
296.0421514359
 20
194.4445792856
 30
0.0
 10
296.0317867373
 20
194.4382242303
 30
0.0
 10
296.0231494847
 20
194.4329283555
 30
0.0
 10
296.0162396912
 20
194.4286916455
 30
0.0
 10
296.0110573226
 20
194.4255141408
 30
0.0
 10
296.0058750435
 20
194.4223365298
 30
0.0
 10
296.001556199
 20
194.4196888517
 30
0.0
 10
295.9981017473
 20
194.4175699679
 30
0.0
 10
295.9955092038
 20
194.4159828304
 30
0.0
 10
295.9933541732
 20
194.4146537734
 30
0.0
 10
295.9918350109
 20
194.4137360765
 30
0.0
 10
295.9909835329
 20
194.4131919373
 30
0.0
 10
295.9902981204
 20
194.4128394437
 30
0.0
 10
295.9897916165
 20
194.412274377
 30
0.0
 10
295.9890538726
 20
194.4115951026
 30
0.0
 10
295.9877918966
 20
194.4103718255
 30
0.0
 10
295.9859738726
 20
194.4086423482
 30
0.0
 10
295.9837987504
 20
194.4065592446
 30
0.0
 10
295.9808963146
 20
194.4037844737
 30
0.0
 10
295.9772690498
 20
194.4003150833
 30
0.0
 10
295.9729159977
 20
194.3961522121
 30
0.0
 10
295.968563035
 20
194.3919892347
 30
0.0
 10
295.9627590535
 20
194.3864386352
 30
0.0
 10
295.9555040871
 20
194.3795003733
 30
0.0
 10
295.9482491182
 20
194.3725621151
 30
0.0
 10
295.9424451407
 20
194.3670115096
 30
0.0
 10
295.9380921661
 20
194.36284855
 30
0.0
 10
295.9337391587
 20
194.3586856119
 30
0.0
 10
295.9301117548
 20
194.3552164296
 30
0.0
 10
295.9272096025
 20
194.3524412344
 30
0.0
 10
295.9253962792
 20
194.3507063943
 30
0.0
 10
295.9239444254
 20
194.349319308
 30
0.0
 10
295.9228588074
 20
194.3482768419
 30
0.0
 10
295.9219437157
 20
194.3474149642
 30
0.0
 10
295.9212349903
 20
194.3467101118
 30
0.0
 10
295.9206396484
 20
194.3462234167
 30
0.0
 10
295.920287824
 20
194.34557662
 30
0.0
 10
295.919733661
 20
194.3447701499
 30
0.0
 10
295.9190701422
 20
194.3437428745
 30
0.0
 10
295.9182614276
 20
194.342518357
 30
0.0
 10
295.9171875046
 20
194.3408827983
 30
0.0
 10
295.9158436069
 20
194.3388393323
 30
0.0
 10
295.9136942056
 20
194.3355692376
 30
0.0
 10
295.9110071674
 20
194.3314818077
 30
0.0
 10
295.9077828445
 20
194.3265768109
 30
0.0
 10
295.9045584886
 20
194.3216718359
 30
0.0
 10
295.900259359
 20
194.3151318615
 30
0.0
 10
295.8948854427
 20
194.3069568963
 30
0.0
 10
295.8895115294
 20
194.2987819295
 30
0.0
 10
295.8852123949
 20
194.2922419577
 30
0.0
 10
295.8819880538
 20
194.2873369749
 30
0.0
 10
295.8787636754
 20
194.2824320069
 30
0.0
 10
295.8760768098
 20
194.2783444877
 30
0.0
 10
295.8739270566
 20
194.2750745751
 30
0.0
 10
295.8725840545
 20
194.2730306458
 30
0.0
 10
295.8715082932
 20
194.271396038
 30
0.0
 10
295.8707051949
 20
194.2701686156
 30
0.0
 10
295.8700241038
 20
194.2691504287
 30
0.0
 10
295.8695057917
 20
194.2683254164
 30
0.0
 10
295.8690444808
 20
194.2677352466
 30
0.0
 10
295.8688601967
 20
194.2670359503
 30
0.0
 10
295.8685177155
 20
194.2661416747
 30
0.0
 10
295.868122815
 20
194.2650107515
 30
0.0
 10
295.8676347234
 20
194.2636592418
 30
0.0
 10
295.8669888981
 20
194.2618552735
 30
0.0
 10
295.866179917
 20
194.2596009827
 30
0.0
 10
295.864886497
 20
194.2559937432
 30
0.0
 10
295.8632693962
 20
194.2514848222
 30
0.0
 10
295.8613290149
 20
194.246074062
 30
0.0
 10
295.8593885962
 20
194.2406633165
 30
0.0
 10
295.8568013844
 20
194.233448984
 30
0.0
 10
295.8535673646
 20
194.2244310703
 30
0.0
 10
295.8503333483
 20
194.2154131555
 30
0.0
 10
295.8477461311
 20
194.2081988246
 30
0.0
 10
295.8458057287
 20
194.2027880745
 30
0.0
 10
295.8438652862
 20
194.1973773315
 30
0.0
 10
295.8422483757
 20
194.1928683568
 30
0.0
 10
295.8409545676
 20
194.1892612269
 30
0.0
 10
295.8401465744
 20
194.1870066573
 30
0.0
 10
295.8394987212
 20
194.1852032612
 30
0.0
 10
295.8390168251
 20
194.1838500034
 30
0.0
 10
295.8386025403
 20
194.1827245497
 30
0.0
 10
295.8382996067
 20
194.1818191153
 30
0.0
 10
295.8379945466
 20
194.1811538971
 30
0.0
 10
295.8379866791
 20
194.1804357841
 30
0.0
 10
295.8378723759
 20
194.1794967769
 30
0.0
 10
295.8377651147
 20
194.1783166786
 30
0.0
 10
295.8376211556
 20
194.1769032741
 30
0.0
 10
295.8374345352
 20
194.175017787
 30
0.0
 10
295.8371994364
 20
194.1726612527
 30
0.0
 10
295.8368242973
 20
194.1688906164
 30
0.0
 10
295.8363550238
 20
194.1641773832
 30
0.0
 10
295.8357920455
 20
194.1585214767
 30
0.0
 10
295.8352290271
 20
194.1528655774
 30
0.0
 10
295.8344783499
 20
194.1453243757
 30
0.0
 10
295.8335399982
 20
194.1358978745
 30
0.0
 10
295.83260165
 20
194.1264713731
 30
0.0
 10
295.8318509672
 20
194.1189301719
 30
0.0
 10
295.8312879658
 20
194.1132742712
 30
0.0
 10
295.8307249235
 20
194.1076183697
 30
0.0
 10
295.830255849
 20
194.102905121
 30
0.0
 10
295.8298803042
 20
194.0991345164
 30
0.0
 10
295.8296462381
 20
194.0967779012
 30
0.0
 10
295.8294574978
 20
194.0948925801
 30
0.0
 10
295.829320015
 20
194.0934786684
 30
0.0
 10
295.8291924913
 20
194.0923001571
 30
0.0
 10
295.8291195275
 20
194.0913579122
 30
0.0
 10
295.8289854118
 20
194.0906496869
 30
0.0
 10
295.8291543399
 20
194.0899473461
 30
0.0
 10
295.8292737202
 20
194.0890088361
 30
0.0
 10
295.8294592646
 20
194.0878364038
 30
0.0
 10
295.8296663722
 20
194.0864291833
 30
0.0
 10
295.8299479454
 20
194.0845529946
 30
0.0
 10
295.8302980528
 20
194.0822077227
 30
0.0
 10
295.8308592637
 20
194.0784553078
 30
0.0
 10
295.8315604208
 20
194.0737647823
 30
0.0
 10
295.8324019622
 20
194.0681361546
 30
0.0
 10
295.8332434627
 20
194.0625075261
 30
0.0
 10
295.8343654776
 20
194.0550026885
 30
0.0
 10
295.835767991
 20
194.0456216412
 30
0.0
 10
295.8371705079
 20
194.0362405943
 30
0.0
 10
295.8382925172
 20
194.028735756
 30
0.0
 10
295.8391340346
 20
194.0231071295
 30
0.0
 10
295.8399755123
 20
194.0174784944
 30
0.0
 10
295.8406768675
 20
194.0127879922
 30
0.0
 10
295.8412376746
 20
194.0090355298
 30
0.0
 10
295.8415888097
 20
194.0066903787
 30
0.0
 10
295.8418682734
 20
194.0048139419
 30
0.0
 10
295.842081826
 20
194.0034074795
 30
0.0
 10
295.8422472055
 20
194.0022326753
 30
0.0
 10
295.842407726
 20
194.0012990046
 30
0.0
 10
295.8424510146
 20
194.0005818849
 30
0.0
 10
295.8427886015
 20
193.9999291454
 30
0.0
 10
295.8431359152
 20
193.9990363374
 30
0.0
 10
295.8436053283
 20
193.9979280431
 30
0.0
 10
295.8441535269
 20
193.9965947873
 30
0.0
 10
295.8448897314
 20
193.9948182665
 30
0.0
 10
295.8458081816
 20
193.9925972205
 30
0.0
 10
295.847278711
 20
193.9890437676
 30
0.0
 10
295.8491165264
 20
193.9846018758
 30
0.0
 10
295.8513220534
 20
193.9792716382
 30
0.0
 10
295.8535275406
 20
193.9739413918
 30
0.0
 10
295.8564682042
 20
193.9668343997
 30
0.0
 10
295.8601440285
 20
193.9579506583
 30
0.0
 10
295.8638198562
 20
193.949066918
 30
0.0
 10
295.8667605143
 20
193.9419599242
 30
0.0
 10
295.8689660179
 20
193.9366296827
 30
0.0
 10
295.8711714834
 20
193.9312994267
 30
0.0
 10
295.87300949
 20
193.926857592
 30
0.0
 10
295.8744796296
 20
193.9233040226
 30
0.0
 10
295.8753990716
 20
193.9210832732
 30
0.0
 10
295.8761332403
 20
193.9193061436
 30
0.0
 10
295.8766876588
 20
193.9179747477
 30
0.0
 10
295.8771376111
 20
193.9168606345
 30
0.0
 10
295.8775246284
 20
193.915979698
 30
0.0
 10
295.877740963
 20
193.9152907035
 30
0.0
 10
295.8782394835
 20
193.9147097006
 30
0.0
 10
295.8788056063
 20
193.9138973071
 30
0.0
 10
295.8795470791
 20
193.9128947579
 30
0.0
 10
295.8804223707
 20
193.911686159
 30
0.0
 10
295.8815944823
 20
193.9100766287
 30
0.0
 10
295.8830578905
 20
193.9080640533
 30
0.0
 10
295.8854003113
 20
193.9048443029
 30
0.0
 10
295.8883280053
 20
193.9008194879
 30
0.0
 10
295.8918413803
 20
193.8959897644
 30
0.0
 10
295.8953547173
 20
193.8911600263
 30
0.0
 10
295.90003918
 20
193.8847203806
 30
0.0
 10
295.9058947537
 20
193.8766708218
 30
0.0
 10
295.9129214441
 20
193.8670113519
 30
0.0
 10
295.922290364
 20
193.8541320584
 30
0.0
 10
295.9293170541
 20
193.8444725884
 30
0.0
 10
295.9340015141
 20
193.8380329417
 30
0.0
  0
SPLINE
  5
440
100
AcDbEntity
  8
7_ALL_FEATURES
100
AcDbSpline
 62
4
  6
CONTINUOUS
 70
0
 71
3
 72
105
 73
101
 74
0
 42
0.0000001
 43
0.0000001
 44
0.0000000001
 40
0.0
 40
0.0
 40
0.0
 40
0.0
 40
0.0625
 40
0.09375
 40
0.109375
 40
0.125
 40
0.140625
 40
0.1484375
 40
0.15625
 40
0.16015625
 40
0.1640625
 40
0.166015625
 40
0.1669921875
 40
0.16796875
 40
0.169921875
 40
0.171875
 40
0.1796875
 40
0.1875
 40
0.1953125
 40
0.203125
 40
0.21875
 40
0.25
 40
0.28125
 40
0.296875
 40
0.3046875
 40
0.3125
 40
0.3203125
 40
0.328125
 40
0.330078125
 40
0.33203125
 40
0.3330078125
 40
0.333984375
 40
0.3359375
 40
0.33984375
 40
0.34375
 40
0.3515625
 40
0.359375
 40
0.375
 40
0.390625
 40
0.40625
 40
0.421875
 40
0.4375
 40
0.453125
 40
0.46875
 40
0.4765625
 40
0.484375
 40
0.48828125
 40
0.4921875
 40
0.49609375
 40
0.498046875
 40
0.5
 40
0.501953125
 40
0.50390625
 40
0.5078125
 40
0.51171875
 40
0.515625
 40
0.5234375
 40
0.53125
 40
0.546875
 40
0.5625
 40
0.578125
 40
0.59375
 40
0.609375
 40
0.625
 40
0.640625
 40
0.6484375
 40
0.65625
 40
0.66015625
 40
0.6640625
 40
0.666015625
 40
0.6669921875
 40
0.66796875
 40
0.669921875
 40
0.671875
 40
0.6796875
 40
0.6875
 40
0.6953125
 40
0.703125
 40
0.71875
 40
0.75
 40
0.78125
 40
0.796875
 40
0.8046875
 40
0.8125
 40
0.8203125
 40
0.828125
 40
0.830078125
 40
0.83203125
 40
0.8330078125
 40
0.833984375
 40
0.8359375
 40
0.83984375
 40
0.84375
 40
0.8515625
 40
0.859375
 40
0.875
 40
0.890625
 40
0.90625
 40
0.9375
 40
1.0
 40
1.0
 40
1.0
 40
1.0
 10
296.6449905208
 20
194.4636444476
 30
0.0
 10
296.633740984
 20
194.4680359221
 30
0.0
 10
296.6168666759
 20
194.4746231262
 30
0.0
 10
296.5971799934
 20
194.4823082241
 30
0.0
 10
296.5859304458
 20
194.486699671
 30
0.0
 10
296.5774933262
 20
194.4899933614
 30
0.0
 10
296.5704622626
 20
194.4927377682
 30
0.0
 10
296.5648377046
 20
194.4949340456
 30
0.0
 10
296.561321689
 20
194.4963050066
 30
0.0
 10
296.5585104036
 20
194.4974056972
 30
0.0
 10
296.556749866
 20
194.4980846804
 30
0.0
 10
296.5555244726
 20
194.4985779025
 30
0.0
 10
296.5548133222
 20
194.4988316845
 30
0.0
 10
296.5540610206
 20
194.4989797823
 30
0.0
 10
296.5531347092
 20
194.4992010279
 30
0.0
 10
296.5508999851
 20
194.4997022861
 30
0.0
 10
296.5475527614
 20
194.5004666608
 30
0.0
 10
296.5430870174
 20
194.5014786898
 30
0.0
 10
296.5386220167
 20
194.502492628
 30
0.0
 10
296.5326684231
 20
194.5038438795
 30
0.0
 10
296.5222497559
 20
194.506208882
 30
0.0
 10
296.5073658766
 20
194.5095872778
 30
0.0
 10
296.4924820416
 20
194.5129657951
 30
0.0
 10
296.4820633124
 20
194.5153306275
 30
0.0
 10
296.4761098162
 20
194.5166821463
 30
0.0
 10
296.4716445167
 20
194.5176952645
 30
0.0
 10
296.467179895
 20
194.5187103732
 30
0.0
 10
296.4638295282
 20
194.5194661238
 30
0.0
 10
296.4615989061
 20
194.5199786371
 30
0.0
 10
296.4606650819
 20
194.5201792685
 30
0.0
 10
296.459928283
 20
194.5203699037
 30
0.0
 10
296.459153961
 20
194.5204503512
 30
0.0
 10
296.4577814634
 20
194.5205399384
 30
0.0
 10
296.4558298488
 20
194.5206946315
 30
0.0
 10
296.452702182
 20
194.520927213
 30
0.0
 10
296.4487943392
 20
194.521223051
 30
0.0
 10
296.4425408177
 20
194.5216935352
 30
0.0
 10
296.4347242498
 20
194.5222826206
 30
0.0
 10
296.4253442251
 20
194.5229891031
 30
0.0
 10
296.4159642389
 20
194.5236956974
 30
0.0
 10
296.406584242
 20
194.5244022644
 30
0.0
 10
296.3972042493
 20
194.5251088288
 30
0.0
 10
296.3878242503
 20
194.525815431
 30
0.0
 10
296.3800076021
 20
194.5264041424
 30
0.0
 10
296.3737542444
 20
194.5268753895
 30
0.0
 10
296.3698459848
 20
194.527169286
 30
0.0
 10
296.3667191735
 20
194.5274058527
 30
0.0
 10
296.3643746223
 20
194.5275793089
 30
0.0
 10
296.3624190569
 20
194.5277364814
 30
0.0
 10
296.3608585806
 20
194.5278339021
 30
0.0
 10
296.3596773589
 20
194.5279843443
 30
0.0
 10
296.358537607
 20
194.5278394381
 30
0.0
 10
296.3570034519
 20
194.5277493989
 30
0.0
 10
296.3550907281
 20
194.5276014532
 30
0.0
 10
296.3527933321
 20
194.5274390692
 30
0.0
 10
296.3497308805
 20
194.5272172653
 30
0.0
 10
296.3459025616
 20
194.5269418224
 30
0.0
 10
296.3397773936
 20
194.526500101
 30
0.0
 10
296.3321208848
 20
194.5259482967
 30
0.0
 10
296.3229330951
 20
194.5252859832
 30
0.0
 10
296.3137452998
 20
194.5246237073
 30
0.0
 10
296.3045575058
 20
194.5239614292
 30
0.0
 10
296.2953697127
 20
194.5232991224
 30
0.0
 10
296.2861819146
 20
194.5226369324
 30
0.0
 10
296.2785254319
 20
194.522084742
 30
0.0
 10
296.2724002105
 20
194.5216438083
 30
0.0
 10
296.2685720275
 20
194.521366361
 30
0.0
 10
296.2655092969
 20
194.5211486714
 30
0.0
 10
296.2635955106
 20
194.5210028765
 30
0.0
 10
296.2622550178
 20
194.5209203382
 30
0.0
 10
296.26149034
 20
194.5208426355
 30
0.0
 10
296.2607306267
 20
194.5206499123
 30
0.0
 10
296.2597792882
 20
194.5204483228
 30
0.0
 10
296.2574974724
 20
194.5199321504
 30
0.0
 10
296.2540741621
 20
194.5191714823
 30
0.0
 10
296.2495100836
 20
194.5181494904
 30
0.0
 10
296.2449459154
 20
194.5171295763
 30
0.0
 10
296.2388603893
 20
194.515768966
 30
0.0
 10
296.228210703
 20
194.5133882376
 30
0.0
 10
296.2129968804
 20
194.509987004
 30
0.0
 10
296.1977830273
 20
194.5065858954
 30
0.0
 10
296.1871333838
 20
194.5042049919
 30
0.0
 10
296.1810477904
 20
194.5028446566
 30
0.0
 10
296.1764838284
 20
194.5018238988
 30
0.0
 10
296.1719189758
 20
194.5008050758
 30
0.0
 10
296.1684978332
 20
194.5000355337
 30
0.0
 10
296.1662131884
 20
194.4995309425
 30
0.0
 10
296.1652670313
 20
194.4993081416
 30
0.0
 10
296.1644966262
 20
194.4991591882
 30
0.0
 10
296.1637755162
 20
194.4989031292
 30
0.0
 10
296.1625364774
 20
194.4984052623
 30
0.0
 10
296.1607544721
 20
194.497719988
 30
0.0
 10
296.1579099417
 20
194.4966090392
 30
0.0
 10
296.1543519921
 20
194.4952253214
 30
0.0
 10
296.1486605508
 20
194.4930085962
 30
0.0
 10
296.1415458106
 20
194.4902386424
 30
0.0
 10
296.1330083101
 20
194.48691429
 30
0.0
 10
296.1216249106
 20
194.4824819625
 30
0.0
 10
296.1017039922
 20
194.4747253227
 30
0.0
 10
296.0846289088
 20
194.4680767971
 30
0.0
 10
296.0732455222
 20
194.4636444417
 30
0.0
  0
SPLINE
  5
441
100
AcDbEntity
  8
7_ALL_FEATURES
100
AcDbSpline
 62
4
  6
CONTINUOUS
 70
0
 71
3
 72
164
 73
160
 74
0
 42
0.0000001
 43
0.0000001
 44
0.0000000001
 40
0.0
 40
0.0
 40
0.0
 40
0.0
 40
0.03125
 40
0.046875
 40
0.0625
 40
0.0703125
 40
0.078125
 40
0.0859375
 40
0.09375
 40
0.09765625
 40
0.1015625
 40
0.10546875
 40
0.107421875
 40
0.109375
 40
0.1103515625
 40
0.111328125
 40
0.1123046875
 40
0.11328125
 40
0.115234375
 40
0.1171875
 40
0.125
 40
0.1328125
 40
0.140625
 40
0.15625
 40
0.171875
 40
0.1875
 40
0.1953125
 40
0.203125
 40
0.2109375
 40
0.21484375
 40
0.21875
 40
0.220703125
 40
0.22265625
 40
0.2236328125
 40
0.224609375
 40
0.2265625
 40
0.23046875
 40
0.234375
 40
0.2421875
 40
0.25
 40
0.265625
 40
0.28125
 40
0.296875
 40
0.3046875
 40
0.3125
 40
0.3203125
 40
0.32421875
 40
0.328125
 40
0.330078125
 40
0.33203125
 40
0.3330078125
 40
0.3334960938
 40
0.333984375
 40
0.3349609375
 40
0.3359375
 40
0.33984375
 40
0.34375
 40
0.34765625
 40
0.3515625
 40
0.359375
 40
0.375
 40
0.390625
 40
0.40625
 40
0.4140625
 40
0.421875
 40
0.4296875
 40
0.43359375
 40
0.4375
 40
0.44140625
 40
0.443359375
 40
0.4438476562
 40
0.4443359375
 40
0.4453125
 40
0.447265625
 40
0.44921875
 40
0.453125
 40
0.45703125
 40
0.4609375
 40
0.46875
 40
0.484375
 40
0.5
 40
0.515625
 40
0.53125
 40
0.5390625
 40
0.54296875
 40
0.546875
 40
0.55078125
 40
0.552734375
 40
0.5546875
 40
0.5556640625
 40
0.556640625
 40
0.55859375
 40
0.5625
 40
0.56640625
 40
0.5703125
 40
0.578125
 40
0.5859375
 40
0.59375
 40
0.609375
 40
0.625
 40
0.640625
 40
0.6484375
 40
0.65234375
 40
0.65625
 40
0.66015625
 40
0.6640625
 40
0.6650390625
 40
0.666015625
 40
0.6665039062
 40
0.6669921875
 40
0.66796875
 40
0.669921875
 40
0.671875
 40
0.67578125
 40
0.6796875
 40
0.6875
 40
0.6953125
 40
0.703125
 40
0.71875
 40
0.734375
 40
0.75
 40
0.7578125
 40
0.765625
 40
0.76953125
 40
0.7734375
 40
0.775390625
 40
0.7763671875
 40
0.77734375
 40
0.779296875
 40
0.78125
 40
0.78515625
 40
0.7890625
 40
0.796875
 40
0.8046875
 40
0.8125
 40
0.828125
 40
0.84375
 40
0.859375
 40
0.8671875
 40
0.875
 40
0.8828125
 40
0.884765625
 40
0.88671875
 40
0.8876953125
 40
0.888671875
 40
0.8896484375
 40
0.890625
 40
0.892578125
 40
0.89453125
 40
0.8984375
 40
0.90234375
 40
0.90625
 40
0.9140625
 40
0.921875
 40
0.9296875
 40
0.9375
 40
0.953125
 40
0.96875
 40
1.0
 40
1.0
 40
1.0
 40
1.0
 10
296.71765537
 20
193.7789764924
 30
0.0
 10
296.7242895023
 20
193.784945866
 30
0.0
 10
296.7342407008
 20
193.7938999263
 30
0.0
 10
296.7475089654
 20
193.8058386734
 30
0.0
 10
296.7558016308
 20
193.8133003903
 30
0.0
 10
296.762435763
 20
193.8192697639
 30
0.0
 10
296.7674113626
 20
193.8237467938
 30
0.0
 10
296.7723869604
 20
193.828223825
 30
0.0
 10
296.7765332976
 20
193.8319546803
 30
0.0
 10
296.7798503545
 20
193.8349393736
 30
0.0
 10
296.7823381824
 20
193.8371778688
 30
0.0
 10
296.7844112603
 20
193.8390433602
 30
0.0
 10
296.7860699738
 20
193.8405355767
 30
0.0
 10
296.7871060977
 20
193.8414686142
 30
0.0
 10
296.7879363071
 20
193.8422141232
 30
0.0
 10
296.7885553763
 20
193.8427757765
 30
0.0
 10
296.788988157
 20
193.8434683504
 30
0.0
 10
296.7896302591
 20
193.8443460582
 30
0.0
 10
296.7904106486
 20
193.8454588217
 30
0.0
 10
296.7923018864
 20
193.8481165909
 30
0.0
 10
296.7951310569
 20
193.8521086465
 30
0.0
 10
296.7989076707
 20
193.8574283045
 30
0.0
 10
296.803941624
 20
193.8645222585
 30
0.0
 10
296.8102345882
 20
193.8733893331
 30
0.0
 10
296.8177859345
 20
193.8840299735
 30
0.0
 10
296.8240787288
 20
193.8928971612
 30
0.0
 10
296.8291130559
 20
193.8999908663
 30
0.0
 10
296.8328885228
 20
193.905311288
 30
0.0
 10
296.8360356351
 20
193.9097445152
 30
0.0
 10
296.8385513285
 20
193.9132921236
 30
0.0
 10
296.840128183
 20
193.9155070412
 30
0.0
 10
296.841379255
 20
193.9172843289
 30
0.0
 10
296.8421849308
 20
193.9183829183
 30
0.0
 10
296.8425501696
 20
193.9194054098
 30
0.0
 10
296.8429641199
 20
193.9204028533
 30
0.0
 10
296.8436658403
 20
193.9221600481
 30
0.0
 10
296.8446801379
 20
193.9246642383
 30
0.0
 10
296.8462963975
 20
193.928674345
 30
0.0
 10
296.8483189875
 20
193.9336858134
 30
0.0
 10
296.851553865
 20
193.9417048139
 30
0.0
 10
296.855597898
 20
193.9517283409
 30
0.0
 10
296.860450544
 20
193.9637566702
 30
0.0
 10
296.8644944793
 20
193.9737802531
 30
0.0
 10
296.8677295718
 20
193.9817991307
 30
0.0
 10
296.8701560204
 20
193.9878132698
 30
0.0
 10
296.8721776531
 20
193.9928251115
 30
0.0
 10
296.8737958733
 20
193.9968344524
 30
0.0
 10
296.8748051798
 20
193.9993405921
 30
0.0
 10
296.8756173913
 20
194.0013448131
 30
0.0
 10
296.8761141481
 20
194.0025990273
 30
0.0
 10
296.8764836736
 20
194.0034738186
 30
0.0
 10
296.8766607295
 20
194.0039786412
 30
0.0
 10
296.8767093421
 20
194.004502077
 30
0.0
 10
296.8768140103
 20
194.0051500097
 30
0.0
 10
296.8770290801
 20
194.0067102844
 30
0.0
 10
296.8773668615
 20
194.0090484972
 30
0.0
 10
296.8778085625
 20
194.0121673713
 30
0.0
 10
296.8782525837
 20
194.0152859092
 30
0.0
 10
296.8788438027
 20
194.0194440769
 30
0.0
 10
296.8798788132
 20
194.0267208158
 30
0.0
 10
296.8813572011
 20
194.0371161857
 30
0.0
 10
296.8831313571
 20
194.0495906169
 30
0.0
 10
296.8846097831
 20
194.0599859804
 30
0.0
 10
296.8857925682
 20
194.0683022675
 30
0.0
 10
296.8866795467
 20
194.0745394915
 30
0.0
 10
296.8874190449
 20
194.0797371506
 30
0.0
 10
296.8880098599
 20
194.0838953399
 30
0.0
 10
296.8884551121
 20
194.0870138123
 30
0.0
 10
296.8888193455
 20
194.0896130786
 30
0.0
 10
296.8890685071
 20
194.091301619
 30
0.0
 10
296.8891704626
 20
194.0920819781
 30
0.0
 10
296.8892706666
 20
194.092599665
 30
0.0
 10
296.8891166992
 20
194.0935316948
 30
0.0
 10
296.8890094697
 20
194.0948542398
 30
0.0
 10
296.8887749011
 20
194.0969753005
 30
0.0
 10
296.8885033056
 20
194.0996249149
 30
0.0
 10
296.8881681398
 20
194.1028051847
 30
0.0
 10
296.887724479
 20
194.1070452889
 30
0.0
 10
296.8869465688
 20
194.1144655902
 30
0.0
 10
296.8858360579
 20
194.1250659591
 30
0.0
 10
296.8845030933
 20
194.137786425
 30
0.0
 10
296.8831702717
 20
194.1505068968
 30
0.0
 10
296.882059403
 20
194.1611072508
 30
0.0
 10
296.8812821189
 20
194.1685275783
 30
0.0
 10
296.8808374565
 20
194.1727676406
 30
0.0
 10
296.8805053672
 20
194.1759480388
 30
0.0
 10
296.8802241428
 20
194.1785972513
 30
0.0
 10
296.8800092194
 20
194.1807191321
 30
0.0
 10
296.8798519935
 20
194.1820395901
 30
0.0
 10
296.8797786559
 20
194.1831090508
 30
0.0
 10
296.8793470494
 20
194.1840890572
 30
0.0
 10
296.878758662
 20
194.1858457469
 30
0.0
 10
296.8778308388
 20
194.1883335136
 30
0.0
 10
296.8767548055
 20
194.1913281606
 30
0.0
 10
296.8753070459
 20
194.1953177652
 30
0.0
 10
296.8735018233
 20
194.2003058887
 30
0.0
 10
296.8713336401
 20
194.2062911585
 30
0.0
 10
296.8684433978
 20
194.2142716852
 30
0.0
 10
296.8648303699
 20
194.224247288
 30
0.0
 10
296.8604948139
 20
194.2362180276
 30
0.0
 10
296.8568818921
 20
194.2461936637
 30
0.0
 10
296.8543527257
 20
194.2531765604
 30
0.0
 10
296.8529076831
 20
194.2571668644
 30
0.0
 10
296.8518233497
 20
194.2601593744
 30
0.0
 10
296.8507411243
 20
194.2631527174
 30
0.0
 10
296.8499235449
 20
194.2653953894
 30
0.0
 10
296.8493876838
 20
194.2668941358
 30
0.0
 10
296.8491507303
 20
194.2675132092
 30
0.0
 10
296.8489930756
 20
194.2680210751
 30
0.0
 10
296.8487187312
 20
194.2684828359
 30
0.0
 10
296.8481844118
 20
194.2692694958
 30
0.0
 10
296.847449386
 20
194.2704044724
 30
0.0
 10
296.8462575362
 20
194.2722141888
 30
0.0
 10
296.8447731369
 20
194.2744784731
 30
0.0
 10
296.8423950726
 20
194.2781001325
 30
0.0
 10
296.8394235303
 20
194.282627617
 30
0.0
 10
296.835857235
 20
194.2880604227
 30
0.0
 10
296.8311023313
 20
194.2953042257
 30
0.0
 10
296.8251586375
 20
194.3043589524
 30
0.0
 10
296.8180262777
 20
194.3152246614
 30
0.0
 10
296.8120824875
 20
194.3242793317
 30
0.0
 10
296.807327796
 20
194.3315232588
 30
0.0
 10
296.8043553405
 20
194.3360502797
 30
0.0
 10
296.801979147
 20
194.3396728893
 30
0.0
 10
296.8004899855
 20
194.3419347547
 30
0.0
 10
296.7994556701
 20
194.343522601
 30
0.0
 10
296.7988519633
 20
194.3444228378
 30
0.0
 10
296.7982958495
 20
194.3453497607
 30
0.0
 10
296.7972595964
 20
194.3463171482
 30
0.0
 10
296.795638728
 20
194.3478857913
 30
0.0
 10
296.7935999268
 20
194.3498394653
 30
0.0
 10
296.7903449517
 20
194.3529693286
 30
0.0
 10
296.7862737946
 20
194.3568802906
 30
0.0
 10
296.7813894494
 20
194.3615740299
 30
0.0
 10
296.7748766262
 20
194.3678321462
 30
0.0
 10
296.766735711
 20
194.3756548497
 30
0.0
 10
296.7569666108
 20
194.3850421191
 30
0.0
 10
296.7488255487
 20
194.3928646821
 30
0.0
 10
296.7423130487
 20
194.3991231075
 30
0.0
 10
296.737427712
 20
194.4038158984
 30
0.0
 10
296.7337664633
 20
194.4073384354
 30
0.0
 10
296.7313213417
 20
194.4096822084
 30
0.0
 10
296.7303089246
 20
194.4106656043
 30
0.0
 10
296.7294840992
 20
194.4114364023
 30
0.0
 10
296.7289063254
 20
194.412058163
 30
0.0
 10
296.7281726162
 20
194.412513234
 30
0.0
 10
296.727190333
 20
194.4131157148
 30
0.0
 10
296.7259638501
 20
194.4138702816
 30
0.0
 10
296.7240007112
 20
194.4150767692
 30
0.0
 10
296.7215470504
 20
194.4165851597
 30
0.0
 10
296.7186025449
 20
194.4183951081
 30
0.0
 10
296.7146765769
 20
194.4208084147
 30
0.0
 10
296.7097691034
 20
194.4238250334
 30
0.0
 10
296.703880141
 20
194.4274449821
 30
0.0
 10
296.6979911771
 20
194.4310649291
 30
0.0
 10
296.6901392257
 20
194.4358915257
 30
0.0
 10
296.6803242863
 20
194.4419247712
 30
0.0
 10
296.6646203834
 20
194.4515779642
 30
0.0
 10
296.6528424561
 20
194.4588178589
 30
0.0
 10
296.6449905047
 20
194.4636444554
 30
0.0
  0
SPLINE
  5
442
100
AcDbEntity
  8
7_ALL_FEATURES
100
AcDbSpline
 62
4
  6
CONTINUOUS
 70
0
 71
3
 72
78
 73
74
 74
0
 42
0.0000001
 43
0.0000001
 44
0.0000000001
 40
0.0
 40
0.0
 40
0.0
 40
0.0
 40
0.0625
 40
0.09375
 40
0.109375
 40
0.125
 40
0.140625
 40
0.15625
 40
0.16015625
 40
0.1640625
 40
0.16796875
 40
0.171875
 40
0.1796875
 40
0.1875
 40
0.203125
 40
0.21875
 40
0.25
 40
0.28125
 40
0.296875
 40
0.3125
 40
0.3203125
 40
0.328125
 40
0.33203125
 40
0.3359375
 40
0.33984375
 40
0.34375
 40
0.359375
 40
0.375
 40
0.390625
 40
0.40625
 40
0.4375
 40
0.453125
 40
0.46875
 40
0.484375
 40
0.4921875
 40
0.49609375
 40
0.5
 40
0.50390625
 40
0.5078125
 40
0.515625
 40
0.53125
 40
0.546875
 40
0.5625
 40
0.59375
 40
0.609375
 40
0.625
 40
0.640625
 40
0.65625
 40
0.66015625
 40
0.6640625
 40
0.66796875
 40
0.671875
 40
0.6796875
 40
0.6875
 40
0.703125
 40
0.71875
 40
0.75
 40
0.78125
 40
0.796875
 40
0.8125
 40
0.8203125
 40
0.828125
 40
0.83203125
 40
0.833984375
 40
0.8359375
 40
0.83984375
 40
0.84375
 40
0.859375
 40
0.875
 40
0.890625
 40
0.90625
 40
0.9375
 40
1.0
 40
1.0
 40
1.0
 40
1.0
 10
296.5086046382
 20
192.1323864364
 30
0.0
 10
296.5202037769
 20
192.1379571389
 30
0.0
 10
296.5376024708
 20
192.1463132138
 30
0.0
 10
296.557900996
 20
192.1560618937
 30
0.0
 10
296.5695000833
 20
192.1616326739
 30
0.0
 10
296.5781995947
 20
192.1658104622
 30
0.0
 10
296.5868983576
 20
192.169989385
 30
0.0
 10
296.5934245281
 20
192.1731203963
 30
0.0
 10
296.5977720452
 20
192.175212684
 30
0.0
 10
296.5999516308
 20
192.1762499944
 30
0.0
 10
296.6021085607
 20
192.1773216491
 30
0.0
 10
296.6048766674
 20
192.1789139384
 30
0.0
 10
296.6083737112
 20
192.1808483464
 30
0.0
 10
296.6139483536
 20
192.1839746693
 30
0.0
 10
296.6209237229
 20
192.1878718616
 30
0.0
 10
296.6320803449
 20
192.1941133816
 30
0.0
 10
296.6460276243
 20
192.2019130346
 30
0.0
 10
296.6599738569
 20
192.2097141602
 30
0.0
 10
296.6711321537
 20
192.2159533241
 30
0.0
 10
296.6781033359
 20
192.2198564067
 30
0.0
 10
296.683686562
 20
192.2229706546
 30
0.0
 10
296.687161754
 20
192.2249358024
 30
0.0
 10
296.6899747157
 20
192.2264649922
 30
0.0
 10
296.6919946075
 20
192.2277294244
 30
0.0
 10
296.6939893272
 20
192.2290267936
 30
0.0
 10
296.6979917153
 20
192.2316045891
 30
0.0
 10
296.7039898592
 20
192.2354783981
 30
0.0
 10
296.7119904908
 20
192.240639412
 30
0.0
 10
296.7199902986
 20
192.245801505
 30
0.0
 10
296.7306569608
 20
192.2526839595
 30
0.0
 10
296.7413237593
 20
192.2595662731
 30
0.0
 10
296.7519899602
 20
192.2664492618
 30
0.0
 10
296.7599912673
 20
192.2716096188
 30
0.0
 10
296.7666537507
 20
192.2759159166
 30
0.0
 10
296.7713278367
 20
192.2789185489
 30
0.0
 10
296.7739825859
 20
192.2806527265
 30
0.0
 10
296.7760191627
 20
192.2819015612
 30
0.0
 10
296.7778817586
 20
192.2833483959
 30
0.0
 10
296.7804259062
 20
192.2852084443
 30
0.0
 10
296.7848498896
 20
192.2884957073
 30
0.0
 10
296.7911846483
 20
192.2931749743
 30
0.0
 10
296.7987800319
 20
192.2987972951
 30
0.0
 10
296.8089094176
 20
192.3062912096
 30
0.0
 10
296.8190382111
 20
192.3137858029
 30
0.0
 10
296.8291671255
 20
192.3212802447
 30
0.0
 10
296.8367640409
 20
192.3269008519
 30
0.0
 10
296.8443599775
 20
192.3325224313
 30
0.0
 10
296.8500596941
 20
192.3367358674
 30
0.0
 10
296.8538552041
 20
192.3395491017
 30
0.0
 10
296.8557606397
 20
192.3409480813
 30
0.0
 10
296.8576362134
 20
192.3423767555
 30
0.0
 10
296.8599948903
 20
192.3444229469
 30
0.0
 10
296.8629918871
 20
192.3469323078
 30
0.0
 10
296.8677598936
 20
192.3509743216
 30
0.0
 10
296.8737292118
 20
192.3560175791
 30
0.0
 10
296.8832749134
 20
192.3640919803
 30
0.0
 10
296.8952088563
 20
192.3741831026
 30
0.0
 10
296.9071420448
 20
192.3842752554
 30
0.0
 10
296.9166889535
 20
192.3923480078
 30
0.0
 10
296.922655254
 20
192.3973953873
 30
0.0
 10
296.9274294467
 20
192.4014289511
 30
0.0
 10
296.930410695
 20
192.4039598236
 30
0.0
 10
296.9325028232
 20
192.4057116038
 30
0.0
 10
296.9336901042
 20
192.4067436477
 30
0.0
 10
296.9348464214
 20
192.4078925531
 30
0.0
 10
296.9363024014
 20
192.4092887412
 30
0.0
 10
296.9397880426
 20
192.412672468
 30
0.0
 10
296.9450201631
 20
192.4177342501
 30
0.0
 10
296.9519942326
 20
192.424491185
 30
0.0
 10
296.9589688615
 20
192.4312460088
 30
0.0
 10
296.9682681716
 20
192.4402531771
 30
0.0
 10
296.9845420556
 20
192.4560153763
 30
0.0
 10
296.9984910678
 20
192.4695259512
 30
0.0
 10
297.0077904162
 20
192.4785329748
 30
0.0
  0
SPLINE
  5
443
100
AcDbEntity
  8
7_ALL_FEATURES
100
AcDbSpline
 62
7
  6
CONTINUOUS
 70
0
 71
3
 72
8
 73
4
 74
0
 42
0.0000001
 43
0.0000001
 44
0.0000000001
 40
0.0
 40
0.0
 40
0.0
 40
0.0
 40
1.0
 40
1.0
 40
1.0
 40
1.0
 10
286.6534841963
 20
189.6336499111
 30
0.0
 10
286.607211115
 20
189.9669387661
 30
0.0
 10
286.5612816346
 20
190.3002754412
 30
0.0
 10
286.5156294525
 20
190.6336499111
 30
0.0
  0
SPLINE
  5
444
100
AcDbEntity
  8
7_ALL_FEATURES
100
AcDbSpline
 62
7
  6
CONTINUOUS
 70
0
 71
3
 72
8
 73
4
 74
0
 42
0.0000001
 43
0.0000001
 44
0.0000000001
 40
0.0
 40
0.0
 40
0.0
 40
0.0
 40
1.0
 40
1.0
 40
1.0
 40
1.0
 10
306.5367032516
 20
189.6336499111
 30
0.0
 10
306.5830016306
 20
189.9669352528
 30
0.0
 10
306.6288801691
 20
190.3002789539
 30
0.0
 10
306.6745579954
 20
190.6336499111
 30
0.0
  0
ELLIPSE
  5
445
100
AcDbEntity
  8
7_ALL_FEATURES
100
AcDbEllipse
 62
3
  6
CONTINUOUS
 10
113.8173012605
 20
200.7029457035
 30
0.0
 11
4.1574578963
 21
4.1574578963
 31
0.0
 40
0.4142135624
 41
1.1780972451
 42
1.3117249102
  0
ELLIPSE
  5
446
100
AcDbEntity
  8
7_ALL_FEATURES
100
AcDbEllipse
 62
3
  6
CONTINUOUS
 10
123.6182282341
 20
200.7029457035
 30
0.0
 11
4.1574578963
 21
-4.1574578963
 31
0.0
 40
0.4142135624
 41
1.8298677433
 42
1.9634954085
  0
ELLIPSE
  5
447
100
AcDbEntity
  8
7_ALL_FEATURES
100
AcDbEllipse
 62
3
  6
CONTINUOUS
 10
291.6946302371
 20
200.7029457035
 30
0.0
 11
4.1574578963
 21
4.1574578963
 31
0.0
 40
0.4142135624
 41
1.1780972451
 42
1.3117249102
  0
ELLIPSE
  5
448
100
AcDbEntity
  8
7_ALL_FEATURES
100
AcDbEllipse
 62
3
  6
CONTINUOUS
 10
301.4955572108
 20
200.7029457035
 30
0.0
 11
4.1574578963
 21
-4.1574578963
 31
0.0
 40
0.4142135624
 41
1.8298677433
 42
1.9634954085
  0
ENDSEC
  0
SECTION
  2
OBJECTS
  0
DICTIONARY
  5
449
100
AcDbDictionary
  3
ACAD_GROUP
350
44A
  3
ACAD_MLINESTYLE
350
44B
  0
DICTIONARY
  5
44A
102
{ACAD_REACTORS
330
449
102
}
100
AcDbDictionary
  0
DICTIONARY
  5
44B
102
{ACAD_REACTORS
330
449
102
}
100
AcDbDictionary
  3
STANDARD
350
44C
  0
MLINESTYLE
  5
44C
102
{ACAD_REACTORS
330
44B
102
}
100
AcDbMlineStyle
  2
STANDARD
 70
0
  3

 62
256
 51
90.0
 52
90.0
 71
2
 49
0.5
 62
256
  6
BYLAYER
 49
-0.5
 62
256
  6
BYLAYER
  0
ENDSEC
  0
EOF
