999
DXF file: 2f4_c_001.dxf
999
Pro/ENGINEER 2016360 by Parametric Technology Corporation
  0
SECTION
  2
HEADER
  9
$ACADVER
  1
AC1014
  9
$DWGCODEPAGE
  3
ANSI_1252
  9
$EXTMAX
 10
420.0
 20
297.0
 30
0.0
  9
$EXTMIN
 10
0.0
 20
0.0
 30
0.0
  9
$LIMMIN
 10
0.0
 20
0.0
  9
$LIMMAX
 10
420.0
 20
297.0
  9
$VIEWCTR
 10
210.0
 20
148.5
  9
$VIEWSIZE
 40
297.0
  9
$CLAYER
  8
0
  9
$LTSCALE
 40
23.1
  9
$CELTYPE
  6
BYLAYER
  9
$DIMSCALE
 40
1.0
  9
$DIMASZ
 40
2.5
  9
$DIMEXO
 40
0.75
  9
$DIMDLI
 40
15.96
  9
$DIMEXE
 40
0.75
  9
$DIMCEN
 40
3.78
  9
$DIMLFAC
 40
1.0
  9
$DIMBLK
  1
_CLOSED
  9
$DIMALT
 70
0
  9
$DIMALTF
 40
25.4
  9
$DIMTXT
 40
3.0
  9
$DIMTOL
 70
1
  9
$DIMLIM
 70
0
  9
$DIMTFAC
 40
1.0
  9
$DIMTP
 40
0.01
  9
$DIMTM
 40
0.01
  9
$DIMGAP
 40
0.625
  9
$AUNITS
 70
0
  9
$PDMODE
 70
3
  9
$PDSIZE
 40
0.3125
  9
$HANDSEED
  5
470
  9
$TILEMODE
 70
1
  9
$MEASUREMENT
 70
1
  0
ENDSEC
  0
SECTION
  2
CLASSES
  0
ENDSEC
  0
SECTION
  2
TABLES
  0
TABLE
  2
VPORT
  5
8
100
AcDbSymbolTable
 70
2
  0
VPORT
  5
1F4
100
AcDbSymbolTableRecord
100
AcDbViewportTableRecord
  2
*ACTIVE
 70
0
 10
0.0
 20
0.0
 11
1.0
 21
1.0
 12
210.0
 22
148.5
 13
0.0
 23
0.0
 14
1.0
 24
1.0
 15
0.0
 25
0.0
 16
0.0
 26
0.0
 36
1.0
 17
0.0
 27
0.0
 37
0.0
 40
297.0
 41
1.4141414141
 42
50.0
 43
0.0
 44
0.0
 50
0.0
 51
0.0
 71
0
 72
100
 73
1
 74
1
 75
0
 76
0
 77
0
 78
0
  0
ENDTAB
  0
TABLE
  2
LTYPE
  5
5
100
AcDbSymbolTable
 70
6
  0
LTYPE
  5
14
100
AcDbSymbolTableRecord
100
AcDbLinetypeTableRecord
  2
BYBLOCK
 70
0
  3

 72
65
 73
0
 40
0.0
  0
LTYPE
  5
15
100
AcDbSymbolTableRecord
100
AcDbLinetypeTableRecord
  2
BYLAYER
 70
0
  3

 72
65
 73
0
 40
0.0
  0
LTYPE
  5
16
100
AcDbSymbolTableRecord
100
AcDbLinetypeTableRecord
  2
CONTINUOUS
 70
64
  3
Solid line
 72
65
 73
0
 40
0.0
  0
LTYPE
  5
1F5
100
AcDbSymbolTableRecord
100
AcDbLinetypeTableRecord
  2
CENTER
 70
64
  3
____ _ ____ _ ____ _ ____ _ ____ _ ____ _ ____
 72
65
 73
4
 40
0.6
 49
0.375
 74
0
 49
-0.075
 74
0
 49
0.075
 74
0
 49
-0.075
 74
0
  0
LTYPE
  5
1F6
100
AcDbSymbolTableRecord
100
AcDbLinetypeTableRecord
  2
HIDDEN
 70
64
  3
- - - - - - - - - - - - - - - - - - - -
 72
65
 73
2
 40
0.2
 49
0.1
 74
0
 49
-0.1
 74
0
  0
LTYPE
  5
1F7
100
AcDbSymbolTableRecord
100
AcDbLinetypeTableRecord
  2
PHANTOM
 70
64
  3
_____ _ _ _____ _ _ _____ _ _ _____
 72
65
 73
6
 40
0.8
 49
0.45
 74
0
 49
-0.05
 74
0
 49
0.1
 74
0
 49
-0.05
 74
0
 49
0.1
 74
0
 49
-0.05
 74
0
  0
LTYPE
  5
1F8
100
AcDbSymbolTableRecord
100
AcDbLinetypeTableRecord
  2
DOT
 70
64
  3
. . . . . . . . . . . . . . . . . . . .
 72
65
 73
2
 40
0.2
 49
0.1
 74
0
 49
-0.1
 74
0
  0
LTYPE
  5
1F9
100
AcDbSymbolTableRecord
100
AcDbLinetypeTableRecord
  2
DASHED
 70
64
  3
- - - - - - - - - - - - - - - - - - - -
 72
65
 73
2
 40
0.2
 49
0.1
 74
0
 49
-0.1
 74
0
  0
ENDTAB
  0
TABLE
  2
LAYER
  5
2
100
AcDbSymbolTable
 70
36
  0
LAYER
  5
10
100
AcDbSymbolTableRecord
100
AcDbLayerTableRecord
  2
0
 70
0
 62
7
  6
CONTINUOUS
  0
LAYER
  5
1FA
100
AcDbSymbolTableRecord
100
AcDbLayerTableRecord
  2
DEFAULT_1
 70
0
 62
7
  6
CENTER
  0
LAYER
  5
1FB
100
AcDbSymbolTableRecord
100
AcDbLayerTableRecord
  2
DEFAULT_2
 70
0
 62
8
  6
HIDDEN
  0
LAYER
  5
1FC
100
AcDbSymbolTableRecord
100
AcDbLayerTableRecord
  2
DEFAULT_3
 70
0
 62
7
  6
PHANTOM
  0
LAYER
  5
1FD
100
AcDbSymbolTableRecord
100
AcDbLayerTableRecord
  2
01_ALL_DTM_PLN
 70
0
 62
7
  6
CONTINUOUS
  0
LAYER
  5
1FE
100
AcDbSymbolTableRecord
100
AcDbLayerTableRecord
  2
01__ASM_ALL_DTM_PLN
 70
0
 62
7
  6
CONTINUOUS
  0
LAYER
  5
1FF
100
AcDbSymbolTableRecord
100
AcDbLayerTableRecord
  2
01__ASM_DEF_DTM_PLN
 70
0
 62
7
  6
CONTINUOUS
  0
LAYER
  5
200
100
AcDbSymbolTableRecord
100
AcDbLayerTableRecord
  2
01___PRT_ALL_DTM_PLN
 70
0
 62
7
  6
CONTINUOUS
  0
LAYER
  5
201
100
AcDbSymbolTableRecord
100
AcDbLayerTableRecord
  2
01___PRT_DEF_DTM_PLN
 70
0
 62
7
  6
CONTINUOUS
  0
LAYER
  5
202
100
AcDbSymbolTableRecord
100
AcDbLayerTableRecord
  2
02_ALL_AXES
 70
0
 62
7
  6
CONTINUOUS
  0
LAYER
  5
203
100
AcDbSymbolTableRecord
100
AcDbLayerTableRecord
  2
02__ASM_ALL_AXES
 70
0
 62
7
  6
CONTINUOUS
  0
LAYER
  5
204
100
AcDbSymbolTableRecord
100
AcDbLayerTableRecord
  2
02___PRT_ALL_AXES
 70
0
 62
7
  6
CONTINUOUS
  0
LAYER
  5
205
100
AcDbSymbolTableRecord
100
AcDbLayerTableRecord
  2
03_ALL_CURVES
 70
0
 62
7
  6
CONTINUOUS
  0
LAYER
  5
206
100
AcDbSymbolTableRecord
100
AcDbLayerTableRecord
  2
03__ASM_ALL_CURVES
 70
0
 62
7
  6
CONTINUOUS
  0
LAYER
  5
207
100
AcDbSymbolTableRecord
100
AcDbLayerTableRecord
  2
03___PRT_ALL_CURVES
 70
0
 62
7
  6
CONTINUOUS
  0
LAYER
  5
208
100
AcDbSymbolTableRecord
100
AcDbLayerTableRecord
  2
04_ALL_DTM_PNT
 70
0
 62
7
  6
CONTINUOUS
  0
LAYER
  5
209
100
AcDbSymbolTableRecord
100
AcDbLayerTableRecord
  2
04__ASM_ALL_DTM_PNT
 70
0
 62
7
  6
CONTINUOUS
  0
LAYER
  5
20A
100
AcDbSymbolTableRecord
100
AcDbLayerTableRecord
  2
04___PRT_ALL_DTM_PNT
 70
0
 62
7
  6
CONTINUOUS
  0
LAYER
  5
20B
100
AcDbSymbolTableRecord
100
AcDbLayerTableRecord
  2
05_ALL_DTM_CSYS
 70
0
 62
7
  6
CONTINUOUS
  0
LAYER
  5
20C
100
AcDbSymbolTableRecord
100
AcDbLayerTableRecord
  2
05__ASM_ALL_DTM_CSYS
 70
0
 62
7
  6
CONTINUOUS
  0
LAYER
  5
20D
100
AcDbSymbolTableRecord
100
AcDbLayerTableRecord
  2
05__ASM_DEF_DTM_CSYS
 70
0
 62
7
  6
CONTINUOUS
  0
LAYER
  5
20E
100
AcDbSymbolTableRecord
100
AcDbLayerTableRecord
  2
05___PRT_ALL_DTM_CSYS
 70
0
 62
7
  6
CONTINUOUS
  0
LAYER
  5
20F
100
AcDbSymbolTableRecord
100
AcDbLayerTableRecord
  2
05___PRT_DEF_DTM_CSYS
 70
0
 62
7
  6
CONTINUOUS
  0
LAYER
  5
210
100
AcDbSymbolTableRecord
100
AcDbLayerTableRecord
  2
06_ALL_SURFS
 70
0
 62
7
  6
CONTINUOUS
  0
LAYER
  5
211
100
AcDbSymbolTableRecord
100
AcDbLayerTableRecord
  2
06__ASM_ALL_SURFS
 70
0
 62
7
  6
CONTINUOUS
  0
LAYER
  5
212
100
AcDbSymbolTableRecord
100
AcDbLayerTableRecord
  2
06___PRT_ALL_SURFS
 70
0
 62
7
  6
CONTINUOUS
  0
LAYER
  5
213
100
AcDbSymbolTableRecord
100
AcDbLayerTableRecord
  2
07__ASM_ALL_SKELETONS
 70
0
 62
7
  6
CONTINUOUS
  0
LAYER
  5
214
100
AcDbSymbolTableRecord
100
AcDbLayerTableRecord
  2
1_ALL_PLANES
 70
0
 62
7
  6
CONTINUOUS
  0
LAYER
  5
215
100
AcDbSymbolTableRecord
100
AcDbLayerTableRecord
  2
2_ALL_CSYS
 70
0
 62
7
  6
CONTINUOUS
  0
LAYER
  5
216
100
AcDbSymbolTableRecord
100
AcDbLayerTableRecord
  2
3_ALL_AXES
 70
0
 62
7
  6
CONTINUOUS
  0
LAYER
  5
217
100
AcDbSymbolTableRecord
100
AcDbLayerTableRecord
  2
4_ALL_POINTS
 70
0
 62
7
  6
CONTINUOUS
  0
LAYER
  5
218
100
AcDbSymbolTableRecord
100
AcDbLayerTableRecord
  2
5_ALL_CURVES
 70
0
 62
7
  6
CONTINUOUS
  0
LAYER
  5
219
100
AcDbSymbolTableRecord
100
AcDbLayerTableRecord
  2
6_ALL_SURFS
 70
0
 62
7
  6
CONTINUOUS
  0
LAYER
  5
21A
100
AcDbSymbolTableRecord
100
AcDbLayerTableRecord
  2
7_ALL_FEATURES
 70
0
 62
7
  6
CONTINUOUS
  0
LAYER
  5
21B
100
AcDbSymbolTableRecord
100
AcDbLayerTableRecord
  2
9_SOLID
 70
0
 62
7
  6
CONTINUOUS
  0
LAYER
  5
21C
100
AcDbSymbolTableRecord
100
AcDbLayerTableRecord
  2
GRAFICA
 70
0
 62
7
  6
CONTINUOUS
  0
LAYER
  5
21D
100
AcDbSymbolTableRecord
100
AcDbLayerTableRecord
  2
INTFCLR_2
 70
0
 62
7
  6
CONTINUOUS
  0
LAYER
  5
21E
100
AcDbSymbolTableRecord
100
AcDbLayerTableRecord
  2
INTFCLR_3
 70
0
 62
7
  6
CONTINUOUS
  0
LAYER
  5
21F
100
AcDbSymbolTableRecord
100
AcDbLayerTableRecord
  2
INTF_CYAN
 70
0
 62
7
  6
CONTINUOUS
  0
LAYER
  5
220
100
AcDbSymbolTableRecord
100
AcDbLayerTableRecord
  2
XXX_SOLIDO
 70
0
 62
7
  6
CONTINUOUS
  0
ENDTAB
  0
TABLE
  2
STYLE
  5
3
100
AcDbSymbolTable
 70
1
  0
STYLE
  5
11
100
AcDbSymbolTableRecord
100
AcDbTextStyleTableRecord
  2
STANDARD
 70
0
 40
0.0
 41
1.0
 50
0.0
 71
0
 42
0.2
  3
arial.ttf
  4

  0
STYLE
  5
221
100
AcDbSymbolTableRecord
100
AcDbTextStyleTableRecord
  2
TEXTSTYLE_1
 70
0
 40
0.0
 41
0.8
 50
0.0
 71
0
 42
0.2
  3
gdt
  4

  0
STYLE
  5
222
100
AcDbSymbolTableRecord
100
AcDbTextStyleTableRecord
  2
TEXTSTYLE_2
 70
0
 40
0.0
 41
0.85
 50
0.0
 71
0
 42
0.2
  3
gdt
  4

  0
STYLE
  5
223
100
AcDbSymbolTableRecord
100
AcDbTextStyleTableRecord
  2
TEXTSTYLE_3
 70
0
 40
0.0
 41
0.85
 50
0.0
 71
0
 42
0.2
  3
txt
  4

  0
ENDTAB
  0
TABLE
  2
VIEW
  5
6
100
AcDbSymbolTable
 70
0
  0
ENDTAB
  0
TABLE
  2
UCS
  5
7
100
AcDbSymbolTable
 70
0
  0
ENDTAB
  0
TABLE
  2
APPID
  5
9
100
AcDbSymbolTable
 70
1
  0
APPID
  5
224
100
AcDbSymbolTableRecord
100
AcDbRegAppTableRecord
  2
ACAD
 70
0
  0
ENDTAB
  0
TABLE
  2
BLOCK_RECORD
  5
1
100
AcDbSymbolTable
 70
0
  0
BLOCK_RECORD
  5
1F
100
AcDbSymbolTableRecord
100
AcDbBlockTableRecord
  2
*MODEL_SPACE
  0
BLOCK_RECORD
  5
1B
100
AcDbSymbolTableRecord
100
AcDbBlockTableRecord
  2
*PAPER_SPACE
  0
BLOCK_RECORD
  5
225
100
AcDbSymbolTableRecord
100
AcDbBlockTableRecord
  2
_CLOSED
  0
BLOCK_RECORD
  5
226
100
AcDbSymbolTableRecord
100
AcDbBlockTableRecord
  2
*D0
  0
BLOCK_RECORD
  5
227
100
AcDbSymbolTableRecord
100
AcDbBlockTableRecord
  2
*D1
  0
BLOCK_RECORD
  5
228
100
AcDbSymbolTableRecord
100
AcDbBlockTableRecord
  2
*D2
  0
BLOCK_RECORD
  5
229
100
AcDbSymbolTableRecord
100
AcDbBlockTableRecord
  2
*D3
  0
BLOCK_RECORD
  5
22A
100
AcDbSymbolTableRecord
100
AcDbBlockTableRecord
  2
*D4
  0
BLOCK_RECORD
  5
22B
100
AcDbSymbolTableRecord
100
AcDbBlockTableRecord
  2
LOGO2_BL0
  0
ENDTAB
  0
TABLE
  2
DIMSTYLE
  5
A
100
AcDbSymbolTable
 70
1
  0
DIMSTYLE
105
22C
100
AcDbSymbolTableRecord
100
AcDbDimStyleTableRecord
  2
STANDARD
 70
0
  3

  4

  5
_CLOSED
  6
_CLOSED
  7
_CLOSED
 40
1.0
 41
2.5
 42
0.75
 43
0.38
 44
0.75
 45
0.0
 46
0.0
 47
0.01
 48
0.01
140
3.0
141
0.09
142
0.0
143
25.4
144
1.0
145
0.0
146
1.0
147
0.625
 71
1.0
 72
0.0
 73
0
 74
0
 75
0
 76
0
 77
1
 78
8
 79
2
170
0
171
1
172
0
173
0
174
0
175
0
176
0
177
0
178
0
270
2
179
2
271
2
272
2
273
2
274
2
275
0
280
0
281
0
282
0
283
1
284
8
285
0
286
0
287
3
288
0
340
11
  0
DIMSTYLE
105
22D
100
AcDbSymbolTableRecord
100
AcDbDimStyleTableRecord
  2
DIMSTYLE_1
 70
0
  3
<>
  4

  5
_CLOSED
  6
_CLOSED
  7
_CLOSED
 40
1.0
 41
2.5
 42
0.75
 43
0.38
 44
0.75
 45
0.0
 46
0.0
 47
0.3
 48
0.3
140
3.0
141
0.09
142
0.0
143
25.4
144
1.0
145
0.0
146
1.0
147
0.625
 71
0.0
 72
0.0
 73
0
 74
0
 75
0
 76
0
 77
1
 78
8
 79
2
170
0
171
1
172
1
173
0
174
0
175
0
176
0
177
0
178
0
270
2
179
2
271
2
272
2
273
2
274
2
275
0
280
0
281
0
282
0
283
1
284
8
285
0
286
0
287
3
288
1
340
11
  0
DIMSTYLE
105
22E
100
AcDbSymbolTableRecord
100
AcDbDimStyleTableRecord
  2
DIMSTYLE_2
 70
0
  3

  4

  5
_CLOSED
  6
_CLOSED
  7
_CLOSED
 40
1.0
 41
2.5
 42
0.75
 43
0.38
 44
0.75
 45
0.0
 46
0.0
 47
0.3
 48
0.3
140
3.0
141
0.09
142
0.0
143
25.4
144
1.0
145
0.0
146
1.0
147
0.75
 71
0.0
 72
0.0
 73
0
 74
0
 75
0
 76
0
 77
1
 78
8
 79
2
170
0
171
1
172
0
173
0
174
0
175
0
176
0
177
0
178
0
270
2
179
2
271
2
272
2
273
2
274
2
275
0
280
0
281
0
282
0
283
1
284
8
285
0
286
0
287
3
288
0
340
11
  0
DIMSTYLE
105
22F
100
AcDbSymbolTableRecord
100
AcDbDimStyleTableRecord
  2
DIMSTYLE_3
 70
0
  3

  4

  5
_CLOSED
  6
_CLOSED
  7
_CLOSED
 40
1.0
 41
2.5
 42
0.75
 43
0.38
 44
0.75
 45
0.0
 46
0.0
 47
0.2
 48
0.2
140
3.0
141
0.09
142
0.0
143
25.4
144
1.0
145
0.0
146
1.0
147
0.75
 71
0.0
 72
0.0
 73
0
 74
0
 75
0
 76
0
 77
1
 78
8
 79
2
170
0
171
1
172
0
173
0
174
0
175
0
176
0
177
0
178
0
270
2
179
2
271
2
272
2
273
2
274
2
275
0
280
0
281
0
282
0
283
1
284
8
285
0
286
0
287
3
288
0
340
11
  0
ENDTAB
  0
ENDSEC
  0
SECTION
  2
BLOCKS
  0
BLOCK
  5
20
100
AcDbEntity
  8
0
100
AcDbBlockBegin
  2
*MODEL_SPACE
 70
0
 10
0.0
 20
0.0
 30
0.0
  3
*MODEL_SPACE
  1

  0
ENDBLK
  5
21
100
AcDbEntity
  8
0
100
AcDbBlockEnd
  0
BLOCK
  5
1C
100
AcDbEntity
  8
0
100
AcDbBlockBegin
  2
*PAPER_SPACE
 70
0
 10
0.0
 20
0.0
 30
0.0
  3
*PAPER_SPACE
  1

  0
ENDBLK
  5
1D
100
AcDbEntity
  8
0
100
AcDbBlockEnd
  0
BLOCK
  5
230
100
AcDbEntity
  8
0
100
AcDbBlockBegin
 62
2
  6
CONTINUOUS
  2
LOGO2_BL0
 70
64
 10
333.6475659158
 20
36.9217920391
  3
LOGO2_BL0
  1

  0
LINE
  5
231
100
AcDbEntity
  8
0
100
AcDbLine
 62
7
  6
CONTINUOUS
 10
325.390491144
 20
40.1172833779
 11
324.0861502147
 21
40.1172833779
  0
LINE
  5
232
100
AcDbEntity
  8
0
100
AcDbLine
 62
7
  6
CONTINUOUS
 10
324.0861502147
 20
40.1172833779
 11
324.0861502147
 21
29.6582173181
  0
LINE
  5
233
100
AcDbEntity
  8
0
100
AcDbLine
 62
7
  6
CONTINUOUS
 10
324.0861502147
 20
29.6582173181
 11
328.567205103
 21
29.6582173181
  0
LINE
  5
234
100
AcDbEntity
  8
0
100
AcDbLine
 62
7
  6
CONTINUOUS
 10
328.567205103
 20
29.6582173181
 11
328.567205103
 21
30.8510716431
  0
LINE
  5
235
100
AcDbEntity
  8
0
100
AcDbLine
 62
7
  6
CONTINUOUS
 10
328.567205103
 20
30.8510716431
 11
325.390491144
 21
30.8510716431
  0
LINE
  5
236
100
AcDbEntity
  8
0
100
AcDbLine
 62
7
  6
CONTINUOUS
 10
325.390491144
 20
30.8510716431
 11
325.390491144
 21
40.1172833779
  0
LINE
  5
237
100
AcDbEntity
  8
0
100
AcDbLine
 62
7
  6
CONTINUOUS
 10
340.3268173604
 20
40.1172833779
 11
339.0229998423
 21
40.1172833779
  0
LINE
  5
238
100
AcDbEntity
  8
0
100
AcDbLine
 62
7
  6
CONTINUOUS
 10
339.0229998423
 20
40.1172833779
 11
339.0229998423
 21
29.6582173181
  0
LINE
  5
239
100
AcDbEntity
  8
0
100
AcDbLine
 62
7
  6
CONTINUOUS
 10
339.0229998423
 20
29.6582173181
 11
343.5041855834
 21
29.6582173181
  0
LINE
  5
23A
100
AcDbEntity
  8
0
100
AcDbLine
 62
7
  6
CONTINUOUS
 10
343.5041855834
 20
29.6582173181
 11
343.5041855834
 21
30.8510716431
  0
LINE
  5
23B
100
AcDbEntity
  8
0
100
AcDbLine
 62
7
  6
CONTINUOUS
 10
343.5041855834
 20
30.8510716431
 11
340.3268173604
 21
30.8510716431
  0
LINE
  5
23C
100
AcDbEntity
  8
0
100
AcDbLine
 62
7
  6
CONTINUOUS
 10
340.3268173604
 20
30.8510716431
 11
340.3268173604
 21
40.1172833779
  0
LWPOLYLINE
  5
23D
100
AcDbEntity
  8
0
100
AcDbPolyline
 62
7
  6
CONTINUOUS
 90
2
 70
0
 43
0.2
 10
322.4405451256
 20
26.3146660112
 10
322.4405451256
 20
24.4576027618
  0
LWPOLYLINE
  5
23E
100
AcDbEntity
  8
0
100
AcDbPolyline
 62
7
  6
CONTINUOUS
 90
2
 70
0
 43
0.2
 10
322.4405451256
 20
24.4576027618
 10
323.236261136
 20
24.4576027618
  0
LWPOLYLINE
  5
23F
100
AcDbEntity
  8
0
100
AcDbPolyline
 62
7
  6
CONTINUOUS
 90
2
 70
0
 43
0.2
 10
323.236261136
 20
24.4576027618
 10
323.236261136
 20
24.6695843334
  0
LWPOLYLINE
  5
240
100
AcDbEntity
  8
0
100
AcDbPolyline
 62
7
  6
CONTINUOUS
 90
2
 70
0
 43
0.2
 10
323.236261136
 20
24.6695843334
 10
322.6721546205
 20
24.6695843334
  0
LWPOLYLINE
  5
241
100
AcDbEntity
  8
0
100
AcDbPolyline
 62
7
  6
CONTINUOUS
 90
2
 70
0
 43
0.2
 10
322.6721546205
 20
24.6695843334
 10
322.6721546205
 20
26.3146660112
  0
LWPOLYLINE
  5
242
100
AcDbEntity
  8
0
100
AcDbPolyline
 62
7
  6
CONTINUOUS
 90
2
 70
0
 43
0.2
 10
322.6721546205
 20
26.3146660112
 10
322.4405451256
 20
26.3146660112
  0
SPLINE
  5
243
100
AcDbEntity
  8
0
100
AcDbSpline
 62
7
  6
CONTINUOUS
 70
2
 71
3
 72
35
 73
31
 74
0
 42
0.0000001
 43
0.0000001
 44
0.0000000001
 40
0.0
 40
0.0
 40
0.0
 40
0.0
 40
1.0
 40
1.0
 40
1.0
 40
2.0
 40
2.0
 40
2.0
 40
3.0
 40
3.0
 40
3.0
 40
4.0
 40
4.0
 40
4.0
 40
5.0
 40
5.0
 40
5.0
 40
6.0
 40
6.0
 40
6.0
 40
7.0
 40
7.0
 40
7.0
 40
8.0
 40
8.0
 40
8.0
 40
9.0
 40
9.0
 40
9.0
 40
10.0
 40
10.0
 40
10.0
 40
10.0
 10
324.6345543915
 20
25.6101544177
 30
0.0
 10
324.6345543915
 20
25.6101544177
 30
0.0
 10
324.6345543915
 20
24.9480391385
 30
0.0
 10
324.6345543915
 20
24.9480391385
 30
0.0
 10
324.6345543915
 20
24.6329455432
 30
0.0
 10
324.7824180804
 20
24.4183469152
 30
0.0
 10
325.1225045647
 20
24.4183469152
 30
0.0
 10
325.4620676377
 20
24.4183469152
 30
0.0
 10
325.6101930321
 20
24.6329455432
 30
0.0
 10
325.6101930321
 20
24.9480391385
 30
0.0
 10
325.6101930321
 20
24.9480391385
 30
0.0
 10
325.6101930321
 20
25.6101544177
 30
0.0
 10
325.6101930321
 20
25.6101544177
 30
0.0
 10
325.6101930321
 20
25.6101544177
 30
0.0
 10
325.3881357933
 20
25.6101544177
 30
0.0
 10
325.3881357933
 20
25.6101544177
 30
0.0
 10
325.3881357933
 20
25.6101544177
 30
0.0
 10
325.3881357933
 20
24.9731628803
 30
0.0
 10
325.3881357933
 20
24.9731628803
 30
0.0
 10
325.3881357933
 20
24.7873518732
 30
0.0
 10
325.3414213358
 20
24.6245709626
 30
0.0
 10
325.1225045647
 20
24.6245709626
 30
0.0
 10
324.9030643822
 20
24.6245709626
 30
0.0
 10
324.8563499248
 20
24.7873518732
 30
0.0
 10
324.8563499248
 20
24.9731628803
 30
0.0
 10
324.8563499248
 20
24.9731628803
 30
0.0
 10
324.8563499248
 20
25.6101544177
 30
0.0
 10
324.8563499248
 20
25.6101544177
 30
0.0
 10
324.8563499248
 20
25.6101544177
 30
0.0
 10
324.6345543915
 20
25.6101544177
 30
0.0
 10
324.6345543915
 20
25.6101544177
 30
0.0
  0
SPLINE
  5
244
100
AcDbEntity
  8
0
100
AcDbSpline
 62
7
  6
CONTINUOUS
 70
2
 71
3
 72
35
 73
31
 74
0
 42
0.0000001
 43
0.0000001
 44
0.0000000001
 40
0.0
 40
0.0
 40
0.0
 40
0.0
 40
1.0
 40
1.0
 40
1.0
 40
2.0
 40
2.0
 40
2.0
 40
3.0
 40
3.0
 40
3.0
 40
4.0
 40
4.0
 40
4.0
 40
5.0
 40
5.0
 40
5.0
 40
6.0
 40
6.0
 40
6.0
 40
7.0
 40
7.0
 40
7.0
 40
8.0
 40
8.0
 40
8.0
 40
9.0
 40
9.0
 40
9.0
 40
10.0
 40
10.0
 40
10.0
 40
10.0
 10
328.0333255893
 20
25.5688049259
 30
0.0
 10
327.9448690817
 20
25.6200992322
 30
0.0
 10
327.831419685
 20
25.645222974
 30
0.0
 10
327.72778425
 20
25.645222974
 30
0.0
 10
327.3729113969
 20
25.645222974
 30
0.0
 10
327.0974662066
 20
25.3814236849
 30
0.0
 10
327.0974662066
 20
25.0239337753
 30
0.0
 10
327.0974662066
 20
24.6790057366
 30
0.0
 10
327.3759210118
 20
24.4188703265
 30
0.0
 10
327.7154840848
 20
24.4188703265
 30
0.0
 10
327.831419685
 20
24.4188703265
 30
0.0
 10
327.9321763579
 20
24.4408536006
 30
0.0
 10
328.0333255893
 20
24.4947649632
 30
0.0
 10
328.0333255893
 20
24.4947649632
 30
0.0
 10
328.0333255893
 20
24.7774070587
 30
0.0
 10
328.0333255893
 20
24.7774070587
 30
0.0
 10
327.9494489304
 20
24.6842398494
 30
0.0
 10
327.8459443483
 20
24.6250943739
 30
0.0
 10
327.7178394356
 20
24.6250943739
 30
0.0
 10
327.4841362955
 20
24.6250943739
 30
0.0
 10
327.3188691814
 20
24.7972966876
 30
0.0
 10
327.3188691814
 20
25.0338785897
 30
0.0
 10
327.3188691814
 20
25.2458601613
 30
0.0
 10
327.4866224991
 20
25.437952104
 30
0.0
 10
327.7034456251
 20
25.437952104
 30
0.0
 10
327.8362612394
 20
25.437952104
 30
0.0
 10
327.9448690817
 20
25.3840407413
 30
0.0
 10
328.0333255893
 20
25.2830223628
 30
0.0
 10
328.0333255893
 20
25.2830223628
 30
0.0
 10
328.0333255893
 20
25.5688049259
 30
0.0
 10
328.0333255893
 20
25.5688049259
 30
0.0
  0
SPLINE
  5
245
100
AcDbEntity
  8
0
100
AcDbSpline
 62
7
  6
CONTINUOUS
 70
2
 71
3
 72
32
 73
28
 74
0
 42
0.0000001
 43
0.0000001
 44
0.0000000001
 40
0.0
 40
0.0
 40
0.0
 40
0.0
 40
1.0
 40
1.0
 40
1.0
 40
2.0
 40
2.0
 40
2.0
 40
3.0
 40
3.0
 40
3.0
 40
4.0
 40
4.0
 40
4.0
 40
5.0
 40
5.0
 40
5.0
 40
6.0
 40
6.0
 40
6.0
 40
7.0
 40
7.0
 40
7.0
 40
8.0
 40
8.0
 40
8.0
 40
9.0
 40
9.0
 40
9.0
 40
9.0
 10
330.5651968416
 20
24.9972397996
 30
0.0
 10
330.5651968416
 20
24.9972397996
 30
0.0
 10
330.5651968416
 20
25.0312615333
 30
0.0
 10
330.5651968416
 20
25.0312615333
 30
0.0
 10
330.5651968416
 20
25.3735725156
 30
0.0
 10
330.3923402638
 20
25.645222974
 30
0.0
 10
330.0256906566
 20
25.645222974
 30
0.0
 10
329.6540686422
 20
25.645222974
 30
0.0
 10
329.4643320504
 20
25.3788066284
 30
0.0
 10
329.4643320504
 20
25.0239337753
 30
0.0
 10
329.4643320504
 20
24.6842398494
 30
0.0
 10
329.6784072671
 20
24.4183469152
 30
0.0
 10
330.030532211
 20
24.4183469152
 30
0.0
 10
330.2545522422
 20
24.4183469152
 30
0.0
 10
330.4567198522
 20
24.5340208098
 30
0.0
 10
330.5651968416
 20
24.7334405105
 30
0.0
 10
330.5651968416
 20
24.7334405105
 30
0.0
 10
330.3775538949
 20
24.8402164132
 30
0.0
 10
330.3775538949
 20
24.8402164132
 30
0.0
 10
330.2940697945
 20
24.7015124219
 30
0.0
 10
330.2028653775
 20
24.6156729707
 30
0.0
 10
330.0332801203
 20
24.6156729707
 30
0.0
 10
329.8212985487
 20
24.6156729707
 30
0.0
 10
329.6883520816
 20
24.8004371554
 30
0.0
 10
329.6859967308
 20
24.9972397996
 30
0.0
 10
329.6859967308
 20
24.9972397996
 30
0.0
 10
330.5651968416
 20
24.9972397996
 30
0.0
 10
330.5651968416
 20
24.9972397996
 30
0.0
  0
SPLINE
  5
246
100
AcDbEntity
  8
0
100
AcDbSpline
 62
7
  6
CONTINUOUS
 70
2
 71
3
 72
14
 73
10
 74
0
 42
0.0000001
 43
0.0000001
 44
0.0000000001
 40
0.0
 40
0.0
 40
0.0
 40
0.0
 40
1.0
 40
1.0
 40
1.0
 40
2.0
 40
2.0
 40
2.0
 40
3.0
 40
3.0
 40
3.0
 40
3.0
 10
329.6980351904
 20
25.1647314117
 30
0.0
 10
329.7256451358
 20
25.3296059674
 30
0.0
 10
329.8534883429
 20
25.45260762
 30
0.0
 10
330.0256906566
 20
25.45260762
 30
0.0
 10
330.2028653775
 20
25.45260762
 30
0.0
 10
330.3163147742
 20
25.3369337254
 30
0.0
 10
330.3435321612
 20
25.1647314117
 30
0.0
 10
330.3435321612
 20
25.1647314117
 30
0.0
 10
329.6980351904
 20
25.1647314117
 30
0.0
 10
329.6980351904
 20
25.1647314117
 30
0.0
  0
SPLINE
  5
247
100
AcDbEntity
  8
0
100
AcDbSpline
 62
7
  6
CONTINUOUS
 70
2
 71
3
 72
20
 73
16
 74
0
 42
0.0000001
 43
0.0000001
 44
0.0000000001
 40
0.0
 40
0.0
 40
0.0
 40
0.0
 40
1.0
 40
1.0
 40
1.0
 40
2.0
 40
2.0
 40
2.0
 40
3.0
 40
3.0
 40
3.0
 40
4.0
 40
4.0
 40
4.0
 40
5.0
 40
5.0
 40
5.0
 40
5.0
 10
332.5892282918
 20
25.3740959269
 30
0.0
 10
332.5892282918
 20
25.3740959269
 30
0.0
 10
333.0003678584
 20
24.8716210905
 30
0.0
 10
333.0003678584
 20
24.8716210905
 30
0.0
 10
332.8843014053
 20
24.7559471959
 30
0.0
 10
332.7465133838
 20
24.6256177852
 30
0.0
 10
332.5745727757
 20
24.6256177852
 30
0.0
 10
332.3971363491
 20
24.6256177852
 30
0.0
 10
332.229644737
 20
24.7899689296
 30
0.0
 10
332.229644737
 20
24.9668819449
 30
0.0
 10
332.229644737
 20
25.1448417828
 30
0.0
 10
332.4394018106
 20
25.2709839031
 30
0.0
 10
332.566983312
 20
25.3589169995
 30
0.0
 10
332.566983312
 20
25.3589169995
 30
0.0
 10
332.5892282918
 20
25.3740959269
 30
0.0
 10
332.5892282918
 20
25.3740959269
 30
0.0
  0
SPLINE
  5
248
100
AcDbEntity
  8
0
100
AcDbSpline
 62
7
  6
CONTINUOUS
 70
2
 71
3
 72
23
 73
19
 74
0
 42
0.0000001
 43
0.0000001
 44
0.0000000001
 40
0.0
 40
0.0
 40
0.0
 40
0.0
 40
1.0
 40
1.0
 40
1.0
 40
2.0
 40
2.0
 40
2.0
 40
3.0
 40
3.0
 40
3.0
 40
4.0
 40
4.0
 40
4.0
 40
5.0
 40
5.0
 40
5.0
 40
6.0
 40
6.0
 40
6.0
 40
6.0
 10
332.6385598056
 20
25.6651126029
 30
0.0
 10
332.6385598056
 20
25.6651126029
 30
0.0
 10
332.5769281265
 20
25.7436242961
 30
0.0
 10
332.5769281265
 20
25.7436242961
 30
0.0
 10
332.5230167639
 20
25.8121911748
 30
0.0
 10
332.4662266391
 20
25.8812814648
 30
0.0
 10
332.4662266391
 20
25.9749720853
 30
0.0
 10
332.4662266391
 20
26.0937864477
 30
0.0
 10
332.5621417576
 20
26.1712513183
 30
0.0
 10
332.6731049506
 20
26.1712513183
 30
0.0
 10
332.7963683089
 20
26.1712513183
 30
0.0
 10
332.889666371
 20
26.1000673831
 30
0.0
 10
332.889666371
 20
25.9697379725
 30
0.0
 10
332.889666371
 20
25.8346978602
 30
0.0
 10
332.7615614583
 20
25.7582798122
 30
0.0
 10
332.6680016906
 20
25.6844788206
 30
0.0
 10
332.6680016906
 20
25.6844788206
 30
0.0
 10
332.6385598056
 20
25.6651126029
 30
0.0
 10
332.6385598056
 20
25.6651126029
 30
0.0
  0
SPLINE
  5
249
100
AcDbEntity
  8
0
100
AcDbSpline
 62
7
  6
CONTINUOUS
 70
2
 71
3
 72
50
 73
46
 74
0
 42
0.0000001
 43
0.0000001
 44
0.0000000001
 40
0.0
 40
0.0
 40
0.0
 40
0.0
 40
1.0
 40
1.0
 40
1.0
 40
2.0
 40
2.0
 40
2.0
 40
3.0
 40
3.0
 40
3.0
 40
4.0
 40
4.0
 40
4.0
 40
5.0
 40
5.0
 40
5.0
 40
6.0
 40
6.0
 40
6.0
 40
7.0
 40
7.0
 40
7.0
 40
8.0
 40
8.0
 40
8.0
 40
9.0
 40
9.0
 40
9.0
 40
10.0
 40
10.0
 40
10.0
 40
11.0
 40
11.0
 40
11.0
 40
12.0
 40
12.0
 40
12.0
 40
13.0
 40
13.0
 40
13.0
 40
14.0
 40
14.0
 40
14.0
 40
15.0
 40
15.0
 40
15.0
 40
15.0
 10
333.3407160483
 20
24.4581261731
 30
0.0
 10
333.3407160483
 20
24.4581261731
 30
0.0
 10
333.626106053
 20
24.4581261731
 30
0.0
 10
333.626106053
 20
24.4581261731
 30
0.0
 10
333.626106053
 20
24.4581261731
 30
0.0
 10
333.2937398852
 20
24.8690040341
 30
0.0
 10
333.2937398852
 20
24.8690040341
 30
0.0
 10
333.2937398852
 20
24.8690040341
 30
0.0
 10
333.5202461201
 20
25.1348969683
 30
0.0
 10
333.5202461201
 20
25.1348969683
 30
0.0
 10
333.5202461201
 20
25.1348969683
 30
0.0
 10
333.3719898728
 20
25.2877330644
 30
0.0
 10
333.3719898728
 20
25.2877330644
 30
0.0
 10
333.3719898728
 20
25.2877330644
 30
0.0
 10
333.1560827165
 20
25.0364956462
 30
0.0
 10
333.1560827165
 20
25.0364956462
 30
0.0
 10
333.1560827165
 20
25.0364956462
 30
0.0
 10
332.7690200692
 20
25.5044253375
 30
0.0
 10
332.7690200692
 20
25.5044253375
 30
0.0
 10
332.9244732216
 20
25.6185289983
 30
0.0
 10
333.1067512026
 20
25.7582798122
 30
0.0
 10
333.1067512026
 20
25.9676443273
 30
0.0
 10
333.1067512026
 20
26.2115539874
 30
0.0
 10
332.9047144455
 20
26.3549686803
 30
0.0
 10
332.6782082107
 20
26.3549686803
 30
0.0
 10
332.4340368449
 20
26.3549686803
 30
0.0
 10
332.2496652188
 20
26.2042262294
 30
0.0
 10
332.2496652188
 20
25.9477546984
 30
0.0
 10
332.2496652188
 20
25.7902079007
 30
0.0
 10
332.3483282465
 20
25.652550732
 30
0.0
 10
332.4536647682
 20
25.541587539
 30
0.0
 10
332.4536647682
 20
25.541587539
 30
0.0
 10
332.3381217264
 20
25.4578417329
 30
0.0
 10
332.3381217264
 20
25.4578417329
 30
0.0
 10
332.1604235942
 20
25.3296059674
 30
0.0
 10
332.0130833166
 20
25.2018936131
 30
0.0
 10
332.0130833166
 20
24.9647882997
 30
0.0
 10
332.0130833166
 20
24.6444605916
 30
0.0
 10
332.2716484929
 20
24.4183469152
 30
0.0
 10
332.5820313866
 20
24.4183469152
 30
0.0
 10
332.8009481577
 20
24.4183469152
 30
0.0
 10
332.9981433604
 20
24.543442213
 30
0.0
 10
333.1384175856
 20
24.7093635913
 30
0.0
 10
333.1384175856
 20
24.7093635913
 30
0.0
 10
333.3407160483
 20
24.4581261731
 30
0.0
 10
333.3407160483
 20
24.4581261731
 30
0.0
  0
LWPOLYLINE
  5
24A
100
AcDbEntity
  8
0
100
AcDbPolyline
 62
7
  6
CONTINUOUS
 90
2
 70
0
 43
0.2
 10
335.276160138
 20
26.3146660112
 10
335.0448123488
 20
26.3146660112
  0
LWPOLYLINE
  5
24B
100
AcDbEntity
  8
0
100
AcDbPolyline
 62
7
  6
CONTINUOUS
 90
2
 70
0
 43
0.2
 10
335.0448123488
 20
26.3146660112
 10
335.0448123488
 20
24.4576027618
  0
LWPOLYLINE
  5
24C
100
AcDbEntity
  8
0
100
AcDbPolyline
 62
7
  6
CONTINUOUS
 90
2
 70
0
 43
0.2
 10
335.0448123488
 20
24.4576027618
 10
335.8401358007
 20
24.4576027618
  0
LWPOLYLINE
  5
24D
100
AcDbEntity
  8
0
100
AcDbPolyline
 62
7
  6
CONTINUOUS
 90
2
 70
0
 43
0.2
 10
335.8401358007
 20
24.4576027618
 10
335.8401358007
 20
24.6695843334
  0
LWPOLYLINE
  5
24E
100
AcDbEntity
  8
0
100
AcDbPolyline
 62
7
  6
CONTINUOUS
 90
2
 70
0
 43
0.2
 10
335.8401358007
 20
24.6695843334
 10
335.276160138
 20
24.6695843334
  0
LWPOLYLINE
  5
24F
100
AcDbEntity
  8
0
100
AcDbPolyline
 62
7
  6
CONTINUOUS
 90
2
 70
0
 43
0.2
 10
335.276160138
 20
24.6695843334
 10
335.276160138
 20
26.3146660112
  0
LWPOLYLINE
  5
250
100
AcDbEntity
  8
0
100
AcDbPolyline
 62
7
  6
CONTINUOUS
 90
2
 70
0
 43
0.2
 10
337.5192392122
 20
25.6101544177
 10
337.2980979431
 20
25.6101544177
  0
LWPOLYLINE
  5
251
100
AcDbEntity
  8
0
100
AcDbPolyline
 62
7
  6
CONTINUOUS
 90
2
 70
0
 43
0.2
 10
337.2980979431
 20
25.6101544177
 10
337.2980979431
 20
24.4581261731
  0
LWPOLYLINE
  5
252
100
AcDbEntity
  8
0
100
AcDbPolyline
 62
7
  6
CONTINUOUS
 90
2
 70
0
 43
0.2
 10
337.2980979431
 20
24.4581261731
 10
337.5192392122
 20
24.4581261731
  0
LWPOLYLINE
  5
253
100
AcDbEntity
  8
0
100
AcDbPolyline
 62
7
  6
CONTINUOUS
 90
2
 70
0
 43
0.2
 10
337.5192392122
 20
24.4581261731
 10
337.5192392122
 20
25.6101544177
  0
LWPOLYLINE
  5
254
100
AcDbEntity
  8
0
100
AcDbPolyline
 62
7
  6
CONTINUOUS
 90
2
 70
1
 43
0.2
 10
337.256215935
 20
26.1401083467
 42
1.0
 10
337.5613829259
 20
26.1401083467
 42
1.0
  0
SPLINE
  5
255
100
AcDbEntity
  8
0
100
AcDbSpline
 62
7
  6
CONTINUOUS
 70
2
 71
3
 72
17
 73
13
 74
0
 42
0.0000001
 43
0.0000001
 44
0.0000000001
 40
0.0
 40
0.0
 40
0.0
 40
0.0
 40
1.0
 40
1.0
 40
1.0
 40
2.0
 40
2.0
 40
2.0
 40
3.0
 40
3.0
 40
3.0
 40
4.0
 40
4.0
 40
4.0
 40
4.0
 10
339.6495231538
 20
24.6156729707
 30
0.0
 10
339.4155583082
 20
24.6156729707
 30
0.0
 10
339.2852288975
 20
24.8177097279
 30
0.0
 10
339.2852288975
 20
25.0338785897
 30
0.0
 10
339.2852288975
 20
25.2484772178
 30
0.0
 10
339.4210541267
 20
25.4473735072
 30
0.0
 10
339.6495231538
 20
25.4473735072
 30
0.0
 10
339.888983818
 20
25.4473735072
 30
0.0
 10
340.0245473416
 20
25.2584220322
 30
0.0
 10
340.0245473416
 20
25.0338785897
 30
0.0
 10
340.0245473416
 20
24.8077649134
 30
0.0
 10
339.8913391688
 20
24.6156729707
 30
0.0
 10
339.6495231538
 20
24.6156729707
 30
0.0
  0
SPLINE
  5
256
100
AcDbEntity
  8
0
100
AcDbSpline
 62
7
  6
CONTINUOUS
 70
2
 71
3
 72
50
 73
46
 74
0
 42
0.0000001
 43
0.0000001
 44
0.0000000001
 40
0.0
 40
0.0
 40
0.0
 40
0.0
 40
1.0
 40
1.0
 40
1.0
 40
2.0
 40
2.0
 40
2.0
 40
3.0
 40
3.0
 40
3.0
 40
4.0
 40
4.0
 40
4.0
 40
5.0
 40
5.0
 40
5.0
 40
6.0
 40
6.0
 40
6.0
 40
7.0
 40
7.0
 40
7.0
 40
8.0
 40
8.0
 40
8.0
 40
9.0
 40
9.0
 40
9.0
 40
10.0
 40
10.0
 40
10.0
 40
11.0
 40
11.0
 40
11.0
 40
12.0
 40
12.0
 40
12.0
 40
13.0
 40
13.0
 40
13.0
 40
14.0
 40
14.0
 40
14.0
 40
15.0
 40
15.0
 40
15.0
 40
15.0
 10
340.2336501511
 20
25.610677829
 30
0.0
 10
340.2336501511
 20
25.610677829
 30
0.0
 10
340.0119854707
 20
25.610677829
 30
0.0
 10
340.0119854707
 20
25.610677829
 30
0.0
 10
340.0119854707
 20
25.610677829
 30
0.0
 10
340.0119854707
 20
25.4133517734
 30
0.0
 10
340.0119854707
 20
25.4133517734
 30
0.0
 10
340.0119854707
 20
25.4133517734
 30
0.0
 10
340.0072747691
 20
25.4133517734
 30
0.0
 10
340.0072747691
 20
25.4133517734
 30
0.0
 10
339.9159394994
 20
25.556243055
 30
0.0
 10
339.778020625
 20
25.6446995627
 30
0.0
 10
339.6052949
 20
25.6446995627
 30
0.0
 10
339.2729287322
 20
25.6446995627
 30
0.0
 10
339.0638259227
 20
25.3568233544
 30
0.0
 10
339.0638259227
 20
25.0412063478
 30
0.0
 10
339.0638259227
 20
24.7114572364
 30
0.0
 10
339.2608902726
 20
24.4183469152
 30
0.0
 10
339.6157631258
 20
24.4183469152
 30
0.0
 10
339.778020625
 20
24.4183469152
 30
0.0
 10
339.9180331445
 20
24.5068034229
 30
0.0
 10
340.0072747691
 20
24.6376562448
 30
0.0
 10
340.0072747691
 20
24.6376562448
 30
0.0
 10
340.0119854707
 20
24.6376562448
 30
0.0
 10
340.0119854707
 20
24.6376562448
 30
0.0
 10
340.0119854707
 20
24.6376562448
 30
0.0
 10
340.0119854707
 20
24.4183469152
 30
0.0
 10
340.0119854707
 20
24.4183469152
 30
0.0
 10
340.0119854707
 20
24.1817650131
 30
0.0
 10
339.9554570516
 20
23.9949071833
 30
0.0
 10
339.6822363593
 20
23.9949071833
 30
0.0
 10
339.4799378966
 20
23.9949071833
 30
0.0
 10
339.3373083206
 20
24.1131981344
 30
0.0
 10
339.3373083206
 20
24.3194221818
 30
0.0
 10
339.3373083206
 20
24.3194221818
 30
0.0
 10
339.1156436402
 20
24.3194221818
 30
0.0
 10
339.1156436402
 20
24.3194221818
 30
0.0
 10
339.1206160475
 20
23.9949071833
 30
0.0
 10
339.351702131
 20
23.7981045391
 30
0.0
 10
339.6720298392
 20
23.7981045391
 30
0.0
 10
340.1200699016
 20
23.7981045391
 30
0.0
 10
340.2336501511
 20
24.083363691
 30
0.0
 10
340.2336501511
 20
24.4801094472
 30
0.0
 10
340.2336501511
 20
24.4801094472
 30
0.0
 10
340.2336501511
 20
25.610677829
 30
0.0
 10
340.2336501511
 20
25.610677829
 30
0.0
  0
SPLINE
  5
257
100
AcDbEntity
  8
0
100
AcDbSpline
 62
7
  6
CONTINUOUS
 70
2
 71
3
 72
44
 73
40
 74
0
 42
0.0000001
 43
0.0000001
 44
0.0000000001
 40
0.0
 40
0.0
 40
0.0
 40
0.0
 40
1.0
 40
1.0
 40
1.0
 40
2.0
 40
2.0
 40
2.0
 40
3.0
 40
3.0
 40
3.0
 40
4.0
 40
4.0
 40
4.0
 40
5.0
 40
5.0
 40
5.0
 40
6.0
 40
6.0
 40
6.0
 40
7.0
 40
7.0
 40
7.0
 40
8.0
 40
8.0
 40
8.0
 40
9.0
 40
9.0
 40
9.0
 40
10.0
 40
10.0
 40
10.0
 40
11.0
 40
11.0
 40
11.0
 40
12.0
 40
12.0
 40
12.0
 40
13.0
 40
13.0
 40
13.0
 40
13.0
 10
341.8025754865
 20
26.5957378727
 30
0.0
 10
341.8025754865
 20
26.5957378727
 30
0.0
 10
341.8025754865
 20
24.4576027618
 30
0.0
 10
341.8025754865
 20
24.4576027618
 30
0.0
 10
341.8025754865
 20
24.4576027618
 30
0.0
 10
342.0239784613
 20
24.4576027618
 30
0.0
 10
342.0239784613
 20
24.4576027618
 30
0.0
 10
342.0239784613
 20
24.4576027618
 30
0.0
 10
342.0239784613
 20
24.9872949851
 30
0.0
 10
342.0239784613
 20
24.9872949851
 30
0.0
 10
342.0239784613
 20
25.1971829116
 30
0.0
 10
342.0239784613
 20
25.4478969184
 30
0.0
 10
342.3092376132
 20
25.4478969184
 30
0.0
 10
342.5361364065
 20
25.4478969184
 30
0.0
 10
342.5630920878
 20
25.3149504513
 30
0.0
 10
342.5630920878
 20
25.1186712184
 30
0.0
 10
342.5630920878
 20
25.1186712184
 30
0.0
 10
342.5630920878
 20
24.4576027618
 30
0.0
 10
342.5630920878
 20
24.4576027618
 30
0.0
 10
342.5630920878
 20
24.4576027618
 30
0.0
 10
342.7850184738
 20
24.4576027618
 30
0.0
 10
342.7850184738
 20
24.4576027618
 30
0.0
 10
342.7850184738
 20
24.4576027618
 30
0.0
 10
342.7850184738
 20
25.1448417828
 30
0.0
 10
342.7850184738
 20
25.1448417828
 30
0.0
 10
342.7850184738
 20
25.4253902331
 30
0.0
 10
342.7010109621
 20
25.645222974
 30
0.0
 10
342.3759725524
 20
25.645222974
 30
0.0
 10
342.2362217385
 20
25.645222974
 30
0.0
 10
342.0980411585
 20
25.5787497404
 30
0.0
 10
342.0286891629
 20
25.4557480878
 30
0.0
 10
342.0286891629
 20
25.4557480878
 30
0.0
 10
342.0239784613
 20
25.4557480878
 30
0.0
 10
342.0239784613
 20
25.4557480878
 30
0.0
 10
342.0239784613
 20
25.4557480878
 30
0.0
 10
342.0239784613
 20
26.5957378727
 30
0.0
 10
342.0239784613
 20
26.5957378727
 30
0.0
 10
342.0239784613
 20
26.5957378727
 30
0.0
 10
341.8025754865
 20
26.5957378727
 30
0.0
 10
341.8025754865
 20
26.5957378727
 30
0.0
  0
LWPOLYLINE
  5
258
100
AcDbEntity
  8
0
100
AcDbPolyline
 62
7
  6
CONTINUOUS
 90
2
 70
0
 43
0.2
 10
344.6248091507
 20
25.403406959
 10
344.8412397182
 20
25.403406959
  0
LWPOLYLINE
  5
259
100
AcDbEntity
  8
0
100
AcDbPolyline
 62
7
  6
CONTINUOUS
 90
2
 70
0
 43
0.2
 10
344.8412397182
 20
25.403406959
 10
344.8412397182
 20
25.6101544177
  0
LWPOLYLINE
  5
25A
100
AcDbEntity
  8
0
100
AcDbPolyline
 62
7
  6
CONTINUOUS
 90
2
 70
0
 43
0.2
 10
344.8412397182
 20
25.6101544177
 10
344.6248091507
 20
25.6101544177
  0
LWPOLYLINE
  5
25B
100
AcDbEntity
  8
0
100
AcDbPolyline
 62
7
  6
CONTINUOUS
 90
2
 70
0
 43
0.2
 10
344.6248091507
 20
25.6101544177
 10
344.6248091507
 20
26.0508667221
  0
LWPOLYLINE
  5
25C
100
AcDbEntity
  8
0
100
AcDbPolyline
 62
7
  6
CONTINUOUS
 90
2
 70
0
 43
0.2
 10
344.6248091507
 20
26.0508667221
 10
344.4031444703
 20
26.0508667221
  0
LWPOLYLINE
  5
25D
100
AcDbEntity
  8
0
100
AcDbPolyline
 62
7
  6
CONTINUOUS
 90
2
 70
0
 43
0.2
 10
344.4031444703
 20
26.0508667221
 10
344.4031444703
 20
25.6101544177
  0
LWPOLYLINE
  5
25E
100
AcDbEntity
  8
0
100
AcDbPolyline
 62
7
  6
CONTINUOUS
 90
2
 70
0
 43
0.2
 10
344.4031444703
 20
25.6101544177
 10
344.2824981684
 20
25.6101544177
  0
LWPOLYLINE
  5
25F
100
AcDbEntity
  8
0
100
AcDbPolyline
 62
7
  6
CONTINUOUS
 90
2
 70
0
 43
0.2
 10
344.2824981684
 20
25.6101544177
 10
344.2824981684
 20
25.403406959
  0
LWPOLYLINE
  5
260
100
AcDbEntity
  8
0
100
AcDbPolyline
 62
7
  6
CONTINUOUS
 90
2
 70
0
 43
0.2
 10
344.2824981684
 20
25.403406959
 10
344.4031444703
 20
25.403406959
  0
LWPOLYLINE
  5
261
100
AcDbEntity
  8
0
100
AcDbPolyline
 62
7
  6
CONTINUOUS
 90
2
 70
0
 43
0.2
 10
344.4031444703
 20
25.403406959
 10
344.4031444703
 20
24.4576027618
  0
LWPOLYLINE
  5
262
100
AcDbEntity
  8
0
100
AcDbPolyline
 62
7
  6
CONTINUOUS
 90
2
 70
0
 43
0.2
 10
344.4031444703
 20
24.4576027618
 10
344.6248091507
 20
24.4576027618
  0
LWPOLYLINE
  5
263
100
AcDbEntity
  8
0
100
AcDbPolyline
 62
7
  6
CONTINUOUS
 90
2
 70
0
 43
0.2
 10
344.6248091507
 20
24.4576027618
 10
344.6248091507
 20
25.403406959
  0
SPLINE
  5
264
100
AcDbEntity
  8
0
100
AcDbSpline
 62
7
  6
CONTINUOUS
 70
2
 71
3
 72
20
 73
16
 74
0
 42
0.0000001
 43
0.0000001
 44
0.0000000001
 40
0.0
 40
0.0
 40
0.0
 40
0.0
 40
1.0
 40
1.0
 40
1.0
 40
2.0
 40
2.0
 40
2.0
 40
3.0
 40
3.0
 40
3.0
 40
4.0
 40
4.0
 40
4.0
 40
5.0
 40
5.0
 40
5.0
 40
5.0
 10
332.4068194579
 20
34.8185292052
 30
0.0
 10
332.4068194579
 20
34.8185292052
 30
0.0
 10
334.7231761124
 20
31.988967783
 30
0.0
 10
334.7231761124
 20
31.988967783
 30
0.0
 10
334.071529059
 20
31.3367973183
 30
0.0
 10
333.294655855
 20
30.6008810475
 30
0.0
 10
332.3234662104
 20
30.6008810475
 30
0.0
 10
331.3249283259
 20
30.6008810475
 30
0.0
 10
330.3816103324
 20
31.5304594948
 30
0.0
 10
330.3816103324
 20
32.5296516433
 30
0.0
 10
330.3816103324
 20
33.5288437919
 30
0.0
 10
331.5604634055
 20
34.2354490305
 30
0.0
 10
332.2819858658
 20
34.7353068104
 30
0.0
 10
332.2819858658
 20
34.7353068104
 30
0.0
 10
332.4068194579
 20
34.8185292052
 30
0.0
 10
332.4068194579
 20
34.8185292052
 30
0.0
  0
SPLINE
  5
265
100
AcDbEntity
  8
0
100
AcDbSpline
 62
7
  6
CONTINUOUS
 70
2
 71
3
 72
23
 73
19
 74
0
 42
0.0000001
 43
0.0000001
 44
0.0000000001
 40
0.0
 40
0.0
 40
0.0
 40
0.0
 40
1.0
 40
1.0
 40
1.0
 40
2.0
 40
2.0
 40
2.0
 40
3.0
 40
3.0
 40
3.0
 40
4.0
 40
4.0
 40
4.0
 40
5.0
 40
5.0
 40
5.0
 40
6.0
 40
6.0
 40
6.0
 40
6.0
 10
332.6842274405
 20
36.4562831249
 30
0.0
 10
332.6842274405
 20
36.4562831249
 30
0.0
 10
332.3377291679
 20
36.8996124858
 30
0.0
 10
332.3377291679
 20
36.8996124858
 30
0.0
 10
332.031926123
 20
37.2877219557
 30
0.0
 10
331.7130377959
 20
37.6762239841
 30
0.0
 10
331.7130377959
 20
38.2031682982
 30
0.0
 10
331.7130377959
 20
38.8693400148
 30
0.0
 10
332.2543759204
 20
39.3130619341
 30
0.0
 10
332.8782821755
 20
39.3130619341
 30
0.0
 10
333.5720638376
 20
39.3130619341
 30
0.0
 10
334.0992698573
 20
38.9108203594
 30
0.0
 10
334.0992698573
 20
38.1758200584
 30
0.0
 10
334.0992698573
 20
37.4125555479
 30
0.0
 10
333.3780091026
 20
36.9824423221
 30
0.0
 10
332.8509339357
 20
36.5667229067
 30
0.0
 10
332.8509339357
 20
36.5667229067
 30
0.0
 10
332.6842274405
 20
36.4562831249
 30
0.0
 10
332.6842274405
 20
36.4562831249
 30
0.0
  0
SPLINE
  5
266
100
AcDbEntity
  8
0
100
AcDbSpline
 62
7
  6
CONTINUOUS
 70
2
 71
3
 72
50
 73
46
 74
0
 42
0.0000001
 43
0.0000001
 44
0.0000000001
 40
0.0
 40
0.0
 40
0.0
 40
0.0
 40
1.0
 40
1.0
 40
1.0
 40
2.0
 40
2.0
 40
2.0
 40
3.0
 40
3.0
 40
3.0
 40
4.0
 40
4.0
 40
4.0
 40
5.0
 40
5.0
 40
5.0
 40
6.0
 40
6.0
 40
6.0
 40
7.0
 40
7.0
 40
7.0
 40
8.0
 40
8.0
 40
8.0
 40
9.0
 40
9.0
 40
9.0
 40
10.0
 40
10.0
 40
10.0
 40
11.0
 40
11.0
 40
11.0
 40
12.0
 40
12.0
 40
12.0
 40
13.0
 40
13.0
 40
13.0
 40
14.0
 40
14.0
 40
14.0
 40
15.0
 40
15.0
 40
15.0
 40
15.0
 10
336.6378146034
 20
29.6576939068
 30
0.0
 10
336.6378146034
 20
29.6576939068
 30
0.0
 10
338.247042608
 20
29.6576939068
 30
0.0
 10
338.247042608
 20
29.6576939068
 30
0.0
 10
338.247042608
 20
29.6576939068
 30
0.0
 10
336.3740153144
 20
31.9748356782
 30
0.0
 10
336.3740153144
 20
31.9748356782
 30
0.0
 10
336.3740153144
 20
31.9748356782
 30
0.0
 10
337.6503537398
 20
33.4723153728
 30
0.0
 10
337.6503537398
 20
33.4723153728
 30
0.0
 10
337.6503537398
 20
33.4723153728
 30
0.0
 10
336.8181297921
 20
34.3333269413
 30
0.0
 10
336.8181297921
 20
34.3333269413
 30
0.0
 10
336.8181297921
 20
34.3333269413
 30
0.0
 10
335.5975346688
 20
32.9180228189
 30
0.0
 10
335.5975346688
 20
32.9180228189
 30
0.0
 10
335.5975346688
 20
32.9180228189
 30
0.0
 10
333.4196203
 20
35.5533986534
 30
0.0
 10
333.4196203
 20
35.5533986534
 30
0.0
 10
334.2931937394
 20
36.1914370133
 30
0.0
 10
335.3198649806
 20
36.9824423221
 30
0.0
 10
335.3198649806
 20
38.1612953952
 30
0.0
 10
335.3198649806
 20
39.5349883202
 30
0.0
 10
334.1819688408
 20
40.3394714696
 30
0.0
 10
332.9066772379
 20
40.3394714696
 30
0.0
 10
331.5332460185
 20
40.3394714696
 30
0.0
 10
330.4923118197
 20
39.49324627
 30
0.0
 10
330.4923118197
 20
38.0505939078
 30
0.0
 10
330.4923118197
 20
37.1630192164
 30
0.0
 10
331.0476511962
 20
36.3861460124
 30
0.0
 10
331.6438166531
 20
35.7617163459
 30
0.0
 10
331.6438166531
 20
35.7617163459
 30
0.0
 10
330.991907894
 20
35.2901227756
 30
0.0
 10
330.991907894
 20
35.2901227756
 30
0.0
 10
329.9933700096
 20
34.5688620209
 30
0.0
 10
329.1604917978
 20
33.8476012662
 30
0.0
 10
329.1604917978
 20
32.5160429498
 30
0.0
 10
329.1604917978
 20
30.7123676518
 30
0.0
 10
330.6175379704
 20
29.4357675207
 30
0.0
 10
332.3650774077
 20
29.4357675207
 30
0.0
 10
333.5999354886
 20
29.4357675207
 30
0.0
 10
334.7093057133
 20
30.1439429932
 30
0.0
 10
335.5001801693
 20
31.0724746179
 30
0.0
 10
335.5001801693
 20
31.0724746179
 30
0.0
 10
336.6378146034
 20
29.6576939068
 30
0.0
 10
336.6378146034
 20
29.6576939068
 30
0.0
  0
LINE
  5
267
100
AcDbEntity
  8
0
100
AcDbLine
 62
7
  6
CONTINUOUS
 10
322.4406759784
 20
27.6315688114
 11
344.8545867061
 21
27.6315688114
  0
LINE
  5
268
100
AcDbEntity
  8
0
100
AcDbLine
 62
7
  6
CONTINUOUS
 10
344.8545867061
 20
27.6315688114
 11
344.8545867061
 21
50.0454795391
  0
LINE
  5
269
100
AcDbEntity
  8
0
100
AcDbLine
 62
7
  6
CONTINUOUS
 10
344.8545867061
 20
50.0454795391
 11
322.4406759784
 21
50.0454795391
  0
LINE
  5
26A
100
AcDbEntity
  8
0
100
AcDbLine
 62
7
  6
CONTINUOUS
 10
322.4406759784
 20
50.0454795391
 11
322.4406759784
 21
27.6315688114
  0
ENDBLK
  5
26B
100
AcDbEntity
  8
0
  6
BYBLOCK
 62
0
100
AcDbBlockEnd
  0
BLOCK
  5
26C
100
AcDbEntity
  8
0
100
AcDbBlockBegin
  2
_CLOSED
 70
64
 10
0.0
 20
0.0
  3
_CLOSED
  1

  0
LINE
  5
26D
100
AcDbEntity
  8
0
  6
BYBLOCK
 62
0
100
AcDbLine
 10
0.0
 20
0.0
 11
-1.0
 21
0.2
  0
LINE
  5
26E
100
AcDbEntity
  8
0
  6
BYBLOCK
 62
0
100
AcDbLine
 10
-1.0
 20
0.2
 11
-1.0
 21
-0.2
  0
LINE
  5
26F
100
AcDbEntity
  8
0
  6
BYBLOCK
 62
0
100
AcDbLine
 10
-1.0
 20
-0.2
 11
0.0
 21
0.0
  0
LINE
  5
270
100
AcDbEntity
  8
0
  6
BYBLOCK
 62
0
100
AcDbLine
 10
-1.0
 20
0.0
 11
0.0
 21
0.0
  0
ENDBLK
  5
271
100
AcDbEntity
  8
0
  6
BYBLOCK
 62
0
100
AcDbBlockEnd
  0
BLOCK
  5
272
100
AcDbEntity
  8
0
100
AcDbBlockBegin
 62
2
  6
CONTINUOUS
  2
*D0
 70
65
 10
0.0
 20
0.0
  3
*D0
  1

  0
MTEXT
  5
273
100
AcDbEntity
  8
0
100
AcDbMText
 62
2
  6
CONTINUOUS
  7
TEXTSTYLE_2
 71
1
 72
1
 10
146.672667158
 20
117.8469457232
 30
0.0
 11
0.8598887993
 21
0.5104813932
 31
0.0
  1
{\Fgdt;n}\Farial.ttf;72
 40
3.0
 41
8.6617100372
  0
LINE
  5
274
100
AcDbEntity
  8
0
100
AcDbLine
 62
2
  6
CONTINUOUS
 10
139.748231202
 20
109.3751576035
 11
156.0350798264
 21
119.0440045334
  0
INSERT
  5
275
100
AcDbEntity
  8
0
100
AcDbBlockReference
 62
2
  6
CONTINUOUS
  2
_CLOSED
 10
139.748231202
 20
109.3751576035
 41
2.5
 42
2.5
 43
2.5
 50
210.6959004241
  0
ENDBLK
  5
276
100
AcDbEntity
  8
0
  6
BYBLOCK
 62
0
100
AcDbBlockEnd
  0
BLOCK
  5
277
100
AcDbEntity
  8
0
100
AcDbBlockBegin
 62
2
  6
CONTINUOUS
  2
*D1
 70
65
 10
0.0
 20
0.0
  3
*D1
  1

  0
MTEXT
  5
278
100
AcDbEntity
  8
0
100
AcDbMText
 62
2
  6
CONTINUOUS
  7
STANDARD
 71
2
 72
1
 10
51.0732041179
 20
215.0093680478
 30
0.0
 11
0.0
 21
1.0
 31
0.0
  1
73
 40
3.0
 41
4.6617100372
  0
LINE
  5
279
100
AcDbEntity
  8
0
100
AcDbLine
 62
2
  6
CONTINUOUS
 10
69.1515870412
 20
251.5093680478
 11
54.0732041179
 21
251.5093680478
  0
LINE
  5
27A
100
AcDbEntity
  8
0
100
AcDbLine
 62
2
  6
CONTINUOUS
 10
69.505544772
 20
178.5093680478
 11
54.0732041179
 21
178.5093680478
  0
LINE
  5
27B
100
AcDbEntity
  8
0
100
AcDbLine
 62
2
  6
CONTINUOUS
 10
54.8232041179
 20
251.5093680478
 11
54.8232041179
 21
215.0093680478
  0
LINE
  5
27C
100
AcDbEntity
  8
0
100
AcDbLine
 62
2
  6
CONTINUOUS
 10
54.8232041179
 20
178.5093680478
 11
54.8232041179
 21
215.0093680478
  0
INSERT
  5
27D
100
AcDbEntity
  8
0
100
AcDbBlockReference
 62
2
  6
CONTINUOUS
  2
_CLOSED
 10
54.8232041179
 20
251.5093680478
 41
2.5
 42
2.5
 43
2.5
 50
90.0
  0
INSERT
  5
27E
100
AcDbEntity
  8
0
100
AcDbBlockReference
 62
2
  6
CONTINUOUS
  2
_CLOSED
 10
54.8232041179
 20
178.5093680478
 41
2.5
 42
2.5
 43
2.5
 50
270.0
  0
ENDBLK
  5
27F
100
AcDbEntity
  8
0
  6
BYBLOCK
 62
0
100
AcDbBlockEnd
  0
BLOCK
  5
280
100
AcDbEntity
  8
0
100
AcDbBlockBegin
 62
2
  6
CONTINUOUS
  2
*D2
 70
65
 10
0.0
 20
0.0
  3
*D2
  1

  0
MTEXT
  5
281
100
AcDbEntity
  8
0
100
AcDbMText
 62
2
  6
CONTINUOUS
  7
STANDARD
 71
2
 72
1
 10
158.5428407453
 20
246.0093680478
 30
0.0
 11
0.0
 21
1.0
 31
0.0
  1
11
 40
3.0
 41
4.6617100372
  0
LINE
  5
282
100
AcDbEntity
  8
0
100
AcDbLine
 62
2
  6
CONTINUOUS
 10
149.4817994966
 20
251.5093680478
 11
163.0428407453
 21
251.5093680478
  0
LINE
  5
283
100
AcDbEntity
  8
0
100
AcDbLine
 62
2
  6
CONTINUOUS
 10
149.4817994966
 20
240.5093680478
 11
163.0428407453
 21
240.5093680478
  0
LINE
  5
284
100
AcDbEntity
  8
0
100
AcDbLine
 62
2
  6
CONTINUOUS
 10
162.2928407453
 20
251.5093680478
 11
162.2928407453
 21
252.5093680478
  0
LINE
  5
285
100
AcDbEntity
  8
0
100
AcDbLine
 62
2
  6
CONTINUOUS
 10
162.2928407453
 20
252.5093680478
 11
162.2928407453
 21
246.0093680478
  0
LINE
  5
286
100
AcDbEntity
  8
0
100
AcDbLine
 62
2
  6
CONTINUOUS
 10
162.2928407453
 20
240.5093680478
 11
162.2928407453
 21
239.5093680478
  0
LINE
  5
287
100
AcDbEntity
  8
0
100
AcDbLine
 62
2
  6
CONTINUOUS
 10
162.2928407453
 20
239.5093680478
 11
162.2928407453
 21
246.0093680478
  0
INSERT
  5
288
100
AcDbEntity
  8
0
100
AcDbBlockReference
 62
2
  6
CONTINUOUS
  2
_CLOSED
 10
162.2928407453
 20
251.5093680478
 41
2.5
 42
2.5
 43
2.5
 50
270.0
  0
INSERT
  5
289
100
AcDbEntity
  8
0
100
AcDbBlockReference
 62
2
  6
CONTINUOUS
  2
_CLOSED
 10
162.2928407453
 20
240.5093680478
 41
2.5
 42
2.5
 43
2.5
 50
90.0
  0
ENDBLK
  5
28A
100
AcDbEntity
  8
0
  6
BYBLOCK
 62
0
100
AcDbBlockEnd
  0
BLOCK
  5
28B
100
AcDbEntity
  8
0
100
AcDbBlockBegin
 62
2
  6
CONTINUOUS
  2
*D3
 70
65
 10
0.0
 20
0.0
  3
*D3
  1

  0
MTEXT
  5
28C
100
AcDbEntity
  8
0
100
AcDbMText
 62
2
  6
CONTINUOUS
  7
STANDARD
 71
2
 72
1
 10
158.5428407453
 20
217.5093680478
 30
0.0
 11
0.0
 21
1.0
 31
0.0
  1
46
 40
3.0
 41
4.6617100372
  0
LINE
  5
28D
100
AcDbEntity
  8
0
100
AcDbLine
 62
2
  6
CONTINUOUS
 10
149.4817994966
 20
240.5093680478
 11
163.0428407453
 21
240.5093680478
  0
LINE
  5
28E
100
AcDbEntity
  8
0
100
AcDbLine
 62
2
  6
CONTINUOUS
 10
149.4902299778
 20
194.5093680478
 11
163.0428407453
 21
194.5093680478
  0
LINE
  5
28F
100
AcDbEntity
  8
0
100
AcDbLine
 62
2
  6
CONTINUOUS
 10
162.2928407453
 20
240.5093680478
 11
162.2928407453
 21
217.5093680478
  0
LINE
  5
290
100
AcDbEntity
  8
0
100
AcDbLine
 62
2
  6
CONTINUOUS
 10
162.2928407453
 20
194.5093680478
 11
162.2928407453
 21
217.5093680478
  0
INSERT
  5
291
100
AcDbEntity
  8
0
100
AcDbBlockReference
 62
2
  6
CONTINUOUS
  2
_CLOSED
 10
162.2928407453
 20
240.5093680478
 41
2.5
 42
2.5
 43
2.5
 50
90.0
  0
INSERT
  5
292
100
AcDbEntity
  8
0
100
AcDbBlockReference
 62
2
  6
CONTINUOUS
  2
_CLOSED
 10
162.2928407453
 20
194.5093680478
 41
2.5
 42
2.5
 43
2.5
 50
270.0
  0
ENDBLK
  5
293
100
AcDbEntity
  8
0
  6
BYBLOCK
 62
0
100
AcDbBlockEnd
  0
BLOCK
  5
294
100
AcDbEntity
  8
0
100
AcDbBlockBegin
 62
2
  6
CONTINUOUS
  2
*D4
 70
65
 10
0.0
 20
0.0
  3
*D4
  1

  0
MTEXT
  5
295
100
AcDbEntity
  8
0
100
AcDbMText
 62
2
  6
CONTINUOUS
  7
TEXTSTYLE_2
 71
2
 72
1
 10
108.7922344271
 20
168.3320889848
 30
0.0
 11
1.0
 21
0.0
 31
0.0
  1
{\Fgdt;n}\Farial.ttf;58
 40
3.0
 41
8.6617100372
  0
LINE
  5
296
100
AcDbEntity
  8
0
100
AcDbLine
 62
2
  6
CONTINUOUS
 10
79.7922344271
 20
176.805082842
 11
79.7922344271
 21
163.8320889848
  0
LINE
  5
297
100
AcDbEntity
  8
0
100
AcDbLine
 62
2
  6
CONTINUOUS
 10
137.7922344271
 20
178.2259255562
 11
137.7922344271
 21
163.8320889848
  0
LINE
  5
298
100
AcDbEntity
  8
0
100
AcDbLine
 62
2
  6
CONTINUOUS
 10
79.7922344271
 20
164.5820889848
 11
108.7922344271
 21
164.5820889848
  0
LINE
  5
299
100
AcDbEntity
  8
0
100
AcDbLine
 62
2
  6
CONTINUOUS
 10
137.7922344271
 20
164.5820889848
 11
108.7922344271
 21
164.5820889848
  0
INSERT
  5
29A
100
AcDbEntity
  8
0
100
AcDbBlockReference
 62
2
  6
CONTINUOUS
  2
_CLOSED
 10
79.7922344271
 20
164.5820889848
 41
2.5
 42
2.5
 43
2.5
 50
180.0
  0
INSERT
  5
29B
100
AcDbEntity
  8
0
100
AcDbBlockReference
 62
2
  6
CONTINUOUS
  2
_CLOSED
 10
137.7922344271
 20
164.5820889848
 41
2.5
 42
2.5
 43
2.5
  0
ENDBLK
  5
29C
100
AcDbEntity
  8
0
  6
BYBLOCK
 62
0
100
AcDbBlockEnd
  0
ENDSEC
  0
SECTION
  2
ENTITIES
  0
DIMENSION
  5
29D
100
AcDbEntity
  8
0
100
AcDbDimension
 62
2
  6
CONTINUOUS
  2
*D0
 10
139.748231202
 20
109.3751576035
 11
151.1624429698
 21
118.767933428
 70
163
  1
%%c<>
  3
DIMSTYLE_1
100
AcDbDiametricDimension
 15
77.8362376523
 25
72.6204972908
  0
DIMENSION
  5
29E
100
AcDbEntity
  8
0
100
AcDbDimension
 62
2
  6
CONTINUOUS
  2
*D1
 10
54.8232041179
 20
178.5093680478
 11
54.8232041179
 21
215.0124733706
 70
160
  3
DIMSTYLE_2
100
AcDbAlignedDimension
 13
69.9015870412
 23
251.5093680478
 14
70.255544772
 24
178.5093680478
 50
270.0
100
AcDbRotatedDimension
  0
DIMENSION
  5
29F
100
AcDbEntity
  8
0
100
AcDbDimension
 62
2
  6
CONTINUOUS
  2
*D2
 10
162.2928407453
 20
240.5093680478
 11
162.2928407453
 21
245.8507635315
 70
160
  3
DIMSTYLE_3
100
AcDbAlignedDimension
 13
148.7317994966
 23
251.5093680478
 14
148.7317994966
 24
240.5093680478
 50
270.0
100
AcDbRotatedDimension
  0
DIMENSION
  5
2A0
100
AcDbEntity
  8
0
100
AcDbDimension
 62
2
  6
CONTINUOUS
  2
*D3
 10
162.2928407453
 20
194.5093680478
 11
162.2928407453
 21
217.4344097718
 70
160
  3
DIMSTYLE_2
100
AcDbAlignedDimension
 13
148.7317994966
 23
240.5093680478
 14
148.7402299778
 24
194.5093680478
 50
270.0
100
AcDbRotatedDimension
  0
DIMENSION
  5
2A1
100
AcDbEntity
  8
0
100
AcDbDimension
 62
2
  6
CONTINUOUS
  2
*D4
 10
137.7922344271
 20
164.5820889848
 11
108.7922344271
 21
164.5820889848
 70
160
  1
%%c<>
  3
DIMSTYLE_2
100
AcDbAlignedDimension
 13
79.7922344271
 23
177.555082842
 14
137.7922344271
 24
178.9759255562
100
AcDbRotatedDimension
  0
LINE
  5
2A2
100
AcDbEntity
  8
0
100
AcDbLine
 62
2
  6
CONTINUOUS
 10
319.8215188711
 20
50.4217920391
 11
409.8215188711
 21
50.4217920391
  0
LINE
  5
2A3
100
AcDbEntity
  8
0
100
AcDbLine
 62
2
  6
CONTINUOUS
 10
319.8215188711
 20
50.4217920391
 11
319.8215188711
 21
10.4217920391
  0
LINE
  5
2A4
100
AcDbEntity
  8
0
100
AcDbLine
 62
2
  6
CONTINUOUS
 10
349.8215188711
 20
44.4217920391
 11
409.8215188711
 21
44.4217920391
  0
LINE
  5
2A5
100
AcDbEntity
  8
0
100
AcDbLine
 62
2
  6
CONTINUOUS
 10
349.8215188711
 20
38.4217920391
 11
409.8215188711
 21
38.4217920391
  0
LINE
  5
2A6
100
AcDbEntity
  8
0
100
AcDbLine
 62
2
  6
CONTINUOUS
 10
349.8215188711
 20
28.4217920391
 11
409.8215188711
 21
28.4217920391
  0
LINE
  5
2A7
100
AcDbEntity
  8
0
100
AcDbLine
 62
2
  6
CONTINUOUS
 10
319.8215188711
 20
23.4217920391
 11
409.8215188711
 21
23.4217920391
  0
LINE
  5
2A8
100
AcDbEntity
  8
0
100
AcDbLine
 62
2
  6
CONTINUOUS
 10
319.8215188711
 20
10.4217920391
 11
409.8215188711
 21
10.4217920391
  0
LINE
  5
2A9
100
AcDbEntity
  8
0
100
AcDbLine
 62
2
  6
CONTINUOUS
 10
349.8215188711
 20
50.4217920391
 11
349.8215188711
 21
23.4217920391
  0
LINE
  5
2AA
100
AcDbEntity
  8
0
100
AcDbLine
 62
2
  6
CONTINUOUS
 10
389.8215188711
 20
50.4217920391
 11
389.8215188711
 21
38.4217920391
  0
LINE
  5
2AB
100
AcDbEntity
  8
0
100
AcDbLine
 62
2
  6
CONTINUOUS
 10
409.8215188711
 20
50.4217920391
 11
409.8215188711
 21
10.4217920391
  0
INSERT
  5
2AC
100
AcDbEntity
  8
0
100
AcDbBlockReference
 62
2
  6
CONTINUOUS
  2
LOGO2_BL0
 10
333.6475659158
 20
36.9217920391
  0
MTEXT
  5
2AD
100
AcDbEntity
  8
9_SOLID
100
AcDbMText
 62
2
  6
CONTINUOUS
  7
TEXTSTYLE_3
 71
1
 72
1
 10
351.3090188711
 20
48.9217920391
 30
0.0
 11
1.0
 21
0.0
 31
0.0
  1
2F4_C_001
 40
3.0
 41
31.6071428571
  0
MTEXT
  5
2AE
100
AcDbEntity
  8
0
100
AcDbMText
 62
2
  6
CONTINUOUS
  7
TEXTSTYLE_3
 71
1
 72
1
 10
391.3090188711
 20
49.1717920391
 30
0.0
 11
1.0
 21
0.0
 31
0.0
  1
Rev:00
 40
3.5
 41
22.75
  0
MTEXT
  5
2AF
100
AcDbEntity
  8
9_SOLID
100
AcDbMText
 62
2
  6
CONTINUOUS
  7
TEXTSTYLE_3
 71
1
 72
1
 10
351.3090188711
 20
42.6717920391
 30
0.0
 11
1.0
 21
0.0
 31
0.0
  1
Scale:1:1
 40
3.5
 41
28.375
  0
MTEXT
  5
2B0
100
AcDbEntity
  8
9_SOLID
100
AcDbMText
 62
2
  6
CONTINUOUS
  7
TEXTSTYLE_3
 71
1
 72
1
 10
391.3090188711
 20
43.1717920391
 30
0.0
 11
1.0
 21
0.0
 31
0.0
  1
A3
 40
3.5
 41
9.25
  0
MTEXT
  5
2B1
100
AcDbEntity
  8
0
100
AcDbMText
 62
2
  6
CONTINUOUS
  7
TEXTSTYLE_3
 71
1
 72
1
 10
351.3090188711
 20
35.1717920391
 30
0.0
 11
1.0
 21
0.0
 31
0.0
  1
LITUS 2.8
 40
3.5
 41
35.875
  0
MTEXT
  5
2B2
100
AcDbEntity
  8
0
100
AcDbMText
 62
2
  6
CONTINUOUS
  7
TEXTSTYLE_3
 71
1
 72
1
 10
351.3090188711
 20
27.1717920391
 30
0.0
 11
1.0
 21
0.0
 31
0.0
  1
DATE:06/07/2018
 40
2.5
 41
43.0357142857
  0
MTEXT
  5
2B3
100
AcDbEntity
  8
9_SOLID
100
AcDbMText
 62
2
  6
CONTINUOUS
  7
TEXTSTYLE_3
 71
1
 72
1
 10
321.3090188711
 20
23.1092920391
 30
0.0
 11
1.0
 21
0.0
 31
0.0
  1
Any integral or partial reproductions are prohibited \Pwithout prior authorisation of L {\Ftxt.shx;\W0.190476;\H2.250000; }& L Luce & Light s.r.l., \Pin accordance with the law in force. \PAll rights reserved.
 40
2.25
 41
134.5982142857
  0
LINE
  5
2B4
100
AcDbEntity
  8
0
100
AcDbLine
 62
7
  6
CONTINUOUS
 10
0.0
 20
0.0
 11
0.0
 21
297.0
  0
LINE
  5
2B5
100
AcDbEntity
  8
0
100
AcDbLine
 62
7
  6
CONTINUOUS
 10
0.0
 20
0.0
 11
420.0
 21
0.0
  0
LINE
  5
2B6
100
AcDbEntity
  8
0
100
AcDbLine
 62
7
  6
CONTINUOUS
 10
0.0
 20
297.0
 11
420.0
 21
297.0
  0
LINE
  5
2B7
100
AcDbEntity
  8
0
100
AcDbLine
 62
7
  6
CONTINUOUS
 10
420.0
 20
0.0
 11
420.0
 21
297.0
  0
LINE
  5
2B8
100
AcDbEntity
  8
7_ALL_FEATURES
100
AcDbLine
 62
7
  6
CONTINUOUS
 10
73.2922344271
 20
251.5093680478
 11
72.7922344271
 21
251.0093680478
  0
LINE
  5
2B9
100
AcDbEntity
  8
7_ALL_FEATURES
100
AcDbLine
 62
7
  6
CONTINUOUS
 10
73.2922344274
 20
244.4093680481
 11
72.7922344274
 21
243.9093680481
  0
LINE
  5
2BA
100
AcDbEntity
  8
7_ALL_FEATURES
100
AcDbLine
 62
7
  6
CONTINUOUS
 10
72.7922344271
 20
251.0093680478
 11
72.7922344271
 21
246.0093680478
  0
LINE
  5
2BB
100
AcDbEntity
  8
7_ALL_FEATURES
100
AcDbLine
 62
7
  6
CONTINUOUS
 10
72.7922344271
 20
241.7593680478
 11
72.7922344271
 21
243.9093680478
  0
LINE
  5
2BC
100
AcDbEntity
  8
7_ALL_FEATURES
100
AcDbLine
 62
7
  6
CONTINUOUS
 10
73.2922344271
 20
244.4093680478
 11
73.2922344271
 21
245.5093680478
  0
LINE
  5
2BD
100
AcDbEntity
  8
7_ALL_FEATURES
100
AcDbLine
 62
7
  6
CONTINUOUS
 10
105.2922344271
 20
178.5093680478
 11
112.2922344271
 21
178.5093680478
  0
LINE
  5
2BE
100
AcDbEntity
  8
7_ALL_FEATURES
100
AcDbLine
 62
7
  6
CONTINUOUS
 10
80.7922344271
 20
194.5093680478
 11
79.7922344271
 21
195.5093680478
  0
LINE
  5
2BF
100
AcDbEntity
  8
3_ALL_AXES
100
AcDbLine
 62
9
  6
CONTINUOUS
 10
115.7922344271
 20
182.0093680478
 11
115.2922344271
 21
182.0093680478
  0
LINE
  5
2C0
100
AcDbEntity
  8
3_ALL_AXES
100
AcDbLine
 62
9
  6
CONTINUOUS
 10
114.2922344271
 20
182.0093680478
 11
109.7922344271
 21
182.0093680478
  0
LINE
  5
2C1
100
AcDbEntity
  8
3_ALL_AXES
100
AcDbLine
 62
9
  6
CONTINUOUS
 10
107.7922344271
 20
182.0093680478
 11
103.2922344271
 21
182.0093680478
  0
LINE
  5
2C2
100
AcDbEntity
  8
3_ALL_AXES
100
AcDbLine
 62
9
  6
CONTINUOUS
 10
102.2922344271
 20
182.0093680478
 11
101.7922344271
 21
182.0093680478
  0
LINE
  5
2C3
100
AcDbEntity
  8
3_ALL_AXES
100
AcDbLine
 62
7
  6
CONTINUOUS
 10
114.2922344271
 20
182.5093680478
 11
109.7922344271
 21
182.5093680478
  0
LINE
  5
2C4
100
AcDbEntity
  8
3_ALL_AXES
100
AcDbLine
 62
7
  6
CONTINUOUS
 10
107.7922344271
 20
182.5093680478
 11
103.2922344271
 21
182.5093680478
  0
LINE
  5
2C5
100
AcDbEntity
  8
3_ALL_AXES
100
AcDbLine
 62
7
  6
CONTINUOUS
 10
101.7922344271
 20
182.5093680478
 11
102.2922344271
 21
182.5093680478
  0
LINE
  5
2C6
100
AcDbEntity
  8
3_ALL_AXES
100
AcDbLine
 62
7
  6
CONTINUOUS
 10
115.2922344271
 20
182.5093680478
 11
115.7922344271
 21
182.5093680478
  0
LINE
  5
2C7
100
AcDbEntity
  8
7_ALL_FEATURES
100
AcDbLine
 62
7
  6
CONTINUOUS
 10
79.7922344271
 20
195.5093680478
 11
79.7922344271
 21
240.0093680478
  0
LINE
  5
2C8
100
AcDbEntity
  8
3_ALL_AXES
100
AcDbLine
 62
7
  6
CONTINUOUS
 10
116.7922344271
 20
188.0093680478
 11
100.7922344271
 21
188.0093680478
  0
LINE
  5
2C9
100
AcDbEntity
  8
3_ALL_AXES
100
AcDbLine
 62
7
  6
CONTINUOUS
 10
101.7922344271
 20
182.5093680478
 11
100.7922344271
 21
183.5093680478
  0
LINE
  5
2CA
100
AcDbEntity
  8
3_ALL_AXES
100
AcDbLine
 62
7
  6
CONTINUOUS
 10
116.7922344271
 20
191.0093680478
 11
100.7922344271
 21
191.0093680478
  0
LINE
  5
2CB
100
AcDbEntity
  8
3_ALL_AXES
100
AcDbLine
 62
7
  6
CONTINUOUS
 10
106.8272687726
 20
191.8093680478
 11
110.7572000817
 21
191.8093680478
  0
LINE
  5
2CC
100
AcDbEntity
  8
3_ALL_AXES
100
AcDbLine
 62
7
  6
CONTINUOUS
 10
104.9922344271
 20
193.6293680478
 11
112.5922344271
 21
193.6293680478
  0
LINE
  5
2CD
100
AcDbEntity
  8
7_ALL_FEATURES
100
AcDbLine
 62
3
  6
CONTINUOUS
 10
103.2922344271
 20
194.0093680478
 11
107.4108388648
 21
194.0093680478
  0
LINE
  5
2CE
100
AcDbEntity
  8
3_ALL_AXES
100
AcDbLine
 62
7
  6
CONTINUOUS
 10
107.4108388648
 20
194.0093680478
 11
110.1736299894
 21
194.0093680478
  0
LINE
  5
2CF
100
AcDbEntity
  8
7_ALL_FEATURES
100
AcDbLine
 62
3
  6
CONTINUOUS
 10
110.1736299894
 20
194.0093680478
 11
114.2922344271
 21
194.0093680478
  0
LINE
  5
2D0
100
AcDbEntity
  8
7_ALL_FEATURES
100
AcDbLine
 62
7
  6
CONTINUOUS
 10
136.7922344271
 20
194.5093680478
 11
114.2922344271
 21
194.5093680478
  0
LINE
  5
2D1
100
AcDbEntity
  8
7_ALL_FEATURES
100
AcDbLine
 62
7
  6
CONTINUOUS
 10
103.2922344271
 20
194.5093680478
 11
80.7922344271
 21
194.5093680478
  0
LINE
  5
2D2
100
AcDbEntity
  8
7_ALL_FEATURES
100
AcDbLine
 62
9
  6
CONTINUOUS
 10
103.2922344271
 20
194.6014445733
 11
114.2922344271
 21
194.6014445733
  0
LINE
  5
2D3
100
AcDbEntity
  8
7_ALL_FEATURES
100
AcDbLine
 62
7
  6
CONTINUOUS
 10
79.7922344271
 20
195.5093680478
 11
103.2922344271
 21
195.5093680478
  0
LINE
  5
2D4
100
AcDbEntity
  8
7_ALL_FEATURES
100
AcDbLine
 62
7
  6
CONTINUOUS
 10
114.2922344271
 20
195.5093680478
 11
137.7922344271
 21
195.5093680478
  0
LINE
  5
2D5
100
AcDbEntity
  8
7_ALL_FEATURES
100
AcDbLine
 62
4
  6
CONTINUOUS
 10
105.7922344271
 20
196.3900873274
 11
111.7922344271
 21
196.3900873274
  0
LINE
  5
2D6
100
AcDbEntity
  8
7_ALL_FEATURES
100
AcDbLine
 62
7
  6
CONTINUOUS
 10
111.4189010938
 20
197.0506147279
 11
110.4089010938
 21
197.0506147279
  0
LINE
  5
2D7
100
AcDbEntity
  8
7_ALL_FEATURES
100
AcDbLine
 62
7
  6
CONTINUOUS
 10
107.4189010938
 20
197.0506147279
 11
106.4089010938
 21
197.0506147279
  0
LINE
  5
2D8
100
AcDbEntity
  8
7_ALL_FEATURES
100
AcDbLine
 62
4
  6
CONTINUOUS
 10
111.7922344271
 20
201.7121523265
 11
105.7922344271
 21
201.7121523265
  0
LINE
  5
2D9
100
AcDbEntity
  8
7_ALL_FEATURES
100
AcDbLine
 62
9
  6
CONTINUOUS
 10
103.2922344271
 20
203.5007950807
 11
114.2922344271
 21
203.5007950807
  0
LINE
  5
2DA
100
AcDbEntity
  8
03___PRT_ALL_CURVES
100
AcDbLine
 62
40
  6
CONTINUOUS
 10
114.2922344271
 20
194.6014445733
 11
103.2922344271
 21
203.5007950807
  0
LINE
  5
2DB
100
AcDbEntity
  8
7_ALL_FEATURES
100
AcDbLine
 62
4
  6
CONTINUOUS
 10
109.8104679708
 20
196.8879960751
 11
108.1311422323
 21
198.713751062
  0
LINE
  5
2DC
100
AcDbEntity
  8
3_ALL_AXES
100
AcDbLine
 62
7
  6
CONTINUOUS
 10
100.7922344271
 20
194.5093680478
 11
100.7922344271
 21
191.0093680478
  0
LINE
  5
2DD
100
AcDbEntity
  8
3_ALL_AXES
100
AcDbLine
 62
7
  6
CONTINUOUS
 10
100.7922344271
 20
188.0093680478
 11
100.7922344271
 21
183.5093680478
  0
LINE
  5
2DE
100
AcDbEntity
  8
7_ALL_FEATURES
100
AcDbLine
 62
7
  6
CONTINUOUS
 10
101.702410734
 20
212.0093680478
 11
101.702410734
 21
195.5093680478
  0
LINE
  5
2DF
100
AcDbEntity
  8
3_ALL_AXES
100
AcDbLine
 62
7
  6
CONTINUOUS
 10
101.7922344271
 20
182.0093680478
 11
101.7922344271
 21
182.5093680478
  0
LINE
  5
2E0
100
AcDbEntity
  8
3_ALL_AXES
100
AcDbLine
 62
7
  6
CONTINUOUS
 10
102.2922344271
 20
182.0093680478
 11
102.2922344271
 21
182.5093680478
  0
LINE
  5
2E1
100
AcDbEntity
  8
7_ALL_FEATURES
100
AcDbLine
 62
7
  6
CONTINUOUS
 10
72.7922344273
 20
241.7593680477
 11
74.0422344273
 21
240.5093680477
  0
LINE
  5
2E2
100
AcDbEntity
  8
3_ALL_AXES
100
AcDbLine
 62
7
  6
CONTINUOUS
 10
102.7922344271
 20
191.0093680478
 11
102.7922344271
 21
188.0093680478
  0
LINE
  5
2E3
100
AcDbEntity
  8
7_ALL_FEATURES
100
AcDbLine
 62
3
  6
CONTINUOUS
 10
103.2922344271
 20
208.3083409867
 11
103.2922344271
 21
194.0093680478
  0
LINE
  5
2E4
100
AcDbEntity
  8
3_ALL_AXES
100
AcDbLine
 62
7
  6
CONTINUOUS
 10
103.2922344271
 20
182.0093680478
 11
103.2922344271
 21
182.5093680478
  0
LINE
  5
2E5
100
AcDbEntity
  8
3_ALL_AXES
100
AcDbLine
 62
7
  6
CONTINUOUS
 10
104.7922344271
 20
194.0093680478
 11
104.7922344271
 21
191.0093680478
  0
LINE
  5
2E6
100
AcDbEntity
  8
3_ALL_AXES
100
AcDbLine
 62
7
  6
CONTINUOUS
 10
104.7922344271
 20
188.0093680478
 11
104.7922344271
 21
183.5093680478
  0
LINE
  5
2E7
100
AcDbEntity
  8
3_ALL_AXES
100
AcDbLine
 62
7
  6
CONTINUOUS
 10
104.9922344271
 20
194.0093680478
 11
104.9922344271
 21
193.6293680478
  0
LINE
  5
2E8
100
AcDbEntity
  8
7_ALL_FEATURES
100
AcDbLine
 62
4
  6
CONTINUOUS
 10
105.7922344271
 20
201.7121523265
 11
105.7922344271
 21
196.3900873274
  0
LINE
  5
2E9
100
AcDbEntity
  8
7_ALL_FEATURES
100
AcDbLine
 62
9
  6
CONTINUOUS
 10
103.8917709403
 20
208.7606443556
 11
113.692697914
 21
208.7606443556
  0
LINE
  5
2EA
100
AcDbEntity
  8
7_ALL_FEATURES
100
AcDbLine
 62
3
  6
CONTINUOUS
 10
112.2922344271
 20
209.7509215839
 11
105.2922344271
 21
209.7509215839
  0
LINE
  5
2EB
100
AcDbEntity
  8
7_ALL_FEATURES
100
AcDbLine
 62
7
  6
CONTINUOUS
 10
115.8820581203
 20
212.0093680478
 11
101.702410734
 21
212.0093680478
  0
LINE
  5
2EC
100
AcDbEntity
  8
7_ALL_FEATURES
100
AcDbLine
 62
7
  6
CONTINUOUS
 10
73.2922344271
 20
245.5093680478
 11
72.7922344271
 21
246.0093680478
  0
LINE
  5
2ED
100
AcDbEntity
  8
7_ALL_FEATURES
100
AcDbLine
 62
7
  6
CONTINUOUS
 10
106.4089010938
 20
199.3597995969
 11
106.4089010938
 21
197.0506147279
  0
LINE
  5
2EE
100
AcDbEntity
  8
3_ALL_AXES
100
AcDbLine
 62
7
  6
CONTINUOUS
 10
107.7922344271
 20
182.0093680478
 11
107.7922344271
 21
182.5093680478
  0
LINE
  5
2EF
100
AcDbEntity
  8
3_ALL_AXES
100
AcDbLine
 62
7
  6
CONTINUOUS
 10
127.9182428549
 20
213.9593680478
 11
128.152818096
 21
213.9593680478
  0
LINE
  5
2F0
100
AcDbEntity
  8
7_ALL_FEATURES
100
AcDbLine
 62
3
  6
CONTINUOUS
 10
113.692697914
 20
208.7606443556
 11
112.2922344271
 21
209.7509215839
  0
LINE
  5
2F1
100
AcDbEntity
  8
7_ALL_FEATURES
100
AcDbLine
 62
7
  6
CONTINUOUS
 10
79.2922344275
 20
240.5093680475
 11
79.7922344275
 21
240.0093680475
  0
LINE
  5
2F2
100
AcDbEntity
  8
3_ALL_AXES
100
AcDbLine
 62
7
  6
CONTINUOUS
 10
109.7922344271
 20
182.0093680478
 11
109.7922344271
 21
182.5093680478
  0
LINE
  5
2F3
100
AcDbEntity
  8
7_ALL_FEATURES
100
AcDbLine
 62
7
  6
CONTINUOUS
 10
110.4089010938
 20
199.3597995969
 11
110.4089010938
 21
197.0506147279
  0
LINE
  5
2F4
100
AcDbEntity
  8
7_ALL_FEATURES
100
AcDbLine
 62
4
  6
CONTINUOUS
 10
111.7922344271
 20
196.3900873274
 11
111.7922344271
 21
201.7121523265
  0
LINE
  5
2F5
100
AcDbEntity
  8
3_ALL_AXES
100
AcDbLine
 62
7
  6
CONTINUOUS
 10
112.5922344271
 20
194.0093680478
 11
112.5922344271
 21
193.6293680478
  0
LINE
  5
2F6
100
AcDbEntity
  8
7_ALL_FEATURES
100
AcDbLine
 62
7
  6
CONTINUOUS
 10
138.2922344268
 20
240.5093680475
 11
137.7922344268
 21
240.0093680475
  0
LINE
  5
2F7
100
AcDbEntity
  8
7_ALL_FEATURES
100
AcDbLine
 62
7
  6
CONTINUOUS
 10
144.2922344271
 20
245.5093680478
 11
144.7922344271
 21
246.0093680478
  0
LINE
  5
2F8
100
AcDbEntity
  8
7_ALL_FEATURES
100
AcDbLine
 62
3
  6
CONTINUOUS
 10
105.2922344271
 20
209.7509215839
 11
103.8917709403
 21
208.7606443556
  0
LINE
  5
2F9
100
AcDbEntity
  8
7_ALL_FEATURES
100
AcDbLine
 62
7
  6
CONTINUOUS
 10
128.9294420747
 20
216.5093680478
 11
129.9500628009
 21
216.5093680478
  0
LINE
  5
2FA
100
AcDbEntity
  8
7_ALL_FEATURES
100
AcDbLine
 62
7
  6
CONTINUOUS
 10
130.4603731639
 20
217.7593680478
 11
129.0461596016
 21
217.7593680478
  0
LINE
  5
2FB
100
AcDbEntity
  8
3_ALL_AXES
100
AcDbLine
 62
7
  6
CONTINUOUS
 10
112.7922344271
 20
194.0093680478
 11
112.7922344271
 21
191.0093680478
  0
LINE
  5
2FC
100
AcDbEntity
  8
3_ALL_AXES
100
AcDbLine
 62
7
  6
CONTINUOUS
 10
112.7922344271
 20
188.0093680478
 11
112.7922344271
 21
183.5093680478
  0
LINE
  5
2FD
100
AcDbEntity
  8
3_ALL_AXES
100
AcDbLine
 62
7
  6
CONTINUOUS
 10
114.2922344271
 20
182.0093680478
 11
114.2922344271
 21
182.5093680478
  0
LINE
  5
2FE
100
AcDbEntity
  8
7_ALL_FEATURES
100
AcDbLine
 62
3
  6
CONTINUOUS
 10
114.2922344271
 20
194.0093680478
 11
114.2922344271
 21
208.3083409867
  0
LINE
  5
2FF
100
AcDbEntity
  8
3_ALL_AXES
100
AcDbLine
 62
7
  6
CONTINUOUS
 10
114.7922344271
 20
191.0093680478
 11
114.7922344271
 21
188.0093680478
  0
LINE
  5
300
100
AcDbEntity
  8
3_ALL_AXES
100
AcDbLine
 62
7
  6
CONTINUOUS
 10
115.2922344271
 20
182.0093680478
 11
115.2922344271
 21
182.5093680478
  0
LINE
  5
301
100
AcDbEntity
  8
3_ALL_AXES
100
AcDbLine
 62
7
  6
CONTINUOUS
 10
115.7922344271
 20
182.0093680478
 11
115.7922344271
 21
182.5093680478
  0
LINE
  5
302
100
AcDbEntity
  8
7_ALL_FEATURES
100
AcDbLine
 62
7
  6
CONTINUOUS
 10
115.8820581203
 20
212.0093680478
 11
115.8820581203
 21
195.5093680478
  0
LINE
  5
303
100
AcDbEntity
  8
7_ALL_FEATURES
100
AcDbLine
 62
7
  6
CONTINUOUS
 10
144.792234427
 20
241.7593680477
 11
143.542234427
 21
240.5093680477
  0
LINE
  5
304
100
AcDbEntity
  8
7_ALL_FEATURES
100
AcDbLine
 62
7
  6
CONTINUOUS
 10
129.9500628009
 20
219.0093680478
 11
128.9294420747
 21
219.0093680478
  0
LINE
  5
305
100
AcDbEntity
  8
3_ALL_AXES
100
AcDbLine
 62
7
  6
CONTINUOUS
 10
127.9182424792
 20
221.5593680478
 11
128.152818096
 21
221.5593680478
  0
LINE
  5
306
100
AcDbEntity
  8
3_ALL_AXES
100
AcDbLine
 62
7
  6
CONTINUOUS
 10
116.7922344271
 20
194.5093680478
 11
116.7922344271
 21
191.0093680478
  0
LINE
  5
307
100
AcDbEntity
  8
3_ALL_AXES
100
AcDbLine
 62
7
  6
CONTINUOUS
 10
116.7922344271
 20
188.0093680478
 11
116.7922344271
 21
183.5093680478
  0
LINE
  5
308
100
AcDbEntity
  8
7_ALL_FEATURES
100
AcDbLine
 62
4
  6
CONTINUOUS
 10
109.2049311216
 20
197.3542511139
 11
109.6988334329
 21
197.8671964457
  0
LINE
  5
309
100
AcDbEntity
  8
7_ALL_FEATURES
100
AcDbLine
 62
4
  6
CONTINUOUS
 10
108.0090998103
 20
197.9992547341
 11
108.9147960733
 21
198.6546946292
  0
LINE
  5
30A
100
AcDbEntity
  8
7_ALL_FEATURES
100
AcDbLine
 62
7
  6
CONTINUOUS
 10
128.9294420747
 20
219.0093680478
 11
128.4191317116
 21
217.7593680478
  0
LINE
  5
30B
100
AcDbEntity
  8
7_ALL_FEATURES
100
AcDbLine
 62
7
  6
CONTINUOUS
 10
128.7326456566
 20
216.9914188554
 11
129.0461596016
 21
217.7593680478
  0
LINE
  5
30C
100
AcDbEntity
  8
7_ALL_FEATURES
100
AcDbLine
 62
7
  6
CONTINUOUS
 10
129.9500628009
 20
216.5093680478
 11
130.4603731639
 21
217.7593680478
  0
LINE
  5
30D
100
AcDbEntity
  8
7_ALL_FEATURES
100
AcDbLine
 62
7
  6
CONTINUOUS
 10
128.4191317116
 20
217.7593680478
 11
128.9294420747
 21
216.5093680478
  0
LINE
  5
30E
100
AcDbEntity
  8
7_ALL_FEATURES
100
AcDbLine
 62
7
  6
CONTINUOUS
 10
129.0461596016
 20
217.7593680478
 11
128.7326456566
 21
218.5273172403
  0
LINE
  5
30F
100
AcDbEntity
  8
7_ALL_FEATURES
100
AcDbLine
 62
7
  6
CONTINUOUS
 10
130.4603731639
 20
217.7593680478
 11
129.9500628009
 21
219.0093680478
  0
LINE
  5
310
100
AcDbEntity
  8
7_ALL_FEATURES
100
AcDbLine
 62
7
  6
CONTINUOUS
 10
137.7922344271
 20
240.0093680478
 11
79.7922344271
 21
240.0093680478
  0
LINE
  5
311
100
AcDbEntity
  8
7_ALL_FEATURES
100
AcDbLine
 62
7
  6
CONTINUOUS
 10
74.0422344271
 20
240.5093680478
 11
143.5422344271
 21
240.5093680478
  0
LINE
  5
312
100
AcDbEntity
  8
7_ALL_FEATURES
100
AcDbLine
 62
7
  6
CONTINUOUS
 10
72.7922344271
 20
241.7593680478
 11
144.7922344271
 21
241.7593680478
  0
LINE
  5
313
100
AcDbEntity
  8
7_ALL_FEATURES
100
AcDbLine
 62
7
  6
CONTINUOUS
 10
137.7922344271
 20
195.5093680478
 11
137.7922344271
 21
240.0093680478
  0
LINE
  5
314
100
AcDbEntity
  8
3_ALL_AXES
100
AcDbLine
 62
7
  6
CONTINUOUS
 10
115.7922344271
 20
182.5093680478
 11
116.7922344271
 21
183.5093680478
  0
LINE
  5
315
100
AcDbEntity
  8
7_ALL_FEATURES
100
AcDbLine
 62
7
  6
CONTINUOUS
 10
72.7922344271
 20
243.9093680478
 11
144.7922344271
 21
243.9093680478
  0
LINE
  5
316
100
AcDbEntity
  8
7_ALL_FEATURES
100
AcDbLine
 62
7
  6
CONTINUOUS
 10
73.2922344271
 20
244.4093680478
 11
144.2922344271
 21
244.4093680478
  0
LINE
  5
317
100
AcDbEntity
  8
7_ALL_FEATURES
100
AcDbLine
 62
7
  6
CONTINUOUS
 10
144.2922323466
 20
245.5093680478
 11
73.2922365077
 21
245.5093680478
  0
LINE
  5
318
100
AcDbEntity
  8
06___PRT_ALL_SURFS
100
AcDbLine
 62
7
  6
CONTINUOUS
 10
144.2922344271
 20
245.5093680478
 11
73.2922344271
 21
245.5093680478
  0
LINE
  5
319
100
AcDbEntity
  8
7_ALL_FEATURES
100
AcDbLine
 62
7
  6
CONTINUOUS
 10
144.7922344271
 20
246.0093680478
 11
72.7922344271
 21
246.0093680478
  0
LINE
  5
31A
100
AcDbEntity
  8
7_ALL_FEATURES
100
AcDbLine
 62
7
  6
CONTINUOUS
 10
136.7922344271
 20
194.5093680478
 11
137.7922344271
 21
195.5093680478
  0
LINE
  5
31B
100
AcDbEntity
  8
7_ALL_FEATURES
100
AcDbLine
 62
7
  6
CONTINUOUS
 10
144.2922344271
 20
244.4093680478
 11
144.2922344271
 21
245.5093680478
  0
LINE
  5
31C
100
AcDbEntity
  8
7_ALL_FEATURES
100
AcDbLine
 62
7
  6
CONTINUOUS
 10
144.7922344271
 20
251.0093680478
 11
144.7922344271
 21
246.0093680478
  0
LINE
  5
31D
100
AcDbEntity
  8
7_ALL_FEATURES
100
AcDbLine
 62
7
  6
CONTINUOUS
 10
144.7922344271
 20
241.7593680478
 11
144.7922344271
 21
243.9093680478
  0
LINE
  5
31E
100
AcDbEntity
  8
7_ALL_FEATURES
100
AcDbLine
 62
7
  6
CONTINUOUS
 10
72.7922344271
 20
251.0093680478
 11
144.7922344271
 21
251.0093680478
  0
LINE
  5
31F
100
AcDbEntity
  8
7_ALL_FEATURES
100
AcDbLine
 62
7
  6
CONTINUOUS
 10
73.2922365077
 20
251.5093680478
 11
144.2922323466
 21
251.5093680478
  0
LINE
  5
320
100
AcDbEntity
  8
7_ALL_FEATURES
100
AcDbLine
 62
7
  6
CONTINUOUS
 10
144.2922344269
 20
244.4093680481
 11
144.7922344269
 21
243.9093680481
  0
LINE
  5
321
100
AcDbEntity
  8
7_ALL_FEATURES
100
AcDbLine
 62
7
  6
CONTINUOUS
 10
144.2922344271
 20
251.5093680478
 11
144.7922344271
 21
251.0093680478
  0
LINE
  5
322
100
AcDbEntity
  8
7_ALL_FEATURES
100
AcDbLine
 62
7
  6
CONTINUOUS
 10
237.8460094549
 20
251.5093680478
 11
237.3460094549
 21
251.0093680478
  0
LINE
  5
323
100
AcDbEntity
  8
7_ALL_FEATURES
100
AcDbLine
 62
7
  6
CONTINUOUS
 10
237.8460094549
 20
244.4093680478
 11
237.3460094549
 21
243.9093680478
  0
LINE
  5
324
100
AcDbEntity
  8
7_ALL_FEATURES
100
AcDbLine
 62
7
  6
CONTINUOUS
 10
237.3460094549
 20
251.0093680478
 11
237.3460094549
 21
246.0093680478
  0
LINE
  5
325
100
AcDbEntity
  8
02___PRT_ALL_AXES
100
AcDbLine
 62
7
  6
CONTINUOUS
 10
237.3460094549
 20
243.9093680478
 11
237.3460094549
 21
241.7593680478
  0
LINE
  5
326
100
AcDbEntity
  8
7_ALL_FEATURES
100
AcDbLine
 62
7
  6
CONTINUOUS
 10
237.8460094549
 20
244.4093680478
 11
237.8460094549
 21
245.5093680478
  0
LINE
  5
327
100
AcDbEntity
  8
3_ALL_AXES
100
AcDbLine
 62
7
  6
CONTINUOUS
 10
273.3460094549
 20
178.5093680478
 11
276.8460094549
 21
178.5093680478
  0
LINE
  5
328
100
AcDbEntity
  8
7_ALL_FEATURES
100
AcDbLine
 62
7
  6
CONTINUOUS
 10
269.8460094549
 20
178.5093680478
 11
276.8460094549
 21
178.5093680478
  0
LINE
  5
329
100
AcDbEntity
  8
7_ALL_FEATURES
100
AcDbLine
 62
3
  6
CONTINUOUS
 10
244.8377939244
 20
194.6014445733
 11
240.2050852789
 21
203.5007950807
  0
LINE
  5
32A
100
AcDbEntity
  8
7_ALL_FEATURES
100
AcDbLine
 62
7
  6
CONTINUOUS
 10
245.281299341
 20
194.8323188799
 11
240.6485906955
 21
203.7316693873
  0
LINE
  5
32B
100
AcDbEntity
  8
3_ALL_AXES
100
AcDbLine
 62
9
  6
CONTINUOUS
 10
280.2742126852
 20
182.0093680478
 11
277.6761364739
 21
182.0093680478
  0
LINE
  5
32C
100
AcDbEntity
  8
3_ALL_AXES
100
AcDbLine
 62
9
  6
CONTINUOUS
 10
266.4178062247
 20
182.0093680478
 11
269.015882436
 21
182.0093680478
  0
LINE
  5
32D
100
AcDbEntity
  8
3_ALL_AXES
100
AcDbLine
 62
9
  6
CONTINUOUS
 10
270.7479332436
 20
182.0093680478
 11
275.9440856663
 21
182.0093680478
  0
LINE
  5
32E
100
AcDbEntity
  8
3_ALL_AXES
100
AcDbLine
 62
7
  6
CONTINUOUS
 10
280.2742126852
 20
182.5093680478
 11
277.6761364739
 21
182.5093680478
  0
LINE
  5
32F
100
AcDbEntity
  8
3_ALL_AXES
100
AcDbLine
 62
7
  6
CONTINUOUS
 10
266.4178062247
 20
182.5093680478
 11
269.015882436
 21
182.5093680478
  0
LINE
  5
330
100
AcDbEntity
  8
3_ALL_AXES
100
AcDbLine
 62
7
  6
CONTINUOUS
 10
270.7479332436
 20
182.5093680478
 11
275.9440856663
 21
182.5093680478
  0
LINE
  5
331
100
AcDbEntity
  8
7_ALL_FEATURES
100
AcDbLine
 62
7
  6
CONTINUOUS
 10
245.2260094549
 20
195.5093680478
 11
246.2260094549
 21
194.5093680478
  0
LINE
  5
332
100
AcDbEntity
  8
02___PRT_ALL_AXES
100
AcDbLine
 62
7
  6
CONTINUOUS
 10
244.3460094549
 20
240.0093680478
 11
244.3460094549
 21
212.0093680478
  0
LINE
  5
333
100
AcDbEntity
  8
7_ALL_FEATURES
100
AcDbLine
 62
7
  6
CONTINUOUS
 10
245.2260094549
 20
212.0093680478
 11
245.2260094549
 21
195.5093680478
  0
LINE
  5
334
100
AcDbEntity
  8
3_ALL_AXES
100
AcDbLine
 62
7
  6
CONTINUOUS
 10
245.5460094549
 20
193.6293680478
 11
245.5460094549
 21
194.0093680478
  0
LINE
  5
335
100
AcDbEntity
  8
7_ALL_FEATURES
100
AcDbLine
 62
9
  6
CONTINUOUS
 10
245.8135058409
 20
194.0093680478
 11
245.8135058409
 21
194.5093680478
  0
LINE
  5
336
100
AcDbEntity
  8
3_ALL_AXES
100
AcDbLine
 62
7
  6
CONTINUOUS
 10
280.2742126852
 20
188.0093680478
 11
266.4178062247
 21
188.0093680478
  0
LINE
  5
337
100
AcDbEntity
  8
7_ALL_FEATURES
100
AcDbLine
 62
7
  6
CONTINUOUS
 10
240.9762217003
 20
207.9512035001
 11
240.6190842137
 21
208.3083409867
  0
LINE
  5
338
100
AcDbEntity
  8
3_ALL_AXES
100
AcDbLine
 62
7
  6
CONTINUOUS
 10
280.2742126852
 20
191.0093680478
 11
266.4178062247
 21
191.0093680478
  0
LINE
  5
339
100
AcDbEntity
  8
7_ALL_FEATURES
100
AcDbLine
 62
7
  6
CONTINUOUS
 10
242.3584841318
 20
209.3973681933
 11
242.0049307412
 21
209.7509215839
  0
LINE
  5
33A
100
AcDbEntity
  8
7_ALL_FEATURES
100
AcDbLine
 62
7
  6
CONTINUOUS
 10
252.4863594099
 20
220.7672742964
 11
252.4863594099
 21
214.7514617993
  0
LINE
  5
33B
100
AcDbEntity
  8
03___PRT_ALL_CURVES
100
AcDbLine
 62
40
  6
CONTINUOUS
 10
252.7338928408
 20
222.3593680478
 11
252.7338928408
 21
224.0587190904
  0
LINE
  5
33C
100
AcDbEntity
  8
03___PRT_ALL_CURVES
100
AcDbLine
 62
40
  6
CONTINUOUS
 10
252.7338928408
 20
232.9096925265
 11
252.7338928408
 21
235.1090435691
  0
LINE
  5
33D
100
AcDbEntity
  8
03___PRT_ALL_CURVES
100
AcDbLine
 62
40
  6
CONTINUOUS
 10
252.9464837574
 20
235.1090435691
 11
252.9464837574
 21
232.9096925265
  0
LINE
  5
33E
100
AcDbEntity
  8
03___PRT_ALL_CURVES
100
AcDbLine
 62
40
  6
CONTINUOUS
 10
252.9464837574
 20
224.0587190904
 11
252.9464837574
 21
222.3593680478
  0
LINE
  5
33F
100
AcDbEntity
  8
3_ALL_AXES
100
AcDbLine
 62
7
  6
CONTINUOUS
 10
253.1460094549
 20
193.6293680478
 11
253.1460094549
 21
194.0093680478
  0
LINE
  5
340
100
AcDbEntity
  8
7_ALL_FEATURES
100
AcDbLine
 62
7
  6
CONTINUOUS
 10
253.1460094549
 20
194.0093680478
 11
253.1460094549
 21
194.5093680478
  0
LINE
  5
341
100
AcDbEntity
  8
3_ALL_AXES
100
AcDbLine
 62
7
  6
CONTINUOUS
 10
299.3110094549
 20
191.8093680478
 11
295.3810094549
 21
191.8093680478
  0
LINE
  5
342
100
AcDbEntity
  8
3_ALL_AXES
100
AcDbLine
 62
7
  6
CONTINUOUS
 10
251.3110094549
 20
191.8093680478
 11
247.3810094549
 21
191.8093680478
  0
LINE
  5
343
100
AcDbEntity
  8
3_ALL_AXES
100
AcDbLine
 62
7
  6
CONTINUOUS
 10
301.1460094549
 20
193.6293680478
 11
293.5460094549
 21
193.6293680478
  0
LINE
  5
344
100
AcDbEntity
  8
3_ALL_AXES
100
AcDbLine
 62
7
  6
CONTINUOUS
 10
253.1460094549
 20
193.6293680478
 11
245.5460094549
 21
193.6293680478
  0
LINE
  5
345
100
AcDbEntity
  8
3_ALL_AXES
100
AcDbLine
 62
7
  6
CONTINUOUS
 10
301.1460094549
 20
194.0093680478
 11
300.878513069
 21
194.0093680478
  0
LINE
  5
346
100
AcDbEntity
  8
7_ALL_FEATURES
100
AcDbLine
 62
3
  6
CONTINUOUS
 10
300.878513069
 20
194.0093680478
 11
293.5460094549
 21
194.0093680478
  0
LINE
  5
347
100
AcDbEntity
  8
7_ALL_FEATURES
100
AcDbLine
 62
3
  6
CONTINUOUS
 10
253.1460094549
 20
194.0093680478
 11
245.8135058409
 21
194.0093680478
  0
LINE
  5
348
100
AcDbEntity
  8
3_ALL_AXES
100
AcDbLine
 62
7
  6
CONTINUOUS
 10
245.8135058409
 20
194.0093680478
 11
245.5460094549
 21
194.0093680478
  0
LINE
  5
349
100
AcDbEntity
  8
7_ALL_FEATURES
100
AcDbLine
 62
7
  6
CONTINUOUS
 10
300.878513069
 20
194.5093680478
 11
245.8135058409
 21
194.5093680478
  0
LINE
  5
34A
100
AcDbEntity
  8
7_ALL_FEATURES
100
AcDbLine
 62
7
  6
CONTINUOUS
 10
253.4055982255
 20
221.0756159276
 11
253.4055982255
 21
214.4431201681
  0
LINE
  5
34B
100
AcDbEntity
  8
7_ALL_FEATURES
100
AcDbLine
 62
7
  6
CONTINUOUS
 10
253.5470195817
 20
214.7514617993
 11
253.5470195817
 21
220.7672742964
  0
LINE
  5
34C
100
AcDbEntity
  8
7_ALL_FEATURES
100
AcDbLine
 62
3
  6
CONTINUOUS
 10
241.0146535129
 20
208.7606443556
 11
242.0049307412
 21
209.7509215839
  0
LINE
  5
34D
100
AcDbEntity
  8
7_ALL_FEATURES
100
AcDbLine
 62
7
  6
CONTINUOUS
 10
242.3584841318
 20
209.3973681933
 11
241.3682069035
 21
208.407090965
  0
LINE
  5
34E
100
AcDbEntity
  8
7_ALL_FEATURES
100
AcDbLine
 62
7
  6
CONTINUOUS
 10
245.2260094549
 20
195.5093680478
 11
301.4660094549
 21
195.5093680478
  0
LINE
  5
34F
100
AcDbEntity
  8
3_ALL_AXES
100
AcDbLine
 62
7
  6
CONTINUOUS
 10
266.4178062247
 20
194.5093680478
 11
266.4178062247
 21
191.0093680478
  0
LINE
  5
350
100
AcDbEntity
  8
3_ALL_AXES
100
AcDbLine
 62
7
  6
CONTINUOUS
 10
266.4178062247
 20
181.3042067688
 11
266.4178062247
 21
188.0093680478
  0
LINE
  5
351
100
AcDbEntity
  8
7_ALL_FEATURES
100
AcDbLine
 62
7
  6
CONTINUOUS
 10
238.5960094549
 20
240.5093680478
 11
237.3460094549
 21
241.7593680478
  0
LINE
  5
352
100
AcDbEntity
  8
3_ALL_AXES
100
AcDbLine
 62
7
  6
CONTINUOUS
 10
267.3460094549
 20
188.0093680478
 11
267.3460094549
 21
191.0093680478
  0
LINE
  5
353
100
AcDbEntity
  8
3_ALL_AXES
100
AcDbLine
 62
7
  6
CONTINUOUS
 10
269.015882436
 20
182.0093680478
 11
269.015882436
 21
182.5093680478
  0
LINE
  5
354
100
AcDbEntity
  8
7_ALL_FEATURES
100
AcDbLine
 62
9
  6
CONTINUOUS
 10
240.2050852789
 20
203.5007950807
 11
240.6485906955
 21
203.7316693873
  0
LINE
  5
355
100
AcDbEntity
  8
7_ALL_FEATURES
100
AcDbLine
 62
7
  6
CONTINUOUS
 10
302.3460094549
 20
212.0093680478
 11
301.4660094549
 21
212.0093680478
  0
LINE
  5
356
100
AcDbEntity
  8
7_ALL_FEATURES
100
AcDbLine
 62
7
  6
CONTINUOUS
 10
245.2260094549
 20
212.0093680478
 11
244.3460094549
 21
212.0093680478
  0
LINE
  5
357
100
AcDbEntity
  8
7_ALL_FEATURES
100
AcDbLine
 62
9
  6
CONTINUOUS
 10
301.8542249855
 20
194.6014445733
 11
301.4107195689
 21
194.8323188799
  0
LINE
  5
358
100
AcDbEntity
  8
7_ALL_FEATURES
100
AcDbLine
 62
7
  6
CONTINUOUS
 10
237.8460094549
 20
245.5093680478
 11
237.3460094549
 21
246.0093680478
  0
LINE
  5
359
100
AcDbEntity
  8
3_ALL_AXES
100
AcDbLine
 62
7
  6
CONTINUOUS
 10
270.7479332436
 20
182.0093680478
 11
270.7479332436
 21
182.5093680478
  0
LINE
  5
35A
100
AcDbEntity
  8
3_ALL_AXES
100
AcDbLine
 62
7
  6
CONTINUOUS
 10
273.3460094549
 20
194.5093680478
 11
273.3460094549
 21
191.0093680478
  0
LINE
  5
35B
100
AcDbEntity
  8
3_ALL_AXES
100
AcDbLine
 62
7
  6
CONTINUOUS
 10
273.3460094549
 20
188.0093680478
 11
273.3460094549
 21
183.5093680478
  0
LINE
  5
35C
100
AcDbEntity
  8
7_ALL_FEATURES
100
AcDbLine
 62
7
  6
CONTINUOUS
 10
254.4020940603
 20
214.4431201681
 11
253.7591516161
 21
214.4431201681
  0
LINE
  5
35D
100
AcDbEntity
  8
7_ALL_FEATURES
100
AcDbLine
 62
7
  6
CONTINUOUS
 10
253.4055982255
 20
214.4431201681
 11
252.6984914443
 21
214.4431201681
  0
LINE
  5
35E
100
AcDbEntity
  8
7_ALL_FEATURES
100
AcDbLine
 62
7
  6
CONTINUOUS
 10
244.3460094549
 20
240.0093680478
 11
243.8460094549
 21
240.5093680478
  0
LINE
  5
35F
100
AcDbEntity
  8
3_ALL_AXES
100
AcDbLine
 62
7
  6
CONTINUOUS
 10
275.9440856663
 20
182.0093680478
 11
275.9440856663
 21
182.5093680478
  0
LINE
  5
360
100
AcDbEntity
  8
7_ALL_FEATURES
100
AcDbLine
 62
7
  6
CONTINUOUS
 10
302.3460094549
 20
240.0093680478
 11
302.8460094549
 21
240.5093680478
  0
LINE
  5
361
100
AcDbEntity
  8
7_ALL_FEATURES
100
AcDbLine
 62
7
  6
CONTINUOUS
 10
308.8460094549
 20
245.5093680478
 11
309.3460094549
 21
246.0093680478
  0
LINE
  5
362
100
AcDbEntity
  8
03___PRT_ALL_CURVES
100
AcDbLine
 62
40
  6
CONTINUOUS
 10
257.7838528706
 20
217.6090435691
 11
256.3522194372
 21
217.6090435691
  0
LINE
  5
363
100
AcDbEntity
  8
03___PRT_ALL_CURVES
100
AcDbLine
 62
40
  6
CONTINUOUS
 10
248.875225192
 20
217.6090435691
 11
249.8468371114
 21
217.6090435691
  0
LINE
  5
364
100
AcDbEntity
  8
03___PRT_ALL_CURVES
100
AcDbLine
 62
40
  6
CONTINUOUS
 10
249.8468370857
 20
217.9096925265
 11
248.8752251685
 21
217.9096925265
  0
LINE
  5
365
100
AcDbEntity
  8
03___PRT_ALL_CURVES
100
AcDbLine
 62
40
  6
CONTINUOUS
 10
256.3522194727
 20
217.9096925265
 11
257.7838529075
 21
217.9096925265
  0
LINE
  5
366
100
AcDbEntity
  8
3_ALL_AXES
100
AcDbLine
 62
7
  6
CONTINUOUS
 10
277.6761364739
 20
182.0093680478
 11
277.6761364739
 21
182.5093680478
  0
LINE
  5
367
100
AcDbEntity
  8
3_ALL_AXES
100
AcDbLine
 62
7
  6
CONTINUOUS
 10
279.3460094549
 20
188.0093680478
 11
279.3460094549
 21
191.0093680478
  0
LINE
  5
368
100
AcDbEntity
  8
3_ALL_AXES
100
AcDbLine
 62
7
  6
CONTINUOUS
 10
280.2742126852
 20
194.5093680478
 11
280.2742126852
 21
191.0093680478
  0
LINE
  5
369
100
AcDbEntity
  8
3_ALL_AXES
100
AcDbLine
 62
7
  6
CONTINUOUS
 10
280.2742126852
 20
181.3042067688
 11
280.2742126852
 21
188.0093680478
  0
LINE
  5
36A
100
AcDbEntity
  8
7_ALL_FEATURES
100
AcDbLine
 62
7
  6
CONTINUOUS
 10
308.0960094549
 20
240.5093680478
 11
309.3460094549
 21
241.7593680478
  0
LINE
  5
36B
100
AcDbEntity
  8
7_ALL_FEATURES
100
AcDbLine
 62
9
  6
CONTINUOUS
 10
244.8377939244
 20
194.6014445733
 11
245.281299341
 21
194.8323188799
  0
LINE
  5
36C
100
AcDbEntity
  8
7_ALL_FEATURES
100
AcDbLine
 62
7
  6
CONTINUOUS
 10
254.4020940603
 20
221.0756159276
 11
253.7591516161
 21
221.0756159276
  0
LINE
  5
36D
100
AcDbEntity
  8
7_ALL_FEATURES
100
AcDbLine
 62
7
  6
CONTINUOUS
 10
253.4055982255
 20
221.0756159276
 11
252.6984914443
 21
221.0756159276
  0
LINE
  5
36E
100
AcDbEntity
  8
7_ALL_FEATURES
100
AcDbLine
 62
9
  6
CONTINUOUS
 10
306.486933631
 20
203.5007950807
 11
306.0434282144
 21
203.7316693873
  0
LINE
  5
36F
100
AcDbEntity
  8
3_ALL_AXES
100
AcDbLine
 62
7
  6
CONTINUOUS
 10
293.5460094549
 20
193.6293680478
 11
293.5460094549
 21
194.0093680478
  0
LINE
  5
370
100
AcDbEntity
  8
7_ALL_FEATURES
100
AcDbLine
 62
7
  6
CONTINUOUS
 10
293.5460094549
 20
194.0093680478
 11
293.5460094549
 21
194.5093680478
  0
LINE
  5
371
100
AcDbEntity
  8
7_ALL_FEATURES
100
AcDbLine
 62
7
  6
CONTINUOUS
 10
305.3238120064
 20
208.407090965
 11
304.3335347781
 21
209.3973681933
  0
LINE
  5
372
100
AcDbEntity
  8
7_ALL_FEATURES
100
AcDbLine
 62
3
  6
CONTINUOUS
 10
304.6870881687
 20
209.7509215839
 11
305.677365397
 21
208.7606443556
  0
LINE
  5
373
100
AcDbEntity
  8
7_ALL_FEATURES
100
AcDbLine
 62
9
  6
CONTINUOUS
 10
300.878513069
 20
194.0093680478
 11
300.878513069
 21
194.5093680478
  0
LINE
  5
374
100
AcDbEntity
  8
3_ALL_AXES
100
AcDbLine
 62
7
  6
CONTINUOUS
 10
301.1460094549
 20
193.6293680478
 11
301.1460094549
 21
194.0093680478
  0
LINE
  5
375
100
AcDbEntity
  8
7_ALL_FEATURES
100
AcDbLine
 62
7
  6
CONTINUOUS
 10
304.3335347781
 20
209.3973681933
 11
304.6870881687
 21
209.7509215839
  0
LINE
  5
376
100
AcDbEntity
  8
7_ALL_FEATURES
100
AcDbLine
 62
7
  6
CONTINUOUS
 10
302.3460094549
 20
240.0093680478
 11
244.3460094549
 21
240.0093680478
  0
LINE
  5
377
100
AcDbEntity
  8
7_ALL_FEATURES
100
AcDbLine
 62
7
  6
CONTINUOUS
 10
238.5960094549
 20
240.5093680478
 11
308.0960094549
 21
240.5093680478
  0
LINE
  5
378
100
AcDbEntity
  8
7_ALL_FEATURES
100
AcDbLine
 62
7
  6
CONTINUOUS
 10
237.3460094549
 20
241.7593680478
 11
309.3460094549
 21
241.7593680478
  0
LINE
  5
379
100
AcDbEntity
  8
7_ALL_FEATURES
100
AcDbLine
 62
7
  6
CONTINUOUS
 10
301.4660094549
 20
212.0093680478
 11
301.4660094549
 21
195.5093680478
  0
LINE
  5
37A
100
AcDbEntity
  8
02___PRT_ALL_AXES
100
AcDbLine
 62
7
  6
CONTINUOUS
 10
302.3460094549
 20
240.0093680478
 11
302.3460094549
 21
212.0093680478
  0
LINE
  5
37B
100
AcDbEntity
  8
7_ALL_FEATURES
100
AcDbLine
 62
7
  6
CONTINUOUS
 10
305.7157972096
 20
207.9512035001
 11
306.0729346962
 21
208.3083409867
  0
LINE
  5
37C
100
AcDbEntity
  8
7_ALL_FEATURES
100
AcDbLine
 62
7
  6
CONTINUOUS
 10
237.3460094549
 20
243.9093680478
 11
309.3460094549
 21
243.9093680478
  0
LINE
  5
37D
100
AcDbEntity
  8
7_ALL_FEATURES
100
AcDbLine
 62
7
  6
CONTINUOUS
 10
237.8460094549
 20
244.4093680478
 11
308.8460094549
 21
244.4093680478
  0
LINE
  5
37E
100
AcDbEntity
  8
7_ALL_FEATURES
100
AcDbLine
 62
7
  6
CONTINUOUS
 10
308.8460094549
 20
245.5093680478
 11
237.8460094549
 21
245.5093680478
  0
LINE
  5
37F
100
AcDbEntity
  8
06___PRT_ALL_SURFS
100
AcDbLine
 62
7
  6
CONTINUOUS
 10
308.8460094549
 20
245.5093680478
 11
237.8460094549
 21
245.5093680478
  0
LINE
  5
380
100
AcDbEntity
  8
7_ALL_FEATURES
100
AcDbLine
 62
7
  6
CONTINUOUS
 10
309.3460094549
 20
246.0093680478
 11
237.3460094549
 21
246.0093680478
  0
LINE
  5
381
100
AcDbEntity
  8
7_ALL_FEATURES
100
AcDbLine
 62
7
  6
CONTINUOUS
 10
306.0434282144
 20
203.7316693873
 11
301.4107195689
 21
194.8323188799
  0
LINE
  5
382
100
AcDbEntity
  8
7_ALL_FEATURES
100
AcDbLine
 62
7
  6
CONTINUOUS
 10
300.4660094549
 20
194.5093680478
 11
301.4660094549
 21
195.5093680478
  0
LINE
  5
383
100
AcDbEntity
  8
7_ALL_FEATURES
100
AcDbLine
 62
7
  6
CONTINUOUS
 10
308.8460094549
 20
244.4093680478
 11
308.8460094549
 21
245.5093680478
  0
LINE
  5
384
100
AcDbEntity
  8
7_ALL_FEATURES
100
AcDbLine
 62
7
  6
CONTINUOUS
 10
309.3460094549
 20
251.0093680478
 11
309.3460094549
 21
246.0093680478
  0
LINE
  5
385
100
AcDbEntity
  8
02___PRT_ALL_AXES
100
AcDbLine
 62
7
  6
CONTINUOUS
 10
309.3460094549
 20
243.9093680478
 11
309.3460094549
 21
241.7593680478
  0
LINE
  5
386
100
AcDbEntity
  8
7_ALL_FEATURES
100
AcDbLine
 62
3
  6
CONTINUOUS
 10
306.486933631
 20
203.5007950807
 11
301.8542249855
 21
194.6014445733
  0
LINE
  5
387
100
AcDbEntity
  8
7_ALL_FEATURES
100
AcDbLine
 62
7
  6
CONTINUOUS
 10
237.3460094549
 20
251.0093680478
 11
309.3460094549
 21
251.0093680478
  0
LINE
  5
388
100
AcDbEntity
  8
7_ALL_FEATURES
100
AcDbLine
 62
7
  6
CONTINUOUS
 10
237.8460094549
 20
251.5093680478
 11
308.8460094549
 21
251.5093680478
  0
LINE
  5
389
100
AcDbEntity
  8
7_ALL_FEATURES
100
AcDbLine
 62
7
  6
CONTINUOUS
 10
308.8460094549
 20
244.4093680478
 11
309.3460094549
 21
243.9093680478
  0
LINE
  5
38A
100
AcDbEntity
  8
7_ALL_FEATURES
100
AcDbLine
 62
7
  6
CONTINUOUS
 10
308.8460094549
 20
251.5093680478
 11
309.3460094549
 21
251.0093680478
  0
CIRCLE
  5
38B
100
AcDbEntity
  8
7_ALL_FEATURES
100
AcDbCircle
 62
7
  6
CONTINUOUS
 10
108.7922344271
 20
90.9978274472
 40
36.0
  0
CIRCLE
  5
38C
100
AcDbEntity
  8
7_ALL_FEATURES
100
AcDbCircle
 62
7
  6
CONTINUOUS
 10
108.7922344271
 20
90.9978274472
 40
35.5
  0
ARC
  5
38D
100
AcDbEntity
  8
7_ALL_FEATURES
100
AcDbCircle
 62
7
  6
CONTINUOUS
 10
-339.281643137
 20
252.000543851
 40
458.6559144783
100
AcDbArc
 50
352.7992008302
 51
352.9250975991
  0
ARC
  5
38E
100
AcDbEntity
  8
7_ALL_FEATURES
100
AcDbCircle
 62
7
  6
CONTINUOUS
 10
556.8661119913
 20
252.000543851
 40
458.6559144783
100
AcDbArc
 50
187.0749024009
 51
187.2007991698
  0
ARC
  5
38F
100
AcDbEntity
  8
3_ALL_AXES
100
AcDbCircle
 62
7
  6
CONTINUOUS
 10
108.9346772245
 20
195.4820081395
 40
4.1
100
AcDbArc
 50
296.3930257743
 51
333.1366968699
  0
ARC
  5
390
100
AcDbEntity
  8
3_ALL_AXES
100
AcDbCircle
 62
7
  6
CONTINUOUS
 10
108.6497916298
 20
195.4820081395
 40
4.1
100
AcDbArc
 50
206.8633031301
 51
243.6069742257
  0
ARC
  5
391
100
AcDbEntity
  8
7_ALL_FEATURES
100
AcDbCircle
 62
7
  6
CONTINUOUS
 10
112.2922344271
 20
182.0093680478
 40
3.5
100
AcDbArc
 50
270.0
 51
360.0
  0
ARC
  5
392
100
AcDbEntity
  8
7_ALL_FEATURES
100
AcDbCircle
 62
7
  6
CONTINUOUS
 10
105.2922344271
 20
182.0093680478
 40
3.5
100
AcDbArc
 50
180.0
 51
270.0
  0
ARC
  5
393
100
AcDbEntity
  8
3_ALL_AXES
100
AcDbCircle
 62
7
  6
CONTINUOUS
 10
128.1528939706
 20
219.6535687695
 40
1.9057968024
100
AcDbArc
 50
90.0022810891
 51
97.9918444173
  0
ARC
  5
394
100
AcDbEntity
  8
3_ALL_AXES
100
AcDbCircle
 62
7
  6
CONTINUOUS
 10
128.1528939702
 20
215.8651673081
 40
1.9057967843
100
AcDbArc
 50
262.0081684343
 51
269.9977189237
  0
ARC
  5
395
100
AcDbEntity
  8
7_ALL_FEATURES
100
AcDbCircle
 62
7
  6
CONTINUOUS
 10
380.2430468035
 20
133.8304289128
 40
153.6551281248
100
AcDbArc
 50
145.4031331041
 51
145.5426912904
  0
ARC
  5
396
100
AcDbEntity
  8
7_ALL_FEATURES
100
AcDbCircle
 62
7
  6
CONTINUOUS
 10
380.2430467953
 20
301.6883071772
 40
153.6551281148
100
AcDbArc
 50
214.4573087096
 51
214.5968668959
  0
ARC
  5
397
100
AcDbEntity
  8
7_ALL_FEATURES
100
AcDbCircle
 62
7
  6
CONTINUOUS
 10
379.1823865799
 20
133.8304289485
 40
153.6551280618
100
AcDbArc
 50
145.4031331041
 51
145.5426912904
  0
ARC
  5
398
100
AcDbEntity
  8
7_ALL_FEATURES
100
AcDbCircle
 62
7
  6
CONTINUOUS
 10
379.1823865799
 20
301.6883071472
 40
153.6551280618
100
AcDbArc
 50
214.4573087096
 51
214.5968668959
  0
ARC
  5
399
100
AcDbEntity
  8
7_ALL_FEATURES
100
AcDbCircle
 62
3
  6
CONTINUOUS
 10
244.1966340282
 20
205.5786638402
 40
4.5
100
AcDbArc
 50
135.0
 51
207.5
  0
ARC
  5
39A
100
AcDbEntity
  8
7_ALL_FEATURES
100
AcDbCircle
 62
3
  6
CONTINUOUS
 10
302.4953848817
 20
205.5786638402
 40
4.5
100
AcDbArc
 50
332.5
 51
45.0
  0
ARC
  5
39B
100
AcDbEntity
  8
3_ALL_AXES
100
AcDbCircle
 62
7
  6
CONTINUOUS
 10
249.4884522523
 20
195.4820081395
 40
4.1
100
AcDbArc
 50
296.3930257743
 51
333.1366968699
  0
ARC
  5
39C
100
AcDbEntity
  8
3_ALL_AXES
100
AcDbCircle
 62
7
  6
CONTINUOUS
 10
249.2035666576
 20
195.4820081395
 40
4.1
100
AcDbArc
 50
206.8633031301
 51
243.6069742257
  0
ARC
  5
39D
100
AcDbEntity
  8
3_ALL_AXES
100
AcDbCircle
 62
7
  6
CONTINUOUS
 10
297.4884522523
 20
195.4820081395
 40
4.1
100
AcDbArc
 50
296.3930257743
 51
333.1366968699
  0
ARC
  5
39E
100
AcDbEntity
  8
3_ALL_AXES
100
AcDbCircle
 62
7
  6
CONTINUOUS
 10
297.2035666576
 20
195.4820081395
 40
4.1
100
AcDbArc
 50
206.8633031301
 51
243.6069742257
  0
ARC
  5
39F
100
AcDbEntity
  8
7_ALL_FEATURES
100
AcDbCircle
 62
7
  6
CONTINUOUS
 10
244.1966340282
 20
205.5786638402
 40
4.0
100
AcDbArc
 50
135.0
 51
207.5
  0
ARC
  5
3A0
100
AcDbEntity
  8
7_ALL_FEATURES
100
AcDbCircle
 62
7
  6
CONTINUOUS
 10
302.4953848817
 20
205.5786638402
 40
4.0
100
AcDbArc
 50
332.5
 51
45.0
  0
ARC
  5
3A1
100
AcDbEntity
  8
3_ALL_AXES
100
AcDbCircle
 62
7
  6
CONTINUOUS
 10
276.8460094549
 20
182.0093680478
 40
3.5
100
AcDbArc
 50
270.0
 51
348.3747775532
  0
ARC
  5
3A2
100
AcDbEntity
  8
3_ALL_AXES
100
AcDbCircle
 62
7
  6
CONTINUOUS
 10
269.8460094549
 20
182.0093680478
 40
3.5
100
AcDbArc
 50
191.6252224468
 51
270.0
  0
ARC
  5
3A3
100
AcDbEntity
  8
3_ALL_AXES
100
AcDbCircle
 62
7
  6
CONTINUOUS
 10
255.0363170589
 20
218.9197806022
 40
2.5230098993
100
AcDbArc
 50
116.1642892693
 51
117.2507583729
  0
ARC
  5
3A4
100
AcDbEntity
  8
3_ALL_AXES
100
AcDbCircle
 62
7
  6
CONTINUOUS
 10
255.035687078
 20
216.5976456037
 40
2.5215590413
100
AcDbArc
 50
242.6589477611
 51
243.8122893677
  0
ARC
  5
3A5
100
AcDbEntity
  8
3_ALL_AXES
100
AcDbCircle
 62
7
  6
CONTINUOUS
 10
255.015716881
 20
216.5565730828
 40
2.4758893827
100
AcDbArc
 50
243.8075329509
 51
248.1694507469
  0
ARC
  5
3A6
100
AcDbEntity
  8
3_ALL_AXES
100
AcDbCircle
 62
7
  6
CONTINUOUS
 10
255.0110288283
 20
218.9728885701
 40
2.4641930734
100
AcDbArc
 50
111.9025048357
 51
116.1810475173
  0
ARC
  5
3A7
100
AcDbEntity
  8
7_ALL_FEATURES
100
AcDbCircle
 62
7
  6
CONTINUOUS
 10
253.9319982226
 20
219.4202203156
 40
1.739316592
100
AcDbArc
 50
75.796147574
 51
86.3905511577
  0
ARC
  5
3A8
100
AcDbEntity
  8
7_ALL_FEATURES
100
AcDbCircle
 62
7
  6
CONTINUOUS
 10
253.9339187611
 20
216.0862607844
 40
1.7269653779
100
AcDbArc
 50
273.5714538995
 51
284.2418473688
  0
ARC
  5
3A9
100
AcDbEntity
  8
7_ALL_FEATURES
100
AcDbCircle
 62
7
  6
CONTINUOUS
 10
254.0410900189
 20
216.0748299081
 40
1.7154620986
100
AcDbArc
 50
270.0302035994
 51
279.2960224195
  0
ARC
  5
3AA
100
AcDbEntity
  8
7_ALL_FEATURES
100
AcDbCircle
 62
7
  6
CONTINUOUS
 10
254.0417168128
 20
219.4515906132
 40
1.7077774572
100
AcDbArc
 50
80.6830801021
 51
89.9906893728
  0
ARC
  5
3AB
100
AcDbEntity
  8
7_ALL_FEATURES
100
AcDbCircle
 62
7
  6
CONTINUOUS
 10
253.9358705245
 20
219.4576536313
 40
1.7017144175
100
AcDbArc
 50
86.4413247647
 51
89.9980543495
  0
ARC
  5
3AC
100
AcDbEntity
  8
7_ALL_FEATURES
100
AcDbCircle
 62
7
  6
CONTINUOUS
 10
253.9358705245
 20
216.0610824644
 40
1.7017144175
100
AcDbArc
 50
270.0019456505
 51
273.5586752353
  0
ARC
  5
3AD
100
AcDbEntity
  8
7_ALL_FEATURES
100
AcDbCircle
 62
3
  6
CONTINUOUS
 10
245.8135058409
 20
195.1093680478
 40
1.1
100
AcDbArc
 50
207.5
 51
270.0
  0
ARC
  5
3AE
100
AcDbEntity
  8
7_ALL_FEATURES
100
AcDbCircle
 62
3
  6
CONTINUOUS
 10
300.878513069
 20
195.1093680478
 40
1.1
100
AcDbArc
 50
270.0
 51
332.5
  0
ARC
  5
3AF
100
AcDbEntity
  8
7_ALL_FEATURES
100
AcDbCircle
 62
7
  6
CONTINUOUS
 10
245.8135058409
 20
195.1093680478
 40
0.6
100
AcDbArc
 50
207.5
 51
270.0
  0
ARC
  5
3B0
100
AcDbEntity
  8
7_ALL_FEATURES
100
AcDbCircle
 62
7
  6
CONTINUOUS
 10
300.878513069
 20
195.1093680478
 40
0.6
100
AcDbArc
 50
270.0
 51
332.5
  0
SPLINE
  5
3B1
100
AcDbEntity
  8
3_ALL_AXES
100
AcDbSpline
 62
7
  6
CONTINUOUS
 70
0
 71
3
 72
11
 73
7
 74
0
 42
0.0000001
 43
0.0000001
 44
0.0000000001
 40
0.0
 40
0.0
 40
0.0
 40
0.0
 40
0.2632778902
 40
0.5165110453
 40
0.7613276352
 40
1.0
 40
1.0
 40
1.0
 40
1.0
 10
129.4583870146
 20
214.4362153876
 30
0.0
 10
129.3693236429
 20
214.3518280238
 30
0.0
 10
129.1841634021
 20
214.1967850696
 30
0.0
 10
128.8828030037
 20
214.0073623451
 30
0.0
 10
128.5674355026
 20
213.8685136134
 30
0.0
 10
128.3485298266
 20
213.8105682749
 30
0.0
 10
128.2390410396
 20
213.7909864538
 30
0.0
  0
SPLINE
  5
3B2
100
AcDbEntity
  8
3_ALL_AXES
100
AcDbSpline
 62
7
  6
CONTINUOUS
 70
0
 71
3
 72
11
 73
7
 74
0
 42
0.0000001
 43
0.0000001
 44
0.0000000001
 40
0.0
 40
0.0
 40
0.0
 40
0.0
 40
0.2386723659
 40
0.4834889571
 40
0.7367221123
 40
1.0
 40
1.0
 40
1.0
 40
1.0
 10
128.2390413919
 20
221.7277495788
 30
0.0
 10
128.348530148
 20
221.7081677435
 30
0.0
 10
128.5674357599
 20
221.6502223868
 30
0.0
 10
128.8828031668
 20
221.5113736585
 30
0.0
 10
129.1841634766
 20
221.3219509661
 30
0.0
 10
129.3693236664
 20
221.1669080496
 30
0.0
 10
129.4583870146
 20
221.0825207081
 30
0.0
  0
SPLINE
  5
3B3
100
AcDbEntity
  8
3_ALL_AXES
100
AcDbSpline
 62
7
  6
CONTINUOUS
 70
0
 71
3
 72
11
 73
7
 74
0
 42
0.0000001
 43
0.0000001
 44
0.0000000001
 40
0.0
 40
0.0
 40
0.0
 40
0.0
 40
0.26284395
 40
0.515114446
 40
0.7596186672
 40
1.0
 40
1.0
 40
1.0
 40
1.0
 10
129.5138501425
 20
214.4829108681
 30
0.0
 10
129.4136728609
 20
214.3996869385
 30
0.0
 10
129.205008742
 20
214.2506090702
 30
0.0
 10
128.8656077546
 20
214.0838325521
 30
0.0
 10
128.5127694785
 20
213.9821961434
 30
0.0
 10
128.2719251747
 20
213.9593705253
 30
0.0
 10
128.152818096
 20
213.9593705253
 30
0.0
  0
SPLINE
  5
3B4
100
AcDbEntity
  8
3_ALL_AXES
100
AcDbSpline
 62
7
  6
CONTINUOUS
 70
0
 71
3
 72
15
 73
11
 74
0
 42
0.0000001
 43
0.0000001
 44
0.0000000001
 40
0.0
 40
0.0
 40
0.0
 40
0.0
 40
0.1249846682
 40
0.2499816306
 40
0.3749753783
 40
0.4999735615
 40
0.6249760131
 40
0.749979017
 40
0.8749927885
 40
1.0
 40
1.0
 40
1.0
 40
1.0
 10
129.5138507026
 20
214.4829095196
 30
0.0
 10
129.6334664813
 20
214.5822857049
 30
0.0
 10
129.8618585064
 20
214.7945394617
 30
0.0
 10
130.1669742677
 20
215.1486984793
 30
0.0
 10
130.4312214507
 20
215.5343944823
 30
0.0
 10
130.6514967621
 20
215.9467695083
 30
0.0
 10
130.8253201496
 20
216.3807783748
 30
0.0
 10
130.9508137386
 20
216.8311717199
 30
0.0
 10
131.0266185143
 20
217.2924798487
 30
0.0
 10
131.043525992
 20
217.6038293535
 30
0.0
 10
131.043525992
 20
217.7593680478
 30
0.0
  0
SPLINE
  5
3B5
100
AcDbEntity
  8
3_ALL_AXES
100
AcDbSpline
 62
7
  6
CONTINUOUS
 70
0
 71
3
 72
11
 73
7
 74
0
 42
0.0000001
 43
0.0000001
 44
0.0000000001
 40
0.0
 40
0.0
 40
0.0
 40
0.0
 40
0.26284395
 40
0.515114446
 40
0.7596186672
 40
1.0
 40
1.0
 40
1.0
 40
1.0
 10
129.5138501425
 20
221.0358252276
 30
0.0
 10
129.4136728609
 20
221.1190491572
 30
0.0
 10
129.205008742
 20
221.2681270254
 30
0.0
 10
128.8656077546
 20
221.4349035435
 30
0.0
 10
128.5127694785
 20
221.5365399523
 30
0.0
 10
128.2719251747
 20
221.5593655704
 30
0.0
 10
128.152818096
 20
221.5593655704
 30
0.0
  0
SPLINE
  5
3B6
100
AcDbEntity
  8
3_ALL_AXES
100
AcDbSpline
 62
7
  6
CONTINUOUS
 70
0
 71
3
 72
15
 73
11
 74
0
 42
0.0000001
 43
0.0000001
 44
0.0000000001
 40
0.0
 40
0.0
 40
0.0
 40
0.0
 40
0.1250123496
 40
0.250032535
 40
0.3750359697
 40
0.5000370412
 40
0.6250316398
 40
0.7500203444
 40
0.8750135891
 40
1.0
 40
1.0
 40
1.0
 40
1.0
 10
131.043525992
 20
217.7593680478
 30
0.0
 10
131.043525992
 20
217.9149131319
 30
0.0
 10
131.0266149423
 20
218.2262768425
 30
0.0
 10
130.9508075014
 20
218.6875997711
 30
0.0
 10
130.8253049409
 20
219.1379977065
 30
0.0
 10
130.6514818306
 20
219.5720005077
 30
0.0
 10
130.4312080964
 20
219.9843622075
 30
0.0
 10
130.16696922
 20
220.3700451609
 30
0.0
 10
129.8618573702
 20
220.7241959107
 30
0.0
 10
129.6334681467
 20
220.9364490071
 30
0.0
 10
129.5138507026
 20
221.0358265761
 30
0.0
  0
SPLINE
  5
3B7
100
AcDbEntity
  8
3_ALL_AXES
100
AcDbSpline
 62
7
  6
CONTINUOUS
 70
0
 71
3
 72
21
 73
17
 74
0
 42
0.0000001
 43
0.0000001
 44
0.0000000001
 40
0.0
 40
0.0
 40
0.0
 40
0.0
 40
0.1433942773
 40
0.2119750005
 40
0.2769855874
 40
0.3378973564
 40
0.3947604859
 40
0.448318642
 40
0.5
 40
0.551681358
 40
0.6052395141
 40
0.6621026436
 40
0.7230144126
 40
0.7880249995
 40
0.8566057227
 40
1.0
 40
1.0
 40
1.0
 40
1.0
 10
130.8292172628
 20
217.7593680478
 30
0.0
 10
130.8292172628
 20
218.0124914531
 30
0.0
 10
130.7782728016
 20
218.3899848608
 30
0.0
 10
130.6064966071
 20
218.8493298408
 30
0.0
 10
130.4348620859
 20
219.1487554064
 30
0.0
 10
130.2245931195
 20
219.3962008363
 30
0.0
 10
129.9826916772
 20
219.5820368862
 30
0.0
 10
129.7175700844
 20
219.6978907308
 30
0.0
 10
129.4397524378
 20
219.7373706136
 30
0.0
 10
129.1619347911
 20
219.6978907308
 30
0.0
 10
128.8968131984
 20
219.5820368862
 30
0.0
 10
128.6549117561
 20
219.3962008363
 30
0.0
 10
128.4446427896
 20
219.1487554064
 30
0.0
 10
128.2730082684
 20
218.8493298408
 30
0.0
 10
128.101232074
 20
218.3899848608
 30
0.0
 10
128.0502876128
 20
218.0124914531
 30
0.0
 10
128.0502876128
 20
217.7593680478
 30
0.0
  0
SPLINE
  5
3B8
100
AcDbEntity
  8
3_ALL_AXES
100
AcDbSpline
 62
7
  6
CONTINUOUS
 70
0
 71
3
 72
21
 73
17
 74
0
 42
0.0000001
 43
0.0000001
 44
0.0000000001
 40
0.0
 40
0.0
 40
0.0
 40
0.0
 40
0.1433942773
 40
0.2119750005
 40
0.2769855874
 40
0.3378973564
 40
0.3947604859
 40
0.448318642
 40
0.5
 40
0.551681358
 40
0.6052395141
 40
0.6621026436
 40
0.7230144126
 40
0.7880249995
 40
0.8566057227
 40
1.0
 40
1.0
 40
1.0
 40
1.0
 10
130.8292172628
 20
217.7593680478
 30
0.0
 10
130.8292172628
 20
217.5062446425
 30
0.0
 10
130.7782728016
 20
217.1287512349
 30
0.0
 10
130.6064966071
 20
216.6694062549
 30
0.0
 10
130.4348620859
 20
216.3699806893
 30
0.0
 10
130.2245931195
 20
216.1225352594
 30
0.0
 10
129.9826916772
 20
215.9366992094
 30
0.0
 10
129.7175700844
 20
215.8208453648
 30
0.0
 10
129.4397524378
 20
215.7813654821
 30
0.0
 10
129.1619347911
 20
215.8208453648
 30
0.0
 10
128.8968131984
 20
215.9366992094
 30
0.0
 10
128.6549117561
 20
216.1225352594
 30
0.0
 10
128.4446427896
 20
216.3699806893
 30
0.0
 10
128.2730082684
 20
216.6694062549
 30
0.0
 10
128.101232074
 20
217.1287512349
 30
0.0
 10
128.0502876128
 20
217.5062446425
 30
0.0
 10
128.0502876128
 20
217.7593680478
 30
0.0
  0
SPLINE
  5
3B9
100
AcDbEntity
  8
7_ALL_FEATURES
100
AcDbSpline
 62
4
  6
CONTINUOUS
 70
0
 71
3
 72
105
 73
101
 74
0
 42
0.0000001
 43
0.0000001
 44
0.0000000001
 40
0.0
 40
0.0
 40
0.0
 40
0.0
 40
0.0625
 40
0.09375
 40
0.109375
 40
0.125
 40
0.140625
 40
0.1484375
 40
0.15625
 40
0.16015625
 40
0.1640625
 40
0.166015625
 40
0.1669921875
 40
0.16796875
 40
0.169921875
 40
0.171875
 40
0.1796875
 40
0.1875
 40
0.1953125
 40
0.203125
 40
0.21875
 40
0.25
 40
0.28125
 40
0.296875
 40
0.3046875
 40
0.3125
 40
0.3203125
 40
0.328125
 40
0.330078125
 40
0.33203125
 40
0.3330078125
 40
0.333984375
 40
0.3359375
 40
0.33984375
 40
0.34375
 40
0.3515625
 40
0.359375
 40
0.375
 40
0.390625
 40
0.40625
 40
0.421875
 40
0.4375
 40
0.453125
 40
0.46875
 40
0.4765625
 40
0.484375
 40
0.48828125
 40
0.4921875
 40
0.49609375
 40
0.498046875
 40
0.5
 40
0.501953125
 40
0.50390625
 40
0.5078125
 40
0.51171875
 40
0.515625
 40
0.5234375
 40
0.53125
 40
0.546875
 40
0.5625
 40
0.578125
 40
0.59375
 40
0.609375
 40
0.625
 40
0.640625
 40
0.6484375
 40
0.65625
 40
0.66015625
 40
0.6640625
 40
0.666015625
 40
0.6669921875
 40
0.66796875
 40
0.669921875
 40
0.671875
 40
0.6796875
 40
0.6875
 40
0.6953125
 40
0.703125
 40
0.71875
 40
0.75
 40
0.78125
 40
0.796875
 40
0.8046875
 40
0.8125
 40
0.8203125
 40
0.828125
 40
0.830078125
 40
0.83203125
 40
0.8330078125
 40
0.833984375
 40
0.8359375
 40
0.83984375
 40
0.84375
 40
0.8515625
 40
0.859375
 40
0.875
 40
0.890625
 40
0.90625
 40
0.9375
 40
1.0
 40
1.0
 40
1.0
 40
1.0
 10
108.0090998103
 20
197.9992547341
 30
0.0
 10
107.9968154186
 20
197.9883164259
 30
0.0
 10
107.9783888435
 20
197.9719089548
 30
0.0
 10
107.9568911292
 20
197.9527669363
 30
0.0
 10
107.9446067829
 20
197.9418285955
 30
0.0
 10
107.9353933498
 20
197.9336249644
 30
0.0
 10
107.9277160411
 20
197.9267882087
 30
0.0
 10
107.9215729555
 20
197.9213196935
 30
0.0
 10
107.9177363475
 20
197.9178998463
 30
0.0
 10
107.9146606016
 20
197.9151686066
 30
0.0
 10
107.9127529988
 20
197.9134509992
 30
0.0
 10
107.9113881392
 20
197.912269883
 30
0.0
 10
107.9106544339
 20
197.911561776
 30
0.0
 10
107.910094795
 20
197.9107286839
 30
0.0
 10
107.9093357498
 20
197.9097300392
 30
0.0
 10
107.9075630098
 20
197.9072981312
 30
0.0
 10
107.9048833323
 20
197.9036650371
 30
0.0
 10
107.9013221845
 20
197.8988124709
 30
0.0
 10
107.8977578921
 20
197.8939621626
 30
0.0
 10
107.8930065994
 20
197.8874942971
 30
0.0
 10
107.8846913226
 20
197.8761759014
 30
0.0
 10
107.8728126526
 20
197.8600065564
 30
0.0
 10
107.8609337752
 20
197.8438373418
 30
0.0
 10
107.8526187886
 20
197.8325187636
 30
0.0
 10
107.8478670398
 20
197.8260511848
 30
0.0
 10
107.8443041469
 20
197.8211999968
 30
0.0
 10
107.8407377434
 20
197.8163507345
 30
0.0
 10
107.8380727834
 20
197.8127083886
 30
0.0
 10
107.836280836
 20
197.8102885547
 30
0.0
 10
107.8355569695
 20
197.8092677959
 30
0.0
 10
107.8349247393
 20
197.8084803365
 30
0.0
 10
107.8344868344
 20
197.807586282
 30
0.0
 10
107.8338107887
 20
197.8059721599
 30
0.0
 10
107.8327979015
 20
197.8036921117
 30
0.0
 10
107.8312036079
 20
197.8000295938
 30
0.0
 10
107.8292017269
 20
197.7954563909
 30
0.0
 10
107.8260037552
 20
197.7881365027
 30
0.0
 10
107.8220045619
 20
197.7789875908
 30
0.0
 10
107.8172062708
 20
197.7680084901
 30
0.0
 10
107.8124077825
 20
197.757029498
 30
0.0
 10
107.8076093418
 20
197.7460504776
 30
0.0
 10
107.8028109079
 20
197.7350714616
 30
0.0
 10
107.7980123994
 20
197.7240924566
 30
0.0
 10
107.7940138854
 20
197.7149432455
 30
0.0
 10
107.7908145279
 20
197.7076239677
 30
0.0
 10
107.7888161738
 20
197.7030492116
 30
0.0
 10
107.7872146408
 20
197.6993898819
 30
0.0
 10
107.7860212935
 20
197.6966440835
 30
0.0
 10
107.7850020165
 20
197.6943600571
 30
0.0
 10
107.7842422639
 20
197.6925235532
 30
0.0
 10
107.7835203352
 20
197.6911715402
 30
0.0
 10
107.7833790288
 20
197.689722709
 30
0.0
 10
107.7829878013
 20
197.687824754
 30
0.0
 10
107.7825683532
 20
197.6854407068
 30
0.0
 10
107.7820352303
 20
197.6825848168
 30
0.0
 10
107.7813348031
 20
197.6787752287
 30
0.0
 10
107.780455707
 20
197.6740138375
 30
0.0
 10
107.7790511441
 20
197.6663952797
 30
0.0
 10
107.7772947576
 20
197.6568721963
 30
0.0
 10
107.7751873854
 20
197.6454444475
 30
0.0
 10
107.7730799392
 20
197.6340167113
 30
0.0
 10
107.7709724974
 20
197.6225889737
 30
0.0
 10
107.768865112
 20
197.6111612293
 30
0.0
 10
107.7667574968
 20
197.5997335132
 30
0.0
 10
107.7650018697
 20
197.5902103276
 30
0.0
 10
107.7635957575
 20
197.5825919783
 30
0.0
 10
107.7627206042
 20
197.5778300567
 30
0.0
 10
107.7620120839
 20
197.5740215574
 30
0.0
 10
107.7615884194
 20
197.5716388769
 30
0.0
 10
107.7612534538
 20
197.5699757472
 30
0.0
 10
107.761122126
 20
197.5690179609
 30
0.0
 10
107.7612170935
 20
197.5680322028
 30
0.0
 10
107.7612584541
 20
197.566809566
 30
0.0
 10
107.7614213811
 20
197.5638673687
 30
0.0
 10
107.761639033
 20
197.5594573779
 30
0.0
 10
107.7619445182
 20
197.553575501
 30
0.0
 10
107.7622459152
 20
197.5476941295
 30
0.0
 10
107.7626492044
 20
197.5398521246
 30
0.0
 10
107.7633542917
 20
197.5261286975
 30
0.0
 10
107.7643619415
 20
197.5065237639
 30
0.0
 10
107.7653693362
 20
197.4869188261
 30
0.0
 10
107.7660747808
 20
197.4731954048
 30
0.0
 10
107.7664775086
 20
197.4653533908
 30
0.0
 10
107.7667806277
 20
197.4594720473
 30
0.0
 10
107.7670796457
 20
197.4535900651
 30
0.0
 10
107.7673154077
 20
197.4491803694
 30
0.0
 10
107.7674546998
 20
197.4462377869
 30
0.0
 10
107.7675393484
 20
197.4450158556
 30
0.0
 10
107.7675449909
 20
197.4440286418
 30
0.0
 10
107.7677776509
 20
197.4430767874
 30
0.0
 10
107.7682902837
 20
197.441427471
 30
0.0
 10
107.7689675833
 20
197.4390627331
 30
0.0
 10
107.7700820177
 20
197.4352839427
 30
0.0
 10
107.77146453
 20
197.4305588145
 30
0.0
 10
107.7736824354
 20
197.422999526
 30
0.0
 10
107.7764527978
 20
197.4135501009
 30
0.0
 10
107.7797780969
 20
197.4022109255
 30
0.0
 10
107.7842115275
 20
197.3870919778
 30
0.0
 10
107.7919701724
 20
197.3606338415
 30
0.0
 10
107.798620391
 20
197.3379554315
 30
0.0
 10
107.8030538808
 20
197.3228364931
 30
0.0
  0
SPLINE
  5
3BA
100
AcDbEntity
  8
7_ALL_FEATURES
100
AcDbSpline
 62
4
  6
CONTINUOUS
 70
0
 71
3
 72
153
 73
149
 74
0
 42
0.0000001
 43
0.0000001
 44
0.0000000001
 40
0.0
 40
0.0
 40
0.0
 40
0.0
 40
0.03125
 40
0.046875
 40
0.0625
 40
0.078125
 40
0.09375
 40
0.1015625
 40
0.109375
 40
0.11328125
 40
0.1171875
 40
0.12109375
 40
0.123046875
 40
0.1240234375
 40
0.125
 40
0.1259765625
 40
0.126953125
 40
0.12890625
 40
0.1328125
 40
0.13671875
 40
0.140625
 40
0.1484375
 40
0.15625
 40
0.171875
 40
0.1875
 40
0.203125
 40
0.21875
 40
0.2265625
 40
0.234375
 40
0.23828125
 40
0.2421875
 40
0.24609375
 40
0.248046875
 40
0.2490234375
 40
0.25
 40
0.2509765625
 40
0.251953125
 40
0.25390625
 40
0.2578125
 40
0.26171875
 40
0.265625
 40
0.2734375
 40
0.28125
 40
0.296875
 40
0.3125
 40
0.328125
 40
0.34375
 40
0.3515625
 40
0.359375
 40
0.36328125
 40
0.3671875
 40
0.37109375
 40
0.373046875
 40
0.3740234375
 40
0.375
 40
0.3759765625
 40
0.376953125
 40
0.37890625
 40
0.3828125
 40
0.38671875
 40
0.390625
 40
0.3984375
 40
0.40625
 40
0.421875
 40
0.4375
 40
0.453125
 40
0.46875
 40
0.4765625
 40
0.484375
 40
0.48828125
 40
0.4921875
 40
0.49609375
 40
0.498046875
 40
0.4990234375
 40
0.5
 40
0.5009765625
 40
0.501953125
 40
0.50390625
 40
0.5078125
 40
0.51171875
 40
0.515625
 40
0.5234375
 40
0.53125
 40
0.546875
 40
0.5625
 40
0.578125
 40
0.59375
 40
0.6015625
 40
0.609375
 40
0.61328125
 40
0.6171875
 40
0.62109375
 40
0.623046875
 40
0.6240234375
 40
0.625
 40
0.6259765625
 40
0.626953125
 40
0.62890625
 40
0.6328125
 40
0.63671875
 40
0.640625
 40
0.6484375
 40
0.65625
 40
0.671875
 40
0.6875
 40
0.703125
 40
0.71875
 40
0.7265625
 40
0.734375
 40
0.73828125
 40
0.7421875
 40
0.74609375
 40
0.748046875
 40
0.7490234375
 40
0.75
 40
0.7509765625
 40
0.751953125
 40
0.75390625
 40
0.7578125
 40
0.76171875
 40
0.765625
 40
0.7734375
 40
0.78125
 40
0.796875
 40
0.8125
 40
0.828125
 40
0.84375
 40
0.8515625
 40
0.859375
 40
0.86328125
 40
0.8671875
 40
0.87109375
 40
0.873046875
 40
0.8740234375
 40
0.875
 40
0.8759765625
 40
0.876953125
 40
0.87890625
 40
0.8828125
 40
0.88671875
 40
0.890625
 40
0.8984375
 40
0.90625
 40
0.921875
 40
0.9375
 40
0.953125
 40
0.96875
 40
1.0
 40
1.0
 40
1.0
 40
1.0
 10
107.8030538774
 20
197.3228365012
 30
0.0
 10
107.8080343233
 20
197.313956549
 30
0.0
 10
107.8155049913
 20
197.3006366203
 30
0.0
 10
107.8254658854
 20
197.2828767171
 30
0.0
 10
107.8329365476
 20
197.2695567856
 30
0.0
 10
107.8404072418
 20
197.2562368693
 30
0.0
 10
107.8466327203
 20
197.2451368921
 30
0.0
 10
107.8516133271
 20
197.2362570152
 30
0.0
 10
107.8547256964
 20
197.2307068536
 30
0.0
 10
107.8572167597
 20
197.2262672706
 30
0.0
 10
107.8590818597
 20
197.2229360876
 30
0.0
 10
107.8606462813
 20
197.22016486
 30
0.0
 10
107.8617214149
 20
197.2182156627
 30
0.0
 10
107.8623669452
 20
197.2171164163
 30
0.0
 10
107.8627632916
 20
197.2162509078
 30
0.0
 10
107.8634952592
 20
197.2155424034
 30
0.0
 10
107.8643541476
 20
197.2145429662
 30
0.0
 10
107.8659117467
 20
197.2128194669
 30
0.0
 10
107.8681083719
 20
197.2103439851
 30
0.0
 10
107.870756528
 20
197.2073791169
 30
0.0
 10
107.8742831395
 20
197.2034239648
 30
0.0
 10
107.8786928637
 20
197.1984807077
 30
0.0
 10
107.8857476062
 20
197.1905711145
 30
0.0
 10
107.894566316
 20
197.1806842552
 30
0.0
 10
107.9051486405
 20
197.1688199617
 30
0.0
 10
107.9157310236
 20
197.1569557062
 30
0.0
 10
107.9245495868
 20
197.147068752
 30
0.0
 10
107.9316046225
 20
197.1391593486
 30
0.0
 10
107.9360136018
 20
197.1342156091
 30
0.0
 10
107.9395417422
 20
197.1302614472
 30
0.0
 10
107.9421852274
 20
197.127293554
 30
0.0
 10
107.9443964664
 20
197.1248275366
 30
0.0
 10
107.9459279774
 20
197.1230871417
 30
0.0
 10
107.9468286655
 20
197.1221147754
 30
0.0
 10
107.9474322379
 20
197.1213231177
 30
0.0
 10
107.9483108154
 20
197.1207699196
 30
0.0
 10
107.9493863272
 20
197.1199491447
 30
0.0
 10
107.951313166
 20
197.1185515426
 30
0.0
 10
107.9540424268
 20
197.1165347072
 30
0.0
 10
107.9573275412
 20
197.1141231771
 30
0.0
 10
107.9617042004
 20
197.1109047745
 30
0.0
 10
107.9671762206
 20
197.1068828084
 30
0.0
 10
107.9759307841
 20
197.1004470828
 30
0.0
 10
107.9868742192
 20
197.0924026263
 30
0.0
 10
108.0000062374
 20
197.0827491858
 30
0.0
 10
108.0131383023
 20
197.0730957955
 30
0.0
 10
108.0240816203
 20
197.0650512136
 30
0.0
 10
108.0328364181
 20
197.0586157388
 30
0.0
 10
108.0383078428
 20
197.0545931354
 30
0.0
 10
108.0426857242
 20
197.0513760408
 30
0.0
 10
108.0459671049
 20
197.0489605146
 30
0.0
 10
108.0487080473
 20
197.0469561821
 30
0.0
 10
108.0506140325
 20
197.0455362602
 30
0.0
 10
108.0517229571
 20
197.0447512472
 30
0.0
 10
108.0524989013
 20
197.0440881999
 30
0.0
 10
108.0534879471
 20
197.0437091177
 30
0.0
 10
108.0547323427
 20
197.0431046246
 30
0.0
 10
108.0569446676
 20
197.0420929109
 30
0.0
 10
108.0600870254
 20
197.0406234782
 30
0.0
 10
108.0638656049
 20
197.0388704863
 30
0.0
 10
108.068901004
 20
197.0365295567
 30
0.0
 10
108.0751961797
 20
197.0336046298
 30
0.0
 10
108.0852679426
 20
197.0289240562
 30
0.0
 10
108.0978578249
 20
197.0230735778
 30
0.0
 10
108.1129656037
 20
197.0160528939
 30
0.0
 10
108.1280734165
 20
197.0090322677
 30
0.0
 10
108.1406632136
 20
197.0031816451
 30
0.0
 10
108.150735147
 20
196.9985013599
 30
0.0
 10
108.1570298896
 20
196.9955756998
 30
0.0
 10
108.1620661775
 20
196.993236275
 30
0.0
 10
108.1658420416
 20
196.9914786858
 30
0.0
 10
108.1689928951
 20
196.9900236371
 30
0.0
 10
108.1711900538
 20
196.9889862456
 30
0.0
 10
108.1724587495
 20
196.9884228949
 30
0.0
 10
108.1733731531
 20
196.9879174363
 30
0.0
 10
108.1744294412
 20
196.9877290377
 30
0.0
 10
108.1757883344
 20
196.9873672455
 30
0.0
 10
108.1781894563
 20
196.986785637
 30
0.0
 10
108.181607575
 20
196.9859278283
 30
0.0
 10
108.1857144776
 20
196.9849099889
 30
0.0
 10
108.1911885453
 20
196.9835488421
 30
0.0
 10
108.1980317472
 20
196.9818487876
 30
0.0
 10
108.2089805252
 20
196.9791279295
 30
0.0
 10
108.2226666164
 20
196.9757271232
 30
0.0
 10
108.2390898734
 20
196.9716460335
 30
0.0
 10
108.2555131502
 20
196.9675650065
 30
0.0
 10
108.2691991918
 20
196.9641640435
 30
0.0
 10
108.2801480689
 20
196.9614434989
 30
0.0
 10
108.286991019
 20
196.9597426475
 30
0.0
 10
108.2924656034
 20
196.9583831365
 30
0.0
 10
108.2965709275
 20
196.9573602993
 30
0.0
 10
108.2999939848
 20
196.9565181272
 30
0.0
 10
108.3023862906
 20
196.9559086049
 30
0.0
 10
108.3037593093
 20
196.9555915376
 30
0.0
 10
108.3047722084
 20
196.9552657587
 30
0.0
 10
108.3058495739
 20
196.9552762776
 30
0.0
 10
108.3072635747
 20
196.9551729984
 30
0.0
 10
108.3097485529
 20
196.9550469142
 30
0.0
 10
108.3132930444
 20
196.9548382199
 30
0.0
 10
108.3175487786
 20
196.9546000173
 30
0.0
 10
108.3232222721
 20
196.954278142
 30
0.0
 10
108.3303144193
 20
196.9538772606
 30
0.0
 10
108.3416616982
 20
196.9532350325
 30
0.0
 10
108.3558458505
 20
196.9524325299
 30
0.0
 10
108.3728668105
 20
196.9514693975
 30
0.0
 10
108.3898877753
 20
196.9505063302
 30
0.0
 10
108.4040719159
 20
196.9497036651
 30
0.0
 10
108.4154192181
 20
196.949061762
 30
0.0
 10
108.4225113059
 20
196.9486600546
 30
0.0
 10
108.4281849213
 20
196.9483398746
 30
0.0
 10
108.4324402831
 20
196.9480964925
 30
0.0
 10
108.43598594
 20
196.9479040037
 30
0.0
 10
108.4384688377
 20
196.9477489899
 30
0.0
 10
108.439886172
 20
196.9476920632
 30
0.0
 10
108.440953298
 20
196.9475602021
 30
0.0
 10
108.4420046549
 20
196.9477691789
 30
0.0
 10
108.4434119646
 20
196.9479289265
 30
0.0
 10
108.4458721937
 20
196.948263877
 30
0.0
 10
108.4493881466
 20
196.948713418
 30
0.0
 10
108.4536067166
 20
196.9492652629
 30
0.0
 10
108.4592316769
 20
196.9499967265
 30
0.0
 10
108.4662628086
 20
196.9509125386
 30
0.0
 10
108.4775126578
 20
196.952377009
 30
0.0
 10
108.4915749557
 20
196.9542078833
 30
0.0
 10
108.5084497208
 20
196.9564048016
 30
0.0
 10
108.5253244775
 20
196.9586017854
 30
0.0
 10
108.5393867961
 20
196.960432496
 30
0.0
 10
108.550636604
 20
196.961897294
 30
0.0
 10
108.5576678406
 20
196.9628122735
 30
0.0
 10
108.5632925858
 20
196.9635454458
 30
0.0
 10
108.5675118128
 20
196.9640920707
 30
0.0
 10
108.57102571
 20
196.9645579439
 30
0.0
 10
108.5734896089
 20
196.9648637386
 30
0.0
 10
108.5748910386
 20
196.9650702011
 30
0.0
 10
108.575960457
 20
196.9651356847
 30
0.0
 10
108.5769597468
 20
196.9655427602
 30
0.0
 10
108.5783165949
 20
196.9659663764
 30
0.0
 10
108.5806796818
 20
196.9667632195
 30
0.0
 10
108.5840614788
 20
196.967872543
 30
0.0
 10
108.5881170848
 20
196.9692161543
 30
0.0
 10
108.5935254503
 20
196.971003297
 30
0.0
 10
108.6002856021
 20
196.973238711
 30
0.0
 10
108.6111020155
 20
196.9768145431
 30
0.0
 10
108.6246224737
 20
196.9812846181
 30
0.0
 10
108.6408470486
 20
196.986648586
 30
0.0
 10
108.6570716168
 20
196.9920125866
 30
0.0
 10
108.6787043768
 20
196.9991645759
 30
0.0
 10
108.6949289463
 20
197.0045285705
 30
0.0
 10
108.705745326
 20
197.0081045663
 30
0.0
  0
SPLINE
  5
3BB
100
AcDbEntity
  8
7_ALL_FEATURES
100
AcDbSpline
 62
4
  6
CONTINUOUS
 70
0
 71
3
 72
137
 73
133
 74
0
 42
0.0000001
 43
0.0000001
 44
0.0000000001
 40
0.0
 40
0.0
 40
0.0
 40
0.0
 40
0.03125
 40
0.046875
 40
0.0625
 40
0.078125
 40
0.09375
 40
0.1015625
 40
0.109375
 40
0.1171875
 40
0.12109375
 40
0.123046875
 40
0.125
 40
0.126953125
 40
0.12890625
 40
0.1328125
 40
0.140625
 40
0.1484375
 40
0.15625
 40
0.171875
 40
0.1875
 40
0.203125
 40
0.21875
 40
0.2265625
 40
0.234375
 40
0.23828125
 40
0.2421875
 40
0.24609375
 40
0.248046875
 40
0.25
 40
0.251953125
 40
0.25390625
 40
0.2578125
 40
0.26171875
 40
0.265625
 40
0.2734375
 40
0.28125
 40
0.296875
 40
0.3125
 40
0.328125
 40
0.34375
 40
0.3515625
 40
0.359375
 40
0.36328125
 40
0.3671875
 40
0.37109375
 40
0.373046875
 40
0.375
 40
0.376953125
 40
0.37890625
 40
0.3828125
 40
0.38671875
 40
0.390625
 40
0.3984375
 40
0.40625
 40
0.421875
 40
0.4375
 40
0.453125
 40
0.46875
 40
0.4765625
 40
0.484375
 40
0.48828125
 40
0.4921875
 40
0.49609375
 40
0.498046875
 40
0.5
 40
0.501953125
 40
0.50390625
 40
0.5078125
 40
0.51171875
 40
0.515625
 40
0.5234375
 40
0.53125
 40
0.546875
 40
0.5625
 40
0.578125
 40
0.59375
 40
0.6015625
 40
0.609375
 40
0.61328125
 40
0.6171875
 40
0.62109375
 40
0.623046875
 40
0.625
 40
0.626953125
 40
0.62890625
 40
0.6328125
 40
0.63671875
 40
0.640625
 40
0.6484375
 40
0.65625
 40
0.671875
 40
0.6875
 40
0.703125
 40
0.71875
 40
0.7265625
 40
0.734375
 40
0.73828125
 40
0.7421875
 40
0.74609375
 40
0.748046875
 40
0.75
 40
0.751953125
 40
0.75390625
 40
0.7578125
 40
0.76171875
 40
0.765625
 40
0.7734375
 40
0.78125
 40
0.796875
 40
0.8125
 40
0.828125
 40
0.84375
 40
0.8515625
 40
0.859375
 40
0.86328125
 40
0.8671875
 40
0.87109375
 40
0.873046875
 40
0.875
 40
0.876953125
 40
0.87890625
 40
0.8828125
 40
0.88671875
 40
0.890625
 40
0.8984375
 40
0.90625
 40
0.921875
 40
0.9375
 40
0.953125
 40
0.96875
 40
1.0
 40
1.0
 40
1.0
 40
1.0
 10
108.2703862378
 20
199.3393625844
 30
0.0
 10
108.2634764381
 20
199.3351258816
 30
0.0
 10
108.2531117339
 20
199.3287708331
 30
0.0
 10
108.2392921471
 20
199.3202974128
 30
0.0
 10
108.2289274099
 20
199.3139424034
 30
0.0
 10
108.2185628517
 20
199.3075871815
 30
0.0
 10
108.2099251626
 20
199.3022918253
 30
0.0
 10
108.2030162592
 20
199.2980540576
 30
0.0
 10
108.1978311724
 20
199.2948797827
 30
0.0
 10
108.193521111
 20
199.2922216687
 30
0.0
 10
108.1904827865
 20
199.290386275
 30
0.0
 10
108.1887798305
 20
199.2892979964
 30
0.0
 10
108.1874090056
 20
199.2885930094
 30
0.0
 10
108.1863959977
 20
199.2874628758
 30
0.0
 10
108.1849205099
 20
199.286104327
 30
0.0
 10
108.1823965579
 20
199.2836577728
 30
0.0
 10
108.1787605099
 20
199.2801988184
 30
0.0
 10
108.1744102654
 20
199.2760326112
 30
0.0
 10
108.1686053943
 20
199.270483069
 30
0.0
 10
108.1613508613
 20
199.2635442905
 30
0.0
 10
108.1526447709
 20
199.2552185391
 30
0.0
 10
108.1439387941
 20
199.2468926177
 30
0.0
 10
108.1366839772
 20
199.239954264
 30
0.0
 10
108.1308796738
 20
199.2344038722
 30
0.0
 10
108.127253027
 20
199.2309341923
 30
0.0
 10
108.1243493193
 20
199.2281600197
 30
0.0
 10
108.1221780834
 20
199.2260750873
 30
0.0
 10
108.1203479
 20
199.224351332
 30
0.0
 10
108.1189304492
 20
199.2229416272
 30
0.0
 10
108.1177397654
 20
199.2219682371
 30
0.0
 10
108.1170361166
 20
199.2206746436
 30
0.0
 10
108.1159277906
 20
199.2190617034
 30
0.0
 10
108.114600753
 20
199.2170071526
 30
0.0
 10
108.1129833237
 20
199.2145581176
 30
0.0
 10
108.1108354778
 20
199.2112870003
 30
0.0
 10
108.1081476823
 20
199.2072000682
 30
0.0
 10
108.1038488802
 20
199.2006598787
 30
0.0
 10
108.0984748
 20
199.1924850203
 30
0.0
 10
108.09202617
 20
199.1826750206
 30
0.0
 10
108.0855773991
 20
199.1728650938
 30
0.0
 10
108.0802036713
 20
199.1646900531
 30
0.0
 10
108.0759041644
 20
199.1581502281
 30
0.0
 10
108.0732181603
 20
199.1540623695
 30
0.0
 10
108.0710666376
 20
199.1507931539
 30
0.0
 10
108.0694604411
 20
199.1483383092
 30
0.0
 10
108.0680982589
 20
199.1463019354
 30
0.0
 10
108.0670616346
 20
199.1446519107
 30
0.0
 10
108.0661390129
 20
199.143471571
 30
0.0
 10
108.0657704447
 20
199.1420729786
 30
0.0
 10
108.0650854823
 20
199.1402844272
 30
0.0
 10
108.0642956813
 20
199.138022581
 30
0.0
 10
108.063319498
 20
199.1353195615
 30
0.0
 10
108.0620278475
 20
199.131711625
 30
0.0
 10
108.0604098851
 20
199.1272030433
 30
0.0
 10
108.0578230458
 20
199.1199885642
 30
0.0
 10
108.0545888399
 20
199.110970723
 30
0.0
 10
108.0507080945
 20
199.1001491995
 30
0.0
 10
108.0468271935
 20
199.0893277199
 30
0.0
 10
108.0435933764
 20
199.0803097689
 30
0.0
 10
108.0410057596
 20
199.0730955092
 30
0.0
 10
108.0393897733
 20
199.06858637
 30
0.0
 10
108.0380940669
 20
199.0649795779
 30
0.0
 10
108.0371302746
 20
199.0622730622
 30
0.0
 10
108.0363017051
 20
199.0600221548
 30
0.0
 10
108.035695838
 20
199.058211286
 30
0.0
 10
108.0350857177
 20
199.0568808497
 30
0.0
 10
108.0350699828
 20
199.0554446236
 30
0.0
 10
108.0348413763
 20
199.0535666093
 30
0.0
 10
108.0346268538
 20
199.0512064127
 30
0.0
 10
108.0343389357
 20
199.0483796037
 30
0.0
 10
108.0339656949
 20
199.0446086295
 30
0.0
 10
108.0334954972
 20
199.0398955608
 30
0.0
 10
108.0327452196
 20
199.0323542882
 30
0.0
 10
108.0318066683
 20
199.0229278218
 30
0.0
 10
108.0306807292
 20
199.0116160091
 30
0.0
 10
108.0295546275
 20
199.0003042092
 30
0.0
 10
108.0286164826
 20
198.9908777109
 30
0.0
 10
108.0278653924
 20
198.9833365019
 30
0.0
 10
108.0273972603
 20
198.9786232715
 30
0.0
 10
108.0270197798
 20
198.9748526293
 30
0.0
 10
108.0267448142
 20
198.9720248059
 30
0.0
 10
108.0264897666
 20
198.9696677832
 30
0.0
 10
108.0263438391
 20
198.9677832935
 30
0.0
 10
108.0260756077
 20
198.9663668429
 30
0.0
 10
108.0264134638
 20
198.9649621612
 30
0.0
 10
108.0266522244
 20
198.9630851412
 30
0.0
 10
108.0270233133
 20
198.9607402767
 30
0.0
 10
108.0274375285
 20
198.9579258356
 30
0.0
 10
108.028000675
 20
198.9541734583
 30
0.0
 10
108.0287008897
 20
198.9494829145
 30
0.0
 10
108.0298233121
 20
198.9419780848
 30
0.0
 10
108.0312256222
 20
198.9325970328
 30
0.0
 10
108.0329087219
 20
198.9213397812
 30
0.0
 10
108.0345916598
 20
198.9100825105
 30
0.0
 10
108.0359943743
 20
198.9007015061
 30
0.0
 10
108.0371159879
 20
198.8931965814
 30
0.0
 10
108.0378182583
 20
198.8885062793
 30
0.0
 10
108.0383771856
 20
198.8847534057
 30
0.0
 10
108.0388042908
 20
198.8819404808
 30
0.0
 10
108.03913505
 20
198.8795908724
 30
0.0
 10
108.0394560908
 20
198.8777235309
 30
0.0
 10
108.0395426681
 20
198.8762892916
 30
0.0
 10
108.040217842
 20
198.8749838127
 30
0.0
 10
108.0409124694
 20
198.8731981966
 30
0.0
 10
108.0418512955
 20
198.870981608
 30
0.0
 10
108.0429476927
 20
198.8683150964
 30
0.0
 10
108.0444201018
 20
198.8647620548
 30
0.0
 10
108.046257002
 20
198.8603199628
 30
0.0
 10
108.0491980612
 20
198.8532130573
 30
0.0
 10
108.0528736882
 20
198.8443292722
 30
0.0
 10
108.0572847584
 20
198.833668803
 30
0.0
 10
108.0616956725
 20
198.8230082872
 30
0.0
 10
108.0653716897
 20
198.8141246188
 30
0.0
 10
108.0683119684
 20
198.8070174799
 30
0.0
 10
108.0701508525
 20
198.8025759811
 30
0.0
 10
108.0716191898
 20
198.7990217219
 30
0.0
 10
108.0727280268
 20
198.79635893
 30
0.0
 10
108.0736279315
 20
198.7941307037
 30
0.0
 10
108.0744019661
 20
198.7923688307
 30
0.0
 10
108.0748346352
 20
198.7909908416
 30
0.0
 10
108.0758316763
 20
198.7898288358
 30
0.0
 10
108.0769639219
 20
198.7882040489
 30
0.0
 10
108.0784468674
 20
198.7861989504
 30
0.0
 10
108.0801974507
 20
198.7837817526
 30
0.0
 10
108.0825416738
 20
198.780562692
 30
0.0
 10
108.0854684903
 20
198.7765375412
 30
0.0
 10
108.0901533319
 20
198.7700980405
 30
0.0
 10
108.0960087198
 20
198.7620484105
 30
0.0
 10
108.1030354699
 20
198.7523889635
 30
0.0
 10
108.1100621439
 20
198.7427294873
 30
0.0
 10
108.1194310693
 20
198.7298501959
 30
0.0
 10
108.1264577573
 20
198.7201907251
 30
0.0
 10
108.1311422173
 20
198.7137510784
 30
0.0
  0
SPLINE
  5
3BC
100
AcDbEntity
  8
7_ALL_FEATURES
100
AcDbSpline
 62
4
  6
CONTINUOUS
 70
0
 71
3
 72
83
 73
79
 74
0
 42
0.0000001
 43
0.0000001
 44
0.0000000001
 40
0.0
 40
0.0
 40
0.0
 40
0.0
 40
0.0625
 40
0.09375
 40
0.109375
 40
0.125
 40
0.140625
 40
0.15625
 40
0.16015625
 40
0.1640625
 40
0.166015625
 40
0.16796875
 40
0.171875
 40
0.1796875
 40
0.1875
 40
0.203125
 40
0.21875
 40
0.25
 40
0.28125
 40
0.296875
 40
0.3125
 40
0.3203125
 40
0.328125
 40
0.33203125
 40
0.333984375
 40
0.3359375
 40
0.33984375
 40
0.34375
 40
0.359375
 40
0.375
 40
0.390625
 40
0.40625
 40
0.4375
 40
0.453125
 40
0.46875
 40
0.4765625
 40
0.484375
 40
0.4921875
 40
0.49609375
 40
0.5
 40
0.50390625
 40
0.5078125
 40
0.515625
 40
0.5234375
 40
0.53125
 40
0.546875
 40
0.5625
 40
0.59375
 40
0.609375
 40
0.625
 40
0.640625
 40
0.65625
 40
0.66015625
 40
0.6640625
 40
0.666015625
 40
0.66796875
 40
0.671875
 40
0.6796875
 40
0.6875
 40
0.703125
 40
0.71875
 40
0.75
 40
0.78125
 40
0.796875
 40
0.8125
 40
0.8203125
 40
0.828125
 40
0.83203125
 40
0.833984375
 40
0.8359375
 40
0.83984375
 40
0.84375
 40
0.859375
 40
0.875
 40
0.890625
 40
0.90625
 40
0.9375
 40
1.0
 40
1.0
 40
1.0
 40
1.0
 10
108.842131224
 20
199.3393625844
 30
0.0
 10
108.8308816872
 20
199.3437540588
 30
0.0
 10
108.8140074098
 20
199.3503413419
 30
0.0
 10
108.7943206556
 20
199.3580262556
 30
0.0
 10
108.7830712207
 20
199.3624179918
 30
0.0
 10
108.7746337555
 20
199.3657107947
 30
0.0
 10
108.7661977771
 20
199.369007416
 30
0.0
 10
108.7598666246
 20
199.3714691762
 30
0.0
 10
108.7556523394
 20
199.3731269995
 30
0.0
 10
108.75388674
 20
199.3737929832
 30
0.0
 10
108.7524967656
 20
199.3743835675
 30
0.0
 10
108.7510244886
 20
199.3747627833
 30
0.0
 10
108.7484097642
 20
199.375328204
 30
0.0
 10
108.7446943952
 20
199.3761871874
 30
0.0
 10
108.7387386547
 20
199.3775329252
 30
0.0
 10
108.7312977984
 20
199.3792249068
 30
0.0
 10
108.719390285
 20
199.3819265692
 30
0.0
 10
108.7045066912
 20
199.3853057201
 30
0.0
 10
108.6896225849
 20
199.3886834649
 30
0.0
 10
108.6777158913
 20
199.391387377
 30
0.0
 10
108.6702729853
 20
199.3930737344
 30
0.0
 10
108.6643214468
 20
199.3944310017
 30
0.0
 10
108.6605953808
 20
199.395260634
 30
0.0
 10
108.6579998693
 20
199.3958787726
 30
0.0
 10
108.6564967953
 20
199.3961734851
 30
0.0
 10
108.6549186751
 20
199.3962478221
 30
0.0
 10
108.6529716759
 20
199.3964160687
 30
0.0
 10
108.6482777659
 20
199.3967578643
 30
0.0
 10
108.6412457683
 20
199.3972965964
 30
0.0
 10
108.631864703
 20
199.3980000249
 30
0.0
 10
108.6224849946
 20
199.3987074281
 30
0.0
 10
108.6099782375
 20
199.3996492752
 30
0.0
 10
108.5974716427
 20
199.4005913162
 30
0.0
 10
108.5849649204
 20
199.4015337934
 30
0.0
 10
108.5771484023
 20
199.4021215895
 30
0.0
 10
108.5708947796
 20
199.4025947226
 30
0.0
 10
108.5662056773
 20
199.4029416349
 30
0.0
 10
108.5622945465
 20
199.40325598
 30
0.0
 10
108.5591735939
 20
199.4034508213
 30
0.0
 10
108.5568111505
 20
199.4037517058
 30
0.0
 10
108.5545316467
 20
199.4034618934
 30
0.0
 10
108.5514633365
 20
199.403281815
 30
0.0
 10
108.5476378888
 20
199.4029859235
 30
0.0
 10
108.5430430969
 20
199.4026611555
 30
0.0
 10
108.5369181937
 20
199.4022175481
 30
0.0
 10
108.529261556
 20
199.4016666591
 30
0.0
 10
108.5170112194
 20
199.4007832341
 30
0.0
 10
108.5047608084
 20
199.3999002394
 30
0.0
 10
108.4925104078
 20
199.3990174559
 30
0.0
 10
108.4833226507
 20
199.3983543045
 30
0.0
 10
108.4741347151
 20
199.3976953025
 30
0.0
 10
108.4672442662
 20
199.3971894007
 30
0.0
 10
108.4626498514
 20
199.3968702533
 30
0.0
 10
108.4607366758
 20
199.3967103106
 30
0.0
 10
108.4592034203
 20
199.3966452596
 30
0.0
 10
108.4576800938
 20
199.3963501675
 30
0.0
 10
108.4550188858
 20
199.3957268737
 30
0.0
 10
108.451214753
 20
199.3948922201
 30
0.0
 10
108.4451294859
 20
199.393525609
 30
0.0
 10
108.4375224396
 20
199.3918280204
 30
0.0
 10
108.4253514351
 20
199.3891058874
 30
0.0
 10
108.4101375068
 20
199.3857054551
 30
0.0
 10
108.394923932
 20
199.382303576
 30
0.0
 10
108.382752362
 20
199.3795837578
 30
0.0
 10
108.3751467293
 20
199.3778803821
 30
0.0
 10
108.3690585643
 20
199.3765256346
 30
0.0
 10
108.365261809
 20
199.3756607795
 30
0.0
 10
108.3625873502
 20
199.3750917309
 30
0.0
 10
108.3610852637
 20
199.3747096874
 30
0.0
 10
108.3596817676
 20
199.3741134328
 30
0.0
 10
108.3578936988
 20
199.3734413328
 30
0.0
 10
108.3536300691
 20
199.371768031
 30
0.0
 10
108.3472229754
 20
199.3692833888
 30
0.0
 10
108.338686842
 20
199.3659560662
 30
0.0
 10
108.3301489275
 20
199.3626326134
 30
0.0
 10
108.3187656629
 20
199.3581999927
 30
0.0
 10
108.2988446587
 20
199.3504435394
 30
0.0
 10
108.281769612
 20
199.3437949339
 30
0.0
 10
108.2703862254
 20
199.3393625784
 30
0.0
  0
SPLINE
  5
3BD
100
AcDbEntity
  8
7_ALL_FEATURES
100
AcDbSpline
 62
4
  6
CONTINUOUS
 70
0
 71
3
 72
131
 73
127
 74
0
 42
0.0000001
 43
0.0000001
 44
0.0000000001
 40
0.0
 40
0.0
 40
0.0
 40
0.0
 40
0.03125
 40
0.0625
 40
0.078125
 40
0.0859375
 40
0.09375
 40
0.1015625
 40
0.10546875
 40
0.109375
 40
0.111328125
 40
0.11328125
 40
0.1171875
 40
0.125
 40
0.1328125
 40
0.140625
 40
0.15625
 40
0.171875
 40
0.1875
 40
0.1953125
 40
0.203125
 40
0.2109375
 40
0.21484375
 40
0.21875
 40
0.220703125
 40
0.22265625
 40
0.224609375
 40
0.2265625
 40
0.23046875
 40
0.234375
 40
0.25
 40
0.265625
 40
0.28125
 40
0.296875
 40
0.3046875
 40
0.3125
 40
0.3203125
 40
0.328125
 40
0.330078125
 40
0.33203125
 40
0.3330078125
 40
0.333984375
 40
0.3359375
 40
0.33984375
 40
0.34375
 40
0.3515625
 40
0.359375
 40
0.375
 40
0.390625
 40
0.40625
 40
0.4140625
 40
0.421875
 40
0.4296875
 40
0.4375
 40
0.44140625
 40
0.4453125
 40
0.447265625
 40
0.44921875
 40
0.453125
 40
0.45703125
 40
0.4609375
 40
0.46875
 40
0.484375
 40
0.5
 40
0.515625
 40
0.53125
 40
0.5390625
 40
0.54296875
 40
0.546875
 40
0.55078125
 40
0.552734375
 40
0.5546875
 40
0.55859375
 40
0.5625
 40
0.5703125
 40
0.578125
 40
0.5859375
 40
0.59375
 40
0.609375
 40
0.625
 40
0.640625
 40
0.6484375
 40
0.65625
 40
0.66015625
 40
0.6640625
 40
0.666015625
 40
0.6669921875
 40
0.66796875
 40
0.669921875
 40
0.671875
 40
0.6796875
 40
0.6875
 40
0.6953125
 40
0.703125
 40
0.71875
 40
0.734375
 40
0.75
 40
0.765625
 40
0.76953125
 40
0.7734375
 40
0.775390625
 40
0.77734375
 40
0.779296875
 40
0.78125
 40
0.78515625
 40
0.7890625
 40
0.796875
 40
0.8046875
 40
0.8125
 40
0.828125
 40
0.84375
 40
0.859375
 40
0.8671875
 40
0.875
 40
0.8828125
 40
0.88671875
 40
0.888671875
 40
0.890625
 40
0.89453125
 40
0.8984375
 40
0.90625
 40
0.9140625
 40
0.921875
 40
0.9375
 40
0.96875
 40
1.0
 40
1.0
 40
1.0
 40
1.0
 10
108.9147960732
 20
198.6546946292
 30
0.0
 10
108.9214302055
 20
198.6606640027
 30
0.0
 10
108.9346985262
 20
198.6726027104
 30
0.0
 10
108.9512836467
 20
198.6875262921
 30
0.0
 10
108.9628937462
 20
198.6979724372
 30
0.0
 10
108.9695272898
 20
198.7039422245
 30
0.0
 10
108.9745046972
 20
198.7084179838
 30
0.0
 10
108.9786453704
 20
198.7121528197
 30
0.0
 10
108.9819739833
 20
198.7151293916
 30
0.0
 10
108.9840177637
 20
198.7170154728
 30
0.0
 10
108.9857366158
 20
198.7184654249
 30
0.0
 10
108.9868827928
 20
198.7203178441
 30
0.0
 10
108.9891554224
 20
198.7233720607
 30
0.0
 10
108.9922625396
 20
198.7278332633
 30
0.0
 10
108.9960507897
 20
198.7331447435
 30
0.0
 10
109.0010809321
 20
198.7402413757
 30
0.0
 10
109.0073757693
 20
198.7491071346
 30
0.0
 10
109.014926496
 20
198.7597482077
 30
0.0
 10
109.0212194827
 20
198.7686152689
 30
0.0
 10
109.0262536962
 20
198.775709036
 30
0.0
 10
109.0300294553
 20
198.7810293067
 30
0.0
 10
109.0331756647
 20
198.7854629984
 30
0.0
 10
109.0356931983
 20
198.7890096604
 30
0.0
 10
109.0372653699
 20
198.791226986
 30
0.0
 10
109.0385260543
 20
198.792999331
 30
0.0
 10
109.0394634983
 20
198.7943327391
 30
0.0
 10
109.0399819639
 20
198.7958815902
 30
0.0
 10
109.0408195796
 20
198.7978714816
 30
0.0
 10
109.0418165837
 20
198.8003845643
 30
0.0
 10
109.0442505583
 20
198.8063947954
 30
0.0
 10
109.0478842334
 20
198.8154190323
 30
0.0
 10
109.0527390004
 20
198.827446268
 30
0.0
 10
109.0575911786
 20
198.8394748585
 30
0.0
 10
109.0616350672
 20
198.8494984014
 30
0.0
 10
109.0648704963
 20
198.8575172363
 30
0.0
 10
109.0672958693
 20
198.8635315301
 30
0.0
 10
109.0697258788
 20
198.8695451535
 30
0.0
 10
109.0715353754
 20
198.8740572562
 30
0.0
 10
109.0727619417
 20
198.8770623923
 30
0.0
 10
109.0732428996
 20
198.878318896
 30
0.0
 10
109.0736979099
 20
198.8793139195
 30
0.0
 10
109.0738960335
 20
198.8803461696
 30
0.0
 10
109.0741233943
 20
198.8821699034
 30
0.0
 10
109.0745104692
 20
198.8847662131
 30
0.0
 10
109.0750949876
 20
198.8889253518
 30
0.0
 10
109.0758375518
 20
198.8941225484
 30
0.0
 10
109.0770189931
 20
198.9024390283
 30
0.0
 10
109.078498091
 20
198.912834296
 30
0.0
 10
109.0802719785
 20
198.9253087633
 30
0.0
 10
109.0817505898
 20
198.9357041086
 30
0.0
 10
109.0829331016
 20
198.9440204177
 30
0.0
 10
109.0838208944
 20
198.9502575772
 30
0.0
 10
109.0847052398
 20
198.9564950098
 30
0.0
 10
109.0854529281
 20
198.9616920203
 30
0.0
 10
109.0860270413
 20
198.9658515321
 30
0.0
 10
109.0864405888
 20
198.9684468935
 30
0.0
 10
109.086128256
 20
198.970574112
 30
0.0
 10
109.0859282572
 20
198.9726924354
 30
0.0
 10
109.0856397177
 20
198.9753433914
 30
0.0
 10
109.0853099656
 20
198.9785232325
 30
0.0
 10
109.0848645423
 20
198.9827634763
 30
0.0
 10
109.0840877334
 20
198.9901836908
 30
0.0
 10
109.0829765952
 20
199.0007841059
 30
0.0
 10
109.0816438732
 20
199.0135045671
 30
0.0
 10
109.0803108339
 20
199.0262250021
 30
0.0
 10
109.0792004888
 20
199.0368254826
 30
0.0
 10
109.0784222921
 20
199.0442455827
 30
0.0
 10
109.0779790893
 20
199.0484860095
 30
0.0
 10
109.0776425168
 20
199.0516652883
 30
0.0
 10
109.0773753241
 20
199.0543180042
 30
0.0
 10
109.0771317727
 20
199.0564327371
 30
0.0
 10
109.0769967828
 20
199.058574576
 30
0.0
 10
109.0760510801
 20
199.0610578785
 30
0.0
 10
109.0746225781
 20
199.0650522914
 30
0.0
 10
109.0728079128
 20
199.0700380573
 30
0.0
 10
109.0706427624
 20
199.0760240844
 30
0.0
 10
109.0684742805
 20
199.0820092795
 30
0.0
 10
109.0655841422
 20
199.089989833
 30
0.0
 10
109.0619710167
 20
199.0999654042
 30
0.0
 10
109.0576356819
 20
199.111936229
 30
0.0
 10
109.0540221206
 20
199.1219116129
 30
0.0
 10
109.051132941
 20
199.1298925784
 30
0.0
 10
109.0493234213
 20
199.1348791876
 30
0.0
 10
109.0478844662
 20
199.1388718967
 30
0.0
 10
109.0469653587
 20
199.1413595324
 30
0.0
 10
109.0463615861
 20
199.1431165247
 30
0.0
 10
109.0459546112
 20
199.1440960386
 30
0.0
 10
109.045314257
 20
199.1449833425
 30
0.0
 10
109.0445935844
 20
199.1461239901
 30
0.0
 10
109.0427983156
 20
199.1488356038
 30
0.0
 10
109.0401329877
 20
199.1529139195
 30
0.0
 10
109.0365634574
 20
199.1583454472
 30
0.0
 10
109.0329981391
 20
199.1637786384
 30
0.0
 10
109.0282429306
 20
199.1710223237
 30
0.0
 10
109.0222992706
 20
199.1800770432
 30
0.0
 10
109.0151673718
 20
199.1909430191
 30
0.0
 10
109.0080329393
 20
199.2018075647
 30
0.0
 10
109.0026893461
 20
199.2099600305
 30
0.0
 10
108.9991156904
 20
199.2153886936
 30
0.0
 10
108.9976434255
 20
199.2176600332
 30
0.0
 10
108.9964265198
 20
199.2194551844
 30
0.0
 10
108.9956210668
 20
199.2208616712
 30
0.0
 10
108.9944062557
 20
199.2220386246
 30
0.0
 10
108.9927759956
 20
199.2236020017
 30
0.0
 10
108.9907417698
 20
199.2255582412
 30
0.0
 10
108.9874849968
 20
199.2286870963
 30
0.0
 10
108.9834147217
 20
199.2325985533
 30
0.0
 10
108.9785300916
 20
199.2372921311
 30
0.0
 10
108.9720173767
 20
199.2435503163
 30
0.0
 10
108.9638762939
 20
199.2513728637
 30
0.0
 10
108.9541077145
 20
199.2607606823
 30
0.0
 10
108.945965084
 20
199.2685815706
 30
0.0
 10
108.939455774
 20
199.2748434058
 30
0.0
 10
108.9345606971
 20
199.2795257847
 30
0.0
 10
108.9305231168
 20
199.2834722902
 30
0.0
 10
108.9276150733
 20
199.2861474696
 30
0.0
 10
108.9260809601
 20
199.2878125713
 30
0.0
 10
108.9240674813
 20
199.2889652474
 30
0.0
 10
108.9216383444
 20
199.2904998531
 30
0.0
 10
108.9177027033
 20
199.2929028194
 30
0.0
 10
108.912799971
 20
199.2959245063
 30
0.0
 10
108.9069094937
 20
199.2995428357
 30
0.0
 10
108.8990580351
 20
199.3043699589
 30
0.0
 10
108.885316812
 20
199.3128161735
 30
0.0
 10
108.8656871093
 20
199.3248828529
 30
0.0
 10
108.8499831594
 20
199.3345359956
 30
0.0
 10
108.8421312079
 20
199.3393625921
 30
0.0
  0
SPLINE
  5
3BE
100
AcDbEntity
  8
7_ALL_FEATURES
100
AcDbSpline
 62
4
  6
CONTINUOUS
 70
0
 71
3
 72
56
 73
52
 74
0
 42
0.0000001
 43
0.0000001
 44
0.0000000001
 40
0.0
 40
0.0
 40
0.0
 40
0.0
 40
0.0625
 40
0.09375
 40
0.125
 40
0.140625
 40
0.15625
 40
0.1640625
 40
0.171875
 40
0.1796875
 40
0.1875
 40
0.21875
 40
0.25
 40
0.28125
 40
0.3125
 40
0.3203125
 40
0.328125
 40
0.3359375
 40
0.34375
 40
0.359375
 40
0.375
 40
0.4375
 40
0.46875
 40
0.484375
 40
0.4921875
 40
0.5
 40
0.5078125
 40
0.515625
 40
0.53125
 40
0.5625
 40
0.625
 40
0.640625
 40
0.65625
 40
0.6640625
 40
0.671875
 40
0.6796875
 40
0.6875
 40
0.71875
 40
0.75
 40
0.78125
 40
0.8125
 40
0.8203125
 40
0.828125
 40
0.83203125
 40
0.8359375
 40
0.84375
 40
0.859375
 40
0.875
 40
0.90625
 40
0.9375
 40
1.0
 40
1.0
 40
1.0
 40
1.0
 10
108.7057453415
 20
197.0081045731
 30
0.0
 10
108.7173444801
 20
197.0136752756
 30
0.0
 10
108.734742593
 20
197.0220322314
 30
0.0
 10
108.7579424569
 20
197.0331712309
 30
0.0
 10
108.7724374133
 20
197.0401406225
 30
0.0
 10
108.7840446841
 20
197.0456989974
 30
0.0
 10
108.7912734436
 20
197.0492120692
 30
0.0
 10
108.797115508
 20
197.0519330012
 30
0.0
 10
108.8013353567
 20
197.0542188243
 30
0.0
 10
108.8055098931
 20
197.0565733371
 30
0.0
 10
108.8138822807
 20
197.0612470206
 30
0.0
 10
108.8264309822
 20
197.0682725043
 30
0.0
 10
108.8431686474
 20
197.0776307214
 30
0.0
 10
108.8599031371
 20
197.0869934055
 30
0.0
 10
108.8724589834
 20
197.0940088385
 30
0.0
 10
108.8808222416
 20
197.0986953646
 30
0.0
 10
108.8850168229
 20
197.1010216795
 30
0.0
 10
108.889161057
 20
197.1034138729
 30
0.0
 10
108.8944471695
 20
197.1069168862
 30
0.0
 10
108.9011367442
 20
197.1111884532
 30
0.0
 10
108.9171237548
 20
197.1215290645
 30
0.0
 10
108.935803519
 20
197.1335570516
 30
0.0
 10
108.9544580003
 20
197.1456154727
 30
0.0
 10
108.9638062141
 20
197.1516206679
 30
0.0
 10
108.9691157085
 20
197.1550890296
 30
0.0
 10
108.9731888632
 20
197.1575866974
 30
0.0
 10
108.9769140534
 20
197.1604803682
 30
0.0
 10
108.982002355
 20
197.1642004599
 30
0.0
 10
108.9908502561
 20
197.1707750389
 30
0.0
 10
109.0085883258
 20
197.183876388
 30
0.0
 10
109.0262992969
 20
197.1970069159
 30
0.0
 10
109.0415080066
 20
197.2082332772
 30
0.0
 10
109.0478114109
 20
197.2129443279
 30
0.0
 10
109.052931886
 20
197.2166358458
 30
0.0
 10
109.0565591221
 20
197.2196164122
 30
0.0
 10
109.0601266318
 20
197.2226563687
 30
0.0
 10
109.0672923708
 20
197.2287057462
 30
0.0
 10
109.0780281347
 20
197.2377924173
 30
0.0
 10
109.0923495517
 20
197.249901824
 30
0.0
 10
109.1066701102
 20
197.2620089593
 30
0.0
 10
109.1174078056
 20
197.2711007412
 30
0.0
 10
109.1245710766
 20
197.2771435882
 30
0.0
 10
109.1275485171
 20
197.2796888342
 30
0.0
 10
109.1299474026
 20
197.2816611217
 30
0.0
 10
109.1322843605
 20
197.2838671321
 30
0.0
 10
109.1363452637
 20
197.2878362435
 30
0.0
 10
109.1421615665
 20
197.2934497442
 30
0.0
 10
109.1514592611
 20
197.3024630093
 30
0.0
 10
109.1630842533
 20
197.3137187442
 30
0.0
 10
109.1816826274
 20
197.3317340092
 30
0.0
 10
109.195631771
 20
197.345244088
 30
0.0
 10
109.2049311194
 20
197.3542511116
 30
0.0
  0
SPLINE
  5
3BF
100
AcDbEntity
  8
3_ALL_AXES
100
AcDbSpline
 62
7
  6
CONTINUOUS
 70
0
 71
3
 72
19
 73
15
 74
0
 42
0.0000001
 43
0.0000001
 44
0.0000000001
 40
0.0
 40
0.0
 40
0.0
 40
0.0
 40
0.1683000113
 40
0.2404505744
 40
0.3036556532
 40
0.4090388234
 40
0.4554737865
 40
0.5000393211
 40
0.5446067335
 40
0.591042408
 40
0.696430429
 40
0.7596418824
 40
0.8317824151
 40
1.0
 40
1.0
 40
1.0
 40
1.0
 10
102.2922344271
 20
182.0093680478
 30
0.0
 10
102.2922344271
 20
181.9027623726
 30
0.0
 10
102.3164072919
 20
181.748435946
 30
0.0
 10
102.3952243683
 20
181.5720422231
 30
0.0
 10
102.4811721216
 20
181.4455093592
 30
0.0
 10
102.5886089923
 20
181.3545217027
 30
0.0
 10
102.7062445535
 20
181.3110440014
 30
0.0
 10
102.7923123637
 20
181.3006679222
 30
0.0
 10
102.8783796492
 20
181.3110710098
 30
0.0
 10
102.9959916923
 20
181.3546240198
 30
0.0
 10
103.1034144811
 20
181.4456291552
 30
0.0
 10
103.189328706
 20
181.5721887747
 30
0.0
 10
103.2680748303
 20
181.748552292
 30
0.0
 10
103.2922344271
 20
181.9028145837
 30
0.0
 10
103.2922344271
 20
182.0093680478
 30
0.0
  0
SPLINE
  5
3C0
100
AcDbEntity
  8
3_ALL_AXES
100
AcDbSpline
 62
7
  6
CONTINUOUS
 70
0
 71
3
 72
19
 73
15
 74
0
 42
0.0000001
 43
0.0000001
 44
0.0000000001
 40
0.0
 40
0.0
 40
0.0
 40
0.0
 40
0.1683075029
 40
0.2404576968
 40
0.3036660769
 40
0.4090527407
 40
0.4554823394
 40
0.5000445236
 40
0.5446094138
 40
0.5910415449
 40
0.6964181475
 40
0.7596236278
 40
0.8317654351
 40
1.0
 40
1.0
 40
1.0
 40
1.0
 10
114.2922344271
 20
182.0093680478
 30
0.0
 10
114.2922344271
 20
181.9027577155
 30
0.0
 10
114.3164093541
 20
181.7484265182
 30
0.0
 10
114.3952324564
 20
181.5720285966
 30
0.0
 10
114.4811840638
 20
181.4454932758
 30
0.0
 10
114.5886284504
 20
181.354511878
 30
0.0
 10
114.7062624683
 20
181.3110415978
 30
0.0
 10
114.7923232762
 20
181.3006674193
 30
0.0
 10
114.8783840276
 20
181.3110735498
 30
0.0
 10
114.9959853569
 20
181.3546222053
 30
0.0
 10
115.1033984425
 20
181.4456163567
 30
0.0
 10
115.1893137197
 20
181.5721624533
 30
0.0
 10
115.2680725644
 20
181.7485289903
 30
0.0
 10
115.2922344271
 20
181.9028039163
 30
0.0
 10
115.2922344271
 20
182.0093680478
 30
0.0
  0
SPLINE
  5
3C1
100
AcDbEntity
  8
3_ALL_AXES
100
AcDbSpline
 62
7
  6
CONTINUOUS
 70
0
 71
3
 72
11
 73
7
 74
0
 42
0.0000001
 43
0.0000001
 44
0.0000000001
 40
0.0
 40
0.0
 40
0.0
 40
0.0
 40
0.2499875457
 40
0.4999810974
 40
0.7499896465
 40
1.0
 40
1.0
 40
1.0
 40
1.0
 10
109.7922344271
 20
182.5093680478
 30
0.0
 10
110.0541591741
 20
182.5467858688
 30
0.0
 10
110.5742862923
 20
182.6500595814
 30
0.0
 10
111.335503568
 20
182.8784099946
 30
0.0
 10
112.0757942646
 20
183.1668469892
 30
0.0
 10
112.5555617572
 20
183.3910317129
 30
0.0
 10
112.7922344271
 20
183.5093680478
 30
0.0
  0
SPLINE
  5
3C2
100
AcDbEntity
  8
3_ALL_AXES
100
AcDbSpline
 62
7
  6
CONTINUOUS
 70
0
 71
3
 72
11
 73
7
 74
0
 42
0.0000001
 43
0.0000001
 44
0.0000000001
 40
0.0
 40
0.0
 40
0.0
 40
0.0
 40
0.2699449571
 40
0.5270499909
 40
0.7701654741
 40
1.0
 40
1.0
 40
1.0
 40
1.0
 10
100.7922344271
 20
183.5093680478
 30
0.0
 10
100.9080603921
 20
183.3935420829
 30
0.0
 10
101.1415950067
 20
183.1745417715
 30
0.0
 10
101.510105608
 20
182.8857831259
 30
0.0
 10
101.8901063787
 20
182.6555961257
 30
0.0
 10
102.1581368039
 20
182.5476816545
 30
0.0
 10
102.2922344271
 20
182.5093680478
 30
0.0
  0
SPLINE
  5
3C3
100
AcDbEntity
  8
3_ALL_AXES
100
AcDbSpline
 62
7
  6
CONTINUOUS
 70
0
 71
3
 72
19
 73
15
 74
0
 42
0.0000001
 43
0.0000001
 44
0.0000000001
 40
0.0
 40
0.0
 40
0.0
 40
0.0
 40
0.062499569
 40
0.1250450196
 40
0.1876243679
 40
0.2502137548
 40
0.3750836247
 40
0.5000591496
 40
0.6250261711
 40
0.7498800617
 40
0.8124624827
 40
0.8750225901
 40
0.9375286272
 40
1.0
 40
1.0
 40
1.0
 40
1.0
 10
107.7922344271
 20
182.0093680478
 30
0.0
 10
107.7922344271
 20
181.9532944361
 30
0.0
 10
107.8117435422
 20
181.8403053422
 30
0.0
 10
107.8915275123
 20
181.6895829589
 30
0.0
 10
108.0065869668
 20
181.5645332501
 30
0.0
 10
108.1900306665
 20
181.4333673841
 30
0.0
 10
108.4554306039
 20
181.3302366328
 30
0.0
 10
108.792388315
 20
181.2909802102
 30
0.0
 10
109.1293201481
 20
181.3303179223
 30
0.0
 10
109.3946743348
 20
181.4334862401
 30
0.0
 10
109.578055962
 20
181.5646773964
 30
0.0
 10
109.693026732
 20
181.6897274255
 30
0.0
 10
109.7727445077
 20
181.8403915289
 30
0.0
 10
109.7922344271
 20
181.9533197333
 30
0.0
 10
109.7922344271
 20
182.0093680478
 30
0.0
  0
SPLINE
  5
3C4
100
AcDbEntity
  8
3_ALL_AXES
100
AcDbSpline
 62
7
  6
CONTINUOUS
 70
0
 71
3
 72
11
 73
7
 74
0
 42
0.0000001
 43
0.0000001
 44
0.0000000001
 40
0.0
 40
0.0
 40
0.0
 40
0.0
 40
0.2500103617
 40
0.5000189242
 40
0.7500124732
 40
1.0
 40
1.0
 40
1.0
 40
1.0
 10
104.7922344271
 20
183.5093680478
 30
0.0
 10
105.0289071049
 20
183.391031709
 30
0.0
 10
105.5086746173
 20
183.1668469735
 30
0.0
 10
106.2489653344
 20
182.8784099756
 30
0.0
 10
107.010182604
 20
182.6500595724
 30
0.0
 10
107.5303097
 20
182.546785866
 30
0.0
 10
107.7922344271
 20
182.5093680478
 30
0.0
  0
SPLINE
  5
3C5
100
AcDbEntity
  8
3_ALL_AXES
100
AcDbSpline
 62
7
  6
CONTINUOUS
 70
0
 71
3
 72
11
 73
7
 74
0
 42
0.0000001
 43
0.0000001
 44
0.0000000001
 40
0.0
 40
0.0
 40
0.0
 40
0.0
 40
0.2699449571
 40
0.5270499909
 40
0.7701654741
 40
1.0
 40
1.0
 40
1.0
 40
1.0
 10
112.7922344271
 20
183.5093680478
 30
0.0
 10
112.9080603921
 20
183.3935420829
 30
0.0
 10
113.1415950067
 20
183.1745417715
 30
0.0
 10
113.510105608
 20
182.8857831259
 30
0.0
 10
113.8901063787
 20
182.6555961257
 30
0.0
 10
114.1581368039
 20
182.5476816545
 30
0.0
 10
114.2922344271
 20
182.5093680478
 30
0.0
  0
SPLINE
  5
3C6
100
AcDbEntity
  8
3_ALL_AXES
100
AcDbSpline
 62
7
  6
CONTINUOUS
 70
0
 71
3
 72
11
 73
7
 74
0
 42
0.0000001
 43
0.0000001
 44
0.0000000001
 40
0.0
 40
0.0
 40
0.0
 40
0.0
 40
0.2298345438
 40
0.4729500311
 40
0.7300550521
 40
1.0
 40
1.0
 40
1.0
 40
1.0
 10
115.2922344271
 20
182.5093680478
 30
0.0
 10
115.4263320608
 20
182.5476816574
 30
0.0
 10
115.694362498
 20
182.6555961356
 30
0.0
 10
116.0743632696
 20
182.8857831447
 30
0.0
 10
116.44287386
 20
183.174541786
 30
0.0
 10
116.6764084662
 20
183.3935420869
 30
0.0
 10
116.7922344271
 20
183.5093680478
 30
0.0
  0
SPLINE
  5
3C7
100
AcDbEntity
  8
3_ALL_AXES
100
AcDbSpline
 62
7
  6
CONTINUOUS
 70
0
 71
3
 72
11
 73
7
 74
0
 42
0.0000001
 43
0.0000001
 44
0.0000000001
 40
0.0
 40
0.0
 40
0.0
 40
0.0
 40
0.2298345438
 40
0.4729500311
 40
0.7300550521
 40
1.0
 40
1.0
 40
1.0
 40
1.0
 10
103.2922344271
 20
182.5093680478
 30
0.0
 10
103.4263320608
 20
182.5476816574
 30
0.0
 10
103.694362498
 20
182.6555961356
 30
0.0
 10
104.0743632696
 20
182.8857831447
 30
0.0
 10
104.44287386
 20
183.174541786
 30
0.0
 10
104.6764084662
 20
183.3935420869
 30
0.0
 10
104.7922344271
 20
183.5093680478
 30
0.0
  0
SPLINE
  5
3C8
100
AcDbEntity
  8
02___PRT_ALL_AXES
100
AcDbSpline
 62
7
  6
CONTINUOUS
 70
0
 71
3
 72
13
 73
9
 74
0
 42
0.0000001
 43
0.0000001
 44
0.0000000001
 40
0.0
 40
0.0
 40
0.0
 40
0.0
 40
0.2818639725
 40
0.5483287106
 40
0.6722996589
 40
0.7885429423
 40
0.8972506001
 40
1.0
 40
1.0
 40
1.0
 40
1.0
 10
126.0717231115
 20
217.7593680478
 30
0.0
 10
126.0717231115
 20
217.2098043652
 30
0.0
 10
126.2409535517
 20
216.1334430419
 30
0.0
 10
126.8558853399
 20
214.945413009
 30
0.0
 10
127.5330550198
 20
214.2188391877
 30
0.0
 10
128.0899610244
 20
213.8191742535
 30
0.0
 10
128.6840320888
 20
213.5687969698
 30
0.0
 10
129.0979956571
 20
213.5093680487
 30
0.0
 10
129.2983310816
 20
213.5093680478
 30
0.0
  0
SPLINE
  5
3C9
100
AcDbEntity
  8
02___PRT_ALL_AXES
100
AcDbSpline
 62
7
  6
CONTINUOUS
 70
0
 71
3
 72
13
 73
9
 74
0
 42
0.0000001
 43
0.0000001
 44
0.0000000001
 40
0.0
 40
0.0
 40
0.0
 40
0.0
 40
0.1027493991
 40
0.2114570584
 40
0.3277003426
 40
0.4516712913
 40
0.7181360306
 40
1.0
 40
1.0
 40
1.0
 40
1.0
 10
129.2983310816
 20
222.0093680478
 30
0.0
 10
129.0979956585
 20
222.0093680487
 30
0.0
 10
128.6840320883
 20
221.9499391267
 30
0.0
 10
128.0899610226
 20
221.6995618393
 30
0.0
 10
127.5330550126
 20
221.2998969037
 30
0.0
 10
126.8558853337
 20
220.573323075
 30
0.0
 10
126.240953549
 20
219.385293044
 30
0.0
 10
126.0717231115
 20
218.3089317244
 30
0.0
 10
126.0717231115
 20
217.7593680478
 30
0.0
  0
SPLINE
  5
3CA
100
AcDbEntity
  8
02___PRT_ALL_AXES
100
AcDbSpline
 62
7
  6
CONTINUOUS
 70
0
 71
3
 72
9
 73
5
 74
0
 42
0.0000001
 43
0.0000001
 44
0.0000000001
 40
0.0
 40
0.0
 40
0.0
 40
0.0
 40
0.2429954103
 40
1.0
 40
1.0
 40
1.0
 40
1.0
 10
128.4144760023
 20
213.6973747464
 30
0.0
 10
128.4758958951
 20
213.7241183376
 30
0.0
 10
128.7240279433
 20
213.84469613
 30
0.0
 10
128.9518723119
 20
214.0056097622
 30
0.0
 10
129.1090742393
 20
214.1428703546
 30
0.0
  0
SPLINE
  5
3CB
100
AcDbEntity
  8
02___PRT_ALL_AXES
100
AcDbSpline
 62
7
  6
CONTINUOUS
 70
0
 71
3
 72
14
 73
10
 74
0
 42
0.0000001
 43
0.0000001
 44
0.0000000001
 40
0.0
 40
0.0
 40
0.0
 40
0.0
 40
0.1042552261
 40
0.2098548062
 40
0.3209792669
 40
0.4405187602
 40
0.5695740114
 40
0.7074792171
 40
1.0
 40
1.0
 40
1.0
 40
1.0
 10
129.2983310816
 20
213.5093680478
 30
0.0
 10
129.4931163917
 20
213.509368047
 30
0.0
 10
129.8876556829
 20
213.5646455143
 30
0.0
 10
130.4402692383
 20
213.8161840831
 30
0.0
 10
130.9291956298
 20
214.2208457933
 30
0.0
 10
131.3409286876
 20
214.7578894511
 30
0.0
 10
131.668260569
 20
215.4055687357
 30
0.0
 10
131.9908709049
 20
216.4027765989
 30
0.0
 10
132.0821307516
 20
217.2128366792
 30
0.0
 10
132.0821307516
 20
217.7593680478
 30
0.0
  0
SPLINE
  5
3CC
100
AcDbEntity
  8
02___PRT_ALL_AXES
100
AcDbSpline
 62
7
  6
CONTINUOUS
 70
0
 71
3
 72
9
 73
5
 74
0
 42
0.0000001
 43
0.0000001
 44
0.0000000001
 40
0.0
 40
0.0
 40
0.0
 40
0.0
 40
0.2429954112
 40
1.0
 40
1.0
 40
1.0
 40
1.0
 10
128.414476129
 20
221.8213612941
 30
0.0
 10
128.4758960103
 20
221.7946177038
 30
0.0
 10
128.7240280112
 20
221.6740399192
 30
0.0
 10
128.9518723382
 20
221.5131263105
 30
0.0
 10
129.1090742393
 20
221.375865741
 30
0.0
  0
SPLINE
  5
3CD
100
AcDbEntity
  8
02___PRT_ALL_AXES
100
AcDbSpline
 62
7
  6
CONTINUOUS
 70
0
 71
3
 72
14
 73
10
 74
0
 42
0.0000001
 43
0.0000001
 44
0.0000000001
 40
0.0
 40
0.0
 40
0.0
 40
0.0
 40
0.2925207861
 40
0.4304259911
 40
0.5594812417
 40
0.6790207345
 40
0.7901451945
 40
0.8957447732
 40
1.0
 40
1.0
 40
1.0
 40
1.0
 10
132.0821307516
 20
217.7593680478
 30
0.0
 10
132.0821307516
 20
218.3058994224
 30
0.0
 10
131.9908709046
 20
219.115959508
 30
0.0
 10
131.6682605624
 20
220.1131673727
 30
0.0
 10
131.3409286828
 20
220.7608466547
 30
0.0
 10
130.9291956232
 20
221.2978903064
 30
0.0
 10
130.4402692372
 20
221.7025520157
 30
0.0
 10
129.8876556824
 20
221.9540905802
 30
0.0
 10
129.4931163929
 20
222.009368047
 30
0.0
 10
129.2983310816
 20
222.0093680478
 30
0.0
  0
SPLINE
  5
3CE
100
AcDbEntity
  8
7_ALL_FEATURES
100
AcDbSpline
 62
7
  6
CONTINUOUS
 70
0
 71
3
 72
9
 73
5
 74
0
 42
0.0000001
 43
0.0000001
 44
0.0000000001
 40
0.0
 40
0.0
 40
0.0
 40
0.0
 40
0.4969859896
 40
1.0
 40
1.0
 40
1.0
 40
1.0
 10
253.9359283114
 20
221.1593680478
 30
0.0
 10
253.8467154423
 20
221.1593680478
 30
0.0
 10
253.6669310311
 20
221.1451462526
 30
0.0
 10
253.4916013701
 20
221.1031229516
 30
0.0
 10
253.4055982255
 20
221.0756159276
 30
0.0
  0
SPLINE
  5
3CF
100
AcDbEntity
  8
7_ALL_FEATURES
100
AcDbSpline
 62
7
  6
CONTINUOUS
 70
0
 71
3
 72
19
 73
15
 74
0
 42
0.0000001
 43
0.0000001
 44
0.0000000001
 40
0.0
 40
0.0
 40
0.0
 40
0.0
 40
0.0522671595
 40
0.1072926233
 40
0.1656506194
 40
0.2274801136
 40
0.3599731722
 40
0.5
 40
0.6400268277
 40
0.7725198863
 40
0.8343493806
 40
0.8927073767
 40
0.9477328405
 40
1.0
 40
1.0
 40
1.0
 40
1.0
 10
252.6984914443
 20
214.4431201681
 30
0.0
 10
252.5642634994
 20
214.4860512879
 30
0.0
 10
252.2982933442
 20
214.606689982
 30
0.0
 10
251.9365208103
 20
214.8732109704
 30
0.0
 10
251.612641545
 20
215.220539047
 30
0.0
 10
251.2345490175
 20
215.7902984436
 30
0.0
 10
250.9105431839
 20
216.6446110225
 30
0.0
 10
250.7805289847
 20
217.7593680476
 30
0.0
 10
250.9105431838
 20
218.8741250727
 30
0.0
 10
251.2345490173
 20
219.7284376517
 30
0.0
 10
251.6126415447
 20
220.2981970483
 30
0.0
 10
251.9365208101
 20
220.645525125
 30
0.0
 10
252.298293344
 20
220.9120461135
 30
0.0
 10
252.5642634993
 20
221.0326848077
 30
0.0
 10
252.6984914443
 20
221.0756159276
 30
0.0
  0
SPLINE
  5
3D0
100
AcDbEntity
  8
7_ALL_FEATURES
100
AcDbSpline
 62
7
  6
CONTINUOUS
 70
0
 71
3
 72
9
 73
5
 74
0
 42
0.0000001
 43
0.0000001
 44
0.0000000001
 40
0.0
 40
0.0
 40
0.0
 40
0.0
 40
0.5030140104
 40
1.0
 40
1.0
 40
1.0
 40
1.0
 10
253.4055982255
 20
214.4431201681
 30
0.0
 10
253.4916013701
 20
214.415613144
 30
0.0
 10
253.6669310311
 20
214.3735898431
 30
0.0
 10
253.8467154423
 20
214.3593680478
 30
0.0
 10
253.9359283114
 20
214.3593680478
 30
0.0
  0
SPLINE
  5
3D1
100
AcDbEntity
  8
7_ALL_FEATURES
100
AcDbSpline
 62
7
  6
CONTINUOUS
 70
0
 71
3
 72
19
 73
15
 74
0
 42
0.0000001
 43
0.0000001
 44
0.0000000001
 40
0.0
 40
0.0
 40
0.0
 40
0.0
 40
0.0522671595
 40
0.1072926233
 40
0.1656506194
 40
0.2274801136
 40
0.3599731722
 40
0.5
 40
0.6400268277
 40
0.7725198863
 40
0.8343493806
 40
0.8927073767
 40
0.9477328405
 40
1.0
 40
1.0
 40
1.0
 40
1.0
 10
253.7591516161
 20
221.0756159276
 30
0.0
 10
253.893379561
 20
221.0326848078
 30
0.0
 10
254.1593497162
 20
220.9120461137
 30
0.0
 10
254.52112225
 20
220.6455251252
 30
0.0
 10
254.8450015154
 20
220.2981970486
 30
0.0
 10
255.2230940429
 20
219.7284376521
 30
0.0
 10
255.5470998765
 20
218.8741250731
 30
0.0
 10
255.6771140757
 20
217.7593680481
 30
0.0
 10
255.5470998766
 20
216.644611023
 30
0.0
 10
255.2230940431
 20
215.790298444
 30
0.0
 10
254.8450015156
 20
215.2205390474
 30
0.0
 10
254.5211222503
 20
214.8732109707
 30
0.0
 10
254.1593497164
 20
214.6066899821
 30
0.0
 10
253.893379561
 20
214.4860512879
 30
0.0
 10
253.7591516161
 20
214.4431201681
 30
0.0
  0
SPLINE
  5
3D2
100
AcDbEntity
  8
7_ALL_FEATURES
100
AcDbSpline
 62
7
  6
CONTINUOUS
 70
0
 71
3
 72
19
 73
15
 74
0
 42
0.0000001
 43
0.0000001
 44
0.0000000001
 40
0.0
 40
0.0
 40
0.0
 40
0.0
 40
0.0523989321
 40
0.1075931606
 40
0.1660851166
 40
0.2279772218
 40
0.3603463843
 40
0.5
 40
0.6396536157
 40
0.7720227781
 40
0.8339148834
 40
0.8924068394
 40
0.9476010679
 40
1.0
 40
1.0
 40
1.0
 40
1.0
 10
252.4863594099
 20
214.7514617993
 30
0.0
 10
252.3664876307
 20
214.7937314751
 30
0.0
 10
252.1296268116
 20
214.9088408733
 30
0.0
 10
251.8084061852
 20
215.1558024036
 30
0.0
 10
251.5213467071
 20
215.4733029205
 30
0.0
 10
251.1868945181
 20
215.9897116189
 30
0.0
 10
250.900590079
 20
216.7586445345
 30
0.0
 10
250.7856844958
 20
217.7593680477
 30
0.0
 10
250.900590079
 20
218.7600915609
 30
0.0
 10
251.186894518
 20
219.5290244764
 30
0.0
 10
251.521346707
 20
220.0454331749
 30
0.0
 10
251.8084061849
 20
220.3629336919
 30
0.0
 10
252.1296268114
 20
220.6098952223
 30
0.0
 10
252.3664876306
 20
220.7250046205
 30
0.0
 10
252.4863594099
 20
220.7672742964
 30
0.0
  0
SPLINE
  5
3D3
100
AcDbEntity
  8
7_ALL_FEATURES
100
AcDbSpline
 62
7
  6
CONTINUOUS
 70
0
 71
3
 72
19
 73
15
 74
0
 42
0.0000001
 43
0.0000001
 44
0.0000000001
 40
0.0
 40
0.0
 40
0.0
 40
0.0
 40
0.0523989321
 40
0.1075931606
 40
0.1660851166
 40
0.2279772218
 40
0.3603463843
 40
0.5
 40
0.6396536157
 40
0.7720227781
 40
0.8339148834
 40
0.8924068394
 40
0.9476010679
 40
1.0
 40
1.0
 40
1.0
 40
1.0
 10
253.5470195817
 20
220.7672742964
 30
0.0
 10
253.666891361
 20
220.7250046206
 30
0.0
 10
253.9037521801
 20
220.6098952224
 30
0.0
 10
254.2249728065
 20
220.3629336921
 30
0.0
 10
254.5120322845
 20
220.0454331751
 30
0.0
 10
254.8464844735
 20
219.5290244767
 30
0.0
 10
255.1327889126
 20
218.7600915612
 30
0.0
 10
255.2476944959
 20
217.759368048
 30
0.0
 10
255.1327889127
 20
216.7586445348
 30
0.0
 10
254.8464844737
 20
215.9897116192
 30
0.0
 10
254.5120322847
 20
215.4733029208
 30
0.0
 10
254.2249728067
 20
215.1558024038
 30
0.0
 10
253.9037521802
 20
214.9088408734
 30
0.0
 10
253.666891361
 20
214.7937314751
 30
0.0
 10
253.5470195817
 20
214.7514617993
 30
0.0
  0
SPLINE
  5
3D4
100
AcDbEntity
  8
3_ALL_AXES
100
AcDbSpline
 62
7
  6
CONTINUOUS
 70
0
 71
3
 72
11
 73
7
 74
0
 42
0.0000001
 43
0.0000001
 44
0.0000000001
 40
0.0
 40
0.0
 40
0.0
 40
0.0
 40
0.2528641712
 40
0.5038317346
 40
0.7528115376
 40
1.0
 40
1.0
 40
1.0
 40
1.0
 10
273.3460094549
 20
183.5093680478
 30
0.0
 10
273.5502557519
 20
183.3914463933
 30
0.0
 10
273.9640830154
 20
183.1680355156
 30
0.0
 10
274.6049945399
 20
182.8794465134
 30
0.0
 10
275.2643534722
 20
182.65075712
 30
0.0
 10
275.716610154
 20
182.5468917759
 30
0.0
 10
275.9440856663
 20
182.5093680478
 30
0.0
  0
SPLINE
  5
3D5
100
AcDbEntity
  8
3_ALL_AXES
100
AcDbSpline
 62
7
  6
CONTINUOUS
 70
0
 71
3
 72
11
 73
7
 74
0
 42
0.0000001
 43
0.0000001
 44
0.0000000001
 40
0.0
 40
0.0
 40
0.0
 40
0.0
 40
0.2528641712
 40
0.5038317346
 40
0.7528115376
 40
1.0
 40
1.0
 40
1.0
 40
1.0
 10
266.4178062247
 20
183.5093680478
 30
0.0
 10
266.6220525216
 20
183.3914463933
 30
0.0
 10
267.0358797851
 20
183.1680355156
 30
0.0
 10
267.6767913096
 20
182.8794465134
 30
0.0
 10
268.3361502419
 20
182.65075712
 30
0.0
 10
268.7884069237
 20
182.5468917759
 30
0.0
 10
269.015882436
 20
182.5093680478
 30
0.0
  0
SPLINE
  5
3D6
100
AcDbEntity
  8
3_ALL_AXES
100
AcDbSpline
 62
7
  6
CONTINUOUS
 70
0
 71
3
 72
11
 73
7
 74
0
 42
0.0000001
 43
0.0000001
 44
0.0000000001
 40
0.0
 40
0.0
 40
0.0
 40
0.0
 40
0.2471884812
 40
0.4961682871
 40
0.7471358372
 40
1.0
 40
1.0
 40
1.0
 40
1.0
 10
270.7479332436
 20
182.5093680478
 30
0.0
 10
270.9754087732
 20
182.5468917788
 30
0.0
 10
271.4276654745
 20
182.6507571291
 30
0.0
 10
272.0870244115
 20
182.8794465324
 30
0.0
 10
272.727935918
 20
183.1680355312
 30
0.0
 10
273.1417631648
 20
183.3914463972
 30
0.0
 10
273.3460094549
 20
183.5093680478
 30
0.0
  0
SPLINE
  5
3D7
100
AcDbEntity
  8
3_ALL_AXES
100
AcDbSpline
 62
7
  6
CONTINUOUS
 70
0
 71
3
 72
19
 73
15
 74
0
 42
0.0000001
 43
0.0000001
 44
0.0000000001
 40
0.0
 40
0.0
 40
0.0
 40
0.0
 40
0.067939647
 40
0.1343369129
 40
0.1986396402
 40
0.2610648807
 40
0.3817414899
 40
0.5000607139
 40
0.6183763092
 40
0.739024176
 40
0.8014382043
 40
0.865725454
 40
0.9320917545
 40
1.0
 40
1.0
 40
1.0
 40
1.0
 10
269.015882436
 20
182.0093680478
 30
0.0
 10
269.015882436
 20
181.9534823973
 30
0.0
 10
269.0322692729
 20
181.8423374325
 30
0.0
 10
269.1004440532
 20
181.6918775452
 30
0.0
 10
269.199857088
 20
181.5661907816
 30
0.0
 10
269.3573009696
 20
181.435448948
 30
0.0
 10
269.5872921842
 20
181.3308086431
 30
0.0
 10
269.8820574052
 20
181.2908301587
 30
0.0
 10
270.1767861289
 20
181.3308945834
 30
0.0
 10
270.4067169417
 20
181.4355739866
 30
0.0
 10
270.5640960309
 20
181.5663238746
 30
0.0
 10
270.6634389568
 20
181.6920048653
 30
0.0
 10
270.731559965
 20
181.8424152567
 30
0.0
 10
270.7479332436
 20
181.9535082275
 30
0.0
 10
270.7479332436
 20
182.0093680478
 30
0.0
  0
SPLINE
  5
3D8
100
AcDbEntity
  8
3_ALL_AXES
100
AcDbSpline
 62
7
  6
CONTINUOUS
 70
0
 71
3
 72
11
 73
7
 74
0
 42
0.0000001
 43
0.0000001
 44
0.0000000001
 40
0.0
 40
0.0
 40
0.0
 40
0.0
 40
0.2471884812
 40
0.4961682871
 40
0.7471358372
 40
1.0
 40
1.0
 40
1.0
 40
1.0
 10
277.6761364739
 20
182.5093680478
 30
0.0
 10
277.9036120034
 20
182.5468917788
 30
0.0
 10
278.3558687047
 20
182.6507571291
 30
0.0
 10
279.0152276418
 20
182.8794465324
 30
0.0
 10
279.6561391483
 20
183.1680355312
 30
0.0
 10
280.0699663951
 20
183.3914463972
 30
0.0
 10
280.2742126852
 20
183.5093680478
 30
0.0
  0
SPLINE
  5
3D9
100
AcDbEntity
  8
3_ALL_AXES
100
AcDbSpline
 62
7
  6
CONTINUOUS
 70
0
 71
3
 72
19
 73
15
 74
0
 42
0.0000001
 43
0.0000001
 44
0.0000000001
 40
0.0
 40
0.0
 40
0.0
 40
0.0
 40
0.0679313718
 40
0.134330414
 40
0.1986328954
 40
0.2610542132
 40
0.3817238737
 40
0.5000536105
 40
0.6183773004
 40
0.7390372629
 40
0.8014553941
 40
0.8657396837
 40
0.9320963707
 40
1.0
 40
1.0
 40
1.0
 40
1.0
 10
275.9440856663
 20
182.0093680478
 30
0.0
 10
275.9440856663
 20
181.9534891963
 30
0.0
 10
275.960471407
 20
181.8423501844
 30
0.0
 10
276.0286367087
 20
181.6918921082
 30
0.0
 10
276.1280462713
 20
181.5662046216
 30
0.0
 10
276.2854805988
 20
181.4354662715
 30
0.0
 10
276.5154652649
 20
181.3308131259
 30
0.0
 10
276.810240935
 20
181.2908294189
 30
0.0
 10
277.1049952819
 20
181.3308932335
 30
0.0
 10
277.3349448741
 20
181.4355840161
 30
0.0
 10
277.4923258788
 20
181.5663496265
 30
0.0
 10
277.5916546116
 20
181.6920325168
 30
0.0
 10
277.6597668005
 20
181.8424305039
 30
0.0
 10
277.6761364739
 20
181.9535120167
 30
0.0
 10
277.6761364739
 20
182.0093680478
 30
0.0
  0
SPLINE
  5
3DA
100
AcDbEntity
  8
02___PRT_ALL_AXES
100
AcDbSpline
 62
7
  6
CONTINUOUS
 70
0
 71
3
 72
9
 73
5
 74
0
 42
0.0000001
 43
0.0000001
 44
0.0000000001
 40
0.0
 40
0.0
 40
0.0
 40
0.0
 40
0.4927838313
 40
1.0
 40
1.0
 40
1.0
 40
1.0
 10
253.1934661911
 20
214.0093680478
 30
0.0
 10
253.3488516987
 20
214.0093680478
 30
0.0
 10
253.6653397009
 20
214.049285928
 30
0.0
 10
253.9624138175
 20
214.1641511666
 30
0.0
 10
254.1044548192
 20
214.2376629774
 30
0.0
  0
SPLINE
  5
3DB
100
AcDbEntity
  8
02___PRT_ALL_AXES
100
AcDbSpline
 62
7
  6
CONTINUOUS
 70
0
 71
3
 72
9
 73
5
 74
0
 42
0.0000001
 43
0.0000001
 44
0.0000000001
 40
0.0
 40
0.0
 40
0.0
 40
0.0
 40
0.2458706548
 40
1.0
 40
1.0
 40
1.0
 40
1.0
 10
254.1044548192
 20
214.2376629774
 30
0.0
 10
254.1346395723
 20
214.2532847755
 30
0.0
 10
254.2559396307
 20
214.3196306639
 30
0.0
 10
254.3711865334
 20
214.3969289538
 30
0.0
 10
254.4540256455
 20
214.4602136266
 30
0.0
  0
SPLINE
  5
3DC
100
AcDbEntity
  8
02___PRT_ALL_AXES
100
AcDbSpline
 62
7
  6
CONTINUOUS
 70
0
 71
3
 72
10
 73
6
 74
0
 42
0.0000001
 43
0.0000001
 44
0.0000000001
 40
0.0
 40
0.0
 40
0.0
 40
0.0
 40
0.465588475
 40
0.7280383661
 40
1.0
 40
1.0
 40
1.0
 40
1.0
 10
254.4540256455
 20
214.4602136266
 30
0.0
 10
254.9077865562
 20
214.8068628131
 30
0.0
 10
255.4366177054
 20
215.5899474709
 30
0.0
 10
255.7827113188
 20
216.7674538616
 30
0.0
 10
255.8451166206
 20
217.4258208774
 30
0.0
 10
255.8451166206
 20
217.7593680478
 30
0.0
  0
SPLINE
  5
3DD
100
AcDbEntity
  8
02___PRT_ALL_AXES
100
AcDbSpline
 62
7
  6
CONTINUOUS
 70
0
 71
3
 72
9
 73
5
 74
0
 42
0.0000001
 43
0.0000001
 44
0.0000000001
 40
0.0
 40
0.0
 40
0.0
 40
0.0
 40
0.4927838313
 40
1.0
 40
1.0
 40
1.0
 40
1.0
 10
253.1934661911
 20
221.5093680478
 30
0.0
 10
253.3488516987
 20
221.5093680478
 30
0.0
 10
253.6653397009
 20
221.4694501677
 30
0.0
 10
253.9624138175
 20
221.3545849291
 30
0.0
 10
254.1044548192
 20
221.2810731183
 30
0.0
  0
SPLINE
  5
3DE
100
AcDbEntity
  8
02___PRT_ALL_AXES
100
AcDbSpline
 62
7
  6
CONTINUOUS
 70
0
 71
3
 72
9
 73
5
 74
0
 42
0.0000001
 43
0.0000001
 44
0.0000000001
 40
0.0
 40
0.0
 40
0.0
 40
0.0
 40
0.2458706548
 40
1.0
 40
1.0
 40
1.0
 40
1.0
 10
254.1044548192
 20
221.2810731183
 30
0.0
 10
254.1346395723
 20
221.2654513201
 30
0.0
 10
254.2559396307
 20
221.1991054318
 30
0.0
 10
254.3711865334
 20
221.1218071419
 30
0.0
 10
254.4540256455
 20
221.058522469
 30
0.0
  0
SPLINE
  5
3DF
100
AcDbEntity
  8
02___PRT_ALL_AXES
100
AcDbSpline
 62
7
  6
CONTINUOUS
 70
0
 71
3
 72
10
 73
6
 74
0
 42
0.0000001
 43
0.0000001
 44
0.0000000001
 40
0.0
 40
0.0
 40
0.0
 40
0.0
 40
0.465588475
 40
0.7280383661
 40
1.0
 40
1.0
 40
1.0
 40
1.0
 10
254.4540256455
 20
221.058522469
 30
0.0
 10
254.9077865562
 20
220.7118732825
 30
0.0
 10
255.4366177054
 20
219.9287886248
 30
0.0
 10
255.7827113188
 20
218.7512822341
 30
0.0
 10
255.8451166206
 20
218.0929152183
 30
0.0
 10
255.8451166206
 20
217.7593680478
 30
0.0
  0
SPLINE
  5
3E0
100
AcDbEntity
  8
02___PRT_ALL_AXES
100
AcDbSpline
 62
7
  6
CONTINUOUS
 70
0
 71
3
 72
20
 73
16
 74
0
 42
0.0000001
 43
0.0000001
 44
0.0000000001
 40
0.0
 40
0.0
 40
0.0
 40
0.0
 40
0.1423645013
 40
0.210103461
 40
0.2739747314
 40
0.3333524063
 40
0.3883574462
 40
0.4401156174
 40
0.4907575909
 40
0.5427859743
 40
0.5981115107
 40
0.6575616169
 40
0.7210448289
 40
0.8570210637
 40
1.0
 40
1.0
 40
1.0
 40
1.0
 10
250.2220229907
 20
217.7593680478
 30
0.0
 10
250.2220229907
 20
217.2288051182
 30
0.0
 10
250.3038275392
 20
216.4409895861
 30
0.0
 10
250.5944816261
 20
215.4597745641
 30
0.0
 10
250.8936228713
 20
214.8105373973
 30
0.0
 10
251.2753412666
 20
214.2616927856
 30
0.0
 10
251.7361563282
 20
213.8388189118
 30
0.0
 10
252.2670678602
 20
213.5696368268
 30
0.0
 10
252.8453606936
 20
213.4789392655
 30
0.0
 10
253.4354837904
 20
213.5738407395
 30
0.0
 10
254.0043294598
 20
213.8410125318
 30
0.0
 10
254.5273789536
 20
214.2589848275
 30
0.0
 10
255.1503611923
 20
215.0025232248
 30
0.0
 10
255.6973675479
 20
216.1813298977
 30
0.0
 10
255.8451166206
 20
217.2265152469
 30
0.0
 10
255.8451166206
 20
217.7593680478
 30
0.0
  0
SPLINE
  5
3E1
100
AcDbEntity
  8
02___PRT_ALL_AXES
100
AcDbSpline
 62
7
  6
CONTINUOUS
 70
0
 71
3
 72
20
 73
16
 74
0
 42
0.0000001
 43
0.0000001
 44
0.0000000001
 40
0.0
 40
0.0
 40
0.0
 40
0.0
 40
0.142364501
 40
0.2101034595
 40
0.273974728
 40
0.3333524022
 40
0.3883574459
 40
0.4401156211
 40
0.4907575961
 40
0.542785978
 40
0.5981115103
 40
0.6575616125
 40
0.7210448253
 40
0.8570210634
 40
1.0
 40
1.0
 40
1.0
 40
1.0
 10
250.2220229907
 20
217.7593680478
 30
0.0
 10
250.2220229907
 20
218.2899309761
 30
0.0
 10
250.3038275391
 20
219.0777465023
 30
0.0
 10
250.5944816196
 20
220.0589615128
 30
0.0
 10
250.8936228559
 20
220.7081986677
 30
0.0
 10
251.2753412446
 20
221.2570432888
 30
0.0
 10
251.7361563242
 20
221.6799171848
 30
0.0
 10
252.2670678933
 20
221.9490992758
 30
0.0
 10
252.8453607429
 20
222.0397968302
 30
0.0
 10
253.435483823
 20
221.9448953488
 30
0.0
 10
254.0043294549
 20
221.6777235639
 30
0.0
 10
254.5273789286
 20
221.2597512889
 30
0.0
 10
255.1503611785
 20
220.5162129007
 30
0.0
 10
255.6973675455
 20
219.3374062125
 30
0.0
 10
255.8451166206
 20
218.2922208502
 30
0.0
 10
255.8451166206
 20
217.7593680478
 30
0.0
  0
SPLINE
  5
3E2
100
AcDbEntity
  8
02___PRT_ALL_AXES
100
AcDbSpline
 62
7
  6
CONTINUOUS
 70
0
 71
3
 72
13
 73
9
 74
0
 42
0.0000001
 43
0.0000001
 44
0.0000000001
 40
0.0
 40
0.0
 40
0.0
 40
0.0
 40
0.2870706365
 40
0.5535706756
 40
0.6755042715
 40
0.7893302512
 40
0.896543042
 40
1.0
 40
1.0
 40
1.0
 40
1.0
 10
250.5418157617
 20
217.7593680478
 30
0.0
 10
250.5418157617
 20
217.2762708467
 30
0.0
 10
250.6676133002
 20
216.3399421063
 30
0.0
 10
251.1451171827
 20
215.2838426472
 30
0.0
 10
251.6956220343
 20
214.6356531361
 30
0.0
 10
252.1574256272
 20
214.2810392861
 30
0.0
 10
252.6630303538
 20
214.0599220484
 30
0.0
 10
253.0193635122
 20
214.0093680478
 30
0.0
 10
253.1934661911
 20
214.0093680478
 30
0.0
  0
SPLINE
  5
3E3
100
AcDbEntity
  8
02___PRT_ALL_AXES
100
AcDbSpline
 62
7
  6
CONTINUOUS
 70
0
 71
3
 72
13
 73
9
 74
0
 42
0.0000001
 43
0.0000001
 44
0.0000000001
 40
0.0
 40
0.0
 40
0.0
 40
0.0
 40
0.2870706365
 40
0.5535706756
 40
0.6755042715
 40
0.7893302512
 40
0.896543042
 40
1.0
 40
1.0
 40
1.0
 40
1.0
 10
250.5418157617
 20
217.7593680478
 30
0.0
 10
250.5418157617
 20
218.242465249
 30
0.0
 10
250.6676133002
 20
219.1787939893
 30
0.0
 10
251.1451171827
 20
220.2348934485
 30
0.0
 10
251.6956220343
 20
220.8830829596
 30
0.0
 10
252.1574256272
 20
221.2376968095
 30
0.0
 10
252.6630303538
 20
221.4588140473
 30
0.0
 10
253.0193635122
 20
221.5093680478
 30
0.0
 10
253.1934661911
 20
221.5093680478
 30
0.0
  0
SPLINE
  5
3E4
100
AcDbEntity
  8
03___PRT_ALL_CURVES
100
AcDbSpline
 62
40
  6
CONTINUOUS
 70
0
 71
3
 72
23
 73
19
 74
0
 42
0.0000001
 43
0.0000001
 44
0.0000000001
 40
0.0
 40
0.0
 40
0.0
 40
0.0
 40
0.0416666667
 40
0.0833333333
 40
0.125
 40
0.1666666667
 40
0.25
 40
0.3333333333
 40
0.4166666667
 40
0.5
 40
0.5833333333
 40
0.6666666667
 40
0.75
 40
0.8333333333
 40
0.875
 40
0.9166666667
 40
0.9583333333
 40
1.0
 40
1.0
 40
1.0
 40
1.0
 10
257.7838528706
 20
217.9096925265
 30
0.0
 10
257.7901820669
 20
217.9096925265
 30
0.0
 10
257.8018675389
 20
217.9086962086
 30
0.0
 10
257.8191689626
 20
217.9045130805
 30
0.0
 10
257.835309967
 20
217.8978800623
 30
0.0
 10
257.8552889669
 20
217.8861864566
 30
0.0
 10
257.8780567362
 20
217.8656073635
 30
0.0
 10
257.8984848834
 20
217.8341243274
 30
0.0
 10
257.9112165413
 20
217.7979717356
 30
0.0
 10
257.91554039
 20
217.7593677257
 30
0.0
 10
257.911216382
 20
217.7207635915
 30
0.0
 10
257.8984844931
 20
217.6846109818
 30
0.0
 10
257.8780563012
 20
217.653128253
 30
0.0
 10
257.8552886088
 20
217.6325493821
 30
0.0
 10
257.8353096812
 20
217.6208558963
 30
0.0
 10
257.8191687542
 20
217.6142229529
 30
0.0
 10
257.8018674277
 20
217.6100398744
 30
0.0
 10
257.7901820252
 20
217.6090435691
 30
0.0
 10
257.7838528706
 20
217.6090435691
 30
0.0
  0
SPLINE
  5
3E5
100
AcDbEntity
  8
03___PRT_ALL_CURVES
100
AcDbSpline
 62
40
  6
CONTINUOUS
 70
0
 71
3
 72
23
 73
19
 74
0
 42
0.0000001
 43
0.0000001
 44
0.0000000001
 40
0.0
 40
0.0
 40
0.0
 40
0.0
 40
0.0416666667
 40
0.0833333333
 40
0.125
 40
0.1666666667
 40
0.25
 40
0.3333333333
 40
0.4166666667
 40
0.5
 40
0.5833333333
 40
0.6666666667
 40
0.75
 40
0.8333333333
 40
0.875
 40
0.9166666667
 40
0.9583333333
 40
1.0
 40
1.0
 40
1.0
 40
1.0
 10
256.3522194727
 20
217.6090435691
 30
0.0
 10
256.3462510719
 20
217.6090435691
 30
0.0
 10
256.3352500795
 20
217.6100245827
 30
0.0
 10
256.3189367622
 20
217.61415637
 30
0.0
 10
256.3037116333
 20
217.6207240034
 30
0.0
 10
256.2848485791
 20
217.632329403
 30
0.0
 10
256.2633446751
 20
217.6527997012
 30
0.0
 10
256.2440128619
 20
217.6841895351
 30
0.0
 10
256.2318771181
 20
217.7205201929
 30
0.0
 10
256.2277612365
 20
217.7593674047
 30
0.0
 10
256.2318768202
 20
217.7982143955
 30
0.0
 10
256.2440121442
 20
217.8345450376
 30
0.0
 10
256.2633438806
 20
217.8659354736
 30
0.0
 10
256.284847932
 20
217.8864062047
 30
0.0
 10
256.3037111188
 20
217.8980118331
 30
0.0
 10
256.3189363881
 20
217.9045796085
 30
0.0
 10
256.3352498806
 20
217.9087114893
 30
0.0
 10
256.3462509968
 20
217.9096925265
 30
0.0
 10
256.3522194727
 20
217.9096925265
 30
0.0
  0
SPLINE
  5
3E6
100
AcDbEntity
  8
03___PRT_ALL_CURVES
100
AcDbSpline
 62
40
  6
CONTINUOUS
 70
0
 71
3
 72
23
 73
19
 74
0
 42
0.0000001
 43
0.0000001
 44
0.0000000001
 40
0.0
 40
0.0
 40
0.0
 40
0.0
 40
0.0416666667
 40
0.0833333333
 40
0.125
 40
0.1666666667
 40
0.25
 40
0.3333333333
 40
0.4166666667
 40
0.5
 40
0.5833333333
 40
0.6666666667
 40
0.75
 40
0.8333333333
 40
0.875
 40
0.9166666667
 40
0.9583333333
 40
1.0
 40
1.0
 40
1.0
 40
1.0
 10
248.875225192
 20
217.9096925265
 30
0.0
 10
248.8712001762
 20
217.9096925265
 30
0.0
 10
248.8637753145
 20
217.9086962212
 30
0.0
 10
248.8527991462
 20
217.9045131428
 30
0.0
 10
248.842574926
 20
217.8978801994
 30
0.0
 10
248.8299370738
 20
217.8861867135
 30
0.0
 10
248.8155651624
 20
217.8656078427
 30
0.0
 10
248.8026988395
 20
217.8341251139
 30
0.0
 10
248.7946919255
 20
217.7979725042
 30
0.0
 10
248.7919747904
 20
217.7593683699
 30
0.0
 10
248.7946918253
 20
217.7207643601
 30
0.0
 10
248.8026985938
 20
217.6846117683
 30
0.0
 10
248.8155648881
 20
217.6531287322
 30
0.0
 10
248.8299368475
 20
217.632549639
 30
0.0
 10
248.8425747451
 20
217.6208560334
 30
0.0
 10
248.852799014
 20
217.6142230152
 30
0.0
 10
248.8637752439
 20
217.6100398871
 30
0.0
 10
248.8712001496
 20
217.6090435691
 30
0.0
 10
248.875225192
 20
217.6090435691
 30
0.0
  0
SPLINE
  5
3E7
100
AcDbEntity
  8
03___PRT_ALL_CURVES
100
AcDbSpline
 62
40
  6
CONTINUOUS
 70
0
 71
3
 72
23
 73
19
 74
0
 42
0.0000001
 43
0.0000001
 44
0.0000000001
 40
0.0
 40
0.0
 40
0.0
 40
0.0
 40
0.0416666667
 40
0.0833333333
 40
0.125
 40
0.1666666667
 40
0.25
 40
0.3333333333
 40
0.4166666667
 40
0.5
 40
0.5833333333
 40
0.6666666667
 40
0.75
 40
0.8333333333
 40
0.875
 40
0.9166666667
 40
0.9583333333
 40
1.0
 40
1.0
 40
1.0
 40
1.0
 10
249.8468370857
 20
217.6090435691
 30
0.0
 10
249.851153232
 20
217.6090435691
 30
0.0
 10
249.8591152433
 20
217.6100245849
 30
0.0
 10
249.8709391985
 20
217.6141563807
 30
0.0
 10
249.8819903758
 20
217.6207240268
 30
0.0
 10
249.8956998899
 20
217.6323294481
 30
0.0
 10
249.9113593
 20
217.6527997814
 30
0.0
 10
249.9254664916
 20
217.6841896652
 30
0.0
 10
249.9343349583
 20
217.7205203811
 30
0.0
 10
249.9373450017
 20
217.7593676382
 30
0.0
 10
249.9343350971
 20
217.7982147546
 30
0.0
 10
249.9254668255
 20
217.8345454605
 30
0.0
 10
249.9113596688
 20
217.8659357278
 30
0.0
 10
249.8957001898
 20
217.8864063368
 30
0.0
 10
249.8819906138
 20
217.8980119037
 30
0.0
 10
249.8709393714
 20
217.9045796404
 30
0.0
 10
249.859115335
 20
217.9087114957
 30
0.0
 10
249.8511532666
 20
217.9096925265
 30
0.0
 10
249.8468370857
 20
217.9096925265
 30
0.0
  0
SPLINE
  5
3E8
100
AcDbEntity
  8
03___PRT_ALL_CURVES
100
AcDbSpline
 62
40
  6
CONTINUOUS
 70
0
 71
3
 72
27
 73
23
 74
0
 42
0.0000001
 43
0.0000001
 44
0.0000000001
 40
0.0
 40
0.0
 40
0.0
 40
0.0
 40
0.0208333333
 40
0.0416666667
 40
0.0625
 40
0.0833333333
 40
0.125
 40
0.1458333333
 40
0.1666666667
 40
0.2083333333
 40
0.25
 40
0.3333333333
 40
0.4166666667
 40
0.5
 40
0.5833333333
 40
0.6666666667
 40
0.75
 40
0.8333333333
 40
0.875
 40
0.9166666667
 40
0.9583333333
 40
1.0
 40
1.0
 40
1.0
 40
1.0
 10
252.7338928408
 20
224.0587190904
 30
0.0
 10
252.7338928408
 20
224.0623611836
 30
0.0
 10
252.7340645864
 20
224.0690959914
 30
0.0
 10
252.7348157068
 20
224.0794135159
 30
0.0
 10
252.7360385277
 20
224.0894021724
 30
0.0
 10
252.7382711094
 20
224.1024281834
 30
0.0
 10
252.7413666169
 20
224.1149001461
 30
0.0
 10
252.7452717699
 20
224.1267812272
 30
0.0
 10
252.749686317
 20
224.1382067791
 30
0.0
 10
252.7562702512
 20
224.1519125773
 30
0.0
 10
252.7691232121
 20
224.1721360063
 30
0.0
 10
252.7881195893
 20
224.1919277121
 30
0.0
 10
252.8142572052
 20
224.206377687
 30
0.0
 10
252.8420351123
 20
224.210698078
 30
0.0
 10
252.8692592136
 20
224.2049269351
 30
0.0
 10
252.8945704642
 20
224.1896221301
 30
0.0
 10
252.9163543999
 20
224.1657944606
 30
0.0
 10
252.9304887327
 20
224.1396477862
 30
0.0
 10
252.9384814014
 20
224.1168505651
 30
0.0
 10
252.9429891549
 20
224.0985308659
 30
0.0
 10
252.9458155344
 20
224.0789774622
 30
0.0
 10
252.9464837574
 20
224.0658410901
 30
0.0
 10
252.9464837574
 20
224.0587190904
 30
0.0
  0
SPLINE
  5
3E9
100
AcDbEntity
  8
03___PRT_ALL_CURVES
100
AcDbSpline
 62
40
  6
CONTINUOUS
 70
0
 71
3
 72
27
 73
23
 74
0
 42
0.0000001
 43
0.0000001
 44
0.0000000001
 40
0.0
 40
0.0
 40
0.0
 40
0.0
 40
0.0208333333
 40
0.0416666667
 40
0.0625
 40
0.0833333333
 40
0.125
 40
0.1458333333
 40
0.1666666667
 40
0.2083333333
 40
0.25
 40
0.3333333333
 40
0.4166666667
 40
0.5
 40
0.5833333333
 40
0.6666666667
 40
0.75
 40
0.8333333333
 40
0.875
 40
0.9166666667
 40
0.9583333333
 40
1.0
 40
1.0
 40
1.0
 40
1.0
 10
252.9464837574
 20
222.3593680478
 30
0.0
 10
252.9464837574
 20
222.3557259546
 30
0.0
 10
252.9463102198
 20
222.3489911469
 30
0.0
 10
252.9455513006
 20
222.3386736223
 30
0.0
 10
252.9443159029
 20
222.3286849658
 30
0.0
 10
252.942060684
 20
222.3156589548
 30
0.0
 10
252.9389345638
 20
222.3031869922
 30
0.0
 10
252.9349924935
 20
222.2913059111
 30
0.0
 10
252.9305375831
 20
222.2798803592
 30
0.0
 10
252.9238966467
 20
222.2661745609
 30
0.0
 10
252.9109436746
 20
222.2459511319
 30
0.0
 10
252.8918272012
 20
222.2261594261
 30
0.0
 10
252.865588368
 20
222.2117094513
 30
0.0
 10
252.8377781516
 20
222.2073890603
 30
0.0
 10
252.81059697
 20
222.2131602031
 30
0.0
 10
252.7853913375
 20
222.2284650081
 30
0.0
 10
252.7637489859
 20
222.2522926776
 30
0.0
 10
252.7497335695
 20
222.278439352
 30
0.0
 10
252.7418153059
 20
222.3012365731
 30
0.0
 10
252.737351773
 20
222.3195562723
 30
0.0
 10
252.7345541432
 20
222.339109676
 30
0.0
 10
252.7338928408
 20
222.3522460481
 30
0.0
 10
252.7338928408
 20
222.3593680478
 30
0.0
  0
SPLINE
  5
3EA
100
AcDbEntity
  8
03___PRT_ALL_CURVES
100
AcDbSpline
 62
40
  6
CONTINUOUS
 70
0
 71
3
 72
10
 73
6
 74
0
 42
0.0000001
 43
0.0000001
 44
0.0000000001
 40
0.0
 40
0.0
 40
0.0
 40
0.0
 40
0.3333333333
 40
0.6666666667
 40
1.0
 40
1.0
 40
1.0
 40
1.0
 10
258.4911078817
 20
234.7596481254
 30
0.0
 10
258.4806993575
 20
234.7875795261
 30
0.0
 10
258.4673182313
 20
234.8477921158
 30
0.0
 10
258.4642448906
 20
234.9499934822
 30
0.0
 10
258.4709809573
 20
235.021963922
 30
0.0
 10
258.4761126575
 20
235.0593727993
 30
0.0
  0
SPLINE
  5
3EB
100
AcDbEntity
  8
03___PRT_ALL_CURVES
100
AcDbSpline
 62
40
  6
CONTINUOUS
 70
0
 71
3
 72
10
 73
6
 74
0
 42
0.0000001
 43
0.0000001
 44
0.0000000001
 40
0.0
 40
0.0
 40
0.0
 40
0.0
 40
0.3333333333
 40
0.6666666667
 40
1.0
 40
1.0
 40
1.0
 40
1.0
 10
258.6169613198
 20
234.6256202771
 30
0.0
 10
258.5977341928
 20
234.6314111206
 30
0.0
 10
258.5628383937
 20
234.6492695607
 30
0.0
 10
258.5207840604
 20
234.6945685139
 30
0.0
 10
258.4999008043
 20
234.7360522111
 30
0.0
 10
258.4911078817
 20
234.7596481254
 30
0.0
  0
SPLINE
  5
3EC
100
AcDbEntity
  8
03___PRT_ALL_CURVES
100
AcDbSpline
 62
40
  6
CONTINUOUS
 70
0
 71
3
 72
12
 73
8
 74
0
 42
0.0000001
 43
0.0000001
 44
0.0000000001
 40
0.0
 40
0.0
 40
0.0
 40
0.0
 40
0.1666666667
 40
0.3333333333
 40
0.5
 40
0.6666666667
 40
1.0
 40
1.0
 40
1.0
 40
1.0
 10
258.8278260134
 20
234.6985411719
 30
0.0
 10
258.8167247874
 20
234.6876353077
 30
0.0
 10
258.7945101285
 20
234.6679796201
 30
0.0
 10
258.7604296897
 20
234.6446463718
 30
0.0
 10
258.7252102663
 20
234.6279193927
 30
0.0
 10
258.6774788635
 20
234.6156488786
 30
0.0
 10
258.6412976278
 20
234.6182906459
 30
0.0
 10
258.6169613198
 20
234.6256202771
 30
0.0
  0
SPLINE
  5
3ED
100
AcDbEntity
  8
03___PRT_ALL_CURVES
100
AcDbSpline
 62
40
  6
CONTINUOUS
 70
0
 71
3
 72
10
 73
6
 74
0
 42
0.0000001
 43
0.0000001
 44
0.0000000001
 40
0.0
 40
0.0
 40
0.0
 40
0.0
 40
0.3333333333
 40
0.6666666667
 40
1.0
 40
1.0
 40
1.0
 40
1.0
 10
258.9884762667
 20
235.0228840046
 30
0.0
 10
258.9774419141
 20
234.977172001
 30
0.0
 10
258.951533039
 20
234.8919099395
 30
0.0
 10
258.8976541826
 20
234.7804562812
 30
0.0
 10
258.8528262118
 20
234.7231014112
 30
0.0
 10
258.8278260134
 20
234.6985411719
 30
0.0
  0
SPLINE
  5
3EE
100
AcDbEntity
  8
03___PRT_ALL_CURVES
100
AcDbSpline
 62
40
  6
CONTINUOUS
 70
0
 71
3
 72
10
 73
6
 74
0
 42
0.0000001
 43
0.0000001
 44
0.0000000001
 40
0.0
 40
0.0
 40
0.0
 40
0.0
 40
0.3333333333
 40
0.6666666667
 40
1.0
 40
1.0
 40
1.0
 40
1.0
 10
258.991420041
 20
235.3666296998
 30
0.0
 10
259.002477181
 20
235.3341207912
 30
0.0
 10
259.0161739203
 20
235.2649468955
 30
0.0
 10
259.0135560928
 20
235.1470262123
 30
0.0
 10
258.9987099957
 20
235.0652792655
 30
0.0
 10
258.9884762667
 20
235.0228840046
 30
0.0
  0
SPLINE
  5
3EF
100
AcDbEntity
  8
03___PRT_ALL_CURVES
100
AcDbSpline
 62
40
  6
CONTINUOUS
 70
0
 71
3
 72
10
 73
6
 74
0
 42
0.0000001
 43
0.0000001
 44
0.0000000001
 40
0.0
 40
0.0
 40
0.0
 40
0.0
 40
0.3333333333
 40
0.6666666667
 40
1.0
 40
1.0
 40
1.0
 40
1.0
 10
258.8338265683
 20
235.5364998437
 30
0.0
 10
258.8580988806
 20
235.5292428814
 30
0.0
 10
258.9022587026
 20
235.5074245158
 30
0.0
 10
258.9556083472
 20
235.4503765286
 30
0.0
 10
258.9810498039
 20
235.3971190569
 30
0.0
 10
258.991420041
 20
235.3666296998
 30
0.0
  0
SPLINE
  5
3F0
100
AcDbEntity
  8
03___PRT_ALL_CURVES
100
AcDbSpline
 62
40
  6
CONTINUOUS
 70
0
 71
3
 72
10
 73
6
 74
0
 42
0.0000001
 43
0.0000001
 44
0.0000000001
 40
0.0
 40
0.0
 40
0.0
 40
0.0
 40
0.3333333333
 40
0.6666666667
 40
1.0
 40
1.0
 40
1.0
 40
1.0
 10
258.6956393015
 20
235.5242411377
 30
0.0
 10
258.7115519418
 20
235.5314562284
 30
0.0
 10
258.7430194772
 20
235.5419423615
 30
0.0
 10
258.7891863201
 20
235.5459474289
 30
0.0
 10
258.8190772219
 20
235.5409096193
 30
0.0
 10
258.8338265683
 20
235.5364998437
 30
0.0
  0
SPLINE
  5
3F1
100
AcDbEntity
  8
03___PRT_ALL_CURVES
100
AcDbSpline
 62
40
  6
CONTINUOUS
 70
0
 71
3
 72
10
 73
6
 74
0
 42
0.0000001
 43
0.0000001
 44
0.0000000001
 40
0.0
 40
0.0
 40
0.0
 40
0.0
 40
0.3333333333
 40
0.6666666667
 40
1.0
 40
1.0
 40
1.0
 40
1.0
 10
258.5709068518
 20
235.4134873517
 30
0.0
 10
258.582867237
 20
235.4309933984
 30
0.0
 10
258.6080682399
 20
235.4625274514
 30
0.0
 10
258.6502024851
 20
235.4997815164
 30
0.0
 10
258.6801476491
 20
235.5172169308
 30
0.0
 10
258.6956393015
 20
235.5242411377
 30
0.0
  0
SPLINE
  5
3F2
100
AcDbEntity
  8
03___PRT_ALL_CURVES
100
AcDbSpline
 62
40
  6
CONTINUOUS
 70
0
 71
3
 72
10
 73
6
 74
0
 42
0.0000001
 43
0.0000001
 44
0.0000000001
 40
0.0
 40
0.0
 40
0.0
 40
0.0
 40
0.3333333333
 40
0.6666666667
 40
1.0
 40
1.0
 40
1.0
 40
1.0
 10
258.9234265322
 20
235.7343202726
 30
0.0
 10
258.8962682761
 20
235.7424156554
 30
0.0
 10
258.8410068318
 20
235.7491016112
 30
0.0
 10
258.7534402012
 20
235.7295983655
 30
0.0
 10
258.6957281399
 20
235.6991431622
 30
0.0
 10
258.6664622822
 20
235.679897366
 30
0.0
  0
SPLINE
  5
3F3
100
AcDbEntity
  8
03___PRT_ALL_CURVES
100
AcDbSpline
 62
40
  6
CONTINUOUS
 70
0
 71
3
 72
10
 73
6
 74
0
 42
0.0000001
 43
0.0000001
 44
0.0000000001
 40
0.0
 40
0.0
 40
0.0
 40
0.0
 40
0.3333333333
 40
0.6666666667
 40
1.0
 40
1.0
 40
1.0
 40
1.0
 10
259.1481330368
 20
235.4853933906
 30
0.0
 10
259.1326679765
 20
235.5294585125
 30
0.0
 10
259.0958229187
 20
235.6068941024
 30
0.0
 10
259.0208187775
 20
235.691288028
 30
0.0
 10
258.9580706898
 20
235.7239934786
 30
0.0
 10
258.9234265322
 20
235.7343202726
 30
0.0
  0
SPLINE
  5
3F4
100
AcDbEntity
  8
03___PRT_ALL_CURVES
100
AcDbSpline
 62
40
  6
CONTINUOUS
 70
0
 71
3
 72
12
 73
8
 74
0
 42
0.0000001
 43
0.0000001
 44
0.0000000001
 40
0.0
 40
0.0
 40
0.0
 40
0.0
 40
0.3333333333
 40
0.5
 40
0.6666666667
 40
0.8333333333
 40
1.0
 40
1.0
 40
1.0
 40
1.0
 10
259.1507846921
 20
234.9945123027
 30
0.0
 10
259.1656133878
 20
235.05561102
 30
0.0
 10
259.1809028002
 20
235.1437626556
 30
0.0
 10
259.1862227428
 20
235.2575940305
 30
0.0
 10
259.1819547549
 20
235.3390980759
 30
0.0
 10
259.1696942293
 20
235.4148608305
 30
0.0
 10
259.1561957006
 20
235.4624201687
 30
0.0
 10
259.1481330368
 20
235.4853933906
 30
0.0
  0
SPLINE
  5
3F5
100
AcDbEntity
  8
03___PRT_ALL_CURVES
100
AcDbSpline
 62
40
  6
CONTINUOUS
 70
0
 71
3
 72
10
 73
6
 74
0
 42
0.0000001
 43
0.0000001
 44
0.0000000001
 40
0.0
 40
0.0
 40
0.0
 40
0.0
 40
0.3333333333
 40
0.6666666667
 40
1.0
 40
1.0
 40
1.0
 40
1.0
 10
258.9198457038
 20
234.5421663134
 30
0.0
 10
258.9548880652
 20
234.579118176
 30
0.0
 10
259.0191668242
 20
234.6614112093
 30
0.0
 10
259.0973002921
 20
234.8126931101
 30
0.0
 10
259.135346387
 20
234.9309018102
 30
0.0
 10
259.1507846921
 20
234.9945123027
 30
0.0
  0
SPLINE
  5
3F6
100
AcDbEntity
  8
03___PRT_ALL_CURVES
100
AcDbSpline
 62
40
  6
CONTINUOUS
 70
0
 71
3
 72
10
 73
6
 74
0
 42
0.0000001
 43
0.0000001
 44
0.0000000001
 40
0.0
 40
0.0
 40
0.0
 40
0.0
 40
0.3333333333
 40
0.6666666667
 40
1.0
 40
1.0
 40
1.0
 40
1.0
 10
258.5724958173
 20
234.4299899887
 30
0.0
 10
258.6134650735
 20
234.4176321817
 30
0.0
 10
258.6937304041
 20
234.4089254496
 30
0.0
 10
258.8107805068
 20
234.4461245214
 30
0.0
 10
258.8841578115
 20
234.5045337442
 30
0.0
 10
258.9198457038
 20
234.5421663134
 30
0.0
  0
SPLINE
  5
3F7
100
AcDbEntity
  8
03___PRT_ALL_CURVES
100
AcDbSpline
 62
40
  6
CONTINUOUS
 70
0
 71
3
 72
10
 73
6
 74
0
 42
0.0000001
 43
0.0000001
 44
0.0000000001
 40
0.0
 40
0.0
 40
0.0
 40
0.0
 40
0.3333333333
 40
0.6666666667
 40
1.0
 40
1.0
 40
1.0
 40
1.0
 10
258.3445761445
 20
234.6515438498
 30
0.0
 10
258.3608663184
 20
234.612559809
 30
0.0
 10
258.3995028659
 20
234.5442092062
 30
0.0
 10
258.4754634219
 20
234.4705052878
 30
0.0
 10
258.5381385914
 20
234.4403533686
 30
0.0
 10
258.5724958173
 20
234.4299899887
 30
0.0
  0
SPLINE
  5
3F8
100
AcDbEntity
  8
03___PRT_ALL_CURVES
100
AcDbSpline
 62
40
  6
CONTINUOUS
 70
0
 71
3
 72
10
 73
6
 74
0
 42
0.0000001
 43
0.0000001
 44
0.0000000001
 40
0.0
 40
0.0
 40
0.0
 40
0.0
 40
0.3333333333
 40
0.6666666667
 40
1.0
 40
1.0
 40
1.0
 40
1.0
 10
258.3178183426
 20
235.0848087734
 30
0.0
 10
258.3082501284
 20
235.0299391961
 30
0.0
 10
258.2965161549
 20
234.9248535443
 30
0.0
 10
258.3044593342
 20
234.7759089283
 30
0.0
 10
258.3280861319
 20
234.6910061249
 30
0.0
 10
258.3445761445
 20
234.6515438498
 30
0.0
  0
SPLINE
  5
3F9
100
AcDbEntity
  8
03___PRT_ALL_CURVES
100
AcDbSpline
 62
40
  6
CONTINUOUS
 70
0
 71
3
 72
10
 73
6
 74
0
 42
0.0000001
 43
0.0000001
 44
0.0000000001
 40
0.0
 40
0.0
 40
0.0
 40
0.0
 40
0.3333333333
 40
0.6666666667
 40
1.0
 40
1.0
 40
1.0
 40
1.0
 10
257.866284928
 20
236.1275347088
 30
0.0
 10
257.8874682822
 20
236.1392801721
 30
0.0
 10
257.9285128171
 20
236.1636320905
 30
0.0
 10
257.9860902745
 20
236.203561168
 30
0.0
 10
258.0210580941
 20
236.2327094572
 30
0.0
 10
258.037583751
 20
236.248136756
 30
0.0
  0
SPLINE
  5
3FA
100
AcDbEntity
  8
03___PRT_ALL_CURVES
100
AcDbSpline
 62
40
  6
CONTINUOUS
 70
0
 71
3
 72
10
 73
6
 74
0
 42
0.0000001
 43
0.0000001
 44
0.0000000001
 40
0.0
 40
0.0
 40
0.0
 40
0.0
 40
0.3333333333
 40
0.6666666667
 40
1.0
 40
1.0
 40
1.0
 40
1.0
 10
257.6847533511
 20
236.0507192811
 30
0.0
 10
257.7045929924
 20
236.0557134048
 30
0.0
 10
257.7443942968
 20
236.0685955466
 30
0.0
 10
257.8049902135
 20
236.0949286251
 30
0.0
 10
257.8457278761
 20
236.1161365092
 30
0.0
 10
257.866284928
 20
236.1275347088
 30
0.0
  0
SPLINE
  5
3FB
100
AcDbEntity
  8
03___PRT_ALL_CURVES
100
AcDbSpline
 62
40
  6
CONTINUOUS
 70
0
 71
3
 72
10
 73
6
 74
0
 42
0.0000001
 43
0.0000001
 44
0.0000000001
 40
0.0
 40
0.0
 40
0.0
 40
0.0
 40
0.3333333333
 40
0.6666666667
 40
1.0
 40
1.0
 40
1.0
 40
1.0
 10
257.9990489463
 20
236.4404461032
 30
0.0
 10
257.9713934704
 20
236.4165023443
 30
0.0
 10
257.9150651647
 20
236.3728538217
 30
0.0
 10
257.8283462802
 20
236.3198442414
 30
0.0
 10
257.768259495
 20
236.2920176959
 30
0.0
 10
257.7377292966
 20
236.2800113563
 30
0.0
  0
SPLINE
  5
3FC
100
AcDbEntity
  8
03___PRT_ALL_CURVES
100
AcDbSpline
 62
40
  6
CONTINUOUS
 70
0
 71
3
 72
10
 73
6
 74
0
 42
0.0000001
 43
0.0000001
 44
0.0000000001
 40
0.0
 40
0.0
 40
0.0
 40
0.0
 40
0.3333333333
 40
0.6666666667
 40
1.0
 40
1.0
 40
1.0
 40
1.0
 10
258.1888624097
 20
236.6608054907
 30
0.0
 10
258.1729978678
 20
236.6340290158
 30
0.0
 10
258.1374920274
 20
236.58222725
 30
0.0
 10
258.0734015472
 20
236.5085814243
 30
0.0
 10
258.0248119505
 20
236.4627513842
 30
0.0
 10
257.9990489463
 20
236.4404461032
 30
0.0
  0
SPLINE
  5
3FD
100
AcDbEntity
  8
03___PRT_ALL_CURVES
100
AcDbSpline
 62
40
  6
CONTINUOUS
 70
0
 71
3
 72
10
 73
6
 74
0
 42
0.0000001
 43
0.0000001
 44
0.0000000001
 40
0.0
 40
0.0
 40
0.0
 40
0.0
 40
0.3333333333
 40
0.6666666667
 40
1.0
 40
1.0
 40
1.0
 40
1.0
 10
249.4062426691
 20
235.2293535452
 30
0.0
 10
249.3923856239
 20
235.2476596625
 30
0.0
 10
249.3676349582
 20
235.2922216647
 30
0.0
 10
249.3367108186
 20
235.3789225993
 30
0.0
 10
249.3199193556
 20
235.4451228417
 30
0.0
 10
249.312109826
 20
235.4804568506
 30
0.0
  0
SPLINE
  5
3FE
100
AcDbEntity
  8
03___PRT_ALL_CURVES
100
AcDbSpline
 62
40
  6
CONTINUOUS
 70
0
 71
3
 72
10
 73
6
 74
0
 42
0.0000001
 43
0.0000001
 44
0.0000000001
 40
0.0
 40
0.0
 40
0.0
 40
0.0
 40
0.3333333333
 40
0.6666666667
 40
1.0
 40
1.0
 40
1.0
 40
1.0
 10
249.5156916683
 20
235.184164496
 30
0.0
 10
249.5031024885
 20
235.1783397732
 30
0.0
 10
249.478174109
 20
235.1742003822
 30
0.0
 10
249.4413645942
 20
235.189933712
 30
0.0
 10
249.4178619688
 20
235.2140036449
 30
0.0
 10
249.4062426691
 20
235.2293535452
 30
0.0
  0
SPLINE
  5
3FF
100
AcDbEntity
  8
03___PRT_ALL_CURVES
100
AcDbSpline
 62
40
  6
CONTINUOUS
 70
0
 71
3
 72
12
 73
8
 74
0
 42
0.0000001
 43
0.0000001
 44
0.0000000001
 40
0.0
 40
0.0
 40
0.0
 40
0.0
 40
0.1666666667
 40
0.3333333333
 40
0.5
 40
0.6666666667
 40
1.0
 40
1.0
 40
1.0
 40
1.0
 10
249.6133874668
 20
235.3654022285
 30
0.0
 10
249.610317778
 20
235.3498074584
 30
0.0
 10
249.6035442636
 20
235.320470786
 30
0.0
 10
249.5911488459
 20
235.2812663905
 30
0.0
 10
249.5761812032
 20
235.2470892527
 30
0.0
 10
249.5528487676
 20
235.2096666464
 30
0.0
 10
249.5316019696
 20
235.191525825
 30
0.0
 10
249.5156916683
 20
235.184164496
 30
0.0
  0
SPLINE
  5
400
100
AcDbEntity
  8
03___PRT_ALL_CURVES
100
AcDbSpline
 62
40
  6
CONTINUOUS
 70
0
 71
3
 72
10
 73
6
 74
0
 42
0.0000001
 43
0.0000001
 44
0.0000000001
 40
0.0
 40
0.0
 40
0.0
 40
0.0
 40
0.3333333333
 40
0.6666666667
 40
1.0
 40
1.0
 40
1.0
 40
1.0
 10
249.6091182752
 20
235.7356956369
 30
0.0
 10
249.6162149493
 20
235.6902849221
 30
0.0
 10
249.6265363386
 20
235.6024967347
 30
0.0
 10
249.6288844363
 20
235.4760590267
 30
0.0
 10
249.6203826376
 20
235.400939407
 30
0.0
 10
249.6133874668
 20
235.3654022285
 30
0.0
  0
SPLINE
  5
401
100
AcDbEntity
  8
03___PRT_ALL_CURVES
100
AcDbSpline
 62
40
  6
CONTINUOUS
 70
0
 71
3
 72
10
 73
6
 74
0
 42
0.0000001
 43
0.0000001
 44
0.0000000001
 40
0.0
 40
0.0
 40
0.0
 40
0.0
 40
0.3333333333
 40
0.6666666667
 40
1.0
 40
1.0
 40
1.0
 40
1.0
 10
249.5108912616
 20
236.0350219761
 30
0.0
 10
249.5264371679
 20
236.0130287932
 30
0.0
 10
249.5541120954
 20
235.9607611098
 30
0.0
 10
249.5869261811
 20
235.8573437611
 30
0.0
 10
249.6024791079
 20
235.778178824
 30
0.0
 10
249.6091182752
 20
235.7356956369
 30
0.0
  0
SPLINE
  5
402
100
AcDbEntity
  8
03___PRT_ALL_CURVES
100
AcDbSpline
 62
40
  6
CONTINUOUS
 70
0
 71
3
 72
10
 73
6
 74
0
 42
0.0000001
 43
0.0000001
 44
0.0000000001
 40
0.0
 40
0.0
 40
0.0
 40
0.0
 40
0.3333333333
 40
0.6666666667
 40
1.0
 40
1.0
 40
1.0
 40
1.0
 10
249.3745120382
 20
236.0944438113
 30
0.0
 10
249.3902210147
 20
236.1017917668
 30
0.0
 10
249.4212423839
 20
236.107386596
 30
0.0
 10
249.4671513921
 20
236.0873177817
 30
0.0
 10
249.4964403715
 20
236.0554660122
 30
0.0
 10
249.5108912616
 20
236.0350219761
 30
0.0
  0
SPLINE
  5
403
100
AcDbEntity
  8
03___PRT_ALL_CURVES
100
AcDbSpline
 62
40
  6
CONTINUOUS
 70
0
 71
3
 72
10
 73
6
 74
0
 42
0.0000001
 43
0.0000001
 44
0.0000000001
 40
0.0
 40
0.0
 40
0.0
 40
0.0
 40
0.3333333333
 40
0.6666666667
 40
1.0
 40
1.0
 40
1.0
 40
1.0
 10
249.3015611995
 20
236.0065519296
 30
0.0
 10
249.3083132872
 20
236.0217375433
 30
0.0
 10
249.3227397772
 20
236.0484572758
 30
0.0
 10
249.3470882723
 20
236.0776889983
 30
0.0
 10
249.3650762798
 20
236.0900301862
 30
0.0
 10
249.3745120382
 20
236.0944438113
 30
0.0
  0
SPLINE
  5
404
100
AcDbEntity
  8
03___PRT_ALL_CURVES
100
AcDbSpline
 62
40
  6
CONTINUOUS
 70
0
 71
3
 72
10
 73
6
 74
0
 42
0.0000001
 43
0.0000001
 44
0.0000000001
 40
0.0
 40
0.0
 40
0.0
 40
0.0
 40
0.3333333333
 40
0.6666666667
 40
1.0
 40
1.0
 40
1.0
 40
1.0
 10
249.2640413825
 20
235.8405740733
 30
0.0
 10
249.2656864306
 20
235.8623859276
 30
0.0
 10
249.2706522407
 20
235.9037691079
 30
0.0
 10
249.2833777745
 20
235.9598295384
 30
0.0
 10
249.2949849068
 20
235.9917616833
 30
0.0
 10
249.3015611995
 20
236.0065519296
 30
0.0
  0
SPLINE
  5
405
100
AcDbEntity
  8
03___PRT_ALL_CURVES
100
AcDbSpline
 62
40
  6
CONTINUOUS
 70
0
 71
3
 72
10
 73
6
 74
0
 42
0.0000001
 43
0.0000001
 44
0.0000000001
 40
0.0
 40
0.0
 40
0.0
 40
0.0
 40
0.3333333333
 40
0.6666666667
 40
1.0
 40
1.0
 40
1.0
 40
1.0
 10
249.3673775083
 20
236.3156744601
 30
0.0
 10
249.3500322473
 20
236.3075565838
 30
0.0
 10
249.3176146293
 20
236.2824763153
 30
0.0
 10
249.2750149623
 20
236.216714061
 30
0.0
 10
249.2518951234
 20
236.1580512626
 30
0.0
 10
249.2412381493
 20
236.1249919933
 30
0.0
  0
SPLINE
  5
406
100
AcDbEntity
  8
03___PRT_ALL_CURVES
100
AcDbSpline
 62
40
  6
CONTINUOUS
 70
0
 71
3
 72
10
 73
6
 74
0
 42
0.0000001
 43
0.0000001
 44
0.0000000001
 40
0.0
 40
0.0
 40
0.0
 40
0.0
 40
0.3333333333
 40
0.6666666667
 40
1.0
 40
1.0
 40
1.0
 40
1.0
 10
249.5635972709
 20
236.2246165912
 30
0.0
 10
249.5423444314
 20
236.2540347282
 30
0.0
 10
249.499714867
 20
236.3006273019
 30
0.0
 10
249.4335800291
 20
236.3325533911
 30
0.0
 10
249.389490553
 20
236.32602374
 30
0.0
 10
249.3673775083
 20
236.3156744601
 30
0.0
  0
SPLINE
  5
407
100
AcDbEntity
  8
03___PRT_ALL_CURVES
100
AcDbSpline
 62
40
  6
CONTINUOUS
 70
0
 71
3
 72
10
 73
6
 74
0
 42
0.0000001
 43
0.0000001
 44
0.0000000001
 40
0.0
 40
0.0
 40
0.0
 40
0.0
 40
0.3333333333
 40
0.6666666667
 40
1.0
 40
1.0
 40
1.0
 40
1.0
 10
249.7085150771
 20
235.8009649194
 30
0.0
 10
249.6988778435
 20
235.8621783778
 30
0.0
 10
249.6757932892
 20
235.9754843629
 30
0.0
 10
249.6264775612
 20
236.1212501608
 30
0.0
 10
249.58590273
 20
236.1937414203
 30
0.0
 10
249.5635972709
 20
236.2246165912
 30
0.0
  0
SPLINE
  5
408
100
AcDbEntity
  8
03___PRT_ALL_CURVES
100
AcDbSpline
 62
40
  6
CONTINUOUS
 70
0
 71
3
 72
10
 73
6
 74
0
 42
0.0000001
 43
0.0000001
 44
0.0000000001
 40
0.0
 40
0.0
 40
0.0
 40
0.0
 40
0.3333333333
 40
0.6666666667
 40
1.0
 40
1.0
 40
1.0
 40
1.0
 10
249.7111676352
 20
235.2812469685
 30
0.0
 10
249.7201555904
 20
235.3327609179
 30
0.0
 10
249.7323441534
 20
235.4397718779
 30
0.0
 10
249.7318470679
 20
235.614840815
 30
0.0
 10
249.7184720211
 20
235.7377207356
 30
0.0
 10
249.7085150771
 20
235.8009649194
 30
0.0
  0
SPLINE
  5
409
100
AcDbEntity
  8
03___PRT_ALL_CURVES
100
AcDbSpline
 62
40
  6
CONTINUOUS
 70
0
 71
3
 72
10
 73
6
 74
0
 42
0.0000001
 43
0.0000001
 44
0.0000000001
 40
0.0
 40
0.0
 40
0.0
 40
0.0
 40
0.3333333333
 40
0.6666666667
 40
1.0
 40
1.0
 40
1.0
 40
1.0
 10
249.5472911601
 20
234.9897347102
 30
0.0
 10
249.5739783807
 20
235.0020526221
 30
0.0
 10
249.6219113527
 20
235.0393852297
 30
0.0
 10
249.6776702092
 20
235.1374977976
 30
0.0
 10
249.7020331424
 20
235.2288931473
 30
0.0
 10
249.7111676352
 20
235.2812469685
 30
0.0
  0
SPLINE
  5
40A
100
AcDbEntity
  8
03___PRT_ALL_CURVES
100
AcDbSpline
 62
40
  6
CONTINUOUS
 70
0
 71
3
 72
10
 73
6
 74
0
 42
0.0000001
 43
0.0000001
 44
0.0000000001
 40
0.0
 40
0.0
 40
0.0
 40
0.0
 40
0.3333333333
 40
0.6666666667
 40
1.0
 40
1.0
 40
1.0
 40
1.0
 10
249.3549161397
 20
235.0528192935
 30
0.0
 10
249.3752606937
 20
235.0282487865
 30
0.0
 10
249.4166727664
 20
234.9909438092
 30
0.0
 10
249.4806716947
 20
234.9701548137
 30
0.0
 10
249.5248391534
 20
234.9793716287
 30
0.0
 10
249.5472911601
 20
234.9897347102
 30
0.0
  0
SPLINE
  5
40B
100
AcDbEntity
  8
03___PRT_ALL_CURVES
100
AcDbSpline
 62
40
  6
CONTINUOUS
 70
0
 71
3
 72
10
 73
6
 74
0
 42
0.0000001
 43
0.0000001
 44
0.0000000001
 40
0.0
 40
0.0
 40
0.0
 40
0.0
 40
0.3333333333
 40
0.6666666667
 40
1.0
 40
1.0
 40
1.0
 40
1.0
 10
249.2167278164
 20
235.4128521966
 30
0.0
 10
249.2269452234
 20
235.3597938158
 30
0.0
 10
249.2502134604
 20
235.2619728108
 30
0.0
 10
249.296928165
 20
235.1376934349
 30
0.0
 10
249.3343790532
 20
235.0776223258
 30
0.0
 10
249.3549161397
 20
235.0528192935
 30
0.0
  0
SPLINE
  5
40C
100
AcDbEntity
  8
03___PRT_ALL_CURVES
100
AcDbSpline
 62
40
  6
CONTINUOUS
 70
0
 71
3
 72
10
 73
6
 74
0
 42
0.0000001
 43
0.0000001
 44
0.0000000001
 40
0.0
 40
0.0
 40
0.0
 40
0.0
 40
0.3333333333
 40
0.6666666667
 40
1.0
 40
1.0
 40
1.0
 40
1.0
 10
248.6808581478
 20
236.0574993854
 30
0.0
 10
248.6891198772
 20
236.0798903775
 30
0.0
 10
248.704690397
 20
236.124628943
 30
0.0
 10
248.7249503725
 20
236.192328229
 30
0.0
 10
248.7359013291
 20
236.237622331
 30
0.0
 10
248.7406226029
 20
236.2604421271
 30
0.0
  0
SPLINE
  5
40D
100
AcDbEntity
  8
03___PRT_ALL_CURVES
100
AcDbSpline
 62
40
  6
CONTINUOUS
 70
0
 71
3
 72
10
 73
6
 74
0
 42
0.0000001
 43
0.0000001
 44
0.0000000001
 40
0.0
 40
0.0
 40
0.0
 40
0.0
 40
0.3333333333
 40
0.6666666667
 40
1.0
 40
1.0
 40
1.0
 40
1.0
 10
248.6035851929
 20
235.8859472177
 30
0.0
 10
248.6129123855
 20
235.9017288143
 30
0.0
 10
248.6308917526
 20
235.9358765022
 30
0.0
 10
248.6565197355
 20
235.9937471231
 30
0.0
 10
248.6728191597
 20
236.0357120687
 30
0.0
 10
248.6808581478
 20
236.0574993854
 30
0.0
  0
SPLINE
  5
40E
100
AcDbEntity
  8
03___PRT_ALL_CURVES
100
AcDbSpline
 62
40
  6
CONTINUOUS
 70
0
 71
3
 72
10
 73
6
 74
0
 42
0.0000001
 43
0.0000001
 44
0.0000000001
 40
0.0
 40
0.0
 40
0.0
 40
0.0
 40
0.3333333333
 40
0.6666666667
 40
1.0
 40
1.0
 40
1.0
 40
1.0
 10
248.6678206321
 20
236.4048802412
 30
0.0
 10
248.6594449223
 20
236.3682865574
 30
0.0
 10
248.640977034
 20
236.2981238545
 30
0.0
 10
248.608687788
 20
236.2022725608
 30
0.0
 10
248.5838630543
 20
236.1433605367
 30
0.0
 10
248.5706696897
 20
236.1152392929
 30
0.0
  0
SPLINE
  5
40F
100
AcDbEntity
  8
03___PRT_ALL_CURVES
100
AcDbSpline
 62
40
  6
CONTINUOUS
 70
0
 71
3
 72
10
 73
6
 74
0
 42
0.0000001
 43
0.0000001
 44
0.0000000001
 40
0.0
 40
0.0
 40
0.0
 40
0.0
 40
0.3333333333
 40
0.6666666667
 40
1.0
 40
1.0
 40
1.0
 40
1.0
 10
248.7099638262
 20
236.7043244795
 30
0.0
 10
248.7087312689
 20
236.6721966692
 30
0.0
 10
248.7037700243
 20
236.6072011921
 30
0.0
 10
248.6893484963
 20
236.5067109083
 30
0.0
 10
248.6756434742
 20
236.4390584322
 30
0.0
 10
248.6678206321
 20
236.4048802412
 30
0.0
  0
SPLINE
  5
410
100
AcDbEntity
  8
03___PRT_ALL_CURVES
100
AcDbSpline
 62
40
  6
CONTINUOUS
 70
0
 71
3
 72
27
 73
23
 74
0
 42
0.0000001
 43
0.0000001
 44
0.0000000001
 40
0.0
 40
0.0
 40
0.0
 40
0.0
 40
0.0208333333
 40
0.0416666667
 40
0.0625
 40
0.0833333333
 40
0.125
 40
0.1458333333
 40
0.1666666667
 40
0.2083333333
 40
0.25
 40
0.3333333333
 40
0.4166666667
 40
0.5
 40
0.5833333333
 40
0.6666666667
 40
0.75
 40
0.8333333333
 40
0.875
 40
0.9166666667
 40
0.9583333333
 40
1.0
 40
1.0
 40
1.0
 40
1.0
 10
252.7338928408
 20
235.1090435691
 30
0.0
 10
252.7338928408
 20
235.1126856623
 30
0.0
 10
252.7340645864
 20
235.1194204701
 30
0.0
 10
252.7348157068
 20
235.1297379947
 30
0.0
 10
252.7360385277
 20
235.1397266511
 30
0.0
 10
252.7382711094
 20
235.1527526621
 30
0.0
 10
252.7413666169
 20
235.1652246248
 30
0.0
 10
252.7452717699
 20
235.1771057059
 30
0.0
 10
252.749686317
 20
235.1885312578
 30
0.0
 10
252.7562702512
 20
235.202237056
 30
0.0
 10
252.7691232121
 20
235.222460485
 30
0.0
 10
252.7881195893
 20
235.2422521908
 30
0.0
 10
252.8142572052
 20
235.2567021657
 30
0.0
 10
252.8420351123
 20
235.2610225567
 30
0.0
 10
252.8692592136
 20
235.2552514138
 30
0.0
 10
252.8945704642
 20
235.2399466088
 30
0.0
 10
252.9163543999
 20
235.2161189393
 30
0.0
 10
252.9304887327
 20
235.1899722649
 30
0.0
 10
252.9384814014
 20
235.1671750438
 30
0.0
 10
252.9429891549
 20
235.1488553446
 30
0.0
 10
252.9458155344
 20
235.1293019409
 30
0.0
 10
252.9464837574
 20
235.1161655688
 30
0.0
 10
252.9464837574
 20
235.1090435691
 30
0.0
  0
SPLINE
  5
411
100
AcDbEntity
  8
03___PRT_ALL_CURVES
100
AcDbSpline
 62
40
  6
CONTINUOUS
 70
0
 71
3
 72
27
 73
23
 74
0
 42
0.0000001
 43
0.0000001
 44
0.0000000001
 40
0.0
 40
0.0
 40
0.0
 40
0.0
 40
0.0208333333
 40
0.0416666667
 40
0.0625
 40
0.0833333333
 40
0.125
 40
0.1458333333
 40
0.1666666667
 40
0.2083333333
 40
0.25
 40
0.3333333333
 40
0.4166666667
 40
0.5
 40
0.5833333333
 40
0.6666666667
 40
0.75
 40
0.8333333333
 40
0.875
 40
0.9166666667
 40
0.9583333333
 40
1.0
 40
1.0
 40
1.0
 40
1.0
 10
252.9464837574
 20
232.9096925265
 30
0.0
 10
252.9464837574
 20
232.9060504333
 30
0.0
 10
252.9463102198
 20
232.8993156256
 30
0.0
 10
252.9455513006
 20
232.888998101
 30
0.0
 10
252.9443159029
 20
232.8790094445
 30
0.0
 10
252.942060684
 20
232.8659834335
 30
0.0
 10
252.9389345638
 20
232.8535114709
 30
0.0
 10
252.9349924935
 20
232.8416303898
 30
0.0
 10
252.9305375831
 20
232.8302048379
 30
0.0
 10
252.9238966467
 20
232.8164990396
 30
0.0
 10
252.9109436746
 20
232.7962756106
 30
0.0
 10
252.8918272012
 20
232.7764839048
 30
0.0
 10
252.865588368
 20
232.76203393
 30
0.0
 10
252.8377781516
 20
232.757713539
 30
0.0
 10
252.81059697
 20
232.7634846818
 30
0.0
 10
252.7853913375
 20
232.7787894868
 30
0.0
 10
252.7637489859
 20
232.8026171563
 30
0.0
 10
252.7497335695
 20
232.8287638307
 30
0.0
 10
252.7418153059
 20
232.8515610518
 30
0.0
 10
252.737351773
 20
232.869880751
 30
0.0
 10
252.7345541432
 20
232.8894341548
 30
0.0
 10
252.7338928408
 20
232.9025705268
 30
0.0
 10
252.7338928408
 20
232.9096925265
 30
0.0
  0
SPLINE
  5
412
100
AcDbEntity
  8
03___PRT_ALL_CURVES
100
AcDbSpline
 62
40
  6
CONTINUOUS
 70
0
 71
3
 72
27
 73
23
 74
0
 42
0.0000001
 43
0.0000001
 44
0.0000000001
 40
0.0
 40
0.0
 40
0.0
 40
0.0
 40
0.0416666667
 40
0.0833333333
 40
0.125
 40
0.1666666667
 40
0.25
 40
0.3333333333
 40
0.4166666667
 40
0.5
 40
0.5833333333
 40
0.6666666667
 40
0.75
 40
0.7916666667
 40
0.8333333333
 40
0.8541666667
 40
0.875
 40
0.9166666667
 40
0.9375
 40
0.9583333333
 40
0.9791666667
 40
1.0
 40
1.0
 40
1.0
 40
1.0
 10
251.3986303939
 20
234.9802359717
 30
0.0
 10
251.3980219578
 20
234.9872875943
 30
0.0
 10
251.3962906061
 20
235.0001716661
 30
0.0
 10
251.3920427598
 20
235.0190198923
 30
0.0
 10
251.3863657404
 20
235.03634361
 30
0.0
 10
251.3771255199
 20
235.0574716338
 30
0.0
 10
251.3619846317
 20
235.0808115592
 30
0.0
 10
251.3400532359
 20
235.1004504541
 30
0.0
 10
251.3156010619
 20
235.1109890213
 30
0.0
 10
251.290214869
 20
235.1116854265
 30
0.0
 10
251.2652056621
 20
235.1022511593
 30
0.0
 10
251.2425618244
 20
235.0830636138
 30
0.0
 10
251.2268955246
 20
235.059894767
 30
0.0
 10
251.2168780618
 20
235.0374379981
 30
0.0
 10
251.2120347198
 20
235.0226238598
 30
0.0
 10
251.2089785621
 20
235.0104822688
 30
0.0
 10
251.2064257215
 20
234.9979867632
 30
0.0
 10
251.2046612873
 20
234.9850615519
 30
0.0
 10
251.20372959
 20
234.9717525943
 30
0.0
 10
251.2034604207
 20
234.9616400077
 30
0.0
 10
251.2036482148
 20
234.9512911727
 30
0.0
 10
251.204060451
 20
234.9445968652
 30
0.0
 10
251.2043678888
 20
234.9409934081
 30
0.0
  0
SPLINE
  5
413
100
AcDbEntity
  8
03___PRT_ALL_CURVES
100
AcDbSpline
 62
40
  6
CONTINUOUS
 70
0
 71
3
 72
27
 73
23
 74
0
 42
0.0000001
 43
0.0000001
 44
0.0000000001
 40
0.0
 40
0.0
 40
0.0
 40
0.0
 40
0.0416666667
 40
0.0833333333
 40
0.125
 40
0.1666666667
 40
0.25
 40
0.3333333333
 40
0.4166666667
 40
0.5
 40
0.5833333333
 40
0.6666666667
 40
0.75
 40
0.7916666667
 40
0.8333333333
 40
0.8541666667
 40
0.875
 40
0.9166666667
 40
0.9375
 40
0.9583333333
 40
0.9791666667
 40
1.0
 40
1.0
 40
1.0
 40
1.0
 10
251.391420054
 20
232.7604581186
 30
0.0
 10
251.3920281884
 20
232.7534070837
 30
0.0
 10
251.3937587044
 20
232.7405241932
 30
0.0
 10
251.3980062373
 20
232.7216769788
 30
0.0
 10
251.4036863034
 20
232.7043537494
 30
0.0
 10
251.4129380095
 20
232.6832262111
 30
0.0
 10
251.4281193019
 20
232.6598821722
 30
0.0
 10
251.4501628604
 20
232.6402417238
 30
0.0
 10
251.4747958379
 20
232.629706787
 30
0.0
 10
251.5004460282
 20
232.6290079182
 30
0.0
 10
251.5257900623
 20
232.63843505
 30
0.0
 10
251.548805201
 20
232.6576128363
 30
0.0
 10
251.5647673988
 20
232.6807692637
 30
0.0
 10
251.5749899226
 20
232.7032142785
 30
0.0
 10
251.579938925
 20
232.7180258539
 30
0.0
 10
251.5830642466
 20
232.7301693846
 30
0.0
 10
251.5856760052
 20
232.7426681899
 30
0.0
 10
251.587482563
 20
232.7555992636
 30
0.0
 10
251.5884372703
 20
232.7689164368
 30
0.0
 10
251.588713613
 20
232.7790363319
 30
0.0
 10
251.5885221131
 20
232.7893934769
 30
0.0
 10
251.5881004538
 20
232.7960940644
 30
0.0
 10
251.5877859166
 20
232.7997006822
 30
0.0
  0
SPLINE
  5
414
100
AcDbEntity
  8
03___PRT_ALL_CURVES
100
AcDbSpline
 62
40
  6
CONTINUOUS
 70
0
 71
3
 72
31
 73
27
 74
0
 42
0.0000001
 43
0.0000001
 44
0.0000000001
 40
0.0
 40
0.0
 40
0.0
 40
0.0
 40
0.0208333333
 40
0.0416666667
 40
0.0625
 40
0.0833333333
 40
0.125
 40
0.1458333333
 40
0.1666666667
 40
0.2083333333
 40
0.25
 40
0.3333333333
 40
0.4166666667
 40
0.5
 40
0.5833333333
 40
0.6666666667
 40
0.7083333333
 40
0.75
 40
0.7916666667
 40
0.8333333333
 40
0.875
 40
0.9166666667
 40
0.9375
 40
0.9583333333
 40
0.9791666667
 40
1.0
 40
1.0
 40
1.0
 40
1.0
 10
249.9988693169
 20
234.5567745496
 30
0.0
 10
249.9983180335
 20
234.5602038788
 30
0.0
 10
249.9971628727
 20
234.5664929734
 30
0.0
 10
249.9950087001
 20
234.5759643616
 30
0.0
 10
249.9925301887
 20
234.5849754194
 30
0.0
 10
249.9887901347
 20
234.5965232396
 30
0.0
 10
249.9844430865
 20
234.6072776152
 30
0.0
 10
249.9795312265
 20
234.6172215581
 30
0.0
 10
249.9742750358
 20
234.6265758446
 30
0.0
 10
249.9669252691
 20
234.6373885281
 30
0.0
 10
249.9535384423
 20
234.6523216117
 30
0.0
 10
249.9352199348
 20
234.6648491493
 30
0.0
 10
249.9117891868
 20
234.6699075759
 30
0.0
 10
249.8884511955
 20
234.6646710438
 30
0.0
 10
249.8666123481
 20
234.6494477939
 30
0.0
 10
249.8509364996
 20
234.6290140902
 30
0.0
 10
249.8408314612
 20
234.6095152128
 30
0.0
 10
249.8342395621
 20
234.5928471763
 30
0.0
 10
249.8290527715
 20
234.5748875366
 30
0.0
 10
249.825393711
 20
234.556379886
 30
0.0
 10
249.8231999232
 20
234.5376041288
 30
0.0
 10
249.8225519467
 20
234.5214984223
 30
0.0
 10
249.8227837883
 20
234.5084630199
 30
0.0
 10
249.8233358946
 20
234.4986570729
 30
0.0
 10
249.8242966734
 20
234.4887288745
 30
0.0
 10
249.8251668375
 20
234.4823643269
 30
0.0
 10
249.8257072642
 20
234.4789608735
 30
0.0
  0
SPLINE
  5
415
100
AcDbEntity
  8
03___PRT_ALL_CURVES
100
AcDbSpline
 62
40
  6
CONTINUOUS
 70
0
 71
3
 72
29
 73
25
 74
0
 42
0.0000001
 43
0.0000001
 44
0.0000000001
 40
0.0
 40
0.0
 40
0.0
 40
0.0
 40
0.0208333333
 40
0.0416666667
 40
0.0625
 40
0.0833333333
 40
0.125
 40
0.1666666667
 40
0.25
 40
0.3333333333
 40
0.4166666667
 40
0.5
 40
0.5833333333
 40
0.6666666667
 40
0.7083333333
 40
0.75
 40
0.7916666667
 40
0.8333333333
 40
0.875
 40
0.9166666667
 40
0.9375
 40
0.9583333333
 40
0.9791666667
 40
1.0
 40
1.0
 40
1.0
 40
1.0
 10
250.1671315389
 20
232.3545509004
 30
0.0
 10
250.1676893102
 20
232.3511213364
 30
0.0
 10
250.1688583826
 20
232.3448309337
 30
0.0
 10
250.1710386856
 20
232.3353590831
 30
0.0
 10
250.173548535
 20
232.3263473155
 30
0.0
 10
250.177334124
 20
232.3148028586
 30
0.0
 10
250.1828561238
 20
232.3013424636
 30
0.0
 10
250.1931077945
 20
232.2821127776
 30
0.0
 10
250.2093141279
 20
232.2615762328
 30
0.0
 10
250.2317661148
 20
232.2464889237
 30
0.0
 10
250.2556960736
 20
232.2414201041
 30
0.0
 10
250.2796459246
 20
232.2466317705
 30
0.0
 10
250.3021268862
 20
232.2618387051
 30
0.0
 10
250.3183151448
 20
232.2822629639
 30
0.0
 10
250.3287652911
 20
232.3017496459
 30
0.0
 10
250.3355877078
 20
232.3184000548
 30
0.0
 10
250.3409637883
 20
232.3363429466
 30
0.0
 10
250.344764112
 20
232.3548465053
 30
0.0
 10
250.3470478673
 20
232.3736338546
 30
0.0
 10
250.3477257943
 20
232.3897562608
 30
0.0
 10
250.3474882569
 20
232.4028098575
 30
0.0
 10
250.34691669
 20
232.4126315111
 30
0.0
 10
250.3459199963
 20
232.422577263
 30
0.0
 10
250.3450164188
 20
232.4289545869
 30
0.0
 10
250.3444551795
 20
232.4323645765
 30
0.0
  0
SPLINE
  5
416
100
AcDbEntity
  8
03___PRT_ALL_CURVES
100
AcDbSpline
 62
40
  6
CONTINUOUS
 70
0
 71
3
 72
27
 73
23
 74
0
 42
0.0000001
 43
0.0000001
 44
0.0000000001
 40
0.0
 40
0.0
 40
0.0
 40
0.0
 40
0.0208333333
 40
0.0416666667
 40
0.0625
 40
0.0833333333
 40
0.125
 40
0.1458333333
 40
0.1666666667
 40
0.2083333333
 40
0.25
 40
0.3333333333
 40
0.4166666667
 40
0.5
 40
0.5833333333
 40
0.6666666667
 40
0.75
 40
0.8333333333
 40
0.875
 40
0.9166666667
 40
0.9583333333
 40
1.0
 40
1.0
 40
1.0
 40
1.0
 10
250.6347994932
 20
233.6180790043
 30
0.0
 10
250.6343444803
 20
233.6216470115
 30
0.0
 10
250.6336531585
 20
233.6282898402
 30
0.0
 10
250.6330185746
 20
233.63861114
 30
0.0
 10
250.6328361805
 20
233.6487457649
 30
0.0
 10
250.6331544261
 20
233.6621471942
 30
0.0
 10
250.6342947433
 20
233.6752561023
 30
0.0
 10
250.6362166993
 20
233.6880218457
 30
0.0
 10
250.6386411804
 20
233.7004882201
 30
0.0
 10
250.6426791213
 20
233.7158236562
 30
0.0
 10
250.6513953005
 20
233.7393624544
 30
0.0
 10
250.6655489843
 20
233.7641940243
 30
0.0
 10
250.6866251124
 20
233.7857399648
 30
0.0
 10
250.71040562
 20
233.7977359156
 30
0.0
 10
250.7350014397
 20
233.7995900759
 30
0.0
 10
250.7590956126
 20
233.7914373752
 30
0.0
 10
250.7810958055
 20
233.7738922231
 30
0.0
 10
250.7966639743
 20
233.7519593391
 30
0.0
 10
250.8064193039
 20
233.7316953139
 30
0.0
 10
250.8125796158
 20
233.7149011785
 30
0.0
 10
250.8174147332
 20
233.6964480849
 30
0.0
 10
250.8195848551
 20
233.6837284974
 30
0.0
 10
250.820444775
 20
233.6767320749
 30
0.0
  0
SPLINE
  5
417
100
AcDbEntity
  8
03___PRT_ALL_CURVES
100
AcDbSpline
 62
40
  6
CONTINUOUS
 70
0
 71
3
 72
27
 73
23
 74
0
 42
0.0000001
 43
0.0000001
 44
0.0000000001
 40
0.0
 40
0.0
 40
0.0
 40
0.0
 40
0.0208333333
 40
0.0416666667
 40
0.0625
 40
0.0833333333
 40
0.125
 40
0.1666666667
 40
0.25
 40
0.3333333333
 40
0.4166666667
 40
0.5
 40
0.5833333333
 40
0.6666666667
 40
0.75
 40
0.8333333333
 40
0.875
 40
0.9166666667
 40
0.9375
 40
0.9583333333
 40
0.9791666667
 40
1.0
 40
1.0
 40
1.0
 40
1.0
 10
250.9506465392
 20
232.6471783354
 30
0.0
 10
250.9510750746
 20
232.6437134529
 30
0.0
 10
250.9517253214
 20
232.6372485465
 30
0.0
 10
250.9523117117
 20
232.6272162933
 30
0.0
 10
250.9524631062
 20
232.6173569088
 30
0.0
 10
250.9521243293
 20
232.6043159607
 30
0.0
 10
250.9506953109
 20
232.5883141543
 30
0.0
 10
250.9464469227
 20
232.56374262
 30
0.0
 10
250.9370356832
 20
232.5337949258
 30
0.0
 10
250.9203537711
 20
232.5041430601
 30
0.0
 10
250.8993692217
 20
232.4821573387
 30
0.0
 10
250.8755277282
 20
232.4694607893
 30
0.0
 10
250.8504579
 20
232.4668565478
 30
0.0
 10
250.8258401922
 20
232.4745612369
 30
0.0
 10
250.803386984
 20
232.4919161277
 30
0.0
 10
250.7875399924
 20
232.5139001539
 30
0.0
 10
250.7777064173
 20
232.534049506
 30
0.0
 10
250.7725260394
 20
232.5479824973
 30
0.0
 10
250.7690593343
 20
232.5598392691
 30
0.0
 10
250.7668113129
 20
232.5690509585
 30
0.0
 10
250.7649198
 20
232.5786860531
 30
0.0
 10
250.7639502942
 20
232.5850612473
 30
0.0
 10
250.7635042094
 20
232.5885253553
 30
0.0
  0
SPLINE
  5
418
100
AcDbEntity
  8
03___PRT_ALL_CURVES
100
AcDbSpline
 62
40
  6
CONTINUOUS
 70
0
 71
3
 72
27
 73
23
 74
0
 42
0.0000001
 43
0.0000001
 44
0.0000000001
 40
0.0
 40
0.0
 40
0.0
 40
0.0
 40
0.0208333333
 40
0.0416666667
 40
0.0625
 40
0.0833333333
 40
0.125
 40
0.1666666667
 40
0.25
 40
0.3333333333
 40
0.4166666667
 40
0.5
 40
0.5833333333
 40
0.6666666667
 40
0.75
 40
0.8333333333
 40
0.875
 40
0.9166666667
 40
0.9375
 40
0.9583333333
 40
0.9791666667
 40
1.0
 40
1.0
 40
1.0
 40
1.0
 10
252.0025191602
 20
233.91415506
 30
0.0
 10
252.0023472467
 20
233.9177689756
 30
0.0
 10
252.0021923069
 20
233.9244886145
 30
0.0
 10
252.0024208133
 20
233.934806356
 30
0.0
 10
252.0031135136
 20
233.9448423066
 30
0.0
 10
252.0046199466
 20
233.9579765597
 30
0.0
 10
252.0075673985
 20
233.9738198879
 30
0.0
 10
252.0142995607
 20
233.997605369
 30
0.0
 10
252.0269040796
 20
234.0253398386
 30
0.0
 10
252.047090283
 20
234.0512289734
 30
0.0
 10
252.0712313206
 20
234.0687090687
 30
0.0
 10
252.0976185369
 20
234.0763899638
 30
0.0
 10
252.1244992291
 20
234.0738396754
 30
0.0
 10
252.1500923641
 20
234.0611502657
 30
0.0
 10
252.1725513649
 20
234.0393676298
 30
0.0
 10
252.1876365804
 20
234.01429799
 30
0.0
 10
252.1965036609
 20
233.9920105126
 30
0.0
 10
252.2008731551
 20
233.9768685362
 30
0.0
 10
252.2035572986
 20
233.9641347636
 30
0.0
 10
252.2051490714
 20
233.9543162994
 30
0.0
 10
252.2063008299
 20
233.9441287513
 30
0.0
 10
252.2067464288
 20
233.9374351919
 30
0.0
 10
252.2068972616
 20
233.933818231
 30
0.0
  0
SPLINE
  5
419
100
AcDbEntity
  8
03___PRT_ALL_CURVES
100
AcDbSpline
 62
40
  6
CONTINUOUS
 70
0
 71
3
 72
27
 73
23
 74
0
 42
0.0000001
 43
0.0000001
 44
0.0000000001
 40
0.0
 40
0.0
 40
0.0
 40
0.0
 40
0.0208333333
 40
0.0416666667
 40
0.0625
 40
0.0833333333
 40
0.125
 40
0.1666666667
 40
0.25
 40
0.3333333333
 40
0.4166666667
 40
0.5
 40
0.5833333333
 40
0.6666666667
 40
0.75
 40
0.8333333333
 40
0.875
 40
0.9166666667
 40
0.9375
 40
0.9583333333
 40
0.9791666667
 40
1.0
 40
1.0
 40
1.0
 40
1.0
 10
252.2539779794
 20
232.8863419115
 30
0.0
 10
252.2541248834
 20
232.8828090427
 30
0.0
 10
252.254238803
 20
232.8762460598
 30
0.0
 10
252.2539622251
 20
232.866153508
 30
0.0
 10
252.2532352708
 20
232.8563248601
 30
0.0
 10
252.2516969236
 20
232.8434401248
 30
0.0
 10
252.2487268542
 20
232.8278485261
 30
0.0
 10
252.2419748253
 20
232.8043458375
 30
0.0
 10
252.2292608735
 20
232.7766411464
 30
0.0
 10
252.2088565896
 20
232.7507150326
 30
0.0
 10
252.1845390666
 20
232.7332325357
 30
0.0
 10
252.1580074865
 20
232.7255417823
 30
0.0
 10
252.1310542808
 20
232.7281072582
 30
0.0
 10
252.1054922122
 20
232.7408100419
 30
0.0
 10
252.0831014569
 20
232.7626267856
 30
0.0
 10
252.0681509898
 20
232.7876692607
 30
0.0
 10
252.0594368319
 20
232.8096845467
 30
0.0
 10
252.0551393237
 20
232.824577162
 30
0.0
 10
252.0524873295
 20
232.8370589993
 30
0.0
 10
252.0509025945
 20
232.8466654386
 30
0.0
 10
252.0497363638
 20
232.8566192705
 30
0.0
 10
252.0492661772
 20
232.8631481417
 30
0.0
 10
252.0490970349
 20
232.8666787709
 30
0.0
  0
SPLINE
  5
41A
100
AcDbEntity
  8
03___PRT_ALL_CURVES
100
AcDbSpline
 62
40
  6
CONTINUOUS
 70
0
 71
3
 72
27
 73
23
 74
0
 42
0.0000001
 43
0.0000001
 44
0.0000000001
 40
0.0
 40
0.0
 40
0.0
 40
0.0
 40
0.0208333333
 40
0.0416666667
 40
0.0625
 40
0.0833333333
 40
0.125
 40
0.1666666667
 40
0.25
 40
0.3333333333
 40
0.4166666667
 40
0.5
 40
0.5833333333
 40
0.6666666667
 40
0.75
 40
0.8333333333
 40
0.875
 40
0.9166666667
 40
0.9375
 40
0.9583333333
 40
0.9791666667
 40
1.0
 40
1.0
 40
1.0
 40
1.0
 10
254.3904679868
 20
234.9802359717
 30
0.0
 10
254.3908196024
 20
234.9837555911
 30
0.0
 10
254.391645924
 20
234.990246377
 30
0.0
 10
254.393409864
 20
235.0001047753
 30
0.0
 10
254.3956270321
 20
235.0095768701
 30
0.0
 10
254.3991726474
 20
235.0218307205
 30
0.0
 10
254.4046742881
 20
235.0363489305
 30
0.0
 10
254.415454077
 20
235.0575937717
 30
0.0
 10
254.433384352
 20
235.0813161384
 30
0.0
 10
254.459507533
 20
235.1010801448
 30
0.0
 10
254.4887205478
 20
235.1113740138
 30
0.0
 10
254.5189845353
 20
235.1113595892
 30
0.0
 10
254.5482586746
 20
235.1010875873
 30
0.0
 10
254.5745422627
 20
235.0812027018
 30
0.0
 10
254.5960056085
 20
235.053213044
 30
0.0
 10
254.6087502431
 20
235.0241880948
 30
0.0
 10
254.6150334977
 20
235.0000003986
 30
0.0
 10
254.6175135643
 20
234.9841085725
 30
0.0
 10
254.6185382716
 20
234.9710710702
 30
0.0
 10
254.6188207576
 20
234.9611723857
 30
0.0
 10
254.6185855442
 20
234.9510559682
 30
0.0
 10
254.6181045418
 20
234.9445100739
 30
0.0
 10
254.6177498252
 20
234.9409934081
 30
0.0
  0
SPLINE
  5
41B
100
AcDbEntity
  8
03___PRT_ALL_CURVES
100
AcDbSpline
 62
40
  6
CONTINUOUS
 70
0
 71
3
 72
27
 73
23
 74
0
 42
0.0000001
 43
0.0000001
 44
0.0000000001
 40
0.0
 40
0.0
 40
0.0
 40
0.0
 40
0.0208333333
 40
0.0416666667
 40
0.0625
 40
0.0833333333
 40
0.125
 40
0.1666666667
 40
0.25
 40
0.3333333333
 40
0.4166666667
 40
0.5
 40
0.5833333333
 40
0.6666666667
 40
0.75
 40
0.8333333333
 40
0.875
 40
0.9166666667
 40
0.9375
 40
0.9583333333
 40
0.9791666667
 40
1.0
 40
1.0
 40
1.0
 40
1.0
 10
254.3988195779
 20
232.7604581186
 30
0.0
 10
254.3984677983
 20
232.7569381127
 30
0.0
 10
254.3976410389
 20
232.7504461656
 30
0.0
 10
254.395876443
 20
232.7405867083
 30
0.0
 10
254.3936588803
 20
232.731113858
 30
0.0
 10
254.3901135239
 20
232.7188596237
 30
0.0
 10
254.3846147422
 20
232.704342217
 30
0.0
 10
254.3738483218
 20
232.6831004692
 30
0.0
 10
254.3559665439
 20
232.6593887197
 30
0.0
 10
254.3299698244
 20
232.6396272892
 30
0.0
 10
254.300957937
 20
232.629325192
 30
0.0
 10
254.2709745355
 20
232.6293292697
 30
0.0
 10
254.2420390999
 20
232.6395936245
 30
0.0
 10
254.2161194689
 20
232.6594782078
 30
0.0
 10
254.1950029835
 20
232.6874628508
 30
0.0
 10
254.1824819292
 20
232.7164830379
 30
0.0
 10
254.1763101982
 20
232.7406749026
 30
0.0
 10
254.1738745965
 20
232.7565703221
 30
0.0
 10
254.172868017
 20
232.7696116747
 30
0.0
 10
254.1725902813
 20
232.7795136716
 30
0.0
 10
254.1728208245
 20
232.7896338514
 30
0.0
 10
254.1732928935
 20
232.7961825394
 30
0.0
 10
254.1736410969
 20
232.7997006822
 30
0.0
  0
SPLINE
  5
41C
100
AcDbEntity
  8
03___PRT_ALL_CURVES
100
AcDbSpline
 62
40
  6
CONTINUOUS
 70
0
 71
3
 72
31
 73
27
 74
0
 42
0.0000001
 43
0.0000001
 44
0.0000000001
 40
0.0
 40
0.0
 40
0.0
 40
0.0
 40
0.0208333333
 40
0.0416666667
 40
0.0625
 40
0.0833333333
 40
0.125
 40
0.1458333333
 40
0.1666666667
 40
0.2083333333
 40
0.25
 40
0.3333333333
 40
0.4166666667
 40
0.5
 40
0.5833333333
 40
0.6666666667
 40
0.7083333333
 40
0.75
 40
0.7916666667
 40
0.8333333333
 40
0.875
 40
0.9166666667
 40
0.9375
 40
0.9583333333
 40
0.9791666667
 40
1.0
 40
1.0
 40
1.0
 40
1.0
 10
256.1439442483
 20
234.5567745496
 30
0.0
 10
256.1446924655
 20
234.5602038762
 30
0.0
 10
256.1462604193
 20
234.5664929656
 30
0.0
 10
256.149185067
 20
234.5759643472
 30
0.0
 10
256.1525510176
 20
234.5849753996
 30
0.0
 10
256.1576318461
 20
234.5965232143
 30
0.0
 10
256.163540312
 20
234.6072775869
 30
0.0
 10
256.1702209803
 20
234.6172215291
 30
0.0
 10
256.1773733056
 20
234.6265758159
 30
0.0
 10
256.1873816247
 20
234.6373885066
 30
0.0
 10
256.2056320283
 20
234.6523216084
 30
0.0
 10
256.2306527106
 20
234.6648491437
 30
0.0
 10
256.2627468774
 20
234.6699075696
 30
0.0
 10
256.2948080901
 20
234.6646710763
 30
0.0
 10
256.3248949618
 20
234.6494480872
 30
0.0
 10
256.3465472856
 20
234.6290147938
 30
0.0
 10
256.3605253393
 20
234.6095159204
 30
0.0
 10
256.3696517871
 20
234.5928477503
 30
0.0
 10
256.3768382657
 20
234.5748879093
 30
0.0
 10
256.3819107623
 20
234.5563801061
 30
0.0
 10
256.3849530627
 20
234.5376042702
 30
0.0
 10
256.3858518269
 20
234.521498505
 30
0.0
 10
256.3855302681
 20
234.5084630687
 30
0.0
 10
256.3847645415
 20
234.4986571015
 30
0.0
 10
256.3834321468
 20
234.488728885
 30
0.0
 10
256.3822255797
 20
234.4823643339
 30
0.0
 10
256.3814763091
 20
234.4789608735
 30
0.0
  0
SPLINE
  5
41D
100
AcDbEntity
  8
03___PRT_ALL_CURVES
100
AcDbSpline
 62
40
  6
CONTINUOUS
 70
0
 71
3
 72
29
 73
25
 74
0
 42
0.0000001
 43
0.0000001
 44
0.0000000001
 40
0.0
 40
0.0
 40
0.0
 40
0.0
 40
0.0208333333
 40
0.0416666667
 40
0.0625
 40
0.0833333333
 40
0.125
 40
0.1666666667
 40
0.25
 40
0.3333333333
 40
0.4166666667
 40
0.5
 40
0.5833333333
 40
0.6666666667
 40
0.7083333333
 40
0.75
 40
0.7916666667
 40
0.8333333333
 40
0.875
 40
0.9166666667
 40
0.9375
 40
0.9583333333
 40
0.9791666667
 40
1.0
 40
1.0
 40
1.0
 40
1.0
 10
255.9178822304
 20
232.3545509004
 30
0.0
 10
255.9171404054
 20
232.3511213073
 30
0.0
 10
255.9155857049
 20
232.3448308877
 30
0.0
 10
255.9126868725
 20
232.3353589672
 30
0.0
 10
255.9093508298
 20
232.3263471287
 30
0.0
 10
255.9043206817
 20
232.3148025618
 30
0.0
 10
255.8969870269
 20
232.3013419958
 30
0.0
 10
255.8833833793
 20
232.2821120632
 30
0.0
 10
255.8619080425
 20
232.261574807
 30
0.0
 10
255.8322328511
 20
232.246487815
 30
0.0
 10
255.8006953974
 20
232.2414202823
 30
0.0
 10
255.7692231289
 20
232.2466321996
 30
0.0
 10
255.7397617622
 20
232.2618400435
 30
0.0
 10
255.7186012285
 20
232.2822656334
 30
0.0
 10
255.7049614472
 20
232.3017522734
 30
0.0
 10
255.6960644463
 20
232.3184022141
 30
0.0
 10
255.6890587497
 20
232.3363444124
 30
0.0
 10
255.6841090202
 20
232.3548474278
 30
0.0
 10
255.6811355628
 20
232.373634469
 30
0.0
 10
255.6802530701
 20
232.3897566407
 30
0.0
 10
255.680562324
 20
232.4028100924
 30
0.0
 10
255.6813064584
 20
232.4126316548
 30
0.0
 10
255.6826041857
 20
232.4225773213
 30
0.0
 10
255.6837808312
 20
232.4289546192
 30
0.0
 10
255.6845117576
 20
232.4323645765
 30
0.0
  0
SPLINE
  5
41E
100
AcDbEntity
  8
03___PRT_ALL_CURVES
100
AcDbSpline
 62
40
  6
CONTINUOUS
 70
0
 71
3
 72
27
 73
23
 74
0
 42
0.0000001
 43
0.0000001
 44
0.0000000001
 40
0.0
 40
0.0
 40
0.0
 40
0.0
 40
0.0208333333
 40
0.0416666667
 40
0.0625
 40
0.0833333333
 40
0.125
 40
0.1458333333
 40
0.1666666667
 40
0.2083333333
 40
0.25
 40
0.3333333333
 40
0.4166666667
 40
0.5
 40
0.5833333333
 40
0.6666666667
 40
0.75
 40
0.8333333333
 40
0.875
 40
0.9166666667
 40
0.9583333333
 40
1.0
 40
1.0
 40
1.0
 40
1.0
 10
255.0813184953
 20
233.6767320749
 30
0.0
 10
255.0818608545
 20
233.6803100858
 30
0.0
 10
255.0830497754
 20
233.6868719835
 30
0.0
 10
255.0854053565
 20
233.696803085
 30
0.0
 10
255.0882276885
 20
233.7062849429
 30
0.0
 10
255.0926073038
 20
233.7184828607
 30
0.0
 10
255.0978517933
 20
233.7299098416
 30
0.0
 10
255.1039017915
 20
233.7405443209
 30
0.0
 10
255.110445694
 20
233.7505947068
 30
0.0
 10
255.1197306754
 20
233.7623235267
 30
0.0
 10
255.1369293227
 20
233.7787898055
 30
0.0
 10
255.1608309919
 20
233.7930735645
 30
0.0
 10
255.1916533495
 20
233.8000126034
 30
0.0
 10
255.222695398
 20
233.7965012094
 30
0.0
 10
255.2515962017
 20
233.7831550701
 30
0.0
 10
255.276860573
 20
233.76091264
 30
0.0
 10
255.2968010648
 20
233.7314068154
 30
0.0
 10
255.3080466889
 20
233.701811931
 30
0.0
 10
255.3131394883
 20
233.6772328863
 30
0.0
 10
255.3151500665
 20
233.6580273928
 30
0.0
 10
255.3151408212
 20
233.6380916067
 30
0.0
 10
255.3138001725
 20
233.6250486224
 30
0.0
 10
255.3126808085
 20
233.6180790043
 30
0.0
  0
SPLINE
  5
41F
100
AcDbEntity
  8
03___PRT_ALL_CURVES
100
AcDbSpline
 62
40
  6
CONTINUOUS
 70
0
 71
3
 72
27
 73
23
 74
0
 42
0.0000001
 43
0.0000001
 44
0.0000000001
 40
0.0
 40
0.0
 40
0.0
 40
0.0
 40
0.0208333333
 40
0.0416666667
 40
0.0625
 40
0.0833333333
 40
0.125
 40
0.1666666667
 40
0.25
 40
0.3333333333
 40
0.4166666667
 40
0.5
 40
0.5833333333
 40
0.6666666667
 40
0.75
 40
0.8333333333
 40
0.875
 40
0.9166666667
 40
0.9375
 40
0.9583333333
 40
0.9791666667
 40
1.0
 40
1.0
 40
1.0
 40
1.0
 10
255.1517670461
 20
232.5885253553
 30
0.0
 10
255.1512133593
 20
232.5850611792
 30
0.0
 10
255.1500100824
 20
232.5786859382
 30
0.0
 10
255.1476628934
 20
232.5690506771
 30
0.0
 10
255.1448739547
 20
232.5598388185
 30
0.0
 10
255.140574235
 20
232.5479817869
 30
0.0
 10
255.1341518664
 20
232.5340483945
 30
0.0
 10
255.1219697933
 20
232.5138984545
 30
0.0
 10
255.1023621666
 20
232.4919127302
 30
0.0
 10
255.0746466412
 20
232.4745582279
 30
0.0
 10
255.0443462379
 20
232.4668565065
 30
0.0
 10
255.0135774776
 20
232.4694614627
 30
0.0
 10
254.9843928742
 20
232.4821601698
 30
0.0
 10
254.9587720938
 20
232.5041502413
 30
0.0
 10
254.9384526873
 20
232.5338005576
 30
0.0
 10
254.9270070945
 20
232.5637450472
 30
0.0
 10
254.9218428025
 20
232.5883156168
 30
0.0
 10
254.9201061902
 20
232.6043168369
 30
0.0
 10
254.9196945248
 20
232.6173574394
 30
0.0
 10
254.9198785313
 20
232.6272166113
 30
0.0
 10
254.920591194
 20
232.6372486688
 30
0.0
 10
254.9213815309
 20
232.6437135281
 30
0.0
 10
254.9219024244
 20
232.6471783354
 30
0.0
  0
SPLINE
  5
420
100
AcDbEntity
  8
03___PRT_ALL_CURVES
100
AcDbSpline
 62
40
  6
CONTINUOUS
 70
0
 71
3
 72
27
 73
23
 74
0
 42
0.0000001
 43
0.0000001
 44
0.0000000001
 40
0.0
 40
0.0
 40
0.0
 40
0.0
 40
0.0208333333
 40
0.0416666667
 40
0.0625
 40
0.0833333333
 40
0.125
 40
0.1666666667
 40
0.25
 40
0.3333333333
 40
0.4166666667
 40
0.5
 40
0.5833333333
 40
0.6666666667
 40
0.75
 40
0.8333333333
 40
0.875
 40
0.9166666667
 40
0.9375
 40
0.9583333333
 40
0.9791666667
 40
1.0
 40
1.0
 40
1.0
 40
1.0
 10
253.4931019682
 20
233.933818231
 30
0.0
 10
253.4932625745
 20
233.9374352265
 30
0.0
 10
253.493737053
 20
233.9441288433
 30
0.0
 10
253.4949635737
 20
233.9543164806
 30
0.0
 10
253.4966589089
 20
233.9641350252
 30
0.0
 10
253.4995182054
 20
233.9768688962
 30
0.0
 10
253.5041742895
 20
233.9920109778
 30
0.0
 10
253.5136285445
 20
234.0142985705
 30
0.0
 10
253.5297295569
 20
234.0393683385
 30
0.0
 10
253.553751282
 20
234.0611508776
 30
0.0
 10
253.581192866
 20
234.0738398877
 30
0.0
 10
253.6100935796
 20
234.0763898969
 30
0.0
 10
253.6385425227
 20
234.0687087012
 30
0.0
 10
253.6646383041
 20
234.0512282052
 30
0.0
 10
253.6865090815
 20
234.0253390362
 30
0.0
 10
253.7001906343
 20
233.9976047399
 30
0.0
 10
253.7075039401
 20
233.9738193971
 30
0.0
 10
253.7107072092
 20
233.9579761859
 30
0.0
 10
253.7123446818
 20
233.9448420381
 30
0.0
 10
253.7130977063
 20
233.9348061719
 30
0.0
 10
253.7133461211
 20
233.9244885219
 30
0.0
 10
253.7131776757
 20
233.917768941
 30
0.0
 10
253.7129907864
 20
233.91415506
 30
0.0
  0
SPLINE
  5
421
100
AcDbEntity
  8
03___PRT_ALL_CURVES
100
AcDbSpline
 62
40
  6
CONTINUOUS
 70
0
 71
3
 72
27
 73
23
 74
0
 42
0.0000001
 43
0.0000001
 44
0.0000000001
 40
0.0
 40
0.0
 40
0.0
 40
0.0
 40
0.0208333333
 40
0.0416666667
 40
0.0625
 40
0.0833333333
 40
0.125
 40
0.1666666667
 40
0.25
 40
0.3333333333
 40
0.4166666667
 40
0.5
 40
0.5833333333
 40
0.6666666667
 40
0.75
 40
0.8333333333
 40
0.875
 40
0.9166666667
 40
0.9375
 40
0.9583333333
 40
0.9791666667
 40
1.0
 40
1.0
 40
1.0
 40
1.0
 10
253.6624751846
 20
232.8666787709
 30
0.0
 10
253.6622921736
 20
232.863148051
 30
0.0
 10
253.6617834465
 20
232.8566191216
 30
0.0
 10
253.660521723
 20
232.8466650625
 30
0.0
 10
253.6588074565
 20
232.837058386
 30
0.0
 10
253.6559391949
 20
232.824576175
 30
0.0
 10
253.6512925985
 20
232.8096829581
 30
0.0
 10
253.6418760488
 20
232.7876667475
 30
0.0
 10
253.6257357756
 20
232.7626214081
 30
0.0
 10
253.6016133966
 20
232.7408044067
 30
0.0
 10
253.5741498278
 20
232.728106104
 30
0.0
 10
253.5452715214
 20
232.7255420707
 30
0.0
 10
253.5169175488
 20
232.7332348057
 30
0.0
 10
253.4909991647
 20
232.7507220906
 30
0.0
 10
253.4693073229
 20
232.776647159
 30
0.0
 10
253.4558155468
 20
232.8043485463
 30
0.0
 10
253.4486554744
 20
232.8278501993
 30
0.0
 10
253.4455072532
 20
232.8434411483
 30
0.0
 10
253.4438769003
 20
232.8563254892
 30
0.0
 10
253.4431065396
 20
232.8661538901
 30
0.0
 10
253.4428134633
 20
232.8762462098
 30
0.0
 10
253.4429341874
 20
232.8828091335
 30
0.0
 10
253.4430898642
 20
232.8863419115
 30
0.0
  0
SPLINE
  5
422
100
AcDbEntity
  8
03___PRT_ALL_CURVES
100
AcDbSpline
 62
40
  6
CONTINUOUS
 70
0
 71
3
 72
10
 73
6
 74
0
 42
0.0000001
 43
0.0000001
 44
0.0000000001
 40
0.0
 40
0.0
 40
0.0
 40
0.0
 40
0.3333333333
 40
0.6666666667
 40
1.0
 40
1.0
 40
1.0
 40
1.0
 10
252.6012341954
 20
237.5081991501
 30
0.0
 10
252.5796624593
 20
237.4385937739
 30
0.0
 10
252.5488713461
 20
237.2869702626
 30
0.0
 10
252.525394707
 20
237.0296063115
 30
0.0
 10
252.5210024253
 20
236.8431206311
 30
0.0
 10
252.5210024253
 20
236.7457254983
 30
0.0
  0
SPLINE
  5
423
100
AcDbEntity
  8
03___PRT_ALL_CURVES
100
AcDbSpline
 62
40
  6
CONTINUOUS
 70
0
 71
3
 72
11
 73
7
 74
0
 42
0.0000001
 43
0.0000001
 44
0.0000000001
 40
0.0
 40
0.0
 40
0.0
 40
0.0
 40
0.25
 40
0.5
 40
0.75
 40
1.0
 40
1.0
 40
1.0
 40
1.0
 10
252.5210024253
 20
236.7457254983
 30
0.0
 10
252.5210024253
 20
236.6671333925
 30
0.0
 10
252.5235354558
 20
236.5159207992
 30
0.0
 10
252.5364513582
 20
236.3067338587
 30
0.0
 10
252.5615108971
 20
236.1160068274
 30
0.0
 10
252.5897734423
 20
236.004544498
 30
0.0
 10
252.6091732601
 20
235.9544567157
 30
0.0
  0
SPLINE
  5
424
100
AcDbEntity
  8
03___PRT_ALL_CURVES
100
AcDbSpline
 62
40
  6
CONTINUOUS
 70
0
 71
3
 72
12
 73
8
 74
0
 42
0.0000001
 43
0.0000001
 44
0.0000000001
 40
0.0
 40
0.0
 40
0.0
 40
0.0
 40
0.1666666667
 40
0.3333333333
 40
0.5
 40
0.6666666667
 40
1.0
 40
1.0
 40
1.0
 40
1.0
 10
252.6091732601
 20
235.9544567157
 30
0.0
 10
252.6183800813
 20
235.9306859126
 30
0.0
 10
252.6376279164
 20
235.8867890367
 30
0.0
 10
252.669940108
 20
235.8305521141
 30
0.0
 10
252.7063191694
 20
235.7846328582
 30
0.0
 10
252.7599218529
 20
235.7395485305
 30
0.0
 10
252.8058575025
 20
235.7252616368
 30
0.0
 10
252.8390928495
 20
235.7252616368
 30
0.0
  0
SPLINE
  5
425
100
AcDbEntity
  8
03___PRT_ALL_CURVES
100
AcDbSpline
 62
40
  6
CONTINUOUS
 70
0
 71
3
 72
13
 73
9
 74
0
 42
0.0000001
 43
0.0000001
 44
0.0000000001
 40
0.0
 40
0.0
 40
0.0
 40
0.0
 40
0.1666666667
 40
0.3333333333
 40
0.5
 40
0.6666666667
 40
0.8333333333
 40
1.0
 40
1.0
 40
1.0
 40
1.0
 10
252.8390928495
 20
235.7252616368
 30
0.0
 10
252.8574615503
 20
235.7252616368
 30
0.0
 10
252.8926980083
 20
235.7304041559
 30
0.0
 10
252.9404445061
 20
235.7530968509
 30
0.0
 10
252.9837666424
 20
235.7909024111
 30
0.0
 10
253.0218747482
 20
235.8429324478
 30
0.0
 10
253.0544042639
 20
235.9068944698
 30
0.0
 10
253.0729473414
 20
235.957176336
 30
0.0
 10
253.0815725745
 20
235.9844703693
 30
0.0
  0
SPLINE
  5
426
100
AcDbEntity
  8
03___PRT_ALL_CURVES
100
AcDbSpline
 62
40
  6
CONTINUOUS
 70
0
 71
3
 72
10
 73
6
 74
0
 42
0.0000001
 43
0.0000001
 44
0.0000000001
 40
0.0
 40
0.0
 40
0.0
 40
0.0
 40
0.3333333333
 40
0.6666666667
 40
1.0
 40
1.0
 40
1.0
 40
1.0
 10
253.0815725745
 20
235.9844703693
 30
0.0
 10
253.1035573849
 20
236.0540399843
 30
0.0
 10
253.1351050639
 20
236.2054895119
 30
0.0
 10
253.1593092619
 20
236.4624268435
 30
0.0
 10
253.1638618434
 20
236.6485404168
 30
0.0
 10
253.1638618434
 20
236.7457254983
 30
0.0
  0
SPLINE
  5
427
100
AcDbEntity
  8
03___PRT_ALL_CURVES
100
AcDbSpline
 62
40
  6
CONTINUOUS
 70
0
 71
3
 72
10
 73
6
 74
0
 42
0.0000001
 43
0.0000001
 44
0.0000000001
 40
0.0
 40
0.0
 40
0.0
 40
0.0
 40
0.3333333333
 40
0.6666666667
 40
1.0
 40
1.0
 40
1.0
 40
1.0
 10
253.1638618434
 20
236.7457254983
 30
0.0
 10
253.1638618434
 20
236.8525048134
 30
0.0
 10
253.1584772817
 20
237.0552515127
 30
0.0
 10
253.1296402044
 20
237.3301941555
 30
0.0
 10
253.0914904708
 20
237.487599444
 30
0.0
 10
253.0640964967
 20
237.557392066
 30
0.0
  0
SPLINE
  5
428
100
AcDbEntity
  8
03___PRT_ALL_CURVES
100
AcDbSpline
 62
40
  6
CONTINUOUS
 70
0
 71
3
 72
10
 73
6
 74
0
 42
0.0000001
 43
0.0000001
 44
0.0000000001
 40
0.0
 40
0.0
 40
0.0
 40
0.0
 40
0.3333333333
 40
0.6666666667
 40
1.0
 40
1.0
 40
1.0
 40
1.0
 10
253.0640964967
 20
237.557392066
 30
0.0
 10
253.046391365
 20
237.6025000726
 30
0.0
 10
253.0067528883
 20
237.6787067969
 30
0.0
 10
252.9315383632
 20
237.7512894348
 30
0.0
 10
252.8725430579
 20
237.7675536729
 30
0.0
 10
252.8407328023
 20
237.7675536729
 30
0.0
  0
SPLINE
  5
429
100
AcDbEntity
  8
03___PRT_ALL_CURVES
100
AcDbSpline
 62
40
  6
CONTINUOUS
 70
0
 71
3
 72
13
 73
9
 74
0
 42
0.0000001
 43
0.0000001
 44
0.0000000001
 40
0.0
 40
0.0
 40
0.0
 40
0.0
 40
0.1666666667
 40
0.3333333333
 40
0.5
 40
0.6666666667
 40
0.8333333333
 40
1.0
 40
1.0
 40
1.0
 40
1.0
 10
252.8407328023
 20
237.7675536729
 30
0.0
 10
252.8223668285
 20
237.7675536729
 30
0.0
 10
252.7872355683
 20
237.7623321309
 30
0.0
 10
252.7398941559
 20
237.7394203951
 30
0.0
 10
252.6972006834
 20
237.7014966063
 30
0.0
 10
252.6597593053
 20
237.6494937419
 30
0.0
 10
252.6278322467
 20
237.5856012146
 30
0.0
 10
252.6096737831
 20
237.535431111
 30
0.0
 10
252.6012341954
 20
237.5081991501
 30
0.0
  0
SPLINE
  5
42A
100
AcDbEntity
  8
03___PRT_ALL_CURVES
100
AcDbSpline
 62
40
  6
CONTINUOUS
 70
0
 71
3
 72
15
 73
11
 74
0
 42
0.0000001
 43
0.0000001
 44
0.0000000001
 40
0.0
 40
0.0
 40
0.0
 40
0.0
 40
0.0625
 40
0.125
 40
0.1875
 40
0.25
 40
0.375
 40
0.5
 40
0.75
 40
1.0
 40
1.0
 40
1.0
 40
1.0
 10
252.6985480074
 20
236.0922466439
 30
0.0
 10
252.6950140521
 20
236.1026721964
 30
0.0
 10
252.6889893353
 20
236.1231637699
 30
0.0
 10
252.6810195215
 20
236.1572469623
 30
0.0
 10
252.6743376749
 20
236.1927596569
 30
0.0
 10
252.6667035406
 20
236.2422321948
 30
0.0
 10
252.6594101318
 20
236.3055628145
 30
0.0
 10
252.6508529859
 20
236.4118609176
 30
0.0
 10
252.6446829257
 20
236.5553095777
 30
0.0
 10
252.6432513432
 20
236.6804706262
 30
0.0
 10
252.6432513432
 20
236.7457254983
 30
0.0
  0
SPLINE
  5
42B
100
AcDbEntity
  8
03___PRT_ALL_CURVES
100
AcDbSpline
 62
40
  6
CONTINUOUS
 70
0
 71
3
 72
15
 73
11
 74
0
 42
0.0000001
 43
0.0000001
 44
0.0000000001
 40
0.0
 40
0.0
 40
0.0
 40
0.0
 40
0.25
 40
0.5
 40
0.625
 40
0.75
 40
0.8125
 40
0.875
 40
0.9375
 40
1.0
 40
1.0
 40
1.0
 40
1.0
 10
252.6432513432
 20
236.7457254983
 30
0.0
 10
252.6432513432
 20
236.8103245997
 30
0.0
 10
252.6446787066
 20
236.9343967887
 30
0.0
 10
252.6508103579
 20
237.0769912574
 30
0.0
 10
252.6592971431
 20
237.1829996147
 30
0.0
 10
252.666514229
 20
237.2462459923
 30
0.0
 10
252.6740349345
 20
237.2956712691
 30
0.0
 10
252.6806020253
 20
237.3312016575
 30
0.0
 10
252.6884066568
 20
237.3653557869
 30
0.0
 10
252.6942952817
 20
237.3859782085
 30
0.0
 10
252.6977337091
 20
237.3964757978
 30
0.0
  0
SPLINE
  5
42C
100
AcDbEntity
  8
03___PRT_ALL_CURVES
100
AcDbSpline
 62
40
  6
CONTINUOUS
 70
0
 71
3
 72
13
 73
9
 74
0
 42
0.0000001
 43
0.0000001
 44
0.0000000001
 40
0.0
 40
0.0
 40
0.0
 40
0.0
 40
0.1666666667
 40
0.3333333333
 40
0.5
 40
0.6666666667
 40
0.8333333333
 40
1.0
 40
1.0
 40
1.0
 40
1.0
 10
252.6977337091
 20
237.3964757978
 30
0.0
 10
252.7030245217
 20
237.4126287574
 30
0.0
 10
252.7139405096
 20
237.4426121613
 30
0.0
 10
252.7325761733
 20
237.4831115564
 30
0.0
 10
252.7543966437
 20
237.5184363464
 30
0.0
 10
252.7789511819
 20
237.5452117232
 30
0.0
 10
252.8053591181
 20
237.5616941005
 30
0.0
 10
252.8248975347
 20
237.565643654
 30
0.0
 10
252.8349935591
 20
237.565643654
 30
0.0
  0
SPLINE
  5
42D
100
AcDbEntity
  8
03___PRT_ALL_CURVES
100
AcDbSpline
 62
40
  6
CONTINUOUS
 70
0
 71
3
 72
13
 73
9
 74
0
 42
0.0000001
 43
0.0000001
 44
0.0000000001
 40
0.0
 40
0.0
 40
0.0
 40
0.0
 40
0.1666666667
 40
0.3333333333
 40
0.5
 40
0.6666666667
 40
0.8333333333
 40
1.0
 40
1.0
 40
1.0
 40
1.0
 10
252.8349935591
 20
237.565643654
 30
0.0
 10
252.8458968311
 20
237.565643654
 30
0.0
 10
252.8669566424
 20
237.5618620232
 30
0.0
 10
252.8953150263
 20
237.5458897577
 30
0.0
 10
252.9212684922
 20
237.5201558881
 30
0.0
 10
252.9443433282
 20
237.4859891541
 30
0.0
 10
252.9642794173
 20
237.4458753827
 30
0.0
 10
252.9759770251
 20
237.4156643838
 30
0.0
 10
252.981610986
 20
237.3993726466
 30
0.0
  0
SPLINE
  5
42E
100
AcDbEntity
  8
03___PRT_ALL_CURVES
100
AcDbSpline
 62
40
  6
CONTINUOUS
 70
0
 71
3
 72
15
 73
11
 74
0
 42
0.0000001
 43
0.0000001
 44
0.0000000001
 40
0.0
 40
0.0
 40
0.0
 40
0.0
 40
0.0625
 40
0.125
 40
0.1875
 40
0.25
 40
0.375
 40
0.5
 40
0.75
 40
1.0
 40
1.0
 40
1.0
 40
1.0
 10
252.981610986
 20
237.3993726466
 30
0.0
 10
252.9852070477
 20
237.3889739067
 30
0.0
 10
252.991326474
 20
237.3685692186
 30
0.0
 10
252.999458574
 20
237.3345304221
 30
0.0
 10
253.0062930222
 20
237.2990439737
 30
0.0
 10
253.0141260883
 20
237.2495714317
 30
0.0
 10
253.021640385
 20
237.1862385098
 30
0.0
 10
253.0305041841
 20
237.0799248514
 30
0.0
 10
253.0369597472
 20
236.936410741
 30
0.0
 10
253.0384786885
 20
236.8110852792
 30
0.0
 10
253.0384786885
 20
236.7457254983
 30
0.0
  0
SPLINE
  5
42F
100
AcDbEntity
  8
03___PRT_ALL_CURVES
100
AcDbSpline
 62
40
  6
CONTINUOUS
 70
0
 71
3
 72
15
 73
11
 74
0
 42
0.0000001
 43
0.0000001
 44
0.0000000001
 40
0.0
 40
0.0
 40
0.0
 40
0.0
 40
0.25
 40
0.5
 40
0.625
 40
0.75
 40
0.8125
 40
0.875
 40
0.9375
 40
1.0
 40
1.0
 40
1.0
 40
1.0
 10
253.0384786885
 20
236.7457254983
 30
0.0
 10
253.0384786885
 20
236.6811168341
 30
0.0
 10
253.0369565887
 20
236.5570078721
 30
0.0
 10
253.0304703742
 20
236.4143118655
 30
0.0
 10
253.0215570537
 20
236.3082096896
 30
0.0
 10
253.0140130582
 20
236.2449220063
 30
0.0
 10
253.0061933479
 20
236.1954945357
 30
0.0
 10
252.9993874253
 20
236.1599634936
 30
0.0
 10
252.9913312994
 20
236.1258145148
 30
0.0
 10
252.9852737519
 20
236.1051824603
 30
0.0
 10
252.9817493324
 20
236.094686972
 30
0.0
  0
SPLINE
  5
430
100
AcDbEntity
  8
03___PRT_ALL_CURVES
100
AcDbSpline
 62
40
  6
CONTINUOUS
 70
0
 71
3
 72
13
 73
9
 74
0
 42
0.0000001
 43
0.0000001
 44
0.0000000001
 40
0.0
 40
0.0
 40
0.0
 40
0.0
 40
0.1666666667
 40
0.3333333333
 40
0.5
 40
0.6666666667
 40
0.8333333333
 40
1.0
 40
1.0
 40
1.0
 40
1.0
 10
252.9817493324
 20
236.094686972
 30
0.0
 10
252.9763374299
 20
236.0785706841
 30
0.0
 10
252.9651537227
 20
236.0486831139
 30
0.0
 10
252.9460709851
 20
236.0084748218
 30
0.0
 10
252.9238064329
 20
235.9735850947
 30
0.0
 10
252.8988556493
 20
235.947227168
 30
0.0
 10
252.872131427
 20
235.9310397189
 30
0.0
 10
252.8525045231
 20
235.9271715887
 30
0.0
 10
252.8423728863
 20
235.9271715887
 30
0.0
  0
SPLINE
  5
431
100
AcDbEntity
  8
03___PRT_ALL_CURVES
100
AcDbSpline
 62
40
  6
CONTINUOUS
 70
0
 71
3
 72
13
 73
9
 74
0
 42
0.0000001
 43
0.0000001
 44
0.0000000001
 40
0.0
 40
0.0
 40
0.0
 40
0.0
 40
0.1666666667
 40
0.3333333333
 40
0.5
 40
0.6666666667
 40
0.8333333333
 40
1.0
 40
1.0
 40
1.0
 40
1.0
 10
252.8423728863
 20
235.9271715887
 30
0.0
 10
252.8316702949
 20
235.9271715887
 30
0.0
 10
252.811032766
 20
235.9309178504
 30
0.0
 10
252.7831852413
 20
235.9467267782
 30
0.0
 10
252.7576466463
 20
235.9722791209
 30
0.0
 10
252.7349662975
 20
236.0062416663
 30
0.0
 10
252.7154416658
 20
236.0460811279
 30
0.0
 10
252.704033256
 20
236.0760645636
 30
0.0
 10
252.6985480074
 20
236.0922466439
 30
0.0
  0
ELLIPSE
  5
432
100
AcDbEntity
  8
7_ALL_FEATURES
100
AcDbEllipse
 62
3
  6
CONTINUOUS
 10
103.8917709403
 20
205.5786638402
 30
0.0
 11
4.1574578963
 21
4.1574578963
 31
0.0
 40
0.4142135624
 41
1.1780972451
 42
1.3117249102
  0
ELLIPSE
  5
433
100
AcDbEntity
  8
7_ALL_FEATURES
100
AcDbEllipse
 62
3
  6
CONTINUOUS
 10
113.692697914
 20
205.5786638402
 30
0.0
 11
4.1574578963
 21
-4.1574578963
 31
0.0
 40
0.4142135624
 41
1.8298677433
 42
1.9634954085
  0
ELLIPSE
  5
434
100
AcDbEntity
  8
03___PRT_ALL_CURVES
100
AcDbEllipse
 62
40
  6
CONTINUOUS
 10
273.3460094549
 20
238.853901972
 30
0.0
 11
28.8172793762
 21
-10.8387968565
 31
0.0
 40
0.2998758789
 41
-1.9983310722
 42
-1.9930689326
  0
ELLIPSE
  5
435
100
AcDbEntity
  8
03___PRT_ALL_CURVES
100
AcDbEllipse
 62
40
  6
CONTINUOUS
 10
273.3460094549
 20
218.4765916692
 30
0.0
 11
22.174334667
 21
69.7117091573
 31
0.0
 40
0.2680975635
 41
1.3961715893
 42
1.4103203064
  0
ELLIPSE
  5
436
100
AcDbEntity
  8
03___PRT_ALL_CURVES
100
AcDbEllipse
 62
40
  6
CONTINUOUS
 10
273.3460094549
 20
238.4380563989
 30
0.0
 11
28.9813798917
 21
-5.6879310685
 31
0.0
 40
0.1826758137
 41
-2.0606605446
 42
-2.0367233896
  0
ELLIPSE
  5
437
100
AcDbEntity
  8
03___PRT_ALL_CURVES
100
AcDbEllipse
 62
40
  6
CONTINUOUS
 10
273.3460094549
 20
205.9758633758
 30
0.0
 11
21.2276477376
 21
108.1599822292
 31
0.0
 40
0.1826758137
 41
1.3229990107
 42
1.3251796993
  0
ELLIPSE
  5
438
100
AcDbEntity
  8
03___PRT_ALL_CURVES
100
AcDbEllipse
 62
40
  6
CONTINUOUS
 10
273.3460094549
 20
238.1951266053
 30
0.0
 11
28.9813798917
 21
-5.6879310685
 31
0.0
 40
0.1826758137
 41
-2.0581507488
 42
-2.0389040782
  0
ELLIPSE
  5
439
100
AcDbEntity
  8
03___PRT_ALL_CURVES
100
AcDbEllipse
 62
40
  6
CONTINUOUS
 10
273.3460094549
 20
218.4392995192
 30
0.0
 11
22.244144256
 21
68.1744614576
 31
0.0
 40
0.2729232853
 41
1.3974053383
 42
1.4049767528
  0
ELLIPSE
  5
43A
100
AcDbEntity
  8
03___PRT_ALL_CURVES
100
AcDbEllipse
 62
40
  6
CONTINUOUS
 10
273.3460094549
 20
236.0654559435
 30
0.0
 11
28.998531102
 21
-2.938743103
 31
0.0
 40
0.0993213668
 41
-2.1054920801
 42
-2.0991220836
  0
ELLIPSE
  5
43B
100
AcDbEntity
  8
03___PRT_ALL_CURVES
100
AcDbEllipse
 62
40
  6
CONTINUOUS
 10
273.3460094549
 20
211.6480752295
 30
0.0
 11
21.2276477376
 21
108.1599822292
 31
0.0
 40
0.1826758137
 41
1.3773337331
 42
1.3916511986
  0
ELLIPSE
  5
43C
100
AcDbEntity
  8
03___PRT_ALL_CURVES
100
AcDbEllipse
 62
40
  6
CONTINUOUS
 10
273.3460094549
 20
212.9697991941
 30
0.0
 11
21.2276477376
 21
108.1599822292
 31
0.0
 40
0.1826758137
 41
1.3895546557
 42
1.3917236281
  0
ELLIPSE
  5
43D
100
AcDbEntity
  8
03___PRT_ALL_CURVES
100
AcDbEllipse
 62
40
  6
CONTINUOUS
 10
273.3460094549
 20
238.4733660387
 30
0.0
 11
28.9813798917
 21
-5.6879310685
 31
0.0
 40
0.1826758137
 41
-2.0849277807
 42
-2.0811128986
  0
ELLIPSE
  5
43E
100
AcDbEntity
  8
03___PRT_ALL_CURVES
100
AcDbEllipse
 62
40
  6
CONTINUOUS
 10
273.3460094549
 20
210.9849728832
 30
0.0
 11
21.2276477376
 21
108.1599822292
 31
0.0
 40
0.1826758137
 41
1.3673885196
 42
1.3857963323
  0
ELLIPSE
  5
43F
100
AcDbEntity
  8
03___PRT_ALL_CURVES
100
AcDbEllipse
 62
40
  6
CONTINUOUS
 10
273.3460094549
 20
236.3943392952
 30
0.0
 11
28.9813798917
 21
-5.6879310685
 31
0.0
 40
0.1826758137
 41
-2.1053755776
 42
-2.0995207113
  0
ELLIPSE
  5
440
100
AcDbEntity
  8
03___PRT_ALL_CURVES
100
AcDbEllipse
 62
40
  6
CONTINUOUS
 10
273.3460094549
 20
237.2968515459
 30
0.0
 11
28.9813798917
 21
-5.6879310685
 31
0.0
 40
0.1826758137
 41
-2.1511243687
 42
-2.1382967639
  0
ELLIPSE
  5
441
100
AcDbEntity
  8
03___PRT_ALL_CURVES
100
AcDbEllipse
 62
40
  6
CONTINUOUS
 10
273.3460094549
 20
217.7593680478
 30
0.0
 11
21.2276477376
 21
108.1599822292
 31
0.0
 40
0.1826758137
 41
1.4353244555
 42
1.4373999897
  0
ELLIPSE
  5
442
100
AcDbEntity
  8
03___PRT_ALL_CURVES
100
AcDbEllipse
 62
40
  6
CONTINUOUS
 10
273.3460094549
 20
237.5341317922
 30
0.0
 11
28.9813798917
 21
-5.6879310685
 31
0.0
 40
0.1826758137
 41
-2.1490488344
 42
-2.1362164695
  0
ELLIPSE
  5
443
100
AcDbEntity
  8
03___PRT_ALL_CURVES
100
AcDbEllipse
 62
40
  6
CONTINUOUS
 10
273.3460094549
 20
216.2942708159
 30
0.0
 11
21.2276477376
 21
108.1599822292
 31
0.0
 40
0.1826758137
 41
1.4175481421
 42
1.4224920906
  0
ELLIPSE
  5
444
100
AcDbEntity
  8
03___PRT_ALL_CURVES
100
AcDbEllipse
 62
40
  6
CONTINUOUS
 10
273.3460094549
 20
238.0976723154
 30
0.0
 11
28.9813798917
 21
-5.6879310685
 31
0.0
 40
0.1826758137
 41
-2.131272521
 42
-2.1257640585
  0
ELLIPSE
  5
445
100
AcDbEntity
  8
03___PRT_ALL_CURVES
100
AcDbEllipse
 62
40
  6
CONTINUOUS
 10
273.3460094549
 20
215.6670119455
 30
0.0
 11
21.2276477376
 21
108.1599822292
 31
0.0
 40
0.1826758137
 41
1.4120396796
 42
1.416988848
  0
ELLIPSE
  5
446
100
AcDbEntity
  8
03___PRT_ALL_CURVES
100
AcDbEllipse
 62
40
  6
CONTINUOUS
 10
273.3460094549
 20
237.5341317922
 30
0.0
 11
28.9813798917
 21
-5.6879310685
 31
0.0
 40
0.1826758137
 41
-2.130713227
 42
-2.1178362307
  0
ELLIPSE
  5
447
100
AcDbEntity
  8
03___PRT_ALL_CURVES
100
AcDbEllipse
 62
40
  6
CONTINUOUS
 10
273.3460094549
 20
214.2019144689
 30
0.0
 11
21.2276477376
 21
108.1599822292
 31
0.0
 40
0.1826758137
 41
1.4041118517
 42
1.4061996025
  0
ELLIPSE
  5
448
100
AcDbEntity
  8
03___PRT_ALL_CURVES
100
AcDbEllipse
 62
40
  6
CONTINUOUS
 10
273.3460094549
 20
237.2968515459
 30
0.0
 11
28.9813798917
 21
-5.6879310685
 31
0.0
 40
0.1826758137
 41
-2.1327956746
 42
-2.1199239815
  0
ELLIPSE
  5
449
100
AcDbEntity
  8
03___PRT_ALL_CURVES
100
AcDbEllipse
 62
40
  6
CONTINUOUS
 10
273.3460094549
 20
215.6670119455
 30
0.0
 11
21.2276477376
 21
108.1599822292
 31
0.0
 40
0.1826758137
 41
1.4190712956
 42
1.4240509736
  0
ELLIPSE
  5
44A
100
AcDbEntity
  8
03___PRT_ALL_CURVES
100
AcDbEllipse
 62
40
  6
CONTINUOUS
 10
273.3460094549
 20
236.7290738931
 30
0.0
 11
28.9813798917
 21
-5.6879310685
 31
0.0
 40
0.1826758137
 41
-2.1432713962
 42
-2.1377753526
  0
ELLIPSE
  5
44B
100
AcDbEntity
  8
03___PRT_ALL_CURVES
100
AcDbEllipse
 62
40
  6
CONTINUOUS
 10
273.3460094549
 20
216.2942708159
 30
0.0
 11
21.2276477376
 21
108.1599822292
 31
0.0
 40
0.1826758137
 41
1.4245723849
 42
1.4295470172
  0
ELLIPSE
  5
44C
100
AcDbEntity
  8
03___PRT_ALL_CURVES
100
AcDbEllipse
 62
40
  6
CONTINUOUS
 10
273.3460094549
 20
236.2768723452
 30
0.0
 11
28.9998667799
 21
1.6014508649
 31
0.0
 40
0.0548889363
 41
2.5476132186
 42
2.5533614176
  0
ELLIPSE
  5
44D
100
AcDbEntity
  8
03___PRT_ALL_CURVES
100
AcDbEllipse
 62
40
  6
CONTINUOUS
 10
273.3460094549
 20
191.9415162594
 30
0.0
 11
-20.6823644308
 21
220.6775717143
 31
0.0
 40
0.0921176554
 41
1.35720629
 42
1.3619650483
  0
ELLIPSE
  5
44E
100
AcDbEntity
  8
03___PRT_ALL_CURVES
100
AcDbEllipse
 62
40
  6
CONTINUOUS
 10
273.3460094549
 20
238.4380563989
 30
0.0
 11
28.9813798917
 21
5.6879310685
 31
0.0
 40
0.1826758137
 41
2.5018179498
 42
2.5253143896
  0
ELLIPSE
  5
44F
100
AcDbEntity
  8
03___PRT_ALL_CURVES
100
AcDbEllipse
 62
40
  6
CONTINUOUS
 10
273.3460094549
 20
217.503984163
 30
0.0
 11
-21.2276477376
 21
108.1599822292
 31
0.0
 40
0.1826758137
 41
1.3534990827
 42
1.3556278496
  0
ELLIPSE
  5
450
100
AcDbEntity
  8
03___PRT_ALL_CURVES
100
AcDbEllipse
 62
40
  6
CONTINUOUS
 10
273.3460094549
 20
238.1951266053
 30
0.0
 11
28.9813798917
 21
5.6879310685
 31
0.0
 40
0.1826758137
 41
2.499689183
 42
2.5185644274
  0
ELLIPSE
  5
451
100
AcDbEntity
  8
03___PRT_ALL_CURVES
100
AcDbEllipse
 62
40
  6
CONTINUOUS
 10
273.3460094549
 20
190.4075691931
 30
0.0
 11
-20.6617407558
 21
234.9080062603
 31
0.0
 40
0.0866265158
 41
1.3649702595
 42
1.367314441
  0
ELLIPSE
  5
452
100
AcDbEntity
  8
03___PRT_ALL_CURVES
100
AcDbEllipse
 62
40
  6
CONTINUOUS
 10
273.3460094549
 20
237.7018269081
 30
0.0
 11
28.9065507689
 21
8.8889228226
 31
0.0
 40
0.2616993109
 41
2.4673749336
 42
2.4732781269
  0
ELLIPSE
  5
453
100
AcDbEntity
  8
03___PRT_ALL_CURVES
100
AcDbEllipse
 62
40
  6
CONTINUOUS
 10
273.3460094549
 20
211.8317723093
 30
0.0
 11
-21.2276477376
 21
108.1599822292
 31
0.0
 40
0.1826758137
 41
1.3072857997
 42
1.3215980366
  0
ELLIPSE
  5
454
100
AcDbEntity
  8
03___PRT_ALL_CURVES
100
AcDbEllipse
 62
40
  6
CONTINUOUS
 10
273.3460094549
 20
210.5100483448
 30
0.0
 11
-21.2276477376
 21
108.1599822292
 31
0.0
 40
0.1826758137
 41
1.2961125314
 42
1.2982924284
  0
ELLIPSE
  5
455
100
AcDbEntity
  8
03___PRT_ALL_CURVES
100
AcDbEllipse
 62
40
  6
CONTINUOUS
 10
273.3460094549
 20
238.4733660387
 30
0.0
 11
28.9813798917
 21
5.6879310685
 31
0.0
 40
0.1826758137
 41
2.5462257136
 42
2.5500319588
  0
ELLIPSE
  5
456
100
AcDbEntity
  8
03___PRT_ALL_CURVES
100
AcDbEllipse
 62
40
  6
CONTINUOUS
 10
273.3460094549
 20
212.4948746557
 30
0.0
 11
-21.2276477376
 21
108.1599822292
 31
0.0
 40
0.1826758137
 41
1.309091319
 42
1.3274433966
  0
ELLIPSE
  5
457
100
AcDbEntity
  8
03___PRT_ALL_CURVES
100
AcDbEllipse
 62
40
  6
CONTINUOUS
 10
273.3460094549
 20
236.3943392952
 30
0.0
 11
28.9813798917
 21
5.6879310685
 31
0.0
 40
0.1826758137
 41
2.5278736359
 42
2.533718996
  0
ELLIPSE
  5
458
100
AcDbEntity
  8
03___PRT_ALL_CURVES
100
AcDbEllipse
 62
40
  6
CONTINUOUS
 10
273.3460094549
 20
237.2714286448
 30
0.0
 11
28.9813798917
 21
5.6879310685
 31
0.0
 40
0.1826758137
 41
2.5624154774
 42
2.5804789568
  0
ELLIPSE
  5
459
100
AcDbEntity
  8
03___PRT_ALL_CURVES
100
AcDbEllipse
 62
40
  6
CONTINUOUS
 10
273.3460094549
 20
209.4661105353
 30
0.0
 11
-21.2276477376
 21
108.1599822292
 31
0.0
 40
0.1826758137
 41
1.2929015551
 42
1.2951709019
  0
ELLIPSE
  5
45A
100
AcDbEntity
  8
03___PRT_ALL_CURVES
100
AcDbEllipse
 62
40
  6
CONTINUOUS
 10
273.3460094549
 20
237.0157874623
 30
0.0
 11
28.9813798917
 21
5.6879310685
 31
0.0
 40
0.1826758137
 41
2.5601461307
 42
2.5781991236
  0
ELLIPSE
  5
45B
100
AcDbEntity
  8
03___PRT_ALL_CURVES
100
AcDbEllipse
 62
40
  6
CONTINUOUS
 10
273.3460094549
 20
207.436480369
 30
0.0
 11
-21.2276477376
 21
108.1599822292
 31
0.0
 40
0.1826758137
 41
1.2748380757
 42
1.2771179089
  0
ELLIPSE
  5
45C
100
AcDbEntity
  8
03___PRT_ALL_CURVES
100
AcDbEllipse
 62
40
  6
CONTINUOUS
 10
273.3460094549
 20
216.6076874835
 30
0.0
 11
-20.6830164954
 21
220.2685992667
 31
0.0
 40
0.0922856782
 41
1.4788061507
 42
1.4887357271
  0
ELLIPSE
  5
45D
100
AcDbEntity
  8
03___PRT_ALL_CURVES
100
AcDbEllipse
 62
40
  6
CONTINUOUS
 10
273.3460094549
 20
218.9110486121
 30
0.0
 11
-20.6830164954
 21
220.2685992667
 31
0.0
 40
0.0922856782
 41
1.4891161926
 42
1.4990382666
  0
ELLIPSE
  5
45E
100
AcDbEntity
  8
03___PRT_ALL_CURVES
100
AcDbEllipse
 62
40
  6
CONTINUOUS
 10
273.3460094549
 20
217.1785588626
 30
0.0
 11
-21.2276477376
 21
108.1599822292
 31
0.0
 40
0.1826758137
 41
1.3744214798
 42
1.3942753123
  0
ELLIPSE
  5
45F
100
AcDbEntity
  8
03___PRT_ALL_CURVES
100
AcDbEllipse
 62
40
  6
CONTINUOUS
 10
273.3460094549
 20
218.3401772331
 30
0.0
 11
-21.2276477376
 21
108.1599822292
 31
0.0
 40
0.1826758137
 41
1.3845577286
 42
1.4043821249
  0
ELLIPSE
  5
460
100
AcDbEntity
  8
03___PRT_ALL_CURVES
100
AcDbEllipse
 62
40
  6
CONTINUOUS
 10
273.3460094549
 20
216.988857689
 30
0.0
 11
-20.9075246828
 21
145.7641780174
 31
0.0
 40
0.1378709915
 41
1.4367140069
 42
1.4438193231
  0
ELLIPSE
  5
461
100
AcDbEntity
  8
03___PRT_ALL_CURVES
100
AcDbEllipse
 62
40
  6
CONTINUOUS
 10
273.3460094549
 20
218.5298801187
 30
0.0
 11
-20.907522849
 21
145.7645149655
 31
0.0
 40
0.1378706859
 41
1.4469429572
 42
1.4540405578
  0
ELLIPSE
  5
462
100
AcDbEntity
  8
03___PRT_ALL_CURVES
100
AcDbEllipse
 62
40
  6
CONTINUOUS
 10
273.3460094549
 20
215.4610258126
 30
0.0
 11
-20.5500958794
 21
442.451980129
 31
0.0
 40
0.046246833
 41
1.5269298356
 42
1.5292992118
  0
ELLIPSE
  5
463
100
AcDbEntity
  8
03___PRT_ALL_CURVES
100
AcDbEllipse
 62
40
  6
CONTINUOUS
 10
273.3460094549
 20
220.0577257808
 30
0.0
 11
-20.5500952842
 21
442.4549764356
 31
0.0
 40
0.0462465211
 41
1.537281719
 42
1.5396502118
  0
ELLIPSE
  5
464
100
AcDbEntity
  8
03___PRT_ALL_CURVES
100
AcDbEllipse
 62
40
  6
CONTINUOUS
 10
273.3460094549
 20
216.6076874835
 30
0.0
 11
20.6830164954
 21
220.2685992667
 31
0.0
 40
0.0922856782
 41
1.4961367955
 42
1.506066372
  0
ELLIPSE
  5
465
100
AcDbEntity
  8
03___PRT_ALL_CURVES
100
AcDbEllipse
 62
40
  6
CONTINUOUS
 10
273.3460094549
 20
218.9110486121
 30
0.0
 11
20.6830164954
 21
220.2685992667
 31
0.0
 40
0.0922856782
 41
1.5064468374
 42
1.5163689114
  0
ELLIPSE
  5
466
100
AcDbEntity
  8
03___PRT_ALL_CURVES
100
AcDbEllipse
 62
40
  6
CONTINUOUS
 10
273.3460094549
 20
217.1785588626
 30
0.0
 11
21.2276477376
 21
108.1599822292
 31
0.0
 40
0.1826758137
 41
1.4460952643
 42
1.4659490968
  0
ELLIPSE
  5
467
100
AcDbEntity
  8
03___PRT_ALL_CURVES
100
AcDbEllipse
 62
40
  6
CONTINUOUS
 10
273.3460094549
 20
218.3401772331
 30
0.0
 11
21.2276477376
 21
108.1599822292
 31
0.0
 40
0.1826758137
 41
1.456231513
 42
1.4760559094
  0
ELLIPSE
  5
468
100
AcDbEntity
  8
03___PRT_ALL_CURVES
100
AcDbEllipse
 62
40
  6
CONTINUOUS
 10
273.3460094549
 20
218.5298801187
 30
0.0
 11
20.907522849
 21
145.7645149655
 31
0.0
 40
0.1378706859
 41
1.4864883686
 42
1.4935859692
  0
ELLIPSE
  5
469
100
AcDbEntity
  8
03___PRT_ALL_CURVES
100
AcDbEllipse
 62
40
  6
CONTINUOUS
 10
273.3460094549
 20
216.988857689
 30
0.0
 11
20.9075246828
 21
145.7641780174
 31
0.0
 40
0.1378709915
 41
1.4762596008
 42
1.483364917
  0
ELLIPSE
  5
46A
100
AcDbEntity
  8
03___PRT_ALL_CURVES
100
AcDbEllipse
 62
40
  6
CONTINUOUS
 10
273.3460094549
 20
220.0577257808
 30
0.0
 11
20.5500952842
 21
442.4549764355
 31
0.0
 40
0.0462465211
 41
1.541577609
 42
1.5439461018
  0
ELLIPSE
  5
46B
100
AcDbEntity
  8
03___PRT_ALL_CURVES
100
AcDbEllipse
 62
40
  6
CONTINUOUS
 10
273.3460094549
 20
215.4610258126
 30
0.0
 11
20.5500958794
 21
442.4519801291
 31
0.0
 40
0.046246833
 41
1.5312257838
 42
1.53359516
  0
ENDSEC
  0
SECTION
  2
OBJECTS
  0
DICTIONARY
  5
46C
100
AcDbDictionary
  3
ACAD_GROUP
350
46D
  3
ACAD_MLINESTYLE
350
46E
  0
DICTIONARY
  5
46D
102
{ACAD_REACTORS
330
46C
102
}
100
AcDbDictionary
  0
DICTIONARY
  5
46E
102
{ACAD_REACTORS
330
46C
102
}
100
AcDbDictionary
  3
STANDARD
350
46F
  0
MLINESTYLE
  5
46F
102
{ACAD_REACTORS
330
46E
102
}
100
AcDbMlineStyle
  2
STANDARD
 70
0
  3

 62
256
 51
90.0
 52
90.0
 71
2
 49
0.5
 62
256
  6
BYLAYER
 49
-0.5
 62
256
  6
BYLAYER
  0
ENDSEC
  0
EOF
