999
DXF file: 2f3_c_001.dxf
999
Pro/ENGINEER 2016360 by Parametric Technology Corporation
  0
SECTION
  2
HEADER
  9
$ACADVER
  1
AC1014
  9
$DWGCODEPAGE
  3
ANSI_1252
  9
$EXTMAX
 10
420.0
 20
297.0
 30
0.0
  9
$EXTMIN
 10
0.0
 20
0.0
 30
0.0
  9
$LIMMIN
 10
0.0
 20
0.0
  9
$LIMMAX
 10
420.0
 20
297.0
  9
$VIEWCTR
 10
210.0
 20
148.5
  9
$VIEWSIZE
 40
297.0
  9
$CLAYER
  8
0
  9
$LTSCALE
 40
23.1
  9
$CELTYPE
  6
BYLAYER
  9
$DIMSCALE
 40
1.0
  9
$DIMASZ
 40
2.5
  9
$DIMEXO
 40
0.75
  9
$DIMDLI
 40
15.96
  9
$DIMEXE
 40
0.75
  9
$DIMCEN
 40
3.78
  9
$DIMLFAC
 40
1.0
  9
$DIMBLK
  1
_CLOSED
  9
$DIMALT
 70
0
  9
$DIMALTF
 40
25.4
  9
$DIMTXT
 40
3.0
  9
$DIMTOL
 70
1
  9
$DIMLIM
 70
0
  9
$DIMTFAC
 40
1.0
  9
$DIMTP
 40
0.01
  9
$DIMTM
 40
0.01
  9
$DIMGAP
 40
0.625
  9
$AUNITS
 70
0
  9
$PDMODE
 70
3
  9
$PDSIZE
 40
0.3125
  9
$HANDSEED
  5
487
  9
$TILEMODE
 70
1
  9
$MEASUREMENT
 70
1
  0
ENDSEC
  0
SECTION
  2
CLASSES
  0
ENDSEC
  0
SECTION
  2
TABLES
  0
TABLE
  2
VPORT
  5
8
100
AcDbSymbolTable
 70
2
  0
VPORT
  5
1F4
100
AcDbSymbolTableRecord
100
AcDbViewportTableRecord
  2
*ACTIVE
 70
0
 10
0.0
 20
0.0
 11
1.0
 21
1.0
 12
210.0
 22
148.5
 13
0.0
 23
0.0
 14
1.0
 24
1.0
 15
0.0
 25
0.0
 16
0.0
 26
0.0
 36
1.0
 17
0.0
 27
0.0
 37
0.0
 40
297.0
 41
1.4141414141
 42
50.0
 43
0.0
 44
0.0
 50
0.0
 51
0.0
 71
0
 72
100
 73
1
 74
1
 75
0
 76
0
 77
0
 78
0
  0
ENDTAB
  0
TABLE
  2
LTYPE
  5
5
100
AcDbSymbolTable
 70
6
  0
LTYPE
  5
14
100
AcDbSymbolTableRecord
100
AcDbLinetypeTableRecord
  2
BYBLOCK
 70
0
  3

 72
65
 73
0
 40
0.0
  0
LTYPE
  5
15
100
AcDbSymbolTableRecord
100
AcDbLinetypeTableRecord
  2
BYLAYER
 70
0
  3

 72
65
 73
0
 40
0.0
  0
LTYPE
  5
16
100
AcDbSymbolTableRecord
100
AcDbLinetypeTableRecord
  2
CONTINUOUS
 70
64
  3
Solid line
 72
65
 73
0
 40
0.0
  0
LTYPE
  5
1F5
100
AcDbSymbolTableRecord
100
AcDbLinetypeTableRecord
  2
CENTER
 70
64
  3
____ _ ____ _ ____ _ ____ _ ____ _ ____ _ ____
 72
65
 73
4
 40
0.6
 49
0.375
 74
0
 49
-0.075
 74
0
 49
0.075
 74
0
 49
-0.075
 74
0
  0
LTYPE
  5
1F6
100
AcDbSymbolTableRecord
100
AcDbLinetypeTableRecord
  2
HIDDEN
 70
64
  3
- - - - - - - - - - - - - - - - - - - -
 72
65
 73
2
 40
0.2
 49
0.1
 74
0
 49
-0.1
 74
0
  0
LTYPE
  5
1F7
100
AcDbSymbolTableRecord
100
AcDbLinetypeTableRecord
  2
PHANTOM
 70
64
  3
_____ _ _ _____ _ _ _____ _ _ _____
 72
65
 73
6
 40
0.8
 49
0.45
 74
0
 49
-0.05
 74
0
 49
0.1
 74
0
 49
-0.05
 74
0
 49
0.1
 74
0
 49
-0.05
 74
0
  0
LTYPE
  5
1F8
100
AcDbSymbolTableRecord
100
AcDbLinetypeTableRecord
  2
DOT
 70
64
  3
. . . . . . . . . . . . . . . . . . . .
 72
65
 73
2
 40
0.2
 49
0.1
 74
0
 49
-0.1
 74
0
  0
LTYPE
  5
1F9
100
AcDbSymbolTableRecord
100
AcDbLinetypeTableRecord
  2
DASHED
 70
64
  3
- - - - - - - - - - - - - - - - - - - -
 72
65
 73
2
 40
0.2
 49
0.1
 74
0
 49
-0.1
 74
0
  0
ENDTAB
  0
TABLE
  2
LAYER
  5
2
100
AcDbSymbolTable
 70
36
  0
LAYER
  5
10
100
AcDbSymbolTableRecord
100
AcDbLayerTableRecord
  2
0
 70
0
 62
7
  6
CONTINUOUS
  0
LAYER
  5
1FA
100
AcDbSymbolTableRecord
100
AcDbLayerTableRecord
  2
DEFAULT_1
 70
0
 62
7
  6
CENTER
  0
LAYER
  5
1FB
100
AcDbSymbolTableRecord
100
AcDbLayerTableRecord
  2
DEFAULT_2
 70
0
 62
8
  6
HIDDEN
  0
LAYER
  5
1FC
100
AcDbSymbolTableRecord
100
AcDbLayerTableRecord
  2
DEFAULT_3
 70
0
 62
7
  6
PHANTOM
  0
LAYER
  5
1FD
100
AcDbSymbolTableRecord
100
AcDbLayerTableRecord
  2
01_ALL_DTM_PLN
 70
0
 62
7
  6
CONTINUOUS
  0
LAYER
  5
1FE
100
AcDbSymbolTableRecord
100
AcDbLayerTableRecord
  2
01__ASM_ALL_DTM_PLN
 70
0
 62
7
  6
CONTINUOUS
  0
LAYER
  5
1FF
100
AcDbSymbolTableRecord
100
AcDbLayerTableRecord
  2
01__ASM_DEF_DTM_PLN
 70
0
 62
7
  6
CONTINUOUS
  0
LAYER
  5
200
100
AcDbSymbolTableRecord
100
AcDbLayerTableRecord
  2
01___PRT_ALL_DTM_PLN
 70
0
 62
7
  6
CONTINUOUS
  0
LAYER
  5
201
100
AcDbSymbolTableRecord
100
AcDbLayerTableRecord
  2
01___PRT_DEF_DTM_PLN
 70
0
 62
7
  6
CONTINUOUS
  0
LAYER
  5
202
100
AcDbSymbolTableRecord
100
AcDbLayerTableRecord
  2
02_ALL_AXES
 70
0
 62
7
  6
CONTINUOUS
  0
LAYER
  5
203
100
AcDbSymbolTableRecord
100
AcDbLayerTableRecord
  2
02__ASM_ALL_AXES
 70
0
 62
7
  6
CONTINUOUS
  0
LAYER
  5
204
100
AcDbSymbolTableRecord
100
AcDbLayerTableRecord
  2
02___PRT_ALL_AXES
 70
0
 62
7
  6
CONTINUOUS
  0
LAYER
  5
205
100
AcDbSymbolTableRecord
100
AcDbLayerTableRecord
  2
03_ALL_CURVES
 70
0
 62
7
  6
CONTINUOUS
  0
LAYER
  5
206
100
AcDbSymbolTableRecord
100
AcDbLayerTableRecord
  2
03__ASM_ALL_CURVES
 70
0
 62
7
  6
CONTINUOUS
  0
LAYER
  5
207
100
AcDbSymbolTableRecord
100
AcDbLayerTableRecord
  2
03___PRT_ALL_CURVES
 70
0
 62
7
  6
CONTINUOUS
  0
LAYER
  5
208
100
AcDbSymbolTableRecord
100
AcDbLayerTableRecord
  2
04_ALL_DTM_PNT
 70
0
 62
7
  6
CONTINUOUS
  0
LAYER
  5
209
100
AcDbSymbolTableRecord
100
AcDbLayerTableRecord
  2
04__ASM_ALL_DTM_PNT
 70
0
 62
7
  6
CONTINUOUS
  0
LAYER
  5
20A
100
AcDbSymbolTableRecord
100
AcDbLayerTableRecord
  2
04___PRT_ALL_DTM_PNT
 70
0
 62
7
  6
CONTINUOUS
  0
LAYER
  5
20B
100
AcDbSymbolTableRecord
100
AcDbLayerTableRecord
  2
05_ALL_DTM_CSYS
 70
0
 62
7
  6
CONTINUOUS
  0
LAYER
  5
20C
100
AcDbSymbolTableRecord
100
AcDbLayerTableRecord
  2
05__ASM_ALL_DTM_CSYS
 70
0
 62
7
  6
CONTINUOUS
  0
LAYER
  5
20D
100
AcDbSymbolTableRecord
100
AcDbLayerTableRecord
  2
05__ASM_DEF_DTM_CSYS
 70
0
 62
7
  6
CONTINUOUS
  0
LAYER
  5
20E
100
AcDbSymbolTableRecord
100
AcDbLayerTableRecord
  2
05___PRT_ALL_DTM_CSYS
 70
0
 62
7
  6
CONTINUOUS
  0
LAYER
  5
20F
100
AcDbSymbolTableRecord
100
AcDbLayerTableRecord
  2
05___PRT_DEF_DTM_CSYS
 70
0
 62
7
  6
CONTINUOUS
  0
LAYER
  5
210
100
AcDbSymbolTableRecord
100
AcDbLayerTableRecord
  2
06_ALL_SURFS
 70
0
 62
7
  6
CONTINUOUS
  0
LAYER
  5
211
100
AcDbSymbolTableRecord
100
AcDbLayerTableRecord
  2
06__ASM_ALL_SURFS
 70
0
 62
7
  6
CONTINUOUS
  0
LAYER
  5
212
100
AcDbSymbolTableRecord
100
AcDbLayerTableRecord
  2
06___PRT_ALL_SURFS
 70
0
 62
7
  6
CONTINUOUS
  0
LAYER
  5
213
100
AcDbSymbolTableRecord
100
AcDbLayerTableRecord
  2
07__ASM_ALL_SKELETONS
 70
0
 62
7
  6
CONTINUOUS
  0
LAYER
  5
214
100
AcDbSymbolTableRecord
100
AcDbLayerTableRecord
  2
1_ALL_PLANES
 70
0
 62
7
  6
CONTINUOUS
  0
LAYER
  5
215
100
AcDbSymbolTableRecord
100
AcDbLayerTableRecord
  2
2_ALL_CSYS
 70
0
 62
7
  6
CONTINUOUS
  0
LAYER
  5
216
100
AcDbSymbolTableRecord
100
AcDbLayerTableRecord
  2
3_ALL_AXES
 70
0
 62
7
  6
CONTINUOUS
  0
LAYER
  5
217
100
AcDbSymbolTableRecord
100
AcDbLayerTableRecord
  2
4_ALL_POINTS
 70
0
 62
7
  6
CONTINUOUS
  0
LAYER
  5
218
100
AcDbSymbolTableRecord
100
AcDbLayerTableRecord
  2
5_ALL_CURVES
 70
0
 62
7
  6
CONTINUOUS
  0
LAYER
  5
219
100
AcDbSymbolTableRecord
100
AcDbLayerTableRecord
  2
5__COSTRUZIONE
 70
0
 62
7
  6
CONTINUOUS
  0
LAYER
  5
21A
100
AcDbSymbolTableRecord
100
AcDbLayerTableRecord
  2
6_ALL_SURFS
 70
0
 62
7
  6
CONTINUOUS
  0
LAYER
  5
21B
100
AcDbSymbolTableRecord
100
AcDbLayerTableRecord
  2
7_ALL_FEATURES
 70
0
 62
7
  6
CONTINUOUS
  0
LAYER
  5
21C
100
AcDbSymbolTableRecord
100
AcDbLayerTableRecord
  2
9_SOLID
 70
0
 62
7
  6
CONTINUOUS
  0
LAYER
  5
21D
100
AcDbSymbolTableRecord
100
AcDbLayerTableRecord
  2
INTFCLR_2
 70
0
 62
7
  6
CONTINUOUS
  0
LAYER
  5
21E
100
AcDbSymbolTableRecord
100
AcDbLayerTableRecord
  2
INTFCLR_3
 70
0
 62
7
  6
CONTINUOUS
  0
LAYER
  5
21F
100
AcDbSymbolTableRecord
100
AcDbLayerTableRecord
  2
INTF_CYAN
 70
0
 62
7
  6
CONTINUOUS
  0
LAYER
  5
220
100
AcDbSymbolTableRecord
100
AcDbLayerTableRecord
  2
XSEC_DATUMS
 70
0
 62
7
  6
CONTINUOUS
  0
LAYER
  5
221
100
AcDbSymbolTableRecord
100
AcDbLayerTableRecord
  2
XXX_SOLIDO
 70
0
 62
7
  6
CONTINUOUS
  0
ENDTAB
  0
TABLE
  2
STYLE
  5
3
100
AcDbSymbolTable
 70
1
  0
STYLE
  5
11
100
AcDbSymbolTableRecord
100
AcDbTextStyleTableRecord
  2
STANDARD
 70
0
 40
0.0
 41
1.0
 50
0.0
 71
0
 42
0.2
  3
arial.ttf
  4

  0
STYLE
  5
222
100
AcDbSymbolTableRecord
100
AcDbTextStyleTableRecord
  2
TEXTSTYLE_1
 70
0
 40
0.0
 41
0.8
 50
0.0
 71
0
 42
0.2
  3
gdt
  4

  0
STYLE
  5
223
100
AcDbSymbolTableRecord
100
AcDbTextStyleTableRecord
  2
TEXTSTYLE_2
 70
0
 40
0.0
 41
0.85
 50
0.0
 71
0
 42
0.2
  3
txt
  4

  0
ENDTAB
  0
TABLE
  2
VIEW
  5
6
100
AcDbSymbolTable
 70
0
  0
ENDTAB
  0
TABLE
  2
UCS
  5
7
100
AcDbSymbolTable
 70
0
  0
ENDTAB
  0
TABLE
  2
APPID
  5
9
100
AcDbSymbolTable
 70
1
  0
APPID
  5
224
100
AcDbSymbolTableRecord
100
AcDbRegAppTableRecord
  2
ACAD
 70
0
  0
ENDTAB
  0
TABLE
  2
BLOCK_RECORD
  5
1
100
AcDbSymbolTable
 70
0
  0
BLOCK_RECORD
  5
1F
100
AcDbSymbolTableRecord
100
AcDbBlockTableRecord
  2
*MODEL_SPACE
  0
BLOCK_RECORD
  5
1B
100
AcDbSymbolTableRecord
100
AcDbBlockTableRecord
  2
*PAPER_SPACE
  0
BLOCK_RECORD
  5
225
100
AcDbSymbolTableRecord
100
AcDbBlockTableRecord
  2
_CLOSED
  0
BLOCK_RECORD
  5
226
100
AcDbSymbolTableRecord
100
AcDbBlockTableRecord
  2
*D0
  0
BLOCK_RECORD
  5
227
100
AcDbSymbolTableRecord
100
AcDbBlockTableRecord
  2
*D1
  0
BLOCK_RECORD
  5
228
100
AcDbSymbolTableRecord
100
AcDbBlockTableRecord
  2
*D2
  0
BLOCK_RECORD
  5
229
100
AcDbSymbolTableRecord
100
AcDbBlockTableRecord
  2
*D3
  0
BLOCK_RECORD
  5
22A
100
AcDbSymbolTableRecord
100
AcDbBlockTableRecord
  2
*D4
  0
BLOCK_RECORD
  5
22B
100
AcDbSymbolTableRecord
100
AcDbBlockTableRecord
  2
*D5
  0
BLOCK_RECORD
  5
22C
100
AcDbSymbolTableRecord
100
AcDbBlockTableRecord
  2
LOGO2_BL0
  0
ENDTAB
  0
TABLE
  2
DIMSTYLE
  5
A
100
AcDbSymbolTable
 70
1
  0
DIMSTYLE
105
22D
100
AcDbSymbolTableRecord
100
AcDbDimStyleTableRecord
  2
STANDARD
 70
0
  3

  4

  5
_CLOSED
  6
_CLOSED
  7
_CLOSED
 40
1.0
 41
2.5
 42
0.75
 43
0.38
 44
0.75
 45
0.0
 46
0.0
 47
0.01
 48
0.01
140
3.0
141
0.09
142
0.0
143
25.4
144
1.0
145
0.0
146
1.0
147
0.625
 71
1.0
 72
0.0
 73
0
 74
0
 75
0
 76
0
 77
1
 78
8
 79
2
170
0
171
1
172
0
173
0
174
0
175
0
176
0
177
0
178
0
270
2
179
2
271
2
272
2
273
2
274
2
275
0
280
0
281
0
282
0
283
1
284
8
285
0
286
0
287
3
288
0
340
11
  0
DIMSTYLE
105
22E
100
AcDbSymbolTableRecord
100
AcDbDimStyleTableRecord
  2
DIMSTYLE_1
 70
0
  3

  4

  5
_CLOSED
  6
_CLOSED
  7
_CLOSED
 40
1.0
 41
2.5
 42
0.75
 43
0.38
 44
0.75
 45
0.0
 46
0.0
 47
0.3
 48
0.3
140
3.0
141
0.09
142
0.0
143
25.4
144
1.0
145
0.0
146
1.0
147
0.75
 71
0.0
 72
0.0
 73
0
 74
0
 75
0
 76
0
 77
1
 78
8
 79
2
170
0
171
1
172
0
173
0
174
0
175
0
176
0
177
0
178
0
270
2
179
2
271
2
272
2
273
2
274
2
275
0
280
0
281
0
282
0
283
1
284
8
285
0
286
0
287
3
288
0
340
11
  0
DIMSTYLE
105
22F
100
AcDbSymbolTableRecord
100
AcDbDimStyleTableRecord
  2
DIMSTYLE_2
 70
0
  3

  4

  5
_CLOSED
  6
_CLOSED
  7
_CLOSED
 40
1.0
 41
2.5
 42
0.75
 43
0.38
 44
0.75
 45
0.0
 46
0.0
 47
0.2
 48
0.2
140
3.0
141
0.09
142
0.0
143
25.4
144
1.0
145
0.0
146
1.0
147
0.75
 71
0.0
 72
0.0
 73
0
 74
0
 75
0
 76
0
 77
1
 78
8
 79
2
170
0
171
1
172
0
173
0
174
0
175
0
176
0
177
0
178
0
270
2
179
2
271
2
272
2
273
2
274
2
275
0
280
0
281
0
282
0
283
1
284
8
285
0
286
0
287
3
288
0
340
11
  0
ENDTAB
  0
ENDSEC
  0
SECTION
  2
BLOCKS
  0
BLOCK
  5
20
100
AcDbEntity
  8
0
100
AcDbBlockBegin
  2
*MODEL_SPACE
 70
0
 10
0.0
 20
0.0
 30
0.0
  3
*MODEL_SPACE
  1

  0
ENDBLK
  5
21
100
AcDbEntity
  8
0
100
AcDbBlockEnd
  0
BLOCK
  5
1C
100
AcDbEntity
  8
0
100
AcDbBlockBegin
  2
*PAPER_SPACE
 70
0
 10
0.0
 20
0.0
 30
0.0
  3
*PAPER_SPACE
  1

  0
ENDBLK
  5
1D
100
AcDbEntity
  8
0
100
AcDbBlockEnd
  0
BLOCK
  5
230
100
AcDbEntity
  8
0
100
AcDbBlockBegin
 62
2
  6
CONTINUOUS
  2
LOGO2_BL0
 70
64
 10
333.6475659158
 20
36.9217920391
  3
LOGO2_BL0
  1

  0
LINE
  5
231
100
AcDbEntity
  8
0
100
AcDbLine
 62
7
  6
CONTINUOUS
 10
325.390491144
 20
40.1172833779
 11
324.0861502147
 21
40.1172833779
  0
LINE
  5
232
100
AcDbEntity
  8
0
100
AcDbLine
 62
7
  6
CONTINUOUS
 10
324.0861502147
 20
40.1172833779
 11
324.0861502147
 21
29.6582173181
  0
LINE
  5
233
100
AcDbEntity
  8
0
100
AcDbLine
 62
7
  6
CONTINUOUS
 10
324.0861502147
 20
29.6582173181
 11
328.567205103
 21
29.6582173181
  0
LINE
  5
234
100
AcDbEntity
  8
0
100
AcDbLine
 62
7
  6
CONTINUOUS
 10
328.567205103
 20
29.6582173181
 11
328.567205103
 21
30.8510716431
  0
LINE
  5
235
100
AcDbEntity
  8
0
100
AcDbLine
 62
7
  6
CONTINUOUS
 10
328.567205103
 20
30.8510716431
 11
325.390491144
 21
30.8510716431
  0
LINE
  5
236
100
AcDbEntity
  8
0
100
AcDbLine
 62
7
  6
CONTINUOUS
 10
325.390491144
 20
30.8510716431
 11
325.390491144
 21
40.1172833779
  0
LINE
  5
237
100
AcDbEntity
  8
0
100
AcDbLine
 62
7
  6
CONTINUOUS
 10
340.3268173604
 20
40.1172833779
 11
339.0229998423
 21
40.1172833779
  0
LINE
  5
238
100
AcDbEntity
  8
0
100
AcDbLine
 62
7
  6
CONTINUOUS
 10
339.0229998423
 20
40.1172833779
 11
339.0229998423
 21
29.6582173181
  0
LINE
  5
239
100
AcDbEntity
  8
0
100
AcDbLine
 62
7
  6
CONTINUOUS
 10
339.0229998423
 20
29.6582173181
 11
343.5041855834
 21
29.6582173181
  0
LINE
  5
23A
100
AcDbEntity
  8
0
100
AcDbLine
 62
7
  6
CONTINUOUS
 10
343.5041855834
 20
29.6582173181
 11
343.5041855834
 21
30.8510716431
  0
LINE
  5
23B
100
AcDbEntity
  8
0
100
AcDbLine
 62
7
  6
CONTINUOUS
 10
343.5041855834
 20
30.8510716431
 11
340.3268173604
 21
30.8510716431
  0
LINE
  5
23C
100
AcDbEntity
  8
0
100
AcDbLine
 62
7
  6
CONTINUOUS
 10
340.3268173604
 20
30.8510716431
 11
340.3268173604
 21
40.1172833779
  0
LWPOLYLINE
  5
23D
100
AcDbEntity
  8
0
100
AcDbPolyline
 62
7
  6
CONTINUOUS
 90
2
 70
0
 43
0.2
 10
322.4405451256
 20
26.3146660112
 10
322.4405451256
 20
24.4576027618
  0
LWPOLYLINE
  5
23E
100
AcDbEntity
  8
0
100
AcDbPolyline
 62
7
  6
CONTINUOUS
 90
2
 70
0
 43
0.2
 10
322.4405451256
 20
24.4576027618
 10
323.236261136
 20
24.4576027618
  0
LWPOLYLINE
  5
23F
100
AcDbEntity
  8
0
100
AcDbPolyline
 62
7
  6
CONTINUOUS
 90
2
 70
0
 43
0.2
 10
323.236261136
 20
24.4576027618
 10
323.236261136
 20
24.6695843334
  0
LWPOLYLINE
  5
240
100
AcDbEntity
  8
0
100
AcDbPolyline
 62
7
  6
CONTINUOUS
 90
2
 70
0
 43
0.2
 10
323.236261136
 20
24.6695843334
 10
322.6721546205
 20
24.6695843334
  0
LWPOLYLINE
  5
241
100
AcDbEntity
  8
0
100
AcDbPolyline
 62
7
  6
CONTINUOUS
 90
2
 70
0
 43
0.2
 10
322.6721546205
 20
24.6695843334
 10
322.6721546205
 20
26.3146660112
  0
LWPOLYLINE
  5
242
100
AcDbEntity
  8
0
100
AcDbPolyline
 62
7
  6
CONTINUOUS
 90
2
 70
0
 43
0.2
 10
322.6721546205
 20
26.3146660112
 10
322.4405451256
 20
26.3146660112
  0
SPLINE
  5
243
100
AcDbEntity
  8
0
100
AcDbSpline
 62
7
  6
CONTINUOUS
 70
2
 71
3
 72
35
 73
31
 74
0
 42
0.0000001
 43
0.0000001
 44
0.0000000001
 40
0.0
 40
0.0
 40
0.0
 40
0.0
 40
1.0
 40
1.0
 40
1.0
 40
2.0
 40
2.0
 40
2.0
 40
3.0
 40
3.0
 40
3.0
 40
4.0
 40
4.0
 40
4.0
 40
5.0
 40
5.0
 40
5.0
 40
6.0
 40
6.0
 40
6.0
 40
7.0
 40
7.0
 40
7.0
 40
8.0
 40
8.0
 40
8.0
 40
9.0
 40
9.0
 40
9.0
 40
10.0
 40
10.0
 40
10.0
 40
10.0
 10
324.6345543915
 20
25.6101544177
 30
0.0
 10
324.6345543915
 20
25.6101544177
 30
0.0
 10
324.6345543915
 20
24.9480391385
 30
0.0
 10
324.6345543915
 20
24.9480391385
 30
0.0
 10
324.6345543915
 20
24.6329455432
 30
0.0
 10
324.7824180804
 20
24.4183469152
 30
0.0
 10
325.1225045647
 20
24.4183469152
 30
0.0
 10
325.4620676377
 20
24.4183469152
 30
0.0
 10
325.6101930321
 20
24.6329455432
 30
0.0
 10
325.6101930321
 20
24.9480391385
 30
0.0
 10
325.6101930321
 20
24.9480391385
 30
0.0
 10
325.6101930321
 20
25.6101544177
 30
0.0
 10
325.6101930321
 20
25.6101544177
 30
0.0
 10
325.6101930321
 20
25.6101544177
 30
0.0
 10
325.3881357933
 20
25.6101544177
 30
0.0
 10
325.3881357933
 20
25.6101544177
 30
0.0
 10
325.3881357933
 20
25.6101544177
 30
0.0
 10
325.3881357933
 20
24.9731628803
 30
0.0
 10
325.3881357933
 20
24.9731628803
 30
0.0
 10
325.3881357933
 20
24.7873518732
 30
0.0
 10
325.3414213358
 20
24.6245709626
 30
0.0
 10
325.1225045647
 20
24.6245709626
 30
0.0
 10
324.9030643822
 20
24.6245709626
 30
0.0
 10
324.8563499248
 20
24.7873518732
 30
0.0
 10
324.8563499248
 20
24.9731628803
 30
0.0
 10
324.8563499248
 20
24.9731628803
 30
0.0
 10
324.8563499248
 20
25.6101544177
 30
0.0
 10
324.8563499248
 20
25.6101544177
 30
0.0
 10
324.8563499248
 20
25.6101544177
 30
0.0
 10
324.6345543915
 20
25.6101544177
 30
0.0
 10
324.6345543915
 20
25.6101544177
 30
0.0
  0
SPLINE
  5
244
100
AcDbEntity
  8
0
100
AcDbSpline
 62
7
  6
CONTINUOUS
 70
2
 71
3
 72
35
 73
31
 74
0
 42
0.0000001
 43
0.0000001
 44
0.0000000001
 40
0.0
 40
0.0
 40
0.0
 40
0.0
 40
1.0
 40
1.0
 40
1.0
 40
2.0
 40
2.0
 40
2.0
 40
3.0
 40
3.0
 40
3.0
 40
4.0
 40
4.0
 40
4.0
 40
5.0
 40
5.0
 40
5.0
 40
6.0
 40
6.0
 40
6.0
 40
7.0
 40
7.0
 40
7.0
 40
8.0
 40
8.0
 40
8.0
 40
9.0
 40
9.0
 40
9.0
 40
10.0
 40
10.0
 40
10.0
 40
10.0
 10
328.0333255893
 20
25.5688049259
 30
0.0
 10
327.9448690817
 20
25.6200992322
 30
0.0
 10
327.831419685
 20
25.645222974
 30
0.0
 10
327.72778425
 20
25.645222974
 30
0.0
 10
327.3729113969
 20
25.645222974
 30
0.0
 10
327.0974662066
 20
25.3814236849
 30
0.0
 10
327.0974662066
 20
25.0239337753
 30
0.0
 10
327.0974662066
 20
24.6790057366
 30
0.0
 10
327.3759210118
 20
24.4188703265
 30
0.0
 10
327.7154840848
 20
24.4188703265
 30
0.0
 10
327.831419685
 20
24.4188703265
 30
0.0
 10
327.9321763579
 20
24.4408536006
 30
0.0
 10
328.0333255893
 20
24.4947649632
 30
0.0
 10
328.0333255893
 20
24.4947649632
 30
0.0
 10
328.0333255893
 20
24.7774070587
 30
0.0
 10
328.0333255893
 20
24.7774070587
 30
0.0
 10
327.9494489304
 20
24.6842398494
 30
0.0
 10
327.8459443483
 20
24.6250943739
 30
0.0
 10
327.7178394356
 20
24.6250943739
 30
0.0
 10
327.4841362955
 20
24.6250943739
 30
0.0
 10
327.3188691814
 20
24.7972966876
 30
0.0
 10
327.3188691814
 20
25.0338785897
 30
0.0
 10
327.3188691814
 20
25.2458601613
 30
0.0
 10
327.4866224991
 20
25.437952104
 30
0.0
 10
327.7034456251
 20
25.437952104
 30
0.0
 10
327.8362612394
 20
25.437952104
 30
0.0
 10
327.9448690817
 20
25.3840407413
 30
0.0
 10
328.0333255893
 20
25.2830223628
 30
0.0
 10
328.0333255893
 20
25.2830223628
 30
0.0
 10
328.0333255893
 20
25.5688049259
 30
0.0
 10
328.0333255893
 20
25.5688049259
 30
0.0
  0
SPLINE
  5
245
100
AcDbEntity
  8
0
100
AcDbSpline
 62
7
  6
CONTINUOUS
 70
2
 71
3
 72
32
 73
28
 74
0
 42
0.0000001
 43
0.0000001
 44
0.0000000001
 40
0.0
 40
0.0
 40
0.0
 40
0.0
 40
1.0
 40
1.0
 40
1.0
 40
2.0
 40
2.0
 40
2.0
 40
3.0
 40
3.0
 40
3.0
 40
4.0
 40
4.0
 40
4.0
 40
5.0
 40
5.0
 40
5.0
 40
6.0
 40
6.0
 40
6.0
 40
7.0
 40
7.0
 40
7.0
 40
8.0
 40
8.0
 40
8.0
 40
9.0
 40
9.0
 40
9.0
 40
9.0
 10
330.5651968416
 20
24.9972397996
 30
0.0
 10
330.5651968416
 20
24.9972397996
 30
0.0
 10
330.5651968416
 20
25.0312615333
 30
0.0
 10
330.5651968416
 20
25.0312615333
 30
0.0
 10
330.5651968416
 20
25.3735725156
 30
0.0
 10
330.3923402638
 20
25.645222974
 30
0.0
 10
330.0256906566
 20
25.645222974
 30
0.0
 10
329.6540686422
 20
25.645222974
 30
0.0
 10
329.4643320504
 20
25.3788066284
 30
0.0
 10
329.4643320504
 20
25.0239337753
 30
0.0
 10
329.4643320504
 20
24.6842398494
 30
0.0
 10
329.6784072671
 20
24.4183469152
 30
0.0
 10
330.030532211
 20
24.4183469152
 30
0.0
 10
330.2545522422
 20
24.4183469152
 30
0.0
 10
330.4567198522
 20
24.5340208098
 30
0.0
 10
330.5651968416
 20
24.7334405105
 30
0.0
 10
330.5651968416
 20
24.7334405105
 30
0.0
 10
330.3775538949
 20
24.8402164132
 30
0.0
 10
330.3775538949
 20
24.8402164132
 30
0.0
 10
330.2940697945
 20
24.7015124219
 30
0.0
 10
330.2028653775
 20
24.6156729707
 30
0.0
 10
330.0332801203
 20
24.6156729707
 30
0.0
 10
329.8212985487
 20
24.6156729707
 30
0.0
 10
329.6883520816
 20
24.8004371554
 30
0.0
 10
329.6859967308
 20
24.9972397996
 30
0.0
 10
329.6859967308
 20
24.9972397996
 30
0.0
 10
330.5651968416
 20
24.9972397996
 30
0.0
 10
330.5651968416
 20
24.9972397996
 30
0.0
  0
SPLINE
  5
246
100
AcDbEntity
  8
0
100
AcDbSpline
 62
7
  6
CONTINUOUS
 70
2
 71
3
 72
14
 73
10
 74
0
 42
0.0000001
 43
0.0000001
 44
0.0000000001
 40
0.0
 40
0.0
 40
0.0
 40
0.0
 40
1.0
 40
1.0
 40
1.0
 40
2.0
 40
2.0
 40
2.0
 40
3.0
 40
3.0
 40
3.0
 40
3.0
 10
329.6980351904
 20
25.1647314117
 30
0.0
 10
329.7256451358
 20
25.3296059674
 30
0.0
 10
329.8534883429
 20
25.45260762
 30
0.0
 10
330.0256906566
 20
25.45260762
 30
0.0
 10
330.2028653775
 20
25.45260762
 30
0.0
 10
330.3163147742
 20
25.3369337254
 30
0.0
 10
330.3435321612
 20
25.1647314117
 30
0.0
 10
330.3435321612
 20
25.1647314117
 30
0.0
 10
329.6980351904
 20
25.1647314117
 30
0.0
 10
329.6980351904
 20
25.1647314117
 30
0.0
  0
SPLINE
  5
247
100
AcDbEntity
  8
0
100
AcDbSpline
 62
7
  6
CONTINUOUS
 70
2
 71
3
 72
20
 73
16
 74
0
 42
0.0000001
 43
0.0000001
 44
0.0000000001
 40
0.0
 40
0.0
 40
0.0
 40
0.0
 40
1.0
 40
1.0
 40
1.0
 40
2.0
 40
2.0
 40
2.0
 40
3.0
 40
3.0
 40
3.0
 40
4.0
 40
4.0
 40
4.0
 40
5.0
 40
5.0
 40
5.0
 40
5.0
 10
332.5892282918
 20
25.3740959269
 30
0.0
 10
332.5892282918
 20
25.3740959269
 30
0.0
 10
333.0003678584
 20
24.8716210905
 30
0.0
 10
333.0003678584
 20
24.8716210905
 30
0.0
 10
332.8843014053
 20
24.7559471959
 30
0.0
 10
332.7465133838
 20
24.6256177852
 30
0.0
 10
332.5745727757
 20
24.6256177852
 30
0.0
 10
332.3971363491
 20
24.6256177852
 30
0.0
 10
332.229644737
 20
24.7899689296
 30
0.0
 10
332.229644737
 20
24.9668819449
 30
0.0
 10
332.229644737
 20
25.1448417828
 30
0.0
 10
332.4394018106
 20
25.2709839031
 30
0.0
 10
332.566983312
 20
25.3589169995
 30
0.0
 10
332.566983312
 20
25.3589169995
 30
0.0
 10
332.5892282918
 20
25.3740959269
 30
0.0
 10
332.5892282918
 20
25.3740959269
 30
0.0
  0
SPLINE
  5
248
100
AcDbEntity
  8
0
100
AcDbSpline
 62
7
  6
CONTINUOUS
 70
2
 71
3
 72
23
 73
19
 74
0
 42
0.0000001
 43
0.0000001
 44
0.0000000001
 40
0.0
 40
0.0
 40
0.0
 40
0.0
 40
1.0
 40
1.0
 40
1.0
 40
2.0
 40
2.0
 40
2.0
 40
3.0
 40
3.0
 40
3.0
 40
4.0
 40
4.0
 40
4.0
 40
5.0
 40
5.0
 40
5.0
 40
6.0
 40
6.0
 40
6.0
 40
6.0
 10
332.6385598056
 20
25.6651126029
 30
0.0
 10
332.6385598056
 20
25.6651126029
 30
0.0
 10
332.5769281265
 20
25.7436242961
 30
0.0
 10
332.5769281265
 20
25.7436242961
 30
0.0
 10
332.5230167639
 20
25.8121911748
 30
0.0
 10
332.4662266391
 20
25.8812814648
 30
0.0
 10
332.4662266391
 20
25.9749720853
 30
0.0
 10
332.4662266391
 20
26.0937864477
 30
0.0
 10
332.5621417576
 20
26.1712513183
 30
0.0
 10
332.6731049506
 20
26.1712513183
 30
0.0
 10
332.7963683089
 20
26.1712513183
 30
0.0
 10
332.889666371
 20
26.1000673831
 30
0.0
 10
332.889666371
 20
25.9697379725
 30
0.0
 10
332.889666371
 20
25.8346978602
 30
0.0
 10
332.7615614583
 20
25.7582798122
 30
0.0
 10
332.6680016906
 20
25.6844788206
 30
0.0
 10
332.6680016906
 20
25.6844788206
 30
0.0
 10
332.6385598056
 20
25.6651126029
 30
0.0
 10
332.6385598056
 20
25.6651126029
 30
0.0
  0
SPLINE
  5
249
100
AcDbEntity
  8
0
100
AcDbSpline
 62
7
  6
CONTINUOUS
 70
2
 71
3
 72
50
 73
46
 74
0
 42
0.0000001
 43
0.0000001
 44
0.0000000001
 40
0.0
 40
0.0
 40
0.0
 40
0.0
 40
1.0
 40
1.0
 40
1.0
 40
2.0
 40
2.0
 40
2.0
 40
3.0
 40
3.0
 40
3.0
 40
4.0
 40
4.0
 40
4.0
 40
5.0
 40
5.0
 40
5.0
 40
6.0
 40
6.0
 40
6.0
 40
7.0
 40
7.0
 40
7.0
 40
8.0
 40
8.0
 40
8.0
 40
9.0
 40
9.0
 40
9.0
 40
10.0
 40
10.0
 40
10.0
 40
11.0
 40
11.0
 40
11.0
 40
12.0
 40
12.0
 40
12.0
 40
13.0
 40
13.0
 40
13.0
 40
14.0
 40
14.0
 40
14.0
 40
15.0
 40
15.0
 40
15.0
 40
15.0
 10
333.3407160483
 20
24.4581261731
 30
0.0
 10
333.3407160483
 20
24.4581261731
 30
0.0
 10
333.626106053
 20
24.4581261731
 30
0.0
 10
333.626106053
 20
24.4581261731
 30
0.0
 10
333.626106053
 20
24.4581261731
 30
0.0
 10
333.2937398852
 20
24.8690040341
 30
0.0
 10
333.2937398852
 20
24.8690040341
 30
0.0
 10
333.2937398852
 20
24.8690040341
 30
0.0
 10
333.5202461201
 20
25.1348969683
 30
0.0
 10
333.5202461201
 20
25.1348969683
 30
0.0
 10
333.5202461201
 20
25.1348969683
 30
0.0
 10
333.3719898728
 20
25.2877330644
 30
0.0
 10
333.3719898728
 20
25.2877330644
 30
0.0
 10
333.3719898728
 20
25.2877330644
 30
0.0
 10
333.1560827165
 20
25.0364956462
 30
0.0
 10
333.1560827165
 20
25.0364956462
 30
0.0
 10
333.1560827165
 20
25.0364956462
 30
0.0
 10
332.7690200692
 20
25.5044253375
 30
0.0
 10
332.7690200692
 20
25.5044253375
 30
0.0
 10
332.9244732216
 20
25.6185289983
 30
0.0
 10
333.1067512026
 20
25.7582798122
 30
0.0
 10
333.1067512026
 20
25.9676443273
 30
0.0
 10
333.1067512026
 20
26.2115539874
 30
0.0
 10
332.9047144455
 20
26.3549686803
 30
0.0
 10
332.6782082107
 20
26.3549686803
 30
0.0
 10
332.4340368449
 20
26.3549686803
 30
0.0
 10
332.2496652188
 20
26.2042262294
 30
0.0
 10
332.2496652188
 20
25.9477546984
 30
0.0
 10
332.2496652188
 20
25.7902079007
 30
0.0
 10
332.3483282465
 20
25.652550732
 30
0.0
 10
332.4536647682
 20
25.541587539
 30
0.0
 10
332.4536647682
 20
25.541587539
 30
0.0
 10
332.3381217264
 20
25.4578417329
 30
0.0
 10
332.3381217264
 20
25.4578417329
 30
0.0
 10
332.1604235942
 20
25.3296059674
 30
0.0
 10
332.0130833166
 20
25.2018936131
 30
0.0
 10
332.0130833166
 20
24.9647882997
 30
0.0
 10
332.0130833166
 20
24.6444605916
 30
0.0
 10
332.2716484929
 20
24.4183469152
 30
0.0
 10
332.5820313866
 20
24.4183469152
 30
0.0
 10
332.8009481577
 20
24.4183469152
 30
0.0
 10
332.9981433604
 20
24.543442213
 30
0.0
 10
333.1384175856
 20
24.7093635913
 30
0.0
 10
333.1384175856
 20
24.7093635913
 30
0.0
 10
333.3407160483
 20
24.4581261731
 30
0.0
 10
333.3407160483
 20
24.4581261731
 30
0.0
  0
LWPOLYLINE
  5
24A
100
AcDbEntity
  8
0
100
AcDbPolyline
 62
7
  6
CONTINUOUS
 90
2
 70
0
 43
0.2
 10
335.276160138
 20
26.3146660112
 10
335.0448123488
 20
26.3146660112
  0
LWPOLYLINE
  5
24B
100
AcDbEntity
  8
0
100
AcDbPolyline
 62
7
  6
CONTINUOUS
 90
2
 70
0
 43
0.2
 10
335.0448123488
 20
26.3146660112
 10
335.0448123488
 20
24.4576027618
  0
LWPOLYLINE
  5
24C
100
AcDbEntity
  8
0
100
AcDbPolyline
 62
7
  6
CONTINUOUS
 90
2
 70
0
 43
0.2
 10
335.0448123488
 20
24.4576027618
 10
335.8401358007
 20
24.4576027618
  0
LWPOLYLINE
  5
24D
100
AcDbEntity
  8
0
100
AcDbPolyline
 62
7
  6
CONTINUOUS
 90
2
 70
0
 43
0.2
 10
335.8401358007
 20
24.4576027618
 10
335.8401358007
 20
24.6695843334
  0
LWPOLYLINE
  5
24E
100
AcDbEntity
  8
0
100
AcDbPolyline
 62
7
  6
CONTINUOUS
 90
2
 70
0
 43
0.2
 10
335.8401358007
 20
24.6695843334
 10
335.276160138
 20
24.6695843334
  0
LWPOLYLINE
  5
24F
100
AcDbEntity
  8
0
100
AcDbPolyline
 62
7
  6
CONTINUOUS
 90
2
 70
0
 43
0.2
 10
335.276160138
 20
24.6695843334
 10
335.276160138
 20
26.3146660112
  0
LWPOLYLINE
  5
250
100
AcDbEntity
  8
0
100
AcDbPolyline
 62
7
  6
CONTINUOUS
 90
2
 70
0
 43
0.2
 10
337.5192392122
 20
25.6101544177
 10
337.2980979431
 20
25.6101544177
  0
LWPOLYLINE
  5
251
100
AcDbEntity
  8
0
100
AcDbPolyline
 62
7
  6
CONTINUOUS
 90
2
 70
0
 43
0.2
 10
337.2980979431
 20
25.6101544177
 10
337.2980979431
 20
24.4581261731
  0
LWPOLYLINE
  5
252
100
AcDbEntity
  8
0
100
AcDbPolyline
 62
7
  6
CONTINUOUS
 90
2
 70
0
 43
0.2
 10
337.2980979431
 20
24.4581261731
 10
337.5192392122
 20
24.4581261731
  0
LWPOLYLINE
  5
253
100
AcDbEntity
  8
0
100
AcDbPolyline
 62
7
  6
CONTINUOUS
 90
2
 70
0
 43
0.2
 10
337.5192392122
 20
24.4581261731
 10
337.5192392122
 20
25.6101544177
  0
LWPOLYLINE
  5
254
100
AcDbEntity
  8
0
100
AcDbPolyline
 62
7
  6
CONTINUOUS
 90
2
 70
1
 43
0.2
 10
337.256215935
 20
26.1401083467
 42
1.0
 10
337.5613829259
 20
26.1401083467
 42
1.0
  0
SPLINE
  5
255
100
AcDbEntity
  8
0
100
AcDbSpline
 62
7
  6
CONTINUOUS
 70
2
 71
3
 72
17
 73
13
 74
0
 42
0.0000001
 43
0.0000001
 44
0.0000000001
 40
0.0
 40
0.0
 40
0.0
 40
0.0
 40
1.0
 40
1.0
 40
1.0
 40
2.0
 40
2.0
 40
2.0
 40
3.0
 40
3.0
 40
3.0
 40
4.0
 40
4.0
 40
4.0
 40
4.0
 10
339.6495231538
 20
24.6156729707
 30
0.0
 10
339.4155583082
 20
24.6156729707
 30
0.0
 10
339.2852288975
 20
24.8177097279
 30
0.0
 10
339.2852288975
 20
25.0338785897
 30
0.0
 10
339.2852288975
 20
25.2484772178
 30
0.0
 10
339.4210541267
 20
25.4473735072
 30
0.0
 10
339.6495231538
 20
25.4473735072
 30
0.0
 10
339.888983818
 20
25.4473735072
 30
0.0
 10
340.0245473416
 20
25.2584220322
 30
0.0
 10
340.0245473416
 20
25.0338785897
 30
0.0
 10
340.0245473416
 20
24.8077649134
 30
0.0
 10
339.8913391688
 20
24.6156729707
 30
0.0
 10
339.6495231538
 20
24.6156729707
 30
0.0
  0
SPLINE
  5
256
100
AcDbEntity
  8
0
100
AcDbSpline
 62
7
  6
CONTINUOUS
 70
2
 71
3
 72
50
 73
46
 74
0
 42
0.0000001
 43
0.0000001
 44
0.0000000001
 40
0.0
 40
0.0
 40
0.0
 40
0.0
 40
1.0
 40
1.0
 40
1.0
 40
2.0
 40
2.0
 40
2.0
 40
3.0
 40
3.0
 40
3.0
 40
4.0
 40
4.0
 40
4.0
 40
5.0
 40
5.0
 40
5.0
 40
6.0
 40
6.0
 40
6.0
 40
7.0
 40
7.0
 40
7.0
 40
8.0
 40
8.0
 40
8.0
 40
9.0
 40
9.0
 40
9.0
 40
10.0
 40
10.0
 40
10.0
 40
11.0
 40
11.0
 40
11.0
 40
12.0
 40
12.0
 40
12.0
 40
13.0
 40
13.0
 40
13.0
 40
14.0
 40
14.0
 40
14.0
 40
15.0
 40
15.0
 40
15.0
 40
15.0
 10
340.2336501511
 20
25.610677829
 30
0.0
 10
340.2336501511
 20
25.610677829
 30
0.0
 10
340.0119854707
 20
25.610677829
 30
0.0
 10
340.0119854707
 20
25.610677829
 30
0.0
 10
340.0119854707
 20
25.610677829
 30
0.0
 10
340.0119854707
 20
25.4133517734
 30
0.0
 10
340.0119854707
 20
25.4133517734
 30
0.0
 10
340.0119854707
 20
25.4133517734
 30
0.0
 10
340.0072747691
 20
25.4133517734
 30
0.0
 10
340.0072747691
 20
25.4133517734
 30
0.0
 10
339.9159394994
 20
25.556243055
 30
0.0
 10
339.778020625
 20
25.6446995627
 30
0.0
 10
339.6052949
 20
25.6446995627
 30
0.0
 10
339.2729287322
 20
25.6446995627
 30
0.0
 10
339.0638259227
 20
25.3568233544
 30
0.0
 10
339.0638259227
 20
25.0412063478
 30
0.0
 10
339.0638259227
 20
24.7114572364
 30
0.0
 10
339.2608902726
 20
24.4183469152
 30
0.0
 10
339.6157631258
 20
24.4183469152
 30
0.0
 10
339.778020625
 20
24.4183469152
 30
0.0
 10
339.9180331445
 20
24.5068034229
 30
0.0
 10
340.0072747691
 20
24.6376562448
 30
0.0
 10
340.0072747691
 20
24.6376562448
 30
0.0
 10
340.0119854707
 20
24.6376562448
 30
0.0
 10
340.0119854707
 20
24.6376562448
 30
0.0
 10
340.0119854707
 20
24.6376562448
 30
0.0
 10
340.0119854707
 20
24.4183469152
 30
0.0
 10
340.0119854707
 20
24.4183469152
 30
0.0
 10
340.0119854707
 20
24.1817650131
 30
0.0
 10
339.9554570516
 20
23.9949071833
 30
0.0
 10
339.6822363593
 20
23.9949071833
 30
0.0
 10
339.4799378966
 20
23.9949071833
 30
0.0
 10
339.3373083206
 20
24.1131981344
 30
0.0
 10
339.3373083206
 20
24.3194221818
 30
0.0
 10
339.3373083206
 20
24.3194221818
 30
0.0
 10
339.1156436402
 20
24.3194221818
 30
0.0
 10
339.1156436402
 20
24.3194221818
 30
0.0
 10
339.1206160475
 20
23.9949071833
 30
0.0
 10
339.351702131
 20
23.7981045391
 30
0.0
 10
339.6720298392
 20
23.7981045391
 30
0.0
 10
340.1200699016
 20
23.7981045391
 30
0.0
 10
340.2336501511
 20
24.083363691
 30
0.0
 10
340.2336501511
 20
24.4801094472
 30
0.0
 10
340.2336501511
 20
24.4801094472
 30
0.0
 10
340.2336501511
 20
25.610677829
 30
0.0
 10
340.2336501511
 20
25.610677829
 30
0.0
  0
SPLINE
  5
257
100
AcDbEntity
  8
0
100
AcDbSpline
 62
7
  6
CONTINUOUS
 70
2
 71
3
 72
44
 73
40
 74
0
 42
0.0000001
 43
0.0000001
 44
0.0000000001
 40
0.0
 40
0.0
 40
0.0
 40
0.0
 40
1.0
 40
1.0
 40
1.0
 40
2.0
 40
2.0
 40
2.0
 40
3.0
 40
3.0
 40
3.0
 40
4.0
 40
4.0
 40
4.0
 40
5.0
 40
5.0
 40
5.0
 40
6.0
 40
6.0
 40
6.0
 40
7.0
 40
7.0
 40
7.0
 40
8.0
 40
8.0
 40
8.0
 40
9.0
 40
9.0
 40
9.0
 40
10.0
 40
10.0
 40
10.0
 40
11.0
 40
11.0
 40
11.0
 40
12.0
 40
12.0
 40
12.0
 40
13.0
 40
13.0
 40
13.0
 40
13.0
 10
341.8025754865
 20
26.5957378727
 30
0.0
 10
341.8025754865
 20
26.5957378727
 30
0.0
 10
341.8025754865
 20
24.4576027618
 30
0.0
 10
341.8025754865
 20
24.4576027618
 30
0.0
 10
341.8025754865
 20
24.4576027618
 30
0.0
 10
342.0239784613
 20
24.4576027618
 30
0.0
 10
342.0239784613
 20
24.4576027618
 30
0.0
 10
342.0239784613
 20
24.4576027618
 30
0.0
 10
342.0239784613
 20
24.9872949851
 30
0.0
 10
342.0239784613
 20
24.9872949851
 30
0.0
 10
342.0239784613
 20
25.1971829116
 30
0.0
 10
342.0239784613
 20
25.4478969184
 30
0.0
 10
342.3092376132
 20
25.4478969184
 30
0.0
 10
342.5361364065
 20
25.4478969184
 30
0.0
 10
342.5630920878
 20
25.3149504513
 30
0.0
 10
342.5630920878
 20
25.1186712184
 30
0.0
 10
342.5630920878
 20
25.1186712184
 30
0.0
 10
342.5630920878
 20
24.4576027618
 30
0.0
 10
342.5630920878
 20
24.4576027618
 30
0.0
 10
342.5630920878
 20
24.4576027618
 30
0.0
 10
342.7850184738
 20
24.4576027618
 30
0.0
 10
342.7850184738
 20
24.4576027618
 30
0.0
 10
342.7850184738
 20
24.4576027618
 30
0.0
 10
342.7850184738
 20
25.1448417828
 30
0.0
 10
342.7850184738
 20
25.1448417828
 30
0.0
 10
342.7850184738
 20
25.4253902331
 30
0.0
 10
342.7010109621
 20
25.645222974
 30
0.0
 10
342.3759725524
 20
25.645222974
 30
0.0
 10
342.2362217385
 20
25.645222974
 30
0.0
 10
342.0980411585
 20
25.5787497404
 30
0.0
 10
342.0286891629
 20
25.4557480878
 30
0.0
 10
342.0286891629
 20
25.4557480878
 30
0.0
 10
342.0239784613
 20
25.4557480878
 30
0.0
 10
342.0239784613
 20
25.4557480878
 30
0.0
 10
342.0239784613
 20
25.4557480878
 30
0.0
 10
342.0239784613
 20
26.5957378727
 30
0.0
 10
342.0239784613
 20
26.5957378727
 30
0.0
 10
342.0239784613
 20
26.5957378727
 30
0.0
 10
341.8025754865
 20
26.5957378727
 30
0.0
 10
341.8025754865
 20
26.5957378727
 30
0.0
  0
LWPOLYLINE
  5
258
100
AcDbEntity
  8
0
100
AcDbPolyline
 62
7
  6
CONTINUOUS
 90
2
 70
0
 43
0.2
 10
344.6248091507
 20
25.403406959
 10
344.8412397182
 20
25.403406959
  0
LWPOLYLINE
  5
259
100
AcDbEntity
  8
0
100
AcDbPolyline
 62
7
  6
CONTINUOUS
 90
2
 70
0
 43
0.2
 10
344.8412397182
 20
25.403406959
 10
344.8412397182
 20
25.6101544177
  0
LWPOLYLINE
  5
25A
100
AcDbEntity
  8
0
100
AcDbPolyline
 62
7
  6
CONTINUOUS
 90
2
 70
0
 43
0.2
 10
344.8412397182
 20
25.6101544177
 10
344.6248091507
 20
25.6101544177
  0
LWPOLYLINE
  5
25B
100
AcDbEntity
  8
0
100
AcDbPolyline
 62
7
  6
CONTINUOUS
 90
2
 70
0
 43
0.2
 10
344.6248091507
 20
25.6101544177
 10
344.6248091507
 20
26.0508667221
  0
LWPOLYLINE
  5
25C
100
AcDbEntity
  8
0
100
AcDbPolyline
 62
7
  6
CONTINUOUS
 90
2
 70
0
 43
0.2
 10
344.6248091507
 20
26.0508667221
 10
344.4031444703
 20
26.0508667221
  0
LWPOLYLINE
  5
25D
100
AcDbEntity
  8
0
100
AcDbPolyline
 62
7
  6
CONTINUOUS
 90
2
 70
0
 43
0.2
 10
344.4031444703
 20
26.0508667221
 10
344.4031444703
 20
25.6101544177
  0
LWPOLYLINE
  5
25E
100
AcDbEntity
  8
0
100
AcDbPolyline
 62
7
  6
CONTINUOUS
 90
2
 70
0
 43
0.2
 10
344.4031444703
 20
25.6101544177
 10
344.2824981684
 20
25.6101544177
  0
LWPOLYLINE
  5
25F
100
AcDbEntity
  8
0
100
AcDbPolyline
 62
7
  6
CONTINUOUS
 90
2
 70
0
 43
0.2
 10
344.2824981684
 20
25.6101544177
 10
344.2824981684
 20
25.403406959
  0
LWPOLYLINE
  5
260
100
AcDbEntity
  8
0
100
AcDbPolyline
 62
7
  6
CONTINUOUS
 90
2
 70
0
 43
0.2
 10
344.2824981684
 20
25.403406959
 10
344.4031444703
 20
25.403406959
  0
LWPOLYLINE
  5
261
100
AcDbEntity
  8
0
100
AcDbPolyline
 62
7
  6
CONTINUOUS
 90
2
 70
0
 43
0.2
 10
344.4031444703
 20
25.403406959
 10
344.4031444703
 20
24.4576027618
  0
LWPOLYLINE
  5
262
100
AcDbEntity
  8
0
100
AcDbPolyline
 62
7
  6
CONTINUOUS
 90
2
 70
0
 43
0.2
 10
344.4031444703
 20
24.4576027618
 10
344.6248091507
 20
24.4576027618
  0
LWPOLYLINE
  5
263
100
AcDbEntity
  8
0
100
AcDbPolyline
 62
7
  6
CONTINUOUS
 90
2
 70
0
 43
0.2
 10
344.6248091507
 20
24.4576027618
 10
344.6248091507
 20
25.403406959
  0
SPLINE
  5
264
100
AcDbEntity
  8
0
100
AcDbSpline
 62
7
  6
CONTINUOUS
 70
2
 71
3
 72
20
 73
16
 74
0
 42
0.0000001
 43
0.0000001
 44
0.0000000001
 40
0.0
 40
0.0
 40
0.0
 40
0.0
 40
1.0
 40
1.0
 40
1.0
 40
2.0
 40
2.0
 40
2.0
 40
3.0
 40
3.0
 40
3.0
 40
4.0
 40
4.0
 40
4.0
 40
5.0
 40
5.0
 40
5.0
 40
5.0
 10
332.4068194579
 20
34.8185292052
 30
0.0
 10
332.4068194579
 20
34.8185292052
 30
0.0
 10
334.7231761124
 20
31.988967783
 30
0.0
 10
334.7231761124
 20
31.988967783
 30
0.0
 10
334.071529059
 20
31.3367973183
 30
0.0
 10
333.294655855
 20
30.6008810475
 30
0.0
 10
332.3234662104
 20
30.6008810475
 30
0.0
 10
331.3249283259
 20
30.6008810475
 30
0.0
 10
330.3816103324
 20
31.5304594948
 30
0.0
 10
330.3816103324
 20
32.5296516433
 30
0.0
 10
330.3816103324
 20
33.5288437919
 30
0.0
 10
331.5604634055
 20
34.2354490305
 30
0.0
 10
332.2819858658
 20
34.7353068104
 30
0.0
 10
332.2819858658
 20
34.7353068104
 30
0.0
 10
332.4068194579
 20
34.8185292052
 30
0.0
 10
332.4068194579
 20
34.8185292052
 30
0.0
  0
SPLINE
  5
265
100
AcDbEntity
  8
0
100
AcDbSpline
 62
7
  6
CONTINUOUS
 70
2
 71
3
 72
23
 73
19
 74
0
 42
0.0000001
 43
0.0000001
 44
0.0000000001
 40
0.0
 40
0.0
 40
0.0
 40
0.0
 40
1.0
 40
1.0
 40
1.0
 40
2.0
 40
2.0
 40
2.0
 40
3.0
 40
3.0
 40
3.0
 40
4.0
 40
4.0
 40
4.0
 40
5.0
 40
5.0
 40
5.0
 40
6.0
 40
6.0
 40
6.0
 40
6.0
 10
332.6842274405
 20
36.4562831249
 30
0.0
 10
332.6842274405
 20
36.4562831249
 30
0.0
 10
332.3377291679
 20
36.8996124858
 30
0.0
 10
332.3377291679
 20
36.8996124858
 30
0.0
 10
332.031926123
 20
37.2877219557
 30
0.0
 10
331.7130377959
 20
37.6762239841
 30
0.0
 10
331.7130377959
 20
38.2031682982
 30
0.0
 10
331.7130377959
 20
38.8693400148
 30
0.0
 10
332.2543759204
 20
39.3130619341
 30
0.0
 10
332.8782821755
 20
39.3130619341
 30
0.0
 10
333.5720638376
 20
39.3130619341
 30
0.0
 10
334.0992698573
 20
38.9108203594
 30
0.0
 10
334.0992698573
 20
38.1758200584
 30
0.0
 10
334.0992698573
 20
37.4125555479
 30
0.0
 10
333.3780091026
 20
36.9824423221
 30
0.0
 10
332.8509339357
 20
36.5667229067
 30
0.0
 10
332.8509339357
 20
36.5667229067
 30
0.0
 10
332.6842274405
 20
36.4562831249
 30
0.0
 10
332.6842274405
 20
36.4562831249
 30
0.0
  0
SPLINE
  5
266
100
AcDbEntity
  8
0
100
AcDbSpline
 62
7
  6
CONTINUOUS
 70
2
 71
3
 72
50
 73
46
 74
0
 42
0.0000001
 43
0.0000001
 44
0.0000000001
 40
0.0
 40
0.0
 40
0.0
 40
0.0
 40
1.0
 40
1.0
 40
1.0
 40
2.0
 40
2.0
 40
2.0
 40
3.0
 40
3.0
 40
3.0
 40
4.0
 40
4.0
 40
4.0
 40
5.0
 40
5.0
 40
5.0
 40
6.0
 40
6.0
 40
6.0
 40
7.0
 40
7.0
 40
7.0
 40
8.0
 40
8.0
 40
8.0
 40
9.0
 40
9.0
 40
9.0
 40
10.0
 40
10.0
 40
10.0
 40
11.0
 40
11.0
 40
11.0
 40
12.0
 40
12.0
 40
12.0
 40
13.0
 40
13.0
 40
13.0
 40
14.0
 40
14.0
 40
14.0
 40
15.0
 40
15.0
 40
15.0
 40
15.0
 10
336.6378146034
 20
29.6576939068
 30
0.0
 10
336.6378146034
 20
29.6576939068
 30
0.0
 10
338.247042608
 20
29.6576939068
 30
0.0
 10
338.247042608
 20
29.6576939068
 30
0.0
 10
338.247042608
 20
29.6576939068
 30
0.0
 10
336.3740153144
 20
31.9748356782
 30
0.0
 10
336.3740153144
 20
31.9748356782
 30
0.0
 10
336.3740153144
 20
31.9748356782
 30
0.0
 10
337.6503537398
 20
33.4723153728
 30
0.0
 10
337.6503537398
 20
33.4723153728
 30
0.0
 10
337.6503537398
 20
33.4723153728
 30
0.0
 10
336.8181297921
 20
34.3333269413
 30
0.0
 10
336.8181297921
 20
34.3333269413
 30
0.0
 10
336.8181297921
 20
34.3333269413
 30
0.0
 10
335.5975346688
 20
32.9180228189
 30
0.0
 10
335.5975346688
 20
32.9180228189
 30
0.0
 10
335.5975346688
 20
32.9180228189
 30
0.0
 10
333.4196203
 20
35.5533986534
 30
0.0
 10
333.4196203
 20
35.5533986534
 30
0.0
 10
334.2931937394
 20
36.1914370133
 30
0.0
 10
335.3198649806
 20
36.9824423221
 30
0.0
 10
335.3198649806
 20
38.1612953952
 30
0.0
 10
335.3198649806
 20
39.5349883202
 30
0.0
 10
334.1819688408
 20
40.3394714696
 30
0.0
 10
332.9066772379
 20
40.3394714696
 30
0.0
 10
331.5332460185
 20
40.3394714696
 30
0.0
 10
330.4923118197
 20
39.49324627
 30
0.0
 10
330.4923118197
 20
38.0505939078
 30
0.0
 10
330.4923118197
 20
37.1630192164
 30
0.0
 10
331.0476511962
 20
36.3861460124
 30
0.0
 10
331.6438166531
 20
35.7617163459
 30
0.0
 10
331.6438166531
 20
35.7617163459
 30
0.0
 10
330.991907894
 20
35.2901227756
 30
0.0
 10
330.991907894
 20
35.2901227756
 30
0.0
 10
329.9933700096
 20
34.5688620209
 30
0.0
 10
329.1604917978
 20
33.8476012662
 30
0.0
 10
329.1604917978
 20
32.5160429498
 30
0.0
 10
329.1604917978
 20
30.7123676518
 30
0.0
 10
330.6175379704
 20
29.4357675207
 30
0.0
 10
332.3650774077
 20
29.4357675207
 30
0.0
 10
333.5999354886
 20
29.4357675207
 30
0.0
 10
334.7093057133
 20
30.1439429932
 30
0.0
 10
335.5001801693
 20
31.0724746179
 30
0.0
 10
335.5001801693
 20
31.0724746179
 30
0.0
 10
336.6378146034
 20
29.6576939068
 30
0.0
 10
336.6378146034
 20
29.6576939068
 30
0.0
  0
LINE
  5
267
100
AcDbEntity
  8
0
100
AcDbLine
 62
7
  6
CONTINUOUS
 10
322.4406759784
 20
27.6315688114
 11
344.8545867061
 21
27.6315688114
  0
LINE
  5
268
100
AcDbEntity
  8
0
100
AcDbLine
 62
7
  6
CONTINUOUS
 10
344.8545867061
 20
27.6315688114
 11
344.8545867061
 21
50.0454795391
  0
LINE
  5
269
100
AcDbEntity
  8
0
100
AcDbLine
 62
7
  6
CONTINUOUS
 10
344.8545867061
 20
50.0454795391
 11
322.4406759784
 21
50.0454795391
  0
LINE
  5
26A
100
AcDbEntity
  8
0
100
AcDbLine
 62
7
  6
CONTINUOUS
 10
322.4406759784
 20
50.0454795391
 11
322.4406759784
 21
27.6315688114
  0
ENDBLK
  5
26B
100
AcDbEntity
  8
0
  6
BYBLOCK
 62
0
100
AcDbBlockEnd
  0
BLOCK
  5
26C
100
AcDbEntity
  8
0
100
AcDbBlockBegin
  2
_CLOSED
 70
64
 10
0.0
 20
0.0
  3
_CLOSED
  1

  0
LINE
  5
26D
100
AcDbEntity
  8
0
  6
BYBLOCK
 62
0
100
AcDbLine
 10
0.0
 20
0.0
 11
-1.0
 21
0.2
  0
LINE
  5
26E
100
AcDbEntity
  8
0
  6
BYBLOCK
 62
0
100
AcDbLine
 10
-1.0
 20
0.2
 11
-1.0
 21
-0.2
  0
LINE
  5
26F
100
AcDbEntity
  8
0
  6
BYBLOCK
 62
0
100
AcDbLine
 10
-1.0
 20
-0.2
 11
0.0
 21
0.0
  0
LINE
  5
270
100
AcDbEntity
  8
0
  6
BYBLOCK
 62
0
100
AcDbLine
 10
-1.0
 20
0.0
 11
0.0
 21
0.0
  0
ENDBLK
  5
271
100
AcDbEntity
  8
0
  6
BYBLOCK
 62
0
100
AcDbBlockEnd
  0
BLOCK
  5
272
100
AcDbEntity
  8
0
100
AcDbBlockBegin
 62
2
  6
CONTINUOUS
  2
*D0
 70
65
 10
0.0
 20
0.0
  3
*D0
  1

  0
MTEXT
  5
273
100
AcDbEntity
  8
0
100
AcDbMText
 62
2
  6
CONTINUOUS
  7
STANDARD
 71
2
 72
1
 10
152.1120103005
 20
101.3945355951
 30
0.0
 11
0.0
 21
1.0
 31
0.0
  1
71,1
 40
3.0
 41
8.1524163569
  0
LINE
  5
274
100
AcDbEntity
  8
0
100
AcDbLine
 62
2
  6
CONTINUOUS
 10
148.0590389321
 20
136.9445355951
 11
156.6120103005
 21
136.9445355951
  0
LINE
  5
275
100
AcDbEntity
  8
0
100
AcDbLine
 62
2
  6
CONTINUOUS
 10
147.9298714127
 20
65.8445355951
 11
156.6120103005
 21
65.8445355951
  0
LINE
  5
276
100
AcDbEntity
  8
0
100
AcDbLine
 62
2
  6
CONTINUOUS
 10
155.8620103005
 20
136.9445355951
 11
155.8620103005
 21
101.3945355951
  0
LINE
  5
277
100
AcDbEntity
  8
0
100
AcDbLine
 62
2
  6
CONTINUOUS
 10
155.8620103005
 20
65.8445355951
 11
155.8620103005
 21
101.3945355951
  0
INSERT
  5
278
100
AcDbEntity
  8
0
100
AcDbBlockReference
 62
2
  6
CONTINUOUS
  2
_CLOSED
 10
155.8620103005
 20
136.9445355951
 41
2.5
 42
2.5
 43
2.5
 50
90.0
  0
INSERT
  5
279
100
AcDbEntity
  8
0
100
AcDbBlockReference
 62
2
  6
CONTINUOUS
  2
_CLOSED
 10
155.8620103005
 20
65.8445355951
 41
2.5
 42
2.5
 43
2.5
 50
270.0
  0
ENDBLK
  5
27A
100
AcDbEntity
  8
0
  6
BYBLOCK
 62
0
100
AcDbBlockEnd
  0
BLOCK
  5
27B
100
AcDbEntity
  8
0
100
AcDbBlockBegin
 62
2
  6
CONTINUOUS
  2
*D1
 70
65
 10
0.0
 20
0.0
  3
*D1
  1

  0
MTEXT
  5
27C
100
AcDbEntity
  8
0
100
AcDbMText
 62
2
  6
CONTINUOUS
  7
STANDARD
 71
2
 72
1
 10
98.0506117909
 20
50.6645362377
 30
0.0
 11
1.0
 21
0.0
 31
0.0
  1
71,1
 40
3.0
 41
8.1524163569
  0
LINE
  5
27D
100
AcDbEntity
  8
0
100
AcDbLine
 62
2
  6
CONTINUOUS
 10
62.5006117909
 20
54.8736314794
 11
62.5006117909
 21
46.1645362377
  0
LINE
  5
27E
100
AcDbEntity
  8
0
100
AcDbLine
 62
2
  6
CONTINUOUS
 10
133.6006117909
 20
54.6152964405
 11
133.6006117909
 21
46.1645362377
  0
LINE
  5
27F
100
AcDbEntity
  8
0
100
AcDbLine
 62
2
  6
CONTINUOUS
 10
62.5006117909
 20
46.9145362377
 11
98.0506117909
 21
46.9145362377
  0
LINE
  5
280
100
AcDbEntity
  8
0
100
AcDbLine
 62
2
  6
CONTINUOUS
 10
133.6006117909
 20
46.9145362377
 11
98.0506117909
 21
46.9145362377
  0
INSERT
  5
281
100
AcDbEntity
  8
0
100
AcDbBlockReference
 62
2
  6
CONTINUOUS
  2
_CLOSED
 10
62.5006117909
 20
46.9145362377
 41
2.5
 42
2.5
 43
2.5
 50
180.0
  0
INSERT
  5
282
100
AcDbEntity
  8
0
100
AcDbBlockReference
 62
2
  6
CONTINUOUS
  2
_CLOSED
 10
133.6006117909
 20
46.9145362377
 41
2.5
 42
2.5
 43
2.5
  0
ENDBLK
  5
283
100
AcDbEntity
  8
0
  6
BYBLOCK
 62
0
100
AcDbBlockEnd
  0
BLOCK
  5
284
100
AcDbEntity
  8
0
100
AcDbBlockBegin
 62
2
  6
CONTINUOUS
  2
*D2
 70
65
 10
0.0
 20
0.0
  3
*D2
  1

  0
MTEXT
  5
285
100
AcDbEntity
  8
0
100
AcDbMText
 62
2
  6
CONTINUOUS
  7
STANDARD
 71
2
 72
1
 10
98.0506117909
 20
176.430003219
 30
0.0
 11
1.0
 21
0.0
 31
0.0
  1
Ø58
 40
3.0
 41
7.9182156134
  0
LINE
  5
286
100
AcDbEntity
  8
0
100
AcDbLine
 62
2
  6
CONTINUOUS
 10
69.0506117909
 20
183.4377618489
 11
69.0506117909
 21
171.930003219
  0
LINE
  5
287
100
AcDbEntity
  8
0
100
AcDbLine
 62
2
  6
CONTINUOUS
 10
127.0506117909
 20
183.0502274481
 11
127.0506117909
 21
171.930003219
  0
LINE
  5
288
100
AcDbEntity
  8
0
100
AcDbLine
 62
2
  6
CONTINUOUS
 10
69.0506117909
 20
172.680003219
 11
98.0506117909
 21
172.680003219
  0
LINE
  5
289
100
AcDbEntity
  8
0
100
AcDbLine
 62
2
  6
CONTINUOUS
 10
127.0506117909
 20
172.680003219
 11
98.0506117909
 21
172.680003219
  0
INSERT
  5
28A
100
AcDbEntity
  8
0
100
AcDbBlockReference
 62
2
  6
CONTINUOUS
  2
_CLOSED
 10
69.0506117909
 20
172.680003219
 41
2.5
 42
2.5
 43
2.5
 50
180.0
  0
INSERT
  5
28B
100
AcDbEntity
  8
0
100
AcDbBlockReference
 62
2
  6
CONTINUOUS
  2
_CLOSED
 10
127.0506117909
 20
172.680003219
 41
2.5
 42
2.5
 43
2.5
  0
ENDBLK
  5
28C
100
AcDbEntity
  8
0
  6
BYBLOCK
 62
0
100
AcDbBlockEnd
  0
BLOCK
  5
28D
100
AcDbEntity
  8
0
100
AcDbBlockBegin
 62
2
  6
CONTINUOUS
  2
*D3
 70
65
 10
0.0
 20
0.0
  3
*D3
  1

  0
MTEXT
  5
28E
100
AcDbEntity
  8
0
100
AcDbMText
 62
2
  6
CONTINUOUS
  7
STANDARD
 71
2
 72
1
 10
150.740751464
 20
255.7753754171
 30
0.0
 11
0.0
 21
1.0
 31
0.0
  1
11,6
 40
3.0
 41
8.1524163569
  0
LINE
  5
28F
100
AcDbEntity
  8
0
100
AcDbLine
 62
2
  6
CONTINUOUS
 10
145.490155305
 20
261.5753754171
 11
155.240751464
 21
261.5753754171
  0
LINE
  5
290
100
AcDbEntity
  8
0
100
AcDbLine
 62
2
  6
CONTINUOUS
 10
145.8869579248
 20
249.9753754171
 11
155.240751464
 21
249.9753754171
  0
LINE
  5
291
100
AcDbEntity
  8
0
100
AcDbLine
 62
2
  6
CONTINUOUS
 10
154.490751464
 20
261.5753754171
 11
154.490751464
 21
255.7753754171
  0
LINE
  5
292
100
AcDbEntity
  8
0
100
AcDbLine
 62
2
  6
CONTINUOUS
 10
154.490751464
 20
249.9753754171
 11
154.490751464
 21
255.7753754171
  0
INSERT
  5
293
100
AcDbEntity
  8
0
100
AcDbBlockReference
 62
2
  6
CONTINUOUS
  2
_CLOSED
 10
154.490751464
 20
261.5753754171
 41
2.5
 42
2.5
 43
2.5
 50
90.0
  0
INSERT
  5
294
100
AcDbEntity
  8
0
100
AcDbBlockReference
 62
2
  6
CONTINUOUS
  2
_CLOSED
 10
154.490751464
 20
249.9753754171
 41
2.5
 42
2.5
 43
2.5
 50
270.0
  0
ENDBLK
  5
295
100
AcDbEntity
  8
0
  6
BYBLOCK
 62
0
100
AcDbBlockEnd
  0
BLOCK
  5
296
100
AcDbEntity
  8
0
100
AcDbBlockBegin
 62
2
  6
CONTINUOUS
  2
*D4
 70
65
 10
0.0
 20
0.0
  3
*D4
  1

  0
MTEXT
  5
297
100
AcDbEntity
  8
0
100
AcDbMText
 62
2
  6
CONTINUOUS
  7
STANDARD
 71
2
 72
1
 10
150.740751464
 20
226.9753754171
 30
0.0
 11
0.0
 21
1.0
 31
0.0
  1
46
 40
3.0
 41
4.6617100372
  0
LINE
  5
298
100
AcDbEntity
  8
0
100
AcDbLine
 62
2
  6
CONTINUOUS
 10
145.7340235817
 20
249.9753754171
 11
155.240751464
 21
249.9753754171
  0
LINE
  5
299
100
AcDbEntity
  8
0
100
AcDbLine
 62
2
  6
CONTINUOUS
 10
146.0382464764
 20
203.9753754171
 11
155.240751464
 21
203.9753754171
  0
LINE
  5
29A
100
AcDbEntity
  8
0
100
AcDbLine
 62
2
  6
CONTINUOUS
 10
154.490751464
 20
249.9753754171
 11
154.490751464
 21
226.9753754171
  0
LINE
  5
29B
100
AcDbEntity
  8
0
100
AcDbLine
 62
2
  6
CONTINUOUS
 10
154.490751464
 20
203.9753754171
 11
154.490751464
 21
226.9753754171
  0
INSERT
  5
29C
100
AcDbEntity
  8
0
100
AcDbBlockReference
 62
2
  6
CONTINUOUS
  2
_CLOSED
 10
154.490751464
 20
249.9753754171
 41
2.5
 42
2.5
 43
2.5
 50
90.0
  0
INSERT
  5
29D
100
AcDbEntity
  8
0
100
AcDbBlockReference
 62
2
  6
CONTINUOUS
  2
_CLOSED
 10
154.490751464
 20
203.9753754171
 41
2.5
 42
2.5
 43
2.5
 50
270.0
  0
ENDBLK
  5
29E
100
AcDbEntity
  8
0
  6
BYBLOCK
 62
0
100
AcDbBlockEnd
  0
BLOCK
  5
29F
100
AcDbEntity
  8
0
100
AcDbBlockBegin
 62
2
  6
CONTINUOUS
  2
*D5
 70
65
 10
0.0
 20
0.0
  3
*D5
  1

  0
MTEXT
  5
2A0
100
AcDbEntity
  8
0
100
AcDbMText
 62
2
  6
CONTINUOUS
  7
STANDARD
 71
2
 72
1
 10
288.2116938348
 20
224.7753754171
 30
0.0
 11
0.0
 21
1.0
 31
0.0
  1
73,6
 40
3.0
 41
8.1524163569
  0
LINE
  5
2A1
100
AcDbEntity
  8
0
100
AcDbLine
 62
2
  6
CONTINUOUS
 10
283.9581539489
 20
261.5753754171
 11
292.7116938348
 21
261.5753754171
  0
LINE
  5
2A2
100
AcDbEntity
  8
0
100
AcDbLine
 62
2
  6
CONTINUOUS
 10
284.2332716351
 20
187.9753754171
 11
292.7116938348
 21
187.9753754171
  0
LINE
  5
2A3
100
AcDbEntity
  8
0
100
AcDbLine
 62
2
  6
CONTINUOUS
 10
291.9616938348
 20
261.5753754171
 11
291.9616938348
 21
224.7753754171
  0
LINE
  5
2A4
100
AcDbEntity
  8
0
100
AcDbLine
 62
2
  6
CONTINUOUS
 10
291.9616938348
 20
187.9753754171
 11
291.9616938348
 21
224.7753754171
  0
INSERT
  5
2A5
100
AcDbEntity
  8
0
100
AcDbBlockReference
 62
2
  6
CONTINUOUS
  2
_CLOSED
 10
291.9616938348
 20
261.5753754171
 41
2.5
 42
2.5
 43
2.5
 50
90.0
  0
INSERT
  5
2A6
100
AcDbEntity
  8
0
100
AcDbBlockReference
 62
2
  6
CONTINUOUS
  2
_CLOSED
 10
291.9616938348
 20
187.9753754171
 41
2.5
 42
2.5
 43
2.5
 50
270.0
  0
ENDBLK
  5
2A7
100
AcDbEntity
  8
0
  6
BYBLOCK
 62
0
100
AcDbBlockEnd
  0
ENDSEC
  0
SECTION
  2
ENTITIES
  0
DIMENSION
  5
2A8
100
AcDbEntity
  8
0
100
AcDbDimension
 62
2
  6
CONTINUOUS
  2
*D0
 10
155.8620103005
 20
65.8445355951
 11
155.8620103005
 21
101.106250893
 70
160
  3
DIMSTYLE_1
100
AcDbAlignedDimension
 13
147.3090389321
 23
136.9445355951
 14
147.1798714127
 24
65.8445355951
 50
270.0
100
AcDbRotatedDimension
  0
DIMENSION
  5
2A9
100
AcDbEntity
  8
0
100
AcDbDimension
 62
2
  6
CONTINUOUS
  2
*D1
 10
133.6006117909
 20
46.9145362377
 11
97.762331543
 21
46.9145362377
 70
160
  3
DIMSTYLE_1
100
AcDbAlignedDimension
 13
62.5006117909
 23
55.6236314794
 14
133.6006117909
 24
55.3652964405
100
AcDbRotatedDimension
  0
DIMENSION
  5
2AA
100
AcDbEntity
  8
0
100
AcDbDimension
 62
2
  6
CONTINUOUS
  2
*D2
 10
127.0506117909
 20
172.680003219
 11
98.0506117909
 21
172.680003219
 70
160
  1
Ø<>
  3
DIMSTYLE_1
100
AcDbAlignedDimension
 13
69.0506117909
 23
184.1877618489
 14
127.0506117909
 24
183.8002274481
100
AcDbRotatedDimension
  0
DIMENSION
  5
2AB
100
AcDbEntity
  8
0
100
AcDbDimension
 62
2
  6
CONTINUOUS
  2
*D3
 10
154.490751464
 20
249.9753754171
 11
154.490751464
 21
255.9053066438
 70
160
  3
DIMSTYLE_2
100
AcDbAlignedDimension
 13
144.740155305
 23
261.5753754171
 14
145.1369579248
 24
249.9753754171
 50
270.0
100
AcDbRotatedDimension
  0
DIMENSION
  5
2AC
100
AcDbEntity
  8
0
100
AcDbDimension
 62
2
  6
CONTINUOUS
  2
*D4
 10
154.490751464
 20
203.9753754171
 11
154.490751464
 21
226.9004116957
 70
160
  3
DIMSTYLE_1
100
AcDbAlignedDimension
 13
144.9840235817
 23
249.9753754171
 14
145.2882464764
 24
203.9753754171
 50
270.0
100
AcDbRotatedDimension
  0
DIMENSION
  5
2AD
100
AcDbEntity
  8
0
100
AcDbDimension
 62
2
  6
CONTINUOUS
  2
*D5
 10
291.9616938348
 20
187.9753754171
 11
291.9616938348
 21
224.7770559234
 70
160
  3
DIMSTYLE_1
100
AcDbAlignedDimension
 13
283.2081539489
 23
261.5753754171
 14
283.4832716351
 24
187.9753754171
 50
270.0
100
AcDbRotatedDimension
  0
LINE
  5
2AE
100
AcDbEntity
  8
0
100
AcDbLine
 62
2
  6
CONTINUOUS
 10
319.8215188711
 20
50.4217920391
 11
409.8215188711
 21
50.4217920391
  0
LINE
  5
2AF
100
AcDbEntity
  8
0
100
AcDbLine
 62
2
  6
CONTINUOUS
 10
319.8215188711
 20
50.4217920391
 11
319.8215188711
 21
10.4217920391
  0
LINE
  5
2B0
100
AcDbEntity
  8
0
100
AcDbLine
 62
2
  6
CONTINUOUS
 10
349.8215188711
 20
44.4217920391
 11
409.8215188711
 21
44.4217920391
  0
LINE
  5
2B1
100
AcDbEntity
  8
0
100
AcDbLine
 62
2
  6
CONTINUOUS
 10
349.8215188711
 20
38.4217920391
 11
409.8215188711
 21
38.4217920391
  0
LINE
  5
2B2
100
AcDbEntity
  8
0
100
AcDbLine
 62
2
  6
CONTINUOUS
 10
349.8215188711
 20
28.4217920391
 11
409.8215188711
 21
28.4217920391
  0
LINE
  5
2B3
100
AcDbEntity
  8
0
100
AcDbLine
 62
2
  6
CONTINUOUS
 10
319.8215188711
 20
23.4217920391
 11
409.8215188711
 21
23.4217920391
  0
LINE
  5
2B4
100
AcDbEntity
  8
0
100
AcDbLine
 62
2
  6
CONTINUOUS
 10
319.8215188711
 20
10.4217920391
 11
409.8215188711
 21
10.4217920391
  0
LINE
  5
2B5
100
AcDbEntity
  8
0
100
AcDbLine
 62
2
  6
CONTINUOUS
 10
349.8215188711
 20
50.4217920391
 11
349.8215188711
 21
23.4217920391
  0
LINE
  5
2B6
100
AcDbEntity
  8
0
100
AcDbLine
 62
2
  6
CONTINUOUS
 10
389.8215188711
 20
50.4217920391
 11
389.8215188711
 21
38.4217920391
  0
LINE
  5
2B7
100
AcDbEntity
  8
0
100
AcDbLine
 62
2
  6
CONTINUOUS
 10
409.8215188711
 20
50.4217920391
 11
409.8215188711
 21
10.4217920391
  0
INSERT
  5
2B8
100
AcDbEntity
  8
0
100
AcDbBlockReference
 62
2
  6
CONTINUOUS
  2
LOGO2_BL0
 10
333.6475659158
 20
36.9217920391
  0
MTEXT
  5
2B9
100
AcDbEntity
  8
9_SOLID
100
AcDbMText
 62
2
  6
CONTINUOUS
  7
TEXTSTYLE_2
 71
1
 72
1
 10
351.3090188711
 20
48.9217920391
 30
0.0
 11
1.0
 21
0.0
 31
0.0
  1
2F3_C_001
 40
3.0
 41
31.2857142857
  0
MTEXT
  5
2BA
100
AcDbEntity
  8
0
100
AcDbMText
 62
2
  6
CONTINUOUS
  7
TEXTSTYLE_2
 71
1
 72
1
 10
391.3090188711
 20
49.1717920391
 30
0.0
 11
1.0
 21
0.0
 31
0.0
  1
Rev:00
 40
3.5
 41
22.75
  0
MTEXT
  5
2BB
100
AcDbEntity
  8
9_SOLID
100
AcDbMText
 62
2
  6
CONTINUOUS
  7
TEXTSTYLE_2
 71
1
 72
1
 10
351.3090188711
 20
42.6717920391
 30
0.0
 11
1.0
 21
0.0
 31
0.0
  1
Scale:1:1
 40
3.5
 41
28.375
  0
MTEXT
  5
2BC
100
AcDbEntity
  8
9_SOLID
100
AcDbMText
 62
2
  6
CONTINUOUS
  7
TEXTSTYLE_2
 71
1
 72
1
 10
391.3090188711
 20
43.1717920391
 30
0.0
 11
1.0
 21
0.0
 31
0.0
  1
A3
 40
3.5
 41
9.25
  0
MTEXT
  5
2BD
100
AcDbEntity
  8
0
100
AcDbMText
 62
2
  6
CONTINUOUS
  7
TEXTSTYLE_2
 71
1
 72
1
 10
351.3090188711
 20
35.1717920391
 30
0.0
 11
1.0
 21
0.0
 31
0.0
  1
Litus 2.5
 40
3.5
 41
32.625
  0
MTEXT
  5
2BE
100
AcDbEntity
  8
0
100
AcDbMText
 62
2
  6
CONTINUOUS
  7
TEXTSTYLE_2
 71
1
 72
1
 10
351.3090188711
 20
27.1717920391
 30
0.0
 11
1.0
 21
0.0
 31
0.0
  1
DATE:29/05/2018
 40
2.5
 41
42.7678571429
  0
MTEXT
  5
2BF
100
AcDbEntity
  8
9_SOLID
100
AcDbMText
 62
2
  6
CONTINUOUS
  7
TEXTSTYLE_2
 71
1
 72
1
 10
321.3090188711
 20
23.1092920391
 30
0.0
 11
1.0
 21
0.0
 31
0.0
  1
Any integral or partial reproductions are prohibited \Pwithout prior authorisation of L {\Ftxt.shx;\W0.190476;\H2.250000; }& L Luce & Light s.r.l., \Pin accordance with the law in force. \PAll rights reserved.
 40
2.25
 41
134.5982142857
  0
LINE
  5
2C0
100
AcDbEntity
  8
0
100
AcDbLine
 62
7
  6
CONTINUOUS
 10
0.0
 20
0.0
 11
0.0
 21
297.0
  0
LINE
  5
2C1
100
AcDbEntity
  8
0
100
AcDbLine
 62
7
  6
CONTINUOUS
 10
0.0
 20
0.0
 11
420.0
 21
0.0
  0
LINE
  5
2C2
100
AcDbEntity
  8
0
100
AcDbLine
 62
7
  6
CONTINUOUS
 10
0.0
 20
297.0
 11
420.0
 21
297.0
  0
LINE
  5
2C3
100
AcDbEntity
  8
0
100
AcDbLine
 62
7
  6
CONTINUOUS
 10
420.0
 20
0.0
 11
420.0
 21
297.0
  0
LINE
  5
2C4
100
AcDbEntity
  8
7_ALL_FEATURES
100
AcDbLine
 62
7
  6
CONTINUOUS
 10
62.5006117909
 20
136.4445355951
 11
63.0006117909
 21
136.9445355951
  0
LINE
  5
2C5
100
AcDbEntity
  8
7_ALL_FEATURES
100
AcDbLine
 62
7
  6
CONTINUOUS
 10
63.0006117909
 20
65.8445355951
 11
62.5006117909
 21
66.3445355951
  0
LINE
  5
2C6
100
AcDbEntity
  8
7_ALL_FEATURES
100
AcDbLine
 62
7
  6
CONTINUOUS
 10
62.5006117909
 20
136.4445355951
 11
62.5006117909
 21
66.3445355951
  0
LINE
  5
2C7
100
AcDbEntity
  8
7_ALL_FEATURES
100
AcDbLine
 62
7
  6
CONTINUOUS
 10
63.0006117909
 20
136.4445355951
 11
63.0006117909
 21
66.3445355951
  0
LINE
  5
2C8
100
AcDbEntity
  8
7_ALL_FEATURES
100
AcDbLine
 62
7
  6
CONTINUOUS
 10
63.0006117909
 20
65.8445355951
 11
133.1006117909
 21
65.8445355951
  0
LINE
  5
2C9
100
AcDbEntity
  8
7_ALL_FEATURES
100
AcDbLine
 62
7
  6
CONTINUOUS
 10
63.0006117909
 20
66.3445355951
 11
133.1006117909
 21
66.3445355951
  0
LINE
  5
2CA
100
AcDbEntity
  8
7_ALL_FEATURES
100
AcDbLine
 62
7
  6
CONTINUOUS
 10
133.3506117909
 20
136.6945355951
 11
133.1006117909
 21
136.4445355951
  0
LINE
  5
2CB
100
AcDbEntity
  8
7_ALL_FEATURES
100
AcDbLine
 62
7
  6
CONTINUOUS
 10
62.7506117909
 20
66.0945355951
 11
63.0006117909
 21
66.3445355951
  0
LINE
  5
2CC
100
AcDbEntity
  8
7_ALL_FEATURES
100
AcDbLine
 62
7
  6
CONTINUOUS
 10
62.7506117909
 20
136.6945355951
 11
63.0006117909
 21
136.4445355951
  0
LINE
  5
2CD
100
AcDbEntity
  8
7_ALL_FEATURES
100
AcDbLine
 62
7
  6
CONTINUOUS
 10
133.1006117909
 20
66.3445355951
 11
133.3506117909
 21
66.0945355951
  0
LINE
  5
2CE
100
AcDbEntity
  8
7_ALL_FEATURES
100
AcDbLine
 62
7
  6
CONTINUOUS
 10
133.1006117909
 20
66.3445355951
 11
133.1006117909
 21
136.4445355951
  0
LINE
  5
2CF
100
AcDbEntity
  8
7_ALL_FEATURES
100
AcDbLine
 62
7
  6
CONTINUOUS
 10
133.6006117909
 20
66.3445355951
 11
133.6006117909
 21
136.4445355951
  0
LINE
  5
2D0
100
AcDbEntity
  8
7_ALL_FEATURES
100
AcDbLine
 62
7
  6
CONTINUOUS
 10
133.1006117909
 20
136.4445355951
 11
63.0006117909
 21
136.4445355951
  0
LINE
  5
2D1
100
AcDbEntity
  8
7_ALL_FEATURES
100
AcDbLine
 62
7
  6
CONTINUOUS
 10
133.1006117909
 20
136.9445355951
 11
63.0006117909
 21
136.9445355951
  0
LINE
  5
2D2
100
AcDbEntity
  8
7_ALL_FEATURES
100
AcDbLine
 62
7
  6
CONTINUOUS
 10
133.6006117909
 20
66.3445355951
 11
133.1006117909
 21
65.8445355951
  0
LINE
  5
2D3
100
AcDbEntity
  8
7_ALL_FEATURES
100
AcDbLine
 62
7
  6
CONTINUOUS
 10
133.6006117909
 20
136.4445355951
 11
133.1006117909
 21
136.9445355951
  0
LINE
  5
2D4
100
AcDbEntity
  8
7_ALL_FEATURES
100
AcDbLine
 62
7
  6
CONTINUOUS
 10
62.5006117909
 20
261.0753754171
 11
63.0006117909
 21
261.5753754171
  0
LINE
  5
2D5
100
AcDbEntity
  8
7_ALL_FEATURES
100
AcDbLine
 62
7
  6
CONTINUOUS
 10
62.7506117909
 20
255.8253754171
 11
63.0006117909
 21
256.0753754171
  0
LINE
  5
2D6
100
AcDbEntity
  8
7_ALL_FEATURES
100
AcDbLine
 62
7
  6
CONTINUOUS
 10
62.5006117909
 20
253.9753754171
 11
63.0006117909
 21
254.4753754171
  0
LINE
  5
2D7
100
AcDbEntity
  8
7_ALL_FEATURES
100
AcDbLine
 62
7
  6
CONTINUOUS
 10
62.7506117909
 20
250.2253754171
 11
63.0006117909
 21
250.4753754171
  0
LINE
  5
2D8
100
AcDbEntity
  8
7_ALL_FEATURES
100
AcDbLine
 62
7
  6
CONTINUOUS
 10
62.5006117909
 20
250.4753754171
 11
62.5006117909
 21
253.9753754171
  0
LINE
  5
2D9
100
AcDbEntity
  8
7_ALL_FEATURES
100
AcDbLine
 62
7
  6
CONTINUOUS
 10
62.5006117909
 20
256.0753754171
 11
62.5006117909
 21
261.0753754171
  0
LINE
  5
2DA
100
AcDbEntity
  8
7_ALL_FEATURES
100
AcDbLine
 62
7
  6
CONTINUOUS
 10
63.0006117909
 20
250.4753754171
 11
63.0006117909
 21
253.9753754171
  0
LINE
  5
2DB
100
AcDbEntity
  8
7_ALL_FEATURES
100
AcDbLine
 62
7
  6
CONTINUOUS
 10
63.0006117909
 20
256.0753754171
 11
63.0006117909
 21
261.0753754171
  0
LINE
  5
2DC
100
AcDbEntity
  8
7_ALL_FEATURES
100
AcDbLine
 62
7
  6
CONTINUOUS
 10
63.3006117909
 20
255.5753754171
 11
63.3006117909
 21
254.4753754171
  0
LINE
  5
2DD
100
AcDbEntity
  8
3_ALL_AXES
100
AcDbLine
 62
7
  6
CONTINUOUS
 10
94.5536016365
 20
187.9753754171
 11
95.5757380567
 21
187.9753754171
  0
LINE
  5
2DE
100
AcDbEntity
  8
7_ALL_FEATURES
100
AcDbLine
 62
7
  6
CONTINUOUS
 10
94.5506117909
 20
187.9753754171
 11
101.5506117909
 21
187.9753754171
  0
LINE
  5
2DF
100
AcDbEntity
  8
3_ALL_AXES
100
AcDbLine
 62
7
  6
CONTINUOUS
 10
100.525485525
 20
187.9753754171
 11
101.5476219452
 21
187.9753754171
  0
LINE
  5
2E0
100
AcDbEntity
  8
7_ALL_FEATURES
100
AcDbLine
 62
7
  6
CONTINUOUS
 10
69.8006342378
 20
203.9753754171
 11
69.0506117909
 21
204.725397444
  0
LINE
  5
2E1
100
AcDbEntity
  8
7_ALL_FEATURES
100
AcDbLine
 62
9
  6
CONTINUOUS
 10
65.3006117909
 20
255.5753754171
 11
65.3006117909
 21
254.4753754171
  0
LINE
  5
2E2
100
AcDbEntity
  8
3_ALL_AXES
100
AcDbLine
 62
9
  6
CONTINUOUS
 10
105.0506117909
 20
191.4753754171
 11
105.0015612659
 21
191.4753754171
  0
LINE
  5
2E3
100
AcDbEntity
  8
3_ALL_AXES
100
AcDbLine
 62
9
  6
CONTINUOUS
 10
91.0506117909
 20
191.4753754171
 11
92.4445255241
 21
191.4753754171
  0
LINE
  5
2E4
100
AcDbEntity
  8
3_ALL_AXES
100
AcDbLine
 62
9
  6
CONTINUOUS
 10
93.8587390865
 20
191.4753754171
 11
98.8778369089
 21
191.4753754171
  0
LINE
  5
2E5
100
AcDbEntity
  8
3_ALL_AXES
100
AcDbLine
 62
9
  6
CONTINUOUS
 10
100.8096885615
 20
191.4753754171
 11
104.4839231757
 21
191.4753754171
  0
LINE
  5
2E6
100
AcDbEntity
  8
3_ALL_AXES
100
AcDbLine
 62
7
  6
CONTINUOUS
 10
105.0506117909
 20
191.9753754171
 11
105.0015612659
 21
191.9753754171
  0
LINE
  5
2E7
100
AcDbEntity
  8
3_ALL_AXES
100
AcDbLine
 62
7
  6
CONTINUOUS
 10
91.0506117909
 20
191.9753754171
 11
92.4445255241
 21
191.9753754171
  0
LINE
  5
2E8
100
AcDbEntity
  8
3_ALL_AXES
100
AcDbLine
 62
7
  6
CONTINUOUS
 10
93.8587390865
 20
191.9753754171
 11
98.8778369089
 21
191.9753754171
  0
LINE
  5
2E9
100
AcDbEntity
  8
3_ALL_AXES
100
AcDbLine
 62
7
  6
CONTINUOUS
 10
100.8096885615
 20
191.9753754171
 11
104.4839231757
 21
191.9753754171
  0
LINE
  5
2EA
100
AcDbEntity
  8
02___PRT_ALL_AXES
100
AcDbLine
 62
7
  6
CONTINUOUS
 10
69.0506117909
 20
249.4753754171
 11
69.0506117909
 21
234.2253754171
  0
LINE
  5
2EB
100
AcDbEntity
  8
02___PRT_ALL_AXES
100
AcDbLine
 62
7
  6
CONTINUOUS
 10
69.0506117909
 20
231.7253754171
 11
69.0506117909
 21
229.2253754171
  0
LINE
  5
2EC
100
AcDbEntity
  8
02___PRT_ALL_AXES
100
AcDbLine
 62
7
  6
CONTINUOUS
 10
69.0506117909
 20
226.7253754171
 11
69.0506117909
 21
224.2253754171
  0
LINE
  5
2ED
100
AcDbEntity
  8
02___PRT_ALL_AXES
100
AcDbLine
 62
7
  6
CONTINUOUS
 10
69.0506117909
 20
221.7253754171
 11
69.0506117909
 21
219.2253754171
  0
LINE
  5
2EE
100
AcDbEntity
  8
02___PRT_ALL_AXES
100
AcDbLine
 62
7
  6
CONTINUOUS
 10
69.0506117909
 20
216.7253754171
 11
69.0506117909
 21
214.2253754171
  0
LINE
  5
2EF
100
AcDbEntity
  8
02___PRT_ALL_AXES
100
AcDbLine
 62
7
  6
CONTINUOUS
 10
69.0506117909
 20
211.7253754171
 11
69.0506117909
 21
209.2253754171
  0
LINE
  5
2F0
100
AcDbEntity
  8
02___PRT_ALL_AXES
100
AcDbLine
 62
7
  6
CONTINUOUS
 10
69.0506117909
 20
206.7253754171
 11
69.0506117909
 21
204.725397444
  0
LINE
  5
2F1
100
AcDbEntity
  8
7_ALL_FEATURES
100
AcDbLine
 62
7
  6
CONTINUOUS
 10
70.6506117909
 20
234.2253754171
 11
70.6506117909
 21
231.7253754171
  0
LINE
  5
2F2
100
AcDbEntity
  8
7_ALL_FEATURES
100
AcDbLine
 62
7
  6
CONTINUOUS
 10
70.6506117909
 20
229.2253754171
 11
70.6506117909
 21
226.7253754171
  0
LINE
  5
2F3
100
AcDbEntity
  8
7_ALL_FEATURES
100
AcDbLine
 62
7
  6
CONTINUOUS
 10
70.6506117909
 20
224.2253754171
 11
70.6506117909
 21
221.7253754171
  0
LINE
  5
2F4
100
AcDbEntity
  8
7_ALL_FEATURES
100
AcDbLine
 62
7
  6
CONTINUOUS
 10
70.6506117909
 20
219.2253754171
 11
70.6506117909
 21
216.8973579483
  0
LINE
  5
2F5
100
AcDbEntity
  8
3_ALL_AXES
100
AcDbLine
 62
7
  6
CONTINUOUS
 10
105.7780184012
 20
197.4753754171
 11
90.3232051806
 21
197.4753754171
  0
LINE
  5
2F6
100
AcDbEntity
  8
7_ALL_FEATURES
100
AcDbLine
 62
4
  6
CONTINUOUS
 10
77.7705875278
 20
206.3540034444
 11
75.9110709052
 21
208.1797584313
  0
LINE
  5
2F7
100
AcDbEntity
  8
3_ALL_AXES
100
AcDbLine
 62
7
  6
CONTINUOUS
 10
91.0506117909
 20
191.9753754171
 11
90.8780080135
 21
192.1479791945
  0
LINE
  5
2F8
100
AcDbEntity
  8
7_ALL_FEATURES
100
AcDbLine
 62
3
  6
CONTINUOUS
 10
70.7273522747
 20
212.96680245
 11
74.0031719732
 21
204.0674519426
  0
LINE
  5
2F9
100
AcDbEntity
  8
7_ALL_FEATURES
100
AcDbLine
 62
4
  6
CONTINUOUS
 10
73.15351235
 20
211.1781596958
 11
75.1125458038
 21
205.8560946967
  0
LINE
  5
2FA
100
AcDbEntity
  8
7_ALL_FEATURES
100
AcDbLine
 62
7
  6
CONTINUOUS
 10
74.4554543183
 20
208.8258069662
 11
75.3054571669
 21
206.5166220972
  0
LINE
  5
2FB
100
AcDbEntity
  8
7_ALL_FEATURES
100
AcDbLine
 62
7
  6
CONTINUOUS
 10
73.162962175
 20
221.7253754171
 11
73.162962175
 21
219.2253754171
  0
LINE
  5
2FC
100
AcDbEntity
  8
7_ALL_FEATURES
100
AcDbLine
 62
7
  6
CONTINUOUS
 10
73.162962175
 20
206.3500322377
 11
73.162962175
 21
204.7253754171
  0
LINE
  5
2FD
100
AcDbEntity
  8
3_ALL_AXES
100
AcDbLine
 62
7
  6
CONTINUOUS
 10
105.7780184012
 20
200.4753754171
 11
90.3232051806
 21
200.4753754171
  0
LINE
  5
2FE
100
AcDbEntity
  8
3_ALL_AXES
100
AcDbLine
 62
7
  6
CONTINUOUS
 10
79.1150683948
 20
201.2753754171
 11
83.04502969
 21
201.2753754171
  0
LINE
  5
2FF
100
AcDbEntity
  8
3_ALL_AXES
100
AcDbLine
 62
7
  6
CONTINUOUS
 10
113.0561938917
 20
201.2753754171
 11
116.986155187
 21
201.2753754171
  0
LINE
  5
300
100
AcDbEntity
  8
7_ALL_FEATURES
100
AcDbLine
 62
7
  6
CONTINUOUS
 10
77.2838814431
 20
208.8258069662
 11
78.1338842916
 21
206.5166220972
  0
LINE
  5
301
100
AcDbEntity
  8
7_ALL_FEATURES
100
AcDbLine
 62
4
  6
CONTINUOUS
 10
79.3551864909
 20
205.8560946967
 11
77.3961530372
 21
211.1781596958
  0
LINE
  5
302
100
AcDbEntity
  8
3_ALL_AXES
100
AcDbLine
 62
7
  6
CONTINUOUS
 10
77.2800490424
 20
203.4753754171
 11
77.2800490424
 21
203.0953754171
  0
LINE
  5
303
100
AcDbEntity
  8
3_ALL_AXES
100
AcDbLine
 62
7
  6
CONTINUOUS
 10
77.2800490424
 20
203.0953754171
 11
84.8800490424
 21
203.0953754171
  0
LINE
  5
304
100
AcDbEntity
  8
3_ALL_AXES
100
AcDbLine
 62
7
  6
CONTINUOUS
 10
111.2211745394
 20
203.0953754171
 11
118.8211745394
 21
203.0953754171
  0
LINE
  5
305
100
AcDbEntity
  8
7_ALL_FEATURES
100
AcDbLine
 62
3
  6
CONTINUOUS
 10
121.4081190959
 20
203.4753754171
 11
108.4450814743
 21
203.4753754171
  0
LINE
  5
306
100
AcDbEntity
  8
3_ALL_AXES
100
AcDbLine
 62
7
  6
CONTINUOUS
 10
77.5934333855
 20
203.4753754171
 11
79.5709501792
 21
203.4753754171
  0
LINE
  5
307
100
AcDbEntity
  8
7_ALL_FEATURES
100
AcDbLine
 62
3
  6
CONTINUOUS
 10
74.6931044858
 20
203.4753754171
 11
77.5934333855
 21
203.4753754171
  0
LINE
  5
308
100
AcDbEntity
  8
7_ALL_FEATURES
100
AcDbLine
 62
3
  6
CONTINUOUS
 10
79.5709501792
 20
203.4753754171
 11
87.6561421074
 21
203.4753754171
  0
LINE
  5
309
100
AcDbEntity
  8
7_ALL_FEATURES
100
AcDbLine
 62
7
  6
CONTINUOUS
 10
126.3003663891
 20
203.9753754171
 11
82.4712790789
 21
203.9753754171
  0
LINE
  5
30A
100
AcDbEntity
  8
7_ALL_FEATURES
100
AcDbLine
 62
7
  6
CONTINUOUS
 10
74.0416123072
 20
203.9753754171
 11
69.800888713
 21
203.9753754171
  0
LINE
  5
30B
100
AcDbEntity
  8
7_ALL_FEATURES
100
AcDbLine
 62
9
  6
CONTINUOUS
 10
74.0031719732
 20
204.0674519426
 11
81.7813465662
 21
204.0674519426
  0
LINE
  5
30C
100
AcDbEntity
  8
7_ALL_FEATURES
100
AcDbLine
 62
7
  6
CONTINUOUS
 10
69.0506117909
 20
204.7253974433
 11
73.162962175
 21
204.7253754171
  0
LINE
  5
30D
100
AcDbEntity
  8
7_ALL_FEATURES
100
AcDbLine
 62
7
  6
CONTINUOUS
 10
127.0506117909
 20
204.7253656021
 11
81.9377569534
 21
204.7253754171
  0
LINE
  5
30E
100
AcDbEntity
  8
7_ALL_FEATURES
100
AcDbLine
 62
7
  6
CONTINUOUS
 10
73.7609926505
 20
204.7253754171
 11
73.162962175
 21
204.7253754171
  0
LINE
  5
30F
100
AcDbEntity
  8
7_ALL_FEATURES
100
AcDbLine
 62
7
  6
CONTINUOUS
 10
82.8300490424
 20
209.2253754171
 11
83.0800490424
 21
208.9753754171
  0
LINE
  5
310
100
AcDbEntity
  8
7_ALL_FEATURES
100
AcDbLine
 62
3
  6
CONTINUOUS
 10
81.7813465662
 20
204.0674519426
 11
78.5055268678
 21
212.96680245
  0
LINE
  5
311
100
AcDbEntity
  8
7_ALL_FEATURES
100
AcDbLine
 62
7
  6
CONTINUOUS
 10
82.0949522538
 20
204.2983262492
 11
78.8191325553
 21
213.1976767566
  0
LINE
  5
312
100
AcDbEntity
  8
7_ALL_FEATURES
100
AcDbLine
 62
3
  6
CONTINUOUS
 10
78.6540417218
 20
218.2266517249
 11
78.3639962369
 21
219.2169289532
  0
LINE
  5
313
100
AcDbEntity
  8
7_ALL_FEATURES
100
AcDbLine
 62
7
  6
CONTINUOUS
 10
78.6139962369
 20
218.8633755626
 11
78.9040417218
 21
217.8730983343
  0
LINE
  5
314
100
AcDbEntity
  8
7_ALL_FEATURES
100
AcDbLine
 62
4
  6
CONTINUOUS
 10
75.1125458038
 20
205.8560946967
 11
79.3551864909
 21
205.8560946967
  0
LINE
  5
315
100
AcDbEntity
  8
7_ALL_FEATURES
100
AcDbLine
 62
7
  6
CONTINUOUS
 10
78.8480621406
 20
206.5166220972
 11
78.1338842916
 21
206.5166220972
  0
LINE
  5
316
100
AcDbEntity
  8
7_ALL_FEATURES
100
AcDbLine
 62
7
  6
CONTINUOUS
 10
76.0196350159
 20
206.5166220972
 11
75.3054571669
 21
206.5166220972
  0
LINE
  5
317
100
AcDbEntity
  8
7_ALL_FEATURES
100
AcDbLine
 62
7
  6
CONTINUOUS
 10
69.0508660875
 20
206.7253754171
 11
73.0247996675
 21
206.7253754171
  0
LINE
  5
318
100
AcDbEntity
  8
7_ALL_FEATURES
100
AcDbLine
 62
7
  6
CONTINUOUS
 10
81.2015639704
 20
206.7253754171
 11
127.0503574943
 21
206.7253754171
  0
LINE
  5
319
100
AcDbEntity
  8
7_ALL_FEATURES
100
AcDbLine
 62
7
  6
CONTINUOUS
 10
79.0508026605
 20
217.4172108694
 11
78.7982683219
 21
217.774348356
  0
LINE
  5
31A
100
AcDbEntity
  8
7_ALL_FEATURES
100
AcDbLine
 62
7
  6
CONTINUOUS
 10
78.6139962369
 20
218.8633755626
 11
78.3639962369
 21
219.2169289532
  0
LINE
  5
31B
100
AcDbEntity
  8
7_ALL_FEATURES
100
AcDbLine
 62
9
  6
CONTINUOUS
 10
82.4712790789
 20
203.4753754171
 11
82.4712790789
 21
203.9753754171
  0
LINE
  5
31C
100
AcDbEntity
  8
3_ALL_AXES
100
AcDbLine
 62
7
  6
CONTINUOUS
 10
83.0800490424
 20
208.9753754171
 11
83.0800490424
 21
206.7253754171
  0
LINE
  5
31D
100
AcDbEntity
  8
7_ALL_FEATURES
100
AcDbLine
 62
7
  6
CONTINUOUS
 10
83.1642120718
 20
221.7253754171
 11
83.1642120718
 21
219.2253754171
  0
LINE
  5
31E
100
AcDbEntity
  8
7_ALL_FEATURES
100
AcDbLine
 62
7
  6
CONTINUOUS
 10
83.1642120718
 20
216.7253754171
 11
83.1642120718
 21
214.2253754171
  0
LINE
  5
31F
100
AcDbEntity
  8
7_ALL_FEATURES
100
AcDbLine
 62
7
  6
CONTINUOUS
 10
83.1642120718
 20
211.7253754171
 11
83.1642120718
 21
209.2253754171
  0
LINE
  5
320
100
AcDbEntity
  8
7_ALL_FEATURES
100
AcDbLine
 62
7
  6
CONTINUOUS
 10
83.1642120718
 20
206.7253754171
 11
83.1642120718
 21
204.7253754171
  0
LINE
  5
321
100
AcDbEntity
  8
7_ALL_FEATURES
100
AcDbLine
 62
4
  6
CONTINUOUS
 10
77.1707814716
 20
206.8202584832
 11
77.3312097681
 21
207.333203815
  0
LINE
  5
322
100
AcDbEntity
  8
7_ALL_FEATURES
100
AcDbLine
 62
7
  6
CONTINUOUS
 10
83.0800490424
 20
208.9753754171
 11
80.3733468645
 21
208.9753754171
  0
LINE
  5
323
100
AcDbEntity
  8
7_ALL_FEATURES
100
AcDbLine
 62
7
  6
CONTINUOUS
 10
72.1045584387
 20
209.2253754171
 11
69.0508660875
 21
209.2253754171
  0
LINE
  5
324
100
AcDbEntity
  8
7_ALL_FEATURES
100
AcDbLine
 62
7
  6
CONTINUOUS
 10
80.2813227416
 20
209.2253754171
 11
127.0503574943
 21
209.2253754171
  0
LINE
  5
325
100
AcDbEntity
  8
7_ALL_FEATURES
100
AcDbLine
 62
4
  6
CONTINUOUS
 10
77.3961530372
 20
211.1781596958
 11
73.15351235
 21
211.1781596958
  0
LINE
  5
326
100
AcDbEntity
  8
3_ALL_AXES
100
AcDbLine
 62
7
  6
CONTINUOUS
 10
84.8800490424
 20
203.4753754171
 11
84.8800490424
 21
203.0953754171
  0
LINE
  5
327
100
AcDbEntity
  8
7_ALL_FEATURES
100
AcDbLine
 62
7
  6
CONTINUOUS
 10
87.6561421074
 20
203.4753754171
 11
87.6561421074
 21
203.9753754171
  0
LINE
  5
328
100
AcDbEntity
  8
7_ALL_FEATURES
100
AcDbLine
 62
7
  6
CONTINUOUS
 10
69.0508660875
 20
211.7253754171
 11
71.18431721
 21
211.7253754171
  0
LINE
  5
329
100
AcDbEntity
  8
7_ALL_FEATURES
100
AcDbLine
 62
7
  6
CONTINUOUS
 10
79.3610815128
 20
211.7253754171
 11
127.0503574943
 21
211.7253754171
  0
LINE
  5
32A
100
AcDbEntity
  8
7_ALL_FEATURES
100
AcDbLine
 62
9
  6
CONTINUOUS
 10
70.7273522747
 20
212.96680245
 11
78.5055268678
 21
212.96680245
  0
LINE
  5
32B
100
AcDbEntity
  8
7_ALL_FEATURES
100
AcDbLine
 62
9
  6
CONTINUOUS
 10
125.0602656195
 20
213.1976767566
 11
120.0506117909
 21
213.1976767566
  0
LINE
  5
32C
100
AcDbEntity
  8
7_ALL_FEATURES
100
AcDbLine
 62
7
  6
CONTINUOUS
 10
70.4217569521
 20
214.2253754171
 11
69.0508660875
 21
214.2253754171
  0
LINE
  5
32D
100
AcDbEntity
  8
7_ALL_FEATURES
100
AcDbLine
 62
7
  6
CONTINUOUS
 10
78.5598254286
 20
214.2253754171
 11
127.0503574943
 21
214.2253754171
  0
LINE
  5
32E
100
AcDbEntity
  8
3_ALL_AXES
100
AcDbLine
 62
7
  6
CONTINUOUS
 10
90.3232051806
 20
203.9753754171
 11
90.3232051806
 21
200.4753754171
  0
LINE
  5
32F
100
AcDbEntity
  8
3_ALL_AXES
100
AcDbLine
 62
7
  6
CONTINUOUS
 10
90.3232051806
 20
197.4753754171
 11
90.3232051806
 21
192.9753754171
  0
LINE
  5
330
100
AcDbEntity
  8
3_ALL_AXES
100
AcDbLine
 62
7
  6
CONTINUOUS
 10
91.0506117909
 20
191.4753754171
 11
91.0506117909
 21
191.9753754171
  0
LINE
  5
331
100
AcDbEntity
  8
7_ALL_FEATURES
100
AcDbLine
 62
4
  6
CONTINUOUS
 10
76.0877774726
 20
207.4652621034
 11
76.486936316
 21
208.1207019985
  0
LINE
  5
332
100
AcDbEntity
  8
7_ALL_FEATURES
100
AcDbLine
 62
3
  6
CONTINUOUS
 10
73.4142487686
 20
219.2169289532
 11
71.7237397968
 21
218.2266517249
  0
LINE
  5
333
100
AcDbEntity
  8
7_ALL_FEATURES
100
AcDbLine
 62
7
  6
CONTINUOUS
 10
69.0508660875
 20
216.7253754171
 11
70.5988920963
 21
216.7253754171
  0
LINE
  5
334
100
AcDbEntity
  8
7_ALL_FEATURES
100
AcDbLine
 62
7
  6
CONTINUOUS
 10
78.7621102868
 20
216.7253754171
 11
127.0503574943
 21
216.7253754171
  0
LINE
  5
335
100
AcDbEntity
  8
7_ALL_FEATURES
100
AcDbLine
 62
9
  6
CONTINUOUS
 10
71.7237397968
 20
218.2266517249
 11
78.6540417218
 21
218.2266517249
  0
LINE
  5
336
100
AcDbEntity
  8
7_ALL_FEATURES
100
AcDbLine
 62
7
  6
CONTINUOUS
 10
63.0006117909
 20
249.9753754171
 11
62.5006117909
 21
250.4753754171
  0
LINE
  5
337
100
AcDbEntity
  8
3_ALL_AXES
100
AcDbLine
 62
7
  6
CONTINUOUS
 10
92.0506117909
 20
197.4753754171
 11
92.0506117909
 21
200.4753754171
  0
LINE
  5
338
100
AcDbEntity
  8
3_ALL_AXES
100
AcDbLine
 62
7
  6
CONTINUOUS
 10
92.4445255241
 20
191.4753754171
 11
92.4445255241
 21
191.9753754171
  0
LINE
  5
339
100
AcDbEntity
  8
3_ALL_AXES
100
AcDbLine
 62
7
  6
CONTINUOUS
 10
93.8587390865
 20
191.4753754171
 11
93.8587390865
 21
191.9753754171
  0
LINE
  5
33A
100
AcDbEntity
  8
7_ALL_FEATURES
100
AcDbLine
 62
3
  6
CONTINUOUS
 10
78.3639962369
 20
219.2169289532
 11
73.4142487686
 21
219.2169289532
  0
LINE
  5
33B
100
AcDbEntity
  8
7_ALL_FEATURES
100
AcDbLine
 62
7
  6
CONTINUOUS
 10
69.0508660875
 20
219.2253754171
 11
127.0503574943
 21
219.2253754171
  0
LINE
  5
33C
100
AcDbEntity
  8
7_ALL_FEATURES
100
AcDbLine
 62
7
  6
CONTINUOUS
 10
69.0508660875
 20
221.7253754171
 11
127.0503574943
 21
221.7253754171
  0
LINE
  5
33D
100
AcDbEntity
  8
7_ALL_FEATURES
100
AcDbLine
 62
7
  6
CONTINUOUS
 10
63.0006117909
 20
253.9753754171
 11
62.7506117909
 21
254.2253754171
  0
LINE
  5
33E
100
AcDbEntity
  8
7_ALL_FEATURES
100
AcDbLine
 62
7
  6
CONTINUOUS
 10
69.0506117909
 20
249.4753754171
 11
68.5506117909
 21
249.9753754171
  0
LINE
  5
33F
100
AcDbEntity
  8
7_ALL_FEATURES
100
AcDbLine
 62
7
  6
CONTINUOUS
 10
63.0006117909
 20
255.5753754171
 11
62.5006117909
 21
256.0753754171
  0
LINE
  5
340
100
AcDbEntity
  8
3_ALL_AXES
100
AcDbLine
 62
7
  6
CONTINUOUS
 10
95.9800594301
 20
203.9753754171
 11
95.9800594301
 21
200.4753754171
  0
LINE
  5
341
100
AcDbEntity
  8
3_ALL_AXES
100
AcDbLine
 62
7
  6
CONTINUOUS
 10
95.9800594301
 20
197.4753754171
 11
95.9800594301
 21
192.9753754171
  0
LINE
  5
342
100
AcDbEntity
  8
7_ALL_FEATURES
100
AcDbLine
 62
7
  6
CONTINUOUS
 10
133.3506117909
 20
261.3253754171
 11
133.1006117909
 21
261.0753754171
  0
LINE
  5
343
100
AcDbEntity
  8
7_ALL_FEATURES
100
AcDbLine
 62
9
  6
CONTINUOUS
 10
78.5055268678
 20
212.96680245
 11
78.8191325553
 21
213.1976767566
  0
LINE
  5
344
100
AcDbEntity
  8
7_ALL_FEATURES
100
AcDbLine
 62
7
  6
CONTINUOUS
 10
127.0504203866
 20
224.2253754171
 11
69.0508031951
 21
224.2253754171
  0
LINE
  5
345
100
AcDbEntity
  8
3_ALL_AXES
100
AcDbLine
 62
7
  6
CONTINUOUS
 10
98.8778369089
 20
191.4753754171
 11
98.8778369089
 21
191.9753754171
  0
LINE
  5
346
100
AcDbEntity
  8
3_ALL_AXES
100
AcDbLine
 62
7
  6
CONTINUOUS
 10
100.8096885615
 20
191.4753754171
 11
100.8096885615
 21
191.9753754171
  0
LINE
  5
347
100
AcDbEntity
  8
7_ALL_FEATURES
100
AcDbLine
 62
7
  6
CONTINUOUS
 10
133.6006117909
 20
256.0753754171
 11
133.1006117909
 21
255.5753754171
  0
LINE
  5
348
100
AcDbEntity
  8
7_ALL_FEATURES
100
AcDbLine
 62
7
  6
CONTINUOUS
 10
127.0506117909
 20
249.4753754171
 11
127.5506117909
 21
249.9753754171
  0
LINE
  5
349
100
AcDbEntity
  8
7_ALL_FEATURES
100
AcDbLine
 62
7
  6
CONTINUOUS
 10
127.0504203866
 20
226.7253754171
 11
69.0508031951
 21
226.7253754171
  0
LINE
  5
34A
100
AcDbEntity
  8
7_ALL_FEATURES
100
AcDbLine
 62
7
  6
CONTINUOUS
 10
63.0006117909
 20
261.0753754171
 11
62.7506117909
 21
261.3253754171
  0
LINE
  5
34B
100
AcDbEntity
  8
3_ALL_AXES
100
AcDbLine
 62
7
  6
CONTINUOUS
 10
103.7074660404
 20
203.9753754171
 11
103.7074660404
 21
200.4753754171
  0
LINE
  5
34C
100
AcDbEntity
  8
3_ALL_AXES
100
AcDbLine
 62
7
  6
CONTINUOUS
 10
103.7074660404
 20
197.4753754171
 11
103.7074660404
 21
192.9753754171
  0
LINE
  5
34D
100
AcDbEntity
  8
3_ALL_AXES
100
AcDbLine
 62
7
  6
CONTINUOUS
 10
104.0506117909
 20
197.4753754171
 11
104.0506117909
 21
200.4753754171
  0
LINE
  5
34E
100
AcDbEntity
  8
3_ALL_AXES
100
AcDbLine
 62
7
  6
CONTINUOUS
 10
104.4839231757
 20
191.4753754171
 11
104.4839231757
 21
191.9753754171
  0
LINE
  5
34F
100
AcDbEntity
  8
3_ALL_AXES
100
AcDbLine
 62
7
  6
CONTINUOUS
 10
105.0015612659
 20
191.4753754171
 11
105.0015612659
 21
191.9753754171
  0
LINE
  5
350
100
AcDbEntity
  8
3_ALL_AXES
100
AcDbLine
 62
7
  6
CONTINUOUS
 10
105.0506117909
 20
191.4753754171
 11
105.0506117909
 21
191.9753754171
  0
LINE
  5
351
100
AcDbEntity
  8
7_ALL_FEATURES
100
AcDbLine
 62
7
  6
CONTINUOUS
 10
133.1006117909
 20
253.9753754171
 11
133.3506117909
 21
254.2253754171
  0
LINE
  5
352
100
AcDbEntity
  8
7_ALL_FEATURES
100
AcDbLine
 62
7
  6
CONTINUOUS
 10
133.1006117909
 20
249.9753754171
 11
133.6006117909
 21
250.4753754171
  0
LINE
  5
353
100
AcDbEntity
  8
7_ALL_FEATURES
100
AcDbLine
 62
9
  6
CONTINUOUS
 10
81.7813465662
 20
204.0674519426
 11
82.0949522538
 21
204.2983262492
  0
LINE
  5
354
100
AcDbEntity
  8
7_ALL_FEATURES
100
AcDbLine
 62
7
  6
CONTINUOUS
 10
127.0504203866
 20
229.2253754171
 11
69.0508031951
 21
229.2253754171
  0
LINE
  5
355
100
AcDbEntity
  8
7_ALL_FEATURES
100
AcDbLine
 62
7
  6
CONTINUOUS
 10
127.0504203866
 20
231.7253754171
 11
69.0508031951
 21
231.7253754171
  0
LINE
  5
356
100
AcDbEntity
  8
7_ALL_FEATURES
100
AcDbLine
 62
9
  6
CONTINUOUS
 10
125.3738713071
 20
212.96680245
 11
125.0602656195
 21
213.1976767566
  0
LINE
  5
357
100
AcDbEntity
  8
3_ALL_AXES
100
AcDbLine
 62
7
  6
CONTINUOUS
 10
105.7780184012
 20
203.9753754171
 11
105.7780184012
 21
200.4753754171
  0
LINE
  5
358
100
AcDbEntity
  8
3_ALL_AXES
100
AcDbLine
 62
7
  6
CONTINUOUS
 10
105.7780184012
 20
197.4753754171
 11
105.7780184012
 21
192.9753754171
  0
LINE
  5
359
100
AcDbEntity
  8
7_ALL_FEATURES
100
AcDbLine
 62
7
  6
CONTINUOUS
 10
108.4450814743
 20
203.4753754171
 11
108.4450814743
 21
203.9753754171
  0
LINE
  5
35A
100
AcDbEntity
  8
7_ALL_FEATURES
100
AcDbLine
 62
7
  6
CONTINUOUS
 10
127.0504203866
 20
234.2253754171
 11
69.0508031951
 21
234.2253754171
  0
LINE
  5
35B
100
AcDbEntity
  8
3_ALL_AXES
100
AcDbLine
 62
7
  6
CONTINUOUS
 10
111.2211745394
 20
203.4753754171
 11
111.2211745394
 21
203.0953754171
  0
LINE
  5
35C
100
AcDbEntity
  8
7_ALL_FEATURES
100
AcDbLine
 62
7
  6
CONTINUOUS
 10
116.2232560674
 20
203.4753754171
 11
116.2232560674
 21
203.9753754171
  0
LINE
  5
35D
100
AcDbEntity
  8
3_ALL_AXES
100
AcDbLine
 62
7
  6
CONTINUOUS
 10
118.8211745394
 20
203.4753754171
 11
118.8211745394
 21
203.0953754171
  0
LINE
  5
35E
100
AcDbEntity
  8
7_ALL_FEATURES
100
AcDbLine
 62
7
  6
CONTINUOUS
 10
119.0506117909
 20
209.2253754171
 11
119.0506117909
 21
206.7253754171
  0
LINE
  5
35F
100
AcDbEntity
  8
7_ALL_FEATURES
100
AcDbLine
 62
7
  6
CONTINUOUS
 10
120.0506117909
 20
214.2253754171
 11
120.0506117909
 21
211.7253754171
  0
LINE
  5
360
100
AcDbEntity
  8
7_ALL_FEATURES
100
AcDbLine
 62
9
  6
CONTINUOUS
 10
121.4081190959
 20
203.4753754171
 11
121.4081190959
 21
203.9753754171
  0
LINE
  5
361
100
AcDbEntity
  8
7_ALL_FEATURES
100
AcDbLine
 62
7
  6
CONTINUOUS
 10
125.4506117909
 20
234.2253754171
 11
125.4506117909
 21
231.7253754171
  0
LINE
  5
362
100
AcDbEntity
  8
7_ALL_FEATURES
100
AcDbLine
 62
7
  6
CONTINUOUS
 10
125.4506117909
 20
229.2253754171
 11
125.4506117909
 21
226.7253754171
  0
LINE
  5
363
100
AcDbEntity
  8
7_ALL_FEATURES
100
AcDbLine
 62
7
  6
CONTINUOUS
 10
125.4506117909
 20
224.2253754171
 11
125.4506117909
 21
221.7253754171
  0
LINE
  5
364
100
AcDbEntity
  8
7_ALL_FEATURES
100
AcDbLine
 62
7
  6
CONTINUOUS
 10
125.4506117909
 20
219.2253754171
 11
125.4506117909
 21
216.7253754171
  0
LINE
  5
365
100
AcDbEntity
  8
7_ALL_FEATURES
100
AcDbLine
 62
7
  6
CONTINUOUS
 10
127.0506117909
 20
249.4753754171
 11
69.0506117909
 21
249.4753754171
  0
LINE
  5
366
100
AcDbEntity
  8
7_ALL_FEATURES
100
AcDbLine
 62
7
  6
CONTINUOUS
 10
133.1006117909
 20
249.9753754171
 11
63.0006117909
 21
249.9753754171
  0
LINE
  5
367
100
AcDbEntity
  8
7_ALL_FEATURES
100
AcDbLine
 62
7
  6
CONTINUOUS
 10
133.1006117909
 20
250.4753754171
 11
63.0006117909
 21
250.4753754171
  0
LINE
  5
368
100
AcDbEntity
  8
02___PRT_ALL_AXES
100
AcDbLine
 62
7
  6
CONTINUOUS
 10
127.0506117909
 20
249.4753754171
 11
127.0506117909
 21
234.2253754171
  0
LINE
  5
369
100
AcDbEntity
  8
02___PRT_ALL_AXES
100
AcDbLine
 62
7
  6
CONTINUOUS
 10
127.0506117909
 20
231.7253754171
 11
127.0506117909
 21
229.2253754171
  0
LINE
  5
36A
100
AcDbEntity
  8
02___PRT_ALL_AXES
100
AcDbLine
 62
7
  6
CONTINUOUS
 10
127.0506117909
 20
226.7253754171
 11
127.0506117909
 21
224.2253754171
  0
LINE
  5
36B
100
AcDbEntity
  8
02___PRT_ALL_AXES
100
AcDbLine
 62
7
  6
CONTINUOUS
 10
127.0506117909
 20
221.7253754171
 11
127.0506117909
 21
219.2253754171
  0
LINE
  5
36C
100
AcDbEntity
  8
02___PRT_ALL_AXES
100
AcDbLine
 62
7
  6
CONTINUOUS
 10
127.0506117909
 20
216.7253754171
 11
127.0506117909
 21
214.2253754171
  0
LINE
  5
36D
100
AcDbEntity
  8
02___PRT_ALL_AXES
100
AcDbLine
 62
7
  6
CONTINUOUS
 10
127.0506117909
 20
211.7253754171
 11
127.0506117909
 21
209.2253754171
  0
LINE
  5
36E
100
AcDbEntity
  8
02___PRT_ALL_AXES
100
AcDbLine
 62
7
  6
CONTINUOUS
 10
127.0506117909
 20
206.7253754171
 11
127.0506117909
 21
204.7253656016
  0
LINE
  5
36F
100
AcDbEntity
  8
7_ALL_FEATURES
100
AcDbLine
 62
7
  6
CONTINUOUS
 10
125.0602656195
 20
213.1976767566
 11
124.518316662
 21
211.7253754171
  0
LINE
  5
370
100
AcDbEntity
  8
7_ALL_FEATURES
100
AcDbLine
 62
7
  6
CONTINUOUS
 10
123.5980754332
 20
209.2253754171
 11
122.6778342045
 21
206.7253754171
  0
LINE
  5
371
100
AcDbEntity
  8
7_ALL_FEATURES
100
AcDbLine
 62
3
  6
CONTINUOUS
 10
125.3738713071
 20
212.96680245
 11
124.9169063718
 21
211.7253754171
  0
LINE
  5
372
100
AcDbEntity
  8
7_ALL_FEATURES
100
AcDbLine
 62
3
  6
CONTINUOUS
 10
123.996665143
 20
209.2253754171
 11
123.0764239143
 21
206.7253754171
  0
LINE
  5
373
100
AcDbEntity
  8
3_ALL_AXES
100
AcDbLine
 62
7
  6
CONTINUOUS
 10
105.0506117909
 20
191.9753754171
 11
105.2232155682
 21
192.1479791945
  0
LINE
  5
374
100
AcDbEntity
  8
7_ALL_FEATURES
100
AcDbLine
 62
7
  6
CONTINUOUS
 10
63.0006117909
 20
253.9753754171
 11
133.1006117909
 21
253.9753754171
  0
LINE
  5
375
100
AcDbEntity
  8
7_ALL_FEATURES
100
AcDbLine
 62
7
  6
CONTINUOUS
 10
63.0006117909
 20
254.4753754171
 11
133.1006117909
 21
254.4753754171
  0
LINE
  5
376
100
AcDbEntity
  8
7_ALL_FEATURES
100
AcDbLine
 62
7
  6
CONTINUOUS
 10
133.1006117909
 20
255.5753754171
 11
63.0006117909
 21
255.5753754171
  0
LINE
  5
377
100
AcDbEntity
  8
7_ALL_FEATURES
100
AcDbLine
 62
9
  6
CONTINUOUS
 10
130.8006117909
 20
255.5753754171
 11
130.8006117909
 21
254.4753754171
  0
LINE
  5
378
100
AcDbEntity
  8
7_ALL_FEATURES
100
AcDbLine
 62
7
  6
CONTINUOUS
 10
133.1006117909
 20
256.0753754171
 11
63.0006117909
 21
256.0753754171
  0
LINE
  5
379
100
AcDbEntity
  8
7_ALL_FEATURES
100
AcDbLine
 62
7
  6
CONTINUOUS
 10
132.8006117909
 20
255.5753754171
 11
132.8006117909
 21
254.4753754171
  0
LINE
  5
37A
100
AcDbEntity
  8
7_ALL_FEATURES
100
AcDbLine
 62
7
  6
CONTINUOUS
 10
133.1006117909
 20
250.4753754171
 11
133.1006117909
 21
253.9753754171
  0
LINE
  5
37B
100
AcDbEntity
  8
7_ALL_FEATURES
100
AcDbLine
 62
7
  6
CONTINUOUS
 10
133.1006117909
 20
256.0753754171
 11
133.1006117909
 21
261.0753754171
  0
LINE
  5
37C
100
AcDbEntity
  8
7_ALL_FEATURES
100
AcDbLine
 62
7
  6
CONTINUOUS
 10
133.6006117909
 20
250.4753754171
 11
133.6006117909
 21
253.9753754171
  0
LINE
  5
37D
100
AcDbEntity
  8
7_ALL_FEATURES
100
AcDbLine
 62
7
  6
CONTINUOUS
 10
133.6006117909
 20
256.0753754171
 11
133.6006117909
 21
261.0753754171
  0
LINE
  5
37E
100
AcDbEntity
  8
7_ALL_FEATURES
100
AcDbLine
 62
7
  6
CONTINUOUS
 10
126.3006211149
 20
203.9753754171
 11
127.0506117909
 21
204.7253656016
  0
LINE
  5
37F
100
AcDbEntity
  8
7_ALL_FEATURES
100
AcDbLine
 62
7
  6
CONTINUOUS
 10
63.0006117909
 20
261.0753754171
 11
133.1006117909
 21
261.0753754171
  0
LINE
  5
380
100
AcDbEntity
  8
7_ALL_FEATURES
100
AcDbLine
 62
7
  6
CONTINUOUS
 10
63.0006117909
 20
261.5753754171
 11
133.1006117909
 21
261.5753754171
  0
LINE
  5
381
100
AcDbEntity
  8
7_ALL_FEATURES
100
AcDbLine
 62
7
  6
CONTINUOUS
 10
133.1006117909
 20
250.4753754171
 11
133.3506117909
 21
250.2253754171
  0
LINE
  5
382
100
AcDbEntity
  8
7_ALL_FEATURES
100
AcDbLine
 62
7
  6
CONTINUOUS
 10
133.6006117909
 20
253.9753754171
 11
133.1006117909
 21
254.4753754171
  0
LINE
  5
383
100
AcDbEntity
  8
7_ALL_FEATURES
100
AcDbLine
 62
7
  6
CONTINUOUS
 10
133.1006117909
 20
256.0753754171
 11
133.3506117909
 21
255.8253754171
  0
LINE
  5
384
100
AcDbEntity
  8
7_ALL_FEATURES
100
AcDbLine
 62
7
  6
CONTINUOUS
 10
133.6006117909
 20
261.0753754171
 11
133.1006117909
 21
261.5753754171
  0
LINE
  5
385
100
AcDbEntity
  8
7_ALL_FEATURES
100
AcDbLine
 62
7
  6
CONTINUOUS
 10
200.466407119
 20
261.0753754171
 11
200.966407119
 21
261.5753754171
  0
LINE
  5
386
100
AcDbEntity
  8
7_ALL_FEATURES
100
AcDbLine
 62
7
  6
CONTINUOUS
 10
200.716407119
 20
255.8253754171
 11
200.966407119
 21
256.0753754171
  0
LINE
  5
387
100
AcDbEntity
  8
7_ALL_FEATURES
100
AcDbLine
 62
7
  6
CONTINUOUS
 10
200.966407119
 20
254.4753754171
 11
200.466407119
 21
253.9753754171
  0
LINE
  5
388
100
AcDbEntity
  8
7_ALL_FEATURES
100
AcDbLine
 62
7
  6
CONTINUOUS
 10
200.966407119
 20
250.4753754171
 11
200.716407119
 21
250.2253754171
  0
LINE
  5
389
100
AcDbEntity
  8
7_ALL_FEATURES
100
AcDbLine
 62
7
  6
CONTINUOUS
 10
200.466407119
 20
250.4753754171
 11
200.466407119
 21
253.9753754171
  0
LINE
  5
38A
100
AcDbEntity
  8
7_ALL_FEATURES
100
AcDbLine
 62
7
  6
CONTINUOUS
 10
200.466407119
 20
256.0753754171
 11
200.466407119
 21
261.0753754171
  0
LINE
  5
38B
100
AcDbEntity
  8
7_ALL_FEATURES
100
AcDbLine
 62
7
  6
CONTINUOUS
 10
200.966407119
 20
250.4753754171
 11
200.966407119
 21
253.9753754171
  0
LINE
  5
38C
100
AcDbEntity
  8
7_ALL_FEATURES
100
AcDbLine
 62
7
  6
CONTINUOUS
 10
200.966407119
 20
256.0753754171
 11
200.966407119
 21
261.0753754171
  0
LINE
  5
38D
100
AcDbEntity
  8
7_ALL_FEATURES
100
AcDbLine
 62
7
  6
CONTINUOUS
 10
201.266407119
 20
255.5753754171
 11
201.266407119
 21
254.4753754171
  0
LINE
  5
38E
100
AcDbEntity
  8
3_ALL_AXES
100
AcDbLine
 62
7
  6
CONTINUOUS
 10
246.5193969647
 20
187.9753754171
 11
247.5415333849
 21
187.9753754171
  0
LINE
  5
38F
100
AcDbEntity
  8
7_ALL_FEATURES
100
AcDbLine
 62
7
  6
CONTINUOUS
 10
246.516407119
 20
187.9753754171
 11
253.516407119
 21
187.9753754171
  0
LINE
  5
390
100
AcDbEntity
  8
3_ALL_AXES
100
AcDbLine
 62
7
  6
CONTINUOUS
 10
252.4912808532
 20
187.9753754171
 11
253.5134172734
 21
187.9753754171
  0
LINE
  5
391
100
AcDbEntity
  8
7_ALL_FEATURES
100
AcDbLine
 62
7
  6
CONTINUOUS
 10
207.766403241
 20
203.9753754171
 11
207.016407119
 21
204.7253711191
  0
LINE
  5
392
100
AcDbEntity
  8
7_ALL_FEATURES
100
AcDbLine
 62
9
  6
CONTINUOUS
 10
203.266407119
 20
255.5753754171
 11
203.266407119
 21
254.4753754171
  0
LINE
  5
393
100
AcDbEntity
  8
3_ALL_AXES
100
AcDbLine
 62
9
  6
CONTINUOUS
 10
243.065457644
 20
191.4753754171
 11
243.016407119
 21
191.4753754171
  0
LINE
  5
394
100
AcDbEntity
  8
3_ALL_AXES
100
AcDbLine
 62
9
  6
CONTINUOUS
 10
243.5830957342
 20
191.4753754171
 11
247.2573303484
 21
191.4753754171
  0
LINE
  5
395
100
AcDbEntity
  8
3_ALL_AXES
100
AcDbLine
 62
9
  6
CONTINUOUS
 10
249.189182001
 20
191.4753754171
 11
254.2082798234
 21
191.4753754171
  0
LINE
  5
396
100
AcDbEntity
  8
3_ALL_AXES
100
AcDbLine
 62
9
  6
CONTINUOUS
 10
255.6224933858
 20
191.4753754171
 11
257.016407119
 21
191.4753754171
  0
LINE
  5
397
100
AcDbEntity
  8
3_ALL_AXES
100
AcDbLine
 62
7
  6
CONTINUOUS
 10
243.065457644
 20
191.9753754171
 11
243.016407119
 21
191.9753754171
  0
LINE
  5
398
100
AcDbEntity
  8
3_ALL_AXES
100
AcDbLine
 62
7
  6
CONTINUOUS
 10
243.5830957342
 20
191.9753754171
 11
247.2573303484
 21
191.9753754171
  0
LINE
  5
399
100
AcDbEntity
  8
3_ALL_AXES
100
AcDbLine
 62
7
  6
CONTINUOUS
 10
249.189182001
 20
191.9753754171
 11
254.2082798234
 21
191.9753754171
  0
LINE
  5
39A
100
AcDbEntity
  8
3_ALL_AXES
100
AcDbLine
 62
7
  6
CONTINUOUS
 10
255.6224933858
 20
191.9753754171
 11
257.016407119
 21
191.9753754171
  0
LINE
  5
39B
100
AcDbEntity
  8
02___PRT_ALL_AXES
100
AcDbLine
 62
7
  6
CONTINUOUS
 10
207.016407119
 20
249.4753754171
 11
207.016407119
 21
234.2253754171
  0
LINE
  5
39C
100
AcDbEntity
  8
02___PRT_ALL_AXES
100
AcDbLine
 62
7
  6
CONTINUOUS
 10
207.016407119
 20
231.7253754171
 11
207.016407119
 21
229.2253754171
  0
LINE
  5
39D
100
AcDbEntity
  8
02___PRT_ALL_AXES
100
AcDbLine
 62
7
  6
CONTINUOUS
 10
207.016407119
 20
226.7253754171
 11
207.016407119
 21
224.2253754171
  0
LINE
  5
39E
100
AcDbEntity
  8
02___PRT_ALL_AXES
100
AcDbLine
 62
7
  6
CONTINUOUS
 10
207.016407119
 20
221.7253754171
 11
207.016407119
 21
219.2253754171
  0
LINE
  5
39F
100
AcDbEntity
  8
02___PRT_ALL_AXES
100
AcDbLine
 62
7
  6
CONTINUOUS
 10
207.016407119
 20
216.7253754171
 11
207.016407119
 21
214.2253754171
  0
LINE
  5
3A0
100
AcDbEntity
  8
02___PRT_ALL_AXES
100
AcDbLine
 62
7
  6
CONTINUOUS
 10
207.016407119
 20
211.7253754171
 11
207.016407119
 21
209.2253754171
  0
LINE
  5
3A1
100
AcDbEntity
  8
02___PRT_ALL_AXES
100
AcDbLine
 62
7
  6
CONTINUOUS
 10
207.016407119
 20
206.7253754171
 11
207.016407119
 21
204.7253711191
  0
LINE
  5
3A2
100
AcDbEntity
  8
7_ALL_FEATURES
100
AcDbLine
 62
7
  6
CONTINUOUS
 10
208.616407119
 20
234.2253754171
 11
208.616407119
 21
231.7253754171
  0
LINE
  5
3A3
100
AcDbEntity
  8
7_ALL_FEATURES
100
AcDbLine
 62
7
  6
CONTINUOUS
 10
208.616407119
 20
229.2253754171
 11
208.616407119
 21
226.7253754171
  0
LINE
  5
3A4
100
AcDbEntity
  8
7_ALL_FEATURES
100
AcDbLine
 62
7
  6
CONTINUOUS
 10
208.616407119
 20
224.2253754171
 11
208.616407119
 21
221.7253754171
  0
LINE
  5
3A5
100
AcDbEntity
  8
7_ALL_FEATURES
100
AcDbLine
 62
7
  6
CONTINUOUS
 10
208.616407119
 20
219.2253754171
 11
208.616407119
 21
216.7253754171
  0
LINE
  5
3A6
100
AcDbEntity
  8
3_ALL_AXES
100
AcDbLine
 62
7
  6
CONTINUOUS
 10
257.7438137293
 20
197.4753754171
 11
242.2890005087
 21
197.4753754171
  0
LINE
  5
3A7
100
AcDbEntity
  8
7_ALL_FEATURES
100
AcDbLine
 62
3
  6
CONTINUOUS
 10
210.9905949956
 20
206.7253754171
 11
210.0703537669
 21
209.2253754171
  0
LINE
  5
3A8
100
AcDbEntity
  8
7_ALL_FEATURES
100
AcDbLine
 62
3
  6
CONTINUOUS
 10
209.1501125381
 20
211.7253754171
 11
208.6931476028
 21
212.96680245
  0
LINE
  5
3A9
100
AcDbEntity
  8
7_ALL_FEATURES
100
AcDbLine
 62
7
  6
CONTINUOUS
 10
211.3891847054
 20
206.7253754171
 11
210.4689434767
 21
209.2253754171
  0
LINE
  5
3AA
100
AcDbEntity
  8
7_ALL_FEATURES
100
AcDbLine
 62
7
  6
CONTINUOUS
 10
209.5487022479
 20
211.7253754171
 11
209.0067532904
 21
213.1976767566
  0
LINE
  5
3AB
100
AcDbEntity
  8
3_ALL_AXES
100
AcDbLine
 62
7
  6
CONTINUOUS
 10
257.7438137293
 20
200.4753754171
 11
242.2890005087
 21
200.4753754171
  0
LINE
  5
3AC
100
AcDbEntity
  8
3_ALL_AXES
100
AcDbLine
 62
7
  6
CONTINUOUS
 10
217.0808637229
 20
201.2753754171
 11
221.0108250182
 21
201.2753754171
  0
LINE
  5
3AD
100
AcDbEntity
  8
3_ALL_AXES
100
AcDbLine
 62
7
  6
CONTINUOUS
 10
251.0219892199
 20
201.2753754171
 11
254.9519505151
 21
201.2753754171
  0
LINE
  5
3AE
100
AcDbEntity
  8
7_ALL_FEATURES
100
AcDbLine
 62
9
  6
CONTINUOUS
 10
212.658899814
 20
203.4753754171
 11
212.658899814
 21
203.9753754171
  0
LINE
  5
3AF
100
AcDbEntity
  8
7_ALL_FEATURES
100
AcDbLine
 62
7
  6
CONTINUOUS
 10
214.016407119
 20
214.2253754171
 11
214.016407119
 21
211.7253754171
  0
LINE
  5
3B0
100
AcDbEntity
  8
7_ALL_FEATURES
100
AcDbLine
 62
7
  6
CONTINUOUS
 10
215.016407119
 20
209.2253754171
 11
215.016407119
 21
206.7253754171
  0
LINE
  5
3B1
100
AcDbEntity
  8
3_ALL_AXES
100
AcDbLine
 62
7
  6
CONTINUOUS
 10
215.2458443705
 20
203.4753754171
 11
215.2458443705
 21
203.0953754171
  0
LINE
  5
3B2
100
AcDbEntity
  8
3_ALL_AXES
100
AcDbLine
 62
7
  6
CONTINUOUS
 10
215.2458443705
 20
203.0953754171
 11
222.8458443705
 21
203.0953754171
  0
LINE
  5
3B3
100
AcDbEntity
  8
3_ALL_AXES
100
AcDbLine
 62
7
  6
CONTINUOUS
 10
249.1869698675
 20
203.0953754171
 11
256.7869698675
 21
203.0953754171
  0
LINE
  5
3B4
100
AcDbEntity
  8
7_ALL_FEATURES
100
AcDbLine
 62
3
  6
CONTINUOUS
 10
225.6219374356
 20
203.4753754171
 11
212.658899814
 21
203.4753754171
  0
LINE
  5
3B5
100
AcDbEntity
  8
7_ALL_FEATURES
100
AcDbLine
 62
3
  6
CONTINUOUS
 10
246.4108768025
 20
203.4753754171
 11
254.4960687307
 21
203.4753754171
  0
LINE
  5
3B6
100
AcDbEntity
  8
3_ALL_AXES
100
AcDbLine
 62
7
  6
CONTINUOUS
 10
254.4960687307
 20
203.4753754171
 11
256.4735855244
 21
203.4753754171
  0
LINE
  5
3B7
100
AcDbEntity
  8
7_ALL_FEATURES
100
AcDbLine
 62
3
  6
CONTINUOUS
 10
256.4735855244
 20
203.4753754171
 11
259.3739144241
 21
203.4753754171
  0
LINE
  5
3B8
100
AcDbEntity
  8
7_ALL_FEATURES
100
AcDbLine
 62
7
  6
CONTINUOUS
 10
264.2661493196
 20
203.9753754171
 11
260.0254066027
 21
203.9753754171
  0
LINE
  5
3B9
100
AcDbEntity
  8
7_ALL_FEATURES
100
AcDbLine
 62
7
  6
CONTINUOUS
 10
251.595739831
 20
203.9753754171
 11
207.7666579669
 21
203.9753754171
  0
LINE
  5
3BA
100
AcDbEntity
  8
7_ALL_FEATURES
100
AcDbLine
 62
9
  6
CONTINUOUS
 10
252.2856723437
 20
204.0674519426
 11
260.0638469367
 21
204.0674519426
  0
LINE
  5
3BB
100
AcDbEntity
  8
7_ALL_FEATURES
100
AcDbLine
 62
7
  6
CONTINUOUS
 10
265.016407119
 20
204.7253782472
 11
260.3060262594
 21
204.7253754171
  0
LINE
  5
3BC
100
AcDbEntity
  8
7_ALL_FEATURES
100
AcDbLine
 62
7
  6
CONTINUOUS
 10
252.1292619565
 20
204.7253754171
 11
207.016407119
 21
204.7253711197
  0
LINE
  5
3BD
100
AcDbEntity
  8
7_ALL_FEATURES
100
AcDbLine
 62
7
  6
CONTINUOUS
 10
217.8437628425
 20
203.4753754171
 11
217.8437628425
 21
203.9753754171
  0
LINE
  5
3BE
100
AcDbEntity
  8
7_ALL_FEATURES
100
AcDbLine
 62
4
  6
CONTINUOUS
 10
254.711832419
 20
205.8560946967
 11
258.9544731061
 21
205.8560946967
  0
LINE
  5
3BF
100
AcDbEntity
  8
7_ALL_FEATURES
100
AcDbLine
 62
7
  6
CONTINUOUS
 10
258.9336243931
 20
206.5166220972
 11
258.2194465441
 21
206.5166220972
  0
LINE
  5
3C0
100
AcDbEntity
  8
7_ALL_FEATURES
100
AcDbLine
 62
7
  6
CONTINUOUS
 10
256.1051972684
 20
206.5166220972
 11
255.3910194194
 21
206.5166220972
  0
LINE
  5
3C1
100
AcDbEntity
  8
7_ALL_FEATURES
100
AcDbLine
 62
7
  6
CONTINUOUS
 10
207.0166614156
 20
206.7253754171
 11
252.8654549395
 21
206.7253754171
  0
LINE
  5
3C2
100
AcDbEntity
  8
7_ALL_FEATURES
100
AcDbLine
 62
7
  6
CONTINUOUS
 10
261.0422192424
 20
206.7253754171
 11
265.0161528224
 21
206.7253754171
  0
LINE
  5
3C3
100
AcDbEntity
  8
3_ALL_AXES
100
AcDbLine
 62
7
  6
CONTINUOUS
 10
243.016407119
 20
191.9753754171
 11
242.8438033417
 21
192.1479791945
  0
LINE
  5
3C4
100
AcDbEntity
  8
7_ALL_FEATURES
100
AcDbLine
 62
7
  6
CONTINUOUS
 10
250.9869698675
 20
208.9753754171
 11
253.6936720454
 21
208.9753754171
  0
LINE
  5
3C5
100
AcDbEntity
  8
7_ALL_FEATURES
100
AcDbLine
 62
7
  6
CONTINUOUS
 10
265.0161528224
 20
209.2253754171
 11
261.9624604712
 21
209.2253754171
  0
LINE
  5
3C6
100
AcDbEntity
  8
7_ALL_FEATURES
100
AcDbLine
 62
7
  6
CONTINUOUS
 10
207.0166614156
 20
209.2253754171
 11
253.7856961683
 21
209.2253754171
  0
LINE
  5
3C7
100
AcDbEntity
  8
7_ALL_FEATURES
100
AcDbLine
 62
4
  6
CONTINUOUS
 10
260.9135065599
 20
211.1781596958
 11
256.6708658727
 21
211.1781596958
  0
LINE
  5
3C8
100
AcDbEntity
  8
3_ALL_AXES
100
AcDbLine
 62
7
  6
CONTINUOUS
 10
222.8458443705
 20
203.4753754171
 11
222.8458443705
 21
203.0953754171
  0
LINE
  5
3C9
100
AcDbEntity
  8
7_ALL_FEATURES
100
AcDbLine
 62
7
  6
CONTINUOUS
 10
225.6219374356
 20
203.4753754171
 11
225.6219374356
 21
203.9753754171
  0
LINE
  5
3CA
100
AcDbEntity
  8
7_ALL_FEATURES
100
AcDbLine
 62
7
  6
CONTINUOUS
 10
207.0166614156
 20
211.7253754171
 11
254.7059373971
 21
211.7253754171
  0
LINE
  5
3CB
100
AcDbEntity
  8
7_ALL_FEATURES
100
AcDbLine
 62
7
  6
CONTINUOUS
 10
262.8827016999
 20
211.7253754171
 11
265.0161528224
 21
211.7253754171
  0
LINE
  5
3CC
100
AcDbEntity
  8
7_ALL_FEATURES
100
AcDbLine
 62
9
  6
CONTINUOUS
 10
255.5614920421
 20
212.96680245
 11
263.3396666352
 21
212.96680245
  0
LINE
  5
3CD
100
AcDbEntity
  8
7_ALL_FEATURES
100
AcDbLine
 62
9
  6
CONTINUOUS
 10
214.016407119
 20
213.1976767566
 11
209.0067532904
 21
213.1976767566
  0
LINE
  5
3CE
100
AcDbEntity
  8
7_ALL_FEATURES
100
AcDbLine
 62
7
  6
CONTINUOUS
 10
265.0161528224
 20
214.2253754171
 11
263.6452619578
 21
214.2253754171
  0
LINE
  5
3CF
100
AcDbEntity
  8
7_ALL_FEATURES
100
AcDbLine
 62
7
  6
CONTINUOUS
 10
207.0166614156
 20
214.2253754171
 11
255.5071934812
 21
214.2253754171
  0
LINE
  5
3D0
100
AcDbEntity
  8
7_ALL_FEATURES
100
AcDbLine
 62
9
  6
CONTINUOUS
 10
208.6931476028
 20
212.96680245
 11
209.0067532904
 21
213.1976767566
  0
LINE
  5
3D1
100
AcDbEntity
  8
7_ALL_FEATURES
100
AcDbLine
 62
7
  6
CONTINUOUS
 10
207.0166614156
 20
216.7253754171
 11
255.3049086231
 21
216.7253754171
  0
LINE
  5
3D2
100
AcDbEntity
  8
7_ALL_FEATURES
100
AcDbLine
 62
7
  6
CONTINUOUS
 10
263.4681268136
 20
216.7253754171
 11
265.0161528224
 21
216.7253754171
  0
LINE
  5
3D3
100
AcDbEntity
  8
7_ALL_FEATURES
100
AcDbLine
 62
9
  6
CONTINUOUS
 10
255.4129771881
 20
218.2266517249
 11
262.3432791131
 21
218.2266517249
  0
LINE
  5
3D4
100
AcDbEntity
  8
7_ALL_FEATURES
100
AcDbLine
 62
9
  6
CONTINUOUS
 10
252.2856723437
 20
204.0674519426
 11
251.9720666561
 21
204.2983262492
  0
LINE
  5
3D5
100
AcDbEntity
  8
7_ALL_FEATURES
100
AcDbLine
 62
7
  6
CONTINUOUS
 10
200.466407119
 20
250.4753754171
 11
200.966407119
 21
249.9753754171
  0
LINE
  5
3D6
100
AcDbEntity
  8
7_ALL_FEATURES
100
AcDbLine
 62
3
  6
CONTINUOUS
 10
260.6527701413
 20
219.2169289532
 11
255.703022673
 21
219.2169289532
  0
LINE
  5
3D7
100
AcDbEntity
  8
7_ALL_FEATURES
100
AcDbLine
 62
7
  6
CONTINUOUS
 10
207.0166614156
 20
219.2253754171
 11
265.0161528224
 21
219.2253754171
  0
LINE
  5
3D8
100
AcDbEntity
  8
7_ALL_FEATURES
100
AcDbLine
 62
7
  6
CONTINUOUS
 10
207.0166614156
 20
221.7253754171
 11
265.0161528224
 21
221.7253754171
  0
LINE
  5
3D9
100
AcDbEntity
  8
7_ALL_FEATURES
100
AcDbLine
 62
7
  6
CONTINUOUS
 10
200.966407119
 20
253.9753754171
 11
200.716407119
 21
254.2253754171
  0
LINE
  5
3DA
100
AcDbEntity
  8
7_ALL_FEATURES
100
AcDbLine
 62
7
  6
CONTINUOUS
 10
207.016407119
 20
249.4753754171
 11
206.516407119
 21
249.9753754171
  0
LINE
  5
3DB
100
AcDbEntity
  8
7_ALL_FEATURES
100
AcDbLine
 62
7
  6
CONTINUOUS
 10
200.966407119
 20
255.5753754171
 11
200.466407119
 21
256.0753754171
  0
LINE
  5
3DC
100
AcDbEntity
  8
7_ALL_FEATURES
100
AcDbLine
 62
7
  6
CONTINUOUS
 10
271.066407119
 20
261.0753754171
 11
271.316407119
 21
261.3253754171
  0
LINE
  5
3DD
100
AcDbEntity
  8
7_ALL_FEATURES
100
AcDbLine
 62
7
  6
CONTINUOUS
 10
265.0162157148
 20
224.2253754171
 11
207.0165985233
 21
224.2253754171
  0
LINE
  5
3DE
100
AcDbEntity
  8
7_ALL_FEATURES
100
AcDbLine
 62
7
  6
CONTINUOUS
 10
271.066407119
 20
255.5753754171
 11
271.566407119
 21
256.0753754171
  0
LINE
  5
3DF
100
AcDbEntity
  8
7_ALL_FEATURES
100
AcDbLine
 62
7
  6
CONTINUOUS
 10
265.016407119
 20
249.4753754171
 11
265.516407119
 21
249.9753754171
  0
LINE
  5
3E0
100
AcDbEntity
  8
7_ALL_FEATURES
100
AcDbLine
 62
7
  6
CONTINUOUS
 10
265.0162157148
 20
226.7253754171
 11
207.0165985233
 21
226.7253754171
  0
LINE
  5
3E1
100
AcDbEntity
  8
7_ALL_FEATURES
100
AcDbLine
 62
9
  6
CONTINUOUS
 10
255.5614920421
 20
212.96680245
 11
255.2478863546
 21
213.1976767566
  0
LINE
  5
3E2
100
AcDbEntity
  8
7_ALL_FEATURES
100
AcDbLine
 62
7
  6
CONTINUOUS
 10
200.966407119
 20
261.0753754171
 11
200.716407119
 21
261.3253754171
  0
LINE
  5
3E3
100
AcDbEntity
  8
3_ALL_AXES
100
AcDbLine
 62
7
  6
CONTINUOUS
 10
242.2890005087
 20
203.9753754171
 11
242.2890005087
 21
200.4753754171
  0
LINE
  5
3E4
100
AcDbEntity
  8
3_ALL_AXES
100
AcDbLine
 62
7
  6
CONTINUOUS
 10
242.2890005087
 20
197.4753754171
 11
242.2890005087
 21
192.9753754171
  0
LINE
  5
3E5
100
AcDbEntity
  8
3_ALL_AXES
100
AcDbLine
 62
7
  6
CONTINUOUS
 10
243.016407119
 20
191.4753754171
 11
243.016407119
 21
191.9753754171
  0
LINE
  5
3E6
100
AcDbEntity
  8
3_ALL_AXES
100
AcDbLine
 62
7
  6
CONTINUOUS
 10
243.065457644
 20
191.4753754171
 11
243.065457644
 21
191.9753754171
  0
LINE
  5
3E7
100
AcDbEntity
  8
7_ALL_FEATURES
100
AcDbLine
 62
7
  6
CONTINUOUS
 10
271.066407119
 20
253.9753754171
 11
271.316407119
 21
254.2253754171
  0
LINE
  5
3E8
100
AcDbEntity
  8
7_ALL_FEATURES
100
AcDbLine
 62
7
  6
CONTINUOUS
 10
271.066407119
 20
249.9753754171
 11
271.566407119
 21
250.4753754171
  0
LINE
  5
3E9
100
AcDbEntity
  8
7_ALL_FEATURES
100
AcDbLine
 62
7
  6
CONTINUOUS
 10
265.0162157148
 20
229.2253754171
 11
207.0165985233
 21
229.2253754171
  0
LINE
  5
3EA
100
AcDbEntity
  8
7_ALL_FEATURES
100
AcDbLine
 62
7
  6
CONTINUOUS
 10
265.0162157148
 20
231.7253754171
 11
207.0165985233
 21
231.7253754171
  0
LINE
  5
3EB
100
AcDbEntity
  8
3_ALL_AXES
100
AcDbLine
 62
7
  6
CONTINUOUS
 10
243.5830957342
 20
191.4753754171
 11
243.5830957342
 21
191.9753754171
  0
LINE
  5
3EC
100
AcDbEntity
  8
3_ALL_AXES
100
AcDbLine
 62
7
  6
CONTINUOUS
 10
244.016407119
 20
197.4753754171
 11
244.016407119
 21
200.4753754171
  0
LINE
  5
3ED
100
AcDbEntity
  8
3_ALL_AXES
100
AcDbLine
 62
7
  6
CONTINUOUS
 10
244.3595528695
 20
203.9753754171
 11
244.3595528695
 21
200.4753754171
  0
LINE
  5
3EE
100
AcDbEntity
  8
3_ALL_AXES
100
AcDbLine
 62
7
  6
CONTINUOUS
 10
244.3595528695
 20
197.4753754171
 11
244.3595528695
 21
192.9753754171
  0
LINE
  5
3EF
100
AcDbEntity
  8
7_ALL_FEATURES
100
AcDbLine
 62
7
  6
CONTINUOUS
 10
246.4108768025
 20
203.4753754171
 11
246.4108768025
 21
203.9753754171
  0
LINE
  5
3F0
100
AcDbEntity
  8
7_ALL_FEATURES
100
AcDbLine
 62
7
  6
CONTINUOUS
 10
265.0162157148
 20
234.2253754171
 11
207.0165985233
 21
234.2253754171
  0
LINE
  5
3F1
100
AcDbEntity
  8
7_ALL_FEATURES
100
AcDbLine
 62
3
  6
CONTINUOUS
 10
262.3432791131
 20
218.2266517249
 11
260.6527701413
 21
219.2169289532
  0
LINE
  5
3F2
100
AcDbEntity
  8
3_ALL_AXES
100
AcDbLine
 62
7
  6
CONTINUOUS
 10
247.2573303484
 20
191.4753754171
 11
247.2573303484
 21
191.9753754171
  0
LINE
  5
3F3
100
AcDbEntity
  8
3_ALL_AXES
100
AcDbLine
 62
7
  6
CONTINUOUS
 10
249.1869698675
 20
203.4753754171
 11
249.1869698675
 21
203.0953754171
  0
LINE
  5
3F4
100
AcDbEntity
  8
3_ALL_AXES
100
AcDbLine
 62
7
  6
CONTINUOUS
 10
249.189182001
 20
191.4753754171
 11
249.189182001
 21
191.9753754171
  0
LINE
  5
3F5
100
AcDbEntity
  8
7_ALL_FEATURES
100
AcDbLine
 62
7
  6
CONTINUOUS
 10
250.9028068381
 20
221.7253754171
 11
250.9028068381
 21
219.2253754171
  0
LINE
  5
3F6
100
AcDbEntity
  8
7_ALL_FEATURES
100
AcDbLine
 62
7
  6
CONTINUOUS
 10
250.9028068381
 20
216.7253754171
 11
250.9028068381
 21
214.2253754171
  0
LINE
  5
3F7
100
AcDbEntity
  8
7_ALL_FEATURES
100
AcDbLine
 62
7
  6
CONTINUOUS
 10
250.9028068381
 20
211.7253754171
 11
250.9028068381
 21
209.2253754171
  0
LINE
  5
3F8
100
AcDbEntity
  8
7_ALL_FEATURES
100
AcDbLine
 62
7
  6
CONTINUOUS
 10
250.9028068381
 20
206.7253754171
 11
250.9028068381
 21
204.7253754171
  0
LINE
  5
3F9
100
AcDbEntity
  8
3_ALL_AXES
100
AcDbLine
 62
7
  6
CONTINUOUS
 10
250.9869698675
 20
208.9753754171
 11
250.9869698675
 21
206.7253754171
  0
LINE
  5
3FA
100
AcDbEntity
  8
7_ALL_FEATURES
100
AcDbLine
 62
9
  6
CONTINUOUS
 10
251.595739831
 20
203.4753754171
 11
251.595739831
 21
203.9753754171
  0
LINE
  5
3FB
100
AcDbEntity
  8
3_ALL_AXES
100
AcDbLine
 62
7
  6
CONTINUOUS
 10
252.0869594798
 20
201.2753754171
 11
252.0869594798
 21
200.4753754171
  0
LINE
  5
3FC
100
AcDbEntity
  8
3_ALL_AXES
100
AcDbLine
 62
7
  6
CONTINUOUS
 10
252.0869594798
 20
197.4753754171
 11
252.0869594798
 21
192.9753754171
  0
LINE
  5
3FD
100
AcDbEntity
  8
7_ALL_FEATURES
100
AcDbLine
 62
4
  6
CONTINUOUS
 10
257.7364310693
 20
206.3540034444
 11
257.2210224567
 21
208.1797584313
  0
LINE
  5
3FE
100
AcDbEntity
  8
3_ALL_AXES
100
AcDbLine
 62
7
  6
CONTINUOUS
 10
254.2082798234
 20
191.4753754171
 11
254.2082798234
 21
191.9753754171
  0
LINE
  5
3FF
100
AcDbEntity
  8
3_ALL_AXES
100
AcDbLine
 62
7
  6
CONTINUOUS
 10
255.6224933858
 20
191.4753754171
 11
255.6224933858
 21
191.9753754171
  0
LINE
  5
400
100
AcDbEntity
  8
3_ALL_AXES
100
AcDbLine
 62
7
  6
CONTINUOUS
 10
256.016407119
 20
197.4753754171
 11
256.016407119
 21
200.4753754171
  0
LINE
  5
401
100
AcDbEntity
  8
3_ALL_AXES
100
AcDbLine
 62
7
  6
CONTINUOUS
 10
256.7869698675
 20
203.4753754171
 11
256.7869698675
 21
203.0953754171
  0
LINE
  5
402
100
AcDbEntity
  8
7_ALL_FEATURES
100
AcDbLine
 62
7
  6
CONTINUOUS
 10
255.1629771881
 20
217.8730983343
 11
255.453022673
 21
218.8633755626
  0
LINE
  5
403
100
AcDbEntity
  8
7_ALL_FEATURES
100
AcDbLine
 62
3
  6
CONTINUOUS
 10
255.703022673
 20
219.2169289532
 11
255.4129771881
 21
218.2266517249
  0
LINE
  5
404
100
AcDbEntity
  8
7_ALL_FEATURES
100
AcDbLine
 62
7
  6
CONTINUOUS
 10
255.453022673
 20
218.8633755626
 11
255.703022673
 21
219.2169289532
  0
LINE
  5
405
100
AcDbEntity
  8
7_ALL_FEATURES
100
AcDbLine
 62
7
  6
CONTINUOUS
 10
255.0162162494
 20
217.4172108694
 11
255.268750588
 21
217.774348356
  0
LINE
  5
406
100
AcDbEntity
  8
3_ALL_AXES
100
AcDbLine
 62
7
  6
CONTINUOUS
 10
257.016407119
 20
191.4753754171
 11
257.016407119
 21
191.9753754171
  0
LINE
  5
407
100
AcDbEntity
  8
3_ALL_AXES
100
AcDbLine
 62
7
  6
CONTINUOUS
 10
257.7438137293
 20
203.4753754171
 11
257.7438137293
 21
200.4753754171
  0
LINE
  5
408
100
AcDbEntity
  8
3_ALL_AXES
100
AcDbLine
 62
7
  6
CONTINUOUS
 10
257.7438137293
 20
197.4753754171
 11
257.7438137293
 21
192.9753754171
  0
LINE
  5
409
100
AcDbEntity
  8
7_ALL_FEATURES
100
AcDbLine
 62
7
  6
CONTINUOUS
 10
255.2478863546
 20
213.1976767566
 11
251.9720666561
 21
204.2983262492
  0
LINE
  5
40A
100
AcDbEntity
  8
7_ALL_FEATURES
100
AcDbLine
 62
3
  6
CONTINUOUS
 10
255.5614920421
 20
212.96680245
 11
252.2856723437
 21
204.0674519426
  0
LINE
  5
40B
100
AcDbEntity
  8
7_ALL_FEATURES
100
AcDbLine
 62
4
  6
CONTINUOUS
 10
256.6708658727
 20
211.1781596958
 11
254.711832419
 21
205.8560946967
  0
LINE
  5
40C
100
AcDbEntity
  8
7_ALL_FEATURES
100
AcDbLine
 62
7
  6
CONTINUOUS
 10
251.2369698675
 20
209.2253754171
 11
250.9869698675
 21
208.9753754171
  0
LINE
  5
40D
100
AcDbEntity
  8
7_ALL_FEATURES
100
AcDbLine
 62
7
  6
CONTINUOUS
 10
260.9040567349
 20
221.7253754171
 11
260.9040567349
 21
219.2253754171
  0
LINE
  5
40E
100
AcDbEntity
  8
7_ALL_FEATURES
100
AcDbLine
 62
7
  6
CONTINUOUS
 10
260.9040567349
 20
206.3500322377
 11
260.9040567349
 21
204.7253754171
  0
LINE
  5
40F
100
AcDbEntity
  8
7_ALL_FEATURES
100
AcDbLine
 62
7
  6
CONTINUOUS
 10
263.416407119
 20
234.2253754171
 11
263.416407119
 21
231.7253754171
  0
LINE
  5
410
100
AcDbEntity
  8
7_ALL_FEATURES
100
AcDbLine
 62
7
  6
CONTINUOUS
 10
263.416407119
 20
229.2253754171
 11
263.416407119
 21
226.7253754171
  0
LINE
  5
411
100
AcDbEntity
  8
7_ALL_FEATURES
100
AcDbLine
 62
7
  6
CONTINUOUS
 10
263.416407119
 20
224.2253754171
 11
263.416407119
 21
221.7253754171
  0
LINE
  5
412
100
AcDbEntity
  8
7_ALL_FEATURES
100
AcDbLine
 62
7
  6
CONTINUOUS
 10
263.416407119
 20
219.2253754171
 11
263.416407119
 21
216.8973579483
  0
LINE
  5
413
100
AcDbEntity
  8
7_ALL_FEATURES
100
AcDbLine
 62
7
  6
CONTINUOUS
 10
256.2410222679
 20
208.8258069662
 11
255.3910194194
 21
206.5166220972
  0
LINE
  5
414
100
AcDbEntity
  8
7_ALL_FEATURES
100
AcDbLine
 62
7
  6
CONTINUOUS
 10
259.0694493927
 20
208.8258069662
 11
258.2194465441
 21
206.5166220972
  0
LINE
  5
415
100
AcDbEntity
  8
7_ALL_FEATURES
100
AcDbLine
 62
4
  6
CONTINUOUS
 10
256.8717218411
 20
207.4652621034
 11
257.7534109361
 21
208.1207019985
  0
LINE
  5
416
100
AcDbEntity
  8
7_ALL_FEATURES
100
AcDbLine
 62
7
  6
CONTINUOUS
 10
265.016407119
 20
249.4753754171
 11
207.016407119
 21
249.4753754171
  0
LINE
  5
417
100
AcDbEntity
  8
7_ALL_FEATURES
100
AcDbLine
 62
7
  6
CONTINUOUS
 10
271.066407119
 20
249.9753754171
 11
200.966407119
 21
249.9753754171
  0
LINE
  5
418
100
AcDbEntity
  8
7_ALL_FEATURES
100
AcDbLine
 62
7
  6
CONTINUOUS
 10
271.066407119
 20
250.4753754171
 11
200.966407119
 21
250.4753754171
  0
LINE
  5
419
100
AcDbEntity
  8
02___PRT_ALL_AXES
100
AcDbLine
 62
7
  6
CONTINUOUS
 10
265.016407119
 20
249.4753754171
 11
265.016407119
 21
234.2253754171
  0
LINE
  5
41A
100
AcDbEntity
  8
02___PRT_ALL_AXES
100
AcDbLine
 62
7
  6
CONTINUOUS
 10
265.016407119
 20
231.7253754171
 11
265.016407119
 21
229.2253754171
  0
LINE
  5
41B
100
AcDbEntity
  8
02___PRT_ALL_AXES
100
AcDbLine
 62
7
  6
CONTINUOUS
 10
265.016407119
 20
226.7253754171
 11
265.016407119
 21
224.2253754171
  0
LINE
  5
41C
100
AcDbEntity
  8
02___PRT_ALL_AXES
100
AcDbLine
 62
7
  6
CONTINUOUS
 10
265.016407119
 20
221.7253754171
 11
265.016407119
 21
219.2253754171
  0
LINE
  5
41D
100
AcDbEntity
  8
02___PRT_ALL_AXES
100
AcDbLine
 62
7
  6
CONTINUOUS
 10
265.016407119
 20
216.7253754171
 11
265.016407119
 21
214.2253754171
  0
LINE
  5
41E
100
AcDbEntity
  8
02___PRT_ALL_AXES
100
AcDbLine
 62
7
  6
CONTINUOUS
 10
265.016407119
 20
211.7253754171
 11
265.016407119
 21
209.2253754171
  0
LINE
  5
41F
100
AcDbEntity
  8
02___PRT_ALL_AXES
100
AcDbLine
 62
7
  6
CONTINUOUS
 10
265.016407119
 20
206.7253754171
 11
265.016407119
 21
204.7253782473
  0
LINE
  5
420
100
AcDbEntity
  8
7_ALL_FEATURES
100
AcDbLine
 62
4
  6
CONTINUOUS
 10
258.9544731061
 20
205.8560946967
 11
260.9135065599
 21
211.1781596958
  0
LINE
  5
421
100
AcDbEntity
  8
7_ALL_FEATURES
100
AcDbLine
 62
3
  6
CONTINUOUS
 10
260.0638469367
 20
204.0674519426
 11
263.3396666352
 21
212.96680245
  0
LINE
  5
422
100
AcDbEntity
  8
7_ALL_FEATURES
100
AcDbLine
 62
4
  6
CONTINUOUS
 10
257.4798787008
 20
206.8202584832
 11
258.0179337514
 21
207.333203815
  0
LINE
  5
423
100
AcDbEntity
  8
7_ALL_FEATURES
100
AcDbLine
 62
7
  6
CONTINUOUS
 10
200.966407119
 20
253.9753754171
 11
271.066407119
 21
253.9753754171
  0
LINE
  5
424
100
AcDbEntity
  8
7_ALL_FEATURES
100
AcDbLine
 62
7
  6
CONTINUOUS
 10
200.966407119
 20
254.4753754171
 11
271.066407119
 21
254.4753754171
  0
LINE
  5
425
100
AcDbEntity
  8
7_ALL_FEATURES
100
AcDbLine
 62
7
  6
CONTINUOUS
 10
271.066407119
 20
255.5753754171
 11
200.966407119
 21
255.5753754171
  0
LINE
  5
426
100
AcDbEntity
  8
7_ALL_FEATURES
100
AcDbLine
 62
9
  6
CONTINUOUS
 10
268.766407119
 20
255.5753754171
 11
268.766407119
 21
254.4753754171
  0
LINE
  5
427
100
AcDbEntity
  8
7_ALL_FEATURES
100
AcDbLine
 62
7
  6
CONTINUOUS
 10
271.066407119
 20
256.0753754171
 11
200.966407119
 21
256.0753754171
  0
LINE
  5
428
100
AcDbEntity
  8
7_ALL_FEATURES
100
AcDbLine
 62
7
  6
CONTINUOUS
 10
270.766407119
 20
255.5753754171
 11
270.766407119
 21
254.4753754171
  0
LINE
  5
429
100
AcDbEntity
  8
7_ALL_FEATURES
100
AcDbLine
 62
7
  6
CONTINUOUS
 10
271.066407119
 20
250.4753754171
 11
271.066407119
 21
253.9753754171
  0
LINE
  5
42A
100
AcDbEntity
  8
7_ALL_FEATURES
100
AcDbLine
 62
7
  6
CONTINUOUS
 10
271.066407119
 20
256.0753754171
 11
271.066407119
 21
261.0753754171
  0
LINE
  5
42B
100
AcDbEntity
  8
7_ALL_FEATURES
100
AcDbLine
 62
7
  6
CONTINUOUS
 10
271.566407119
 20
250.4753754171
 11
271.566407119
 21
253.9753754171
  0
LINE
  5
42C
100
AcDbEntity
  8
7_ALL_FEATURES
100
AcDbLine
 62
7
  6
CONTINUOUS
 10
271.566407119
 20
256.0753754171
 11
271.566407119
 21
261.0753754171
  0
LINE
  5
42D
100
AcDbEntity
  8
7_ALL_FEATURES
100
AcDbLine
 62
7
  6
CONTINUOUS
 10
264.2664037973
 20
203.9753754171
 11
265.016407119
 21
204.7253782473
  0
LINE
  5
42E
100
AcDbEntity
  8
7_ALL_FEATURES
100
AcDbLine
 62
7
  6
CONTINUOUS
 10
200.966407119
 20
261.0753754171
 11
271.066407119
 21
261.0753754171
  0
LINE
  5
42F
100
AcDbEntity
  8
7_ALL_FEATURES
100
AcDbLine
 62
7
  6
CONTINUOUS
 10
200.966407119
 20
261.5753754171
 11
271.066407119
 21
261.5753754171
  0
LINE
  5
430
100
AcDbEntity
  8
3_ALL_AXES
100
AcDbLine
 62
7
  6
CONTINUOUS
 10
257.016407119
 20
191.9753754171
 11
257.1890108964
 21
192.1479791945
  0
LINE
  5
431
100
AcDbEntity
  8
7_ALL_FEATURES
100
AcDbLine
 62
7
  6
CONTINUOUS
 10
271.066407119
 20
250.4753754171
 11
271.316407119
 21
250.2253754171
  0
LINE
  5
432
100
AcDbEntity
  8
7_ALL_FEATURES
100
AcDbLine
 62
7
  6
CONTINUOUS
 10
271.566407119
 20
253.9753754171
 11
271.066407119
 21
254.4753754171
  0
LINE
  5
433
100
AcDbEntity
  8
7_ALL_FEATURES
100
AcDbLine
 62
7
  6
CONTINUOUS
 10
271.066407119
 20
256.0753754171
 11
271.316407119
 21
255.8253754171
  0
LINE
  5
434
100
AcDbEntity
  8
7_ALL_FEATURES
100
AcDbLine
 62
7
  6
CONTINUOUS
 10
271.566407119
 20
261.0753754171
 11
271.066407119
 21
261.5753754171
  0
ARC
  5
435
100
AcDbEntity
  8
7_ALL_FEATURES
100
AcDbCircle
 62
3
  6
CONTINUOUS
 10
120.064384624
 20
215.1772027367
 40
5.6548068968
100
AcDbArc
 50
15.8934665853
 51
17.3455989631
  0
ARC
  5
436
100
AcDbEntity
  8
3_ALL_AXES
100
AcDbCircle
 62
7
  6
CONTINUOUS
 10
114.878731742
 20
204.9480155088
 40
4.1
100
AcDbArc
 50
206.8633031301
 51
243.6069742257
  0
ARC
  5
437
100
AcDbEntity
  8
3_ALL_AXES
100
AcDbCircle
 62
7
  6
CONTINUOUS
 10
115.1636173367
 20
204.9480155088
 40
4.1
100
AcDbArc
 50
296.3930257743
 51
333.1366968699
  0
ARC
  5
438
100
AcDbEntity
  8
3_ALL_AXES
100
AcDbCircle
 62
7
  6
CONTINUOUS
 10
80.9376062451
 20
204.9480155088
 40
4.1
100
AcDbArc
 50
206.8633031301
 51
243.6069742257
  0
ARC
  5
439
100
AcDbEntity
  8
3_ALL_AXES
100
AcDbCircle
 62
7
  6
CONTINUOUS
 10
81.2224918397
 20
204.9480155088
 40
4.1
100
AcDbArc
 50
296.3930257743
 51
333.1366968699
  0
ARC
  5
43A
100
AcDbEntity
  8
3_ALL_AXES
100
AcDbCircle
 62
7
  6
CONTINUOUS
 10
101.5506117909
 20
191.4753754171
 40
3.5
100
AcDbArc
 50
270.0
 51
360.0
  0
ARC
  5
43B
100
AcDbEntity
  8
3_ALL_AXES
100
AcDbCircle
 62
7
  6
CONTINUOUS
 10
94.5506117909
 20
191.4753754171
 40
3.5
100
AcDbArc
 50
180.0
 51
270.0
  0
ARC
  5
43C
100
AcDbEntity
  8
3_ALL_AXES
100
AcDbCircle
 62
7
  6
CONTINUOUS
 10
104.6388361844
 20
192.6317396199
 40
0.7499222969
100
AcDbArc
 50
298.9262583769
 51
302.0824215733
  0
ARC
  5
43D
100
AcDbEntity
  8
7_ALL_FEATURES
100
AcDbCircle
 62
3
  6
CONTINUOUS
 10
214.0026342858
 20
215.1772027367
 40
5.6548068968
100
AcDbArc
 50
162.6544010369
 51
164.1065334148
  0
ARC
  5
43E
100
AcDbEntity
  8
3_ALL_AXES
100
AcDbCircle
 62
7
  6
CONTINUOUS
 10
218.9034015732
 20
204.9480155088
 40
4.1
100
AcDbArc
 50
206.8633031301
 51
243.6069742257
  0
ARC
  5
43F
100
AcDbEntity
  8
3_ALL_AXES
100
AcDbCircle
 62
7
  6
CONTINUOUS
 10
219.1882871679
 20
204.9480155088
 40
4.1
100
AcDbArc
 50
296.3930257743
 51
333.1366968699
  0
ARC
  5
440
100
AcDbEntity
  8
3_ALL_AXES
100
AcDbCircle
 62
7
  6
CONTINUOUS
 10
252.8445270702
 20
204.9480155088
 40
4.1
100
AcDbArc
 50
206.8633031301
 51
243.6069742257
  0
ARC
  5
441
100
AcDbEntity
  8
3_ALL_AXES
100
AcDbCircle
 62
7
  6
CONTINUOUS
 10
253.1294126648
 20
204.9480155088
 40
4.1
100
AcDbArc
 50
296.3930257743
 51
333.1366968699
  0
ARC
  5
442
100
AcDbEntity
  8
3_ALL_AXES
100
AcDbCircle
 62
7
  6
CONTINUOUS
 10
246.516407119
 20
191.4753754171
 40
3.5
100
AcDbArc
 50
180.0
 51
270.0
  0
ARC
  5
443
100
AcDbEntity
  8
3_ALL_AXES
100
AcDbCircle
 62
7
  6
CONTINUOUS
 10
253.516407119
 20
191.4753754171
 40
3.5
100
AcDbArc
 50
270.0
 51
360.0
  0
ARC
  5
444
100
AcDbEntity
  8
3_ALL_AXES
100
AcDbCircle
 62
7
  6
CONTINUOUS
 10
243.4281836133
 20
192.63174119
 40
0.7499241005
100
AcDbArc
 50
237.9174984513
 51
241.0737402786
  0
SPLINE
  5
445
100
AcDbEntity
  8
7_ALL_FEATURES
100
AcDbSpline
 62
7
  6
CONTINUOUS
 70
0
 71
3
 72
9
 73
5
 74
0
 42
0.0000001
 43
0.0000001
 44
0.0000000001
 40
0.0
 40
0.0
 40
0.0
 40
0.0
 40
0.2541905889
 40
1.0
 40
1.0
 40
1.0
 40
1.0
 10
125.3198685141
 20
214.2252878823
 30
0.0
 10
125.3067095485
 20
214.1363632961
 30
0.0
 10
125.2463503442
 20
213.787879701
 30
0.0
 10
125.1513749865
 20
213.4451916587
 30
0.0
 10
125.0602656195
 20
213.1976767566
 30
0.0
  0
SPLINE
  5
446
100
AcDbEntity
  8
7_ALL_FEATURES
100
AcDbSpline
 62
7
  6
CONTINUOUS
 70
0
 71
3
 72
11
 73
7
 74
0
 42
0.0000001
 43
0.0000001
 44
0.0000000001
 40
0.0
 40
0.0
 40
0.0
 40
0.0
 40
0.2831751286
 40
0.5424836409
 40
0.7785831462
 40
1.0
 40
1.0
 40
1.0
 40
1.0
 10
82.0949522538
 20
204.2983262492
 30
0.0
 10
82.112094654
 20
204.2517558508
 30
0.0
 10
82.1543106556
 20
204.1655010208
 30
0.0
 10
82.2436540164
 20
204.0601909112
 30
0.0
 10
82.3516038888
 20
203.9916297061
 30
0.0
 10
82.4324767189
 20
203.9753754171
 30
0.0
 10
82.4712790789
 20
203.9753754171
 30
0.0
  0
SPLINE
  5
447
100
AcDbEntity
  8
7_ALL_FEATURES
100
AcDbSpline
 62
7
  6
CONTINUOUS
 70
0
 71
3
 72
11
 73
7
 74
0
 42
0.0000001
 43
0.0000001
 44
0.0000000001
 40
0.0
 40
0.0
 40
0.0
 40
0.0
 40
0.2414252117
 40
0.4947937597
 40
0.7509014051
 40
1.0
 40
1.0
 40
1.0
 40
1.0
 10
79.0508026605
 20
217.4172108694
 30
0.0
 10
78.8896242037
 20
217.1078110964
 30
0.0
 10
78.6365823705
 20
216.4316178521
 30
0.0
 10
78.4719939233
 20
215.3522820336
 30
0.0
 10
78.5191094088
 20
214.2505091072
 30
0.0
 10
78.6947913749
 20
213.5354718273
 30
0.0
 10
78.8191325553
 20
213.1976767566
 30
0.0
  0
SPLINE
  5
448
100
AcDbEntity
  8
7_ALL_FEATURES
100
AcDbSpline
 62
4
  6
CONTINUOUS
 70
0
 71
3
 72
187
 73
183
 74
0
 42
0.0000001
 43
0.0000001
 44
0.0000000001
 40
0.0
 40
0.0
 40
0.0
 40
0.0
 40
0.03125
 40
0.046875
 40
0.0625
 40
0.078125
 40
0.09375
 40
0.1015625
 40
0.109375
 40
0.11328125
 40
0.1171875
 40
0.12109375
 40
0.123046875
 40
0.1240234375
 40
0.125
 40
0.1259765625
 40
0.126953125
 40
0.12890625
 40
0.1328125
 40
0.13671875
 40
0.140625
 40
0.1484375
 40
0.15625
 40
0.171875
 40
0.1875
 40
0.203125
 40
0.2109375
 40
0.21875
 40
0.2265625
 40
0.234375
 40
0.23828125
 40
0.2421875
 40
0.244140625
 40
0.24609375
 40
0.248046875
 40
0.2490234375
 40
0.25
 40
0.2509765625
 40
0.251953125
 40
0.25390625
 40
0.255859375
 40
0.2578125
 40
0.26171875
 40
0.265625
 40
0.2734375
 40
0.28125
 40
0.2890625
 40
0.296875
 40
0.3125
 40
0.328125
 40
0.3359375
 40
0.34375
 40
0.3515625
 40
0.359375
 40
0.36328125
 40
0.3671875
 40
0.369140625
 40
0.37109375
 40
0.373046875
 40
0.3740234375
 40
0.3745117188
 40
0.375
 40
0.3754882812
 40
0.3759765625
 40
0.376953125
 40
0.37890625
 40
0.380859375
 40
0.3828125
 40
0.38671875
 40
0.390625
 40
0.3984375
 40
0.40625
 40
0.4140625
 40
0.421875
 40
0.4375
 40
0.453125
 40
0.4609375
 40
0.46875
 40
0.4765625
 40
0.484375
 40
0.48828125
 40
0.4921875
 40
0.494140625
 40
0.49609375
 40
0.498046875
 40
0.4990234375
 40
0.4995117188
 40
0.5
 40
0.5004882812
 40
0.5009765625
 40
0.501953125
 40
0.50390625
 40
0.505859375
 40
0.5078125
 40
0.51171875
 40
0.515625
 40
0.5234375
 40
0.53125
 40
0.5390625
 40
0.546875
 40
0.5625
 40
0.578125
 40
0.5859375
 40
0.59375
 40
0.6015625
 40
0.609375
 40
0.61328125
 40
0.6171875
 40
0.619140625
 40
0.62109375
 40
0.623046875
 40
0.6240234375
 40
0.6245117188
 40
0.625
 40
0.6254882812
 40
0.6259765625
 40
0.626953125
 40
0.62890625
 40
0.630859375
 40
0.6328125
 40
0.63671875
 40
0.640625
 40
0.6484375
 40
0.65625
 40
0.6640625
 40
0.671875
 40
0.6875
 40
0.703125
 40
0.7109375
 40
0.71875
 40
0.7265625
 40
0.734375
 40
0.73828125
 40
0.7421875
 40
0.744140625
 40
0.74609375
 40
0.748046875
 40
0.7490234375
 40
0.7495117188
 40
0.75
 40
0.7504882812
 40
0.7509765625
 40
0.751953125
 40
0.75390625
 40
0.755859375
 40
0.7578125
 40
0.76171875
 40
0.765625
 40
0.7734375
 40
0.78125
 40
0.7890625
 40
0.796875
 40
0.8125
 40
0.828125
 40
0.8359375
 40
0.84375
 40
0.8515625
 40
0.859375
 40
0.86328125
 40
0.8671875
 40
0.869140625
 40
0.87109375
 40
0.873046875
 40
0.8740234375
 40
0.8745117188
 40
0.875
 40
0.8754882812
 40
0.8759765625
 40
0.876953125
 40
0.87890625
 40
0.880859375
 40
0.8828125
 40
0.88671875
 40
0.890625
 40
0.8984375
 40
0.90625
 40
0.9140625
 40
0.921875
 40
0.9375
 40
0.953125
 40
0.96875
 40
1.0
 40
1.0
 40
1.0
 40
1.0
 10
76.1910681745
 20
206.7888438705
 30
0.0
 10
76.1978585608
 20
206.7799639183
 30
0.0
 10
76.2080441398
 20
206.7666439896
 30
0.0
 10
76.2216249137
 20
206.7488840864
 30
0.0
 10
76.2318104896
 20
206.7355641549
 30
0.0
 10
76.2419960826
 20
206.7222442386
 30
0.0
 10
76.2504840233
 20
206.7111442614
 30
0.0
 10
76.2572744957
 20
206.7022643845
 30
0.0
 10
76.2615182682
 20
206.6967142229
 30
0.0
 10
76.2649139108
 20
206.6922746399
 30
0.0
 10
76.2674589324
 20
206.6889434569
 30
0.0
 10
76.2695852247
 20
206.6861722293
 30
0.0
 10
76.2710629517
 20
206.684223032
 30
0.0
 10
76.2719240393
 20
206.6831237856
 30
0.0
 10
76.2725228891
 20
206.6822582771
 30
0.0
 10
76.2733012664
 20
206.6815497727
 30
0.0
 10
76.2742764815
 20
206.6805503355
 30
0.0
 10
76.2760122845
 20
206.6788268362
 30
0.0
 10
76.2784767492
 20
206.6763513544
 30
0.0
 10
76.2814406359
 20
206.6733864862
 30
0.0
 10
76.2853902044
 20
206.6694313341
 30
0.0
 10
76.2903279458
 20
206.664488077
 30
0.0
 10
76.2982278958
 20
206.6565784839
 30
0.0
 10
76.308102983
 20
206.6466916236
 30
0.0
 10
76.3199530231
 20
206.6348273345
 30
0.0
 10
76.3298280719
 20
206.6249404412
 30
0.0
 10
76.3377281064
 20
206.6170309207
 30
0.0
 10
76.3436531365
 20
206.6110987892
 30
0.0
 10
76.3495781521
 20
206.6051666254
 30
0.0
 10
76.35451571
 20
206.6002232558
 30
0.0
 10
76.3584656558
 20
206.5962683356
 30
0.0
 10
76.3609346006
 20
206.5937970216
 30
0.0
 10
76.3629092328
 20
206.5918187999
 30
0.0
 10
76.3643916408
 20
206.5903383387
 30
0.0
 10
76.3656224193
 20
206.5890944249
 30
0.0
 10
76.3666172728
 20
206.5881221619
 30
0.0
 10
76.3673354579
 20
206.5873304784
 30
0.0
 10
76.3681603478
 20
206.5867773061
 30
0.0
 10
76.3692229276
 20
206.585956428
 30
0.0
 10
76.3705639407
 20
206.5849589153
 30
0.0
 10
76.3721676826
 20
206.5837496648
 30
0.0
 10
76.3743079171
 20
206.5821416043
 30
0.0
 10
76.3769825555
 20
206.5801300655
 30
0.0
 10
76.3812623429
 20
206.5769124212
 30
0.0
 10
76.3866119515
 20
206.5728900852
 30
0.0
 10
76.3930315357
 20
206.5680634022
 30
0.0
 10
76.3994511055
 20
206.5632366871
 30
0.0
 10
76.408010537
 20
206.5568010782
 30
0.0
 10
76.4187098245
 20
206.5487565633
 30
0.0
 10
76.4294091127
 20
206.5407120493
 30
0.0
 10
76.4379685432
 20
206.534276439
 30
0.0
 10
76.4443881156
 20
206.5294497278
 30
0.0
 10
76.4508076902
 20
206.5246230302
 30
0.0
 10
76.4561573288
 20
206.5206007399
 30
0.0
 10
76.4604370551
 20
206.5173830024
 30
0.0
 10
76.4631118489
 20
206.5153717007
 30
0.0
 10
76.4652517643
 20
206.5137631534
 30
0.0
 10
76.466856481
 20
206.5125553903
 30
0.0
 10
76.4681944443
 20
206.511553224
 30
0.0
 10
76.469129646
 20
206.5108432631
 30
0.0
 10
76.4696661903
 20
206.5104507566
 30
0.0
 10
76.4700625607
 20
206.510119233
 30
0.0
 10
76.4704820106
 20
206.5099296919
 30
0.0
 10
76.4710332268
 20
206.5096274453
 30
0.0
 10
76.4720016059
 20
206.5091215885
 30
0.0
 10
76.4733830437
 20
206.5083868721
 30
0.0
 10
76.4750416084
 20
206.5075103762
 30
0.0
 10
76.4772527348
 20
206.5063399114
 30
0.0
 10
76.4800167431
 20
206.5048774479
 30
0.0
 10
76.4844391004
 20
206.5025371612
 30
0.0
 10
76.4899670663
 20
206.4996119212
 30
0.0
 10
76.4966006171
 20
206.4961015825
 30
0.0
 10
76.5032341701
 20
206.4925912574
 30
0.0
 10
76.5120789067
 20
206.4879108191
 30
0.0
 10
76.5231348277
 20
206.4820602731
 30
0.0
 10
76.5341907486
 20
206.4762097258
 30
0.0
 10
76.5430354853
 20
206.4715292895
 30
0.0
 10
76.549669038
 20
206.4680189583
 30
0.0
 10
76.5563025899
 20
206.4645086423
 30
0.0
 10
76.5618305523
 20
206.4615833317
 30
0.0
 10
76.5662529167
 20
206.4592431891
 30
0.0
 10
76.569016907
 20
206.457780359
 30
0.0
 10
76.5712280706
 20
206.4566106466
 30
0.0
 10
76.5728865214
 20
206.455731852
 30
0.0
 10
76.5742683155
 20
206.4550043277
 30
0.0
 10
76.5752360585
 20
206.4544856319
 30
0.0
 10
76.5757882939
 20
206.4542039565
 30
0.0
 10
76.5762046132
 20
206.4539512272
 30
0.0
 10
76.5766127418
 20
206.4538570279
 30
0.0
 10
76.5771597704
 20
206.4536761318
 30
0.0
 10
76.5781157392
 20
206.4533853276
 30
0.0
 10
76.5794821048
 20
206.4529564233
 30
0.0
 10
76.5811214457
 20
206.4524475035
 30
0.0
 10
76.5833073376
 20
206.4517669301
 30
0.0
 10
76.5860396668
 20
206.4509169029
 30
0.0
 10
76.5904114136
 20
206.4495564739
 30
0.0
 10
76.5958760901
 20
206.44785607
 30
0.0
 10
76.6024337049
 20
206.4458155286
 30
0.0
 10
76.608991319
 20
206.4437750023
 30
0.0
 10
76.6177348046
 20
206.4410542953
 30
0.0
 10
76.6286641615
 20
206.4376534135
 30
0.0
 10
76.6395935186
 20
206.4342525304
 30
0.0
 10
76.6483370039
 20
206.4315318256
 30
0.0
 10
76.6548946189
 20
206.4294912928
 30
0.0
 10
76.6614522301
 20
206.427450776
 30
0.0
 10
76.6669169178
 20
206.4257502953
 30
0.0
 10
76.6712886419
 20
206.4243900229
 30
0.0
 10
76.6740210288
 20
206.4235395972
 30
0.0
 10
76.6762068023
 20
206.4228598417
 30
0.0
 10
76.677846505
 20
206.4223484231
 30
0.0
 10
76.6792117388
 20
206.421927337
 30
0.0
 10
76.6801697281
 20
206.4216225759
 30
0.0
 10
76.6807135192
 20
206.4214640422
 30
0.0
 10
76.6811315922
 20
206.4213011528
 30
0.0
 10
76.6815105624
 20
206.4213064123
 30
0.0
 10
76.6820294955
 20
206.4212547727
 30
0.0
 10
76.6829312736
 20
206.4211917305
 30
0.0
 10
76.6842228504
 20
206.4210873834
 30
0.0
 10
76.6857713204
 20
206.4209682821
 30
0.0
 10
76.6878364439
 20
206.4208073444
 30
0.0
 10
76.6904176781
 20
206.4206069037
 30
0.0
 10
76.6945477479
 20
206.4202857898
 30
0.0
 10
76.6997103026
 20
206.4198845377
 30
0.0
 10
76.7059053821
 20
206.419402975
 30
0.0
 10
76.712100458
 20
206.4189214284
 30
0.0
 10
76.7203605604
 20
206.4182793606
 30
0.0
 10
76.7306856879
 20
206.417476778
 30
0.0
 10
76.7410108158
 20
206.4166741939
 30
0.0
 10
76.7492709176
 20
206.4160321284
 30
0.0
 10
76.7554659955
 20
206.415550575
 30
0.0
 10
76.761661067
 20
206.4150690379
 30
0.0
 10
76.7668236469
 20
206.4146677062
 30
0.0
 10
76.7709536652
 20
206.4143467545
 30
0.0
 10
76.7735350305
 20
206.4141459008
 30
0.0
 10
76.775599885
 20
206.4139858108
 30
0.0
 10
76.7771491766
 20
206.4138641198
 30
0.0
 10
76.7784381829
 20
206.4137678754
 30
0.0
 10
76.7793445498
 20
206.4136903685
 30
0.0
 10
76.7798561304
 20
206.4136619051
 30
0.0
 10
76.7802576852
 20
206.4135959746
 30
0.0
 10
76.7805909342
 20
206.413700463
 30
0.0
 10
76.7810590921
 20
206.4137803368
 30
0.0
 10
76.7818672674
 20
206.413947812
 30
0.0
 10
76.7830276072
 20
206.4141725825
 30
0.0
 10
76.7844175308
 20
206.414448505
 30
0.0
 10
76.78627163
 20
206.4148142368
 30
0.0
 10
76.7885889569
 20
206.4152721428
 30
0.0
 10
76.7922968459
 20
206.4160043781
 30
0.0
 10
76.7969316503
 20
206.4169198144
 30
0.0
 10
76.8024934399
 20
206.4180182771
 30
0.0
 10
76.808055223
 20
206.419116756
 30
0.0
 10
76.8154709361
 20
206.4205813889
 30
0.0
 10
76.8247405766
 20
206.4224121821
 30
0.0
 10
76.8340102177
 20
206.424242974
 30
0.0
 10
76.8414259298
 20
206.4257076091
 30
0.0
 10
76.846987716
 20
206.4268060812
 30
0.0
 10
76.8525494939
 20
206.4279045696
 30
0.0
 10
76.8571843349
 20
206.4288199257
 30
0.0
 10
76.8608921492
 20
206.4295523246
 30
0.0
 10
76.8632096663
 20
206.4300098144
 30
0.0
 10
76.865063375
 20
206.4303764005
 30
0.0
 10
76.8664544916
 20
206.430649713
 30
0.0
 10
76.8676110987
 20
206.4308826496
 30
0.0
 10
76.8684259376
 20
206.4310355469
 30
0.0
 10
76.8688834187
 20
206.4311387782
 30
0.0
 10
76.8692494631
 20
206.43117152
 30
0.0
 10
76.8695278439
 20
206.4313750577
 30
0.0
 10
76.8699295963
 20
206.4315868658
 30
0.0
 10
76.8706184161
 20
206.4319852874
 30
0.0
 10
76.8716098929
 20
206.4325399491
 30
0.0
 10
76.8727964768
 20
206.4332117548
 30
0.0
 10
76.8743797023
 20
206.4341053261
 30
0.0
 10
76.8763583528
 20
206.4352230331
 30
0.0
 10
76.8795244068
 20
206.4370109492
 30
0.0
 10
76.8834819012
 20
206.4392459867
 30
0.0
 10
76.8882309258
 20
206.4419279706
 30
0.0
 10
76.892979942
 20
206.4446099709
 30
0.0
 10
76.8993119666
 20
206.4481859656
 30
0.0
 10
76.9072269963
 20
206.4526559609
 30
0.0
 10
76.9167250323
 20
206.4580199544
 30
0.0
 10
76.9293890802
 20
206.4651719461
 30
0.0
 10
76.9388871162
 20
206.4705359398
 30
0.0
 10
76.9452191401
 20
206.4741119356
 30
0.0
  0
SPLINE
  5
449
100
AcDbEntity
  8
7_ALL_FEATURES
100
AcDbSpline
 62
4
  6
CONTINUOUS
 70
0
 71
3
 72
86
 73
82
 74
0
 42
0.0000001
 43
0.0000001
 44
0.0000000001
 40
0.0
 40
0.0
 40
0.0
 40
0.0
 40
0.0625
 40
0.09375
 40
0.109375
 40
0.125
 40
0.140625
 40
0.15625
 40
0.16015625
 40
0.1640625
 40
0.166015625
 40
0.16796875
 40
0.171875
 40
0.1796875
 40
0.1875
 40
0.203125
 40
0.21875
 40
0.25
 40
0.28125
 40
0.296875
 40
0.3125
 40
0.3203125
 40
0.328125
 40
0.33203125
 40
0.333984375
 40
0.3359375
 40
0.33984375
 40
0.34375
 40
0.359375
 40
0.375
 40
0.390625
 40
0.40625
 40
0.4375
 40
0.453125
 40
0.46875
 40
0.4765625
 40
0.484375
 40
0.4921875
 40
0.49609375
 40
0.498046875
 40
0.5
 40
0.501953125
 40
0.50390625
 40
0.5078125
 40
0.515625
 40
0.5234375
 40
0.53125
 40
0.546875
 40
0.5625
 40
0.59375
 40
0.609375
 40
0.625
 40
0.640625
 40
0.65625
 40
0.66015625
 40
0.6640625
 40
0.666015625
 40
0.66796875
 40
0.671875
 40
0.6796875
 40
0.6875
 40
0.703125
 40
0.71875
 40
0.75
 40
0.78125
 40
0.796875
 40
0.8125
 40
0.8203125
 40
0.828125
 40
0.83203125
 40
0.833984375
 40
0.8359375
 40
0.83984375
 40
0.84375
 40
0.8515625
 40
0.859375
 40
0.875
 40
0.890625
 40
0.90625
 40
0.9375
 40
1.0
 40
1.0
 40
1.0
 40
1.0
 10
76.9452191485
 20
206.4741119424
 30
0.0
 10
76.951370422
 20
206.4796826449
 30
0.0
 10
76.960597356
 20
206.4880386703
 30
0.0
 10
76.9713620295
 20
206.4977874657
 30
0.0
 10
76.9775133897
 20
206.5033580644
 30
0.0
 10
76.9821265791
 20
206.5075364097
 30
0.0
 10
76.9867410321
 20
206.5117132408
 30
0.0
 10
76.9901983291
 20
206.5148501093
 30
0.0
 10
76.9925087036
 20
206.5169347529
 30
0.0
 10
76.9934631607
 20
206.5178131787
 30
0.0
 10
76.9942458527
 20
206.5184930012
 30
0.0
 10
76.9949585987
 20
206.5192566367
 30
0.0
 10
76.9961734055
 20
206.5206319402
 30
0.0
 10
76.9979258
 20
206.5225763418
 30
0.0
 10
77.0007201551
 20
206.5256987391
 30
0.0
 10
77.004216345
 20
206.5295978463
 30
0.0
 10
77.0098084262
 20
206.5358386009
 30
0.0
 10
77.0167992136
 20
206.5436387283
 30
0.0
 10
77.0237895355
 20
206.5514393903
 30
0.0
 10
77.0293823616
 20
206.5576792894
 30
0.0
 10
77.0328766891
 20
206.5615805354
 30
0.0
 10
77.0356748622
 20
206.564698548
 30
0.0
 10
77.0374175372
 20
206.5666541118
 30
0.0
 10
77.0386498013
 20
206.5680093669
 30
0.0
 10
77.0393345644
 20
206.5688051387
 30
0.0
 10
77.0399463036
 20
206.5696812891
 30
0.0
 10
77.0407359374
 20
206.5707490034
 30
0.0
 10
77.0426105156
 20
206.5733341298
 30
0.0
 10
77.0454310112
 20
206.5772023219
 30
0.0
 10
77.0491867402
 20
206.5823653401
 30
0.0
 10
77.0529437895
 20
206.587526905
 30
0.0
 10
77.0579527227
 20
206.5944095039
 30
0.0
 10
77.0629618101
 20
206.6012919352
 30
0.0
 10
77.0679707844
 20
206.608174485
 30
0.0
 10
77.0711015476
 20
206.6124759222
 30
0.0
 10
77.0736058162
 20
206.6159174177
 30
0.0
 10
77.075484951
 20
206.618497596
 30
0.0
 10
77.077047928
 20
206.620650745
 30
0.0
 10
77.0781478377
 20
206.6221520611
 30
0.0
 10
77.078767261
 20
206.6230191499
 30
0.0
 10
77.0792574538
 20
206.6236435672
 30
0.0
 10
77.0796496935
 20
206.6243669846
 30
0.0
 10
77.0802068468
 20
206.6252970088
 30
0.0
 10
77.0811659462
 20
206.6269406403
 30
0.0
 10
77.0825444108
 20
206.6292802737
 30
0.0
 10
77.0841950059
 20
206.6320914343
 30
0.0
 10
77.0863970438
 20
206.6358383907
 30
0.0
 10
77.0891491637
 20
206.6405225182
 30
0.0
 10
77.0935528029
 20
206.6480168728
 30
0.0
 10
77.0979563258
 20
206.6555113409
 30
0.0
 10
77.1023600121
 20
206.6630056556
 30
0.0
 10
77.1056624029
 20
206.6686267383
 30
0.0
 10
77.1089662076
 20
206.6742465109
 30
0.0
 10
77.1114400999
 20
206.6784650109
 30
0.0
 10
77.1130955217
 20
206.681271636
 30
0.0
 10
77.1137761139
 20
206.6824495573
 30
0.0
 10
77.1143419722
 20
206.683372079
 30
0.0
 10
77.1148296261
 20
206.6843670668
 30
0.0
 10
77.115646685
 20
206.6861419647
 30
0.0
 10
77.11683287
 20
206.6886599662
 30
0.0
 10
77.1187201713
 20
206.6926985861
 30
0.0
 10
77.1210829268
 20
206.6977434971
 30
0.0
 10
77.1248612999
 20
206.7058172483
 30
0.0
 10
77.1295850189
 20
206.7159086914
 30
0.0
 10
77.1343082718
 20
206.7260007511
 30
0.0
 10
77.1380873906
 20
206.7340735158
 30
0.0
 10
77.1404482819
 20
206.739120893
 30
0.0
 10
77.1423394048
 20
206.7431544573
 30
0.0
 10
77.1435158609
 20
206.7456853291
 30
0.0
 10
77.1443503941
 20
206.7474371106
 30
0.0
 10
77.1448100379
 20
206.7484691525
 30
0.0
 10
77.145204765
 20
206.7496180661
 30
0.0
 10
77.1457204012
 20
206.7510141914
 30
0.0
 10
77.1465329975
 20
206.7532703552
 30
0.0
 10
77.147552996
 20
206.7560829027
 30
0.0
 10
77.1491826166
 20
206.7605872583
 30
0.0
 10
77.1512204579
 20
206.7662162344
 30
0.0
 10
77.1536655184
 20
206.7729716343
 30
0.0
 10
77.1569257208
 20
206.7819786149
 30
0.0
 10
77.162631018
 20
206.7977409336
 30
0.0
 10
77.1675212923
 20
206.8112514573
 30
0.0
 10
77.1707814708
 20
206.8202584809
 30
0.0
  0
SPLINE
  5
44A
100
AcDbEntity
  8
7_ALL_FEATURES
100
AcDbSpline
 62
4
  6
CONTINUOUS
 70
0
 71
3
 72
169
 73
165
 74
0
 42
0.0000001
 43
0.0000001
 44
0.0000000001
 40
0.0
 40
0.0
 40
0.0
 40
0.0
 40
0.03125
 40
0.046875
 40
0.0625
 40
0.078125
 40
0.0859375
 40
0.09375
 40
0.1015625
 40
0.109375
 40
0.11328125
 40
0.1171875
 40
0.119140625
 40
0.12109375
 40
0.123046875
 40
0.1240234375
 40
0.1245117188
 40
0.125
 40
0.1254882812
 40
0.1259765625
 40
0.126953125
 40
0.12890625
 40
0.130859375
 40
0.1328125
 40
0.13671875
 40
0.140625
 40
0.1484375
 40
0.15625
 40
0.1640625
 40
0.171875
 40
0.1875
 40
0.203125
 40
0.2109375
 40
0.21875
 40
0.2265625
 40
0.234375
 40
0.23828125
 40
0.2421875
 40
0.244140625
 40
0.24609375
 40
0.248046875
 40
0.2490234375
 40
0.2495117188
 40
0.25
 40
0.2504882812
 40
0.2509765625
 40
0.251953125
 40
0.25390625
 40
0.255859375
 40
0.2578125
 40
0.26171875
 40
0.265625
 40
0.2734375
 40
0.28125
 40
0.2890625
 40
0.296875
 40
0.3125
 40
0.328125
 40
0.3359375
 40
0.34375
 40
0.3515625
 40
0.359375
 40
0.36328125
 40
0.3671875
 40
0.369140625
 40
0.37109375
 40
0.373046875
 40
0.3740234375
 40
0.375
 40
0.3759765625
 40
0.376953125
 40
0.37890625
 40
0.380859375
 40
0.3828125
 40
0.38671875
 40
0.390625
 40
0.3984375
 40
0.40625
 40
0.4140625
 40
0.421875
 40
0.4375
 40
0.453125
 40
0.46875
 40
0.4765625
 40
0.484375
 40
0.48828125
 40
0.4921875
 40
0.49609375
 40
0.498046875
 40
0.4990234375
 40
0.5
 40
0.5009765625
 40
0.501953125
 40
0.50390625
 40
0.5078125
 40
0.51171875
 40
0.515625
 40
0.5234375
 40
0.53125
 40
0.546875
 40
0.5625
 40
0.578125
 40
0.59375
 40
0.6015625
 40
0.609375
 40
0.61328125
 40
0.6171875
 40
0.62109375
 40
0.623046875
 40
0.6240234375
 40
0.625
 40
0.6259765625
 40
0.626953125
 40
0.62890625
 40
0.6328125
 40
0.63671875
 40
0.640625
 40
0.6484375
 40
0.65625
 40
0.671875
 40
0.6875
 40
0.703125
 40
0.71875
 40
0.7265625
 40
0.734375
 40
0.73828125
 40
0.7421875
 40
0.74609375
 40
0.748046875
 40
0.7490234375
 40
0.75
 40
0.7509765625
 40
0.751953125
 40
0.75390625
 40
0.7578125
 40
0.76171875
 40
0.765625
 40
0.7734375
 40
0.78125
 40
0.796875
 40
0.8125
 40
0.828125
 40
0.84375
 40
0.8515625
 40
0.859375
 40
0.86328125
 40
0.8671875
 40
0.87109375
 40
0.873046875
 40
0.8740234375
 40
0.875
 40
0.8759765625
 40
0.876953125
 40
0.87890625
 40
0.8828125
 40
0.88671875
 40
0.890625
 40
0.8984375
 40
0.90625
 40
0.921875
 40
0.9375
 40
0.953125
 40
0.96875
 40
1.0
 40
1.0
 40
1.0
 40
1.0
 10
75.7792458793
 20
208.8053699537
 30
0.0
 10
75.7759194285
 20
208.8011332509
 30
0.0
 10
75.7709297524
 20
208.7947781968
 30
0.0
 10
75.7642768507
 20
208.7863047914
 30
0.0
 10
75.7592871746
 20
208.7799497372
 30
0.0
 10
75.7551291108
 20
208.7746538591
 30
0.0
 10
75.7518026607
 20
208.7704171557
 30
0.0
 10
75.7493078206
 20
208.7672396308
 30
0.0
 10
75.7468129902
 20
208.7640620957
 30
0.0
 10
75.7447339344
 20
208.7614141815
 30
0.0
 10
75.7430707581
 20
208.7592957792
 30
0.0
 10
75.7420311173
 20
208.7579719392
 30
0.0
 10
75.7411997609
 20
208.7569124974
 30
0.0
 10
75.7405752683
 20
208.7561189287
 30
0.0
 10
75.7400579605
 20
208.7554544002
 30
0.0
 10
75.739689756
 20
208.7549955517
 30
0.0
 10
75.739488861
 20
208.7547234821
 30
0.0
 10
75.7393114069
 20
208.7545472353
 30
0.0
 10
75.7392363303
 20
208.754264702
 30
0.0
 10
75.7391005177
 20
208.7539250648
 30
0.0
 10
75.7388794838
 20
208.7533134262
 30
0.0
 10
75.7385550225
 20
208.7524486876
 30
0.0
 10
75.7381693922
 20
208.7514071358
 30
0.0
 10
75.737653918
 20
208.7500197502
 30
0.0
 10
75.7370100206
 20
208.7482850559
 30
0.0
 10
75.7359795358
 20
208.7455098035
 30
0.0
 10
75.7346915152
 20
208.7420406492
 30
0.0
 10
75.7331458539
 20
208.7378777022
 30
0.0
 10
75.7316002024
 20
208.7337147449
 30
0.0
 10
75.7295393303
 20
208.7281641388
 30
0.0
 10
75.7269632415
 20
208.7212258799
 30
0.0
 10
75.7243871518
 20
208.7142876217
 30
0.0
 10
75.7223262811
 20
208.7087370144
 30
0.0
 10
75.7207806252
 20
208.7045740609
 30
0.0
 10
75.7192349804
 20
208.7004110997
 30
0.0
 10
75.7179469086
 20
208.6969419893
 30
0.0
 10
75.7169165283
 20
208.6941666475
 30
0.0
 10
75.716272365
 20
208.6924321805
 30
0.0
 10
75.7157574364
 20
208.6910443284
 30
0.0
 10
75.7153701393
 20
208.6900042018
 30
0.0
 10
75.7150508932
 20
208.6891350041
 30
0.0
 10
75.7148205492
 20
208.6885313258
 30
0.0
 10
75.7146996538
 20
208.6881789343
 30
0.0
 10
75.7145787565
 20
208.6879355781
 30
0.0
 10
75.7145733971
 20
208.6876121884
 30
0.0
 10
75.7145259503
 20
208.6872089187
 30
0.0
 10
75.7144616954
 20
208.6864901898
 30
0.0
 10
75.7143600859
 20
208.6854702345
 30
0.0
 10
75.7142423564
 20
208.6842433774
 30
0.0
 10
75.714083916
 20
208.6826085845
 30
0.0
 10
75.7138863681
 20
208.6805647454
 30
0.0
 10
75.7135700106
 20
208.6772947973
 30
0.0
 10
75.7131746601
 20
208.6732072955
 30
0.0
 10
75.7127001982
 20
208.6683023219
 30
0.0
 10
75.7122257474
 20
208.6633973406
 30
0.0
 10
75.7115931424
 20
208.6568573683
 30
0.0
 10
75.7108023871
 20
208.6486824021
 30
0.0
 10
75.7100116328
 20
208.6405074356
 30
0.0
 10
75.7093790264
 20
208.6339674637
 30
0.0
 10
75.7089045799
 20
208.629062481
 30
0.0
 10
75.7084301015
 20
208.624157513
 30
0.0
 10
75.7080348021
 20
208.6200699938
 30
0.0
 10
75.7077183404
 20
208.6168000811
 30
0.0
 10
75.7075210577
 20
208.6147561518
 30
0.0
 10
75.707362073
 20
208.613121544
 30
0.0
 10
75.7072460066
 20
208.6118941217
 30
0.0
 10
75.7071391935
 20
208.6108759348
 30
0.0
 10
75.7070763757
 20
208.6100509224
 30
0.0
 10
75.706967419
 20
208.6094607526
 30
0.0
 10
75.707094519
 20
208.6087614564
 30
0.0
 10
75.707181528
 20
208.6078671807
 30
0.0
 10
75.70731858
 20
208.6067362576
 30
0.0
 10
75.707470933
 20
208.6053847478
 30
0.0
 10
75.7076783
 20
208.6035807796
 30
0.0
 10
75.7079360605
 20
208.6013264887
 30
0.0
 10
75.7083492867
 20
208.5977192492
 30
0.0
 10
75.7088655417
 20
208.5932103283
 30
0.0
 10
75.7094851668
 20
208.587799568
 30
0.0
 10
75.7101047599
 20
208.5823888226
 30
0.0
 10
75.7109308959
 20
208.57517449
 30
0.0
 10
75.7119635571
 20
208.5661565771
 30
0.0
 10
75.7132027748
 20
208.5553350757
 30
0.0
 10
75.7142353873
 20
208.5463171739
 30
0.0
 10
75.7150616305
 20
208.5391028171
 30
0.0
 10
75.7155776838
 20
208.5345939244
 30
0.0
 10
75.7159913252
 20
208.5309866263
 30
0.0
 10
75.7162993691
 20
208.5282816565
 30
0.0
 10
75.7165630299
 20
208.5260259123
 30
0.0
 10
75.7167339386
 20
208.5244500366
 30
0.0
 10
75.71685292
 20
208.5235446251
 30
0.0
 10
75.7168820993
 20
208.5228794013
 30
0.0
 10
75.7171408461
 20
208.522161294
 30
0.0
 10
75.7174057662
 20
208.5212222639
 30
0.0
 10
75.7179066851
 20
208.5195703668
 30
0.0
 10
75.7186027781
 20
208.517215007
 30
0.0
 10
75.7194464387
 20
208.5143866521
 30
0.0
 10
75.7205684033
 20
208.5106161839
 30
0.0
 10
75.7219718576
 20
208.5059028687
 30
0.0
 10
75.7242168262
 20
208.4983616929
 30
0.0
 10
75.7270232297
 20
208.4889351791
 30
0.0
 10
75.7303908262
 20
208.4776233813
 30
0.0
 10
75.7337584651
 20
208.4663115789
 30
0.0
 10
75.7365647626
 20
208.4568850764
 30
0.0
 10
75.7388099431
 20
208.449343878
 30
0.0
 10
75.7402128587
 20
208.4446306202
 30
0.0
 10
75.741335929
 20
208.4408600343
 30
0.0
 10
75.7421762114
 20
208.4380320389
 30
0.0
 10
75.7428828739
 20
208.4356755543
 30
0.0
 10
75.7433649245
 20
208.4340256652
 30
0.0
 10
75.7436600765
 20
208.4330834178
 30
0.0
 10
75.7438259605
 20
208.4323751932
 30
0.0
 10
75.744203917
 20
208.4316728517
 30
0.0
 10
75.7446338857
 20
208.4307343442
 30
0.0
 10
75.7454207964
 20
208.4290929123
 30
0.0
 10
75.7465269356
 20
208.4267475098
 30
0.0
 10
75.7478620153
 20
208.4239332406
 30
0.0
 10
75.7496394278
 20
208.420180807
 30
0.0
 10
75.7518621157
 20
208.4154902906
 30
0.0
 10
75.7554179007
 20
208.40798545
 30
0.0
 10
75.75986281
 20
208.3986044046
 30
0.0
 10
75.7651966204
 20
208.3873471462
 30
0.0
 10
75.7705304689
 20
208.3760898946
 30
0.0
 10
75.774975283
 20
208.3667088323
 30
0.0
 10
75.7785312583
 20
208.3592040254
 30
0.0
 10
75.7807534627
 20
208.3545134233
 30
0.0
 10
75.7825318677
 20
208.3507611656
 30
0.0
 10
75.783863915
 20
208.3479463591
 30
0.0
 10
75.7849795419
 20
208.3456026378
 30
0.0
 10
75.7857495155
 20
208.3439582046
 30
0.0
 10
75.7862066216
 20
208.343024506
 30
0.0
 10
75.7865012205
 20
208.3423073932
 30
0.0
 10
75.7869801817
 20
208.3416546468
 30
0.0
 10
75.7875544889
 20
208.3407618666
 30
0.0
 10
75.7885894887
 20
208.3392099619
 30
0.0
 10
75.7900523953
 20
208.3369874863
 30
0.0
 10
75.7918145881
 20
208.3343228563
 30
0.0
 10
75.7941618367
 20
208.3307691988
 30
0.0
 10
75.7970966993
 20
208.3263274069
 30
0.0
 10
75.8017920311
 20
208.3192203832
 30
0.0
 10
75.8076613506
 20
208.310336658
 30
0.0
 10
75.8147044638
 20
208.2996761618
 30
0.0
 10
75.8217476101
 20
208.2890156822
 30
0.0
 10
75.827616847
 20
208.2801319156
 30
0.0
 10
75.8323123439
 20
208.2730249746
 30
0.0
 10
75.8352467867
 20
208.2685829724
 30
0.0
 10
75.8375948969
 20
208.2650297464
 30
0.0
 10
75.8393544575
 20
208.2623637983
 30
0.0
 10
75.8408255996
 20
208.260145447
 30
0.0
 10
75.8418458977
 20
208.2585861795
 30
0.0
 10
75.8424437607
 20
208.2577051963
 30
0.0
 10
75.8428503661
 20
208.2570162134
 30
0.0
 10
75.8434167212
 20
208.2564351988
 30
0.0
 10
75.8441161388
 20
208.2556228522
 30
0.0
 10
75.8453660818
 20
208.2542187922
 30
0.0
 10
75.8471381413
 20
208.2522038187
 30
0.0
 10
75.8492704226
 20
208.249789777
 30
0.0
 10
75.852111435
 20
208.2465696834
 30
0.0
 10
75.8556633954
 20
208.2425450359
 30
0.0
 10
75.8613461436
 20
208.2361053374
 30
0.0
 10
75.8684497121
 20
208.2280558044
 30
0.0
 10
75.8769739373
 20
208.2183963262
 30
0.0
 10
75.8854981777
 20
208.2087368583
 30
0.0
 10
75.8968638262
 20
208.1958575642
 30
0.0
 10
75.9053880638
 20
208.1861980944
 30
0.0
 10
75.9110708886
 20
208.1797584477
 30
0.0
  0
SPLINE
  5
44B
100
AcDbEntity
  8
7_ALL_FEATURES
100
AcDbSpline
 62
4
  6
CONTINUOUS
 70
0
 71
3
 72
109
 73
105
 74
0
 42
0.0000001
 43
0.0000001
 44
0.0000000001
 40
0.0
 40
0.0
 40
0.0
 40
0.0
 40
0.0625
 40
0.09375
 40
0.109375
 40
0.125
 40
0.140625
 40
0.1484375
 40
0.15625
 40
0.16015625
 40
0.1640625
 40
0.166015625
 40
0.1669921875
 40
0.16796875
 40
0.169921875
 40
0.171875
 40
0.1796875
 40
0.1875
 40
0.1953125
 40
0.203125
 40
0.21875
 40
0.25
 40
0.28125
 40
0.296875
 40
0.3046875
 40
0.3125
 40
0.3203125
 40
0.328125
 40
0.330078125
 40
0.33203125
 40
0.3330078125
 40
0.333984375
 40
0.3359375
 40
0.33984375
 40
0.34375
 40
0.3515625
 40
0.359375
 40
0.375
 40
0.390625
 40
0.40625
 40
0.421875
 40
0.4375
 40
0.453125
 40
0.46875
 40
0.4765625
 40
0.484375
 40
0.48828125
 40
0.4921875
 40
0.49609375
 40
0.498046875
 40
0.4990234375
 40
0.5
 40
0.5009765625
 40
0.501953125
 40
0.50390625
 40
0.5078125
 40
0.51171875
 40
0.515625
 40
0.5234375
 40
0.53125
 40
0.546875
 40
0.5625
 40
0.578125
 40
0.59375
 40
0.609375
 40
0.625
 40
0.640625
 40
0.6484375
 40
0.65625
 40
0.66015625
 40
0.6640625
 40
0.666015625
 40
0.6669921875
 40
0.66796875
 40
0.669921875
 40
0.671875
 40
0.6796875
 40
0.6875
 40
0.6953125
 40
0.703125
 40
0.71875
 40
0.75
 40
0.78125
 40
0.796875
 40
0.8046875
 40
0.8125
 40
0.8203125
 40
0.82421875
 40
0.828125
 40
0.830078125
 40
0.83203125
 40
0.8330078125
 40
0.833984375
 40
0.8359375
 40
0.83984375
 40
0.84375
 40
0.8515625
 40
0.859375
 40
0.875
 40
0.890625
 40
0.90625
 40
0.9375
 40
0.96875
 40
1.0
 40
1.0
 40
1.0
 40
1.0
 10
76.1835306362
 20
208.8053699537
 30
0.0
 10
76.1739595261
 20
208.8097614281
 30
0.0
 10
76.1596028617
 20
208.8163486323
 30
0.0
 10
76.1428534174
 20
208.8240337301
 30
0.0
 10
76.1332823099
 20
208.828425177
 30
0.0
 10
76.1261039695
 20
208.8317188675
 30
0.0
 10
76.1201220502
 20
208.8344632742
 30
0.0
 10
76.1153364451
 20
208.8366595517
 30
0.0
 10
76.1123456007
 20
208.8380305126
 30
0.0
 10
76.1099525614
 20
208.8391312033
 30
0.0
 10
76.1084577419
 20
208.8398101865
 30
0.0
 10
76.1074097047
 20
208.8403034085
 30
0.0
 10
76.1068134291
 20
208.8405571906
 30
0.0
 10
76.1062269572
 20
208.8407052884
 30
0.0
 10
76.1054905165
 20
208.8409265339
 30
0.0
 10
76.1037258166
 20
208.8414277921
 30
0.0
 10
76.1010776083
 20
208.8421921668
 30
0.0
 10
76.0975473261
 20
208.8432041958
 30
0.0
 10
76.0940168667
 20
208.8442181341
 30
0.0
 10
76.0893096494
 20
208.8455693856
 30
0.0
 10
76.08107199
 20
208.847934388
 30
0.0
 10
76.0693039224
 20
208.8513127839
 30
0.0
 10
76.0575358414
 20
208.8546913012
 30
0.0
 10
76.0492982008
 20
208.8570561336
 30
0.0
 10
76.044590954
 20
208.8584076523
 30
0.0
 10
76.0410605851
 20
208.8594207705
 30
0.0
 10
76.0375299629
 20
208.8604358793
 30
0.0
 10
76.0348827067
 20
208.8611916298
 30
0.0
 10
76.0331167643
 20
208.8617041432
 30
0.0
 10
76.0323825992
 20
208.8619047746
 30
0.0
 10
76.0317914315
 20
208.8620954098
 30
0.0
 10
76.0312142908
 20
208.8621758572
 30
0.0
 10
76.0302108117
 20
208.8622654444
 30
0.0
 10
76.0287738698
 20
208.8624201376
 30
0.0
 10
76.026476663
 20
208.862652719
 30
0.0
 10
76.0236045038
 20
208.8629485571
 30
0.0
 10
76.0190094128
 20
208.8634190412
 30
0.0
 10
76.0132654243
 20
208.8640081267
 30
0.0
 10
76.0063726917
 20
208.864714609
 30
0.0
 10
75.9994799445
 20
208.8654212041
 30
0.0
 10
75.9925872017
 20
208.866127768
 30
0.0
 10
75.9856944561
 20
208.8668343439
 30
0.0
 10
75.9788017173
 20
208.8675409034
 30
0.0
 10
75.9730577477
 20
208.8681297475
 30
0.0
 10
75.9684626181
 20
208.8686007241
 30
0.0
 10
75.9655905573
 20
208.8688953088
 30
0.0
 10
75.9632931487
 20
208.8691304629
 30
0.0
 10
75.9615694349
 20
208.869308235
 30
0.0
 10
75.960135098
 20
208.8694519039
 30
0.0
 10
75.959126958
 20
208.8695612533
 30
0.0
 10
75.9585572864
 20
208.8696100275
 30
0.0
 10
75.9581119803
 20
208.8696852327
 30
0.0
 10
75.9577356794
 20
208.8696127956
 30
0.0
 10
75.9572098751
 20
208.869567712
 30
0.0
 10
75.9563009321
 20
208.8694648214
 30
0.0
 10
75.9549965791
 20
208.8693303793
 30
0.0
 10
75.953433865
 20
208.8691636793
 30
0.0
 10
75.9513493697
 20
208.8689432881
 30
0.0
 10
75.9487440507
 20
208.868667157
 30
0.0
 10
75.9445753725
 20
208.8682257061
 30
0.0
 10
75.9393645824
 20
208.8676737691
 30
0.0
 10
75.9331116093
 20
208.8670114983
 30
0.0
 10
75.9268586438
 20
208.8663492109
 30
0.0
 10
75.9206056731
 20
208.8656869359
 30
0.0
 10
75.9143527155
 20
208.8650246283
 30
0.0
 10
75.9080997109
 20
208.8643624385
 30
0.0
 10
75.9028890194
 20
208.8638102481
 30
0.0
 10
75.89872014
 20
208.8633693143
 30
0.0
 10
75.8961153332
 20
208.863091867
 30
0.0
 10
75.8940297864
 20
208.8628741775
 30
0.0
 10
75.8927302018
 20
208.8627283826
 30
0.0
 10
75.8918127123
 20
208.8626458442
 30
0.0
 10
75.8913006055
 20
208.8625681416
 30
0.0
 10
75.8908343478
 20
208.8623754184
 30
0.0
 10
75.8902358543
 20
208.8621738289
 30
0.0
 10
75.8888123681
 20
208.8616576564
 30
0.0
 10
75.8866717214
 20
208.8608969883
 30
0.0
 10
75.8838206222
 20
208.8598749964
 30
0.0
 10
75.8809686948
 20
208.8588550824
 30
0.0
 10
75.8771664137
 20
208.8574944722
 30
0.0
 10
75.8705122876
 20
208.8551137416
 30
0.0
 10
75.8610064604
 20
208.8517125257
 30
0.0
 10
75.8515006199
 20
208.8483113565
 30
0.0
 10
75.8448465124
 20
208.8459305604
 30
0.0
 10
75.841044202
 20
208.8445700532
 30
0.0
 10
75.8381923647
 20
208.8435498233
 30
0.0
 10
75.8358161665
 20
208.8426991518
 30
0.0
 10
75.8339144613
 20
208.8420196911
 30
0.0
 10
75.8327275957
 20
208.8415925768
 30
0.0
 10
75.8317742095
 20
208.8412564997
 30
0.0
 10
75.8311872274
 20
208.8410336413
 30
0.0
 10
75.8306972928
 20
208.8408846954
 30
0.0
 10
75.8302816467
 20
208.8406286346
 30
0.0
 10
75.8295887763
 20
208.8401307688
 30
0.0
 10
75.8285809557
 20
208.8394454939
 30
0.0
 10
75.8269785052
 20
208.8383345453
 30
0.0
 10
75.8249719966
 20
208.8369508274
 30
0.0
 10
75.8217635086
 20
208.8347341023
 30
0.0
 10
75.8177522379
 20
208.8319641484
 30
0.0
 10
75.8129389958
 20
208.8286397961
 30
0.0
 10
75.806521241
 20
208.8242074687
 30
0.0
 10
75.7984990813
 20
208.8186670106
 30
0.0
 10
75.7888724751
 20
208.8120184819
 30
0.0
 10
75.7824547404
 20
208.8075861254
 30
0.0
 10
75.7792458728
 20
208.8053699477
 30
0.0
  0
SPLINE
  5
44C
100
AcDbEntity
  8
7_ALL_FEATURES
100
AcDbSpline
 62
4
  6
CONTINUOUS
 70
0
 71
3
 72
122
 73
118
 74
0
 42
0.0000001
 43
0.0000001
 44
0.0000000001
 40
0.0
 40
0.0
 40
0.0
 40
0.0
 40
0.03125
 40
0.0625
 40
0.078125
 40
0.09375
 40
0.109375
 40
0.125
 40
0.140625
 40
0.1484375
 40
0.15234375
 40
0.15625
 40
0.16015625
 40
0.1640625
 40
0.1650390625
 40
0.166015625
 40
0.1665039062
 40
0.1669921875
 40
0.16796875
 40
0.169921875
 40
0.171875
 40
0.17578125
 40
0.1796875
 40
0.1875
 40
0.1953125
 40
0.203125
 40
0.21875
 40
0.25
 40
0.28125
 40
0.296875
 40
0.3046875
 40
0.3125
 40
0.3203125
 40
0.32421875
 40
0.328125
 40
0.330078125
 40
0.33203125
 40
0.3330078125
 40
0.3334960938
 40
0.333984375
 40
0.3349609375
 40
0.3359375
 40
0.33984375
 40
0.34375
 40
0.34765625
 40
0.3515625
 40
0.359375
 40
0.375
 40
0.390625
 40
0.40625
 40
0.421875
 40
0.4375
 40
0.453125
 40
0.46875
 40
0.4765625
 40
0.484375
 40
0.48828125
 40
0.4921875
 40
0.49609375
 40
0.498046875
 40
0.4990234375
 40
0.5
 40
0.5009765625
 40
0.501953125
 40
0.50390625
 40
0.5078125
 40
0.51171875
 40
0.515625
 40
0.5234375
 40
0.53125
 40
0.546875
 40
0.5625
 40
0.578125
 40
0.59375
 40
0.609375
 40
0.625
 40
0.640625
 40
0.6484375
 40
0.65234375
 40
0.65625
 40
0.66015625
 40
0.6640625
 40
0.6650390625
 40
0.666015625
 40
0.6669921875
 40
0.66796875
 40
0.669921875
 40
0.671875
 40
0.67578125
 40
0.6796875
 40
0.6875
 40
0.6953125
 40
0.703125
 40
0.71875
 40
0.75
 40
0.78125
 40
0.796875
 40
0.8046875
 40
0.8125
 40
0.8203125
 40
0.82421875
 40
0.828125
 40
0.830078125
 40
0.83203125
 40
0.8330078125
 40
0.833984375
 40
0.8359375
 40
0.83984375
 40
0.84375
 40
0.8515625
 40
0.859375
 40
0.875
 40
0.890625
 40
0.90625
 40
0.9375
 40
0.96875
 40
1.0
 40
1.0
 40
1.0
 40
1.0
 10
76.0877774726
 20
207.4652621034
 30
0.0
 10
76.0854474607
 20
207.4597929493
 30
0.0
 10
76.0807874368
 20
207.4488546412
 30
0.0
 10
76.0749624072
 20
207.4351817559
 30
0.0
 10
76.0703023831
 20
207.4242434479
 30
0.0
 10
76.0668073661
 20
207.4160397162
 30
0.0
 10
76.0633123451
 20
207.4078359874
 30
0.0
 10
76.059817339
 20
207.3996322476
 30
0.0
 10
76.0569047876
 20
207.392795832
 30
0.0
 10
76.0548660924
 20
207.3880102739
 30
0.0
 10
76.0537009819
 20
207.3852757742
 30
0.0
 10
76.0528275486
 20
207.383224604
 30
0.0
 10
76.051952588
 20
207.3811745628
 30
0.0
 10
76.0513006497
 20
207.3796338666
 30
0.0
 10
76.0508593645
 20
207.3786116585
 30
0.0
 10
76.0506854057
 20
207.3781784132
 30
0.0
 10
76.0505231204
 20
207.3778489052
 30
0.0
 10
76.0504453802
 20
207.3774569046
 30
0.0
 10
76.0503486164
 20
207.3767418682
 30
0.0
 10
76.0501898873
 20
207.3757355367
 30
0.0
 10
76.0499473743
 20
207.3741169403
 30
0.0
 10
76.0496403114
 20
207.3720965937
 30
0.0
 10
76.0491512025
 20
207.3688624188
 30
0.0
 10
76.0485390644
 20
207.3648202562
 30
0.0
 10
76.0478048206
 20
207.359969423
 30
0.0
 10
76.0468257165
 20
207.3535017286
 30
0.0
 10
76.045112337
 20
207.3421832243
 30
0.0
 10
76.0426646218
 20
207.3260139545
 30
0.0
 10
76.040216927
 20
207.309844671
 30
0.0
 10
76.0385035188
 20
207.298526186
 30
0.0
 10
76.0375244598
 20
207.2920584613
 30
0.0
 10
76.0367900776
 20
207.2872077209
 30
0.0
 10
76.0361783726
 20
207.2831652681
 30
0.0
 10
76.0356883801
 20
207.2799316851
 30
0.0
 10
76.035383566
 20
207.2779098322
 30
0.0
 10
76.035136437
 20
207.2762943276
 30
0.0
 10
76.0349894599
 20
207.2752801245
 30
0.0
 10
76.0348715882
 20
207.2745792265
 30
0.0
 10
76.0348276826
 20
207.2741645629
 30
0.0
 10
76.0348721
 20
207.2736966017
 30
0.0
 10
76.0348974326
 20
207.2731298676
 30
0.0
 10
76.0349830778
 20
207.2717547119
 30
0.0
 10
76.0351011097
 20
207.2696982758
 30
0.0
 10
76.0352644503
 20
207.2669527617
 30
0.0
 10
76.0354261953
 20
207.2642082104
 30
0.0
 10
76.0356424119
 20
207.2605484729
 30
0.0
 10
76.0360205316
 20
207.2541440887
 30
0.0
 10
76.0365608382
 20
207.2449948865
 30
0.0
 10
76.0372091482
 20
207.234015879
 30
0.0
 10
76.0378574732
 20
207.2230368622
 30
0.0
 10
76.0385057957
 20
207.2120578476
 30
0.0
 10
76.0391541135
 20
207.2010788335
 30
0.0
 10
76.0398024524
 20
207.190099815
 30
0.0
 10
76.0403426684
 20
207.1809506473
 30
0.0
 10
76.0407749901
 20
207.1736312808
 30
0.0
 10
76.0410448522
 20
207.1690567503
 30
0.0
 10
76.0412615181
 20
207.1653969575
 30
0.0
 10
76.0414218924
 20
207.1626525739
 30
0.0
 10
76.0415622977
 20
207.1603641209
 30
0.0
 10
76.0416473151
 20
207.1587650823
 30
0.0
 10
76.0417166107
 20
207.1578468513
 30
0.0
 10
76.0417102302
 20
207.1571708396
 30
0.0
 10
76.0419269015
 20
207.1564464292
 30
0.0
 10
76.0421379936
 20
207.1554974307
 30
0.0
 10
76.0425436547
 20
207.1538288178
 30
0.0
 10
76.0431042186
 20
207.1514491972
 30
0.0
 10
76.0437850073
 20
207.1485918924
 30
0.0
 10
76.0446898923
 20
207.1447827674
 30
0.0
 10
76.0458219686
 20
207.1400211506
 30
0.0
 10
76.0476327485
 20
207.1324026814
 30
0.0
 10
76.0498964094
 20
207.1228795546
 30
0.0
 10
76.0526127227
 20
207.1114518197
 30
0.0
 10
76.0553290576
 20
207.1000240802
 30
0.0
 10
76.058045386
 20
207.088596342
 30
0.0
 10
76.0607617189
 20
207.077168603
 30
0.0
 10
76.0634780402
 20
207.0657408659
 30
0.0
 10
76.0657416763
 20
207.0562177459
 30
0.0
 10
76.067326153
 20
207.0495515732
 30
0.0
 10
76.0682316753
 20
207.045742314
 30
0.0
 10
76.0689105155
 20
207.0428854192
 30
0.0
 10
76.0695905083
 20
207.040028335
 30
0.0
 10
76.0700972712
 20
207.0378860527
 30
0.0
 10
76.0704401392
 20
207.036457039
 30
0.0
 10
76.0706025983
 20
207.0357440062
 30
0.0
 10
76.0707999518
 20
207.0350252424
 30
0.0
 10
76.071229124
 20
207.0340396212
 30
0.0
 10
76.0717087394
 20
207.0328169318
 30
0.0
 10
76.0725078945
 20
207.0308554107
 30
0.0
 10
76.0734959601
 20
207.028405296
 30
0.0
 10
76.0750829449
 20
207.024484114
 30
0.0
 10
76.0770645899
 20
207.019582979
 30
0.0
 10
76.0794434567
 20
207.0137014704
 30
0.0
 10
76.0826149677
 20
207.00585951
 30
0.0
 10
76.0881652578
 20
206.9921360558
 30
0.0
 10
76.096094161
 20
206.9725311321
 30
0.0
 10
76.1040231168
 20
206.9529262097
 30
0.0
 10
76.1095733334
 20
206.9392027536
 30
0.0
 10
76.1127449599
 20
206.9313607962
 30
0.0
 10
76.1151234722
 20
206.9254792785
 30
0.0
 10
76.1171062268
 20
206.9205781721
 30
0.0
 10
76.1186909478
 20
206.9166569316
 30
0.0
 10
76.1196847747
 20
206.9142069656
 30
0.0
 10
76.1204721038
 20
206.9122451394
 30
0.0
 10
76.1209818272
 20
206.911023227
 30
0.0
 10
76.1213491967
 20
206.9100360107
 30
0.0
 10
76.121864089
 20
206.9090841569
 30
0.0
 10
76.1228336811
 20
206.9074348402
 30
0.0
 10
76.1241830568
 20
206.9050701025
 30
0.0
 10
76.12636204
 20
206.901291312
 30
0.0
 10
76.1290789272
 20
206.8965661838
 30
0.0
 10
76.1334297706
 20
206.8890068953
 30
0.0
 10
76.1388670129
 20
206.8795574702
 30
0.0
 10
76.1453922652
 20
206.8682182948
 30
0.0
 10
76.1540924054
 20
206.8530993471
 30
0.0
 10
76.164967648
 20
206.8342006787
 30
0.0
 10
76.1780179101
 20
206.8115222696
 30
0.0
 10
76.1867180904
 20
206.7964033316
 30
0.0
 10
76.1910681799
 20
206.7888438624
 30
0.0
  0
SPLINE
  5
44D
100
AcDbEntity
  8
7_ALL_FEATURES
100
AcDbSpline
 62
4
  6
CONTINUOUS
 70
0
 71
3
 72
159
 73
155
 74
0
 42
0.0000001
 43
0.0000001
 44
0.0000000001
 40
0.0
 40
0.0
 40
0.0
 40
0.0
 40
0.03125
 40
0.046875
 40
0.0625
 40
0.0703125
 40
0.078125
 40
0.0859375
 40
0.09375
 40
0.09765625
 40
0.1015625
 40
0.10546875
 40
0.107421875
 40
0.109375
 40
0.1103515625
 40
0.111328125
 40
0.1123046875
 40
0.11328125
 40
0.115234375
 40
0.1171875
 40
0.125
 40
0.1328125
 40
0.140625
 40
0.15625
 40
0.171875
 40
0.1875
 40
0.1953125
 40
0.203125
 40
0.20703125
 40
0.2109375
 40
0.21484375
 40
0.21875
 40
0.220703125
 40
0.22265625
 40
0.2236328125
 40
0.224609375
 40
0.2265625
 40
0.228515625
 40
0.23046875
 40
0.234375
 40
0.2421875
 40
0.25
 40
0.265625
 40
0.28125
 40
0.296875
 40
0.3046875
 40
0.3125
 40
0.3203125
 40
0.32421875
 40
0.328125
 40
0.330078125
 40
0.33203125
 40
0.3330078125
 40
0.3334960938
 40
0.333984375
 40
0.3349609375
 40
0.3359375
 40
0.33984375
 40
0.34375
 40
0.34765625
 40
0.3515625
 40
0.359375
 40
0.375
 40
0.390625
 40
0.40625
 40
0.4140625
 40
0.421875
 40
0.4296875
 40
0.4375
 40
0.44140625
 40
0.443359375
 40
0.4443359375
 40
0.4453125
 40
0.447265625
 40
0.44921875
 40
0.453125
 40
0.45703125
 40
0.4609375
 40
0.46875
 40
0.484375
 40
0.5
 40
0.515625
 40
0.53125
 40
0.5390625
 40
0.54296875
 40
0.546875
 40
0.55078125
 40
0.552734375
 40
0.5546875
 40
0.5556640625
 40
0.556640625
 40
0.55859375
 40
0.5625
 40
0.5703125
 40
0.578125
 40
0.5859375
 40
0.59375
 40
0.609375
 40
0.625
 40
0.640625
 40
0.6484375
 40
0.65625
 40
0.66015625
 40
0.6640625
 40
0.666015625
 40
0.6669921875
 40
0.66796875
 40
0.669921875
 40
0.671875
 40
0.67578125
 40
0.6796875
 40
0.6875
 40
0.6953125
 40
0.703125
 40
0.71875
 40
0.734375
 40
0.75
 40
0.7578125
 40
0.765625
 40
0.76953125
 40
0.7734375
 40
0.775390625
 40
0.7763671875
 40
0.77734375
 40
0.779296875
 40
0.78125
 40
0.78515625
 40
0.7890625
 40
0.796875
 40
0.8046875
 40
0.8125
 40
0.828125
 40
0.84375
 40
0.859375
 40
0.8671875
 40
0.875
 40
0.8828125
 40
0.884765625
 40
0.88671875
 40
0.8876953125
 40
0.888671875
 40
0.8896484375
 40
0.890625
 40
0.892578125
 40
0.89453125
 40
0.8984375
 40
0.90234375
 40
0.90625
 40
0.9140625
 40
0.921875
 40
0.9375
 40
0.953125
 40
0.96875
 40
1.0
 40
1.0
 40
1.0
 40
1.0
 10
76.486936316
 20
208.1207019985
 30
0.0
 10
76.4894300505
 20
208.126671372
 30
0.0
 10
76.4931706522
 20
208.1356254324
 30
0.0
 10
76.4981581211
 20
208.1475641795
 30
0.0
 10
76.5012752893
 20
208.1550258964
 30
0.0
 10
76.5037690236
 20
208.16099527
 30
0.0
 10
76.5056393249
 20
208.1654722999
 30
0.0
 10
76.5075096243
 20
208.1699493311
 30
0.0
 10
76.5090682128
 20
208.1736801863
 30
0.0
 10
76.5103150711
 20
208.1766648796
 30
0.0
 10
76.5112502488
 20
208.1789033748
 30
0.0
 10
76.5120294554
 20
208.1807688662
 30
0.0
 10
76.5126530633
 20
208.1822610828
 30
0.0
 10
76.5130422657
 20
208.1831941202
 30
0.0
 10
76.5133548931
 20
208.1839396293
 30
0.0
 10
76.5135858986
 20
208.1845012825
 30
0.0
 10
76.5136369867
 20
208.1851938564
 30
0.0
 10
76.5137679403
 20
208.1860715643
 30
0.0
 10
76.5139101547
 20
208.1871843277
 30
0.0
 10
76.5142691462
 20
208.189842097
 30
0.0
 10
76.5148002102
 20
208.1938341526
 30
0.0
 10
76.5155125321
 20
208.1991538105
 30
0.0
 10
76.5164608146
 20
208.2062477647
 30
0.0
 10
76.5176466764
 20
208.2151148375
 30
0.0
 10
76.5190694889
 20
208.2257554855
 30
0.0
 10
76.5202552268
 20
208.2346226497
 30
0.0
 10
76.521203782
 20
208.2417164028
 30
0.0
 10
76.5217966863
 20
208.2461499654
 30
0.0
 10
76.5222708811
 20
208.2496968893
 30
0.0
 10
76.5226268786
 20
208.2523568807
 30
0.0
 10
76.5229815348
 20
208.2550176415
 30
0.0
 10
76.52328126
 20
208.2572325452
 30
0.0
 10
76.5235116826
 20
208.2590098362
 30
0.0
 10
76.5236770014
 20
208.2601084216
 30
0.0
 10
76.5235588756
 20
208.2611309206
 30
0.0
 10
76.5234844804
 20
208.2621283335
 30
0.0
 10
76.5233764828
 20
208.2633837066
 30
0.0
 10
76.5232533072
 20
208.2648864705
 30
0.0
 10
76.523086833
 20
208.2668914407
 30
0.0
 10
76.5227965468
 20
208.27039954
 30
0.0
 10
76.5223813078
 20
208.2754114226
 30
0.0
 10
76.5217172294
 20
208.2834302603
 30
0.0
 10
76.5208870282
 20
208.2934538672
 30
0.0
 10
76.5198908264
 20
208.3054821707
 30
0.0
 10
76.5190606639
 20
208.3155057598
 30
0.0
 10
76.5183965004
 20
208.3235246366
 30
0.0
 10
76.5178984749
 20
208.3295387758
 30
0.0
 10
76.5174831438
 20
208.3345506175
 30
0.0
 10
76.517151574
 20
208.3385599585
 30
0.0
 10
76.5169427602
 20
208.3410660981
 30
0.0
 10
76.5167793338
 20
208.3430703192
 30
0.0
 10
76.516668922
 20
208.3443245333
 30
0.0
 10
76.5166082084
 20
208.3451993247
 30
0.0
 10
76.5165475824
 20
208.3457041473
 30
0.0
 10
76.5163892818
 20
208.3462275831
 30
0.0
 10
76.5162247916
 20
208.3468755158
 30
0.0
 10
76.5158025373
 20
208.3484357905
 30
0.0
 10
76.5151806969
 20
208.3507740033
 30
0.0
 10
76.51434498
 20
208.3538928774
 30
0.0
 10
76.5135110277
 20
208.3570114152
 30
0.0
 10
76.5123984755
 20
208.361169583
 30
0.0
 10
76.510451798
 20
208.3684463216
 30
0.0
 10
76.5076706634
 20
208.378841693
 30
0.0
 10
76.5043334425
 20
208.3913161182
 30
0.0
 10
76.5015521786
 20
208.4017115003
 30
0.0
 10
76.4993276888
 20
208.4100277496
 30
0.0
 10
76.4976579055
 20
208.4162650889
 30
0.0
 10
76.4959935252
 20
208.4225018471
 30
0.0
 10
76.4945897114
 20
208.4277009557
 30
0.0
 10
76.4936400214
 20
208.4313367847
 30
0.0
 10
76.4931201249
 20
208.4331595446
 30
0.0
 10
76.492895561
 20
208.4341933221
 30
0.0
 10
76.4923980801
 20
208.4352564521
 30
0.0
 10
76.4918261616
 20
208.4365799942
 30
0.0
 10
76.4908831847
 20
208.4387006632
 30
0.0
 10
76.4897140382
 20
208.4413504696
 30
0.0
 10
76.4883069646
 20
208.444530678
 30
0.0
 10
76.4864322959
 20
208.4487708022
 30
0.0
 10
76.4831509593
 20
208.456191091
 30
0.0
 10
76.4784636859
 20
208.466791467
 30
0.0
 10
76.4728387996
 20
208.4795119305
 30
0.0
 10
76.4672139858
 20
208.492232403
 30
0.0
 10
76.4625265313
 20
208.5028327569
 30
0.0
 10
76.4592455117
 20
208.5102530843
 30
0.0
 10
76.4573703359
 20
208.5144931467
 30
0.0
 10
76.4559648197
 20
208.5176735448
 30
0.0
 10
76.4547907986
 20
208.5203227574
 30
0.0
 10
76.4538577672
 20
208.5224446379
 30
0.0
 10
76.4532605377
 20
208.5237650968
 30
0.0
 10
76.4528150114
 20
208.5248345557
 30
0.0
 10
76.4521490993
 20
208.525814569
 30
0.0
 10
76.4510862353
 20
208.5275711856
 30
0.0
 10
76.4488877471
 20
208.5310548884
 30
0.0
 10
76.445785095
 20
208.5360470477
 30
0.0
 10
76.4420456039
 20
208.54203102
 30
0.0
 10
76.4383104749
 20
208.5480167624
 30
0.0
 10
76.4333287831
 20
208.5559971367
 30
0.0
 10
76.4271021615
 20
208.5659727958
 30
0.0
 10
76.4196301281
 20
208.5779435921
 30
0.0
 10
76.4134030676
 20
208.587918983
 30
0.0
 10
76.4084223414
 20
208.5958999476
 30
0.0
 10
76.405307265
 20
208.6008865569
 30
0.0
 10
76.4028200675
 20
208.6048792659
 30
0.0
 10
76.4012544712
 20
208.6073669021
 30
0.0
 10
76.4001807954
 20
208.6091238934
 30
0.0
 10
76.3995324673
 20
208.6101034089
 30
0.0
 10
76.3987530459
 20
208.6109907063
 30
0.0
 10
76.3978236553
 20
208.6121314034
 30
0.0
 10
76.3963115458
 20
208.6139388729
 30
0.0
 10
76.394429998
 20
208.6162042518
 30
0.0
 10
76.391414721
 20
208.6198254812
 30
0.0
 10
76.3876472719
 20
208.6243531764
 30
0.0
 10
76.3831256278
 20
208.6297859147
 30
0.0
 10
76.377097016
 20
208.6370297398
 30
0.0
 10
76.3695611613
 20
208.6460844557
 30
0.0
 10
76.360518197
 20
208.6569501682
 30
0.0
 10
76.352982309
 20
208.6660048376
 30
0.0
 10
76.3469537704
 20
208.6732487649
 30
0.0
 10
76.3431855465
 20
208.6777757857
 30
0.0
 10
76.340171854
 20
208.6813983953
 30
0.0
 10
76.3382862731
 20
208.6836602608
 30
0.0
 10
76.336970421
 20
208.685248107
 30
0.0
 10
76.3362121619
 20
208.6861483438
 30
0.0
 10
76.3354777329
 20
208.6870752667
 30
0.0
 10
76.3343888994
 20
208.6880426543
 30
0.0
 10
76.3326653603
 20
208.6896112973
 30
0.0
 10
76.3305045696
 20
208.6915649714
 30
0.0
 10
76.327050863
 20
208.6946948347
 30
0.0
 10
76.3227325088
 20
208.6986057967
 30
0.0
 10
76.3175510062
 20
208.7032995359
 30
0.0
 10
76.3106421541
 20
208.7095576523
 30
0.0
 10
76.302006148
 20
208.7173803557
 30
0.0
 10
76.2916429301
 20
208.7267676251
 30
0.0
 10
76.2830068719
 20
208.7345901881
 30
0.0
 10
76.2760981345
 20
208.7408486135
 30
0.0
 10
76.27091628
 20
208.7455414045
 30
0.0
 10
76.2670307527
 20
208.7490639414
 30
0.0
 10
76.264439056
 20
208.7514077144
 30
0.0
 10
76.2633611844
 20
208.7523911104
 30
0.0
 10
76.2624942167
 20
208.7531619083
 30
0.0
 10
76.2618568011
 20
208.753783669
 30
0.0
 10
76.2611704803
 20
208.75423874
 30
0.0
 10
76.2602541301
 20
208.7548412209
 30
0.0
 10
76.2591091223
 20
208.7555957876
 30
0.0
 10
76.2572768696
 20
208.7568022752
 30
0.0
 10
76.2549866362
 20
208.7583106658
 30
0.0
 10
76.2522383207
 20
208.7601206142
 30
0.0
 10
76.2485739125
 20
208.7625339207
 30
0.0
 10
76.2439933979
 20
208.7655505395
 30
0.0
 10
76.236664577
 20
208.7703771375
 30
0.0
 10
76.2275035501
 20
208.7764103823
 30
0.0
 10
76.2165103181
 20
208.7836502773
 30
0.0
 10
76.2018526753
 20
208.7933034702
 30
0.0
 10
76.1908594433
 20
208.8005433649
 30
0.0
 10
76.1835306219
 20
208.8053699614
 30
0.0
  0
SPLINE
  5
44E
100
AcDbEntity
  8
3_ALL_AXES
100
AcDbSpline
 62
7
  6
CONTINUOUS
 70
0
 71
3
 72
11
 73
7
 74
0
 42
0.0000001
 43
0.0000001
 44
0.0000000001
 40
0.0
 40
0.0
 40
0.0
 40
0.0
 40
0.2163299934
 40
0.4566523293
 40
0.718771544
 40
1.0
 40
1.0
 40
1.0
 40
1.0
 10
105.2232156844
 20
192.1479774314
 30
0.0
 10
105.2741820472
 20
192.198944271
 30
0.0
 10
105.3739673271
 20
192.3143656027
 30
0.0
 10
105.5126285783
 20
192.5098804087
 30
0.0
 10
105.648685246
 20
192.732925483
 30
0.0
 10
105.7349440746
 20
192.8921622081
 30
0.0
 10
105.7780184012
 20
192.9753754171
 30
0.0
  0
SPLINE
  5
44F
100
AcDbEntity
  8
3_ALL_AXES
100
AcDbSpline
 62
7
  6
CONTINUOUS
 70
0
 71
3
 72
11
 73
7
 74
0
 42
0.0000001
 43
0.0000001
 44
0.0000000001
 40
0.0
 40
0.0
 40
0.0
 40
0.0
 40
0.2163299934
 40
0.4566523293
 40
0.718771544
 40
1.0
 40
1.0
 40
1.0
 40
1.0
 10
90.8780078973
 20
192.1479774314
 30
0.0
 10
90.8270415346
 20
192.198944271
 30
0.0
 10
90.7272562547
 20
192.3143656027
 30
0.0
 10
90.5885950035
 20
192.5098804087
 30
0.0
 10
90.4525383358
 20
192.732925483
 30
0.0
 10
90.3662795071
 20
192.8921622081
 30
0.0
 10
90.3232051806
 20
192.9753754171
 30
0.0
  0
SPLINE
  5
450
100
AcDbEntity
  8
3_ALL_AXES
100
AcDbSpline
 62
7
  6
CONTINUOUS
 70
0
 71
3
 72
19
 73
15
 74
0
 42
0.0000001
 43
0.0000001
 44
0.0000000001
 40
0.0
 40
0.0
 40
0.0
 40
0.0
 40
0.0638114962
 40
0.1272689962
 40
0.1902443843
 40
0.2527839854
 40
0.3766579829
 40
0.5000634573
 40
0.6234641555
 40
0.7473062116
 40
0.8098329522
 40
0.8727912221
 40
0.9362181193
 40
1.0
 40
1.0
 40
1.0
 40
1.0
 10
98.8778369089
 20
191.4753754171
 30
0.0
 10
98.8778369089
 20
191.4193481628
 30
0.0
 10
98.896530109
 20
191.3068419636
 30
0.0
 10
98.9733499599
 20
191.1561571882
 30
0.0
 10
99.084450753
 20
191.0309268994
 30
0.0
 10
99.2613088058
 20
190.8998365211
 30
0.0
 10
99.5177465102
 20
190.7963607356
 30
0.0
 10
99.8439281789
 20
190.7569583375
 30
0.0
 10
100.1700706247
 20
190.7964455206
 30
0.0
 10
100.4264425616
 20
190.8999610806
 30
0.0
 10
100.6032283169
 20
191.0310594496
 30
0.0
 10
100.7142524719
 20
191.1562859891
 30
0.0
 10
100.7910111279
 20
191.3069216921
 30
0.0
 10
100.8096885615
 20
191.4193741656
 30
0.0
 10
100.8096885615
 20
191.4753754171
 30
0.0
  0
SPLINE
  5
451
100
AcDbEntity
  8
3_ALL_AXES
100
AcDbSpline
 62
7
  6
CONTINUOUS
 70
0
 71
3
 72
10
 73
6
 74
0
 42
0.0000001
 43
0.0000001
 44
0.0000000001
 40
0.0
 40
0.0
 40
0.0
 40
0.0
 40
0.258124603
 40
0.6351527744
 40
1.0
 40
1.0
 40
1.0
 40
1.0
 10
90.3232051806
 20
192.9753754171
 30
0.0
 10
90.4889895533
 20
192.858148163
 30
0.0
 10
90.9059884406
 20
192.5822654614
 30
0.0
 10
91.6036657693
 20
192.2138179785
 30
0.0
 10
92.1632163998
 20
192.0322084427
 30
0.0
 10
92.4445255241
 20
191.9753754171
 30
0.0
  0
SPLINE
  5
452
100
AcDbEntity
  8
3_ALL_AXES
100
AcDbSpline
 62
7
  6
CONTINUOUS
 70
0
 71
3
 72
9
 73
5
 74
0
 42
0.0000001
 43
0.0000001
 44
0.0000000001
 40
0.0
 40
0.0
 40
0.0
 40
0.0
 40
0.2350910793
 40
1.0
 40
1.0
 40
1.0
 40
1.0
 10
105.0371489055
 20
191.99634177
 30
0.0
 10
105.0531110678
 20
192.0063368108
 30
0.0
 10
105.1194917606
 20
192.0512780419
 30
0.0
 10
105.1798863602
 20
192.1046477018
 30
0.0
 10
105.2232156844
 20
192.1479774314
 30
0.0
  0
SPLINE
  5
453
100
AcDbEntity
  8
3_ALL_AXES
100
AcDbSpline
 62
7
  6
CONTINUOUS
 70
0
 71
3
 72
10
 73
6
 74
0
 42
0.0000001
 43
0.0000001
 44
0.0000000001
 40
0.0
 40
0.0
 40
0.0
 40
0.0
 40
0.2421734631
 40
0.6149310735
 40
1.0
 40
1.0
 40
1.0
 40
1.0
 10
93.8587390865
 20
191.9753754171
 30
0.0
 10
94.0454957042
 20
192.0131059516
 30
0.0
 10
94.5128653637
 20
192.1450130674
 30
0.0
 10
95.2296393905
 20
192.4780297765
 30
0.0
 10
95.7326995052
 20
192.8004655368
 30
0.0
 10
95.9800594301
 20
192.9753754171
 30
0.0
  0
SPLINE
  5
454
100
AcDbEntity
  8
3_ALL_AXES
100
AcDbSpline
 62
7
  6
CONTINUOUS
 70
0
 71
3
 72
19
 73
15
 74
0
 42
0.0000001
 43
0.0000001
 44
0.0000000001
 40
0.0
 40
0.0
 40
0.0
 40
0.0
 40
0.0755313105
 40
0.1475271142
 40
0.2145707967
 40
0.2770181017
 40
0.3917437342
 40
0.5000509034
 40
0.6083537473
 40
0.7230719906
 40
0.7855182774
 40
0.8525486482
 40
0.9245023644
 40
1.0
 40
1.0
 40
1.0
 40
1.0
 10
92.4445255241
 20
191.4753754171
 30
0.0
 10
92.4445255241
 20
191.4196890783
 30
0.0
 10
92.4574920216
 20
191.3104735465
 30
0.0
 10
92.5121920934
 20
191.1606703152
 30
0.0
 10
92.5928583294
 20
191.0345535378
 30
0.0
 10
92.7192195275
 20
190.9049130032
 30
0.0
 10
92.9063782223
 20
190.7980621281
 30
0.0
 10
93.1517448221
 20
190.7564863736
 30
0.0
 10
93.3970884735
 20
190.7981469764
 30
0.0
 10
93.584212987
 20
190.9050349859
 30
0.0
 10
93.7105284359
 20
191.0346997178
 30
0.0
 10
93.7911278468
 20
191.1608085136
 30
0.0
 10
93.8457850259
 20
191.3105542362
 30
0.0
 10
93.8587390865
 20
191.4197139055
 30
0.0
 10
93.8587390865
 20
191.4753754171
 30
0.0
  0
SPLINE
  5
455
100
AcDbEntity
  8
3_ALL_AXES
100
AcDbSpline
 62
7
  6
CONTINUOUS
 70
0
 71
3
 72
23
 73
19
 74
0
 42
0.0000001
 43
0.0000001
 44
0.0000000001
 40
0.0
 40
0.0
 40
0.0
 40
0.0
 40
0.1041045604
 40
0.198722586
 40
0.2791671156
 40
0.344987429
 40
0.3976144983
 40
0.4391006973
 40
0.4720229716
 40
0.500024351
 40
0.5280300251
 40
0.560964335
 40
0.6024594955
 40
0.6550984182
 40
0.7209332483
 40
0.8013730741
 40
0.8959372264
 40
1.0
 40
1.0
 40
1.0
 40
1.0
 10
104.4839231757
 20
191.4753754171
 30
0.0
 10
104.4839231757
 20
191.4200280825
 30
0.0
 10
104.4884110613
 20
191.3143139001
 30
0.0
 10
104.5076236877
 20
191.1669486098
 30
0.0
 10
104.5361542139
 20
191.0418755531
 30
0.0
 10
104.5709066173
 20
190.9417415089
 30
0.0
 10
104.6096412707
 20
190.8656554524
 30
0.0
 10
104.6511251556
 20
190.8117199718
 30
0.0
 10
104.6953028096
 20
190.7782457943
 30
0.0
 10
104.7427851054
 20
190.7663352192
 30
0.0
 10
104.7902677998
 20
190.7782787147
 30
0.0
 10
104.834425038
 20
190.8118012355
 30
0.0
 10
104.8759039793
 20
190.8657585893
 30
0.0
 10
104.9146350274
 20
190.9418686328
 30
0.0
 10
104.9493723944
 20
191.042019879
 30
0.0
 10
104.9778778672
 20
191.1670743032
 30
0.0
 10
104.9970777895
 20
191.3143869042
 30
0.0
 10
105.0015612659
 20
191.4200502985
 30
0.0
 10
105.0015612659
 20
191.4753754171
 30
0.0
  0
SPLINE
  5
456
100
AcDbEntity
  8
3_ALL_AXES
100
AcDbSpline
 62
7
  6
CONTINUOUS
 70
0
 71
3
 72
11
 73
7
 74
0
 42
0.0000001
 43
0.0000001
 44
0.0000000001
 40
0.0
 40
0.0
 40
0.0
 40
0.0
 40
0.299071183
 40
0.5681960717
 40
0.8023817875
 40
1.0
 40
1.0
 40
1.0
 40
1.0
 10
103.7074660404
 20
192.9753754171
 30
0.0
 10
103.7661443986
 20
192.8620175338
 30
0.0
 10
103.8830929002
 20
192.6493895133
 30
0.0
 10
104.0713290467
 20
192.3625962568
 30
0.0
 10
104.2643936786
 20
192.133093795
 30
0.0
 10
104.410080599
 20
192.0161333896
 30
0.0
 10
104.4839231757
 20
191.9753754171
 30
0.0
  0
SPLINE
  5
457
100
AcDbEntity
  8
3_ALL_AXES
100
AcDbSpline
 62
7
  6
CONTINUOUS
 70
0
 71
3
 72
11
 73
7
 74
0
 42
0.0000001
 43
0.0000001
 44
0.0000000001
 40
0.0
 40
0.0
 40
0.0
 40
0.0
 40
0.2506432543
 40
0.5008628457
 40
0.7506308309
 40
1.0
 40
1.0
 40
1.0
 40
1.0
 10
95.9800594301
 20
192.9753754171
 30
0.0
 10
96.208486479
 20
192.8571328758
 30
0.0
 10
96.6714922784
 20
192.6331204517
 30
0.0
 10
97.3865162772
 20
192.3446464883
 30
0.0
 10
98.1218343753
 20
192.1162191358
 30
0.0
 10
98.6246818303
 20
192.0128161918
 30
0.0
 10
98.8778369089
 20
191.9753754171
 30
0.0
  0
SPLINE
  5
458
100
AcDbEntity
  8
3_ALL_AXES
100
AcDbSpline
 62
7
  6
CONTINUOUS
 70
0
 71
3
 72
11
 73
7
 74
0
 42
0.0000001
 43
0.0000001
 44
0.0000000001
 40
0.0
 40
0.0
 40
0.0
 40
0.0
 40
0.2493691879
 40
0.4991371759
 40
0.749356754
 40
1.0
 40
1.0
 40
1.0
 40
1.0
 10
100.8096885615
 20
191.9753754171
 30
0.0
 10
101.0628436593
 20
192.0128161947
 30
0.0
 10
101.5656911358
 20
192.1162191448
 30
0.0
 10
102.3010092396
 20
192.3446465074
 30
0.0
 10
103.0160332186
 20
192.6331204674
 30
0.0
 10
103.479038999
 20
192.8571328797
 30
0.0
 10
103.7074660404
 20
192.9753754171
 30
0.0
  0
LINE
  5
459
100
AcDbEntity
  8
7_ALL_FEATURES
100
AcDbLine
 62
7
  6
CONTINUOUS
 10
73.162962175
 20
204.7253754171
 11
73.7593833027
 21
203.9753754171
  0
LINE
  5
45A
100
AcDbEntity
  8
7_ALL_FEATURES
100
AcDbLine
 62
7
  6
CONTINUOUS
 10
83.6284511158
 20
203.9753754171
 11
83.1642120718
 21
204.7253754171
  0
SPLINE
  5
45B
100
AcDbEntity
  8
7_ALL_FEATURES
100
AcDbSpline
 62
3
  6
CONTINUOUS
 70
0
 71
3
 72
11
 73
7
 74
0
 42
0.0000001
 43
0.0000001
 44
0.0000000001
 40
0.0
 40
0.0
 40
0.0
 40
0.0
 40
0.2804771582
 40
0.5382970014
 40
0.7754387135
 40
1.0
 40
1.0
 40
1.0
 40
1.0
 10
122.0599076766
 20
203.9751024428
 30
0.0
 10
122.0260934328
 20
203.9016698075
 30
0.0
 10
121.9469830925
 20
203.7665139894
 30
0.0
 10
121.7899687852
 20
203.6039725274
 30
0.0
 10
121.6069311364
 20
203.4997416554
 30
0.0
 10
121.4728460651
 20
203.4753754171
 30
0.0
 10
121.4081190959
 20
203.4753754171
 30
0.0
  0
SPLINE
  5
45C
100
AcDbEntity
  8
7_ALL_FEATURES
100
AcDbSpline
 62
3
  6
CONTINUOUS
 70
0
 71
3
 72
9
 73
5
 74
0
 42
0.0000001
 43
0.0000001
 44
0.0000000001
 40
0.0
 40
0.0
 40
0.0
 40
0.0
 40
0.2543824839
 40
1.0
 40
1.0
 40
1.0
 40
1.0
 10
125.6801922168
 20
214.2251854028
 30
0.0
 10
125.6659180763
 20
214.1161711876
 30
0.0
 10
125.5984358924
 20
213.689230295
 30
0.0
 10
125.4851911263
 20
213.2692226627
 30
0.0
 10
125.3738713071
 20
212.96680245
 30
0.0
  0
SPLINE
  5
45D
100
AcDbEntity
  8
7_ALL_FEATURES
100
AcDbSpline
 62
3
  6
CONTINUOUS
 70
0
 71
3
 72
12
 73
8
 74
0
 42
0.0000001
 43
0.0000001
 44
0.0000000001
 40
0.0
 40
0.0
 40
0.0
 40
0.0
 40
0.2828944285
 40
0.5419458986
 40
0.777811368
 40
0.8899203884
 40
1.0
 40
1.0
 40
1.0
 40
1.0
 10
74.0031719732
 20
204.0674519426
 30
0.0
 10
74.034599707
 20
203.9820728789
 30
0.0
 10
74.1120594182
 20
203.8239409658
 30
0.0
 10
74.2755966858
 20
203.6308645398
 30
0.0
 10
74.444063017
 20
203.5243381959
 30
0.0
 10
74.5860569203
 20
203.482371629
 30
0.0
 10
74.6577025916
 20
203.4753754171
 30
0.0
 10
74.6931044858
 20
203.4753754171
 30
0.0
  0
SPLINE
  5
45E
100
AcDbEntity
  8
7_ALL_FEATURES
100
AcDbSpline
 62
3
  6
CONTINUOUS
 70
0
 71
3
 72
11
 73
7
 74
0
 42
0.0000001
 43
0.0000001
 44
0.0000000001
 40
0.0
 40
0.0
 40
0.0
 40
0.0
 40
0.2408198638
 40
0.4941501693
 40
0.7505632867
 40
1.0
 40
1.0
 40
1.0
 40
1.0
 10
71.0200937288
 20
217.774348356
 30
0.0
 10
70.8316087298
 20
217.4249939736
 30
0.0
 10
70.5344985153
 20
216.6576296678
 30
0.0
 10
70.3377444383
 20
215.4281369025
 30
0.0
 10
70.385985298
 20
214.1698809343
 30
0.0
 10
70.5853220101
 20
213.3526530839
 30
0.0
 10
70.7273522747
 20
212.96680245
 30
0.0
  0
SPLINE
  5
45F
100
AcDbEntity
  8
7_ALL_FEATURES
100
AcDbSpline
 62
3
  6
CONTINUOUS
 70
0
 71
3
 72
12
 73
8
 74
0
 42
0.0000001
 43
0.0000001
 44
0.0000000001
 40
0.0
 40
0.0
 40
0.0
 40
0.0
 40
0.2828944285
 40
0.5419458986
 40
0.777811368
 40
0.8899203884
 40
1.0
 40
1.0
 40
1.0
 40
1.0
 10
81.7813465662
 20
204.0674519426
 30
0.0
 10
81.8127743
 20
203.9820728789
 30
0.0
 10
81.8902340113
 20
203.8239409658
 30
0.0
 10
82.0537712788
 20
203.6308645398
 30
0.0
 10
82.22223761
 20
203.5243381959
 30
0.0
 10
82.3642315134
 20
203.482371629
 30
0.0
 10
82.4358771846
 20
203.4753754171
 30
0.0
 10
82.4712790789
 20
203.4753754171
 30
0.0
  0
SPLINE
  5
460
100
AcDbEntity
  8
7_ALL_FEATURES
100
AcDbSpline
 62
3
  6
CONTINUOUS
 70
0
 71
3
 72
11
 73
7
 74
0
 42
0.0000001
 43
0.0000001
 44
0.0000000001
 40
0.0
 40
0.0
 40
0.0
 40
0.0
 40
0.2408198638
 40
0.4941501693
 40
0.7505632867
 40
1.0
 40
1.0
 40
1.0
 40
1.0
 10
78.7982683219
 20
217.774348356
 30
0.0
 10
78.6097833228
 20
217.4249939736
 30
0.0
 10
78.3126731084
 20
216.6576296678
 30
0.0
 10
78.1159190313
 20
215.4281369025
 30
0.0
 10
78.164159891
 20
214.1698809343
 30
0.0
 10
78.3634966032
 20
213.3526530839
 30
0.0
 10
78.5055268678
 20
212.96680245
 30
0.0
  0
SPLINE
  5
461
100
AcDbEntity
  8
7_ALL_FEATURES
100
AcDbSpline
 62
7
  6
CONTINUOUS
 70
0
 71
3
 72
9
 73
5
 74
0
 42
0.0000001
 43
0.0000001
 44
0.0000000001
 40
0.0
 40
0.0
 40
0.0
 40
0.0
 40
0.2541905889
 40
1.0
 40
1.0
 40
1.0
 40
1.0
 10
208.7471503958
 20
214.2252878823
 30
0.0
 10
208.7603093614
 20
214.1363632961
 30
0.0
 10
208.8206685657
 20
213.787879701
 30
0.0
 10
208.9156439234
 20
213.4451916587
 30
0.0
 10
209.0067532904
 20
213.1976767566
 30
0.0
  0
SPLINE
  5
462
100
AcDbEntity
  8
3_ALL_AXES
100
AcDbSpline
 62
7
  6
CONTINUOUS
 70
0
 71
3
 72
11
 73
7
 74
0
 42
0.0000001
 43
0.0000001
 44
0.0000000001
 40
0.0
 40
0.0
 40
0.0
 40
0.0
 40
0.2812284586
 40
0.543347676
 40
0.7836700157
 40
1.0
 40
1.0
 40
1.0
 40
1.0
 10
242.2890005087
 20
192.9753754171
 30
0.0
 10
242.3320748356
 20
192.8921622075
 30
0.0
 10
242.4183336621
 20
192.7329254793
 30
0.0
 10
242.5543903363
 20
192.5098804063
 30
0.0
 10
242.6930515819
 20
192.3143655973
 30
0.0
 10
242.7928368676
 20
192.1989442738
 30
0.0
 10
242.8438032256
 20
192.1479774339
 30
0.0
  0
SPLINE
  5
463
100
AcDbEntity
  8
3_ALL_AXES
100
AcDbSpline
 62
7
  6
CONTINUOUS
 70
0
 71
3
 72
11
 73
7
 74
0
 42
0.0000001
 43
0.0000001
 44
0.0000000001
 40
0.0
 40
0.0
 40
0.0
 40
0.0
 40
0.2812284586
 40
0.543347676
 40
0.7836700157
 40
1.0
 40
1.0
 40
1.0
 40
1.0
 10
257.7438137293
 20
192.9753754171
 30
0.0
 10
257.7007394024
 20
192.8921622075
 30
0.0
 10
257.614480576
 20
192.7329254793
 30
0.0
 10
257.4784239018
 20
192.5098804063
 30
0.0
 10
257.3397626561
 20
192.3143655973
 30
0.0
 10
257.2399773704
 20
192.1989442738
 30
0.0
 10
257.1890110124
 20
192.1479774339
 30
0.0
  0
SPLINE
  5
464
100
AcDbEntity
  8
3_ALL_AXES
100
AcDbSpline
 62
7
  6
CONTINUOUS
 70
0
 71
3
 72
10
 73
6
 74
0
 42
0.0000001
 43
0.0000001
 44
0.0000000001
 40
0.0
 40
0.0
 40
0.0
 40
0.0
 40
0.258124603
 40
0.6351527744
 40
1.0
 40
1.0
 40
1.0
 40
1.0
 10
252.0869594798
 20
192.9753754171
 30
0.0
 10
252.2527438526
 20
192.858148163
 30
0.0
 10
252.6697427399
 20
192.5822654614
 30
0.0
 10
253.3674200686
 20
192.2138179785
 30
0.0
 10
253.9269706991
 20
192.0322084427
 30
0.0
 10
254.2082798234
 20
191.9753754171
 30
0.0
  0
SPLINE
  5
465
100
AcDbEntity
  8
3_ALL_AXES
100
AcDbSpline
 62
7
  6
CONTINUOUS
 70
0
 71
3
 72
23
 73
19
 74
0
 42
0.0000001
 43
0.0000001
 44
0.0000000001
 40
0.0
 40
0.0
 40
0.0
 40
0.0
 40
0.1041170889
 40
0.1987311506
 40
0.2791747916
 40
0.3449979218
 40
0.3976280174
 40
0.4391112132
 40
0.4720285887
 40
0.5000276534
 40
0.5280319966
 40
0.5609638799
 40
0.6024544255
 40
0.6550865092
 40
0.720913556
 40
0.8013534514
 40
0.8959302724
 40
1.0
 40
1.0
 40
1.0
 40
1.0
 10
243.065457644
 20
191.4753754171
 30
0.0
 10
243.065457644
 20
191.4200214379
 30
0.0
 10
243.0699456153
 20
191.3143026385
 30
0.0
 10
243.0891613537
 20
191.166933752
 30
0.0
 10
243.1176923693
 20
191.0418618036
 30
0.0
 10
243.15244799
 20
190.9417264389
 30
0.0
 10
243.1911822153
 20
190.8656379109
 30
0.0
 10
243.2326723329
 20
190.8117102324
 30
0.0
 10
243.2768473273
 20
190.7782427444
 30
0.0
 10
243.3243256713
 20
190.7663348384
 30
0.0
 10
243.3718041186
 20
190.7782812376
 30
0.0
 10
243.4159575608
 20
190.8118003588
 30
0.0
 10
243.4574333094
 20
190.8657509566
 30
0.0
 10
243.4961605278
 20
190.9418513126
 30
0.0
 10
243.5308994031
 20
191.0419936977
 30
0.0
 10
243.5594093327
 20
191.1670499071
 30
0.0
 10
243.5786112255
 20
191.3143728501
 30
0.0
 10
243.5830957342
 20
191.4200466175
 30
0.0
 10
243.5830957342
 20
191.4753754171
 30
0.0
  0
SPLINE
  5
466
100
AcDbEntity
  8
3_ALL_AXES
100
AcDbSpline
 62
7
  6
CONTINUOUS
 70
0
 71
3
 72
10
 73
6
 74
0
 42
0.0000001
 43
0.0000001
 44
0.0000000001
 40
0.0
 40
0.0
 40
0.0
 40
0.0
 40
0.2421734631
 40
0.6149310735
 40
1.0
 40
1.0
 40
1.0
 40
1.0
 10
255.6224933858
 20
191.9753754171
 30
0.0
 10
255.8092500035
 20
192.0131059516
 30
0.0
 10
256.2766196629
 20
192.1450130674
 30
0.0
 10
256.9933936898
 20
192.4780297765
 30
0.0
 10
257.4964538044
 20
192.8004655368
 30
0.0
 10
257.7438137293
 20
192.9753754171
 30
0.0
  0
SPLINE
  5
467
100
AcDbEntity
  8
3_ALL_AXES
100
AcDbSpline
 62
7
  6
CONTINUOUS
 70
0
 71
3
 72
19
 73
15
 74
0
 42
0.0000001
 43
0.0000001
 44
0.0000000001
 40
0.0
 40
0.0
 40
0.0
 40
0.0
 40
0.0755313105
 40
0.1475271142
 40
0.2145707967
 40
0.2770181017
 40
0.3917437342
 40
0.5000509034
 40
0.6083537473
 40
0.7230719906
 40
0.7855182774
 40
0.8525486482
 40
0.9245023644
 40
1.0
 40
1.0
 40
1.0
 40
1.0
 10
254.2082798234
 20
191.4753754171
 30
0.0
 10
254.2082798234
 20
191.4196890783
 30
0.0
 10
254.2212463209
 20
191.3104735465
 30
0.0
 10
254.2759463927
 20
191.1606703152
 30
0.0
 10
254.3566126287
 20
191.0345535378
 30
0.0
 10
254.4829738268
 20
190.9049130032
 30
0.0
 10
254.6701325216
 20
190.7980621281
 30
0.0
 10
254.9154991214
 20
190.7564863736
 30
0.0
 10
255.1608427728
 20
190.7981469764
 30
0.0
 10
255.3479672862
 20
190.9050349859
 30
0.0
 10
255.4742827352
 20
191.0346997178
 30
0.0
 10
255.5548821461
 20
191.1608085136
 30
0.0
 10
255.6095393251
 20
191.3105542362
 30
0.0
 10
255.6224933858
 20
191.4197139055
 30
0.0
 10
255.6224933858
 20
191.4753754171
 30
0.0
  0
SPLINE
  5
468
100
AcDbEntity
  8
3_ALL_AXES
100
AcDbSpline
 62
7
  6
CONTINUOUS
 70
0
 71
3
 72
9
 73
5
 74
0
 42
0.0000001
 43
0.0000001
 44
0.0000000001
 40
0.0
 40
0.0
 40
0.0
 40
0.0
 40
0.265634568
 40
1.0
 40
1.0
 40
1.0
 40
1.0
 10
242.8438032256
 20
192.1479774339
 30
0.0
 10
242.8588482514
 20
192.1329322658
 30
0.0
 10
242.9167020864
 20
192.0775686057
 30
0.0
 10
242.9800146349
 20
192.0275598431
 30
0.0
 10
243.0298690473
 20
191.9963423679
 30
0.0
  0
SPLINE
  5
469
100
AcDbEntity
  8
3_ALL_AXES
100
AcDbSpline
 62
7
  6
CONTINUOUS
 70
0
 71
3
 72
11
 73
7
 74
0
 42
0.0000001
 43
0.0000001
 44
0.0000000001
 40
0.0
 40
0.0
 40
0.0
 40
0.0
 40
0.2506432543
 40
0.5008628457
 40
0.7506308309
 40
1.0
 40
1.0
 40
1.0
 40
1.0
 10
244.3595528695
 20
192.9753754171
 30
0.0
 10
244.5879799185
 20
192.8571328758
 30
0.0
 10
245.0509857179
 20
192.6331204517
 30
0.0
 10
245.7660097167
 20
192.3446464883
 30
0.0
 10
246.5013278148
 20
192.1162191358
 30
0.0
 10
247.0041752697
 20
192.0128161918
 30
0.0
 10
247.2573303484
 20
191.9753754171
 30
0.0
  0
SPLINE
  5
46A
100
AcDbEntity
  8
3_ALL_AXES
100
AcDbSpline
 62
7
  6
CONTINUOUS
 70
0
 71
3
 72
11
 73
7
 74
0
 42
0.0000001
 43
0.0000001
 44
0.0000000001
 40
0.0
 40
0.0
 40
0.0
 40
0.0
 40
0.1976182287
 40
0.4318039509
 40
0.7009288274
 40
1.0
 40
1.0
 40
1.0
 40
1.0
 10
243.5830957342
 20
191.9753754171
 30
0.0
 10
243.6569383169
 20
192.016133393
 30
0.0
 10
243.8026252438
 20
192.1330938064
 30
0.0
 10
243.9956898744
 20
192.3625962749
 30
0.0
 10
244.1839260154
 20
192.6493895264
 30
0.0
 10
244.3008745134
 20
192.8620175378
 30
0.0
 10
244.3595528695
 20
192.9753754171
 30
0.0
  0
SPLINE
  5
46B
100
AcDbEntity
  8
3_ALL_AXES
100
AcDbSpline
 62
7
  6
CONTINUOUS
 70
0
 71
3
 72
11
 73
7
 74
0
 42
0.0000001
 43
0.0000001
 44
0.0000000001
 40
0.0
 40
0.0
 40
0.0
 40
0.0
 40
0.2493691879
 40
0.4991371759
 40
0.749356754
 40
1.0
 40
1.0
 40
1.0
 40
1.0
 10
249.189182001
 20
191.9753754171
 30
0.0
 10
249.4423370988
 20
192.0128161947
 30
0.0
 10
249.9451845753
 20
192.1162191448
 30
0.0
 10
250.6805026791
 20
192.3446465074
 30
0.0
 10
251.3955266581
 20
192.6331204674
 30
0.0
 10
251.8585324385
 20
192.8571328797
 30
0.0
 10
252.0869594798
 20
192.9753754171
 30
0.0
  0
SPLINE
  5
46C
100
AcDbEntity
  8
3_ALL_AXES
100
AcDbSpline
 62
7
  6
CONTINUOUS
 70
0
 71
3
 72
19
 73
15
 74
0
 42
0.0000001
 43
0.0000001
 44
0.0000000001
 40
0.0
 40
0.0
 40
0.0
 40
0.0
 40
0.0638036974
 40
0.1272626836
 40
0.1902376798
 40
0.2527732141
 40
0.3766396511
 40
0.5000560147
 40
0.6234651895
 40
0.7473195124
 40
0.8098500054
 40
0.8728049193
 40
0.9362224762
 40
1.0
 40
1.0
 40
1.0
 40
1.0
 10
247.2573303484
 20
191.4753754171
 30
0.0
 10
247.2573303484
 20
191.4193550028
 30
0.0
 10
247.2760221442
 20
191.3068550573
 30
0.0
 10
247.3528315955
 20
191.1561715892
 30
0.0
 10
247.4639284963
 20
191.0309407656
 30
0.0
 10
247.6407755172
 20
190.8998539561
 30
0.0
 10
247.8972068597
 20
190.7963649532
 30
0.0
 10
248.2233997539
 20
190.7569576572
 30
0.0
 10
248.5495702369
 20
190.7964441456
 30
0.0
 10
248.8059628418
 20
190.8999705773
 30
0.0
 10
248.9827514421
 20
191.0310849618
 30
0.0
 10
249.0937602654
 20
191.1563141377
 30
0.0
 10
249.1705086605
 20
191.3069372607
 30
0.0
 10
249.189182001
 20
191.4193779834
 30
0.0
 10
249.189182001
 20
191.4753754171
 30
0.0
  0
SPLINE
  5
46D
100
AcDbEntity
  8
7_ALL_FEATURES
100
AcDbSpline
 62
7
  6
CONTINUOUS
 70
0
 71
3
 72
11
 73
7
 74
0
 42
0.0000001
 43
0.0000001
 44
0.0000000001
 40
0.0
 40
0.0
 40
0.0
 40
0.0
 40
0.2831751286
 40
0.5424836409
 40
0.7785831462
 40
1.0
 40
1.0
 40
1.0
 40
1.0
 10
251.9720666561
 20
204.2983262492
 30
0.0
 10
251.9549242559
 20
204.2517558508
 30
0.0
 10
251.9127082543
 20
204.1655010208
 30
0.0
 10
251.8233648935
 20
204.0601909112
 30
0.0
 10
251.7154150211
 20
203.9916297061
 30
0.0
 10
251.634542191
 20
203.9753754171
 30
0.0
 10
251.595739831
 20
203.9753754171
 30
0.0
  0
SPLINE
  5
46E
100
AcDbEntity
  8
7_ALL_FEATURES
100
AcDbSpline
 62
7
  6
CONTINUOUS
 70
0
 71
3
 72
11
 73
7
 74
0
 42
0.0000001
 43
0.0000001
 44
0.0000000001
 40
0.0
 40
0.0
 40
0.0
 40
0.0
 40
0.2414252117
 40
0.4947937597
 40
0.7509014051
 40
1.0
 40
1.0
 40
1.0
 40
1.0
 10
255.0162162494
 20
217.4172108694
 30
0.0
 10
255.1773947062
 20
217.1078110964
 30
0.0
 10
255.4304365394
 20
216.4316178521
 30
0.0
 10
255.5950249866
 20
215.3522820336
 30
0.0
 10
255.5479095011
 20
214.2505091072
 30
0.0
 10
255.372227535
 20
213.5354718273
 30
0.0
 10
255.2478863546
 20
213.1976767566
 30
0.0
  0
SPLINE
  5
46F
100
AcDbEntity
  8
7_ALL_FEATURES
100
AcDbSpline
 62
4
  6
CONTINUOUS
 70
0
 71
3
 72
74
 73
70
 74
0
 42
0.0000001
 43
0.0000001
 44
0.0000000001
 40
0.0
 40
0.0
 40
0.0
 40
0.0
 40
0.0625
 40
0.09375
 40
0.125
 40
0.140625
 40
0.15625
 40
0.1640625
 40
0.16796875
 40
0.171875
 40
0.1796875
 40
0.1875
 40
0.203125
 40
0.21875
 40
0.25
 40
0.28125
 40
0.296875
 40
0.3125
 40
0.3203125
 40
0.328125
 40
0.33203125
 40
0.3359375
 40
0.34375
 40
0.359375
 40
0.375
 40
0.390625
 40
0.40625
 40
0.4375
 40
0.453125
 40
0.46875
 40
0.484375
 40
0.4921875
 40
0.49609375
 40
0.5
 40
0.50390625
 40
0.5078125
 40
0.515625
 40
0.53125
 40
0.546875
 40
0.5625
 40
0.59375
 40
0.609375
 40
0.625
 40
0.640625
 40
0.65625
 40
0.6640625
 40
0.66796875
 40
0.671875
 40
0.6796875
 40
0.6875
 40
0.703125
 40
0.71875
 40
0.75
 40
0.78125
 40
0.796875
 40
0.8125
 40
0.8203125
 40
0.828125
 40
0.83203125
 40
0.833984375
 40
0.8359375
 40
0.83984375
 40
0.84375
 40
0.859375
 40
0.875
 40
0.890625
 40
0.90625
 40
0.9375
 40
1.0
 40
1.0
 40
1.0
 40
1.0
 10
256.9994857234
 20
206.4741119424
 30
0.0
 10
257.009738109
 20
206.4796826449
 30
0.0
 10
257.0251166552
 20
206.4880390261
 30
0.0
 10
257.0456215124
 20
206.4991795578
 30
0.0
 10
257.0584367796
 20
206.5061451193
 30
0.0
 10
257.0686896055
 20
206.5117113458
 30
0.0
 10
257.0750962257
 20
206.5152044295
 30
0.0
 10
257.0795836574
 20
206.5176211458
 30
0.0
 10
257.0821435271
 20
206.5190466271
 30
0.0
 10
257.0846869083
 20
206.520639749
 30
0.0
 10
257.0878717805
 20
206.5225737514
 30
0.0
 10
257.0929644207
 20
206.5257002336
 30
0.0
 10
257.0993313021
 20
206.5295973482
 30
0.0
 10
257.1095177037
 20
206.5358388993
 30
0.0
 10
257.1222509467
 20
206.5436385331
 30
0.0
 10
257.1349839864
 20
206.5514396775
 30
0.0
 10
257.1451707131
 20
206.5576788115
 30
0.0
 10
257.1515367815
 20
206.5615819686
 30
0.0
 10
257.1566310885
 20
206.5646960637
 30
0.0
 10
257.1598117174
 20
206.5666616005
 30
0.0
 10
257.1623638087
 20
206.568189992
 30
0.0
 10
257.164888198
 20
206.5698791533
 30
0.0
 10
257.1692930086
 20
206.5729098819
 30
0.0
 10
257.1755923252
 20
206.5772004358
 30
0.0
 10
257.1831486196
 20
206.582365846
 30
0.0
 10
257.1907056881
 20
206.5875267676
 30
0.0
 10
257.2007814982
 20
206.594409608
 30
0.0
 10
257.2108574476
 20
206.6012917563
 30
0.0
 10
257.2209331899
 20
206.6081747721
 30
0.0
 10
257.2284904787
 20
206.6133351236
 30
0.0
 10
257.2347866988
 20
206.6176414228
 30
0.0
 10
257.2391970352
 20
206.6206440549
 30
0.0
 10
257.241712571
 20
206.6223782325
 30
0.0
 10
257.2436123399
 20
206.6236270672
 30
0.0
 10
257.2454619689
 20
206.625073902
 30
0.0
 10
257.2479456302
 20
206.6269339503
 30
0.0
 10
257.2522838888
 20
206.6302212135
 30
0.0
 10
257.2584856618
 20
206.6349004793
 30
0.0
 10
257.2659259639
 20
206.640522805
 30
0.0
 10
257.2758470132
 20
206.6480166951
 30
0.0
 10
257.2857678343
 20
206.6555114373
 30
0.0
 10
257.2956888553
 20
206.6630055312
 30
0.0
 10
257.3031292493
 20
206.6686271946
 30
0.0
 10
257.3105710307
 20
206.6742448104
 30
0.0
 10
257.3167682002
 20
206.6789387379
 30
0.0
 10
257.3211146733
 20
206.6821998378
 30
0.0
 10
257.3235851733
 20
206.6841018052
 30
0.0
 10
257.3260059588
 20
206.6861487162
 30
0.0
 10
257.3290489627
 20
206.6886577265
 30
0.0
 10
257.3339082563
 20
206.692699878
 30
0.0
 10
257.3399856301
 20
206.6977430685
 30
0.0
 10
257.3497076101
 20
206.705817496
 30
0.0
 10
257.3618606933
 20
206.7159086053
 30
0.0
 10
257.3740136165
 20
206.7260007618
 30
0.0
 10
257.3837358524
 20
206.7340735137
 30
0.0
 10
257.3898125866
 20
206.7391208934
 30
0.0
 10
257.3946731913
 20
206.7431544571
 30
0.0
 10
257.3977128575
 20
206.7456853296
 30
0.0
 10
257.3998370397
 20
206.7474371098
 30
0.0
 10
257.4010564659
 20
206.7484691537
 30
0.0
 10
257.4022970136
 20
206.7496180592
 30
0.0
 10
257.4038404789
 20
206.7510142472
 30
0.0
 10
257.4075507374
 20
206.754397974
 30
0.0
 10
257.4131136295
 20
206.7594597561
 30
0.0
 10
257.4205322454
 20
206.766216691
 30
0.0
 10
257.4279504798
 20
206.7729715148
 30
0.0
 10
257.437841592
 20
206.7819786831
 30
0.0
 10
257.455150976
 20
206.7977408824
 30
0.0
 10
257.4699876123
 20
206.8112514573
 30
0.0
 10
257.4798786984
 20
206.8202584809
 30
0.0
  0
SPLINE
  5
470
100
AcDbEntity
  8
7_ALL_FEATURES
100
AcDbSpline
 62
4
  6
CONTINUOUS
 70
0
 71
3
 72
157
 73
153
 74
0
 42
0.0000001
 43
0.0000001
 44
0.0000000001
 40
0.0
 40
0.0
 40
0.0
 40
0.0
 40
0.03125
 40
0.046875
 40
0.0625
 40
0.078125
 40
0.09375
 40
0.1015625
 40
0.109375
 40
0.11328125
 40
0.1171875
 40
0.12109375
 40
0.123046875
 40
0.1240234375
 40
0.125
 40
0.1259765625
 40
0.126953125
 40
0.12890625
 40
0.1328125
 40
0.13671875
 40
0.140625
 40
0.1484375
 40
0.15625
 40
0.171875
 40
0.1875
 40
0.203125
 40
0.21875
 40
0.2265625
 40
0.234375
 40
0.23828125
 40
0.2421875
 40
0.24609375
 40
0.248046875
 40
0.2490234375
 40
0.25
 40
0.2509765625
 40
0.251953125
 40
0.25390625
 40
0.2578125
 40
0.26171875
 40
0.265625
 40
0.2734375
 40
0.28125
 40
0.296875
 40
0.3125
 40
0.328125
 40
0.34375
 40
0.3515625
 40
0.359375
 40
0.36328125
 40
0.3671875
 40
0.37109375
 40
0.373046875
 40
0.3740234375
 40
0.375
 40
0.3759765625
 40
0.376953125
 40
0.37890625
 40
0.3828125
 40
0.38671875
 40
0.390625
 40
0.3984375
 40
0.40625
 40
0.421875
 40
0.4375
 40
0.453125
 40
0.46875
 40
0.4765625
 40
0.484375
 40
0.48828125
 40
0.4921875
 40
0.49609375
 40
0.498046875
 40
0.4990234375
 40
0.5
 40
0.5009765625
 40
0.501953125
 40
0.50390625
 40
0.5078125
 40
0.51171875
 40
0.515625
 40
0.5234375
 40
0.53125
 40
0.546875
 40
0.5625
 40
0.578125
 40
0.59375
 40
0.6015625
 40
0.609375
 40
0.61328125
 40
0.6171875
 40
0.62109375
 40
0.623046875
 40
0.6240234375
 40
0.625
 40
0.6259765625
 40
0.626953125
 40
0.62890625
 40
0.6328125
 40
0.63671875
 40
0.640625
 40
0.6484375
 40
0.65625
 40
0.671875
 40
0.6875
 40
0.703125
 40
0.71875
 40
0.7265625
 40
0.734375
 40
0.73828125
 40
0.7421875
 40
0.74609375
 40
0.748046875
 40
0.7490234375
 40
0.75
 40
0.7509765625
 40
0.751953125
 40
0.75390625
 40
0.7578125
 40
0.76171875
 40
0.765625
 40
0.7734375
 40
0.78125
 40
0.796875
 40
0.8125
 40
0.828125
 40
0.8359375
 40
0.84375
 40
0.8515625
 40
0.859375
 40
0.86328125
 40
0.8671875
 40
0.869140625
 40
0.87109375
 40
0.873046875
 40
0.8740234375
 40
0.875
 40
0.8759765625
 40
0.876953125
 40
0.87890625
 40
0.880859375
 40
0.8828125
 40
0.88671875
 40
0.890625
 40
0.8984375
 40
0.90625
 40
0.9140625
 40
0.921875
 40
0.9375
 40
0.953125
 40
0.96875
 40
1.0
 40
1.0
 40
1.0
 40
1.0
 10
257.5497682437
 20
208.8053699537
 30
0.0
 10
257.5433227621
 20
208.8011332509
 30
0.0
 10
257.5336545395
 20
208.7947781974
 30
0.0
 10
257.5207635766
 20
208.7863047905
 30
0.0
 10
257.5110953532
 20
208.7799497407
 30
0.0
 10
257.5014271345
 20
208.7735946705
 30
0.0
 10
257.4933702711
 20
208.7682988421
 30
0.0
 10
257.4869248126
 20
208.7640620375
 30
0.0
 10
257.4828963277
 20
208.7614143575
 30
0.0
 10
257.4796737078
 20
208.7592954739
 30
0.0
 10
257.477256283
 20
208.7577083364
 30
0.0
 10
257.475243225
 20
208.7563792794
 30
0.0
 10
257.4738312141
 20
208.7554615826
 30
0.0
 10
257.4730288324
 20
208.7549174433
 30
0.0
 10
257.472414421
 20
208.7545649498
 30
0.0
 10
257.4718482695
 20
208.753999883
 30
0.0
 10
257.4710765673
 20
208.7533206086
 30
0.0
 10
257.4697339315
 20
208.7520973315
 30
0.0
 10
257.4678117799
 20
208.7503678543
 30
0.0
 10
257.4655069531
 20
208.7482847507
 30
0.0
 10
257.4624332377
 20
208.7455099795
 30
0.0
 10
257.4585913033
 20
208.742040591
 30
0.0
 10
257.4524440909
 20
208.7364900862
 30
0.0
 10
257.4447601163
 20
208.7295517769
 30
0.0
 10
257.4355393265
 20
208.721225886
 30
0.0
 10
257.4263185523
 20
208.7128999593
 30
0.0
 10
257.4186345389
 20
208.7059617395
 30
0.0
 10
257.412487404
 20
208.7004110558
 30
0.0
 10
257.4086452727
 20
208.6969421218
 30
0.0
 10
257.4055719616
 20
208.6941664177
 30
0.0
 10
257.4032658995
 20
208.6920861645
 30
0.0
 10
257.4013476128
 20
208.6903477691
 30
0.0
 10
257.3999980774
 20
208.6891404125
 30
0.0
 10
257.3992374301
 20
208.6884356294
 30
0.0
 10
257.3986373213
 20
208.687948917
 30
0.0
 10
257.398150448
 20
208.6873021376
 30
0.0
 10
257.3974617858
 20
208.6864955982
 30
0.0
 10
257.3962750298
 20
208.6850581405
 30
0.0
 10
257.3945700428
 20
208.6830182298
 30
0.0
 10
257.3925281765
 20
208.6805645155
 30
0.0
 10
257.3898042498
 20
208.6772949299
 30
0.0
 10
257.386399834
 20
208.6732072516
 30
0.0
 10
257.3809524932
 20
208.6666673555
 30
0.0
 10
257.3741434126
 20
208.6584923513
 30
0.0
 10
257.3659724713
 20
208.6486824063
 30
0.0
 10
257.3578015558
 20
208.6388724355
 30
0.0
 10
257.3509924107
 20
208.6306974959
 30
0.0
 10
257.345545199
 20
208.6241574706
 30
0.0
 10
257.3421404551
 20
208.6200701207
 30
0.0
 10
257.3394172017
 20
208.6167998611
 30
0.0
 10
257.3373732785
 20
208.6143482058
 30
0.0
 10
257.3356747274
 20
208.6123018532
 30
0.0
 10
257.3344764821
 20
208.6108758954
 30
0.0
 10
257.3338062285
 20
208.6100509303
 30
0.0
 10
257.3332628099
 20
208.6094607487
 30
0.0
 10
257.332875076
 20
208.6087614643
 30
0.0
 10
257.3323037929
 20
208.6078671413
 30
0.0
 10
257.3313293491
 20
208.6062843451
 30
0.0
 10
257.3299240585
 20
208.6040324776
 30
0.0
 10
257.3282433717
 20
208.6013262687
 30
0.0
 10
257.3260004784
 20
208.5977193762
 30
0.0
 10
257.323197539
 20
208.5932102859
 30
0.0
 10
257.3187124573
 20
208.5859960068
 30
0.0
 10
257.3131062361
 20
208.5769780666
 30
0.0
 10
257.30637871
 20
208.5661565787
 30
0.0
 10
257.2996512171
 20
208.5553350753
 30
0.0
 10
257.2940449128
 20
208.5463171739
 30
0.0
 10
257.2895599973
 20
208.5391028171
 30
0.0
 10
257.2867566354
 20
208.5345939244
 30
0.0
 10
257.2845146093
 20
208.5309866263
 30
0.0
 10
257.2828312734
 20
208.5282816565
 30
0.0
 10
257.2814342711
 20
208.5260259123
 30
0.0
 10
257.2804450313
 20
208.5244500366
 30
0.0
 10
257.2798974551
 20
208.5235446251
 30
0.0
 10
257.2794369012
 20
208.5228794013
 30
0.0
 10
257.2791669825
 20
208.522161294
 30
0.0
 10
257.2787405952
 20
208.5212222639
 30
0.0
 10
257.2780253991
 20
208.5195703668
 30
0.0
 10
257.2769874928
 20
208.517215007
 30
0.0
 10
257.2757489383
 20
208.5143866521
 30
0.0
 10
257.2740951107
 20
208.5106161839
 30
0.0
 10
257.2720286554
 20
208.5059028687
 30
0.0
 10
257.2687218633
 20
208.4983616929
 30
0.0
 10
257.2645885334
 20
208.4889351791
 30
0.0
 10
257.2596284637
 20
208.4776233813
 30
0.0
 10
257.2546684331
 20
208.4663115789
 30
0.0
 10
257.2505350056
 20
208.4568850764
 30
0.0
 10
257.2472284089
 20
208.449343878
 30
0.0
 10
257.245161457
 20
208.4446306202
 30
0.0
 10
257.2435086486
 20
208.4408600343
 30
0.0
 10
257.2422669805
 20
208.4380320389
 30
0.0
 10
257.2412388157
 20
208.4356755543
 30
0.0
 10
257.2405062294
 20
208.4340256652
 30
0.0
 10
257.2401077055
 20
208.4330834178
 30
0.0
 10
257.2397521995
 20
208.4323751932
 30
0.0
 10
257.2396130971
 20
208.4316728517
 30
0.0
 10
257.2393521432
 20
208.4307343442
 30
0.0
 10
257.2389306433
 20
208.4290929123
 30
0.0
 10
257.2383101135
 20
208.4267475098
 30
0.0
 10
257.2375733481
 20
208.4239332406
 30
0.0
 10
257.2365882452
 20
208.420180807
 30
0.0
 10
257.2353578079
 20
208.4154902906
 30
0.0
 10
257.233388582
 20
208.40798545
 30
0.0
 10
257.2309272314
 20
208.3986044046
 30
0.0
 10
257.2279735272
 20
208.3873471462
 30
0.0
 10
257.225019866
 20
208.3760898946
 30
0.0
 10
257.2225584079
 20
208.3667088323
 30
0.0
 10
257.220589397
 20
208.3592040254
 30
0.0
 10
257.219358413
 20
208.3545134233
 30
0.0
 10
257.2183744322
 20
208.3507611656
 30
0.0
 10
257.2176342388
 20
208.3479463591
 30
0.0
 10
257.2170244344
 20
208.3456026378
 30
0.0
 10
257.2165837879
 20
208.3439582046
 30
0.0
 10
257.2163535117
 20
208.343024506
 30
0.0
 10
257.2161201772
 20
208.3423073932
 30
0.0
 10
257.2161185911
 20
208.3416546468
 30
0.0
 10
257.2160356398
 20
208.3407618666
 30
0.0
 10
257.2159281382
 20
208.3392099619
 30
0.0
 10
257.2157548738
 20
208.3369874863
 30
0.0
 10
257.2155553848
 20
208.3343228563
 30
0.0
 10
257.2152864556
 20
208.3307691988
 30
0.0
 10
257.2149513021
 20
208.3263274069
 30
0.0
 10
257.2144144931
 20
208.3192203833
 30
0.0
 10
257.2137436753
 20
208.3103366575
 30
0.0
 10
257.2129386105
 20
208.2996761634
 30
0.0
 10
257.2122677435
 20
208.2907924241
 30
0.0
 10
257.2117310428
 20
208.2836854302
 30
0.0
 10
257.2113285263
 20
208.2783551888
 30
0.0
 10
257.2109259773
 20
208.2730249327
 30
0.0
 10
257.2105906205
 20
208.2685830981
 30
0.0
 10
257.2103221098
 20
208.2650295287
 30
0.0
 10
257.2101548034
 20
208.2628087793
 30
0.0
 10
257.2100197838
 20
208.2610316497
 30
0.0
 10
257.2099217348
 20
208.2597002537
 30
0.0
 10
257.209829798
 20
208.2585861406
 30
0.0
 10
257.2097791909
 20
208.2577052041
 30
0.0
 10
257.2096785461
 20
208.2570162095
 30
0.0
 10
257.2098171882
 20
208.2564352066
 30
0.0
 10
257.2099184583
 20
208.2556228132
 30
0.0
 10
257.2100737238
 20
208.2546202639
 30
0.0
 10
257.2102477674
 20
208.253411665
 30
0.0
 10
257.210484113
 20
208.2518021347
 30
0.0
 10
257.210778077
 20
208.2497895593
 30
0.0
 10
257.2112492398
 20
208.246569809
 30
0.0
 10
257.2118379118
 20
208.242544994
 30
0.0
 10
257.2125444388
 20
208.2377152705
 30
0.0
 10
257.2132509336
 20
208.2328855324
 30
0.0
 10
257.2141929379
 20
208.2264458867
 30
0.0
 10
257.2153704394
 20
208.2183963278
 30
0.0
 10
257.2167834429
 20
208.2087368579
 30
0.0
 10
257.2186674469
 20
208.1958575644
 30
0.0
 10
257.2200804501
 20
208.1861980944
 30
0.0
 10
257.2210224522
 20
208.1797584477
 30
0.0
  0
SPLINE
  5
471
100
AcDbEntity
  8
7_ALL_FEATURES
100
AcDbSpline
 62
4
  6
CONTINUOUS
 70
0
 71
3
 72
116
 73
112
 74
0
 42
0.0000001
 43
0.0000001
 44
0.0000000001
 40
0.0
 40
0.0
 40
0.0
 40
0.0
 40
0.03125
 40
0.0625
 40
0.09375
 40
0.109375
 40
0.125
 40
0.140625
 40
0.1484375
 40
0.15625
 40
0.16015625
 40
0.1640625
 40
0.166015625
 40
0.1669921875
 40
0.16796875
 40
0.169921875
 40
0.171875
 40
0.17578125
 40
0.1796875
 40
0.1875
 40
0.1953125
 40
0.203125
 40
0.21875
 40
0.25
 40
0.28125
 40
0.296875
 40
0.3046875
 40
0.3125
 40
0.3203125
 40
0.32421875
 40
0.328125
 40
0.330078125
 40
0.33203125
 40
0.3330078125
 40
0.333984375
 40
0.3359375
 40
0.33984375
 40
0.34375
 40
0.3515625
 40
0.359375
 40
0.375
 40
0.390625
 40
0.40625
 40
0.421875
 40
0.4375
 40
0.453125
 40
0.46875
 40
0.4765625
 40
0.484375
 40
0.48828125
 40
0.4921875
 40
0.49609375
 40
0.498046875
 40
0.4990234375
 40
0.5
 40
0.5009765625
 40
0.501953125
 40
0.50390625
 40
0.5078125
 40
0.51171875
 40
0.515625
 40
0.5234375
 40
0.53125
 40
0.546875
 40
0.5625
 40
0.578125
 40
0.59375
 40
0.609375
 40
0.625
 40
0.640625
 40
0.6484375
 40
0.65625
 40
0.66015625
 40
0.6640625
 40
0.666015625
 40
0.6669921875
 40
0.66796875
 40
0.669921875
 40
0.671875
 40
0.67578125
 40
0.6796875
 40
0.6875
 40
0.6953125
 40
0.703125
 40
0.71875
 40
0.75
 40
0.78125
 40
0.796875
 40
0.8046875
 40
0.8125
 40
0.8203125
 40
0.82421875
 40
0.828125
 40
0.830078125
 40
0.83203125
 40
0.8330078125
 40
0.833984375
 40
0.8349609375
 40
0.8359375
 40
0.83984375
 40
0.84375
 40
0.84765625
 40
0.8515625
 40
0.859375
 40
0.875
 40
0.890625
 40
0.90625
 40
0.921875
 40
0.9375
 40
0.96875
 40
1.0
 40
1.0
 40
1.0
 40
1.0
 10
256.8717218411
 20
207.4652621034
 30
0.0
 10
256.8653654763
 20
207.4597929493
 30
0.0
 10
256.8526527461
 20
207.4488546423
 30
0.0
 10
256.833583655
 20
207.4324471748
 30
0.0
 10
256.8176927332
 20
207.4187743057
 30
0.0
 10
256.8049800239
 20
207.4078359648
 30
0.0
 10
256.7954454151
 20
207.3996323337
 30
0.0
 10
256.7875001522
 20
207.392795578
 30
0.0
 10
256.7811433935
 20
207.3873270627
 30
0.0
 10
256.7771716681
 20
207.3839072157
 30
0.0
 10
256.7739914278
 20
207.3811759757
 30
0.0
 10
256.7720103032
 20
207.3794583691
 30
0.0
 10
256.7706104378
 20
207.3782772515
 30
0.0
 10
256.7698309768
 20
207.3775691466
 30
0.0
 10
256.7691285995
 20
207.3767360458
 30
0.0
 10
256.7682242345
 20
207.3757374682
 30
0.0
 10
256.7667920004
 20
207.3741158263
 30
0.0
 10
256.7649966574
 20
207.3720969633
 30
0.0
 10
256.7621269313
 20
207.3688622055
 30
0.0
 10
256.7585388052
 20
207.3648203285
 30
0.0
 10
256.7542334683
 20
207.3599694041
 30
0.0
 10
256.7484928746
 20
207.3535017394
 30
0.0
 10
256.7384469034
 20
207.3421832163
 30
0.0
 10
256.7240954764
 20
207.3260139595
 30
0.0
 10
256.7097440787
 20
207.309844664
 30
0.0
 10
256.6996980664
 20
207.2985261952
 30
0.0
 10
256.6939575373
 20
207.2920584451
 30
0.0
 10
256.6896520023
 20
207.2872077826
 30
0.0
 10
256.6860644964
 20
207.2831650861
 30
0.0
 10
256.6831935049
 20
207.2799320004
 30
0.0
 10
256.6814013821
 20
207.277908882
 30
0.0
 10
256.6799625379
 20
207.2762959749
 30
0.0
 10
256.6790750019
 20
207.2752751589
 30
0.0
 10
256.6783380798
 20
207.274487707
 30
0.0
 10
256.6776993375
 20
207.2735936506
 30
0.0
 10
256.6766271474
 20
207.2719795297
 30
0.0
 10
256.6750716508
 20
207.2696994809
 30
0.0
 10
256.6725961547
 20
207.2660369632
 30
0.0
 10
256.6694972313
 20
207.2614637602
 30
0.0
 10
256.6645414986
 20
207.254143872
 30
0.0
 10
256.6583459595
 20
207.2449949601
 30
0.0
 10
256.6509116871
 20
207.2340158593
 30
0.0
 10
256.643477314
 20
207.2230368675
 30
0.0
 10
256.6360429691
 20
207.2120578462
 30
0.0
 10
256.6286086122
 20
207.2010788339
 30
0.0
 10
256.6211742751
 20
207.1900998149
 30
0.0
 10
256.6149789379
 20
207.1809506473
 30
0.0
 10
256.6100227934
 20
207.1736312808
 30
0.0
 10
256.6069249183
 20
207.1690567503
 30
0.0
 10
256.6044472703
 20
207.1653969575
 30
0.0
 10
256.6025872488
 20
207.1626525739
 30
0.0
 10
256.601042911
 20
207.1603641209
 30
0.0
 10
256.5999507274
 20
207.1587650823
 30
0.0
 10
256.5993440278
 20
207.1578468513
 30
0.0
 10
256.5988399721
 20
207.1571708396
 30
0.0
 10
256.5985233376
 20
207.1564464292
 30
0.0
 10
256.5980357837
 20
207.1554974307
 30
0.0
 10
256.5972130236
 20
207.1538288178
 30
0.0
 10
256.5960217276
 20
207.1514491972
 30
0.0
 10
256.5945989885
 20
207.1485918924
 30
0.0
 10
256.5926996224
 20
207.1447827674
 30
0.0
 10
256.5903262299
 20
207.1400211506
 30
0.0
 10
256.5865283462
 20
207.1324026814
 30
0.0
 10
256.5817811481
 20
207.1228795546
 30
0.0
 10
256.5760844426
 20
207.1114518198
 30
0.0
 10
256.570387758
 20
207.1000240798
 30
0.0
 10
256.5646910576
 20
207.0885963432
 30
0.0
 10
256.5589943995
 20
207.0771685985
 30
0.0
 10
256.5532975881
 20
207.0657408825
 30
0.0
 10
256.5485507211
 20
207.0562176969
 30
0.0
 10
256.544752162
 20
207.0485993475
 30
0.0
 10
256.5423804884
 20
207.043837426
 30
0.0
 10
256.540477594
 20
207.0400289266
 30
0.0
 10
256.5393009607
 20
207.0376462464
 30
0.0
 10
256.5384519137
 20
207.0359831163
 30
0.0
 10
256.5380064906
 20
207.0350253305
 30
0.0
 10
256.537710799
 20
207.0340395704
 30
0.0
 10
256.5372899168
 20
207.0328169486
 30
0.0
 10
256.5366451561
 20
207.030855401
 30
0.0
 10
256.5358293951
 20
207.0284052992
 30
0.0
 10
256.5345296605
 20
207.0244841121
 30
0.0
 10
256.532903111
 20
207.0195829796
 30
0.0
 10
256.5309520567
 20
207.0137014702
 30
0.0
 10
256.5283503701
 20
207.0058595101
 30
0.0
 10
256.5237975503
 20
206.9921360557
 30
0.0
 10
256.517293446
 20
206.9725311321
 30
0.0
 10
256.510789395
 20
206.9529262096
 30
0.0
 10
256.5062365005
 20
206.9392027537
 30
0.0
 10
256.5036349314
 20
206.931360796
 30
0.0
 10
256.5016835166
 20
206.9254792793
 30
0.0
 10
256.5000580956
 20
206.9205781698
 30
0.0
 10
256.4987560584
 20
206.9166569357
 30
0.0
 10
256.4979461572
 20
206.9142069534
 30
0.0
 10
256.4972893686
 20
206.9122451607
 30
0.0
 10
256.4968991087
 20
206.9110231628
 30
0.0
 10
256.4965405584
 20
206.9100361221
 30
0.0
 10
256.4963985331
 20
206.9093216952
 30
0.0
 10
256.4962920641
 20
206.9086145129
 30
0.0
 10
256.4960608358
 20
206.9071964218
 30
0.0
 10
256.4957216754
 20
206.9050708503
 30
0.0
 10
256.4952650709
 20
206.9022358604
 30
0.0
 10
256.4948096408
 20
206.8994011097
 30
0.0
 10
256.494201991
 20
206.8956213588
 30
0.0
 10
256.4931387948
 20
206.8890068334
 30
0.0
 10
256.4916198433
 20
206.8795574912
 30
0.0
 10
256.4897971443
 20
206.8682182893
 30
0.0
 10
256.4879744338
 20
206.856879085
 30
0.0
 10
256.4861517263
 20
206.8455398813
 30
0.0
 10
256.4837214487
 20
206.8304209429
 30
0.0
 10
256.480683602
 20
206.81152227
 30
0.0
 10
256.4782533245
 20
206.7964033316
 30
0.0
 10
256.4770381858
 20
206.7888438624
 30
0.0
  0
SPLINE
  5
472
100
AcDbEntity
  8
7_ALL_FEATURES
100
AcDbSpline
 62
4
  6
CONTINUOUS
 70
0
 71
3
 72
109
 73
105
 74
0
 42
0.0000001
 43
0.0000001
 44
0.0000000001
 40
0.0
 40
0.0
 40
0.0
 40
0.0
 40
0.03125
 40
0.0625
 40
0.09375
 40
0.109375
 40
0.125
 40
0.140625
 40
0.1484375
 40
0.15625
 40
0.16015625
 40
0.1640625
 40
0.166015625
 40
0.1669921875
 40
0.16796875
 40
0.169921875
 40
0.171875
 40
0.1796875
 40
0.1875
 40
0.1953125
 40
0.203125
 40
0.21875
 40
0.25
 40
0.28125
 40
0.296875
 40
0.3046875
 40
0.3125
 40
0.3203125
 40
0.32421875
 40
0.328125
 40
0.330078125
 40
0.33203125
 40
0.3330078125
 40
0.333984375
 40
0.3359375
 40
0.33984375
 40
0.34375
 40
0.3515625
 40
0.359375
 40
0.375
 40
0.390625
 40
0.40625
 40
0.421875
 40
0.4375
 40
0.453125
 40
0.46875
 40
0.4765625
 40
0.484375
 40
0.48828125
 40
0.4921875
 40
0.49609375
 40
0.498046875
 40
0.4990234375
 40
0.5
 40
0.5009765625
 40
0.501953125
 40
0.50390625
 40
0.5078125
 40
0.51171875
 40
0.515625
 40
0.5234375
 40
0.53125
 40
0.546875
 40
0.5625
 40
0.578125
 40
0.59375
 40
0.609375
 40
0.625
 40
0.640625
 40
0.6484375
 40
0.65625
 40
0.66015625
 40
0.6640625
 40
0.666015625
 40
0.6669921875
 40
0.66796875
 40
0.669921875
 40
0.671875
 40
0.6796875
 40
0.6875
 40
0.6953125
 40
0.703125
 40
0.71875
 40
0.75
 40
0.78125
 40
0.796875
 40
0.8046875
 40
0.8125
 40
0.8203125
 40
0.828125
 40
0.830078125
 40
0.83203125
 40
0.8330078125
 40
0.833984375
 40
0.8359375
 40
0.83984375
 40
0.84375
 40
0.8515625
 40
0.859375
 40
0.875
 40
0.890625
 40
0.90625
 40
0.9375
 40
1.0
 40
1.0
 40
1.0
 40
1.0
 10
257.9540530005
 20
208.8053699537
 30
0.0
 10
257.9508839318
 20
208.8075656909
 30
0.0
 10
257.9445457951
 20
208.8119571663
 30
0.0
 10
257.9350385861
 20
208.8185443736
 30
0.0
 10
257.9271159231
 20
208.8240337303
 30
0.0
 10
257.9207777679
 20
208.828425177
 30
0.0
 10
257.9160242193
 20
208.8317188675
 30
0.0
 10
257.912062713
 20
208.8344632742
 30
0.0
 10
257.9088939919
 20
208.8366595517
 30
0.0
 10
257.9069124394
 20
208.8380305126
 30
0.0
 10
257.9053297208
 20
208.8391312033
 30
0.0
 10
257.904334764
 20
208.8398101865
 30
0.0
 10
257.9036498334
 20
208.8403034085
 30
0.0
 10
257.9032403904
 20
208.8405571906
 30
0.0
 10
257.9027629471
 20
208.8407052884
 30
0.0
 10
257.9021893857
 20
208.8409265339
 30
0.0
 10
257.9007937086
 20
208.8414277921
 30
0.0
 10
257.8987082276
 20
208.8421921668
 30
0.0
 10
257.8959229941
 20
208.8432041958
 30
0.0
 10
257.8931389889
 20
208.844218134
 30
0.0
 10
257.8894265536
 20
208.8455693858
 30
0.0
 10
257.8829299911
 20
208.847934386
 30
0.0
 10
257.8736490858
 20
208.8513128
 30
0.0
 10
257.8643682076
 20
208.854691255
 30
0.0
 10
257.8578716072
 20
208.8570561978
 30
0.0
 10
257.8541592313
 20
208.8584075397
 30
0.0
 10
257.8513750437
 20
208.859421201
 30
0.0
 10
257.8490545868
 20
208.8602654251
 30
0.0
 10
257.8471988956
 20
208.8609419118
 30
0.0
 10
257.8460375529
 20
208.8613621941
 30
0.0
 10
257.8451119957
 20
208.8617041958
 30
0.0
 10
257.844525498
 20
208.861904768
 30
0.0
 10
257.8440746794
 20
208.862095411
 30
0.0
 10
257.8435567623
 20
208.8621758565
 30
0.0
 10
257.8426192374
 20
208.8622654449
 30
0.0
 10
257.8412961791
 20
208.8624201374
 30
0.0
 10
257.8391701973
 20
208.8626527191
 30
0.0
 10
257.836515832
 20
208.862948557
 30
0.0
 10
257.8322671082
 20
208.8634190412
 30
0.0
 10
257.8269568002
 20
208.8640081267
 30
0.0
 10
257.8205841748
 20
208.864714609
 30
0.0
 10
257.8142116181
 20
208.8654212041
 30
0.0
 10
257.8078390427
 20
208.866127768
 30
0.0
 10
257.8014664732
 20
208.8668343439
 30
0.0
 10
257.7950938986
 20
208.8675409034
 30
0.0
 10
257.7897834319
 20
208.8681297475
 30
0.0
 10
257.785535032
 20
208.8686007241
 30
0.0
 10
257.7828798424
 20
208.8688953088
 30
0.0
 10
257.7807555526
 20
208.8691304629
 30
0.0
 10
257.7791627133
 20
208.869308235
 30
0.0
 10
257.7778341445
 20
208.8694519039
 30
0.0
 10
257.7769065068
 20
208.8695612533
 30
0.0
 10
257.7763727423
 20
208.8696100275
 30
0.0
 10
257.7759828018
 20
208.8696852327
 30
0.0
 10
257.7755531732
 20
208.8696127956
 30
0.0
 10
257.7749941787
 20
208.869567712
 30
0.0
 10
257.7740094883
 20
208.8694648214
 30
0.0
 10
257.77260616
 20
208.8693303793
 30
0.0
 10
257.7709207225
 20
208.8691636793
 30
0.0
 10
257.7686739768
 20
208.8689432881
 30
0.0
 10
257.7658653719
 20
208.868667157
 30
0.0
 10
257.7613717007
 20
208.8682257061
 30
0.0
 10
257.7557545785
 20
208.8676737691
 30
0.0
 10
257.7490140463
 20
208.8670114983
 30
0.0
 10
257.7422735095
 20
208.8663492109
 30
0.0
 10
257.7355329766
 20
208.8656869359
 30
0.0
 10
257.7287924327
 20
208.8650246283
 30
0.0
 10
257.7220519286
 20
208.8643624385
 30
0.0
 10
257.7164347185
 20
208.8638102481
 30
0.0
 10
257.7119412267
 20
208.8633693143
 30
0.0
 10
257.7091321652
 20
208.863091867
 30
0.0
 10
257.7068863568
 20
208.8628741775
 30
0.0
 10
257.705479439
 20
208.8627283826
 30
0.0
 10
257.7045011854
 20
208.8626458442
 30
0.0
 10
257.7039318744
 20
208.8625681416
 30
0.0
 10
257.7033237353
 20
208.8623754184
 30
0.0
 10
257.702576833
 20
208.8621738289
 30
0.0
 10
257.7007733443
 20
208.8616576564
 30
0.0
 10
257.6980726991
 20
208.8608969883
 30
0.0
 10
257.6944692166
 20
208.8598749964
 30
0.0
 10
257.6908664356
 20
208.8588550824
 30
0.0
 10
257.6860624828
 20
208.857494472
 30
0.0
 10
257.6776556797
 20
208.8551137436
 30
0.0
 10
257.6656459004
 20
208.85171251
 30
0.0
 10
257.6536361456
 20
208.8483114014
 30
0.0
 10
257.6452293082
 20
208.845930498
 30
0.0
 10
257.6404254092
 20
208.8445701627
 30
0.0
 10
257.6368224633
 20
208.8435494048
 30
0.0
 10
257.6332196
 20
208.8425305819
 30
0.0
 10
257.6305172211
 20
208.8417610397
 30
0.0
 10
257.628715995
 20
208.8412564485
 30
0.0
 10
257.6279649486
 20
208.8410336476
 30
0.0
 10
257.6273653607
 20
208.8408846942
 30
0.0
 10
257.6267612046
 20
208.8406286352
 30
0.0
 10
257.6257018088
 20
208.8401307683
 30
0.0
 10
257.6241894937
 20
208.8394454941
 30
0.0
 10
257.6217691706
 20
208.8383345452
 30
0.0
 10
257.6187439787
 20
208.8369508275
 30
0.0
 10
257.6139035531
 20
208.8347341023
 30
0.0
 10
257.6078530618
 20
208.8319641484
 30
0.0
 10
257.6005924549
 20
208.8286397961
 30
0.0
 10
257.5909116517
 20
208.8242074686
 30
0.0
 10
257.5739702433
 20
208.8164508287
 30
0.0
 10
257.5594490371
 20
208.8098023032
 30
0.0
 10
257.5497682327
 20
208.8053699477
 30
0.0
  0
SPLINE
  5
473
100
AcDbEntity
  8
7_ALL_FEATURES
100
AcDbSpline
 62
4
  6
CONTINUOUS
 70
0
 71
3
 72
162
 73
158
 74
0
 42
0.0000001
 43
0.0000001
 44
0.0000000001
 40
0.0
 40
0.0
 40
0.0
 40
0.0
 40
0.03125
 40
0.046875
 40
0.0625
 40
0.078125
 40
0.0859375
 40
0.09375
 40
0.09765625
 40
0.1015625
 40
0.10546875
 40
0.107421875
 40
0.109375
 40
0.111328125
 40
0.1123046875
 40
0.11328125
 40
0.115234375
 40
0.1171875
 40
0.125
 40
0.1328125
 40
0.140625
 40
0.15625
 40
0.171875
 40
0.1875
 40
0.1953125
 40
0.203125
 40
0.2109375
 40
0.21484375
 40
0.21875
 40
0.220703125
 40
0.22265625
 40
0.2236328125
 40
0.224609375
 40
0.2265625
 40
0.23046875
 40
0.234375
 40
0.2421875
 40
0.25
 40
0.265625
 40
0.28125
 40
0.296875
 40
0.3046875
 40
0.3125
 40
0.3203125
 40
0.32421875
 40
0.328125
 40
0.330078125
 40
0.33203125
 40
0.3330078125
 40
0.333984375
 40
0.3349609375
 40
0.3359375
 40
0.33984375
 40
0.34375
 40
0.34765625
 40
0.3515625
 40
0.359375
 40
0.375
 40
0.390625
 40
0.40625
 40
0.4140625
 40
0.421875
 40
0.4296875
 40
0.4375
 40
0.44140625
 40
0.443359375
 40
0.4443359375
 40
0.4453125
 40
0.447265625
 40
0.44921875
 40
0.453125
 40
0.45703125
 40
0.4609375
 40
0.46875
 40
0.484375
 40
0.5
 40
0.515625
 40
0.53125
 40
0.5390625
 40
0.54296875
 40
0.546875
 40
0.55078125
 40
0.552734375
 40
0.5546875
 40
0.5556640625
 40
0.556640625
 40
0.55859375
 40
0.5625
 40
0.56640625
 40
0.5703125
 40
0.578125
 40
0.5859375
 40
0.59375
 40
0.609375
 40
0.625
 40
0.640625
 40
0.6484375
 40
0.65234375
 40
0.65625
 40
0.66015625
 40
0.6640625
 40
0.6650390625
 40
0.666015625
 40
0.6665039062
 40
0.6669921875
 40
0.66796875
 40
0.669921875
 40
0.671875
 40
0.67578125
 40
0.6796875
 40
0.6875
 40
0.6953125
 40
0.703125
 40
0.71875
 40
0.734375
 40
0.75
 40
0.7578125
 40
0.765625
 40
0.76953125
 40
0.771484375
 40
0.7734375
 40
0.775390625
 40
0.7763671875
 40
0.77734375
 40
0.779296875
 40
0.78125
 40
0.78515625
 40
0.7890625
 40
0.79296875
 40
0.796875
 40
0.8046875
 40
0.8125
 40
0.828125
 40
0.84375
 40
0.859375
 40
0.8671875
 40
0.875
 40
0.87890625
 40
0.8828125
 40
0.884765625
 40
0.88671875
 40
0.8876953125
 40
0.888671875
 40
0.8896484375
 40
0.890625
 40
0.892578125
 40
0.89453125
 40
0.8984375
 40
0.90234375
 40
0.90625
 40
0.9140625
 40
0.921875
 40
0.9296875
 40
0.9375
 40
0.953125
 40
0.96875
 40
1.0
 40
1.0
 40
1.0
 40
1.0
 10
257.7534109361
 20
208.1207019985
 30
0.0
 10
257.7602992815
 20
208.126671372
 30
0.0
 10
257.7706317989
 20
208.1356254333
 30
0.0
 10
257.7844084914
 20
208.1475641778
 30
0.0
 10
257.7947410045
 20
208.156518246
 30
0.0
 10
257.8033514519
 20
208.1639799384
 30
0.0
 10
257.8102397653
 20
208.169949362
 30
0.0
 10
257.8145450626
 20
208.1736800929
 30
0.0
 10
257.8179890682
 20
208.1766650416
 30
0.0
 10
257.8205727082
 20
208.1789027566
 30
0.0
 10
257.8227237189
 20
208.1807706891
 30
0.0
 10
257.824449064
 20
208.1822579252
 30
0.0
 10
257.8257306767
 20
208.1833927802
 30
0.0
 10
257.8268381174
 20
208.1842766953
 30
0.0
 10
257.8275907978
 20
208.1851927002
 30
0.0
 10
257.8283667508
 20
208.1860722307
 30
0.0
 10
257.8293287374
 20
208.1871841109
 30
0.0
 10
257.8316440523
 20
208.1898423624
 30
0.0
 10
257.8351142753
 20
208.1938340486
 30
0.0
 10
257.8397428083
 20
208.1991538378
 30
0.0
 10
257.8459136378
 20
208.2062477488
 30
0.0
 10
257.853627361
 20
208.2151148445
 30
0.0
 10
257.862883756
 20
208.2257554781
 30
0.0
 10
257.8705974131
 20
208.2346226675
 30
0.0
 10
257.876768388
 20
208.2417163723
 30
0.0
 10
257.8813964748
 20
208.247036794
 30
0.0
 10
257.8852536746
 20
208.2514700213
 30
0.0
 10
257.8883384007
 20
208.2550176296
 30
0.0
 10
257.8902687086
 20
208.2572325472
 30
0.0
 10
257.8918075635
 20
208.259009835
 30
0.0
 10
257.8927816492
 20
208.2601084244
 30
0.0
 10
257.8934162875
 20
208.2611309158
 30
0.0
 10
257.8940761501
 20
208.2621283593
 30
0.0
 10
257.8952191586
 20
208.2638855542
 30
0.0
 10
257.8968581589
 20
208.2663897444
 30
0.0
 10
257.8994771332
 20
208.270399851
 30
0.0
 10
257.9027520243
 20
208.2754113194
 30
0.0
 10
257.9079911939
 20
208.28343032
 30
0.0
 10
257.9145403836
 20
208.2934538466
 30
0.0
 10
257.9223993022
 20
208.3054821773
 30
0.0
 10
257.9289484609
 20
208.315505756
 30
0.0
 10
257.9341876988
 20
208.3235246422
 30
0.0
 10
257.9381173585
 20
208.3295387551
 30
0.0
 10
257.9413913411
 20
208.3345506786
 30
0.0
 10
257.9440121728
 20
208.3385598527
 30
0.0
 10
257.9456464455
 20
208.341066417
 30
0.0
 10
257.9469624452
 20
208.3430697663
 30
0.0
 10
257.9477653647
 20
208.3443261998
 30
0.0
 10
257.9484525478
 20
208.3453214057
 30
0.0
 10
257.9488451408
 20
208.3460950288
 30
0.0
 10
257.9492033244
 20
208.3468762791
 30
0.0
 10
257.949937392
 20
208.3484348562
 30
0.0
 10
257.9510310592
 20
208.3507743698
 30
0.0
 10
257.9524935311
 20
208.3538927793
 30
0.0
 10
257.9539548664
 20
208.3570114408
 30
0.0
 10
257.9559037098
 20
208.3611695683
 30
0.0
 10
257.959314003
 20
208.3684463322
 30
0.0
 10
257.9641859314
 20
208.3788416895
 30
0.0
 10
257.9700322742
 20
208.3913161192
 30
0.0
 10
257.9749040226
 20
208.4017115002
 30
0.0
 10
257.9788018965
 20
208.4100277496
 30
0.0
 10
257.9817239988
 20
208.4162650889
 30
0.0
 10
257.9846510761
 20
208.4225018471
 30
0.0
 10
257.9870748096
 20
208.4277009557
 30
0.0
 10
257.9888017914
 20
208.4313367847
 30
0.0
 10
257.9896237979
 20
208.4331595446
 30
0.0
 10
257.9901602937
 20
208.4341933221
 30
0.0
 10
257.9904454817
 20
208.4352564521
 30
0.0
 10
257.9908479456
 20
208.4365799942
 30
0.0
 10
257.9914661903
 20
208.4387006632
 30
0.0
 10
257.9922478127
 20
208.4413504696
 30
0.0
 10
257.9931819862
 20
208.444530678
 30
0.0
 10
257.9944288672
 20
208.4487708022
 30
0.0
 10
257.9966102952
 20
208.456191091
 30
0.0
 10
257.9997269442
 20
208.466791467
 30
0.0
 10
258.0034667739
 20
208.4795119305
 30
0.0
 10
258.0072066826
 20
208.492232403
 30
0.0
 10
258.0103231343
 20
208.5028327569
 30
0.0
 10
258.0125049077
 20
208.5102530843
 30
0.0
 10
258.013751236
 20
208.5144931467
 30
0.0
 10
258.0146871068
 20
208.5176735449
 30
0.0
 10
258.0154634169
 20
208.5203227573
 30
0.0
 10
258.0160925001
 20
208.5224446381
 30
0.0
 10
258.0164673805
 20
208.5237650961
 30
0.0
 10
258.0168091877
 20
208.5248345568
 30
0.0
 10
258.0168647327
 20
208.5258145633
 30
0.0
 10
258.0170953114
 20
208.5275712529
 30
0.0
 10
258.0173549795
 20
208.5300590197
 30
0.0
 10
258.017696428
 20
208.5330536666
 30
0.0
 10
258.0181412669
 20
208.5370432712
 30
0.0
 10
258.0187008925
 20
208.5420313947
 30
0.0
 10
258.0193709123
 20
208.5480166646
 30
0.0
 10
258.0202648063
 20
208.5559971912
 30
0.0
 10
258.0213819941
 20
208.565972794
 30
0.0
 10
258.0227226803
 20
208.5779435336
 30
0.0
 10
258.0238399555
 20
208.5879191697
 30
0.0
 10
258.0246219445
 20
208.5949020664
 30
0.0
 10
258.025068962
 20
208.5988923704
 30
0.0
 10
258.0254037549
 20
208.6018848805
 30
0.0
 10
258.0257403451
 20
208.6048782235
 30
0.0
 10
258.0259877488
 20
208.6071208955
 30
0.0
 10
258.0261605211
 20
208.6086196419
 30
0.0
 10
258.0262208485
 20
208.6092387153
 30
0.0
 10
258.0262963133
 20
208.6097465811
 30
0.0
 10
258.0262722951
 20
208.6102083419
 30
0.0
 10
258.026184041
 20
208.6109950019
 30
0.0
 10
258.0260820801
 20
208.6121299784
 30
0.0
 10
258.0259054654
 20
208.6139396949
 30
0.0
 10
258.0256893116
 20
208.6162039791
 30
0.0
 10
258.0253408864
 20
208.6198256386
 30
0.0
 10
258.0249062398
 20
208.624353123
 30
0.0
 10
258.0243842851
 20
208.6297859288
 30
0.0
 10
258.0236884775
 20
208.637029731
 30
0.0
 10
258.0228186753
 20
208.6460844643
 30
0.0
 10
258.0217749199
 20
208.6569501459
 30
0.0
 10
258.0209051565
 20
208.6660049012
 30
0.0
 10
258.0202092635
 20
208.6732486549
 30
0.0
 10
258.0197745197
 20
208.6777761171
 30
0.0
 10
258.0194698195
 20
208.6809451078
 30
0.0
 10
258.0192962988
 20
208.682756324
 30
0.0
 10
258.0191644857
 20
208.6841137095
 30
0.0
 10
258.0190599695
 20
208.6852481345
 30
0.0
 10
258.0189644054
 20
208.6861483387
 30
0.0
 10
258.0189123837
 20
208.6870752697
 30
0.0
 10
258.0185357272
 20
208.688042653
 30
0.0
 10
258.0179670176
 20
208.6896112995
 30
0.0
 10
258.017244484
 20
208.6915649587
 30
0.0
 10
258.0163824363
 20
208.6939124143
 30
0.0
 10
258.0155190529
 20
208.6962590501
 30
0.0
 10
258.0143683416
 20
208.6993881842
 30
0.0
 10
258.0129297928
 20
208.7032995038
 30
0.0
 10
258.0106282034
 20
208.7095576695
 30
0.0
 10
258.0077511898
 20
208.7173803613
 30
0.0
 10
258.0042987696
 20
208.7267675832
 30
0.0
 10
258.0014218014
 20
208.7345903163
 30
0.0
 10
257.9991201122
 20
208.7408483912
 30
0.0
 10
257.9976818188
 20
208.7447599429
 30
0.0
 10
257.9965305829
 20
208.7478886004
 30
0.0
 10
257.9958124323
 20
208.7498453436
 30
0.0
 10
257.9952347699
 20
208.7514076866
 30
0.0
 10
257.9948808997
 20
208.7523911138
 30
0.0
 10
257.9945813838
 20
208.7531619076
 30
0.0
 10
257.9944017048
 20
208.7537836692
 30
0.0
 10
257.9940504039
 20
208.75423874
 30
0.0
 10
257.993577596
 20
208.7548412209
 30
0.0
 10
257.9929880949
 20
208.7555957876
 30
0.0
 10
257.9920440499
 20
208.7568022752
 30
0.0
 10
257.990864283
 20
208.7583106658
 30
0.0
 10
257.9894484389
 20
208.7601206142
 30
0.0
 10
257.9875606899
 20
208.7625339207
 30
0.0
 10
257.9852009889
 20
208.7655505394
 30
0.0
 10
257.9823693541
 20
208.7691704881
 30
0.0
 10
257.9795377176
 20
208.7727904351
 30
0.0
 10
257.9757622028
 20
208.7776170317
 30
0.0
 10
257.9710428091
 20
208.7836502773
 30
0.0
 10
257.9634917793
 20
208.7933034702
 30
0.0
 10
257.9578285069
 20
208.8005433649
 30
0.0
 10
257.954052992
 20
208.8053699614
 30
0.0
  0
SPLINE
  5
474
100
AcDbEntity
  8
7_ALL_FEATURES
100
AcDbSpline
 62
4
  6
CONTINUOUS
 70
0
 71
3
 72
195
 73
191
 74
0
 42
0.0000001
 43
0.0000001
 44
0.0000000001
 40
0.0
 40
0.0
 40
0.0
 40
0.0
 40
0.03125
 40
0.046875
 40
0.0625
 40
0.078125
 40
0.0859375
 40
0.09375
 40
0.1015625
 40
0.109375
 40
0.11328125
 40
0.1171875
 40
0.119140625
 40
0.12109375
 40
0.123046875
 40
0.1240234375
 40
0.1245117188
 40
0.125
 40
0.1254882812
 40
0.1259765625
 40
0.126953125
 40
0.12890625
 40
0.130859375
 40
0.1328125
 40
0.13671875
 40
0.140625
 40
0.1484375
 40
0.15625
 40
0.1640625
 40
0.171875
 40
0.1875
 40
0.203125
 40
0.2109375
 40
0.21875
 40
0.2265625
 40
0.234375
 40
0.23828125
 40
0.2421875
 40
0.244140625
 40
0.24609375
 40
0.248046875
 40
0.2490234375
 40
0.2495117188
 40
0.25
 40
0.2504882812
 40
0.2509765625
 40
0.251953125
 40
0.25390625
 40
0.255859375
 40
0.2578125
 40
0.26171875
 40
0.265625
 40
0.2734375
 40
0.28125
 40
0.2890625
 40
0.296875
 40
0.3125
 40
0.328125
 40
0.3359375
 40
0.34375
 40
0.3515625
 40
0.359375
 40
0.36328125
 40
0.3671875
 40
0.369140625
 40
0.37109375
 40
0.373046875
 40
0.3740234375
 40
0.3745117188
 40
0.375
 40
0.3754882812
 40
0.3759765625
 40
0.376953125
 40
0.37890625
 40
0.380859375
 40
0.3828125
 40
0.38671875
 40
0.390625
 40
0.3984375
 40
0.40625
 40
0.4140625
 40
0.421875
 40
0.4375
 40
0.453125
 40
0.4609375
 40
0.46875
 40
0.4765625
 40
0.484375
 40
0.48828125
 40
0.4921875
 40
0.494140625
 40
0.49609375
 40
0.498046875
 40
0.4990234375
 40
0.4995117188
 40
0.5
 40
0.5004882812
 40
0.5009765625
 40
0.501953125
 40
0.50390625
 40
0.505859375
 40
0.5078125
 40
0.51171875
 40
0.515625
 40
0.5234375
 40
0.53125
 40
0.5390625
 40
0.546875
 40
0.5625
 40
0.578125
 40
0.5859375
 40
0.59375
 40
0.6015625
 40
0.609375
 40
0.61328125
 40
0.6171875
 40
0.619140625
 40
0.62109375
 40
0.623046875
 40
0.6240234375
 40
0.6245117188
 40
0.625
 40
0.6254882812
 40
0.6259765625
 40
0.626953125
 40
0.62890625
 40
0.630859375
 40
0.6328125
 40
0.63671875
 40
0.640625
 40
0.6484375
 40
0.65625
 40
0.6640625
 40
0.671875
 40
0.6875
 40
0.703125
 40
0.7109375
 40
0.71875
 40
0.7265625
 40
0.734375
 40
0.73828125
 40
0.7421875
 40
0.744140625
 40
0.74609375
 40
0.748046875
 40
0.7490234375
 40
0.7495117188
 40
0.75
 40
0.7504882812
 40
0.7509765625
 40
0.751953125
 40
0.75390625
 40
0.755859375
 40
0.7578125
 40
0.76171875
 40
0.765625
 40
0.7734375
 40
0.78125
 40
0.7890625
 40
0.796875
 40
0.8125
 40
0.828125
 40
0.8359375
 40
0.84375
 40
0.8515625
 40
0.859375
 40
0.86328125
 40
0.8671875
 40
0.869140625
 40
0.87109375
 40
0.873046875
 40
0.8740234375
 40
0.8745117188
 40
0.875
 40
0.8754882812
 40
0.8759765625
 40
0.876953125
 40
0.87890625
 40
0.880859375
 40
0.8828125
 40
0.88671875
 40
0.890625
 40
0.8984375
 40
0.90625
 40
0.9140625
 40
0.921875
 40
0.9375
 40
0.953125
 40
0.96875
 40
1.0
 40
1.0
 40
1.0
 40
1.0
 10
256.4770381863
 20
206.7888438705
 30
0.0
 10
256.4772912142
 20
206.7799639183
 30
0.0
 10
256.477670756
 20
206.7666439901
 30
0.0
 10
256.4781768116
 20
206.7488840857
 30
0.0
 10
256.4785563535
 20
206.7355641575
 30
0.0
 10
256.4788726379
 20
206.724464217
 30
0.0
 10
256.4791256667
 20
206.7155842654
 30
0.0
 10
256.4793154346
 20
206.7089242997
 30
0.0
 10
256.4795052166
 20
206.7022643415
 30
0.0
 10
256.4796633244
 20
206.6967143529
 30
0.0
 10
256.479789909
 20
206.6922744145
 30
0.0
 10
256.4798688002
 20
206.6894993337
 30
0.0
 10
256.4799324266
 20
206.6872795422
 30
0.0
 10
256.4799787407
 20
206.6856139507
 30
0.0
 10
256.4800218076
 20
206.6842283369
 30
0.0
 10
256.4800431784
 20
206.6832537382
 30
0.0
 10
256.4800690935
 20
206.682704115
 30
0.0
 10
256.4800499278
 20
206.6822713608
 30
0.0
 10
256.4801783184
 20
206.6819171086
 30
0.0
 10
256.4802980367
 20
206.68141739
 30
0.0
 10
256.4805315241
 20
206.6805556403
 30
0.0
 10
256.4808525403
 20
206.6793178994
 30
0.0
 10
256.481243126
 20
206.6778354653
 30
0.0
 10
256.4817620327
 20
206.6758578893
 30
0.0
 10
256.4824113078
 20
206.6733862607
 30
0.0
 10
256.4834497893
 20
206.6694314642
 30
0.0
 10
256.4847480143
 20
206.664488034
 30
0.0
 10
256.4863058314
 20
206.6585558896
 30
0.0
 10
256.4878636627
 20
206.6526237528
 30
0.0
 10
256.4899407662
 20
206.6447142345
 30
0.0
 10
256.4925371473
 20
206.6348273375
 30
0.0
 10
256.4951335273
 20
206.6249404397
 30
0.0
 10
256.4972106326
 20
206.6170309227
 30
0.0
 10
256.4987684581
 20
206.6110987819
 30
0.0
 10
256.5003262971
 20
206.6051666525
 30
0.0
 10
256.5016244542
 20
206.6002231758
 30
0.0
 10
256.5026630741
 20
206.5962684741
 30
0.0
 10
256.5033119971
 20
206.5937966043
 30
0.0
 10
256.5038316265
 20
206.5918195234
 30
0.0
 10
256.5042200041
 20
206.5903355768
 30
0.0
 10
256.504547929
 20
206.5891025681
 30
0.0
 10
256.5047690833
 20
206.5882323706
 30
0.0
 10
256.5049085623
 20
206.5877461875
 30
0.0
 10
256.5049762542
 20
206.5873503586
 30
0.0
 10
256.5051850631
 20
206.5870737596
 30
0.0
 10
256.5054142517
 20
206.5866633721
 30
0.0
 10
256.5058382659
 20
206.5859645711
 30
0.0
 10
256.5064320103
 20
206.5849561534
 30
0.0
 10
256.5071496357
 20
206.5837503883
 30
0.0
 10
256.5081046771
 20
206.582141187
 30
0.0
 10
256.5092990926
 20
206.580130204
 30
0.0
 10
256.5112098143
 20
206.5769123413
 30
0.0
 10
256.5135983341
 20
206.5728901123
 30
0.0
 10
256.5164645075
 20
206.568063395
 30
0.0
 10
256.5193306943
 20
206.563236689
 30
0.0
 10
256.5231522721
 20
206.5568010771
 30
0.0
 10
256.527929246
 20
206.5487565637
 30
0.0
 10
256.5327062188
 20
206.5407120492
 30
0.0
 10
256.5365277984
 20
206.5342764391
 30
0.0
 10
256.5393939798
 20
206.5294497278
 30
0.0
 10
256.5422601735
 20
206.5246230302
 30
0.0
 10
256.5446486302
 20
206.5206007399
 30
0.0
 10
256.5465594807
 20
206.5173830024
 30
0.0
 10
256.5477535684
 20
206.5153717007
 30
0.0
 10
256.5487092825
 20
206.5137631534
 30
0.0
 10
256.5494248525
 20
206.5125553903
 30
0.0
 10
256.550025028
 20
206.511553224
 30
0.0
 10
256.5504375614
 20
206.5108432631
 30
0.0
 10
256.5506851452
 20
206.5104507566
 30
0.0
 10
256.5508374502
 20
206.510119233
 30
0.0
 10
256.5511173613
 20
206.5099296919
 30
0.0
 10
256.5514460657
 20
206.5096274453
 30
0.0
 10
256.5520420366
 20
206.5091215885
 30
0.0
 10
256.5528825813
 20
206.5083868721
 30
0.0
 10
256.5538958758
 20
206.5075103762
 30
0.0
 10
256.5552453142
 20
206.5063399114
 30
0.0
 10
256.5569326673
 20
206.5048774479
 30
0.0
 10
256.5596321219
 20
206.5025371612
 30
0.0
 10
256.5630065467
 20
206.4996119212
 30
0.0
 10
256.5670558107
 20
206.4961015825
 30
0.0
 10
256.571105087
 20
206.4925912574
 30
0.0
 10
256.5765041178
 20
206.4879108191
 30
0.0
 10
256.5832529078
 20
206.4820602731
 30
0.0
 10
256.5900016969
 20
206.4762097258
 30
0.0
 10
256.5954007292
 20
206.4715292895
 30
0.0
 10
256.5994500008
 20
206.4680189583
 30
0.0
 10
256.6034992827
 20
206.4645086423
 30
0.0
 10
256.6068736519
 20
206.4615833317
 30
0.0
 10
256.6095732197
 20
206.4592431891
 30
0.0
 10
256.6112602848
 20
206.457780359
 30
0.0
 10
256.6126103144
 20
206.4566106466
 30
0.0
 10
256.6136218027
 20
206.455731852
 30
0.0
 10
256.6144679985
 20
206.4550043277
 30
0.0
 10
256.6150538813
 20
206.4544856319
 30
0.0
 10
256.6153987493
 20
206.4542039565
 30
0.0
 10
256.615629011
 20
206.4539512272
 30
0.0
 10
256.6159677908
 20
206.4538570279
 30
0.0
 10
256.6163816449
 20
206.4536761318
 30
0.0
 10
256.6171235256
 20
206.4533853276
 30
0.0
 10
256.6181741349
 20
206.4529564233
 30
0.0
 10
256.6194388127
 20
206.4524475035
 30
0.0
 10
256.6211236712
 20
206.4517669301
 30
0.0
 10
256.6232302164
 20
206.4509169029
 30
0.0
 10
256.6266004249
 20
206.4495564739
 30
0.0
 10
256.630813276
 20
206.44785607
 30
0.0
 10
256.6358686585
 20
206.4458155286
 30
0.0
 10
256.6409240514
 20
206.4437750023
 30
0.0
 10
256.6476645716
 20
206.4410542953
 30
0.0
 10
256.6560902233
 20
206.4376534135
 30
0.0
 10
256.6645158741
 20
206.4342525304
 30
0.0
 10
256.6712563956
 20
206.4315318256
 30
0.0
 10
256.6763117846
 20
206.4294912928
 30
0.0
 10
256.6813671817
 20
206.427450776
 30
0.0
 10
256.6855799874
 20
206.4257502953
 30
0.0
 10
256.6889502885
 20
206.4243900229
 30
0.0
 10
256.691056598
 20
206.4235395972
 30
0.0
 10
256.6927419403
 20
206.4228598417
 30
0.0
 10
256.6940051402
 20
206.4223484231
 30
0.0
 10
256.6950603734
 20
206.421927337
 30
0.0
 10
256.6957939997
 20
206.4216225759
 30
0.0
 10
256.6962210794
 20
206.4214640422
 30
0.0
 10
256.6965192343
 20
206.4213011528
 30
0.0
 10
256.6969020765
 20
206.4213064123
 30
0.0
 10
256.6973829929
 20
206.4212547727
 30
0.0
 10
256.6982383598
 20
206.4211917305
 30
0.0
 10
256.699453117
 20
206.4210873834
 30
0.0
 10
256.7009139055
 20
206.4209682821
 30
0.0
 10
256.7028605478
 20
206.4208073444
 30
0.0
 10
256.7052942189
 20
206.4206069037
 30
0.0
 10
256.7091878869
 20
206.4202857898
 30
0.0
 10
256.7140550426
 20
206.4198845377
 30
0.0
 10
256.7198955991
 20
206.419402975
 30
0.0
 10
256.7257361637
 20
206.4189214284
 30
0.0
 10
256.7335235803
 20
206.4182793606
 30
0.0
 10
256.7432578521
 20
206.417476778
 30
0.0
 10
256.7529921233
 20
206.4166741939
 30
0.0
 10
256.7607795409
 20
206.4160321284
 30
0.0
 10
256.7666201027
 20
206.415550575
 30
0.0
 10
256.7724606699
 20
206.4150690379
 30
0.0
 10
256.7773277922
 20
206.4146677062
 30
0.0
 10
256.7812215282
 20
206.4143467545
 30
0.0
 10
256.7836550263
 20
206.4141459008
 30
0.0
 10
256.7856020237
 20
206.4139858108
 30
0.0
 10
256.7870617273
 20
206.4138641198
 30
0.0
 10
256.7882798791
 20
206.4137678754
 30
0.0
 10
256.7891291859
 20
206.4136903685
 30
0.0
 10
256.789619812
 20
206.4136619051
 30
0.0
 10
256.7899728292
 20
206.4135959746
 30
0.0
 10
256.7903830018
 20
206.413700463
 30
0.0
 10
256.7909099622
 20
206.4137803368
 30
0.0
 10
256.7918414316
 20
206.413947812
 30
0.0
 10
256.7931672459
 20
206.4141725825
 30
0.0
 10
256.7947603017
 20
206.414448505
 30
0.0
 10
256.7968836501
 20
206.4148142368
 30
0.0
 10
256.7995380842
 20
206.4152721428
 30
0.0
 10
256.8037850397
 20
206.4160043781
 30
0.0
 10
256.8090937819
 20
206.4169198144
 30
0.0
 10
256.815464252
 20
206.4180182771
 30
0.0
 10
256.8218347276
 20
206.419116756
 30
0.0
 10
256.8303286931
 20
206.4205813889
 30
0.0
 10
256.8409461507
 20
206.4224121821
 30
0.0
 10
256.851563608
 20
206.424242974
 30
0.0
 10
256.8600575741
 20
206.4257076091
 30
0.0
 10
256.8664280478
 20
206.4268060812
 30
0.0
 10
256.8727985251
 20
206.4279045696
 30
0.0
 10
256.8781072449
 20
206.4288199257
 30
0.0
 10
256.8823542461
 20
206.4295523246
 30
0.0
 10
256.885008564
 20
206.4300098144
 30
0.0
 10
256.8871321508
 20
206.4303764005
 30
0.0
 10
256.8887244782
 20
206.430649713
 30
0.0
 10
256.8900525716
 20
206.4308826496
 30
0.0
 10
256.8909799724
 20
206.4310355469
 30
0.0
 10
256.8915134517
 20
206.4311387782
 30
0.0
 10
256.8919036003
 20
206.43117152
 30
0.0
 10
256.8923318241
 20
206.4313750577
 30
0.0
 10
256.8928895082
 20
206.4315868658
 30
0.0
 10
256.8938716432
 20
206.4319852874
 30
0.0
 10
256.895271458
 20
206.4325399491
 30
0.0
 10
256.8969526206
 20
206.4332117548
 30
0.0
 10
256.899193687
 20
206.4341053261
 30
0.0
 10
256.9019951856
 20
206.4352230331
 30
0.0
 10
256.9064774909
 20
206.4370109492
 30
0.0
 10
256.9120804042
 20
206.4392459867
 30
0.0
 10
256.9188038865
 20
206.4419279706
 30
0.0
 10
256.9255273725
 20
206.4446099709
 30
0.0
 10
256.9344920193
 20
206.4481859656
 30
0.0
 10
256.9456978281
 20
206.4526559609
 30
0.0
 10
256.9591447986
 20
206.4580199544
 30
0.0
 10
256.9770740925
 20
206.4651719461
 30
0.0
 10
256.990521063
 20
206.4705359398
 30
0.0
 10
256.99948571
 20
206.4741119356
 30
0.0
  0
LINE
  5
475
100
AcDbEntity
  8
7_ALL_FEATURES
100
AcDbLine
 62
7
  6
CONTINUOUS
 10
250.9028068381
 20
204.7253754171
 11
250.4385677941
 21
203.9753754171
  0
LINE
  5
476
100
AcDbEntity
  8
7_ALL_FEATURES
100
AcDbLine
 62
7
  6
CONTINUOUS
 10
260.3076356072
 20
203.9753754171
 11
260.9040567349
 21
204.7253754171
  0
SPLINE
  5
477
100
AcDbEntity
  8
7_ALL_FEATURES
100
AcDbSpline
 62
3
  6
CONTINUOUS
 70
0
 71
3
 72
11
 73
7
 74
0
 42
0.0000001
 43
0.0000001
 44
0.0000000001
 40
0.0
 40
0.0
 40
0.0
 40
0.0
 40
0.2804771582
 40
0.5382970014
 40
0.7754387135
 40
1.0
 40
1.0
 40
1.0
 40
1.0
 10
212.0071112333
 20
203.9751024428
 30
0.0
 10
212.0409254771
 20
203.9016698075
 30
0.0
 10
212.1200358174
 20
203.7665139894
 30
0.0
 10
212.2770501247
 20
203.6039725274
 30
0.0
 10
212.4600877735
 20
203.4997416554
 30
0.0
 10
212.5941728448
 20
203.4753754171
 30
0.0
 10
212.658899814
 20
203.4753754171
 30
0.0
  0
SPLINE
  5
478
100
AcDbEntity
  8
7_ALL_FEATURES
100
AcDbSpline
 62
3
  6
CONTINUOUS
 70
0
 71
3
 72
9
 73
5
 74
0
 42
0.0000001
 43
0.0000001
 44
0.0000000001
 40
0.0
 40
0.0
 40
0.0
 40
0.0
 40
0.2543824839
 40
1.0
 40
1.0
 40
1.0
 40
1.0
 10
208.3868266931
 20
214.2251854028
 30
0.0
 10
208.4011008336
 20
214.1161711876
 30
0.0
 10
208.4685830175
 20
213.689230295
 30
0.0
 10
208.5818277836
 20
213.2692226627
 30
0.0
 10
208.6931476028
 20
212.96680245
 30
0.0
  0
SPLINE
  5
479
100
AcDbEntity
  8
7_ALL_FEATURES
100
AcDbSpline
 62
3
  6
CONTINUOUS
 70
0
 71
3
 72
12
 73
8
 74
0
 42
0.0000001
 43
0.0000001
 44
0.0000000001
 40
0.0
 40
0.0
 40
0.0
 40
0.0
 40
0.2828944285
 40
0.5419458986
 40
0.777811368
 40
0.8899203884
 40
1.0
 40
1.0
 40
1.0
 40
1.0
 10
260.0638469367
 20
204.0674519426
 30
0.0
 10
260.0324192029
 20
203.9820728789
 30
0.0
 10
259.9549594917
 20
203.8239409658
 30
0.0
 10
259.7914222241
 20
203.6308645398
 30
0.0
 10
259.6229558929
 20
203.5243381959
 30
0.0
 10
259.4809619896
 20
203.482371629
 30
0.0
 10
259.4093163183
 20
203.4753754171
 30
0.0
 10
259.3739144241
 20
203.4753754171
 30
0.0
  0
SPLINE
  5
47A
100
AcDbEntity
  8
7_ALL_FEATURES
100
AcDbSpline
 62
3
  6
CONTINUOUS
 70
0
 71
3
 72
11
 73
7
 74
0
 42
0.0000001
 43
0.0000001
 44
0.0000000001
 40
0.0
 40
0.0
 40
0.0
 40
0.0
 40
0.2408198638
 40
0.4941501693
 40
0.7505632867
 40
1.0
 40
1.0
 40
1.0
 40
1.0
 10
263.0469251811
 20
217.774348356
 30
0.0
 10
263.2354101801
 20
217.4249939736
 30
0.0
 10
263.5325203946
 20
216.6576296678
 30
0.0
 10
263.7292744716
 20
215.4281369025
 30
0.0
 10
263.6810336119
 20
214.1698809343
 30
0.0
 10
263.4816968998
 20
213.3526530839
 30
0.0
 10
263.3396666352
 20
212.96680245
 30
0.0
  0
SPLINE
  5
47B
100
AcDbEntity
  8
7_ALL_FEATURES
100
AcDbSpline
 62
3
  6
CONTINUOUS
 70
0
 71
3
 72
11
 73
7
 74
0
 42
0.0000001
 43
0.0000001
 44
0.0000000001
 40
0.0
 40
0.0
 40
0.0
 40
0.0
 40
0.2408198638
 40
0.4941501693
 40
0.7505632867
 40
1.0
 40
1.0
 40
1.0
 40
1.0
 10
255.268750588
 20
217.774348356
 30
0.0
 10
255.4572355871
 20
217.4249939736
 30
0.0
 10
255.7543458015
 20
216.6576296678
 30
0.0
 10
255.9510998786
 20
215.4281369025
 30
0.0
 10
255.9028590189
 20
214.1698809343
 30
0.0
 10
255.7035223067
 20
213.3526530839
 30
0.0
 10
255.5614920421
 20
212.96680245
 30
0.0
  0
SPLINE
  5
47C
100
AcDbEntity
  8
7_ALL_FEATURES
100
AcDbSpline
 62
3
  6
CONTINUOUS
 70
0
 71
3
 72
12
 73
8
 74
0
 42
0.0000001
 43
0.0000001
 44
0.0000000001
 40
0.0
 40
0.0
 40
0.0
 40
0.0
 40
0.2828944285
 40
0.5419458986
 40
0.777811368
 40
0.8899203884
 40
1.0
 40
1.0
 40
1.0
 40
1.0
 10
252.2856723437
 20
204.0674519426
 30
0.0
 10
252.2542446099
 20
203.9820728789
 30
0.0
 10
252.1767848986
 20
203.8239409658
 30
0.0
 10
252.0132476311
 20
203.6308645398
 30
0.0
 10
251.8447812999
 20
203.5243381959
 30
0.0
 10
251.7027873965
 20
203.482371629
 30
0.0
 10
251.6311417253
 20
203.4753754171
 30
0.0
 10
251.595739831
 20
203.4753754171
 30
0.0
  0
ELLIPSE
  5
47D
100
AcDbEntity
  8
7_ALL_FEATURES
100
AcDbEllipse
 62
7
  6
CONTINUOUS
 10
80.9040417218
 20
215.0446712095
 30
0.0
 11
-2.0630841583
 21
3.9855725407
 31
0.0
 40
0.1645246646
 41
0.700438936
 42
0.8508900122
  0
ELLIPSE
  5
47E
100
AcDbEntity
  8
7_ALL_FEATURES
100
AcDbEllipse
 62
3
  6
CONTINUOUS
 10
73.9737397968
 20
215.0446712095
 30
0.0
 11
5.6033164748
 21
2.9004900388
 31
0.0
 40
0.6140144074
 41
1.6557555542
 42
1.7893832193
  0
ELLIPSE
  5
47F
100
AcDbEntity
  8
7_ALL_FEATURES
100
AcDbEllipse
 62
3
  6
CONTINUOUS
 10
80.9040417218
 20
215.0446712095
 30
0.0
 11
-2.3209696781
 21
4.4837691083
 31
0.0
 40
0.1645246646
 41
0.700438936
 42
0.8340666012
  0
ELLIPSE
  5
480
100
AcDbEntity
  8
7_ALL_FEATURES
100
AcDbEllipse
 62
7
  6
CONTINUOUS
 10
253.1629771881
 20
215.0446712095
 30
0.0
 11
2.0630841583
 21
3.9855725407
 31
0.0
 40
0.1645246646
 41
-0.8508900122
 42
-0.700438936
  0
ELLIPSE
  5
481
100
AcDbEntity
  8
7_ALL_FEATURES
100
AcDbEllipse
 62
3
  6
CONTINUOUS
 10
260.0932791131
 20
215.0446712095
 30
0.0
 11
5.6033164748
 21
-2.9004900388
 31
0.0
 40
0.6140144074
 41
1.3522094343
 42
1.4858370994
  0
ELLIPSE
  5
482
100
AcDbEntity
  8
7_ALL_FEATURES
100
AcDbEllipse
 62
3
  6
CONTINUOUS
 10
253.1629771881
 20
215.0446712095
 30
0.0
 11
2.3209696781
 21
4.4837691083
 31
0.0
 40
0.1645246646
 41
-0.8340666012
 42
-0.700438936
  0
ENDSEC
  0
SECTION
  2
OBJECTS
  0
DICTIONARY
  5
483
100
AcDbDictionary
  3
ACAD_GROUP
350
484
  3
ACAD_MLINESTYLE
350
485
  0
DICTIONARY
  5
484
102
{ACAD_REACTORS
330
483
102
}
100
AcDbDictionary
  0
DICTIONARY
  5
485
102
{ACAD_REACTORS
330
483
102
}
100
AcDbDictionary
  3
STANDARD
350
486
  0
MLINESTYLE
  5
486
102
{ACAD_REACTORS
330
485
102
}
100
AcDbMlineStyle
  2
STANDARD
 70
0
  3

 62
256
 51
90.0
 52
90.0
 71
2
 49
0.5
 62
256
  6
BYLAYER
 49
-0.5
 62
256
  6
BYLAYER
  0
ENDSEC
  0
EOF
