999
DXF file: 2f2_c_001.dxf
999
Pro/ENGINEER 2016360 by Parametric Technology Corporation
  0
SECTION
  2
HEADER
  9
$ACADVER
  1
AC1014
  9
$DWGCODEPAGE
  3
ANSI_1252
  9
$EXTMAX
 10
420.0
 20
297.0
 30
0.0
  9
$EXTMIN
 10
0.0
 20
0.0
 30
0.0
  9
$LIMMIN
 10
0.0
 20
0.0
  9
$LIMMAX
 10
420.0
 20
297.0
  9
$VIEWCTR
 10
210.0
 20
148.5
  9
$VIEWSIZE
 40
297.0
  9
$CLAYER
  8
0
  9
$LTSCALE
 40
23.1
  9
$CELTYPE
  6
BYLAYER
  9
$DIMSCALE
 40
1.0
  9
$DIMASZ
 40
2.5
  9
$DIMEXO
 40
0.75
  9
$DIMDLI
 40
15.96
  9
$DIMEXE
 40
0.75
  9
$DIMCEN
 40
3.78
  9
$DIMLFAC
 40
1.0
  9
$DIMBLK
  1
_CLOSED
  9
$DIMALT
 70
0
  9
$DIMALTF
 40
25.4
  9
$DIMTXT
 40
3.0
  9
$DIMTOL
 70
1
  9
$DIMLIM
 70
0
  9
$DIMTFAC
 40
1.0
  9
$DIMTP
 40
0.01
  9
$DIMTM
 40
0.01
  9
$DIMGAP
 40
0.625
  9
$AUNITS
 70
0
  9
$PDMODE
 70
3
  9
$PDSIZE
 40
0.3125
  9
$HANDSEED
  5
3F6
  9
$TILEMODE
 70
1
  9
$MEASUREMENT
 70
1
  0
ENDSEC
  0
SECTION
  2
CLASSES
  0
ENDSEC
  0
SECTION
  2
TABLES
  0
TABLE
  2
VPORT
  5
8
100
AcDbSymbolTable
 70
2
  0
VPORT
  5
1F4
100
AcDbSymbolTableRecord
100
AcDbViewportTableRecord
  2
*ACTIVE
 70
0
 10
0.0
 20
0.0
 11
1.0
 21
1.0
 12
210.0
 22
148.5
 13
0.0
 23
0.0
 14
1.0
 24
1.0
 15
0.0
 25
0.0
 16
0.0
 26
0.0
 36
1.0
 17
0.0
 27
0.0
 37
0.0
 40
297.0
 41
1.4141414141
 42
50.0
 43
0.0
 44
0.0
 50
0.0
 51
0.0
 71
0
 72
100
 73
1
 74
1
 75
0
 76
0
 77
0
 78
0
  0
ENDTAB
  0
TABLE
  2
LTYPE
  5
5
100
AcDbSymbolTable
 70
6
  0
LTYPE
  5
14
100
AcDbSymbolTableRecord
100
AcDbLinetypeTableRecord
  2
BYBLOCK
 70
0
  3

 72
65
 73
0
 40
0.0
  0
LTYPE
  5
15
100
AcDbSymbolTableRecord
100
AcDbLinetypeTableRecord
  2
BYLAYER
 70
0
  3

 72
65
 73
0
 40
0.0
  0
LTYPE
  5
16
100
AcDbSymbolTableRecord
100
AcDbLinetypeTableRecord
  2
CONTINUOUS
 70
64
  3
Solid line
 72
65
 73
0
 40
0.0
  0
LTYPE
  5
1F5
100
AcDbSymbolTableRecord
100
AcDbLinetypeTableRecord
  2
CENTER
 70
64
  3
____ _ ____ _ ____ _ ____ _ ____ _ ____ _ ____
 72
65
 73
4
 40
0.6
 49
0.375
 74
0
 49
-0.075
 74
0
 49
0.075
 74
0
 49
-0.075
 74
0
  0
LTYPE
  5
1F6
100
AcDbSymbolTableRecord
100
AcDbLinetypeTableRecord
  2
HIDDEN
 70
64
  3
- - - - - - - - - - - - - - - - - - - -
 72
65
 73
2
 40
0.2
 49
0.1
 74
0
 49
-0.1
 74
0
  0
LTYPE
  5
1F7
100
AcDbSymbolTableRecord
100
AcDbLinetypeTableRecord
  2
PHANTOM
 70
64
  3
_____ _ _ _____ _ _ _____ _ _ _____
 72
65
 73
6
 40
0.8
 49
0.45
 74
0
 49
-0.05
 74
0
 49
0.1
 74
0
 49
-0.05
 74
0
 49
0.1
 74
0
 49
-0.05
 74
0
  0
LTYPE
  5
1F8
100
AcDbSymbolTableRecord
100
AcDbLinetypeTableRecord
  2
DOT
 70
64
  3
. . . . . . . . . . . . . . . . . . . .
 72
65
 73
2
 40
0.2
 49
0.1
 74
0
 49
-0.1
 74
0
  0
LTYPE
  5
1F9
100
AcDbSymbolTableRecord
100
AcDbLinetypeTableRecord
  2
DASHED
 70
64
  3
- - - - - - - - - - - - - - - - - - - -
 72
65
 73
2
 40
0.2
 49
0.1
 74
0
 49
-0.1
 74
0
  0
ENDTAB
  0
TABLE
  2
LAYER
  5
2
100
AcDbSymbolTable
 70
36
  0
LAYER
  5
10
100
AcDbSymbolTableRecord
100
AcDbLayerTableRecord
  2
0
 70
0
 62
7
  6
CONTINUOUS
  0
LAYER
  5
1FA
100
AcDbSymbolTableRecord
100
AcDbLayerTableRecord
  2
DEFAULT_1
 70
0
 62
7
  6
CENTER
  0
LAYER
  5
1FB
100
AcDbSymbolTableRecord
100
AcDbLayerTableRecord
  2
DEFAULT_2
 70
0
 62
8
  6
HIDDEN
  0
LAYER
  5
1FC
100
AcDbSymbolTableRecord
100
AcDbLayerTableRecord
  2
DEFAULT_3
 70
0
 62
7
  6
PHANTOM
  0
LAYER
  5
1FD
100
AcDbSymbolTableRecord
100
AcDbLayerTableRecord
  2
01_ALL_DTM_PLN
 70
0
 62
7
  6
CONTINUOUS
  0
LAYER
  5
1FE
100
AcDbSymbolTableRecord
100
AcDbLayerTableRecord
  2
01__ASM_ALL_DTM_PLN
 70
0
 62
7
  6
CONTINUOUS
  0
LAYER
  5
1FF
100
AcDbSymbolTableRecord
100
AcDbLayerTableRecord
  2
01__ASM_DEF_DTM_PLN
 70
0
 62
7
  6
CONTINUOUS
  0
LAYER
  5
200
100
AcDbSymbolTableRecord
100
AcDbLayerTableRecord
  2
01___PRT_ALL_DTM_PLN
 70
0
 62
7
  6
CONTINUOUS
  0
LAYER
  5
201
100
AcDbSymbolTableRecord
100
AcDbLayerTableRecord
  2
01___PRT_DEF_DTM_PLN
 70
0
 62
7
  6
CONTINUOUS
  0
LAYER
  5
202
100
AcDbSymbolTableRecord
100
AcDbLayerTableRecord
  2
02_ALL_AXES
 70
0
 62
7
  6
CONTINUOUS
  0
LAYER
  5
203
100
AcDbSymbolTableRecord
100
AcDbLayerTableRecord
  2
02__ASM_ALL_AXES
 70
0
 62
7
  6
CONTINUOUS
  0
LAYER
  5
204
100
AcDbSymbolTableRecord
100
AcDbLayerTableRecord
  2
02___PRT_ALL_AXES
 70
0
 62
7
  6
CONTINUOUS
  0
LAYER
  5
205
100
AcDbSymbolTableRecord
100
AcDbLayerTableRecord
  2
03_ALL_CURVES
 70
0
 62
7
  6
CONTINUOUS
  0
LAYER
  5
206
100
AcDbSymbolTableRecord
100
AcDbLayerTableRecord
  2
03__ASM_ALL_CURVES
 70
0
 62
7
  6
CONTINUOUS
  0
LAYER
  5
207
100
AcDbSymbolTableRecord
100
AcDbLayerTableRecord
  2
03___PRT_ALL_CURVES
 70
0
 62
7
  6
CONTINUOUS
  0
LAYER
  5
208
100
AcDbSymbolTableRecord
100
AcDbLayerTableRecord
  2
04_ALL_DTM_PNT
 70
0
 62
7
  6
CONTINUOUS
  0
LAYER
  5
209
100
AcDbSymbolTableRecord
100
AcDbLayerTableRecord
  2
04__ASM_ALL_DTM_PNT
 70
0
 62
7
  6
CONTINUOUS
  0
LAYER
  5
20A
100
AcDbSymbolTableRecord
100
AcDbLayerTableRecord
  2
04___PRT_ALL_DTM_PNT
 70
0
 62
7
  6
CONTINUOUS
  0
LAYER
  5
20B
100
AcDbSymbolTableRecord
100
AcDbLayerTableRecord
  2
05_ALL_DTM_CSYS
 70
0
 62
7
  6
CONTINUOUS
  0
LAYER
  5
20C
100
AcDbSymbolTableRecord
100
AcDbLayerTableRecord
  2
05__ASM_ALL_DTM_CSYS
 70
0
 62
7
  6
CONTINUOUS
  0
LAYER
  5
20D
100
AcDbSymbolTableRecord
100
AcDbLayerTableRecord
  2
05__ASM_DEF_DTM_CSYS
 70
0
 62
7
  6
CONTINUOUS
  0
LAYER
  5
20E
100
AcDbSymbolTableRecord
100
AcDbLayerTableRecord
  2
05___PRT_ALL_DTM_CSYS
 70
0
 62
7
  6
CONTINUOUS
  0
LAYER
  5
20F
100
AcDbSymbolTableRecord
100
AcDbLayerTableRecord
  2
05___PRT_DEF_DTM_CSYS
 70
0
 62
7
  6
CONTINUOUS
  0
LAYER
  5
210
100
AcDbSymbolTableRecord
100
AcDbLayerTableRecord
  2
06_ALL_SURFS
 70
0
 62
7
  6
CONTINUOUS
  0
LAYER
  5
211
100
AcDbSymbolTableRecord
100
AcDbLayerTableRecord
  2
06__ASM_ALL_SURFS
 70
0
 62
7
  6
CONTINUOUS
  0
LAYER
  5
212
100
AcDbSymbolTableRecord
100
AcDbLayerTableRecord
  2
06___PRT_ALL_SURFS
 70
0
 62
7
  6
CONTINUOUS
  0
LAYER
  5
213
100
AcDbSymbolTableRecord
100
AcDbLayerTableRecord
  2
07__ASM_ALL_SKELETONS
 70
0
 62
7
  6
CONTINUOUS
  0
LAYER
  5
214
100
AcDbSymbolTableRecord
100
AcDbLayerTableRecord
  2
1_ALL_PLANES
 70
0
 62
7
  6
CONTINUOUS
  0
LAYER
  5
215
100
AcDbSymbolTableRecord
100
AcDbLayerTableRecord
  2
2_ALL_CSYS
 70
0
 62
7
  6
CONTINUOUS
  0
LAYER
  5
216
100
AcDbSymbolTableRecord
100
AcDbLayerTableRecord
  2
3_ALL_AXES
 70
0
 62
7
  6
CONTINUOUS
  0
LAYER
  5
217
100
AcDbSymbolTableRecord
100
AcDbLayerTableRecord
  2
4_ALL_POINTS
 70
0
 62
7
  6
CONTINUOUS
  0
LAYER
  5
218
100
AcDbSymbolTableRecord
100
AcDbLayerTableRecord
  2
5_ALL_CURVES
 70
0
 62
7
  6
CONTINUOUS
  0
LAYER
  5
219
100
AcDbSymbolTableRecord
100
AcDbLayerTableRecord
  2
5__COSTRUZIONE
 70
0
 62
7
  6
CONTINUOUS
  0
LAYER
  5
21A
100
AcDbSymbolTableRecord
100
AcDbLayerTableRecord
  2
6_ALL_SURFS
 70
0
 62
7
  6
CONTINUOUS
  0
LAYER
  5
21B
100
AcDbSymbolTableRecord
100
AcDbLayerTableRecord
  2
7_ALL_FEATURES
 70
0
 62
7
  6
CONTINUOUS
  0
LAYER
  5
21C
100
AcDbSymbolTableRecord
100
AcDbLayerTableRecord
  2
9_SOLID
 70
0
 62
7
  6
CONTINUOUS
  0
LAYER
  5
21D
100
AcDbSymbolTableRecord
100
AcDbLayerTableRecord
  2
INTFCLR_2
 70
0
 62
7
  6
CONTINUOUS
  0
LAYER
  5
21E
100
AcDbSymbolTableRecord
100
AcDbLayerTableRecord
  2
INTFCLR_3
 70
0
 62
7
  6
CONTINUOUS
  0
LAYER
  5
21F
100
AcDbSymbolTableRecord
100
AcDbLayerTableRecord
  2
INTF_CYAN
 70
0
 62
7
  6
CONTINUOUS
  0
LAYER
  5
220
100
AcDbSymbolTableRecord
100
AcDbLayerTableRecord
  2
XSEC_DATUMS
 70
0
 62
7
  6
CONTINUOUS
  0
LAYER
  5
221
100
AcDbSymbolTableRecord
100
AcDbLayerTableRecord
  2
XXX_SOLIDO
 70
0
 62
7
  6
CONTINUOUS
  0
ENDTAB
  0
TABLE
  2
STYLE
  5
3
100
AcDbSymbolTable
 70
1
  0
STYLE
  5
11
100
AcDbSymbolTableRecord
100
AcDbTextStyleTableRecord
  2
STANDARD
 70
0
 40
0.0
 41
1.0
 50
0.0
 71
0
 42
0.2
  3
arial.ttf
  4

  0
STYLE
  5
222
100
AcDbSymbolTableRecord
100
AcDbTextStyleTableRecord
  2
TEXTSTYLE_1
 70
0
 40
0.0
 41
0.8
 50
0.0
 71
0
 42
0.2
  3
gdt
  4

  0
STYLE
  5
223
100
AcDbSymbolTableRecord
100
AcDbTextStyleTableRecord
  2
TEXTSTYLE_2
 70
0
 40
0.0
 41
0.85
 50
0.0
 71
0
 42
0.2
  3
gdt
  4

  0
STYLE
  5
224
100
AcDbSymbolTableRecord
100
AcDbTextStyleTableRecord
  2
TEXTSTYLE_3
 70
0
 40
0.0
 41
0.85
 50
0.0
 71
0
 42
0.2
  3
txt
  4

  0
ENDTAB
  0
TABLE
  2
VIEW
  5
6
100
AcDbSymbolTable
 70
0
  0
ENDTAB
  0
TABLE
  2
UCS
  5
7
100
AcDbSymbolTable
 70
0
  0
ENDTAB
  0
TABLE
  2
APPID
  5
9
100
AcDbSymbolTable
 70
1
  0
APPID
  5
225
100
AcDbSymbolTableRecord
100
AcDbRegAppTableRecord
  2
ACAD
 70
0
  0
ENDTAB
  0
TABLE
  2
BLOCK_RECORD
  5
1
100
AcDbSymbolTable
 70
0
  0
BLOCK_RECORD
  5
1F
100
AcDbSymbolTableRecord
100
AcDbBlockTableRecord
  2
*MODEL_SPACE
  0
BLOCK_RECORD
  5
1B
100
AcDbSymbolTableRecord
100
AcDbBlockTableRecord
  2
*PAPER_SPACE
  0
BLOCK_RECORD
  5
226
100
AcDbSymbolTableRecord
100
AcDbBlockTableRecord
  2
_CLOSED
  0
BLOCK_RECORD
  5
227
100
AcDbSymbolTableRecord
100
AcDbBlockTableRecord
  2
*D0
  0
BLOCK_RECORD
  5
228
100
AcDbSymbolTableRecord
100
AcDbBlockTableRecord
  2
*D1
  0
BLOCK_RECORD
  5
229
100
AcDbSymbolTableRecord
100
AcDbBlockTableRecord
  2
*D2
  0
BLOCK_RECORD
  5
22A
100
AcDbSymbolTableRecord
100
AcDbBlockTableRecord
  2
*D3
  0
BLOCK_RECORD
  5
22B
100
AcDbSymbolTableRecord
100
AcDbBlockTableRecord
  2
*D4
  0
BLOCK_RECORD
  5
22C
100
AcDbSymbolTableRecord
100
AcDbBlockTableRecord
  2
LOGO2_BL0
  0
ENDTAB
  0
TABLE
  2
DIMSTYLE
  5
A
100
AcDbSymbolTable
 70
1
  0
DIMSTYLE
105
22D
100
AcDbSymbolTableRecord
100
AcDbDimStyleTableRecord
  2
STANDARD
 70
0
  3

  4

  5
_CLOSED
  6
_CLOSED
  7
_CLOSED
 40
1.0
 41
2.5
 42
0.75
 43
0.38
 44
0.75
 45
0.0
 46
0.0
 47
0.01
 48
0.01
140
3.0
141
0.09
142
0.0
143
25.4
144
1.0
145
0.0
146
1.0
147
0.625
 71
1.0
 72
0.0
 73
0
 74
0
 75
0
 76
0
 77
1
 78
8
 79
2
170
0
171
1
172
0
173
0
174
0
175
0
176
0
177
0
178
0
270
2
179
2
271
2
272
2
273
2
274
2
275
0
280
0
281
0
282
0
283
1
284
8
285
0
286
0
287
3
288
0
340
11
  0
DIMSTYLE
105
22E
100
AcDbSymbolTableRecord
100
AcDbDimStyleTableRecord
  2
DIMSTYLE_1
 70
0
  3
<>
  4

  5
_CLOSED
  6
_CLOSED
  7
_CLOSED
 40
1.0
 41
2.5
 42
0.75
 43
0.38
 44
0.75
 45
0.0
 46
0.0
 47
0.3
 48
0.3
140
3.0
141
0.09
142
0.0
143
25.4
144
1.0
145
0.0
146
1.0
147
0.625
 71
0.0
 72
0.0
 73
0
 74
0
 75
0
 76
0
 77
1
 78
8
 79
2
170
0
171
1
172
1
173
0
174
0
175
0
176
0
177
0
178
0
270
2
179
2
271
2
272
2
273
2
274
2
275
0
280
0
281
0
282
0
283
1
284
8
285
0
286
0
287
3
288
1
340
11
  0
DIMSTYLE
105
22F
100
AcDbSymbolTableRecord
100
AcDbDimStyleTableRecord
  2
DIMSTYLE_2
 70
0
  3

  4

  5
_CLOSED
  6
_CLOSED
  7
_CLOSED
 40
1.0
 41
2.5
 42
0.75
 43
0.38
 44
0.75
 45
0.0
 46
0.0
 47
0.3
 48
0.3
140
3.0
141
0.09
142
0.0
143
25.4
144
1.0
145
0.0
146
1.0
147
0.75
 71
0.0
 72
0.0
 73
0
 74
0
 75
0
 76
0
 77
1
 78
8
 79
2
170
0
171
1
172
0
173
0
174
0
175
0
176
0
177
0
178
0
270
2
179
2
271
2
272
2
273
2
274
2
275
0
280
0
281
0
282
0
283
1
284
8
285
0
286
0
287
3
288
0
340
11
  0
DIMSTYLE
105
230
100
AcDbSymbolTableRecord
100
AcDbDimStyleTableRecord
  2
DIMSTYLE_3
 70
0
  3

  4

  5
_CLOSED
  6
_CLOSED
  7
_CLOSED
 40
1.0
 41
2.5
 42
0.75
 43
0.38
 44
0.75
 45
0.0
 46
0.0
 47
0.2
 48
0.2
140
3.0
141
0.09
142
0.0
143
25.4
144
1.0
145
0.0
146
1.0
147
0.75
 71
0.0
 72
0.0
 73
0
 74
0
 75
0
 76
0
 77
1
 78
8
 79
2
170
0
171
1
172
0
173
0
174
0
175
0
176
0
177
0
178
0
270
2
179
2
271
2
272
2
273
2
274
2
275
0
280
0
281
0
282
0
283
1
284
8
285
0
286
0
287
3
288
0
340
11
  0
ENDTAB
  0
ENDSEC
  0
SECTION
  2
BLOCKS
  0
BLOCK
  5
20
100
AcDbEntity
  8
0
100
AcDbBlockBegin
  2
*MODEL_SPACE
 70
0
 10
0.0
 20
0.0
 30
0.0
  3
*MODEL_SPACE
  1

  0
ENDBLK
  5
21
100
AcDbEntity
  8
0
100
AcDbBlockEnd
  0
BLOCK
  5
1C
100
AcDbEntity
  8
0
100
AcDbBlockBegin
  2
*PAPER_SPACE
 70
0
 10
0.0
 20
0.0
 30
0.0
  3
*PAPER_SPACE
  1

  0
ENDBLK
  5
1D
100
AcDbEntity
  8
0
100
AcDbBlockEnd
  0
BLOCK
  5
231
100
AcDbEntity
  8
0
100
AcDbBlockBegin
 62
2
  6
CONTINUOUS
  2
LOGO2_BL0
 70
64
 10
333.6475659158
 20
36.9217920391
  3
LOGO2_BL0
  1

  0
LINE
  5
232
100
AcDbEntity
  8
0
100
AcDbLine
 62
7
  6
CONTINUOUS
 10
325.390491144
 20
40.1172833779
 11
324.0861502147
 21
40.1172833779
  0
LINE
  5
233
100
AcDbEntity
  8
0
100
AcDbLine
 62
7
  6
CONTINUOUS
 10
324.0861502147
 20
40.1172833779
 11
324.0861502147
 21
29.6582173181
  0
LINE
  5
234
100
AcDbEntity
  8
0
100
AcDbLine
 62
7
  6
CONTINUOUS
 10
324.0861502147
 20
29.6582173181
 11
328.567205103
 21
29.6582173181
  0
LINE
  5
235
100
AcDbEntity
  8
0
100
AcDbLine
 62
7
  6
CONTINUOUS
 10
328.567205103
 20
29.6582173181
 11
328.567205103
 21
30.8510716431
  0
LINE
  5
236
100
AcDbEntity
  8
0
100
AcDbLine
 62
7
  6
CONTINUOUS
 10
328.567205103
 20
30.8510716431
 11
325.390491144
 21
30.8510716431
  0
LINE
  5
237
100
AcDbEntity
  8
0
100
AcDbLine
 62
7
  6
CONTINUOUS
 10
325.390491144
 20
30.8510716431
 11
325.390491144
 21
40.1172833779
  0
LINE
  5
238
100
AcDbEntity
  8
0
100
AcDbLine
 62
7
  6
CONTINUOUS
 10
340.3268173604
 20
40.1172833779
 11
339.0229998423
 21
40.1172833779
  0
LINE
  5
239
100
AcDbEntity
  8
0
100
AcDbLine
 62
7
  6
CONTINUOUS
 10
339.0229998423
 20
40.1172833779
 11
339.0229998423
 21
29.6582173181
  0
LINE
  5
23A
100
AcDbEntity
  8
0
100
AcDbLine
 62
7
  6
CONTINUOUS
 10
339.0229998423
 20
29.6582173181
 11
343.5041855834
 21
29.6582173181
  0
LINE
  5
23B
100
AcDbEntity
  8
0
100
AcDbLine
 62
7
  6
CONTINUOUS
 10
343.5041855834
 20
29.6582173181
 11
343.5041855834
 21
30.8510716431
  0
LINE
  5
23C
100
AcDbEntity
  8
0
100
AcDbLine
 62
7
  6
CONTINUOUS
 10
343.5041855834
 20
30.8510716431
 11
340.3268173604
 21
30.8510716431
  0
LINE
  5
23D
100
AcDbEntity
  8
0
100
AcDbLine
 62
7
  6
CONTINUOUS
 10
340.3268173604
 20
30.8510716431
 11
340.3268173604
 21
40.1172833779
  0
LWPOLYLINE
  5
23E
100
AcDbEntity
  8
0
100
AcDbPolyline
 62
7
  6
CONTINUOUS
 90
2
 70
0
 43
0.2
 10
322.4405451256
 20
26.3146660112
 10
322.4405451256
 20
24.4576027618
  0
LWPOLYLINE
  5
23F
100
AcDbEntity
  8
0
100
AcDbPolyline
 62
7
  6
CONTINUOUS
 90
2
 70
0
 43
0.2
 10
322.4405451256
 20
24.4576027618
 10
323.236261136
 20
24.4576027618
  0
LWPOLYLINE
  5
240
100
AcDbEntity
  8
0
100
AcDbPolyline
 62
7
  6
CONTINUOUS
 90
2
 70
0
 43
0.2
 10
323.236261136
 20
24.4576027618
 10
323.236261136
 20
24.6695843334
  0
LWPOLYLINE
  5
241
100
AcDbEntity
  8
0
100
AcDbPolyline
 62
7
  6
CONTINUOUS
 90
2
 70
0
 43
0.2
 10
323.236261136
 20
24.6695843334
 10
322.6721546205
 20
24.6695843334
  0
LWPOLYLINE
  5
242
100
AcDbEntity
  8
0
100
AcDbPolyline
 62
7
  6
CONTINUOUS
 90
2
 70
0
 43
0.2
 10
322.6721546205
 20
24.6695843334
 10
322.6721546205
 20
26.3146660112
  0
LWPOLYLINE
  5
243
100
AcDbEntity
  8
0
100
AcDbPolyline
 62
7
  6
CONTINUOUS
 90
2
 70
0
 43
0.2
 10
322.6721546205
 20
26.3146660112
 10
322.4405451256
 20
26.3146660112
  0
SPLINE
  5
244
100
AcDbEntity
  8
0
100
AcDbSpline
 62
7
  6
CONTINUOUS
 70
2
 71
3
 72
35
 73
31
 74
0
 42
0.0000001
 43
0.0000001
 44
0.0000000001
 40
0.0
 40
0.0
 40
0.0
 40
0.0
 40
1.0
 40
1.0
 40
1.0
 40
2.0
 40
2.0
 40
2.0
 40
3.0
 40
3.0
 40
3.0
 40
4.0
 40
4.0
 40
4.0
 40
5.0
 40
5.0
 40
5.0
 40
6.0
 40
6.0
 40
6.0
 40
7.0
 40
7.0
 40
7.0
 40
8.0
 40
8.0
 40
8.0
 40
9.0
 40
9.0
 40
9.0
 40
10.0
 40
10.0
 40
10.0
 40
10.0
 10
324.6345543915
 20
25.6101544177
 30
0.0
 10
324.6345543915
 20
25.6101544177
 30
0.0
 10
324.6345543915
 20
24.9480391385
 30
0.0
 10
324.6345543915
 20
24.9480391385
 30
0.0
 10
324.6345543915
 20
24.6329455432
 30
0.0
 10
324.7824180804
 20
24.4183469152
 30
0.0
 10
325.1225045647
 20
24.4183469152
 30
0.0
 10
325.4620676377
 20
24.4183469152
 30
0.0
 10
325.6101930321
 20
24.6329455432
 30
0.0
 10
325.6101930321
 20
24.9480391385
 30
0.0
 10
325.6101930321
 20
24.9480391385
 30
0.0
 10
325.6101930321
 20
25.6101544177
 30
0.0
 10
325.6101930321
 20
25.6101544177
 30
0.0
 10
325.6101930321
 20
25.6101544177
 30
0.0
 10
325.3881357933
 20
25.6101544177
 30
0.0
 10
325.3881357933
 20
25.6101544177
 30
0.0
 10
325.3881357933
 20
25.6101544177
 30
0.0
 10
325.3881357933
 20
24.9731628803
 30
0.0
 10
325.3881357933
 20
24.9731628803
 30
0.0
 10
325.3881357933
 20
24.7873518732
 30
0.0
 10
325.3414213358
 20
24.6245709626
 30
0.0
 10
325.1225045647
 20
24.6245709626
 30
0.0
 10
324.9030643822
 20
24.6245709626
 30
0.0
 10
324.8563499248
 20
24.7873518732
 30
0.0
 10
324.8563499248
 20
24.9731628803
 30
0.0
 10
324.8563499248
 20
24.9731628803
 30
0.0
 10
324.8563499248
 20
25.6101544177
 30
0.0
 10
324.8563499248
 20
25.6101544177
 30
0.0
 10
324.8563499248
 20
25.6101544177
 30
0.0
 10
324.6345543915
 20
25.6101544177
 30
0.0
 10
324.6345543915
 20
25.6101544177
 30
0.0
  0
SPLINE
  5
245
100
AcDbEntity
  8
0
100
AcDbSpline
 62
7
  6
CONTINUOUS
 70
2
 71
3
 72
35
 73
31
 74
0
 42
0.0000001
 43
0.0000001
 44
0.0000000001
 40
0.0
 40
0.0
 40
0.0
 40
0.0
 40
1.0
 40
1.0
 40
1.0
 40
2.0
 40
2.0
 40
2.0
 40
3.0
 40
3.0
 40
3.0
 40
4.0
 40
4.0
 40
4.0
 40
5.0
 40
5.0
 40
5.0
 40
6.0
 40
6.0
 40
6.0
 40
7.0
 40
7.0
 40
7.0
 40
8.0
 40
8.0
 40
8.0
 40
9.0
 40
9.0
 40
9.0
 40
10.0
 40
10.0
 40
10.0
 40
10.0
 10
328.0333255893
 20
25.5688049259
 30
0.0
 10
327.9448690817
 20
25.6200992322
 30
0.0
 10
327.831419685
 20
25.645222974
 30
0.0
 10
327.72778425
 20
25.645222974
 30
0.0
 10
327.3729113969
 20
25.645222974
 30
0.0
 10
327.0974662066
 20
25.3814236849
 30
0.0
 10
327.0974662066
 20
25.0239337753
 30
0.0
 10
327.0974662066
 20
24.6790057366
 30
0.0
 10
327.3759210118
 20
24.4188703265
 30
0.0
 10
327.7154840848
 20
24.4188703265
 30
0.0
 10
327.831419685
 20
24.4188703265
 30
0.0
 10
327.9321763579
 20
24.4408536006
 30
0.0
 10
328.0333255893
 20
24.4947649632
 30
0.0
 10
328.0333255893
 20
24.4947649632
 30
0.0
 10
328.0333255893
 20
24.7774070587
 30
0.0
 10
328.0333255893
 20
24.7774070587
 30
0.0
 10
327.9494489304
 20
24.6842398494
 30
0.0
 10
327.8459443483
 20
24.6250943739
 30
0.0
 10
327.7178394356
 20
24.6250943739
 30
0.0
 10
327.4841362955
 20
24.6250943739
 30
0.0
 10
327.3188691814
 20
24.7972966876
 30
0.0
 10
327.3188691814
 20
25.0338785897
 30
0.0
 10
327.3188691814
 20
25.2458601613
 30
0.0
 10
327.4866224991
 20
25.437952104
 30
0.0
 10
327.7034456251
 20
25.437952104
 30
0.0
 10
327.8362612394
 20
25.437952104
 30
0.0
 10
327.9448690817
 20
25.3840407413
 30
0.0
 10
328.0333255893
 20
25.2830223628
 30
0.0
 10
328.0333255893
 20
25.2830223628
 30
0.0
 10
328.0333255893
 20
25.5688049259
 30
0.0
 10
328.0333255893
 20
25.5688049259
 30
0.0
  0
SPLINE
  5
246
100
AcDbEntity
  8
0
100
AcDbSpline
 62
7
  6
CONTINUOUS
 70
2
 71
3
 72
32
 73
28
 74
0
 42
0.0000001
 43
0.0000001
 44
0.0000000001
 40
0.0
 40
0.0
 40
0.0
 40
0.0
 40
1.0
 40
1.0
 40
1.0
 40
2.0
 40
2.0
 40
2.0
 40
3.0
 40
3.0
 40
3.0
 40
4.0
 40
4.0
 40
4.0
 40
5.0
 40
5.0
 40
5.0
 40
6.0
 40
6.0
 40
6.0
 40
7.0
 40
7.0
 40
7.0
 40
8.0
 40
8.0
 40
8.0
 40
9.0
 40
9.0
 40
9.0
 40
9.0
 10
330.5651968416
 20
24.9972397996
 30
0.0
 10
330.5651968416
 20
24.9972397996
 30
0.0
 10
330.5651968416
 20
25.0312615333
 30
0.0
 10
330.5651968416
 20
25.0312615333
 30
0.0
 10
330.5651968416
 20
25.3735725156
 30
0.0
 10
330.3923402638
 20
25.645222974
 30
0.0
 10
330.0256906566
 20
25.645222974
 30
0.0
 10
329.6540686422
 20
25.645222974
 30
0.0
 10
329.4643320504
 20
25.3788066284
 30
0.0
 10
329.4643320504
 20
25.0239337753
 30
0.0
 10
329.4643320504
 20
24.6842398494
 30
0.0
 10
329.6784072671
 20
24.4183469152
 30
0.0
 10
330.030532211
 20
24.4183469152
 30
0.0
 10
330.2545522422
 20
24.4183469152
 30
0.0
 10
330.4567198522
 20
24.5340208098
 30
0.0
 10
330.5651968416
 20
24.7334405105
 30
0.0
 10
330.5651968416
 20
24.7334405105
 30
0.0
 10
330.3775538949
 20
24.8402164132
 30
0.0
 10
330.3775538949
 20
24.8402164132
 30
0.0
 10
330.2940697945
 20
24.7015124219
 30
0.0
 10
330.2028653775
 20
24.6156729707
 30
0.0
 10
330.0332801203
 20
24.6156729707
 30
0.0
 10
329.8212985487
 20
24.6156729707
 30
0.0
 10
329.6883520816
 20
24.8004371554
 30
0.0
 10
329.6859967308
 20
24.9972397996
 30
0.0
 10
329.6859967308
 20
24.9972397996
 30
0.0
 10
330.5651968416
 20
24.9972397996
 30
0.0
 10
330.5651968416
 20
24.9972397996
 30
0.0
  0
SPLINE
  5
247
100
AcDbEntity
  8
0
100
AcDbSpline
 62
7
  6
CONTINUOUS
 70
2
 71
3
 72
14
 73
10
 74
0
 42
0.0000001
 43
0.0000001
 44
0.0000000001
 40
0.0
 40
0.0
 40
0.0
 40
0.0
 40
1.0
 40
1.0
 40
1.0
 40
2.0
 40
2.0
 40
2.0
 40
3.0
 40
3.0
 40
3.0
 40
3.0
 10
329.6980351904
 20
25.1647314117
 30
0.0
 10
329.7256451358
 20
25.3296059674
 30
0.0
 10
329.8534883429
 20
25.45260762
 30
0.0
 10
330.0256906566
 20
25.45260762
 30
0.0
 10
330.2028653775
 20
25.45260762
 30
0.0
 10
330.3163147742
 20
25.3369337254
 30
0.0
 10
330.3435321612
 20
25.1647314117
 30
0.0
 10
330.3435321612
 20
25.1647314117
 30
0.0
 10
329.6980351904
 20
25.1647314117
 30
0.0
 10
329.6980351904
 20
25.1647314117
 30
0.0
  0
SPLINE
  5
248
100
AcDbEntity
  8
0
100
AcDbSpline
 62
7
  6
CONTINUOUS
 70
2
 71
3
 72
20
 73
16
 74
0
 42
0.0000001
 43
0.0000001
 44
0.0000000001
 40
0.0
 40
0.0
 40
0.0
 40
0.0
 40
1.0
 40
1.0
 40
1.0
 40
2.0
 40
2.0
 40
2.0
 40
3.0
 40
3.0
 40
3.0
 40
4.0
 40
4.0
 40
4.0
 40
5.0
 40
5.0
 40
5.0
 40
5.0
 10
332.5892282918
 20
25.3740959269
 30
0.0
 10
332.5892282918
 20
25.3740959269
 30
0.0
 10
333.0003678584
 20
24.8716210905
 30
0.0
 10
333.0003678584
 20
24.8716210905
 30
0.0
 10
332.8843014053
 20
24.7559471959
 30
0.0
 10
332.7465133838
 20
24.6256177852
 30
0.0
 10
332.5745727757
 20
24.6256177852
 30
0.0
 10
332.3971363491
 20
24.6256177852
 30
0.0
 10
332.229644737
 20
24.7899689296
 30
0.0
 10
332.229644737
 20
24.9668819449
 30
0.0
 10
332.229644737
 20
25.1448417828
 30
0.0
 10
332.4394018106
 20
25.2709839031
 30
0.0
 10
332.566983312
 20
25.3589169995
 30
0.0
 10
332.566983312
 20
25.3589169995
 30
0.0
 10
332.5892282918
 20
25.3740959269
 30
0.0
 10
332.5892282918
 20
25.3740959269
 30
0.0
  0
SPLINE
  5
249
100
AcDbEntity
  8
0
100
AcDbSpline
 62
7
  6
CONTINUOUS
 70
2
 71
3
 72
23
 73
19
 74
0
 42
0.0000001
 43
0.0000001
 44
0.0000000001
 40
0.0
 40
0.0
 40
0.0
 40
0.0
 40
1.0
 40
1.0
 40
1.0
 40
2.0
 40
2.0
 40
2.0
 40
3.0
 40
3.0
 40
3.0
 40
4.0
 40
4.0
 40
4.0
 40
5.0
 40
5.0
 40
5.0
 40
6.0
 40
6.0
 40
6.0
 40
6.0
 10
332.6385598056
 20
25.6651126029
 30
0.0
 10
332.6385598056
 20
25.6651126029
 30
0.0
 10
332.5769281265
 20
25.7436242961
 30
0.0
 10
332.5769281265
 20
25.7436242961
 30
0.0
 10
332.5230167639
 20
25.8121911748
 30
0.0
 10
332.4662266391
 20
25.8812814648
 30
0.0
 10
332.4662266391
 20
25.9749720853
 30
0.0
 10
332.4662266391
 20
26.0937864477
 30
0.0
 10
332.5621417576
 20
26.1712513183
 30
0.0
 10
332.6731049506
 20
26.1712513183
 30
0.0
 10
332.7963683089
 20
26.1712513183
 30
0.0
 10
332.889666371
 20
26.1000673831
 30
0.0
 10
332.889666371
 20
25.9697379725
 30
0.0
 10
332.889666371
 20
25.8346978602
 30
0.0
 10
332.7615614583
 20
25.7582798122
 30
0.0
 10
332.6680016906
 20
25.6844788206
 30
0.0
 10
332.6680016906
 20
25.6844788206
 30
0.0
 10
332.6385598056
 20
25.6651126029
 30
0.0
 10
332.6385598056
 20
25.6651126029
 30
0.0
  0
SPLINE
  5
24A
100
AcDbEntity
  8
0
100
AcDbSpline
 62
7
  6
CONTINUOUS
 70
2
 71
3
 72
50
 73
46
 74
0
 42
0.0000001
 43
0.0000001
 44
0.0000000001
 40
0.0
 40
0.0
 40
0.0
 40
0.0
 40
1.0
 40
1.0
 40
1.0
 40
2.0
 40
2.0
 40
2.0
 40
3.0
 40
3.0
 40
3.0
 40
4.0
 40
4.0
 40
4.0
 40
5.0
 40
5.0
 40
5.0
 40
6.0
 40
6.0
 40
6.0
 40
7.0
 40
7.0
 40
7.0
 40
8.0
 40
8.0
 40
8.0
 40
9.0
 40
9.0
 40
9.0
 40
10.0
 40
10.0
 40
10.0
 40
11.0
 40
11.0
 40
11.0
 40
12.0
 40
12.0
 40
12.0
 40
13.0
 40
13.0
 40
13.0
 40
14.0
 40
14.0
 40
14.0
 40
15.0
 40
15.0
 40
15.0
 40
15.0
 10
333.3407160483
 20
24.4581261731
 30
0.0
 10
333.3407160483
 20
24.4581261731
 30
0.0
 10
333.626106053
 20
24.4581261731
 30
0.0
 10
333.626106053
 20
24.4581261731
 30
0.0
 10
333.626106053
 20
24.4581261731
 30
0.0
 10
333.2937398852
 20
24.8690040341
 30
0.0
 10
333.2937398852
 20
24.8690040341
 30
0.0
 10
333.2937398852
 20
24.8690040341
 30
0.0
 10
333.5202461201
 20
25.1348969683
 30
0.0
 10
333.5202461201
 20
25.1348969683
 30
0.0
 10
333.5202461201
 20
25.1348969683
 30
0.0
 10
333.3719898728
 20
25.2877330644
 30
0.0
 10
333.3719898728
 20
25.2877330644
 30
0.0
 10
333.3719898728
 20
25.2877330644
 30
0.0
 10
333.1560827165
 20
25.0364956462
 30
0.0
 10
333.1560827165
 20
25.0364956462
 30
0.0
 10
333.1560827165
 20
25.0364956462
 30
0.0
 10
332.7690200692
 20
25.5044253375
 30
0.0
 10
332.7690200692
 20
25.5044253375
 30
0.0
 10
332.9244732216
 20
25.6185289983
 30
0.0
 10
333.1067512026
 20
25.7582798122
 30
0.0
 10
333.1067512026
 20
25.9676443273
 30
0.0
 10
333.1067512026
 20
26.2115539874
 30
0.0
 10
332.9047144455
 20
26.3549686803
 30
0.0
 10
332.6782082107
 20
26.3549686803
 30
0.0
 10
332.4340368449
 20
26.3549686803
 30
0.0
 10
332.2496652188
 20
26.2042262294
 30
0.0
 10
332.2496652188
 20
25.9477546984
 30
0.0
 10
332.2496652188
 20
25.7902079007
 30
0.0
 10
332.3483282465
 20
25.652550732
 30
0.0
 10
332.4536647682
 20
25.541587539
 30
0.0
 10
332.4536647682
 20
25.541587539
 30
0.0
 10
332.3381217264
 20
25.4578417329
 30
0.0
 10
332.3381217264
 20
25.4578417329
 30
0.0
 10
332.1604235942
 20
25.3296059674
 30
0.0
 10
332.0130833166
 20
25.2018936131
 30
0.0
 10
332.0130833166
 20
24.9647882997
 30
0.0
 10
332.0130833166
 20
24.6444605916
 30
0.0
 10
332.2716484929
 20
24.4183469152
 30
0.0
 10
332.5820313866
 20
24.4183469152
 30
0.0
 10
332.8009481577
 20
24.4183469152
 30
0.0
 10
332.9981433604
 20
24.543442213
 30
0.0
 10
333.1384175856
 20
24.7093635913
 30
0.0
 10
333.1384175856
 20
24.7093635913
 30
0.0
 10
333.3407160483
 20
24.4581261731
 30
0.0
 10
333.3407160483
 20
24.4581261731
 30
0.0
  0
LWPOLYLINE
  5
24B
100
AcDbEntity
  8
0
100
AcDbPolyline
 62
7
  6
CONTINUOUS
 90
2
 70
0
 43
0.2
 10
335.276160138
 20
26.3146660112
 10
335.0448123488
 20
26.3146660112
  0
LWPOLYLINE
  5
24C
100
AcDbEntity
  8
0
100
AcDbPolyline
 62
7
  6
CONTINUOUS
 90
2
 70
0
 43
0.2
 10
335.0448123488
 20
26.3146660112
 10
335.0448123488
 20
24.4576027618
  0
LWPOLYLINE
  5
24D
100
AcDbEntity
  8
0
100
AcDbPolyline
 62
7
  6
CONTINUOUS
 90
2
 70
0
 43
0.2
 10
335.0448123488
 20
24.4576027618
 10
335.8401358007
 20
24.4576027618
  0
LWPOLYLINE
  5
24E
100
AcDbEntity
  8
0
100
AcDbPolyline
 62
7
  6
CONTINUOUS
 90
2
 70
0
 43
0.2
 10
335.8401358007
 20
24.4576027618
 10
335.8401358007
 20
24.6695843334
  0
LWPOLYLINE
  5
24F
100
AcDbEntity
  8
0
100
AcDbPolyline
 62
7
  6
CONTINUOUS
 90
2
 70
0
 43
0.2
 10
335.8401358007
 20
24.6695843334
 10
335.276160138
 20
24.6695843334
  0
LWPOLYLINE
  5
250
100
AcDbEntity
  8
0
100
AcDbPolyline
 62
7
  6
CONTINUOUS
 90
2
 70
0
 43
0.2
 10
335.276160138
 20
24.6695843334
 10
335.276160138
 20
26.3146660112
  0
LWPOLYLINE
  5
251
100
AcDbEntity
  8
0
100
AcDbPolyline
 62
7
  6
CONTINUOUS
 90
2
 70
0
 43
0.2
 10
337.5192392122
 20
25.6101544177
 10
337.2980979431
 20
25.6101544177
  0
LWPOLYLINE
  5
252
100
AcDbEntity
  8
0
100
AcDbPolyline
 62
7
  6
CONTINUOUS
 90
2
 70
0
 43
0.2
 10
337.2980979431
 20
25.6101544177
 10
337.2980979431
 20
24.4581261731
  0
LWPOLYLINE
  5
253
100
AcDbEntity
  8
0
100
AcDbPolyline
 62
7
  6
CONTINUOUS
 90
2
 70
0
 43
0.2
 10
337.2980979431
 20
24.4581261731
 10
337.5192392122
 20
24.4581261731
  0
LWPOLYLINE
  5
254
100
AcDbEntity
  8
0
100
AcDbPolyline
 62
7
  6
CONTINUOUS
 90
2
 70
0
 43
0.2
 10
337.5192392122
 20
24.4581261731
 10
337.5192392122
 20
25.6101544177
  0
LWPOLYLINE
  5
255
100
AcDbEntity
  8
0
100
AcDbPolyline
 62
7
  6
CONTINUOUS
 90
2
 70
1
 43
0.2
 10
337.256215935
 20
26.1401083467
 42
1.0
 10
337.5613829259
 20
26.1401083467
 42
1.0
  0
SPLINE
  5
256
100
AcDbEntity
  8
0
100
AcDbSpline
 62
7
  6
CONTINUOUS
 70
2
 71
3
 72
17
 73
13
 74
0
 42
0.0000001
 43
0.0000001
 44
0.0000000001
 40
0.0
 40
0.0
 40
0.0
 40
0.0
 40
1.0
 40
1.0
 40
1.0
 40
2.0
 40
2.0
 40
2.0
 40
3.0
 40
3.0
 40
3.0
 40
4.0
 40
4.0
 40
4.0
 40
4.0
 10
339.6495231538
 20
24.6156729707
 30
0.0
 10
339.4155583082
 20
24.6156729707
 30
0.0
 10
339.2852288975
 20
24.8177097279
 30
0.0
 10
339.2852288975
 20
25.0338785897
 30
0.0
 10
339.2852288975
 20
25.2484772178
 30
0.0
 10
339.4210541267
 20
25.4473735072
 30
0.0
 10
339.6495231538
 20
25.4473735072
 30
0.0
 10
339.888983818
 20
25.4473735072
 30
0.0
 10
340.0245473416
 20
25.2584220322
 30
0.0
 10
340.0245473416
 20
25.0338785897
 30
0.0
 10
340.0245473416
 20
24.8077649134
 30
0.0
 10
339.8913391688
 20
24.6156729707
 30
0.0
 10
339.6495231538
 20
24.6156729707
 30
0.0
  0
SPLINE
  5
257
100
AcDbEntity
  8
0
100
AcDbSpline
 62
7
  6
CONTINUOUS
 70
2
 71
3
 72
50
 73
46
 74
0
 42
0.0000001
 43
0.0000001
 44
0.0000000001
 40
0.0
 40
0.0
 40
0.0
 40
0.0
 40
1.0
 40
1.0
 40
1.0
 40
2.0
 40
2.0
 40
2.0
 40
3.0
 40
3.0
 40
3.0
 40
4.0
 40
4.0
 40
4.0
 40
5.0
 40
5.0
 40
5.0
 40
6.0
 40
6.0
 40
6.0
 40
7.0
 40
7.0
 40
7.0
 40
8.0
 40
8.0
 40
8.0
 40
9.0
 40
9.0
 40
9.0
 40
10.0
 40
10.0
 40
10.0
 40
11.0
 40
11.0
 40
11.0
 40
12.0
 40
12.0
 40
12.0
 40
13.0
 40
13.0
 40
13.0
 40
14.0
 40
14.0
 40
14.0
 40
15.0
 40
15.0
 40
15.0
 40
15.0
 10
340.2336501511
 20
25.610677829
 30
0.0
 10
340.2336501511
 20
25.610677829
 30
0.0
 10
340.0119854707
 20
25.610677829
 30
0.0
 10
340.0119854707
 20
25.610677829
 30
0.0
 10
340.0119854707
 20
25.610677829
 30
0.0
 10
340.0119854707
 20
25.4133517734
 30
0.0
 10
340.0119854707
 20
25.4133517734
 30
0.0
 10
340.0119854707
 20
25.4133517734
 30
0.0
 10
340.0072747691
 20
25.4133517734
 30
0.0
 10
340.0072747691
 20
25.4133517734
 30
0.0
 10
339.9159394994
 20
25.556243055
 30
0.0
 10
339.778020625
 20
25.6446995627
 30
0.0
 10
339.6052949
 20
25.6446995627
 30
0.0
 10
339.2729287322
 20
25.6446995627
 30
0.0
 10
339.0638259227
 20
25.3568233544
 30
0.0
 10
339.0638259227
 20
25.0412063478
 30
0.0
 10
339.0638259227
 20
24.7114572364
 30
0.0
 10
339.2608902726
 20
24.4183469152
 30
0.0
 10
339.6157631258
 20
24.4183469152
 30
0.0
 10
339.778020625
 20
24.4183469152
 30
0.0
 10
339.9180331445
 20
24.5068034229
 30
0.0
 10
340.0072747691
 20
24.6376562448
 30
0.0
 10
340.0072747691
 20
24.6376562448
 30
0.0
 10
340.0119854707
 20
24.6376562448
 30
0.0
 10
340.0119854707
 20
24.6376562448
 30
0.0
 10
340.0119854707
 20
24.6376562448
 30
0.0
 10
340.0119854707
 20
24.4183469152
 30
0.0
 10
340.0119854707
 20
24.4183469152
 30
0.0
 10
340.0119854707
 20
24.1817650131
 30
0.0
 10
339.9554570516
 20
23.9949071833
 30
0.0
 10
339.6822363593
 20
23.9949071833
 30
0.0
 10
339.4799378966
 20
23.9949071833
 30
0.0
 10
339.3373083206
 20
24.1131981344
 30
0.0
 10
339.3373083206
 20
24.3194221818
 30
0.0
 10
339.3373083206
 20
24.3194221818
 30
0.0
 10
339.1156436402
 20
24.3194221818
 30
0.0
 10
339.1156436402
 20
24.3194221818
 30
0.0
 10
339.1206160475
 20
23.9949071833
 30
0.0
 10
339.351702131
 20
23.7981045391
 30
0.0
 10
339.6720298392
 20
23.7981045391
 30
0.0
 10
340.1200699016
 20
23.7981045391
 30
0.0
 10
340.2336501511
 20
24.083363691
 30
0.0
 10
340.2336501511
 20
24.4801094472
 30
0.0
 10
340.2336501511
 20
24.4801094472
 30
0.0
 10
340.2336501511
 20
25.610677829
 30
0.0
 10
340.2336501511
 20
25.610677829
 30
0.0
  0
SPLINE
  5
258
100
AcDbEntity
  8
0
100
AcDbSpline
 62
7
  6
CONTINUOUS
 70
2
 71
3
 72
44
 73
40
 74
0
 42
0.0000001
 43
0.0000001
 44
0.0000000001
 40
0.0
 40
0.0
 40
0.0
 40
0.0
 40
1.0
 40
1.0
 40
1.0
 40
2.0
 40
2.0
 40
2.0
 40
3.0
 40
3.0
 40
3.0
 40
4.0
 40
4.0
 40
4.0
 40
5.0
 40
5.0
 40
5.0
 40
6.0
 40
6.0
 40
6.0
 40
7.0
 40
7.0
 40
7.0
 40
8.0
 40
8.0
 40
8.0
 40
9.0
 40
9.0
 40
9.0
 40
10.0
 40
10.0
 40
10.0
 40
11.0
 40
11.0
 40
11.0
 40
12.0
 40
12.0
 40
12.0
 40
13.0
 40
13.0
 40
13.0
 40
13.0
 10
341.8025754865
 20
26.5957378727
 30
0.0
 10
341.8025754865
 20
26.5957378727
 30
0.0
 10
341.8025754865
 20
24.4576027618
 30
0.0
 10
341.8025754865
 20
24.4576027618
 30
0.0
 10
341.8025754865
 20
24.4576027618
 30
0.0
 10
342.0239784613
 20
24.4576027618
 30
0.0
 10
342.0239784613
 20
24.4576027618
 30
0.0
 10
342.0239784613
 20
24.4576027618
 30
0.0
 10
342.0239784613
 20
24.9872949851
 30
0.0
 10
342.0239784613
 20
24.9872949851
 30
0.0
 10
342.0239784613
 20
25.1971829116
 30
0.0
 10
342.0239784613
 20
25.4478969184
 30
0.0
 10
342.3092376132
 20
25.4478969184
 30
0.0
 10
342.5361364065
 20
25.4478969184
 30
0.0
 10
342.5630920878
 20
25.3149504513
 30
0.0
 10
342.5630920878
 20
25.1186712184
 30
0.0
 10
342.5630920878
 20
25.1186712184
 30
0.0
 10
342.5630920878
 20
24.4576027618
 30
0.0
 10
342.5630920878
 20
24.4576027618
 30
0.0
 10
342.5630920878
 20
24.4576027618
 30
0.0
 10
342.7850184738
 20
24.4576027618
 30
0.0
 10
342.7850184738
 20
24.4576027618
 30
0.0
 10
342.7850184738
 20
24.4576027618
 30
0.0
 10
342.7850184738
 20
25.1448417828
 30
0.0
 10
342.7850184738
 20
25.1448417828
 30
0.0
 10
342.7850184738
 20
25.4253902331
 30
0.0
 10
342.7010109621
 20
25.645222974
 30
0.0
 10
342.3759725524
 20
25.645222974
 30
0.0
 10
342.2362217385
 20
25.645222974
 30
0.0
 10
342.0980411585
 20
25.5787497404
 30
0.0
 10
342.0286891629
 20
25.4557480878
 30
0.0
 10
342.0286891629
 20
25.4557480878
 30
0.0
 10
342.0239784613
 20
25.4557480878
 30
0.0
 10
342.0239784613
 20
25.4557480878
 30
0.0
 10
342.0239784613
 20
25.4557480878
 30
0.0
 10
342.0239784613
 20
26.5957378727
 30
0.0
 10
342.0239784613
 20
26.5957378727
 30
0.0
 10
342.0239784613
 20
26.5957378727
 30
0.0
 10
341.8025754865
 20
26.5957378727
 30
0.0
 10
341.8025754865
 20
26.5957378727
 30
0.0
  0
LWPOLYLINE
  5
259
100
AcDbEntity
  8
0
100
AcDbPolyline
 62
7
  6
CONTINUOUS
 90
2
 70
0
 43
0.2
 10
344.6248091507
 20
25.403406959
 10
344.8412397182
 20
25.403406959
  0
LWPOLYLINE
  5
25A
100
AcDbEntity
  8
0
100
AcDbPolyline
 62
7
  6
CONTINUOUS
 90
2
 70
0
 43
0.2
 10
344.8412397182
 20
25.403406959
 10
344.8412397182
 20
25.6101544177
  0
LWPOLYLINE
  5
25B
100
AcDbEntity
  8
0
100
AcDbPolyline
 62
7
  6
CONTINUOUS
 90
2
 70
0
 43
0.2
 10
344.8412397182
 20
25.6101544177
 10
344.6248091507
 20
25.6101544177
  0
LWPOLYLINE
  5
25C
100
AcDbEntity
  8
0
100
AcDbPolyline
 62
7
  6
CONTINUOUS
 90
2
 70
0
 43
0.2
 10
344.6248091507
 20
25.6101544177
 10
344.6248091507
 20
26.0508667221
  0
LWPOLYLINE
  5
25D
100
AcDbEntity
  8
0
100
AcDbPolyline
 62
7
  6
CONTINUOUS
 90
2
 70
0
 43
0.2
 10
344.6248091507
 20
26.0508667221
 10
344.4031444703
 20
26.0508667221
  0
LWPOLYLINE
  5
25E
100
AcDbEntity
  8
0
100
AcDbPolyline
 62
7
  6
CONTINUOUS
 90
2
 70
0
 43
0.2
 10
344.4031444703
 20
26.0508667221
 10
344.4031444703
 20
25.6101544177
  0
LWPOLYLINE
  5
25F
100
AcDbEntity
  8
0
100
AcDbPolyline
 62
7
  6
CONTINUOUS
 90
2
 70
0
 43
0.2
 10
344.4031444703
 20
25.6101544177
 10
344.2824981684
 20
25.6101544177
  0
LWPOLYLINE
  5
260
100
AcDbEntity
  8
0
100
AcDbPolyline
 62
7
  6
CONTINUOUS
 90
2
 70
0
 43
0.2
 10
344.2824981684
 20
25.6101544177
 10
344.2824981684
 20
25.403406959
  0
LWPOLYLINE
  5
261
100
AcDbEntity
  8
0
100
AcDbPolyline
 62
7
  6
CONTINUOUS
 90
2
 70
0
 43
0.2
 10
344.2824981684
 20
25.403406959
 10
344.4031444703
 20
25.403406959
  0
LWPOLYLINE
  5
262
100
AcDbEntity
  8
0
100
AcDbPolyline
 62
7
  6
CONTINUOUS
 90
2
 70
0
 43
0.2
 10
344.4031444703
 20
25.403406959
 10
344.4031444703
 20
24.4576027618
  0
LWPOLYLINE
  5
263
100
AcDbEntity
  8
0
100
AcDbPolyline
 62
7
  6
CONTINUOUS
 90
2
 70
0
 43
0.2
 10
344.4031444703
 20
24.4576027618
 10
344.6248091507
 20
24.4576027618
  0
LWPOLYLINE
  5
264
100
AcDbEntity
  8
0
100
AcDbPolyline
 62
7
  6
CONTINUOUS
 90
2
 70
0
 43
0.2
 10
344.6248091507
 20
24.4576027618
 10
344.6248091507
 20
25.403406959
  0
SPLINE
  5
265
100
AcDbEntity
  8
0
100
AcDbSpline
 62
7
  6
CONTINUOUS
 70
2
 71
3
 72
20
 73
16
 74
0
 42
0.0000001
 43
0.0000001
 44
0.0000000001
 40
0.0
 40
0.0
 40
0.0
 40
0.0
 40
1.0
 40
1.0
 40
1.0
 40
2.0
 40
2.0
 40
2.0
 40
3.0
 40
3.0
 40
3.0
 40
4.0
 40
4.0
 40
4.0
 40
5.0
 40
5.0
 40
5.0
 40
5.0
 10
332.4068194579
 20
34.8185292052
 30
0.0
 10
332.4068194579
 20
34.8185292052
 30
0.0
 10
334.7231761124
 20
31.988967783
 30
0.0
 10
334.7231761124
 20
31.988967783
 30
0.0
 10
334.071529059
 20
31.3367973183
 30
0.0
 10
333.294655855
 20
30.6008810475
 30
0.0
 10
332.3234662104
 20
30.6008810475
 30
0.0
 10
331.3249283259
 20
30.6008810475
 30
0.0
 10
330.3816103324
 20
31.5304594948
 30
0.0
 10
330.3816103324
 20
32.5296516433
 30
0.0
 10
330.3816103324
 20
33.5288437919
 30
0.0
 10
331.5604634055
 20
34.2354490305
 30
0.0
 10
332.2819858658
 20
34.7353068104
 30
0.0
 10
332.2819858658
 20
34.7353068104
 30
0.0
 10
332.4068194579
 20
34.8185292052
 30
0.0
 10
332.4068194579
 20
34.8185292052
 30
0.0
  0
SPLINE
  5
266
100
AcDbEntity
  8
0
100
AcDbSpline
 62
7
  6
CONTINUOUS
 70
2
 71
3
 72
23
 73
19
 74
0
 42
0.0000001
 43
0.0000001
 44
0.0000000001
 40
0.0
 40
0.0
 40
0.0
 40
0.0
 40
1.0
 40
1.0
 40
1.0
 40
2.0
 40
2.0
 40
2.0
 40
3.0
 40
3.0
 40
3.0
 40
4.0
 40
4.0
 40
4.0
 40
5.0
 40
5.0
 40
5.0
 40
6.0
 40
6.0
 40
6.0
 40
6.0
 10
332.6842274405
 20
36.4562831249
 30
0.0
 10
332.6842274405
 20
36.4562831249
 30
0.0
 10
332.3377291679
 20
36.8996124858
 30
0.0
 10
332.3377291679
 20
36.8996124858
 30
0.0
 10
332.031926123
 20
37.2877219557
 30
0.0
 10
331.7130377959
 20
37.6762239841
 30
0.0
 10
331.7130377959
 20
38.2031682982
 30
0.0
 10
331.7130377959
 20
38.8693400148
 30
0.0
 10
332.2543759204
 20
39.3130619341
 30
0.0
 10
332.8782821755
 20
39.3130619341
 30
0.0
 10
333.5720638376
 20
39.3130619341
 30
0.0
 10
334.0992698573
 20
38.9108203594
 30
0.0
 10
334.0992698573
 20
38.1758200584
 30
0.0
 10
334.0992698573
 20
37.4125555479
 30
0.0
 10
333.3780091026
 20
36.9824423221
 30
0.0
 10
332.8509339357
 20
36.5667229067
 30
0.0
 10
332.8509339357
 20
36.5667229067
 30
0.0
 10
332.6842274405
 20
36.4562831249
 30
0.0
 10
332.6842274405
 20
36.4562831249
 30
0.0
  0
SPLINE
  5
267
100
AcDbEntity
  8
0
100
AcDbSpline
 62
7
  6
CONTINUOUS
 70
2
 71
3
 72
50
 73
46
 74
0
 42
0.0000001
 43
0.0000001
 44
0.0000000001
 40
0.0
 40
0.0
 40
0.0
 40
0.0
 40
1.0
 40
1.0
 40
1.0
 40
2.0
 40
2.0
 40
2.0
 40
3.0
 40
3.0
 40
3.0
 40
4.0
 40
4.0
 40
4.0
 40
5.0
 40
5.0
 40
5.0
 40
6.0
 40
6.0
 40
6.0
 40
7.0
 40
7.0
 40
7.0
 40
8.0
 40
8.0
 40
8.0
 40
9.0
 40
9.0
 40
9.0
 40
10.0
 40
10.0
 40
10.0
 40
11.0
 40
11.0
 40
11.0
 40
12.0
 40
12.0
 40
12.0
 40
13.0
 40
13.0
 40
13.0
 40
14.0
 40
14.0
 40
14.0
 40
15.0
 40
15.0
 40
15.0
 40
15.0
 10
336.6378146034
 20
29.6576939068
 30
0.0
 10
336.6378146034
 20
29.6576939068
 30
0.0
 10
338.247042608
 20
29.6576939068
 30
0.0
 10
338.247042608
 20
29.6576939068
 30
0.0
 10
338.247042608
 20
29.6576939068
 30
0.0
 10
336.3740153144
 20
31.9748356782
 30
0.0
 10
336.3740153144
 20
31.9748356782
 30
0.0
 10
336.3740153144
 20
31.9748356782
 30
0.0
 10
337.6503537398
 20
33.4723153728
 30
0.0
 10
337.6503537398
 20
33.4723153728
 30
0.0
 10
337.6503537398
 20
33.4723153728
 30
0.0
 10
336.8181297921
 20
34.3333269413
 30
0.0
 10
336.8181297921
 20
34.3333269413
 30
0.0
 10
336.8181297921
 20
34.3333269413
 30
0.0
 10
335.5975346688
 20
32.9180228189
 30
0.0
 10
335.5975346688
 20
32.9180228189
 30
0.0
 10
335.5975346688
 20
32.9180228189
 30
0.0
 10
333.4196203
 20
35.5533986534
 30
0.0
 10
333.4196203
 20
35.5533986534
 30
0.0
 10
334.2931937394
 20
36.1914370133
 30
0.0
 10
335.3198649806
 20
36.9824423221
 30
0.0
 10
335.3198649806
 20
38.1612953952
 30
0.0
 10
335.3198649806
 20
39.5349883202
 30
0.0
 10
334.1819688408
 20
40.3394714696
 30
0.0
 10
332.9066772379
 20
40.3394714696
 30
0.0
 10
331.5332460185
 20
40.3394714696
 30
0.0
 10
330.4923118197
 20
39.49324627
 30
0.0
 10
330.4923118197
 20
38.0505939078
 30
0.0
 10
330.4923118197
 20
37.1630192164
 30
0.0
 10
331.0476511962
 20
36.3861460124
 30
0.0
 10
331.6438166531
 20
35.7617163459
 30
0.0
 10
331.6438166531
 20
35.7617163459
 30
0.0
 10
330.991907894
 20
35.2901227756
 30
0.0
 10
330.991907894
 20
35.2901227756
 30
0.0
 10
329.9933700096
 20
34.5688620209
 30
0.0
 10
329.1604917978
 20
33.8476012662
 30
0.0
 10
329.1604917978
 20
32.5160429498
 30
0.0
 10
329.1604917978
 20
30.7123676518
 30
0.0
 10
330.6175379704
 20
29.4357675207
 30
0.0
 10
332.3650774077
 20
29.4357675207
 30
0.0
 10
333.5999354886
 20
29.4357675207
 30
0.0
 10
334.7093057133
 20
30.1439429932
 30
0.0
 10
335.5001801693
 20
31.0724746179
 30
0.0
 10
335.5001801693
 20
31.0724746179
 30
0.0
 10
336.6378146034
 20
29.6576939068
 30
0.0
 10
336.6378146034
 20
29.6576939068
 30
0.0
  0
LINE
  5
268
100
AcDbEntity
  8
0
100
AcDbLine
 62
7
  6
CONTINUOUS
 10
322.4406759784
 20
27.6315688114
 11
344.8545867061
 21
27.6315688114
  0
LINE
  5
269
100
AcDbEntity
  8
0
100
AcDbLine
 62
7
  6
CONTINUOUS
 10
344.8545867061
 20
27.6315688114
 11
344.8545867061
 21
50.0454795391
  0
LINE
  5
26A
100
AcDbEntity
  8
0
100
AcDbLine
 62
7
  6
CONTINUOUS
 10
344.8545867061
 20
50.0454795391
 11
322.4406759784
 21
50.0454795391
  0
LINE
  5
26B
100
AcDbEntity
  8
0
100
AcDbLine
 62
7
  6
CONTINUOUS
 10
322.4406759784
 20
50.0454795391
 11
322.4406759784
 21
27.6315688114
  0
ENDBLK
  5
26C
100
AcDbEntity
  8
0
  6
BYBLOCK
 62
0
100
AcDbBlockEnd
  0
BLOCK
  5
26D
100
AcDbEntity
  8
0
100
AcDbBlockBegin
  2
_CLOSED
 70
64
 10
0.0
 20
0.0
  3
_CLOSED
  1

  0
LINE
  5
26E
100
AcDbEntity
  8
0
  6
BYBLOCK
 62
0
100
AcDbLine
 10
0.0
 20
0.0
 11
-1.0
 21
0.2
  0
LINE
  5
26F
100
AcDbEntity
  8
0
  6
BYBLOCK
 62
0
100
AcDbLine
 10
-1.0
 20
0.2
 11
-1.0
 21
-0.2
  0
LINE
  5
270
100
AcDbEntity
  8
0
  6
BYBLOCK
 62
0
100
AcDbLine
 10
-1.0
 20
-0.2
 11
0.0
 21
0.0
  0
LINE
  5
271
100
AcDbEntity
  8
0
  6
BYBLOCK
 62
0
100
AcDbLine
 10
-1.0
 20
0.0
 11
0.0
 21
0.0
  0
ENDBLK
  5
272
100
AcDbEntity
  8
0
  6
BYBLOCK
 62
0
100
AcDbBlockEnd
  0
BLOCK
  5
273
100
AcDbEntity
  8
0
100
AcDbBlockBegin
 62
2
  6
CONTINUOUS
  2
*D0
 70
65
 10
0.0
 20
0.0
  3
*D0
  1

  0
MTEXT
  5
274
100
AcDbEntity
  8
0
100
AcDbMText
 62
2
  6
CONTINUOUS
  7
TEXTSTYLE_2
 71
1
 72
1
 10
153.7745336806
 20
109.9959841034
 30
0.0
 11
0.7830680832
 21
0.6219359912
 31
0.0
  1
{\Fgdt;n}\Farial.ttf;72
 40
3.0
 41
8.6617100372
  0
LINE
  5
275
100
AcDbEntity
  8
0
100
AcDbLine
 62
2
  6
CONTINUOUS
 10
150.0916454005
 20
102.2820689242
 11
162.8895023233
 21
112.446508009
  0
INSERT
  5
276
100
AcDbEntity
  8
0
100
AcDbBlockReference
 62
2
  6
CONTINUOUS
  2
_CLOSED
 10
150.0916454005
 20
102.2820689242
 41
2.5
 42
2.5
 43
2.5
 50
218.4576490475
  0
ENDBLK
  5
277
100
AcDbEntity
  8
0
  6
BYBLOCK
 62
0
100
AcDbBlockEnd
  0
BLOCK
  5
278
100
AcDbEntity
  8
0
100
AcDbBlockBegin
 62
2
  6
CONTINUOUS
  2
*D1
 70
65
 10
0.0
 20
0.0
  3
*D1
  1

  0
MTEXT
  5
279
100
AcDbEntity
  8
0
100
AcDbMText
 62
2
  6
CONTINUOUS
  7
STANDARD
 71
2
 72
1
 10
54.0446225259
 20
200.9958535621
 30
0.0
 11
0.0
 21
1.0
 31
0.0
  1
73
 40
3.0
 41
4.6617100372
  0
LINE
  5
27A
100
AcDbEntity
  8
0
100
AcDbLine
 62
2
  6
CONTINUOUS
 10
82.0990876216
 20
237.4958535621
 11
57.0446225259
 21
237.4958535621
  0
LINE
  5
27B
100
AcDbEntity
  8
0
100
AcDbLine
 62
2
  6
CONTINUOUS
 10
83.7604446851
 20
164.4958535621
 11
57.0446225259
 21
164.4958535621
  0
LINE
  5
27C
100
AcDbEntity
  8
0
100
AcDbLine
 62
2
  6
CONTINUOUS
 10
57.7946225259
 20
237.4958535621
 11
57.7946225259
 21
200.9958535621
  0
LINE
  5
27D
100
AcDbEntity
  8
0
100
AcDbLine
 62
2
  6
CONTINUOUS
 10
57.7946225259
 20
164.4958535621
 11
57.7946225259
 21
200.9958535621
  0
INSERT
  5
27E
100
AcDbEntity
  8
0
100
AcDbBlockReference
 62
2
  6
CONTINUOUS
  2
_CLOSED
 10
57.7946225259
 20
237.4958535621
 41
2.5
 42
2.5
 43
2.5
 50
90.0
  0
INSERT
  5
27F
100
AcDbEntity
  8
0
100
AcDbBlockReference
 62
2
  6
CONTINUOUS
  2
_CLOSED
 10
57.7946225259
 20
164.4958535621
 41
2.5
 42
2.5
 43
2.5
 50
270.0
  0
ENDBLK
  5
280
100
AcDbEntity
  8
0
  6
BYBLOCK
 62
0
100
AcDbBlockEnd
  0
BLOCK
  5
281
100
AcDbEntity
  8
0
100
AcDbBlockBegin
 62
2
  6
CONTINUOUS
  2
*D2
 70
65
 10
0.0
 20
0.0
  3
*D2
  1

  0
MTEXT
  5
282
100
AcDbEntity
  8
0
100
AcDbMText
 62
2
  6
CONTINUOUS
  7
STANDARD
 71
2
 72
1
 10
169.7832741317
 20
231.9958535621
 30
0.0
 11
0.0
 21
1.0
 31
0.0
  1
11
 40
3.0
 41
4.6617100372
  0
LINE
  5
283
100
AcDbEntity
  8
0
100
AcDbLine
 62
2
  6
CONTINUOUS
 10
161.5418417929
 20
237.4958535621
 11
174.2832741317
 21
237.4958535621
  0
LINE
  5
284
100
AcDbEntity
  8
0
100
AcDbLine
 62
2
  6
CONTINUOUS
 10
161.760598189
 20
226.4958535621
 11
174.2832741317
 21
226.4958535621
  0
LINE
  5
285
100
AcDbEntity
  8
0
100
AcDbLine
 62
2
  6
CONTINUOUS
 10
173.5332741317
 20
237.4958535621
 11
173.5332741317
 21
238.4958535621
  0
LINE
  5
286
100
AcDbEntity
  8
0
100
AcDbLine
 62
2
  6
CONTINUOUS
 10
173.5332741317
 20
238.4958535621
 11
173.5332741317
 21
231.9958535621
  0
LINE
  5
287
100
AcDbEntity
  8
0
100
AcDbLine
 62
2
  6
CONTINUOUS
 10
173.5332741317
 20
226.4958535621
 11
173.5332741317
 21
225.4958535621
  0
LINE
  5
288
100
AcDbEntity
  8
0
100
AcDbLine
 62
2
  6
CONTINUOUS
 10
173.5332741317
 20
225.4958535621
 11
173.5332741317
 21
231.9958535621
  0
INSERT
  5
289
100
AcDbEntity
  8
0
100
AcDbBlockReference
 62
2
  6
CONTINUOUS
  2
_CLOSED
 10
173.5332741317
 20
237.4958535621
 41
2.5
 42
2.5
 43
2.5
 50
270.0
  0
INSERT
  5
28A
100
AcDbEntity
  8
0
100
AcDbBlockReference
 62
2
  6
CONTINUOUS
  2
_CLOSED
 10
173.5332741317
 20
226.4958535621
 41
2.5
 42
2.5
 43
2.5
 50
90.0
  0
ENDBLK
  5
28B
100
AcDbEntity
  8
0
  6
BYBLOCK
 62
0
100
AcDbBlockEnd
  0
BLOCK
  5
28C
100
AcDbEntity
  8
0
100
AcDbBlockBegin
 62
2
  6
CONTINUOUS
  2
*D3
 70
65
 10
0.0
 20
0.0
  3
*D3
  1

  0
MTEXT
  5
28D
100
AcDbEntity
  8
0
100
AcDbMText
 62
2
  6
CONTINUOUS
  7
TEXTSTYLE_2
 71
2
 72
1
 10
121.901194407
 20
155.6573480236
 30
0.0
 11
1.0
 21
0.0
 31
0.0
  1
{\Fgdt;n}\Farial.ttf;58
 40
3.0
 41
8.6617100372
  0
LINE
  5
28E
100
AcDbEntity
  8
0
100
AcDbLine
 62
2
  6
CONTINUOUS
 10
92.901194407
 20
163.7769928477
 11
92.901194407
 21
151.1573480236
  0
LINE
  5
28F
100
AcDbEntity
  8
0
100
AcDbLine
 62
2
  6
CONTINUOUS
 10
150.901194407
 20
163.6155361535
 11
150.901194407
 21
151.1573480236
  0
LINE
  5
290
100
AcDbEntity
  8
0
100
AcDbLine
 62
2
  6
CONTINUOUS
 10
92.901194407
 20
151.9073480236
 11
121.901194407
 21
151.9073480236
  0
LINE
  5
291
100
AcDbEntity
  8
0
100
AcDbLine
 62
2
  6
CONTINUOUS
 10
150.901194407
 20
151.9073480236
 11
121.901194407
 21
151.9073480236
  0
INSERT
  5
292
100
AcDbEntity
  8
0
100
AcDbBlockReference
 62
2
  6
CONTINUOUS
  2
_CLOSED
 10
92.901194407
 20
151.9073480236
 41
2.5
 42
2.5
 43
2.5
 50
180.0
  0
INSERT
  5
293
100
AcDbEntity
  8
0
100
AcDbBlockReference
 62
2
  6
CONTINUOUS
  2
_CLOSED
 10
150.901194407
 20
151.9073480236
 41
2.5
 42
2.5
 43
2.5
  0
ENDBLK
  5
294
100
AcDbEntity
  8
0
  6
BYBLOCK
 62
0
100
AcDbBlockEnd
  0
BLOCK
  5
295
100
AcDbEntity
  8
0
100
AcDbBlockBegin
 62
2
  6
CONTINUOUS
  2
*D4
 70
65
 10
0.0
 20
0.0
  3
*D4
  1

  0
MTEXT
  5
296
100
AcDbEntity
  8
0
100
AcDbMText
 62
2
  6
CONTINUOUS
  7
STANDARD
 71
2
 72
1
 10
65.5156089663
 20
208.9958535621
 30
0.0
 11
0.0
 21
1.0
 31
0.0
  1
57
 40
3.0
 41
4.6617100372
  0
LINE
  5
297
100
AcDbEntity
  8
0
100
AcDbLine
 62
2
  6
CONTINUOUS
 10
82.4220064203
 20
237.4958535621
 11
68.5156089663
 21
237.4958535621
  0
LINE
  5
298
100
AcDbEntity
  8
0
100
AcDbLine
 62
2
  6
CONTINUOUS
 10
82.9636284268
 20
180.4958535621
 11
68.5156089663
 21
180.4958535621
  0
LINE
  5
299
100
AcDbEntity
  8
0
100
AcDbLine
 62
2
  6
CONTINUOUS
 10
69.2656089663
 20
237.4958535621
 11
69.2656089663
 21
208.9958535621
  0
LINE
  5
29A
100
AcDbEntity
  8
0
100
AcDbLine
 62
2
  6
CONTINUOUS
 10
69.2656089663
 20
180.4958535621
 11
69.2656089663
 21
208.9958535621
  0
INSERT
  5
29B
100
AcDbEntity
  8
0
100
AcDbBlockReference
 62
2
  6
CONTINUOUS
  2
_CLOSED
 10
69.2656089663
 20
237.4958535621
 41
2.5
 42
2.5
 43
2.5
 50
90.0
  0
INSERT
  5
29C
100
AcDbEntity
  8
0
100
AcDbBlockReference
 62
2
  6
CONTINUOUS
  2
_CLOSED
 10
69.2656089663
 20
180.4958535621
 41
2.5
 42
2.5
 43
2.5
 50
270.0
  0
ENDBLK
  5
29D
100
AcDbEntity
  8
0
  6
BYBLOCK
 62
0
100
AcDbBlockEnd
  0
ENDSEC
  0
SECTION
  2
ENTITIES
  0
DIMENSION
  5
29E
100
AcDbEntity
  8
0
100
AcDbDimension
 62
2
  6
CONTINUOUS
  2
*D0
 10
150.0916454005
 20
102.2820689242
 11
158.0987920052
 21
111.5148965874
 70
163
  1
%%c<>
  3
DIMSTYLE_1
100
AcDbDiametricDimension
 15
93.7107434135
 25
57.502677558
  0
DIMENSION
  5
29F
100
AcDbEntity
  8
0
100
AcDbDimension
 62
2
  6
CONTINUOUS
  2
*D1
 10
57.7946225259
 20
164.4958535621
 11
57.7946225259
 21
200.9989590864
 70
160
  3
DIMSTYLE_2
100
AcDbAlignedDimension
 13
82.8490876216
 23
237.4958535621
 14
84.5104446851
 24
164.4958535621
 50
270.0
100
AcDbRotatedDimension
  0
DIMENSION
  5
2A0
100
AcDbEntity
  8
0
100
AcDbDimension
 62
2
  6
CONTINUOUS
  2
*D2
 10
173.5332741317
 20
226.4958535621
 11
173.5332741317
 21
231.8372502297
 70
160
  3
DIMSTYLE_3
100
AcDbAlignedDimension
 13
160.7918417929
 23
237.4958535621
 14
161.010598189
 24
226.4958535621
 50
270.0
100
AcDbRotatedDimension
  0
DIMENSION
  5
2A1
100
AcDbEntity
  8
0
100
AcDbDimension
 62
2
  6
CONTINUOUS
  2
*D3
 10
150.901194407
 20
151.9073480236
 11
121.901194407
 21
151.9073480236
 70
160
  1
%%c<>
  3
DIMSTYLE_2
100
AcDbAlignedDimension
 13
92.901194407
 23
164.5269928477
 14
150.901194407
 24
164.3655361535
100
AcDbRotatedDimension
  0
DIMENSION
  5
2A2
100
AcDbEntity
  8
0
100
AcDbDimension
 62
2
  6
CONTINUOUS
  2
*D4
 10
69.2656089663
 20
180.4958535621
 11
69.2656089663
 21
208.9878055624
 70
160
  3
DIMSTYLE_2
100
AcDbAlignedDimension
 13
83.1720064203
 23
237.4958535621
 14
83.7136284268
 24
180.4958535621
 50
270.0
100
AcDbRotatedDimension
  0
LINE
  5
2A3
100
AcDbEntity
  8
0
100
AcDbLine
 62
2
  6
CONTINUOUS
 10
319.8215188711
 20
50.4217920391
 11
409.8215188711
 21
50.4217920391
  0
LINE
  5
2A4
100
AcDbEntity
  8
0
100
AcDbLine
 62
2
  6
CONTINUOUS
 10
319.8215188711
 20
50.4217920391
 11
319.8215188711
 21
10.4217920391
  0
LINE
  5
2A5
100
AcDbEntity
  8
0
100
AcDbLine
 62
2
  6
CONTINUOUS
 10
349.8215188711
 20
44.4217920391
 11
409.8215188711
 21
44.4217920391
  0
LINE
  5
2A6
100
AcDbEntity
  8
0
100
AcDbLine
 62
2
  6
CONTINUOUS
 10
349.8215188711
 20
38.4217920391
 11
409.8215188711
 21
38.4217920391
  0
LINE
  5
2A7
100
AcDbEntity
  8
0
100
AcDbLine
 62
2
  6
CONTINUOUS
 10
349.8215188711
 20
28.4217920391
 11
409.8215188711
 21
28.4217920391
  0
LINE
  5
2A8
100
AcDbEntity
  8
0
100
AcDbLine
 62
2
  6
CONTINUOUS
 10
319.8215188711
 20
23.4217920391
 11
409.8215188711
 21
23.4217920391
  0
LINE
  5
2A9
100
AcDbEntity
  8
0
100
AcDbLine
 62
2
  6
CONTINUOUS
 10
319.8215188711
 20
10.4217920391
 11
409.8215188711
 21
10.4217920391
  0
LINE
  5
2AA
100
AcDbEntity
  8
0
100
AcDbLine
 62
2
  6
CONTINUOUS
 10
349.8215188711
 20
50.4217920391
 11
349.8215188711
 21
23.4217920391
  0
LINE
  5
2AB
100
AcDbEntity
  8
0
100
AcDbLine
 62
2
  6
CONTINUOUS
 10
389.8215188711
 20
50.4217920391
 11
389.8215188711
 21
38.4217920391
  0
LINE
  5
2AC
100
AcDbEntity
  8
0
100
AcDbLine
 62
2
  6
CONTINUOUS
 10
409.8215188711
 20
50.4217920391
 11
409.8215188711
 21
10.4217920391
  0
INSERT
  5
2AD
100
AcDbEntity
  8
0
100
AcDbBlockReference
 62
2
  6
CONTINUOUS
  2
LOGO2_BL0
 10
333.6475659158
 20
36.9217920391
  0
MTEXT
  5
2AE
100
AcDbEntity
  8
9_SOLID
100
AcDbMText
 62
2
  6
CONTINUOUS
  7
TEXTSTYLE_3
 71
1
 72
1
 10
351.3090188711
 20
48.9217920391
 30
0.0
 11
1.0
 21
0.0
 31
0.0
  1
2F2_C_001
 40
3.0
 41
31.6071428571
  0
MTEXT
  5
2AF
100
AcDbEntity
  8
0
100
AcDbMText
 62
2
  6
CONTINUOUS
  7
TEXTSTYLE_3
 71
1
 72
1
 10
391.3090188711
 20
49.1717920391
 30
0.0
 11
1.0
 21
0.0
 31
0.0
  1
Rev:00 
 40
3.5
 41
26.875
  0
MTEXT
  5
2B0
100
AcDbEntity
  8
9_SOLID
100
AcDbMText
 62
2
  6
CONTINUOUS
  7
TEXTSTYLE_3
 71
1
 72
1
 10
351.3090188711
 20
42.6717920391
 30
0.0
 11
1.0
 21
0.0
 31
0.0
  1
Scale:1:1
 40
3.5
 41
28.375
  0
MTEXT
  5
2B1
100
AcDbEntity
  8
9_SOLID
100
AcDbMText
 62
2
  6
CONTINUOUS
  7
TEXTSTYLE_3
 71
1
 72
1
 10
391.3090188711
 20
43.1717920391
 30
0.0
 11
1.0
 21
0.0
 31
0.0
  1
A3
 40
3.5
 41
9.25
  0
MTEXT
  5
2B2
100
AcDbEntity
  8
0
100
AcDbMText
 62
2
  6
CONTINUOUS
  7
TEXTSTYLE_3
 71
1
 72
1
 10
351.3090188711
 20
35.1717920391
 30
0.0
 11
1.0
 21
0.0
 31
0.0
  1
LITUS 2.4 
 40
3.5
 41
40.0
  0
MTEXT
  5
2B3
100
AcDbEntity
  8
0
100
AcDbMText
 62
2
  6
CONTINUOUS
  7
TEXTSTYLE_3
 71
1
 72
1
 10
351.3090188711
 20
27.1717920391
 30
0.0
 11
1.0
 21
0.0
 31
0.0
  1
DATE:06/07/2018 
 40
2.5
 41
45.9821428571
  0
MTEXT
  5
2B4
100
AcDbEntity
  8
9_SOLID
100
AcDbMText
 62
2
  6
CONTINUOUS
  7
TEXTSTYLE_3
 71
1
 72
1
 10
321.3090188711
 20
23.1092920391
 30
0.0
 11
1.0
 21
0.0
 31
0.0
  1
Any integral or partial reproductions are prohibited \Pwithout prior authorisation of L {\Ftxt.shx;\W0.190476;\H2.250000; }& L Luce & Light s.r.l., \Pin accordance with the law in force. \PAll rights reserved.
 40
2.25
 41
134.5982142857
  0
LINE
  5
2B5
100
AcDbEntity
  8
0
100
AcDbLine
 62
7
  6
CONTINUOUS
 10
0.0
 20
0.0
 11
0.0
 21
297.0
  0
LINE
  5
2B6
100
AcDbEntity
  8
0
100
AcDbLine
 62
7
  6
CONTINUOUS
 10
0.0
 20
0.0
 11
420.0
 21
0.0
  0
LINE
  5
2B7
100
AcDbEntity
  8
0
100
AcDbLine
 62
7
  6
CONTINUOUS
 10
0.0
 20
297.0
 11
420.0
 21
297.0
  0
LINE
  5
2B8
100
AcDbEntity
  8
0
100
AcDbLine
 62
7
  6
CONTINUOUS
 10
420.0
 20
0.0
 11
420.0
 21
297.0
  0
LINE
  5
2B9
100
AcDbEntity
  8
7_ALL_FEATURES
100
AcDbLine
 62
7
  6
CONTINUOUS
 10
86.401194407
 20
237.4958535621
 11
85.901194407
 21
236.9958535621
  0
LINE
  5
2BA
100
AcDbEntity
  8
7_ALL_FEATURES
100
AcDbLine
 62
7
  6
CONTINUOUS
 10
86.6511944073
 20
230.3958535624
 11
85.9011944073
 21
229.6458535624
  0
LINE
  5
2BB
100
AcDbEntity
  8
3_ALL_AXES
100
AcDbLine
 62
7
  6
CONTINUOUS
 10
99.901194407
 20
168.4958535621
 11
98.901194407
 21
169.4958535621
  0
LINE
  5
2BC
100
AcDbEntity
  8
7_ALL_FEATURES
100
AcDbLine
 62
7
  6
CONTINUOUS
 10
85.901194407
 20
236.9958535621
 11
85.901194407
 21
231.9958535621
  0
LINE
  5
2BD
100
AcDbEntity
  8
7_ALL_FEATURES
100
AcDbLine
 62
7
  6
CONTINUOUS
 10
85.901194407
 20
227.7458535621
 11
85.901194407
 21
229.6458535621
  0
LINE
  5
2BE
100
AcDbEntity
  8
7_ALL_FEATURES
100
AcDbLine
 62
7
  6
CONTINUOUS
 10
86.401194407
 20
231.4958535621
 11
86.401194407
 21
230.3958535621
  0
LINE
  5
2BF
100
AcDbEntity
  8
7_ALL_FEATURES
100
AcDbLine
 62
7
  6
CONTINUOUS
 10
103.401194407
 20
164.4958535621
 11
110.401194407
 21
164.4958535621
  0
LINE
  5
2C0
100
AcDbEntity
  8
7_ALL_FEATURES
100
AcDbLine
 62
7
  6
CONTINUOUS
 10
93.4011923868
 20
180.4958535621
 11
92.901194407
 21
180.9958515796
  0
LINE
  5
2C1
100
AcDbEntity
  8
3_ALL_AXES
100
AcDbLine
 62
9
  6
CONTINUOUS
 10
113.901194407
 20
167.9958535621
 11
113.401194407
 21
167.9958535621
  0
LINE
  5
2C2
100
AcDbEntity
  8
3_ALL_AXES
100
AcDbLine
 62
9
  6
CONTINUOUS
 10
112.401194407
 20
167.9958535621
 11
107.901194407
 21
167.9958535621
  0
LINE
  5
2C3
100
AcDbEntity
  8
3_ALL_AXES
100
AcDbLine
 62
9
  6
CONTINUOUS
 10
105.901194407
 20
167.9958535621
 11
101.401194407
 21
167.9958535621
  0
LINE
  5
2C4
100
AcDbEntity
  8
3_ALL_AXES
100
AcDbLine
 62
9
  6
CONTINUOUS
 10
100.401194407
 20
167.9958535621
 11
99.901194407
 21
167.9958535621
  0
LINE
  5
2C5
100
AcDbEntity
  8
3_ALL_AXES
100
AcDbLine
 62
7
  6
CONTINUOUS
 10
112.401194407
 20
168.4958535621
 11
107.901194407
 21
168.4958535621
  0
LINE
  5
2C6
100
AcDbEntity
  8
3_ALL_AXES
100
AcDbLine
 62
7
  6
CONTINUOUS
 10
105.901194407
 20
168.4958535621
 11
101.401194407
 21
168.4958535621
  0
LINE
  5
2C7
100
AcDbEntity
  8
3_ALL_AXES
100
AcDbLine
 62
7
  6
CONTINUOUS
 10
99.901194407
 20
168.4958535621
 11
100.401194407
 21
168.4958535621
  0
LINE
  5
2C8
100
AcDbEntity
  8
3_ALL_AXES
100
AcDbLine
 62
7
  6
CONTINUOUS
 10
113.401194407
 20
168.4958535621
 11
113.901194407
 21
168.4958535621
  0
LINE
  5
2C9
100
AcDbEntity
  8
02___PRT_ALL_AXES
100
AcDbLine
 62
7
  6
CONTINUOUS
 10
92.901194407
 20
198.2458535621
 11
92.901194407
 21
195.7458535621
  0
LINE
  5
2CA
100
AcDbEntity
  8
02___PRT_ALL_AXES
100
AcDbLine
 62
7
  6
CONTINUOUS
 10
92.901194407
 20
193.2458535621
 11
92.901194407
 21
190.7458535621
  0
LINE
  5
2CB
100
AcDbEntity
  8
02___PRT_ALL_AXES
100
AcDbLine
 62
7
  6
CONTINUOUS
 10
92.901194407
 20
188.2458535621
 11
92.901194407
 21
185.7458535621
  0
LINE
  5
2CC
100
AcDbEntity
  8
02___PRT_ALL_AXES
100
AcDbLine
 62
7
  6
CONTINUOUS
 10
92.901194407
 20
183.2458535621
 11
92.901194407
 21
180.9958515796
  0
LINE
  5
2CD
100
AcDbEntity
  8
7_ALL_FEATURES
100
AcDbLine
 62
7
  6
CONTINUOUS
 10
92.901194407
 20
200.7458535621
 11
92.901194407
 21
203.2458535621
  0
LINE
  5
2CE
100
AcDbEntity
  8
7_ALL_FEATURES
100
AcDbLine
 62
7
  6
CONTINUOUS
 10
92.901194407
 20
205.7458535621
 11
92.901194407
 21
208.2458535621
  0
LINE
  5
2CF
100
AcDbEntity
  8
7_ALL_FEATURES
100
AcDbLine
 62
7
  6
CONTINUOUS
 10
92.901194407
 20
210.7458535621
 11
92.901194407
 21
225.9958535621
  0
LINE
  5
2D0
100
AcDbEntity
  8
7_ALL_FEATURES
100
AcDbLine
 62
7
  6
CONTINUOUS
 10
94.501194407
 20
210.7458535621
 11
94.501194407
 21
208.2458535621
  0
LINE
  5
2D1
100
AcDbEntity
  8
7_ALL_FEATURES
100
AcDbLine
 62
7
  6
CONTINUOUS
 10
94.501194407
 20
205.7458535621
 11
94.501194407
 21
203.2458535621
  0
LINE
  5
2D2
100
AcDbEntity
  8
7_ALL_FEATURES
100
AcDbLine
 62
7
  6
CONTINUOUS
 10
94.501194407
 20
200.7458535621
 11
94.501194407
 21
198.2458535621
  0
LINE
  5
2D3
100
AcDbEntity
  8
3_ALL_AXES
100
AcDbLine
 62
7
  6
CONTINUOUS
 10
114.901194407
 20
173.9958535621
 11
98.901194407
 21
173.9958535621
  0
LINE
  5
2D4
100
AcDbEntity
  8
7_ALL_FEATURES
100
AcDbLine
 62
7
  6
CONTINUOUS
 10
97.901194407
 20
195.7458535621
 11
97.901194407
 21
193.2458535621
  0
LINE
  5
2D5
100
AcDbEntity
  8
7_ALL_FEATURES
100
AcDbLine
 62
7
  6
CONTINUOUS
 10
97.901194407
 20
190.7458535621
 11
97.901194407
 21
188.2458535621
  0
LINE
  5
2D6
100
AcDbEntity
  8
7_ALL_FEATURES
100
AcDbLine
 62
7
  6
CONTINUOUS
 10
97.901194407
 20
185.7458535621
 11
97.901194407
 21
183.2458535621
  0
LINE
  5
2D7
100
AcDbEntity
  8
3_ALL_AXES
100
AcDbLine
 62
7
  6
CONTINUOUS
 10
114.901194407
 20
176.9958535621
 11
98.901194407
 21
176.9958535621
  0
LINE
  5
2D8
100
AcDbEntity
  8
3_ALL_AXES
100
AcDbLine
 62
7
  6
CONTINUOUS
 10
98.901194407
 20
180.4958535621
 11
98.901194407
 21
176.9958535621
  0
LINE
  5
2D9
100
AcDbEntity
  8
3_ALL_AXES
100
AcDbLine
 62
7
  6
CONTINUOUS
 10
98.901194407
 20
173.9958535621
 11
98.901194407
 21
169.4958535621
  0
LINE
  5
2DA
100
AcDbEntity
  8
3_ALL_AXES
100
AcDbLine
 62
7
  6
CONTINUOUS
 10
99.901194407
 20
167.9958535621
 11
99.901194407
 21
168.4958535621
  0
LINE
  5
2DB
100
AcDbEntity
  8
3_ALL_AXES
100
AcDbLine
 62
7
  6
CONTINUOUS
 10
100.401194407
 20
167.9958535621
 11
100.401194407
 21
168.4958535621
  0
LINE
  5
2DC
100
AcDbEntity
  8
3_ALL_AXES
100
AcDbLine
 62
7
  6
CONTINUOUS
 10
100.901194407
 20
176.9958535621
 11
100.901194407
 21
173.9958535621
  0
LINE
  5
2DD
100
AcDbEntity
  8
3_ALL_AXES
100
AcDbLine
 62
7
  6
CONTINUOUS
 10
101.401194407
 20
167.9958535621
 11
101.401194407
 21
168.4958535621
  0
LINE
  5
2DE
100
AcDbEntity
  8
3_ALL_AXES
100
AcDbLine
 62
7
  6
CONTINUOUS
 10
119.9362287524
 20
177.7958535621
 11
123.8661600615
 21
177.7958535621
  0
LINE
  5
2DF
100
AcDbEntity
  8
3_ALL_AXES
100
AcDbLine
 62
7
  6
CONTINUOUS
 10
118.101194407
 20
179.6158535621
 11
125.701194407
 21
179.6158535621
  0
LINE
  5
2E0
100
AcDbEntity
  8
7_ALL_FEATURES
100
AcDbLine
 62
3
  6
CONTINUOUS
 10
116.401194407
 20
179.9958535621
 11
120.5197988447
 21
179.9958535621
  0
LINE
  5
2E1
100
AcDbEntity
  8
3_ALL_AXES
100
AcDbLine
 62
7
  6
CONTINUOUS
 10
120.5197988447
 20
179.9958535621
 11
123.2825899693
 21
179.9958535621
  0
LINE
  5
2E2
100
AcDbEntity
  8
7_ALL_FEATURES
100
AcDbLine
 62
3
  6
CONTINUOUS
 10
123.2825899693
 20
179.9958535621
 11
127.401194407
 21
179.9958535621
  0
LINE
  5
2E3
100
AcDbEntity
  8
7_ALL_FEATURES
100
AcDbLine
 62
7
  6
CONTINUOUS
 10
150.4011936571
 20
180.4958535621
 11
127.401194407
 21
180.4958535621
  0
LINE
  5
2E4
100
AcDbEntity
  8
7_ALL_FEATURES
100
AcDbLine
 62
7
  6
CONTINUOUS
 10
116.401194407
 20
180.4958535621
 11
93.40119245
 21
180.4958535621
  0
LINE
  5
2E5
100
AcDbEntity
  8
7_ALL_FEATURES
100
AcDbLine
 62
9
  6
CONTINUOUS
 10
116.401194407
 20
180.5879300876
 11
127.401194407
 21
180.5879300876
  0
LINE
  5
2E6
100
AcDbEntity
  8
3_ALL_AXES
100
AcDbLine
 62
7
  6
CONTINUOUS
 10
102.901194407
 20
180.4958535621
 11
102.901194407
 21
176.9958535621
  0
LINE
  5
2E7
100
AcDbEntity
  8
3_ALL_AXES
100
AcDbLine
 62
7
  6
CONTINUOUS
 10
102.901194407
 20
173.9958535621
 11
102.901194407
 21
169.4958535621
  0
LINE
  5
2E8
100
AcDbEntity
  8
7_ALL_FEATURES
100
AcDbLine
 62
7
  6
CONTINUOUS
 10
127.401194407
 20
180.9958535621
 11
150.901194407
 21
180.9958542848
  0
LINE
  5
2E9
100
AcDbEntity
  8
7_ALL_FEATURES
100
AcDbLine
 62
7
  6
CONTINUOUS
 10
92.901194407
 20
180.9958515796
 11
116.401194407
 21
180.9958535621
  0
LINE
  5
2EA
100
AcDbEntity
  8
7_ALL_FEATURES
100
AcDbLine
 62
4
  6
CONTINUOUS
 10
118.901194407
 20
182.3765728417
 11
124.901194407
 21
182.3765728417
  0
LINE
  5
2EB
100
AcDbEntity
  8
7_ALL_FEATURES
100
AcDbLine
 62
7
  6
CONTINUOUS
 10
124.5278610736
 20
183.0371002422
 11
123.5178610736
 21
183.0371002422
  0
LINE
  5
2EC
100
AcDbEntity
  8
7_ALL_FEATURES
100
AcDbLine
 62
7
  6
CONTINUOUS
 10
120.5278610736
 20
183.0371002422
 11
119.5178610736
 21
183.0371002422
  0
LINE
  5
2ED
100
AcDbEntity
  8
7_ALL_FEATURES
100
AcDbLine
 62
7
  6
CONTINUOUS
 10
92.901194407
 20
183.2458535621
 11
116.401194407
 21
183.2458535621
  0
LINE
  5
2EE
100
AcDbEntity
  8
7_ALL_FEATURES
100
AcDbLine
 62
7
  6
CONTINUOUS
 10
127.401194407
 20
183.2458535621
 11
150.901194407
 21
183.2458535621
  0
LINE
  5
2EF
100
AcDbEntity
  8
3_ALL_AXES
100
AcDbLine
 62
7
  6
CONTINUOUS
 10
105.901194407
 20
167.9958535621
 11
105.901194407
 21
168.4958535621
  0
LINE
  5
2F0
100
AcDbEntity
  8
3_ALL_AXES
100
AcDbLine
 62
7
  6
CONTINUOUS
 10
107.901194407
 20
167.9958535621
 11
107.901194407
 21
168.4958535621
  0
LINE
  5
2F1
100
AcDbEntity
  8
7_ALL_FEATURES
100
AcDbLine
 62
7
  6
CONTINUOUS
 10
92.901194407
 20
185.7458535621
 11
116.401194407
 21
185.7458535621
  0
LINE
  5
2F2
100
AcDbEntity
  8
7_ALL_FEATURES
100
AcDbLine
 62
7
  6
CONTINUOUS
 10
127.401194407
 20
185.7458535621
 11
150.901194407
 21
185.7458535621
  0
LINE
  5
2F3
100
AcDbEntity
  8
7_ALL_FEATURES
100
AcDbLine
 62
4
  6
CONTINUOUS
 10
124.901194407
 20
187.6986378408
 11
118.901194407
 21
187.6986378408
  0
LINE
  5
2F4
100
AcDbEntity
  8
3_ALL_AXES
100
AcDbLine
 62
7
  6
CONTINUOUS
 10
110.901194407
 20
180.4958535621
 11
110.901194407
 21
176.9958535621
  0
LINE
  5
2F5
100
AcDbEntity
  8
3_ALL_AXES
100
AcDbLine
 62
7
  6
CONTINUOUS
 10
110.901194407
 20
173.9958535621
 11
110.901194407
 21
169.4958535621
  0
LINE
  5
2F6
100
AcDbEntity
  8
7_ALL_FEATURES
100
AcDbLine
 62
7
  6
CONTINUOUS
 10
92.901194407
 20
188.2458535621
 11
116.401194407
 21
188.2458535621
  0
LINE
  5
2F7
100
AcDbEntity
  8
7_ALL_FEATURES
100
AcDbLine
 62
7
  6
CONTINUOUS
 10
127.401194407
 20
188.2458535621
 11
150.901194407
 21
188.2458535621
  0
LINE
  5
2F8
100
AcDbEntity
  8
7_ALL_FEATURES
100
AcDbLine
 62
9
  6
CONTINUOUS
 10
116.401194407
 20
189.487280595
 11
127.401194407
 21
189.487280595
  0
LINE
  5
2F9
100
AcDbEntity
  8
7_ALL_FEATURES
100
AcDbLine
 62
7
  6
CONTINUOUS
 10
92.901194407
 20
190.7458535621
 11
116.401194407
 21
190.7458535621
  0
LINE
  5
2FA
100
AcDbEntity
  8
7_ALL_FEATURES
100
AcDbLine
 62
7
  6
CONTINUOUS
 10
127.401194407
 20
190.7458535621
 11
150.901194407
 21
190.7458535621
  0
LINE
  5
2FB
100
AcDbEntity
  8
03___PRT_ALL_CURVES
100
AcDbLine
 62
40
  6
CONTINUOUS
 10
127.401194407
 20
180.5879300876
 11
116.401194407
 21
189.487280595
  0
LINE
  5
2FC
100
AcDbEntity
  8
7_ALL_FEATURES
100
AcDbLine
 62
4
  6
CONTINUOUS
 10
122.9194279507
 20
182.8744815894
 11
121.2401022121
 21
184.7002365763
  0
LINE
  5
2FD
100
AcDbEntity
  8
3_ALL_AXES
100
AcDbLine
 62
7
  6
CONTINUOUS
 10
112.401194407
 20
167.9958535621
 11
112.401194407
 21
168.4958535621
  0
LINE
  5
2FE
100
AcDbEntity
  8
3_ALL_AXES
100
AcDbLine
 62
7
  6
CONTINUOUS
 10
112.901194407
 20
176.9958535621
 11
112.901194407
 21
173.9958535621
  0
LINE
  5
2FF
100
AcDbEntity
  8
3_ALL_AXES
100
AcDbLine
 62
7
  6
CONTINUOUS
 10
113.401194407
 20
167.9958535621
 11
113.401194407
 21
168.4958535621
  0
LINE
  5
300
100
AcDbEntity
  8
3_ALL_AXES
100
AcDbLine
 62
7
  6
CONTINUOUS
 10
113.901194407
 20
167.9958535621
 11
113.901194407
 21
168.4958535621
  0
LINE
  5
301
100
AcDbEntity
  8
7_ALL_FEATURES
100
AcDbLine
 62
7
  6
CONTINUOUS
 10
114.8292427845
 20
198.2458535621
 11
114.8292427845
 21
195.7458535621
  0
LINE
  5
302
100
AcDbEntity
  8
7_ALL_FEATURES
100
AcDbLine
 62
7
  6
CONTINUOUS
 10
114.8292427845
 20
193.2458535621
 11
114.8292427845
 21
190.7458535621
  0
LINE
  5
303
100
AcDbEntity
  8
7_ALL_FEATURES
100
AcDbLine
 62
7
  6
CONTINUOUS
 10
114.8292427845
 20
188.2458535621
 11
114.8292427845
 21
185.7458535621
  0
LINE
  5
304
100
AcDbEntity
  8
7_ALL_FEATURES
100
AcDbLine
 62
7
  6
CONTINUOUS
 10
114.8292427845
 20
183.2458535621
 11
114.8292427845
 21
180.9958535621
  0
LINE
  5
305
100
AcDbEntity
  8
3_ALL_AXES
100
AcDbLine
 62
7
  6
CONTINUOUS
 10
114.901194407
 20
180.4958535621
 11
114.901194407
 21
176.9958535621
  0
LINE
  5
306
100
AcDbEntity
  8
3_ALL_AXES
100
AcDbLine
 62
7
  6
CONTINUOUS
 10
114.901194407
 20
173.9958535621
 11
114.901194407
 21
169.4958535621
  0
LINE
  5
307
100
AcDbEntity
  8
7_ALL_FEATURES
100
AcDbLine
 62
7
  6
CONTINUOUS
 10
92.901194407
 20
193.2458535621
 11
116.401194407
 21
193.2458535621
  0
LINE
  5
308
100
AcDbEntity
  8
7_ALL_FEATURES
100
AcDbLine
 62
7
  6
CONTINUOUS
 10
127.401194407
 20
193.2458535621
 11
150.901194407
 21
193.2458535621
  0
LINE
  5
309
100
AcDbEntity
  8
7_ALL_FEATURES
100
AcDbLine
 62
7
  6
CONTINUOUS
 10
85.9011944071
 20
227.745853562
 11
87.1511944071
 21
226.495853562
  0
LINE
  5
30A
100
AcDbEntity
  8
7_ALL_FEATURES
100
AcDbLine
 62
3
  6
CONTINUOUS
 10
116.401194407
 20
194.294826501
 11
116.401194407
 21
179.9958535621
  0
LINE
  5
30B
100
AcDbEntity
  8
3_ALL_AXES
100
AcDbLine
 62
7
  6
CONTINUOUS
 10
118.101194407
 20
179.9958535621
 11
118.101194407
 21
179.6158535621
  0
LINE
  5
30C
100
AcDbEntity
  8
7_ALL_FEATURES
100
AcDbLine
 62
4
  6
CONTINUOUS
 10
118.901194407
 20
187.6986378408
 11
118.901194407
 21
182.3765728417
  0
LINE
  5
30D
100
AcDbEntity
  8
7_ALL_FEATURES
100
AcDbLine
 62
9
  6
CONTINUOUS
 10
117.0007309202
 20
194.7471298699
 11
126.8016578938
 21
194.7471298699
  0
LINE
  5
30E
100
AcDbEntity
  8
7_ALL_FEATURES
100
AcDbLine
 62
3
  6
CONTINUOUS
 10
125.401194407
 20
195.7374070982
 11
118.401194407
 21
195.7374070982
  0
LINE
  5
30F
100
AcDbEntity
  8
7_ALL_FEATURES
100
AcDbLine
 62
7
  6
CONTINUOUS
 10
92.901194407
 20
195.7458535621
 11
150.901194407
 21
195.7458535621
  0
LINE
  5
310
100
AcDbEntity
  8
7_ALL_FEATURES
100
AcDbLine
 62
7
  6
CONTINUOUS
 10
86.401194407
 20
231.4958535621
 11
85.901194407
 21
231.9958535621
  0
LINE
  5
311
100
AcDbEntity
  8
7_ALL_FEATURES
100
AcDbLine
 62
7
  6
CONTINUOUS
 10
119.5178610736
 20
185.3462851112
 11
119.5178610736
 21
183.0371002422
  0
LINE
  5
312
100
AcDbEntity
  8
7_ALL_FEATURES
100
AcDbLine
 62
7
  6
CONTINUOUS
 10
92.901194407
 20
198.2458535621
 11
150.901194407
 21
198.2458535621
  0
LINE
  5
313
100
AcDbEntity
  8
7_ALL_FEATURES
100
AcDbLine
 62
7
  6
CONTINUOUS
 10
150.901194407
 20
200.7458535621
 11
92.901194407
 21
200.7458535621
  0
LINE
  5
314
100
AcDbEntity
  8
7_ALL_FEATURES
100
AcDbLine
 62
3
  6
CONTINUOUS
 10
126.8016578938
 20
194.7471298699
 11
125.401194407
 21
195.7374070982
  0
LINE
  5
315
100
AcDbEntity
  8
7_ALL_FEATURES
100
AcDbLine
 62
7
  6
CONTINUOUS
 10
92.4011944073
 20
226.4958535618
 11
92.9011944073
 21
225.9958535618
  0
LINE
  5
316
100
AcDbEntity
  8
7_ALL_FEATURES
100
AcDbLine
 62
7
  6
CONTINUOUS
 10
123.5178610736
 20
185.3462851112
 11
123.5178610736
 21
183.0371002422
  0
LINE
  5
317
100
AcDbEntity
  8
7_ALL_FEATURES
100
AcDbLine
 62
4
  6
CONTINUOUS
 10
124.901194407
 20
182.3765728417
 11
124.901194407
 21
187.6986378408
  0
LINE
  5
318
100
AcDbEntity
  8
3_ALL_AXES
100
AcDbLine
 62
7
  6
CONTINUOUS
 10
125.701194407
 20
179.9958535621
 11
125.701194407
 21
179.6158535621
  0
LINE
  5
319
100
AcDbEntity
  8
7_ALL_FEATURES
100
AcDbLine
 62
7
  6
CONTINUOUS
 10
151.401194407
 20
226.4958535621
 11
150.901194407
 21
225.9958535621
  0
LINE
  5
31A
100
AcDbEntity
  8
7_ALL_FEATURES
100
AcDbLine
 62
7
  6
CONTINUOUS
 10
157.401194407
 20
231.4958535621
 11
157.901194407
 21
231.9958535621
  0
LINE
  5
31B
100
AcDbEntity
  8
7_ALL_FEATURES
100
AcDbLine
 62
3
  6
CONTINUOUS
 10
118.401194407
 20
195.7374070982
 11
117.0007309202
 21
194.7471298699
  0
LINE
  5
31C
100
AcDbEntity
  8
7_ALL_FEATURES
100
AcDbLine
 62
7
  6
CONTINUOUS
 10
150.901194407
 20
203.2458535621
 11
92.901194407
 21
203.2458535621
  0
LINE
  5
31D
100
AcDbEntity
  8
7_ALL_FEATURES
100
AcDbLine
 62
3
  6
CONTINUOUS
 10
127.401194407
 20
179.9958535621
 11
127.401194407
 21
194.294826501
  0
LINE
  5
31E
100
AcDbEntity
  8
7_ALL_FEATURES
100
AcDbLine
 62
7
  6
CONTINUOUS
 10
128.9731460294
 20
198.2458535621
 11
128.9731460294
 21
195.7458535621
  0
LINE
  5
31F
100
AcDbEntity
  8
7_ALL_FEATURES
100
AcDbLine
 62
7
  6
CONTINUOUS
 10
128.9731460294
 20
193.2458535621
 11
128.9731460294
 21
190.7458535621
  0
LINE
  5
320
100
AcDbEntity
  8
7_ALL_FEATURES
100
AcDbLine
 62
7
  6
CONTINUOUS
 10
128.9731460294
 20
188.2458535621
 11
128.9731460294
 21
185.7458535621
  0
LINE
  5
321
100
AcDbEntity
  8
7_ALL_FEATURES
100
AcDbLine
 62
7
  6
CONTINUOUS
 10
128.9731460294
 20
183.2458535621
 11
128.9731460294
 21
180.9958535621
  0
LINE
  5
322
100
AcDbEntity
  8
7_ALL_FEATURES
100
AcDbLine
 62
7
  6
CONTINUOUS
 10
157.9011944069
 20
227.745853562
 11
156.6511944069
 21
226.495853562
  0
LINE
  5
323
100
AcDbEntity
  8
7_ALL_FEATURES
100
AcDbLine
 62
7
  6
CONTINUOUS
 10
150.901194407
 20
205.7458535621
 11
92.901194407
 21
205.7458535621
  0
LINE
  5
324
100
AcDbEntity
  8
7_ALL_FEATURES
100
AcDbLine
 62
7
  6
CONTINUOUS
 10
150.901194407
 20
208.2458535621
 11
92.901194407
 21
208.2458535621
  0
LINE
  5
325
100
AcDbEntity
  8
7_ALL_FEATURES
100
AcDbLine
 62
7
  6
CONTINUOUS
 10
150.901194407
 20
210.7458535621
 11
92.901194407
 21
210.7458535621
  0
LINE
  5
326
100
AcDbEntity
  8
7_ALL_FEATURES
100
AcDbLine
 62
4
  6
CONTINUOUS
 10
122.3138911015
 20
183.3407366282
 11
122.8077934127
 21
183.85368196
  0
LINE
  5
327
100
AcDbEntity
  8
7_ALL_FEATURES
100
AcDbLine
 62
4
  6
CONTINUOUS
 10
121.1180597902
 20
183.9857402484
 11
122.0237560531
 21
184.6411801435
  0
LINE
  5
328
100
AcDbEntity
  8
3_ALL_AXES
100
AcDbLine
 62
7
  6
CONTINUOUS
 10
113.901194407
 20
168.4958535621
 11
114.901194407
 21
169.4958535621
  0
LINE
  5
329
100
AcDbEntity
  8
7_ALL_FEATURES
100
AcDbLine
 62
7
  6
CONTINUOUS
 10
145.901194407
 20
195.7458535621
 11
145.901194407
 21
193.2458535621
  0
LINE
  5
32A
100
AcDbEntity
  8
7_ALL_FEATURES
100
AcDbLine
 62
7
  6
CONTINUOUS
 10
145.901194407
 20
190.7458535621
 11
145.901194407
 21
188.2458535621
  0
LINE
  5
32B
100
AcDbEntity
  8
7_ALL_FEATURES
100
AcDbLine
 62
7
  6
CONTINUOUS
 10
145.901194407
 20
185.7458535621
 11
145.901194407
 21
183.2458535621
  0
LINE
  5
32C
100
AcDbEntity
  8
7_ALL_FEATURES
100
AcDbLine
 62
7
  6
CONTINUOUS
 10
149.301194407
 20
210.7458535621
 11
149.301194407
 21
208.2458535621
  0
LINE
  5
32D
100
AcDbEntity
  8
7_ALL_FEATURES
100
AcDbLine
 62
7
  6
CONTINUOUS
 10
149.301194407
 20
205.7458535621
 11
149.301194407
 21
203.2458535621
  0
LINE
  5
32E
100
AcDbEntity
  8
7_ALL_FEATURES
100
AcDbLine
 62
7
  6
CONTINUOUS
 10
149.301194407
 20
200.7458535621
 11
149.301194407
 21
198.2458535621
  0
LINE
  5
32F
100
AcDbEntity
  8
7_ALL_FEATURES
100
AcDbLine
 62
7
  6
CONTINUOUS
 10
150.901194407
 20
225.9958535621
 11
92.901194407
 21
225.9958535621
  0
LINE
  5
330
100
AcDbEntity
  8
7_ALL_FEATURES
100
AcDbLine
 62
7
  6
CONTINUOUS
 10
87.151194407
 20
226.4958535621
 11
156.651194407
 21
226.4958535621
  0
LINE
  5
331
100
AcDbEntity
  8
7_ALL_FEATURES
100
AcDbLine
 62
7
  6
CONTINUOUS
 10
85.901194407
 20
227.7458535621
 11
157.901194407
 21
227.7458535621
  0
LINE
  5
332
100
AcDbEntity
  8
02___PRT_ALL_AXES
100
AcDbLine
 62
7
  6
CONTINUOUS
 10
150.901194407
 20
198.2458535621
 11
150.901194407
 21
195.7458535621
  0
LINE
  5
333
100
AcDbEntity
  8
02___PRT_ALL_AXES
100
AcDbLine
 62
7
  6
CONTINUOUS
 10
150.901194407
 20
193.2458535621
 11
150.901194407
 21
190.7458535621
  0
LINE
  5
334
100
AcDbEntity
  8
02___PRT_ALL_AXES
100
AcDbLine
 62
7
  6
CONTINUOUS
 10
150.901194407
 20
188.2458535621
 11
150.901194407
 21
185.7458535621
  0
LINE
  5
335
100
AcDbEntity
  8
02___PRT_ALL_AXES
100
AcDbLine
 62
7
  6
CONTINUOUS
 10
150.901194407
 20
183.2458535621
 11
150.901194407
 21
180.9958542848
  0
LINE
  5
336
100
AcDbEntity
  8
7_ALL_FEATURES
100
AcDbLine
 62
7
  6
CONTINUOUS
 10
150.901194407
 20
200.7458535621
 11
150.901194407
 21
203.2458535621
  0
LINE
  5
337
100
AcDbEntity
  8
7_ALL_FEATURES
100
AcDbLine
 62
7
  6
CONTINUOUS
 10
150.901194407
 20
205.7458535621
 11
150.901194407
 21
208.2458535621
  0
LINE
  5
338
100
AcDbEntity
  8
7_ALL_FEATURES
100
AcDbLine
 62
7
  6
CONTINUOUS
 10
150.901194407
 20
210.7458535621
 11
150.901194407
 21
225.9958535621
  0
LINE
  5
339
100
AcDbEntity
  8
7_ALL_FEATURES
100
AcDbLine
 62
7
  6
CONTINUOUS
 10
85.901194407
 20
229.6458535621
 11
157.901194407
 21
229.6458535621
  0
LINE
  5
33A
100
AcDbEntity
  8
7_ALL_FEATURES
100
AcDbLine
 62
7
  6
CONTINUOUS
 10
157.401194407
 20
230.3958535621
 11
86.401194407
 21
230.3958535621
  0
LINE
  5
33B
100
AcDbEntity
  8
7_ALL_FEATURES
100
AcDbLine
 62
7
  6
CONTINUOUS
 10
157.401194407
 20
231.4958535621
 11
86.401194407
 21
231.4958535621
  0
LINE
  5
33C
100
AcDbEntity
  8
06___PRT_ALL_SURFS
100
AcDbLine
 62
7
  6
CONTINUOUS
 10
157.401194407
 20
231.4958535621
 11
86.401194407
 21
231.4958535621
  0
LINE
  5
33D
100
AcDbEntity
  8
7_ALL_FEATURES
100
AcDbLine
 62
7
  6
CONTINUOUS
 10
157.901194407
 20
231.9958535621
 11
85.901194407
 21
231.9958535621
  0
LINE
  5
33E
100
AcDbEntity
  8
7_ALL_FEATURES
100
AcDbLine
 62
7
  6
CONTINUOUS
 10
157.401194407
 20
231.4958535621
 11
157.401194407
 21
230.3958535621
  0
LINE
  5
33F
100
AcDbEntity
  8
7_ALL_FEATURES
100
AcDbLine
 62
7
  6
CONTINUOUS
 10
157.901194407
 20
236.9958535621
 11
157.901194407
 21
231.9958535621
  0
LINE
  5
340
100
AcDbEntity
  8
7_ALL_FEATURES
100
AcDbLine
 62
7
  6
CONTINUOUS
 10
157.901194407
 20
227.7458535621
 11
157.901194407
 21
229.6458535621
  0
LINE
  5
341
100
AcDbEntity
  8
7_ALL_FEATURES
100
AcDbLine
 62
7
  6
CONTINUOUS
 10
150.4011937203
 20
180.4958535621
 11
150.901194407
 21
180.9958542848
  0
LINE
  5
342
100
AcDbEntity
  8
7_ALL_FEATURES
100
AcDbLine
 62
7
  6
CONTINUOUS
 10
85.901194407
 20
236.9958535621
 11
157.901194407
 21
236.9958535621
  0
LINE
  5
343
100
AcDbEntity
  8
7_ALL_FEATURES
100
AcDbLine
 62
7
  6
CONTINUOUS
 10
86.4011964875
 20
237.4958535621
 11
157.4011923265
 21
237.4958535621
  0
LINE
  5
344
100
AcDbEntity
  8
7_ALL_FEATURES
100
AcDbLine
 62
7
  6
CONTINUOUS
 10
157.1511944067
 20
230.3958535624
 11
157.9011944067
 21
229.6458535624
  0
LINE
  5
345
100
AcDbEntity
  8
7_ALL_FEATURES
100
AcDbLine
 62
7
  6
CONTINUOUS
 10
157.401194407
 20
237.4958535621
 11
157.901194407
 21
236.9958535621
  0
LINE
  5
346
100
AcDbEntity
  8
7_ALL_FEATURES
100
AcDbLine
 62
7
  6
CONTINUOUS
 10
235.8461750495
 20
237.4958535621
 11
235.3461750495
 21
236.9958535621
  0
LINE
  5
347
100
AcDbEntity
  8
7_ALL_FEATURES
100
AcDbLine
 62
7
  6
CONTINUOUS
 10
236.0961750495
 20
230.3958535621
 11
235.3461750495
 21
229.6458535621
  0
LINE
  5
348
100
AcDbEntity
  8
7_ALL_FEATURES
100
AcDbLine
 62
7
  6
CONTINUOUS
 10
235.3461750495
 20
236.9958535621
 11
235.3461750495
 21
231.9958535621
  0
LINE
  5
349
100
AcDbEntity
  8
02___PRT_ALL_AXES
100
AcDbLine
 62
7
  6
CONTINUOUS
 10
235.3461750495
 20
229.6458535621
 11
235.3461750495
 21
227.7458535621
  0
LINE
  5
34A
100
AcDbEntity
  8
7_ALL_FEATURES
100
AcDbLine
 62
7
  6
CONTINUOUS
 10
235.8461750495
 20
231.4958535621
 11
235.8461750495
 21
230.3958535621
  0
LINE
  5
34B
100
AcDbEntity
  8
3_ALL_AXES
100
AcDbLine
 62
7
  6
CONTINUOUS
 10
271.3461750495
 20
164.4958535621
 11
274.8461750495
 21
164.4958535621
  0
LINE
  5
34C
100
AcDbEntity
  8
7_ALL_FEATURES
100
AcDbLine
 62
7
  6
CONTINUOUS
 10
267.8461750495
 20
164.4958535621
 11
274.8461750495
 21
164.4958535621
  0
LINE
  5
34D
100
AcDbEntity
  8
7_ALL_FEATURES
100
AcDbLine
 62
7
  6
CONTINUOUS
 10
243.7216750495
 20
180.4958535621
 11
243.2216750495
 21
180.9958535621
  0
LINE
  5
34E
100
AcDbEntity
  8
7_ALL_FEATURES
100
AcDbLine
 62
3
  6
CONTINUOUS
 10
242.837959519
 20
180.5879300876
 11
238.2052508735
 21
189.487280595
  0
LINE
  5
34F
100
AcDbEntity
  8
7_ALL_FEATURES
100
AcDbLine
 62
7
  6
CONTINUOUS
 10
243.2814649356
 20
180.8188043942
 11
238.6487562901
 21
189.7181549016
  0
LINE
  5
350
100
AcDbEntity
  8
3_ALL_AXES
100
AcDbLine
 62
9
  6
CONTINUOUS
 10
278.2743782798
 20
167.9958535621
 11
275.6763020685
 21
167.9958535621
  0
LINE
  5
351
100
AcDbEntity
  8
3_ALL_AXES
100
AcDbLine
 62
9
  6
CONTINUOUS
 10
264.4179718193
 20
167.9958535621
 11
267.0160480306
 21
167.9958535621
  0
LINE
  5
352
100
AcDbEntity
  8
3_ALL_AXES
100
AcDbLine
 62
9
  6
CONTINUOUS
 10
268.7480988382
 20
167.9958535621
 11
273.9442512609
 21
167.9958535621
  0
LINE
  5
353
100
AcDbEntity
  8
3_ALL_AXES
100
AcDbLine
 62
7
  6
CONTINUOUS
 10
278.2743782798
 20
168.4958535621
 11
275.6763020685
 21
168.4958535621
  0
LINE
  5
354
100
AcDbEntity
  8
3_ALL_AXES
100
AcDbLine
 62
7
  6
CONTINUOUS
 10
264.4179718193
 20
168.4958535621
 11
267.0160480306
 21
168.4958535621
  0
LINE
  5
355
100
AcDbEntity
  8
3_ALL_AXES
100
AcDbLine
 62
7
  6
CONTINUOUS
 10
268.7480988382
 20
168.4958535621
 11
273.9442512609
 21
168.4958535621
  0
LINE
  5
356
100
AcDbEntity
  8
02___PRT_ALL_AXES
100
AcDbLine
 62
7
  6
CONTINUOUS
 10
242.3461750495
 20
225.9958535621
 11
242.3461750495
 21
210.7458535621
  0
LINE
  5
357
100
AcDbEntity
  8
02___PRT_ALL_AXES
100
AcDbLine
 62
7
  6
CONTINUOUS
 10
242.3461750495
 20
208.2458535621
 11
242.3461750495
 21
205.7458535621
  0
LINE
  5
358
100
AcDbEntity
  8
02___PRT_ALL_AXES
100
AcDbLine
 62
7
  6
CONTINUOUS
 10
242.3461750495
 20
203.2458535621
 11
242.3461750495
 21
200.7458535621
  0
LINE
  5
359
100
AcDbEntity
  8
7_ALL_FEATURES
100
AcDbLine
 62
7
  6
CONTINUOUS
 10
243.2216750495
 20
198.2458535621
 11
243.2216750495
 21
195.7458535621
  0
LINE
  5
35A
100
AcDbEntity
  8
7_ALL_FEATURES
100
AcDbLine
 62
7
  6
CONTINUOUS
 10
243.2216750495
 20
193.2458535621
 11
243.2216750495
 21
190.7458535621
  0
LINE
  5
35B
100
AcDbEntity
  8
7_ALL_FEATURES
100
AcDbLine
 62
7
  6
CONTINUOUS
 10
243.2216750495
 20
188.2458535621
 11
243.2216750495
 21
185.7458535621
  0
LINE
  5
35C
100
AcDbEntity
  8
7_ALL_FEATURES
100
AcDbLine
 62
7
  6
CONTINUOUS
 10
243.2216750495
 20
183.2458535621
 11
243.2216750495
 21
180.9958535621
  0
LINE
  5
35D
100
AcDbEntity
  8
3_ALL_AXES
100
AcDbLine
 62
7
  6
CONTINUOUS
 10
243.5461750495
 20
179.6158535621
 11
243.5461750495
 21
179.9958535621
  0
LINE
  5
35E
100
AcDbEntity
  8
7_ALL_FEATURES
100
AcDbLine
 62
9
  6
CONTINUOUS
 10
243.8136714355
 20
179.9958535621
 11
243.8136714355
 21
180.4958535621
  0
LINE
  5
35F
100
AcDbEntity
  8
7_ALL_FEATURES
100
AcDbLine
 62
7
  6
CONTINUOUS
 10
243.9461750495
 20
210.7458535621
 11
243.9461750495
 21
208.2458535621
  0
LINE
  5
360
100
AcDbEntity
  8
7_ALL_FEATURES
100
AcDbLine
 62
7
  6
CONTINUOUS
 10
243.9461750495
 20
205.7458535621
 11
243.9461750495
 21
203.2458535621
  0
LINE
  5
361
100
AcDbEntity
  8
7_ALL_FEATURES
100
AcDbLine
 62
7
  6
CONTINUOUS
 10
243.9461750495
 20
200.7458535621
 11
243.9461750495
 21
198.2458535621
  0
LINE
  5
362
100
AcDbEntity
  8
3_ALL_AXES
100
AcDbLine
 62
7
  6
CONTINUOUS
 10
278.2743782798
 20
173.9958535621
 11
264.4179718193
 21
173.9958535621
  0
LINE
  5
363
100
AcDbEntity
  8
7_ALL_FEATURES
100
AcDbLine
 62
7
  6
CONTINUOUS
 10
238.9763872948
 20
193.9376890144
 11
238.6192498082
 21
194.294826501
  0
LINE
  5
364
100
AcDbEntity
  8
7_ALL_FEATURES
100
AcDbLine
 62
7
  6
CONTINUOUS
 10
245.3461750495
 20
183.2458535621
 11
245.3461750495
 21
185.4958535621
  0
LINE
  5
365
100
AcDbEntity
  8
7_ALL_FEATURES
100
AcDbLine
 62
7
  6
CONTINUOUS
 10
247.3461750495
 20
195.7458535621
 11
247.3461750495
 21
193.2458535621
  0
LINE
  5
366
100
AcDbEntity
  8
7_ALL_FEATURES
100
AcDbLine
 62
7
  6
CONTINUOUS
 10
247.3461750495
 20
190.7458535621
 11
247.3461750495
 21
188.2458535621
  0
LINE
  5
367
100
AcDbEntity
  8
0
100
AcDbLine
 62
2
  6
CONTINUOUS
 10
247.4295083829
 20
185.7458535621
 11
247.4295083829
 21
183.2458535621
  0
LINE
  5
368
100
AcDbEntity
  8
3_ALL_AXES
100
AcDbLine
 62
7
  6
CONTINUOUS
 10
278.2743782798
 20
176.9958535621
 11
264.4179718193
 21
176.9958535621
  0
LINE
  5
369
100
AcDbEntity
  8
7_ALL_FEATURES
100
AcDbLine
 62
7
  6
CONTINUOUS
 10
240.3586497264
 20
195.3838537076
 11
240.0050963358
 21
195.7374070982
  0
LINE
  5
36A
100
AcDbEntity
  8
3_ALL_AXES
100
AcDbLine
 62
7
  6
CONTINUOUS
 10
251.1461750495
 20
179.6158535621
 11
251.1461750495
 21
179.9958535621
  0
LINE
  5
36B
100
AcDbEntity
  8
7_ALL_FEATURES
100
AcDbLine
 62
7
  6
CONTINUOUS
 10
251.1461750495
 20
179.9958535621
 11
251.1461750495
 21
180.4958535621
  0
LINE
  5
36C
100
AcDbEntity
  8
3_ALL_AXES
100
AcDbLine
 62
7
  6
CONTINUOUS
 10
297.3111750495
 20
177.7958535621
 11
293.3811750495
 21
177.7958535621
  0
LINE
  5
36D
100
AcDbEntity
  8
3_ALL_AXES
100
AcDbLine
 62
7
  6
CONTINUOUS
 10
249.3111750495
 20
177.7958535621
 11
245.3811750495
 21
177.7958535621
  0
LINE
  5
36E
100
AcDbEntity
  8
3_ALL_AXES
100
AcDbLine
 62
7
  6
CONTINUOUS
 10
299.1461750495
 20
179.6158535621
 11
291.5461750495
 21
179.6158535621
  0
LINE
  5
36F
100
AcDbEntity
  8
3_ALL_AXES
100
AcDbLine
 62
7
  6
CONTINUOUS
 10
251.1461750495
 20
179.6158535621
 11
243.5461750495
 21
179.6158535621
  0
LINE
  5
370
100
AcDbEntity
  8
3_ALL_AXES
100
AcDbLine
 62
7
  6
CONTINUOUS
 10
299.1461750495
 20
179.9958535621
 11
298.8786786636
 21
179.9958535621
  0
LINE
  5
371
100
AcDbEntity
  8
7_ALL_FEATURES
100
AcDbLine
 62
3
  6
CONTINUOUS
 10
298.8786786636
 20
179.9958535621
 11
291.5461750495
 21
179.9958535621
  0
LINE
  5
372
100
AcDbEntity
  8
7_ALL_FEATURES
100
AcDbLine
 62
3
  6
CONTINUOUS
 10
251.1461750495
 20
179.9958535621
 11
243.8136714355
 21
179.9958535621
  0
LINE
  5
373
100
AcDbEntity
  8
3_ALL_AXES
100
AcDbLine
 62
7
  6
CONTINUOUS
 10
243.8136714355
 20
179.9958535621
 11
243.5461750495
 21
179.9958535621
  0
LINE
  5
374
100
AcDbEntity
  8
7_ALL_FEATURES
100
AcDbLine
 62
7
  6
CONTINUOUS
 10
298.9706750495
 20
180.4958535621
 11
243.7216750495
 21
180.4958535621
  0
LINE
  5
375
100
AcDbEntity
  8
7_ALL_FEATURES
100
AcDbLine
 62
3
  6
CONTINUOUS
 10
239.0148191075
 20
194.7471298699
 11
240.0050963358
 21
195.7374070982
  0
LINE
  5
376
100
AcDbEntity
  8
7_ALL_FEATURES
100
AcDbLine
 62
7
  6
CONTINUOUS
 10
240.3586497264
 20
195.3838537076
 11
239.3683724981
 21
194.3935764793
  0
LINE
  5
377
100
AcDbEntity
  8
7_ALL_FEATURES
100
AcDbLine
 62
7
  6
CONTINUOUS
 10
243.2216750495
 20
180.9958535621
 11
299.4706750495
 21
180.9958535621
  0
LINE
  5
378
100
AcDbEntity
  8
7_ALL_FEATURES
100
AcDbLine
 62
7
  6
CONTINUOUS
 10
243.2216750495
 20
183.2458535621
 11
299.4706750495
 21
183.2458535621
  0
LINE
  5
379
100
AcDbEntity
  8
7_ALL_FEATURES
100
AcDbLine
 62
7
  6
CONTINUOUS
 10
297.3461750495
 20
185.4958535621
 11
293.3461750495
 21
185.4958535621
  0
LINE
  5
37A
100
AcDbEntity
  8
7_ALL_FEATURES
100
AcDbLine
 62
7
  6
CONTINUOUS
 10
299.4706750495
 20
185.7458535621
 11
243.2216750495
 21
185.7458535621
  0
LINE
  5
37B
100
AcDbEntity
  8
7_ALL_FEATURES
100
AcDbLine
 62
7
  6
CONTINUOUS
 10
243.2216750495
 20
188.2458535621
 11
299.4706750495
 21
188.2458535621
  0
LINE
  5
37C
100
AcDbEntity
  8
7_ALL_FEATURES
100
AcDbLine
 62
7
  6
CONTINUOUS
 10
299.4706750495
 20
190.7458535621
 11
243.2216750495
 21
190.7458535621
  0
LINE
  5
37D
100
AcDbEntity
  8
3_ALL_AXES
100
AcDbLine
 62
7
  6
CONTINUOUS
 10
264.4179718193
 20
180.4958535621
 11
264.4179718193
 21
176.9958535621
  0
LINE
  5
37E
100
AcDbEntity
  8
3_ALL_AXES
100
AcDbLine
 62
7
  6
CONTINUOUS
 10
264.4179718193
 20
167.2906922831
 11
264.4179718193
 21
173.9958535621
  0
LINE
  5
37F
100
AcDbEntity
  8
7_ALL_FEATURES
100
AcDbLine
 62
7
  6
CONTINUOUS
 10
245.5961750495
 20
185.7458535621
 11
245.3461750495
 21
185.4958535621
  0
LINE
  5
380
100
AcDbEntity
  8
7_ALL_FEATURES
100
AcDbLine
 62
7
  6
CONTINUOUS
 10
243.2216750495
 20
193.2458535621
 11
299.4706750495
 21
193.2458535621
  0
LINE
  5
381
100
AcDbEntity
  8
7_ALL_FEATURES
100
AcDbLine
 62
7
  6
CONTINUOUS
 10
236.5961750495
 20
226.4958535621
 11
235.3461750495
 21
227.7458535621
  0
LINE
  5
382
100
AcDbEntity
  8
3_ALL_AXES
100
AcDbLine
 62
7
  6
CONTINUOUS
 10
265.3461750495
 20
173.9958535621
 11
265.3461750495
 21
176.9958535621
  0
LINE
  5
383
100
AcDbEntity
  8
3_ALL_AXES
100
AcDbLine
 62
7
  6
CONTINUOUS
 10
267.0160480306
 20
167.9958535621
 11
267.0160480306
 21
168.4958535621
  0
LINE
  5
384
100
AcDbEntity
  8
7_ALL_FEATURES
100
AcDbLine
 62
9
  6
CONTINUOUS
 10
238.2052508735
 20
189.487280595
 11
238.6487562901
 21
189.7181549016
  0
LINE
  5
385
100
AcDbEntity
  8
7_ALL_FEATURES
100
AcDbLine
 62
7
  6
CONTINUOUS
 10
299.4706750495
 20
195.7458535621
 11
243.2216750495
 21
195.7458535621
  0
LINE
  5
386
100
AcDbEntity
  8
7_ALL_FEATURES
100
AcDbLine
 62
9
  6
CONTINUOUS
 10
299.8543905801
 20
180.5879300876
 11
299.4108851635
 21
180.8188043942
  0
LINE
  5
387
100
AcDbEntity
  8
7_ALL_FEATURES
100
AcDbLine
 62
7
  6
CONTINUOUS
 10
235.8461750495
 20
231.4958535621
 11
235.3461750495
 21
231.9958535621
  0
LINE
  5
388
100
AcDbEntity
  8
3_ALL_AXES
100
AcDbLine
 62
7
  6
CONTINUOUS
 10
268.7480988382
 20
167.9958535621
 11
268.7480988382
 21
168.4958535621
  0
LINE
  5
389
100
AcDbEntity
  8
3_ALL_AXES
100
AcDbLine
 62
7
  6
CONTINUOUS
 10
271.3461750495
 20
180.4958535621
 11
271.3461750495
 21
176.9958535621
  0
LINE
  5
38A
100
AcDbEntity
  8
3_ALL_AXES
100
AcDbLine
 62
7
  6
CONTINUOUS
 10
271.3461750495
 20
173.9958535621
 11
271.3461750495
 21
169.4958535621
  0
LINE
  5
38B
100
AcDbEntity
  8
7_ALL_FEATURES
100
AcDbLine
 62
7
  6
CONTINUOUS
 10
243.2216750495
 20
198.2458535621
 11
299.4706750495
 21
198.2458535621
  0
LINE
  5
38C
100
AcDbEntity
  8
7_ALL_FEATURES
100
AcDbLine
 62
7
  6
CONTINUOUS
 10
300.3461750495
 20
200.7458535621
 11
242.3461750495
 21
200.7458535621
  0
LINE
  5
38D
100
AcDbEntity
  8
7_ALL_FEATURES
100
AcDbLine
 62
7
  6
CONTINUOUS
 10
242.3461750495
 20
225.9958535621
 11
241.8461750495
 21
226.4958535621
  0
LINE
  5
38E
100
AcDbEntity
  8
3_ALL_AXES
100
AcDbLine
 62
7
  6
CONTINUOUS
 10
273.9442512609
 20
167.9958535621
 11
273.9442512609
 21
168.4958535621
  0
LINE
  5
38F
100
AcDbEntity
  8
7_ALL_FEATURES
100
AcDbLine
 62
7
  6
CONTINUOUS
 10
300.3461750495
 20
225.9958535621
 11
300.8461750495
 21
226.4958535621
  0
LINE
  5
390
100
AcDbEntity
  8
7_ALL_FEATURES
100
AcDbLine
 62
7
  6
CONTINUOUS
 10
306.8461750495
 20
231.4958535621
 11
307.3461750495
 21
231.9958535621
  0
LINE
  5
391
100
AcDbEntity
  8
7_ALL_FEATURES
100
AcDbLine
 62
7
  6
CONTINUOUS
 10
300.3461750495
 20
203.2458535621
 11
242.3461750495
 21
203.2458535621
  0
LINE
  5
392
100
AcDbEntity
  8
3_ALL_AXES
100
AcDbLine
 62
7
  6
CONTINUOUS
 10
275.6763020685
 20
167.9958535621
 11
275.6763020685
 21
168.4958535621
  0
LINE
  5
393
100
AcDbEntity
  8
3_ALL_AXES
100
AcDbLine
 62
7
  6
CONTINUOUS
 10
277.3461750495
 20
173.9958535621
 11
277.3461750495
 21
176.9958535621
  0
LINE
  5
394
100
AcDbEntity
  8
3_ALL_AXES
100
AcDbLine
 62
7
  6
CONTINUOUS
 10
278.2743782798
 20
180.4958535621
 11
278.2743782798
 21
176.9958535621
  0
LINE
  5
395
100
AcDbEntity
  8
3_ALL_AXES
100
AcDbLine
 62
7
  6
CONTINUOUS
 10
278.2743782798
 20
167.2906922831
 11
278.2743782798
 21
173.9958535621
  0
LINE
  5
396
100
AcDbEntity
  8
7_ALL_FEATURES
100
AcDbLine
 62
7
  6
CONTINUOUS
 10
306.0961750495
 20
226.4958535621
 11
307.3461750495
 21
227.7458535621
  0
LINE
  5
397
100
AcDbEntity
  8
7_ALL_FEATURES
100
AcDbLine
 62
9
  6
CONTINUOUS
 10
242.837959519
 20
180.5879300876
 11
243.2814649356
 21
180.8188043942
  0
LINE
  5
398
100
AcDbEntity
  8
7_ALL_FEATURES
100
AcDbLine
 62
7
  6
CONTINUOUS
 10
300.3461750495
 20
205.7458535621
 11
242.3461750495
 21
205.7458535621
  0
LINE
  5
399
100
AcDbEntity
  8
7_ALL_FEATURES
100
AcDbLine
 62
7
  6
CONTINUOUS
 10
300.3461750495
 20
208.2458535621
 11
242.3461750495
 21
208.2458535621
  0
LINE
  5
39A
100
AcDbEntity
  8
7_ALL_FEATURES
100
AcDbLine
 62
9
  6
CONTINUOUS
 10
304.4870992255
 20
189.487280595
 11
304.043593809
 21
189.7181549016
  0
LINE
  5
39B
100
AcDbEntity
  8
7_ALL_FEATURES
100
AcDbLine
 62
7
  6
CONTINUOUS
 10
300.3461750495
 20
210.7458535621
 11
242.3461750495
 21
210.7458535621
  0
LINE
  5
39C
100
AcDbEntity
  8
7_ALL_FEATURES
100
AcDbLine
 62
7
  6
CONTINUOUS
 10
297.0961750495
 20
185.7458535621
 11
297.3461750495
 21
185.4958535621
  0
LINE
  5
39D
100
AcDbEntity
  8
3_ALL_AXES
100
AcDbLine
 62
7
  6
CONTINUOUS
 10
291.5461750495
 20
179.6158535621
 11
291.5461750495
 21
179.9958535621
  0
LINE
  5
39E
100
AcDbEntity
  8
7_ALL_FEATURES
100
AcDbLine
 62
7
  6
CONTINUOUS
 10
291.5461750495
 20
179.9958535621
 11
291.5461750495
 21
180.4958535621
  0
LINE
  5
39F
100
AcDbEntity
  8
7_ALL_FEATURES
100
AcDbLine
 62
7
  6
CONTINUOUS
 10
303.323977601
 20
194.3935764793
 11
302.3337003727
 21
195.3838537076
  0
LINE
  5
3A0
100
AcDbEntity
  8
7_ALL_FEATURES
100
AcDbLine
 62
3
  6
CONTINUOUS
 10
302.6872537632
 20
195.7374070982
 11
303.6775309916
 21
194.7471298699
  0
LINE
  5
3A1
100
AcDbEntity
  8
0
100
AcDbLine
 62
2
  6
CONTINUOUS
 10
295.2628417162
 20
185.7458535621
 11
295.2628417162
 21
183.2458535621
  0
LINE
  5
3A2
100
AcDbEntity
  8
7_ALL_FEATURES
100
AcDbLine
 62
7
  6
CONTINUOUS
 10
295.3461750495
 20
195.7458535621
 11
295.3461750495
 21
193.2458535621
  0
LINE
  5
3A3
100
AcDbEntity
  8
7_ALL_FEATURES
100
AcDbLine
 62
7
  6
CONTINUOUS
 10
295.3461750495
 20
190.7458535621
 11
295.3461750495
 21
188.2458535621
  0
LINE
  5
3A4
100
AcDbEntity
  8
7_ALL_FEATURES
100
AcDbLine
 62
7
  6
CONTINUOUS
 10
297.3461750495
 20
183.2458535621
 11
297.3461750495
 21
185.4958535621
  0
LINE
  5
3A5
100
AcDbEntity
  8
7_ALL_FEATURES
100
AcDbLine
 62
7
  6
CONTINUOUS
 10
298.7461750495
 20
210.7458535621
 11
298.7461750495
 21
208.2458535621
  0
LINE
  5
3A6
100
AcDbEntity
  8
7_ALL_FEATURES
100
AcDbLine
 62
7
  6
CONTINUOUS
 10
298.7461750495
 20
205.7458535621
 11
298.7461750495
 21
203.2458535621
  0
LINE
  5
3A7
100
AcDbEntity
  8
7_ALL_FEATURES
100
AcDbLine
 62
7
  6
CONTINUOUS
 10
298.7461750495
 20
200.7458535621
 11
298.7461750495
 21
198.2458535621
  0
LINE
  5
3A8
100
AcDbEntity
  8
7_ALL_FEATURES
100
AcDbLine
 62
9
  6
CONTINUOUS
 10
298.8786786636
 20
179.9958535621
 11
298.8786786636
 21
180.4958535621
  0
LINE
  5
3A9
100
AcDbEntity
  8
3_ALL_AXES
100
AcDbLine
 62
7
  6
CONTINUOUS
 10
299.1461750495
 20
179.6158535621
 11
299.1461750495
 21
179.9958535621
  0
LINE
  5
3AA
100
AcDbEntity
  8
7_ALL_FEATURES
100
AcDbLine
 62
7
  6
CONTINUOUS
 10
302.3337003727
 20
195.3838537076
 11
302.6872537632
 21
195.7374070982
  0
LINE
  5
3AB
100
AcDbEntity
  8
7_ALL_FEATURES
100
AcDbLine
 62
7
  6
CONTINUOUS
 10
300.3461750495
 20
225.9958535621
 11
242.3461750495
 21
225.9958535621
  0
LINE
  5
3AC
100
AcDbEntity
  8
7_ALL_FEATURES
100
AcDbLine
 62
7
  6
CONTINUOUS
 10
236.5961750495
 20
226.4958535621
 11
306.0961750495
 21
226.4958535621
  0
LINE
  5
3AD
100
AcDbEntity
  8
7_ALL_FEATURES
100
AcDbLine
 62
7
  6
CONTINUOUS
 10
235.3461750495
 20
227.7458535621
 11
307.3461750495
 21
227.7458535621
  0
LINE
  5
3AE
100
AcDbEntity
  8
7_ALL_FEATURES
100
AcDbLine
 62
7
  6
CONTINUOUS
 10
299.4706750495
 20
198.2458535621
 11
299.4706750495
 21
195.7458535621
  0
LINE
  5
3AF
100
AcDbEntity
  8
7_ALL_FEATURES
100
AcDbLine
 62
7
  6
CONTINUOUS
 10
299.4706750495
 20
193.2458535621
 11
299.4706750495
 21
190.7458535621
  0
LINE
  5
3B0
100
AcDbEntity
  8
7_ALL_FEATURES
100
AcDbLine
 62
7
  6
CONTINUOUS
 10
299.4706750495
 20
188.2458535621
 11
299.4706750495
 21
185.7458535621
  0
LINE
  5
3B1
100
AcDbEntity
  8
7_ALL_FEATURES
100
AcDbLine
 62
7
  6
CONTINUOUS
 10
299.4706750495
 20
183.2458535621
 11
299.4706750495
 21
180.9958535621
  0
LINE
  5
3B2
100
AcDbEntity
  8
02___PRT_ALL_AXES
100
AcDbLine
 62
7
  6
CONTINUOUS
 10
300.3461750495
 20
225.9958535621
 11
300.3461750495
 21
210.7458535621
  0
LINE
  5
3B3
100
AcDbEntity
  8
02___PRT_ALL_AXES
100
AcDbLine
 62
7
  6
CONTINUOUS
 10
300.3461750495
 20
208.2458535621
 11
300.3461750495
 21
205.7458535621
  0
LINE
  5
3B4
100
AcDbEntity
  8
02___PRT_ALL_AXES
100
AcDbLine
 62
7
  6
CONTINUOUS
 10
300.3461750495
 20
203.2458535621
 11
300.3461750495
 21
200.7458535621
  0
LINE
  5
3B5
100
AcDbEntity
  8
7_ALL_FEATURES
100
AcDbLine
 62
7
  6
CONTINUOUS
 10
303.7159628042
 20
193.9376890144
 11
304.0731002908
 21
194.294826501
  0
LINE
  5
3B6
100
AcDbEntity
  8
7_ALL_FEATURES
100
AcDbLine
 62
7
  6
CONTINUOUS
 10
235.3461750495
 20
229.6458535621
 11
307.3461750495
 21
229.6458535621
  0
LINE
  5
3B7
100
AcDbEntity
  8
7_ALL_FEATURES
100
AcDbLine
 62
7
  6
CONTINUOUS
 10
306.8461750495
 20
230.3958535621
 11
235.8461750495
 21
230.3958535621
  0
LINE
  5
3B8
100
AcDbEntity
  8
7_ALL_FEATURES
100
AcDbLine
 62
7
  6
CONTINUOUS
 10
306.8461750495
 20
231.4958535621
 11
235.8461750495
 21
231.4958535621
  0
LINE
  5
3B9
100
AcDbEntity
  8
06___PRT_ALL_SURFS
100
AcDbLine
 62
7
  6
CONTINUOUS
 10
306.8461750495
 20
231.4958535621
 11
235.8461750495
 21
231.4958535621
  0
LINE
  5
3BA
100
AcDbEntity
  8
7_ALL_FEATURES
100
AcDbLine
 62
7
  6
CONTINUOUS
 10
307.3461750495
 20
231.9958535621
 11
235.3461750495
 21
231.9958535621
  0
LINE
  5
3BB
100
AcDbEntity
  8
7_ALL_FEATURES
100
AcDbLine
 62
7
  6
CONTINUOUS
 10
304.043593809
 20
189.7181549016
 11
299.4108851635
 21
180.8188043942
  0
LINE
  5
3BC
100
AcDbEntity
  8
7_ALL_FEATURES
100
AcDbLine
 62
7
  6
CONTINUOUS
 10
299.4706750495
 20
180.9958535621
 11
298.9706750495
 21
180.4958535621
  0
LINE
  5
3BD
100
AcDbEntity
  8
7_ALL_FEATURES
100
AcDbLine
 62
7
  6
CONTINUOUS
 10
306.8461750495
 20
231.4958535621
 11
306.8461750495
 21
230.3958535621
  0
LINE
  5
3BE
100
AcDbEntity
  8
7_ALL_FEATURES
100
AcDbLine
 62
7
  6
CONTINUOUS
 10
307.3461750495
 20
236.9958535621
 11
307.3461750495
 21
231.9958535621
  0
LINE
  5
3BF
100
AcDbEntity
  8
02___PRT_ALL_AXES
100
AcDbLine
 62
7
  6
CONTINUOUS
 10
307.3461750495
 20
229.6458535621
 11
307.3461750495
 21
227.7458535621
  0
LINE
  5
3C0
100
AcDbEntity
  8
7_ALL_FEATURES
100
AcDbLine
 62
3
  6
CONTINUOUS
 10
304.4870992255
 20
189.487280595
 11
299.8543905801
 21
180.5879300876
  0
LINE
  5
3C1
100
AcDbEntity
  8
7_ALL_FEATURES
100
AcDbLine
 62
7
  6
CONTINUOUS
 10
235.3461750495
 20
236.9958535621
 11
307.3461750495
 21
236.9958535621
  0
LINE
  5
3C2
100
AcDbEntity
  8
7_ALL_FEATURES
100
AcDbLine
 62
7
  6
CONTINUOUS
 10
235.8461750495
 20
237.4958535621
 11
306.8461750495
 21
237.4958535621
  0
LINE
  5
3C3
100
AcDbEntity
  8
7_ALL_FEATURES
100
AcDbLine
 62
7
  6
CONTINUOUS
 10
306.5961750495
 20
230.3958535621
 11
307.3461750495
 21
229.6458535621
  0
LINE
  5
3C4
100
AcDbEntity
  8
7_ALL_FEATURES
100
AcDbLine
 62
7
  6
CONTINUOUS
 10
306.8461750495
 20
237.4958535621
 11
307.3461750495
 21
236.9958535621
  0
CIRCLE
  5
3C5
100
AcDbEntity
  8
7_ALL_FEATURES
100
AcDbCircle
 62
7
  6
CONTINUOUS
 10
121.901194407
 20
79.8923732411
 40
36.0
  0
CIRCLE
  5
3C6
100
AcDbEntity
  8
7_ALL_FEATURES
100
AcDbCircle
 62
7
  6
CONTINUOUS
 10
121.901194407
 20
79.8923732411
 40
35.5
  0
ARC
  5
3C7
100
AcDbEntity
  8
3_ALL_AXES
100
AcDbCircle
 62
7
  6
CONTINUOUS
 10
122.0436372043
 20
181.4684936538
 40
4.1
100
AcDbArc
 50
296.3930257743
 51
333.1366968699
  0
ARC
  5
3C8
100
AcDbEntity
  8
3_ALL_AXES
100
AcDbCircle
 62
7
  6
CONTINUOUS
 10
121.7587516096
 20
181.4684936538
 40
4.1
100
AcDbArc
 50
206.8633031301
 51
243.6069742257
  0
ARC
  5
3C9
100
AcDbEntity
  8
7_ALL_FEATURES
100
AcDbCircle
 62
7
  6
CONTINUOUS
 10
110.401194407
 20
167.9958535621
 40
3.5
100
AcDbArc
 50
270.0
 51
360.0
  0
ARC
  5
3CA
100
AcDbEntity
  8
7_ALL_FEATURES
100
AcDbCircle
 62
7
  6
CONTINUOUS
 10
103.401194407
 20
167.9958535621
 40
3.5
100
AcDbArc
 50
180.0
 51
270.0
  0
ARC
  5
3CB
100
AcDbEntity
  8
7_ALL_FEATURES
100
AcDbCircle
 62
3
  6
CONTINUOUS
 10
300.4955504762
 20
191.5651493545
 40
4.5
100
AcDbArc
 50
332.5
 51
45.0
  0
ARC
  5
3CC
100
AcDbEntity
  8
7_ALL_FEATURES
100
AcDbCircle
 62
3
  6
CONTINUOUS
 10
242.1967996228
 20
191.5651493545
 40
4.5
100
AcDbArc
 50
135.0
 51
207.5
  0
ARC
  5
3CD
100
AcDbEntity
  8
3_ALL_AXES
100
AcDbCircle
 62
7
  6
CONTINUOUS
 10
295.4886178469
 20
181.4684936538
 40
4.1
100
AcDbArc
 50
296.3930257743
 51
333.1366968699
  0
ARC
  5
3CE
100
AcDbEntity
  8
3_ALL_AXES
100
AcDbCircle
 62
7
  6
CONTINUOUS
 10
295.2037322522
 20
181.4684936538
 40
4.1
100
AcDbArc
 50
206.8633031301
 51
243.6069742257
  0
ARC
  5
3CF
100
AcDbEntity
  8
3_ALL_AXES
100
AcDbCircle
 62
7
  6
CONTINUOUS
 10
247.4886178469
 20
181.4684936538
 40
4.1
100
AcDbArc
 50
296.3930257743
 51
333.1366968699
  0
ARC
  5
3D0
100
AcDbEntity
  8
3_ALL_AXES
100
AcDbCircle
 62
7
  6
CONTINUOUS
 10
247.2037322522
 20
181.4684936538
 40
4.1
100
AcDbArc
 50
206.8633031301
 51
243.6069742257
  0
ARC
  5
3D1
100
AcDbEntity
  8
7_ALL_FEATURES
100
AcDbCircle
 62
7
  6
CONTINUOUS
 10
300.4955504762
 20
191.5651493545
 40
4.0
100
AcDbArc
 50
332.5
 51
45.0
  0
ARC
  5
3D2
100
AcDbEntity
  8
7_ALL_FEATURES
100
AcDbCircle
 62
7
  6
CONTINUOUS
 10
242.1967996228
 20
191.5651493545
 40
4.0
100
AcDbArc
 50
135.0
 51
207.5
  0
ARC
  5
3D3
100
AcDbEntity
  8
3_ALL_AXES
100
AcDbCircle
 62
7
  6
CONTINUOUS
 10
274.8461750495
 20
167.9958535621
 40
3.5
100
AcDbArc
 50
270.0
 51
348.3747775532
  0
ARC
  5
3D4
100
AcDbEntity
  8
3_ALL_AXES
100
AcDbCircle
 62
7
  6
CONTINUOUS
 10
267.8461750495
 20
167.9958535621
 40
3.5
100
AcDbArc
 50
191.6252224468
 51
270.0
  0
ARC
  5
3D5
100
AcDbEntity
  8
7_ALL_FEATURES
100
AcDbCircle
 62
3
  6
CONTINUOUS
 10
298.8786786636
 20
181.0958535621
 40
1.1
100
AcDbArc
 50
270.0
 51
332.5
  0
ARC
  5
3D6
100
AcDbEntity
  8
7_ALL_FEATURES
100
AcDbCircle
 62
3
  6
CONTINUOUS
 10
243.8136714355
 20
181.0958535621
 40
1.1
100
AcDbArc
 50
207.5
 51
270.0
  0
ARC
  5
3D7
100
AcDbEntity
  8
7_ALL_FEATURES
100
AcDbCircle
 62
7
  6
CONTINUOUS
 10
298.8786786636
 20
181.0958535621
 40
0.6
100
AcDbArc
 50
279.7233819914
 51
332.5
  0
ARC
  5
3D8
100
AcDbEntity
  8
7_ALL_FEATURES
100
AcDbCircle
 62
7
  6
CONTINUOUS
 10
243.8136714355
 20
181.0958535621
 40
0.6
100
AcDbArc
 50
207.5
 51
260.2766180086
  0
SPLINE
  5
3D9
100
AcDbEntity
  8
7_ALL_FEATURES
100
AcDbSpline
 62
4
  6
CONTINUOUS
 70
0
 71
3
 72
136
 73
132
 74
0
 42
0.0000001
 43
0.0000001
 44
0.0000000001
 40
0.0
 40
0.0
 40
0.0
 40
0.0
 40
0.03125
 40
0.0625
 40
0.078125
 40
0.09375
 40
0.109375
 40
0.125
 40
0.140625
 40
0.1484375
 40
0.15234375
 40
0.15625
 40
0.16015625
 40
0.1640625
 40
0.1650390625
 40
0.166015625
 40
0.1665039062
 40
0.1669921875
 40
0.16796875
 40
0.169921875
 40
0.171875
 40
0.17578125
 40
0.1796875
 40
0.1875
 40
0.1953125
 40
0.203125
 40
0.21875
 40
0.25
 40
0.265625
 40
0.28125
 40
0.296875
 40
0.3046875
 40
0.3125
 40
0.3203125
 40
0.32421875
 40
0.328125
 40
0.330078125
 40
0.33203125
 40
0.3330078125
 40
0.3334960938
 40
0.333984375
 40
0.3349609375
 40
0.3359375
 40
0.33984375
 40
0.34375
 40
0.34765625
 40
0.3515625
 40
0.359375
 40
0.375
 40
0.390625
 40
0.40625
 40
0.421875
 40
0.4375
 40
0.453125
 40
0.4609375
 40
0.46875
 40
0.4765625
 40
0.484375
 40
0.48828125
 40
0.4921875
 40
0.494140625
 40
0.49609375
 40
0.498046875
 40
0.4990234375
 40
0.4995117188
 40
0.5
 40
0.5004882812
 40
0.5009765625
 40
0.501953125
 40
0.50390625
 40
0.505859375
 40
0.5078125
 40
0.51171875
 40
0.515625
 40
0.5234375
 40
0.53125
 40
0.5390625
 40
0.546875
 40
0.5625
 40
0.578125
 40
0.59375
 40
0.609375
 40
0.625
 40
0.640625
 40
0.6484375
 40
0.65234375
 40
0.65625
 40
0.66015625
 40
0.6640625
 40
0.6650390625
 40
0.666015625
 40
0.6665039062
 40
0.6669921875
 40
0.66796875
 40
0.669921875
 40
0.671875
 40
0.67578125
 40
0.6796875
 40
0.6875
 40
0.6953125
 40
0.703125
 40
0.71875
 40
0.734375
 40
0.75
 40
0.765625
 40
0.78125
 40
0.796875
 40
0.8046875
 40
0.8125
 40
0.8203125
 40
0.82421875
 40
0.828125
 40
0.830078125
 40
0.83203125
 40
0.8330078125
 40
0.8334960938
 40
0.833984375
 40
0.8349609375
 40
0.8359375
 40
0.83984375
 40
0.84375
 40
0.84765625
 40
0.8515625
 40
0.859375
 40
0.875
 40
0.890625
 40
0.90625
 40
0.921875
 40
0.9375
 40
0.96875
 40
1.0
 40
1.0
 40
1.0
 40
1.0
 10
121.1180597902
 20
183.9857402484
 30
0.0
 10
121.1119175943
 20
183.9802710943
 30
0.0
 10
121.0996332026
 20
183.9693327862
 30
0.0
 10
121.0842777131
 20
183.9556599009
 30
0.0
 10
121.0719933212
 20
183.9447215929
 30
0.0
 10
121.0627800283
 20
183.9365178612
 30
0.0
 10
121.0535667313
 20
183.9283141324
 30
0.0
 10
121.0443534496
 20
183.9201103926
 30
0.0
 10
121.0366756672
 20
183.913273977
 30
0.0
 10
121.031301313
 20
183.9084884189
 30
0.0
 10
121.0282301074
 20
183.9057539192
 30
0.0
 10
121.0259271146
 20
183.903702749
 30
0.0
 10
121.0236225495
 20
183.9016527078
 30
0.0
 10
121.0218985339
 20
183.9001120116
 30
0.0
 10
121.0207423344
 20
183.8990898034
 30
0.0
 10
121.0202707864
 20
183.8986565582
 30
0.0
 10
121.0198697493
 20
183.8983270502
 30
0.0
 10
121.0195557455
 20
183.8979350496
 30
0.0
 10
121.0190466764
 20
183.8972200131
 30
0.0
 10
121.0182983365
 20
183.8962136817
 30
0.0
 10
121.0171127835
 20
183.8945950853
 30
0.0
 10
121.015626805
 20
183.8925747387
 30
0.0
 10
121.0132514957
 20
183.8893405638
 30
0.0
 10
121.010281585
 20
183.8852984012
 30
0.0
 10
121.0067180235
 20
183.880447568
 30
0.0
 10
121.0019664926
 20
183.8739798735
 30
0.0
 10
120.9936513674
 20
183.8626613695
 30
0.0
 10
120.9841483446
 20
183.8497259526
 30
0.0
 10
120.974645328
 20
183.8367905309
 30
0.0
 10
120.9675180694
 20
183.8270889627
 30
0.0
 10
120.9615786717
 20
183.819004331
 30
0.0
 10
120.9568271889
 20
183.8125366063
 30
0.0
 10
120.95326348
 20
183.8076858659
 30
0.0
 10
120.9502940308
 20
183.8036434131
 30
0.0
 10
120.94791778
 20
183.8004098301
 30
0.0
 10
120.9464341976
 20
183.7983879772
 30
0.0
 10
120.9452437261
 20
183.7967724726
 30
0.0
 10
120.9445079083
 20
183.7957582695
 30
0.0
 10
120.9439763481
 20
183.7950573715
 30
0.0
 10
120.943698396
 20
183.7946427079
 30
0.0
 10
120.9435176065
 20
183.7941747467
 30
0.0
 10
120.9432584091
 20
183.7936080125
 30
0.0
 10
120.942663669
 20
183.7922328568
 30
0.0
 10
120.9417600784
 20
183.7901764208
 30
0.0
 10
120.9405618527
 20
183.7874309067
 30
0.0
 10
120.9393618718
 20
183.7846863554
 30
0.0
 10
120.9377625095
 20
183.7810266179
 30
0.0
 10
120.9349633401
 20
183.7746222337
 30
0.0
 10
120.9309646759
 20
183.7654730315
 30
0.0
 10
120.9261662149
 20
183.754494024
 30
0.0
 10
120.9213677711
 20
183.7435150071
 30
0.0
 10
120.9165693226
 20
183.7325359928
 30
0.0
 10
120.9117708755
 20
183.7215569777
 30
0.0
 10
120.9077721687
 20
183.7124077987
 30
0.0
 10
120.9045732047
 20
183.7050884553
 30
0.0
 10
120.902173978
 20
183.6995989483
 30
0.0
 10
120.8997747653
 20
183.694109439
 30
0.0
 10
120.897775378
 20
183.6895348552
 30
0.0
 10
120.8961759651
 20
183.6858751719
 30
0.0
 10
120.8951761115
 20
183.6835879067
 30
0.0
 10
120.8943767336
 20
183.6817580103
 30
0.0
 10
120.8937758176
 20
183.6803858185
 30
0.0
 10
120.8932794525
 20
183.679241592
 30
0.0
 10
120.8929233655
 20
183.6784420727
 30
0.0
 10
120.8927333645
 20
183.6779829572
 30
0.0
 10
120.892552898
 20
183.6776449513
 30
0.0
 10
120.8925175557
 20
183.6772827462
 30
0.0
 10
120.8924198117
 20
183.6768082469
 30
0.0
 10
120.8922723449
 20
183.6759739404
 30
0.0
 10
120.8920493475
 20
183.6747841302
 30
0.0
 10
120.8917870284
 20
183.6733554777
 30
0.0
 10
120.8914354262
 20
183.6714509152
 30
0.0
 10
120.8909965547
 20
183.6690701069
 30
0.0
 10
120.8902940074
 20
183.6652608723
 30
0.0
 10
120.8894159444
 20
183.6604993089
 30
0.0
 10
120.8883622168
 20
183.6547854414
 30
0.0
 10
120.8873085032
 20
183.6490715716
 30
0.0
 10
120.8859035468
 20
183.6414530794
 30
0.0
 10
120.8841473531
 20
183.6319299639
 30
0.0
 10
120.8820399195
 20
183.6205022254
 30
0.0
 10
120.8799324876
 20
183.6090744867
 30
0.0
 10
120.8778250502
 20
183.5976467487
 30
0.0
 10
120.8757176328
 20
183.5862190082
 30
0.0
 10
120.8739613896
 20
183.5766958988
 30
0.0
 10
120.8727321409
 20
183.5700297072
 30
0.0
 10
120.8720295233
 20
183.5662204783
 30
0.0
 10
120.8715030948
 20
183.5633634905
 30
0.0
 10
120.8709746223
 20
183.5605067554
 30
0.0
 10
120.8705839989
 20
183.5583634957
 30
0.0
 10
120.8703146705
 20
183.5569357576
 30
0.0
 10
120.8702157131
 20
183.5563392273
 30
0.0
 10
120.8701056077
 20
183.5558658274
 30
0.0
 10
120.8701086499
 20
183.5553784417
 30
0.0
 10
120.8701665449
 20
183.5545190184
 30
0.0
 10
120.870221823
 20
183.5532946614
 30
0.0
 10
120.8703255965
 20
183.5513337953
 30
0.0
 10
120.8704500649
 20
183.5488833615
 30
0.0
 10
120.8706521477
 20
183.5449623048
 30
0.0
 10
120.8709037448
 20
183.5400611084
 30
0.0
 10
120.8712060922
 20
183.5341796194
 30
0.0
 10
120.8716090714
 20
183.5263376527
 30
0.0
 10
120.8721128472
 20
183.516535188
 30
0.0
 10
120.8727173559
 20
183.504772233
 30
0.0
 10
120.8733218709
 20
183.4930092773
 30
0.0
 10
120.8739263827
 20
183.4812463216
 30
0.0
 10
120.8745309009
 20
183.4694833668
 30
0.0
 10
120.8750346475
 20
183.4596809016
 30
0.0
 10
120.8754376862
 20
183.4518389359
 30
0.0
 10
120.875739852
 20
183.4459574439
 30
0.0
 10
120.875992017
 20
183.4410562568
 30
0.0
 10
120.8761929413
 20
183.4371351812
 30
0.0
 10
120.8763203582
 20
183.4346847954
 30
0.0
 10
120.8764180795
 20
183.4327238308
 30
0.0
 10
120.8764887662
 20
183.4314997248
 30
0.0
 10
120.8765189854
 20
183.4306398505
 30
0.0
 10
120.87656639
 20
183.4301531878
 30
0.0
 10
120.8767273034
 20
183.4296842047
 30
0.0
 10
120.8768896473
 20
183.4290919329
 30
0.0
 10
120.8773112051
 20
183.4276754542
 30
0.0
 10
120.8779301299
 20
183.4255486472
 30
0.0
 10
120.8787630286
 20
183.4227140985
 30
0.0
 10
120.8795938768
 20
183.4198792304
 30
0.0
 10
120.8807023896
 20
183.4160995176
 30
0.0
 10
120.8826419538
 20
183.4094849684
 30
0.0
 10
120.8854129341
 20
183.4000356396
 30
0.0
 10
120.8887380357
 20
183.3886964334
 30
0.0
 10
120.8920631573
 20
183.3773572302
 30
0.0
 10
120.8953882735
 20
183.3660180263
 30
0.0
 10
120.8998217637
 20
183.3508990879
 30
0.0
 10
120.9053636258
 20
183.3320004149
 30
0.0
 10
120.9097971157
 20
183.3168814766
 30
0.0
 10
120.9120138606
 20
183.3093220074
 30
0.0
  0
SPLINE
  5
3DA
100
AcDbEntity
  8
7_ALL_FEATURES
100
AcDbSpline
 62
4
  6
CONTINUOUS
 70
0
 71
3
 72
195
 73
191
 74
0
 42
0.0000001
 43
0.0000001
 44
0.0000000001
 40
0.0
 40
0.0
 40
0.0
 40
0.0
 40
0.03125
 40
0.046875
 40
0.0625
 40
0.078125
 40
0.0859375
 40
0.09375
 40
0.1015625
 40
0.109375
 40
0.11328125
 40
0.1171875
 40
0.119140625
 40
0.12109375
 40
0.123046875
 40
0.1240234375
 40
0.1245117188
 40
0.125
 40
0.1254882812
 40
0.1259765625
 40
0.126953125
 40
0.12890625
 40
0.130859375
 40
0.1328125
 40
0.13671875
 40
0.140625
 40
0.1484375
 40
0.15625
 40
0.1640625
 40
0.171875
 40
0.1875
 40
0.203125
 40
0.2109375
 40
0.21875
 40
0.2265625
 40
0.234375
 40
0.23828125
 40
0.2421875
 40
0.244140625
 40
0.24609375
 40
0.248046875
 40
0.2490234375
 40
0.2495117188
 40
0.25
 40
0.2504882812
 40
0.2509765625
 40
0.251953125
 40
0.25390625
 40
0.255859375
 40
0.2578125
 40
0.26171875
 40
0.265625
 40
0.2734375
 40
0.28125
 40
0.2890625
 40
0.296875
 40
0.3125
 40
0.328125
 40
0.3359375
 40
0.34375
 40
0.3515625
 40
0.359375
 40
0.36328125
 40
0.3671875
 40
0.369140625
 40
0.37109375
 40
0.373046875
 40
0.3740234375
 40
0.3745117188
 40
0.375
 40
0.3754882812
 40
0.3759765625
 40
0.376953125
 40
0.37890625
 40
0.380859375
 40
0.3828125
 40
0.38671875
 40
0.390625
 40
0.3984375
 40
0.40625
 40
0.4140625
 40
0.421875
 40
0.4375
 40
0.453125
 40
0.4609375
 40
0.46875
 40
0.4765625
 40
0.484375
 40
0.48828125
 40
0.4921875
 40
0.494140625
 40
0.49609375
 40
0.498046875
 40
0.4990234375
 40
0.4995117188
 40
0.5
 40
0.5004882812
 40
0.5009765625
 40
0.501953125
 40
0.50390625
 40
0.505859375
 40
0.5078125
 40
0.51171875
 40
0.515625
 40
0.5234375
 40
0.53125
 40
0.5390625
 40
0.546875
 40
0.5625
 40
0.578125
 40
0.5859375
 40
0.59375
 40
0.6015625
 40
0.609375
 40
0.61328125
 40
0.6171875
 40
0.619140625
 40
0.62109375
 40
0.623046875
 40
0.6240234375
 40
0.6245117188
 40
0.625
 40
0.6254882812
 40
0.6259765625
 40
0.626953125
 40
0.62890625
 40
0.630859375
 40
0.6328125
 40
0.63671875
 40
0.640625
 40
0.6484375
 40
0.65625
 40
0.6640625
 40
0.671875
 40
0.6875
 40
0.703125
 40
0.7109375
 40
0.71875
 40
0.7265625
 40
0.734375
 40
0.73828125
 40
0.7421875
 40
0.744140625
 40
0.74609375
 40
0.748046875
 40
0.7490234375
 40
0.7495117188
 40
0.75
 40
0.7504882812
 40
0.7509765625
 40
0.751953125
 40
0.75390625
 40
0.755859375
 40
0.7578125
 40
0.76171875
 40
0.765625
 40
0.7734375
 40
0.78125
 40
0.7890625
 40
0.796875
 40
0.8125
 40
0.828125
 40
0.8359375
 40
0.84375
 40
0.8515625
 40
0.859375
 40
0.86328125
 40
0.8671875
 40
0.869140625
 40
0.87109375
 40
0.873046875
 40
0.8740234375
 40
0.8745117188
 40
0.875
 40
0.8754882812
 40
0.8759765625
 40
0.876953125
 40
0.87890625
 40
0.880859375
 40
0.8828125
 40
0.88671875
 40
0.890625
 40
0.8984375
 40
0.90625
 40
0.9140625
 40
0.921875
 40
0.9375
 40
0.953125
 40
0.96875
 40
1.0
 40
1.0
 40
1.0
 40
1.0
 10
120.9120138572
 20
183.3093220155
 30
0.0
 10
120.9169943031
 20
183.3004420633
 30
0.0
 10
120.9244649721
 20
183.287122135
 30
0.0
 10
120.9344258638
 20
183.2693622307
 30
0.0
 10
120.9418965329
 20
183.2560423025
 30
0.0
 10
120.9481220898
 20
183.244942362
 30
0.0
 10
120.9531025368
 20
183.2360624104
 30
0.0
 10
120.9568378679
 20
183.2294024447
 30
0.0
 10
120.960573215
 20
183.2227424865
 30
0.0
 10
120.9636859542
 20
183.2171924979
 30
0.0
 10
120.9661762576
 20
183.2127525595
 30
0.0
 10
120.9677324423
 20
183.2099774787
 30
0.0
 10
120.9689779739
 20
183.2077576872
 30
0.0
 10
120.9699105239
 20
183.2060920957
 30
0.0
 10
120.9706927347
 20
183.2047064819
 30
0.0
 10
120.9712303015
 20
183.2037318832
 30
0.0
 10
120.9715530667
 20
183.20318226
 30
0.0
 10
120.9717512399
 20
183.2027495057
 30
0.0
 10
120.9721172237
 20
183.2023952536
 30
0.0
 10
120.9725466679
 20
183.2018955349
 30
0.0
 10
120.9733254674
 20
183.2010337853
 30
0.0
 10
120.97442378
 20
183.1997960444
 30
0.0
 10
120.9757478581
 20
183.1983136103
 30
0.0
 10
120.9775111638
 20
183.1963360343
 30
0.0
 10
120.9797160259
 20
183.1938644057
 30
0.0
 10
120.9832433973
 20
183.1899096091
 30
0.0
 10
120.9876527515
 20
183.1849661789
 30
0.0
 10
120.9929439165
 20
183.1790340346
 30
0.0
 10
120.9982350976
 20
183.1731018978
 30
0.0
 10
121.0052900001
 20
183.1651923794
 30
0.0
 10
121.0141086304
 20
183.1553054825
 30
0.0
 10
121.0229272593
 20
183.1454185847
 30
0.0
 10
121.0299821639
 20
183.1375090677
 30
0.0
 10
121.0352733388
 20
183.1315769269
 30
0.0
 10
121.0405645269
 20
183.1256447975
 30
0.0
 10
121.0449738094
 20
183.1207013208
 30
0.0
 10
121.0485013271
 20
183.1167466191
 30
0.0
 10
121.0507058168
 20
183.1142747493
 30
0.0
 10
121.052469887
 20
183.1122976684
 30
0.0
 10
121.0537916296
 20
183.1108137217
 30
0.0
 10
121.0548972491
 20
183.109580713
 30
0.0
 10
121.0556630046
 20
183.1087105156
 30
0.0
 10
121.0561133486
 20
183.1082243325
 30
0.0
 10
121.0564151348
 20
183.1078285036
 30
0.0
 10
121.0568544236
 20
183.1075519046
 30
0.0
 10
121.0573921795
 20
183.1071415171
 30
0.0
 10
121.0583555989
 20
183.1064427161
 30
0.0
 10
121.0597202293
 20
183.1054342984
 30
0.0
 10
121.0613627865
 20
183.1042285333
 30
0.0
 10
121.0635511161
 20
183.102619332
 30
0.0
 10
121.0662871262
 20
183.100608349
 30
0.0
 10
121.070664408
 20
183.0973904862
 30
0.0
 10
121.076136125
 20
183.0933682573
 30
0.0
 10
121.0827021363
 20
183.08854154
 30
0.0
 10
121.0892681607
 20
183.083714834
 30
0.0
 10
121.0980228553
 20
183.0772792221
 30
0.0
 10
121.1089662252
 20
183.0692347087
 30
0.0
 10
121.1199095941
 20
183.0611901942
 30
0.0
 10
121.1286642904
 20
183.054754584
 30
0.0
 10
121.1352303098
 20
183.0499278728
 30
0.0
 10
121.1417963395
 20
183.0451011752
 30
0.0
 10
121.1472679992
 20
183.0410788849
 30
0.0
 10
121.151645398
 20
183.0378611474
 30
0.0
 10
121.1543811104
 20
183.0358498457
 30
0.0
 10
121.156570051
 20
183.0342412984
 30
0.0
 10
121.1582107414
 20
183.0330335353
 30
0.0
 10
121.1595812126
 20
183.032031369
 30
0.0
 10
121.1605342052
 20
183.0313214081
 30
0.0
 10
121.1610886675
 20
183.0309289016
 30
0.0
 10
121.1614766396
 20
183.030597378
 30
0.0
 10
121.1619711625
 20
183.0304078369
 30
0.0
 10
121.1625933603
 20
183.0301055903
 30
0.0
 10
121.1636995228
 20
183.0295997334
 30
0.0
 10
121.1652707017
 20
183.0288650171
 30
0.0
 10
121.1671599914
 20
183.0279885212
 30
0.0
 10
121.169677691
 20
183.0268180564
 30
0.0
 10
121.1728252788
 20
183.0253555929
 30
0.0
 10
121.1778611603
 20
183.0230153062
 30
0.0
 10
121.1841561011
 20
183.0200900662
 30
0.0
 10
121.1917099919
 20
183.0165797275
 30
0.0
 10
121.199263893
 20
183.0130694024
 30
0.0
 10
121.2093357575
 20
183.0083889641
 30
0.0
 10
121.2219255894
 20
183.0025384181
 30
0.0
 10
121.2345154205
 20
182.9966878708
 30
0.0
 10
121.2445872862
 20
182.9920074345
 30
0.0
 10
121.2521411836
 20
182.9884971033
 30
0.0
 10
121.2596950879
 20
182.9849867873
 30
0.0
 10
121.265989987
 20
182.9820614767
 30
0.0
 10
121.2710259536
 20
182.979721334
 30
0.0
 10
121.2741733249
 20
182.978258504
 30
0.0
 10
121.2766914688
 20
182.9770887916
 30
0.0
 10
121.2785794009
 20
182.976209997
 30
0.0
 10
121.2801548277
 20
182.9754824727
 30
0.0
 10
121.281253407
 20
182.9749637769
 30
0.0
 10
121.2818877548
 20
182.9746821015
 30
0.0
 10
121.2823449566
 20
182.9744293722
 30
0.0
 10
121.2828731007
 20
182.9743351729
 30
0.0
 10
121.2835525473
 20
182.9741542768
 30
0.0
 10
121.2847531082
 20
182.9738634726
 30
0.0
 10
121.2864621676
 20
182.9734345683
 30
0.0
 10
121.2885156189
 20
182.9729256485
 30
0.0
 10
121.2912526528
 20
182.9722450751
 30
0.0
 10
121.2946742537
 20
182.9713950479
 30
0.0
 10
121.3001486427
 20
182.9700346189
 30
0.0
 10
121.3069916881
 20
182.968334215
 30
0.0
 10
121.3152033173
 20
182.9662936735
 30
0.0
 10
121.3234149532
 20
182.9642531473
 30
0.0
 10
121.3343637988
 20
182.9615324403
 30
0.0
 10
121.3480498566
 20
182.9581315585
 30
0.0
 10
121.3617359139
 20
182.9547306754
 30
0.0
 10
121.3726847602
 20
182.9520099706
 30
0.0
 10
121.3808963941
 20
182.9499694377
 30
0.0
 10
121.389108031
 20
182.947928921
 30
0.0
 10
121.3959510522
 20
182.9462284403
 30
0.0
 10
121.4014254907
 20
182.9448681679
 30
0.0
 10
121.4048469657
 20
182.9440177422
 30
0.0
 10
121.4075842579
 20
182.9433379867
 30
0.0
 10
121.40963692
 20
182.9428265681
 30
0.0
 10
121.4113484486
 20
182.942405482
 30
0.0
 10
121.4125446015
 20
182.9421007209
 30
0.0
 10
121.4132311109
 20
182.9419421872
 30
0.0
 10
121.4137375604
 20
182.9417792978
 30
0.0
 10
121.4142762432
 20
182.9417845573
 30
0.0
 10
121.4149832436
 20
182.9417329177
 30
0.0
 10
121.4162257327
 20
182.9416698755
 30
0.0
 10
121.4179979784
 20
182.9415655284
 30
0.0
 10
121.4201258456
 20
182.9414464271
 30
0.0
 10
121.4229625923
 20
182.9412854894
 30
0.0
 10
121.4265086659
 20
182.9410850487
 30
0.0
 10
121.4321823053
 20
182.9407639348
 30
0.0
 10
121.4392743815
 20
182.9403626826
 30
0.0
 10
121.4477848614
 20
182.9398811199
 30
0.0
 10
121.4562953443
 20
182.9393995733
 30
0.0
 10
121.4676426539
 20
182.9387575056
 30
0.0
 10
121.4818267912
 20
182.9379549229
 30
0.0
 10
121.4960109284
 20
182.9371523389
 30
0.0
 10
121.5073582381
 20
182.9365102734
 30
0.0
 10
121.5158687205
 20
182.93602872
 30
0.0
 10
121.5243792023
 20
182.9355471829
 30
0.0
 10
121.5314712727
 20
182.9351458511
 30
0.0
 10
121.5371449238
 20
182.9348248995
 30
0.0
 10
121.5406909677
 20
182.9346240458
 30
0.0
 10
121.5435277754
 20
182.9344639558
 30
0.0
 10
121.5456554563
 20
182.9343422647
 30
0.0
 10
121.5474282848
 20
182.9342460204
 30
0.0
 10
121.5486697336
 20
182.9341685134
 30
0.0
 10
121.5493784007
 20
182.9341400501
 30
0.0
 10
121.5499119638
 20
182.9340741196
 30
0.0
 10
121.5504376422
 20
182.9341786079
 30
0.0
 10
121.551141297
 20
182.9342584818
 30
0.0
 10
121.5523714116
 20
182.934425957
 30
0.0
 10
121.5541293881
 20
182.9346507275
 30
0.0
 10
121.556238673
 20
182.93492665
 30
0.0
 10
121.5590511532
 20
182.9352923818
 30
0.0
 10
121.5625667191
 20
182.9357502878
 30
0.0
 10
121.5681916436
 20
182.9364825231
 30
0.0
 10
121.5752227928
 20
182.9373979594
 30
0.0
 10
121.5836601746
 20
182.9384964221
 30
0.0
 10
121.5920975556
 20
182.939594901
 30
0.0
 10
121.6033473973
 20
182.9410595339
 30
0.0
 10
121.6174096992
 20
182.9428903271
 30
0.0
 10
121.6314720013
 20
182.9447211189
 30
0.0
 10
121.6427218427
 20
182.9461857541
 30
0.0
 10
121.6511592246
 20
182.9472842262
 30
0.0
 10
121.6595966031
 20
182.9483827146
 30
0.0
 10
121.6666277623
 20
182.9492980707
 30
0.0
 10
121.6722526663
 20
182.9500304696
 30
0.0
 10
121.6757682846
 20
182.9504879594
 30
0.0
 10
121.6785806572
 20
182.9508545455
 30
0.0
 10
121.6806902707
 20
182.951127858
 30
0.0
 10
121.6824472193
 20
182.9513607946
 30
0.0
 10
121.6836791688
 20
182.9515136919
 30
0.0
 10
121.6843798836
 20
182.9516169232
 30
0.0
 10
121.6849145928
 20
182.951649665
 30
0.0
 10
121.6854142377
 20
182.9518532027
 30
0.0
 10
121.6860926617
 20
182.9520650108
 30
0.0
 10
121.6872742052
 20
182.9524634324
 30
0.0
 10
121.6889651037
 20
182.9530180941
 30
0.0
 10
121.6909929067
 20
182.9536898998
 30
0.0
 10
121.6936970894
 20
182.9545834711
 30
0.0
 10
121.6970771653
 20
182.9557011781
 30
0.0
 10
121.702485372
 20
182.9574890942
 30
0.0
 10
121.7092456011
 20
182.9597241317
 30
0.0
 10
121.7173578886
 20
182.9624061156
 30
0.0
 10
121.7254701727
 20
182.9650881159
 30
0.0
 10
121.7362865527
 20
182.9686641106
 30
0.0
 10
121.7498070273
 20
182.9731341059
 30
0.0
 10
121.766031597
 20
182.9784980994
 30
0.0
 10
121.7876643565
 20
182.9856500911
 30
0.0
 10
121.8038889261
 20
182.9910140847
 30
0.0
 10
121.8147053059
 20
182.9945900805
 30
0.0
  0
SPLINE
  5
3DB
100
AcDbEntity
  8
7_ALL_FEATURES
100
AcDbSpline
 62
4
  6
CONTINUOUS
 70
0
 71
3
 72
195
 73
191
 74
0
 42
0.0000001
 43
0.0000001
 44
0.0000000001
 40
0.0
 40
0.0
 40
0.0
 40
0.0
 40
0.03125
 40
0.046875
 40
0.0625
 40
0.078125
 40
0.0859375
 40
0.09375
 40
0.1015625
 40
0.109375
 40
0.11328125
 40
0.1171875
 40
0.119140625
 40
0.12109375
 40
0.123046875
 40
0.1240234375
 40
0.1245117188
 40
0.125
 40
0.1254882812
 40
0.1259765625
 40
0.126953125
 40
0.12890625
 40
0.130859375
 40
0.1328125
 40
0.13671875
 40
0.140625
 40
0.1484375
 40
0.15625
 40
0.1640625
 40
0.171875
 40
0.1875
 40
0.203125
 40
0.2109375
 40
0.21875
 40
0.2265625
 40
0.234375
 40
0.23828125
 40
0.2421875
 40
0.244140625
 40
0.24609375
 40
0.248046875
 40
0.2490234375
 40
0.2495117188
 40
0.25
 40
0.2504882812
 40
0.2509765625
 40
0.251953125
 40
0.25390625
 40
0.255859375
 40
0.2578125
 40
0.26171875
 40
0.265625
 40
0.2734375
 40
0.28125
 40
0.2890625
 40
0.296875
 40
0.3125
 40
0.328125
 40
0.3359375
 40
0.34375
 40
0.3515625
 40
0.359375
 40
0.36328125
 40
0.3671875
 40
0.369140625
 40
0.37109375
 40
0.373046875
 40
0.3740234375
 40
0.3745117188
 40
0.375
 40
0.3754882812
 40
0.3759765625
 40
0.376953125
 40
0.37890625
 40
0.380859375
 40
0.3828125
 40
0.38671875
 40
0.390625
 40
0.3984375
 40
0.40625
 40
0.4140625
 40
0.421875
 40
0.4375
 40
0.453125
 40
0.4609375
 40
0.46875
 40
0.4765625
 40
0.484375
 40
0.48828125
 40
0.4921875
 40
0.494140625
 40
0.49609375
 40
0.498046875
 40
0.4990234375
 40
0.4995117188
 40
0.5
 40
0.5004882812
 40
0.5009765625
 40
0.501953125
 40
0.50390625
 40
0.505859375
 40
0.5078125
 40
0.51171875
 40
0.515625
 40
0.5234375
 40
0.53125
 40
0.5390625
 40
0.546875
 40
0.5625
 40
0.578125
 40
0.5859375
 40
0.59375
 40
0.6015625
 40
0.609375
 40
0.61328125
 40
0.6171875
 40
0.619140625
 40
0.62109375
 40
0.623046875
 40
0.6240234375
 40
0.6245117188
 40
0.625
 40
0.6254882812
 40
0.6259765625
 40
0.626953125
 40
0.62890625
 40
0.630859375
 40
0.6328125
 40
0.63671875
 40
0.640625
 40
0.6484375
 40
0.65625
 40
0.6640625
 40
0.671875
 40
0.6875
 40
0.703125
 40
0.7109375
 40
0.71875
 40
0.7265625
 40
0.734375
 40
0.73828125
 40
0.7421875
 40
0.744140625
 40
0.74609375
 40
0.748046875
 40
0.7490234375
 40
0.7495117188
 40
0.75
 40
0.7504882812
 40
0.7509765625
 40
0.751953125
 40
0.75390625
 40
0.755859375
 40
0.7578125
 40
0.76171875
 40
0.765625
 40
0.7734375
 40
0.78125
 40
0.7890625
 40
0.796875
 40
0.8125
 40
0.828125
 40
0.8359375
 40
0.84375
 40
0.8515625
 40
0.859375
 40
0.86328125
 40
0.8671875
 40
0.869140625
 40
0.87109375
 40
0.873046875
 40
0.8740234375
 40
0.8745117188
 40
0.875
 40
0.8754882812
 40
0.8759765625
 40
0.876953125
 40
0.87890625
 40
0.880859375
 40
0.8828125
 40
0.88671875
 40
0.890625
 40
0.8984375
 40
0.90625
 40
0.9140625
 40
0.921875
 40
0.9375
 40
0.953125
 40
0.96875
 40
1.0
 40
1.0
 40
1.0
 40
1.0
 10
121.3793462176
 20
185.3258480986
 30
0.0
 10
121.372436418
 20
185.3216113959
 30
0.0
 10
121.3620717185
 20
185.3152563418
 30
0.0
 10
121.3482521191
 20
185.3067829364
 30
0.0
 10
121.3378874197
 20
185.3004278822
 30
0.0
 10
121.3292501698
 20
185.2951320041
 30
0.0
 10
121.3223403707
 20
185.2908953007
 30
0.0
 10
121.3171580192
 20
185.2877177758
 30
0.0
 10
121.3119756762
 20
185.2845402407
 30
0.0
 10
121.3076570304
 20
185.2818923265
 30
0.0
 10
121.3042021734
 20
185.2797739242
 30
0.0
 10
121.3020427519
 20
185.2784500842
 30
0.0
 10
121.3003155259
 20
185.2773906424
 30
0.0
 10
121.2990192542
 20
185.2765970737
 30
0.0
 10
121.2979417389
 20
185.2759325452
 30
0.0
 10
121.2971821578
 20
185.2754736967
 30
0.0
 10
121.2967564188
 20
185.2752016271
 30
0.0
 10
121.2964137125
 20
185.2750253803
 30
0.0
 10
121.2961604606
 20
185.274742847
 30
0.0
 10
121.2957915886
 20
185.2744032097
 30
0.0
 10
121.2951606006
 20
185.2737915712
 30
0.0
 10
121.2942515886
 20
185.2729268326
 30
0.0
 10
121.2931640275
 20
185.2718852808
 30
0.0
 10
121.2917128097
 20
185.2704978952
 30
0.0
 10
121.2898991765
 20
185.2687632009
 30
0.0
 10
121.286997146
 20
185.2659879485
 30
0.0
 10
121.2833696824
 20
185.2625187942
 30
0.0
 10
121.2790166942
 20
185.2583558472
 30
0.0
 10
121.2746637145
 20
185.2541928899
 30
0.0
 10
121.2688597386
 20
185.2486422838
 30
0.0
 10
121.2616047698
 20
185.2417040249
 30
0.0
 10
121.2543498002
 20
185.2347657667
 30
0.0
 10
121.2485458257
 20
185.2292151594
 30
0.0
 10
121.2441928417
 20
185.2250522059
 30
0.0
 10
121.2398398694
 20
185.2208892447
 30
0.0
 10
121.2362123563
 20
185.2174201343
 30
0.0
 10
121.2333104269
 20
185.2146447925
 30
0.0
 10
121.2314965362
 20
185.2129103255
 30
0.0
 10
121.2300458471
 20
185.2115224734
 30
0.0
 10
121.2289566706
 20
185.2104823468
 30
0.0
 10
121.2280527128
 20
185.2096131491
 30
0.0
 10
121.2274127022
 20
185.2090094708
 30
0.0
 10
121.2270582868
 20
185.2086570793
 30
0.0
 10
121.226760629
 20
185.2084137231
 30
0.0
 10
121.2265847036
 20
185.2080903334
 30
0.0
 10
121.2263076748
 20
185.2076870637
 30
0.0
 10
121.2258426581
 20
185.2069683348
 30
0.0
 10
121.2251680054
 20
185.2059483795
 30
0.0
 10
121.2243628493
 20
185.2047215223
 30
0.0
 10
121.2232877616
 20
185.2030867295
 30
0.0
 10
121.2219444313
 20
185.2010428904
 30
0.0
 10
121.219794807
 20
185.1977729423
 30
0.0
 10
121.2171078782
 20
185.1936854405
 30
0.0
 10
121.2138835201
 20
185.1887804669
 30
0.0
 10
121.2106591736
 20
185.1838754856
 30
0.0
 10
121.2063600409
 20
185.1773355133
 30
0.0
 10
121.2009861266
 20
185.1691605469
 30
0.0
 10
121.1956122111
 20
185.1609855811
 30
0.0
 10
121.1913130802
 20
185.1544456078
 30
0.0
 10
121.1880887285
 20
185.1495406293
 30
0.0
 10
121.18486439
 20
185.1446356455
 30
0.0
 10
121.1821774
 20
185.1405481753
 30
0.0
 10
121.1800279004
 20
185.1372781627
 30
0.0
 10
121.1786842528
 20
185.1352344878
 30
0.0
 10
121.1776098166
 20
185.133599358
 30
0.0
 10
121.17680267
 20
185.1323735303
 30
0.0
 10
121.1761342449
 20
185.131350354
 30
0.0
 10
121.1756581109
 20
185.1306373751
 30
0.0
 10
121.1753988949
 20
185.1302248926
 30
0.0
 10
121.1751682544
 20
185.1299298018
 30
0.0
 10
121.1750760974
 20
185.1295801596
 30
0.0
 10
121.1749049168
 20
185.1291329981
 30
0.0
 10
121.1746278567
 20
185.1283416
 30
0.0
 10
121.1742202902
 20
185.1272156662
 30
0.0
 10
121.1737362467
 20
185.1258625618
 30
0.0
 10
121.1730890964
 20
185.1240591155
 30
0.0
 10
121.1722807608
 20
185.1218045704
 30
0.0
 10
121.1709870872
 20
185.1181974308
 30
0.0
 10
121.1693701108
 20
185.1136884608
 30
0.0
 10
121.1674296895
 20
185.1082777163
 30
0.0
 10
121.1654892814
 20
185.1028669667
 30
0.0
 10
121.1629020661
 20
185.0956526356
 30
0.0
 10
121.1596680486
 20
185.086634721
 30
0.0
 10
121.15643403
 20
185.0776168068
 30
0.0
 10
121.1538468165
 20
185.0704024752
 30
0.0
 10
121.1519064027
 20
185.0649917271
 30
0.0
 10
121.1499660031
 20
185.0595809765
 30
0.0
 10
121.1483489592
 20
185.0550720256
 30
0.0
 10
121.1470554232
 20
185.0514648472
 30
0.0
 10
121.1462467374
 20
185.0492104009
 30
0.0
 10
121.1456003058
 20
185.0474067518
 30
0.0
 10
121.1451140667
 20
185.0460542669
 30
0.0
 10
121.1447133699
 20
185.0449263948
 30
0.0
 10
121.1444240462
 20
185.044138457
 30
0.0
 10
121.1442725151
 20
185.0436857512
 30
0.0
 10
121.1441200011
 20
185.0433531393
 30
0.0
 10
121.1441160513
 20
185.0429940856
 30
0.0
 10
121.144058964
 20
185.0425245706
 30
0.0
 10
121.1439832055
 20
185.041698622
 30
0.0
 10
121.1438623563
 20
185.0405209422
 30
0.0
 10
121.1437227402
 20
185.0391067647
 30
0.0
 10
121.1435346982
 20
185.0372215306
 30
0.0
 10
121.143300292
 20
185.034864873
 30
0.0
 10
121.1429248808
 20
185.0310942851
 30
0.0
 10
121.1424557407
 20
185.0263810282
 30
0.0
 10
121.1418927195
 20
185.0207251293
 30
0.0
 10
121.1413297125
 20
185.015069228
 30
0.0
 10
121.1405790315
 20
185.007528027
 30
0.0
 10
121.1396406822
 20
184.9981015255
 30
0.0
 10
121.1387023316
 20
184.9886750241
 30
0.0
 10
121.1379516527
 20
184.981133823
 30
0.0
 10
121.1373886396
 20
184.9754779221
 30
0.0
 10
121.1368256411
 20
184.9698220214
 30
0.0
 10
121.1363564305
 20
184.96510877
 30
0.0
 10
121.1359811631
 20
184.9613381709
 30
0.0
 10
121.1357463909
 20
184.9589815419
 30
0.0
 10
121.1355591002
 20
184.957096249
 30
0.0
 10
121.1354171889
 20
184.9556822513
 30
0.0
 10
121.1353035207
 20
184.954504009
 30
0.0
 10
121.1352149429
 20
184.9536790645
 30
0.0
 10
121.1351783954
 20
184.9532079408
 30
0.0
 10
121.135111354
 20
184.9528538284
 30
0.0
 10
121.1351958016
 20
184.9525026577
 30
0.0
 10
121.1352555573
 20
184.952033404
 30
0.0
 10
121.1353847496
 20
184.951212688
 30
0.0
 10
121.1355564384
 20
184.9500399867
 30
0.0
 10
121.1357679745
 20
184.9486328521
 30
0.0
 10
121.1360480982
 20
184.9467566353
 30
0.0
 10
121.1363989118
 20
184.9444113771
 30
0.0
 10
121.1369598452
 20
184.9406589569
 30
0.0
 10
121.1376611384
 20
184.935968434
 30
0.0
 10
121.138502636
 20
184.9303398055
 30
0.0
 10
121.1393441482
 20
184.9247111772
 30
0.0
 10
121.1404661592
 20
184.9172063395
 30
0.0
 10
121.141868675
 20
184.9078252923
 30
0.0
 10
121.1432711895
 20
184.8984442451
 30
0.0
 10
121.1443932026
 20
184.8909394076
 30
0.0
 10
121.1452347087
 20
184.8853107786
 30
0.0
 10
121.1460762289
 20
184.8796821528
 30
0.0
 10
121.1467774519
 20
184.8749916216
 30
0.0
 10
121.1473385285
 20
184.8712392182
 30
0.0
 10
121.1476889778
 20
184.8688939171
 30
0.0
 10
121.1479698492
 20
184.8670177883
 30
0.0
 10
121.1481791011
 20
184.865610385
 30
0.0
 10
121.1483579364
 20
184.8644385243
 30
0.0
 10
121.1484743711
 20
184.8636163077
 30
0.0
 10
121.1485545676
 20
184.8631494584
 30
0.0
 10
121.1485762278
 20
184.8627909021
 30
0.0
 10
121.1487450054
 20
184.8624645289
 30
0.0
 10
121.1489187259
 20
184.8620181388
 30
0.0
 10
121.1492466461
 20
184.8612421864
 30
0.0
 10
121.1497026034
 20
184.8601309486
 30
0.0
 10
121.1502551027
 20
184.8587986336
 30
0.0
 10
121.1509898995
 20
184.8570218049
 30
0.0
 10
121.1519090355
 20
184.8548009089
 30
0.0
 10
121.1533792954
 20
184.8512473971
 30
0.0
 10
121.1552172429
 20
184.8468055342
 30
0.0
 10
121.1574227274
 20
184.8414752872
 30
0.0
 10
121.159628226
 20
184.8361450433
 30
0.0
 10
121.1625688858
 20
184.8290380504
 30
0.0
 10
121.1662447124
 20
184.8201543096
 30
0.0
 10
121.1699205379
 20
184.8112705685
 30
0.0
 10
121.1728611996
 20
184.8041635761
 30
0.0
 10
121.1750666924
 20
184.7988333305
 30
0.0
 10
121.1772721986
 20
184.79350309
 30
0.0
 10
121.1791100785
 20
184.7890612069
 30
0.0
 10
121.1805804765
 20
184.7855077364
 30
0.0
 10
121.1814992609
 20
184.7832867353
 30
0.0
 10
121.1822347793
 20
184.7815101223
 30
0.0
 10
121.1827850742
 20
184.7801771482
 30
0.0
 10
121.1832479284
 20
184.7790679725
 30
0.0
 10
121.1835635365
 20
184.7782883388
 30
0.0
 10
121.1837569841
 20
184.7778478472
 30
0.0
 10
121.1838651666
 20
184.7775033558
 30
0.0
 10
121.1841144116
 20
184.7772128485
 30
0.0
 10
121.1843975341
 20
184.7768066751
 30
0.0
 10
121.1849159236
 20
184.7761046452
 30
0.0
 10
121.1856444945
 20
184.7750971584
 30
0.0
 10
121.1865239098
 20
184.7738901376
 30
0.0
 10
121.1876946716
 20
184.7722800907
 30
0.0
 10
121.1891587374
 20
184.770267767
 30
0.0
 10
121.1915008998
 20
184.7670479178
 30
0.0
 10
121.1944287205
 20
184.7630231513
 30
0.0
 10
121.1979420548
 20
184.7581934122
 30
0.0
 10
121.2014554026
 20
184.7533636782
 30
0.0
 10
121.2061398617
 20
184.7469240312
 30
0.0
 10
121.2119954372
 20
184.738874473
 30
0.0
 10
121.2190221271
 20
184.7292150028
 30
0.0
 10
121.2283910471
 20
184.7163357095
 30
0.0
 10
121.2354177371
 20
184.7066762394
 30
0.0
 10
121.2401021971
 20
184.7002365927
 30
0.0
  0
SPLINE
  5
3DC
100
AcDbEntity
  8
7_ALL_FEATURES
100
AcDbSpline
 62
4
  6
CONTINUOUS
 70
0
 71
3
 72
108
 73
104
 74
0
 42
0.0000001
 43
0.0000001
 44
0.0000000001
 40
0.0
 40
0.0
 40
0.0
 40
0.0
 40
0.0625
 40
0.09375
 40
0.109375
 40
0.125
 40
0.140625
 40
0.1484375
 40
0.15625
 40
0.16015625
 40
0.1640625
 40
0.166015625
 40
0.1669921875
 40
0.16796875
 40
0.169921875
 40
0.171875
 40
0.1796875
 40
0.1875
 40
0.1953125
 40
0.203125
 40
0.21875
 40
0.25
 40
0.28125
 40
0.296875
 40
0.3046875
 40
0.3125
 40
0.3203125
 40
0.328125
 40
0.330078125
 40
0.33203125
 40
0.3330078125
 40
0.333984375
 40
0.3359375
 40
0.33984375
 40
0.34375
 40
0.3515625
 40
0.359375
 40
0.375
 40
0.390625
 40
0.40625
 40
0.421875
 40
0.4375
 40
0.453125
 40
0.46875
 40
0.4765625
 40
0.484375
 40
0.48828125
 40
0.4921875
 40
0.49609375
 40
0.498046875
 40
0.4990234375
 40
0.5
 40
0.5009765625
 40
0.501953125
 40
0.50390625
 40
0.5078125
 40
0.51171875
 40
0.515625
 40
0.5234375
 40
0.53125
 40
0.546875
 40
0.5625
 40
0.578125
 40
0.59375
 40
0.609375
 40
0.625
 40
0.640625
 40
0.6484375
 40
0.65625
 40
0.66015625
 40
0.6640625
 40
0.666015625
 40
0.6669921875
 40
0.66796875
 40
0.669921875
 40
0.671875
 40
0.6796875
 40
0.6875
 40
0.6953125
 40
0.703125
 40
0.71875
 40
0.75
 40
0.78125
 40
0.796875
 40
0.8046875
 40
0.8125
 40
0.8203125
 40
0.828125
 40
0.830078125
 40
0.83203125
 40
0.8330078125
 40
0.833984375
 40
0.8359375
 40
0.83984375
 40
0.84375
 40
0.8515625
 40
0.859375
 40
0.875
 40
0.890625
 40
0.90625
 40
0.9375
 40
0.96875
 40
1.0
 40
1.0
 40
1.0
 40
1.0
 10
121.9510912038
 20
185.3258480986
 30
0.0
 10
121.939841667
 20
185.3302395731
 30
0.0
 10
121.9229673589
 20
185.3368267773
 30
0.0
 10
121.9032806764
 20
185.3445118751
 30
0.0
 10
121.8920311289
 20
185.348903322
 30
0.0
 10
121.8835940093
 20
185.3521970125
 30
0.0
 10
121.8765629457
 20
185.3549414192
 30
0.0
 10
121.8709383876
 20
185.3571376967
 30
0.0
 10
121.8674223721
 20
185.3585086576
 30
0.0
 10
121.8646110867
 20
185.3596093482
 30
0.0
 10
121.862850549
 20
185.3602883315
 30
0.0
 10
121.8616251557
 20
185.3607815535
 30
0.0
 10
121.8609140053
 20
185.3610353356
 30
0.0
 10
121.8601617036
 20
185.3611834333
 30
0.0
 10
121.8592353922
 20
185.3614046789
 30
0.0
 10
121.8570006682
 20
185.3619059371
 30
0.0
 10
121.8536534445
 20
185.3626703118
 30
0.0
 10
121.8491877004
 20
185.3636823408
 30
0.0
 10
121.8447226998
 20
185.3646962791
 30
0.0
 10
121.8387691062
 20
185.3660475306
 30
0.0
 10
121.8283504389
 20
185.368412533
 30
0.0
 10
121.8134665597
 20
185.3717909289
 30
0.0
 10
121.7985827246
 20
185.3751694462
 30
0.0
 10
121.7881639954
 20
185.3775342786
 30
0.0
 10
121.7822104992
 20
185.3788857973
 30
0.0
 10
121.7777451997
 20
185.3798989155
 30
0.0
 10
121.7732805781
 20
185.3809140243
 30
0.0
 10
121.7699302113
 20
185.3816697748
 30
0.0
 10
121.7676995892
 20
185.3821822882
 30
0.0
 10
121.766765765
 20
185.3823829195
 30
0.0
 10
121.766028966
 20
185.3825735548
 30
0.0
 10
121.765254644
 20
185.3826540022
 30
0.0
 10
121.7638821465
 20
185.3827435894
 30
0.0
 10
121.7619305319
 20
185.3828982826
 30
0.0
 10
121.7588028651
 20
185.383130864
 30
0.0
 10
121.7548950222
 20
185.383426702
 30
0.0
 10
121.7486415008
 20
185.3838971862
 30
0.0
 10
121.7408249328
 20
185.3844862717
 30
0.0
 10
121.7314449082
 20
185.385192754
 30
0.0
 10
121.7220649218
 20
185.3858993491
 30
0.0
 10
121.7126849253
 20
185.386605913
 30
0.0
 10
121.7033049311
 20
185.3873124889
 30
0.0
 10
121.6939249381
 20
185.3880190484
 30
0.0
 10
121.6861082712
 20
185.3886078924
 30
0.0
 10
121.6798549515
 20
185.3890788691
 30
0.0
 10
121.6759465952
 20
185.3893734538
 30
0.0
 10
121.6728199823
 20
185.3896086079
 30
0.0
 10
121.6704748252
 20
185.38978638
 30
0.0
 10
121.6685211558
 20
185.3899300489
 30
0.0
 10
121.6671523543
 20
185.3900393983
 30
0.0
 10
121.6663721071
 20
185.3900881725
 30
0.0
 10
121.6657814985
 20
185.3901633777
 30
0.0
 10
121.6652116204
 20
185.3900909406
 30
0.0
 10
121.6644445518
 20
185.390045857
 30
0.0
 10
121.6631055508
 20
185.3899429664
 30
0.0
 10
121.6611909309
 20
185.3898085243
 30
0.0
 10
121.658894141
 20
185.3896418243
 30
0.0
 10
121.655831491
 20
185.3894214331
 30
0.0
 10
121.6520032688
 20
185.389145302
 30
0.0
 10
121.6458780627
 20
185.3887038511
 30
0.0
 10
121.6382215725
 20
185.3881519141
 30
0.0
 10
121.6290337768
 20
185.3874896432
 30
0.0
 10
121.6198459832
 20
185.3868273559
 30
0.0
 10
121.6106581887
 20
185.3861650809
 30
0.0
 10
121.6014703957
 20
185.3855027733
 30
0.0
 10
121.5922825976
 20
185.3848405835
 30
0.0
 10
121.584626115
 20
185.3842883931
 30
0.0
 10
121.5785008935
 20
185.3838474593
 30
0.0
 10
121.5746727106
 20
185.383570012
 30
0.0
 10
121.57160998
 20
185.3833523225
 30
0.0
 10
121.5696961937
 20
185.3832065276
 30
0.0
 10
121.5683557009
 20
185.3831239892
 30
0.0
 10
121.567591023
 20
185.3830462866
 30
0.0
 10
121.5668313097
 20
185.3828535634
 30
0.0
 10
121.5658799712
 20
185.3826519739
 30
0.0
 10
121.5635981554
 20
185.3821358014
 30
0.0
 10
121.5601748451
 20
185.3813751333
 30
0.0
 10
121.5556107667
 20
185.3803531414
 30
0.0
 10
121.5510465985
 20
185.3793332274
 30
0.0
 10
121.5449610723
 20
185.377972617
 30
0.0
 10
121.534311386
 20
185.3755918886
 30
0.0
 10
121.5190975635
 20
185.372190655
 30
0.0
 10
121.5038837104
 20
185.3687895464
 30
0.0
 10
121.4932340668
 20
185.366408643
 30
0.0
 10
121.4871484735
 20
185.3650483076
 30
0.0
 10
121.4825845114
 20
185.3640275498
 30
0.0
 10
121.4780196589
 20
185.3630087269
 30
0.0
 10
121.4745985162
 20
185.3622391847
 30
0.0
 10
121.4723138714
 20
185.3617345935
 30
0.0
 10
121.4713677143
 20
185.3615117926
 30
0.0
 10
121.4705973092
 20
185.3613628392
 30
0.0
 10
121.4698761992
 20
185.3611067802
 30
0.0
 10
121.4686371605
 20
185.3606089133
 30
0.0
 10
121.4668551551
 20
185.3599236391
 30
0.0
 10
121.4640106247
 20
185.3588126902
 30
0.0
 10
121.4604526752
 20
185.3574289724
 30
0.0
 10
121.4547612338
 20
185.3552122472
 30
0.0
 10
121.4476464937
 20
185.3524422934
 30
0.0
 10
121.4391089932
 20
185.3491179411
 30
0.0
 10
121.4277255936
 20
185.3446856137
 30
0.0
 10
121.4134963667
 20
185.3391451556
 30
0.0
 10
121.3964212847
 20
185.3324966269
 30
0.0
 10
121.3850378985
 20
185.3280642704
 30
0.0
 10
121.3793462052
 20
185.3258480927
 30
0.0
  0
SPLINE
  5
3DD
100
AcDbEntity
  8
7_ALL_FEATURES
100
AcDbSpline
 62
4
  6
CONTINUOUS
 70
0
 71
3
 72
174
 73
170
 74
0
 42
0.0000001
 43
0.0000001
 44
0.0000000001
 40
0.0
 40
0.0
 40
0.0
 40
0.0
 40
0.03125
 40
0.046875
 40
0.0625
 40
0.0703125
 40
0.078125
 40
0.0859375
 40
0.09375
 40
0.09765625
 40
0.1015625
 40
0.10546875
 40
0.107421875
 40
0.109375
 40
0.1103515625
 40
0.111328125
 40
0.1123046875
 40
0.11328125
 40
0.115234375
 40
0.1171875
 40
0.125
 40
0.1328125
 40
0.140625
 40
0.15625
 40
0.171875
 40
0.1796875
 40
0.1875
 40
0.1953125
 40
0.203125
 40
0.20703125
 40
0.2109375
 40
0.21484375
 40
0.21875
 40
0.220703125
 40
0.22265625
 40
0.2236328125
 40
0.224609375
 40
0.2265625
 40
0.228515625
 40
0.23046875
 40
0.234375
 40
0.2421875
 40
0.25
 40
0.265625
 40
0.28125
 40
0.296875
 40
0.3046875
 40
0.3125
 40
0.3203125
 40
0.32421875
 40
0.328125
 40
0.330078125
 40
0.33203125
 40
0.3330078125
 40
0.3334960938
 40
0.333984375
 40
0.3349609375
 40
0.3359375
 40
0.337890625
 40
0.33984375
 40
0.34375
 40
0.34765625
 40
0.3515625
 40
0.359375
 40
0.375
 40
0.390625
 40
0.40625
 40
0.4140625
 40
0.421875
 40
0.4296875
 40
0.43359375
 40
0.4375
 40
0.44140625
 40
0.443359375
 40
0.4438476562
 40
0.4443359375
 40
0.4453125
 40
0.4462890625
 40
0.447265625
 40
0.44921875
 40
0.453125
 40
0.45703125
 40
0.4609375
 40
0.46875
 40
0.484375
 40
0.5
 40
0.515625
 40
0.53125
 40
0.5390625
 40
0.54296875
 40
0.546875
 40
0.55078125
 40
0.552734375
 40
0.5537109375
 40
0.5546875
 40
0.5556640625
 40
0.5561523438
 40
0.556640625
 40
0.55859375
 40
0.5625
 40
0.56640625
 40
0.5703125
 40
0.578125
 40
0.5859375
 40
0.59375
 40
0.609375
 40
0.625
 40
0.640625
 40
0.6484375
 40
0.65234375
 40
0.65625
 40
0.66015625
 40
0.6640625
 40
0.6650390625
 40
0.666015625
 40
0.6665039062
 40
0.6669921875
 40
0.66796875
 40
0.669921875
 40
0.671875
 40
0.67578125
 40
0.6796875
 40
0.6875
 40
0.6953125
 40
0.703125
 40
0.71875
 40
0.734375
 40
0.75
 40
0.7578125
 40
0.765625
 40
0.76953125
 40
0.771484375
 40
0.7734375
 40
0.775390625
 40
0.7763671875
 40
0.77734375
 40
0.779296875
 40
0.78125
 40
0.78515625
 40
0.7890625
 40
0.79296875
 40
0.796875
 40
0.8046875
 40
0.8125
 40
0.8203125
 40
0.828125
 40
0.84375
 40
0.859375
 40
0.8671875
 40
0.875
 40
0.8828125
 40
0.884765625
 40
0.88671875
 40
0.8876953125
 40
0.888671875
 40
0.8896484375
 40
0.890625
 40
0.892578125
 40
0.89453125
 40
0.8984375
 40
0.90234375
 40
0.90625
 40
0.9140625
 40
0.921875
 40
0.9296875
 40
0.9375
 40
0.953125
 40
0.96875
 40
1.0
 40
1.0
 40
1.0
 40
1.0
 10
122.0237560531
 20
184.6411801435
 30
0.0
 10
122.0303901854
 20
184.647149517
 30
0.0
 10
122.0403413838
 20
184.6561035773
 30
0.0
 10
122.0536096484
 20
184.6680423245
 30
0.0
 10
122.0619023139
 20
184.6755040413
 30
0.0
 10
122.068536446
 20
184.681473415
 30
0.0
 10
122.0735120457
 20
184.6859504449
 30
0.0
 10
122.0784876434
 20
184.6904274761
 30
0.0
 10
122.0826339807
 20
184.6941583313
 30
0.0
 10
122.0859510375
 20
184.6971430246
 30
0.0
 10
122.0884388654
 20
184.6993815198
 30
0.0
 10
122.0905119433
 20
184.7012470112
 30
0.0
 10
122.0921706569
 20
184.7027392278
 30
0.0
 10
122.0932067807
 20
184.7036722652
 30
0.0
 10
122.0940369901
 20
184.7044177742
 30
0.0
 10
122.0946560594
 20
184.7049794275
 30
0.0
 10
122.09508884
 20
184.7056720014
 30
0.0
 10
122.0957309422
 20
184.7065497092
 30
0.0
 10
122.0965113317
 20
184.7076624727
 30
0.0
 10
122.0984025694
 20
184.710320242
 30
0.0
 10
122.1012317399
 20
184.7143122976
 30
0.0
 10
122.1050083539
 20
184.7196319555
 30
0.0
 10
122.1100423067
 20
184.7267259098
 30
0.0
 10
122.1163352745
 20
184.7355929823
 30
0.0
 10
122.1226280507
 20
184.7444601896
 30
0.0
 10
122.12766231
 20
184.7515539282
 30
0.0
 10
122.1314380045
 20
184.7568742332
 30
0.0
 10
122.1352136798
 20
184.7621945477
 30
0.0
 10
122.1383601397
 20
184.7666281104
 30
0.0
 10
122.1408771641
 20
184.7701750343
 30
0.0
 10
122.1427653245
 20
184.7728350256
 30
0.0
 10
122.1446519885
 20
184.7754957865
 30
0.0
 10
122.1462288699
 20
184.7777106902
 30
0.0
 10
122.1474799358
 20
184.7794879811
 30
0.0
 10
122.1482856192
 20
184.7805865666
 30
0.0
 10
122.1486508434
 20
184.7816090656
 30
0.0
 10
122.149064853
 20
184.7826064785
 30
0.0
 10
122.1495656272
 20
184.7838618515
 30
0.0
 10
122.1501737199
 20
184.7853646155
 30
0.0
 10
122.1509820114
 20
184.7873695857
 30
0.0
 10
122.1523976855
 20
184.7908776849
 30
0.0
 10
122.1544194698
 20
184.7958895676
 30
0.0
 10
122.1576546639
 20
184.8039084053
 30
0.0
 10
122.1616985416
 20
184.8139320122
 30
0.0
 10
122.1665512379
 20
184.8259603157
 30
0.0
 10
122.170595161
 20
184.8359839048
 30
0.0
 10
122.1738302551
 20
184.8440027816
 30
0.0
 10
122.1762567034
 20
184.8500169208
 30
0.0
 10
122.1782783362
 20
184.8550287625
 30
0.0
 10
122.1798965564
 20
184.8590381035
 30
0.0
 10
122.1809058629
 20
184.8615442431
 30
0.0
 10
122.1817180742
 20
184.8635484642
 30
0.0
 10
122.1822148317
 20
184.8648026782
 30
0.0
 10
122.1825843559
 20
184.8656774698
 30
0.0
 10
122.182761414
 20
184.8661822921
 30
0.0
 10
122.1828100175
 20
184.8667057292
 30
0.0
 10
122.1829147546
 20
184.8673536519
 30
0.0
 10
122.1830577544
 20
184.8683938901
 30
0.0
 10
122.1832449202
 20
184.8696929683
 30
0.0
 10
122.1835396817
 20
184.8717721751
 30
0.0
 10
122.1839097474
 20
184.8743709496
 30
0.0
 10
122.1843531355
 20
184.8774895792
 30
0.0
 10
122.1849445606
 20
184.8816477171
 30
0.0
 10
122.1859794424
 20
184.8889244746
 30
0.0
 10
122.1874579024
 20
184.8993198341
 30
0.0
 10
122.1892320352
 20
184.9117942686
 30
0.0
 10
122.1907104666
 20
184.9221896314
 30
0.0
 10
122.1918932516
 20
184.9305059185
 30
0.0
 10
122.1927802283
 20
184.9367431427
 30
0.0
 10
122.1935197323
 20
184.9419408013
 30
0.0
 10
122.1941105353
 20
184.9460989915
 30
0.0
 10
122.1945558243
 20
184.949217461
 30
0.0
 10
122.1949199427
 20
184.9518167364
 30
0.0
 10
122.195169295
 20
184.9535052617
 30
0.0
 10
122.1952710595
 20
184.9542856359
 30
0.0
 10
122.1953718255
 20
184.9548032784
 30
0.0
 10
122.1952575211
 20
184.9554693566
 30
0.0
 10
122.1951885564
 20
184.95626325
 30
0.0
 10
122.1950728143
 20
184.9573236583
 30
0.0
 10
122.1948813494
 20
184.9591784951
 30
0.0
 10
122.1946020334
 20
184.9618287208
 30
0.0
 10
122.1942693344
 20
184.9650087952
 30
0.0
 10
122.1938248705
 20
184.969248963
 30
0.0
 10
122.193047462
 20
184.9766692247
 30
0.0
 10
122.1919366662
 20
184.9872696149
 30
0.0
 10
122.1906038081
 20
184.9999900777
 30
0.0
 10
122.1892709023
 20
185.0127105365
 30
0.0
 10
122.1881602258
 20
185.0233109365
 30
0.0
 10
122.1873826086
 20
185.030731181
 30
0.0
 10
122.1869384786
 20
185.0349713763
 30
0.0
 10
122.1866047541
 20
185.0381513662
 30
0.0
 10
122.1863286476
 20
185.0408018565
 30
0.0
 10
122.1861314531
 20
185.042656221
 30
0.0
 10
122.1860248914
 20
185.0437173861
 30
0.0
 10
122.1859277274
 20
185.0445089547
 30
0.0
 10
122.1859016826
 20
185.0451823092
 30
0.0
 10
122.1856950919
 20
185.0456746126
 30
0.0
 10
122.185432932
 20
185.0464249843
 30
0.0
 10
122.1848370256
 20
185.0480438251
 30
0.0
 10
122.183939092
 20
185.0505390548
 30
0.0
 10
122.1828535052
 20
185.0535313164
 30
0.0
 10
122.1814088739
 20
185.0575217021
 30
0.0
 10
122.179602118
 20
185.0625094428
 30
0.0
 10
122.1774344249
 20
185.068494835
 30
0.0
 10
122.1745440221
 20
185.0764753216
 30
0.0
 10
122.1709310729
 20
185.086450944
 30
0.0
 10
122.1665954915
 20
185.0984216773
 30
0.0
 10
122.1629825759
 20
185.1083973149
 30
0.0
 10
122.1604534087
 20
185.1153802114
 30
0.0
 10
122.1590083661
 20
185.1193705154
 30
0.0
 10
122.1579240327
 20
185.1223630255
 30
0.0
 10
122.1568418073
 20
185.1253563684
 30
0.0
 10
122.1560242279
 20
185.1275990404
 30
0.0
 10
122.1554883668
 20
185.1290977869
 30
0.0
 10
122.1552514134
 20
185.1297168603
 30
0.0
 10
122.1550937586
 20
185.1302247261
 30
0.0
 10
122.1548194143
 20
185.1306864869
 30
0.0
 10
122.1542850949
 20
185.1314731469
 30
0.0
 10
122.153550069
 20
185.1326081234
 30
0.0
 10
122.1523582193
 20
185.1344178399
 30
0.0
 10
122.1508738199
 20
185.1366821241
 30
0.0
 10
122.1484957557
 20
185.1403037836
 30
0.0
 10
122.1455242133
 20
185.144831268
 30
0.0
 10
122.1419579183
 20
185.1502640738
 30
0.0
 10
122.137203013
 20
185.157507876
 30
0.0
 10
122.1312593311
 20
185.1665626093
 30
0.0
 10
122.1241269223
 20
185.1774282908
 30
0.0
 10
122.1181832838
 20
185.1864830462
 30
0.0
 10
122.113428283
 20
185.1937267999
 30
0.0
 10
122.1104566147
 20
185.1982542621
 30
0.0
 10
122.1083760315
 20
185.2014232528
 30
0.0
 10
122.1071877767
 20
185.203234469
 30
0.0
 10
122.1062947546
 20
185.2045918545
 30
0.0
 10
122.1055564021
 20
185.2057262795
 30
0.0
 10
122.1049526373
 20
185.2066264837
 30
0.0
 10
122.1043965378
 20
185.2075534146
 30
0.0
 10
122.1033602772
 20
185.208520798
 30
0.0
 10
122.1017394148
 20
185.2100894444
 30
0.0
 10
122.0997005873
 20
185.2120431037
 30
0.0
 10
122.0972594597
 20
185.2143905593
 30
0.0
 10
122.0948168699
 20
185.2167371951
 30
0.0
 10
122.0915605943
 20
185.2198663292
 30
0.0
 10
122.0874900746
 20
185.2237776486
 30
0.0
 10
122.0826055258
 20
185.2284712737
 30
0.0
 10
122.077720958
 20
185.2331648888
 30
0.0
 10
122.0712082021
 20
185.2394230398
 30
0.0
 10
122.0630672969
 20
185.2472457722
 30
0.0
 10
122.0549262314
 20
185.2550683329
 30
0.0
 10
122.0484137318
 20
185.2613267586
 30
0.0
 10
122.043528395
 20
185.2660195494
 30
0.0
 10
122.0398671463
 20
185.2695420864
 30
0.0
 10
122.0374220247
 20
185.2718858594
 30
0.0
 10
122.0364096077
 20
185.2728692554
 30
0.0
 10
122.0355847822
 20
185.2736400533
 30
0.0
 10
122.0350070084
 20
185.274261814
 30
0.0
 10
122.0342732993
 20
185.274716885
 30
0.0
 10
122.0332910161
 20
185.2753193659
 30
0.0
 10
122.0320645332
 20
185.2760739326
 30
0.0
 10
122.0301013942
 20
185.2772804202
 30
0.0
 10
122.0276477334
 20
185.2787888108
 30
0.0
 10
122.024703228
 20
185.2805987592
 30
0.0
 10
122.02077726
 20
185.2830120657
 30
0.0
 10
122.0158697865
 20
185.2860286844
 30
0.0
 10
122.0099808241
 20
185.2896486331
 30
0.0
 10
122.0040918602
 20
185.2932685801
 30
0.0
 10
121.9962399088
 20
185.2980951767
 30
0.0
 10
121.9864249694
 20
185.3041284222
 30
0.0
 10
121.9707210664
 20
185.3137816152
 30
0.0
 10
121.9589431392
 20
185.3210215099
 30
0.0
 10
121.9510911877
 20
185.3258481064
 30
0.0
  0
SPLINE
  5
3DE
100
AcDbEntity
  8
7_ALL_FEATURES
100
AcDbSpline
 62
4
  6
CONTINUOUS
 70
0
 71
3
 72
83
 73
79
 74
0
 42
0.0000001
 43
0.0000001
 44
0.0000000001
 40
0.0
 40
0.0
 40
0.0
 40
0.0
 40
0.0625
 40
0.09375
 40
0.109375
 40
0.125
 40
0.140625
 40
0.15625
 40
0.16015625
 40
0.1640625
 40
0.166015625
 40
0.16796875
 40
0.171875
 40
0.1796875
 40
0.1875
 40
0.203125
 40
0.21875
 40
0.25
 40
0.28125
 40
0.296875
 40
0.3125
 40
0.3203125
 40
0.328125
 40
0.33203125
 40
0.333984375
 40
0.3359375
 40
0.33984375
 40
0.34375
 40
0.359375
 40
0.375
 40
0.390625
 40
0.40625
 40
0.4375
 40
0.453125
 40
0.46875
 40
0.4765625
 40
0.484375
 40
0.4921875
 40
0.49609375
 40
0.5
 40
0.50390625
 40
0.5078125
 40
0.515625
 40
0.5234375
 40
0.53125
 40
0.546875
 40
0.5625
 40
0.59375
 40
0.609375
 40
0.625
 40
0.640625
 40
0.65625
 40
0.66015625
 40
0.6640625
 40
0.666015625
 40
0.66796875
 40
0.671875
 40
0.6796875
 40
0.6875
 40
0.703125
 40
0.71875
 40
0.75
 40
0.78125
 40
0.796875
 40
0.8125
 40
0.8203125
 40
0.828125
 40
0.83203125
 40
0.833984375
 40
0.8359375
 40
0.83984375
 40
0.84375
 40
0.859375
 40
0.875
 40
0.890625
 40
0.90625
 40
0.9375
 40
1.0
 40
1.0
 40
1.0
 40
1.0
 10
121.8147053213
 20
182.9945900874
 30
0.0
 10
121.8263044599
 20
183.0001607899
 30
0.0
 10
121.8437031865
 20
183.0085168153
 30
0.0
 10
121.8640016355
 20
183.0182656107
 30
0.0
 10
121.8756008426
 20
183.0238362094
 30
0.0
 10
121.8842999865
 20
183.0280145547
 30
0.0
 10
121.8930001293
 20
183.0321913858
 30
0.0
 10
121.8995224359
 20
183.0353282543
 30
0.0
 10
121.9038749956
 20
183.0374128979
 30
0.0
 10
121.9056820813
 20
183.0382913237
 30
0.0
 10
121.9071428682
 20
183.0389711462
 30
0.0
 10
121.9085483666
 20
183.0397347817
 30
0.0
 10
121.9109823006
 20
183.0411100852
 30
0.0
 10
121.9144727521
 20
183.0430544868
 30
0.0
 10
121.9200499841
 20
183.0461768841
 30
0.0
 10
121.92702409
 20
183.0500759913
 30
0.0
 10
121.9381812183
 20
183.0563167459
 30
0.0
 10
121.952128174
 20
183.0641168732
 30
0.0
 10
121.9660747496
 20
183.0719175353
 30
0.0
 10
121.9772324861
 20
183.0781574344
 30
0.0
 10
121.9842050715
 20
183.0820586804
 30
0.0
 10
121.9897854204
 20
183.085176693
 30
0.0
 10
121.9932679371
 20
183.0871322568
 30
0.0
 10
121.9957161228
 20
183.0884875119
 30
0.0
 10
121.9970987767
 20
183.0892832837
 30
0.0
 10
121.9984200016
 20
183.0901594341
 30
0.0
 10
122.0000925294
 20
183.0912271484
 30
0.0
 10
122.0040893149
 20
183.0938122748
 30
0.0
 10
122.0100917513
 20
183.0976804671
 30
0.0
 10
122.0180908519
 20
183.1028434845
 30
0.0
 10
122.0260910603
 20
183.108005052
 30
0.0
 10
122.0367576271
 20
183.1148876381
 30
0.0
 10
122.0474242448
 20
183.1217701476
 30
0.0
 10
122.0580909931
 20
183.1286525148
 30
0.0
 10
122.0647573417
 20
183.1329544137
 30
0.0
 10
122.0700912738
 20
183.1363949619
 30
0.0
 10
122.0740893846
 20
183.1389780343
 30
0.0
 10
122.0774285826
 20
183.1411221285
 30
0.0
 10
122.0800832564
 20
183.1428563918
 30
0.0
 10
122.082119852
 20
183.1441052051
 30
0.0
 10
122.0839824291
 20
183.1455520612
 30
0.0
 10
122.0865266521
 20
183.1474120238
 30
0.0
 10
122.0896860751
 20
183.149760712
 30
0.0
 10
122.0934863096
 20
183.1525689786
 30
0.0
 10
122.0985501712
 20
183.1563168822
 30
0.0
 10
122.1048810646
 20
183.161000548
 30
0.0
 10
122.1150099046
 20
183.1684950851
 30
0.0
 10
122.1251388682
 20
183.1759894751
 30
0.0
 10
122.1352679031
 20
183.1834838026
 30
0.0
 10
122.1428643417
 20
183.1891048828
 30
0.0
 10
122.150462095
 20
183.194724656
 30
0.0
 10
122.1561567192
 20
183.1989431559
 30
0.0
 10
122.1599588757
 20
183.2017497809
 30
0.0
 10
122.1615345655
 20
183.2029277023
 30
0.0
 10
122.1628150443
 20
183.203850224
 30
0.0
 10
122.164022649
 20
183.2048452117
 30
0.0
 10
122.1661020981
 20
183.2066201097
 30
0.0
 10
122.1690904057
 20
183.2091381111
 30
0.0
 10
122.1738618252
 20
183.2131767311
 30
0.0
 10
122.1798294806
 20
183.2182216421
 30
0.0
 10
122.1893758358
 20
183.2262953933
 30
0.0
 10
122.2013094561
 20
183.2363868364
 30
0.0
 10
122.2132427382
 20
183.2464788961
 30
0.0
 10
122.2227896345
 20
183.2545516608
 30
0.0
 10
122.2287559373
 20
183.2595990381
 30
0.0
 10
122.2335301297
 20
183.2636326021
 30
0.0
 10
122.2365113781
 20
183.2661634746
 30
0.0
 10
122.2386035063
 20
183.2679152548
 30
0.0
 10
122.2397907872
 20
183.2689472987
 30
0.0
 10
122.2409471044
 20
183.2700962042
 30
0.0
 10
122.2424030844
 20
183.2714923922
 30
0.0
 10
122.2458887256
 20
183.274876119
 30
0.0
 10
122.2511208461
 20
183.2799379011
 30
0.0
 10
122.2580949157
 20
183.286694836
 30
0.0
 10
122.2650695446
 20
183.2934496598
 30
0.0
 10
122.2743688546
 20
183.3024568281
 30
0.0
 10
122.2906427387
 20
183.3182190274
 30
0.0
 10
122.3045917508
 20
183.3317296023
 30
0.0
 10
122.3138910992
 20
183.3407366259
 30
0.0
  0
SPLINE
  5
3DF
100
AcDbEntity
  8
3_ALL_AXES
100
AcDbSpline
 62
7
  6
CONTINUOUS
 70
0
 71
3
 72
19
 73
15
 74
0
 42
0.0000001
 43
0.0000001
 44
0.0000000001
 40
0.0
 40
0.0
 40
0.0
 40
0.0
 40
0.1683000113
 40
0.2404505744
 40
0.3036556532
 40
0.4090388234
 40
0.4554737865
 40
0.5000393211
 40
0.5446067335
 40
0.591042408
 40
0.696430429
 40
0.7596418824
 40
0.8317824151
 40
1.0
 40
1.0
 40
1.0
 40
1.0
 10
100.401194407
 20
167.9958535621
 30
0.0
 10
100.401194407
 20
167.8892478869
 30
0.0
 10
100.4253672718
 20
167.7349214603
 30
0.0
 10
100.5041843482
 20
167.5585277373
 30
0.0
 10
100.5901321015
 20
167.4319948735
 30
0.0
 10
100.6975689721
 20
167.341007217
 30
0.0
 10
100.8152045334
 20
167.2975295157
 30
0.0
 10
100.9012723435
 20
167.2871534365
 30
0.0
 10
100.9873396291
 20
167.2975565241
 30
0.0
 10
101.1049516722
 20
167.3411095341
 30
0.0
 10
101.212374461
 20
167.4321146695
 30
0.0
 10
101.2982886858
 20
167.558674289
 30
0.0
 10
101.3770348101
 20
167.7350378063
 30
0.0
 10
101.401194407
 20
167.889300098
 30
0.0
 10
101.401194407
 20
167.9958535621
 30
0.0
  0
SPLINE
  5
3E0
100
AcDbEntity
  8
3_ALL_AXES
100
AcDbSpline
 62
7
  6
CONTINUOUS
 70
0
 71
3
 72
19
 73
15
 74
0
 42
0.0000001
 43
0.0000001
 44
0.0000000001
 40
0.0
 40
0.0
 40
0.0
 40
0.0
 40
0.1683075029
 40
0.2404576968
 40
0.3036660769
 40
0.4090527407
 40
0.4554823394
 40
0.5000445236
 40
0.5446094138
 40
0.5910415449
 40
0.6964181475
 40
0.7596236278
 40
0.8317654351
 40
1.0
 40
1.0
 40
1.0
 40
1.0
 10
112.401194407
 20
167.9958535621
 30
0.0
 10
112.401194407
 20
167.8892432298
 30
0.0
 10
112.4253693339
 20
167.7349120324
 30
0.0
 10
112.5041924362
 20
167.5585141109
 30
0.0
 10
112.5901440437
 20
167.4319787901
 30
0.0
 10
112.6975884303
 20
167.3409973923
 30
0.0
 10
112.8152224482
 20
167.2975271121
 30
0.0
 10
112.901283256
 20
167.2871529336
 30
0.0
 10
112.9873440074
 20
167.2975590641
 30
0.0
 10
113.1049453367
 20
167.3411077196
 30
0.0
 10
113.2123584224
 20
167.432101871
 30
0.0
 10
113.2982736995
 20
167.5586479676
 30
0.0
 10
113.3770325442
 20
167.7350145046
 30
0.0
 10
113.401194407
 20
167.8892894306
 30
0.0
 10
113.401194407
 20
167.9958535621
 30
0.0
  0
SPLINE
  5
3E1
100
AcDbEntity
  8
3_ALL_AXES
100
AcDbSpline
 62
7
  6
CONTINUOUS
 70
0
 71
3
 72
11
 73
7
 74
0
 42
0.0000001
 43
0.0000001
 44
0.0000000001
 40
0.0
 40
0.0
 40
0.0
 40
0.0
 40
0.2499875457
 40
0.4999810974
 40
0.7499896465
 40
1.0
 40
1.0
 40
1.0
 40
1.0
 10
107.901194407
 20
168.4958535621
 30
0.0
 10
108.1631191539
 20
168.5332713831
 30
0.0
 10
108.6832462722
 20
168.6365450957
 30
0.0
 10
109.4444635479
 20
168.8648955089
 30
0.0
 10
110.1847542444
 20
169.1533325035
 30
0.0
 10
110.6645217371
 20
169.3775172272
 30
0.0
 10
110.901194407
 20
169.4958535621
 30
0.0
  0
SPLINE
  5
3E2
100
AcDbEntity
  8
3_ALL_AXES
100
AcDbSpline
 62
7
  6
CONTINUOUS
 70
0
 71
3
 72
11
 73
7
 74
0
 42
0.0000001
 43
0.0000001
 44
0.0000000001
 40
0.0
 40
0.0
 40
0.0
 40
0.0
 40
0.2699449571
 40
0.5270499909
 40
0.7701654741
 40
1.0
 40
1.0
 40
1.0
 40
1.0
 10
98.901194407
 20
169.4958535621
 30
0.0
 10
99.0170203719
 20
169.3800275972
 30
0.0
 10
99.2505549865
 20
169.1610272858
 30
0.0
 10
99.6190655879
 20
168.8722686402
 30
0.0
 10
99.9990663585
 20
168.64208164
 30
0.0
 10
100.2670967837
 20
168.5341671688
 30
0.0
 10
100.401194407
 20
168.4958535621
 30
0.0
  0
SPLINE
  5
3E3
100
AcDbEntity
  8
3_ALL_AXES
100
AcDbSpline
 62
7
  6
CONTINUOUS
 70
0
 71
3
 72
19
 73
15
 74
0
 42
0.0000001
 43
0.0000001
 44
0.0000000001
 40
0.0
 40
0.0
 40
0.0
 40
0.0
 40
0.062499569
 40
0.1250450196
 40
0.1876243679
 40
0.2502137548
 40
0.3750836247
 40
0.5000591496
 40
0.6250261711
 40
0.7498800617
 40
0.8124624827
 40
0.8750225901
 40
0.9375286272
 40
1.0
 40
1.0
 40
1.0
 40
1.0
 10
105.901194407
 20
167.9958535621
 30
0.0
 10
105.901194407
 20
167.9397799504
 30
0.0
 10
105.920703522
 20
167.8267908565
 30
0.0
 10
106.0004874921
 20
167.6760684732
 30
0.0
 10
106.1155469466
 20
167.5510187644
 30
0.0
 10
106.2989906463
 20
167.4198528983
 30
0.0
 10
106.5643905837
 20
167.3167221471
 30
0.0
 10
106.9013482948
 20
167.2774657245
 30
0.0
 10
107.2382801279
 20
167.3168034366
 30
0.0
 10
107.5036343146
 20
167.4199717544
 30
0.0
 10
107.6870159419
 20
167.5511629107
 30
0.0
 10
107.8019867119
 20
167.6762129398
 30
0.0
 10
107.8817044876
 20
167.8268770432
 30
0.0
 10
107.901194407
 20
167.9398052475
 30
0.0
 10
107.901194407
 20
167.9958535621
 30
0.0
  0
SPLINE
  5
3E4
100
AcDbEntity
  8
3_ALL_AXES
100
AcDbSpline
 62
7
  6
CONTINUOUS
 70
0
 71
3
 72
11
 73
7
 74
0
 42
0.0000001
 43
0.0000001
 44
0.0000000001
 40
0.0
 40
0.0
 40
0.0
 40
0.0
 40
0.2500103617
 40
0.5000189242
 40
0.7500124732
 40
1.0
 40
1.0
 40
1.0
 40
1.0
 10
102.901194407
 20
169.4958535621
 30
0.0
 10
103.1378670847
 20
169.3775172233
 30
0.0
 10
103.6176345971
 20
169.1533324878
 30
0.0
 10
104.3579253142
 20
168.8648954898
 30
0.0
 10
105.1191425838
 20
168.6365450867
 30
0.0
 10
105.6392696798
 20
168.5332713803
 30
0.0
 10
105.901194407
 20
168.4958535621
 30
0.0
  0
SPLINE
  5
3E5
100
AcDbEntity
  8
3_ALL_AXES
100
AcDbSpline
 62
7
  6
CONTINUOUS
 70
0
 71
3
 72
11
 73
7
 74
0
 42
0.0000001
 43
0.0000001
 44
0.0000000001
 40
0.0
 40
0.0
 40
0.0
 40
0.0
 40
0.2699449571
 40
0.5270499909
 40
0.7701654741
 40
1.0
 40
1.0
 40
1.0
 40
1.0
 10
110.901194407
 20
169.4958535621
 30
0.0
 10
111.0170203719
 20
169.3800275972
 30
0.0
 10
111.2505549865
 20
169.1610272858
 30
0.0
 10
111.6190655879
 20
168.8722686402
 30
0.0
 10
111.9990663585
 20
168.64208164
 30
0.0
 10
112.2670967837
 20
168.5341671688
 30
0.0
 10
112.401194407
 20
168.4958535621
 30
0.0
  0
SPLINE
  5
3E6
100
AcDbEntity
  8
3_ALL_AXES
100
AcDbSpline
 62
7
  6
CONTINUOUS
 70
0
 71
3
 72
11
 73
7
 74
0
 42
0.0000001
 43
0.0000001
 44
0.0000000001
 40
0.0
 40
0.0
 40
0.0
 40
0.0
 40
0.2298345438
 40
0.4729500311
 40
0.7300550521
 40
1.0
 40
1.0
 40
1.0
 40
1.0
 10
113.401194407
 20
168.4958535621
 30
0.0
 10
113.5352920406
 20
168.5341671717
 30
0.0
 10
113.8033224778
 20
168.6420816499
 30
0.0
 10
114.1833232494
 20
168.872268659
 30
0.0
 10
114.5518338398
 20
169.1610273003
 30
0.0
 10
114.785368446
 20
169.3800276012
 30
0.0
 10
114.901194407
 20
169.4958535621
 30
0.0
  0
SPLINE
  5
3E7
100
AcDbEntity
  8
3_ALL_AXES
100
AcDbSpline
 62
7
  6
CONTINUOUS
 70
0
 71
3
 72
11
 73
7
 74
0
 42
0.0000001
 43
0.0000001
 44
0.0000000001
 40
0.0
 40
0.0
 40
0.0
 40
0.0
 40
0.2298345438
 40
0.4729500311
 40
0.7300550521
 40
1.0
 40
1.0
 40
1.0
 40
1.0
 10
101.401194407
 20
168.4958535621
 30
0.0
 10
101.5352920406
 20
168.5341671717
 30
0.0
 10
101.8033224778
 20
168.6420816499
 30
0.0
 10
102.1833232494
 20
168.872268659
 30
0.0
 10
102.5518338398
 20
169.1610273003
 30
0.0
 10
102.785368446
 20
169.3800276012
 30
0.0
 10
102.901194407
 20
169.4958535621
 30
0.0
  0
LINE
  5
3E8
100
AcDbEntity
  8
7_ALL_FEATURES
100
AcDbLine
 62
7
  6
CONTINUOUS
 10
114.8292427845
 20
180.9958535621
 11
114.891415541
 21
180.4958535621
  0
LINE
  5
3E9
100
AcDbEntity
  8
7_ALL_FEATURES
100
AcDbLine
 62
7
  6
CONTINUOUS
 10
128.910973273
 20
180.4958535621
 11
128.9731460294
 21
180.9958535621
  0
SPLINE
  5
3EA
100
AcDbEntity
  8
3_ALL_AXES
100
AcDbSpline
 62
7
  6
CONTINUOUS
 70
0
 71
3
 72
11
 73
7
 74
0
 42
0.0000001
 43
0.0000001
 44
0.0000000001
 40
0.0
 40
0.0
 40
0.0
 40
0.0
 40
0.2528641712
 40
0.5038317346
 40
0.7528115376
 40
1.0
 40
1.0
 40
1.0
 40
1.0
 10
271.3461750495
 20
169.4958535621
 30
0.0
 10
271.5504213465
 20
169.3779319076
 30
0.0
 10
271.96424861
 20
169.1545210299
 30
0.0
 10
272.6051601345
 20
168.8659320276
 30
0.0
 10
273.2645190668
 20
168.6372426343
 30
0.0
 10
273.7167757486
 20
168.5333772902
 30
0.0
 10
273.9442512609
 20
168.4958535621
 30
0.0
  0
SPLINE
  5
3EB
100
AcDbEntity
  8
3_ALL_AXES
100
AcDbSpline
 62
7
  6
CONTINUOUS
 70
0
 71
3
 72
11
 73
7
 74
0
 42
0.0000001
 43
0.0000001
 44
0.0000000001
 40
0.0
 40
0.0
 40
0.0
 40
0.0
 40
0.2528641712
 40
0.5038317346
 40
0.7528115376
 40
1.0
 40
1.0
 40
1.0
 40
1.0
 10
264.4179718193
 20
169.4958535621
 30
0.0
 10
264.6222181162
 20
169.3779319076
 30
0.0
 10
265.0360453797
 20
169.1545210299
 30
0.0
 10
265.6769569042
 20
168.8659320276
 30
0.0
 10
266.3363158365
 20
168.6372426343
 30
0.0
 10
266.7885725183
 20
168.5333772902
 30
0.0
 10
267.0160480306
 20
168.4958535621
 30
0.0
  0
SPLINE
  5
3EC
100
AcDbEntity
  8
3_ALL_AXES
100
AcDbSpline
 62
7
  6
CONTINUOUS
 70
0
 71
3
 72
11
 73
7
 74
0
 42
0.0000001
 43
0.0000001
 44
0.0000000001
 40
0.0
 40
0.0
 40
0.0
 40
0.0
 40
0.2471884812
 40
0.4961682871
 40
0.7471358372
 40
1.0
 40
1.0
 40
1.0
 40
1.0
 10
268.7480988382
 20
168.4958535621
 30
0.0
 10
268.9755743678
 20
168.533377293
 30
0.0
 10
269.427831069
 20
168.6372426434
 30
0.0
 10
270.0871900061
 20
168.8659320467
 30
0.0
 10
270.7281015126
 20
169.1545210455
 30
0.0
 10
271.1419287594
 20
169.3779319115
 30
0.0
 10
271.3461750495
 20
169.4958535621
 30
0.0
  0
SPLINE
  5
3ED
100
AcDbEntity
  8
3_ALL_AXES
100
AcDbSpline
 62
7
  6
CONTINUOUS
 70
0
 71
3
 72
19
 73
15
 74
0
 42
0.0000001
 43
0.0000001
 44
0.0000000001
 40
0.0
 40
0.0
 40
0.0
 40
0.0
 40
0.067939647
 40
0.1343369129
 40
0.1986396402
 40
0.2610648807
 40
0.3817414899
 40
0.5000607139
 40
0.6183763092
 40
0.739024176
 40
0.8014382043
 40
0.865725454
 40
0.9320917545
 40
1.0
 40
1.0
 40
1.0
 40
1.0
 10
267.0160480306
 20
167.9958535621
 30
0.0
 10
267.0160480306
 20
167.9399679116
 30
0.0
 10
267.0324348674
 20
167.8288229468
 30
0.0
 10
267.1006096477
 20
167.6783630595
 30
0.0
 10
267.2000226825
 20
167.5526762959
 30
0.0
 10
267.3574665641
 20
167.4219344623
 30
0.0
 10
267.5874577788
 20
167.3172941574
 30
0.0
 10
267.8822229998
 20
167.277315673
 30
0.0
 10
268.1769517234
 20
167.3173800977
 30
0.0
 10
268.4068825363
 20
167.4220595009
 30
0.0
 10
268.5642616255
 20
167.5528093889
 30
0.0
 10
268.6636045514
 20
167.6784903796
 30
0.0
 10
268.7317255596
 20
167.828900771
 30
0.0
 10
268.7480988382
 20
167.9399937418
 30
0.0
 10
268.7480988382
 20
167.9958535621
 30
0.0
  0
SPLINE
  5
3EE
100
AcDbEntity
  8
3_ALL_AXES
100
AcDbSpline
 62
7
  6
CONTINUOUS
 70
0
 71
3
 72
11
 73
7
 74
0
 42
0.0000001
 43
0.0000001
 44
0.0000000001
 40
0.0
 40
0.0
 40
0.0
 40
0.0
 40
0.2471884812
 40
0.4961682871
 40
0.7471358372
 40
1.0
 40
1.0
 40
1.0
 40
1.0
 10
275.6763020685
 20
168.4958535621
 30
0.0
 10
275.903777598
 20
168.533377293
 30
0.0
 10
276.3560342993
 20
168.6372426434
 30
0.0
 10
277.0153932364
 20
168.8659320467
 30
0.0
 10
277.6563047428
 20
169.1545210455
 30
0.0
 10
278.0701319897
 20
169.3779319115
 30
0.0
 10
278.2743782798
 20
169.4958535621
 30
0.0
  0
SPLINE
  5
3EF
100
AcDbEntity
  8
3_ALL_AXES
100
AcDbSpline
 62
7
  6
CONTINUOUS
 70
0
 71
3
 72
19
 73
15
 74
0
 42
0.0000001
 43
0.0000001
 44
0.0000000001
 40
0.0
 40
0.0
 40
0.0
 40
0.0
 40
0.0679313718
 40
0.134330414
 40
0.1986328954
 40
0.2610542132
 40
0.3817238737
 40
0.5000536105
 40
0.6183773004
 40
0.7390372629
 40
0.8014553941
 40
0.8657396837
 40
0.9320963707
 40
1.0
 40
1.0
 40
1.0
 40
1.0
 10
273.9442512609
 20
167.9958535621
 30
0.0
 10
273.9442512609
 20
167.9399747106
 30
0.0
 10
273.9606370016
 20
167.8288356987
 30
0.0
 10
274.0288023032
 20
167.6783776225
 30
0.0
 10
274.1282118659
 20
167.5526901358
 30
0.0
 10
274.2856461934
 20
167.4219517858
 30
0.0
 10
274.5156308595
 20
167.3172986401
 30
0.0
 10
274.8104065296
 20
167.2773149331
 30
0.0
 10
275.1051608765
 20
167.3173787478
 30
0.0
 10
275.3351104687
 20
167.4220695304
 30
0.0
 10
275.4924914733
 20
167.5528351408
 30
0.0
 10
275.5918202062
 20
167.6785180311
 30
0.0
 10
275.6599323951
 20
167.8289160182
 30
0.0
 10
275.6763020685
 20
167.939997531
 30
0.0
 10
275.6763020685
 20
167.9958535621
 30
0.0
  0
ELLIPSE
  5
3F0
100
AcDbEntity
  8
7_ALL_FEATURES
100
AcDbEllipse
 62
3
  6
CONTINUOUS
 10
117.0007309202
 20
191.5651493545
 30
0.0
 11
4.1574578963
 21
4.1574578963
 31
0.0
 40
0.4142135624
 41
1.1780972451
 42
1.3117249102
  0
ELLIPSE
  5
3F1
100
AcDbEntity
  8
7_ALL_FEATURES
100
AcDbEllipse
 62
3
  6
CONTINUOUS
 10
126.8016578938
 20
191.5651493545
 30
0.0
 11
4.1574578963
 21
-4.1574578963
 31
0.0
 40
0.4142135624
 41
1.8298677433
 42
1.9634954085
  0
ENDSEC
  0
SECTION
  2
OBJECTS
  0
DICTIONARY
  5
3F2
100
AcDbDictionary
  3
ACAD_GROUP
350
3F3
  3
ACAD_MLINESTYLE
350
3F4
  0
DICTIONARY
  5
3F3
102
{ACAD_REACTORS
330
3F2
102
}
100
AcDbDictionary
  0
DICTIONARY
  5
3F4
102
{ACAD_REACTORS
330
3F2
102
}
100
AcDbDictionary
  3
STANDARD
350
3F5
  0
MLINESTYLE
  5
3F5
102
{ACAD_REACTORS
330
3F4
102
}
100
AcDbMlineStyle
  2
STANDARD
 70
0
  3

 62
256
 51
90.0
 52
90.0
 71
2
 49
0.5
 62
256
  6
BYLAYER
 49
-0.5
 62
256
  6
BYLAYER
  0
ENDSEC
  0
EOF
