999
DXF file: 2e0_c_155.dxf
999
Pro/ENGINEER 2016360 by Parametric Technology Corporation
  0
SECTION
  2
HEADER
  9
$ACADVER
  1
AC1014
  9
$DWGCODEPAGE
  3
ANSI_1252
  9
$EXTMAX
 10
297.0
 20
210.0
 30
0.0
  9
$EXTMIN
 10
0.0
 20
0.0
 30
0.0
  9
$LIMMIN
 10
0.0
 20
0.0
  9
$LIMMAX
 10
297.0
 20
210.0
  9
$VIEWCTR
 10
148.5
 20
105.0
  9
$VIEWSIZE
 40
210.0
  9
$CLAYER
  8
0
  9
$LTSCALE
 40
16.335
  9
$CELTYPE
  6
BYLAYER
  9
$DIMSCALE
 40
1.0
  9
$DIMASZ
 40
2.5
  9
$DIMEXO
 40
0.75
  9
$DIMDLI
 40
11.286
  9
$DIMEXE
 40
0.75
  9
$DIMCEN
 40
2.673
  9
$DIMLFAC
 40
1.0
  9
$DIMBLK
  1
_CLOSED
  9
$DIMALT
 70
0
  9
$DIMALTF
 40
25.4
  9
$DIMTXT
 40
3.0
  9
$DIMTOL
 70
1
  9
$DIMLIM
 70
0
  9
$DIMTFAC
 40
1.0
  9
$DIMTP
 40
0.01
  9
$DIMTM
 40
0.01
  9
$DIMGAP
 40
0.625
  9
$AUNITS
 70
0
  9
$PDMODE
 70
3
  9
$PDSIZE
 40
0.3125
  9
$HANDSEED
  5
3E4
  9
$TILEMODE
 70
1
  9
$MEASUREMENT
 70
1
  0
ENDSEC
  0
SECTION
  2
CLASSES
  0
ENDSEC
  0
SECTION
  2
TABLES
  0
TABLE
  2
VPORT
  5
8
100
AcDbSymbolTable
 70
2
  0
VPORT
  5
1F4
100
AcDbSymbolTableRecord
100
AcDbViewportTableRecord
  2
*ACTIVE
 70
0
 10
0.0
 20
0.0
 11
1.0
 21
1.0
 12
148.5
 22
105.0
 13
0.0
 23
0.0
 14
1.0
 24
1.0
 15
0.0
 25
0.0
 16
0.0
 26
0.0
 36
1.0
 17
0.0
 27
0.0
 37
0.0
 40
210.0
 41
1.4142857143
 42
50.0
 43
0.0
 44
0.0
 50
0.0
 51
0.0
 71
0
 72
100
 73
1
 74
1
 75
0
 76
0
 77
0
 78
0
  0
ENDTAB
  0
TABLE
  2
LTYPE
  5
5
100
AcDbSymbolTable
 70
6
  0
LTYPE
  5
14
100
AcDbSymbolTableRecord
100
AcDbLinetypeTableRecord
  2
BYBLOCK
 70
0
  3

 72
65
 73
0
 40
0.0
  0
LTYPE
  5
15
100
AcDbSymbolTableRecord
100
AcDbLinetypeTableRecord
  2
BYLAYER
 70
0
  3

 72
65
 73
0
 40
0.0
  0
LTYPE
  5
16
100
AcDbSymbolTableRecord
100
AcDbLinetypeTableRecord
  2
CONTINUOUS
 70
64
  3
Solid line
 72
65
 73
0
 40
0.0
  0
LTYPE
  5
1F5
100
AcDbSymbolTableRecord
100
AcDbLinetypeTableRecord
  2
CENTER
 70
64
  3
____ _ ____ _ ____ _ ____ _ ____ _ ____ _ ____
 72
65
 73
4
 40
0.6
 49
0.375
 74
0
 49
-0.075
 74
0
 49
0.075
 74
0
 49
-0.075
 74
0
  0
LTYPE
  5
1F6
100
AcDbSymbolTableRecord
100
AcDbLinetypeTableRecord
  2
HIDDEN
 70
64
  3
- - - - - - - - - - - - - - - - - - - -
 72
65
 73
2
 40
0.2
 49
0.1
 74
0
 49
-0.1
 74
0
  0
LTYPE
  5
1F7
100
AcDbSymbolTableRecord
100
AcDbLinetypeTableRecord
  2
PHANTOM
 70
64
  3
_____ _ _ _____ _ _ _____ _ _ _____
 72
65
 73
6
 40
0.8
 49
0.45
 74
0
 49
-0.05
 74
0
 49
0.1
 74
0
 49
-0.05
 74
0
 49
0.1
 74
0
 49
-0.05
 74
0
  0
LTYPE
  5
1F8
100
AcDbSymbolTableRecord
100
AcDbLinetypeTableRecord
  2
DOT
 70
64
  3
. . . . . . . . . . . . . . . . . . . .
 72
65
 73
2
 40
0.2
 49
0.1
 74
0
 49
-0.1
 74
0
  0
LTYPE
  5
1F9
100
AcDbSymbolTableRecord
100
AcDbLinetypeTableRecord
  2
DASHED
 70
64
  3
- - - - - - - - - - - - - - - - - - - -
 72
65
 73
2
 40
0.2
 49
0.1
 74
0
 49
-0.1
 74
0
  0
ENDTAB
  0
TABLE
  2
LAYER
  5
2
100
AcDbSymbolTable
 70
36
  0
LAYER
  5
10
100
AcDbSymbolTableRecord
100
AcDbLayerTableRecord
  2
0
 70
0
 62
7
  6
CONTINUOUS
  0
LAYER
  5
1FA
100
AcDbSymbolTableRecord
100
AcDbLayerTableRecord
  2
DEFAULT_1
 70
0
 62
7
  6
CENTER
  0
LAYER
  5
1FB
100
AcDbSymbolTableRecord
100
AcDbLayerTableRecord
  2
DEFAULT_2
 70
0
 62
8
  6
HIDDEN
  0
LAYER
  5
1FC
100
AcDbSymbolTableRecord
100
AcDbLayerTableRecord
  2
DEFAULT_3
 70
0
 62
7
  6
PHANTOM
  0
LAYER
  5
1FD
100
AcDbSymbolTableRecord
100
AcDbLayerTableRecord
  2
01_ALL_DTM_PLN
 70
0
 62
7
  6
CONTINUOUS
  0
LAYER
  5
1FE
100
AcDbSymbolTableRecord
100
AcDbLayerTableRecord
  2
01__ASM_ALL_DTM_PLN
 70
0
 62
7
  6
CONTINUOUS
  0
LAYER
  5
1FF
100
AcDbSymbolTableRecord
100
AcDbLayerTableRecord
  2
01__ASM_DEF_DTM_PLN
 70
0
 62
7
  6
CONTINUOUS
  0
LAYER
  5
200
100
AcDbSymbolTableRecord
100
AcDbLayerTableRecord
  2
01___PRT_ALL_DTM_PLN
 70
0
 62
7
  6
CONTINUOUS
  0
LAYER
  5
201
100
AcDbSymbolTableRecord
100
AcDbLayerTableRecord
  2
01___PRT_DEF_DTM_PLN
 70
0
 62
7
  6
CONTINUOUS
  0
LAYER
  5
202
100
AcDbSymbolTableRecord
100
AcDbLayerTableRecord
  2
02_ALL_AXES
 70
0
 62
7
  6
CONTINUOUS
  0
LAYER
  5
203
100
AcDbSymbolTableRecord
100
AcDbLayerTableRecord
  2
02__ASM_ALL_AXES
 70
0
 62
7
  6
CONTINUOUS
  0
LAYER
  5
204
100
AcDbSymbolTableRecord
100
AcDbLayerTableRecord
  2
02___PRT_ALL_AXES
 70
0
 62
7
  6
CONTINUOUS
  0
LAYER
  5
205
100
AcDbSymbolTableRecord
100
AcDbLayerTableRecord
  2
03_ALL_CURVES
 70
0
 62
7
  6
CONTINUOUS
  0
LAYER
  5
206
100
AcDbSymbolTableRecord
100
AcDbLayerTableRecord
  2
03__ASM_ALL_CURVES
 70
0
 62
7
  6
CONTINUOUS
  0
LAYER
  5
207
100
AcDbSymbolTableRecord
100
AcDbLayerTableRecord
  2
03___PRT_ALL_CURVES
 70
0
 62
7
  6
CONTINUOUS
  0
LAYER
  5
208
100
AcDbSymbolTableRecord
100
AcDbLayerTableRecord
  2
04_ALL_DTM_PNT
 70
0
 62
7
  6
CONTINUOUS
  0
LAYER
  5
209
100
AcDbSymbolTableRecord
100
AcDbLayerTableRecord
  2
04__ASM_ALL_DTM_PNT
 70
0
 62
7
  6
CONTINUOUS
  0
LAYER
  5
20A
100
AcDbSymbolTableRecord
100
AcDbLayerTableRecord
  2
04___PRT_ALL_DTM_PNT
 70
0
 62
7
  6
CONTINUOUS
  0
LAYER
  5
20B
100
AcDbSymbolTableRecord
100
AcDbLayerTableRecord
  2
05_ALL_DTM_CSYS
 70
0
 62
7
  6
CONTINUOUS
  0
LAYER
  5
20C
100
AcDbSymbolTableRecord
100
AcDbLayerTableRecord
  2
05__ASM_ALL_DTM_CSYS
 70
0
 62
7
  6
CONTINUOUS
  0
LAYER
  5
20D
100
AcDbSymbolTableRecord
100
AcDbLayerTableRecord
  2
05__ASM_DEF_DTM_CSYS
 70
0
 62
7
  6
CONTINUOUS
  0
LAYER
  5
20E
100
AcDbSymbolTableRecord
100
AcDbLayerTableRecord
  2
05___PRT_ALL_DTM_CSYS
 70
0
 62
7
  6
CONTINUOUS
  0
LAYER
  5
20F
100
AcDbSymbolTableRecord
100
AcDbLayerTableRecord
  2
05___PRT_DEF_DTM_CSYS
 70
0
 62
7
  6
CONTINUOUS
  0
LAYER
  5
210
100
AcDbSymbolTableRecord
100
AcDbLayerTableRecord
  2
06_ALL_SURFS
 70
0
 62
7
  6
CONTINUOUS
  0
LAYER
  5
211
100
AcDbSymbolTableRecord
100
AcDbLayerTableRecord
  2
06__ASM_ALL_SURFS
 70
0
 62
7
  6
CONTINUOUS
  0
LAYER
  5
212
100
AcDbSymbolTableRecord
100
AcDbLayerTableRecord
  2
06___PRT_ALL_SURFS
 70
0
 62
7
  6
CONTINUOUS
  0
LAYER
  5
213
100
AcDbSymbolTableRecord
100
AcDbLayerTableRecord
  2
07__ASM_ALL_SKELETONS
 70
0
 62
7
  6
CONTINUOUS
  0
LAYER
  5
214
100
AcDbSymbolTableRecord
100
AcDbLayerTableRecord
  2
1_ALL_PLANES
 70
0
 62
7
  6
CONTINUOUS
  0
LAYER
  5
215
100
AcDbSymbolTableRecord
100
AcDbLayerTableRecord
  2
2_ALL_CSYS
 70
0
 62
7
  6
CONTINUOUS
  0
LAYER
  5
216
100
AcDbSymbolTableRecord
100
AcDbLayerTableRecord
  2
3_ALL_AXES
 70
0
 62
7
  6
CONTINUOUS
  0
LAYER
  5
217
100
AcDbSymbolTableRecord
100
AcDbLayerTableRecord
  2
4_ALL_POINTS
 70
0
 62
7
  6
CONTINUOUS
  0
LAYER
  5
218
100
AcDbSymbolTableRecord
100
AcDbLayerTableRecord
  2
5_ALL_CURVES
 70
0
 62
7
  6
CONTINUOUS
  0
LAYER
  5
219
100
AcDbSymbolTableRecord
100
AcDbLayerTableRecord
  2
6_ALL_SURFS
 70
0
 62
7
  6
CONTINUOUS
  0
LAYER
  5
21A
100
AcDbSymbolTableRecord
100
AcDbLayerTableRecord
  2
7_ALL_FEATURES
 70
0
 62
7
  6
CONTINUOUS
  0
LAYER
  5
21B
100
AcDbSymbolTableRecord
100
AcDbLayerTableRecord
  2
9_SOLID
 70
0
 62
7
  6
CONTINUOUS
  0
LAYER
  5
21C
100
AcDbSymbolTableRecord
100
AcDbLayerTableRecord
  2
INTFCLR_2
 70
0
 62
7
  6
CONTINUOUS
  0
LAYER
  5
21D
100
AcDbSymbolTableRecord
100
AcDbLayerTableRecord
  2
INTFCLR_3
 70
0
 62
7
  6
CONTINUOUS
  0
LAYER
  5
21E
100
AcDbSymbolTableRecord
100
AcDbLayerTableRecord
  2
INTF_CYAN
 70
0
 62
7
  6
CONTINUOUS
  0
ENDTAB
  0
TABLE
  2
STYLE
  5
3
100
AcDbSymbolTable
 70
1
  0
STYLE
  5
11
100
AcDbSymbolTableRecord
100
AcDbTextStyleTableRecord
  2
STANDARD
 70
0
 40
0.0
 41
1.0
 50
0.0
 71
0
 42
0.2
  3
arial.ttf
  4

  0
STYLE
  5
21F
100
AcDbSymbolTableRecord
100
AcDbTextStyleTableRecord
  2
TEXTSTYLE_1
 70
0
 40
0.0
 41
0.8
 50
0.0
 71
0
 42
0.2
  3
gdt
  4

  0
STYLE
  5
220
100
AcDbSymbolTableRecord
100
AcDbTextStyleTableRecord
  2
TEXTSTYLE_2
 70
0
 40
0.0
 41
0.85
 50
0.0
 71
0
 42
0.2
  3
gdt
  4

  0
STYLE
  5
221
100
AcDbSymbolTableRecord
100
AcDbTextStyleTableRecord
  2
TEXTSTYLE_3
 70
0
 40
0.0
 41
0.85
 50
0.0
 71
0
 42
0.2
  3
txt
  4

  0
ENDTAB
  0
TABLE
  2
VIEW
  5
6
100
AcDbSymbolTable
 70
0
  0
ENDTAB
  0
TABLE
  2
UCS
  5
7
100
AcDbSymbolTable
 70
0
  0
ENDTAB
  0
TABLE
  2
APPID
  5
9
100
AcDbSymbolTable
 70
1
  0
APPID
  5
222
100
AcDbSymbolTableRecord
100
AcDbRegAppTableRecord
  2
ACAD
 70
0
  0
ENDTAB
  0
TABLE
  2
BLOCK_RECORD
  5
1
100
AcDbSymbolTable
 70
0
  0
BLOCK_RECORD
  5
1F
100
AcDbSymbolTableRecord
100
AcDbBlockTableRecord
  2
*MODEL_SPACE
  0
BLOCK_RECORD
  5
1B
100
AcDbSymbolTableRecord
100
AcDbBlockTableRecord
  2
*PAPER_SPACE
  0
BLOCK_RECORD
  5
223
100
AcDbSymbolTableRecord
100
AcDbBlockTableRecord
  2
_CLOSED
  0
BLOCK_RECORD
  5
224
100
AcDbSymbolTableRecord
100
AcDbBlockTableRecord
  2
*D0
  0
BLOCK_RECORD
  5
225
100
AcDbSymbolTableRecord
100
AcDbBlockTableRecord
  2
*D1
  0
BLOCK_RECORD
  5
226
100
AcDbSymbolTableRecord
100
AcDbBlockTableRecord
  2
*D2
  0
BLOCK_RECORD
  5
227
100
AcDbSymbolTableRecord
100
AcDbBlockTableRecord
  2
*D3
  0
BLOCK_RECORD
  5
228
100
AcDbSymbolTableRecord
100
AcDbBlockTableRecord
  2
LOGO2_BL0
  0
ENDTAB
  0
TABLE
  2
DIMSTYLE
  5
A
100
AcDbSymbolTable
 70
1
  0
DIMSTYLE
105
229
100
AcDbSymbolTableRecord
100
AcDbDimStyleTableRecord
  2
STANDARD
 70
0
  3

  4

  5
_CLOSED
  6
_CLOSED
  7
_CLOSED
 40
1.0
 41
2.5
 42
0.75
 43
0.38
 44
0.75
 45
0.0
 46
0.0
 47
0.01
 48
0.01
140
3.0
141
0.09
142
0.0
143
25.4
144
1.0
145
0.0
146
1.0
147
0.625
 71
1.0
 72
0.0
 73
0
 74
0
 75
0
 76
0
 77
1
 78
8
 79
2
170
0
171
1
172
0
173
0
174
0
175
0
176
0
177
0
178
0
270
2
179
2
271
2
272
2
273
2
274
2
275
0
280
0
281
0
282
0
283
1
284
8
285
0
286
0
287
3
288
0
340
11
  0
DIMSTYLE
105
22A
100
AcDbSymbolTableRecord
100
AcDbDimStyleTableRecord
  2
DIMSTYLE_1
 70
0
  3

  4

  5
_CLOSED
  6
_CLOSED
  7
_CLOSED
 40
1.0
 41
2.5
 42
0.75
 43
0.38
 44
0.75
 45
0.0
 46
0.0
 47
0.3
 48
0.3
140
3.0
141
0.09
142
0.0
143
25.4
144
1.0
145
0.0
146
1.0
147
0.75
 71
0.0
 72
0.0
 73
0
 74
0
 75
0
 76
0
 77
1
 78
8
 79
2
170
0
171
1
172
0
173
0
174
0
175
0
176
0
177
0
178
0
270
2
179
2
271
2
272
2
273
2
274
2
275
0
280
0
281
0
282
0
283
1
284
8
285
0
286
0
287
3
288
0
340
11
  0
DIMSTYLE
105
22B
100
AcDbSymbolTableRecord
100
AcDbDimStyleTableRecord
  2
DIMSTYLE_2
 70
0
  3
<>
  4

  5
_CLOSED
  6
_CLOSED
  7
_CLOSED
 40
1.0
 41
2.5
 42
0.75
 43
0.38
 44
0.75
 45
0.0
 46
0.0
 47
0.3
 48
0.3
140
3.0
141
0.09
142
0.0
143
25.4
144
1.0
145
0.0
146
1.0
147
0.625
 71
0.0
 72
0.0
 73
0
 74
0
 75
0
 76
0
 77
1
 78
8
 79
2
170
0
171
1
172
1
173
0
174
0
175
0
176
0
177
0
178
0
270
2
179
2
271
2
272
2
273
2
274
2
275
0
280
0
281
0
282
0
283
1
284
8
285
0
286
0
287
3
288
1
340
11
  0
ENDTAB
  0
ENDSEC
  0
SECTION
  2
BLOCKS
  0
BLOCK
  5
20
100
AcDbEntity
  8
0
100
AcDbBlockBegin
  2
*MODEL_SPACE
 70
0
 10
0.0
 20
0.0
 30
0.0
  3
*MODEL_SPACE
  1

  0
ENDBLK
  5
21
100
AcDbEntity
  8
0
100
AcDbBlockEnd
  0
BLOCK
  5
1C
100
AcDbEntity
  8
0
100
AcDbBlockBegin
  2
*PAPER_SPACE
 70
0
 10
0.0
 20
0.0
 30
0.0
  3
*PAPER_SPACE
  1

  0
ENDBLK
  5
1D
100
AcDbEntity
  8
0
100
AcDbBlockEnd
  0
BLOCK
  5
22C
100
AcDbEntity
  8
0
100
AcDbBlockBegin
 62
2
  6
CONTINUOUS
  2
LOGO2_BL0
 70
64
 10
207.6164605391
 20
39.6725198453
  3
LOGO2_BL0
  1

  0
LINE
  5
22D
100
AcDbEntity
  8
0
100
AcDbLine
 62
7
  6
CONTINUOUS
 10
199.3593857673
 20
42.8680111841
 11
198.055044838
 21
42.8680111841
  0
LINE
  5
22E
100
AcDbEntity
  8
0
100
AcDbLine
 62
7
  6
CONTINUOUS
 10
198.055044838
 20
42.8680111841
 11
198.055044838
 21
32.4089451242
  0
LINE
  5
22F
100
AcDbEntity
  8
0
100
AcDbLine
 62
7
  6
CONTINUOUS
 10
198.055044838
 20
32.4089451242
 11
202.5360997262
 21
32.4089451242
  0
LINE
  5
230
100
AcDbEntity
  8
0
100
AcDbLine
 62
7
  6
CONTINUOUS
 10
202.5360997262
 20
32.4089451242
 11
202.5360997262
 21
33.6017994493
  0
LINE
  5
231
100
AcDbEntity
  8
0
100
AcDbLine
 62
7
  6
CONTINUOUS
 10
202.5360997262
 20
33.6017994493
 11
199.3593857673
 21
33.6017994493
  0
LINE
  5
232
100
AcDbEntity
  8
0
100
AcDbLine
 62
7
  6
CONTINUOUS
 10
199.3593857673
 20
33.6017994493
 11
199.3593857673
 21
42.8680111841
  0
LINE
  5
233
100
AcDbEntity
  8
0
100
AcDbLine
 62
7
  6
CONTINUOUS
 10
214.2957119836
 20
42.8680111841
 11
212.9918944656
 21
42.8680111841
  0
LINE
  5
234
100
AcDbEntity
  8
0
100
AcDbLine
 62
7
  6
CONTINUOUS
 10
212.9918944656
 20
42.8680111841
 11
212.9918944656
 21
32.4089451242
  0
LINE
  5
235
100
AcDbEntity
  8
0
100
AcDbLine
 62
7
  6
CONTINUOUS
 10
212.9918944656
 20
32.4089451242
 11
217.4730802067
 21
32.4089451242
  0
LINE
  5
236
100
AcDbEntity
  8
0
100
AcDbLine
 62
7
  6
CONTINUOUS
 10
217.4730802067
 20
32.4089451242
 11
217.4730802067
 21
33.6017994493
  0
LINE
  5
237
100
AcDbEntity
  8
0
100
AcDbLine
 62
7
  6
CONTINUOUS
 10
217.4730802067
 20
33.6017994493
 11
214.2957119836
 21
33.6017994493
  0
LINE
  5
238
100
AcDbEntity
  8
0
100
AcDbLine
 62
7
  6
CONTINUOUS
 10
214.2957119836
 20
33.6017994493
 11
214.2957119836
 21
42.8680111841
  0
LWPOLYLINE
  5
239
100
AcDbEntity
  8
0
100
AcDbPolyline
 62
7
  6
CONTINUOUS
 90
2
 70
0
 43
0.2
 10
196.4094397489
 20
29.0653938173
 10
196.4094397489
 20
27.208330568
  0
LWPOLYLINE
  5
23A
100
AcDbEntity
  8
0
100
AcDbPolyline
 62
7
  6
CONTINUOUS
 90
2
 70
0
 43
0.2
 10
196.4094397489
 20
27.208330568
 10
197.2051557593
 20
27.208330568
  0
LWPOLYLINE
  5
23B
100
AcDbEntity
  8
0
100
AcDbPolyline
 62
7
  6
CONTINUOUS
 90
2
 70
0
 43
0.2
 10
197.2051557593
 20
27.208330568
 10
197.2051557593
 20
27.4203121396
  0
LWPOLYLINE
  5
23C
100
AcDbEntity
  8
0
100
AcDbPolyline
 62
7
  6
CONTINUOUS
 90
2
 70
0
 43
0.2
 10
197.2051557593
 20
27.4203121396
 10
196.6410492438
 20
27.4203121396
  0
LWPOLYLINE
  5
23D
100
AcDbEntity
  8
0
100
AcDbPolyline
 62
7
  6
CONTINUOUS
 90
2
 70
0
 43
0.2
 10
196.6410492438
 20
27.4203121396
 10
196.6410492438
 20
29.0653938173
  0
LWPOLYLINE
  5
23E
100
AcDbEntity
  8
0
100
AcDbPolyline
 62
7
  6
CONTINUOUS
 90
2
 70
0
 43
0.2
 10
196.6410492438
 20
29.0653938173
 10
196.4094397489
 20
29.0653938173
  0
SPLINE
  5
23F
100
AcDbEntity
  8
0
100
AcDbSpline
 62
7
  6
CONTINUOUS
 70
2
 71
3
 72
35
 73
31
 74
0
 42
0.0000001
 43
0.0000001
 44
0.0000000001
 40
0.0
 40
0.0
 40
0.0
 40
0.0
 40
1.0
 40
1.0
 40
1.0
 40
2.0
 40
2.0
 40
2.0
 40
3.0
 40
3.0
 40
3.0
 40
4.0
 40
4.0
 40
4.0
 40
5.0
 40
5.0
 40
5.0
 40
6.0
 40
6.0
 40
6.0
 40
7.0
 40
7.0
 40
7.0
 40
8.0
 40
8.0
 40
8.0
 40
9.0
 40
9.0
 40
9.0
 40
10.0
 40
10.0
 40
10.0
 40
10.0
 10
198.6034490148
 20
28.3608822239
 30
0.0
 10
198.6034490148
 20
28.3608822239
 30
0.0
 10
198.6034490148
 20
27.6987669447
 30
0.0
 10
198.6034490148
 20
27.6987669447
 30
0.0
 10
198.6034490148
 20
27.3836733494
 30
0.0
 10
198.7513127037
 20
27.1690747214
 30
0.0
 10
199.0913991879
 20
27.1690747214
 30
0.0
 10
199.430962261
 20
27.1690747214
 30
0.0
 10
199.5790876554
 20
27.3836733494
 30
0.0
 10
199.5790876554
 20
27.6987669447
 30
0.0
 10
199.5790876554
 20
27.6987669447
 30
0.0
 10
199.5790876554
 20
28.3608822239
 30
0.0
 10
199.5790876554
 20
28.3608822239
 30
0.0
 10
199.5790876554
 20
28.3608822239
 30
0.0
 10
199.3570304165
 20
28.3608822239
 30
0.0
 10
199.3570304165
 20
28.3608822239
 30
0.0
 10
199.3570304165
 20
28.3608822239
 30
0.0
 10
199.3570304165
 20
27.7238906865
 30
0.0
 10
199.3570304165
 20
27.7238906865
 30
0.0
 10
199.3570304165
 20
27.5380796793
 30
0.0
 10
199.3103159591
 20
27.3752987688
 30
0.0
 10
199.0913991879
 20
27.3752987688
 30
0.0
 10
198.8719590055
 20
27.3752987688
 30
0.0
 10
198.8252445481
 20
27.5380796793
 30
0.0
 10
198.8252445481
 20
27.7238906865
 30
0.0
 10
198.8252445481
 20
27.7238906865
 30
0.0
 10
198.8252445481
 20
28.3608822239
 30
0.0
 10
198.8252445481
 20
28.3608822239
 30
0.0
 10
198.8252445481
 20
28.3608822239
 30
0.0
 10
198.6034490148
 20
28.3608822239
 30
0.0
 10
198.6034490148
 20
28.3608822239
 30
0.0
  0
SPLINE
  5
240
100
AcDbEntity
  8
0
100
AcDbSpline
 62
7
  6
CONTINUOUS
 70
2
 71
3
 72
35
 73
31
 74
0
 42
0.0000001
 43
0.0000001
 44
0.0000000001
 40
0.0
 40
0.0
 40
0.0
 40
0.0
 40
1.0
 40
1.0
 40
1.0
 40
2.0
 40
2.0
 40
2.0
 40
3.0
 40
3.0
 40
3.0
 40
4.0
 40
4.0
 40
4.0
 40
5.0
 40
5.0
 40
5.0
 40
6.0
 40
6.0
 40
6.0
 40
7.0
 40
7.0
 40
7.0
 40
8.0
 40
8.0
 40
8.0
 40
9.0
 40
9.0
 40
9.0
 40
10.0
 40
10.0
 40
10.0
 40
10.0
 10
202.0022202126
 20
28.3195327321
 30
0.0
 10
201.913763705
 20
28.3708270383
 30
0.0
 10
201.8003143083
 20
28.3959507801
 30
0.0
 10
201.6966788733
 20
28.3959507801
 30
0.0
 10
201.3418060201
 20
28.3959507801
 30
0.0
 10
201.0663608299
 20
28.1321514911
 30
0.0
 10
201.0663608299
 20
27.7746615814
 30
0.0
 10
201.0663608299
 20
27.4297335427
 30
0.0
 10
201.344815635
 20
27.1695981327
 30
0.0
 10
201.6843787081
 20
27.1695981327
 30
0.0
 10
201.8003143083
 20
27.1695981327
 30
0.0
 10
201.9010709812
 20
27.1915814068
 30
0.0
 10
202.0022202126
 20
27.2454927694
 30
0.0
 10
202.0022202126
 20
27.2454927694
 30
0.0
 10
202.0022202126
 20
27.5281348649
 30
0.0
 10
202.0022202126
 20
27.5281348649
 30
0.0
 10
201.9183435537
 20
27.4349676556
 30
0.0
 10
201.8148389716
 20
27.3758221801
 30
0.0
 10
201.6867340588
 20
27.3758221801
 30
0.0
 10
201.4530309188
 20
27.3758221801
 30
0.0
 10
201.2877638047
 20
27.5480244938
 30
0.0
 10
201.2877638047
 20
27.7846063959
 30
0.0
 10
201.2877638047
 20
27.9965879675
 30
0.0
 10
201.4555171224
 20
28.1886799102
 30
0.0
 10
201.6723402484
 20
28.1886799102
 30
0.0
 10
201.8051558627
 20
28.1886799102
 30
0.0
 10
201.913763705
 20
28.1347685475
 30
0.0
 10
202.0022202126
 20
28.0337501689
 30
0.0
 10
202.0022202126
 20
28.0337501689
 30
0.0
 10
202.0022202126
 20
28.3195327321
 30
0.0
 10
202.0022202126
 20
28.3195327321
 30
0.0
  0
SPLINE
  5
241
100
AcDbEntity
  8
0
100
AcDbSpline
 62
7
  6
CONTINUOUS
 70
2
 71
3
 72
32
 73
28
 74
0
 42
0.0000001
 43
0.0000001
 44
0.0000000001
 40
0.0
 40
0.0
 40
0.0
 40
0.0
 40
1.0
 40
1.0
 40
1.0
 40
2.0
 40
2.0
 40
2.0
 40
3.0
 40
3.0
 40
3.0
 40
4.0
 40
4.0
 40
4.0
 40
5.0
 40
5.0
 40
5.0
 40
6.0
 40
6.0
 40
6.0
 40
7.0
 40
7.0
 40
7.0
 40
8.0
 40
8.0
 40
8.0
 40
9.0
 40
9.0
 40
9.0
 40
9.0
 10
204.5340914649
 20
27.7479676058
 30
0.0
 10
204.5340914649
 20
27.7479676058
 30
0.0
 10
204.5340914649
 20
27.7819893395
 30
0.0
 10
204.5340914649
 20
27.7819893395
 30
0.0
 10
204.5340914649
 20
28.1243003217
 30
0.0
 10
204.361234887
 20
28.3959507801
 30
0.0
 10
203.9945852799
 20
28.3959507801
 30
0.0
 10
203.6229632655
 20
28.3959507801
 30
0.0
 10
203.4332266736
 20
28.1295344346
 30
0.0
 10
203.4332266736
 20
27.7746615814
 30
0.0
 10
203.4332266736
 20
27.4349676556
 30
0.0
 10
203.6473018904
 20
27.1690747214
 30
0.0
 10
203.9994268343
 20
27.1690747214
 30
0.0
 10
204.2234468655
 20
27.1690747214
 30
0.0
 10
204.4256144755
 20
27.284748616
 30
0.0
 10
204.5340914649
 20
27.4841683167
 30
0.0
 10
204.5340914649
 20
27.4841683167
 30
0.0
 10
204.3464485182
 20
27.5909442194
 30
0.0
 10
204.3464485182
 20
27.5909442194
 30
0.0
 10
204.2629644177
 20
27.4522402281
 30
0.0
 10
204.1717600008
 20
27.3664007769
 30
0.0
 10
204.0021747436
 20
27.3664007769
 30
0.0
 10
203.790193172
 20
27.3664007769
 30
0.0
 10
203.6572467049
 20
27.5511649615
 30
0.0
 10
203.6548913541
 20
27.7479676058
 30
0.0
 10
203.6548913541
 20
27.7479676058
 30
0.0
 10
204.5340914649
 20
27.7479676058
 30
0.0
 10
204.5340914649
 20
27.7479676058
 30
0.0
  0
SPLINE
  5
242
100
AcDbEntity
  8
0
100
AcDbSpline
 62
7
  6
CONTINUOUS
 70
2
 71
3
 72
14
 73
10
 74
0
 42
0.0000001
 43
0.0000001
 44
0.0000000001
 40
0.0
 40
0.0
 40
0.0
 40
0.0
 40
1.0
 40
1.0
 40
1.0
 40
2.0
 40
2.0
 40
2.0
 40
3.0
 40
3.0
 40
3.0
 40
3.0
 10
203.6669298137
 20
27.9154592179
 30
0.0
 10
203.6945397591
 20
28.0803337736
 30
0.0
 10
203.8223829662
 20
28.2033354262
 30
0.0
 10
203.9945852799
 20
28.2033354262
 30
0.0
 10
204.1717600008
 20
28.2033354262
 30
0.0
 10
204.2852093975
 20
28.0876615316
 30
0.0
 10
204.3124267844
 20
27.9154592179
 30
0.0
 10
204.3124267844
 20
27.9154592179
 30
0.0
 10
203.6669298137
 20
27.9154592179
 30
0.0
 10
203.6669298137
 20
27.9154592179
 30
0.0
  0
SPLINE
  5
243
100
AcDbEntity
  8
0
100
AcDbSpline
 62
7
  6
CONTINUOUS
 70
2
 71
3
 72
20
 73
16
 74
0
 42
0.0000001
 43
0.0000001
 44
0.0000000001
 40
0.0
 40
0.0
 40
0.0
 40
0.0
 40
1.0
 40
1.0
 40
1.0
 40
2.0
 40
2.0
 40
2.0
 40
3.0
 40
3.0
 40
3.0
 40
4.0
 40
4.0
 40
4.0
 40
5.0
 40
5.0
 40
5.0
 40
5.0
 10
206.5581229151
 20
28.124823733
 30
0.0
 10
206.5581229151
 20
28.124823733
 30
0.0
 10
206.9692624817
 20
27.6223488967
 30
0.0
 10
206.9692624817
 20
27.6223488967
 30
0.0
 10
206.8531960286
 20
27.5066750021
 30
0.0
 10
206.7154080071
 20
27.3763455914
 30
0.0
 10
206.543467399
 20
27.3763455914
 30
0.0
 10
206.3660309724
 20
27.3763455914
 30
0.0
 10
206.1985393603
 20
27.5406967358
 30
0.0
 10
206.1985393603
 20
27.7176097511
 30
0.0
 10
206.1985393603
 20
27.8955695889
 30
0.0
 10
206.4082964339
 20
28.0217117093
 30
0.0
 10
206.5358779353
 20
28.1096448057
 30
0.0
 10
206.5358779353
 20
28.1096448057
 30
0.0
 10
206.5581229151
 20
28.124823733
 30
0.0
 10
206.5581229151
 20
28.124823733
 30
0.0
  0
SPLINE
  5
244
100
AcDbEntity
  8
0
100
AcDbSpline
 62
7
  6
CONTINUOUS
 70
2
 71
3
 72
23
 73
19
 74
0
 42
0.0000001
 43
0.0000001
 44
0.0000000001
 40
0.0
 40
0.0
 40
0.0
 40
0.0
 40
1.0
 40
1.0
 40
1.0
 40
2.0
 40
2.0
 40
2.0
 40
3.0
 40
3.0
 40
3.0
 40
4.0
 40
4.0
 40
4.0
 40
5.0
 40
5.0
 40
5.0
 40
6.0
 40
6.0
 40
6.0
 40
6.0
 10
206.6074544289
 20
28.4158404091
 30
0.0
 10
206.6074544289
 20
28.4158404091
 30
0.0
 10
206.5458227498
 20
28.4943521023
 30
0.0
 10
206.5458227498
 20
28.4943521023
 30
0.0
 10
206.4919113871
 20
28.562918981
 30
0.0
 10
206.4351212624
 20
28.632009271
 30
0.0
 10
206.4351212624
 20
28.7256998915
 30
0.0
 10
206.4351212624
 20
28.8445142539
 30
0.0
 10
206.5310363809
 20
28.9219791245
 30
0.0
 10
206.6419995739
 20
28.9219791245
 30
0.0
 10
206.7652629322
 20
28.9219791245
 30
0.0
 10
206.8585609943
 20
28.8507951893
 30
0.0
 10
206.8585609943
 20
28.7204657786
 30
0.0
 10
206.8585609943
 20
28.5854256664
 30
0.0
 10
206.7304560816
 20
28.5090076183
 30
0.0
 10
206.6368963139
 20
28.4352066267
 30
0.0
 10
206.6368963139
 20
28.4352066267
 30
0.0
 10
206.6074544289
 20
28.4158404091
 30
0.0
 10
206.6074544289
 20
28.4158404091
 30
0.0
  0
SPLINE
  5
245
100
AcDbEntity
  8
0
100
AcDbSpline
 62
7
  6
CONTINUOUS
 70
2
 71
3
 72
50
 73
46
 74
0
 42
0.0000001
 43
0.0000001
 44
0.0000000001
 40
0.0
 40
0.0
 40
0.0
 40
0.0
 40
1.0
 40
1.0
 40
1.0
 40
2.0
 40
2.0
 40
2.0
 40
3.0
 40
3.0
 40
3.0
 40
4.0
 40
4.0
 40
4.0
 40
5.0
 40
5.0
 40
5.0
 40
6.0
 40
6.0
 40
6.0
 40
7.0
 40
7.0
 40
7.0
 40
8.0
 40
8.0
 40
8.0
 40
9.0
 40
9.0
 40
9.0
 40
10.0
 40
10.0
 40
10.0
 40
11.0
 40
11.0
 40
11.0
 40
12.0
 40
12.0
 40
12.0
 40
13.0
 40
13.0
 40
13.0
 40
14.0
 40
14.0
 40
14.0
 40
15.0
 40
15.0
 40
15.0
 40
15.0
 10
207.3096106716
 20
27.2088539793
 30
0.0
 10
207.3096106716
 20
27.2088539793
 30
0.0
 10
207.5950006763
 20
27.2088539793
 30
0.0
 10
207.5950006763
 20
27.2088539793
 30
0.0
 10
207.5950006763
 20
27.2088539793
 30
0.0
 10
207.2626345085
 20
27.6197318402
 30
0.0
 10
207.2626345085
 20
27.6197318402
 30
0.0
 10
207.2626345085
 20
27.6197318402
 30
0.0
 10
207.4891407434
 20
27.8856247745
 30
0.0
 10
207.4891407434
 20
27.8856247745
 30
0.0
 10
207.4891407434
 20
27.8856247745
 30
0.0
 10
207.3408844961
 20
28.0384608705
 30
0.0
 10
207.3408844961
 20
28.0384608705
 30
0.0
 10
207.3408844961
 20
28.0384608705
 30
0.0
 10
207.1249773398
 20
27.7872234524
 30
0.0
 10
207.1249773398
 20
27.7872234524
 30
0.0
 10
207.1249773398
 20
27.7872234524
 30
0.0
 10
206.7379146924
 20
28.2551531437
 30
0.0
 10
206.7379146924
 20
28.2551531437
 30
0.0
 10
206.8933678449
 20
28.3692568045
 30
0.0
 10
207.0756458259
 20
28.5090076183
 30
0.0
 10
207.0756458259
 20
28.7183721335
 30
0.0
 10
207.0756458259
 20
28.9622817936
 30
0.0
 10
206.8736090688
 20
29.1056964865
 30
0.0
 10
206.647102834
 20
29.1056964865
 30
0.0
 10
206.4029314682
 20
29.1056964865
 30
0.0
 10
206.2185598421
 20
28.9549540356
 30
0.0
 10
206.2185598421
 20
28.6984825045
 30
0.0
 10
206.2185598421
 20
28.5409357069
 30
0.0
 10
206.3172228698
 20
28.4032785382
 30
0.0
 10
206.4225593915
 20
28.2923153452
 30
0.0
 10
206.4225593915
 20
28.2923153452
 30
0.0
 10
206.3070163497
 20
28.2085695391
 30
0.0
 10
206.3070163497
 20
28.2085695391
 30
0.0
 10
206.1293182175
 20
28.0803337736
 30
0.0
 10
205.9819779399
 20
27.9526214193
 30
0.0
 10
205.9819779399
 20
27.7155161059
 30
0.0
 10
205.9819779399
 20
27.3951883977
 30
0.0
 10
206.2405431161
 20
27.1690747214
 30
0.0
 10
206.5509260098
 20
27.1690747214
 30
0.0
 10
206.769842781
 20
27.1690747214
 30
0.0
 10
206.9670379837
 20
27.2941700192
 30
0.0
 10
207.1073122089
 20
27.4600913974
 30
0.0
 10
207.1073122089
 20
27.4600913974
 30
0.0
 10
207.3096106716
 20
27.2088539793
 30
0.0
 10
207.3096106716
 20
27.2088539793
 30
0.0
  0
LWPOLYLINE
  5
246
100
AcDbEntity
  8
0
100
AcDbPolyline
 62
7
  6
CONTINUOUS
 90
2
 70
0
 43
0.2
 10
209.2450547613
 20
29.0653938173
 10
209.0137069721
 20
29.0653938173
  0
LWPOLYLINE
  5
247
100
AcDbEntity
  8
0
100
AcDbPolyline
 62
7
  6
CONTINUOUS
 90
2
 70
0
 43
0.2
 10
209.0137069721
 20
29.0653938173
 10
209.0137069721
 20
27.208330568
  0
LWPOLYLINE
  5
248
100
AcDbEntity
  8
0
100
AcDbPolyline
 62
7
  6
CONTINUOUS
 90
2
 70
0
 43
0.2
 10
209.0137069721
 20
27.208330568
 10
209.809030424
 20
27.208330568
  0
LWPOLYLINE
  5
249
100
AcDbEntity
  8
0
100
AcDbPolyline
 62
7
  6
CONTINUOUS
 90
2
 70
0
 43
0.2
 10
209.809030424
 20
27.208330568
 10
209.809030424
 20
27.4203121396
  0
LWPOLYLINE
  5
24A
100
AcDbEntity
  8
0
100
AcDbPolyline
 62
7
  6
CONTINUOUS
 90
2
 70
0
 43
0.2
 10
209.809030424
 20
27.4203121396
 10
209.2450547613
 20
27.4203121396
  0
LWPOLYLINE
  5
24B
100
AcDbEntity
  8
0
100
AcDbPolyline
 62
7
  6
CONTINUOUS
 90
2
 70
0
 43
0.2
 10
209.2450547613
 20
27.4203121396
 10
209.2450547613
 20
29.0653938173
  0
LWPOLYLINE
  5
24C
100
AcDbEntity
  8
0
100
AcDbPolyline
 62
7
  6
CONTINUOUS
 90
2
 70
0
 43
0.2
 10
211.4881338355
 20
28.3608822239
 10
211.2669925664
 20
28.3608822239
  0
LWPOLYLINE
  5
24D
100
AcDbEntity
  8
0
100
AcDbPolyline
 62
7
  6
CONTINUOUS
 90
2
 70
0
 43
0.2
 10
211.2669925664
 20
28.3608822239
 10
211.2669925664
 20
27.2088539793
  0
LWPOLYLINE
  5
24E
100
AcDbEntity
  8
0
100
AcDbPolyline
 62
7
  6
CONTINUOUS
 90
2
 70
0
 43
0.2
 10
211.2669925664
 20
27.2088539793
 10
211.4881338355
 20
27.2088539793
  0
LWPOLYLINE
  5
24F
100
AcDbEntity
  8
0
100
AcDbPolyline
 62
7
  6
CONTINUOUS
 90
2
 70
0
 43
0.2
 10
211.4881338355
 20
27.2088539793
 10
211.4881338355
 20
28.3608822239
  0
SPLINE
  5
250
100
AcDbEntity
  8
0
100
AcDbSpline
 62
7
  6
CONTINUOUS
 70
2
 71
3
 72
17
 73
13
 74
0
 42
0.0000001
 43
0.0000001
 44
0.0000000001
 40
0.0
 40
0.0
 40
0.0
 40
0.0
 40
1.0
 40
1.0
 40
1.0
 40
2.0
 40
2.0
 40
2.0
 40
3.0
 40
3.0
 40
3.0
 40
4.0
 40
4.0
 40
4.0
 40
4.0
 10
211.3776940538
 20
29.0434105432
 30
0.0
 10
211.2936865421
 20
29.0434105432
 30
0.0
 10
211.2251196633
 20
28.9743202532
 30
0.0
 10
211.2251196633
 20
28.888480802
 30
0.0
 10
211.2251196633
 20
28.8042115847
 30
0.0
 10
211.2936865421
 20
28.7382617624
 30
0.0
 10
211.3776940538
 20
28.7382617624
 30
0.0
 10
211.4614398598
 20
28.7382617624
 30
0.0
 10
211.5302684442
 20
28.8042115847
 30
0.0
 10
211.5302684442
 20
28.888480802
 30
0.0
 10
211.5302684442
 20
28.9743202532
 30
0.0
 10
211.4614398598
 20
29.0434105432
 30
0.0
 10
211.3776940538
 20
29.0434105432
 30
0.0
  0
SPLINE
  5
251
100
AcDbEntity
  8
0
100
AcDbSpline
 62
7
  6
CONTINUOUS
 70
2
 71
3
 72
17
 73
13
 74
0
 42
0.0000001
 43
0.0000001
 44
0.0000000001
 40
0.0
 40
0.0
 40
0.0
 40
0.0
 40
1.0
 40
1.0
 40
1.0
 40
2.0
 40
2.0
 40
2.0
 40
3.0
 40
3.0
 40
3.0
 40
4.0
 40
4.0
 40
4.0
 40
4.0
 10
213.6184177771
 20
27.3664007769
 30
0.0
 10
213.3844529315
 20
27.3664007769
 30
0.0
 10
213.2541235208
 20
27.568437534
 30
0.0
 10
213.2541235208
 20
27.7846063959
 30
0.0
 10
213.2541235208
 20
27.9992050239
 30
0.0
 10
213.38994875
 20
28.1981013133
 30
0.0
 10
213.6184177771
 20
28.1981013133
 30
0.0
 10
213.8578784413
 20
28.1981013133
 30
0.0
 10
213.9934419649
 20
28.0091498384
 30
0.0
 10
213.9934419649
 20
27.7846063959
 30
0.0
 10
213.9934419649
 20
27.5584927196
 30
0.0
 10
213.8602337921
 20
27.3664007769
 30
0.0
 10
213.6184177771
 20
27.3664007769
 30
0.0
  0
SPLINE
  5
252
100
AcDbEntity
  8
0
100
AcDbSpline
 62
7
  6
CONTINUOUS
 70
2
 71
3
 72
50
 73
46
 74
0
 42
0.0000001
 43
0.0000001
 44
0.0000000001
 40
0.0
 40
0.0
 40
0.0
 40
0.0
 40
1.0
 40
1.0
 40
1.0
 40
2.0
 40
2.0
 40
2.0
 40
3.0
 40
3.0
 40
3.0
 40
4.0
 40
4.0
 40
4.0
 40
5.0
 40
5.0
 40
5.0
 40
6.0
 40
6.0
 40
6.0
 40
7.0
 40
7.0
 40
7.0
 40
8.0
 40
8.0
 40
8.0
 40
9.0
 40
9.0
 40
9.0
 40
10.0
 40
10.0
 40
10.0
 40
11.0
 40
11.0
 40
11.0
 40
12.0
 40
12.0
 40
12.0
 40
13.0
 40
13.0
 40
13.0
 40
14.0
 40
14.0
 40
14.0
 40
15.0
 40
15.0
 40
15.0
 40
15.0
 10
214.2025447744
 20
28.3614056352
 30
0.0
 10
214.2025447744
 20
28.3614056352
 30
0.0
 10
213.980880094
 20
28.3614056352
 30
0.0
 10
213.980880094
 20
28.3614056352
 30
0.0
 10
213.980880094
 20
28.3614056352
 30
0.0
 10
213.980880094
 20
28.1640795796
 30
0.0
 10
213.980880094
 20
28.1640795796
 30
0.0
 10
213.980880094
 20
28.1640795796
 30
0.0
 10
213.9761693924
 20
28.1640795796
 30
0.0
 10
213.9761693924
 20
28.1640795796
 30
0.0
 10
213.8848341227
 20
28.3069708612
 30
0.0
 10
213.7469152483
 20
28.3954273689
 30
0.0
 10
213.5741895233
 20
28.3954273689
 30
0.0
 10
213.2418233555
 20
28.3954273689
 30
0.0
 10
213.032720546
 20
28.1075511605
 30
0.0
 10
213.032720546
 20
27.7919341539
 30
0.0
 10
213.032720546
 20
27.4621850426
 30
0.0
 10
213.2297848959
 20
27.1690747214
 30
0.0
 10
213.5846577491
 20
27.1690747214
 30
0.0
 10
213.7469152483
 20
27.1690747214
 30
0.0
 10
213.8869277678
 20
27.257531229
 30
0.0
 10
213.9761693924
 20
27.388384051
 30
0.0
 10
213.9761693924
 20
27.388384051
 30
0.0
 10
213.980880094
 20
27.388384051
 30
0.0
 10
213.980880094
 20
27.388384051
 30
0.0
 10
213.980880094
 20
27.388384051
 30
0.0
 10
213.980880094
 20
27.1690747214
 30
0.0
 10
213.980880094
 20
27.1690747214
 30
0.0
 10
213.980880094
 20
26.9324928193
 30
0.0
 10
213.9243516749
 20
26.7456349895
 30
0.0
 10
213.6511309826
 20
26.7456349895
 30
0.0
 10
213.4488325199
 20
26.7456349895
 30
0.0
 10
213.3062029439
 20
26.8639259406
 30
0.0
 10
213.3062029439
 20
27.070149988
 30
0.0
 10
213.3062029439
 20
27.070149988
 30
0.0
 10
213.0845382635
 20
27.070149988
 30
0.0
 10
213.0845382635
 20
27.070149988
 30
0.0
 10
213.0895106707
 20
26.7456349895
 30
0.0
 10
213.3205967543
 20
26.5488323453
 30
0.0
 10
213.6409244625
 20
26.5488323453
 30
0.0
 10
214.0889645249
 20
26.5488323453
 30
0.0
 10
214.2025447744
 20
26.8340914971
 30
0.0
 10
214.2025447744
 20
27.2308372534
 30
0.0
 10
214.2025447744
 20
27.2308372534
 30
0.0
 10
214.2025447744
 20
28.3614056352
 30
0.0
 10
214.2025447744
 20
28.3614056352
 30
0.0
  0
SPLINE
  5
253
100
AcDbEntity
  8
0
100
AcDbSpline
 62
7
  6
CONTINUOUS
 70
2
 71
3
 72
44
 73
40
 74
0
 42
0.0000001
 43
0.0000001
 44
0.0000000001
 40
0.0
 40
0.0
 40
0.0
 40
0.0
 40
1.0
 40
1.0
 40
1.0
 40
2.0
 40
2.0
 40
2.0
 40
3.0
 40
3.0
 40
3.0
 40
4.0
 40
4.0
 40
4.0
 40
5.0
 40
5.0
 40
5.0
 40
6.0
 40
6.0
 40
6.0
 40
7.0
 40
7.0
 40
7.0
 40
8.0
 40
8.0
 40
8.0
 40
9.0
 40
9.0
 40
9.0
 40
10.0
 40
10.0
 40
10.0
 40
11.0
 40
11.0
 40
11.0
 40
12.0
 40
12.0
 40
12.0
 40
13.0
 40
13.0
 40
13.0
 40
13.0
 10
215.7714701098
 20
29.3464656789
 30
0.0
 10
215.7714701098
 20
29.3464656789
 30
0.0
 10
215.7714701098
 20
27.208330568
 30
0.0
 10
215.7714701098
 20
27.208330568
 30
0.0
 10
215.7714701098
 20
27.208330568
 30
0.0
 10
215.9928730846
 20
27.208330568
 30
0.0
 10
215.9928730846
 20
27.208330568
 30
0.0
 10
215.9928730846
 20
27.208330568
 30
0.0
 10
215.9928730846
 20
27.7380227913
 30
0.0
 10
215.9928730846
 20
27.7380227913
 30
0.0
 10
215.9928730846
 20
27.9479107177
 30
0.0
 10
215.9928730846
 20
28.1986247246
 30
0.0
 10
216.2781322364
 20
28.1986247246
 30
0.0
 10
216.5050310297
 20
28.1986247246
 30
0.0
 10
216.5319867111
 20
28.0656782575
 30
0.0
 10
216.5319867111
 20
27.8693990246
 30
0.0
 10
216.5319867111
 20
27.8693990246
 30
0.0
 10
216.5319867111
 20
27.208330568
 30
0.0
 10
216.5319867111
 20
27.208330568
 30
0.0
 10
216.5319867111
 20
27.208330568
 30
0.0
 10
216.7539130971
 20
27.208330568
 30
0.0
 10
216.7539130971
 20
27.208330568
 30
0.0
 10
216.7539130971
 20
27.208330568
 30
0.0
 10
216.7539130971
 20
27.8955695889
 30
0.0
 10
216.7539130971
 20
27.8955695889
 30
0.0
 10
216.7539130971
 20
28.1761180392
 30
0.0
 10
216.6699055854
 20
28.3959507801
 30
0.0
 10
216.3448671757
 20
28.3959507801
 30
0.0
 10
216.2051163618
 20
28.3959507801
 30
0.0
 10
216.0669357818
 20
28.3294775466
 30
0.0
 10
215.9975837861
 20
28.2064758939
 30
0.0
 10
215.9975837861
 20
28.2064758939
 30
0.0
 10
215.9928730846
 20
28.2064758939
 30
0.0
 10
215.9928730846
 20
28.2064758939
 30
0.0
 10
215.9928730846
 20
28.2064758939
 30
0.0
 10
215.9928730846
 20
29.3464656789
 30
0.0
 10
215.9928730846
 20
29.3464656789
 30
0.0
 10
215.9928730846
 20
29.3464656789
 30
0.0
 10
215.7714701098
 20
29.3464656789
 30
0.0
 10
215.7714701098
 20
29.3464656789
 30
0.0
  0
LWPOLYLINE
  5
254
100
AcDbEntity
  8
0
100
AcDbPolyline
 62
7
  6
CONTINUOUS
 90
2
 70
0
 43
0.2
 10
218.593703774
 20
28.1541347652
 10
218.8101343415
 20
28.1541347652
  0
LWPOLYLINE
  5
255
100
AcDbEntity
  8
0
100
AcDbPolyline
 62
7
  6
CONTINUOUS
 90
2
 70
0
 43
0.2
 10
218.8101343415
 20
28.1541347652
 10
218.8101343415
 20
28.3608822239
  0
LWPOLYLINE
  5
256
100
AcDbEntity
  8
0
100
AcDbPolyline
 62
7
  6
CONTINUOUS
 90
2
 70
0
 43
0.2
 10
218.8101343415
 20
28.3608822239
 10
218.593703774
 20
28.3608822239
  0
LWPOLYLINE
  5
257
100
AcDbEntity
  8
0
100
AcDbPolyline
 62
7
  6
CONTINUOUS
 90
2
 70
0
 43
0.2
 10
218.593703774
 20
28.3608822239
 10
218.593703774
 20
28.8015945282
  0
LWPOLYLINE
  5
258
100
AcDbEntity
  8
0
100
AcDbPolyline
 62
7
  6
CONTINUOUS
 90
2
 70
0
 43
0.2
 10
218.593703774
 20
28.8015945282
 10
218.3720390936
 20
28.8015945282
  0
LWPOLYLINE
  5
259
100
AcDbEntity
  8
0
100
AcDbPolyline
 62
7
  6
CONTINUOUS
 90
2
 70
0
 43
0.2
 10
218.3720390936
 20
28.8015945282
 10
218.3720390936
 20
28.3608822239
  0
LWPOLYLINE
  5
25A
100
AcDbEntity
  8
0
100
AcDbPolyline
 62
7
  6
CONTINUOUS
 90
2
 70
0
 43
0.2
 10
218.3720390936
 20
28.3608822239
 10
218.2513927917
 20
28.3608822239
  0
LWPOLYLINE
  5
25B
100
AcDbEntity
  8
0
100
AcDbPolyline
 62
7
  6
CONTINUOUS
 90
2
 70
0
 43
0.2
 10
218.2513927917
 20
28.3608822239
 10
218.2513927917
 20
28.1541347652
  0
LWPOLYLINE
  5
25C
100
AcDbEntity
  8
0
100
AcDbPolyline
 62
7
  6
CONTINUOUS
 90
2
 70
0
 43
0.2
 10
218.2513927917
 20
28.1541347652
 10
218.3720390936
 20
28.1541347652
  0
LWPOLYLINE
  5
25D
100
AcDbEntity
  8
0
100
AcDbPolyline
 62
7
  6
CONTINUOUS
 90
2
 70
0
 43
0.2
 10
218.3720390936
 20
28.1541347652
 10
218.3720390936
 20
27.208330568
  0
LWPOLYLINE
  5
25E
100
AcDbEntity
  8
0
100
AcDbPolyline
 62
7
  6
CONTINUOUS
 90
2
 70
0
 43
0.2
 10
218.3720390936
 20
27.208330568
 10
218.593703774
 20
27.208330568
  0
LWPOLYLINE
  5
25F
100
AcDbEntity
  8
0
100
AcDbPolyline
 62
7
  6
CONTINUOUS
 90
2
 70
0
 43
0.2
 10
218.593703774
 20
27.208330568
 10
218.593703774
 20
28.1541347652
  0
SPLINE
  5
260
100
AcDbEntity
  8
0
100
AcDbSpline
 62
7
  6
CONTINUOUS
 70
2
 71
3
 72
20
 73
16
 74
0
 42
0.0000001
 43
0.0000001
 44
0.0000000001
 40
0.0
 40
0.0
 40
0.0
 40
0.0
 40
1.0
 40
1.0
 40
1.0
 40
2.0
 40
2.0
 40
2.0
 40
3.0
 40
3.0
 40
3.0
 40
4.0
 40
4.0
 40
4.0
 40
5.0
 40
5.0
 40
5.0
 40
5.0
 10
206.3757140812
 20
37.5692570114
 30
0.0
 10
206.3757140812
 20
37.5692570114
 30
0.0
 10
208.6920707357
 20
34.7396955891
 30
0.0
 10
208.6920707357
 20
34.7396955891
 30
0.0
 10
208.0404236823
 20
34.0875251244
 30
0.0
 10
207.2635504783
 20
33.3516088537
 30
0.0
 10
206.2923608336
 20
33.3516088537
 30
0.0
 10
205.2938229492
 20
33.3516088537
 30
0.0
 10
204.3505049556
 20
34.281187301
 30
0.0
 10
204.3505049556
 20
35.2803794495
 30
0.0
 10
204.3505049556
 20
36.279571598
 30
0.0
 10
205.5293580287
 20
36.9861768367
 30
0.0
 10
206.2508804891
 20
37.4860346166
 30
0.0
 10
206.2508804891
 20
37.4860346166
 30
0.0
 10
206.3757140812
 20
37.5692570114
 30
0.0
 10
206.3757140812
 20
37.5692570114
 30
0.0
  0
SPLINE
  5
261
100
AcDbEntity
  8
0
100
AcDbSpline
 62
7
  6
CONTINUOUS
 70
2
 71
3
 72
23
 73
19
 74
0
 42
0.0000001
 43
0.0000001
 44
0.0000000001
 40
0.0
 40
0.0
 40
0.0
 40
0.0
 40
1.0
 40
1.0
 40
1.0
 40
2.0
 40
2.0
 40
2.0
 40
3.0
 40
3.0
 40
3.0
 40
4.0
 40
4.0
 40
4.0
 40
5.0
 40
5.0
 40
5.0
 40
6.0
 40
6.0
 40
6.0
 40
6.0
 10
206.6531220638
 20
39.2070109311
 30
0.0
 10
206.6531220638
 20
39.2070109311
 30
0.0
 10
206.3066237912
 20
39.6503402919
 30
0.0
 10
206.3066237912
 20
39.6503402919
 30
0.0
 10
206.0008207463
 20
40.0384497619
 30
0.0
 10
205.6819324192
 20
40.4269517903
 30
0.0
 10
205.6819324192
 20
40.9538961044
 30
0.0
 10
205.6819324192
 20
41.620067821
 30
0.0
 10
206.2232705436
 20
42.0637897403
 30
0.0
 10
206.8471767988
 20
42.0637897403
 30
0.0
 10
207.5409584609
 20
42.0637897403
 30
0.0
 10
208.0681644806
 20
41.6615481656
 30
0.0
 10
208.0681644806
 20
40.9265478646
 30
0.0
 10
208.0681644806
 20
40.163283354
 30
0.0
 10
207.3469037259
 20
39.7331701282
 30
0.0
 10
206.819828559
 20
39.3174507128
 30
0.0
 10
206.819828559
 20
39.3174507128
 30
0.0
 10
206.6531220638
 20
39.2070109311
 30
0.0
 10
206.6531220638
 20
39.2070109311
 30
0.0
  0
SPLINE
  5
262
100
AcDbEntity
  8
0
100
AcDbSpline
 62
7
  6
CONTINUOUS
 70
2
 71
3
 72
50
 73
46
 74
0
 42
0.0000001
 43
0.0000001
 44
0.0000000001
 40
0.0
 40
0.0
 40
0.0
 40
0.0
 40
1.0
 40
1.0
 40
1.0
 40
2.0
 40
2.0
 40
2.0
 40
3.0
 40
3.0
 40
3.0
 40
4.0
 40
4.0
 40
4.0
 40
5.0
 40
5.0
 40
5.0
 40
6.0
 40
6.0
 40
6.0
 40
7.0
 40
7.0
 40
7.0
 40
8.0
 40
8.0
 40
8.0
 40
9.0
 40
9.0
 40
9.0
 40
10.0
 40
10.0
 40
10.0
 40
11.0
 40
11.0
 40
11.0
 40
12.0
 40
12.0
 40
12.0
 40
13.0
 40
13.0
 40
13.0
 40
14.0
 40
14.0
 40
14.0
 40
15.0
 40
15.0
 40
15.0
 40
15.0
 10
210.6067092267
 20
32.408421713
 30
0.0
 10
210.6067092267
 20
32.408421713
 30
0.0
 10
212.2159372313
 20
32.408421713
 30
0.0
 10
212.2159372313
 20
32.408421713
 30
0.0
 10
212.2159372313
 20
32.408421713
 30
0.0
 10
210.3429099376
 20
34.7255634844
 30
0.0
 10
210.3429099376
 20
34.7255634844
 30
0.0
 10
210.3429099376
 20
34.7255634844
 30
0.0
 10
211.6192483631
 20
36.223043179
 30
0.0
 10
211.6192483631
 20
36.223043179
 30
0.0
 10
211.6192483631
 20
36.223043179
 30
0.0
 10
210.7870244154
 20
37.0840547475
 30
0.0
 10
210.7870244154
 20
37.0840547475
 30
0.0
 10
210.7870244154
 20
37.0840547475
 30
0.0
 10
209.5664292921
 20
35.6687506251
 30
0.0
 10
209.5664292921
 20
35.6687506251
 30
0.0
 10
209.5664292921
 20
35.6687506251
 30
0.0
 10
207.3885149233
 20
38.3041264595
 30
0.0
 10
207.3885149233
 20
38.3041264595
 30
0.0
 10
208.2620883627
 20
38.9421648194
 30
0.0
 10
209.2887596039
 20
39.7331701282
 30
0.0
 10
209.2887596039
 20
40.9120232013
 30
0.0
 10
209.2887596039
 20
42.2857161264
 30
0.0
 10
208.150863464
 20
43.0901992758
 30
0.0
 10
206.8755718611
 20
43.0901992758
 30
0.0
 10
205.5021406418
 20
43.0901992758
 30
0.0
 10
204.461206443
 20
42.2439740762
 30
0.0
 10
204.461206443
 20
40.801321714
 30
0.0
 10
204.461206443
 20
39.9137470226
 30
0.0
 10
205.0165458195
 20
39.1368738185
 30
0.0
 10
205.6127112763
 20
38.5124441521
 30
0.0
 10
205.6127112763
 20
38.5124441521
 30
0.0
 10
204.9608025173
 20
38.0408505817
 30
0.0
 10
204.9608025173
 20
38.0408505817
 30
0.0
 10
203.9622646329
 20
37.319589827
 30
0.0
 10
203.129386421
 20
36.5983290724
 30
0.0
 10
203.129386421
 20
35.266770756
 30
0.0
 10
203.129386421
 20
33.463095458
 30
0.0
 10
204.5864325936
 20
32.1864953269
 30
0.0
 10
206.333972031
 20
32.1864953269
 30
0.0
 10
207.5688301119
 20
32.1864953269
 30
0.0
 10
208.6782003366
 20
32.8946707994
 30
0.0
 10
209.4690747925
 20
33.8232024241
 30
0.0
 10
209.4690747925
 20
33.8232024241
 30
0.0
 10
210.6067092267
 20
32.408421713
 30
0.0
 10
210.6067092267
 20
32.408421713
 30
0.0
  0
LINE
  5
263
100
AcDbEntity
  8
0
100
AcDbLine
 62
7
  6
CONTINUOUS
 10
196.4095706017
 20
30.3822966176
 11
218.8234813294
 21
30.3822966176
  0
LINE
  5
264
100
AcDbEntity
  8
0
100
AcDbLine
 62
7
  6
CONTINUOUS
 10
218.8234813294
 20
30.3822966176
 11
218.8234813294
 21
52.7962073453
  0
LINE
  5
265
100
AcDbEntity
  8
0
100
AcDbLine
 62
7
  6
CONTINUOUS
 10
218.8234813294
 20
52.7962073453
 11
196.4095706017
 21
52.7962073453
  0
LINE
  5
266
100
AcDbEntity
  8
0
100
AcDbLine
 62
7
  6
CONTINUOUS
 10
196.4095706017
 20
52.7962073453
 11
196.4095706017
 21
30.3822966176
  0
ENDBLK
  5
267
100
AcDbEntity
  8
0
  6
BYBLOCK
 62
0
100
AcDbBlockEnd
  0
BLOCK
  5
268
100
AcDbEntity
  8
0
100
AcDbBlockBegin
  2
_CLOSED
 70
64
 10
0.0
 20
0.0
  3
_CLOSED
  1

  0
LINE
  5
269
100
AcDbEntity
  8
0
  6
BYBLOCK
 62
0
100
AcDbLine
 10
0.0
 20
0.0
 11
-1.0
 21
0.2
  0
LINE
  5
26A
100
AcDbEntity
  8
0
  6
BYBLOCK
 62
0
100
AcDbLine
 10
-1.0
 20
0.2
 11
-1.0
 21
-0.2
  0
LINE
  5
26B
100
AcDbEntity
  8
0
  6
BYBLOCK
 62
0
100
AcDbLine
 10
-1.0
 20
-0.2
 11
0.0
 21
0.0
  0
LINE
  5
26C
100
AcDbEntity
  8
0
  6
BYBLOCK
 62
0
100
AcDbLine
 10
-1.0
 20
0.0
 11
0.0
 21
0.0
  0
ENDBLK
  5
26D
100
AcDbEntity
  8
0
  6
BYBLOCK
 62
0
100
AcDbBlockEnd
  0
BLOCK
  5
26E
100
AcDbEntity
  8
0
100
AcDbBlockBegin
 62
2
  6
CONTINUOUS
  2
*D0
 70
65
 10
0.0
 20
0.0
  3
*D0
  1

  0
MTEXT
  5
26F
100
AcDbEntity
  8
0
100
AcDbMText
 62
2
  6
CONTINUOUS
  7
STANDARD
 71
2
 72
1
 10
65.4333286986
 20
100.1816374307
 30
0.0
 11
1.0
 21
0.0
 31
0.0
  1
Ø34,5
 40
3.0
 41
11.4089219331
  0
LINE
  5
270
100
AcDbEntity
  8
0
100
AcDbLine
 62
2
  6
CONTINUOUS
 10
48.1833286986
 20
102.8880303659
 11
48.1833286986
 21
95.6816374307
  0
LINE
  5
271
100
AcDbEntity
  8
0
100
AcDbLine
 62
2
  6
CONTINUOUS
 10
82.6833286986
 20
102.7944069799
 11
82.6833286986
 21
95.6816374307
  0
LINE
  5
272
100
AcDbEntity
  8
0
100
AcDbLine
 62
2
  6
CONTINUOUS
 10
48.1833286986
 20
96.4316374307
 11
65.4333286986
 21
96.4316374307
  0
LINE
  5
273
100
AcDbEntity
  8
0
100
AcDbLine
 62
2
  6
CONTINUOUS
 10
82.6833286986
 20
96.4316374307
 11
65.4333286986
 21
96.4316374307
  0
INSERT
  5
274
100
AcDbEntity
  8
0
100
AcDbBlockReference
 62
2
  6
CONTINUOUS
  2
_CLOSED
 10
48.1833286986
 20
96.4316374307
 41
2.5
 42
2.5
 43
2.5
 50
180.0
  0
INSERT
  5
275
100
AcDbEntity
  8
0
100
AcDbBlockReference
 62
2
  6
CONTINUOUS
  2
_CLOSED
 10
82.6833286986
 20
96.4316374307
 41
2.5
 42
2.5
 43
2.5
  0
ENDBLK
  5
276
100
AcDbEntity
  8
0
  6
BYBLOCK
 62
0
100
AcDbBlockEnd
  0
BLOCK
  5
277
100
AcDbEntity
  8
0
100
AcDbBlockBegin
 62
2
  6
CONTINUOUS
  2
*D1
 70
65
 10
0.0
 20
0.0
  3
*D1
  1

  0
MTEXT
  5
278
100
AcDbEntity
  8
0
100
AcDbMText
 62
2
  6
CONTINUOUS
  7
TEXTSTYLE_2
 71
1
 72
1
 10
88.9960020752
 20
74.4800964915
 30
0.0
 11
0.8601657295
 21
0.510014625
 31
0.0
  1
{\Fgdt;n}\Farial.ttf;47,5
 40
3.0
 41
12.1524163569
  0
LINE
  5
279
100
AcDbEntity
  8
0
100
AcDbLine
 62
2
  6
CONTINUOUS
 10
85.8622647748
 20
68.2623971916
 11
101.3616490002
 21
77.4523850773
  0
INSERT
  5
27A
100
AcDbEntity
  8
0
100
AcDbBlockReference
 62
2
  6
CONTINUOUS
  2
_CLOSED
 10
85.8622647748
 20
68.2623971916
 41
2.5
 42
2.5
 43
2.5
 50
210.6648039135
  0
ENDBLK
  5
27B
100
AcDbEntity
  8
0
  6
BYBLOCK
 62
0
100
AcDbBlockEnd
  0
BLOCK
  5
27C
100
AcDbEntity
  8
0
100
AcDbBlockBegin
 62
2
  6
CONTINUOUS
  2
*D2
 70
65
 10
0.0
 20
0.0
  3
*D2
  1

  0
MTEXT
  5
27D
100
AcDbEntity
  8
0
100
AcDbMText
 62
2
  6
CONTINUOUS
  7
STANDARD
 71
2
 72
1
 10
201.2655760297
 20
145.4740510288
 30
0.0
 11
0.0
 21
1.0
 31
0.0
  1
46,5
 40
3.0
 41
8.1524163569
  0
LINE
  5
27E
100
AcDbEntity
  8
0
100
AcDbLine
 62
2
  6
CONTINUOUS
 10
199.0348397803
 20
168.7240510288
 11
205.7655760297
 21
168.7240510288
  0
LINE
  5
27F
100
AcDbEntity
  8
0
100
AcDbLine
 62
2
  6
CONTINUOUS
 10
198.8853175115
 20
122.2240510288
 11
205.7655760297
 21
122.2240510288
  0
LINE
  5
280
100
AcDbEntity
  8
0
100
AcDbLine
 62
2
  6
CONTINUOUS
 10
205.0155760297
 20
168.7240510288
 11
205.0155760297
 21
145.4740510288
  0
LINE
  5
281
100
AcDbEntity
  8
0
100
AcDbLine
 62
2
  6
CONTINUOUS
 10
205.0155760297
 20
122.2240510288
 11
205.0155760297
 21
145.4740510288
  0
INSERT
  5
282
100
AcDbEntity
  8
0
100
AcDbBlockReference
 62
2
  6
CONTINUOUS
  2
_CLOSED
 10
205.0155760297
 20
168.7240510288
 41
2.5
 42
2.5
 43
2.5
 50
90.0
  0
INSERT
  5
283
100
AcDbEntity
  8
0
100
AcDbBlockReference
 62
2
  6
CONTINUOUS
  2
_CLOSED
 10
205.0155760297
 20
122.2240510288
 41
2.5
 42
2.5
 43
2.5
 50
270.0
  0
ENDBLK
  5
284
100
AcDbEntity
  8
0
  6
BYBLOCK
 62
0
100
AcDbBlockEnd
  0
BLOCK
  5
285
100
AcDbEntity
  8
0
100
AcDbBlockBegin
 62
2
  6
CONTINUOUS
  2
*D3
 70
65
 10
0.0
 20
0.0
  3
*D3
  1

  0
MTEXT
  5
286
100
AcDbEntity
  8
0
100
AcDbMText
 62
2
  6
CONTINUOUS
  7
STANDARD
 71
2
 72
1
 10
209.0358246873
 20
137.4740510288
 30
0.0
 11
0.0
 21
1.0
 31
0.0
  1
62,5
 40
3.0
 41
8.1524163569
  0
LINE
  5
287
100
AcDbEntity
  8
0
100
AcDbLine
 62
2
  6
CONTINUOUS
 10
199.2631895022
 20
168.7240510288
 11
213.5358246873
 21
168.7240510288
  0
LINE
  5
288
100
AcDbEntity
  8
0
100
AcDbLine
 62
2
  6
CONTINUOUS
 10
199.2639816421
 20
106.2240510288
 11
213.5358246873
 21
106.2240510288
  0
LINE
  5
289
100
AcDbEntity
  8
0
100
AcDbLine
 62
2
  6
CONTINUOUS
 10
212.7858246873
 20
168.7240510288
 11
212.7858246873
 21
137.4740510288
  0
LINE
  5
28A
100
AcDbEntity
  8
0
100
AcDbLine
 62
2
  6
CONTINUOUS
 10
212.7858246873
 20
106.2240510288
 11
212.7858246873
 21
137.4740510288
  0
INSERT
  5
28B
100
AcDbEntity
  8
0
100
AcDbBlockReference
 62
2
  6
CONTINUOUS
  2
_CLOSED
 10
212.7858246873
 20
168.7240510288
 41
2.5
 42
2.5
 43
2.5
 50
90.0
  0
INSERT
  5
28C
100
AcDbEntity
  8
0
100
AcDbBlockReference
 62
2
  6
CONTINUOUS
  2
_CLOSED
 10
212.7858246873
 20
106.2240510288
 41
2.5
 42
2.5
 43
2.5
 50
270.0
  0
ENDBLK
  5
28D
100
AcDbEntity
  8
0
  6
BYBLOCK
 62
0
100
AcDbBlockEnd
  0
ENDSEC
  0
SECTION
  2
ENTITIES
  0
DIMENSION
  5
28E
100
AcDbEntity
  8
0
100
AcDbDimension
 62
2
  6
CONTINUOUS
  2
*D0
 10
82.6833286986
 20
96.4316374307
 11
65.4333286986
 21
96.4316374307
 70
160
  1
Ø<>
  3
DIMSTYLE_1
100
AcDbAlignedDimension
 13
48.1833286986
 23
103.6380303659
 14
82.6833286986
 24
103.5444069799
100
AcDbRotatedDimension
  0
DIMENSION
  5
28F
100
AcDbEntity
  8
0
100
AcDbDimension
 62
2
  6
CONTINUOUS
  2
*D1
 10
85.8622647748
 20
68.2623971916
 11
94.9875700533
 21
76.288802933
 70
163
  1
%%c<>
  3
DIMSTYLE_2
100
AcDbDiametricDimension
 15
45.0043926223
 25
44.0367025025
  0
DIMENSION
  5
290
100
AcDbEntity
  8
0
100
AcDbDimension
 62
2
  6
CONTINUOUS
  2
*D2
 10
205.0155760297
 20
122.2240510288
 11
205.0155760297
 21
145.4088190973
 70
160
  3
DIMSTYLE_1
100
AcDbAlignedDimension
 13
198.2848397803
 23
168.7240510288
 14
198.1353175115
 24
122.2240510288
 50
270.0
100
AcDbRotatedDimension
  0
DIMENSION
  5
291
100
AcDbEntity
  8
0
100
AcDbDimension
 62
2
  6
CONTINUOUS
  2
*D3
 10
212.7858246873
 20
106.2240510288
 11
212.7858246873
 21
137.4645766348
 70
160
  3
DIMSTYLE_1
100
AcDbAlignedDimension
 13
198.5131895022
 23
168.7240510288
 14
198.5139816421
 24
106.2240510288
 50
270.0
100
AcDbRotatedDimension
  0
LINE
  5
292
100
AcDbEntity
  8
0
100
AcDbLine
 62
2
  6
CONTINUOUS
 10
193.7904134944
 20
53.1725198453
 11
283.7904134944
 21
53.1725198453
  0
LINE
  5
293
100
AcDbEntity
  8
0
100
AcDbLine
 62
2
  6
CONTINUOUS
 10
193.7904134944
 20
53.1725198453
 11
193.7904134944
 21
13.1725198453
  0
LINE
  5
294
100
AcDbEntity
  8
0
100
AcDbLine
 62
2
  6
CONTINUOUS
 10
223.7904134944
 20
47.1725198453
 11
283.7904134944
 21
47.1725198453
  0
LINE
  5
295
100
AcDbEntity
  8
0
100
AcDbLine
 62
2
  6
CONTINUOUS
 10
223.7904134944
 20
41.1725198453
 11
283.7904134944
 21
41.1725198453
  0
LINE
  5
296
100
AcDbEntity
  8
0
100
AcDbLine
 62
2
  6
CONTINUOUS
 10
223.7904134944
 20
31.1725198453
 11
283.7904134944
 21
31.1725198453
  0
LINE
  5
297
100
AcDbEntity
  8
0
100
AcDbLine
 62
2
  6
CONTINUOUS
 10
193.7904134944
 20
26.1725198453
 11
283.7904134944
 21
26.1725198453
  0
LINE
  5
298
100
AcDbEntity
  8
0
100
AcDbLine
 62
2
  6
CONTINUOUS
 10
193.7904134944
 20
13.1725198453
 11
283.7904134944
 21
13.1725198453
  0
LINE
  5
299
100
AcDbEntity
  8
0
100
AcDbLine
 62
2
  6
CONTINUOUS
 10
223.7904134944
 20
53.1725198453
 11
223.7904134944
 21
26.1725198453
  0
LINE
  5
29A
100
AcDbEntity
  8
0
100
AcDbLine
 62
2
  6
CONTINUOUS
 10
263.7904134944
 20
53.1725198453
 11
263.7904134944
 21
41.1725198453
  0
LINE
  5
29B
100
AcDbEntity
  8
0
100
AcDbLine
 62
2
  6
CONTINUOUS
 10
283.7904134944
 20
53.1725198453
 11
283.7904134944
 21
13.1725198453
  0
INSERT
  5
29C
100
AcDbEntity
  8
0
100
AcDbBlockReference
 62
2
  6
CONTINUOUS
  2
LOGO2_BL0
 10
207.6164605391
 20
39.6725198453
  0
MTEXT
  5
29D
100
AcDbEntity
  8
9_SOLID
100
AcDbMText
 62
2
  6
CONTINUOUS
  7
TEXTSTYLE_3
 71
1
 72
1
 10
225.2779134944
 20
51.6725198453
 30
0.0
 11
1.0
 21
0.0
 31
0.0
  1
2E0_C_155
 40
3.0
 41
30.9642857143
  0
MTEXT
  5
29E
100
AcDbEntity
  8
0
100
AcDbMText
 62
2
  6
CONTINUOUS
  7
TEXTSTYLE_3
 71
1
 72
1
 10
265.2779134944
 20
51.9225198453
 30
0.0
 11
1.0
 21
0.0
 31
0.0
  1
Rev:01
 40
3.5
 41
21.625
  0
MTEXT
  5
29F
100
AcDbEntity
  8
9_SOLID
100
AcDbMText
 62
2
  6
CONTINUOUS
  7
TEXTSTYLE_3
 71
1
 72
1
 10
225.2779134944
 20
45.4225198453
 30
0.0
 11
1.0
 21
0.0
 31
0.0
  1
Scale:1:1
 40
3.5
 41
28.375
  0
MTEXT
  5
2A0
100
AcDbEntity
  8
9_SOLID
100
AcDbMText
 62
2
  6
CONTINUOUS
  7
TEXTSTYLE_3
 71
1
 72
1
 10
265.2779134944
 20
45.9225198453
 30
0.0
 11
1.0
 21
0.0
 31
0.0
  1
A4
 40
3.5
 41
9.625
  0
MTEXT
  5
2A1
100
AcDbEntity
  8
0
100
AcDbMText
 62
2
  6
CONTINUOUS
  7
TEXTSTYLE_3
 71
1
 72
1
 10
225.2779134944
 20
37.9225198453
 30
0.0
 11
1.0
 21
0.0
 31
0.0
  1
Litus 1.0 - 1.6
 40
3.5
 41
54.0
  0
MTEXT
  5
2A2
100
AcDbEntity
  8
0
100
AcDbMText
 62
2
  6
CONTINUOUS
  7
TEXTSTYLE_3
 71
1
 72
1
 10
225.2779134944
 20
29.9225198453
 30
0.0
 11
1.0
 21
0.0
 31
0.0
  1
DATE:10/08/2018
 40
2.5
 41
42.2321428571
  0
MTEXT
  5
2A3
100
AcDbEntity
  8
9_SOLID
100
AcDbMText
 62
2
  6
CONTINUOUS
  7
TEXTSTYLE_3
 71
1
 72
1
 10
195.2779134944
 20
25.8600198453
 30
0.0
 11
1.0
 21
0.0
 31
0.0
  1
Any integral or partial reproductions are prohibited \Pwithout prior authorisation of L {\Ftxt.shx;\W0.190476;\H2.250000; }& L Luce & Light s.r.l., \Pin accordance with the law in force. \PAll rights reserved.
 40
2.25
 41
134.5982142857
  0
LWPOLYLINE
  5
2A4
100
AcDbEntity
  8
0
100
AcDbPolyline
 62
7
  6
CONTINUOUS
 90
2
 70
0
 43
0.100000004
 10
10.0
 20
10.0
 10
10.0
 20
200.0
  0
LWPOLYLINE
  5
2A5
100
AcDbEntity
  8
0
100
AcDbPolyline
 62
7
  6
CONTINUOUS
 90
2
 70
0
 43
0.100000004
 10
10.0
 20
10.0
 10
287.0
 20
10.0
  0
LWPOLYLINE
  5
2A6
100
AcDbEntity
  8
0
100
AcDbPolyline
 62
7
  6
CONTINUOUS
 90
2
 70
0
 43
0.100000004
 10
10.0
 20
200.0
 10
287.0
 20
200.0
  0
LWPOLYLINE
  5
2A7
100
AcDbEntity
  8
0
100
AcDbPolyline
 62
7
  6
CONTINUOUS
 90
2
 70
0
 43
0.100000004
 10
287.0
 20
10.0
 10
287.0
 20
200.0
  0
LINE
  5
2A8
100
AcDbEntity
  8
7_ALL_FEATURES
100
AcDbLine
 62
7
  6
CONTINUOUS
 10
42.1833286986
 20
168.7240510288
 11
41.6833286986
 21
168.2240510288
  0
LINE
  5
2A9
100
AcDbEntity
  8
7_ALL_FEATURES
100
AcDbLine
 62
7
  6
CONTINUOUS
 10
42.1833286986
 20
161.6240510288
 11
41.6833286986
 21
161.1240510288
  0
LINE
  5
2AA
100
AcDbEntity
  8
3_ALL_AXES
100
AcDbLine
 62
7
  6
CONTINUOUS
 10
61.9363185442
 20
106.2240510288
 11
62.9584549644
 21
106.2240510288
  0
LINE
  5
2AB
100
AcDbEntity
  8
7_ALL_FEATURES
100
AcDbLine
 62
7
  6
CONTINUOUS
 10
61.9333286986
 20
106.2240510288
 11
68.9333286986
 21
106.2240510288
  0
LINE
  5
2AC
100
AcDbEntity
  8
3_ALL_AXES
100
AcDbLine
 62
7
  6
CONTINUOUS
 10
67.9082024327
 20
106.2240510288
 11
68.9303388529
 21
106.2240510288
  0
LINE
  5
2AD
100
AcDbEntity
  8
3_ALL_AXES
100
AcDbLine
 62
9
  6
CONTINUOUS
 10
72.4333286986
 20
109.7240510288
 11
71.0394149653
 21
109.7240510288
  0
LINE
  5
2AE
100
AcDbEntity
  8
3_ALL_AXES
100
AcDbLine
 62
9
  6
CONTINUOUS
 10
69.6252014029
 20
109.7240510288
 11
64.6061035805
 21
109.7240510288
  0
LINE
  5
2AF
100
AcDbEntity
  8
3_ALL_AXES
100
AcDbLine
 62
9
  6
CONTINUOUS
 10
58.4333286986
 20
109.7240510288
 11
58.4823792235
 21
109.7240510288
  0
LINE
  5
2B0
100
AcDbEntity
  8
3_ALL_AXES
100
AcDbLine
 62
9
  6
CONTINUOUS
 10
59.0000173138
 20
109.7240510288
 11
62.6742519279
 21
109.7240510288
  0
LINE
  5
2B1
100
AcDbEntity
  8
3_ALL_AXES
100
AcDbLine
 62
7
  6
CONTINUOUS
 10
72.4333286986
 20
110.2240510288
 11
71.0394149653
 21
110.2240510288
  0
LINE
  5
2B2
100
AcDbEntity
  8
3_ALL_AXES
100
AcDbLine
 62
7
  6
CONTINUOUS
 10
69.6252014029
 20
110.2240510288
 11
64.6061035805
 21
110.2240510288
  0
LINE
  5
2B3
100
AcDbEntity
  8
3_ALL_AXES
100
AcDbLine
 62
7
  6
CONTINUOUS
 10
58.4333286986
 20
110.2240510288
 11
58.4823792235
 21
110.2240510288
  0
LINE
  5
2B4
100
AcDbEntity
  8
3_ALL_AXES
100
AcDbLine
 62
7
  6
CONTINUOUS
 10
59.0000173138
 20
110.2240510288
 11
62.6742519279
 21
110.2240510288
  0
LINE
  5
2B5
100
AcDbEntity
  8
7_ALL_FEATURES
100
AcDbLine
 62
7
  6
CONTINUOUS
 10
41.6833286986
 20
168.2240510288
 11
41.6833286986
 21
163.2240510288
  0
LINE
  5
2B6
100
AcDbEntity
  8
7_ALL_FEATURES
100
AcDbLine
 62
7
  6
CONTINUOUS
 10
41.6833286986
 20
161.1240510288
 11
41.6833286986
 21
158.9740510288
  0
LINE
  5
2B7
100
AcDbEntity
  8
3_ALL_AXES
100
AcDbLine
 62
7
  6
CONTINUOUS
 10
58.4333286986
 20
110.2240510288
 11
58.2607249212
 21
110.3966548062
  0
LINE
  5
2B8
100
AcDbEntity
  8
7_ALL_FEATURES
100
AcDbLine
 62
7
  6
CONTINUOUS
 10
42.3333286986
 20
161.6240510288
 11
42.3333286986
 21
162.7240510288
  0
LINE
  5
2B9
100
AcDbEntity
  8
3_ALL_AXES
100
AcDbLine
 62
7
  6
CONTINUOUS
 10
73.1607353089
 20
115.7240510288
 11
57.7059220882
 21
115.7240510288
  0
LINE
  5
2BA
100
AcDbEntity
  8
7_ALL_FEATURES
100
AcDbLine
 62
7
  6
CONTINUOUS
 10
49.1833286986
 20
123.2240510288
 11
50.1833286986
 21
122.2240510288
  0
LINE
  5
2BB
100
AcDbEntity
  8
7_ALL_FEATURES
100
AcDbLine
 62
3
  6
CONTINUOUS
 10
48.925113168
 20
122.3161275543
 11
44.2924045225
 21
131.2154780617
  0
LINE
  5
2BC
100
AcDbEntity
  8
7_ALL_FEATURES
100
AcDbLine
 62
7
  6
CONTINUOUS
 10
49.3686185846
 20
122.5470018609
 11
44.7359099391
 21
131.4463523683
  0
LINE
  5
2BD
100
AcDbEntity
  8
3_ALL_AXES
100
AcDbLine
 62
7
  6
CONTINUOUS
 10
73.1607353089
 20
118.7240510288
 11
57.7059220882
 21
118.7240510288
  0
LINE
  5
2BE
100
AcDbEntity
  8
7_ALL_FEATURES
100
AcDbLine
 62
7
  6
CONTINUOUS
 10
48.1833286986
 20
139.2240510288
 11
48.1833286986
 21
157.2240510288
  0
LINE
  5
2BF
100
AcDbEntity
  8
7_ALL_FEATURES
100
AcDbLine
 62
7
  6
CONTINUOUS
 10
49.1833286986
 20
123.2240510288
 11
49.1833286986
 21
124.7240510288
  0
LINE
  5
2C0
100
AcDbEntity
  8
7_ALL_FEATURES
100
AcDbLine
 62
7
  6
CONTINUOUS
 10
49.1833286986
 20
126.7240510288
 11
49.1833286986
 21
128.7240510288
  0
LINE
  5
2C1
100
AcDbEntity
  8
7_ALL_FEATURES
100
AcDbLine
 62
7
  6
CONTINUOUS
 10
49.1833286986
 20
130.7240510288
 11
49.1833286986
 21
132.7240510288
  0
LINE
  5
2C2
100
AcDbEntity
  8
7_ALL_FEATURES
100
AcDbLine
 62
7
  6
CONTINUOUS
 10
49.1833286986
 20
134.7240510288
 11
49.1833286986
 21
136.7240510288
  0
LINE
  5
2C3
100
AcDbEntity
  8
3_ALL_AXES
100
AcDbLine
 62
7
  6
CONTINUOUS
 10
49.6333286986
 20
121.7240510288
 11
49.6333286986
 21
121.3440510288
  0
LINE
  5
2C4
100
AcDbEntity
  8
7_ALL_FEATURES
100
AcDbLine
 62
7
  6
CONTINUOUS
 10
49.6833286986
 20
124.7240510288
 11
49.6833286986
 21
126.7240510288
  0
LINE
  5
2C5
100
AcDbEntity
  8
7_ALL_FEATURES
100
AcDbLine
 62
7
  6
CONTINUOUS
 10
49.6833286986
 20
128.7240510288
 11
49.6833286986
 21
130.7240510288
  0
LINE
  5
2C6
100
AcDbEntity
  8
7_ALL_FEATURES
100
AcDbLine
 62
7
  6
CONTINUOUS
 10
49.6833286986
 20
132.7240510288
 11
49.6833286986
 21
134.7240510288
  0
LINE
  5
2C7
100
AcDbEntity
  8
7_ALL_FEATURES
100
AcDbLine
 62
7
  6
CONTINUOUS
 10
49.6833286986
 20
136.7240510288
 11
49.6833286986
 21
138.7240510288
  0
LINE
  5
2C8
100
AcDbEntity
  8
7_ALL_FEATURES
100
AcDbLine
 62
9
  6
CONTINUOUS
 10
49.9008250845
 20
121.7240510288
 11
49.9008250845
 21
122.2240510288
  0
LINE
  5
2C9
100
AcDbEntity
  8
3_ALL_AXES
100
AcDbLine
 62
7
  6
CONTINUOUS
 10
51.4683480509
 20
119.5240510288
 11
55.3983093462
 21
119.5240510288
  0
LINE
  5
2CA
100
AcDbEntity
  8
3_ALL_AXES
100
AcDbLine
 62
7
  6
CONTINUOUS
 10
75.4683480509
 20
119.5240510288
 11
79.3983093462
 21
119.5240510288
  0
LINE
  5
2CB
100
AcDbEntity
  8
3_ALL_AXES
100
AcDbLine
 62
7
  6
CONTINUOUS
 10
49.6333286986
 20
121.3440510288
 11
57.2333286986
 21
121.3440510288
  0
LINE
  5
2CC
100
AcDbEntity
  8
3_ALL_AXES
100
AcDbLine
 62
7
  6
CONTINUOUS
 10
73.6333286986
 20
121.3440510288
 11
81.2333286986
 21
121.3440510288
  0
LINE
  5
2CD
100
AcDbEntity
  8
7_ALL_FEATURES
100
AcDbLine
 62
3
  6
CONTINUOUS
 10
80.9658323126
 20
121.7240510288
 11
73.6333286986
 21
121.7240510288
  0
LINE
  5
2CE
100
AcDbEntity
  8
7_ALL_FEATURES
100
AcDbLine
 62
3
  6
CONTINUOUS
 10
57.2333286986
 20
121.7240510288
 11
49.9008250845
 21
121.7240510288
  0
LINE
  5
2CF
100
AcDbEntity
  8
3_ALL_AXES
100
AcDbLine
 62
7
  6
CONTINUOUS
 10
49.8674352234
 20
121.7240510288
 11
49.6333461301
 21
121.7240510288
  0
LINE
  5
2D0
100
AcDbEntity
  8
3_ALL_AXES
100
AcDbLine
 62
7
  6
CONTINUOUS
 10
80.9683867832
 20
121.7240510288
 11
81.233311267
 21
121.7240510288
  0
LINE
  5
2D1
100
AcDbEntity
  8
7_ALL_FEATURES
100
AcDbLine
 62
7
  6
CONTINUOUS
 10
45.0635409439
 20
135.6658864811
 11
44.7064034573
 21
136.0230239677
  0
LINE
  5
2D2
100
AcDbEntity
  8
7_ALL_FEATURES
100
AcDbLine
 62
3
  6
CONTINUOUS
 10
45.1019727565
 20
136.4753273366
 11
46.0922499848
 21
137.4656045649
  0
LINE
  5
2D3
100
AcDbEntity
  8
7_ALL_FEATURES
100
AcDbLine
 62
7
  6
CONTINUOUS
 10
46.4458033754
 20
137.1120511743
 11
45.4555261471
 21
136.121773946
  0
LINE
  5
2D4
100
AcDbEntity
  8
7_ALL_FEATURES
100
AcDbLine
 62
7
  6
CONTINUOUS
 10
80.9658323126
 20
122.2240510288
 11
49.9008250845
 21
122.2240510288
  0
LINE
  5
2D5
100
AcDbEntity
  8
7_ALL_FEATURES
100
AcDbLine
 62
7
  6
CONTINUOUS
 10
49.1833286986
 20
123.2240510288
 11
81.6833286986
 21
123.2240510288
  0
LINE
  5
2D6
100
AcDbEntity
  8
7_ALL_FEATURES
100
AcDbLine
 62
7
  6
CONTINUOUS
 10
49.1833286986
 20
124.7240510288
 11
81.6833286986
 21
124.7240510288
  0
LINE
  5
2D7
100
AcDbEntity
  8
7_ALL_FEATURES
100
AcDbLine
 62
7
  6
CONTINUOUS
 10
46.4458033754
 20
137.1120511743
 11
46.0922499848
 21
137.4656045649
  0
LINE
  5
2D8
100
AcDbEntity
  8
7_ALL_FEATURES
100
AcDbLine
 62
7
  6
CONTINUOUS
 10
81.6833286986
 20
126.7240510288
 11
49.1833286986
 21
126.7240510288
  0
LINE
  5
2D9
100
AcDbEntity
  8
7_ALL_FEATURES
100
AcDbLine
 62
7
  6
CONTINUOUS
 10
48.6833286986
 20
138.7240510288
 11
48.1833286986
 21
139.2240510288
  0
LINE
  5
2DA
100
AcDbEntity
  8
3_ALL_AXES
100
AcDbLine
 62
7
  6
CONTINUOUS
 10
57.2333286986
 20
121.7240510288
 11
57.2333286986
 21
121.3440510288
  0
LINE
  5
2DB
100
AcDbEntity
  8
7_ALL_FEATURES
100
AcDbLine
 62
7
  6
CONTINUOUS
 10
57.2333286986
 20
121.7240510288
 11
57.2333286986
 21
122.2240510288
  0
LINE
  5
2DC
100
AcDbEntity
  8
3_ALL_AXES
100
AcDbLine
 62
7
  6
CONTINUOUS
 10
57.7059220882
 20
122.2240510288
 11
57.7059220882
 21
118.7240510288
  0
LINE
  5
2DD
100
AcDbEntity
  8
3_ALL_AXES
100
AcDbLine
 62
7
  6
CONTINUOUS
 10
57.7059220882
 20
115.7240510288
 11
57.7059220882
 21
111.2240510288
  0
LINE
  5
2DE
100
AcDbEntity
  8
7_ALL_FEATURES
100
AcDbLine
 62
7
  6
CONTINUOUS
 10
49.1833286986
 20
128.7240510288
 11
81.6833286986
 21
128.7240510288
  0
LINE
  5
2DF
100
AcDbEntity
  8
3_ALL_AXES
100
AcDbLine
 62
7
  6
CONTINUOUS
 10
58.4333286986
 20
109.7240510288
 11
58.4333286986
 21
110.2240510288
  0
LINE
  5
2E0
100
AcDbEntity
  8
3_ALL_AXES
100
AcDbLine
 62
7
  6
CONTINUOUS
 10
58.4823792235
 20
109.7240510288
 11
58.4823792235
 21
110.2240510288
  0
LINE
  5
2E1
100
AcDbEntity
  8
3_ALL_AXES
100
AcDbLine
 62
7
  6
CONTINUOUS
 10
59.0000173138
 20
109.7240510288
 11
59.0000173138
 21
110.2240510288
  0
LINE
  5
2E2
100
AcDbEntity
  8
3_ALL_AXES
100
AcDbLine
 62
7
  6
CONTINUOUS
 10
59.4333286986
 20
115.7240510288
 11
59.4333286986
 21
118.7240510288
  0
LINE
  5
2E3
100
AcDbEntity
  8
3_ALL_AXES
100
AcDbLine
 62
7
  6
CONTINUOUS
 10
59.7764744491
 20
122.2240510288
 11
59.7764744491
 21
118.7240510288
  0
LINE
  5
2E4
100
AcDbEntity
  8
3_ALL_AXES
100
AcDbLine
 62
7
  6
CONTINUOUS
 10
59.7764744491
 20
115.7240510288
 11
59.7764744491
 21
111.2240510288
  0
LINE
  5
2E5
100
AcDbEntity
  8
7_ALL_FEATURES
100
AcDbLine
 62
7
  6
CONTINUOUS
 10
81.6833286986
 20
130.7240510288
 11
49.1833286986
 21
130.7240510288
  0
LINE
  5
2E6
100
AcDbEntity
  8
7_ALL_FEATURES
100
AcDbLine
 62
9
  6
CONTINUOUS
 10
81.9415442291
 20
122.3161275543
 11
81.4980388125
 21
122.5470018609
  0
LINE
  5
2E7
100
AcDbEntity
  8
3_ALL_AXES
100
AcDbLine
 62
7
  6
CONTINUOUS
 10
62.6742519279
 20
109.7240510288
 11
62.6742519279
 21
110.2240510288
  0
LINE
  5
2E8
100
AcDbEntity
  8
7_ALL_FEATURES
100
AcDbLine
 62
9
  6
CONTINUOUS
 10
44.2924045225
 20
131.2154780617
 11
44.7359099391
 21
131.4463523683
  0
LINE
  5
2E9
100
AcDbEntity
  8
7_ALL_FEATURES
100
AcDbLine
 62
7
  6
CONTINUOUS
 10
49.1833286986
 20
132.7240510288
 11
81.6833286986
 21
132.7240510288
  0
LINE
  5
2EA
100
AcDbEntity
  8
7_ALL_FEATURES
100
AcDbLine
 62
7
  6
CONTINUOUS
 10
81.6833286986
 20
134.7240510288
 11
49.1833286986
 21
134.7240510288
  0
LINE
  5
2EB
100
AcDbEntity
  8
3_ALL_AXES
100
AcDbLine
 62
7
  6
CONTINUOUS
 10
64.6061035805
 20
109.7240510288
 11
64.6061035805
 21
110.2240510288
  0
LINE
  5
2EC
100
AcDbEntity
  8
7_ALL_FEATURES
100
AcDbLine
 62
7
  6
CONTINUOUS
 10
82.6833286986
 20
157.2240510288
 11
83.1833286986
 21
157.7240510288
  0
LINE
  5
2ED
100
AcDbEntity
  8
7_ALL_FEATURES
100
AcDbLine
 62
7
  6
CONTINUOUS
 10
88.6833286986
 20
162.7240510288
 11
89.1833286986
 21
163.2240510288
  0
LINE
  5
2EE
100
AcDbEntity
  8
7_ALL_FEATURES
100
AcDbLine
 62
7
  6
CONTINUOUS
 10
49.1833286986
 20
136.7240510288
 11
81.6833286986
 21
136.7240510288
  0
LINE
  5
2EF
100
AcDbEntity
  8
7_ALL_FEATURES
100
AcDbLine
 62
7
  6
CONTINUOUS
 10
42.9333286986
 20
157.7240510288
 11
41.6833286986
 21
158.9740510288
  0
LINE
  5
2F0
100
AcDbEntity
  8
3_ALL_AXES
100
AcDbLine
 62
7
  6
CONTINUOUS
 10
67.5038810594
 20
122.2240510288
 11
67.5038810594
 21
118.7240510288
  0
LINE
  5
2F1
100
AcDbEntity
  8
3_ALL_AXES
100
AcDbLine
 62
7
  6
CONTINUOUS
 10
67.5038810594
 20
115.7240510288
 11
67.5038810594
 21
111.2240510288
  0
LINE
  5
2F2
100
AcDbEntity
  8
7_ALL_FEATURES
100
AcDbLine
 62
7
  6
CONTINUOUS
 10
87.9333286986
 20
157.7240510288
 11
89.1833286986
 21
158.9740510288
  0
LINE
  5
2F3
100
AcDbEntity
  8
7_ALL_FEATURES
100
AcDbLine
 62
7
  6
CONTINUOUS
 10
82.1832181509
 20
138.7240510288
 11
48.6834391759
 21
138.7240510288
  0
LINE
  5
2F4
100
AcDbEntity
  8
7_ALL_FEATURES
100
AcDbLine
 62
7
  6
CONTINUOUS
 10
82.6833286986
 20
139.2240510288
 11
48.1833286986
 21
139.2240510288
  0
LINE
  5
2F5
100
AcDbEntity
  8
7_ALL_FEATURES
100
AcDbLine
 62
7
  6
CONTINUOUS
 10
42.1833286986
 20
162.7240510288
 11
41.6833286986
 21
163.2240510288
  0
LINE
  5
2F6
100
AcDbEntity
  8
7_ALL_FEATURES
100
AcDbLine
 62
7
  6
CONTINUOUS
 10
48.1833286986
 20
157.2240510288
 11
47.6833286986
 21
157.7240510288
  0
LINE
  5
2F7
100
AcDbEntity
  8
3_ALL_AXES
100
AcDbLine
 62
7
  6
CONTINUOUS
 10
69.6252014029
 20
109.7240510288
 11
69.6252014029
 21
110.2240510288
  0
LINE
  5
2F8
100
AcDbEntity
  8
7_ALL_FEATURES
100
AcDbLine
 62
9
  6
CONTINUOUS
 10
86.5742528746
 20
131.2154780617
 11
86.130747458
 21
131.4463523683
  0
LINE
  5
2F9
100
AcDbEntity
  8
3_ALL_AXES
100
AcDbLine
 62
7
  6
CONTINUOUS
 10
71.0394149653
 20
109.7240510288
 11
71.0394149653
 21
110.2240510288
  0
LINE
  5
2FA
100
AcDbEntity
  8
3_ALL_AXES
100
AcDbLine
 62
7
  6
CONTINUOUS
 10
71.4333286986
 20
115.7240510288
 11
71.4333286986
 21
118.7240510288
  0
LINE
  5
2FB
100
AcDbEntity
  8
3_ALL_AXES
100
AcDbLine
 62
7
  6
CONTINUOUS
 10
72.4333286986
 20
109.7240510288
 11
72.4333286986
 21
110.2240510288
  0
LINE
  5
2FC
100
AcDbEntity
  8
3_ALL_AXES
100
AcDbLine
 62
7
  6
CONTINUOUS
 10
73.1607353089
 20
122.2240510288
 11
73.1607353089
 21
118.7240510288
  0
LINE
  5
2FD
100
AcDbEntity
  8
3_ALL_AXES
100
AcDbLine
 62
7
  6
CONTINUOUS
 10
73.1607353089
 20
115.7240510288
 11
73.1607353089
 21
111.2240510288
  0
LINE
  5
2FE
100
AcDbEntity
  8
7_ALL_FEATURES
100
AcDbLine
 62
9
  6
CONTINUOUS
 10
48.925113168
 20
122.3161275543
 11
49.3686185846
 21
122.5470018609
  0
LINE
  5
2FF
100
AcDbEntity
  8
3_ALL_AXES
100
AcDbLine
 62
7
  6
CONTINUOUS
 10
73.6333286986
 20
121.7240510288
 11
73.6333286986
 21
121.3440510288
  0
LINE
  5
300
100
AcDbEntity
  8
7_ALL_FEATURES
100
AcDbLine
 62
7
  6
CONTINUOUS
 10
73.6333286986
 20
121.7240510288
 11
73.6333286986
 21
122.2240510288
  0
LINE
  5
301
100
AcDbEntity
  8
7_ALL_FEATURES
100
AcDbLine
 62
7
  6
CONTINUOUS
 10
82.1833286986
 20
138.7240510288
 11
82.6833286986
 21
139.2240510288
  0
LINE
  5
302
100
AcDbEntity
  8
7_ALL_FEATURES
100
AcDbLine
 62
7
  6
CONTINUOUS
 10
85.41113125
 20
136.121773946
 11
84.4208540217
 21
137.1120511743
  0
LINE
  5
303
100
AcDbEntity
  8
7_ALL_FEATURES
100
AcDbLine
 62
9
  6
CONTINUOUS
 10
80.9658323126
 20
121.7240510288
 11
80.9658323126
 21
122.2240510288
  0
LINE
  5
304
100
AcDbEntity
  8
7_ALL_FEATURES
100
AcDbLine
 62
7
  6
CONTINUOUS
 10
81.1833286986
 20
124.7240510288
 11
81.1833286986
 21
126.7240510288
  0
LINE
  5
305
100
AcDbEntity
  8
7_ALL_FEATURES
100
AcDbLine
 62
7
  6
CONTINUOUS
 10
81.1833286986
 20
128.7240510288
 11
81.1833286986
 21
130.7240510288
  0
LINE
  5
306
100
AcDbEntity
  8
7_ALL_FEATURES
100
AcDbLine
 62
7
  6
CONTINUOUS
 10
81.1833286986
 20
132.7240510288
 11
81.1833286986
 21
134.7240510288
  0
LINE
  5
307
100
AcDbEntity
  8
7_ALL_FEATURES
100
AcDbLine
 62
7
  6
CONTINUOUS
 10
81.1833286986
 20
136.7240510288
 11
81.1833286986
 21
138.7240510288
  0
LINE
  5
308
100
AcDbEntity
  8
3_ALL_AXES
100
AcDbLine
 62
7
  6
CONTINUOUS
 10
81.2333286986
 20
121.7240510288
 11
81.2333286986
 21
121.3440510288
  0
LINE
  5
309
100
AcDbEntity
  8
7_ALL_FEATURES
100
AcDbLine
 62
7
  6
CONTINUOUS
 10
84.4208540217
 20
137.1120511743
 11
84.7744074123
 21
137.4656045649
  0
LINE
  5
30A
100
AcDbEntity
  8
7_ALL_FEATURES
100
AcDbLine
 62
7
  6
CONTINUOUS
 10
85.8031164532
 20
135.6658864811
 11
86.1602539398
 21
136.0230239677
  0
LINE
  5
30B
100
AcDbEntity
  8
7_ALL_FEATURES
100
AcDbLine
 62
3
  6
CONTINUOUS
 10
84.7744074123
 20
137.4656045649
 11
85.7646846406
 21
136.4753273366
  0
LINE
  5
30C
100
AcDbEntity
  8
7_ALL_FEATURES
100
AcDbLine
 62
7
  6
CONTINUOUS
 10
81.6833286986
 20
123.2240510288
 11
81.6833286986
 21
124.7240510288
  0
LINE
  5
30D
100
AcDbEntity
  8
7_ALL_FEATURES
100
AcDbLine
 62
7
  6
CONTINUOUS
 10
81.6833286986
 20
126.7240510288
 11
81.6833286986
 21
128.7240510288
  0
LINE
  5
30E
100
AcDbEntity
  8
7_ALL_FEATURES
100
AcDbLine
 62
7
  6
CONTINUOUS
 10
81.6833286986
 20
130.7240510288
 11
81.6833286986
 21
132.7240510288
  0
LINE
  5
30F
100
AcDbEntity
  8
7_ALL_FEATURES
100
AcDbLine
 62
7
  6
CONTINUOUS
 10
81.6833286986
 20
134.7240510288
 11
81.6833286986
 21
136.7240510288
  0
LINE
  5
310
100
AcDbEntity
  8
7_ALL_FEATURES
100
AcDbLine
 62
7
  6
CONTINUOUS
 10
82.6833286986
 20
139.2240510288
 11
82.6833286986
 21
157.2240510288
  0
LINE
  5
311
100
AcDbEntity
  8
7_ALL_FEATURES
100
AcDbLine
 62
7
  6
CONTINUOUS
 10
86.130747458
 20
131.4463523683
 11
81.4980388125
 21
122.5470018609
  0
LINE
  5
312
100
AcDbEntity
  8
7_ALL_FEATURES
100
AcDbLine
 62
7
  6
CONTINUOUS
 10
48.1833286986
 20
157.2240510288
 11
82.6833286986
 21
157.2240510288
  0
LINE
  5
313
100
AcDbEntity
  8
7_ALL_FEATURES
100
AcDbLine
 62
7
  6
CONTINUOUS
 10
42.9335475924
 20
157.7240510288
 11
87.9331098048
 21
157.7240510288
  0
LINE
  5
314
100
AcDbEntity
  8
7_ALL_FEATURES
100
AcDbLine
 62
7
  6
CONTINUOUS
 10
88.5333286986
 20
161.6240510288
 11
88.5333286986
 21
162.7240510288
  0
LINE
  5
315
100
AcDbEntity
  8
7_ALL_FEATURES
100
AcDbLine
 62
7
  6
CONTINUOUS
 10
89.1833286986
 20
168.2240510288
 11
89.1833286986
 21
163.2240510288
  0
LINE
  5
316
100
AcDbEntity
  8
7_ALL_FEATURES
100
AcDbLine
 62
7
  6
CONTINUOUS
 10
89.1833286986
 20
161.1240510288
 11
89.1833286986
 21
158.9740510288
  0
LINE
  5
317
100
AcDbEntity
  8
7_ALL_FEATURES
100
AcDbLine
 62
3
  6
CONTINUOUS
 10
86.5742528746
 20
131.2154780617
 11
81.9415442291
 21
122.3161275543
  0
LINE
  5
318
100
AcDbEntity
  8
7_ALL_FEATURES
100
AcDbLine
 62
7
  6
CONTINUOUS
 10
81.6833286986
 20
123.2240510288
 11
80.6833286986
 21
122.2240510288
  0
LINE
  5
319
100
AcDbEntity
  8
7_ALL_FEATURES
100
AcDbLine
 62
7
  6
CONTINUOUS
 10
41.6833286986
 20
158.9740510288
 11
89.1833286986
 21
158.9740510288
  0
LINE
  5
31A
100
AcDbEntity
  8
7_ALL_FEATURES
100
AcDbLine
 62
7
  6
CONTINUOUS
 10
41.6833286986
 20
161.1240510288
 11
89.1833286986
 21
161.1240510288
  0
LINE
  5
31B
100
AcDbEntity
  8
3_ALL_AXES
100
AcDbLine
 62
7
  6
CONTINUOUS
 10
72.4333286986
 20
110.2240510288
 11
72.6059324759
 21
110.3966548062
  0
LINE
  5
31C
100
AcDbEntity
  8
7_ALL_FEATURES
100
AcDbLine
 62
7
  6
CONTINUOUS
 10
42.1835548549
 20
161.6240510288
 11
88.6831025423
 21
161.6240510288
  0
LINE
  5
31D
100
AcDbEntity
  8
7_ALL_FEATURES
100
AcDbLine
 62
7
  6
CONTINUOUS
 10
88.6832221722
 20
162.7240510288
 11
42.1834352249
 21
162.7240510288
  0
LINE
  5
31E
100
AcDbEntity
  8
7_ALL_FEATURES
100
AcDbLine
 62
7
  6
CONTINUOUS
 10
89.1833286986
 20
163.2240510288
 11
41.6833286986
 21
163.2240510288
  0
LINE
  5
31F
100
AcDbEntity
  8
7_ALL_FEATURES
100
AcDbLine
 62
7
  6
CONTINUOUS
 10
41.6833286986
 20
168.2240510288
 11
89.1833286986
 21
168.2240510288
  0
LINE
  5
320
100
AcDbEntity
  8
7_ALL_FEATURES
100
AcDbLine
 62
7
  6
CONTINUOUS
 10
42.1834352249
 20
168.7240510288
 11
88.6832221722
 21
168.7240510288
  0
LINE
  5
321
100
AcDbEntity
  8
7_ALL_FEATURES
100
AcDbLine
 62
7
  6
CONTINUOUS
 10
88.6833286986
 20
161.6240510288
 11
89.1833286986
 21
161.1240510288
  0
LINE
  5
322
100
AcDbEntity
  8
7_ALL_FEATURES
100
AcDbLine
 62
7
  6
CONTINUOUS
 10
88.6833286986
 20
168.7240510288
 11
89.1833286986
 21
168.2240510288
  0
LINE
  5
323
100
AcDbEntity
  8
7_ALL_FEATURES
100
AcDbLine
 62
7
  6
CONTINUOUS
 10
144.1351240962
 20
168.7240510288
 11
143.6351240962
 21
168.2240510288
  0
LINE
  5
324
100
AcDbEntity
  8
7_ALL_FEATURES
100
AcDbLine
 62
7
  6
CONTINUOUS
 10
144.1351240962
 20
161.6240510288
 11
143.6351240962
 21
161.1240510288
  0
LINE
  5
325
100
AcDbEntity
  8
3_ALL_AXES
100
AcDbLine
 62
7
  6
CONTINUOUS
 10
154.9785684989
 20
106.2240510288
 11
156.0007049191
 21
106.2240510288
  0
LINE
  5
326
100
AcDbEntity
  8
7_ALL_FEATURES
100
AcDbLine
 62
7
  6
CONTINUOUS
 10
154.9755786533
 20
106.2240510288
 11
161.9755786533
 21
106.2240510288
  0
LINE
  5
327
100
AcDbEntity
  8
3_ALL_AXES
100
AcDbLine
 62
7
  6
CONTINUOUS
 10
160.9504523874
 20
106.2240510288
 11
161.9725888076
 21
106.2240510288
  0
LINE
  5
328
100
AcDbEntity
  8
3_ALL_AXES
100
AcDbLine
 62
7
  6
CONTINUOUS
 10
151.4755786533
 20
110.2240510288
 11
151.3029748759
 21
110.3966548062
  0
LINE
  5
329
100
AcDbEntity
  8
3_ALL_AXES
100
AcDbLine
 62
9
  6
CONTINUOUS
 10
165.4755786533
 20
109.7240510288
 11
165.4265281283
 21
109.7240510288
  0
LINE
  5
32A
100
AcDbEntity
  8
3_ALL_AXES
100
AcDbLine
 62
9
  6
CONTINUOUS
 10
151.4755786533
 20
109.7240510288
 11
152.8694923865
 21
109.7240510288
  0
LINE
  5
32B
100
AcDbEntity
  8
3_ALL_AXES
100
AcDbLine
 62
9
  6
CONTINUOUS
 10
154.2837059489
 20
109.7240510288
 11
159.3028037713
 21
109.7240510288
  0
LINE
  5
32C
100
AcDbEntity
  8
3_ALL_AXES
100
AcDbLine
 62
9
  6
CONTINUOUS
 10
161.2346554239
 20
109.7240510288
 11
164.9088900381
 21
109.7240510288
  0
LINE
  5
32D
100
AcDbEntity
  8
3_ALL_AXES
100
AcDbLine
 62
7
  6
CONTINUOUS
 10
165.4755786533
 20
110.2240510288
 11
165.4265281283
 21
110.2240510288
  0
LINE
  5
32E
100
AcDbEntity
  8
3_ALL_AXES
100
AcDbLine
 62
7
  6
CONTINUOUS
 10
151.4755786533
 20
110.2240510288
 11
152.8694923865
 21
110.2240510288
  0
LINE
  5
32F
100
AcDbEntity
  8
3_ALL_AXES
100
AcDbLine
 62
7
  6
CONTINUOUS
 10
154.2837059489
 20
110.2240510288
 11
159.3028037713
 21
110.2240510288
  0
LINE
  5
330
100
AcDbEntity
  8
3_ALL_AXES
100
AcDbLine
 62
7
  6
CONTINUOUS
 10
161.2346554239
 20
110.2240510288
 11
164.9088900381
 21
110.2240510288
  0
LINE
  5
331
100
AcDbEntity
  8
7_ALL_FEATURES
100
AcDbLine
 62
7
  6
CONTINUOUS
 10
143.6351240962
 20
168.2240510288
 11
143.6351240962
 21
163.2240510288
  0
LINE
  5
332
100
AcDbEntity
  8
7_ALL_FEATURES
100
AcDbLine
 62
7
  6
CONTINUOUS
 10
143.6351240962
 20
161.1240510288
 11
143.6351240962
 21
158.9740510288
  0
LINE
  5
333
100
AcDbEntity
  8
7_ALL_FEATURES
100
AcDbLine
 62
7
  6
CONTINUOUS
 10
144.2851240962
 20
161.6240510288
 11
144.2851240962
 21
162.7240510288
  0
LINE
  5
334
100
AcDbEntity
  8
3_ALL_AXES
100
AcDbLine
 62
7
  6
CONTINUOUS
 10
166.2029852636
 20
115.7240510288
 11
150.748172043
 21
115.7240510288
  0
LINE
  5
335
100
AcDbEntity
  8
7_ALL_FEATURES
100
AcDbLine
 62
7
  6
CONTINUOUS
 10
151.1351280674
 20
122.2240510288
 11
150.1351240962
 21
123.224053054
  0
LINE
  5
336
100
AcDbEntity
  8
3_ALL_AXES
100
AcDbLine
 62
7
  6
CONTINUOUS
 10
166.2029852636
 20
118.7240510288
 11
150.748172043
 21
118.7240510288
  0
LINE
  5
337
100
AcDbEntity
  8
7_ALL_FEATURES
100
AcDbLine
 62
7
  6
CONTINUOUS
 10
150.1351240962
 20
123.224053054
 11
150.1351240962
 21
124.7240510288
  0
LINE
  5
338
100
AcDbEntity
  8
7_ALL_FEATURES
100
AcDbLine
 62
7
  6
CONTINUOUS
 10
150.1351240962
 20
126.7240510288
 11
150.1351240962
 21
128.7240510288
  0
LINE
  5
339
100
AcDbEntity
  8
7_ALL_FEATURES
100
AcDbLine
 62
7
  6
CONTINUOUS
 10
150.1351240962
 20
130.7240510288
 11
150.1351240962
 21
132.7240510288
  0
LINE
  5
33A
100
AcDbEntity
  8
7_ALL_FEATURES
100
AcDbLine
 62
7
  6
CONTINUOUS
 10
150.1351240962
 20
134.7240510288
 11
150.1351240962
 21
136.7240510288
  0
LINE
  5
33B
100
AcDbEntity
  8
7_ALL_FEATURES
100
AcDbLine
 62
7
  6
CONTINUOUS
 10
150.1351240962
 20
139.2240510288
 11
150.1351240962
 21
157.2240510288
  0
LINE
  5
33C
100
AcDbEntity
  8
3_ALL_AXES
100
AcDbLine
 62
7
  6
CONTINUOUS
 10
150.748172043
 20
122.2240510288
 11
150.748172043
 21
118.7240510288
  0
LINE
  5
33D
100
AcDbEntity
  8
3_ALL_AXES
100
AcDbLine
 62
7
  6
CONTINUOUS
 10
150.748172043
 20
115.7240510288
 11
150.748172043
 21
111.2240510288
  0
LINE
  5
33E
100
AcDbEntity
  8
3_ALL_AXES
100
AcDbLine
 62
7
  6
CONTINUOUS
 10
151.4755786533
 20
109.7240510288
 11
151.4755786533
 21
110.2240510288
  0
LINE
  5
33F
100
AcDbEntity
  8
7_ALL_FEATURES
100
AcDbLine
 62
7
  6
CONTINUOUS
 10
151.6351240962
 20
124.7240510288
 11
151.6351240962
 21
126.7240510288
  0
LINE
  5
340
100
AcDbEntity
  8
7_ALL_FEATURES
100
AcDbLine
 62
7
  6
CONTINUOUS
 10
151.6351240962
 20
128.7240510288
 11
151.6351240962
 21
130.7240510288
  0
LINE
  5
341
100
AcDbEntity
  8
7_ALL_FEATURES
100
AcDbLine
 62
7
  6
CONTINUOUS
 10
151.6351240962
 20
132.7240510288
 11
151.6351240962
 21
134.7240510288
  0
LINE
  5
342
100
AcDbEntity
  8
7_ALL_FEATURES
100
AcDbLine
 62
7
  6
CONTINUOUS
 10
151.6351240962
 20
136.7240510288
 11
151.6351240962
 21
138.7240510288
  0
LINE
  5
343
100
AcDbEntity
  8
3_ALL_AXES
100
AcDbLine
 62
7
  6
CONTINUOUS
 10
165.4201434486
 20
119.5240510288
 11
169.3501047439
 21
119.5240510288
  0
LINE
  5
344
100
AcDbEntity
  8
3_ALL_AXES
100
AcDbLine
 62
7
  6
CONTINUOUS
 10
163.5851240962
 20
121.3440510288
 11
171.1851240962
 21
121.3440510288
  0
LINE
  5
345
100
AcDbEntity
  8
3_ALL_AXES
100
AcDbLine
 62
7
  6
CONTINUOUS
 10
168.7828897453
 20
121.7240510288
 11
165.9850110881
 21
121.7240510288
  0
LINE
  5
346
100
AcDbEntity
  8
7_ALL_FEATURES
100
AcDbLine
 62
3
  6
CONTINUOUS
 10
161.8851240962
 20
121.7240510288
 11
165.9850110881
 21
121.7240510288
  0
LINE
  5
347
100
AcDbEntity
  8
7_ALL_FEATURES
100
AcDbLine
 62
3
  6
CONTINUOUS
 10
168.7828897453
 20
121.7240510288
 11
172.8851240962
 21
121.7240510288
  0
LINE
  5
348
100
AcDbEntity
  8
3_ALL_AXES
100
AcDbLine
 62
7
  6
CONTINUOUS
 10
152.4755786533
 20
115.7240510288
 11
152.4755786533
 21
118.7240510288
  0
LINE
  5
349
100
AcDbEntity
  8
3_ALL_AXES
100
AcDbLine
 62
7
  6
CONTINUOUS
 10
152.8694923865
 20
109.7240510288
 11
152.8694923865
 21
110.2240510288
  0
LINE
  5
34A
100
AcDbEntity
  8
3_ALL_AXES
100
AcDbLine
 62
7
  6
CONTINUOUS
 10
154.2837059489
 20
109.7240510288
 11
154.2837059489
 21
110.2240510288
  0
LINE
  5
34B
100
AcDbEntity
  8
7_ALL_FEATURES
100
AcDbLine
 62
7
  6
CONTINUOUS
 10
183.6351101699
 20
122.2240510288
 11
172.8851240962
 21
122.2240510288
  0
LINE
  5
34C
100
AcDbEntity
  8
7_ALL_FEATURES
100
AcDbLine
 62
7
  6
CONTINUOUS
 10
161.8851240962
 20
122.2240510288
 11
151.3627418097
 21
122.2240510288
  0
LINE
  5
34D
100
AcDbEntity
  8
3_ALL_AXES
100
AcDbLine
 62
7
  6
CONTINUOUS
 10
151.3627418097
 20
122.2240510288
 11
150.748172043
 21
122.2240510288
  0
LINE
  5
34E
100
AcDbEntity
  8
7_ALL_FEATURES
100
AcDbLine
 62
9
  6
CONTINUOUS
 10
161.8851240962
 20
122.3161275543
 11
172.8851240962
 21
122.3161275543
  0
LINE
  5
34F
100
AcDbEntity
  8
7_ALL_FEATURES
100
AcDbLine
 62
7
  6
CONTINUOUS
 10
184.6351240962
 20
123.2240628995
 11
172.8851240962
 21
123.2240510288
  0
LINE
  5
350
100
AcDbEntity
  8
7_ALL_FEATURES
100
AcDbLine
 62
7
  6
CONTINUOUS
 10
161.8851240962
 20
123.2240510288
 11
150.1351240962
 21
123.224053054
  0
LINE
  5
351
100
AcDbEntity
  8
7_ALL_FEATURES
100
AcDbLine
 62
4
  6
CONTINUOUS
 10
164.3851240962
 20
124.1047703084
 11
170.3851240962
 21
124.1047703084
  0
LINE
  5
352
100
AcDbEntity
  8
7_ALL_FEATURES
100
AcDbLine
 62
7
  6
CONTINUOUS
 10
150.1353003158
 20
124.7240510288
 11
161.8851240962
 21
124.7240510288
  0
LINE
  5
353
100
AcDbEntity
  8
7_ALL_FEATURES
100
AcDbLine
 62
7
  6
CONTINUOUS
 10
172.8851240962
 20
124.7240510288
 11
184.6349478766
 21
124.7240510288
  0
LINE
  5
354
100
AcDbEntity
  8
3_ALL_AXES
100
AcDbLine
 62
7
  6
CONTINUOUS
 10
156.4050262924
 20
122.2240510288
 11
156.4050262924
 21
118.7240510288
  0
LINE
  5
355
100
AcDbEntity
  8
3_ALL_AXES
100
AcDbLine
 62
7
  6
CONTINUOUS
 10
156.4050262924
 20
115.7240510288
 11
156.4050262924
 21
111.2240510288
  0
LINE
  5
356
100
AcDbEntity
  8
7_ALL_FEATURES
100
AcDbLine
 62
7
  6
CONTINUOUS
 10
170.0117907629
 20
124.7652977089
 11
169.0017907629
 21
124.7652977089
  0
LINE
  5
357
100
AcDbEntity
  8
7_ALL_FEATURES
100
AcDbLine
 62
7
  6
CONTINUOUS
 10
166.0117907629
 20
124.7652977089
 11
165.0017907629
 21
124.7652977089
  0
LINE
  5
358
100
AcDbEntity
  8
7_ALL_FEATURES
100
AcDbLine
 62
7
  6
CONTINUOUS
 10
150.1351240974
 20
126.7240510288
 11
161.8851240962
 21
126.7240510288
  0
LINE
  5
359
100
AcDbEntity
  8
7_ALL_FEATURES
100
AcDbLine
 62
7
  6
CONTINUOUS
 10
172.8851240962
 20
126.7240510288
 11
184.635124095
 21
126.7240510288
  0
LINE
  5
35A
100
AcDbEntity
  8
7_ALL_FEATURES
100
AcDbLine
 62
7
  6
CONTINUOUS
 10
150.6351240962
 20
138.7240510288
 11
150.1351240962
 21
139.2240510288
  0
LINE
  5
35B
100
AcDbEntity
  8
3_ALL_AXES
100
AcDbLine
 62
7
  6
CONTINUOUS
 10
159.3028037713
 20
109.7240510288
 11
159.3028037713
 21
110.2240510288
  0
LINE
  5
35C
100
AcDbEntity
  8
7_ALL_FEATURES
100
AcDbLine
 62
7
  6
CONTINUOUS
 10
150.1351240964
 20
128.7240510288
 11
161.8851240962
 21
128.7240510288
  0
LINE
  5
35D
100
AcDbEntity
  8
7_ALL_FEATURES
100
AcDbLine
 62
7
  6
CONTINUOUS
 10
172.8851240962
 20
128.7240510288
 11
184.6351240961
 21
128.7240510288
  0
LINE
  5
35E
100
AcDbEntity
  8
7_ALL_FEATURES
100
AcDbLine
 62
4
  6
CONTINUOUS
 10
170.3851240962
 20
129.4268353075
 11
164.3851240962
 21
129.4268353075
  0
LINE
  5
35F
100
AcDbEntity
  8
7_ALL_FEATURES
100
AcDbLine
 62
4
  6
CONTINUOUS
 10
168.4033576399
 20
124.6026790561
 11
166.7240319013
 21
126.428434043
  0
LINE
  5
360
100
AcDbEntity
  8
3_ALL_AXES
100
AcDbLine
 62
7
  6
CONTINUOUS
 10
161.2346554239
 20
109.7240510288
 11
161.2346554239
 21
110.2240510288
  0
LINE
  5
361
100
AcDbEntity
  8
7_ALL_FEATURES
100
AcDbLine
 62
7
  6
CONTINUOUS
 10
161.5972056448
 20
123.2240510288
 11
161.5972056448
 21
124.7240510288
  0
LINE
  5
362
100
AcDbEntity
  8
7_ALL_FEATURES
100
AcDbLine
 62
7
  6
CONTINUOUS
 10
161.5972056448
 20
126.7240510288
 11
161.5972056448
 21
128.7240510288
  0
LINE
  5
363
100
AcDbEntity
  8
7_ALL_FEATURES
100
AcDbLine
 62
7
  6
CONTINUOUS
 10
161.5972056448
 20
130.7240510288
 11
161.5972056448
 21
132.7240510288
  0
LINE
  5
364
100
AcDbEntity
  8
7_ALL_FEATURES
100
AcDbLine
 62
7
  6
CONTINUOUS
 10
161.5972056448
 20
134.7240510288
 11
161.5972056448
 21
136.7240510288
  0
LINE
  5
365
100
AcDbEntity
  8
7_ALL_FEATURES
100
AcDbLine
 62
3
  6
CONTINUOUS
 10
161.8851240962
 20
136.0230239677
 11
161.8851240962
 21
121.7240510288
  0
LINE
  5
366
100
AcDbEntity
  8
7_ALL_FEATURES
100
AcDbLine
 62
7
  6
CONTINUOUS
 10
150.1351240964
 20
130.7240510288
 11
161.8851240962
 21
130.7240510288
  0
LINE
  5
367
100
AcDbEntity
  8
7_ALL_FEATURES
100
AcDbLine
 62
7
  6
CONTINUOUS
 10
172.8851240962
 20
130.7240510288
 11
184.6351240961
 21
130.7240510288
  0
LINE
  5
368
100
AcDbEntity
  8
7_ALL_FEATURES
100
AcDbLine
 62
9
  6
CONTINUOUS
 10
161.8851240962
 20
131.2154780617
 11
172.8851240962
 21
131.2154780617
  0
LINE
  5
369
100
AcDbEntity
  8
3_ALL_AXES
100
AcDbLine
 62
7
  6
CONTINUOUS
 10
163.5851240962
 20
121.7240510288
 11
163.5851240962
 21
121.3440510288
  0
LINE
  5
36A
100
AcDbEntity
  8
3_ALL_AXES
100
AcDbLine
 62
7
  6
CONTINUOUS
 10
164.1324329028
 20
120.5266417772
 11
164.1324329028
 21
118.7240510288
  0
LINE
  5
36B
100
AcDbEntity
  8
3_ALL_AXES
100
AcDbLine
 62
7
  6
CONTINUOUS
 10
164.1324329028
 20
115.7240510288
 11
164.1324329028
 21
111.2240510288
  0
LINE
  5
36C
100
AcDbEntity
  8
7_ALL_FEATURES
100
AcDbLine
 62
4
  6
CONTINUOUS
 10
164.3851240962
 20
129.4268353075
 11
164.3851240962
 21
124.1047703084
  0
LINE
  5
36D
100
AcDbEntity
  8
3_ALL_AXES
100
AcDbLine
 62
7
  6
CONTINUOUS
 10
164.4755786533
 20
115.7240510288
 11
164.4755786533
 21
118.7240510288
  0
LINE
  5
36E
100
AcDbEntity
  8
3_ALL_AXES
100
AcDbLine
 62
7
  6
CONTINUOUS
 10
164.9088900381
 20
109.7240510288
 11
164.9088900381
 21
110.2240510288
  0
LINE
  5
36F
100
AcDbEntity
  8
7_ALL_FEATURES
100
AcDbLine
 62
7
  6
CONTINUOUS
 10
165.0017907629
 20
127.0744825779
 11
165.0017907629
 21
124.7652977089
  0
LINE
  5
370
100
AcDbEntity
  8
7_ALL_FEATURES
100
AcDbLine
 62
7
  6
CONTINUOUS
 10
150.1351240964
 20
132.7240510288
 11
161.8851240962
 21
132.7240510288
  0
LINE
  5
371
100
AcDbEntity
  8
7_ALL_FEATURES
100
AcDbLine
 62
7
  6
CONTINUOUS
 10
172.8851240962
 20
132.7240510288
 11
184.6351240961
 21
132.7240510288
  0
LINE
  5
372
100
AcDbEntity
  8
7_ALL_FEATURES
100
AcDbLine
 62
7
  6
CONTINUOUS
 10
150.1351240964
 20
134.7240510288
 11
161.8851240962
 21
134.7240510288
  0
LINE
  5
373
100
AcDbEntity
  8
7_ALL_FEATURES
100
AcDbLine
 62
7
  6
CONTINUOUS
 10
172.8851240962
 20
134.7240510288
 11
184.6351240961
 21
134.7240510288
  0
LINE
  5
374
100
AcDbEntity
  8
3_ALL_AXES
100
AcDbLine
 62
7
  6
CONTINUOUS
 10
165.4265281283
 20
109.7240510288
 11
165.4265281283
 21
110.2240510288
  0
LINE
  5
375
100
AcDbEntity
  8
3_ALL_AXES
100
AcDbLine
 62
7
  6
CONTINUOUS
 10
165.4755786533
 20
109.7240510288
 11
165.4755786533
 21
110.2240510288
  0
LINE
  5
376
100
AcDbEntity
  8
3_ALL_AXES
100
AcDbLine
 62
7
  6
CONTINUOUS
 10
166.2029852636
 20
119.5240510288
 11
166.2029852636
 21
118.7240510288
  0
LINE
  5
377
100
AcDbEntity
  8
3_ALL_AXES
100
AcDbLine
 62
7
  6
CONTINUOUS
 10
166.2029852636
 20
115.7240510288
 11
166.2029852636
 21
111.2240510288
  0
LINE
  5
378
100
AcDbEntity
  8
7_ALL_FEATURES
100
AcDbLine
 62
7
  6
CONTINUOUS
 10
184.6351240962
 20
157.2240510288
 11
185.1351240962
 21
157.7240510288
  0
LINE
  5
379
100
AcDbEntity
  8
7_ALL_FEATURES
100
AcDbLine
 62
7
  6
CONTINUOUS
 10
190.6351240962
 20
162.7240510288
 11
191.1351240962
 21
163.2240510288
  0
LINE
  5
37A
100
AcDbEntity
  8
7_ALL_FEATURES
100
AcDbLine
 62
3
  6
CONTINUOUS
 10
163.8851240962
 20
137.4656045649
 11
162.4846606094
 21
136.4753273366
  0
LINE
  5
37B
100
AcDbEntity
  8
7_ALL_FEATURES
100
AcDbLine
 62
9
  6
CONTINUOUS
 10
162.4846606094
 20
136.4753273366
 11
172.285587583
 21
136.4753273366
  0
LINE
  5
37C
100
AcDbEntity
  8
7_ALL_FEATURES
100
AcDbLine
 62
7
  6
CONTINUOUS
 10
150.1351240964
 20
136.7240510288
 11
162.8364090283
 21
136.7240510288
  0
LINE
  5
37D
100
AcDbEntity
  8
7_ALL_FEATURES
100
AcDbLine
 62
7
  6
CONTINUOUS
 10
171.9338391642
 20
136.7240510288
 11
184.6351240961
 21
136.7240510288
  0
LINE
  5
37E
100
AcDbEntity
  8
7_ALL_FEATURES
100
AcDbLine
 62
3
  6
CONTINUOUS
 10
170.8851240962
 20
137.4656045649
 11
163.8851240962
 21
137.4656045649
  0
LINE
  5
37F
100
AcDbEntity
  8
7_ALL_FEATURES
100
AcDbLine
 62
7
  6
CONTINUOUS
 10
144.8851240962
 20
157.7240510288
 11
143.6351240962
 21
158.9740510288
  0
LINE
  5
380
100
AcDbEntity
  8
7_ALL_FEATURES
100
AcDbLine
 62
7
  6
CONTINUOUS
 10
169.0017907629
 20
127.0744825779
 11
169.0017907629
 21
124.7652977089
  0
LINE
  5
381
100
AcDbEntity
  8
7_ALL_FEATURES
100
AcDbLine
 62
7
  6
CONTINUOUS
 10
189.8851240962
 20
157.7240510288
 11
191.1351240962
 21
158.9740510288
  0
LINE
  5
382
100
AcDbEntity
  8
7_ALL_FEATURES
100
AcDbLine
 62
7
  6
CONTINUOUS
 10
184.1350136177
 20
138.7240510288
 11
150.6352346512
 21
138.7240510288
  0
LINE
  5
383
100
AcDbEntity
  8
7_ALL_FEATURES
100
AcDbLine
 62
7
  6
CONTINUOUS
 10
184.6351240962
 20
139.2240510288
 11
150.1351240962
 21
139.2240510288
  0
LINE
  5
384
100
AcDbEntity
  8
7_ALL_FEATURES
100
AcDbLine
 62
3
  6
CONTINUOUS
 10
172.285587583
 20
136.4753273366
 11
170.8851240962
 21
137.4656045649
  0
LINE
  5
385
100
AcDbEntity
  8
7_ALL_FEATURES
100
AcDbLine
 62
7
  6
CONTINUOUS
 10
144.1351240962
 20
162.7240510288
 11
143.6351240962
 21
163.2240510288
  0
LINE
  5
386
100
AcDbEntity
  8
7_ALL_FEATURES
100
AcDbLine
 62
7
  6
CONTINUOUS
 10
150.1351240962
 20
157.2240510288
 11
149.6351240962
 21
157.7240510288
  0
LINE
  5
387
100
AcDbEntity
  8
7_ALL_FEATURES
100
AcDbLine
 62
4
  6
CONTINUOUS
 10
170.3851240962
 20
124.1047703084
 11
170.3851240962
 21
129.4268353075
  0
LINE
  5
388
100
AcDbEntity
  8
3_ALL_AXES
100
AcDbLine
 62
7
  6
CONTINUOUS
 10
171.1851240962
 20
121.7240510288
 11
171.1851240962
 21
121.3440510288
  0
LINE
  5
389
100
AcDbEntity
  8
7_ALL_FEATURES
100
AcDbLine
 62
3
  6
CONTINUOUS
 10
172.8851240962
 20
121.7240510288
 11
172.8851240962
 21
136.0230239677
  0
LINE
  5
38A
100
AcDbEntity
  8
7_ALL_FEATURES
100
AcDbLine
 62
7
  6
CONTINUOUS
 10
173.1730425476
 20
123.2240510288
 11
173.1730425476
 21
124.7240510288
  0
LINE
  5
38B
100
AcDbEntity
  8
7_ALL_FEATURES
100
AcDbLine
 62
7
  6
CONTINUOUS
 10
173.1730425476
 20
126.7240510288
 11
173.1730425476
 21
128.7240510288
  0
LINE
  5
38C
100
AcDbEntity
  8
7_ALL_FEATURES
100
AcDbLine
 62
7
  6
CONTINUOUS
 10
173.1730425476
 20
130.7240510288
 11
173.1730425476
 21
132.7240510288
  0
LINE
  5
38D
100
AcDbEntity
  8
7_ALL_FEATURES
100
AcDbLine
 62
7
  6
CONTINUOUS
 10
173.1730425476
 20
134.7240510288
 11
173.1730425476
 21
136.7240510288
  0
LINE
  5
38E
100
AcDbEntity
  8
7_ALL_FEATURES
100
AcDbLine
 62
4
  6
CONTINUOUS
 10
167.7978207907
 20
125.0689340949
 11
168.2917231019
 21
125.5818794267
  0
LINE
  5
38F
100
AcDbEntity
  8
7_ALL_FEATURES
100
AcDbLine
 62
4
  6
CONTINUOUS
 10
166.6019894794
 20
125.7139377151
 11
167.5076857423
 21
126.3693776102
  0
LINE
  5
390
100
AcDbEntity
  8
7_ALL_FEATURES
100
AcDbLine
 62
7
  6
CONTINUOUS
 10
184.1351240962
 20
138.7240510288
 11
184.6351240962
 21
139.2240510288
  0
LINE
  5
391
100
AcDbEntity
  8
7_ALL_FEATURES
100
AcDbLine
 62
7
  6
CONTINUOUS
 10
183.1351240962
 20
124.7240510288
 11
183.1351240962
 21
126.7240510288
  0
LINE
  5
392
100
AcDbEntity
  8
7_ALL_FEATURES
100
AcDbLine
 62
7
  6
CONTINUOUS
 10
183.1351240962
 20
128.7240510288
 11
183.1351240962
 21
130.7240510288
  0
LINE
  5
393
100
AcDbEntity
  8
7_ALL_FEATURES
100
AcDbLine
 62
7
  6
CONTINUOUS
 10
183.1351240962
 20
132.7240510288
 11
183.1351240962
 21
134.7240510288
  0
LINE
  5
394
100
AcDbEntity
  8
7_ALL_FEATURES
100
AcDbLine
 62
7
  6
CONTINUOUS
 10
183.1351240962
 20
136.7240510288
 11
183.1351240962
 21
138.7240510288
  0
LINE
  5
395
100
AcDbEntity
  8
7_ALL_FEATURES
100
AcDbLine
 62
7
  6
CONTINUOUS
 10
184.6351240962
 20
123.2240628996
 11
184.6351240962
 21
124.7240510288
  0
LINE
  5
396
100
AcDbEntity
  8
7_ALL_FEATURES
100
AcDbLine
 62
7
  6
CONTINUOUS
 10
184.6351240962
 20
126.7240510288
 11
184.6351240962
 21
128.7240510288
  0
LINE
  5
397
100
AcDbEntity
  8
7_ALL_FEATURES
100
AcDbLine
 62
7
  6
CONTINUOUS
 10
184.6351240962
 20
130.7240510288
 11
184.6351240962
 21
132.7240510288
  0
LINE
  5
398
100
AcDbEntity
  8
7_ALL_FEATURES
100
AcDbLine
 62
7
  6
CONTINUOUS
 10
184.6351240962
 20
134.7240510288
 11
184.6351240962
 21
136.7240510288
  0
LINE
  5
399
100
AcDbEntity
  8
7_ALL_FEATURES
100
AcDbLine
 62
7
  6
CONTINUOUS
 10
184.6351240962
 20
139.2240510288
 11
184.6351240962
 21
157.2240510288
  0
LINE
  5
39A
100
AcDbEntity
  8
3_ALL_AXES
100
AcDbLine
 62
7
  6
CONTINUOUS
 10
165.4755786533
 20
110.2240510288
 11
165.6481824306
 21
110.3966548062
  0
LINE
  5
39B
100
AcDbEntity
  8
7_ALL_FEATURES
100
AcDbLine
 62
7
  6
CONTINUOUS
 10
150.1351240962
 20
157.2240510288
 11
184.6351240962
 21
157.2240510288
  0
LINE
  5
39C
100
AcDbEntity
  8
7_ALL_FEATURES
100
AcDbLine
 62
7
  6
CONTINUOUS
 10
144.8853429899
 20
157.7240510288
 11
189.8849052025
 21
157.7240510288
  0
LINE
  5
39D
100
AcDbEntity
  8
7_ALL_FEATURES
100
AcDbLine
 62
7
  6
CONTINUOUS
 10
190.4851240962
 20
161.6240510288
 11
190.4851240962
 21
162.7240510288
  0
LINE
  5
39E
100
AcDbEntity
  8
7_ALL_FEATURES
100
AcDbLine
 62
7
  6
CONTINUOUS
 10
191.1351240962
 20
168.2240510288
 11
191.1351240962
 21
163.2240510288
  0
LINE
  5
39F
100
AcDbEntity
  8
7_ALL_FEATURES
100
AcDbLine
 62
7
  6
CONTINUOUS
 10
191.1351240962
 20
161.1240510288
 11
191.1351240962
 21
158.9740510288
  0
LINE
  5
3A0
100
AcDbEntity
  8
7_ALL_FEATURES
100
AcDbLine
 62
7
  6
CONTINUOUS
 10
183.6351101701
 20
122.2240510288
 11
184.6351240962
 21
123.2240628995
  0
LINE
  5
3A1
100
AcDbEntity
  8
7_ALL_FEATURES
100
AcDbLine
 62
7
  6
CONTINUOUS
 10
143.6351240962
 20
158.9740510288
 11
191.1351240962
 21
158.9740510288
  0
LINE
  5
3A2
100
AcDbEntity
  8
7_ALL_FEATURES
100
AcDbLine
 62
7
  6
CONTINUOUS
 10
143.6351240962
 20
161.1240510288
 11
191.1351240962
 21
161.1240510288
  0
LINE
  5
3A3
100
AcDbEntity
  8
7_ALL_FEATURES
100
AcDbLine
 62
7
  6
CONTINUOUS
 10
144.135350254
 20
161.6240510288
 11
190.6348979384
 21
161.6240510288
  0
LINE
  5
3A4
100
AcDbEntity
  8
7_ALL_FEATURES
100
AcDbLine
 62
7
  6
CONTINUOUS
 10
190.6350175702
 20
162.7240510288
 11
144.1352306222
 21
162.7240510288
  0
LINE
  5
3A5
100
AcDbEntity
  8
7_ALL_FEATURES
100
AcDbLine
 62
7
  6
CONTINUOUS
 10
191.1351240962
 20
163.2240510288
 11
143.6351240962
 21
163.2240510288
  0
LINE
  5
3A6
100
AcDbEntity
  8
7_ALL_FEATURES
100
AcDbLine
 62
7
  6
CONTINUOUS
 10
143.6351240962
 20
168.2240510288
 11
191.1351240962
 21
168.2240510288
  0
LINE
  5
3A7
100
AcDbEntity
  8
7_ALL_FEATURES
100
AcDbLine
 62
7
  6
CONTINUOUS
 10
144.1352306222
 20
168.7240510288
 11
190.6350175702
 21
168.7240510288
  0
LINE
  5
3A8
100
AcDbEntity
  8
7_ALL_FEATURES
100
AcDbLine
 62
7
  6
CONTINUOUS
 10
190.6351240962
 20
161.6240510288
 11
191.1351240962
 21
161.1240510288
  0
LINE
  5
3A9
100
AcDbEntity
  8
7_ALL_FEATURES
100
AcDbLine
 62
7
  6
CONTINUOUS
 10
190.6351240962
 20
168.7240510288
 11
191.1351240962
 21
168.2240510288
  0
ARC
  5
3AA
100
AcDbEntity
  8
7_ALL_FEATURES
100
AcDbCircle
 62
3
  6
CONTINUOUS
 10
82.5827041253
 20
133.2933468212
 40
4.5
100
AcDbArc
 50
332.5
 51
45.0
  0
ARC
  5
3AB
100
AcDbEntity
  8
7_ALL_FEATURES
100
AcDbCircle
 62
3
  6
CONTINUOUS
 10
48.2839532718
 20
133.2933468212
 40
4.5
100
AcDbArc
 50
135.0
 51
207.5
  0
ARC
  5
3AC
100
AcDbEntity
  8
3_ALL_AXES
100
AcDbCircle
 62
7
  6
CONTINUOUS
 10
77.5757714959
 20
123.1966911205
 40
4.1
100
AcDbArc
 50
296.3930257743
 51
333.1366968699
  0
ARC
  5
3AD
100
AcDbEntity
  8
3_ALL_AXES
100
AcDbCircle
 62
7
  6
CONTINUOUS
 10
77.2908859012
 20
123.1966911205
 40
4.1
100
AcDbArc
 50
206.8633031301
 51
243.6069742257
  0
ARC
  5
3AE
100
AcDbEntity
  8
3_ALL_AXES
100
AcDbCircle
 62
7
  6
CONTINUOUS
 10
53.5757714959
 20
123.1966911205
 40
4.1
100
AcDbArc
 50
296.3930257743
 51
333.1366968699
  0
ARC
  5
3AF
100
AcDbEntity
  8
3_ALL_AXES
100
AcDbCircle
 62
7
  6
CONTINUOUS
 10
53.2908859012
 20
123.1966911205
 40
4.1
100
AcDbArc
 50
206.8633031301
 51
243.6069742257
  0
ARC
  5
3B0
100
AcDbEntity
  8
7_ALL_FEATURES
100
AcDbCircle
 62
7
  6
CONTINUOUS
 10
82.5827041253
 20
133.2933468212
 40
4.0
100
AcDbArc
 50
332.5
 51
45.0
  0
ARC
  5
3B1
100
AcDbEntity
  8
7_ALL_FEATURES
100
AcDbCircle
 62
7
  6
CONTINUOUS
 10
48.2839532718
 20
133.2933468212
 40
4.0
100
AcDbArc
 50
135.0
 51
207.5
  0
ARC
  5
3B2
100
AcDbEntity
  8
3_ALL_AXES
100
AcDbCircle
 62
7
  6
CONTINUOUS
 10
68.9333286986
 20
109.7240510288
 40
3.5
100
AcDbArc
 50
270.0
 51
360.0
  0
ARC
  5
3B3
100
AcDbEntity
  8
3_ALL_AXES
100
AcDbCircle
 62
7
  6
CONTINUOUS
 10
61.9333286986
 20
109.7240510288
 40
3.5
100
AcDbArc
 50
180.0
 51
270.0
  0
ARC
  5
3B4
100
AcDbEntity
  8
7_ALL_FEATURES
100
AcDbCircle
 62
3
  6
CONTINUOUS
 10
80.9658323126
 20
122.8240510288
 40
1.1
100
AcDbArc
 50
270.0
 51
332.5
  0
ARC
  5
3B5
100
AcDbEntity
  8
7_ALL_FEATURES
100
AcDbCircle
 62
3
  6
CONTINUOUS
 10
49.9008250845
 20
122.8240510288
 40
1.1
100
AcDbArc
 50
207.5
 51
270.0
  0
ARC
  5
3B6
100
AcDbEntity
  8
3_ALL_AXES
100
AcDbCircle
 62
7
  6
CONTINUOUS
 10
58.8486106526
 20
110.8863668511
 40
0.7568273965
100
AcDbArc
 50
237.9318966534
 51
241.0593420763
  0
ARC
  5
3B7
100
AcDbEntity
  8
7_ALL_FEATURES
100
AcDbCircle
 62
7
  6
CONTINUOUS
 10
80.9658323126
 20
122.8240510288
 40
0.6
100
AcDbArc
 50
270.0
 51
332.5
  0
ARC
  5
3B8
100
AcDbEntity
  8
7_ALL_FEATURES
100
AcDbCircle
 62
7
  6
CONTINUOUS
 10
49.9008250845
 20
122.8240510288
 40
0.6
100
AcDbArc
 50
207.5
 51
270.0
  0
CIRCLE
  5
3B9
100
AcDbEntity
  8
7_ALL_FEATURES
100
AcDbCircle
 62
7
  6
CONTINUOUS
 10
65.4333286986
 20
56.1495498471
 40
23.75
  0
CIRCLE
  5
3BA
100
AcDbEntity
  8
7_ALL_FEATURES
100
AcDbCircle
 62
7
  6
CONTINUOUS
 10
65.4333286986
 20
56.1495498471
 40
23.25
  0
ARC
  5
3BB
100
AcDbEntity
  8
7_ALL_FEATURES
100
AcDbCircle
 62
7
  6
CONTINUOUS
 10
-17.7911192044
 20
156.2099584873
 40
193.7921081069
100
AcDbArc
 50
349.8996336467
 51
350.1998050393
  0
ARC
  5
3BC
100
AcDbEntity
  8
7_ALL_FEATURES
100
AcDbCircle
 62
7
  6
CONTINUOUS
 10
352.5610582485
 20
156.2099042527
 40
193.7917942384
100
AcDbArc
 50
189.8001947177
 51
190.1003665963
  0
ARC
  5
3BD
100
AcDbEntity
  8
3_ALL_AXES
100
AcDbCircle
 62
7
  6
CONTINUOUS
 10
167.2426812989
 20
123.1966911205
 40
4.1
100
AcDbArc
 50
206.8633031301
 51
243.6069742257
  0
ARC
  5
3BE
100
AcDbEntity
  8
3_ALL_AXES
100
AcDbCircle
 62
7
  6
CONTINUOUS
 10
167.5275668936
 20
123.1966911205
 40
4.1
100
AcDbArc
 50
296.3930257743
 51
333.1366968699
  0
ARC
  5
3BF
100
AcDbEntity
  8
3_ALL_AXES
100
AcDbCircle
 62
7
  6
CONTINUOUS
 10
161.9755786533
 20
109.7240510288
 40
3.5
100
AcDbArc
 50
270.0
 51
360.0
  0
ARC
  5
3C0
100
AcDbEntity
  8
3_ALL_AXES
100
AcDbCircle
 62
7
  6
CONTINUOUS
 10
154.9755786533
 20
109.7240510288
 40
3.5
100
AcDbArc
 50
180.0
 51
270.0
  0
ARC
  5
3C1
100
AcDbEntity
  8
3_ALL_AXES
100
AcDbCircle
 62
7
  6
CONTINUOUS
 10
165.067323525
 20
110.8744396806
 40
0.7429894652
100
AcDbArc
 50
298.9115295268
 51
302.0971504233
  0
SPLINE
  5
3C2
100
AcDbEntity
  8
3_ALL_AXES
100
AcDbSpline
 62
7
  6
CONTINUOUS
 70
0
 71
3
 72
11
 73
7
 74
0
 42
0.0000001
 43
0.0000001
 44
0.0000000001
 40
0.0
 40
0.0
 40
0.0
 40
0.0
 40
0.2812284586
 40
0.543347676
 40
0.7836700157
 40
1.0
 40
1.0
 40
1.0
 40
1.0
 10
73.1607353089
 20
111.2240510288
 30
0.0
 10
73.117660982
 20
111.1408378192
 30
0.0
 10
73.0314021555
 20
110.981601091
 30
0.0
 10
72.8953454813
 20
110.758556018
 30
0.0
 10
72.7566842356
 20
110.563041209
 30
0.0
 10
72.6568989499
 20
110.4476198855
 30
0.0
 10
72.605932592
 20
110.3966530456
 30
0.0
  0
SPLINE
  5
3C3
100
AcDbEntity
  8
3_ALL_AXES
100
AcDbSpline
 62
7
  6
CONTINUOUS
 70
0
 71
3
 72
11
 73
7
 74
0
 42
0.0000001
 43
0.0000001
 44
0.0000000001
 40
0.0
 40
0.0
 40
0.0
 40
0.0
 40
0.2812284586
 40
0.543347676
 40
0.7836700157
 40
1.0
 40
1.0
 40
1.0
 40
1.0
 10
57.7059220882
 20
111.2240510288
 30
0.0
 10
57.7489964151
 20
111.1408378192
 30
0.0
 10
57.8352552416
 20
110.981601091
 30
0.0
 10
57.9713119158
 20
110.758556018
 30
0.0
 10
58.1099731615
 20
110.563041209
 30
0.0
 10
58.2097584472
 20
110.4476198855
 30
0.0
 10
58.2607248051
 20
110.3966530456
 30
0.0
  0
SPLINE
  5
3C4
100
AcDbEntity
  8
3_ALL_AXES
100
AcDbSpline
 62
7
  6
CONTINUOUS
 70
0
 71
3
 72
23
 73
19
 74
0
 42
0.0000001
 43
0.0000001
 44
0.0000000001
 40
0.0
 40
0.0
 40
0.0
 40
0.0
 40
0.1041170889
 40
0.1987311506
 40
0.2791747916
 40
0.3449979218
 40
0.3976280174
 40
0.4391112132
 40
0.4720285887
 40
0.5000276534
 40
0.5280319966
 40
0.5609638799
 40
0.6024544255
 40
0.6550865092
 40
0.720913556
 40
0.8013534514
 40
0.8959302724
 40
1.0
 40
1.0
 40
1.0
 40
1.0
 10
58.4823792235
 20
109.7240510288
 30
0.0
 10
58.4823792235
 20
109.6686970496
 30
0.0
 10
58.4868671948
 20
109.5629782502
 30
0.0
 10
58.5060829332
 20
109.4156093637
 30
0.0
 10
58.5346139488
 20
109.2905374153
 30
0.0
 10
58.5693695695
 20
109.1904020506
 30
0.0
 10
58.6081037948
 20
109.1143135226
 30
0.0
 10
58.6495939125
 20
109.0603858441
 30
0.0
 10
58.6937689068
 20
109.0269183561
 30
0.0
 10
58.7412472509
 20
109.0150104501
 30
0.0
 10
58.7887256981
 20
109.0269568493
 30
0.0
 10
58.8328791404
 20
109.0604759705
 30
0.0
 10
58.8743548889
 20
109.1144265684
 30
0.0
 10
58.9130821073
 20
109.1905269243
 30
0.0
 10
58.9478209826
 20
109.2906693094
 30
0.0
 10
58.9763309123
 20
109.4157255188
 30
0.0
 10
58.995532805
 20
109.5630484618
 30
0.0
 10
59.0000173138
 20
109.6687222292
 30
0.0
 10
59.0000173138
 20
109.7240510288
 30
0.0
  0
SPLINE
  5
3C5
100
AcDbEntity
  8
3_ALL_AXES
100
AcDbSpline
 62
7
  6
CONTINUOUS
 70
0
 71
3
 72
10
 73
6
 74
0
 42
0.0000001
 43
0.0000001
 44
0.0000000001
 40
0.0
 40
0.0
 40
0.0
 40
0.0
 40
0.2421734631
 40
0.6149310735
 40
1.0
 40
1.0
 40
1.0
 40
1.0
 10
71.0394149653
 20
110.2240510288
 30
0.0
 10
71.226171583
 20
110.2617815633
 30
0.0
 10
71.6935412425
 20
110.3936886791
 30
0.0
 10
72.4103152693
 20
110.7267053882
 30
0.0
 10
72.913375384
 20
111.0491411485
 30
0.0
 10
73.1607353089
 20
111.2240510288
 30
0.0
  0
SPLINE
  5
3C6
100
AcDbEntity
  8
3_ALL_AXES
100
AcDbSpline
 62
7
  6
CONTINUOUS
 70
0
 71
3
 72
19
 73
15
 74
0
 42
0.0000001
 43
0.0000001
 44
0.0000000001
 40
0.0
 40
0.0
 40
0.0
 40
0.0
 40
0.0755313105
 40
0.1475271142
 40
0.2145707967
 40
0.2770181017
 40
0.3917437342
 40
0.5000509034
 40
0.6083537473
 40
0.7230719906
 40
0.7855182774
 40
0.8525486482
 40
0.9245023644
 40
1.0
 40
1.0
 40
1.0
 40
1.0
 10
69.6252014029
 20
109.7240510288
 30
0.0
 10
69.6252014029
 20
109.66836469
 30
0.0
 10
69.6381679004
 20
109.5591491582
 30
0.0
 10
69.6928679722
 20
109.4093459269
 30
0.0
 10
69.7735342082
 20
109.2832291495
 30
0.0
 10
69.8998954063
 20
109.1535886149
 30
0.0
 10
70.0870541011
 20
109.0467377398
 30
0.0
 10
70.3324207009
 20
109.0051619853
 30
0.0
 10
70.5777643523
 20
109.0468225881
 30
0.0
 10
70.7648888658
 20
109.1537105976
 30
0.0
 10
70.8912043148
 20
109.2833753295
 30
0.0
 10
70.9718037256
 20
109.4094841253
 30
0.0
 10
71.0264609047
 20
109.5592298479
 30
0.0
 10
71.0394149653
 20
109.6683895172
 30
0.0
 10
71.0394149653
 20
109.7240510288
 30
0.0
  0
SPLINE
  5
3C7
100
AcDbEntity
  8
3_ALL_AXES
100
AcDbSpline
 62
7
  6
CONTINUOUS
 70
0
 71
3
 72
11
 73
7
 74
0
 42
0.0000001
 43
0.0000001
 44
0.0000000001
 40
0.0
 40
0.0
 40
0.0
 40
0.0
 40
0.2493691879
 40
0.4991371759
 40
0.749356754
 40
1.0
 40
1.0
 40
1.0
 40
1.0
 10
64.6061035805
 20
110.2240510288
 30
0.0
 10
64.8592586783
 20
110.2614918064
 30
0.0
 10
65.3621061548
 20
110.3648947565
 30
0.0
 10
66.0974242587
 20
110.5933221191
 30
0.0
 10
66.8124482376
 20
110.8817960791
 30
0.0
 10
67.275454018
 20
111.1058084914
 30
0.0
 10
67.5038810594
 20
111.2240510288
 30
0.0
  0
SPLINE
  5
3C8
100
AcDbEntity
  8
3_ALL_AXES
100
AcDbSpline
 62
7
  6
CONTINUOUS
 70
0
 71
3
 72
19
 73
15
 74
0
 42
0.0000001
 43
0.0000001
 44
0.0000000001
 40
0.0
 40
0.0
 40
0.0
 40
0.0
 40
0.0638036974
 40
0.1272626836
 40
0.1902376798
 40
0.2527732141
 40
0.3766396511
 40
0.5000560147
 40
0.6234651895
 40
0.7473195124
 40
0.8098500054
 40
0.8728049193
 40
0.9362224762
 40
1.0
 40
1.0
 40
1.0
 40
1.0
 10
62.6742519279
 20
109.7240510288
 30
0.0
 10
62.6742519279
 20
109.6680306145
 30
0.0
 10
62.6929437237
 20
109.555530669
 30
0.0
 10
62.769753175
 20
109.4048472009
 30
0.0
 10
62.8808500758
 20
109.2796163773
 30
0.0
 10
63.0576970968
 20
109.1485295678
 30
0.0
 10
63.3141284392
 20
109.0450405649
 30
0.0
 10
63.6403213334
 20
109.0056332689
 30
0.0
 10
63.9664918164
 20
109.0451197573
 30
0.0
 10
64.2228844213
 20
109.148646189
 30
0.0
 10
64.3996730217
 20
109.2797605735
 30
0.0
 10
64.5106818449
 20
109.4049897494
 30
0.0
 10
64.58743024
 20
109.5556128724
 30
0.0
 10
64.6061035805
 20
109.6680535952
 30
0.0
 10
64.6061035805
 20
109.7240510288
 30
0.0
  0
SPLINE
  5
3C9
100
AcDbEntity
  8
3_ALL_AXES
100
AcDbSpline
 62
7
  6
CONTINUOUS
 70
0
 71
3
 72
11
 73
7
 74
0
 42
0.0000001
 43
0.0000001
 44
0.0000000001
 40
0.0
 40
0.0
 40
0.0
 40
0.0
 40
0.2506432543
 40
0.5008628457
 40
0.7506308309
 40
1.0
 40
1.0
 40
1.0
 40
1.0
 10
59.7764744491
 20
111.2240510288
 30
0.0
 10
60.004901498
 20
111.1058084875
 30
0.0
 10
60.4679072974
 20
110.8817960634
 30
0.0
 10
61.1829312962
 20
110.5933221
 30
0.0
 10
61.9182493943
 20
110.3648947475
 30
0.0
 10
62.4210968493
 20
110.2614918035
 30
0.0
 10
62.6742519279
 20
110.2240510288
 30
0.0
  0
SPLINE
  5
3CA
100
AcDbEntity
  8
3_ALL_AXES
100
AcDbSpline
 62
7
  6
CONTINUOUS
 70
0
 71
3
 72
12
 73
8
 74
0
 42
0.0000001
 43
0.0000001
 44
0.0000000001
 40
0.0
 40
0.0
 40
0.0
 40
0.0
 40
0.2579431903
 40
0.4480109145
 40
0.6349548838
 40
0.8188425376
 40
1.0
 40
1.0
 40
1.0
 40
1.0
 10
67.5038810594
 20
111.2240510288
 30
0.0
 10
67.6696654321
 20
111.1068237747
 30
0.0
 10
67.9640597406
 20
110.9119856168
 30
0.0
 10
68.3994878757
 20
110.6659228353
 30
0.0
 10
68.7990024922
 20
110.476853194
 30
0.0
 10
69.2068024879
 20
110.3251976654
 30
0.0
 10
69.4854248476
 20
110.2522901574
 30
0.0
 10
69.6252014029
 20
110.2240510288
 30
0.0
  0
SPLINE
  5
3CB
100
AcDbEntity
  8
3_ALL_AXES
100
AcDbSpline
 62
7
  6
CONTINUOUS
 70
0
 71
3
 72
9
 73
5
 74
0
 42
0.0000001
 43
0.0000001
 44
0.0000000001
 40
0.0
 40
0.0
 40
0.0
 40
0.0
 40
0.265634568
 40
1.0
 40
1.0
 40
1.0
 40
1.0
 10
58.2607248051
 20
110.3966530456
 30
0.0
 10
58.2757698309
 20
110.3816078775
 30
0.0
 10
58.3336236659
 20
110.3262442174
 30
0.0
 10
58.3969362144
 20
110.2762354548
 30
0.0
 10
58.4467906268
 20
110.2450179796
 30
0.0
  0
SPLINE
  5
3CC
100
AcDbEntity
  8
3_ALL_AXES
100
AcDbSpline
 62
7
  6
CONTINUOUS
 70
0
 71
3
 72
12
 73
8
 74
0
 42
0.0000001
 43
0.0000001
 44
0.0000000001
 40
0.0
 40
0.0
 40
0.0
 40
0.0
 40
0.1975815685
 40
0.3101669572
 40
0.4319093571
 40
0.7009843082
 40
1.0
 40
1.0
 40
1.0
 40
1.0
 10
59.0000173138
 20
110.2240510288
 30
0.0
 10
59.0738598964
 20
110.2648090047
 30
0.0
 10
59.1786837217
 20
110.3488746891
 30
0.0
 10
59.3047394697
 20
110.4833299246
 30
0.0
 10
59.4390882139
 20
110.6513826648
 30
0.0
 10
59.6008045803
 20
110.8980949229
 30
0.0
 10
59.7177960929
 20
111.1106931495
 30
0.0
 10
59.7764744491
 20
111.2240510288
 30
0.0
  0
SPLINE
  5
3CD
100
AcDbEntity
  8
7_ALL_FEATURES
100
AcDbSpline
 62
4
  6
CONTINUOUS
 70
0
 71
3
 72
91
 73
87
 74
0
 42
0.0000001
 43
0.0000001
 44
0.0000000001
 40
0.0
 40
0.0
 40
0.0
 40
0.0
 40
0.0625
 40
0.09375
 40
0.109375
 40
0.125
 40
0.140625
 40
0.1484375
 40
0.15625
 40
0.16015625
 40
0.1640625
 40
0.166015625
 40
0.16796875
 40
0.171875
 40
0.1796875
 40
0.1875
 40
0.203125
 40
0.21875
 40
0.25
 40
0.28125
 40
0.296875
 40
0.3125
 40
0.3203125
 40
0.328125
 40
0.33203125
 40
0.333984375
 40
0.3359375
 40
0.33984375
 40
0.34375
 40
0.3515625
 40
0.359375
 40
0.375
 40
0.390625
 40
0.40625
 40
0.421875
 40
0.4375
 40
0.453125
 40
0.46875
 40
0.4765625
 40
0.484375
 40
0.4921875
 40
0.49609375
 40
0.498046875
 40
0.5
 40
0.501953125
 40
0.50390625
 40
0.5078125
 40
0.515625
 40
0.5234375
 40
0.53125
 40
0.546875
 40
0.5625
 40
0.578125
 40
0.59375
 40
0.609375
 40
0.625
 40
0.640625
 40
0.6484375
 40
0.65625
 40
0.66015625
 40
0.6640625
 40
0.666015625
 40
0.66796875
 40
0.671875
 40
0.6796875
 40
0.6875
 40
0.703125
 40
0.71875
 40
0.75
 40
0.78125
 40
0.796875
 40
0.8125
 40
0.8203125
 40
0.828125
 40
0.83203125
 40
0.833984375
 40
0.8359375
 40
0.83984375
 40
0.84375
 40
0.8515625
 40
0.859375
 40
0.875
 40
0.890625
 40
0.90625
 40
0.9375
 40
1.0
 40
1.0
 40
1.0
 40
1.0
 10
166.6019894794
 20
125.7139377151
 30
0.0
 10
166.5897050877
 20
125.7029994069
 30
0.0
 10
166.5712785352
 20
125.6865919196
 30
0.0
 10
166.5497807681
 20
125.6674499389
 30
0.0
 10
166.5374965047
 20
125.6565115386
 30
0.0
 10
166.5282828173
 20
125.6483080902
 30
0.0
 10
166.5206063045
 20
125.6414707629
 30
0.0
 10
166.514461595
 20
125.6360034137
 30
0.0
 10
166.5106291197
 20
125.6325805991
 30
0.0
 10
166.5075448908
 20
125.6298554505
 30
0.0
 10
166.5056588854
 20
125.6281223355
 30
0.0
 10
166.5040547128
 20
125.6268043209
 30
0.0
 10
166.5027987033
 20
125.6252363144
 30
0.0
 10
166.5007624233
 20
125.6223761712
 30
0.0
 10
166.4977690657
 20
125.6183508441
 30
0.0
 10
166.4930268535
 20
125.6118764586
 30
0.0
 10
166.4870829329
 20
125.6037950755
 30
0.0
 10
166.4775817342
 20
125.590858355
 30
0.0
 10
166.4657018003
 20
125.5746898651
 30
0.0
 10
166.4538242657
 20
125.558519867
 30
0.0
 10
166.4443192282
 20
125.5455855597
 30
0.0
 10
166.4383849046
 20
125.5374981437
 30
0.0
 10
166.4336230186
 20
125.5310361257
 30
0.0
 10
166.4306797452
 20
125.5269793144
 30
0.0
 10
166.4285535086
 20
125.5241757201
 30
0.0
 10
166.4274416936
 20
125.5225170693
 30
0.0
 10
166.4267185628
 20
125.5206452096
 30
0.0
 10
166.4256815646
 20
125.5183783873
 30
0.0
 10
166.4240967414
 20
125.5147106744
 30
0.0
 10
166.4220902466
 20
125.5101400024
 30
0.0
 10
166.4188940879
 20
125.5028191197
 30
0.0
 10
166.4148940052
 20
125.4936706956
 30
0.0
 10
166.4100960014
 20
125.4826914377
 30
0.0
 10
166.405297431
 20
125.4717124886
 30
0.0
 10
166.4004990317
 20
125.4607334535
 30
0.0
 10
166.3957005143
 20
125.4497544535
 30
0.0
 10
166.3909022984
 20
125.4387753991
 30
0.0
 10
166.3869028786
 20
125.4296263392
 30
0.0
 10
166.3837053677
 20
125.4223067535
 30
0.0
 10
166.3813017035
 20
125.4168179865
 30
0.0
 10
166.3793162431
 20
125.4122410803
 30
0.0
 10
166.3778918951
 20
125.4090430032
 30
0.0
 10
166.377131891
 20
125.4072065412
 30
0.0
 10
166.3764100252
 20
125.4058545177
 30
0.0
 10
166.376268656
 20
125.404405697
 30
0.0
 10
166.3758776799
 20
125.4025077001
 30
0.0
 10
166.3752878128
 20
125.3991704741
 30
0.0
 10
166.3743958229
 20
125.394411233
 30
0.0
 10
166.3733465468
 20
125.3886966233
 30
0.0
 10
166.3719401372
 20
125.3810783734
 30
0.0
 10
166.3701846567
 20
125.371555139
 30
0.0
 10
166.3680769916
 20
125.360127439
 30
0.0
 10
166.3659696298
 20
125.348699689
 30
0.0
 10
166.3638621432
 20
125.3372719577
 30
0.0
 10
166.3617548526
 20
125.3258442014
 30
0.0
 10
166.359646903
 20
125.3144165267
 30
0.0
 10
166.3578923116
 20
125.3048932131
 30
0.0
 10
166.3564840881
 20
125.2972751247
 30
0.0
 10
166.3556143076
 20
125.292512539
 30
0.0
 10
166.3548947589
 20
125.2887054029
 30
0.0
 10
166.3544991721
 20
125.2863192518
 30
0.0
 10
166.354058719
 20
125.2844256563
 30
0.0
 10
166.3540708956
 20
125.2824761123
 30
0.0
 10
166.3543024705
 20
125.2790384199
 30
0.0
 10
166.3545235854
 20
125.2741409913
 30
0.0
 10
166.3549386795
 20
125.2662975274
 30
0.0
 10
166.3554365455
 20
125.2564957909
 30
0.0
 10
166.3562449216
 20
125.2408115709
 30
0.0
 10
166.3572509691
 20
125.2212067344
 30
0.0
 10
166.358259969
 20
125.2016019461
 30
0.0
 10
166.3590636214
 20
125.1859176491
 30
0.0
 10
166.3595732966
 20
125.1761161051
 30
0.0
 10
166.3599641818
 20
125.1682722466
 30
0.0
 10
166.3602469262
 20
125.1633758224
 30
0.0
 10
166.3603678078
 20
125.159936326
 30
0.0
 10
166.3605574184
 20
125.1579896737
 30
0.0
 10
166.3612011037
 20
125.1561137464
 30
0.0
 10
166.361850236
 20
125.1537446213
 30
0.0
 10
166.3629757339
 20
125.1499675541
 30
0.0
 10
166.3643528564
 20
125.1452415863
 30
0.0
 10
166.3665728796
 20
125.1376826278
 30
0.0
 10
166.3693422039
 20
125.128233041
 30
0.0
 10
166.3726678347
 20
125.1168939172
 30
0.0
 10
166.3771011572
 20
125.1017749527
 30
0.0
 10
166.3848598709
 20
125.0753168271
 30
0.0
 10
166.39151006
 20
125.0526384125
 30
0.0
 10
166.3959435499
 20
125.0375194741
 30
0.0
  0
SPLINE
  5
3CE
100
AcDbEntity
  8
7_ALL_FEATURES
100
AcDbSpline
 62
4
  6
CONTINUOUS
 70
0
 71
3
 72
123
 73
119
 74
0
 42
0.0000001
 43
0.0000001
 44
0.0000000001
 40
0.0
 40
0.0
 40
0.0
 40
0.0
 40
0.03125
 40
0.0625
 40
0.078125
 40
0.09375
 40
0.1015625
 40
0.109375
 40
0.1171875
 40
0.12109375
 40
0.123046875
 40
0.125
 40
0.126953125
 40
0.12890625
 40
0.1328125
 40
0.140625
 40
0.1484375
 40
0.15625
 40
0.171875
 40
0.1875
 40
0.203125
 40
0.21875
 40
0.2265625
 40
0.234375
 40
0.2421875
 40
0.24609375
 40
0.248046875
 40
0.25
 40
0.251953125
 40
0.25390625
 40
0.2578125
 40
0.265625
 40
0.2734375
 40
0.28125
 40
0.296875
 40
0.3125
 40
0.328125
 40
0.34375
 40
0.3515625
 40
0.359375
 40
0.3671875
 40
0.37109375
 40
0.373046875
 40
0.375
 40
0.376953125
 40
0.37890625
 40
0.3828125
 40
0.390625
 40
0.3984375
 40
0.40625
 40
0.421875
 40
0.4375
 40
0.453125
 40
0.46875
 40
0.4765625
 40
0.484375
 40
0.4921875
 40
0.49609375
 40
0.498046875
 40
0.5
 40
0.501953125
 40
0.50390625
 40
0.5078125
 40
0.515625
 40
0.5234375
 40
0.53125
 40
0.546875
 40
0.5625
 40
0.578125
 40
0.59375
 40
0.6015625
 40
0.609375
 40
0.6171875
 40
0.62109375
 40
0.623046875
 40
0.625
 40
0.626953125
 40
0.62890625
 40
0.6328125
 40
0.640625
 40
0.6484375
 40
0.65625
 40
0.671875
 40
0.6875
 40
0.703125
 40
0.71875
 40
0.7265625
 40
0.734375
 40
0.7421875
 40
0.74609375
 40
0.748046875
 40
0.75
 40
0.751953125
 40
0.75390625
 40
0.7578125
 40
0.765625
 40
0.7734375
 40
0.78125
 40
0.796875
 40
0.8125
 40
0.828125
 40
0.84375
 40
0.8515625
 40
0.859375
 40
0.8671875
 40
0.87109375
 40
0.873046875
 40
0.875
 40
0.876953125
 40
0.87890625
 40
0.8828125
 40
0.890625
 40
0.8984375
 40
0.90625
 40
0.921875
 40
0.9375
 40
0.96875
 40
1.0
 40
1.0
 40
1.0
 40
1.0
 10
166.3959435465
 20
125.0375194822
 30
0.0
 10
166.4009239924
 20
125.02863953
 30
0.0
 10
166.4108849272
 20
125.0108796458
 30
0.0
 10
166.4233358809
 20
124.98867969
 30
0.0
 10
166.4332970949
 20
124.9709199363
 30
0.0
 10
166.4395218335
 20
124.9598196131
 30
0.0
 10
166.44450396
 20
124.9509404471
 30
0.0
 10
166.44823416
 20
124.9442780811
 30
0.0
 10
166.4513630032
 20
124.938735626
 30
0.0
 10
166.4535132705
 20
124.9348372314
 30
0.0
 10
166.454804331
 20
124.9326387384
 30
0.0
 10
166.4555970238
 20
124.9309077214
 30
0.0
 10
166.4570609591
 20
124.9294907127
 30
0.0
 10
166.4587787359
 20
124.9274918382
 30
0.0
 10
166.4618939341
 20
124.9240448397
 30
0.0
 10
166.4662871842
 20
124.919093876
 30
0.0
 10
166.471583497
 20
124.9131641399
 30
0.0
 10
166.4786367174
 20
124.9052538339
 30
0.0
 10
166.4874561856
 20
124.8953673346
 30
0.0
 10
166.4980382172
 20
124.8835028829
 30
0.0
 10
166.5086208615
 20
124.871638828
 30
0.0
 10
166.5174387982
 20
124.8617513368
 30
0.0
 10
166.5244950818
 20
124.8538430146
 30
0.0
 10
166.5297820518
 20
124.8479072279
 30
0.0
 10
166.5342045298
 20
124.8429751932
 30
0.0
 10
166.5372675518
 20
124.8394944034
 30
0.0
 10
166.5390689279
 20
124.8375496709
 30
0.0
 10
166.5402760728
 20
124.8359663554
 30
0.0
 10
166.5420332278
 20
124.8348599592
 30
0.0
 10
166.5441842514
 20
124.8332184095
 30
0.0
 10
166.548037929
 20
124.8304232053
 30
0.0
 10
166.5534964505
 20
124.8263895344
 30
0.0
 10
166.5600666797
 20
124.8215664746
 30
0.0
 10
166.5688199961
 20
124.8151296669
 30
0.0
 10
166.5797640521
 20
124.8070857535
 30
0.0
 10
166.5928958326
 20
124.7974320878
 30
0.0
 10
166.6060281029
 20
124.7877789464
 30
0.0
 10
166.6169709346
 20
124.7797337225
 30
0.0
 10
166.6257266995
 20
124.7732995356
 30
0.0
 10
166.6322894606
 20
124.7684684826
 30
0.0
 10
166.6377713455
 20
124.7644598177
 30
0.0
 10
166.6415833159
 20
124.7616199739
 30
0.0
 10
166.643801165
 20
124.7600499481
 30
0.0
 10
166.6453530535
 20
124.7587238534
 30
0.0
 10
166.6473311451
 20
124.757965689
 30
0.0
 10
166.6498199362
 20
124.7567567027
 30
0.0
 10
166.6542445861
 20
124.7547332753
 30
0.0
 10
166.6605293017
 20
124.7517944099
 30
0.0
 10
166.668086461
 20
124.7482884267
 30
0.0
 10
166.6781572576
 20
124.7436065646
 30
0.0
 10
166.6907476199
 20
124.7377567319
 30
0.0
 10
166.7058552191
 20
124.730735784
 30
0.0
 10
166.7209631744
 20
124.7237154391
 30
0.0
 10
166.7335526463
 20
124.7178640989
 30
0.0
 10
166.7436252238
 20
124.7131852519
 30
0.0
 10
166.7511769517
 20
124.7096700728
 30
0.0
 10
166.7574786588
 20
124.7067599757
 30
0.0
 10
166.7618729762
 20
124.7046851925
 30
0.0
 10
166.7644103676
 20
124.7035584911
 30
0.0
 10
166.7662391747
 20
124.7025475739
 30
0.0
 10
166.7683517509
 20
124.7021707768
 30
0.0
 10
166.7710695374
 20
124.7014471924
 30
0.0
 10
166.7758717811
 20
124.7002839754
 30
0.0
 10
166.7827080186
 20
124.6985683579
 30
0.0
 10
166.7909218238
 20
124.6965326796
 30
0.0
 10
166.8018699586
 20
124.693810383
 30
0.0
 10
166.815556368
 20
124.6904102968
 30
0.0
 10
166.8319795112
 20
124.6863289157
 30
0.0
 10
166.8484028614
 20
124.6822481901
 30
0.0
 10
166.8620887533
 20
124.6788464652
 30
0.0
 10
166.8730379232
 20
124.6761274461
 30
0.0
 10
166.8812485713
 20
124.6740817713
 30
0.0
 10
166.8880946858
 20
124.6723974271
 30
0.0
 10
166.8928792975
 20
124.6711783826
 30
0.0
 10
166.8956253349
 20
124.6705442478
 30
0.0
 10
166.8976511331
 20
124.66989269
 30
0.0
 10
166.8998058641
 20
124.6699137279
 30
0.0
 10
166.9026338656
 20
124.6697071696
 30
0.0
 10
166.9076038221
 20
124.669455001
 30
0.0
 10
166.914692805
 20
124.6690376124
 30
0.0
 10
166.9232042736
 20
124.6685612078
 30
0.0
 10
166.9345512605
 20
124.6679174541
 30
0.0
 10
166.9487355552
 20
124.6671157145
 30
0.0
 10
166.9657564723
 20
124.6661522761
 30
0.0
 10
166.9827774381
 20
124.6651895172
 30
0.0
 10
166.9969616108
 20
124.6643860792
 30
0.0
 10
167.0083088419
 20
124.6637457223
 30
0.0
 10
167.0168195654
 20
124.6632589574
 30
0.0
 10
167.0239108793
 20
124.6628739801
 30
0.0
 10
167.0288766747
 20
124.6625639523
 30
0.0
 10
167.0317113432
 20
124.6624500989
 30
0.0
 10
167.0338455953
 20
124.6621863768
 30
0.0
 10
167.0359483091
 20
124.6626043303
 30
0.0
 10
167.0387629284
 20
124.6629238256
 30
0.0
 10
167.0436833867
 20
124.6635937265
 30
0.0
 10
167.0507152925
 20
124.6644928085
 30
0.0
 10
167.0591524323
 20
124.6655964989
 30
0.0
 10
167.0704023534
 20
124.6670594231
 30
0.0
 10
167.084464613
 20
124.6688910705
 30
0.0
 10
167.1013394028
 20
124.6710876794
 30
0.0
 10
167.1182141064
 20
124.673284973
 30
0.0
 10
167.1322765815
 20
124.6751149088
 30
0.0
 10
167.1435260717
 20
124.6765812564
 30
0.0
 10
167.1519645258
 20
124.6776745055
 30
0.0
 10
167.1589923201
 20
124.6786062522
 30
0.0
 10
167.163920118
 20
124.6792178416
 30
0.0
 10
167.1667229773
 20
124.6796307666
 30
0.0
 10
167.1688618142
 20
124.6797617337
 30
0.0
 10
167.1708603938
 20
124.6805758847
 30
0.0
 10
167.1735740899
 20
124.6814231171
 30
0.0
 10
167.1783002637
 20
124.6830168033
 30
0.0
 10
167.1850638578
 20
124.6852354504
 30
0.0
 10
167.1931750698
 20
124.687922673
 30
0.0
 10
167.2039918007
 20
124.6914969583
 30
0.0
 10
167.2175121043
 20
124.6959677864
 30
0.0
 10
167.2391449311
 20
124.7031194501
 30
0.0
 10
167.2661858469
 20
124.7120596036
 30
0.0
 10
167.2878186154
 20
124.7192115515
 30
0.0
 10
167.2986349951
 20
124.7227875473
 30
0.0
  0
SPLINE
  5
3CF
100
AcDbEntity
  8
7_ALL_FEATURES
100
AcDbSpline
 62
4
  6
CONTINUOUS
 70
0
 71
3
 72
123
 73
119
 74
0
 42
0.0000001
 43
0.0000001
 44
0.0000000001
 40
0.0
 40
0.0
 40
0.0
 40
0.0
 40
0.03125
 40
0.0625
 40
0.078125
 40
0.09375
 40
0.1015625
 40
0.109375
 40
0.1171875
 40
0.12109375
 40
0.123046875
 40
0.125
 40
0.126953125
 40
0.12890625
 40
0.1328125
 40
0.140625
 40
0.1484375
 40
0.15625
 40
0.171875
 40
0.1875
 40
0.203125
 40
0.21875
 40
0.2265625
 40
0.234375
 40
0.2421875
 40
0.24609375
 40
0.248046875
 40
0.25
 40
0.251953125
 40
0.25390625
 40
0.2578125
 40
0.265625
 40
0.2734375
 40
0.28125
 40
0.296875
 40
0.3125
 40
0.328125
 40
0.34375
 40
0.3515625
 40
0.359375
 40
0.3671875
 40
0.37109375
 40
0.373046875
 40
0.375
 40
0.376953125
 40
0.37890625
 40
0.3828125
 40
0.390625
 40
0.3984375
 40
0.40625
 40
0.421875
 40
0.4375
 40
0.453125
 40
0.46875
 40
0.4765625
 40
0.484375
 40
0.4921875
 40
0.49609375
 40
0.498046875
 40
0.5
 40
0.501953125
 40
0.50390625
 40
0.5078125
 40
0.515625
 40
0.5234375
 40
0.53125
 40
0.546875
 40
0.5625
 40
0.578125
 40
0.59375
 40
0.6015625
 40
0.609375
 40
0.6171875
 40
0.62109375
 40
0.623046875
 40
0.625
 40
0.626953125
 40
0.62890625
 40
0.6328125
 40
0.640625
 40
0.6484375
 40
0.65625
 40
0.671875
 40
0.6875
 40
0.703125
 40
0.71875
 40
0.7265625
 40
0.734375
 40
0.7421875
 40
0.74609375
 40
0.748046875
 40
0.75
 40
0.751953125
 40
0.75390625
 40
0.7578125
 40
0.765625
 40
0.7734375
 40
0.78125
 40
0.796875
 40
0.8125
 40
0.828125
 40
0.84375
 40
0.8515625
 40
0.859375
 40
0.8671875
 40
0.87109375
 40
0.873046875
 40
0.875
 40
0.876953125
 40
0.87890625
 40
0.8828125
 40
0.890625
 40
0.8984375
 40
0.90625
 40
0.921875
 40
0.9375
 40
0.96875
 40
1.0
 40
1.0
 40
1.0
 40
1.0
 10
166.8632759069
 20
127.0540455654
 30
0.0
 10
166.8563661072
 20
127.0498088626
 30
0.0
 10
166.8425465307
 20
127.04133543
 30
0.0
 10
166.8252719457
 20
127.0307437752
 30
0.0
 10
166.8114525181
 20
127.0222701657
 30
0.0
 10
166.802814832
 20
127.0169748059
 30
0.0
 10
166.7959059282
 20
127.0127370387
 30
0.0
 10
166.7907208415
 20
127.0095627637
 30
0.0
 10
166.7864107801
 20
127.0069046497
 30
0.0
 10
166.7833724556
 20
127.005069256
 30
0.0
 10
166.7816694996
 20
127.0039809774
 30
0.0
 10
166.7802986746
 20
127.0032759904
 30
0.0
 10
166.7792856668
 20
127.0021458569
 30
0.0
 10
166.777810179
 20
127.000787308
 30
0.0
 10
166.775286227
 20
126.9983407538
 30
0.0
 10
166.7716501789
 20
126.9948817994
 30
0.0
 10
166.7672999348
 20
126.990715592
 30
0.0
 10
166.7614950616
 20
126.9851660512
 30
0.0
 10
166.7542405445
 20
126.9782272622
 30
0.0
 10
166.7455343883
 20
126.9699015541
 30
0.0
 10
166.7368286558
 20
126.9615754721
 30
0.0
 10
166.7295730793
 20
126.9546376177
 30
0.0
 10
166.7237703249
 20
126.9490862076
 30
0.0
 10
166.7194136184
 20
126.9449257016
 30
0.0
 10
166.7157977873
 20
126.9414489107
 30
0.0
 10
166.7132377448
 20
126.9390341975
 30
0.0
 10
166.7118200831
 20
126.9376246314
 30
0.0
 10
166.710629452
 20
126.9366512066
 30
0.0
 10
166.7099257505
 20
126.9353576477
 30
0.0
 10
166.7088176354
 20
126.9337445688
 30
0.0
 10
166.7069575685
 20
126.9308696535
 30
0.0
 10
166.7042589576
 20
126.9267898321
 30
0.0
 10
166.7010383337
 20
126.9218824035
 30
0.0
 10
166.6967379803
 20
126.9153432332
 30
0.0
 10
166.6913646778
 20
126.9071678683
 30
0.0
 10
166.6849157286
 20
126.8973580587
 30
0.0
 10
166.6784673015
 20
126.8875479791
 30
0.0
 10
166.6730926936
 20
126.8793732893
 30
0.0
 10
166.6687949509
 20
126.8728327688
 30
0.0
 10
166.6655663644
 20
126.8679294585
 30
0.0
 10
166.662892664
 20
126.8638367532
 30
0.0
 10
166.6609881279
 20
126.8609848376
 30
0.0
 10
166.6599512637
 20
126.8593349074
 30
0.0
 10
166.6590287019
 20
126.8581545442
 30
0.0
 10
166.6586600738
 20
126.8567559754
 30
0.0
 10
166.6579753513
 20
126.8549673295
 30
0.0
 10
166.656867111
 20
126.851801737
 30
0.0
 10
166.6552368449
 20
126.847298002
 30
0.0
 10
166.6533006717
 20
126.8418855842
 30
0.0
 10
166.6507120677
 20
126.8346717997
 30
0.0
 10
166.6474787454
 20
126.8256536146
 30
0.0
 10
166.6435976416
 20
126.8148322149
 30
0.0
 10
166.6397171138
 20
126.8040106527
 30
0.0
 10
166.6364823515
 20
126.7949928739
 30
0.0
 10
166.6338966275
 20
126.7877782768
 30
0.0
 10
166.6319516706
 20
126.7823683374
 30
0.0
 10
166.6303488837
 20
126.7778568489
 30
0.0
 10
166.6291915886
 20
126.7747050976
 30
0.0
 10
166.6285854641
 20
126.7728942746
 30
0.0
 10
166.6279754083
 20
126.7715638269
 30
0.0
 10
166.6279596089
 20
126.7701276123
 30
0.0
 10
166.6277312598
 20
126.7682495521
 30
0.0
 10
166.6274282261
 20
126.7649457579
 30
0.0
 10
166.6269448289
 20
126.7602350384
 30
0.0
 10
166.6263863651
 20
126.7545783285
 30
0.0
 10
166.6256341946
 20
126.7470373923
 30
0.0
 10
166.6246965902
 20
126.7376107613
 30
0.0
 10
166.6235702708
 20
126.7262990001
 30
0.0
 10
166.6224445536
 20
126.7149871918
 30
0.0
 10
166.621505444
 20
126.7055606786
 30
0.0
 10
166.6207562839
 20
126.6980195066
 30
0.0
 10
166.6201886383
 20
126.6923635158
 30
0.0
 10
166.6197339655
 20
126.6876505467
 30
0.0
 10
166.6193796544
 20
126.6843507685
 30
0.0
 10
166.6192334644
 20
126.6824662737
 30
0.0
 10
166.6189652987
 20
126.6810498244
 30
0.0
 10
166.6193030892
 20
126.6796451414
 30
0.0
 10
166.6195421122
 20
126.6777681265
 30
0.0
 10
166.6200588811
 20
126.6744852627
 30
0.0
 10
166.6207456365
 20
126.6697944575
 30
0.0
 10
166.6215917812
 20
126.6641659193
 30
0.0
 10
166.6227122735
 20
126.6566610516
 30
0.0
 10
166.6241155481
 20
126.6472800222
 30
0.0
 10
166.6257982641
 20
126.6360227473
 30
0.0
 10
166.6274815793
 20
126.6247655428
 30
0.0
 10
166.628883356
 20
126.6153843372
 30
0.0
 10
166.6300068442
 20
126.607879822
 30
0.0
 10
166.6308438514
 20
126.6022502089
 30
0.0
 10
166.6315591926
 20
126.5975627663
 30
0.0
 10
166.6320249314
 20
126.5942738999
 30
0.0
 10
166.6323457174
 20
126.5924065027
 30
0.0
 10
166.6324323584
 20
126.5909722772
 30
0.0
 10
166.6331074686
 20
126.5896667844
 30
0.0
 10
166.6338023508
 20
126.587881224
 30
0.0
 10
166.6351140314
 20
126.5847774146
 30
0.0
 10
166.6369378608
 20
126.5803324632
 30
0.0
 10
166.6391478582
 20
126.5750032036
 30
0.0
 10
166.6420870431
 20
126.5678958876
 30
0.0
 10
166.6457636065
 20
126.5590123104
 30
0.0
 10
166.6501743051
 20
126.5483517474
 30
0.0
 10
166.6545855819
 20
126.5376913574
 30
0.0
 10
166.6582606997
 20
126.5288073479
 30
0.0
 10
166.6612027758
 20
126.5217008965
 30
0.0
 10
166.6634039548
 20
126.516369
 30
0.0
 10
166.6652553719
 20
126.5119322975
 30
0.0
 10
166.6665178042
 20
126.5088137626
 30
0.0
 10
166.6672915945
 20
126.5070517961
 30
0.0
 10
166.6677243246
 20
126.5056738304
 30
0.0
 10
166.6687213046
 20
126.5045118012
 30
0.0
 10
166.6698537946
 20
126.5028871079
 30
0.0
 10
166.6719273525
 20
126.500078988
 30
0.0
 10
166.6748416362
 20
126.4960490409
 30
0.0
 10
166.6783592972
 20
126.4912209576
 30
0.0
 10
166.6830423445
 20
126.4847807703
 30
0.0
 10
166.6888986078
 20
126.4767314753
 30
0.0
 10
166.698267257
 20
126.4638520783
 30
0.0
 10
166.7099785424
 20
126.4477530133
 30
0.0
 10
166.7193474263
 20
126.4348737061
 30
0.0
 10
166.7240318863
 20
126.4284340594
 30
0.0
  0
SPLINE
  5
3D0
100
AcDbEntity
  8
7_ALL_FEATURES
100
AcDbSpline
 62
4
  6
CONTINUOUS
 70
0
 71
3
 72
69
 73
65
 74
0
 42
0.0000001
 43
0.0000001
 44
0.0000000001
 40
0.0
 40
0.0
 40
0.0
 40
0.0
 40
0.0625
 40
0.09375
 40
0.125
 40
0.140625
 40
0.15625
 40
0.1640625
 40
0.16796875
 40
0.171875
 40
0.1796875
 40
0.1875
 40
0.203125
 40
0.21875
 40
0.25
 40
0.28125
 40
0.296875
 40
0.3125
 40
0.3203125
 40
0.328125
 40
0.33203125
 40
0.3359375
 40
0.34375
 40
0.359375
 40
0.375
 40
0.40625
 40
0.4375
 40
0.453125
 40
0.46875
 40
0.484375
 40
0.4921875
 40
0.49609375
 40
0.5
 40
0.50390625
 40
0.5078125
 40
0.515625
 40
0.53125
 40
0.546875
 40
0.5625
 40
0.59375
 40
0.625
 40
0.640625
 40
0.65625
 40
0.6640625
 40
0.66796875
 40
0.671875
 40
0.6796875
 40
0.6875
 40
0.703125
 40
0.71875
 40
0.75
 40
0.78125
 40
0.796875
 40
0.8125
 40
0.8203125
 40
0.828125
 40
0.83203125
 40
0.8359375
 40
0.84375
 40
0.859375
 40
0.875
 40
0.90625
 40
0.9375
 40
1.0
 40
1.0
 40
1.0
 40
1.0
 10
167.4350208931
 20
127.0540455654
 30
0.0
 10
167.4237713563
 20
127.0584370398
 30
0.0
 10
167.4068967295
 20
127.0650234256
 30
0.0
 10
167.3843985136
 20
127.073808577
 30
0.0
 10
167.3703344485
 20
127.0792924137
 30
0.0
 10
167.3590893071
 20
127.0836951762
 30
0.0
 10
167.3520471573
 20
127.0864111114
 30
0.0
 10
167.3471455822
 20
127.0883839951
 30
0.0
 10
167.3443009834
 20
127.0893991306
 30
0.0
 10
167.3412917653
 20
127.0899914921
 30
0.0
 10
167.3375866081
 20
127.0908767013
 30
0.0
 10
167.3316268563
 20
127.0922121372
 30
0.0
 10
167.3241879565
 20
127.0939091444
 30
0.0
 10
167.3122796617
 20
127.0966087951
 30
0.0
 10
167.2973965473
 20
127.0999892143
 30
0.0
 10
167.2825119852
 20
127.1033656613
 30
0.0
 10
167.2706060067
 20
127.1060716676
 30
0.0
 10
167.2631613162
 20
127.1077527858
 30
0.0
 10
167.2572134354
 20
127.109120794
 30
0.0
 10
167.2534780579
 20
127.1099230829
 30
0.0
 10
167.2505308727
 20
127.1106856546
 30
0.0
 10
167.2474335821
 20
127.1110074368
 30
0.0
 10
167.2419435933
 20
127.1113657908
 30
0.0
 10
167.2341371353
 20
127.1119845576
 30
0.0
 10
167.2216264611
 20
127.1129149017
 30
0.0
 10
167.2059951466
 20
127.1140981221
 30
0.0
 10
167.1903611458
 20
127.115274785
 30
0.0
 10
167.1778547698
 20
127.1162156212
 30
0.0
 10
167.1684741258
 20
127.1169266652
 30
0.0
 10
167.160659452
 20
127.1175013515
 30
0.0
 10
167.1551842454
 20
127.1179387478
 30
0.0
 10
167.152063257
 20
127.1181338449
 30
0.0
 10
167.1497008226
 20
127.1184346655
 30
0.0
 10
167.1474213098
 20
127.1181449171
 30
0.0
 10
167.1443530355
 20
127.1179645828
 30
0.0
 10
167.1389970316
 20
127.1175530215
 30
0.0
 10
167.1313385524
 20
127.1170152419
 30
0.0
 10
167.1221513906
 20
127.1163484885
 30
0.0
 10
167.1099008007
 20
127.115466694
 30
0.0
 10
167.0945878371
 20
127.1143639194
 30
0.0
 10
167.0792750791
 20
127.1132542584
 30
0.0
 10
167.0670241602
 20
127.1123834823
 30
0.0
 10
167.0593690144
 20
127.1118003085
 30
0.0
 10
167.0540070433
 20
127.1114701498
 30
0.0
 10
167.0509483317
 20
127.1111593471
 30
0.0
 10
167.0479094799
 20
127.1103884221
 30
0.0
 10
167.0441041151
 20
127.1095823111
 30
0.0
 10
167.0380193324
 20
127.1082044881
 30
0.0
 10
167.0304120471
 20
127.1065123683
 30
0.0
 10
167.0182411527
 20
127.1037880503
 30
0.0
 10
167.0030270469
 20
127.1003889642
 30
0.0
 10
166.9878139396
 20
127.0969857907
 30
0.0
 10
166.9756414476
 20
127.0942680125
 30
0.0
 10
166.9680381561
 20
127.0925595434
 30
0.0
 10
166.9619451862
 20
127.0912152364
 30
0.0
 10
166.9581606636
 20
127.0903238027
 30
0.0
 10
166.9550790293
 20
127.089728019
 30
0.0
 10
166.9521945928
 20
127.0887037759
 30
0.0
 10
166.9472384356
 20
127.0867123127
 30
0.0
 10
166.9401104153
 20
127.0839712133
 30
0.0
 10
166.9287322938
 20
127.079527418
 30
0.0
 10
166.9145004922
 20
127.0739925541
 30
0.0
 10
166.8917347463
 20
127.065125611
 30
0.0
 10
166.8746592811
 20
127.0584779149
 30
0.0
 10
166.8632758945
 20
127.0540455594
 30
0.0
  0
SPLINE
  5
3D1
100
AcDbEntity
  8
7_ALL_FEATURES
100
AcDbSpline
 62
4
  6
CONTINUOUS
 70
0
 71
3
 72
117
 73
113
 74
0
 42
0.0000001
 43
0.0000001
 44
0.0000000001
 40
0.0
 40
0.0
 40
0.0
 40
0.0
 40
0.03125
 40
0.0625
 40
0.078125
 40
0.0859375
 40
0.09375
 40
0.1015625
 40
0.10546875
 40
0.109375
 40
0.111328125
 40
0.11328125
 40
0.1171875
 40
0.125
 40
0.140625
 40
0.15625
 40
0.171875
 40
0.1875
 40
0.1953125
 40
0.203125
 40
0.2109375
 40
0.21484375
 40
0.21875
 40
0.22265625
 40
0.224609375
 40
0.2265625
 40
0.23046875
 40
0.234375
 40
0.25
 40
0.265625
 40
0.28125
 40
0.296875
 40
0.3125
 40
0.3203125
 40
0.328125
 40
0.33203125
 40
0.333984375
 40
0.3359375
 40
0.33984375
 40
0.34375
 40
0.3515625
 40
0.359375
 40
0.375
 40
0.390625
 40
0.40625
 40
0.421875
 40
0.4296875
 40
0.4375
 40
0.44140625
 40
0.4453125
 40
0.447265625
 40
0.44921875
 40
0.453125
 40
0.4609375
 40
0.46875
 40
0.484375
 40
0.5
 40
0.515625
 40
0.53125
 40
0.5390625
 40
0.546875
 40
0.55078125
 40
0.552734375
 40
0.5546875
 40
0.55859375
 40
0.5625
 40
0.5703125
 40
0.578125
 40
0.59375
 40
0.609375
 40
0.625
 40
0.640625
 40
0.6484375
 40
0.65625
 40
0.66015625
 40
0.6640625
 40
0.666015625
 40
0.66796875
 40
0.671875
 40
0.6796875
 40
0.6875
 40
0.703125
 40
0.71875
 40
0.734375
 40
0.75
 40
0.765625
 40
0.76953125
 40
0.7734375
 40
0.775390625
 40
0.77734375
 40
0.78125
 40
0.78515625
 40
0.7890625
 40
0.796875
 40
0.8046875
 40
0.8125
 40
0.828125
 40
0.84375
 40
0.859375
 40
0.875
 40
0.8828125
 40
0.88671875
 40
0.888671875
 40
0.890625
 40
0.89453125
 40
0.8984375
 40
0.90625
 40
0.9140625
 40
0.921875
 40
0.9375
 40
0.96875
 40
1.0
 40
1.0
 40
1.0
 40
1.0
 10
167.5076857423
 20
126.3693776102
 30
0.0
 10
167.5143198746
 20
126.3753469837
 30
0.0
 10
167.5275881953
 20
126.3872856914
 30
0.0
 10
167.5441733158
 20
126.402209273
 30
0.0
 10
167.5557834152
 20
126.4126554182
 30
0.0
 10
167.5624169589
 20
126.4186252054
 30
0.0
 10
167.5673943661
 20
126.423100965
 30
0.0
 10
167.5715350403
 20
126.4268358002
 30
0.0
 10
167.5748636511
 20
126.4298123735
 30
0.0
 10
167.5769074367
 20
126.4316984511
 30
0.0
 10
167.5786262781
 20
126.4331484107
 30
0.0
 10
167.5797724987
 20
126.4350007992
 30
0.0
 10
167.5820446604
 20
126.4380553447
 30
0.0
 10
167.5863999348
 20
126.4442972965
 30
0.0
 10
167.5927205994
 20
126.4531449025
 30
0.0
 10
167.6002630575
 20
126.463791794
 30
0.0
 10
167.6078167229
 20
126.4744307774
 30
0.0
 10
167.6141093692
 20
126.4832981535
 30
0.0
 10
167.6191428624
 20
126.4903922727
 30
0.0
 10
167.6229210988
 20
126.4957112732
 30
0.0
 10
167.6260595006
 20
126.5001489788
 30
0.0
 10
167.6285929723
 20
126.5036874454
 30
0.0
 10
167.6304309023
 20
126.5063732657
 30
0.0
 10
167.6321602774
 20
126.5085097556
 30
0.0
 10
167.6328753331
 20
126.5105626686
 30
0.0
 10
167.633707116
 20
126.5125555593
 30
0.0
 10
167.6347069464
 20
126.5150671885
 30
0.0
 10
167.6371393802
 20
126.5210782128
 30
0.0
 10
167.6407741987
 20
126.5301018472
 30
0.0
 10
167.645628713
 20
126.5421292759
 30
0.0
 10
167.6504803771
 20
126.5541578979
 30
0.0
 10
167.6553353526
 20
126.5661858305
 30
0.0
 10
167.6593725028
 20
126.5762104109
 30
0.0
 10
167.6626213579
 20
126.5842272923
 30
0.0
 10
167.6646083862
 20
126.5892441489
 30
0.0
 10
167.6660864831
 20
126.5927433152
 30
0.0
 10
167.6667947153
 20
126.5947626043
 30
0.0
 10
167.6669891297
 20
126.5968563527
 30
0.0
 10
167.6674080779
 20
126.5994480435
 30
0.0
 10
167.6679800771
 20
126.6036089965
 30
0.0
 10
167.6687287394
 20
126.6088053093
 30
0.0
 10
167.6699077898
 20
126.617122136
 30
0.0
 10
167.6713880196
 20
126.6275172369
 30
0.0
 10
167.6731617083
 20
126.6399917447
 30
0.0
 10
167.6749354786
 20
126.6524661972
 30
0.0
 10
167.6764155045
 20
126.6628614363
 30
0.0
 10
167.6775949628
 20
126.6711779865
 30
0.0
 10
167.6783425882
 20
126.6763750021
 30
0.0
 10
167.6789167157
 20
126.6805345127
 30
0.0
 10
167.6793302454
 20
126.6831298755
 30
0.0
 10
167.6790179464
 20
126.6852570913
 30
0.0
 10
167.6788178109
 20
126.6873754255
 30
0.0
 10
167.6784153214
 20
126.6910866479
 30
0.0
 10
167.6778676002
 20
126.6963862356
 30
0.0
 10
167.6769760038
 20
126.7048667812
 30
0.0
 10
167.6758667718
 20
126.7154670578
 30
0.0
 10
167.6745332922
 20
126.7281875275
 30
0.0
 10
167.6732009958
 20
126.7409080947
 30
0.0
 10
167.6720888059
 20
126.7515081275
 30
0.0
 10
167.6712031252
 20
126.7599891607
 30
0.0
 10
167.670640368
 20
126.7652875088
 30
0.0
 10
167.6702648817
 20
126.7690009574
 30
0.0
 10
167.6700214623
 20
126.7711157232
 30
0.0
 10
167.6698864399
 20
126.773257554
 30
0.0
 10
167.6689407544
 20
126.7757408608
 30
0.0
 10
167.6675122385
 20
126.7797352703
 30
0.0
 10
167.665697634
 20
126.7847210514
 30
0.0
 10
167.6628104471
 20
126.7927023403
 30
0.0
 10
167.6591959496
 20
126.8026775806
 30
0.0
 10
167.6548607491
 20
126.8146483906
 30
0.0
 10
167.6505255845
 20
126.8266193076
 30
0.0
 10
167.6469109974
 20
126.8365942802
 30
0.0
 10
167.6440239896
 20
126.8445761046
 30
0.0
 10
167.6422089299
 20
126.8495605247
 30
0.0
 10
167.6407813483
 20
126.8535577277
 30
0.0
 10
167.6398332842
 20
126.8560339223
 30
0.0
 10
167.6392026978
 20
126.8580653986
 30
0.0
 10
167.6381053124
 20
126.8599124386
 30
0.0
 10
167.6359680396
 20
126.8630590803
 30
0.0
 10
167.6330279352
 20
126.8675989862
 30
0.0
 10
167.6282605279
 20
126.8748378481
 30
0.0
 10
167.622323001
 20
126.8838950177
 30
0.0
 10
167.615188514
 20
126.8947598603
 30
0.0
 10
167.6080570743
 20
126.9056259987
 30
0.0
 10
167.6009229003
 20
126.916490715
 30
0.0
 10
167.5955781872
 20
126.9246425469
 30
0.0
 10
167.5920060373
 20
126.9300720547
 30
0.0
 10
167.5905310108
 20
126.9323418458
 30
0.0
 10
167.5893198041
 20
126.9341401925
 30
0.0
 10
167.5882226442
 20
126.936002487
 30
0.0
 10
167.5860348245
 20
126.937872604
 30
0.0
 10
167.5836413118
 20
126.940246758
 30
0.0
 10
167.5803689665
 20
126.9433668818
 30
0.0
 10
167.5763063204
 20
126.9472826145
 30
0.0
 10
167.5714192671
 20
126.951974842
 30
0.0
 10
167.5649072696
 20
126.958233388
 30
0.0
 10
167.5567664157
 20
126.9660563791
 30
0.0
 10
167.5469953944
 20
126.9754415235
 30
0.0
 10
167.5372337309
 20
126.9848367543
 30
0.0
 10
167.5290694826
 20
126.9926345291
 30
0.0
 10
167.5234124249
 20
126.9981548854
 30
0.0
 10
167.5205047732
 20
127.0008304835
 30
0.0
 10
167.5189706234
 20
127.0024955462
 30
0.0
 10
167.5169571537
 20
127.0036482319
 30
0.0
 10
167.5145280124
 20
127.005182833
 30
0.0
 10
167.510592373
 20
127.0075858011
 30
0.0
 10
167.5056896398
 20
127.0106074871
 30
0.0
 10
167.4997991629
 20
127.0142258167
 30
0.0
 10
167.4919477041
 20
127.0190529399
 30
0.0
 10
167.4782064811
 20
127.0274991545
 30
0.0
 10
167.4585767783
 20
127.0395658338
 30
0.0
 10
167.4428728284
 20
127.0492189766
 30
0.0
 10
167.435020877
 20
127.0540455731
 30
0.0
  0
SPLINE
  5
3D2
100
AcDbEntity
  8
7_ALL_FEATURES
100
AcDbSpline
 62
4
  6
CONTINUOUS
 70
0
 71
3
 72
50
 73
46
 74
0
 42
0.0000001
 43
0.0000001
 44
0.0000000001
 40
0.0
 40
0.0
 40
0.0
 40
0.0
 40
0.0625
 40
0.125
 40
0.140625
 40
0.15625
 40
0.1640625
 40
0.171875
 40
0.1875
 40
0.21875
 40
0.25
 40
0.28125
 40
0.3125
 40
0.328125
 40
0.3359375
 40
0.34375
 40
0.359375
 40
0.375
 40
0.4375
 40
0.46875
 40
0.484375
 40
0.4921875
 40
0.5
 40
0.5078125
 40
0.515625
 40
0.53125
 40
0.5625
 40
0.625
 40
0.640625
 40
0.65625
 40
0.6640625
 40
0.671875
 40
0.6875
 40
0.71875
 40
0.75
 40
0.78125
 40
0.8125
 40
0.828125
 40
0.8359375
 40
0.84375
 40
0.859375
 40
0.875
 40
0.90625
 40
0.9375
 40
1.0
 40
1.0
 40
1.0
 40
1.0
 10
167.2986350105
 20
124.7227875541
 30
0.0
 10
167.3102341492
 20
124.7283582566
 30
0.0
 10
167.3334351029
 20
124.7394956042
 30
0.0
 10
167.3595241315
 20
124.7520433785
 30
0.0
 10
167.3769343819
 20
124.7603819347
 30
0.0
 10
167.3841627242
 20
124.7638956392
 30
0.0
 10
167.3900058705
 20
124.7666149308
 30
0.0
 10
167.3956278696
 20
124.7696694656
 30
0.0
 10
167.4053635487
 20
124.7751707569
 30
0.0
 10
167.4193258161
 20
124.7829477372
 30
0.0
 10
167.4360556114
 20
124.7923175078
 30
0.0
 10
167.4527984619
 20
124.801668913
 30
0.0
 10
167.4667280911
 20
124.8094918069
 30
0.0
 10
167.4765208869
 20
124.8149127494
 30
0.0
 10
167.4820514993
 20
124.8180958423
 30
0.0
 10
167.4873363928
 20
124.8216004504
 30
0.0
 10
167.4940265585
 20
124.8258712442
 30
0.0
 10
167.5100132448
 20
124.8362122797
 30
0.0
 10
167.5286932228
 20
124.8482399871
 30
0.0
 10
167.5473476663
 20
124.8602984578
 30
0.0
 10
167.5566958835
 20
124.8663036485
 30
0.0
 10
167.5620053775
 20
124.8697720107
 30
0.0
 10
167.5660785323
 20
124.8722696784
 30
0.0
 10
167.5698037225
 20
124.8751633493
 30
0.0
 10
167.5748920243
 20
124.8788834406
 30
0.0
 10
167.5837399215
 20
124.8854580235
 30
0.0
 10
167.6014780361
 20
124.8985593279
 30
0.0
 10
167.6191887535
 20
124.911690108
 30
0.0
 10
167.634397848
 20
124.9229160871
 30
0.0
 10
167.640700551
 20
124.9276278344
 30
0.0
 10
167.6458224727
 20
124.9313179153
 30
0.0
 10
167.6506528932
 20
124.9352978589
 30
0.0
 10
167.6589706514
 20
124.94239755
 30
0.0
 10
167.6709242011
 20
124.9524687419
 30
0.0
 10
167.685237142
 20
124.9645879558
 30
0.0
 10
167.6995616971
 20
124.9766859937
 30
0.0
 10
167.7114862111
 20
124.9868101255
 30
0.0
 10
167.7198547819
 20
124.9938171718
 30
0.0
 10
167.7246039023
 20
124.9979453469
 30
0.0
 10
167.7292291636
 20
125.0025409995
 30
0.0
 10
167.7350531494
 20
125.0081255016
 30
0.0
 10
167.744347826
 20
125.0171501577
 30
0.0
 10
167.7559742904
 20
125.028400336
 30
0.0
 10
167.7745720756
 20
125.0464178237
 30
0.0
 10
167.7885214401
 20
125.059927069
 30
0.0
 10
167.7978207884
 20
125.0689340926
 30
0.0
  0
SPLINE
  5
3D3
100
AcDbEntity
  8
3_ALL_AXES
100
AcDbSpline
 62
7
  6
CONTINUOUS
 70
0
 71
3
 72
11
 73
7
 74
0
 42
0.0000001
 43
0.0000001
 44
0.0000000001
 40
0.0
 40
0.0
 40
0.0
 40
0.0
 40
0.2163299934
 40
0.4566523293
 40
0.718771544
 40
1.0
 40
1.0
 40
1.0
 40
1.0
 10
165.6481825468
 20
110.3966530431
 30
0.0
 10
165.6991489096
 20
110.4476198827
 30
0.0
 10
165.7989341895
 20
110.5630412144
 30
0.0
 10
165.9375954407
 20
110.7585560204
 30
0.0
 10
166.0736521083
 20
110.9816010947
 30
0.0
 10
166.159910937
 20
111.1408378199
 30
0.0
 10
166.2029852636
 20
111.2240510288
 30
0.0
  0
SPLINE
  5
3D4
100
AcDbEntity
  8
3_ALL_AXES
100
AcDbSpline
 62
7
  6
CONTINUOUS
 70
0
 71
3
 72
11
 73
7
 74
0
 42
0.0000001
 43
0.0000001
 44
0.0000000001
 40
0.0
 40
0.0
 40
0.0
 40
0.0
 40
0.2163299934
 40
0.4566523293
 40
0.718771544
 40
1.0
 40
1.0
 40
1.0
 40
1.0
 10
151.3029747597
 20
110.3966530431
 30
0.0
 10
151.2520083969
 20
110.4476198827
 30
0.0
 10
151.1522231171
 20
110.5630412144
 30
0.0
 10
151.0135618659
 20
110.7585560204
 30
0.0
 10
150.8775051982
 20
110.9816010947
 30
0.0
 10
150.7912463695
 20
111.1408378199
 30
0.0
 10
150.748172043
 20
111.2240510288
 30
0.0
  0
SPLINE
  5
3D5
100
AcDbEntity
  8
3_ALL_AXES
100
AcDbSpline
 62
7
  6
CONTINUOUS
 70
0
 71
3
 72
19
 73
15
 74
0
 42
0.0000001
 43
0.0000001
 44
0.0000000001
 40
0.0
 40
0.0
 40
0.0
 40
0.0
 40
0.0638114962
 40
0.1272689962
 40
0.1902443843
 40
0.2527839854
 40
0.3766579829
 40
0.5000634573
 40
0.6234641555
 40
0.7473062116
 40
0.8098329522
 40
0.8727912221
 40
0.9362181193
 40
1.0
 40
1.0
 40
1.0
 40
1.0
 10
159.3028037713
 20
109.7240510288
 30
0.0
 10
159.3028037713
 20
109.6680237745
 30
0.0
 10
159.3214969714
 20
109.5555175753
 30
0.0
 10
159.3983168223
 20
109.4048327999
 30
0.0
 10
159.5094176154
 20
109.2796025111
 30
0.0
 10
159.6862756682
 20
109.1485121328
 30
0.0
 10
159.9427133726
 20
109.0450363473
 30
0.0
 10
160.2688950412
 20
109.0056339492
 30
0.0
 10
160.5950374871
 20
109.0451211323
 30
0.0
 10
160.851409424
 20
109.1486366923
 30
0.0
 10
161.0281951793
 20
109.2797350613
 30
0.0
 10
161.1392193343
 20
109.4049616008
 30
0.0
 10
161.2159779903
 20
109.5555973038
 30
0.0
 10
161.2346554239
 20
109.6680497773
 30
0.0
 10
161.2346554239
 20
109.7240510288
 30
0.0
  0
SPLINE
  5
3D6
100
AcDbEntity
  8
3_ALL_AXES
100
AcDbSpline
 62
7
  6
CONTINUOUS
 70
0
 71
3
 72
12
 73
8
 74
0
 42
0.0000001
 43
0.0000001
 44
0.0000000001
 40
0.0
 40
0.0
 40
0.0
 40
0.0
 40
0.2579431903
 40
0.4480109145
 40
0.6349548838
 40
0.8188425376
 40
1.0
 40
1.0
 40
1.0
 40
1.0
 10
150.748172043
 20
111.2240510288
 30
0.0
 10
150.9139564157
 20
111.1068237747
 30
0.0
 10
151.2083507242
 20
110.9119856168
 30
0.0
 10
151.6437788593
 20
110.6659228353
 30
0.0
 10
152.0432934757
 20
110.476853194
 30
0.0
 10
152.4510934715
 20
110.3251976654
 30
0.0
 10
152.7297158312
 20
110.2522901574
 30
0.0
 10
152.8694923865
 20
110.2240510288
 30
0.0
  0
SPLINE
  5
3D7
100
AcDbEntity
  8
3_ALL_AXES
100
AcDbSpline
 62
7
  6
CONTINUOUS
 70
0
 71
3
 72
9
 73
5
 74
0
 42
0.0000001
 43
0.0000001
 44
0.0000000001
 40
0.0
 40
0.0
 40
0.0
 40
0.0
 40
0.2350910793
 40
1.0
 40
1.0
 40
1.0
 40
1.0
 10
165.4621157679
 20
110.2450173817
 30
0.0
 10
165.4780779302
 20
110.2550124225
 30
0.0
 10
165.544458623
 20
110.2999536536
 30
0.0
 10
165.6048532225
 20
110.3533233135
 30
0.0
 10
165.6481825468
 20
110.3966530431
 30
0.0
  0
SPLINE
  5
3D8
100
AcDbEntity
  8
3_ALL_AXES
100
AcDbSpline
 62
7
  6
CONTINUOUS
 70
0
 71
3
 72
10
 73
6
 74
0
 42
0.0000001
 43
0.0000001
 44
0.0000000001
 40
0.0
 40
0.0
 40
0.0
 40
0.0
 40
0.2421734631
 40
0.6149310735
 40
1.0
 40
1.0
 40
1.0
 40
1.0
 10
154.2837059489
 20
110.2240510288
 30
0.0
 10
154.4704625666
 20
110.2617815633
 30
0.0
 10
154.9378322261
 20
110.3936886791
 30
0.0
 10
155.6546062529
 20
110.7267053882
 30
0.0
 10
156.1576663675
 20
111.0491411485
 30
0.0
 10
156.4050262924
 20
111.2240510288
 30
0.0
  0
SPLINE
  5
3D9
100
AcDbEntity
  8
3_ALL_AXES
100
AcDbSpline
 62
7
  6
CONTINUOUS
 70
0
 71
3
 72
19
 73
15
 74
0
 42
0.0000001
 43
0.0000001
 44
0.0000000001
 40
0.0
 40
0.0
 40
0.0
 40
0.0
 40
0.0755313105
 40
0.1475271142
 40
0.2145707967
 40
0.2770181017
 40
0.3917437342
 40
0.5000509034
 40
0.6083537473
 40
0.7230719906
 40
0.7855182774
 40
0.8525486482
 40
0.9245023644
 40
1.0
 40
1.0
 40
1.0
 40
1.0
 10
152.8694923865
 20
109.7240510288
 30
0.0
 10
152.8694923865
 20
109.66836469
 30
0.0
 10
152.882458884
 20
109.5591491582
 30
0.0
 10
152.9371589558
 20
109.4093459269
 30
0.0
 10
153.0178251918
 20
109.2832291495
 30
0.0
 10
153.1441863899
 20
109.1535886149
 30
0.0
 10
153.3313450847
 20
109.0467377398
 30
0.0
 10
153.5767116845
 20
109.0051619853
 30
0.0
 10
153.8220553359
 20
109.0468225881
 30
0.0
 10
154.0091798494
 20
109.1537105976
 30
0.0
 10
154.1354952983
 20
109.2833753295
 30
0.0
 10
154.2160947092
 20
109.4094841253
 30
0.0
 10
154.2707518882
 20
109.5592298479
 30
0.0
 10
154.2837059489
 20
109.6683895172
 30
0.0
 10
154.2837059489
 20
109.7240510288
 30
0.0
  0
SPLINE
  5
3DA
100
AcDbEntity
  8
3_ALL_AXES
100
AcDbSpline
 62
7
  6
CONTINUOUS
 70
0
 71
3
 72
23
 73
19
 74
0
 42
0.0000001
 43
0.0000001
 44
0.0000000001
 40
0.0
 40
0.0
 40
0.0
 40
0.0
 40
0.1041045604
 40
0.198722586
 40
0.2791671156
 40
0.344987429
 40
0.3976144983
 40
0.4391006973
 40
0.4720229716
 40
0.500024351
 40
0.5280300251
 40
0.560964335
 40
0.6024594955
 40
0.6550984182
 40
0.7209332483
 40
0.8013730741
 40
0.8959372264
 40
1.0
 40
1.0
 40
1.0
 40
1.0
 10
164.9088900381
 20
109.7240510288
 30
0.0
 10
164.9088900381
 20
109.6687036942
 30
0.0
 10
164.9133779237
 20
109.5629895118
 30
0.0
 10
164.9325905501
 20
109.4156242215
 30
0.0
 10
164.9611210763
 20
109.2905511648
 30
0.0
 10
164.9958734797
 20
109.1904171206
 30
0.0
 10
165.0346081331
 20
109.1143310641
 30
0.0
 10
165.0760920179
 20
109.0603955835
 30
0.0
 10
165.120269672
 20
109.026921406
 30
0.0
 10
165.1677519678
 20
109.0150108309
 30
0.0
 10
165.2152346621
 20
109.0269543264
 30
0.0
 10
165.2593919004
 20
109.0604768472
 30
0.0
 10
165.3008708417
 20
109.114434201
 30
0.0
 10
165.3396018898
 20
109.1905442445
 30
0.0
 10
165.3743392568
 20
109.2906954907
 30
0.0
 10
165.4028447296
 20
109.4157499149
 30
0.0
 10
165.4220446519
 20
109.5630625159
 30
0.0
 10
165.4265281283
 20
109.6687259102
 30
0.0
 10
165.4265281283
 20
109.7240510288
 30
0.0
  0
SPLINE
  5
3DB
100
AcDbEntity
  8
3_ALL_AXES
100
AcDbSpline
 62
7
  6
CONTINUOUS
 70
0
 71
3
 72
12
 73
8
 74
0
 42
0.0000001
 43
0.0000001
 44
0.0000000001
 40
0.0
 40
0.0
 40
0.0
 40
0.0
 40
0.2990157023
 40
0.5680906656
 40
0.6898330624
 40
0.8024184477
 40
1.0
 40
1.0
 40
1.0
 40
1.0
 10
164.1324329028
 20
111.2240510288
 30
0.0
 10
164.191111261
 20
111.1106931455
 30
0.0
 10
164.3081027782
 20
110.8980949106
 30
0.0
 10
164.4698191474
 20
110.6513826435
 30
0.0
 10
164.6041679015
 20
110.4833299083
 30
0.0
 10
164.7302236404
 20
110.3488746775
 30
0.0
 10
164.8350474614
 20
110.2648090013
 30
0.0
 10
164.9088900381
 20
110.2240510288
 30
0.0
  0
SPLINE
  5
3DC
100
AcDbEntity
  8
3_ALL_AXES
100
AcDbSpline
 62
7
  6
CONTINUOUS
 70
0
 71
3
 72
11
 73
7
 74
0
 42
0.0000001
 43
0.0000001
 44
0.0000000001
 40
0.0
 40
0.0
 40
0.0
 40
0.0
 40
0.2506432543
 40
0.5008628457
 40
0.7506308309
 40
1.0
 40
1.0
 40
1.0
 40
1.0
 10
156.4050262924
 20
111.2240510288
 30
0.0
 10
156.6334533414
 20
111.1058084875
 30
0.0
 10
157.0964591408
 20
110.8817960634
 30
0.0
 10
157.8114831396
 20
110.5933221
 30
0.0
 10
158.5468012377
 20
110.3648947475
 30
0.0
 10
159.0496486927
 20
110.2614918035
 30
0.0
 10
159.3028037713
 20
110.2240510288
 30
0.0
  0
SPLINE
  5
3DD
100
AcDbEntity
  8
3_ALL_AXES
100
AcDbSpline
 62
7
  6
CONTINUOUS
 70
0
 71
3
 72
11
 73
7
 74
0
 42
0.0000001
 43
0.0000001
 44
0.0000000001
 40
0.0
 40
0.0
 40
0.0
 40
0.0
 40
0.2493691879
 40
0.4991371759
 40
0.749356754
 40
1.0
 40
1.0
 40
1.0
 40
1.0
 10
161.2346554239
 20
110.2240510288
 30
0.0
 10
161.4878105217
 20
110.2614918064
 30
0.0
 10
161.9906579982
 20
110.3648947565
 30
0.0
 10
162.725976102
 20
110.5933221191
 30
0.0
 10
163.441000081
 20
110.8817960791
 30
0.0
 10
163.9040058614
 20
111.1058084914
 30
0.0
 10
164.1324329028
 20
111.2240510288
 30
0.0
  0
ELLIPSE
  5
3DE
100
AcDbEntity
  8
7_ALL_FEATURES
100
AcDbEllipse
 62
3
  6
CONTINUOUS
 10
162.4846606094
 20
133.2933468212
 30
0.0
 11
4.1574578963
 21
4.1574578963
 31
0.0
 40
0.4142135624
 41
1.1780972451
 42
1.3117249102
  0
ELLIPSE
  5
3DF
100
AcDbEntity
  8
7_ALL_FEATURES
100
AcDbEllipse
 62
3
  6
CONTINUOUS
 10
172.285587583
 20
133.2933468212
 30
0.0
 11
4.1574578963
 21
-4.1574578963
 31
0.0
 40
0.4142135624
 41
1.8298677433
 42
1.9634954085
  0
ENDSEC
  0
SECTION
  2
OBJECTS
  0
DICTIONARY
  5
3E0
100
AcDbDictionary
  3
ACAD_GROUP
350
3E1
  3
ACAD_MLINESTYLE
350
3E2
  0
DICTIONARY
  5
3E1
102
{ACAD_REACTORS
330
3E0
102
}
100
AcDbDictionary
  0
DICTIONARY
  5
3E2
102
{ACAD_REACTORS
330
3E0
102
}
100
AcDbDictionary
  3
STANDARD
350
3E3
  0
MLINESTYLE
  5
3E3
102
{ACAD_REACTORS
330
3E2
102
}
100
AcDbMlineStyle
  2
STANDARD
 70
0
  3

 62
256
 51
90.0
 52
90.0
 71
2
 49
0.5
 62
256
  6
BYLAYER
 49
-0.5
 62
256
  6
BYLAYER
  0
ENDSEC
  0
EOF
