  0
SECTION
  2
HEADER
  9
$ACADVER
  1
AC1027
  9
$ACADMAINTVER
 70
   105
  9
$DWGCODEPAGE
  3
ANSI_1252
  9
$REQUIREDVERSIONS
160
                 0
  9
$LASTSAVEDBY
  1
andrea.zolin
  9
$INSBASE
 10
0.0
 20
0.0
 30
0.0
  9
$EXTMIN
 10
0.0
 20
0.0
 30
0.0
  9
$EXTMAX
 10
297.0
 20
210.0
 30
0.0
  9
$LIMMIN
 10
0.0
 20
0.0
  9
$LIMMAX
 10
297.0
 20
210.0
  9
$ORTHOMODE
 70
     0
  9
$REGENMODE
 70
     1
  9
$FILLMODE
 70
     1
  9
$QTEXTMODE
 70
     0
  9
$MIRRTEXT
 70
     1
  9
$LTSCALE
 40
16.335
  9
$ATTMODE
 70
     1
  9
$TEXTSIZE
 40
0.2
  9
$TRACEWID
 40
0.05
  9
$TEXTSTYLE
  7
STANDARD
  9
$CLAYER
  8
0
  9
$CELTYPE
  6
BYLAYER
  9
$CECOLOR
 62
   256
  9
$CELTSCALE
 40
1.0
  9
$DISPSILH
 70
     0
  9
$DIMSCALE
 40
1.0
  9
$DIMASZ
 40
2.5
  9
$DIMEXO
 40
0.75
  9
$DIMDLI
 40
11.286
  9
$DIMRND
 40
0.0
  9
$DIMDLE
 40
0.0
  9
$DIMEXE
 40
0.75
  9
$DIMTP
 40
0.01
  9
$DIMTM
 40
0.01
  9
$DIMTXT
 40
3.0
  9
$DIMCEN
 40
2.673
  9
$DIMTSZ
 40
0.0
  9
$DIMTOL
 70
     1
  9
$DIMLIM
 70
     0
  9
$DIMTIH
 70
     1
  9
$DIMTOH
 70
     1
  9
$DIMSE1
 70
     0
  9
$DIMSE2
 70
     0
  9
$DIMTAD
 70
     0
  9
$DIMZIN
 70
     0
  9
$DIMBLK
  1
CLOSED
  9
$DIMASO
 70
     1
  9
$DIMSHO
 70
     1
  9
$DIMPOST
  1

  9
$DIMAPOST
  1

  9
$DIMALT
 70
     0
  9
$DIMALTD
 70
     2
  9
$DIMALTF
 40
25.4
  9
$DIMLFAC
 40
1.0
  9
$DIMTOFL
 70
     0
  9
$DIMTVP
 40
0.0
  9
$DIMTIX
 70
     0
  9
$DIMSOXD
 70
     0
  9
$DIMSAH
 70
     0
  9
$DIMBLK1
  1

  9
$DIMBLK2
  1

  9
$DIMSTYLE
  2
STANDARD
  9
$DIMCLRD
 70
     0
  9
$DIMCLRE
 70
     0
  9
$DIMCLRT
 70
     0
  9
$DIMTFAC
 40
1.0
  9
$DIMGAP
 40
0.625
  9
$DIMJUST
 70
     0
  9
$DIMSD1
 70
     0
  9
$DIMSD2
 70
     0
  9
$DIMTOLJ
 70
     1
  9
$DIMTZIN
 70
     0
  9
$DIMALTZ
 70
     0
  9
$DIMALTTZ
 70
     0
  9
$DIMUPT
 70
     0
  9
$DIMDEC
 70
     4
  9
$DIMTDEC
 70
     4
  9
$DIMALTU
 70
     2
  9
$DIMALTTD
 70
     2
  9
$DIMTXSTY
  7
STANDARD
  9
$DIMAUNIT
 70
     0
  9
$DIMADEC
 70
     0
  9
$DIMALTRND
 40
0.0
  9
$DIMAZIN
 70
     0
  9
$DIMDSEP
 70
    44
  9
$DIMATFIT
 70
     3
  9
$DIMFRAC
 70
     0
  9
$DIMLDRBLK
  1

  9
$DIMLUNIT
 70
     2
  9
$DIMLWD
 70
    -2
  9
$DIMLWE
 70
    -2
  9
$DIMTMOVE
 70
     0
  9
$DIMFXL
 40
1.0
  9
$DIMFXLON
 70
     0
  9
$DIMJOGANG
 40
0.7853981633974483
  9
$DIMTFILL
 70
     0
  9
$DIMTFILLCLR
 70
     0
  9
$DIMARCSYM
 70
     0
  9
$DIMLTYPE
  6

  9
$DIMLTEX1
  6

  9
$DIMLTEX2
  6

  9
$DIMTXTDIRECTION
 70
     0
  9
$LUNITS
 70
     2
  9
$LUPREC
 70
     4
  9
$SKETCHINC
 40
0.1
  9
$FILLETRAD
 40
0.5
  9
$AUNITS
 70
     0
  9
$AUPREC
 70
     0
  9
$MENU
  1
.
  9
$ELEVATION
 40
0.0
  9
$PELEVATION
 40
0.0
  9
$THICKNESS
 40
0.0
  9
$LIMCHECK
 70
     0
  9
$CHAMFERA
 40
0.0
  9
$CHAMFERB
 40
0.0
  9
$CHAMFERC
 40
0.0
  9
$CHAMFERD
 40
0.0
  9
$SKPOLY
 70
     0
  9
$TDCREATE
 40
2447893.041666667
  9
$TDUCREATE
 40
0.0
  9
$TDUPDATE
 40
2458816.736066574
  9
$TDUUPDATE
 40
2458816.694399907
  9
$TDINDWG
 40
0.0002519676
  9
$TDUSRTIMER
 40
0.0002519676
  9
$USRTIMER
 70
     1
  9
$ANGBASE
 50
0.0
  9
$ANGDIR
 70
     0
  9
$PDMODE
 70
     3
  9
$PDSIZE
 40
0.3125
  9
$PLINEWID
 40
0.0
  9
$SPLFRAME
 70
     0
  9
$SPLINETYPE
 70
     6
  9
$SPLINESEGS
 70
     8
  9
$HANDSEED
  5
3B4
  9
$SURFTAB1
 70
     6
  9
$SURFTAB2
 70
     6
  9
$SURFTYPE
 70
     6
  9
$SURFU
 70
     6
  9
$SURFV
 70
     6
  9
$UCSBASE
  2

  9
$UCSNAME
  2

  9
$UCSORG
 10
0.0
 20
0.0
 30
0.0
  9
$UCSXDIR
 10
1.0
 20
0.0
 30
0.0
  9
$UCSYDIR
 10
0.0
 20
1.0
 30
0.0
  9
$UCSORTHOREF
  2

  9
$UCSORTHOVIEW
 70
     0
  9
$UCSORGTOP
 10
0.0
 20
0.0
 30
0.0
  9
$UCSORGBOTTOM
 10
0.0
 20
0.0
 30
0.0
  9
$UCSORGLEFT
 10
0.0
 20
0.0
 30
0.0
  9
$UCSORGRIGHT
 10
0.0
 20
0.0
 30
0.0
  9
$UCSORGFRONT
 10
0.0
 20
0.0
 30
0.0
  9
$UCSORGBACK
 10
0.0
 20
0.0
 30
0.0
  9
$PUCSBASE
  2

  9
$PUCSNAME
  2

  9
$PUCSORG
 10
0.0
 20
0.0
 30
0.0
  9
$PUCSXDIR
 10
1.0
 20
0.0
 30
0.0
  9
$PUCSYDIR
 10
0.0
 20
1.0
 30
0.0
  9
$PUCSORTHOREF
  2

  9
$PUCSORTHOVIEW
 70
     0
  9
$PUCSORGTOP
 10
0.0
 20
0.0
 30
0.0
  9
$PUCSORGBOTTOM
 10
0.0
 20
0.0
 30
0.0
  9
$PUCSORGLEFT
 10
0.0
 20
0.0
 30
0.0
  9
$PUCSORGRIGHT
 10
0.0
 20
0.0
 30
0.0
  9
$PUCSORGFRONT
 10
0.0
 20
0.0
 30
0.0
  9
$PUCSORGBACK
 10
0.0
 20
0.0
 30
0.0
  9
$USERI1
 70
     0
  9
$USERI2
 70
     0
  9
$USERI3
 70
     0
  9
$USERI4
 70
     0
  9
$USERI5
 70
     0
  9
$USERR1
 40
0.0
  9
$USERR2
 40
0.0
  9
$USERR3
 40
0.0
  9
$USERR4
 40
0.0
  9
$USERR5
 40
0.0
  9
$WORLDVIEW
 70
     1
  9
$SHADEDGE
 70
     3
  9
$SHADEDIF
 70
    70
  9
$TILEMODE
 70
     0
  9
$MAXACTVP
 70
    64
  9
$PINSBASE
 10
0.0
 20
0.0
 30
0.0
  9
$PLIMCHECK
 70
     0
  9
$PEXTMIN
 10
9.949999999999989
 20
9.950000000000003
 30
0.0
  9
$PEXTMAX
 10
291.7524117122
 20
200.05
 30
0.0
  9
$PLIMMIN
 10
0.0
 20
0.0
  9
$PLIMMAX
 10
297.0
 20
210.0
  9
$UNITMODE
 70
     0
  9
$VISRETAIN
 70
     1
  9
$PLINEGEN
 70
     0
  9
$PSLTSCALE
 70
     1
  9
$TREEDEPTH
 70
  3020
  9
$CMLSTYLE
  2
Standard
  9
$CMLJUST
 70
     0
  9
$CMLSCALE
 40
1.0
  9
$PROXYGRAPHICS
 70
     1
  9
$MEASUREMENT
 70
     1
  9
$CELWEIGHT
370
    -1
  9
$ENDCAPS
280
     0
  9
$JOINSTYLE
280
     0
  9
$LWDISPLAY
290
     0
  9
$INSUNITS
 70
     4
  9
$HYPERLINKBASE
  1

  9
$STYLESHEET
  1

  9
$XEDIT
290
     1
  9
$CEPSNTYPE
380
     0
  9
$PSTYLEMODE
290
     1
  9
$FINGERPRINTGUID
  2
{8FBFEAB7-2550-4C01-8090-6AC1D7A40B47}
  9
$VERSIONGUID
  2
{FAEB1C32-E019-11D5-929B-00C0DF256EC4}
  9
$EXTNAMES
290
     1
  9
$PSVPSCALE
 40
0.0
  9
$OLESTARTUP
290
     0
  9
$SORTENTS
280
   127
  9
$INDEXCTL
280
     0
  9
$HIDETEXT
280
     1
  9
$XCLIPFRAME
280
     2
  9
$HALOGAP
280
     0
  9
$OBSCOLOR
 70
   257
  9
$OBSLTYPE
280
     0
  9
$INTERSECTIONDISPLAY
280
     0
  9
$INTERSECTIONCOLOR
 70
   257
  9
$DIMASSOC
280
     2
  9
$PROJECTNAME
  1

  9
$CAMERADISPLAY
290
     0
  9
$LENSLENGTH
 40
50.0
  9
$CAMERAHEIGHT
 40
0.0
  9
$STEPSPERSEC
 40
2.0
  9
$STEPSIZE
 40
6.0
  9
$3DDWFPREC
 40
2.0
  9
$PSOLWIDTH
 40
0.25
  9
$PSOLHEIGHT
 40
4.0
  9
$LOFTANG1
 40
1.570796326794897
  9
$LOFTANG2
 40
1.570796326794897
  9
$LOFTMAG1
 40
0.0
  9
$LOFTMAG2
 40
0.0
  9
$LOFTPARAM
 70
     7
  9
$LOFTNORMALS
280
     1
  9
$LATITUDE
 40
37.795
  9
$LONGITUDE
 40
-122.394
  9
$NORTHDIRECTION
 40
0.0
  9
$TIMEZONE
 70
 -8000
  9
$LIGHTGLYPHDISPLAY
280
     1
  9
$TILEMODELIGHTSYNCH
280
     1
  9
$SOLIDHIST
280
     0
  9
$SHOWHIST
280
     1
  9
$DWFFRAME
280
     2
  9
$DGNFRAME
280
     2
  9
$REALWORLDSCALE
290
     1
  9
$INTERFERECOLOR
 62
   256
  9
$CSHADOW
280
     0
  9
$SHADOWPLANELOCATION
 40
0.0
  0
ENDSEC
  0
SECTION
  2
CLASSES
  0
CLASS
  1
ACDBDICTIONARYWDFLT
  2
AcDbDictionaryWithDefault
  3
ObjectDBX Classes
 90
        0
 91
        4
280
     0
281
     0
  0
CLASS
  1
ACDBPLACEHOLDER
  2
AcDbPlaceHolder
  3
ObjectDBX Classes
 90
        0
 91
        1
280
     0
281
     0
  0
CLASS
  1
LAYOUT
  2
AcDbLayout
  3
ObjectDBX Classes
 90
        0
 91
        1
280
     0
281
     0
  0
CLASS
  1
TABLESTYLE
  2
AcDbTableStyle
  3
ObjectDBX Classes
 90
     4095
 91
        4
280
     0
281
     0
  0
CLASS
  1
ACAD_TABLE
  2
AcDbTable
  3
ObjectDBX Classes
 90
     1025
 91
        4
280
     0
281
     1
  0
CLASS
  1
SCALE
  2
AcDbScale
  3
ObjectDBX Classes
 90
     1153
 91
        4
280
     0
281
     0
  0
CLASS
  1
VISUALSTYLE
  2
AcDbVisualStyle
  3
ObjectDBX Classes
 90
     4095
 91
        4
280
     0
281
     0
  0
CLASS
  1
TABLEGEOMETRY
  2
AcDbTableGeometry
  3
ObjectDBX Classes
 90
     1152
 91
        4
280
     0
281
     0
  0
CLASS
  1
MATERIAL
  2
AcDbMaterial
  3
ObjectDBX Classes
 90
     1153
 91
        4
280
     0
281
     0
  0
CLASS
  1
MLEADERSTYLE
  2
AcDbMLeaderStyle
  3
ACDB_MLEADERSTYLE_CLASS
 90
     4095
 91
        4
280
     0
281
     0
  0
CLASS
  1
SUN
  2
AcDbSun
  3
SCENEOE
 90
     1153
 91
        4
280
     0
281
     0
  0
CLASS
  1
DICTIONARYVAR
  2
AcDbDictionaryVar
  3
ObjectDBX Classes
 90
        0
 91
        4
280
     0
281
     0
  0
CLASS
  1
CELLSTYLEMAP
  2
AcDbCellStyleMap
  3
ObjectDBX Classes
 90
     1152
 91
        4
280
     0
281
     0
  0
ENDSEC
  0
SECTION
  2
TABLES
  0
TABLE
  2
VPORT
  5
8
330
0
100
AcDbSymbolTable
 70
     1
  0
VPORT
  5
1F4
330
8
100
AcDbSymbolTableRecord
100
AcDbViewportTableRecord
  2
*ACTIVE
 70
     0
 10
0.0
 20
0.0
 11
1.0
 21
1.0
 12
148.5
 22
105.0
 13
0.0
 23
0.0
 14
1.0
 24
1.0
 15
0.0
 25
0.0
 16
0.0
 26
0.0
 36
1.0
 17
0.0
 27
0.0
 37
0.0
 40
210.0
 41
1.4142857143
 42
50.0
 43
0.0
 44
0.0
 50
0.0
 51
0.0
 71
     0
 72
   100
 73
     1
 74
     1
 75
     0
 76
     0
 77
     0
 78
     0
281
     0
 65
     1
110
0.0
120
0.0
130
0.0
111
1.0
121
0.0
131
0.0
112
0.0
122
1.0
132
0.0
 79
     0
146
0.0
348
38C
 60
     3
 61
     5
292
     1
282
     1
141
0.0
142
0.0
 63
   256
  0
ENDTAB
  0
TABLE
  2
LTYPE
  5
5
330
0
100
AcDbSymbolTable
 70
     6
  0
LTYPE
  5
14
330
5
100
AcDbSymbolTableRecord
100
AcDbLinetypeTableRecord
  2
BYBLOCK
 70
     0
  3

 72
    65
 73
     0
 40
0.0
  0
LTYPE
  5
15
330
5
100
AcDbSymbolTableRecord
100
AcDbLinetypeTableRecord
  2
BYLAYER
 70
     0
  3

 72
    65
 73
     0
 40
0.0
  0
LTYPE
  5
16
330
5
100
AcDbSymbolTableRecord
100
AcDbLinetypeTableRecord
  2
CONTINUOUS
 70
     0
  3
Solid line
 72
    65
 73
     0
 40
0.0
  0
LTYPE
  5
1F5
330
5
100
AcDbSymbolTableRecord
100
AcDbLinetypeTableRecord
  2
CENTER
 70
     0
  3
____ _ ____ _ ____ _ ____ _ ____ _ ____ _ ____
 72
    65
 73
     4
 40
0.6
 49
0.375
 74
     0
 49
-0.075
 74
     0
 49
0.075
 74
     0
 49
-0.075
 74
     0
  0
LTYPE
  5
1F6
330
5
100
AcDbSymbolTableRecord
100
AcDbLinetypeTableRecord
  2
HIDDEN
 70
     0
  3
- - - - - - - - - - - - - - - - - - - -
 72
    65
 73
     2
 40
0.2
 49
0.1
 74
     0
 49
-0.1
 74
     0
  0
LTYPE
  5
1F7
330
5
100
AcDbSymbolTableRecord
100
AcDbLinetypeTableRecord
  2
PHANTOM
 70
     0
  3
_____ _ _ _____ _ _ _____ _ _ _____
 72
    65
 73
     6
 40
0.8
 49
0.45
 74
     0
 49
-0.05
 74
     0
 49
0.1
 74
     0
 49
-0.05
 74
     0
 49
0.1
 74
     0
 49
-0.05
 74
     0
  0
LTYPE
  5
1F8
330
5
100
AcDbSymbolTableRecord
100
AcDbLinetypeTableRecord
  2
DOT
 70
     0
  3
. . . . . . . . . . . . . . . . . . . .
 72
    65
 73
     2
 40
0.2
 49
0.1
 74
     0
 49
-0.1
 74
     0
  0
LTYPE
  5
1F9
330
5
100
AcDbSymbolTableRecord
100
AcDbLinetypeTableRecord
  2
DASHED
 70
     0
  3
- - - - - - - - - - - - - - - - - - - -
 72
    65
 73
     2
 40
0.2
 49
0.1
 74
     0
 49
-0.1
 74
     0
  0
ENDTAB
  0
TABLE
  2
LAYER
  5
2
330
0
100
AcDbSymbolTable
 70
    26
  0
LAYER
  5
10
330
2
100
AcDbSymbolTableRecord
100
AcDbLayerTableRecord
  2
0
 70
     0
 62
     7
  6
CONTINUOUS
370
    -3
390
F
347
3A4
348
0
  0
LAYER
  5
1FA
330
2
100
AcDbSymbolTableRecord
100
AcDbLayerTableRecord
  2
DEFAULT_1
 70
     0
 62
     7
  6
CENTER
370
    -3
390
F
347
3A4
348
0
  0
LAYER
  5
1FB
330
2
100
AcDbSymbolTableRecord
100
AcDbLayerTableRecord
  2
DEFAULT_2
 70
     0
 62
     8
  6
HIDDEN
370
    -3
390
F
347
3A4
348
0
  0
LAYER
  5
1FC
330
2
100
AcDbSymbolTableRecord
100
AcDbLayerTableRecord
  2
DEFAULT_3
 70
     0
 62
     7
  6
PHANTOM
370
    -3
390
F
347
3A4
348
0
  0
LAYER
  5
1FD
330
2
100
AcDbSymbolTableRecord
100
AcDbLayerTableRecord
  2
01___PRT_ALL_DTM_PLN
 70
     0
 62
     7
  6
CONTINUOUS
370
    -3
390
F
347
3A4
348
0
  0
LAYER
  5
1FE
330
2
100
AcDbSymbolTableRecord
100
AcDbLayerTableRecord
  2
01___PRT_DEF_DTM_PLN
 70
     0
 62
     7
  6
CONTINUOUS
370
    -3
390
F
347
3A4
348
0
  0
LAYER
  5
1FF
330
2
100
AcDbSymbolTableRecord
100
AcDbLayerTableRecord
  2
02___PRT_ALL_AXES
 70
     0
 62
     7
  6
CONTINUOUS
370
    -3
390
F
347
3A4
348
0
  0
LAYER
  5
200
330
2
100
AcDbSymbolTableRecord
100
AcDbLayerTableRecord
  2
03___PRT_ALL_CURVES
 70
     0
 62
     7
  6
CONTINUOUS
370
    -3
390
F
347
3A4
348
0
  0
LAYER
  5
201
330
2
100
AcDbSymbolTableRecord
100
AcDbLayerTableRecord
  2
04___PRT_ALL_DTM_PNT
 70
     0
 62
     7
  6
CONTINUOUS
370
    -3
390
F
347
3A4
348
0
  0
LAYER
  5
202
330
2
100
AcDbSymbolTableRecord
100
AcDbLayerTableRecord
  2
05___PRT_ALL_DTM_CSYS
 70
     0
 62
     7
  6
CONTINUOUS
370
    -3
390
F
347
3A4
348
0
  0
LAYER
  5
203
330
2
100
AcDbSymbolTableRecord
100
AcDbLayerTableRecord
  2
05___PRT_DEF_DTM_CSYS
 70
     0
 62
     7
  6
CONTINUOUS
370
    -3
390
F
347
3A4
348
0
  0
LAYER
  5
204
330
2
100
AcDbSymbolTableRecord
100
AcDbLayerTableRecord
  2
06___PRT_ALL_SURFS
 70
     0
 62
     7
  6
CONTINUOUS
370
    -3
390
F
347
3A4
348
0
  0
LAYER
  5
205
330
2
100
AcDbSymbolTableRecord
100
AcDbLayerTableRecord
  2
1_ALL_PLANES
 70
     0
 62
     7
  6
CONTINUOUS
370
    -3
390
F
347
3A4
348
0
  0
LAYER
  5
206
330
2
100
AcDbSymbolTableRecord
100
AcDbLayerTableRecord
  2
2_ALL_CSYS
 70
     0
 62
     7
  6
CONTINUOUS
370
    -3
390
F
347
3A4
348
0
  0
LAYER
  5
207
330
2
100
AcDbSymbolTableRecord
100
AcDbLayerTableRecord
  2
3_ALL_AXES
 70
     0
 62
     7
  6
CONTINUOUS
370
    -3
390
F
347
3A4
348
0
  0
LAYER
  5
208
330
2
100
AcDbSymbolTableRecord
100
AcDbLayerTableRecord
  2
4_ALL_POINTS
 70
     0
 62
     7
  6
CONTINUOUS
370
    -3
390
F
347
3A4
348
0
  0
LAYER
  5
209
330
2
100
AcDbSymbolTableRecord
100
AcDbLayerTableRecord
  2
5_ALL_CURVES
 70
     0
 62
     7
  6
CONTINUOUS
370
    -3
390
F
347
3A4
348
0
  0
LAYER
  5
20A
330
2
100
AcDbSymbolTableRecord
100
AcDbLayerTableRecord
  2
6_ALL_SURFS
 70
     0
 62
     7
  6
CONTINUOUS
370
    -3
390
F
347
3A4
348
0
  0
LAYER
  5
20B
330
2
100
AcDbSymbolTableRecord
100
AcDbLayerTableRecord
  2
7_ALL_FEATURES
 70
     0
 62
     7
  6
CONTINUOUS
370
    -3
390
F
347
3A4
348
0
  0
LAYER
  5
20C
330
2
100
AcDbSymbolTableRecord
100
AcDbLayerTableRecord
  2
9_SOLID
 70
     0
 62
     7
  6
CONTINUOUS
370
    -3
390
F
347
3A4
348
0
  0
LAYER
  5
20D
330
2
100
AcDbSymbolTableRecord
100
AcDbLayerTableRecord
  2
INTFCLR_4
 70
     0
 62
     7
  6
CONTINUOUS
370
    -3
390
F
347
3A4
348
0
  0
LAYER
  5
20E
330
2
100
AcDbSymbolTableRecord
100
AcDbLayerTableRecord
  2
INTFCLR_6
 70
     0
 62
     7
  6
CONTINUOUS
370
    -3
390
F
347
3A4
348
0
  0
LAYER
  5
20F
330
2
100
AcDbSymbolTableRecord
100
AcDbLayerTableRecord
  2
INTFCLR_8
 70
     0
 62
     7
  6
CONTINUOUS
370
    -3
390
F
347
3A4
348
0
  0
LAYER
  5
210
330
2
100
AcDbSymbolTableRecord
100
AcDbLayerTableRecord
  2
INTFCLR_9
 70
     0
 62
     7
  6
CONTINUOUS
370
    -3
390
F
347
3A4
348
0
  0
LAYER
  5
211
330
2
100
AcDbSymbolTableRecord
100
AcDbLayerTableRecord
  2
INTF_BLUE
 70
     0
 62
     7
  6
CONTINUOUS
370
    -3
390
F
347
3A4
348
0
  0
LAYER
  5
212
330
2
100
AcDbSymbolTableRecord
100
AcDbLayerTableRecord
  2
INTF_CYAN
 70
     0
 62
     7
  6
CONTINUOUS
370
    -3
390
F
347
3A4
348
0
  0
ENDTAB
  0
TABLE
  2
STYLE
  5
3
330
0
100
AcDbSymbolTable
 70
     4
  0
STYLE
  5
11
330
3
100
AcDbSymbolTableRecord
100
AcDbTextStyleTableRecord
  2
STANDARD
 70
     0
 40
0.0
 41
1.0
 50
0.0
 71
     0
 42
0.2
  3
arial.ttf
  4

  0
STYLE
  5
213
330
3
100
AcDbSymbolTableRecord
100
AcDbTextStyleTableRecord
  2
TEXTSTYLE_1
 70
     0
 40
0.0
 41
0.8
 50
0.0
 71
     0
 42
0.2
  3
gdt
  4

  0
STYLE
  5
214
330
3
100
AcDbSymbolTableRecord
100
AcDbTextStyleTableRecord
  2
TEXTSTYLE_2
 70
     0
 40
0.0
 41
0.85
 50
0.0
 71
     0
 42
0.2
  3
gdt
  4

  0
STYLE
  5
215
330
3
100
AcDbSymbolTableRecord
100
AcDbTextStyleTableRecord
  2
TEXTSTYLE_3
 70
     0
 40
0.0
 41
0.85
 50
0.0
 71
     0
 42
0.2
  3
txt
  4

  0
ENDTAB
  0
TABLE
  2
VIEW
  5
6
330
0
100
AcDbSymbolTable
 70
     0
  0
ENDTAB
  0
TABLE
  2
UCS
  5
7
330
0
100
AcDbSymbolTable
 70
     0
  0
ENDTAB
  0
TABLE
  2
APPID
  5
9
330
0
100
AcDbSymbolTable
 70
     1
  0
APPID
  5
216
330
9
100
AcDbSymbolTableRecord
100
AcDbRegAppTableRecord
  2
ACAD
 70
     0
  0
ENDTAB
  0
TABLE
  2
DIMSTYLE
  5
A
330
0
100
AcDbSymbolTable
 70
     4
100
AcDbDimStyleTable
  0
DIMSTYLE
105
21F
330
A
100
AcDbSymbolTableRecord
100
AcDbDimStyleTableRecord
  2
STANDARD
 70
     0
 41
2.5
 42
0.75
 44
0.75
 47
0.01
 48
0.01
 71
     1
 73
     0
 74
     0
 77
     1
 78
     8
 79
     2
140
3.0
147
0.625
171
     1
178
     0
179
     2
271
     2
272
     2
278
    44
284
     8
340
11
341
219
342
219
343
219
344
219
  0
DIMSTYLE
105
220
330
A
100
AcDbSymbolTableRecord
100
AcDbDimStyleTableRecord
  2
DIMSTYLE_1
 70
     0
 41
2.5
 42
0.75
 44
0.75
 47
0.2
 48
0.2
 73
     0
 74
     0
 77
     1
 78
     8
 79
     2
140
3.0
147
0.75
171
     1
178
     0
179
     2
271
     2
272
     2
278
    44
284
     8
340
11
341
219
342
219
343
219
344
219
  0
DIMSTYLE
105
221
330
A
100
AcDbSymbolTableRecord
100
AcDbDimStyleTableRecord
  2
DIMSTYLE_2
 70
     0
 41
2.5
 42
0.75
 44
0.75
 47
0.3
 48
0.3
 73
     0
 74
     0
 77
     1
 78
     8
 79
     2
140
3.0
147
0.75
171
     1
178
     0
179
     2
271
     2
272
     2
278
    44
284
     8
340
11
341
219
342
219
343
219
344
219
  0
DIMSTYLE
105
222
330
A
100
AcDbSymbolTableRecord
100
AcDbDimStyleTableRecord
  2
DIMSTYLE_3
 70
     0
  3
<>
 41
2.5
 42
0.75
 44
0.75
 47
0.2
 48
0.2
 73
     0
 74
     0
 77
     1
 78
     8
 79
     2
140
3.0
147
0.625
171
     1
172
     1
178
     0
179
     2
271
     2
272
     2
278
    44
284
     8
288
     1
289
     2
340
11
341
219
342
219
343
219
344
219
  0
ENDTAB
  0
TABLE
  2
BLOCK_RECORD
  5
1
330
0
100
AcDbSymbolTable
 70
     6
  0
BLOCK_RECORD
  5
217
330
1
100
AcDbSymbolTableRecord
100
AcDbBlockTableRecord
  2
*Model_Space
340
361
 70
     0
280
     1
281
     0
  0
BLOCK_RECORD
  5
218
330
1
100
AcDbSymbolTableRecord
100
AcDbBlockTableRecord
  2
*Paper_Space
340
362
 70
     0
280
     1
281
     0
  0
BLOCK_RECORD
  5
219
330
1
100
AcDbSymbolTableRecord
100
AcDbBlockTableRecord
  2
_CLOSED
340
0
102
{BLKREFS
331
26B
331
26C
331
274
331
275
331
27A
102
}
 70
     0
280
     1
281
     0
  0
BLOCK_RECORD
  5
21A
330
1
100
AcDbSymbolTableRecord
100
AcDbBlockTableRecord
  2
*D1
340
0
 70
     0
280
     1
281
     0
  0
BLOCK_RECORD
  5
21B
330
1
100
AcDbSymbolTableRecord
100
AcDbBlockTableRecord
  2
*D2
340
0
 70
     0
280
     1
281
     0
  0
BLOCK_RECORD
  5
21C
330
1
100
AcDbSymbolTableRecord
100
AcDbBlockTableRecord
  2
*D3
340
0
 70
     0
280
     1
281
     0
  0
BLOCK_RECORD
  5
21D
330
1
100
AcDbSymbolTableRecord
100
AcDbBlockTableRecord
  2
LOGO2_BL0
340
0
102
{BLKREFS
331
35E
102
}
 70
     0
280
     1
281
     0
  0
BLOCK_RECORD
  5
21E
330
1
100
AcDbSymbolTableRecord
100
AcDbBlockTableRecord
  2
*T5
340
0
102
{BLKREFS
331
35F
102
}
 70
     0
280
     1
281
     0
  0
ENDTAB
  0
ENDSEC
  0
SECTION
  2
BLOCKS
  0
BLOCK
  5
20
330
217
100
AcDbEntity
  8
0
100
AcDbBlockBegin
  2
*Model_Space
 70
     0
 10
0.0
 20
0.0
 30
0.0
  3
*Model_Space
  1

  0
ENDBLK
  5
21
330
217
100
AcDbEntity
  8
0
100
AcDbBlockEnd
  0
BLOCK
  5
1C
330
218
100
AcDbEntity
 67
     1
  8
0
100
AcDbBlockBegin
  2
*Paper_Space
 70
     0
 10
0.0
 20
0.0
 30
0.0
  3
*Paper_Space
  1

  0
ENDBLK
  5
1D
330
218
100
AcDbEntity
 67
     1
  8
0
100
AcDbBlockEnd
  0
BLOCK
  5
25F
330
219
100
AcDbEntity
  8
0
100
AcDbBlockBegin
  2
_CLOSED
 70
     0
 10
0.0
 20
0.0
 30
0.0
  3
_CLOSED
  1

  0
LINE
  5
260
330
219
100
AcDbEntity
  8
0
  6
ByBlock
 62
     0
100
AcDbLine
 10
0.0
 20
0.0
 30
0.0
 11
-1.0
 21
0.2
 31
0.0
  0
LINE
  5
261
330
219
100
AcDbEntity
  8
0
  6
ByBlock
 62
     0
100
AcDbLine
 10
-1.0
 20
0.2
 30
0.0
 11
-1.0
 21
-0.2
 31
0.0
  0
LINE
  5
262
330
219
100
AcDbEntity
  8
0
  6
ByBlock
 62
     0
100
AcDbLine
 10
-1.0
 20
-0.2
 30
0.0
 11
0.0
 21
0.0
 31
0.0
  0
LINE
  5
263
330
219
100
AcDbEntity
  8
0
  6
ByBlock
 62
     0
100
AcDbLine
 10
-1.0
 20
0.0
 30
0.0
 11
0.0
 21
0.0
 31
0.0
  0
ENDBLK
  5
264
330
219
100
AcDbEntity
  8
0
  6
ByBlock
 62
     0
100
AcDbBlockEnd
  0
BLOCK
  5
265
330
21A
100
AcDbEntity
  8
0
100
AcDbBlockBegin
  2
*D1
 70
     1
 10
0.0
 20
0.0
 30
0.0
  3
*D1
  1

  0
MTEXT
  5
266
330
21A
100
AcDbEntity
  8
0
  6
Continuous
 62
     2
100
AcDbMText
 10
154.5952948839
 20
136.0223355117
 30
0.0
 40
3.0
 41
10.4832713755
 46
0.0
 71
     2
 72
     1
  1
25,15
 11
0.0
 21
1.0
 31
0.0
 73
     1
 44
0.9
  0
LINE
  5
267
330
21A
100
AcDbEntity
  8
0
  6
Continuous
 62
     2
100
AcDbLine
 10
140.8604510957
 20
148.5973355117
 30
0.0
 11
159.0952948839
 21
148.5973355117
 31
0.0
  0
LINE
  5
268
330
21A
100
AcDbEntity
  8
0
  6
Continuous
 62
     2
100
AcDbLine
 10
146.62833995
 20
123.4473355117
 30
0.0
 11
159.0952948839
 21
123.4473355117
 31
0.0
  0
LINE
  5
269
330
21A
100
AcDbEntity
  8
0
  6
Continuous
 62
     2
100
AcDbLine
 10
158.3452948839
 20
148.5973355117
 30
0.0
 11
158.3452948839
 21
136.0223355117
 31
0.0
  0
LINE
  5
26A
330
21A
100
AcDbEntity
  8
0
  6
Continuous
 62
     2
100
AcDbLine
 10
158.3452948839
 20
123.4473355117
 30
0.0
 11
158.3452948839
 21
136.0223355117
 31
0.0
  0
INSERT
  5
26B
330
21A
100
AcDbEntity
  8
0
  6
Continuous
 62
     2
100
AcDbBlockReference
  2
_CLOSED
 10
158.3452948839
 20
148.5973355117
 30
0.0
 41
2.5
 42
2.5
 43
2.5
 50
90.0
  0
INSERT
  5
26C
330
21A
100
AcDbEntity
  8
0
  6
Continuous
 62
     2
100
AcDbBlockReference
  2
_CLOSED
 10
158.3452948839
 20
123.4473355117
 30
0.0
 41
2.5
 42
2.5
 43
2.5
 50
270.0
  0
ENDBLK
  5
26D
330
21A
100
AcDbEntity
  8
0
  6
ByBlock
 62
     0
100
AcDbBlockEnd
  0
BLOCK
  5
26E
330
21B
100
AcDbEntity
  8
0
100
AcDbBlockBegin
  2
*D2
 70
     1
 10
0.0
 20
0.0
 30
0.0
  3
*D2
  1

  0
MTEXT
  5
26F
330
21B
100
AcDbEntity
  8
0
  6
Continuous
 62
     2
100
AcDbMText
 10
115.6044831758
 20
96.9241281609
 30
0.0
 40
3.0
 41
24.6802973978
 46
0.0
 71
     2
 72
     1
  1
55,25 - 47,75
 73
     1
 44
0.9
  0
LINE
  5
270
330
21B
100
AcDbEntity
  8
0
  6
Continuous
 62
     2
100
AcDbLine
 10
87.9794831758
 20
86.0268936541
 30
0.0
 11
87.9794831758
 21
93.9241281609
 31
0.0
  0
LINE
  5
271
330
21B
100
AcDbEntity
  8
0
  6
Continuous
 62
     2
100
AcDbLine
 10
143.2294831758
 20
84.7581044216
 30
0.0
 11
143.2294831758
 21
93.9241281609
 31
0.0
  0
LINE
  5
272
330
21B
100
AcDbEntity
  8
0
  6
Continuous
 62
     2
100
AcDbLine
 10
87.9794831758
 20
93.1741281609
 30
0.0
 11
115.6044831758
 21
93.1741281609
 31
0.0
  0
LINE
  5
273
330
21B
100
AcDbEntity
  8
0
  6
Continuous
 62
     2
100
AcDbLine
 10
143.2294831758
 20
93.1741281609
 30
0.0
 11
115.6044831758
 21
93.1741281609
 31
0.0
  0
INSERT
  5
274
330
21B
100
AcDbEntity
  8
0
  6
Continuous
 62
     2
100
AcDbBlockReference
  2
_CLOSED
 10
87.9794831758
 20
93.1741281609
 30
0.0
 41
2.5
 42
2.5
 43
2.5
 50
180.0
  0
INSERT
  5
275
330
21B
100
AcDbEntity
  8
0
  6
Continuous
 62
     2
100
AcDbBlockReference
  2
_CLOSED
 10
143.2294831758
 20
93.1741281609
 30
0.0
 41
2.5
 42
2.5
 43
2.5
  0
ENDBLK
  5
276
330
21B
100
AcDbEntity
  8
0
  6
ByBlock
 62
     0
100
AcDbBlockEnd
  0
BLOCK
  5
277
330
21C
100
AcDbEntity
  8
0
100
AcDbBlockBegin
  2
*D3
 70
     1
 10
0.0
 20
0.0
 30
0.0
  3
*D3
  1

  0
MTEXT
  5
278
330
21C
100
AcDbEntity
  8
0
  6
Continuous
 62
     2
100
AcDbMText
 10
197.4394223418
 20
149.172950823
 30
0.0
 40
3.0
 41
12.1524163569
 46
0.0
 71
     1
 72
     1
  1
{\Fgdt;n}\Farial.ttf;18,3
  7
TEXTSTYLE_2
 11
0.8981329978
 21
0.4397239114
 31
0.0
 73
     1
 44
0.9
  0
LINE
  5
279
330
21C
100
AcDbEntity
  8
0
  6
Continuous
 62
     2
100
AcDbLine
 10
194.3209167907
 20
143.4708093012
 30
0.0
 11
210.0028731427
 21
151.148660135
 31
0.0
  0
INSERT
  5
27A
330
21C
100
AcDbEntity
  8
0
  6
Continuous
 62
     2
100
AcDbBlockReference
  2
_CLOSED
 10
194.3209167907
 20
143.4708093012
 30
0.0
 41
2.5
 42
2.5
 43
2.5
 50
206.08626693
  0
ENDBLK
  5
27B
330
21C
100
AcDbEntity
  8
0
  6
ByBlock
 62
     0
100
AcDbBlockEnd
  0
BLOCK
  5
223
330
21D
100
AcDbEntity
  8
0
100
AcDbBlockBegin
  2
LOGO2_BL0
 70
     0
 10
207.8284587569
 20
39.54351784
 30
0.0
  3
LOGO2_BL0
  1

  0
LINE
  5
224
330
21D
100
AcDbEntity
  8
0
  6
Continuous
 62
     7
100
AcDbLine
 10
199.5713839852
 20
42.7390091789
 30
0.0
 11
198.2670430558
 21
42.7390091789
 31
0.0
  0
LINE
  5
225
330
21D
100
AcDbEntity
  8
0
  6
Continuous
 62
     7
100
AcDbLine
 10
198.2670430558
 20
42.7390091789
 30
0.0
 11
198.2670430558
 21
32.279943119
 31
0.0
  0
LINE
  5
226
330
21D
100
AcDbEntity
  8
0
  6
Continuous
 62
     7
100
AcDbLine
 10
198.2670430558
 20
32.279943119
 30
0.0
 11
202.7480979441
 21
32.279943119
 31
0.0
  0
LINE
  5
227
330
21D
100
AcDbEntity
  8
0
  6
Continuous
 62
     7
100
AcDbLine
 10
202.7480979441
 20
32.279943119
 30
0.0
 11
202.7480979441
 21
33.472797444
 31
0.0
  0
LINE
  5
228
330
21D
100
AcDbEntity
  8
0
  6
Continuous
 62
     7
100
AcDbLine
 10
202.7480979441
 20
33.472797444
 30
0.0
 11
199.5713839852
 21
33.472797444
 31
0.0
  0
LINE
  5
229
330
21D
100
AcDbEntity
  8
0
  6
Continuous
 62
     7
100
AcDbLine
 10
199.5713839852
 20
33.472797444
 30
0.0
 11
199.5713839852
 21
42.7390091789
 31
0.0
  0
LINE
  5
22A
330
21D
100
AcDbEntity
  8
0
  6
Continuous
 62
     7
100
AcDbLine
 10
214.5077102015
 20
42.7390091789
 30
0.0
 11
213.2038926834
 21
42.7390091789
 31
0.0
  0
LINE
  5
22B
330
21D
100
AcDbEntity
  8
0
  6
Continuous
 62
     7
100
AcDbLine
 10
213.2038926834
 20
42.7390091789
 30
0.0
 11
213.2038926834
 21
32.279943119
 31
0.0
  0
LINE
  5
22C
330
21D
100
AcDbEntity
  8
0
  6
Continuous
 62
     7
100
AcDbLine
 10
213.2038926834
 20
32.279943119
 30
0.0
 11
217.6850784245
 21
32.279943119
 31
0.0
  0
LINE
  5
22D
330
21D
100
AcDbEntity
  8
0
  6
Continuous
 62
     7
100
AcDbLine
 10
217.6850784245
 20
32.279943119
 30
0.0
 11
217.6850784245
 21
33.472797444
 31
0.0
  0
LINE
  5
22E
330
21D
100
AcDbEntity
  8
0
  6
Continuous
 62
     7
100
AcDbLine
 10
217.6850784245
 20
33.472797444
 30
0.0
 11
214.5077102015
 21
33.472797444
 31
0.0
  0
LINE
  5
22F
330
21D
100
AcDbEntity
  8
0
  6
Continuous
 62
     7
100
AcDbLine
 10
214.5077102015
 20
33.472797444
 30
0.0
 11
214.5077102015
 21
42.7390091789
 31
0.0
  0
LWPOLYLINE
  5
230
330
21D
100
AcDbEntity
  8
0
  6
Continuous
 62
     7
100
AcDbPolyline
 90
        2
 70
     0
 43
0.2
 10
196.6214379667
 20
28.9363918121
 10
196.6214379667
 20
27.0793285627
  0
LWPOLYLINE
  5
231
330
21D
100
AcDbEntity
  8
0
  6
Continuous
 62
     7
100
AcDbPolyline
 90
        2
 70
     0
 43
0.2
 10
196.6214379667
 20
27.0793285627
 10
197.4171539771
 20
27.0793285627
  0
LWPOLYLINE
  5
232
330
21D
100
AcDbEntity
  8
0
  6
Continuous
 62
     7
100
AcDbPolyline
 90
        2
 70
     0
 43
0.2
 10
197.4171539771
 20
27.0793285627
 10
197.4171539771
 20
27.2913101343
  0
LWPOLYLINE
  5
233
330
21D
100
AcDbEntity
  8
0
  6
Continuous
 62
     7
100
AcDbPolyline
 90
        2
 70
     0
 43
0.2
 10
197.4171539771
 20
27.2913101343
 10
196.8530474616
 20
27.2913101343
  0
LWPOLYLINE
  5
234
330
21D
100
AcDbEntity
  8
0
  6
Continuous
 62
     7
100
AcDbPolyline
 90
        2
 70
     0
 43
0.2
 10
196.8530474616
 20
27.2913101343
 10
196.8530474616
 20
28.9363918121
  0
LWPOLYLINE
  5
235
330
21D
100
AcDbEntity
  8
0
  6
Continuous
 62
     7
100
AcDbPolyline
 90
        2
 70
     0
 43
0.2
 10
196.8530474616
 20
28.9363918121
 10
196.6214379667
 20
28.9363918121
  0
SPLINE
  5
236
330
21D
100
AcDbEntity
  8
0
  6
Continuous
 62
     7
100
AcDbSpline
 70
     3
 71
     3
 72
    35
 73
    31
 74
     0
 42
0.000000001
 43
0.0000001
 40
0.0
 40
0.0
 40
0.0
 40
0.0
 40
1.0
 40
1.0
 40
1.0
 40
2.0
 40
2.0
 40
2.0
 40
3.0
 40
3.0
 40
3.0
 40
4.0
 40
4.0
 40
4.0
 40
5.0
 40
5.0
 40
5.0
 40
6.0
 40
6.0
 40
6.0
 40
7.0
 40
7.0
 40
7.0
 40
8.0
 40
8.0
 40
8.0
 40
9.0
 40
9.0
 40
9.0
 40
10.0
 40
10.0
 40
10.0
 40
10.0
 10
198.8154472326
 20
28.2318802186
 30
0.0
 10
198.8154472326
 20
28.2318802186
 30
0.0
 10
198.8154472326
 20
27.5697649394
 30
0.0
 10
198.8154472326
 20
27.5697649394
 30
0.0
 10
198.8154472326
 20
27.2546713441
 30
0.0
 10
198.9633109215
 20
27.0400727161
 30
0.0
 10
199.3033974058
 20
27.0400727161
 30
0.0
 10
199.6429604788
 20
27.0400727161
 30
0.0
 10
199.7910858732
 20
27.2546713441
 30
0.0
 10
199.7910858732
 20
27.5697649394
 30
0.0
 10
199.7910858732
 20
27.5697649394
 30
0.0
 10
199.7910858732
 20
28.2318802186
 30
0.0
 10
199.7910858732
 20
28.2318802186
 30
0.0
 10
199.7910858732
 20
28.2318802186
 30
0.0
 10
199.5690286344
 20
28.2318802186
 30
0.0
 10
199.5690286344
 20
28.2318802186
 30
0.0
 10
199.5690286344
 20
28.2318802186
 30
0.0
 10
199.5690286344
 20
27.5948886813
 30
0.0
 10
199.5690286344
 20
27.5948886813
 30
0.0
 10
199.5690286344
 20
27.4090776741
 30
0.0
 10
199.5223141769
 20
27.2462967635
 30
0.0
 10
199.3033974058
 20
27.2462967635
 30
0.0
 10
199.0839572233
 20
27.2462967635
 30
0.0
 10
199.0372427659
 20
27.4090776741
 30
0.0
 10
199.0372427659
 20
27.5948886813
 30
0.0
 10
199.0372427659
 20
27.5948886813
 30
0.0
 10
199.0372427659
 20
28.2318802186
 30
0.0
 10
199.0372427659
 20
28.2318802186
 30
0.0
 10
199.0372427659
 20
28.2318802186
 30
0.0
 10
198.8154472326
 20
28.2318802186
 30
0.0
 10
198.8154472326
 20
28.2318802186
 30
0.0
  0
SPLINE
  5
237
330
21D
100
AcDbEntity
  8
0
  6
Continuous
 62
     7
100
AcDbSpline
 70
     3
 71
     3
 72
    35
 73
    31
 74
     0
 42
0.000000001
 43
0.0000001
 40
0.0
 40
0.0
 40
0.0
 40
0.0
 40
1.0
 40
1.0
 40
1.0
 40
2.0
 40
2.0
 40
2.0
 40
3.0
 40
3.0
 40
3.0
 40
4.0
 40
4.0
 40
4.0
 40
5.0
 40
5.0
 40
5.0
 40
6.0
 40
6.0
 40
6.0
 40
7.0
 40
7.0
 40
7.0
 40
8.0
 40
8.0
 40
8.0
 40
9.0
 40
9.0
 40
9.0
 40
10.0
 40
10.0
 40
10.0
 40
10.0
 10
202.2142184304
 20
28.1905307269
 30
0.0
 10
202.1257619228
 20
28.2418250331
 30
0.0
 10
202.0123125261
 20
28.2669487749
 30
0.0
 10
201.9086770911
 20
28.2669487749
 30
0.0
 10
201.553804238
 20
28.2669487749
 30
0.0
 10
201.2783590477
 20
28.0031494858
 30
0.0
 10
201.2783590477
 20
27.6456595762
 30
0.0
 10
201.2783590477
 20
27.3007315375
 30
0.0
 10
201.5568138529
 20
27.0405961274
 30
0.0
 10
201.8963769259
 20
27.0405961274
 30
0.0
 10
202.0123125261
 20
27.0405961274
 30
0.0
 10
202.113069199
 20
27.0625794015
 30
0.0
 10
202.2142184304
 20
27.1164907641
 30
0.0
 10
202.2142184304
 20
27.1164907641
 30
0.0
 10
202.2142184304
 20
27.3991328596
 30
0.0
 10
202.2142184304
 20
27.3991328596
 30
0.0
 10
202.1303417715
 20
27.3059656504
 30
0.0
 10
202.0268371894
 20
27.2468201748
 30
0.0
 10
201.8987322767
 20
27.2468201748
 30
0.0
 10
201.6650291366
 20
27.2468201748
 30
0.0
 10
201.4997620225
 20
27.4190224885
 30
0.0
 10
201.4997620225
 20
27.6556043907
 30
0.0
 10
201.4997620225
 20
27.8675859622
 30
0.0
 10
201.6675153402
 20
28.0596779049
 30
0.0
 10
201.8843384662
 20
28.0596779049
 30
0.0
 10
202.0171540805
 20
28.0596779049
 30
0.0
 10
202.1257619228
 20
28.0057665422
 30
0.0
 10
202.2142184304
 20
27.9047481637
 30
0.0
 10
202.2142184304
 20
27.9047481637
 30
0.0
 10
202.2142184304
 20
28.1905307269
 30
0.0
 10
202.2142184304
 20
28.1905307269
 30
0.0
  0
SPLINE
  5
238
330
21D
100
AcDbEntity
  8
0
  6
Continuous
 62
     7
100
AcDbSpline
 70
     3
 71
     3
 72
    32
 73
    28
 74
     0
 42
0.000000001
 43
0.0000001
 40
0.0
 40
0.0
 40
0.0
 40
0.0
 40
1.0
 40
1.0
 40
1.0
 40
2.0
 40
2.0
 40
2.0
 40
3.0
 40
3.0
 40
3.0
 40
4.0
 40
4.0
 40
4.0
 40
5.0
 40
5.0
 40
5.0
 40
6.0
 40
6.0
 40
6.0
 40
7.0
 40
7.0
 40
7.0
 40
8.0
 40
8.0
 40
8.0
 40
9.0
 40
9.0
 40
9.0
 40
9.0
 10
204.7460896827
 20
27.6189656005
 30
0.0
 10
204.7460896827
 20
27.6189656005
 30
0.0
 10
204.7460896827
 20
27.6529873342
 30
0.0
 10
204.7460896827
 20
27.6529873342
 30
0.0
 10
204.7460896827
 20
27.9952983165
 30
0.0
 10
204.5732331049
 20
28.2669487749
 30
0.0
 10
204.2065834977
 20
28.2669487749
 30
0.0
 10
203.8349614833
 20
28.2669487749
 30
0.0
 10
203.6452248915
 20
28.0005324294
 30
0.0
 10
203.6452248915
 20
27.6456595762
 30
0.0
 10
203.6452248915
 20
27.3059656504
 30
0.0
 10
203.8593001082
 20
27.0400727161
 30
0.0
 10
204.2114250521
 20
27.0400727161
 30
0.0
 10
204.4354450833
 20
27.0400727161
 30
0.0
 10
204.6376126933
 20
27.1557466107
 30
0.0
 10
204.7460896827
 20
27.3551663114
 30
0.0
 10
204.7460896827
 20
27.3551663114
 30
0.0
 10
204.558446736
 20
27.4619422141
 30
0.0
 10
204.558446736
 20
27.4619422141
 30
0.0
 10
204.4749626356
 20
27.3232382229
 30
0.0
 10
204.3837582186
 20
27.2373987716
 30
0.0
 10
204.2141729614
 20
27.2373987716
 30
0.0
 10
204.0021913898
 20
27.2373987716
 30
0.0
 10
203.8692449227
 20
27.4221629563
 30
0.0
 10
203.8668895719
 20
27.6189656005
 30
0.0
 10
203.8668895719
 20
27.6189656005
 30
0.0
 10
204.7460896827
 20
27.6189656005
 30
0.0
 10
204.7460896827
 20
27.6189656005
 30
0.0
  0
SPLINE
  5
239
330
21D
100
AcDbEntity
  8
0
  6
Continuous
 62
     7
100
AcDbSpline
 70
     3
 71
     3
 72
    14
 73
    10
 74
     0
 42
0.000000001
 43
0.0000001
 40
0.0
 40
0.0
 40
0.0
 40
0.0
 40
1.0
 40
1.0
 40
1.0
 40
2.0
 40
2.0
 40
2.0
 40
3.0
 40
3.0
 40
3.0
 40
3.0
 10
203.8789280315
 20
27.7864572126
 30
0.0
 10
203.9065379769
 20
27.9513317683
 30
0.0
 10
204.034381184
 20
28.0743334209
 30
0.0
 10
204.2065834977
 20
28.0743334209
 30
0.0
 10
204.3837582186
 20
28.0743334209
 30
0.0
 10
204.4972076153
 20
27.9586595263
 30
0.0
 10
204.5244250023
 20
27.7864572126
 30
0.0
 10
204.5244250023
 20
27.7864572126
 30
0.0
 10
203.8789280315
 20
27.7864572126
 30
0.0
 10
203.8789280315
 20
27.7864572126
 30
0.0
  0
SPLINE
  5
23A
330
21D
100
AcDbEntity
  8
0
  6
Continuous
 62
     7
100
AcDbSpline
 70
     3
 71
     3
 72
    20
 73
    16
 74
     0
 42
0.000000001
 43
0.0000001
 40
0.0
 40
0.0
 40
0.0
 40
0.0
 40
1.0
 40
1.0
 40
1.0
 40
2.0
 40
2.0
 40
2.0
 40
3.0
 40
3.0
 40
3.0
 40
4.0
 40
4.0
 40
4.0
 40
5.0
 40
5.0
 40
5.0
 40
5.0
 10
206.7701211329
 20
27.9958217278
 30
0.0
 10
206.7701211329
 20
27.9958217278
 30
0.0
 10
207.1812606995
 20
27.4933468914
 30
0.0
 10
207.1812606995
 20
27.4933468914
 30
0.0
 10
207.0651942464
 20
27.3776729968
 30
0.0
 10
206.9274062249
 20
27.2473435861
 30
0.0
 10
206.7554656168
 20
27.2473435861
 30
0.0
 10
206.5780291902
 20
27.2473435861
 30
0.0
 10
206.4105375781
 20
27.4116947305
 30
0.0
 10
206.4105375781
 20
27.5886077458
 30
0.0
 10
206.4105375781
 20
27.7665675837
 30
0.0
 10
206.6202946517
 20
27.8927097041
 30
0.0
 10
206.7478761531
 20
27.9806428004
 30
0.0
 10
206.7478761531
 20
27.9806428004
 30
0.0
 10
206.7701211329
 20
27.9958217278
 30
0.0
 10
206.7701211329
 20
27.9958217278
 30
0.0
  0
SPLINE
  5
23B
330
21D
100
AcDbEntity
  8
0
  6
Continuous
 62
     7
100
AcDbSpline
 70
     3
 71
     3
 72
    23
 73
    19
 74
     0
 42
0.000000001
 43
0.0000001
 40
0.0
 40
0.0
 40
0.0
 40
0.0
 40
1.0
 40
1.0
 40
1.0
 40
2.0
 40
2.0
 40
2.0
 40
3.0
 40
3.0
 40
3.0
 40
4.0
 40
4.0
 40
4.0
 40
5.0
 40
5.0
 40
5.0
 40
6.0
 40
6.0
 40
6.0
 40
6.0
 10
206.8194526468
 20
28.2868384038
 30
0.0
 10
206.8194526468
 20
28.2868384038
 30
0.0
 10
206.7578209676
 20
28.365350097
 30
0.0
 10
206.7578209676
 20
28.365350097
 30
0.0
 10
206.703909605
 20
28.4339169757
 30
0.0
 10
206.6471194802
 20
28.5030072657
 30
0.0
 10
206.6471194802
 20
28.5966978862
 30
0.0
 10
206.6471194802
 20
28.7155122486
 30
0.0
 10
206.7430345987
 20
28.7929771192
 30
0.0
 10
206.8539977918
 20
28.7929771192
 30
0.0
 10
206.97726115
 20
28.7929771192
 30
0.0
 10
207.0705592121
 20
28.721793184
 30
0.0
 10
207.0705592121
 20
28.5914637734
 30
0.0
 10
207.0705592121
 20
28.4564236611
 30
0.0
 10
206.9424542994
 20
28.3800056131
 30
0.0
 10
206.8488945317
 20
28.3062046215
 30
0.0
 10
206.8488945317
 20
28.3062046215
 30
0.0
 10
206.8194526468
 20
28.2868384038
 30
0.0
 10
206.8194526468
 20
28.2868384038
 30
0.0
  0
SPLINE
  5
23C
330
21D
100
AcDbEntity
  8
0
  6
Continuous
 62
     7
100
AcDbSpline
 70
     3
 71
     3
 72
    50
 73
    46
 74
     0
 42
0.000000001
 43
0.0000001
 40
0.0
 40
0.0
 40
0.0
 40
0.0
 40
1.0
 40
1.0
 40
1.0
 40
2.0
 40
2.0
 40
2.0
 40
3.0
 40
3.0
 40
3.0
 40
4.0
 40
4.0
 40
4.0
 40
5.0
 40
5.0
 40
5.0
 40
6.0
 40
6.0
 40
6.0
 40
7.0
 40
7.0
 40
7.0
 40
8.0
 40
8.0
 40
8.0
 40
9.0
 40
9.0
 40
9.0
 40
10.0
 40
10.0
 40
10.0
 40
11.0
 40
11.0
 40
11.0
 40
12.0
 40
12.0
 40
12.0
 40
13.0
 40
13.0
 40
13.0
 40
14.0
 40
14.0
 40
14.0
 40
15.0
 40
15.0
 40
15.0
 40
15.0
 10
207.5216088894
 20
27.079851974
 30
0.0
 10
207.5216088894
 20
27.079851974
 30
0.0
 10
207.8069988941
 20
27.079851974
 30
0.0
 10
207.8069988941
 20
27.079851974
 30
0.0
 10
207.8069988941
 20
27.079851974
 30
0.0
 10
207.4746327263
 20
27.490729835
 30
0.0
 10
207.4746327263
 20
27.490729835
 30
0.0
 10
207.4746327263
 20
27.490729835
 30
0.0
 10
207.7011389612
 20
27.7566227692
 30
0.0
 10
207.7011389612
 20
27.7566227692
 30
0.0
 10
207.7011389612
 20
27.7566227692
 30
0.0
 10
207.5528827139
 20
27.9094588653
 30
0.0
 10
207.5528827139
 20
27.9094588653
 30
0.0
 10
207.5528827139
 20
27.9094588653
 30
0.0
 10
207.3369755576
 20
27.6582214471
 30
0.0
 10
207.3369755576
 20
27.6582214471
 30
0.0
 10
207.3369755576
 20
27.6582214471
 30
0.0
 10
206.9499129103
 20
28.1261511384
 30
0.0
 10
206.9499129103
 20
28.1261511384
 30
0.0
 10
207.1053660628
 20
28.2402547992
 30
0.0
 10
207.2876440438
 20
28.3800056131
 30
0.0
 10
207.2876440438
 20
28.5893701282
 30
0.0
 10
207.2876440438
 20
28.8332797884
 30
0.0
 10
207.0856072866
 20
28.9766944812
 30
0.0
 10
206.8591010518
 20
28.9766944812
 30
0.0
 10
206.614929686
 20
28.9766944812
 30
0.0
 10
206.4305580599
 20
28.8259520303
 30
0.0
 10
206.4305580599
 20
28.5694804993
 30
0.0
 10
206.4305580599
 20
28.4119337016
 30
0.0
 10
206.5292210876
 20
28.2742765329
 30
0.0
 10
206.6345576093
 20
28.1633133399
 30
0.0
 10
206.6345576093
 20
28.1633133399
 30
0.0
 10
206.5190145675
 20
28.0795675338
 30
0.0
 10
206.5190145675
 20
28.0795675338
 30
0.0
 10
206.3413164353
 20
27.9513317683
 30
0.0
 10
206.1939761577
 20
27.8236194141
 30
0.0
 10
206.1939761577
 20
27.5865141007
 30
0.0
 10
206.1939761577
 20
27.2661863925
 30
0.0
 10
206.452541334
 20
27.0400727161
 30
0.0
 10
206.7629242277
 20
27.0400727161
 30
0.0
 10
206.9818409988
 20
27.0400727161
 30
0.0
 10
207.1790362015
 20
27.1651680139
 30
0.0
 10
207.3193104267
 20
27.3310893922
 30
0.0
 10
207.3193104267
 20
27.3310893922
 30
0.0
 10
207.5216088894
 20
27.079851974
 30
0.0
 10
207.5216088894
 20
27.079851974
 30
0.0
  0
LWPOLYLINE
  5
23D
330
21D
100
AcDbEntity
  8
0
  6
Continuous
 62
     7
100
AcDbPolyline
 90
        2
 70
     0
 43
0.2
 10
209.4570529792
 20
28.9363918121
 10
209.2257051899
 20
28.9363918121
  0
LWPOLYLINE
  5
23E
330
21D
100
AcDbEntity
  8
0
  6
Continuous
 62
     7
100
AcDbPolyline
 90
        2
 70
     0
 43
0.2
 10
209.2257051899
 20
28.9363918121
 10
209.2257051899
 20
27.0793285627
  0
LWPOLYLINE
  5
23F
330
21D
100
AcDbEntity
  8
0
  6
Continuous
 62
     7
100
AcDbPolyline
 90
        2
 70
     0
 43
0.2
 10
209.2257051899
 20
27.0793285627
 10
210.0210286418
 20
27.0793285627
  0
LWPOLYLINE
  5
240
330
21D
100
AcDbEntity
  8
0
  6
Continuous
 62
     7
100
AcDbPolyline
 90
        2
 70
     0
 43
0.2
 10
210.0210286418
 20
27.0793285627
 10
210.0210286418
 20
27.2913101343
  0
LWPOLYLINE
  5
241
330
21D
100
AcDbEntity
  8
0
  6
Continuous
 62
     7
100
AcDbPolyline
 90
        2
 70
     0
 43
0.2
 10
210.0210286418
 20
27.2913101343
 10
209.4570529792
 20
27.2913101343
  0
LWPOLYLINE
  5
242
330
21D
100
AcDbEntity
  8
0
  6
Continuous
 62
     7
100
AcDbPolyline
 90
        2
 70
     0
 43
0.2
 10
209.4570529792
 20
27.2913101343
 10
209.4570529792
 20
28.9363918121
  0
LWPOLYLINE
  5
243
330
21D
100
AcDbEntity
  8
0
  6
Continuous
 62
     7
100
AcDbPolyline
 90
        2
 70
     0
 43
0.2
 10
211.7001320533
 20
28.2318802186
 10
211.4789907842
 20
28.2318802186
  0
LWPOLYLINE
  5
244
330
21D
100
AcDbEntity
  8
0
  6
Continuous
 62
     7
100
AcDbPolyline
 90
        2
 70
     0
 43
0.2
 10
211.4789907842
 20
28.2318802186
 10
211.4789907842
 20
27.079851974
  0
LWPOLYLINE
  5
245
330
21D
100
AcDbEntity
  8
0
  6
Continuous
 62
     7
100
AcDbPolyline
 90
        2
 70
     0
 43
0.2
 10
211.4789907842
 20
27.079851974
 10
211.7001320533
 20
27.079851974
  0
LWPOLYLINE
  5
246
330
21D
100
AcDbEntity
  8
0
  6
Continuous
 62
     7
100
AcDbPolyline
 90
        2
 70
     0
 43
0.2
 10
211.7001320533
 20
27.079851974
 10
211.7001320533
 20
28.2318802186
  0
SPLINE
  5
247
330
21D
100
AcDbEntity
  8
0
  6
Continuous
 62
     7
100
AcDbSpline
 70
     3
 71
     3
 72
    17
 73
    13
 74
     0
 42
0.000000001
 43
0.0000001
 40
0.0
 40
0.0
 40
0.0
 40
0.0
 40
1.0
 40
1.0
 40
1.0
 40
2.0
 40
2.0
 40
2.0
 40
3.0
 40
3.0
 40
3.0
 40
4.0
 40
4.0
 40
4.0
 40
4.0
 10
211.5896922716
 20
28.914408538
 30
0.0
 10
211.5056847599
 20
28.914408538
 30
0.0
 10
211.4371178812
 20
28.845318248
 30
0.0
 10
211.4371178812
 20
28.7594787968
 30
0.0
 10
211.4371178812
 20
28.6752095794
 30
0.0
 10
211.5056847599
 20
28.6092597572
 30
0.0
 10
211.5896922716
 20
28.6092597572
 30
0.0
 10
211.6734380776
 20
28.6092597572
 30
0.0
 10
211.742266662
 20
28.6752095794
 30
0.0
 10
211.742266662
 20
28.7594787968
 30
0.0
 10
211.742266662
 20
28.845318248
 30
0.0
 10
211.6734380776
 20
28.914408538
 30
0.0
 10
211.5896922716
 20
28.914408538
 30
0.0
  0
SPLINE
  5
248
330
21D
100
AcDbEntity
  8
0
  6
Continuous
 62
     7
100
AcDbSpline
 70
     3
 71
     3
 72
    17
 73
    13
 74
     0
 42
0.000000001
 43
0.0000001
 40
0.0
 40
0.0
 40
0.0
 40
0.0
 40
1.0
 40
1.0
 40
1.0
 40
2.0
 40
2.0
 40
2.0
 40
3.0
 40
3.0
 40
3.0
 40
4.0
 40
4.0
 40
4.0
 40
4.0
 10
213.830415995
 20
27.2373987716
 30
0.0
 10
213.5964511493
 20
27.2373987716
 30
0.0
 10
213.4661217386
 20
27.4394355288
 30
0.0
 10
213.4661217386
 20
27.6556043907
 30
0.0
 10
213.4661217386
 20
27.8702030187
 30
0.0
 10
213.6019469678
 20
28.0690993081
 30
0.0
 10
213.830415995
 20
28.0690993081
 30
0.0
 10
214.0698766592
 20
28.0690993081
 30
0.0
 10
214.2054401827
 20
27.8801478331
 30
0.0
 10
214.2054401827
 20
27.6556043907
 30
0.0
 10
214.2054401827
 20
27.4294907143
 30
0.0
 10
214.0722320099
 20
27.2373987716
 30
0.0
 10
213.830415995
 20
27.2373987716
 30
0.0
  0
SPLINE
  5
249
330
21D
100
AcDbEntity
  8
0
  6
Continuous
 62
     7
100
AcDbSpline
 70
     3
 71
     3
 72
    50
 73
    46
 74
     0
 42
0.000000001
 43
0.0000001
 40
0.0
 40
0.0
 40
0.0
 40
0.0
 40
1.0
 40
1.0
 40
1.0
 40
2.0
 40
2.0
 40
2.0
 40
3.0
 40
3.0
 40
3.0
 40
4.0
 40
4.0
 40
4.0
 40
5.0
 40
5.0
 40
5.0
 40
6.0
 40
6.0
 40
6.0
 40
7.0
 40
7.0
 40
7.0
 40
8.0
 40
8.0
 40
8.0
 40
9.0
 40
9.0
 40
9.0
 40
10.0
 40
10.0
 40
10.0
 40
11.0
 40
11.0
 40
11.0
 40
12.0
 40
12.0
 40
12.0
 40
13.0
 40
13.0
 40
13.0
 40
14.0
 40
14.0
 40
14.0
 40
15.0
 40
15.0
 40
15.0
 40
15.0
 10
214.4145429922
 20
28.2324036299
 30
0.0
 10
214.4145429922
 20
28.2324036299
 30
0.0
 10
214.1928783118
 20
28.2324036299
 30
0.0
 10
214.1928783118
 20
28.2324036299
 30
0.0
 10
214.1928783118
 20
28.2324036299
 30
0.0
 10
214.1928783118
 20
28.0350775744
 30
0.0
 10
214.1928783118
 20
28.0350775744
 30
0.0
 10
214.1928783118
 20
28.0350775744
 30
0.0
 10
214.1881676102
 20
28.0350775744
 30
0.0
 10
214.1881676102
 20
28.0350775744
 30
0.0
 10
214.0968323405
 20
28.1779688559
 30
0.0
 10
213.9589134661
 20
28.2664253636
 30
0.0
 10
213.7861877411
 20
28.2664253636
 30
0.0
 10
213.4538215733
 20
28.2664253636
 30
0.0
 10
213.2447187638
 20
27.9785491553
 30
0.0
 10
213.2447187638
 20
27.6629321487
 30
0.0
 10
213.2447187638
 20
27.3331830373
 30
0.0
 10
213.4417831137
 20
27.0400727161
 30
0.0
 10
213.7966559669
 20
27.0400727161
 30
0.0
 10
213.9589134661
 20
27.0400727161
 30
0.0
 10
214.0989259856
 20
27.1285292238
 30
0.0
 10
214.1881676102
 20
27.2593820457
 30
0.0
 10
214.1881676102
 20
27.2593820457
 30
0.0
 10
214.1928783118
 20
27.2593820457
 30
0.0
 10
214.1928783118
 20
27.2593820457
 30
0.0
 10
214.1928783118
 20
27.2593820457
 30
0.0
 10
214.1928783118
 20
27.0400727161
 30
0.0
 10
214.1928783118
 20
27.0400727161
 30
0.0
 10
214.1928783118
 20
26.803490814
 30
0.0
 10
214.1363498927
 20
26.6166329842
 30
0.0
 10
213.8631292004
 20
26.6166329842
 30
0.0
 10
213.6608307377
 20
26.6166329842
 30
0.0
 10
213.5182011617
 20
26.7349239353
 30
0.0
 10
213.5182011617
 20
26.9411479827
 30
0.0
 10
213.5182011617
 20
26.9411479827
 30
0.0
 10
213.2965364813
 20
26.9411479827
 30
0.0
 10
213.2965364813
 20
26.9411479827
 30
0.0
 10
213.3015088886
 20
26.6166329842
 30
0.0
 10
213.5325949722
 20
26.41983034
 30
0.0
 10
213.8529226803
 20
26.41983034
 30
0.0
 10
214.3009627427
 20
26.41983034
 30
0.0
 10
214.4145429922
 20
26.7050894919
 30
0.0
 10
214.4145429922
 20
27.1018352481
 30
0.0
 10
214.4145429922
 20
27.1018352481
 30
0.0
 10
214.4145429922
 20
28.2324036299
 30
0.0
 10
214.4145429922
 20
28.2324036299
 30
0.0
  0
SPLINE
  5
24A
330
21D
100
AcDbEntity
  8
0
  6
Continuous
 62
     7
100
AcDbSpline
 70
     3
 71
     3
 72
    44
 73
    40
 74
     0
 42
0.000000001
 43
0.0000001
 40
0.0
 40
0.0
 40
0.0
 40
0.0
 40
1.0
 40
1.0
 40
1.0
 40
2.0
 40
2.0
 40
2.0
 40
3.0
 40
3.0
 40
3.0
 40
4.0
 40
4.0
 40
4.0
 40
5.0
 40
5.0
 40
5.0
 40
6.0
 40
6.0
 40
6.0
 40
7.0
 40
7.0
 40
7.0
 40
8.0
 40
8.0
 40
8.0
 40
9.0
 40
9.0
 40
9.0
 40
10.0
 40
10.0
 40
10.0
 40
11.0
 40
11.0
 40
11.0
 40
12.0
 40
12.0
 40
12.0
 40
13.0
 40
13.0
 40
13.0
 40
13.0
 10
215.9834683276
 20
29.2174636737
 30
0.0
 10
215.9834683276
 20
29.2174636737
 30
0.0
 10
215.9834683276
 20
27.0793285627
 30
0.0
 10
215.9834683276
 20
27.0793285627
 30
0.0
 10
215.9834683276
 20
27.0793285627
 30
0.0
 10
216.2048713024
 20
27.0793285627
 30
0.0
 10
216.2048713024
 20
27.0793285627
 30
0.0
 10
216.2048713024
 20
27.0793285627
 30
0.0
 10
216.2048713024
 20
27.609020786
 30
0.0
 10
216.2048713024
 20
27.609020786
 30
0.0
 10
216.2048713024
 20
27.8189087125
 30
0.0
 10
216.2048713024
 20
28.0696227194
 30
0.0
 10
216.4901304543
 20
28.0696227194
 30
0.0
 10
216.7170292476
 20
28.0696227194
 30
0.0
 10
216.7439849289
 20
27.9366762522
 30
0.0
 10
216.7439849289
 20
27.7403970193
 30
0.0
 10
216.7439849289
 20
27.7403970193
 30
0.0
 10
216.7439849289
 20
27.0793285627
 30
0.0
 10
216.7439849289
 20
27.0793285627
 30
0.0
 10
216.7439849289
 20
27.0793285627
 30
0.0
 10
216.9659113149
 20
27.0793285627
 30
0.0
 10
216.9659113149
 20
27.0793285627
 30
0.0
 10
216.9659113149
 20
27.0793285627
 30
0.0
 10
216.9659113149
 20
27.7665675837
 30
0.0
 10
216.9659113149
 20
27.7665675837
 30
0.0
 10
216.9659113149
 20
28.047116034
 30
0.0
 10
216.8819038032
 20
28.2669487749
 30
0.0
 10
216.5568653935
 20
28.2669487749
 30
0.0
 10
216.4171145796
 20
28.2669487749
 30
0.0
 10
216.2789339996
 20
28.2004755413
 30
0.0
 10
216.209582004
 20
28.0774738887
 30
0.0
 10
216.209582004
 20
28.0774738887
 30
0.0
 10
216.2048713024
 20
28.0774738887
 30
0.0
 10
216.2048713024
 20
28.0774738887
 30
0.0
 10
216.2048713024
 20
28.0774738887
 30
0.0
 10
216.2048713024
 20
29.2174636737
 30
0.0
 10
216.2048713024
 20
29.2174636737
 30
0.0
 10
216.2048713024
 20
29.2174636737
 30
0.0
 10
215.9834683276
 20
29.2174636737
 30
0.0
 10
215.9834683276
 20
29.2174636737
 30
0.0
  0
LWPOLYLINE
  5
24B
330
21D
100
AcDbEntity
  8
0
  6
Continuous
 62
     7
100
AcDbPolyline
 90
        2
 70
     0
 43
0.2
 10
218.8057019918
 20
28.0251327599
 10
219.0221325593
 20
28.0251327599
  0
LWPOLYLINE
  5
24C
330
21D
100
AcDbEntity
  8
0
  6
Continuous
 62
     7
100
AcDbPolyline
 90
        2
 70
     0
 43
0.2
 10
219.0221325593
 20
28.0251327599
 10
219.0221325593
 20
28.2318802186
  0
LWPOLYLINE
  5
24D
330
21D
100
AcDbEntity
  8
0
  6
Continuous
 62
     7
100
AcDbPolyline
 90
        2
 70
     0
 43
0.2
 10
219.0221325593
 20
28.2318802186
 10
218.8057019918
 20
28.2318802186
  0
LWPOLYLINE
  5
24E
330
21D
100
AcDbEntity
  8
0
  6
Continuous
 62
     7
100
AcDbPolyline
 90
        2
 70
     0
 43
0.2
 10
218.8057019918
 20
28.2318802186
 10
218.8057019918
 20
28.672592523
  0
LWPOLYLINE
  5
24F
330
21D
100
AcDbEntity
  8
0
  6
Continuous
 62
     7
100
AcDbPolyline
 90
        2
 70
     0
 43
0.2
 10
218.8057019918
 20
28.672592523
 10
218.5840373114
 20
28.672592523
  0
LWPOLYLINE
  5
250
330
21D
100
AcDbEntity
  8
0
  6
Continuous
 62
     7
100
AcDbPolyline
 90
        2
 70
     0
 43
0.2
 10
218.5840373114
 20
28.672592523
 10
218.5840373114
 20
28.2318802186
  0
LWPOLYLINE
  5
251
330
21D
100
AcDbEntity
  8
0
  6
Continuous
 62
     7
100
AcDbPolyline
 90
        2
 70
     0
 43
0.2
 10
218.5840373114
 20
28.2318802186
 10
218.4633910095
 20
28.2318802186
  0
LWPOLYLINE
  5
252
330
21D
100
AcDbEntity
  8
0
  6
Continuous
 62
     7
100
AcDbPolyline
 90
        2
 70
     0
 43
0.2
 10
218.4633910095
 20
28.2318802186
 10
218.4633910095
 20
28.0251327599
  0
LWPOLYLINE
  5
253
330
21D
100
AcDbEntity
  8
0
  6
Continuous
 62
     7
100
AcDbPolyline
 90
        2
 70
     0
 43
0.2
 10
218.4633910095
 20
28.0251327599
 10
218.5840373114
 20
28.0251327599
  0
LWPOLYLINE
  5
254
330
21D
100
AcDbEntity
  8
0
  6
Continuous
 62
     7
100
AcDbPolyline
 90
        2
 70
     0
 43
0.2
 10
218.5840373114
 20
28.0251327599
 10
218.5840373114
 20
27.0793285627
  0
LWPOLYLINE
  5
255
330
21D
100
AcDbEntity
  8
0
  6
Continuous
 62
     7
100
AcDbPolyline
 90
        2
 70
     0
 43
0.2
 10
218.5840373114
 20
27.0793285627
 10
218.8057019918
 20
27.0793285627
  0
LWPOLYLINE
  5
256
330
21D
100
AcDbEntity
  8
0
  6
Continuous
 62
     7
100
AcDbPolyline
 90
        2
 70
     0
 43
0.2
 10
218.8057019918
 20
27.0793285627
 10
218.8057019918
 20
28.0251327599
  0
SPLINE
  5
257
330
21D
100
AcDbEntity
  8
0
  6
Continuous
 62
     7
100
AcDbSpline
 70
     3
 71
     3
 72
    20
 73
    16
 74
     0
 42
0.000000001
 43
0.0000001
 40
0.0
 40
0.0
 40
0.0
 40
0.0
 40
1.0
 40
1.0
 40
1.0
 40
2.0
 40
2.0
 40
2.0
 40
3.0
 40
3.0
 40
3.0
 40
4.0
 40
4.0
 40
4.0
 40
5.0
 40
5.0
 40
5.0
 40
5.0
 10
206.587712299
 20
37.4402550061
 30
0.0
 10
206.587712299
 20
37.4402550061
 30
0.0
 10
208.9040689535
 20
34.6106935839
 30
0.0
 10
208.9040689535
 20
34.6106935839
 30
0.0
 10
208.2524219001
 20
33.9585231192
 30
0.0
 10
207.4755486961
 20
33.2226068484
 30
0.0
 10
206.5043590515
 20
33.2226068484
 30
0.0
 10
205.505821167
 20
33.2226068484
 30
0.0
 10
204.5625031735
 20
34.1521852957
 30
0.0
 10
204.5625031735
 20
35.1513774442
 30
0.0
 10
204.5625031735
 20
36.1505695928
 30
0.0
 10
205.7413562466
 20
36.8571748314
 30
0.0
 10
206.4628787069
 20
37.3570326113
 30
0.0
 10
206.4628787069
 20
37.3570326113
 30
0.0
 10
206.587712299
 20
37.4402550061
 30
0.0
 10
206.587712299
 20
37.4402550061
 30
0.0
  0
SPLINE
  5
258
330
21D
100
AcDbEntity
  8
0
  6
Continuous
 62
     7
100
AcDbSpline
 70
     3
 71
     3
 72
    23
 73
    19
 74
     0
 42
0.000000001
 43
0.0000001
 40
0.0
 40
0.0
 40
0.0
 40
0.0
 40
1.0
 40
1.0
 40
1.0
 40
2.0
 40
2.0
 40
2.0
 40
3.0
 40
3.0
 40
3.0
 40
4.0
 40
4.0
 40
4.0
 40
5.0
 40
5.0
 40
5.0
 40
6.0
 40
6.0
 40
6.0
 40
6.0
 10
206.8651202816
 20
39.0780089258
 30
0.0
 10
206.8651202816
 20
39.0780089258
 30
0.0
 10
206.518622009
 20
39.5213382867
 30
0.0
 10
206.518622009
 20
39.5213382867
 30
0.0
 10
206.2128189641
 20
39.9094477566
 30
0.0
 10
205.893930637
 20
40.297949785
 30
0.0
 10
205.893930637
 20
40.8248940991
 30
0.0
 10
205.893930637
 20
41.4910658157
 30
0.0
 10
206.4352687615
 20
41.934787735
 30
0.0
 10
207.0591750166
 20
41.934787735
 30
0.0
 10
207.7529566787
 20
41.934787735
 30
0.0
 10
208.2801626984
 20
41.5325461603
 30
0.0
 10
208.2801626984
 20
40.7975458593
 30
0.0
 10
208.2801626984
 20
40.0342813488
 30
0.0
 10
207.5589019437
 20
39.604168123
 30
0.0
 10
207.0318267768
 20
39.1884487076
 30
0.0
 10
207.0318267768
 20
39.1884487076
 30
0.0
 10
206.8651202816
 20
39.0780089258
 30
0.0
 10
206.8651202816
 20
39.0780089258
 30
0.0
  0
SPLINE
  5
259
330
21D
100
AcDbEntity
  8
0
  6
Continuous
 62
     7
100
AcDbSpline
 70
     3
 71
     3
 72
    50
 73
    46
 74
     0
 42
0.000000001
 43
0.0000001
 40
0.0
 40
0.0
 40
0.0
 40
0.0
 40
1.0
 40
1.0
 40
1.0
 40
2.0
 40
2.0
 40
2.0
 40
3.0
 40
3.0
 40
3.0
 40
4.0
 40
4.0
 40
4.0
 40
5.0
 40
5.0
 40
5.0
 40
6.0
 40
6.0
 40
6.0
 40
7.0
 40
7.0
 40
7.0
 40
8.0
 40
8.0
 40
8.0
 40
9.0
 40
9.0
 40
9.0
 40
10.0
 40
10.0
 40
10.0
 40
11.0
 40
11.0
 40
11.0
 40
12.0
 40
12.0
 40
12.0
 40
13.0
 40
13.0
 40
13.0
 40
14.0
 40
14.0
 40
14.0
 40
15.0
 40
15.0
 40
15.0
 40
15.0
 10
210.8187074445
 20
32.2794197077
 30
0.0
 10
210.8187074445
 20
32.2794197077
 30
0.0
 10
212.4279354491
 20
32.2794197077
 30
0.0
 10
212.4279354491
 20
32.2794197077
 30
0.0
 10
212.4279354491
 20
32.2794197077
 30
0.0
 10
210.5549081555
 20
34.5965614791
 30
0.0
 10
210.5549081555
 20
34.5965614791
 30
0.0
 10
210.5549081555
 20
34.5965614791
 30
0.0
 10
211.8312465809
 20
36.0940411737
 30
0.0
 10
211.8312465809
 20
36.0940411737
 30
0.0
 10
211.8312465809
 20
36.0940411737
 30
0.0
 10
210.9990226332
 20
36.9550527422
 30
0.0
 10
210.9990226332
 20
36.9550527422
 30
0.0
 10
210.9990226332
 20
36.9550527422
 30
0.0
 10
209.7784275099
 20
35.5397486198
 30
0.0
 10
209.7784275099
 20
35.5397486198
 30
0.0
 10
209.7784275099
 20
35.5397486198
 30
0.0
 10
207.6005131411
 20
38.1751244543
 30
0.0
 10
207.6005131411
 20
38.1751244543
 30
0.0
 10
208.4740865805
 20
38.8131628142
 30
0.0
 10
209.5007578217
 20
39.604168123
 30
0.0
 10
209.5007578217
 20
40.7830211961
 30
0.0
 10
209.5007578217
 20
42.1567141211
 30
0.0
 10
208.3628616819
 20
42.9611972706
 30
0.0
 10
207.087570079
 20
42.9611972706
 30
0.0
 10
205.7141388596
 20
42.9611972706
 30
0.0
 10
204.6732046608
 20
42.1149720709
 30
0.0
 10
204.6732046608
 20
40.6723197087
 30
0.0
 10
204.6732046608
 20
39.7847450173
 30
0.0
 10
205.2285440373
 20
39.0078718133
 30
0.0
 10
205.8247094942
 20
38.3834421468
 30
0.0
 10
205.8247094942
 20
38.3834421468
 30
0.0
 10
205.1728007351
 20
37.9118485765
 30
0.0
 10
205.1728007351
 20
37.9118485765
 30
0.0
 10
204.1742628507
 20
37.1905878218
 30
0.0
 10
203.3413846389
 20
36.4693270671
 30
0.0
 10
203.3413846389
 20
35.1377687508
 30
0.0
 10
203.3413846389
 20
33.3340934528
 30
0.0
 10
204.7984308115
 20
32.0574933216
 30
0.0
 10
206.5459702488
 20
32.0574933216
 30
0.0
 10
207.7808283297
 20
32.0574933216
 30
0.0
 10
208.8901985544
 20
32.7656687941
 30
0.0
 10
209.6810730104
 20
33.6942004188
 30
0.0
 10
209.6810730104
 20
33.6942004188
 30
0.0
 10
210.8187074445
 20
32.2794197077
 30
0.0
 10
210.8187074445
 20
32.2794197077
 30
0.0
  0
LINE
  5
25A
330
21D
100
AcDbEntity
  8
0
  6
Continuous
 62
     7
100
AcDbLine
 10
196.6215688195
 20
30.2532946124
 30
0.0
 11
219.0354795472
 21
30.2532946124
 31
0.0
  0
LINE
  5
25B
330
21D
100
AcDbEntity
  8
0
  6
Continuous
 62
     7
100
AcDbLine
 10
219.0354795472
 20
30.2532946124
 30
0.0
 11
219.0354795472
 21
52.66720534
 31
0.0
  0
LINE
  5
25C
330
21D
100
AcDbEntity
  8
0
  6
Continuous
 62
     7
100
AcDbLine
 10
219.0354795472
 20
52.66720534
 30
0.0
 11
196.6215688195
 21
52.66720534
 31
0.0
  0
LINE
  5
25D
330
21D
100
AcDbEntity
  8
0
  6
Continuous
 62
     7
100
AcDbLine
 10
196.6215688195
 20
52.66720534
 30
0.0
 11
196.6215688195
 21
30.2532946124
 31
0.0
  0
ENDBLK
  5
25E
330
21D
100
AcDbEntity
  8
0
  6
ByBlock
 62
     0
100
AcDbBlockEnd
  0
BLOCK
  5
27C
330
21E
100
AcDbEntity
  8
0
100
AcDbBlockBegin
  2
*T5
 70
     1
 10
0.0
 20
0.0
 30
0.0
  3
*T5
  1

  0
LINE
  5
27D
330
21E
100
AcDbEntity
  8
0
  6
Continuous
 62
     2
100
AcDbLine
 10
0.0
 20
0.0
 30
0.0
 11
90.0
 21
0.0
 31
0.0
  0
LINE
  5
27E
330
21E
100
AcDbEntity
  8
0
  6
Continuous
 62
     2
100
AcDbLine
 10
0.0
 20
0.0
 30
0.0
 11
0.0
 21
-40.0
 31
0.0
  0
LINE
  5
27F
330
21E
100
AcDbEntity
  8
0
  6
Continuous
 62
     2
100
AcDbLine
 10
30.0
 20
-6.0
 30
0.0
 11
90.0
 21
-6.0
 31
0.0
  0
LINE
  5
280
330
21E
100
AcDbEntity
  8
0
  6
Continuous
 62
     2
100
AcDbLine
 10
30.0
 20
-12.0
 30
0.0
 11
90.0
 21
-12.0
 31
0.0
  0
LINE
  5
281
330
21E
100
AcDbEntity
  8
0
  6
Continuous
 62
     2
100
AcDbLine
 10
30.0
 20
-22.0
 30
0.0
 11
90.0
 21
-22.0
 31
0.0
  0
LINE
  5
282
330
21E
100
AcDbEntity
  8
0
  6
Continuous
 62
     2
100
AcDbLine
 10
0.0
 20
-27.0
 30
0.0
 11
90.0
 21
-27.0
 31
0.0
  0
LINE
  5
283
330
21E
100
AcDbEntity
  8
0
  6
Continuous
 62
     2
100
AcDbLine
 10
0.0
 20
-40.0
 30
0.0
 11
90.0
 21
-40.0
 31
0.0
  0
LINE
  5
284
330
21E
100
AcDbEntity
  8
0
  6
Continuous
 62
     2
100
AcDbLine
 10
30.0
 20
0.0
 30
0.0
 11
30.0
 21
-27.0
 31
0.0
  0
LINE
  5
285
330
21E
100
AcDbEntity
  8
0
  6
Continuous
 62
     2
100
AcDbLine
 10
70.0
 20
0.0
 30
0.0
 11
70.0
 21
-12.0
 31
0.0
  0
LINE
  5
286
330
21E
100
AcDbEntity
  8
0
  6
Continuous
 62
     2
100
AcDbLine
 10
90.0
 20
0.0
 30
0.0
 11
90.0
 21
-40.0
 31
0.0
  0
MTEXT
  5
287
330
21E
100
AcDbEntity
  8
9_SOLID
  6
Continuous
 62
     2
100
AcDbMText
 10
31.4875
 20
-1.5
 30
0.0
 40
3.0
 41
25.7142857143
 46
0.0
 71
     1
 72
     1
  1
174881
  7
TEXTSTYLE_3
 73
     1
 44
0.9
  0
MTEXT
  5
288
330
21E
100
AcDbEntity
  8
9_SOLID
  6
Continuous
 62
     2
100
AcDbMText
 10
71.4875
 20
-1.25
 30
0.0
 40
3.5
 41
30.3333333333
 46
0.0
 71
     1
 72
     1
  1
Rev:00
  7
TEXTSTYLE_3
 73
     1
 44
0.9
  0
MTEXT
  5
289
330
21E
100
AcDbEntity
  8
9_SOLID
  6
Continuous
 62
     2
100
AcDbMText
 10
31.4875
 20
-7.75
 30
0.0
 40
3.5
 41
36.5
 46
0.0
 71
     1
 72
     1
  1
Scale:1:1
  7
TEXTSTYLE_3
 73
     1
 44
0.9
  0
MTEXT
  5
28A
330
21E
100
AcDbEntity
  8
9_SOLID
  6
Continuous
 62
     2
100
AcDbMText
 10
71.4875
 20
-7.25
 30
0.0
 40
3.5
 41
11.5
 46
0.0
 71
     1
 72
     1
  1
A4
  7
TEXTSTYLE_3
 73
     1
 44
0.9
  0
MTEXT
  5
28B
330
21E
100
AcDbEntity
  8
9_SOLID
  6
Continuous
 62
     2
100
AcDbMText
 10
31.4875
 20
-15.25
 30
0.0
 40
3.5
 41
44.8333333333
 46
0.0
 71
     1
 72
     1
  1
KRILL 1.4
  7
TEXTSTYLE_3
 73
     1
 44
0.9
  0
MTEXT
  5
28C
330
21E
100
AcDbEntity
  8
9_SOLID
  6
Continuous
 62
     2
100
AcDbMText
 10
31.4875
 20
-23.25
 30
0.0
 40
2.5
 41
45.4761904762
 46
0.0
 71
     1
 72
     1
  1
DATE:28.11.19
  7
TEXTSTYLE_3
 73
     1
 44
0.9
  0
MTEXT
  5
28D
330
21E
100
AcDbEntity
  8
9_SOLID
  6
Continuous
 62
     2
100
AcDbMText
 10
1.4875
 20
-27.3125
 30
0.0
 40
2.25
 41
178.6071428571
 46
0.0
 71
     1
 72
     1
  1
Any integral or partial reproductions are prohibited \Pwithout prior authorisation of L & L Luce & Light s.r.l., \Pin accordance with the law in force. \PAll rights reserved.
  7
TEXTSTYLE_3
 73
     1
 44
0.9
  0
ENDBLK
  5
28E
330
21E
100
AcDbEntity
  8
0
  6
ByBlock
 62
     0
100
AcDbBlockEnd
  0
ENDSEC
  0
SECTION
  2
ENTITIES
  0
LWPOLYLINE
  5
28F
330
218
100
AcDbEntity
 67
     1
  8
0
  6
Continuous
 62
     7
100
AcDbPolyline
 90
        2
 70
     0
 43
0.5
 10
284.0
 20
13.0
 10
284.0
 20
197.0
  0
LWPOLYLINE
  5
290
330
218
100
AcDbEntity
 67
     1
  8
0
  6
Continuous
 62
     7
100
AcDbPolyline
 90
        2
 70
     0
 43
0.5
 10
13.0
 20
13.0
 10
13.0
 20
197.0
  0
LWPOLYLINE
  5
291
330
218
100
AcDbEntity
 67
     1
  8
0
  6
Continuous
 62
     7
100
AcDbPolyline
 90
        2
 70
     0
 43
0.5
 10
13.0
 20
13.0
 10
284.0
 20
13.0
  0
LWPOLYLINE
  5
292
330
218
100
AcDbEntity
 67
     1
  8
0
  6
Continuous
 62
     7
100
AcDbPolyline
 90
        2
 70
     0
 43
0.1
 10
148.5
 20
197.0
 10
148.5
 20
200.0
  0
LWPOLYLINE
  5
293
330
218
100
AcDbEntity
 67
     1
  8
0
  6
Continuous
 62
     7
100
AcDbPolyline
 90
        2
 70
     0
 43
0.1
 10
284.0
 20
105.0
 10
287.0
 20
105.0
  0
LWPOLYLINE
  5
294
330
218
100
AcDbEntity
 67
     1
  8
0
  6
Continuous
 62
     7
100
AcDbPolyline
 90
        2
 70
     0
 43
0.1
 10
13.0
 20
105.0
 10
10.0
 20
105.0
  0
LWPOLYLINE
  5
295
330
218
100
AcDbEntity
 67
     1
  8
0
  6
Continuous
 62
     7
100
AcDbPolyline
 90
        2
 70
     0
 43
0.5
 10
13.0
 20
197.0
 10
284.0
 20
197.0
  0
LWPOLYLINE
  5
296
330
218
100
AcDbEntity
 67
     1
  8
0
  6
Continuous
 62
     7
100
AcDbPolyline
 90
        2
 70
     0
 43
0.1
 10
10.0
 20
200.0
 10
287.0
 20
200.0
  0
LWPOLYLINE
  5
297
330
218
100
AcDbEntity
 67
     1
  8
0
  6
Continuous
 62
     7
100
AcDbPolyline
 90
        2
 70
     0
 43
0.1
 10
10.0
 20
10.0
 10
10.0
 20
200.0
  0
LWPOLYLINE
  5
298
330
218
100
AcDbEntity
 67
     1
  8
0
  6
Continuous
 62
     7
100
AcDbPolyline
 90
        2
 70
     0
 43
0.1
 10
287.0
 20
10.0
 10
287.0
 20
200.0
  0
LWPOLYLINE
  5
299
330
218
100
AcDbEntity
 67
     1
  8
0
  6
Continuous
 62
     7
100
AcDbPolyline
 90
        2
 70
     0
 43
0.1
 10
10.0
 20
10.0
 10
287.0
 20
10.0
  0
LWPOLYLINE
  5
29A
330
218
100
AcDbEntity
 67
     1
  8
0
  6
Continuous
 62
     7
100
AcDbPolyline
 90
        2
 70
     0
 43
0.1
 10
148.5
 20
13.0
 10
148.5
 20
10.0
  0
VIEWPORT
  5
29B
330
218
100
AcDbEntity
 67
     1
  8
0
100
AcDbViewport
 10
148.5
 20
105.0
 30
0.0
 40
297.0
 41
210.0
 68
     1
 69
     1
 12
148.5
 22
105.0
 13
0.0
 23
0.0
 14
10.0
 24
10.0
 15
10.0
 25
10.0
 16
0.0
 26
0.0
 36
1.0
 17
0.0
 27
0.0
 37
0.0
 42
50.0
 43
0.0
 44
0.0
 45
210.0
 50
0.0
 51
0.0
 72
   100
 90
    32864
  1

281
     0
 71
     1
 74
     0
110
0.0
120
0.0
130
0.0
111
1.0
121
0.0
131
0.0
112
0.0
122
1.0
132
0.0
 79
     0
146
0.0
170
     0
 61
     5
348
38C
292
     1
282
     1
141
0.0
142
0.0
 63
   256
361
3A8
  0
LINE
  5
29C
330
218
100
AcDbEntity
 67
     1
  8
7_ALL_FEATURES
  6
Continuous
 62
     7
100
AcDbLine
 10
131.9794831758
 20
141.9473355117
 30
0.0
 11
133.3629368476
 21
141.9473355117
 31
0.0
  0
LINE
  5
29D
330
218
100
AcDbEntity
 67
     1
  8
7_ALL_FEATURES
  6
Continuous
 62
     7
100
AcDbLine
 10
133.3629368476
 20
136.9473355117
 30
0.0
 11
131.9794831758
 21
136.9473355117
 31
0.0
  0
LINE
  5
29E
330
218
100
AcDbEntity
 67
     1
  8
3_ALL_AXES
  6
Continuous
 62
     7
100
AcDbLine
 10
132.7294831758
 20
123.4473355117
 30
0.0
 11
134.4794831758
 21
123.4473355117
 31
0.0
  0
LINE
  5
29F
330
218
100
AcDbEntity
 67
     1
  8
3_ALL_AXES
  6
Continuous
 62
     7
100
AcDbLine
 10
134.4794831758
 20
123.4473355117
 30
0.0
 11
141.4794831758
 21
123.4473355117
 31
0.0
  0
LINE
  5
2A0
330
218
100
AcDbEntity
 67
     1
  8
3_ALL_AXES
  6
Continuous
 62
     7
100
AcDbLine
 10
141.4794831758
 20
123.4473355117
 30
0.0
 11
143.2294831758
 21
123.4473355117
 31
0.0
  0
LINE
  5
2A1
330
218
100
AcDbEntity
 67
     1
  8
7_ALL_FEATURES
  6
Continuous
 62
     7
100
AcDbLine
 10
133.2294831758
 20
127.1973355117
 30
0.0
 11
133.2294831758
 21
126.6973355117
 31
0.0
  0
LINE
  5
2A2
330
218
100
AcDbEntity
 67
     1
  8
7_ALL_FEATURES
  6
Continuous
 62
     7
100
AcDbLine
 10
142.7294831758
 20
127.1973355117
 30
0.0
 11
142.7294831758
 21
126.6973355117
 31
0.0
  0
LINE
  5
2A3
330
218
100
AcDbEntity
 67
     1
  8
7_ALL_FEATURES
  6
Continuous
 62
     7
100
AcDbLine
 10
134.3629368476
 20
143.4473355117
 30
0.0
 11
141.7211405625
 21
143.4473355117
 31
0.0
  0
LINE
  5
2A4
330
218
100
AcDbEntity
 67
     1
  8
7_ALL_FEATURES
  6
Continuous
 62
     7
100
AcDbLine
 10
141.7211405625
 20
143.4473355117
 30
0.0
 11
142.4594913613
 21
143.4473355117
 31
0.0
  0
LINE
  5
2A5
330
218
100
AcDbEntity
 67
     1
  8
7_ALL_FEATURES
  6
Continuous
 62
     7
100
AcDbLine
 10
142.4594913613
 20
143.4473355117
 30
0.0
 11
142.4794831758
 21
143.4473355117
 31
0.0
  0
LINE
  5
2A6
330
218
100
AcDbEntity
 67
     1
  8
7_ALL_FEATURES
  6
Continuous
 62
     7
100
AcDbLine
 10
142.4794831758
 20
143.4473355117
 30
0.0
 11
143.2294831758
 21
143.4473355117
 31
0.0
  0
LINE
  5
2A7
330
218
100
AcDbEntity
 67
     1
  8
7_ALL_FEATURES
  6
Continuous
 62
     7
100
AcDbLine
 10
132.7294831758
 20
126.6973355117
 30
0.0
 11
133.2294831758
 21
126.6973355117
 31
0.0
  0
LINE
  5
2A8
330
218
100
AcDbEntity
 67
     1
  8
7_ALL_FEATURES
  6
Continuous
 62
     7
100
AcDbLine
 10
133.2294831758
 20
126.6973355117
 30
0.0
 11
142.7294831758
 21
126.6973355117
 31
0.0
  0
LINE
  5
2A9
330
218
100
AcDbEntity
 67
     1
  8
7_ALL_FEATURES
  6
Continuous
 62
     7
100
AcDbLine
 10
142.7294831758
 20
126.6973355117
 30
0.0
 11
143.2294831758
 21
126.6973355117
 31
0.0
  0
LINE
  5
2AA
330
218
100
AcDbEntity
 67
     1
  8
7_ALL_FEATURES
  6
Continuous
 62
     7
100
AcDbLine
 10
132.7294831758
 20
123.4473355117
 30
0.0
 11
132.7294831758
 21
126.6973355117
 31
0.0
  0
ARC
  5
2AB
330
218
100
AcDbEntity
 67
     1
  8
7_ALL_FEATURES
  6
Continuous
 62
     7
100
AcDbCircle
 10
134.3629368476
 20
142.4473355117
 30
0.0
 40
1.0
100
AcDbArc
 50
90.0
 51
180.0
  0
LINE
  5
2AC
330
218
100
AcDbEntity
 67
     1
  8
7_ALL_FEATURES
  6
Continuous
 62
     7
100
AcDbLine
 10
143.2294831758
 20
127.1973355117
 30
0.0
 11
142.7294831758
 21
127.1973355117
 31
0.0
  0
LINE
  5
2AD
330
218
100
AcDbEntity
 67
     1
  8
7_ALL_FEATURES
  6
Continuous
 62
     7
100
AcDbLine
 10
142.7294831758
 20
127.1973355117
 30
0.0
 11
133.2294831758
 21
127.1973355117
 31
0.0
  0
LINE
  5
2AE
330
218
100
AcDbEntity
 67
     1
  8
7_ALL_FEATURES
  6
Continuous
 62
     7
100
AcDbLine
 10
133.2294831758
 20
127.1973355117
 30
0.0
 11
132.7294831758
 21
127.1973355117
 31
0.0
  0
LINE
  5
2AF
330
218
100
AcDbEntity
 67
     1
  8
7_ALL_FEATURES
  6
Continuous
 62
     7
100
AcDbLine
 10
132.7294831758
 20
127.1973355117
 30
0.0
 11
132.7294831758
 21
134.4473355117
 31
0.0
  0
SPLINE
  5
2B0
330
218
100
AcDbEntity
 67
     1
  8
7_ALL_FEATURES
  6
Continuous
 62
     7
100
AcDbSpline
 70
     0
 71
     3
 72
    12
 73
     8
 74
     0
 42
0.000000001
 43
0.0000001
 40
0.0
 40
0.0
 40
0.0
 40
0.0
 40
0.19049048
 40
0.3737149184
 40
0.6941029968
 40
0.9176887335
 40
1.0
 40
1.0
 40
1.0
 40
1.0
 10
133.3629368476
 20
136.9473355117
 30
0.0
 10
133.3629368476
 20
136.7822643603
 30
0.0
 10
133.3454195258
 20
136.4581459862
 30
0.0
 10
133.251737834
 20
135.8631833902
 30
0.0
 10
133.075859994
 20
135.2555230818
 30
0.0
 10
132.8713533705
 20
134.7523894694
 30
0.0
 10
132.7601416995
 20
134.5117348117
 30
0.0
 10
132.7294831758
 20
134.4473355117
 30
0.0
  0
LINE
  5
2B1
330
218
100
AcDbEntity
 67
     1
  8
7_ALL_FEATURES
  6
Continuous
 62
     7
100
AcDbLine
 10
133.3629368476
 20
136.9473355117
 30
0.0
 11
133.3629368476
 21
142.4473355117
 31
0.0
  0
LINE
  5
2B2
330
218
100
AcDbEntity
 67
     1
  8
7_ALL_FEATURES
  6
Continuous
 62
     7
100
AcDbLine
 10
143.2294831758
 20
123.4473355117
 30
0.0
 11
143.2294831758
 21
126.6973355117
 31
0.0
  0
LINE
  5
2B3
330
218
100
AcDbEntity
 67
     1
  8
7_ALL_FEATURES
  6
Continuous
 62
     7
100
AcDbLine
 10
143.2294831758
 20
127.1973355117
 30
0.0
 11
143.2294831758
 21
143.4473355117
 31
0.0
  0
LINE
  5
2B4
330
218
100
AcDbEntity
 67
     1
  8
7_ALL_FEATURES
  6
Continuous
 62
     7
100
AcDbLine
 10
129.4794831758
 20
134.1973355117
 30
0.0
 11
127.5794831758
 21
134.1973355117
 31
0.0
  0
LINE
  5
2B5
330
218
100
AcDbEntity
 67
     1
  8
7_ALL_FEATURES
  6
Continuous
 62
     7
100
AcDbLine
 10
126.0794831758
 20
134.1973355117
 30
0.0
 11
124.1794831758
 21
134.1973355117
 31
0.0
  0
LINE
  5
2B6
330
218
100
AcDbEntity
 67
     1
  8
7_ALL_FEATURES
  6
Continuous
 62
     7
100
AcDbLine
 10
129.4794831758
 20
144.6973355117
 30
0.0
 11
127.5794831758
 21
144.6973355117
 31
0.0
  0
LINE
  5
2B7
330
218
100
AcDbEntity
 67
     1
  8
7_ALL_FEATURES
  6
Continuous
 62
     7
100
AcDbLine
 10
126.0794831758
 20
144.6973355117
 30
0.0
 11
124.1794831758
 21
144.6973355117
 31
0.0
  0
LINE
  5
2B8
330
218
100
AcDbEntity
 67
     1
  8
7_ALL_FEATURES
  6
Continuous
 62
     7
100
AcDbLine
 10
131.9794831758
 20
144.6972437196
 30
0.0
 11
131.9794831758
 21
143.4473355117
 31
0.0
  0
LINE
  5
2B9
330
218
100
AcDbEntity
 67
     1
  8
7_ALL_FEATURES
  6
Continuous
 62
     7
100
AcDbLine
 10
131.9794831758
 20
143.4473355117
 30
0.0
 11
131.9794831758
 21
142.9473355117
 31
0.0
  0
LINE
  5
2BA
330
218
100
AcDbEntity
 67
     1
  8
7_ALL_FEATURES
  6
Continuous
 62
     7
100
AcDbLine
 10
131.9794831758
 20
142.9473355117
 30
0.0
 11
131.9794831758
 21
142.6718686205
 31
0.0
  0
LINE
  5
2BB
330
218
100
AcDbEntity
 67
     1
  8
7_ALL_FEATURES
  6
Continuous
 62
     7
100
AcDbLine
 10
131.9794831758
 20
142.6718686205
 30
0.0
 11
131.9794831758
 21
142.6284320207
 31
0.0
  0
LINE
  5
2BC
330
218
100
AcDbEntity
 67
     1
  8
7_ALL_FEATURES
  6
Continuous
 62
     7
100
AcDbLine
 10
131.9794831758
 20
142.6284320207
 30
0.0
 11
131.9794831758
 21
141.9473355117
 31
0.0
  0
LINE
  5
2BD
330
218
100
AcDbEntity
 67
     1
  8
7_ALL_FEATURES
  6
Continuous
 62
     7
100
AcDbLine
 10
131.9794831758
 20
141.9473355117
 30
0.0
 11
131.9794831758
 21
139.4473355117
 31
0.0
  0
LINE
  5
2BE
330
218
100
AcDbEntity
 67
     1
  8
7_ALL_FEATURES
  6
Continuous
 62
     7
100
AcDbLine
 10
131.9794831758
 20
144.6973355117
 30
0.0
 11
131.4794831758
 21
145.1973355117
 31
0.0
  0
LINE
  5
2BF
330
218
100
AcDbEntity
 67
     1
  8
7_ALL_FEATURES
  6
Continuous
 62
     7
100
AcDbLine
 10
131.9794831758
 20
134.1973355117
 30
0.0
 11
131.4794831758
 21
133.6973355117
 31
0.0
  0
LINE
  5
2C0
330
218
100
AcDbEntity
 67
     1
  8
3_ALL_AXES
  6
Continuous
 62
     7
100
AcDbLine
 10
124.1794831758
 20
145.1973355117
 30
0.0
 11
122.9794831758
 21
145.1973355117
 31
0.0
  0
LINE
  5
2C1
330
218
100
AcDbEntity
 67
     1
  8
3_ALL_AXES
  6
Continuous
 62
     7
100
AcDbLine
 10
127.5794831758
 20
145.1973355117
 30
0.0
 11
126.0794831758
 21
145.1973355117
 31
0.0
  0
LINE
  5
2C2
330
218
100
AcDbEntity
 67
     1
  8
3_ALL_AXES
  6
Continuous
 62
     7
100
AcDbLine
 10
131.4794831758
 20
145.1973355117
 30
0.0
 11
129.4794831758
 21
145.1973355117
 31
0.0
  0
LINE
  5
2C3
330
218
100
AcDbEntity
 67
     1
  8
7_ALL_FEATURES
  6
Continuous
 62
     7
100
AcDbLine
 10
131.9794831758
 20
139.4473355117
 30
0.0
 11
131.9794831758
 21
136.9487079389
 31
0.0
  0
LINE
  5
2C4
330
218
100
AcDbEntity
 67
     1
  8
7_ALL_FEATURES
  6
Continuous
 62
     7
100
AcDbLine
 10
131.9794831758
 20
136.9487079389
 30
0.0
 11
131.9794831758
 21
136.2662390026
 31
0.0
  0
LINE
  5
2C5
330
218
100
AcDbEntity
 67
     1
  8
7_ALL_FEATURES
  6
Continuous
 62
     7
100
AcDbLine
 10
131.9794831758
 20
136.2662390026
 30
0.0
 11
131.9794831758
 21
136.2228016601
 31
0.0
  0
LINE
  5
2C6
330
218
100
AcDbEntity
 67
     1
  8
7_ALL_FEATURES
  6
Continuous
 62
     7
100
AcDbLine
 10
131.9794831758
 20
136.2228016601
 30
0.0
 11
131.9794831758
 21
135.9473355117
 31
0.0
  0
LINE
  5
2C7
330
218
100
AcDbEntity
 67
     1
  8
7_ALL_FEATURES
  6
Continuous
 62
     7
100
AcDbLine
 10
131.9794831758
 20
135.9473355117
 30
0.0
 11
131.9794831758
 21
135.4473355117
 31
0.0
  0
LINE
  5
2C8
330
218
100
AcDbEntity
 67
     1
  8
7_ALL_FEATURES
  6
Continuous
 62
     7
100
AcDbLine
 10
131.9794831758
 20
135.4473355117
 30
0.0
 11
131.9794831758
 21
134.1974273038
 31
0.0
  0
LINE
  5
2C9
330
218
100
AcDbEntity
 67
     1
  8
7_ALL_FEATURES
  6
Continuous
 62
     7
100
AcDbLine
 10
124.1794831758
 20
133.6973355117
 30
0.0
 11
124.1794831758
 21
134.1973355117
 31
0.0
  0
LINE
  5
2CA
330
218
100
AcDbEntity
 67
     1
  8
7_ALL_FEATURES
  6
Continuous
 62
     7
100
AcDbLine
 10
124.1794831758
 20
134.1973355117
 30
0.0
 11
124.1794831758
 21
139.4473355117
 31
0.0
  0
LINE
  5
2CB
330
218
100
AcDbEntity
 67
     1
  8
3_ALL_AXES
  6
Continuous
 62
     7
100
AcDbLine
 10
124.1794831758
 20
133.6973355117
 30
0.0
 11
122.9794831758
 21
133.6973355117
 31
0.0
  0
LINE
  5
2CC
330
218
100
AcDbEntity
 67
     1
  8
7_ALL_FEATURES
  6
Continuous
 62
     7
100
AcDbLine
 10
126.0794831758
 20
139.4473355117
 30
0.0
 11
126.0794831758
 21
141.4473355117
 31
0.0
  0
LINE
  5
2CD
330
218
100
AcDbEntity
 67
     1
  8
7_ALL_FEATURES
  6
Continuous
 62
     7
100
AcDbLine
 10
126.0794831758
 20
141.4473355117
 30
0.0
 11
126.0794831758
 21
144.6973355117
 31
0.0
  0
LINE
  5
2CE
330
218
100
AcDbEntity
 67
     1
  8
7_ALL_FEATURES
  6
Continuous
 62
     7
100
AcDbLine
 10
126.0794831758
 20
144.6973355117
 30
0.0
 11
126.0794831758
 21
145.1973355117
 31
0.0
  0
LINE
  5
2CF
330
218
100
AcDbEntity
 67
     1
  8
7_ALL_FEATURES
  6
Continuous
 62
     7
100
AcDbLine
 10
127.5794831758
 20
139.4473355117
 30
0.0
 11
127.5794831758
 21
144.6973355117
 31
0.0
  0
LINE
  5
2D0
330
218
100
AcDbEntity
 67
     1
  8
7_ALL_FEATURES
  6
Continuous
 62
     7
100
AcDbLine
 10
127.5794831758
 20
144.6973355117
 30
0.0
 11
127.5794831758
 21
145.1973355117
 31
0.0
  0
LINE
  5
2D1
330
218
100
AcDbEntity
 67
     1
  8
7_ALL_FEATURES
  6
Continuous
 62
     7
100
AcDbLine
 10
124.1794831758
 20
139.4473355117
 30
0.0
 11
124.1794831758
 21
144.6973355117
 31
0.0
  0
LINE
  5
2D2
330
218
100
AcDbEntity
 67
     1
  8
7_ALL_FEATURES
  6
Continuous
 62
     7
100
AcDbLine
 10
124.1794831758
 20
144.6973355117
 30
0.0
 11
124.1794831758
 21
145.1973355117
 31
0.0
  0
LINE
  5
2D3
330
218
100
AcDbEntity
 67
     1
  8
7_ALL_FEATURES
  6
Continuous
 62
     7
100
AcDbLine
 10
126.0794831758
 20
133.6973355117
 30
0.0
 11
126.0794831758
 21
134.1973355117
 31
0.0
  0
LINE
  5
2D4
330
218
100
AcDbEntity
 67
     1
  8
7_ALL_FEATURES
  6
Continuous
 62
     7
100
AcDbLine
 10
126.0794831758
 20
134.1973355117
 30
0.0
 11
126.0794831758
 21
137.4473355117
 31
0.0
  0
LINE
  5
2D5
330
218
100
AcDbEntity
 67
     1
  8
7_ALL_FEATURES
  6
Continuous
 62
     7
100
AcDbLine
 10
126.0794831758
 20
137.4473355117
 30
0.0
 11
126.0794831758
 21
139.4473355117
 31
0.0
  0
LINE
  5
2D6
330
218
100
AcDbEntity
 67
     1
  8
7_ALL_FEATURES
  6
Continuous
 62
     7
100
AcDbLine
 10
129.4794831758
 20
139.4473355117
 30
0.0
 11
129.4794831758
 21
144.6973355117
 31
0.0
  0
LINE
  5
2D7
330
218
100
AcDbEntity
 67
     1
  8
7_ALL_FEATURES
  6
Continuous
 62
     7
100
AcDbLine
 10
129.4794831758
 20
144.6973355117
 30
0.0
 11
129.4794831758
 21
145.1973355117
 31
0.0
  0
LINE
  5
2D8
330
218
100
AcDbEntity
 67
     1
  8
7_ALL_FEATURES
  6
Continuous
 62
     7
100
AcDbLine
 10
127.5794831758
 20
133.6973355117
 30
0.0
 11
127.5794831758
 21
134.1973355117
 31
0.0
  0
LINE
  5
2D9
330
218
100
AcDbEntity
 67
     1
  8
7_ALL_FEATURES
  6
Continuous
 62
     7
100
AcDbLine
 10
127.5794831758
 20
134.1973355117
 30
0.0
 11
127.5794831758
 21
139.4473355117
 31
0.0
  0
LINE
  5
2DA
330
218
100
AcDbEntity
 67
     1
  8
3_ALL_AXES
  6
Continuous
 62
     7
100
AcDbLine
 10
127.5794831758
 20
133.6973355117
 30
0.0
 11
126.0794831758
 21
133.6973355117
 31
0.0
  0
LINE
  5
2DB
330
218
100
AcDbEntity
 67
     1
  8
7_ALL_FEATURES
  6
Continuous
 62
     7
100
AcDbLine
 10
129.4794831758
 20
133.6973355117
 30
0.0
 11
129.4794831758
 21
134.1973355117
 31
0.0
  0
LINE
  5
2DC
330
218
100
AcDbEntity
 67
     1
  8
7_ALL_FEATURES
  6
Continuous
 62
     7
100
AcDbLine
 10
129.4794831758
 20
134.1973355117
 30
0.0
 11
129.4794831758
 21
139.4473355117
 31
0.0
  0
LINE
  5
2DD
330
218
100
AcDbEntity
 67
     1
  8
3_ALL_AXES
  6
Continuous
 62
     7
100
AcDbLine
 10
131.4794831758
 20
133.6973355117
 30
0.0
 11
129.4794831758
 21
133.6973355117
 31
0.0
  0
LINE
  5
2DE
330
218
100
AcDbEntity
 67
     1
  8
7_ALL_FEATURES
  6
Continuous
 62
     7
100
AcDbLine
 10
131.4794831758
 20
139.4473355117
 30
0.0
 11
131.4794831758
 21
133.6973355117
 31
0.0
  0
LINE
  5
2DF
330
218
100
AcDbEntity
 67
     1
  8
7_ALL_FEATURES
  6
Continuous
 62
     7
100
AcDbLine
 10
131.4794831758
 20
145.1973355117
 30
0.0
 11
131.4794831758
 21
139.4473355117
 31
0.0
  0
LINE
  5
2E0
330
218
100
AcDbEntity
 67
     1
  8
7_ALL_FEATURES
  6
Continuous
 62
     7
100
AcDbLine
 10
122.9794831758
 20
147.5973355117
 30
0.0
 11
122.9794831758
 21
145.4473355117
 31
0.0
  0
LINE
  5
2E1
330
218
100
AcDbEntity
 67
     1
  8
7_ALL_FEATURES
  6
Continuous
 62
     7
100
AcDbLine
 10
122.9794831758
 20
145.4473355117
 30
0.0
 11
122.9794831758
 21
139.4473355117
 31
0.0
  0
LINE
  5
2E2
330
218
100
AcDbEntity
 67
     1
  8
7_ALL_FEATURES
  6
Continuous
 62
     7
100
AcDbLine
 10
122.9794831758
 20
147.5973355117
 30
0.0
 11
121.9794831758
 21
148.5973355117
 31
0.0
  0
LINE
  5
2E3
330
218
100
AcDbEntity
 67
     1
  8
7_ALL_FEATURES
  6
Continuous
 62
     7
100
AcDbLine
 10
87.9794831758
 20
139.4473355117
 30
0.0
 11
87.9794831758
 21
148.0973355117
 31
0.0
  0
LINE
  5
2E4
330
218
100
AcDbEntity
 67
     1
  8
7_ALL_FEATURES
  6
Continuous
 62
     7
100
AcDbLine
 10
87.9794831758
 20
148.0973355117
 30
0.0
 11
87.9794831758
 21
148.2973355117
 31
0.0
  0
LINE
  5
2E5
330
218
100
AcDbEntity
 67
     1
  8
7_ALL_FEATURES
  6
Continuous
 62
     7
100
AcDbLine
 10
122.9794831758
 20
131.2973355117
 30
0.0
 11
121.9794831758
 21
130.2973355117
 31
0.0
  0
LINE
  5
2E6
330
218
100
AcDbEntity
 67
     1
  8
7_ALL_FEATURES
  6
Continuous
 62
     7
100
AcDbLine
 10
122.9794831758
 20
139.4473355117
 30
0.0
 11
122.9794831758
 21
133.4473355117
 31
0.0
  0
LINE
  5
2E7
330
218
100
AcDbEntity
 67
     1
  8
7_ALL_FEATURES
  6
Continuous
 62
     7
100
AcDbLine
 10
122.9794831758
 20
133.4473355117
 30
0.0
 11
122.9794831758
 21
131.2973355117
 31
0.0
  0
LINE
  5
2E8
330
218
100
AcDbEntity
 67
     1
  8
7_ALL_FEATURES
  6
Continuous
 62
     7
100
AcDbLine
 10
87.9794831758
 20
148.2973355117
 30
0.0
 11
88.2794831758
 21
148.5973355117
 31
0.0
  0
LINE
  5
2E9
330
218
100
AcDbEntity
 67
     1
  8
7_ALL_FEATURES
  6
Continuous
 62
     7
100
AcDbLine
 10
87.9794831758
 20
130.5973355117
 30
0.0
 11
87.9794831758
 21
130.7973355117
 31
0.0
  0
LINE
  5
2EA
330
218
100
AcDbEntity
 67
     1
  8
7_ALL_FEATURES
  6
Continuous
 62
     7
100
AcDbLine
 10
87.9794831758
 20
130.7973355117
 30
0.0
 11
87.9794831758
 21
139.4473355117
 31
0.0
  0
LINE
  5
2EB
330
218
100
AcDbEntity
 67
     1
  8
7_ALL_FEATURES
  6
Continuous
 62
     7
100
AcDbLine
 10
87.9794831758
 20
130.5973355117
 30
0.0
 11
88.2794831758
 21
130.2973355117
 31
0.0
  0
LINE
  5
2EC
330
218
100
AcDbEntity
 67
     1
  8
3_ALL_AXES
  6
Continuous
 62
     7
100
AcDbLine
 10
88.2794831758
 20
130.2973355117
 30
0.0
 11
121.9794831758
 21
130.2973355117
 31
0.0
  0
LINE
  5
2ED
330
218
100
AcDbEntity
 67
     1
  8
3_ALL_AXES
  6
Continuous
 62
     7
100
AcDbLine
 10
88.2794831758
 20
148.5973355117
 30
0.0
 11
121.9794831758
 21
148.5973355117
 31
0.0
  0
LINE
  5
2EE
330
218
100
AcDbEntity
 67
     1
  8
7_ALL_FEATURES
  6
Continuous
 62
     7
100
AcDbLine
 10
88.2794831758
 20
130.2973355117
 30
0.0
 11
88.2794831758
 21
139.4473355117
 31
0.0
  0
LINE
  5
2EF
330
218
100
AcDbEntity
 67
     1
  8
7_ALL_FEATURES
  6
Continuous
 62
     7
100
AcDbLine
 10
121.9794831758
 20
148.5973355117
 30
0.0
 11
121.9794831758
 21
139.4473355117
 31
0.0
  0
LINE
  5
2F0
330
218
100
AcDbEntity
 67
     1
  8
7_ALL_FEATURES
  6
Continuous
 62
     7
100
AcDbLine
 10
121.9794831758
 20
139.4473355117
 30
0.0
 11
121.9794831758
 21
130.2973355117
 31
0.0
  0
LINE
  5
2F1
330
218
100
AcDbEntity
 67
     1
  8
7_ALL_FEATURES
  6
Continuous
 62
     7
100
AcDbLine
 10
88.2794831758
 20
139.4473355117
 30
0.0
 11
88.2794831758
 21
148.5973355117
 31
0.0
  0
LINE
  5
2F2
330
218
100
AcDbEntity
 67
     1
  8
7_ALL_FEATURES
  6
Continuous
 62
     7
100
AcDbLine
 10
141.7294831755
 20
71.9924161012
 30
0.0
 11
135.1843982039
 21
71.9924161012
 31
0.0
  0
LINE
  5
2F3
330
218
100
AcDbEntity
 67
     1
  8
3_ALL_AXES
  6
Continuous
 62
     7
100
AcDbLine
 10
141.7294831758
 20
72.4174161012
 30
0.0
 11
141.7294831758
 21
71.9924161012
 31
0.0
  0
LINE
  5
2F4
330
218
100
AcDbEntity
 67
     1
  8
3_ALL_AXES
  6
Continuous
 62
     7
100
AcDbLine
 10
141.7294831758
 20
76.8424161012
 30
0.0
 11
141.7294831758
 21
76.4174161012
 31
0.0
  0
LINE
  5
2F5
330
218
100
AcDbEntity
 67
     1
  8
7_ALL_FEATURES
  6
Continuous
 62
     7
100
AcDbLine
 10
131.9794831758
 20
76.8424161012
 30
0.0
 11
135.1843982039
 21
76.8424161012
 31
0.0
  0
SPLINE
  5
2F6
330
218
100
AcDbEntity
 67
     1
  8
7_ALL_FEATURES
  6
Continuous
 62
     7
100
AcDbSpline
 70
     0
 71
     3
 72
    42
 73
    38
 74
     0
 42
0.000000001
 43
0.0000001
 40
0.0
 40
0.0
 40
0.0
 40
0.0
 40
0.0000424436
 40
0.0001696418
 40
0.0003813949
 40
0.0006775035
 40
0.0010577681
 40
0.0015219891
 40
0.0027015032
 40
0.0042144509
 40
0.006059237
 40
0.0082335705
 40
0.0107333084
 40
0.0166912253
 40
0.0238975049
 40
0.0323144147
 40
0.0418953897
 40
0.0525919498
 40
0.0643553119
 40
0.0771345776
 40
0.0908786556
 40
0.1210623324
 40
0.1545255671
 40
0.1909112965
 40
0.22988625
 40
0.2711392043
 40
0.3143620298
 40
0.3592386877
 40
0.4054212802
 40
0.5000317667
 40
0.5946433228
 40
0.6856707632
 40
0.7701281441
 40
0.8454801985
 40
0.909123659
 40
0.9581055006
 40
1.0
 40
1.0
 40
1.0
 40
1.0
 10
141.7294831758
 20
72.4174161012
 30
0.0
 10
141.7295426777
 20
72.4174161012
 30
0.0
 10
141.729217368
 20
72.4177534702
 30
0.0
 10
141.729171035
 20
72.4181018013
 30
0.0
 10
141.7286345207
 20
72.4189573037
 30
0.0
 10
141.7281001698
 20
72.4200248488
 30
0.0
 10
141.7273280792
 20
72.4214479206
 30
0.0
 10
141.7260040139
 20
72.4239467603
 30
0.0
 10
141.7239204347
 20
72.4278579874
 30
0.0
 10
141.7209418135
 20
72.4334752097
 30
0.0
 10
141.7173113128
 20
72.4403295143
 30
0.0
 10
141.7130418721
 20
72.4484093715
 30
0.0
 10
141.7060955371
 20
72.4615969988
 30
0.0
 10
141.6959114106
 20
72.4810519806
 30
0.0
 10
141.6819840757
 20
72.5079105615
 30
0.0
 10
141.6658551405
 20
72.5393486025
 30
0.0
 10
141.6476888152
 20
72.5752402545
 30
0.0
 10
141.6276552058
 20
72.615444012
 30
0.0
 10
141.6059287786
 20
72.6598125798
 30
0.0
 10
141.5827088923
 20
72.7082052606
 30
0.0
 10
141.5489542628
 20
72.7801822648
 30
0.0
 10
141.5043725344
 20
72.879104254
 30
0.0
 10
141.4497801373
 20
73.0082949158
 30
0.0
 10
141.3943553977
 20
73.1504573142
 30
0.0
 10
141.3400009307
 20
73.3046745143
 30
0.0
 10
141.2887326756
 20
73.4700239175
 30
0.0
 10
141.2426375016
 20
73.6454737672
 30
0.0
 10
141.2038248882
 20
73.8297736611
 30
0.0
 10
141.1641671409
 20
74.0871368599
 30
0.0
 10
141.1432078824
 20
74.4174146734
 30
0.0
 10
141.1681369302
 20
74.8105247897
 30
0.0
 10
141.2366335242
 20
75.1837053595
 30
0.0
 10
141.3339759844
 20
75.5220760476
 30
0.0
 10
141.4432743495
 20
75.8158870844
 30
0.0
 10
141.5488194609
 20
76.0574598936
 30
0.0
 10
141.6431821459
 20
76.2524860921
 30
0.0
 10
141.7018459225
 20
76.3655939409
 30
0.0
 10
141.7294831758
 20
76.4174161012
 30
0.0
  0
LINE
  5
2F7
330
218
100
AcDbEntity
 67
     1
  8
7_ALL_FEATURES
  6
Continuous
 62
     7
100
AcDbLine
 10
131.9794831758
 20
71.9924161012
 30
0.0
 11
135.1843982039
 21
71.9924161012
 31
0.0
  0
LINE
  5
2F8
330
218
100
AcDbEntity
 67
     1
  8
7_ALL_FEATURES
  6
Continuous
 62
     7
100
AcDbLine
 10
135.1843982039
 20
76.8424161012
 30
0.0
 11
141.7294831755
 21
76.8424161012
 31
0.0
  0
LINE
  5
2F9
330
218
100
AcDbEntity
 67
     1
  8
7_ALL_FEATURES
  6
Continuous
 62
     7
100
AcDbLine
 10
135.1843982039
 20
76.8424161012
 30
0.0
 11
135.1843982039
 21
71.9924161012
 31
0.0
  0
LINE
  5
2FA
330
218
100
AcDbEntity
 67
     1
  8
7_ALL_FEATURES
  6
Continuous
 62
     7
100
AcDbLine
 10
141.7211405625
 20
71.9174161012
 30
0.0
 11
134.3629368476
 21
71.9174161012
 31
0.0
  0
LINE
  5
2FB
330
218
100
AcDbEntity
 67
     1
  8
7_ALL_FEATURES
  6
Continuous
 62
     7
100
AcDbLine
 10
134.3629368476
 20
71.9174161012
 30
0.0
 11
133.3629368476
 21
71.9174161012
 31
0.0
  0
LINE
  5
2FC
330
218
100
AcDbEntity
 67
     1
  8
7_ALL_FEATURES
  6
Continuous
 62
     7
100
AcDbLine
 10
137.9794831758
 20
76.9174161012
 30
0.0
 11
137.9794831758
 21
76.8424161012
 31
0.0
  0
ARC
  5
2FD
330
218
100
AcDbEntity
 67
     1
  8
7_ALL_FEATURES
  6
Continuous
 62
     7
100
AcDbCircle
 10
137.9794831758
 20
74.4174161012
 30
0.0
 40
5.25
100
AcDbArc
 50
0.0
 51
133.5404072578
  0
ARC
  5
2FE
330
218
100
AcDbEntity
 67
     1
  8
7_ALL_FEATURES
  6
Continuous
 62
     7
100
AcDbCircle
 10
137.9794831758
 20
74.4174161012
 30
0.0
 40
5.25
100
AcDbArc
 50
226.4595927422
 51
360.0
  0
ARC
  5
2FF
330
218
100
AcDbEntity
 67
     1
  8
7_ALL_FEATURES
  6
Continuous
 62
     7
100
AcDbCircle
 10
137.9794831758
 20
74.4174161012
 30
0.0
 40
4.5
100
AcDbArc
 50
326.2510114040999
 51
33.7489885959
  0
ARC
  5
300
330
218
100
AcDbEntity
 67
     1
  8
7_ALL_FEATURES
  6
Continuous
 62
     7
100
AcDbCircle
 10
137.9794831758
 20
74.4174161012
 30
0.0
 40
5.25
100
AcDbArc
 50
208.4368901489
 51
226.4595927422
  0
LINE
  5
301
330
218
100
AcDbEntity
 67
     1
  8
7_ALL_FEATURES
  6
Continuous
 62
     7
100
AcDbLine
 10
137.9794831758
 20
71.9924161012
 30
0.0
 11
137.9794831758
 21
71.9174161012
 31
0.0
  0
LINE
  5
302
330
218
100
AcDbEntity
 67
     1
  8
7_ALL_FEATURES
  6
Continuous
 62
     7
100
AcDbLine
 10
134.3629368476
 20
76.9174161012
 30
0.0
 11
141.7211405625
 21
76.9174161012
 31
0.0
  0
ARC
  5
303
330
218
100
AcDbEntity
 67
     1
  8
7_ALL_FEATURES
  6
Continuous
 62
     7
100
AcDbCircle
 10
137.9794831758
 20
74.4174161012
 30
0.0
 40
5.25
100
AcDbArc
 50
207.617066241
 51
208.4368901489
  0
LINE
  5
304
330
218
100
AcDbEntity
 67
     1
  8
7_ALL_FEATURES
  6
Continuous
 62
     7
100
AcDbLine
 10
134.3629368476
 20
76.9174161012
 30
0.0
 11
133.3629368476
 21
76.9174161012
 31
0.0
  0
ARC
  5
305
330
218
100
AcDbEntity
 67
     1
  8
7_ALL_FEATURES
  6
Continuous
 62
     7
100
AcDbCircle
 10
137.9794831758
 20
74.4174161012
 30
0.0
 40
5.25
100
AcDbArc
 50
133.5404072578
 51
151.5631098511
  0
ARC
  5
306
330
218
100
AcDbEntity
 67
     1
  8
7_ALL_FEATURES
  6
Continuous
 62
     7
100
AcDbCircle
 10
137.9794831758
 20
74.4174161012
 30
0.0
 40
5.25
100
AcDbArc
 50
151.5631098511
 51
152.382757855
  0
LINE
  5
307
330
218
100
AcDbEntity
 67
     1
  8
7_ALL_FEATURES
  6
Continuous
 62
     9
100
AcDbLine
 10
134.3629368476
 20
71.9174161012
 30
0.0
 11
134.3629368476
 21
70.6117502388
 31
0.0
  0
LINE
  5
308
330
218
100
AcDbEntity
 67
     1
  8
7_ALL_FEATURES
  6
Continuous
 62
     9
100
AcDbLine
 10
134.3629368476
 20
78.2230819636
 30
0.0
 11
134.3629368476
 21
76.9174161012
 31
0.0
  0
LINE
  5
309
330
218
100
AcDbEntity
 67
     1
  8
7_ALL_FEATURES
  6
Continuous
 62
     7
100
AcDbLine
 10
131.9794831758
 20
79.6674161012
 30
0.0
 11
131.9794831758
 21
78.4174161012
 31
0.0
  0
LINE
  5
30A
330
218
100
AcDbEntity
 67
     1
  8
7_ALL_FEATURES
  6
Continuous
 62
     7
100
AcDbLine
 10
131.9794831758
 20
78.4174161012
 30
0.0
 11
131.9794831758
 21
77.9174161012
 31
0.0
  0
LINE
  5
30B
330
218
100
AcDbEntity
 67
     1
  8
7_ALL_FEATURES
  6
Continuous
 62
     7
100
AcDbLine
 10
131.9794831758
 20
77.9174161012
 30
0.0
 11
131.9794831758
 21
76.8424161012
 31
0.0
  0
LINE
  5
30C
330
218
100
AcDbEntity
 67
     1
  8
7_ALL_FEATURES
  6
Continuous
 62
     7
100
AcDbLine
 10
131.9794831758
 20
76.8424161012
 30
0.0
 11
131.9794831758
 21
74.4174161012
 31
0.0
  0
LINE
  5
30D
330
218
100
AcDbEntity
 67
     1
  8
7_ALL_FEATURES
  6
Continuous
 62
     7
100
AcDbLine
 10
131.9794831758
 20
74.4174161012
 30
0.0
 11
131.9794831758
 21
71.9924161012
 31
0.0
  0
LINE
  5
30E
330
218
100
AcDbEntity
 67
     1
  8
7_ALL_FEATURES
  6
Continuous
 62
     7
100
AcDbLine
 10
131.9794831758
 20
71.9924161012
 30
0.0
 11
131.9794831758
 21
70.9174161012
 31
0.0
  0
LINE
  5
30F
330
218
100
AcDbEntity
 67
     1
  8
7_ALL_FEATURES
  6
Continuous
 62
     7
100
AcDbLine
 10
131.9794831758
 20
70.9174161012
 30
0.0
 11
131.9794831758
 21
70.4174161012
 31
0.0
  0
LINE
  5
310
330
218
100
AcDbEntity
 67
     1
  8
7_ALL_FEATURES
  6
Continuous
 62
     7
100
AcDbLine
 10
131.9794831758
 20
70.4174161012
 30
0.0
 11
131.9794831758
 21
69.1674161012
 31
0.0
  0
LINE
  5
311
330
218
100
AcDbEntity
 67
     1
  8
7_ALL_FEATURES
  6
Continuous
 62
     7
100
AcDbLine
 10
126.0794831758
 20
68.6674161012
 30
0.0
 11
126.0794831758
 21
69.1674161012
 31
0.0
  0
LINE
  5
312
330
218
100
AcDbEntity
 67
     1
  8
7_ALL_FEATURES
  6
Continuous
 62
     7
100
AcDbLine
 10
126.0794831758
 20
69.1674161012
 30
0.0
 11
126.0794831758
 21
72.4174161012
 31
0.0
  0
LINE
  5
313
330
218
100
AcDbEntity
 67
     1
  8
7_ALL_FEATURES
  6
Continuous
 62
     7
100
AcDbLine
 10
126.0794831758
 20
72.4174161012
 30
0.0
 11
126.0794831758
 21
74.4174161012
 31
0.0
  0
LINE
  5
314
330
218
100
AcDbEntity
 67
     1
  8
7_ALL_FEATURES
  6
Continuous
 62
     7
100
AcDbLine
 10
126.0794831758
 20
74.4174161012
 30
0.0
 11
126.0794831758
 21
76.4174161012
 31
0.0
  0
LINE
  5
315
330
218
100
AcDbEntity
 67
     1
  8
7_ALL_FEATURES
  6
Continuous
 62
     7
100
AcDbLine
 10
126.0794831758
 20
76.4174161012
 30
0.0
 11
126.0794831758
 21
79.6674161012
 31
0.0
  0
LINE
  5
316
330
218
100
AcDbEntity
 67
     1
  8
7_ALL_FEATURES
  6
Continuous
 62
     7
100
AcDbLine
 10
126.0794831758
 20
79.6674161012
 30
0.0
 11
126.0794831758
 21
80.1674161012
 31
0.0
  0
LINE
  5
317
330
218
100
AcDbEntity
 67
     1
  8
7_ALL_FEATURES
  6
Continuous
 62
     7
100
AcDbLine
 10
126.0794831758
 20
80.1674161012
 30
0.0
 11
127.5794831758
 21
80.1674161012
 31
0.0
  0
LINE
  5
318
330
218
100
AcDbEntity
 67
     1
  8
7_ALL_FEATURES
  6
Continuous
 62
     7
100
AcDbLine
 10
127.5794831758
 20
68.6674161012
 30
0.0
 11
127.5794831758
 21
69.1674161012
 31
0.0
  0
LINE
  5
319
330
218
100
AcDbEntity
 67
     1
  8
7_ALL_FEATURES
  6
Continuous
 62
     7
100
AcDbLine
 10
127.5794831758
 20
69.1674161012
 30
0.0
 11
127.5794831758
 21
79.6674161012
 31
0.0
  0
LINE
  5
31A
330
218
100
AcDbEntity
 67
     1
  8
7_ALL_FEATURES
  6
Continuous
 62
     7
100
AcDbLine
 10
127.5794831758
 20
79.6674161012
 30
0.0
 11
127.5794831758
 21
80.1674161012
 31
0.0
  0
LINE
  5
31B
330
218
100
AcDbEntity
 67
     1
  8
7_ALL_FEATURES
  6
Continuous
 62
     7
100
AcDbLine
 10
126.0794831758
 20
68.6674161012
 30
0.0
 11
127.5794831758
 21
68.6674161012
 31
0.0
  0
LINE
  5
31C
330
218
100
AcDbEntity
 67
     1
  8
7_ALL_FEATURES
  6
Continuous
 62
     7
100
AcDbLine
 10
124.1794831758
 20
68.6674161012
 30
0.0
 11
124.1794831758
 21
69.1674161012
 31
0.0
  0
LINE
  5
31D
330
218
100
AcDbEntity
 67
     1
  8
7_ALL_FEATURES
  6
Continuous
 62
     7
100
AcDbLine
 10
124.1794831758
 20
69.1674161012
 30
0.0
 11
124.1794831758
 21
79.6674161012
 31
0.0
  0
LINE
  5
31E
330
218
100
AcDbEntity
 67
     1
  8
7_ALL_FEATURES
  6
Continuous
 62
     7
100
AcDbLine
 10
124.1794831758
 20
79.6674161012
 30
0.0
 11
124.1794831758
 21
80.1674161012
 31
0.0
  0
LINE
  5
31F
330
218
100
AcDbEntity
 67
     1
  8
7_ALL_FEATURES
  6
Continuous
 62
     7
100
AcDbLine
 10
122.9794831758
 20
68.6674161012
 30
0.0
 11
124.1794831758
 21
68.6674161012
 31
0.0
  0
LINE
  5
320
330
218
100
AcDbEntity
 67
     1
  8
7_ALL_FEATURES
  6
Continuous
 62
     7
100
AcDbLine
 10
122.9794831758
 20
80.1674161012
 30
0.0
 11
124.1794831758
 21
80.1674161012
 31
0.0
  0
LINE
  5
321
330
218
100
AcDbEntity
 67
     1
  8
7_ALL_FEATURES
  6
Continuous
 62
     7
100
AcDbLine
 10
129.4794831758
 20
68.6674161012
 30
0.0
 11
129.4794831758
 21
69.1674161012
 31
0.0
  0
LINE
  5
322
330
218
100
AcDbEntity
 67
     1
  8
7_ALL_FEATURES
  6
Continuous
 62
     7
100
AcDbLine
 10
129.4794831758
 20
69.1674161012
 30
0.0
 11
129.4794831758
 21
79.6674161012
 31
0.0
  0
LINE
  5
323
330
218
100
AcDbEntity
 67
     1
  8
7_ALL_FEATURES
  6
Continuous
 62
     7
100
AcDbLine
 10
129.4794831758
 20
79.6674161012
 30
0.0
 11
129.4794831758
 21
80.1674161012
 31
0.0
  0
LINE
  5
324
330
218
100
AcDbEntity
 67
     1
  8
7_ALL_FEATURES
  6
Continuous
 62
     7
100
AcDbLine
 10
129.4794831758
 20
80.1674161012
 30
0.0
 11
131.4794831758
 21
80.1674161012
 31
0.0
  0
LINE
  5
325
330
218
100
AcDbEntity
 67
     1
  8
7_ALL_FEATURES
  6
Continuous
 62
     7
100
AcDbLine
 10
129.4794831758
 20
68.6674161012
 30
0.0
 11
131.4794831758
 21
68.6674161012
 31
0.0
  0
LINE
  5
326
330
218
100
AcDbEntity
 67
     1
  8
7_ALL_FEATURES
  6
Continuous
 62
     7
100
AcDbLine
 10
129.4794831758
 20
79.6674161012
 30
0.0
 11
127.5794831758
 21
79.6674161012
 31
0.0
  0
LINE
  5
327
330
218
100
AcDbEntity
 67
     1
  8
7_ALL_FEATURES
  6
Continuous
 62
     7
100
AcDbLine
 10
131.9794831759
 20
69.1674161014
 30
0.0
 11
131.4794831759
 21
68.6674161014
 31
0.0
  0
LINE
  5
328
330
218
100
AcDbEntity
 67
     1
  8
7_ALL_FEATURES
  6
Continuous
 62
     7
100
AcDbLine
 10
131.9794831759
 20
79.6674161011
 30
0.0
 11
131.4794831759
 21
80.167416101
 31
0.0
  0
LINE
  5
329
330
218
100
AcDbEntity
 67
     1
  8
7_ALL_FEATURES
  6
Continuous
 62
     7
100
AcDbLine
 10
129.4794831758
 20
69.1674161012
 30
0.0
 11
127.5794831758
 21
69.1674161012
 31
0.0
  0
LINE
  5
32A
330
218
100
AcDbEntity
 67
     1
  8
7_ALL_FEATURES
  6
Continuous
 62
     7
100
AcDbLine
 10
126.0794831758
 20
79.6674161012
 30
0.0
 11
124.1794831758
 21
79.6674161012
 31
0.0
  0
LINE
  5
32B
330
218
100
AcDbEntity
 67
     1
  8
7_ALL_FEATURES
  6
Continuous
 62
     7
100
AcDbLine
 10
126.0794831758
 20
69.1674161012
 30
0.0
 11
124.1794831758
 21
69.1674161012
 31
0.0
  0
LINE
  5
32C
330
218
100
AcDbEntity
 67
     1
  8
7_ALL_FEATURES
  6
Continuous
 62
     7
100
AcDbLine
 10
131.4794831758
 20
80.1674161012
 30
0.0
 11
131.4794831758
 21
68.6674161012
 31
0.0
  0
LINE
  5
32D
330
218
100
AcDbEntity
 67
     1
  8
7_ALL_FEATURES
  6
Continuous
 62
     7
100
AcDbLine
 10
87.9794831758
 20
65.5674161012
 30
0.0
 11
87.9794831758
 21
65.7674161012
 31
0.0
  0
LINE
  5
32E
330
218
100
AcDbEntity
 67
     1
  8
7_ALL_FEATURES
  6
Continuous
 62
     7
100
AcDbLine
 10
87.9794831758
 20
65.7674161012
 30
0.0
 11
87.9794831758
 21
74.4174161012
 31
0.0
  0
LINE
  5
32F
330
218
100
AcDbEntity
 67
     1
  8
7_ALL_FEATURES
  6
Continuous
 62
     7
100
AcDbLine
 10
87.9794831758
 20
74.4174161012
 30
0.0
 11
87.9794831758
 21
83.0674161012
 31
0.0
  0
LINE
  5
330
330
218
100
AcDbEntity
 67
     1
  8
7_ALL_FEATURES
  6
Continuous
 62
     7
100
AcDbLine
 10
87.9794831758
 20
83.0674161012
 30
0.0
 11
87.9794831758
 21
83.2674161012
 31
0.0
  0
LINE
  5
331
330
218
100
AcDbEntity
 67
     1
  8
7_ALL_FEATURES
  6
Continuous
 62
     7
100
AcDbLine
 10
122.9794831758
 20
82.5674161012
 30
0.0
 11
122.9794831758
 21
80.4174161012
 31
0.0
  0
LINE
  5
332
330
218
100
AcDbEntity
 67
     1
  8
7_ALL_FEATURES
  6
Continuous
 62
     7
100
AcDbLine
 10
122.9794831758
 20
80.4174161012
 30
0.0
 11
122.9794831758
 21
74.4174164807
 31
0.0
  0
LINE
  5
333
330
218
100
AcDbEntity
 67
     1
  8
7_ALL_FEATURES
  6
Continuous
 62
     7
100
AcDbLine
 10
122.9794831758
 20
74.4174164807
 30
0.0
 11
122.9794831758
 21
68.4174161012
 31
0.0
  0
LINE
  5
334
330
218
100
AcDbEntity
 67
     1
  8
7_ALL_FEATURES
  6
Continuous
 62
     7
100
AcDbLine
 10
122.9794831758
 20
68.4174161012
 30
0.0
 11
122.9794831758
 21
66.2674161012
 31
0.0
  0
LINE
  5
335
330
218
100
AcDbEntity
 67
     1
  8
7_ALL_FEATURES
  6
Continuous
 62
     7
100
AcDbLine
 10
88.2794831758
 20
83.5674161012
 30
0.0
 11
121.9794831758
 21
83.5674161012
 31
0.0
  0
LINE
  5
336
330
218
100
AcDbEntity
 67
     1
  8
7_ALL_FEATURES
  6
Continuous
 62
     7
100
AcDbLine
 10
88.2794831758
 20
65.2674161012
 30
0.0
 11
121.9794831758
 21
65.2674161012
 31
0.0
  0
LINE
  5
337
330
218
100
AcDbEntity
 67
     1
  8
7_ALL_FEATURES
  6
Continuous
 62
     7
100
AcDbLine
 10
122.9794831758
 20
82.5674161012
 30
0.0
 11
121.9794831758
 21
83.5674161012
 31
0.0
  0
LINE
  5
338
330
218
100
AcDbEntity
 67
     1
  8
7_ALL_FEATURES
  6
Continuous
 62
     7
100
AcDbLine
 10
122.9794831758
 20
66.2674161013
 30
0.0
 11
121.9794831758
 21
65.2674161013
 31
0.0
  0
LINE
  5
339
330
218
100
AcDbEntity
 67
     1
  8
7_ALL_FEATURES
  6
Continuous
 62
     7
100
AcDbLine
 10
87.9794831755
 20
65.5674161015
 30
0.0
 11
88.2794831755
 21
65.2674161015
 31
0.0
  0
LINE
  5
33A
330
218
100
AcDbEntity
 67
     1
  8
7_ALL_FEATURES
  6
Continuous
 62
     7
100
AcDbLine
 10
87.9794831755
 20
83.267416101
 30
0.0
 11
88.2794831755
 21
83.567416101
 31
0.0
  0
LINE
  5
33B
330
218
100
AcDbEntity
 67
     1
  8
7_ALL_FEATURES
  6
Continuous
 62
     7
100
AcDbLine
 10
121.9794831758
 20
83.5674161012
 30
0.0
 11
121.9794831758
 21
65.2674161012
 31
0.0
  0
LINE
  5
33C
330
218
100
AcDbEntity
 67
     1
  8
7_ALL_FEATURES
  6
Continuous
 62
     7
100
AcDbLine
 10
88.2794831758
 20
65.2674161012
 30
0.0
 11
88.2794831758
 21
83.5674161012
 31
0.0
  0
LINE
  5
33D
330
218
100
AcDbEntity
 67
     1
  8
3_ALL_AXES
  6
Continuous
 62
     7
100
AcDbLine
 10
186.102999861
 20
123.4473355117
 30
0.0
 11
189.6029386858
 21
123.4473355117
 31
0.0
  0
LINE
  5
33E
330
218
100
AcDbEntity
 67
     1
  8
3_ALL_AXES
  6
Continuous
 62
     7
100
AcDbLine
 10
189.6029386858
 20
123.4473355117
 30
0.0
 11
191.352999861
 21
123.4473355117
 31
0.0
  0
LINE
  5
33F
330
218
100
AcDbEntity
 67
     1
  8
7_ALL_FEATURES
  6
Continuous
 62
     7
100
AcDbLine
 10
186.102999861
 20
126.6973355117
 30
0.0
 11
190.852999861
 21
126.6973355117
 31
0.0
  0
LINE
  5
340
330
218
100
AcDbEntity
 67
     1
  8
7_ALL_FEATURES
  6
Continuous
 62
     7
100
AcDbLine
 10
190.852999861
 20
126.6973355117
 30
0.0
 11
191.352999861
 21
126.6973355117
 31
0.0
  0
LINE
  5
341
330
218
100
AcDbEntity
 67
     1
  8
7_ALL_FEATURES
  6
Continuous
 62
     7
100
AcDbLine
 10
186.102999861
 20
127.1973355117
 30
0.0
 11
181.352999861
 21
127.1973355117
 31
0.0
  0
LINE
  5
342
330
218
100
AcDbEntity
 67
     1
  8
7_ALL_FEATURES
  6
Continuous
 62
     7
100
AcDbLine
 10
181.352999861
 20
127.1973355117
 30
0.0
 11
180.852999861
 21
127.1973355117
 31
0.0
  0
LINE
  5
343
330
218
100
AcDbEntity
 67
     1
  8
3_ALL_AXES
  6
Continuous
 62
     7
100
AcDbLine
 10
180.852999861
 20
127.1973355117
 30
0.0
 11
180.852999861
 21
131.9662582367
 31
0.0
  0
LINE
  5
344
330
218
100
AcDbEntity
 67
     1
  8
7_ALL_FEATURES
  6
Continuous
 62
     7
100
AcDbLine
 10
180.852999861
 20
126.6973355117
 30
0.0
 11
181.352999861
 21
126.6973355117
 31
0.0
  0
LINE
  5
345
330
218
100
AcDbEntity
 67
     1
  8
7_ALL_FEATURES
  6
Continuous
 62
     7
100
AcDbLine
 10
181.352999861
 20
126.6973355117
 30
0.0
 11
186.102999861
 21
126.6973355117
 31
0.0
  0
LINE
  5
346
330
218
100
AcDbEntity
 67
     1
  8
3_ALL_AXES
  6
Continuous
 62
     7
100
AcDbLine
 10
180.852999861
 20
123.4473355117
 30
0.0
 11
182.6030610361
 21
123.4473355117
 31
0.0
  0
LINE
  5
347
330
218
100
AcDbEntity
 67
     1
  8
3_ALL_AXES
  6
Continuous
 62
     7
100
AcDbLine
 10
182.6030610361
 20
123.4473355117
 30
0.0
 11
186.102999861
 21
123.4473355117
 31
0.0
  0
LINE
  5
348
330
218
100
AcDbEntity
 67
     1
  8
3_ALL_AXES
  6
Continuous
 62
     7
100
AcDbLine
 10
180.852999861
 20
123.4473355117
 30
0.0
 11
180.852999861
 21
126.6973355117
 31
0.0
  0
LINE
  5
349
330
218
100
AcDbEntity
 67
     1
  8
7_ALL_FEATURES
  6
Continuous
 62
     7
100
AcDbLine
 10
191.352999861
 20
127.1973355117
 30
0.0
 11
190.852999861
 21
127.1973355117
 31
0.0
  0
LINE
  5
34A
330
218
100
AcDbEntity
 67
     1
  8
7_ALL_FEATURES
  6
Continuous
 62
     7
100
AcDbLine
 10
190.852999861
 20
127.1973355117
 30
0.0
 11
186.102999861
 21
127.1973355117
 31
0.0
  0
LINE
  5
34B
330
218
100
AcDbEntity
 67
     1
  8
3_ALL_AXES
  6
Continuous
 62
     7
100
AcDbLine
 10
191.352999861
 20
127.1973355117
 30
0.0
 11
191.352999861
 21
131.9662583463
 31
0.0
  0
LINE
  5
34C
330
218
100
AcDbEntity
 67
     1
  8
3_ALL_AXES
  6
Continuous
 62
     7
100
AcDbLine
 10
191.352999861
 20
123.4473355117
 30
0.0
 11
191.352999861
 21
126.6973355117
 31
0.0
  0
LINE
  5
34D
330
218
100
AcDbEntity
 67
     1
  8
7_ALL_FEATURES
  6
Continuous
 62
     7
100
AcDbLine
 10
190.852999861
 20
126.6973355117
 30
0.0
 11
190.852999861
 21
127.1973355117
 31
0.0
  0
LINE
  5
34E
330
218
100
AcDbEntity
 67
     1
  8
7_ALL_FEATURES
  6
Continuous
 62
     7
100
AcDbLine
 10
181.352999861
 20
126.6973355117
 30
0.0
 11
181.352999861
 21
127.1973355117
 31
0.0
  0
ARC
  5
34F
330
218
100
AcDbEntity
 67
     1
  8
3_ALL_AXES
  6
Continuous
 62
     7
100
AcDbCircle
 10
186.102999861
 20
139.4473355117
 30
0.0
 40
7.0
100
AcDbArc
 50
90.0
 51
270.0
  0
ARC
  5
350
330
218
100
AcDbEntity
 67
     1
  8
3_ALL_AXES
  6
Continuous
 62
     7
100
AcDbCircle
 10
186.102999861
 20
139.4473355117
 30
0.0
 40
8.55
100
AcDbArc
 50
90.0
 51
270.0
  0
ARC
  5
351
330
218
100
AcDbEntity
 67
     1
  8
3_ALL_AXES
  6
Continuous
 62
     7
100
AcDbCircle
 10
186.102999861
 20
139.4473355117
 30
0.0
 40
8.55
100
AcDbArc
 50
270.0
 51
90.0
  0
ARC
  5
352
330
218
100
AcDbEntity
 67
     1
  8
3_ALL_AXES
  6
Continuous
 62
     7
100
AcDbCircle
 10
186.102999861
 20
139.4473355117
 30
0.0
 40
7.0
100
AcDbArc
 50
270.0
 51
90.0
  0
ARC
  5
353
330
218
100
AcDbEntity
 67
     1
  8
3_ALL_AXES
  6
Continuous
 62
     7
100
AcDbCircle
 10
186.102999861
 20
139.4473355117
 30
0.0
 40
8.25
100
AcDbArc
 50
90.0
 51
270.0
  0
ARC
  5
354
330
218
100
AcDbEntity
 67
     1
  8
3_ALL_AXES
  6
Continuous
 62
     7
100
AcDbCircle
 10
186.102999861
 20
139.4473355117
 30
0.0
 40
8.25
100
AcDbArc
 50
270.0
 51
90.0
  0
ARC
  5
355
330
218
100
AcDbEntity
 67
     1
  8
7_ALL_FEATURES
  6
Continuous
 62
     7
100
AcDbCircle
 10
186.102999861
 20
139.4473355117
 30
0.0
 40
8.65
100
AcDbArc
 50
270.0
 51
90.0
  0
ARC
  5
356
330
218
100
AcDbEntity
 67
     1
  8
7_ALL_FEATURES
  6
Continuous
 62
     7
100
AcDbCircle
 10
186.102999861
 20
139.4473355117
 30
0.0
 40
8.65
100
AcDbArc
 50
90.0
 51
270.0
  0
ARC
  5
357
330
218
100
AcDbEntity
 67
     1
  8
7_ALL_FEATURES
  6
Continuous
 62
     7
100
AcDbCircle
 10
186.102999861
 20
139.4473355117
 30
0.0
 40
9.15
100
AcDbArc
 50
0.0
 51
180.0
  0
ARC
  5
358
330
218
100
AcDbEntity
 67
     1
  8
7_ALL_FEATURES
  6
Continuous
 62
     7
100
AcDbCircle
 10
186.102999861
 20
139.4473355117
 30
0.0
 40
9.15
100
AcDbArc
 50
180.0
 51
360.0
  0
ARC
  5
359
330
218
100
AcDbEntity
 67
     1
  8
7_ALL_FEATURES
  6
Continuous
 62
     7
100
AcDbCircle
 10
186.102999861
 20
139.4473355117
 30
0.0
 40
8.85
100
AcDbArc
 50
180.0
 51
360.0
  0
ARC
  5
35A
330
218
100
AcDbEntity
 67
     1
  8
7_ALL_FEATURES
  6
Continuous
 62
     7
100
AcDbCircle
 10
186.102999861
 20
139.4473355117
 30
0.0
 40
8.85
100
AcDbArc
 50
0.0
 51
180.0
  0
DIMENSION
  5
35B
330
218
100
AcDbEntity
 67
     1
  8
0
  6
Continuous
 62
     2
100
AcDbDimension
280
     0
  2
*D1
 10
158.3452948839
 20
123.4473355117
 30
0.0
 11
158.3452948839
 21
135.9936663536
 31
0.0
 70
   160
 71
     2
 42
25.15
 73
     0
 74
     0
 75
     0
  3
DIMSTYLE_1
100
AcDbAlignedDimension
 13
140.1104510957
 23
148.5973355117
 33
0.0
 14
145.87833995
 24
123.4473355117
 34
0.0
 50
270.0
100
AcDbRotatedDimension
  0
DIMENSION
  5
35C
330
218
100
AcDbEntity
 67
     1
  8
0
  6
Continuous
 62
     2
100
AcDbDimension
280
     0
  2
*D2
 10
143.2294831758
 20
93.1741281609
 30
0.0
 11
115.6044831758
 21
93.1741281609
 31
0.0
 70
   160
  1
<> - 47,75
 71
     2
 42
55.25
 73
     0
 74
     0
 75
     0
  3
DIMSTYLE_2
100
AcDbAlignedDimension
 13
87.9794831758
 23
85.2768936541
 33
0.0
 14
143.2294831758
 24
84.0081044216
 34
0.0
100
AcDbRotatedDimension
  0
DIMENSION
  5
35D
330
218
100
AcDbEntity
 67
     1
  8
0
  6
Continuous
 62
     2
100
AcDbDimension
280
     0
  2
*D3
 10
194.3209167907
 20
143.4708093012
 30
0.0
 11
203.5562512754
 21
150.4976053531
 31
0.0
 70
   163
  1
%%c<>
 71
     1
 42
18.3
 73
     0
 74
     0
 75
     0
  3
DIMSTYLE_3
100
AcDbDiametricDimension
 15
177.8850829312
 25
135.4238617221
 35
0.0
 40
0.0
  0
INSERT
  5
35E
330
218
100
AcDbEntity
 67
     1
  8
0
  6
Continuous
 62
     2
100
AcDbBlockReference
  2
LOGO2_BL0
 10
207.8284587569
 20
39.54351784
 30
0.0
  0
ACAD_TABLE
  5
35F
330
218
100
AcDbEntity
 67
     1
  8
0
  6
Continuous
 62
     2
160
              3324
310
FC0C000019000000880000001D000000000000000000F03F00000000000000000000000000000000D820BAC1134068400000000000000000000000000000F03F0000000000000000D9CB19FE91854A4000000000000000000000000000000000000000000000F03F0000000000000000000000000000000000000000000000
310
000000000000000000000000000000F03F54000000200000000200000000000000000000000000000000000000000000000000000000000000008056400000000000000000000000000000000000000000000000000000000000000000000000000000F03F5400000020000000020000000000000000000000000000000000
310
00000000000000000000000000000000000000000000000044C0000000000000000000000000000000000000000000000000000000000000F03F5400000020000000020000000000000000003E4000000000000018C00000000000000000000000000080564000000000000018C00000000000000000000000000000000000
310
00000000000000000000000000F03F5400000020000000020000000000000000003E4000000000000028C00000000000000000000000000080564000000000000028C0000000000000000000000000000000000000000000000000000000000000F03F5400000020000000020000000000000000003E4000000000000036C0
310
0000000000000000000000000080564000000000000036C0000000000000000000000000000000000000000000000000000000000000F03F54000000200000000200000000000000000000000000000000003BC0000000000000000000000000008056400000000000003BC000000000000000000000000000000000000000
310
0000000000000000000000F03F540000002000000002000000000000000000000000000000000044C00000000000000000000000000080564000000000000044C0000000000000000000000000000000000000000000000000000000000000F03F5400000020000000020000000000000000003E4000000000000000000000
310
0000000000000000000000003E400000000000003BC0000000000000000000000000000000000000000000000000000000000000F03F540000002000000002000000000000000080514000000000000000000000000000000000000000000080514000000000000028C0000000000000000000000000000000000000000000
310
000000000000000000F03F540000002000000002000000000000000080564000000000000000000000000000000000000000000080564000000000000044C0000000000000000000000000000000000000000000000000000000000000F03F0C0000001000000013000000BC00000026000000CDCCCCCCCC7C3F4000000000
310
000012C0000000000000000000000000000000000000000000000000000000000000F03F000000000000F03F000000000000000000000000000000003100370034003800380031000000000006000000010000000000000000000840333333333333EB3F0000000000000000000000000000F03F0000000000000000000000
310
0000000000000000000000000000000000000000000000000000000000740078007400000000000000BC000000260000003333333333DF514000000000000013C0000000000000000000000000000000000000000000000000000000000000F03F000000000000F03F00000000000000000000000000000000520065007600
310
3A00300030000000000006000000010000000000000000000C40333333333333EB3F0000000000000000000000000000F03F00000000000000000000000000000000000000000000000000000000000000000000000000000000740078007400000000000000C000000026000000CDCCCCCCCC7C3F4000000000008026C000
310
0000000000000000000000000000000000000000000000000000000000F03F000000000000F03F000000000000000000000000000000005300630061006C0065003A0031003A003100000009000000010000000000000000000C40333333333333EB3F0000000000000000000000000000F03F000000000000000000000000
310
00000000000000000000000000000000000000000000000000000000740078007400000000000000B4000000260000003333333333DF514000000000008025C0000000000000000000000000000000000000000000000000000000000000F03F000000000000F03F0000000000000000000000000000000041003400000000
310
0002000000010000000000000000000C40333333333333EB3F0000000000000000000000000000F03F00000000000000000000000000000000000000000000000000000000000000000000000000000000740078007400000000000000C000000026000000CDCCCCCCCC7C3F400000000000C032C000000000000000000000
310
0000000000000000000000000000000000000000F03F000000000000F03F000000000000000000000000000000004B00520049004C004C00200031002E003400000009000000010000000000000000000C40333333333333EB3F0000000000000000000000000000F03F000000000000000000000000000000000000000000
310
00000000000000000000000000000000000000740078007400000000000000C800000026000000CDCCCCCCCC7C3F400000000000C039C0000000000000000000000000000000000000000000000000000000000000F03F000000000000F03F0000000000000000000000000000000044004100540045003A00320038002E00
310
310031002E003100390000000D000000010000000000000000000440333333333333EB3F0000000000000000000000000000F03F000000000000000000000000000000000000000000000000000000000000000000000000000000007400780074000000000000001801000026000000CDCCCCCCCCCCF73F0000000000903D
310
C0000000000000000000000000000000000000000000000000000000000000F03F000000000000F03F0000000000000000000000000000000041006E007900200069006E00740065006700720061006C0020006F00720020007000610072007400690061006C00200072006500700072006F00640075006300740069006F00
310
6E00730020006100720065002000700072006F0068006900620069007400650064002000000035000000010000000000000000000240333333333333EB3F0000000000000000000000000000F03F00000000000000000000000000000000000000000000000000000000000000000000000000000000740078007400000000
310
0000002401000026000000CDCCCCCCCCCCF73F00000000007840C0000000000000000000000000000000000000000000000000000000000000F03F000000000000F03F0000000000000000000000000000000077006900740068006F007500740020007000720069006F007200200061007500740068006F00720069007300
310
6100740069006F006E0020006F00660020004C002000260020004C0020004C007500630065002000260020004C006900670068007400200073002E0072002E006C002E002C002000000000003A000000010000000000000000000240333333333333EB3F0000000000000000000000000000F03F0000000000000000000000
310
0000000000000000000000000000000000000000000000000000000000740078007400000000000000F800000026000000CDCCCCCCCCCCF73F00000000002842C0000000000000000000000000000000000000000000000000000000000000F03F000000000000F03F0000000000000000000000000000000069006E002000
310
6100630063006F007200640061006E006300650020007700690074006800200074006800650020006C0061007700200069006E00200066006F007200630065002E002000000025000000010000000000000000000240333333333333EB3F0000000000000000000000000000F03F0000000000000000000000000000000000
310
0000000000000000000000000000000000000000000000740078007400000000000000D800000026000000CDCCCCCCCCCCF73F0000000000D843C0000000000000000000000000000000000000000000000000000000000000F03F000000000000F03F0000000000000000000000000000000041006C006C00200072006900
310
67006800740073002000720065007300650072007600650064002E000000000014000000010000000000000000000240333333333333EB3F0000000000000000000000000000F03F00000000000000000000000000000000000000000000000000000000000000000000000000000000740078007400000000000000080000
310
001F000000880000001D000000000000000000F03F0000000000000000000000000000000000000000000000000000000000000000000000000000F03F0000000000000000000000000000000000000000000000000000000000000000000000000000F03F0000000000000000000000000000000000000000000000000000
310
000000000000000000000000F03F080000001F000000
100
AcDbBlockReference
  2
*T5
 10
194.0024117122
 20
53.04351784
 30
0.0
100
AcDbTable
342
363
343
21E
 11
1.0
 21
0.0
 31
0.0
 90
       54
 91
        5
 92
        5
 93
        0
 94
        0
 95
        0
 96
        0
141
6.0
141
6.0
141
10.0
141
5.0
141
13.0
142
10.0
142
10.0
142
10.0
142
40.0
142
20.0
171
     1
172
     0
173
     0
174
     0
175
     3
176
     4
 91
       33
178
     0
145
0.0
170
     5
140
3.5
 92
        0
301
CELL_VALUE
 93
        4
 90
        4
  1
 
 94
        0
300

302
 
304
ACVALUE_END
171
     1
172
     0
173
     1
174
     0
175
     1
176
     1
 91
        0
178
     0
145
0.0
 92
        0
301
CELL_VALUE
 93
        3
 90
        0
 91
        0
 94
        0
300

302

304
ACVALUE_END
171
     1
172
     0
173
     1
174
     0
175
     1
176
     1
 91
        0
178
     0
145
0.0
 92
        0
301
CELL_VALUE
 93
        3
 90
        0
 91
        0
 94
        0
300

302

304
ACVALUE_END
171
     1
172
     0
173
     0
174
     0
175
     1
176
     1
 91
       49
178
     0
145
0.0
170
     4
  7
TEXTSTYLE_3
140
3.0
 92
        0
301
CELL_VALUE
 93
        4
 90
        4
  1
174881
 94
        0
300

302
174881
304
ACVALUE_END
171
     1
172
     0
173
     0
174
     0
175
     1
176
     1
 91
       49
178
     0
145
0.0
170
     4
  7
TEXTSTYLE_3
140
3.5
 92
        0
301
CELL_VALUE
 93
        4
 90
        4
  1
Rev:00
 94
        0
300

302
Rev:00
304
ACVALUE_END
171
     1
172
     0
173
     1
174
     0
175
     1
176
     1
 91
        0
178
     0
145
0.0
 92
        0
301
CELL_VALUE
 93
        3
 90
        0
 91
        0
 94
        0
300

302

304
ACVALUE_END
171
     1
172
     0
173
     1
174
     0
175
     1
176
     1
 91
        0
178
     0
145
0.0
 92
        0
301
CELL_VALUE
 93
        3
 90
        0
 91
        0
 94
        0
300

302

304
ACVALUE_END
171
     1
172
     0
173
     1
174
     0
175
     1
176
     1
 91
        0
178
     0
145
0.0
 92
        0
301
CELL_VALUE
 93
        3
 90
        0
 91
        0
 94
        0
300

302

304
ACVALUE_END
171
     1
172
     0
173
     0
174
     0
175
     1
176
     1
 91
       48
178
     0
145
0.0
  7
TEXTSTYLE_3
140
3.5
 92
        0
301
CELL_VALUE
 93
        4
 90
        4
  1
Scale:1:1
 94
        0
300

302
Scale:1:1
304
ACVALUE_END
171
     1
172
     0
173
     0
174
     0
175
     1
176
     1
 91
       49
178
     0
145
0.0
170
     4
  7
TEXTSTYLE_3
140
3.5
 92
        0
301
CELL_VALUE
 93
        4
 90
        4
  1
A4
 94
        0
300

302
A4
304
ACVALUE_END
171
     1
172
     0
173
     1
174
     0
175
     1
176
     1
 91
        0
178
     0
145
0.0
 92
        0
301
CELL_VALUE
 93
        3
 90
        0
 91
        0
 94
        0
300

302

304
ACVALUE_END
171
     1
172
     0
173
     1
174
     0
175
     1
176
     1
 91
        0
178
     0
145
0.0
 92
        0
301
CELL_VALUE
 93
        3
 90
        0
 91
        0
 94
        0
300

302

304
ACVALUE_END
171
     1
172
     0
173
     1
174
     0
175
     1
176
     1
 91
        0
178
     0
145
0.0
 92
        0
301
CELL_VALUE
 93
        3
 90
        0
 91
        0
 94
        0
300

302

304
ACVALUE_END
171
     1
172
     0
173
     0
174
     0
175
     2
176
     1
 91
       49
178
     0
145
0.0
170
     4
  7
TEXTSTYLE_3
140
3.5
 92
        0
301
CELL_VALUE
 93
        4
 90
        4
  1
KRILL 1.4
 94
        0
300

302
KRILL 1.4
304
ACVALUE_END
171
     1
172
     0
173
     1
174
     0
175
     1
176
     1
 91
        0
178
     0
145
0.0
 92
        0
301
CELL_VALUE
 93
        3
 90
        0
 91
        0
 94
        0
300

302

304
ACVALUE_END
171
     1
172
     0
173
     1
174
     0
175
     1
176
     1
 91
        0
178
     0
145
0.0
 92
        0
301
CELL_VALUE
 93
        3
 90
        0
 91
        0
 94
        0
300

302

304
ACVALUE_END
171
     1
172
     0
173
     1
174
     0
175
     1
176
     1
 91
        0
178
     0
145
0.0
 92
        0
301
CELL_VALUE
 93
        3
 90
        0
 91
        0
 94
        0
300

302

304
ACVALUE_END
171
     1
172
     0
173
     1
174
     0
175
     1
176
     1
 91
        0
178
     0
145
0.0
 92
        0
301
CELL_VALUE
 93
        3
 90
        0
 91
        0
 94
        0
300

302

304
ACVALUE_END
171
     1
172
     0
173
     0
174
     0
175
     2
176
     1
 91
       49
178
     0
145
0.0
170
     4
  7
TEXTSTYLE_3
140
2.5
 92
        0
301
CELL_VALUE
 93
        4
 90
        4
  1
DATE:28.11.19
 94
        0
300

302
DATE:28.11.19
304
ACVALUE_END
171
     1
172
     0
173
     1
174
     0
175
     1
176
     1
 91
        0
178
     0
145
0.0
 92
        0
301
CELL_VALUE
 93
        3
 90
        0
 91
        0
 94
        0
300

302

304
ACVALUE_END
171
     1
172
     0
173
     0
174
     0
175
     5
176
     1
 91
       49
178
     0
145
0.0
170
     4
  7
TEXTSTYLE_3
140
2.25
 92
        0
301
CELL_VALUE
 93
        4
 90
        4
  1
Any integral or partial reproductions are prohibited \Pwithout prior authorisation of L & L Luce & Light s.r.l., \Pin accordance with the law in force. \PAll rights reserved.
 94
        0
300

302
Any integral or partial reproductions are prohibited \Pwithout prior authorisation of L & L Luce & Light s.r.l., \Pin accordance with the law in force. \PAll rights reserved.
304
ACVALUE_END
171
     1
172
     0
173
     1
174
     0
175
     1
176
     1
 91
        0
178
     0
145
0.0
 92
        0
301
CELL_VALUE
 93
        3
 90
        0
 91
        0
 94
        0
300

302

304
ACVALUE_END
171
     1
172
     0
173
     1
174
     0
175
     1
176
     1
 91
        0
178
     0
145
0.0
 92
        0
301
CELL_VALUE
 93
        3
 90
        0
 91
        0
 94
        0
300

302

304
ACVALUE_END
171
     1
172
     0
173
     1
174
     0
175
     1
176
     1
 91
        0
178
     0
145
0.0
 92
        0
301
CELL_VALUE
 93
        3
 90
        0
 91
        0
 94
        0
300

302

304
ACVALUE_END
171
     1
172
     0
173
     1
174
     0
175
     1
176
     1
 91
        0
178
     0
145
0.0
 92
        0
301
CELL_VALUE
 93
        3
 90
        0
 91
        0
 94
        0
300

302

304
ACVALUE_END
  0
ENDSEC
  0
SECTION
  2
OBJECTS
  0
DICTIONARY
  5
C
330
0
100
AcDbDictionary
281
     1
  3
ACAD_DETAILVIEWSTYLE
350
3B2
  3
ACAD_GROUP
350
D
  3
ACAD_LAYOUT
350
1A
  3
ACAD_MATERIAL
350
3A1
  3
ACAD_MLEADERSTYLE
350
3A5
  3
ACAD_MLINESTYLE
350
17
  3
ACAD_PLOTSETTINGS
350
19
  3
ACAD_PLOTSTYLENAME
350
E
  3
ACAD_SCALELIST
350
365
  3
ACAD_SECTIONVIEWSTYLE
350
3B3
  3
ACAD_TABLESTYLE
350
360
  3
ACAD_VISUALSTYLE
350
387
  3
ACDB_RECOMPOSE_DATA
350
3AF
  3
AcDbVariableDictionary
350
3A9
  3
APPDATA
350
3A7
  0
SUN
  5
3A8
330
29B
100
AcDbSun
 90
        1
290
     0
 63
     7
421
 16777215
 40
1.0
291
     1
 91
  2455826
 92
 54000000
292
     0
 70
     2
 71
   256
280
     1
  0
DICTIONARY
  5
3B2
102
{ACAD_REACTORS
330
C
102
}
330
C
100
AcDbDictionary
281
     1
  0
DICTIONARY
  5
D
102
{ACAD_REACTORS
330
C
102
}
330
C
100
AcDbDictionary
281
     1
  0
DICTIONARY
  5
1A
102
{ACAD_REACTORS
330
C
102
}
330
C
100
AcDbDictionary
281
     1
  3
174881_1
350
362
  3
Model
350
361
  0
DICTIONARY
  5
3A1
102
{ACAD_REACTORS
330
C
102
}
330
C
100
AcDbDictionary
281
     1
  3
ByBlock
350
3A3
  3
ByLayer
350
3A2
  3
Global
350
3A4
  0
DICTIONARY
  5
3A5
102
{ACAD_REACTORS
330
C
102
}
330
C
100
AcDbDictionary
281
     1
  3
Standard
350
3A6
  0
DICTIONARY
  5
17
102
{ACAD_REACTORS
330
C
102
}
330
C
100
AcDbDictionary
281
     1
  3
Standard
350
18
  0
DICTIONARY
  5
19
102
{ACAD_REACTORS
330
C
102
}
330
C
100
AcDbDictionary
281
     1
  0
ACDBDICTIONARYWDFLT
  5
E
102
{ACAD_REACTORS
330
C
102
}
330
C
100
AcDbDictionary
281
     1
  3
Normal
350
F
100
AcDbDictionaryWithDefault
340
F
  0
DICTIONARY
  5
365
102
{ACAD_REACTORS
330
C
102
}
330
C
100
AcDbDictionary
281
     1
  3
A0
350
366
  3
A1
350
367
  3
A2
350
368
  3
A3
350
369
  3
A4
350
36A
  3
A5
350
36B
  3
A6
350
36C
  3
A7
350
36D
  3
A8
350
36E
  3
A9
350
36F
  3
B0
350
370
  3
B1
350
371
  3
B2
350
372
  3
B3
350
373
  3
B4
350
374
  3
B5
350
375
  3
B6
350
376
  3
B7
350
377
  3
B8
350
378
  3
B9
350
379
  3
C0
350
37A
  3
C1
350
37B
  3
C2
350
37C
  3
C3
350
37D
  3
C4
350
37E
  3
C5
350
37F
  3
C6
350
380
  3
C7
350
381
  3
C8
350
382
  3
C9
350
383
  3
D0
350
384
  3
D1
350
385
  3
D2
350
386
  0
DICTIONARY
  5
3B3
102
{ACAD_REACTORS
330
C
102
}
330
C
100
AcDbDictionary
281
     1
  0
DICTIONARY
  5
360
330
C
100
AcDbDictionary
281
     1
  3
Standard
350
363
  3
Standard1
350
364
  0
DICTIONARY
  5
387
102
{ACAD_REACTORS
330
C
102
}
330
C
100
AcDbDictionary
281
     1
  3
2dWireframe
350
38C
  3
Basic
350
38F
  3
Brighten
350
393
  3
ColorChange
350
397
  3
Conceptual
350
391
  3
Dim
350
392
  3
EdgeColorOff
350
39A
  3
Facepattern
350
396
  3
Flat
350
388
  3
FlatWithEdges
350
389
  3
Gouraud
350
38A
  3
GouraudWithEdges
350
38B
  3
Hidden
350
38E
  3
JitterOff
350
398
  3
Linepattern
350
395
  3
OverhangOff
350
399
  3
Realistic
350
390
  3
Shaded
350
39F
  3
Shaded with edges
350
39E
  3
Shades of Gray
350
39B
  3
Sketchy
350
39C
  3
Thicken
350
394
  3
Wireframe
350
38D
  3
X-Ray
350
39D
  0
XRECORD
  5
3AF
102
{ACAD_REACTORS
330
C
102
}
330
C
100
AcDbXrecord
280
     1
 90
        1
330
364
330
363
  0
DICTIONARY
  5
3A9
102
{ACAD_REACTORS
330
C
102
}
330
C
100
AcDbDictionary
281
     1
  3
CANNOSCALE
350
3AA
  3
CMLEADERSTYLE
350
3B1
  3
CTABLESTYLE
350
3B0
  0
DICTIONARY
  5
3A7
102
{ACAD_REACTORS
330
C
102
}
330
C
100
AcDbDictionary
281
     1
  0
LAYOUT
  5
362
102
{ACAD_REACTORS
330
1A
102
}
330
1A
100
AcDbPlotSettings
  1

  2
none_device
  4
ISO_A4_(297.00_x_210.00_MM)
  6

 40
0.0
 41
0.0
 42
0.0
 43
0.0
 44
297.0
 45
210.0
 46
0.0
 47
0.0
 48
0.0
 49
0.0
140
0.0
141
0.0
142
1.0
143
1.0
 70
     0
 72
     1
 73
     0
 74
     0
  7

 75
     0
 76
     0
 77
     2
 78
   300
147
1.0
148
0.0
149
0.0
100
AcDbLayout
  1
174881_1
 70
     0
 71
     1
 10
0.0
 20
0.0
 11
297.0
 21
210.0
 12
0.0
 22
0.0
 32
0.0
 14
9.949999999999989
 24
9.950000000000003
 34
0.0
 15
291.7524117122
 25
200.05
 35
0.0
146
0.0
 13
0.0
 23
0.0
 33
0.0
 16
1.0
 26
0.0
 36
0.0
 17
0.0
 27
1.0
 37
0.0
 76
     0
330
218
331
29B
  0
LAYOUT
  5
361
102
{ACAD_REACTORS
330
1A
102
}
330
1A
100
AcDbPlotSettings
  1

  2
none_device
  4

  6

 40
0.0
 41
0.0
 42
0.0
 43
0.0
 44
297.0
 45
210.0
 46
0.0
 47
0.0
 48
0.0
 49
0.0
140
0.0
141
0.0
142
1.0
143
1.0
 70
  1024
 72
     1
 73
     0
 74
     0
  7

 75
     0
 76
     0
 77
     2
 78
   300
147
1.0
148
0.0
149
0.0
100
AcDbLayout
  1
Model
 70
     0
 71
     0
 10
0.0
 20
0.0
 11
297.0
 21
210.0
 12
0.0
 22
0.0
 32
0.0
 14
0.0
 24
0.0
 34
0.0
 15
0.0
 25
0.0
 35
0.0
146
0.0
 13
0.0
 23
0.0
 33
0.0
 16
1.0
 26
0.0
 36
0.0
 17
0.0
 27
1.0
 37
0.0
 76
     0
330
217
331
1F4
  0
MATERIAL
  5
3A3
102
{ACAD_REACTORS
330
3A1
102
}
330
3A1
100
AcDbMaterial
  1
ByBlock
 72
     1
 94
      127
  0
MATERIAL
  5
3A2
102
{ACAD_REACTORS
330
3A1
102
}
330
3A1
100
AcDbMaterial
  1
ByLayer
 72
     1
 94
      127
  0
MATERIAL
  5
3A4
102
{ACAD_REACTORS
330
3A1
102
}
330
3A1
100
AcDbMaterial
  1
Global
 72
     1
 94
      127
  0
MLEADERSTYLE
  5
3A6
102
{ACAD_REACTORS
330
3A5
102
}
330
3A5
100
AcDbMLeaderStyle
179
     2
170
     2
171
     1
172
     0
 90
        2
 40
0.0
 41
0.0
173
     1
 91
-1056964608
340
14
 92
       -2
290
     1
 42
2.0
291
     1
 43
8.0
  3
Standard
341
0
 44
4.0
300

342
11
174
     1
178
     1
175
     1
176
     0
 93
-1056964608
 45
4.0
292
     0
297
     0
 46
4.0
343
0
 94
-1056964608
 47
1.0
 49
1.0
140
1.0
293
     1
141
0.0
294
     1
177
     0
142
1.0
295
     0
296
     0
143
3.75
271
     0
272
     9
273
     9
298
     0
  0
MLINESTYLE
  5
18
102
{ACAD_REACTORS
330
17
102
}
330
17
100
AcDbMlineStyle
  2
STANDARD
 70
     0
  3

 62
   256
 51
90.0
 52
90.0
 71
     2
 49
0.5
 62
   256
  6
BYLAYER
 49
-0.5
 62
   256
  6
BYLAYER
  0
ACDBPLACEHOLDER
  5
F
102
{ACAD_REACTORS
330
E
102
}
330
E
  0
SCALE
  5
366
102
{ACAD_REACTORS
330
365
102
}
330
365
100
AcDbScale
 70
     0
300
1:1
140
1.0
141
1.0
290
     1
  0
SCALE
  5
367
102
{ACAD_REACTORS
330
365
102
}
330
365
100
AcDbScale
 70
     0
300
1:2
140
1.0
141
2.0
290
     0
  0
SCALE
  5
368
102
{ACAD_REACTORS
330
365
102
}
330
365
100
AcDbScale
 70
     0
300
1:4
140
1.0
141
4.0
290
     0
  0
SCALE
  5
369
102
{ACAD_REACTORS
330
365
102
}
330
365
100
AcDbScale
 70
     0
300
1:5
140
1.0
141
5.0
290
     0
  0
SCALE
  5
36A
102
{ACAD_REACTORS
330
365
102
}
330
365
100
AcDbScale
 70
     0
300
1:8
140
1.0
141
8.0
290
     0
  0
SCALE
  5
36B
102
{ACAD_REACTORS
330
365
102
}
330
365
100
AcDbScale
 70
     0
300
1:10
140
1.0
141
10.0
290
     0
  0
SCALE
  5
36C
102
{ACAD_REACTORS
330
365
102
}
330
365
100
AcDbScale
 70
     0
300
1:16
140
1.0
141
16.0
290
     0
  0
SCALE
  5
36D
102
{ACAD_REACTORS
330
365
102
}
330
365
100
AcDbScale
 70
     0
300
1:20
140
1.0
141
20.0
290
     0
  0
SCALE
  5
36E
102
{ACAD_REACTORS
330
365
102
}
330
365
100
AcDbScale
 70
     0
300
1:30
140
1.0
141
30.0
290
     0
  0
SCALE
  5
36F
102
{ACAD_REACTORS
330
365
102
}
330
365
100
AcDbScale
 70
     0
300
1:40
140
1.0
141
40.0
290
     0
  0
SCALE
  5
370
102
{ACAD_REACTORS
330
365
102
}
330
365
100
AcDbScale
 70
     0
300
1:50
140
1.0
141
50.0
290
     0
  0
SCALE
  5
371
102
{ACAD_REACTORS
330
365
102
}
330
365
100
AcDbScale
 70
     0
300
1:100
140
1.0
141
100.0
290
     0
  0
SCALE
  5
372
102
{ACAD_REACTORS
330
365
102
}
330
365
100
AcDbScale
 70
     0
300
2:1
140
2.0
141
1.0
290
     0
  0
SCALE
  5
373
102
{ACAD_REACTORS
330
365
102
}
330
365
100
AcDbScale
 70
     0
300
4:1
140
4.0
141
1.0
290
     0
  0
SCALE
  5
374
102
{ACAD_REACTORS
330
365
102
}
330
365
100
AcDbScale
 70
     0
300
8:1
140
8.0
141
1.0
290
     0
  0
SCALE
  5
375
102
{ACAD_REACTORS
330
365
102
}
330
365
100
AcDbScale
 70
     0
300
10:1
140
10.0
141
1.0
290
     0
  0
SCALE
  5
376
102
{ACAD_REACTORS
330
365
102
}
330
365
100
AcDbScale
 70
     0
300
100:1
140
100.0
141
1.0
290
     0
  0
SCALE
  5
377
102
{ACAD_REACTORS
330
365
102
}
330
365
100
AcDbScale
 70
     0
300
1/128" = 1'-0"
140
0.0078125
141
12.0
290
     0
  0
SCALE
  5
378
102
{ACAD_REACTORS
330
365
102
}
330
365
100
AcDbScale
 70
     0
300
1/64" = 1'-0"
140
0.015625
141
12.0
290
     0
  0
SCALE
  5
379
102
{ACAD_REACTORS
330
365
102
}
330
365
100
AcDbScale
 70
     0
300
1/32" = 1'-0"
140
0.03125
141
12.0
290
     0
  0
SCALE
  5
37A
102
{ACAD_REACTORS
330
365
102
}
330
365
100
AcDbScale
 70
     0
300
1/16" = 1'-0"
140
0.0625
141
12.0
290
     0
  0
SCALE
  5
37B
102
{ACAD_REACTORS
330
365
102
}
330
365
100
AcDbScale
 70
     0
300
3/32" = 1'-0"
140
0.09375
141
12.0
290
     0
  0
SCALE
  5
37C
102
{ACAD_REACTORS
330
365
102
}
330
365
100
AcDbScale
 70
     0
300
1/8" = 1'-0"
140
0.125
141
12.0
290
     0
  0
SCALE
  5
37D
102
{ACAD_REACTORS
330
365
102
}
330
365
100
AcDbScale
 70
     0
300
3/16" = 1'-0"
140
0.1875
141
12.0
290
     0
  0
SCALE
  5
37E
102
{ACAD_REACTORS
330
365
102
}
330
365
100
AcDbScale
 70
     0
300
1/4" = 1'-0"
140
0.25
141
12.0
290
     0
  0
SCALE
  5
37F
102
{ACAD_REACTORS
330
365
102
}
330
365
100
AcDbScale
 70
     0
300
3/8" = 1'-0"
140
0.375
141
12.0
290
     0
  0
SCALE
  5
380
102
{ACAD_REACTORS
330
365
102
}
330
365
100
AcDbScale
 70
     0
300
1/2" = 1'-0"
140
0.5
141
12.0
290
     0
  0
SCALE
  5
381
102
{ACAD_REACTORS
330
365
102
}
330
365
100
AcDbScale
 70
     0
300
3/4" = 1'-0"
140
0.75
141
12.0
290
     0
  0
SCALE
  5
382
102
{ACAD_REACTORS
330
365
102
}
330
365
100
AcDbScale
 70
     0
300
1" = 1'-0"
140
1.0
141
12.0
290
     0
  0
SCALE
  5
383
102
{ACAD_REACTORS
330
365
102
}
330
365
100
AcDbScale
 70
     0
300
1-1/2" = 1'-0"
140
1.5
141
12.0
290
     0
  0
SCALE
  5
384
102
{ACAD_REACTORS
330
365
102
}
330
365
100
AcDbScale
 70
     0
300
3" = 1'-0"
140
3.0
141
12.0
290
     0
  0
SCALE
  5
385
102
{ACAD_REACTORS
330
365
102
}
330
365
100
AcDbScale
 70
     0
300
6" = 1'-0"
140
6.0
141
12.0
290
     0
  0
SCALE
  5
386
102
{ACAD_REACTORS
330
365
102
}
330
365
100
AcDbScale
 70
     0
300
1'-0" = 1'-0"
140
12.0
141
12.0
290
     0
  0
TABLESTYLE
  5
363
102
{ACAD_REACTORS
330
360
330
35F
102
}
102
{ACAD_XDICTIONARY
360
3AB
102
}
330
360
100
AcDbTableStyle
  3
Standard
 70
     0
 71
     0
 40
0.06
 41
0.06
280
     1
281
     1
  7
STANDARD
140
0.18
170
     1
 62
     0
 63
   257
283
     0
 90
        4
 91
        0
  1

274
    -2
284
     1
 64
     0
275
    -2
285
     1
 65
     0
276
    -2
286
     1
 66
     0
277
    -2
287
     1
 67
     0
278
    -2
288
     1
 68
     0
279
    -2
289
     1
 69
     0
  7
STANDARD
140
0.18
170
     1
 62
     0
 63
   257
283
     0
 90
        4
 91
        0
  1

274
    -2
284
     1
 64
     0
275
    -2
285
     1
 65
     0
276
    -2
286
     1
 66
     0
277
    -2
287
     1
 67
     0
278
    -2
288
     1
 68
     0
279
    -2
289
     1
 69
     0
  7
STANDARD
140
0.18
170
     1
 62
     0
 63
   257
283
     0
 90
        4
 91
        0
  1

274
    -2
284
     1
 64
     0
275
    -2
285
     1
 65
     0
276
    -2
286
     1
 66
     0
277
    -2
287
     1
 67
     0
278
    -2
288
     1
 68
     0
279
    -2
289
     1
 69
     0
  0
TABLESTYLE
  5
364
102
{ACAD_REACTORS
330
360
102
}
102
{ACAD_XDICTIONARY
360
3AD
102
}
330
360
100
AcDbTableStyle
  3
Standard1
 70
     1
 71
     0
 40
0.06
 41
0.06
280
     1
281
     1
  7
STANDARD
140
0.18
170
     1
 62
     0
 63
   257
283
     0
 90
        4
 91
        0
  1

274
    -2
284
     1
 64
     0
275
    -2
285
     1
 65
     0
276
    -2
286
     1
 66
     0
277
    -2
287
     1
 67
     0
278
    -2
288
     1
 68
     0
279
    -2
289
     1
 69
     0
  7
STANDARD
140
0.18
170
     1
 62
     0
 63
   257
283
     0
 90
        4
 91
        0
  1

274
    -2
284
     1
 64
     0
275
    -2
285
     1
 65
     0
276
    -2
286
     1
 66
     0
277
    -2
287
     1
 67
     0
278
    -2
288
     1
 68
     0
279
    -2
289
     1
 69
     0
  7
STANDARD
140
0.18
170
     1
 62
     0
 63
   257
283
     0
 90
        4
 91
        0
  1

274
    -2
284
     1
 64
     0
275
    -2
285
     1
 65
     0
276
    -2
286
     1
 66
     0
277
    -2
287
     1
 67
     0
278
    -2
288
     1
 68
     0
279
    -2
289
     1
 69
     0
  0
VISUALSTYLE
  5
38C
102
{ACAD_REACTORS
330
387
102
}
330
387
100
AcDbVisualStyle
  2
2dWireframe
 70
     4
177
     3
291
     0
 70
    58
 90
        0
176
     1
 90
        2
176
     1
 90
        0
176
     1
 90
        0
176
     1
 40
0.6
176
     1
 40
30.0
176
     1
 62
     7
420
 16777215
176
     1
 90
        1
176
     1
 90
        4
176
     1
 62
     7
176
     1
 62
   257
176
     1
 90
        1
176
     1
 90
        1
176
     1
 40
1.0
176
     1
 90
        0
176
     1
 62
   257
176
     1
 40
1.0
176
     1
 90
        1
176
     1
 90
        6
176
     1
 90
        2
176
     1
 62
     7
176
     1
 90
        5
176
     1
 90
        0
176
     1
 90
        0
176
     1
290
     0
176
     1
 90
        1
176
     1
 40
0.0
176
     1
 90
        0
176
     1
290
     1
176
     1
290
     1
176
     1
290
     0
176
     1
290
     0
176
     1
290
     0
176
     1
290
     0
176
     1
290
     0
176
     1
290
     0
176
     1
290
     0
176
     1
 90
       50
176
     1
 40
0.0
176
     1
 40
1.0
176
     1
 90
        0
176
     1
 62
    18
420
        0
176
     1
 90
       50
176
     1
 90
        3
176
     1
 62
     5
420
      255
176
     1
290
     0
176
     1
 90
       50
176
     1
 90
       50
176
     1
 90
       50
176
     1
290
     0
176
     1
 90
       50
176
     1
 62
   256
176
     0
 40
1.0
176
     0
 90
        2
176
     1
  1
strokes_ogs.tif
176
     1
290
     0
176
     1
 40
1.0
176
     1
 40
1.0
176
     1
  0
VISUALSTYLE
  5
38F
102
{ACAD_REACTORS
330
387
102
}
330
387
100
AcDbVisualStyle
  2
Basic
 70
     7
177
     3
291
     1
 70
    58
 90
        1
176
     1
 90
        0
176
     1
 90
        1
176
     1
 90
        0
176
     1
 40
0.6
176
     1
 40
30.0
176
     1
 62
     7
420
 16777215
176
     1
 90
        0
176
     1
 90
        4
176
     1
 62
     7
176
     1
 62
   257
176
     1
 90
        1
176
     1
 90
        1
176
     1
 40
1.0
176
     1
 90
        8
176
     1
 62
     7
176
     1
 40
1.0
176
     1
 90
        1
176
     1
 90
        6
176
     1
 90
        2
176
     1
 62
     7
176
     1
 90
        5
176
     1
 90
        0
176
     1
 90
        0
176
     1
290
     0
176
     1
 90
        1
176
     1
 40
0.0
176
     1
 90
        0
176
     1
290
     0
176
     1
290
     1
176
     1
290
     1
176
     1
290
     0
176
     1
290
     0
176
     1
290
     0
176
     1
290
     0
176
     1
290
     0
176
     1
290
     0
176
     1
 90
       50
176
     1
 40
0.0
176
     1
 40
1.0
176
     1
 90
        0
176
     1
 62
    18
420
        0
176
     1
 90
       50
176
     1
 90
        3
176
     1
 62
     5
420
      255
176
     1
290
     0
176
     1
 90
       50
176
     1
 90
       50
176
     1
 90
       50
176
     1
290
     0
176
     1
 90
       50
176
     1
 62
   256
176
     0
 40
1.0
176
     0
 90
        2
176
     1
  1
strokes_ogs.tif
176
     1
290
     0
176
     1
 40
1.0
176
     1
 40
1.0
176
     1
  0
VISUALSTYLE
  5
393
102
{ACAD_REACTORS
330
387
102
}
330
387
100
AcDbVisualStyle
  2
Brighten
 70
    12
177
     3
291
     1
 70
    58
 90
        2
176
     1
 90
        2
176
     1
 90
        0
176
     1
 90
        0
176
     1
 40
0.6
176
     1
 40
30.0
176
     1
 62
     7
420
 16777215
176
     1
 90
        1
176
     1
 90
        4
176
     1
 62
     7
176
     1
 62
   257
176
     1
 90
        1
176
     1
 90
        1
176
     1
 40
1.0
176
     1
 90
        8
176
     1
 62
     7
176
     1
 40
1.0
176
     1
 90
        1
176
     1
 90
        6
176
     1
 90
        2
176
     1
 62
     7
176
     1
 90
        5
176
     1
 90
        0
176
     1
 90
        0
176
     1
290
     0
176
     1
 90
        1
176
     1
 40
50.0
176
     1
 90
        0
176
     1
290
     0
176
     1
290
     1
176
     1
290
     1
176
     1
290
     0
176
     1
290
     0
176
     1
290
     0
176
     1
290
     0
176
     1
290
     0
176
     1
290
     0
176
     1
 90
       50
176
     1
 40
0.0
176
     1
 40
1.0
176
     1
 90
        0
176
     1
 62
    18
420
        0
176
     1
 90
       50
176
     1
 90
        3
176
     1
 62
     5
420
      255
176
     1
290
     0
176
     1
 90
       50
176
     1
 90
       50
176
     1
 90
       50
176
     1
290
     0
176
     1
 90
       50
176
     1
 62
   256
176
     0
 40
1.0
176
     0
 90
        2
176
     1
  1
strokes_ogs.tif
176
     1
290
     0
176
     1
 40
1.0
176
     1
 40
1.0
176
     1
  0
VISUALSTYLE
  5
397
102
{ACAD_REACTORS
330
387
102
}
330
387
100
AcDbVisualStyle
  2
ColorChange
 70
    16
177
     3
291
     1
 70
    58
 90
        2
176
     1
 90
        2
176
     1
 90
        3
176
     1
 90
        0
176
     1
 40
0.6
176
     1
 40
30.0
176
     1
 62
     8
420
  8421504
176
     1
 90
        1
176
     1
 90
        4
176
     1
 62
     7
176
     1
 62
   257
176
     1
 90
        1
176
     1
 90
        1
176
     1
 40
1.0
176
     1
 90
        8
176
     1
 62
     8
420
  8421504
176
     1
 40
1.0
176
     1
 90
        1
176
     1
 90
        6
176
     1
 90
        2
176
     1
 62
     7
176
     1
 90
        5
176
     1
 90
        0
176
     1
 90
        0
176
     1
290
     0
176
     1
 90
        1
176
     1
 40
0.0
176
     1
 90
        0
176
     1
290
     0
176
     1
290
     1
176
     1
290
     1
176
     1
290
     0
176
     1
290
     0
176
     1
290
     0
176
     1
290
     0
176
     1
290
     0
176
     1
290
     0
176
     1
 90
       50
176
     1
 40
0.0
176
     1
 40
1.0
176
     1
 90
        0
176
     1
 62
    18
420
        0
176
     1
 90
       50
176
     1
 90
        3
176
     1
 62
     5
420
      255
176
     1
290
     0
176
     1
 90
       50
176
     1
 90
       50
176
     1
 90
       50
176
     1
290
     0
176
     1
 90
       50
176
     1
 62
   256
176
     0
 40
1.0
176
     0
 90
        2
176
     1
  1
strokes_ogs.tif
176
     1
290
     0
176
     1
 40
1.0
176
     1
 40
1.0
176
     1
  0
VISUALSTYLE
  5
391
102
{ACAD_REACTORS
330
387
102
}
330
387
100
AcDbVisualStyle
  2
Conceptual
 70
     9
177
     3
291
     0
 70
    58
 90
        3
176
     1
 90
        2
176
     1
 90
        0
176
     1
 90
        0
176
     1
 40
0.6
176
     1
 40
30.0
176
     1
 62
     7
420
 16777215
176
     1
 90
        2
176
     1
 90
        2
176
     1
 62
     7
176
     1
 62
   257
176
     1
 90
        1
176
     1
 90
        1
176
     1
 40
179.0
176
     1
 90
        8
176
     1
 62
     7
176
     1
 40
1.0
176
     1
 90
        1
176
     1
 90
        6
176
     1
 90
        2
176
     1
 62
     7
176
     1
 90
        3
176
     1
 90
        0
176
     1
 90
        0
176
     1
290
     0
176
     1
 90
        1
176
     1
 40
0.0
176
     1
 90
        0
176
     1
290
     0
176
     1
290
     1
176
     1
290
     1
176
     1
290
     0
176
     1
290
     0
176
     1
290
     0
176
     1
290
     0
176
     1
290
     0
176
     1
290
     0
176
     1
 90
       50
176
     1
 40
0.0
176
     1
 40
1.0
176
     1
 90
        0
176
     1
 62
    18
420
        0
176
     1
 90
       50
176
     1
 90
        3
176
     1
 62
     5
420
      255
176
     1
290
     0
176
     1
 90
       50
176
     1
 90
       50
176
     1
 90
       50
176
     1
290
     0
176
     1
 90
       50
176
     1
 62
   256
176
     0
 40
1.0
176
     0
 90
        2
176
     1
  1
strokes_ogs.tif
176
     1
290
     0
176
     1
 40
1.0
176
     1
 40
1.0
176
     1
  0
VISUALSTYLE
  5
392
102
{ACAD_REACTORS
330
387
102
}
330
387
100
AcDbVisualStyle
  2
Dim
 70
    11
177
     3
291
     1
 70
    58
 90
        2
176
     1
 90
        2
176
     1
 90
        0
176
     1
 90
        0
176
     1
 40
0.6
176
     1
 40
30.0
176
     1
 62
     7
420
 16777215
176
     1
 90
        1
176
     1
 90
        4
176
     1
 62
     7
176
     1
 62
   257
176
     1
 90
        1
176
     1
 90
        1
176
     1
 40
1.0
176
     1
 90
        8
176
     1
 62
     7
176
     1
 40
1.0
176
     1
 90
        1
176
     1
 90
        6
176
     1
 90
        2
176
     1
 62
     7
176
     1
 90
        5
176
     1
 90
        0
176
     1
 90
        0
176
     1
290
     0
176
     1
 90
        1
176
     1
 40
-50.0
176
     1
 90
        0
176
     1
290
     0
176
     1
290
     1
176
     1
290
     1
176
     1
290
     0
176
     1
290
     0
176
     1
290
     0
176
     1
290
     0
176
     1
290
     0
176
     1
290
     0
176
     1
 90
       50
176
     1
 40
0.0
176
     1
 40
1.0
176
     1
 90
        0
176
     1
 62
    18
420
        0
176
     1
 90
       50
176
     1
 90
        3
176
     1
 62
     5
420
      255
176
     1
290
     0
176
     1
 90
       50
176
     1
 90
       50
176
     1
 90
       50
176
     1
290
     0
176
     1
 90
       50
176
     1
 62
   256
176
     0
 40
1.0
176
     0
 90
        2
176
     1
  1
strokes_ogs.tif
176
     1
290
     0
176
     1
 40
1.0
176
     1
 40
1.0
176
     1
  0
VISUALSTYLE
  5
39A
102
{ACAD_REACTORS
330
387
102
}
330
387
100
AcDbVisualStyle
  2
EdgeColorOff
 70
    22
177
     3
291
     1
 70
    58
 90
        2
176
     0
 90
        2
176
     0
 90
        0
176
     0
 90
        0
176
     0
 40
0.6
176
     0
 40
30.0
176
     0
 62
     7
420
 16777215
176
     0
 90
        1
176
     0
 90
        4
176
     0
 62
     7
176
     0
 62
   257
176
     0
 90
        1
176
     0
 90
        1
176
     0
 40
1.0
176
     0
 90
        8
176
     2
 62
     7
176
     0
 40
1.0
176
     0
 90
        1
176
     0
 90
        6
176
     0
 90
        2
176
     0
 62
     7
176
     0
 90
        5
176
     0
 90
        0
176
     0
 90
        0
176
     0
290
     0
176
     0
 90
        1
176
     0
 40
0.0
176
     0
 90
        0
176
     0
290
     0
176
     0
290
     1
176
     0
290
     1
176
     0
290
     0
176
     0
290
     0
176
     0
290
     0
176
     0
290
     0
176
     0
290
     0
176
     0
290
     0
176
     0
 90
       50
176
     0
 40
0.0
176
     0
 40
1.0
176
     0
 90
        0
176
     0
 62
    18
420
        0
176
     0
 90
       50
176
     0
 90
        3
176
     0
 62
     5
420
      255
176
     0
290
     0
176
     0
 90
       50
176
     0
 90
       50
176
     0
 90
       50
176
     0
290
     0
176
     0
 90
       50
176
     0
 62
   256
176
     0
 40
1.0
176
     0
 90
        2
176
     0
  1
strokes_ogs.tif
176
     0
290
     0
176
     0
 40
1.0
176
     0
 40
1.0
176
     0
  0
VISUALSTYLE
  5
396
102
{ACAD_REACTORS
330
387
102
}
330
387
100
AcDbVisualStyle
  2
Facepattern
 70
    15
177
     3
291
     1
 70
    58
 90
        2
176
     1
 90
        2
176
     1
 90
        0
176
     1
 90
        0
176
     1
 40
0.6
176
     1
 40
30.0
176
     1
 62
     7
420
 16777215
176
     1
 90
        1
176
     1
 90
        4
176
     1
 62
     7
176
     1
 62
   257
176
     1
 90
        1
176
     1
 90
        1
176
     1
 40
1.0
176
     1
 90
        8
176
     1
 62
     7
176
     1
 40
1.0
176
     1
 90
        1
176
     1
 90
        6
176
     1
 90
        2
176
     1
 62
     7
176
     1
 90
        5
176
     1
 90
        0
176
     1
 90
        0
176
     1
290
     0
176
     1
 90
        1
176
     1
 40
0.0
176
     1
 90
        0
176
     1
290
     0
176
     1
290
     1
176
     1
290
     1
176
     1
290
     0
176
     1
290
     0
176
     1
290
     0
176
     1
290
     0
176
     1
290
     0
176
     1
290
     0
176
     1
 90
       50
176
     1
 40
0.0
176
     1
 40
1.0
176
     1
 90
        0
176
     1
 62
    18
420
        0
176
     1
 90
       50
176
     1
 90
        3
176
     1
 62
     5
420
      255
176
     1
290
     0
176
     1
 90
       50
176
     1
 90
       50
176
     1
 90
       50
176
     1
290
     0
176
     1
 90
       50
176
     1
 62
   256
176
     0
 40
1.0
176
     0
 90
        2
176
     1
  1
strokes_ogs.tif
176
     1
290
     0
176
     1
 40
1.0
176
     1
 40
1.0
176
     1
  0
VISUALSTYLE
  5
388
102
{ACAD_REACTORS
330
387
102
}
330
387
100
AcDbVisualStyle
  2
Flat
 70
     0
177
     3
291
     1
 70
    58
 90
        2
176
     1
 90
        1
176
     1
 90
        1
176
     1
 90
        2
176
     1
 40
0.6
176
     1
 40
30.0
176
     1
 62
     7
420
 16777215
176
     1
 90
        0
176
     1
 90
        0
176
     1
 62
     7
176
     1
 62
   257
176
     1
 90
        1
176
     1
 90
        1
176
     1
 40
1.0
176
     1
 90
        8
176
     1
 62
     7
176
     1
 40
1.0
176
     1
 90
        1
176
     1
 90
        6
176
     1
 90
        2
176
     1
 62
     7
176
     1
 90
        5
176
     1
 90
        0
176
     1
 90
        0
176
     1
290
     0
176
     1
 90
       13
176
     1
 40
0.0
176
     1
 90
        0
176
     1
290
     0
176
     1
290
     1
176
     1
290
     1
176
     1
290
     0
176
     1
290
     0
176
     1
290
     0
176
     1
290
     0
176
     1
290
     0
176
     1
290
     0
176
     1
 90
       50
176
     1
 40
0.0
176
     1
 40
1.0
176
     1
 90
        0
176
     1
 62
    18
420
        0
176
     1
 90
       50
176
     1
 90
        3
176
     1
 62
     5
420
      255
176
     1
290
     0
176
     1
 90
       50
176
     1
 90
       50
176
     1
 90
       50
176
     1
290
     0
176
     1
 90
       50
176
     1
 62
   256
176
     0
 40
1.0
176
     0
 90
        2
176
     1
  1
strokes_ogs.tif
176
     1
290
     0
176
     1
 40
1.0
176
     1
 40
1.0
176
     1
  0
VISUALSTYLE
  5
389
102
{ACAD_REACTORS
330
387
102
}
330
387
100
AcDbVisualStyle
  2
FlatWithEdges
 70
     1
177
     3
291
     1
 70
    58
 90
        2
176
     1
 90
        1
176
     1
 90
        1
176
     1
 90
        2
176
     1
 40
0.6
176
     1
 40
30.0
176
     1
 62
     7
420
 16777215
176
     1
 90
        1
176
     1
 90
        0
176
     1
 62
     7
176
     1
 62
   257
176
     1
 90
        1
176
     1
 90
        1
176
     1
 40
1.0
176
     1
 90
        0
176
     1
 62
   257
176
     1
 40
1.0
176
     1
 90
        1
176
     1
 90
        6
176
     1
 90
        2
176
     1
 62
     7
176
     1
 90
        5
176
     1
 90
        0
176
     1
 90
        0
176
     1
290
     0
176
     1
 90
       13
176
     1
 40
0.0
176
     1
 90
        0
176
     1
290
     0
176
     1
290
     1
176
     1
290
     1
176
     1
290
     0
176
     1
290
     0
176
     1
290
     0
176
     1
290
     0
176
     1
290
     0
176
     1
290
     0
176
     1
 90
       50
176
     1
 40
0.0
176
     1
 40
1.0
176
     1
 90
        0
176
     1
 62
    18
420
        0
176
     1
 90
       50
176
     1
 90
        3
176
     1
 62
     5
420
      255
176
     1
290
     0
176
     1
 90
       50
176
     1
 90
       50
176
     1
 90
       50
176
     1
290
     0
176
     1
 90
       50
176
     1
 62
   256
176
     0
 40
1.0
176
     0
 90
        2
176
     1
  1
strokes_ogs.tif
176
     1
290
     0
176
     1
 40
1.0
176
     1
 40
1.0
176
     1
  0
VISUALSTYLE
  5
38A
102
{ACAD_REACTORS
330
387
102
}
330
387
100
AcDbVisualStyle
  2
Gouraud
 70
     2
177
     3
291
     1
 70
    58
 90
        2
176
     1
 90
        2
176
     1
 90
        1
176
     1
 90
        2
176
     1
 40
0.6
176
     1
 40
30.0
176
     1
 62
     7
420
 16777215
176
     1
 90
        0
176
     1
 90
        0
176
     1
 62
     7
176
     1
 62
   257
176
     1
 90
        1
176
     1
 90
        1
176
     1
 40
1.0
176
     1
 90
        0
176
     1
 62
     7
176
     1
 40
1.0
176
     1
 90
        1
176
     1
 90
        6
176
     1
 90
        2
176
     1
 62
     7
176
     1
 90
        5
176
     1
 90
        0
176
     1
 90
        0
176
     1
290
     0
176
     1
 90
       13
176
     1
 40
0.0
176
     1
 90
        0
176
     1
290
     0
176
     1
290
     1
176
     1
290
     1
176
     1
290
     0
176
     1
290
     0
176
     1
290
     0
176
     1
290
     0
176
     1
290
     0
176
     1
290
     0
176
     1
 90
       50
176
     1
 40
0.0
176
     1
 40
1.0
176
     1
 90
        0
176
     1
 62
    18
420
        0
176
     1
 90
       50
176
     1
 90
        3
176
     1
 62
     5
420
      255
176
     1
290
     0
176
     1
 90
       50
176
     1
 90
       50
176
     1
 90
       50
176
     1
290
     0
176
     1
 90
       50
176
     1
 62
   256
176
     0
 40
1.0
176
     0
 90
        2
176
     1
  1
strokes_ogs.tif
176
     1
290
     0
176
     1
 40
1.0
176
     1
 40
1.0
176
     1
  0
VISUALSTYLE
  5
38B
102
{ACAD_REACTORS
330
387
102
}
330
387
100
AcDbVisualStyle
  2
GouraudWithEdges
 70
     3
177
     3
291
     1
 70
    58
 90
        2
176
     1
 90
        2
176
     1
 90
        1
176
     1
 90
        2
176
     1
 40
0.6
176
     1
 40
30.0
176
     1
 62
     7
420
 16777215
176
     1
 90
        1
176
     1
 90
        0
176
     1
 62
     7
176
     1
 62
   257
176
     1
 90
        1
176
     1
 90
        1
176
     1
 40
1.0
176
     1
 90
        0
176
     1
 62
   257
176
     1
 40
1.0
176
     1
 90
        1
176
     1
 90
        6
176
     1
 90
        2
176
     1
 62
     7
176
     1
 90
        5
176
     1
 90
        0
176
     1
 90
        0
176
     1
290
     0
176
     1
 90
       13
176
     1
 40
0.0
176
     1
 90
        0
176
     1
290
     0
176
     1
290
     1
176
     1
290
     1
176
     1
290
     0
176
     1
290
     0
176
     1
290
     0
176
     1
290
     0
176
     1
290
     0
176
     1
290
     0
176
     1
 90
       50
176
     1
 40
0.0
176
     1
 40
1.0
176
     1
 90
        0
176
     1
 62
    18
420
        0
176
     1
 90
       50
176
     1
 90
        3
176
     1
 62
     5
420
      255
176
     1
290
     0
176
     1
 90
       50
176
     1
 90
       50
176
     1
 90
       50
176
     1
290
     0
176
     1
 90
       50
176
     1
 62
   256
176
     0
 40
1.0
176
     0
 90
        2
176
     1
  1
strokes_ogs.tif
176
     1
290
     0
176
     1
 40
1.0
176
     1
 40
1.0
176
     1
  0
VISUALSTYLE
  5
38E
102
{ACAD_REACTORS
330
387
102
}
330
387
100
AcDbVisualStyle
  2
Hidden
 70
     6
177
     3
291
     0
 70
    58
 90
        1
176
     1
 90
        2
176
     1
 90
        2
176
     1
 90
        0
176
     1
 40
0.6
176
     1
 40
30.0
176
     1
 62
     7
420
 16777215
176
     1
 90
        2
176
     1
 90
        2
176
     1
 62
     7
176
     1
 62
   257
176
     1
 90
        2
176
     1
 90
        1
176
     1
 40
40.0
176
     1
 90
        0
176
     1
 62
   257
176
     1
 40
1.0
176
     1
 90
        1
176
     1
 90
        6
176
     1
 90
        2
176
     1
 62
     7
176
     1
 90
        3
176
     1
 90
        0
176
     1
 90
        0
176
     1
290
     0
176
     1
 90
        1
176
     1
 40
0.0
176
     1
 90
        0
176
     1
290
     0
176
     1
290
     1
176
     1
290
     1
176
     1
290
     0
176
     1
290
     0
176
     1
290
     0
176
     1
290
     0
176
     1
290
     0
176
     1
290
     0
176
     1
 90
       50
176
     1
 40
0.0
176
     1
 40
1.0
176
     1
 90
        0
176
     1
 62
    18
420
        0
176
     1
 90
       50
176
     1
 90
        3
176
     1
 62
     5
420
      255
176
     1
290
     0
176
     1
 90
       50
176
     1
 90
       50
176
     1
 90
       50
176
     1
290
     0
176
     1
 90
       50
176
     1
 62
   256
176
     0
 40
1.0
176
     0
 90
        2
176
     1
  1
strokes_ogs.tif
176
     1
290
     0
176
     1
 40
1.0
176
     1
 40
1.0
176
     1
  0
VISUALSTYLE
  5
398
102
{ACAD_REACTORS
330
387
102
}
330
387
100
AcDbVisualStyle
  2
JitterOff
 70
    20
177
     3
291
     1
 70
    58
 90
        2
176
     0
 90
        2
176
     0
 90
        0
176
     0
 90
        0
176
     0
 40
0.6
176
     0
 40
30.0
176
     0
 62
     7
420
 16777215
176
     0
 90
        1
176
     0
 90
        4
176
     0
 62
     7
176
     0
 62
   257
176
     0
 90
        1
176
     0
 90
        1
176
     0
 40
1.0
176
     0
 90
       10
176
     2
 62
     7
176
     0
 40
1.0
176
     0
 90
        1
176
     0
 90
        6
176
     0
 90
        2
176
     0
 62
     7
176
     0
 90
        5
176
     0
 90
        0
176
     0
 90
        0
176
     0
290
     0
176
     0
 90
        1
176
     0
 40
0.0
176
     0
 90
        0
176
     0
290
     0
176
     0
290
     1
176
     0
290
     1
176
     0
290
     0
176
     0
290
     0
176
     0
290
     0
176
     0
290
     0
176
     0
290
     0
176
     0
290
     0
176
     0
 90
       50
176
     0
 40
0.0
176
     0
 40
1.0
176
     0
 90
        0
176
     0
 62
    18
420
        0
176
     0
 90
       50
176
     0
 90
        3
176
     0
 62
     5
420
      255
176
     0
290
     0
176
     0
 90
       50
176
     0
 90
       50
176
     0
 90
       50
176
     0
290
     0
176
     0
 90
       50
176
     0
 62
   256
176
     0
 40
1.0
176
     0
 90
        2
176
     0
  1
strokes_ogs.tif
176
     0
290
     0
176
     0
 40
1.0
176
     0
 40
1.0
176
     0
  0
VISUALSTYLE
  5
395
102
{ACAD_REACTORS
330
387
102
}
330
387
100
AcDbVisualStyle
  2
Linepattern
 70
    14
177
     3
291
     1
 70
    58
 90
        2
176
     1
 90
        2
176
     1
 90
        0
176
     1
 90
        0
176
     1
 40
0.6
176
     1
 40
30.0
176
     1
 62
     7
420
 16777215
176
     1
 90
        1
176
     1
 90
        4
176
     1
 62
     7
176
     1
 62
   257
176
     1
 90
        7
176
     1
 90
        7
176
     1
 40
1.0
176
     1
 90
        8
176
     1
 62
     7
176
     1
 40
1.0
176
     1
 90
        1
176
     1
 90
        6
176
     1
 90
        2
176
     1
 62
     7
176
     1
 90
        5
176
     1
 90
        0
176
     1
 90
        0
176
     1
290
     0
176
     1
 90
        1
176
     1
 40
0.0
176
     1
 90
        0
176
     1
290
     0
176
     1
290
     1
176
     1
290
     1
176
     1
290
     0
176
     1
290
     0
176
     1
290
     0
176
     1
290
     0
176
     1
290
     0
176
     1
290
     0
176
     1
 90
       50
176
     1
 40
0.0
176
     1
 40
1.0
176
     1
 90
        0
176
     1
 62
    18
420
        0
176
     1
 90
       50
176
     1
 90
        3
176
     1
 62
     5
420
      255
176
     1
290
     0
176
     1
 90
       50
176
     1
 90
       50
176
     1
 90
       50
176
     1
290
     0
176
     1
 90
       50
176
     1
 62
   256
176
     0
 40
1.0
176
     0
 90
        2
176
     1
  1
strokes_ogs.tif
176
     1
290
     0
176
     1
 40
1.0
176
     1
 40
1.0
176
     1
  0
VISUALSTYLE
  5
399
102
{ACAD_REACTORS
330
387
102
}
330
387
100
AcDbVisualStyle
  2
OverhangOff
 70
    21
177
     3
291
     1
 70
    58
 90
        2
176
     0
 90
        2
176
     0
 90
        0
176
     0
 90
        0
176
     0
 40
0.6
176
     0
 40
30.0
176
     0
 62
     7
420
 16777215
176
     0
 90
        1
176
     0
 90
        4
176
     0
 62
     7
176
     0
 62
   257
176
     0
 90
        1
176
     0
 90
        1
176
     0
 40
1.0
176
     0
 90
        9
176
     2
 62
     7
176
     0
 40
1.0
176
     0
 90
        1
176
     0
 90
        6
176
     0
 90
        2
176
     0
 62
     7
176
     0
 90
        5
176
     0
 90
        0
176
     0
 90
        0
176
     0
290
     0
176
     0
 90
        1
176
     0
 40
0.0
176
     0
 90
        0
176
     0
290
     0
176
     0
290
     1
176
     0
290
     1
176
     0
290
     0
176
     0
290
     0
176
     0
290
     0
176
     0
290
     0
176
     0
290
     0
176
     0
290
     0
176
     0
 90
       50
176
     0
 40
0.0
176
     0
 40
1.0
176
     0
 90
        0
176
     0
 62
    18
420
        0
176
     0
 90
       50
176
     0
 90
        3
176
     0
 62
     5
420
      255
176
     0
290
     0
176
     0
 90
       50
176
     0
 90
       50
176
     0
 90
       50
176
     0
290
     0
176
     0
 90
       50
176
     0
 62
   256
176
     0
 40
1.0
176
     0
 90
        2
176
     0
  1
strokes_ogs.tif
176
     0
290
     0
176
     0
 40
1.0
176
     0
 40
1.0
176
     0
  0
VISUALSTYLE
  5
390
102
{ACAD_REACTORS
330
387
102
}
330
387
100
AcDbVisualStyle
  2
Realistic
 70
     8
177
     3
291
     0
 70
    58
 90
        2
176
     1
 90
        3
176
     1
 90
        0
176
     1
 90
        2
176
     1
 40
0.6
176
     1
 40
30.0
176
     1
 62
     7
420
 16777215
176
     1
 90
        0
176
     1
 90
        0
176
     1
 62
     7
176
     1
 62
   257
176
     1
 90
        1
176
     1
 90
        1
176
     1
 40
1.0
176
     1
 90
        8
176
     1
 62
   257
176
     1
 40
1.0
176
     1
 90
        1
176
     1
 90
        6
176
     1
 90
        2
176
     1
 62
     7
176
     1
 90
        3
176
     1
 90
        0
176
     1
 90
        0
176
     1
290
     0
176
     1
 90
       13
176
     1
 40
0.0
176
     1
 90
        0
176
     1
290
     0
176
     1
290
     1
176
     1
290
     1
176
     1
290
     0
176
     1
290
     0
176
     1
290
     0
176
     1
290
     0
176
     1
290
     0
176
     1
290
     0
176
     1
 90
       50
176
     1
 40
0.0
176
     1
 40
1.0
176
     1
 90
        0
176
     1
 62
    18
420
        0
176
     1
 90
       50
176
     1
 90
        3
176
     1
 62
     5
420
      255
176
     1
290
     0
176
     1
 90
       50
176
     1
 90
       50
176
     1
 90
       50
176
     1
290
     0
176
     1
 90
       50
176
     1
 62
   256
176
     0
 40
1.0
176
     0
 90
        2
176
     1
  1
strokes_ogs.tif
176
     1
290
     0
176
     1
 40
1.0
176
     1
 40
1.0
176
     1
  0
VISUALSTYLE
  5
39F
102
{ACAD_REACTORS
330
387
102
}
330
387
100
AcDbVisualStyle
  2
Shaded
 70
    27
177
     3
291
     0
 70
    58
 90
        2
176
     1
 90
        2
176
     1
 90
        1
176
     1
 90
        2
176
     1
 40
0.6
176
     1
 40
30.0
176
     1
 62
     7
420
 16777215
176
     1
 90
        0
176
     1
 90
        4
176
     1
 62
     7
176
     1
 62
   257
176
     1
 90
        1
176
     1
 90
        1
176
     1
 40
1.0
176
     1
 90
        8
176
     1
 62
   257
176
     1
 40
1.0
176
     1
 90
        1
176
     1
 90
        6
176
     1
 90
        2
176
     1
 62
     8
420
  7895160
176
     1
 90
        3
176
     1
 90
        0
176
     1
 90
        0
176
     1
290
     0
176
     1
 90
        5
176
     1
 40
0.0
176
     1
 90
        0
176
     1
290
     0
176
     1
290
     1
176
     1
290
     1
176
     1
290
     0
176
     1
290
     0
176
     1
290
     0
176
     1
290
     0
176
     1
290
     0
176
     1
290
     0
176
     1
 90
       50
176
     1
 40
0.0
176
     1
 40
1.0
176
     1
 90
        0
176
     1
 62
    18
420
        0
176
     1
 90
       50
176
     1
 90
        3
176
     1
 62
     5
420
      255
176
     1
290
     0
176
     1
 90
       50
176
     1
 90
       50
176
     1
 90
       50
176
     1
290
     0
176
     1
 90
       50
176
     1
 62
   256
176
     0
 40
1.0
176
     0
 90
        2
176
     1
  1
strokes_ogs.tif
176
     1
290
     0
176
     1
 40
1.0
176
     1
 40
1.0
176
     1
  0
VISUALSTYLE
  5
39E
102
{ACAD_REACTORS
330
387
102
}
330
387
100
AcDbVisualStyle
  2
Shaded with edges
 70
    26
177
     3
291
     0
 70
    58
 90
        2
176
     1
 90
        2
176
     1
 90
        1
176
     1
 90
        2
176
     1
 40
0.6
176
     1
 40
30.0
176
     1
 62
     7
420
 16777215
176
     1
 90
        1
176
     1
 90
       10
176
     1
 62
     7
176
     1
 62
   257
176
     1
 90
        2
176
     1
 90
        1
176
     1
 40
1.0
176
     1
 90
        8
176
     1
 62
   257
176
     1
 40
1.0
176
     1
 90
        1
176
     1
 90
        6
176
     1
 90
        2
176
     1
 62
     7
176
     1
 90
        3
176
     1
 90
        0
176
     1
 90
        0
176
     1
290
     0
176
     1
 90
        5
176
     1
 40
0.0
176
     1
 90
        0
176
     1
290
     0
176
     1
290
     1
176
     1
290
     1
176
     1
290
     0
176
     1
290
     0
176
     1
290
     0
176
     1
290
     0
176
     1
290
     0
176
     1
290
     0
176
     1
 90
       50
176
     1
 40
0.0
176
     1
 40
1.0
176
     1
 90
        0
176
     1
 62
    18
420
        0
176
     1
 90
       50
176
     1
 90
        3
176
     1
 62
     5
420
      255
176
     1
290
     0
176
     1
 90
       50
176
     1
 90
       50
176
     1
 90
       50
176
     1
290
     0
176
     1
 90
       50
176
     1
 62
   256
176
     0
 40
1.0
176
     0
 90
        2
176
     1
  1
strokes_ogs.tif
176
     1
290
     0
176
     1
 40
1.0
176
     1
 40
1.0
176
     1
  0
VISUALSTYLE
  5
39B
102
{ACAD_REACTORS
330
387
102
}
330
387
100
AcDbVisualStyle
  2
Shades of Gray
 70
    23
177
     3
291
     0
 70
    58
 90
        2
176
     1
 90
        2
176
     1
 90
        3
176
     1
 90
        0
176
     1
 40
0.6
176
     1
 40
30.0
176
     1
 62
     7
420
 16777215
176
     1
 90
        2
176
     1
 90
        2
176
     1
 62
     7
176
     1
 62
     7
176
     1
 90
        1
176
     1
 90
        1
176
     1
 40
40.0
176
     1
 90
        8
176
     1
 62
     7
176
     1
 40
1.0
176
     1
 90
        1
176
     1
 90
        6
176
     1
 90
        2
176
     1
 62
     7
176
     1
 90
        3
176
     1
 90
        0
176
     1
 90
        0
176
     1
290
     0
176
     1
 90
        1
176
     1
 40
0.0
176
     1
 90
        0
176
     1
290
     0
176
     1
290
     1
176
     1
290
     1
176
     1
290
     0
176
     1
290
     0
176
     1
290
     0
176
     1
290
     0
176
     1
290
     0
176
     1
290
     0
176
     1
 90
       50
176
     1
 40
0.0
176
     1
 40
1.0
176
     1
 90
        0
176
     1
 62
    18
420
        0
176
     1
 90
       50
176
     1
 90
        3
176
     1
 62
     5
420
      255
176
     1
290
     0
176
     1
 90
       50
176
     1
 90
       50
176
     1
 90
       50
176
     1
290
     0
176
     1
 90
       50
176
     1
 62
   256
176
     0
 40
1.0
176
     0
 90
        2
176
     1
  1
strokes_ogs.tif
176
     1
290
     0
176
     1
 40
1.0
176
     1
 40
1.0
176
     1
  0
VISUALSTYLE
  5
39C
102
{ACAD_REACTORS
330
387
102
}
330
387
100
AcDbVisualStyle
  2
Sketchy
 70
    24
177
     3
291
     0
 70
    58
 90
        1
176
     1
 90
        2
176
     1
 90
        2
176
     1
 90
        0
176
     1
 40
0.6
176
     1
 40
30.0
176
     1
 62
     7
420
 16777215
176
     1
 90
        2
176
     1
 90
        2
176
     1
 62
     7
176
     1
 62
     7
176
     1
 90
        1
176
     1
 90
        1
176
     1
 40
40.0
176
     1
 90
       11
176
     1
 62
     7
176
     1
 40
1.0
176
     1
 90
        1
176
     1
 90
        6
176
     1
 90
        2
176
     1
 62
     7
176
     1
 90
        6
176
     1
 90
        0
176
     1
 90
        0
176
     1
290
     0
176
     1
 90
        1
176
     1
 40
0.0
176
     1
 90
        0
176
     1
290
     0
176
     1
290
     1
176
     1
290
     1
176
     1
290
     0
176
     1
290
     0
176
     1
290
     0
176
     1
290
     0
176
     1
290
     0
176
     1
290
     0
176
     1
 90
       50
176
     1
 40
0.0
176
     1
 40
1.0
176
     1
 90
        0
176
     1
 62
    18
420
        0
176
     1
 90
       50
176
     1
 90
        3
176
     1
 62
     5
420
      255
176
     1
290
     0
176
     1
 90
       50
176
     1
 90
       50
176
     1
 90
       50
176
     1
290
     0
176
     1
 90
       50
176
     1
 62
   256
176
     0
 40
1.0
176
     0
 90
        2
176
     1
  1
strokes_ogs.tif
176
     1
290
     0
176
     1
 40
1.0
176
     1
 40
1.0
176
     1
  0
VISUALSTYLE
  5
394
102
{ACAD_REACTORS
330
387
102
}
330
387
100
AcDbVisualStyle
  2
Thicken
 70
    13
177
     3
291
     1
 70
    58
 90
        2
176
     1
 90
        2
176
     1
 90
        0
176
     1
 90
        0
176
     1
 40
0.6
176
     1
 40
30.0
176
     1
 62
     7
420
 16777215
176
     1
 90
        1
176
     1
 90
        4
176
     1
 62
     7
176
     1
 62
   257
176
     1
 90
        1
176
     1
 90
        1
176
     1
 40
1.0
176
     1
 90
       12
176
     1
 62
     7
176
     1
 40
1.0
176
     1
 90
        1
176
     1
 90
        6
176
     1
 90
        2
176
     1
 62
     7
176
     1
 90
        5
176
     1
 90
        0
176
     1
 90
        0
176
     1
290
     0
176
     1
 90
        1
176
     1
 40
0.0
176
     1
 90
        0
176
     1
290
     0
176
     1
290
     1
176
     1
290
     1
176
     1
290
     0
176
     1
290
     0
176
     1
290
     0
176
     1
290
     0
176
     1
290
     0
176
     1
290
     0
176
     1
 90
       50
176
     1
 40
0.0
176
     1
 40
1.0
176
     1
 90
        0
176
     1
 62
    18
420
        0
176
     1
 90
       50
176
     1
 90
        3
176
     1
 62
     5
420
      255
176
     1
290
     0
176
     1
 90
       50
176
     1
 90
       50
176
     1
 90
       50
176
     1
290
     0
176
     1
 90
       50
176
     1
 62
   256
176
     0
 40
1.0
176
     0
 90
        2
176
     1
  1
strokes_ogs.tif
176
     1
290
     0
176
     1
 40
1.0
176
     1
 40
1.0
176
     1
  0
VISUALSTYLE
  5
38D
102
{ACAD_REACTORS
330
387
102
}
330
387
100
AcDbVisualStyle
  2
Wireframe
 70
     5
177
     3
291
     0
 70
    58
 90
        0
176
     1
 90
        2
176
     1
 90
        0
176
     1
 90
        0
176
     1
 40
0.6
176
     1
 40
30.0
176
     1
 62
     7
420
 16777215
176
     1
 90
        1
176
     1
 90
        4
176
     1
 62
     7
176
     1
 62
   257
176
     1
 90
        1
176
     1
 90
        1
176
     1
 40
1.0
176
     1
 90
        0
176
     1
 62
   257
176
     1
 40
1.0
176
     1
 90
        1
176
     1
 90
        6
176
     1
 90
        2
176
     1
 62
     7
176
     1
 90
        3
176
     1
 90
        0
176
     1
 90
        0
176
     1
290
     0
176
     1
 90
        1
176
     1
 40
0.0
176
     1
 90
        0
176
     1
290
     0
176
     1
290
     1
176
     1
290
     1
176
     1
290
     0
176
     1
290
     0
176
     1
290
     0
176
     1
290
     0
176
     1
290
     0
176
     1
290
     0
176
     1
 90
       50
176
     1
 40
0.0
176
     1
 40
1.0
176
     1
 90
        0
176
     1
 62
    18
420
        0
176
     1
 90
       50
176
     1
 90
        3
176
     1
 62
     5
420
      255
176
     1
290
     0
176
     1
 90
       50
176
     1
 90
       50
176
     1
 90
       50
176
     1
290
     0
176
     1
 90
       50
176
     1
 62
   256
176
     0
 40
1.0
176
     0
 90
        2
176
     1
  1
strokes_ogs.tif
176
     1
290
     0
176
     1
 40
1.0
176
     1
 40
1.0
176
     1
  0
VISUALSTYLE
  5
39D
102
{ACAD_REACTORS
330
387
102
}
330
387
100
AcDbVisualStyle
  2
X-Ray
 70
    25
177
     3
291
     0
 70
    58
 90
        2
176
     1
 90
        2
176
     1
 90
        1
176
     1
 90
        1
176
     1
 40
0.5
176
     1
 40
30.0
176
     1
 62
     7
420
 16777215
176
     1
 90
        1
176
     1
 90
        0
176
     1
 62
     7
176
     1
 62
   257
176
     1
 90
        1
176
     1
 90
        1
176
     1
 40
1.0
176
     1
 90
        8
176
     1
 62
     7
176
     1
 40
1.0
176
     1
 90
        1
176
     1
 90
        6
176
     1
 90
        2
176
     1
 62
     7
176
     1
 90
        3
176
     1
 90
        0
176
     1
 90
        0
176
     1
290
     0
176
     1
 90
       13
176
     1
 40
0.0
176
     1
 90
        0
176
     1
290
     0
176
     1
290
     1
176
     1
290
     1
176
     1
290
     0
176
     1
290
     0
176
     1
290
     0
176
     1
290
     0
176
     1
290
     0
176
     1
290
     0
176
     1
 90
       50
176
     1
 40
0.0
176
     1
 40
1.0
176
     1
 90
        0
176
     1
 62
    18
420
        0
176
     1
 90
       50
176
     1
 90
        3
176
     1
 62
     5
420
      255
176
     1
290
     0
176
     1
 90
       50
176
     1
 90
       50
176
     1
 90
       50
176
     1
290
     0
176
     1
 90
       50
176
     1
 62
   256
176
     0
 40
1.0
176
     0
 90
        2
176
     1
  1
strokes_ogs.tif
176
     1
290
     0
176
     1
 40
1.0
176
     1
 40
1.0
176
     1
  0
DICTIONARYVAR
  5
3AA
102
{ACAD_REACTORS
330
3A9
102
}
330
3A9
100
DictionaryVariables
280
     0
  1
1:1
  0
DICTIONARYVAR
  5
3B1
102
{ACAD_REACTORS
330
3A9
102
}
330
3A9
100
DictionaryVariables
280
     0
  1
Standard
  0
DICTIONARYVAR
  5
3B0
102
{ACAD_REACTORS
330
3A9
102
}
330
3A9
100
DictionaryVariables
280
     0
  1
Standard
  0
DICTIONARY
  5
3AB
330
363
100
AcDbDictionary
280
     1
281
     1
  3
ACAD_ROUNDTRIP_2008_TABLESTYLE_CELLSTYLEMAP
360
3AC
  0
DICTIONARY
  5
3AD
330
364
100
AcDbDictionary
280
     1
281
     1
  3
ACAD_ROUNDTRIP_2008_TABLESTYLE_CELLSTYLEMAP
360
3AE
  0
CELLSTYLEMAP
  5
3AC
102
{ACAD_REACTORS
330
3AB
102
}
330
3AB
100
AcDbCellStyleMap
 90
        3
300
CELLSTYLE
  1
TABLEFORMAT_BEGIN
 90
        5
170
     1
 91
        0
 92
    32768
 62
   257
 93
        1
300
CONTENTFORMAT
  1
CONTENTFORMAT_BEGIN
 90
        0
 91
        0
 92
        4
 93
        0
300

 40
0.0
140
1.0
 94
        1
 62
     0
340
11
144
0.18
309
CONTENTFORMAT_END
171
     1
301
MARGIN
  1
CELLMARGIN_BEGIN
 40
0.06
 40
0.06
 40
0.06
 40
0.06
 40
0.18
 40
0.18
309
CELLMARGIN_END
 94
        6
 95
        1
302
GRIDFORMAT
  1
GRIDFORMAT_BEGIN
 90
        0
 91
        1
 62
     0
 92
       -2
340
0
 93
        0
 40
0.045
309
GRIDFORMAT_END
 95
        2
302
GRIDFORMAT
  1
GRIDFORMAT_BEGIN
 90
        0
 91
        1
 62
     0
 92
       -2
340
0
 93
        0
 40
0.045
309
GRIDFORMAT_END
 95
        4
302
GRIDFORMAT
  1
GRIDFORMAT_BEGIN
 90
        0
 91
        1
 62
     0
 92
       -2
340
0
 93
        0
 40
0.045
309
GRIDFORMAT_END
 95
        8
302
GRIDFORMAT
  1
GRIDFORMAT_BEGIN
 90
        0
 91
        1
 62
     0
 92
       -2
340
0
 93
        0
 40
0.045
309
GRIDFORMAT_END
 95
       16
302
GRIDFORMAT
  1
GRIDFORMAT_BEGIN
 90
        0
 91
        1
 62
     0
 92
       -2
340
0
 93
        0
 40
0.045
309
GRIDFORMAT_END
 95
       32
302
GRIDFORMAT
  1
GRIDFORMAT_BEGIN
 90
        0
 91
        1
 62
     0
 92
       -2
340
0
 93
        0
 40
0.045
309
GRIDFORMAT_END
309
TABLEFORMAT_END
  1
CELLSTYLE_BEGIN
 90
        1
 91
        1
300
_TITLE
309
CELLSTYLE_END
300
CELLSTYLE
  1
TABLEFORMAT_BEGIN
 90
        5
170
     1
 91
        0
 92
        0
 62
   257
 93
        1
300
CONTENTFORMAT
  1
CONTENTFORMAT_BEGIN
 90
        0
 91
        0
 92
        4
 93
        0
300

 40
0.0
140
1.0
 94
        1
 62
     0
340
11
144
0.18
309
CONTENTFORMAT_END
171
     1
301
MARGIN
  1
CELLMARGIN_BEGIN
 40
0.06
 40
0.06
 40
0.06
 40
0.06
 40
0.18
 40
0.18
309
CELLMARGIN_END
 94
        6
 95
        1
302
GRIDFORMAT
  1
GRIDFORMAT_BEGIN
 90
        0
 91
        1
 62
     0
 92
       -2
340
0
 93
        0
 40
0.045
309
GRIDFORMAT_END
 95
        2
302
GRIDFORMAT
  1
GRIDFORMAT_BEGIN
 90
        0
 91
        1
 62
     0
 92
       -2
340
0
 93
        0
 40
0.045
309
GRIDFORMAT_END
 95
        4
302
GRIDFORMAT
  1
GRIDFORMAT_BEGIN
 90
        0
 91
        1
 62
     0
 92
       -2
340
0
 93
        0
 40
0.045
309
GRIDFORMAT_END
 95
        8
302
GRIDFORMAT
  1
GRIDFORMAT_BEGIN
 90
        0
 91
        1
 62
     0
 92
       -2
340
0
 93
        0
 40
0.045
309
GRIDFORMAT_END
 95
       16
302
GRIDFORMAT
  1
GRIDFORMAT_BEGIN
 90
        0
 91
        1
 62
     0
 92
       -2
340
0
 93
        0
 40
0.045
309
GRIDFORMAT_END
 95
       32
302
GRIDFORMAT
  1
GRIDFORMAT_BEGIN
 90
        0
 91
        1
 62
     0
 92
       -2
340
0
 93
        0
 40
0.045
309
GRIDFORMAT_END
309
TABLEFORMAT_END
  1
CELLSTYLE_BEGIN
 90
        2
 91
        1
300
_HEADER
309
CELLSTYLE_END
300
CELLSTYLE
  1
TABLEFORMAT_BEGIN
 90
        5
170
     1
 91
        0
 92
        0
 62
   257
 93
        1
300
CONTENTFORMAT
  1
CONTENTFORMAT_BEGIN
 90
        0
 91
        0
 92
        4
 93
        0
300

 40
0.0
140
1.0
 94
        1
 62
     0
340
11
144
0.18
309
CONTENTFORMAT_END
171
     1
301
MARGIN
  1
CELLMARGIN_BEGIN
 40
0.06
 40
0.06
 40
0.06
 40
0.06
 40
0.18
 40
0.18
309
CELLMARGIN_END
 94
        6
 95
        1
302
GRIDFORMAT
  1
GRIDFORMAT_BEGIN
 90
        0
 91
        1
 62
     0
 92
       -2
340
0
 93
        0
 40
0.045
309
GRIDFORMAT_END
 95
        2
302
GRIDFORMAT
  1
GRIDFORMAT_BEGIN
 90
        0
 91
        1
 62
     0
 92
       -2
340
0
 93
        0
 40
0.045
309
GRIDFORMAT_END
 95
        4
302
GRIDFORMAT
  1
GRIDFORMAT_BEGIN
 90
        0
 91
        1
 62
     0
 92
       -2
340
0
 93
        0
 40
0.045
309
GRIDFORMAT_END
 95
        8
302
GRIDFORMAT
  1
GRIDFORMAT_BEGIN
 90
        0
 91
        1
 62
     0
 92
       -2
340
0
 93
        0
 40
0.045
309
GRIDFORMAT_END
 95
       16
302
GRIDFORMAT
  1
GRIDFORMAT_BEGIN
 90
        0
 91
        1
 62
     0
 92
       -2
340
0
 93
        0
 40
0.045
309
GRIDFORMAT_END
 95
       32
302
GRIDFORMAT
  1
GRIDFORMAT_BEGIN
 90
        0
 91
        1
 62
     0
 92
       -2
340
0
 93
        0
 40
0.045
309
GRIDFORMAT_END
309
TABLEFORMAT_END
  1
CELLSTYLE_BEGIN
 90
        3
 91
        2
300
_DATA
309
CELLSTYLE_END
  0
CELLSTYLEMAP
  5
3AE
102
{ACAD_REACTORS
330
3AD
102
}
330
3AD
100
AcDbCellStyleMap
 90
        3
300
CELLSTYLE
  1
TABLEFORMAT_BEGIN
 90
        5
170
     1
 91
        0
 92
    32768
 62
   257
 93
        1
300
CONTENTFORMAT
  1
CONTENTFORMAT_BEGIN
 90
        0
 91
        0
 92
        4
 93
        0
300

 40
0.0
140
1.0
 94
        1
 62
     0
340
11
144
0.18
309
CONTENTFORMAT_END
171
     1
301
MARGIN
  1
CELLMARGIN_BEGIN
 40
0.06
 40
0.06
 40
0.06
 40
0.06
 40
0.18
 40
0.18
309
CELLMARGIN_END
 94
        6
 95
        1
302
GRIDFORMAT
  1
GRIDFORMAT_BEGIN
 90
        0
 91
        1
 62
     0
 92
       -2
340
0
 93
        0
 40
0.045
309
GRIDFORMAT_END
 95
        2
302
GRIDFORMAT
  1
GRIDFORMAT_BEGIN
 90
        0
 91
        1
 62
     0
 92
       -2
340
0
 93
        0
 40
0.045
309
GRIDFORMAT_END
 95
        4
302
GRIDFORMAT
  1
GRIDFORMAT_BEGIN
 90
        0
 91
        1
 62
     0
 92
       -2
340
0
 93
        0
 40
0.045
309
GRIDFORMAT_END
 95
        8
302
GRIDFORMAT
  1
GRIDFORMAT_BEGIN
 90
        0
 91
        1
 62
     0
 92
       -2
340
0
 93
        0
 40
0.045
309
GRIDFORMAT_END
 95
       16
302
GRIDFORMAT
  1
GRIDFORMAT_BEGIN
 90
        0
 91
        1
 62
     0
 92
       -2
340
0
 93
        0
 40
0.045
309
GRIDFORMAT_END
 95
       32
302
GRIDFORMAT
  1
GRIDFORMAT_BEGIN
 90
        0
 91
        1
 62
     0
 92
       -2
340
0
 93
        0
 40
0.045
309
GRIDFORMAT_END
309
TABLEFORMAT_END
  1
CELLSTYLE_BEGIN
 90
        1
 91
        1
300
_TITLE
309
CELLSTYLE_END
300
CELLSTYLE
  1
TABLEFORMAT_BEGIN
 90
        5
170
     1
 91
        0
 92
        0
 62
   257
 93
        1
300
CONTENTFORMAT
  1
CONTENTFORMAT_BEGIN
 90
        0
 91
        0
 92
        4
 93
        0
300

 40
0.0
140
1.0
 94
        1
 62
     0
340
11
144
0.18
309
CONTENTFORMAT_END
171
     1
301
MARGIN
  1
CELLMARGIN_BEGIN
 40
0.06
 40
0.06
 40
0.06
 40
0.06
 40
0.18
 40
0.18
309
CELLMARGIN_END
 94
        6
 95
        1
302
GRIDFORMAT
  1
GRIDFORMAT_BEGIN
 90
        0
 91
        1
 62
     0
 92
       -2
340
0
 93
        0
 40
0.045
309
GRIDFORMAT_END
 95
        2
302
GRIDFORMAT
  1
GRIDFORMAT_BEGIN
 90
        0
 91
        1
 62
     0
 92
       -2
340
0
 93
        0
 40
0.045
309
GRIDFORMAT_END
 95
        4
302
GRIDFORMAT
  1
GRIDFORMAT_BEGIN
 90
        0
 91
        1
 62
     0
 92
       -2
340
0
 93
        0
 40
0.045
309
GRIDFORMAT_END
 95
        8
302
GRIDFORMAT
  1
GRIDFORMAT_BEGIN
 90
        0
 91
        1
 62
     0
 92
       -2
340
0
 93
        0
 40
0.045
309
GRIDFORMAT_END
 95
       16
302
GRIDFORMAT
  1
GRIDFORMAT_BEGIN
 90
        0
 91
        1
 62
     0
 92
       -2
340
0
 93
        0
 40
0.045
309
GRIDFORMAT_END
 95
       32
302
GRIDFORMAT
  1
GRIDFORMAT_BEGIN
 90
        0
 91
        1
 62
     0
 92
       -2
340
0
 93
        0
 40
0.045
309
GRIDFORMAT_END
309
TABLEFORMAT_END
  1
CELLSTYLE_BEGIN
 90
        2
 91
        1
300
_HEADER
309
CELLSTYLE_END
300
CELLSTYLE
  1
TABLEFORMAT_BEGIN
 90
        5
170
     1
 91
        0
 92
        0
 62
   257
 93
        1
300
CONTENTFORMAT
  1
CONTENTFORMAT_BEGIN
 90
        0
 91
        0
 92
        4
 93
        0
300

 40
0.0
140
1.0
 94
        1
 62
     0
340
11
144
0.18
309
CONTENTFORMAT_END
171
     1
301
MARGIN
  1
CELLMARGIN_BEGIN
 40
0.06
 40
0.06
 40
0.06
 40
0.06
 40
0.18
 40
0.18
309
CELLMARGIN_END
 94
        6
 95
        1
302
GRIDFORMAT
  1
GRIDFORMAT_BEGIN
 90
        0
 91
        1
 62
     0
 92
       -2
340
0
 93
        0
 40
0.045
309
GRIDFORMAT_END
 95
        2
302
GRIDFORMAT
  1
GRIDFORMAT_BEGIN
 90
        0
 91
        1
 62
     0
 92
       -2
340
0
 93
        0
 40
0.045
309
GRIDFORMAT_END
 95
        4
302
GRIDFORMAT
  1
GRIDFORMAT_BEGIN
 90
        0
 91
        1
 62
     0
 92
       -2
340
0
 93
        0
 40
0.045
309
GRIDFORMAT_END
 95
        8
302
GRIDFORMAT
  1
GRIDFORMAT_BEGIN
 90
        0
 91
        1
 62
     0
 92
       -2
340
0
 93
        0
 40
0.045
309
GRIDFORMAT_END
 95
       16
302
GRIDFORMAT
  1
GRIDFORMAT_BEGIN
 90
        0
 91
        1
 62
     0
 92
       -2
340
0
 93
        0
 40
0.045
309
GRIDFORMAT_END
 95
       32
302
GRIDFORMAT
  1
GRIDFORMAT_BEGIN
 90
        0
 91
        1
 62
     0
 92
       -2
340
0
 93
        0
 40
0.045
309
GRIDFORMAT_END
309
TABLEFORMAT_END
  1
CELLSTYLE_BEGIN
 90
        3
 91
        2
300
_DATA
309
CELLSTYLE_END
  0
ENDSEC
  0
EOF
